  0
SECTION
  2
HEADER
  9
$ACADVER
  1
AC1021
  9
$ACADMAINTVER
 70
    26
  9
$DWGCODEPAGE
  3
ANSI_932
  9
$LASTSAVEDBY
  1
Htm_Terada
  9
$CUSTOMPROPERTYTAG
  1
AmdtFileType
  9
$CUSTOMPROPERTY
  1
84
  9
$INSBASE
 10
0.0
 20
0.0
 30
0.0
  9
$EXTMIN
 10
679.8835052156871
 20
698.3445555932055
 30
0.0
  9
$EXTMAX
 10
1495.183079142442
 20
1276.693920468205
 30
0.0
  9
$LIMMIN
 10
0.0000009571692772
 20
0.0000018469103225
  9
$LIMMAX
 10
2100.000000957169
 20
1485.00000184691
  9
$ORTHOMODE
 70
     0
  9
$REGENMODE
 70
     1
  9
$FILLMODE
 70
     1
  9
$QTEXTMODE
 70
     0
  9
$MIRRTEXT
 70
     1
  9
$LTSCALE
 40
5.0
  9
$ATTMODE
 70
     1
  9
$TEXTSIZE
 40
25.0
  9
$TRACEWID
 40
1.0
  9
$TEXTSTYLE
  7
SEISA
  9
$CLAYER
  8
AM_5 寸法線
  9
$CELTYPE
  6
ByLayer
  9
$CECOLOR
 62
   256
  9
$CELTSCALE
 40
1.0
  9
$DISPSILH
 70
     0
  9
$DIMSCALE
 40
5.0
  9
$DIMASZ
 40
2.5
  9
$DIMEXO
 40
0.625
  9
$DIMDLI
 40
10.0
  9
$DIMRND
 40
0.0
  9
$DIMDLE
 40
0.0
  9
$DIMEXE
 40
0.625
  9
$DIMTP
 40
0.1
  9
$DIMTM
 40
0.1
  9
$DIMTXT
 40
3.5
  9
$DIMCEN
 40
0.0
  9
$DIMTSZ
 40
0.0
  9
$DIMTOL
 70
     0
  9
$DIMLIM
 70
     0
  9
$DIMTIH
 70
     0
  9
$DIMTOH
 70
     0
  9
$DIMSE1
 70
     0
  9
$DIMSE2
 70
     0
  9
$DIMTAD
 70
     3
  9
$DIMZIN
 70
     8
  9
$DIMBLK
  1
Open30
  9
$DIMASO
 70
     1
  9
$DIMSHO
 70
     1
  9
$DIMPOST
  1

  9
$DIMAPOST
  1
"
  9
$DIMALT
 70
     0
  9
$DIMALTD
 70
     2
  9
$DIMALTF
 40
0.0393701
  9
$DIMLFAC
 40
1.0
  9
$DIMTOFL
 70
     1
  9
$DIMTVP
 40
0.0
  9
$DIMTIX
 70
     0
  9
$DIMSOXD
 70
     0
  9
$DIMSAH
 70
     0
  9
$DIMBLK1
  1

  9
$DIMBLK2
  1

  9
$DIMSTYLE
  2
SEISA
  9
$DIMCLRD
 70
     3
  9
$DIMCLRE
 70
     3
  9
$DIMCLRT
 70
     3
  9
$DIMTFAC
 40
0.71
  9
$DIMGAP
 40
1.5
  9
$DIMJUST
 70
     0
  9
$DIMSD1
 70
     0
  9
$DIMSD2
 70
     0
  9
$DIMTOLJ
 70
     0
  9
$DIMTZIN
 70
     0
  9
$DIMALTZ
 70
     0
  9
$DIMALTTZ
 70
     8
  9
$DIMUPT
 70
     0
  9
$DIMDEC
 70
     2
  9
$DIMTDEC
 70
     2
  9
$DIMALTU
 70
     2
  9
$DIMALTTD
 70
     2
  9
$DIMTXSTY
  7
SEISA
  9
$DIMAUNIT
 70
     0
  9
$DIMADEC
 70
     0
  9
$DIMALTRND
 40
0.0
  9
$DIMAZIN
 70
     2
  9
$DIMDSEP
 70
    46
  9
$DIMATFIT
 70
     3
  9
$DIMFRAC
 70
     0
  9
$DIMLDRBLK
  1
Open30
  9
$DIMLUNIT
 70
     2
  9
$DIMLWD
 70
    -1
  9
$DIMLWE
 70
    -1
  9
$DIMTMOVE
 70
     0
  9
$DIMFXL
 40
1.0
  9
$DIMFXLON
 70
     0
  9
$DIMJOGANG
 40
0.7853981633974483
  9
$DIMTFILL
 70
     0
  9
$DIMTFILLCLR
 70
     0
  9
$DIMARCSYM
 70
     1
  9
$DIMLTYPE
  6

  9
$DIMLTEX1
  6

  9
$DIMLTEX2
  6

  9
$LUNITS
 70
     2
  9
$LUPREC
 70
     2
  9
$SKETCHINC
 40
1.0
  9
$FILLETRAD
 40
12.5
  9
$AUNITS
 70
     0
  9
$AUPREC
 70
     0
  9
$MENU
  1
.
  9
$ELEVATION
 40
0.0
  9
$PELEVATION
 40
0.0
  9
$THICKNESS
 40
0.0
  9
$LIMCHECK
 70
     0
  9
$CHAMFERA
 40
5.000000000001363
  9
$CHAMFERB
 40
5.000000000001363
  9
$CHAMFERC
 40
5.000000000001363
  9
$CHAMFERD
 40
0.7853981633974483
  9
$SKPOLY
 70
     0
  9
$TDCREATE
 40
2454879.682813206
  9
$TDUCREATE
 40
2454879.307813206
  9
$TDUPDATE
 40
2456478.694888958
  9
$TDUUPDATE
 40
2456478.319888958
  9
$TDINDWG
 40
0.9009112269
  9
$TDUSRTIMER
 40
0.9009103241
  9
$USRTIMER
 70
     1
  9
$ANGBASE
 50
0.0
  9
$ANGDIR
 70
     0
  9
$PDMODE
 70
     0
  9
$PDSIZE
 40
0.0
  9
$PLINEWID
 40
0.0
  9
$SPLFRAME
 70
     0
  9
$SPLINETYPE
 70
     6
  9
$SPLINESEGS
 70
     8
  9
$HANDSEED
  5
8E02
  9
$SURFTAB1
 70
     6
  9
$SURFTAB2
 70
     6
  9
$SURFTYPE
 70
     6
  9
$SURFU
 70
     6
  9
$SURFV
 70
     6
  9
$UCSBASE
  2

  9
$UCSNAME
  2

  9
$UCSORG
 10
0.0
 20
0.0
 30
0.0
  9
$UCSXDIR
 10
1.0
 20
0.0
 30
0.0
  9
$UCSYDIR
 10
0.0
 20
1.0
 30
0.0
  9
$UCSORTHOREF
  2

  9
$UCSORTHOVIEW
 70
     0
  9
$UCSORGTOP
 10
0.0
 20
0.0
 30
0.0
  9
$UCSORGBOTTOM
 10
0.0
 20
0.0
 30
0.0
  9
$UCSORGLEFT
 10
0.0
 20
0.0
 30
0.0
  9
$UCSORGRIGHT
 10
0.0
 20
0.0
 30
0.0
  9
$UCSORGFRONT
 10
0.0
 20
0.0
 30
0.0
  9
$UCSORGBACK
 10
0.0
 20
0.0
 30
0.0
  9
$PUCSBASE
  2

  9
$PUCSNAME
  2

  9
$PUCSORG
 10
0.0
 20
0.0
 30
0.0
  9
$PUCSXDIR
 10
1.0
 20
0.0
 30
0.0
  9
$PUCSYDIR
 10
0.0
 20
1.0
 30
0.0
  9
$PUCSORTHOREF
  2

  9
$PUCSORTHOVIEW
 70
     0
  9
$PUCSORGTOP
 10
0.0
 20
0.0
 30
0.0
  9
$PUCSORGBOTTOM
 10
0.0
 20
0.0
 30
0.0
  9
$PUCSORGLEFT
 10
0.0
 20
0.0
 30
0.0
  9
$PUCSORGRIGHT
 10
0.0
 20
0.0
 30
0.0
  9
$PUCSORGFRONT
 10
0.0
 20
0.0
 30
0.0
  9
$PUCSORGBACK
 10
0.0
 20
0.0
 30
0.0
  9
$USERI1
 70
     0
  9
$USERI2
 70
     0
  9
$USERI3
 70
     0
  9
$USERI4
 70
     0
  9
$USERI5
 70
     0
  9
$USERR1
 40
0.0
  9
$USERR2
 40
0.0
  9
$USERR3
 40
0.0
  9
$USERR4
 40
0.0
  9
$USERR5
 40
0.0
  9
$WORLDVIEW
 70
     1
  9
$SHADEDGE
 70
     3
  9
$SHADEDIF
 70
    70
  9
$TILEMODE
 70
     1
  9
$MAXACTVP
 70
    64
  9
$PINSBASE
 10
0.0
 20
0.0
 30
0.0
  9
$PLIMCHECK
 70
     0
  9
$PEXTMIN
 10
1.000000000000000E+20
 20
1.000000000000000E+20
 30
1.000000000000000E+20
  9
$PEXTMAX
 10
-1.000000000000000E+20
 20
-1.000000000000000E+20
 30
-1.000000000000000E+20
  9
$PLIMMIN
 10
0.0
 20
0.0
  9
$PLIMMAX
 10
420.0
 20
297.0
  9
$UNITMODE
 70
     0
  9
$VISRETAIN
 70
     1
  9
$PLINEGEN
 70
     0
  9
$PSLTSCALE
 70
     1
  9
$TREEDEPTH
 70
  3020
  9
$CMLSTYLE
  2
Standard
  9
$CMLJUST
 70
     0
  9
$CMLSCALE
 40
20.0
  9
$PROXYGRAPHICS
 70
     1
  9
$MEASUREMENT
 70
     1
  9
$CELWEIGHT
370
    -1
  9
$ENDCAPS
280
     0
  9
$JOINSTYLE
280
     0
  9
$LWDISPLAY
290
     0
  9
$INSUNITS
 70
     4
  9
$HYPERLINKBASE
  1

  9
$STYLESHEET
  1
SEISA.CTB
  9
$XEDIT
290
     1
  9
$CEPSNTYPE
380
     0
  9
$PSTYLEMODE
290
     1
  9
$FINGERPRINTGUID
  2
{7072B8BC-633A-41B5-89D8-1BB780D9D4B3}
  9
$VERSIONGUID
  2
{CB3F303D-EE0E-4D3F-957A-F531380D845C}
  9
$EXTNAMES
290
     1
  9
$PSVPSCALE
 40
0.0
  9
$OLESTARTUP
290
     0
  9
$SORTENTS
280
   127
  9
$INDEXCTL
280
     0
  9
$HIDETEXT
280
     0
  9
$XCLIPFRAME
290
     0
  9
$HALOGAP
280
     0
  9
$OBSCOLOR
 70
   257
  9
$OBSLTYPE
280
     0
  9
$INTERSECTIONDISPLAY
280
     0
  9
$INTERSECTIONCOLOR
 70
   257
  9
$DIMASSOC
280
     2
  9
$PROJECTNAME
  1

  9
$CAMERADISPLAY
290
     0
  9
$LENSLENGTH
 40
50.0
  9
$CAMERAHEIGHT
 40
0.0
  9
$STEPSPERSEC
 40
2.0
  9
$STEPSIZE
 40
6.0
  9
$3DDWFPREC
 40
2.0
  9
$PSOLWIDTH
 40
0.25
  9
$PSOLHEIGHT
 40
4.0
  9
$LOFTANG1
 40
1.570796326794896
  9
$LOFTANG2
 40
1.570796326794896
  9
$LOFTMAG1
 40
0.0
  9
$LOFTMAG2
 40
0.0
  9
$LOFTPARAM
 70
     7
  9
$LOFTNORMALS
280
     1
  9
$LATITUDE
 40
37.795
  9
$LONGITUDE
 40
-122.394
  9
$NORTHDIRECTION
 40
0.0
  9
$TIMEZONE
 70
 -8000
  9
$LIGHTGLYPHDISPLAY
280
     1
  9
$TILEMODELIGHTSYNCH
280
     1
  9
$CMATERIAL
347
27C
  9
$SOLIDHIST
280
     1
  9
$SHOWHIST
280
     1
  9
$DWFFRAME
280
     2
  9
$DGNFRAME
280
     0
  9
$REALWORLDSCALE
290
     1
  9
$INTERFERECOLOR
 62
     1
  9
$INTERFEREOBJVS
345
289
  9
$INTERFEREVPVS
346
286
  9
$CSHADOW
280
     0
  9
$SHADOWPLANELOCATION
 40
0.0
  0
ENDSEC
  0
SECTION
  2
CLASSES
  0
CLASS
  1
ACDBDICTIONARYWDFLT
  2
AcDbDictionaryWithDefault
  3
ObjectDBX Classes
 90
        0
 91
        1
280
     0
281
     0
  0
CLASS
  1
AMGSETTINGSOBJ
  2
AmgSettingsObj
  3
"AcadM|Product Description: AutoCAD Mechanical|Company: Autodesk, Inc."
 90
     1024
 91
        2
280
     0
281
     0
  0
CLASS
  1
ACME_DOCUMENT
  2
AcMeDbDoc
  3
AcMeServices
 90
     1024
 91
        1
280
     0
281
     0
  0
CLASS
  1
ACMESCOPE
  2
AcMeScope
  3
AcMeServices
 90
     1024
 91
        1
280
     0
281
     0
  0
CLASS
  1
ACMECOMMANDHISTORY
  2
AcMeCommandHistory
  3
AcMeServices
 90
     1024
 91
        1
280
     0
281
     0
  0
CLASS
  1
DICTIONARYVAR
  2
AcDbDictionaryVar
  3
ObjectDBX Classes
 90
        0
 91
        9
280
     0
281
     0
  0
CLASS
  1
ACIMSYSVARMAN
  2
AcImSysVarManager
  3
AcMeServices
 90
     1024
 91
        5
280
     0
281
     0
  0
CLASS
  1
ACIMREALSYSVAR
  2
AcImRealSysVar
  3
AcMeServices
 90
     1024
 91
        1
280
     0
281
     0
  0
CLASS
  1
ACIMINTSYSVAR
  2
AcImIntSysVar
  3
AcMeServices
 90
     1024
 91
       27
280
     0
281
     0
  0
CLASS
  1
ACMEDRAWINGMAN
  2
AcMeDrawingMan
  3
AcMeServices
 90
     1024
 91
        1
280
     0
281
     0
  0
CLASS
  1
ACMEVIEW
  2
AcMeView
  3
AcMeServices
 90
     1024
 91
        1
280
     0
281
     0
  0
CLASS
  1
ACDBENTITYCACHE
  2
AcMeEntityCache
  3
AcMeServices
 90
     1024
 91
        1
280
     0
281
     0
  0
CLASS
  1
GSMANAGER
  2
AcMeGSManager
  3
AcMeServices
 90
     1024
 91
        1
280
     0
281
     0
  0
CLASS
  1
AMDTINTERNALREACTOR
  2
AmdtInternalReactor
  3
AcMeServices
 90
     1024
 91
        2
280
     0
281
     0
  0
CLASS
  1
ACMESTATEMGR
  2
AcMeStateMgr
  3
AcMeServices
 90
     1024
 91
        1
280
     0
281
     0
  0
CLASS
  1
ACGREFMASTER
  2
AcGrefMaster
  3
AcAttribServices
 90
     1024
 91
        1
280
     0
281
     0
  0
CLASS
  1
ACME_DATABASE
  2
AcMeDbDatabase
  3
AcMeServices
 90
     1024
 91
        1
280
     0
281
     0
  0
CLASS
  1
ACRFINSADJUSTERMGR
  2
AcRfInsAdjusterMgr
  3
AcMeServices
 90
     1024
 91
        1
280
     0
281
     0
  0
CLASS
  1
ACGREFACADMASTER
  2
AcGrefacadMaster
  3
AcGrefServices
 90
     1024
 91
        1
280
     0
281
     0
  0
CLASS
  1
AMIMASTER
  2
AmiMaster
  3
AmiServices
 90
     1024
 91
        1
280
     0
281
     0
  0
CLASS
  1
ACIMSTRSYSVAR
  2
AcImStrSysVar
  3
AcMeServices
 90
     1024
 91
        5
280
     0
281
     0
  0
CLASS
  1
ACMSTANDARDJIS
  2
AcmStandardJIS
  3
"Amdt_StdImp|Product Description: AutoCAD Mechanical|Company: Autodesk, Inc."
 90
     1024
 91
        0
280
     0
281
     0
  0
CLASS
  1
AMGOBJPROPCFG
  2
AmgObjPropCfg
  3
"AmgLay|Product Description: AutoCAD Mechanical|Company: Autodesk, Inc."
 90
     1025
 91
        1
280
     0
281
     0
  0
CLASS
  1
ACMSURFSTANDARDJIS
  2
AcmSurfTextStdJIS
  3
"Amdt_StdImp|Product Description: AutoCAD Mechanical|Company: Autodesk, Inc."
 90
     1024
 91
        0
280
     0
281
     0
  0
CLASS
  1
ACMFCFSTANDARDJIS
  2
AcmFCFStdJIS
  3
"Amdt_StdImp|Product Description: AutoCAD Mechanical|Company: Autodesk, Inc."
 90
     1024
 91
        0
280
     0
281
     0
  0
CLASS
  1
ACMWELDSTANDARDJIS
  2
AcmWeldingStdJIS
  3
"Amdt_StdImp|Product Description: AutoCAD Mechanical|Company: Autodesk, Inc."
 90
     1024
 91
        0
280
     0
281
     0
  0
CLASS
  1
ACMIDSTANDARDJIS
  2
AcmIdStdJIS
  3
"Amdt_StdImp|Product Description: AutoCAD Mechanical|Company: Autodesk, Inc."
 90
     1024
 91
        0
280
     0
281
     0
  0
CLASS
  1
ACMDATUMSTANDARDJIS
  2
AcmDatumStdJIS
  3
"Amdt_StdImp|Product Description: AutoCAD Mechanical|Company: Autodesk, Inc."
 90
     1024
 91
        0
280
     0
281
     0
  0
CLASS
  1
ACMBOMSTANDARDJIS
  2
AcmBOMStdJIS
  3
"Amdt_StdImp|Product Description: AutoCAD Mechanical|Company: Autodesk, Inc."
 90
     1024
 91
        0
280
     0
281
     0
  0
CLASS
  1
ACMDETAILSTANDARDJIS
  2
AmdtDetailSymStdJIS
  3
"Amdt_StdImp|Product Description: AutoCAD Mechanical|Company: Autodesk, Inc."
 90
     1024
 91
        0
280
     0
281
     0
  0
CLASS
  1
ACMSECTIONSTANDARDJIS
  2
AmdtSectionSymStdJIS
  3
"Amdt_StdImp|Product Description: AutoCAD Mechanical|Company: Autodesk, Inc."
 90
     1024
 91
        0
280
     0
281
     0
  0
CLASS
  1
ACMCENTERLINESTANDARDJIS
  2
AmdtCenterLineStdJIS
  3
"Amdt_StdImp|Product Description: AutoCAD Mechanical|Company: Autodesk, Inc."
 90
     1024
 91
        0
280
     0
281
     0
  0
CLASS
  1
ACMTHREADLINESTANDARDJIS
  2
AmdtThreadLineStdJIS
  3
"Amdt_StdImp|Product Description: AutoCAD Mechanical|Company: Autodesk, Inc."
 90
     1024
 91
        0
280
     0
281
     0
  0
CLASS
  1
ACAMGLAYSTD
  2
AcAmgLayStd
  3
"AmgLay|Product Description: AutoCAD Mechanical|Company: Autodesk, Inc."
 90
     1024
 91
        1
280
     0
281
     0
  0
CLASS
  1
ACAMGDIMSTD
  2
AcAmgDimStd
  3
"AmgDim|Product Description: AutoCAD Mechanical|Company: Autodesk, Inc."
 90
     1024
 91
        1
280
     0
281
     0
  0
CLASS
  1
ACAMGTITLESTD
  2
AcAmgTitleStd
  3
"AmgTitle|Product Description: AutoCAD Mechanical|Company: Autodesk, Inc."
 90
     4095
 91
        1
280
     0
281
     0
  0
CLASS
  1
ACMDATADICTIONARY
  2
AcmDataDictionary
  3
"AcmSymBB|Product Description: AutoCAD Mechanical|Company: Autodesk, Inc."
 90
     1024
 91
        1
280
     0
281
     0
  0
CLASS
  1
ACMDATAENTRYBLOCK
  2
AcmDataEntryBlock
  3
AcmSymBB|Product Description: AutoCAD Mechanical|Company: Autodesk, Inc.
 90
     1024
 91
        0
280
     0
281
     0
  0
CLASS
  1
LAYER_INDEX
  2
AcDbLayerIndex
  3
ObjectDBX Classes
 90
        0
 91
        0
280
     0
281
     0
  0
CLASS
  1
IDBUFFER
  2
AcDbIdBuffer
  3
ObjectDBX Classes
 90
        0
 91
        0
280
     0
281
     0
  0
CLASS
  1
ACMNOTESTANDARDJIS
  2
AmdtNoteStdJIS
  3
"Amdt_StdImp|Product Description: AutoCAD Mechanical|Company: Autodesk, Inc."
 90
     1024
 91
        0
280
     0
281
     0
  0
CLASS
  1
ACAMGHOLECHARTSTDJIS
  2
AcAmgHoleChartStdJIS
  3
AmgDim|Product Description: AutoCAD Mechanical|Company: Autodesk, Inc.
 90
     1024
 91
        0
280
     0
281
     0
  0
CLASS
  1
AM_DRAWING_MGR
  2
AcDmDwgMgr
  3
AcMechDwgViewMgmt
 90
     1024
 91
        1
280
     0
281
     0
  0
CLASS
  1
AM_DWG_DOCUMENT
  2
AcDmDwgDocument
  3
AcMechDwgViewMgmt
 90
     1024
 91
        1
280
     0
281
     0
  0
CLASS
  1
AM_DWG_SHEET
  2
AcDmSheet
  3
AcMechDwgViewMgmt
 90
     1024
 91
        2
280
     0
281
     0
  0
CLASS
  1
AM_VIEWDIMPARMAP
  2
AcDmViewDimParMap
  3
AcMechDwgViewMgmt
 90
     1024
 91
        2
280
     0
281
     0
  0
CLASS
  1
AM_DWGMGR_NAME
  2
AcDmDwgMgrName
  3
AcMechDwgViewMgmt
 90
     1024
 91
        1
280
     0
281
     0
  0
CLASS
  1
AMDTMENUSTATEMGR
  2
AmdtMenuStateMgr
  3
McadcomServices
 90
     1024
 91
        1
280
     0
281
     0
  0
CLASS
  1
AMDTMCOMMENUSTATE
  2
AmdtMcomMenuState
  3
McadcomServices
 90
     1024
 91
        1
280
     0
281
     0
  0
CLASS
  1
MAPIAMMOUDLE
  2
MApiAmModule
  3
MApiAmServices
 90
     1024
 91
        1
280
     0
281
     0
  0
CLASS
  1
AMDTADMENUSTATE
  2
AmdtAdMenuState
  3
DesignerServices
 90
     1024
 91
        1
280
     0
281
     0
  0
CLASS
  1
ADAPPL
  2
AcAdAppl
  3
DesignerServices
 90
     1024
 91
        1
280
     0
281
     0
  0
CLASS
  1
DEPMGR
  2
AcAdDepMgr
  3
DesignerServices
 90
     1024
 91
        1
280
     0
281
     0
  0
CLASS
  1
PARAMMGR
  2
AcAdParamMgr
  3
DesignerServices
 90
     1024
 91
        1
280
     0
281
     0
  0
CLASS
  1
PARAMSCOPE
  2
AcAdParamScope
  3
DesignerServices
 90
     1024
 91
        1
280
     0
281
     0
  0
CLASS
  1
NAMEDAPPL
  2
AcAdNamedAppl
  3
DesignerServices
 90
     1024
 91
        1
280
     0
281
     0
  0
CLASS
  1
AMDTDMMENUSTATE
  2
AmdtDmMenuState
  3
AcMechDwgViewMgmt
 90
     1024
 91
        1
280
     0
281
     0
  0
CLASS
  1
AMDTAMMENUSTATE
  2
AmdtAmMenuState
  3
DesignerAssemblies
 90
     1024
 91
        1
280
     0
281
     0
  0
CLASS
  1
ACAMPROJECT
  2
AcAmProject
  3
DesignerAssemblies
 90
     1024
 91
        1
280
     0
281
     0
  0
CLASS
  1
ACAMGRCOMPDEF
  2
AcAmGrCompDef
  3
DesignerAssemblies
 90
     1024
 91
        1
280
     0
281
     0
  0
CLASS
  1
ACCMCONTEXT
  2
AcCmContext
  3
DesignerAssemblies
 90
     1024
 91
        1
280
     0
281
     0
  0
CLASS
  1
ACAMCOMPDEF
  2
AcAmCompDef
  3
DesignerAssemblies
 90
     1024
 91
        1
280
     0
281
     0
  0
CLASS
  1
ACAMCOMPDEFMGR
  2
AcAmCompDefMgr
  3
DesignerAssemblies
 90
     1024
 91
        1
280
     0
281
     0
  0
CLASS
  1
AMCONTEXTMGR
  2
AcAmContextMgr
  3
DesignerAssemblies
 90
     1024
 91
        1
280
     0
281
     0
  0
CLASS
  1
ACAMCONTEXTMODELER
  2
AcAmContextModeler
  3
DesignerAssemblies
 90
     1024
 91
        1
280
     0
281
     0
  0
CLASS
  1
CATALOGSTATE
  2
AcAmCatalogState
  3
DesignerAssemblies
 90
     1024
 91
        1
280
     0
281
     0
  0
CLASS
  1
ACAMGRCOMPDEFSET
  2
AcAmGrCompDefSet
  3
DesignerAssemblies
 90
     1024
 91
        1
280
     0
281
     0
  0
CLASS
  1
AMDTBROWSERDBTAB
  2
AmdtBrowserDbTab
  3
McadcomServices
 90
     1024
 91
        1
280
     0
281
     0
  0
CLASS
  1
CBROWSERAPPOBJECT
  2
CBrowserAppObject
  3
McadcomServices
 90
     1024
 91
        3
280
     0
281
     0
  0
CLASS
  1
DM_PLACEHOLDER
  2
AcDmSelsetPlaceholder
  3
AcMechDwgViewMgmt
 90
     1024
 91
        1
280
     0
281
     0
  0
CLASS
  1
TABLESTYLE
  2
AcDbTableStyle
  3
ObjectDBX Classes
 90
     4095
 91
        1
280
     0
281
     0
  0
CLASS
  1
VAACXREFPANELOBJECT
  2
VaAcXREFPanelObject
  3
VAAC_ADDIN
 90
        0
 91
        0
280
     0
281
     0
  0
CLASS
  1
VAACIMAGEINVENTORY
  2
VaAcImageInventory
  3
VAAC_ADDIN
 90
        0
 91
        0
280
     0
281
     0
  0
CLASS
  1
AMDTNOTETEMPLATEDB
  2
AmdtNoteTemplateDB
  3
AcmSymBB|Product Description: AutoCAD Mechanical|Company: Autodesk, Inc.
 90
     1024
 91
        6
280
     0
281
     0
  0
CLASS
  1
ACAMGFILTERDAT
  2
AcAmgFilterDat
  3
"AcadM|Product Description: AutoCAD Mechanical|Company: Autodesk, Inc."
 90
     1024
 91
        0
280
     0
281
     0
  0
CLASS
  1
MATERIAL
  2
AcDbMaterial
  3
ObjectDBX Classes
 90
     1153
 91
        3
280
     0
281
     0
  0
CLASS
  1
VISUALSTYLE
  2
AcDbVisualStyle
  3
ObjectDBX Classes
 90
     4095
 91
       16
280
     0
281
     0
  0
CLASS
  1
ACRFATTGENMGR
  2
AcRfAttGeneralMgr
  3
AcAttribServices
 90
     1024
 91
        0
280
     0
281
     0
  0
CLASS
  1
ACRFOBJATTMGR
  2
AcRfObjAttGroupMgr
  3
AcAttribServices
 90
     1024
 91
        0
280
     0
281
     0
  0
CLASS
  1
ACRFMCADAPIATTHOLDER
  2
AcRfMCADAPIAttHolder
  3
AcAttribServices
 90
     1024
 91
        0
280
     0
281
     0
  0
CLASS
  1
AMDTSYSATTR
  2
AmdtSystemAttribute
  3
AcAttribServices
 90
     1024
 91
        0
280
     0
281
     0
  0
CLASS
  1
ACMTAPERSTANDARDJIS
  2
AcmTaperStdJIS
  3
"Amdt_StdImp|Product Description: AutoCAD Mechanical|Company: Autodesk, Inc."
 90
     1024
 91
        0
280
     0
281
     0
  0
CLASS
  1
CAMSSTRUCTBTNSTATE
  2
StructBtnState
  3
DesignerAssemblies
 90
     1024
 91
        0
280
     0
281
     0
  0
CLASS
  1
SCALE
  2
AcDbScale
  3
ObjectDBX Classes
 90
     1153
 91
       36
280
     0
281
     0
  0
CLASS
  1
MLEADERSTYLE
  2
AcDbMLeaderStyle
  3
ACDB_MLEADERSTYLE_CLASS
 90
     4095
 91
        1
280
     0
281
     0
  0
CLASS
  1
ACMANOOTATIONVIEWSTANDARDJIS
  2
AmdtAnViewStdJIS
  3
"Amdt_StdImp|Product Description: AutoCAD Mechanical|Company: Autodesk, Inc."
 90
     1024
 91
        0
280
     0
281
     0
  0
CLASS
  1
ACMSURFSTANDARDJIS2003
  2
AcmSurfTextStdJIS2003
  3
"Amdt_StdImp|Product Description: AutoCAD Mechanical|Company: Autodesk, Inc."
 90
     1024
 91
        0
280
     0
281
     0
  0
CLASS
  1
CELLSTYLEMAP
  2
AcDbCellStyleMap
  3
ObjectDBX Classes
 90
     1152
 91
        2
280
     0
281
     0
  0
CLASS
  1
ACMFCFSTANDARDJIS98
  2
AcmFCFStdJIS98
  3
"Amdt_StdImp|Product Description: AutoCAD Mechanical|Company: Autodesk, Inc."
 90
     1024
 91
        0
280
     0
281
     0
  0
CLASS
  1
SORTENTSTABLE
  2
AcDbSortentsTable
  3
ObjectDBX Classes
 90
        0
 91
       10
280
     0
281
     0
  0
CLASS
  1
DIMASSOC
  2
AcDbDimAssoc
  3
"AcDbDimAssoc|Product Desc:     AcDim ARX App For Dimension|Company:          Autodesk, Inc.|WEB Address:      www.autodesk.com"
 90
        0
 91
        4
280
     0
281
     0
  0
CLASS
  1
STDPART2D
  2
AmgStdPart
  3
AmgStdPart|Product Description: AutoCAD Mechanical|Company: Autodesk, Inc.
 90
     4095
 91
        0
280
     0
281
     1
  0
CLASS
  1
ACMDATAENTRYPART
  2
AcmDataEntryPart
  3
AcmSymBB|Product Description: AutoCAD Mechanical|Company: Autodesk, Inc.
 90
     1024
 91
        0
280
     0
281
     0
  0
CLASS
  1
ACMPARTREF
  2
AcmPartRef
  3
"AcmSymBB|Product Description: AutoCAD Mechanical|Company: Autodesk, Inc."
 90
     4095
 91
        0
280
     0
281
     1
  0
CLASS
  1
ACDBSTDPARTRES_LINE
  2
AcDbStdPartRes_Line
  3
AmgStdPart|Product Description: AutoCAD Mechanical|Company: Autodesk, Inc.
 90
     1024
 91
        0
280
     0
281
     0
  0
CLASS
  1
ACMBOM
  2
AcmBom
  3
"AcmSymBB|Product Description: AutoCAD Mechanical|Company: Autodesk, Inc."
 90
     1024
 91
        0
280
     0
281
     0
  0
CLASS
  1
AMDTFORMULAUPDATEDISPATCHER
  2
AmdtFormulaUpdateDispatcher
  3
AcMeServices
 90
     1024
 91
        0
280
     0
281
     0
  0
CLASS
  1
ACMBOMROW
  2
AcmBomRow
  3
"AcmSymBB|Product Description: AutoCAD Mechanical|Company: Autodesk, Inc."
 90
     1024
 91
        0
280
     0
281
     0
  0
CLASS
  1
ACMPARTLIST
  2
AcmPartList
  3
"AcmSymBB|Product Description: AutoCAD Mechanical|Company: Autodesk, Inc."
 90
     4095
 91
        0
280
     0
281
     1
  0
CLASS
  1
ACDBLINERES
  2
AcDbLineRes
  3
AcGrefServices
 90
     1024
 91
        0
280
     0
281
     0
  0
CLASS
  1
ACRFINSADJ
  2
AcRfInsAdjuster
  3
AcMeServices
 90
     1024
 91
        0
280
     0
281
     0
  0
CLASS
  1
ACMSTANDARDISO
  2
AcmStandardISO
  3
"Amdt_StdImp|Product Description: AutoCAD Mechanical|Company: Autodesk, Inc."
 90
     1024
 91
        1
280
     0
281
     0
  0
CLASS
  1
AMDTEDGESTANDARDISO13715
  2
AmdtEdgeStdISO13715
  3
"Amdt_StdImp|Product Description: AutoCAD Mechanical|Company: Autodesk, Inc."
 90
     1024
 91
        1
280
     0
281
     0
  0
CLASS
  1
ACMSURFSTANDARDISO2002
  2
AcmSurfTextStdISO2002
  3
"Amdt_StdImp|Product Description: AutoCAD Mechanical|Company: Autodesk, Inc."
 90
     1024
 91
        1
280
     0
281
     0
  0
CLASS
  1
ACMFCFSTANDARDISO
  2
AcmFCFStdISO
  3
"Amdt_StdImp|Product Description: AutoCAD Mechanical|Company: Autodesk, Inc."
 90
     1024
 91
        1
280
     0
281
     0
  0
CLASS
  1
ACMWELDSTANDARDISO
  2
AcmWeldingStdISO
  3
"Amdt_StdImp|Product Description: AutoCAD Mechanical|Company: Autodesk, Inc."
 90
     1024
 91
        1
280
     0
281
     0
  0
CLASS
  1
ACMIDSTANDARDISO
  2
AcmIdStdISO
  3
"Amdt_StdImp|Product Description: AutoCAD Mechanical|Company: Autodesk, Inc."
 90
     1024
 91
        1
280
     0
281
     0
  0
CLASS
  1
ACMDATUMSTANDARDISO
  2
AcmDatumStdISO
  3
"Amdt_StdImp|Product Description: AutoCAD Mechanical|Company: Autodesk, Inc."
 90
     1024
 91
        1
280
     0
281
     0
  0
CLASS
  1
ACMBOMSTANDARDISO
  2
AcmBOMStdISO
  3
"Amdt_StdImp|Product Description: AutoCAD Mechanical|Company: Autodesk, Inc."
 90
     1024
 91
        1
280
     0
281
     0
  0
CLASS
  1
ACMDETAILSTANDARDISO
  2
AmdtDetailSymStdISO
  3
"Amdt_StdImp|Product Description: AutoCAD Mechanical|Company: Autodesk, Inc."
 90
     1024
 91
        1
280
     0
281
     0
  0
CLASS
  1
ACMSECTIONSTANDARDISO2001
  2
AmdtSectionSymStdISO2001
  3
"Amdt_StdImp|Product Description: AutoCAD Mechanical|Company: Autodesk, Inc."
 90
     1024
 91
        1
280
     0
281
     0
  0
CLASS
  1
ACMCENTERLINESTANDARDISO
  2
AmdtCenterLineStdISO
  3
"Amdt_StdImp|Product Description: AutoCAD Mechanical|Company: Autodesk, Inc."
 90
     1024
 91
        1
280
     0
281
     0
  0
CLASS
  1
ACMTHREADLINESTANDARDISO
  2
AmdtThreadLineStdISO
  3
"Amdt_StdImp|Product Description: AutoCAD Mechanical|Company: Autodesk, Inc."
 90
     1024
 91
        1
280
     0
281
     0
  0
CLASS
  1
ACMNOTESTANDARDISO
  2
AmdtNoteStdISO
  3
"Amdt_StdImp|Product Description: AutoCAD Mechanical|Company: Autodesk, Inc."
 90
     1024
 91
        1
280
     0
281
     0
  0
CLASS
  1
ACMTAPERSTANDARDISO
  2
AcmTaperStdISO
  3
"Amdt_StdImp|Product Description: AutoCAD Mechanical|Company: Autodesk, Inc."
 90
     1024
 91
        1
280
     0
281
     0
  0
CLASS
  1
ACMANOOTATIONVIEWSTANDARDISO
  2
AmdtAnViewStdISO
  3
"Amdt_StdImp|Product Description: AutoCAD Mechanical|Company: Autodesk, Inc."
 90
     1024
 91
        1
280
     0
281
     0
  0
CLASS
  1
ACAMGHOLECHARTSTDISO
  2
AcAmgHoleChartStdISO
  3
AmgDim|Product Description: AutoCAD Mechanical|Company: Autodesk, Inc.
 90
     1024
 91
        1
280
     0
281
     0
  0
CLASS
  1
EXACXREFPANELOBJECT
  2
ExAcXREFPanelObject
  3
EXAC_ESW
 90
     1025
 91
        0
280
     0
281
     0
  0
CLASS
  1
NPOCOLLECTION
  2
AcDbImpNonPersistentObjectsCollection
  3
ObjectDBX Classes
 90
     1153
 91
        0
280
     0
281
     0
  0
CLASS
  1
ACDBSTDPARTRES_ARC
  2
AcDbStdPartRes_Arc
  3
AmgStdPart|Product Description: AutoCAD Mechanical|Company: Autodesk, Inc.
 90
     1024
 91
        0
280
     0
281
     0
  0
CLASS
  1
AMDTNOTE
  2
AmdtNote
  3
"AcmSymBB|Product Description: AutoCAD Mechanical|Company: Autodesk, Inc."
 90
     4095
 91
        0
280
     0
281
     1
  0
CLASS
  1
PLOTSETTINGS
  2
AcDbPlotSettings
  3
ObjectDBX Classes
 90
        0
 91
        1
280
     0
281
     0
  0
CLASS
  1
ACMSTANDARDANSI
  2
AcmStandardANSI
  3
"Amdt_StdImp|Product Description: AutoCAD Mechanical|Company: Autodesk, Inc."
 90
     1024
 91
        0
280
     0
281
     0
  0
CLASS
  1
ACMSURFSTANDARDANSI
  2
AcmSurfTextStdANSI
  3
"Amdt_StdImp|Product Description: AutoCAD Mechanical|Company: Autodesk, Inc."
 90
     1024
 91
        0
280
     0
281
     0
  0
CLASS
  1
ACMFCFSTANDARDANSI
  2
AcmFCFStdANSI
  3
"Amdt_StdImp|Product Description: AutoCAD Mechanical|Company: Autodesk, Inc."
 90
     1024
 91
        0
280
     0
281
     0
  0
CLASS
  1
ACMWELDSTANDARDANSI
  2
AcmWeldingStdANSI
  3
"Amdt_StdImp|Product Description: AutoCAD Mechanical|Company: Autodesk, Inc."
 90
     1024
 91
        0
280
     0
281
     0
  0
CLASS
  1
ACMIDSTANDARDANSI
  2
AcmIdStdANSI
  3
"Amdt_StdImp|Product Description: AutoCAD Mechanical|Company: Autodesk, Inc."
 90
     1024
 91
        0
280
     0
281
     0
  0
CLASS
  1
ACMDATUMSTANDARDANSI
  2
AcmDatumStdANSI
  3
"Amdt_StdImp|Product Description: AutoCAD Mechanical|Company: Autodesk, Inc."
 90
     1024
 91
        0
280
     0
281
     0
  0
CLASS
  1
ACMBOMSTANDARDANSI
  2
AcmBOMStdANSI
  3
"Amdt_StdImp|Product Description: AutoCAD Mechanical|Company: Autodesk, Inc."
 90
     1024
 91
        0
280
     0
281
     0
  0
CLASS
  1
ACMDETAILSTANDARDANSI
  2
AmdtDetailSymStdANSI
  3
"Amdt_StdImp|Product Description: AutoCAD Mechanical|Company: Autodesk, Inc."
 90
     1024
 91
        0
280
     0
281
     0
  0
CLASS
  1
ACMSECTIONSTANDARDANSI
  2
AmdtSectionSymStdANSI
  3
"Amdt_StdImp|Product Description: AutoCAD Mechanical|Company: Autodesk, Inc."
 90
     1024
 91
        0
280
     0
281
     0
  0
CLASS
  1
ACMCENTERLINESTANDARDANSI
  2
AmdtCenterLineStdANSI
  3
"Amdt_StdImp|Product Description: AutoCAD Mechanical|Company: Autodesk, Inc."
 90
     1024
 91
        0
280
     0
281
     0
  0
CLASS
  1
ACMTHREADLINESTANDARDANSI
  2
AmdtThreadLineStdANSI
  3
"Amdt_StdImp|Product Description: AutoCAD Mechanical|Company: Autodesk, Inc."
 90
     1024
 91
        0
280
     0
281
     0
  0
CLASS
  1
ACMNOTESTANDARDANSI
  2
AmdtNoteStdANSI
  3
"Amdt_StdImp|Product Description: AutoCAD Mechanical|Company: Autodesk, Inc."
 90
     1024
 91
        0
280
     0
281
     0
  0
CLASS
  1
ACMTAPERSTANDARDANSI
  2
AcmTaperStdANSI
  3
"Amdt_StdImp|Product Description: AutoCAD Mechanical|Company: Autodesk, Inc."
 90
     1024
 91
        0
280
     0
281
     0
  0
CLASS
  1
ACMANOOTATIONVIEWSTANDARDANSI
  2
AmdtAnViewStdANSI
  3
"Amdt_StdImp|Product Description: AutoCAD Mechanical|Company: Autodesk, Inc."
 90
     1024
 91
        0
280
     0
281
     0
  0
CLASS
  1
ACAMGHOLECHARTSTDANSI
  2
AcAmgHoleChartStdANSI
  3
AmgDim|Product Description: AutoCAD Mechanical|Company: Autodesk, Inc.
 90
     1024
 91
        0
280
     0
281
     0
  0
CLASS
  1
ACMSTANDARDBSI
  2
AcmStandardBSI
  3
"Amdt_StdImp|Product Description: AutoCAD Mechanical|Company: Autodesk, Inc."
 90
     1024
 91
        0
280
     0
281
     0
  0
CLASS
  1
ACMSURFSTANDARDBSI2002
  2
AcmSurfTextStdBSI2002
  3
"Amdt_StdImp|Product Description: AutoCAD Mechanical|Company: Autodesk, Inc."
 90
     1024
 91
        0
280
     0
281
     0
  0
CLASS
  1
ACMFCFSTANDARDBSI
  2
AcmFCFStdBSI
  3
"Amdt_StdImp|Product Description: AutoCAD Mechanical|Company: Autodesk, Inc."
 90
     1024
 91
        0
280
     0
281
     0
  0
CLASS
  1
ACMWELDSTANDARDBSI
  2
AcmWeldingStdBSI
  3
"Amdt_StdImp|Product Description: AutoCAD Mechanical|Company: Autodesk, Inc."
 90
     1024
 91
        0
280
     0
281
     0
  0
CLASS
  1
ACMIDSTANDARDBSI
  2
AcmIdStdBSI
  3
"Amdt_StdImp|Product Description: AutoCAD Mechanical|Company: Autodesk, Inc."
 90
     1024
 91
        0
280
     0
281
     0
  0
CLASS
  1
ACMDATUMSTANDARDBSI
  2
AcmDatumStdBSI
  3
"Amdt_StdImp|Product Description: AutoCAD Mechanical|Company: Autodesk, Inc."
 90
     1024
 91
        0
280
     0
281
     0
  0
CLASS
  1
ACMBOMSTANDARDBSI
  2
AcmBOMStdBSI
  3
"Amdt_StdImp|Product Description: AutoCAD Mechanical|Company: Autodesk, Inc."
 90
     1024
 91
        0
280
     0
281
     0
  0
CLASS
  1
ACMDETAILSTANDARDBSI
  2
AmdtDetailSymStdBSI
  3
"Amdt_StdImp|Product Description: AutoCAD Mechanical|Company: Autodesk, Inc."
 90
     1024
 91
        0
280
     0
281
     0
  0
CLASS
  1
ACMSECTIONSTANDARDBSI2001
  2
AmdtSectionSymStdBSI2001
  3
"Amdt_StdImp|Product Description: AutoCAD Mechanical|Company: Autodesk, Inc."
 90
     1024
 91
        0
280
     0
281
     0
  0
CLASS
  1
ACMCENTERLINESTANDARDBSI
  2
AmdtCenterLineStdBSI
  3
"Amdt_StdImp|Product Description: AutoCAD Mechanical|Company: Autodesk, Inc."
 90
     1024
 91
        0
280
     0
281
     0
  0
CLASS
  1
ACMTHREADLINESTANDARDBSI
  2
AmdtThreadLineStdBSI
  3
"Amdt_StdImp|Product Description: AutoCAD Mechanical|Company: Autodesk, Inc."
 90
     1024
 91
        0
280
     0
281
     0
  0
CLASS
  1
ACMNOTESTANDARDBSI
  2
AmdtNoteStdBSI
  3
"Amdt_StdImp|Product Description: AutoCAD Mechanical|Company: Autodesk, Inc."
 90
     1024
 91
        0
280
     0
281
     0
  0
CLASS
  1
ACMTAPERSTANDARDBSI
  2
AcmTaperStdBSI
  3
"Amdt_StdImp|Product Description: AutoCAD Mechanical|Company: Autodesk, Inc."
 90
     1024
 91
        0
280
     0
281
     0
  0
CLASS
  1
ACMANOOTATIONVIEWSTANDARDBSI
  2
AmdtAnViewStdBSI
  3
"Amdt_StdImp|Product Description: AutoCAD Mechanical|Company: Autodesk, Inc."
 90
     1024
 91
        0
280
     0
281
     0
  0
CLASS
  1
ACAMGHOLECHARTSTDBSI
  2
AcAmgHoleChartStdBSI
  3
AmgDim|Product Description: AutoCAD Mechanical|Company: Autodesk, Inc.
 90
     1024
 91
        0
280
     0
281
     0
  0
CLASS
  1
AMDTEDGESTANDARDJIS
  2
AmdtEdgeStdJIS
  3
"Amdt_StdImp|Product Description: AutoCAD Mechanical|Company: Autodesk, Inc."
 90
     1024
 91
        0
280
     0
281
     0
  0
CLASS
  1
ACMSURFSYM
  2
AcmSurfaceTexture
  3
"AcmSymBB|Product Description: AutoCAD Mechanical|Company: Autodesk, Inc."
 90
     4095
 91
        0
280
     0
281
     1
  0
CLASS
  1
ACDBDIMENSIONRES
  2
AcDbDimensionRes
  3
AcmSymBB|Product Description: AutoCAD Mechanical|Company: Autodesk, Inc.
 90
     1024
 91
        0
280
     0
281
     0
  0
CLASS
  1
ACDBCIRCARCRES
  2
AcDbCircArcRes
  3
AcGrefServices
 90
     1024
 91
        0
280
     0
281
     0
  0
CLASS
  1
AMDTACMWBLOCKBOMENTITY
  2
AmdtAcmWblockBomEntity
  3
"AcmSymBB|Product Description: AutoCAD Mechanical|Company: Autodesk, Inc."
 90
     4095
 91
        0
280
     0
281
     1
  0
CLASS
  1
ACDBOPPOLYLINERES
  2
AcDbOpPolylineRes
  3
AcGrefServices
 90
     1024
 91
        0
280
     0
281
     0
  0
CLASS
  1
ACDB_BLKREFOBJECTCONTEXTDATA_CLASS
  2
AcDbBlkRefObjectContextData
  3
ObjectDBX Classes
 90
     1153
 91
        0
280
     0
281
     0
  0
CLASS
  1
ACMBALLOON
  2
AcmBalloon
  3
"AcmSymBB|Product Description: AutoCAD Mechanical|Company: Autodesk, Inc."
 90
     4095
 91
        0
280
     0
281
     1
  0
CLASS
  1
ACMPICKOBJ
  2
AcmPickEnt
  3
"AcmSymBB|Product Description: AutoCAD Mechanical|Company: Autodesk, Inc."
 90
     1024
 91
        0
280
     0
281
     1
  0
ENDSEC
  0
SECTION
  2
TABLES
  0
TABLE
  2
VPORT
  5
8
330
0
100
AcDbSymbolTable
 70
     1
  0
VPORT
  5
27A
330
8
100
AcDbSymbolTableRecord
100
AcDbViewportTableRecord
  2
*Active
 70
     0
 10
0.0
 20
0.0
 11
1.0
 21
1.0
 12
1401.195569798056
 22
985.1188249106966
 13
0.0
 23
0.0
 14
12.5
 24
12.5
 15
50.0
 25
50.0
 16
0.0
 26
0.0
 36
1.0
 17
0.0
 27
0.0
 37
0.0
 40
1020.927339275998
 41
1.285714285714285
 42
50.0
 43
0.0
 44
0.0
 50
0.0
 51
0.0
 71
    16
 72
 20000
 73
     1
 74
     3
 75
     0
 76
     0
 77
     0
 78
     0
281
     0
 65
     0
110
0.0
120
0.0
130
0.0
111
1.0
121
0.0
131
0.0
112
0.0
122
1.0
132
0.0
 79
     0
146
0.0
348
285
 60
     3
 61
     5
292
     1
282
     0
141
0.0
142
0.0
 63
   250
421
  3355443
  0
ENDTAB
  0
TABLE
  2
LTYPE
  5
5
330
0
100
AcDbSymbolTable
 70
    22
  0
LTYPE
  5
14
330
5
100
AcDbSymbolTableRecord
100
AcDbLinetypeTableRecord
  2
ByBlock
 70
     0
  3

 72
    65
 73
     0
 40
0.0
  0
LTYPE
  5
15
330
5
100
AcDbSymbolTableRecord
100
AcDbLinetypeTableRecord
  2
ByLayer
 70
     0
  3

 72
    65
 73
     0
 40
0.0
  0
LTYPE
  5
16
330
5
100
AcDbSymbolTableRecord
100
AcDbLinetypeTableRecord
  2
Continuous
 70
     0
  3
Solid line
 72
    65
 73
     0
 40
0.0
  0
LTYPE
  5
4D
330
5
100
AcDbSymbolTableRecord
100
AcDbLinetypeTableRecord
  2
AM_ISO02W050
 70
     0
  3
__ __ __ __ __ __ __ __ __ __ __ __ __ __ __
 72
    65
 73
     2
 40
7.5
 49
6.0
 74
     0
 49
-1.5
 74
     0
  0
LTYPE
  5
4E
330
5
100
AcDbSymbolTableRecord
100
AcDbLinetypeTableRecord
  2
AM_ISO08W050
 70
     0
  3
____ . ____ . ____ . ____ . ____ . ____ . ____
 72
    65
 73
     4
 40
18.0
 49
12.0
 74
     0
 49
-1.5
 74
     0
 49
3.0
 74
     0
 49
-1.5
 74
     0
  0
LTYPE
  5
4F
330
5
100
AcDbSymbolTableRecord
100
AcDbLinetypeTableRecord
  2
AM_ISO09W050
 70
     0
  3
_____ . . _____ . . _____ . . ____ .. ____
 72
    65
 73
     6
 40
22.5
 49
12.0
 74
     0
 49
-1.5
 74
     0
 49
3.0
 74
     0
 49
-1.5
 74
     0
 49
3.0
 74
     0
 49
-1.5
 74
     0
  0
LTYPE
  5
50
330
5
100
AcDbSymbolTableRecord
100
AcDbLinetypeTableRecord
  2
Amconstr
 70
     0
  3
_______________________
 72
    65
 73
     2
 40
9999.0
 49
9999.0
 74
     0
 49
0.0
 74
     0
  0
LTYPE
  5
51
330
5
100
AcDbSymbolTableRecord
100
AcDbLinetypeTableRecord
  2
AM_ISO08W050x2
 70
     0
  3
__ . __ . __ . __ . __ . __
 72
    65
 73
     4
 40
9.0
 49
6.0
 74
     0
 49
-0.75
 74
     0
 49
1.5
 74
     0
 49
-0.75
 74
     0
  0
LTYPE
  5
52
330
5
100
AcDbSymbolTableRecord
100
AcDbLinetypeTableRecord
  2
AM_ISO02W050x2
 70
     0
  3
 _ _ _ _ _ _ _ _ _ _ _ _
 72
    65
 73
     2
 40
3.75
 49
3.0
 74
     0
 49
-0.75
 74
     0
  0
LTYPE
  5
55
330
5
100
AcDbSymbolTableRecord
100
AcDbLinetypeTableRecord
  2
Amzigzag
 70
     0
  3
/\/-/\/-/\/-/\/-/\/-/\/
 72
    65
 73
     2
 40
11.0001
 49
0.0001
 74
     4
 75
   136
340
23D
 46
0.04
 50
0.0
 44
0.0
 45
0.0
 49
-11.0
 74
     0
  0
LTYPE
  5
65
330
5
100
AcDbSymbolTableRecord
100
AcDbLinetypeTableRecord
  2
CENTER
 70
     0
  3
__ . __
 72
    65
 73
     4
 40
7.0
 49
4.0
 74
     0
 49
-1.0
 74
     0
 49
1.0
 74
     0
 49
-1.0
 74
     0
  0
LTYPE
  5
E0
330
5
100
AcDbSymbolTableRecord
100
AcDbLinetypeTableRecord
  2
HIDDEN
 70
     0
  3
Hidden __ __ __ __ __ __ __ __ __ __ __ __ __ _
 72
    65
 73
     2
 40
9.524999999999996
 49
6.349999999999998
 74
     0
 49
-3.174999999999998
 74
     0
  0
LTYPE
  5
E1
330
5
100
AcDbSymbolTableRecord
100
AcDbLinetypeTableRecord
  2
PHANTOM2
 70
     0
  3
Phantom (.5x) ___ _ _ ___ _ _ ___ _ _ ___ _ _
 72
    65
 73
     6
 40
31.75
 49
15.875
 74
     0
 49
-3.174999999999998
 74
     0
 49
3.174999999999998
 74
     0
 49
-3.174999999999998
 74
     0
 49
3.174999999999998
 74
     0
 49
-3.174999999999998
 74
     0
  0
LTYPE
  5
5A2
330
5
100
AcDbSymbolTableRecord
100
AcDbLinetypeTableRecord
  2
ACJISWELD
 70
     0
  3
_ _ _ _ _
 72
    65
 73
     2
 40
2.0
 49
2.0
 74
     0
 49
-1.0
 74
     0
  0
LTYPE
  5
8DED
330
5
100
AcDbSymbolTableRecord
100
AcDbLinetypeTableRecord
  2
ACISOWELD
 70
     0
  3
_ _ _ _ _
 72
    65
 73
     2
 40
2.0
 49
2.0
 74
     0
 49
-1.0
 74
     0
  0
LTYPE
  5
8DEE
330
5
100
AcDbSymbolTableRecord
100
AcDbLinetypeTableRecord
  2
ACISOTGB
 70
     0
  3
__ . . __ . .
 72
    65
 73
     6
 40
9.0
 49
4.0
 74
     0
 49
-1.0
 74
     0
 49
1.0
 74
     0
 49
-1.0
 74
     0
 49
1.0
 74
     0
 49
-1.0
 74
     0
  0
LTYPE
  5
8DEF
330
5
100
AcDbSymbolTableRecord
100
AcDbLinetypeTableRecord
  2
ACISOTGL
 70
     0
  3
_ _ _ _ _
 72
    65
 73
     2
 40
3.0
 49
2.0
 74
     0
 49
-1.0
 74
     0
  0
ENDTAB
  0
TABLE
  2
LAYER
  5
2
102
{ACAD_XDICTIONARY
360
BF
102
}
330
0
100
AcDbSymbolTable
 70
    11
  0
LAYER
  5
10
102
{ACAD_XDICTIONARY
360
2A98
102
}
330
2
100
AcDbSymbolTableRecord
100
AcDbLayerTableRecord
  2
0
 70
     0
 62
     7
  6
Continuous
370
    -3
390
F
347
27E
  0
LAYER
  5
81
102
{ACAD_XDICTIONARY
360
2A9A
102
}
330
2
100
AcDbSymbolTableRecord
100
AcDbLayerTableRecord
  2
AM_0 外形線1
 70
     0
 62
     7
  6
Continuous
370
    25
390
F
347
27E
  0
LAYER
  5
427
330
2
100
AcDbSymbolTableRecord
100
AcDbLayerTableRecord
  2
Defpoints
 70
     0
 62
     7
  6
Continuous
290
     0
370
    -3
390
F
347
27E
  0
LAYER
  5
25C9
102
{ACAD_XDICTIONARY
360
2AA1
102
}
330
2
100
AcDbSymbolTableRecord
100
AcDbLayerTableRecord
  2
AM_3 隠れ線
 70
     0
 62
     8
  6
ACJISWELD
370
    13
390
F
347
27E
1001
AcAecLayerStandard
1000

1000

  0
LAYER
  5
25CA
102
{ACAD_XDICTIONARY
360
2AA3
102
}
330
2
100
AcDbSymbolTableRecord
100
AcDbLayerTableRecord
  2
AM_4 細線
 70
     0
 62
     4
  6
Continuous
370
    13
390
F
347
27E
1001
AcAecLayerStandard
1000

1000

  0
LAYER
  5
26B3
102
{ACAD_XDICTIONARY
360
2AA9
102
}
330
2
100
AcDbSymbolTableRecord
100
AcDbLayerTableRecord
  2
AM_5 寸法線
 70
     0
 62
     3
  6
Continuous
370
    13
390
F
347
27E
1001
AcAecLayerStandard
1000

1000

  0
LAYER
  5
329F
330
2
100
AcDbSymbolTableRecord
100
AcDbLayerTableRecord
  2
図面枠(細線)
 70
     0
 62
     2
  6
Continuous
370
    13
390
F
347
27E
  0
LAYER
  5
3E55
330
2
100
AcDbSymbolTableRecord
100
AcDbLayerTableRecord
  2
AM_7 中心線
 70
     0
 62
     1
  6
AM_ISO08W050
370
    13
390
F
347
27E
1001
AcAecLayerStandard
1000

1000

  0
LAYER
  5
3F77
330
2
100
AcDbSymbolTableRecord
100
AcDbLayerTableRecord
  2
AM_6 文字
 70
     0
 62
     2
  6
Continuous
370
    13
390
F
347
27E
1001
AcAecLayerStandard
1000

1000

  0
LAYER
  5
89E7
330
2
100
AcDbSymbolTableRecord
100
AcDbLayerTableRecord
  2
AM_11 想像線
 70
     0
 62
     5
  6
AM_ISO09W050
370
    13
390
F
347
27E
1001
AcAecLayerStandard
1000

1000

  0
ENDTAB
  0
TABLE
  2
STYLE
  5
3
330
0
100
AcDbSymbolTable
 70
    10
  0
STYLE
  5
11
330
3
100
AcDbSymbolTableRecord
100
AcDbTextStyleTableRecord
  2
STANDARD
 70
     0
 40
0.0
 41
1.0
 50
0.0
 71
     0
 42
25.0
  3
ISOCP.SHX
  4
EXTFONT.SHX
  0
STYLE
  5
23D
330
3
100
AcDbSymbolTableRecord
100
AcDbTextStyleTableRecord
  2

 70
     1
 40
0.0
 41
1.0
 50
0.0
 71
     0
 42
2.5
  3
genltshp.shx
  4

  0
STYLE
  5
5D5
330
3
100
AcDbSymbolTableRecord
100
AcDbTextStyleTableRecord
  2
SEISA
 70
     0
 40
0.0
 41
0.9
 50
0.0
 71
     0
 42
25.0
  3
romans.shx
  4
extfont2.shx
  0
STYLE
  5
8DDD
330
3
100
AcDbSymbolTableRecord
100
AcDbTextStyleTableRecord
  2
ACISOTS
 70
     0
 40
1.0
 41
1.0
 50
0.0
 71
     0
 42
25.0
  3
isocp.shx
  4
extfont.shx
  0
STYLE
  5
8DEC
330
3
100
AcDbSymbolTableRecord
100
AcDbTextStyleTableRecord
  2
ACISOGDT
 70
     0
 40
0.0
 41
1.0
 50
0.0
 71
     0
 42
25.0
  3
amgdt.shx
  4

  0
ENDTAB
  0
TABLE
  2
VIEW
  5
6
330
0
100
AcDbSymbolTable
 70
     6
  0
VIEW
  5
91B
330
6
100
AcDbSymbolTableRecord
100
AcDbViewTableRecord
  2
AM_VIEW1
 70
     0
 40
742.4999999999998
 10
601.6304357397777
 20
1113.75000184691
 41
1203.260869565217
 11
0.0
 21
0.0
 31
1.0
 12
0.0
 22
0.0
 32
0.0
 42
50.0
 43
0.0
 44
0.0
 50
0.0
 71
    16
281
     0
 72
     0
 73
     0
  0
VIEW
  5
91C
330
6
100
AcDbSymbolTableRecord
100
AcDbViewTableRecord
  2
AM_VIEW2
 70
     0
 40
742.4999999999998
 10
1498.369566174561
 20
1113.75000184691
 41
1203.260869565217
 11
0.0
 21
0.0
 31
1.0
 12
0.0
 22
0.0
 32
0.0
 42
50.0
 43
0.0
 44
0.0
 50
0.0
 71
    16
281
     0
 72
     0
 73
     0
  0
VIEW
  5
91D
330
6
100
AcDbSymbolTableRecord
100
AcDbViewTableRecord
  2
AM_VIEW3
 70
     0
 40
742.4999999999998
 10
601.6304357397777
 20
371.2500018469103
 41
1203.260869565217
 11
0.0
 21
0.0
 31
1.0
 12
0.0
 22
0.0
 32
0.0
 42
50.0
 43
0.0
 44
0.0
 50
0.0
 71
    16
281
     0
 72
     0
 73
     0
  0
VIEW
  5
91E
330
6
100
AcDbSymbolTableRecord
100
AcDbViewTableRecord
  2
AM_VIEW4
 70
     0
 40
742.4999999999998
 10
1498.369566174561
 20
371.2500018469103
 41
1203.260869565217
 11
0.0
 21
0.0
 31
1.0
 12
0.0
 22
0.0
 32
0.0
 42
50.0
 43
0.0
 44
0.0
 50
0.0
 71
    16
281
     0
 72
     0
 73
     0
  0
VIEW
  5
91F
330
6
100
AcDbSymbolTableRecord
100
AcDbViewTableRecord
  2
AM_VIEW5
 70
     0
 40
742.5000000000001
 10
1050.000000957169
 20
742.5000018469104
 41
1203.260869565217
 11
0.0
 21
0.0
 31
1.0
 12
0.0
 22
0.0
 32
0.0
 42
50.0
 43
0.0
 44
0.0
 50
0.0
 71
    16
281
     0
 72
     0
 73
     0
  0
VIEW
  5
920
330
6
100
AcDbSymbolTableRecord
100
AcDbViewTableRecord
  2
AM_VIEW6
 70
     0
 40
1484.98515
 10
1050.000000957169
 20
742.5000018469102
 41
2406.497673913043
 11
0.0
 21
0.0
 31
1.0
 12
0.0
 22
0.0
 32
0.0
 42
50.0
 43
0.0
 44
0.0
 50
0.0
 71
    16
281
     0
 72
     0
 73
     0
  0
ENDTAB
  0
TABLE
  2
UCS
  5
7
330
0
100
AcDbSymbolTable
 70
     0
  0
ENDTAB
  0
TABLE
  2
APPID
  5
9
330
0
100
AcDbSymbolTable
 70
   402
  0
APPID
  5
12
330
9
100
AcDbSymbolTableRecord
100
AcDbRegAppTableRecord
  2
ACAD
 70
     0
  0
APPID
  5
30
330
9
100
AcDbSymbolTableRecord
100
AcDbRegAppTableRecord
  2
MCAD_NO_VIS
 70
     0
  0
APPID
  5
31
330
9
100
AcDbSymbolTableRecord
100
AcDbRegAppTableRecord
  2
ACAD_TEMP_GRAPHIC
 70
     0
  0
APPID
  5
44
330
9
100
AcDbSymbolTableRecord
100
AcDbRegAppTableRecord
  2
ACATTRIBSERVICES
 70
     0
  0
APPID
  5
F6
330
9
100
AcDbSymbolTableRecord
100
AcDbRegAppTableRecord
  2
AD_DRAW
 70
     0
  0
APPID
  5
114
330
9
100
AcDbSymbolTableRecord
100
AcDbRegAppTableRecord
  2
DESIGNERASSEMBLIES
 70
     0
  0
APPID
  5
118
330
9
100
AcDbSymbolTableRecord
100
AcDbRegAppTableRecord
  2
ACADM_DIM_EDIT
 70
     0
  0
APPID
  5
119
330
9
100
AcDbSymbolTableRecord
100
AcDbRegAppTableRecord
  2
AMDT_DM_ADJ
 70
     0
  0
APPID
  5
1AF
330
9
100
AcDbSymbolTableRecord
100
AcDbRegAppTableRecord
  2
ACAD_DSTYLE_DIMARC_LENGTH_SYMBOL
 70
     0
  0
APPID
  5
1B0
330
9
100
AcDbSymbolTableRecord
100
AcDbRegAppTableRecord
  2
ACAD_DSTYLE_DIMJOGGED_JOGANGLE_SYMBOL
 70
     0
  0
APPID
  5
2D7
330
9
100
AcDbSymbolTableRecord
100
AcDbRegAppTableRecord
  2
ACAD_MLEADERVER
 70
     0
  0
APPID
  5
355
330
9
100
AcDbSymbolTableRecord
100
AcDbRegAppTableRecord
  2
AcadAnnoPO
 70
     0
  0
APPID
  5
428
330
9
100
AcDbSymbolTableRecord
100
AcDbRegAppTableRecord
  2
ACAD_DSTYLE_DIMTEXT_FILL
 70
     0
  0
APPID
  5
429
330
9
100
AcDbSymbolTableRecord
100
AcDbRegAppTableRecord
  2
GENIUS_GENSCREG_15
 70
     0
  0
APPID
  5
42A
330
9
100
AcDbSymbolTableRecord
100
AcDbRegAppTableRecord
  2
GENIUS_GENOBJ-N-SDF_13
 70
     0
  0
APPID
  5
42B
330
9
100
AcDbSymbolTableRecord
100
AcDbRegAppTableRecord
  2
GENIUS_GENODEF_13
 70
     0
  0
APPID
  5
42C
330
9
100
AcDbSymbolTableRecord
100
AcDbRegAppTableRecord
  2
ACAD_EXEMPT_FROM_CAD_STANDARDS
 70
     0
  0
APPID
  5
42D
330
9
100
AcDbSymbolTableRecord
100
AcDbRegAppTableRecord
  2
AcAecLayerStandard
 70
     0
  0
APPID
  5
42E
330
9
100
AcDbSymbolTableRecord
100
AcDbRegAppTableRecord
  2
GENIUS_GENOBJ-N-CEN_13
 70
     0
  0
APPID
  5
42F
330
9
100
AcDbSymbolTableRecord
100
AcDbRegAppTableRecord
  2
GENIUS_GENCEN_19
 70
     0
  0
APPID
  5
430
330
9
100
AcDbSymbolTableRecord
100
AcDbRegAppTableRecord
  2
ACAD_DSTYLE_DIMINSPECT
 70
     0
  0
APPID
  5
431
330
9
100
AcDbSymbolTableRecord
100
AcDbRegAppTableRecord
  2
GENIUS_AMGTXT_16
 70
     0
  0
APPID
  5
432
330
9
100
AcDbSymbolTableRecord
100
AcDbRegAppTableRecord
  2
GENIUS_GENFIL_13
 70
     0
  0
APPID
  5
433
330
9
100
AcDbSymbolTableRecord
100
AcDbRegAppTableRecord
  2
GENIUS_GENOLIS_13
 70
     0
  0
APPID
  5
434
330
9
100
AcDbSymbolTableRecord
100
AcDbRegAppTableRecord
  2
GENIUS_GENOBJ-N-CHA_13
 70
     0
  0
APPID
  5
435
330
9
100
AcDbSymbolTableRecord
100
AcDbRegAppTableRecord
  2
GENIUS_GENOENT_13
 70
     0
  0
APPID
  5
436
330
9
100
AcDbSymbolTableRecord
100
AcDbRegAppTableRecord
  2
GENIUS_GENOREF_13
 70
     0
  0
APPID
  5
437
330
9
100
AcDbSymbolTableRecord
100
AcDbRegAppTableRecord
  2
GENIUS_GENOBJ-N-FIL_13
 70
     0
  0
APPID
  5
438
330
9
100
AcDbSymbolTableRecord
100
AcDbRegAppTableRecord
  2
GEVID1208829536
 70
     0
  0
APPID
  5
439
330
9
100
AcDbSymbolTableRecord
100
AcDbRegAppTableRecord
  2
GEVDC
 70
     0
  0
APPID
  5
43A
330
9
100
AcDbSymbolTableRecord
100
AcDbRegAppTableRecord
  2
GEVRADREF
 70
     0
  0
APPID
  5
43B
330
9
100
AcDbSymbolTableRecord
100
AcDbRegAppTableRecord
  2
GENIUS_GENBH_13
 70
     0
  0
APPID
  5
43C
330
9
100
AcDbSymbolTableRecord
100
AcDbRegAppTableRecord
  2
GENIUS_GENOBJ-NBEHI-BHF_13
 70
     0
  0
APPID
  5
43D
330
9
100
AcDbSymbolTableRecord
100
AcDbRegAppTableRecord
  2
GENIUS_GENOBJ-NBEHI-BHB_13
 70
     0
  0
APPID
  5
43E
330
9
100
AcDbSymbolTableRecord
100
AcDbRegAppTableRecord
  2
GEVID1208829537
 70
     0
  0
APPID
  5
43F
330
9
100
AcDbSymbolTableRecord
100
AcDbRegAppTableRecord
  2
ACAD_DSTYLE_DIMJAG
 70
     0
  0
APPID
  5
440
330
9
100
AcDbSymbolTableRecord
100
AcDbRegAppTableRecord
  2
ACAD_DSTYLE_DIMTALN
 70
     0
  0
APPID
  5
441
330
9
100
AcDbSymbolTableRecord
100
AcDbRegAppTableRecord
  2
AMG_2DHIDE
 70
     0
  0
APPID
  5
442
330
9
100
AcDbSymbolTableRecord
100
AcDbRegAppTableRecord
  2
AMG_2DSTRUCT_BTR
 70
     0
  0
APPID
  5
443
330
9
100
AcDbSymbolTableRecord
100
AcDbRegAppTableRecord
  2
GEVID1208845772
 70
     0
  0
APPID
  5
444
330
9
100
AcDbSymbolTableRecord
100
AcDbRegAppTableRecord
  2
GEVID1208845773
 70
     0
  0
APPID
  5
445
330
9
100
AcDbSymbolTableRecord
100
AcDbRegAppTableRecord
  2
ACADM_2DVIEW_IGN_NOTIFY
 70
     0
  0
APPID
  5
446
330
9
100
AcDbSymbolTableRecord
100
AcDbRegAppTableRecord
  2
GEVID1208845774
 70
     0
  0
APPID
  5
447
330
9
100
AcDbSymbolTableRecord
100
AcDbRegAppTableRecord
  2
GEVID1208845775
 70
     0
  0
APPID
  5
448
330
9
100
AcDbSymbolTableRecord
100
AcDbRegAppTableRecord
  2
GEVID1208845776
 70
     0
  0
APPID
  5
449
330
9
100
AcDbSymbolTableRecord
100
AcDbRegAppTableRecord
  2
GEVID1208845777
 70
     0
  0
APPID
  5
44A
330
9
100
AcDbSymbolTableRecord
100
AcDbRegAppTableRecord
  2
GEVCON
 70
     0
  0
APPID
  5
44B
330
9
100
AcDbSymbolTableRecord
100
AcDbRegAppTableRecord
  2
GENIUS_GENOBJ-F-SCPASSM_13
 70
     0
  0
APPID
  5
44C
330
9
100
AcDbSymbolTableRecord
100
AcDbRegAppTableRecord
  2
GEVID1208845778
 70
     0
  0
APPID
  5
44D
330
9
100
AcDbSymbolTableRecord
100
AcDbRegAppTableRecord
  2
GEVID1208845779
 70
     0
  0
APPID
  5
44E
330
9
100
AcDbSymbolTableRecord
100
AcDbRegAppTableRecord
  2
GEVID1208845780
 70
     0
  0
APPID
  5
44F
330
9
100
AcDbSymbolTableRecord
100
AcDbRegAppTableRecord
  2
GEVID1208845781
 70
     0
  0
APPID
  5
450
330
9
100
AcDbSymbolTableRecord
100
AcDbRegAppTableRecord
  2
GEVID1208845782
 70
     0
  0
APPID
  5
451
330
9
100
AcDbSymbolTableRecord
100
AcDbRegAppTableRecord
  2
GEVID1208845783
 70
     0
  0
APPID
  5
452
330
9
100
AcDbSymbolTableRecord
100
AcDbRegAppTableRecord
  2
GEVID1208845784
 70
     0
  0
APPID
  5
453
330
9
100
AcDbSymbolTableRecord
100
AcDbRegAppTableRecord
  2
GEVID1208845785
 70
     0
  0
APPID
  5
454
330
9
100
AcDbSymbolTableRecord
100
AcDbRegAppTableRecord
  2
GEVID1208845787
 70
     0
  0
APPID
  5
455
330
9
100
AcDbSymbolTableRecord
100
AcDbRegAppTableRecord
  2
GEVID1208845788
 70
     0
  0
APPID
  5
456
330
9
100
AcDbSymbolTableRecord
100
AcDbRegAppTableRecord
  2
GEVID1208845789
 70
     0
  0
APPID
  5
457
330
9
100
AcDbSymbolTableRecord
100
AcDbRegAppTableRecord
  2
GEVID1208845790
 70
     0
  0
APPID
  5
458
330
9
100
AcDbSymbolTableRecord
100
AcDbRegAppTableRecord
  2
GEVID1208845791
 70
     0
  0
APPID
  5
459
330
9
100
AcDbSymbolTableRecord
100
AcDbRegAppTableRecord
  2
GEVID1208845792
 70
     0
  0
APPID
  5
45A
330
9
100
AcDbSymbolTableRecord
100
AcDbRegAppTableRecord
  2
GEVID1208845793
 70
     0
  0
APPID
  5
45B
330
9
100
AcDbSymbolTableRecord
100
AcDbRegAppTableRecord
  2
GEVID1208845794
 70
     0
  0
APPID
  5
45C
330
9
100
AcDbSymbolTableRecord
100
AcDbRegAppTableRecord
  2
GEVID1208845795
 70
     0
  0
APPID
  5
45D
330
9
100
AcDbSymbolTableRecord
100
AcDbRegAppTableRecord
  2
GEVID1208845796
 70
     0
  0
APPID
  5
45E
330
9
100
AcDbSymbolTableRecord
100
AcDbRegAppTableRecord
  2
GEVID1208845797
 70
     0
  0
APPID
  5
45F
330
9
100
AcDbSymbolTableRecord
100
AcDbRegAppTableRecord
  2
GEVID1208845798
 70
     0
  0
APPID
  5
460
330
9
100
AcDbSymbolTableRecord
100
AcDbRegAppTableRecord
  2
GEVID1208845799
 70
     0
  0
APPID
  5
461
330
9
100
AcDbSymbolTableRecord
100
AcDbRegAppTableRecord
  2
GEVID1208845800
 70
     0
  0
APPID
  5
462
330
9
100
AcDbSymbolTableRecord
100
AcDbRegAppTableRecord
  2
GEVID1208845801
 70
     0
  0
APPID
  5
463
330
9
100
AcDbSymbolTableRecord
100
AcDbRegAppTableRecord
  2
GEVID1208845802
 70
     0
  0
APPID
  5
464
330
9
100
AcDbSymbolTableRecord
100
AcDbRegAppTableRecord
  2
GENIUS_GENOBJ-N-DIM_13
 70
     0
  0
APPID
  5
465
330
9
100
AcDbSymbolTableRecord
100
AcDbRegAppTableRecord
  2
GENIUS_GENDIM_13
 70
     0
  0
APPID
  5
466
330
9
100
AcDbSymbolTableRecord
100
AcDbRegAppTableRecord
  2
GENIUS_GENDIMSH_14
 70
     0
  0
APPID
  5
467
330
9
100
AcDbSymbolTableRecord
100
AcDbRegAppTableRecord
  2
GEVID1208845803
 70
     0
  0
APPID
  5
468
330
9
100
AcDbSymbolTableRecord
100
AcDbRegAppTableRecord
  2
GEVID1208845804
 70
     0
  0
APPID
  5
469
330
9
100
AcDbSymbolTableRecord
100
AcDbRegAppTableRecord
  2
GEVID1208845805
 70
     0
  0
APPID
  5
46A
330
9
100
AcDbSymbolTableRecord
100
AcDbRegAppTableRecord
  2
GEVID1208845806
 70
     0
  0
APPID
  5
46B
330
9
100
AcDbSymbolTableRecord
100
AcDbRegAppTableRecord
  2
GEVID1208845807
 70
     0
  0
APPID
  5
46C
330
9
100
AcDbSymbolTableRecord
100
AcDbRegAppTableRecord
  2
GEVID1208845808
 70
     0
  0
APPID
  5
46D
330
9
100
AcDbSymbolTableRecord
100
AcDbRegAppTableRecord
  2
GEVID1208845809
 70
     0
  0
APPID
  5
46E
330
9
100
AcDbSymbolTableRecord
100
AcDbRegAppTableRecord
  2
GEVID1208845810
 70
     0
  0
APPID
  5
46F
330
9
100
AcDbSymbolTableRecord
100
AcDbRegAppTableRecord
  2
GEVID1208845811
 70
     0
  0
APPID
  5
470
330
9
100
AcDbSymbolTableRecord
100
AcDbRegAppTableRecord
  2
GEVID1208845813
 70
     0
  0
APPID
  5
471
330
9
100
AcDbSymbolTableRecord
100
AcDbRegAppTableRecord
  2
GEVID1208845814
 70
     0
  0
APPID
  5
472
330
9
100
AcDbSymbolTableRecord
100
AcDbRegAppTableRecord
  2
GEVID1208845815
 70
     0
  0
APPID
  5
473
330
9
100
AcDbSymbolTableRecord
100
AcDbRegAppTableRecord
  2
GEVID1208845816
 70
     0
  0
APPID
  5
474
330
9
100
AcDbSymbolTableRecord
100
AcDbRegAppTableRecord
  2
GEVID1208845817
 70
     0
  0
APPID
  5
475
330
9
100
AcDbSymbolTableRecord
100
AcDbRegAppTableRecord
  2
GEVID1208845818
 70
     0
  0
APPID
  5
476
330
9
100
AcDbSymbolTableRecord
100
AcDbRegAppTableRecord
  2
GEVID1208845819
 70
     0
  0
APPID
  5
477
330
9
100
AcDbSymbolTableRecord
100
AcDbRegAppTableRecord
  2
GEVID1208845820
 70
     0
  0
APPID
  5
478
330
9
100
AcDbSymbolTableRecord
100
AcDbRegAppTableRecord
  2
GENIUS_GENOBJ-F-SHCL_13
 70
     0
  0
APPID
  5
479
330
9
100
AcDbSymbolTableRecord
100
AcDbRegAppTableRecord
  2
GENIUS_GEFMSH_13
 70
     0
  0
APPID
  5
47A
330
9
100
AcDbSymbolTableRecord
100
AcDbRegAppTableRecord
  2
GENIUS_GENOBJ-F-SHCA_13
 70
     0
  0
APPID
  5
47B
330
9
100
AcDbSymbolTableRecord
100
AcDbRegAppTableRecord
  2
GENIUS_GEFSH_13
 70
     0
  0
APPID
  5
47C
330
9
100
AcDbSymbolTableRecord
100
AcDbRegAppTableRecord
  2
GENIUS_GEFSHP_13
 70
     0
  0
APPID
  5
47D
330
9
100
AcDbSymbolTableRecord
100
AcDbRegAppTableRecord
  2
GENIUS_GEFSHP0_13
 70
     0
  0
APPID
  5
47E
330
9
100
AcDbSymbolTableRecord
100
AcDbRegAppTableRecord
  2
GENIUS_GEFSH0_13
 70
     0
  0
APPID
  5
47F
330
9
100
AcDbSymbolTableRecord
100
AcDbRegAppTableRecord
  2
GENIUS_GEFSHP1_13
 70
     0
  0
APPID
  5
480
330
9
100
AcDbSymbolTableRecord
100
AcDbRegAppTableRecord
  2
GENIUS_GEFSH1_13
 70
     0
  0
APPID
  5
481
330
9
100
AcDbSymbolTableRecord
100
AcDbRegAppTableRecord
  2
GEVID1208866337
 70
     0
  0
APPID
  5
482
330
9
100
AcDbSymbolTableRecord
100
AcDbRegAppTableRecord
  2
GEVID1208866338
 70
     0
  0
APPID
  5
483
330
9
100
AcDbSymbolTableRecord
100
AcDbRegAppTableRecord
  2
GEVID1208866339
 70
     0
  0
APPID
  5
484
330
9
100
AcDbSymbolTableRecord
100
AcDbRegAppTableRecord
  2
GEVID1208866340
 70
     0
  0
APPID
  5
485
330
9
100
AcDbSymbolTableRecord
100
AcDbRegAppTableRecord
  2
GEVID1208866341
 70
     0
  0
APPID
  5
486
330
9
100
AcDbSymbolTableRecord
100
AcDbRegAppTableRecord
  2
ACAD_PSEXT
 70
     0
  0
APPID
  5
487
330
9
100
AcDbSymbolTableRecord
100
AcDbRegAppTableRecord
  2
GEVID1208866342
 70
     0
  0
APPID
  5
488
330
9
100
AcDbSymbolTableRecord
100
AcDbRegAppTableRecord
  2
GEVID1208913836
 70
     0
  0
APPID
  5
489
330
9
100
AcDbSymbolTableRecord
100
AcDbRegAppTableRecord
  2
GEVID1208913837
 70
     0
  0
APPID
  5
48A
330
9
100
AcDbSymbolTableRecord
100
AcDbRegAppTableRecord
  2
GEVID1208913838
 70
     0
  0
APPID
  5
48B
330
9
100
AcDbSymbolTableRecord
100
AcDbRegAppTableRecord
  2
GEVID1208913839
 70
     0
  0
APPID
  5
48C
330
9
100
AcDbSymbolTableRecord
100
AcDbRegAppTableRecord
  2
GENIUS_GENDTOL_13
 70
     0
  0
APPID
  5
48D
330
9
100
AcDbSymbolTableRecord
100
AcDbRegAppTableRecord
  2
GEVID1208928889
 70
     0
  0
APPID
  5
48E
330
9
100
AcDbSymbolTableRecord
100
AcDbRegAppTableRecord
  2
GEVID1208928890
 70
     0
  0
APPID
  5
48F
330
9
100
AcDbSymbolTableRecord
100
AcDbRegAppTableRecord
  2
GEVID1208928891
 70
     0
  0
APPID
  5
490
330
9
100
AcDbSymbolTableRecord
100
AcDbRegAppTableRecord
  2
GEVID1208928892
 70
     0
  0
APPID
  5
491
330
9
100
AcDbSymbolTableRecord
100
AcDbRegAppTableRecord
  2
GEVID1208933827
 70
     0
  0
APPID
  5
492
330
9
100
AcDbSymbolTableRecord
100
AcDbRegAppTableRecord
  2
GEVID1208933829
 70
     0
  0
APPID
  5
493
330
9
100
AcDbSymbolTableRecord
100
AcDbRegAppTableRecord
  2
GEVID1208933830
 70
     0
  0
APPID
  5
494
330
9
100
AcDbSymbolTableRecord
100
AcDbRegAppTableRecord
  2
GEVID1208933831
 70
     0
  0
APPID
  5
495
330
9
100
AcDbSymbolTableRecord
100
AcDbRegAppTableRecord
  2
GEVID1208933832
 70
     0
  0
APPID
  5
496
330
9
100
AcDbSymbolTableRecord
100
AcDbRegAppTableRecord
  2
GEVID1208933833
 70
     0
  0
APPID
  5
497
330
9
100
AcDbSymbolTableRecord
100
AcDbRegAppTableRecord
  2
GEVID1208933834
 70
     0
  0
APPID
  5
498
330
9
100
AcDbSymbolTableRecord
100
AcDbRegAppTableRecord
  2
GEVID1208933835
 70
     0
  0
APPID
  5
499
330
9
100
AcDbSymbolTableRecord
100
AcDbRegAppTableRecord
  2
GEVID1208933836
 70
     0
  0
APPID
  5
49A
330
9
100
AcDbSymbolTableRecord
100
AcDbRegAppTableRecord
  2
GEVID1208933837
 70
     0
  0
APPID
  5
49B
330
9
100
AcDbSymbolTableRecord
100
AcDbRegAppTableRecord
  2
GEVID1208933838
 70
     0
  0
APPID
  5
49C
330
9
100
AcDbSymbolTableRecord
100
AcDbRegAppTableRecord
  2
GEVID1208933840
 70
     0
  0
APPID
  5
49D
330
9
100
AcDbSymbolTableRecord
100
AcDbRegAppTableRecord
  2
GEVID1208933842
 70
     0
  0
APPID
  5
49E
330
9
100
AcDbSymbolTableRecord
100
AcDbRegAppTableRecord
  2
GEVID1208933843
 70
     0
  0
APPID
  5
49F
330
9
100
AcDbSymbolTableRecord
100
AcDbRegAppTableRecord
  2
GEVID1208933844
 70
     0
  0
APPID
  5
4A0
330
9
100
AcDbSymbolTableRecord
100
AcDbRegAppTableRecord
  2
GEVID1208933845
 70
     0
  0
APPID
  5
4A1
330
9
100
AcDbSymbolTableRecord
100
AcDbRegAppTableRecord
  2
GEVID1208933846
 70
     0
  0
APPID
  5
4A2
330
9
100
AcDbSymbolTableRecord
100
AcDbRegAppTableRecord
  2
GEVID1208933847
 70
     0
  0
APPID
  5
4A3
330
9
100
AcDbSymbolTableRecord
100
AcDbRegAppTableRecord
  2
GEVID1208933848
 70
     0
  0
APPID
  5
4A4
330
9
100
AcDbSymbolTableRecord
100
AcDbRegAppTableRecord
  2
GEVID1208933849
 70
     0
  0
APPID
  5
4A5
330
9
100
AcDbSymbolTableRecord
100
AcDbRegAppTableRecord
  2
GEVID1208933850
 70
     0
  0
APPID
  5
4A6
330
9
100
AcDbSymbolTableRecord
100
AcDbRegAppTableRecord
  2
GEVID1208933851
 70
     0
  0
APPID
  5
4A7
330
9
100
AcDbSymbolTableRecord
100
AcDbRegAppTableRecord
  2
GEVID1208933852
 70
     0
  0
APPID
  5
4A8
330
9
100
AcDbSymbolTableRecord
100
AcDbRegAppTableRecord
  2
GEVID1208933853
 70
     0
  0
APPID
  5
4A9
330
9
100
AcDbSymbolTableRecord
100
AcDbRegAppTableRecord
  2
GEVID1208933854
 70
     0
  0
APPID
  5
4AA
330
9
100
AcDbSymbolTableRecord
100
AcDbRegAppTableRecord
  2
GEVID1208933855
 70
     0
  0
APPID
  5
4AB
330
9
100
AcDbSymbolTableRecord
100
AcDbRegAppTableRecord
  2
GEVID1208933856
 70
     0
  0
APPID
  5
4AC
330
9
100
AcDbSymbolTableRecord
100
AcDbRegAppTableRecord
  2
GEVID1208933857
 70
     0
  0
APPID
  5
4AD
330
9
100
AcDbSymbolTableRecord
100
AcDbRegAppTableRecord
  2
GEVID1208933858
 70
     0
  0
APPID
  5
4AE
330
9
100
AcDbSymbolTableRecord
100
AcDbRegAppTableRecord
  2
GEVID1208933859
 70
     0
  0
APPID
  5
4AF
330
9
100
AcDbSymbolTableRecord
100
AcDbRegAppTableRecord
  2
GEVID1208933860
 70
     0
  0
APPID
  5
4B0
330
9
100
AcDbSymbolTableRecord
100
AcDbRegAppTableRecord
  2
GEVID1208933861
 70
     0
  0
APPID
  5
4B1
330
9
100
AcDbSymbolTableRecord
100
AcDbRegAppTableRecord
  2
GEVID1208933862
 70
     0
  0
APPID
  5
4B2
330
9
100
AcDbSymbolTableRecord
100
AcDbRegAppTableRecord
  2
GEVID1208933863
 70
     0
  0
APPID
  5
4B3
330
9
100
AcDbSymbolTableRecord
100
AcDbRegAppTableRecord
  2
GEVID1208933864
 70
     0
  0
APPID
  5
4B4
330
9
100
AcDbSymbolTableRecord
100
AcDbRegAppTableRecord
  2
GEVID1208933865
 70
     0
  0
APPID
  5
4B5
330
9
100
AcDbSymbolTableRecord
100
AcDbRegAppTableRecord
  2
GEVID1208933866
 70
     0
  0
APPID
  5
4B6
330
9
100
AcDbSymbolTableRecord
100
AcDbRegAppTableRecord
  2
GEVID1208933867
 70
     0
  0
APPID
  5
4B7
330
9
100
AcDbSymbolTableRecord
100
AcDbRegAppTableRecord
  2
GEVID1208933868
 70
     0
  0
APPID
  5
4B8
330
9
100
AcDbSymbolTableRecord
100
AcDbRegAppTableRecord
  2
GEVID1208933869
 70
     0
  0
APPID
  5
4B9
330
9
100
AcDbSymbolTableRecord
100
AcDbRegAppTableRecord
  2
GEVID1208933870
 70
     0
  0
APPID
  5
4BA
330
9
100
AcDbSymbolTableRecord
100
AcDbRegAppTableRecord
  2
GEVID1208933871
 70
     0
  0
APPID
  5
4BB
330
9
100
AcDbSymbolTableRecord
100
AcDbRegAppTableRecord
  2
GEVID1208933872
 70
     0
  0
APPID
  5
4BC
330
9
100
AcDbSymbolTableRecord
100
AcDbRegAppTableRecord
  2
GEVID1208933873
 70
     0
  0
APPID
  5
4BD
330
9
100
AcDbSymbolTableRecord
100
AcDbRegAppTableRecord
  2
GEVID1208933874
 70
     0
  0
APPID
  5
4BE
330
9
100
AcDbSymbolTableRecord
100
AcDbRegAppTableRecord
  2
GEVID1208933875
 70
     0
  0
APPID
  5
4BF
330
9
100
AcDbSymbolTableRecord
100
AcDbRegAppTableRecord
  2
GEVID1208933876
 70
     0
  0
APPID
  5
4C0
330
9
100
AcDbSymbolTableRecord
100
AcDbRegAppTableRecord
  2
ACAD_DSTYLE_DIMRADIAL_EXTENSION
 70
     0
  0
APPID
  5
4C1
330
9
100
AcDbSymbolTableRecord
100
AcDbRegAppTableRecord
  2
GEVID1208999100
 70
     0
  0
APPID
  5
4C2
330
9
100
AcDbSymbolTableRecord
100
AcDbRegAppTableRecord
  2
GEVID1208999101
 70
     0
  0
APPID
  5
4C3
330
9
100
AcDbSymbolTableRecord
100
AcDbRegAppTableRecord
  2
GEVID1208999102
 70
     0
  0
APPID
  5
4C4
330
9
100
AcDbSymbolTableRecord
100
AcDbRegAppTableRecord
  2
GEVID1208999103
 70
     0
  0
APPID
  5
4C5
330
9
100
AcDbSymbolTableRecord
100
AcDbRegAppTableRecord
  2
GEVID1208999105
 70
     0
  0
APPID
  5
4C6
330
9
100
AcDbSymbolTableRecord
100
AcDbRegAppTableRecord
  2
GEVID1208999106
 70
     0
  0
APPID
  5
4C7
330
9
100
AcDbSymbolTableRecord
100
AcDbRegAppTableRecord
  2
GEVID1208999108
 70
     0
  0
APPID
  5
4C8
330
9
100
AcDbSymbolTableRecord
100
AcDbRegAppTableRecord
  2
GEVID1208999109
 70
     0
  0
APPID
  5
4C9
330
9
100
AcDbSymbolTableRecord
100
AcDbRegAppTableRecord
  2
GEVID1208999110
 70
     0
  0
APPID
  5
4CA
330
9
100
AcDbSymbolTableRecord
100
AcDbRegAppTableRecord
  2
GEVID1208999111
 70
     0
  0
APPID
  5
4CB
330
9
100
AcDbSymbolTableRecord
100
AcDbRegAppTableRecord
  2
GEVID1208999112
 70
     0
  0
APPID
  5
4CC
330
9
100
AcDbSymbolTableRecord
100
AcDbRegAppTableRecord
  2
GEVID1208999113
 70
     0
  0
APPID
  5
4CD
330
9
100
AcDbSymbolTableRecord
100
AcDbRegAppTableRecord
  2
GEVID1208999114
 70
     0
  0
APPID
  5
4CE
330
9
100
AcDbSymbolTableRecord
100
AcDbRegAppTableRecord
  2
GEVID1210218799
 70
     0
  0
APPID
  5
4CF
330
9
100
AcDbSymbolTableRecord
100
AcDbRegAppTableRecord
  2
GEVID1210218800
 70
     0
  0
APPID
  5
4D0
330
9
100
AcDbSymbolTableRecord
100
AcDbRegAppTableRecord
  2
GENIUS_GEFWELD_13
 70
     0
  0
APPID
  5
4D1
330
9
100
AcDbSymbolTableRecord
100
AcDbRegAppTableRecord
  2
GENIUS_GENOBJ-F-WELS_13
 70
     0
  0
APPID
  5
4D2
330
9
100
AcDbSymbolTableRecord
100
AcDbRegAppTableRecord
  2
AcadAnnotative
 70
     0
  0
APPID
  5
4D3
330
9
100
AcDbSymbolTableRecord
100
AcDbRegAppTableRecord
  2
GEVID1210145339
 70
     0
  0
APPID
  5
4D4
330
9
100
AcDbSymbolTableRecord
100
AcDbRegAppTableRecord
  2
ACAD_DSTYLE_DIMBREAK
 70
     0
  0
APPID
  5
4D5
330
9
100
AcDbSymbolTableRecord
100
AcDbRegAppTableRecord
  2
GEVID1210145340
 70
     0
  0
APPID
  5
4D6
330
9
100
AcDbSymbolTableRecord
100
AcDbRegAppTableRecord
  2
GEVID1210145341
 70
     0
  0
APPID
  5
4D7
330
9
100
AcDbSymbolTableRecord
100
AcDbRegAppTableRecord
  2
GEVID1210145342
 70
     0
  0
APPID
  5
4D8
330
9
100
AcDbSymbolTableRecord
100
AcDbRegAppTableRecord
  2
GEVID1210145343
 70
     0
  0
APPID
  5
4D9
330
9
100
AcDbSymbolTableRecord
100
AcDbRegAppTableRecord
  2
GEVID1210145344
 70
     0
  0
APPID
  5
4DA
330
9
100
AcDbSymbolTableRecord
100
AcDbRegAppTableRecord
  2
GEVID1210145345
 70
     0
  0
APPID
  5
4DB
330
9
100
AcDbSymbolTableRecord
100
AcDbRegAppTableRecord
  2
GEVID1210152816
 70
     0
  0
APPID
  5
4DC
330
9
100
AcDbSymbolTableRecord
100
AcDbRegAppTableRecord
  2
GEVID1210153850
 70
     0
  0
APPID
  5
4DD
330
9
100
AcDbSymbolTableRecord
100
AcDbRegAppTableRecord
  2
GEVID1210153851
 70
     0
  0
APPID
  5
4DE
330
9
100
AcDbSymbolTableRecord
100
AcDbRegAppTableRecord
  2
GEVID1210153852
 70
     0
  0
APPID
  5
4DF
330
9
100
AcDbSymbolTableRecord
100
AcDbRegAppTableRecord
  2
GEVID1210549898
 70
     0
  0
APPID
  5
4E0
330
9
100
AcDbSymbolTableRecord
100
AcDbRegAppTableRecord
  2
GEVID1210549899
 70
     0
  0
APPID
  5
4E1
330
9
100
AcDbSymbolTableRecord
100
AcDbRegAppTableRecord
  2
GEVID1210549900
 70
     0
  0
APPID
  5
4E2
330
9
100
AcDbSymbolTableRecord
100
AcDbRegAppTableRecord
  2
GEVID1210549901
 70
     0
  0
APPID
  5
4E3
330
9
100
AcDbSymbolTableRecord
100
AcDbRegAppTableRecord
  2
GEVID1210549902
 70
     0
  0
APPID
  5
4E4
330
9
100
AcDbSymbolTableRecord
100
AcDbRegAppTableRecord
  2
GEVID1210549903
 70
     0
  0
APPID
  5
4E5
330
9
100
AcDbSymbolTableRecord
100
AcDbRegAppTableRecord
  2
GEVID1210549904
 70
     0
  0
APPID
  5
4E6
330
9
100
AcDbSymbolTableRecord
100
AcDbRegAppTableRecord
  2
GEVID1210549905
 70
     0
  0
APPID
  5
4E7
330
9
100
AcDbSymbolTableRecord
100
AcDbRegAppTableRecord
  2
GEVID1210549906
 70
     0
  0
APPID
  5
4E8
330
9
100
AcDbSymbolTableRecord
100
AcDbRegAppTableRecord
  2
GEVID1210549907
 70
     0
  0
APPID
  5
4E9
330
9
100
AcDbSymbolTableRecord
100
AcDbRegAppTableRecord
  2
GEVID1210549908
 70
     0
  0
APPID
  5
4EA
330
9
100
AcDbSymbolTableRecord
100
AcDbRegAppTableRecord
  2
GEVID1210549909
 70
     0
  0
APPID
  5
4EB
330
9
100
AcDbSymbolTableRecord
100
AcDbRegAppTableRecord
  2
GEVID1210549910
 70
     0
  0
APPID
  5
4EC
330
9
100
AcDbSymbolTableRecord
100
AcDbRegAppTableRecord
  2
GEVID1210549911
 70
     0
  0
APPID
  5
4ED
330
9
100
AcDbSymbolTableRecord
100
AcDbRegAppTableRecord
  2
GEVID1210549912
 70
     0
  0
APPID
  5
4EE
330
9
100
AcDbSymbolTableRecord
100
AcDbRegAppTableRecord
  2
GEVID1210549913
 70
     0
  0
APPID
  5
4EF
330
9
100
AcDbSymbolTableRecord
100
AcDbRegAppTableRecord
  2
GEVID1210549914
 70
     0
  0
APPID
  5
4F0
330
9
100
AcDbSymbolTableRecord
100
AcDbRegAppTableRecord
  2
GEVID1210549915
 70
     0
  0
APPID
  5
4F1
330
9
100
AcDbSymbolTableRecord
100
AcDbRegAppTableRecord
  2
GEVID1210549916
 70
     0
  0
APPID
  5
4F2
330
9
100
AcDbSymbolTableRecord
100
AcDbRegAppTableRecord
  2
GEVID1210549917
 70
     0
  0
APPID
  5
4F3
330
9
100
AcDbSymbolTableRecord
100
AcDbRegAppTableRecord
  2
GENIUS_GENOBJ-N-CRS_13
 70
     0
  0
APPID
  5
4F4
330
9
100
AcDbSymbolTableRecord
100
AcDbRegAppTableRecord
  2
GEVID1210549918
 70
     0
  0
APPID
  5
4F5
330
9
100
AcDbSymbolTableRecord
100
AcDbRegAppTableRecord
  2
GENIUS_GENOBJ-N-CRC_13
 70
     0
  0
APPID
  5
4F6
330
9
100
AcDbSymbolTableRecord
100
AcDbRegAppTableRecord
  2
GENIUS_GENCRC_14
 70
     0
  0
APPID
  5
4F7
330
9
100
AcDbSymbolTableRecord
100
AcDbRegAppTableRecord
  2
GEVID1210549919
 70
     0
  0
APPID
  5
4F8
330
9
100
AcDbSymbolTableRecord
100
AcDbRegAppTableRecord
  2
GEVID1210549921
 70
     0
  0
APPID
  5
4F9
330
9
100
AcDbSymbolTableRecord
100
AcDbRegAppTableRecord
  2
GEVID1210549922
 70
     0
  0
APPID
  5
4FA
330
9
100
AcDbSymbolTableRecord
100
AcDbRegAppTableRecord
  2
GEVID1210635173
 70
     0
  0
APPID
  5
4FB
330
9
100
AcDbSymbolTableRecord
100
AcDbRegAppTableRecord
  2
GEVID1210635174
 70
     0
  0
APPID
  5
4FC
330
9
100
AcDbSymbolTableRecord
100
AcDbRegAppTableRecord
  2
GEVID1210635175
 70
     0
  0
APPID
  5
4FD
330
9
100
AcDbSymbolTableRecord
100
AcDbRegAppTableRecord
  2
GEVID1210635176
 70
     0
  0
APPID
  5
4FE
330
9
100
AcDbSymbolTableRecord
100
AcDbRegAppTableRecord
  2
GEVID1210635177
 70
     0
  0
APPID
  5
4FF
330
9
100
AcDbSymbolTableRecord
100
AcDbRegAppTableRecord
  2
GEVID1210635178
 70
     0
  0
APPID
  5
500
330
9
100
AcDbSymbolTableRecord
100
AcDbRegAppTableRecord
  2
GENIUS_GENIUS_GENBHEDTMP_13
 70
     0
  0
APPID
  5
501
330
9
100
AcDbSymbolTableRecord
100
AcDbRegAppTableRecord
  2
GEVID1210635179
 70
     0
  0
APPID
  5
502
330
9
100
AcDbSymbolTableRecord
100
AcDbRegAppTableRecord
  2
GEVID1210635180
 70
     0
  0
APPID
  5
503
330
9
100
AcDbSymbolTableRecord
100
AcDbRegAppTableRecord
  2
GEVID1210635181
 70
     0
  0
APPID
  5
504
330
9
100
AcDbSymbolTableRecord
100
AcDbRegAppTableRecord
  2
GEVID1210635182
 70
     0
  0
APPID
  5
505
330
9
100
AcDbSymbolTableRecord
100
AcDbRegAppTableRecord
  2
GEVID1210635184
 70
     0
  0
APPID
  5
506
330
9
100
AcDbSymbolTableRecord
100
AcDbRegAppTableRecord
  2
GEVID1210635185
 70
     0
  0
APPID
  5
507
330
9
100
AcDbSymbolTableRecord
100
AcDbRegAppTableRecord
  2
GEVID1210635186
 70
     0
  0
APPID
  5
508
330
9
100
AcDbSymbolTableRecord
100
AcDbRegAppTableRecord
  2
GEVID1210635187
 70
     0
  0
APPID
  5
509
330
9
100
AcDbSymbolTableRecord
100
AcDbRegAppTableRecord
  2
GEVID1210635188
 70
     0
  0
APPID
  5
50A
330
9
100
AcDbSymbolTableRecord
100
AcDbRegAppTableRecord
  2
GEVID1210635189
 70
     0
  0
APPID
  5
50B
330
9
100
AcDbSymbolTableRecord
100
AcDbRegAppTableRecord
  2
GEVID1210635190
 70
     0
  0
APPID
  5
50C
330
9
100
AcDbSymbolTableRecord
100
AcDbRegAppTableRecord
  2
GENIUS_GENREC_14
 70
     0
  0
APPID
  5
50D
330
9
100
AcDbSymbolTableRecord
100
AcDbRegAppTableRecord
  2
GENIUS_GENOBJ-N-REC_13
 70
     0
  0
APPID
  5
50E
330
9
100
AcDbSymbolTableRecord
100
AcDbRegAppTableRecord
  2
GEVID1210676655
 70
     0
  0
APPID
  5
50F
330
9
100
AcDbSymbolTableRecord
100
AcDbRegAppTableRecord
  2
GEVID1210676656
 70
     0
  0
APPID
  5
510
330
9
100
AcDbSymbolTableRecord
100
AcDbRegAppTableRecord
  2
GEVID1210676657
 70
     0
  0
APPID
  5
511
330
9
100
AcDbSymbolTableRecord
100
AcDbRegAppTableRecord
  2
GEVID1210676659
 70
     0
  0
APPID
  5
512
330
9
100
AcDbSymbolTableRecord
100
AcDbRegAppTableRecord
  2
GEVID1210676660
 70
     0
  0
APPID
  5
513
330
9
100
AcDbSymbolTableRecord
100
AcDbRegAppTableRecord
  2
GEVID1210676661
 70
     0
  0
APPID
  5
514
330
9
100
AcDbSymbolTableRecord
100
AcDbRegAppTableRecord
  2
GEVID1210676662
 70
     0
  0
APPID
  5
515
330
9
100
AcDbSymbolTableRecord
100
AcDbRegAppTableRecord
  2
GEVID1210721646
 70
     0
  0
APPID
  5
516
330
9
100
AcDbSymbolTableRecord
100
AcDbRegAppTableRecord
  2
GEVID1210721647
 70
     0
  0
APPID
  5
517
330
9
100
AcDbSymbolTableRecord
100
AcDbRegAppTableRecord
  2
GEVID1210721648
 70
     0
  0
APPID
  5
518
330
9
100
AcDbSymbolTableRecord
100
AcDbRegAppTableRecord
  2
GEVID1210721649
 70
     0
  0
APPID
  5
519
330
9
100
AcDbSymbolTableRecord
100
AcDbRegAppTableRecord
  2
GEVID1210721650
 70
     0
  0
APPID
  5
51A
330
9
100
AcDbSymbolTableRecord
100
AcDbRegAppTableRecord
  2
GEVID1210721651
 70
     0
  0
APPID
  5
51B
330
9
100
AcDbSymbolTableRecord
100
AcDbRegAppTableRecord
  2
GEVID1210721652
 70
     0
  0
APPID
  5
51C
330
9
100
AcDbSymbolTableRecord
100
AcDbRegAppTableRecord
  2
GEVID1210721653
 70
     0
  0
APPID
  5
51D
330
9
100
AcDbSymbolTableRecord
100
AcDbRegAppTableRecord
  2
PE_URL
 70
     0
  0
APPID
  5
51E
330
9
100
AcDbSymbolTableRecord
100
AcDbRegAppTableRecord
  2
GEVID1210825555
 70
     0
  0
APPID
  5
51F
330
9
100
AcDbSymbolTableRecord
100
AcDbRegAppTableRecord
  2
GEVID1210825556
 70
     0
  0
APPID
  5
520
330
9
100
AcDbSymbolTableRecord
100
AcDbRegAppTableRecord
  2
GEVID1210825557
 70
     0
  0
APPID
  5
521
330
9
100
AcDbSymbolTableRecord
100
AcDbRegAppTableRecord
  2
GEVID1210825558
 70
     0
  0
APPID
  5
522
330
9
100
AcDbSymbolTableRecord
100
AcDbRegAppTableRecord
  2
GEVID1210825559
 70
     0
  0
APPID
  5
523
330
9
100
AcDbSymbolTableRecord
100
AcDbRegAppTableRecord
  2
GEVID1210825560
 70
     0
  0
APPID
  5
524
330
9
100
AcDbSymbolTableRecord
100
AcDbRegAppTableRecord
  2
GEVID1210825561
 70
     0
  0
APPID
  5
525
330
9
100
AcDbSymbolTableRecord
100
AcDbRegAppTableRecord
  2
GEVID1210825562
 70
     0
  0
APPID
  5
526
330
9
100
AcDbSymbolTableRecord
100
AcDbRegAppTableRecord
  2
GEVID1210825563
 70
     0
  0
APPID
  5
527
330
9
100
AcDbSymbolTableRecord
100
AcDbRegAppTableRecord
  2
GEVID1210825564
 70
     0
  0
APPID
  5
528
330
9
100
AcDbSymbolTableRecord
100
AcDbRegAppTableRecord
  2
GEVID1210825565
 70
     0
  0
APPID
  5
529
330
9
100
AcDbSymbolTableRecord
100
AcDbRegAppTableRecord
  2
GEVID1210825566
 70
     0
  0
APPID
  5
52A
330
9
100
AcDbSymbolTableRecord
100
AcDbRegAppTableRecord
  2
GEVID1210825567
 70
     0
  0
APPID
  5
52B
330
9
100
AcDbSymbolTableRecord
100
AcDbRegAppTableRecord
  2
GENIUS_GENOBJ-N-ZOO_13
 70
     0
  0
APPID
  5
52C
330
9
100
AcDbSymbolTableRecord
100
AcDbRegAppTableRecord
  2
GENIUS_GENZOO_17
 70
     0
  0
APPID
  5
52D
330
9
100
AcDbSymbolTableRecord
100
AcDbRegAppTableRecord
  2
ACADANNOTATIVEDECOMPOSITION
 70
     0
  0
APPID
  5
52E
330
9
100
AcDbSymbolTableRecord
100
AcDbRegAppTableRecord
  2
GENIUS_GENOBJ-N-HTC_13
 70
     0
  0
APPID
  5
52F
330
9
100
AcDbSymbolTableRecord
100
AcDbRegAppTableRecord
  2
GENIUS_GENHATCH_13
 70
     0
  0
APPID
  5
530
330
9
100
AcDbSymbolTableRecord
100
AcDbRegAppTableRecord
  2
GEVID1210896020
 70
     0
  0
APPID
  5
531
330
9
100
AcDbSymbolTableRecord
100
AcDbRegAppTableRecord
  2
GEVID1210896021
 70
     0
  0
APPID
  5
532
330
9
100
AcDbSymbolTableRecord
100
AcDbRegAppTableRecord
  2
GEVID1209083540
 70
     0
  0
APPID
  5
533
330
9
100
AcDbSymbolTableRecord
100
AcDbRegAppTableRecord
  2
GEVMK
 70
     0
  0
APPID
  5
534
330
9
100
AcDbSymbolTableRecord
100
AcDbRegAppTableRecord
  2
GEVID1209083542
 70
     0
  0
APPID
  5
535
330
9
100
AcDbSymbolTableRecord
100
AcDbRegAppTableRecord
  2
GEVID1209083543
 70
     0
  0
APPID
  5
536
330
9
100
AcDbSymbolTableRecord
100
AcDbRegAppTableRecord
  2
GEVID1209083544
 70
     0
  0
APPID
  5
537
330
9
100
AcDbSymbolTableRecord
100
AcDbRegAppTableRecord
  2
GEVID1209083545
 70
     0
  0
APPID
  5
538
330
9
100
AcDbSymbolTableRecord
100
AcDbRegAppTableRecord
  2
GEVID1209083546
 70
     0
  0
APPID
  5
539
330
9
100
AcDbSymbolTableRecord
100
AcDbRegAppTableRecord
  2
GEVID1209083547
 70
     0
  0
APPID
  5
53A
330
9
100
AcDbSymbolTableRecord
100
AcDbRegAppTableRecord
  2
GEVID1209083548
 70
     0
  0
APPID
  5
53B
330
9
100
AcDbSymbolTableRecord
100
AcDbRegAppTableRecord
  2
GEVID1209083549
 70
     0
  0
APPID
  5
53C
330
9
100
AcDbSymbolTableRecord
100
AcDbRegAppTableRecord
  2
GEVID1209083550
 70
     0
  0
APPID
  5
53D
330
9
100
AcDbSymbolTableRecord
100
AcDbRegAppTableRecord
  2
GEVID1209083551
 70
     0
  0
APPID
  5
53E
330
9
100
AcDbSymbolTableRecord
100
AcDbRegAppTableRecord
  2
GEVID1209083552
 70
     0
  0
APPID
  5
53F
330
9
100
AcDbSymbolTableRecord
100
AcDbRegAppTableRecord
  2
GEVID1209083553
 70
     0
  0
APPID
  5
540
330
9
100
AcDbSymbolTableRecord
100
AcDbRegAppTableRecord
  2
GEVID1210896022
 70
     0
  0
APPID
  5
541
330
9
100
AcDbSymbolTableRecord
100
AcDbRegAppTableRecord
  2
GEVID1211508364
 70
     0
  0
APPID
  5
542
330
9
100
AcDbSymbolTableRecord
100
AcDbRegAppTableRecord
  2
GEVID1211414908
 70
     0
  0
APPID
  5
543
330
9
100
AcDbSymbolTableRecord
100
AcDbRegAppTableRecord
  2
GEVID1211414909
 70
     0
  0
APPID
  5
544
330
9
100
AcDbSymbolTableRecord
100
AcDbRegAppTableRecord
  2
GEVID1211508359
 70
     0
  0
APPID
  5
545
330
9
100
AcDbSymbolTableRecord
100
AcDbRegAppTableRecord
  2
GEVID1211508360
 70
     0
  0
APPID
  5
546
330
9
100
AcDbSymbolTableRecord
100
AcDbRegAppTableRecord
  2
GEVID1211508361
 70
     0
  0
APPID
  5
547
330
9
100
AcDbSymbolTableRecord
100
AcDbRegAppTableRecord
  2
GEVID1211508362
 70
     0
  0
APPID
  5
548
330
9
100
AcDbSymbolTableRecord
100
AcDbRegAppTableRecord
  2
GEVID1211508363
 70
     0
  0
APPID
  5
549
330
9
100
AcDbSymbolTableRecord
100
AcDbRegAppTableRecord
  2
GEVID1211878469
 70
     0
  0
APPID
  5
54A
330
9
100
AcDbSymbolTableRecord
100
AcDbRegAppTableRecord
  2
GEVID1212642819
 70
     0
  0
APPID
  5
54B
330
9
100
AcDbSymbolTableRecord
100
AcDbRegAppTableRecord
  2
GEVID1212642820
 70
     0
  0
APPID
  5
54C
330
9
100
AcDbSymbolTableRecord
100
AcDbRegAppTableRecord
  2
GEVID1212642821
 70
     0
  0
APPID
  5
54D
330
9
100
AcDbSymbolTableRecord
100
AcDbRegAppTableRecord
  2
GEVID1212642822
 70
     0
  0
APPID
  5
54E
330
9
100
AcDbSymbolTableRecord
100
AcDbRegAppTableRecord
  2
GEVID1212642823
 70
     0
  0
APPID
  5
54F
330
9
100
AcDbSymbolTableRecord
100
AcDbRegAppTableRecord
  2
GEVID1212642825
 70
     0
  0
APPID
  5
550
330
9
100
AcDbSymbolTableRecord
100
AcDbRegAppTableRecord
  2
GEVID1212642826
 70
     0
  0
APPID
  5
551
330
9
100
AcDbSymbolTableRecord
100
AcDbRegAppTableRecord
  2
GEVID1212642827
 70
     0
  0
APPID
  5
552
330
9
100
AcDbSymbolTableRecord
100
AcDbRegAppTableRecord
  2
GEVID1212642828
 70
     0
  0
APPID
  5
553
330
9
100
AcDbSymbolTableRecord
100
AcDbRegAppTableRecord
  2
GEVID1212642831
 70
     0
  0
APPID
  5
554
330
9
100
AcDbSymbolTableRecord
100
AcDbRegAppTableRecord
  2
GEVID1212642834
 70
     0
  0
APPID
  5
555
330
9
100
AcDbSymbolTableRecord
100
AcDbRegAppTableRecord
  2
GEVID1212642835
 70
     0
  0
APPID
  5
556
330
9
100
AcDbSymbolTableRecord
100
AcDbRegAppTableRecord
  2
GEVID1212642836
 70
     0
  0
APPID
  5
557
330
9
100
AcDbSymbolTableRecord
100
AcDbRegAppTableRecord
  2
GEVID1212642837
 70
     0
  0
APPID
  5
558
330
9
100
AcDbSymbolTableRecord
100
AcDbRegAppTableRecord
  2
GEVID1212642839
 70
     0
  0
APPID
  5
559
330
9
100
AcDbSymbolTableRecord
100
AcDbRegAppTableRecord
  2
GEVID1212642840
 70
     0
  0
APPID
  5
55A
330
9
100
AcDbSymbolTableRecord
100
AcDbRegAppTableRecord
  2
GEVID1212642841
 70
     0
  0
APPID
  5
55B
330
9
100
AcDbSymbolTableRecord
100
AcDbRegAppTableRecord
  2
GEVID1212655312
 70
     0
  0
APPID
  5
55C
330
9
100
AcDbSymbolTableRecord
100
AcDbRegAppTableRecord
  2
GEVID1212655313
 70
     0
  0
APPID
  5
55D
330
9
100
AcDbSymbolTableRecord
100
AcDbRegAppTableRecord
  2
GEVID1212656533
 70
     0
  0
APPID
  5
55E
330
9
100
AcDbSymbolTableRecord
100
AcDbRegAppTableRecord
  2
GEVID1212656534
 70
     0
  0
APPID
  5
55F
330
9
100
AcDbSymbolTableRecord
100
AcDbRegAppTableRecord
  2
GEVID1212656535
 70
     0
  0
APPID
  5
560
330
9
100
AcDbSymbolTableRecord
100
AcDbRegAppTableRecord
  2
GEVID1212656536
 70
     0
  0
APPID
  5
561
330
9
100
AcDbSymbolTableRecord
100
AcDbRegAppTableRecord
  2
GEVID1212656538
 70
     0
  0
APPID
  5
562
330
9
100
AcDbSymbolTableRecord
100
AcDbRegAppTableRecord
  2
GEVID1212656541
 70
     0
  0
APPID
  5
563
330
9
100
AcDbSymbolTableRecord
100
AcDbRegAppTableRecord
  2
GEVID1212656543
 70
     0
  0
APPID
  5
564
330
9
100
AcDbSymbolTableRecord
100
AcDbRegAppTableRecord
  2
GENIUS_GENOBJ-F-PFASSM_13
 70
     0
  0
APPID
  5
565
330
9
100
AcDbSymbolTableRecord
100
AcDbRegAppTableRecord
  2
GEVID1212656544
 70
     0
  0
APPID
  5
566
330
9
100
AcDbSymbolTableRecord
100
AcDbRegAppTableRecord
  2
GEVID1212656545
 70
     0
  0
APPID
  5
567
330
9
100
AcDbSymbolTableRecord
100
AcDbRegAppTableRecord
  2
GEVID1212656546
 70
     0
  0
APPID
  5
568
330
9
100
AcDbSymbolTableRecord
100
AcDbRegAppTableRecord
  2
GEVID1212656547
 70
     0
  0
APPID
  5
569
330
9
100
AcDbSymbolTableRecord
100
AcDbRegAppTableRecord
  2
GEVID1212656548
 70
     0
  0
APPID
  5
56A
330
9
100
AcDbSymbolTableRecord
100
AcDbRegAppTableRecord
  2
GEVID1212656549
 70
     0
  0
APPID
  5
56B
330
9
100
AcDbSymbolTableRecord
100
AcDbRegAppTableRecord
  2
GEVID1212656550
 70
     0
  0
APPID
  5
56C
330
9
100
AcDbSymbolTableRecord
100
AcDbRegAppTableRecord
  2
GEVID1212656552
 70
     0
  0
APPID
  5
56D
330
9
100
AcDbSymbolTableRecord
100
AcDbRegAppTableRecord
  2
GEVID1212656553
 70
     0
  0
APPID
  5
56E
330
9
100
AcDbSymbolTableRecord
100
AcDbRegAppTableRecord
  2
GEVID1212656554
 70
     0
  0
APPID
  5
56F
330
9
100
AcDbSymbolTableRecord
100
AcDbRegAppTableRecord
  2
GEVID1212656555
 70
     0
  0
APPID
  5
570
330
9
100
AcDbSymbolTableRecord
100
AcDbRegAppTableRecord
  2
GEVID1212656556
 70
     0
  0
APPID
  5
571
330
9
100
AcDbSymbolTableRecord
100
AcDbRegAppTableRecord
  2
GEVID1212656557
 70
     0
  0
APPID
  5
572
330
9
100
AcDbSymbolTableRecord
100
AcDbRegAppTableRecord
  2
GEVID1212656559
 70
     0
  0
APPID
  5
573
330
9
100
AcDbSymbolTableRecord
100
AcDbRegAppTableRecord
  2
GEVID1212656560
 70
     0
  0
APPID
  5
574
330
9
100
AcDbSymbolTableRecord
100
AcDbRegAppTableRecord
  2
GEVID1212656561
 70
     0
  0
APPID
  5
575
330
9
100
AcDbSymbolTableRecord
100
AcDbRegAppTableRecord
  2
GEVID1212656562
 70
     0
  0
APPID
  5
576
330
9
100
AcDbSymbolTableRecord
100
AcDbRegAppTableRecord
  2
GEVID1212656563
 70
     0
  0
APPID
  5
577
330
9
100
AcDbSymbolTableRecord
100
AcDbRegAppTableRecord
  2
GEVID1212711781
 70
     0
  0
APPID
  5
578
330
9
100
AcDbSymbolTableRecord
100
AcDbRegAppTableRecord
  2
GEVID1212711782
 70
     0
  0
APPID
  5
579
330
9
100
AcDbSymbolTableRecord
100
AcDbRegAppTableRecord
  2
GEVID1212711783
 70
     0
  0
APPID
  5
57A
330
9
100
AcDbSymbolTableRecord
100
AcDbRegAppTableRecord
  2
GEVID1212711784
 70
     0
  0
APPID
  5
57B
330
9
100
AcDbSymbolTableRecord
100
AcDbRegAppTableRecord
  2
GEVID1212711788
 70
     0
  0
APPID
  5
57C
330
9
100
AcDbSymbolTableRecord
100
AcDbRegAppTableRecord
  2
GEVID1212711789
 70
     0
  0
APPID
  5
57D
330
9
100
AcDbSymbolTableRecord
100
AcDbRegAppTableRecord
  2
GEVID1212711790
 70
     0
  0
APPID
  5
57E
330
9
100
AcDbSymbolTableRecord
100
AcDbRegAppTableRecord
  2
GEVID1212711791
 70
     0
  0
APPID
  5
57F
330
9
100
AcDbSymbolTableRecord
100
AcDbRegAppTableRecord
  2
GEVID1212711792
 70
     0
  0
APPID
  5
580
330
9
100
AcDbSymbolTableRecord
100
AcDbRegAppTableRecord
  2
GEVID1212711793
 70
     0
  0
APPID
  5
581
330
9
100
AcDbSymbolTableRecord
100
AcDbRegAppTableRecord
  2
GEVID1212711794
 70
     0
  0
APPID
  5
582
330
9
100
AcDbSymbolTableRecord
100
AcDbRegAppTableRecord
  2
GEVID1212711795
 70
     0
  0
APPID
  5
583
330
9
100
AcDbSymbolTableRecord
100
AcDbRegAppTableRecord
  2
GEVID1212711797
 70
     0
  0
APPID
  5
584
330
9
100
AcDbSymbolTableRecord
100
AcDbRegAppTableRecord
  2
GEVID1212711798
 70
     0
  0
APPID
  5
585
330
9
100
AcDbSymbolTableRecord
100
AcDbRegAppTableRecord
  2
GEVID1212711799
 70
     0
  0
APPID
  5
586
330
9
100
AcDbSymbolTableRecord
100
AcDbRegAppTableRecord
  2
GEVID1212711800
 70
     0
  0
APPID
  5
587
330
9
100
AcDbSymbolTableRecord
100
AcDbRegAppTableRecord
  2
GEVID1212711801
 70
     0
  0
APPID
  5
588
330
9
100
AcDbSymbolTableRecord
100
AcDbRegAppTableRecord
  2
GEVID1212711802
 70
     0
  0
APPID
  5
589
330
9
100
AcDbSymbolTableRecord
100
AcDbRegAppTableRecord
  2
GEVID1212711803
 70
     0
  0
APPID
  5
58A
330
9
100
AcDbSymbolTableRecord
100
AcDbRegAppTableRecord
  2
GEVID1212711804
 70
     0
  0
APPID
  5
58B
330
9
100
AcDbSymbolTableRecord
100
AcDbRegAppTableRecord
  2
GEVID1212711805
 70
     0
  0
APPID
  5
58C
330
9
100
AcDbSymbolTableRecord
100
AcDbRegAppTableRecord
  2
GEVID1212711806
 70
     0
  0
APPID
  5
58D
330
9
100
AcDbSymbolTableRecord
100
AcDbRegAppTableRecord
  2
GEVID1212711807
 70
     0
  0
APPID
  5
58E
330
9
100
AcDbSymbolTableRecord
100
AcDbRegAppTableRecord
  2
GEVID1212711808
 70
     0
  0
APPID
  5
58F
330
9
100
AcDbSymbolTableRecord
100
AcDbRegAppTableRecord
  2
GEVID1212711809
 70
     0
  0
APPID
  5
590
330
9
100
AcDbSymbolTableRecord
100
AcDbRegAppTableRecord
  2
GEVID1212711810
 70
     0
  0
APPID
  5
591
330
9
100
AcDbSymbolTableRecord
100
AcDbRegAppTableRecord
  2
GEVID1212711811
 70
     0
  0
APPID
  5
90A
330
9
100
AcDbSymbolTableRecord
100
AcDbRegAppTableRecord
  2
GENIUS_GENTRA_14
 70
     0
  0
APPID
  5
919
330
9
100
AcDbSymbolTableRecord
100
AcDbRegAppTableRecord
  2
GENIUS_GENOBJ-N-TIT_13
 70
     0
  0
APPID
  5
91A
330
9
100
AcDbSymbolTableRecord
100
AcDbRegAppTableRecord
  2
GENIUS_GENTITLE_13
 70
     0
  0
APPID
  5
949
330
9
100
AcDbSymbolTableRecord
100
AcDbRegAppTableRecord
  2
GENIUS_GENBLLY_14
 70
     0
  0
APPID
  5
DDD
330
9
100
AcDbSymbolTableRecord
100
AcDbRegAppTableRecord
  2
GEVID1213165152
 70
     0
  0
APPID
  5
12F9
330
9
100
AcDbSymbolTableRecord
100
AcDbRegAppTableRecord
  2
AcDbDynamicBlockTrueName
 70
     0
  0
APPID
  5
12FA
330
9
100
AcDbSymbolTableRecord
100
AcDbRegAppTableRecord
  2
ACDBBLOCKREPETAG
 70
     0
  0
APPID
  5
1C15
330
9
100
AcDbSymbolTableRecord
100
AcDbRegAppTableRecord
  2
GEVID1214872427
 70
     0
  0
APPID
  5
1C2A
330
9
100
AcDbSymbolTableRecord
100
AcDbRegAppTableRecord
  2
GEVID1214872428
 70
     0
  0
APPID
  5
1C2F
330
9
100
AcDbSymbolTableRecord
100
AcDbRegAppTableRecord
  2
GEVID1214872429
 70
     0
  0
APPID
  5
1C33
330
9
100
AcDbSymbolTableRecord
100
AcDbRegAppTableRecord
  2
GEVID1214872430
 70
     0
  0
APPID
  5
1C3F
330
9
100
AcDbSymbolTableRecord
100
AcDbRegAppTableRecord
  2
GEVID1214872432
 70
     0
  0
APPID
  5
1C4E
330
9
100
AcDbSymbolTableRecord
100
AcDbRegAppTableRecord
  2
GEVID1214872433
 70
     0
  0
APPID
  5
20DC
330
9
100
AcDbSymbolTableRecord
100
AcDbRegAppTableRecord
  2
AcDbDynamicBlockGUID
 70
     0
  0
APPID
  5
20FD
330
9
100
AcDbSymbolTableRecord
100
AcDbRegAppTableRecord
  2
GENIUS_GENOBJ-N-REV_13
 70
     0
  0
APPID
  5
20FE
330
9
100
AcDbSymbolTableRecord
100
AcDbRegAppTableRecord
  2
GENIUS_GENOBJ-N-RSSYM_13
 70
     0
  0
APPID
  5
20FF
330
9
100
AcDbSymbolTableRecord
100
AcDbRegAppTableRecord
  2
GENIUS_GENSYMENT_13
 70
     0
  0
APPID
  5
2100
330
9
100
AcDbSymbolTableRecord
100
AcDbRegAppTableRecord
  2
GENIUS_GENSCSYM_13
 70
     0
  0
APPID
  5
4147
330
9
100
AcDbSymbolTableRecord
100
AcDbRegAppTableRecord
  2
GEVID1234773908
 70
     0
  0
APPID
  5
5F61
330
9
100
AcDbSymbolTableRecord
100
AcDbRegAppTableRecord
  2
GEVID1234834917
 70
     0
  0
APPID
  5
5F70
330
9
100
AcDbSymbolTableRecord
100
AcDbRegAppTableRecord
  2
GEVID1234834918
 70
     0
  0
APPID
  5
5F99
330
9
100
AcDbSymbolTableRecord
100
AcDbRegAppTableRecord
  2
GEVID1234834919
 70
     0
  0
APPID
  5
5FBE
330
9
100
AcDbSymbolTableRecord
100
AcDbRegAppTableRecord
  2
GEVID1234834920
 70
     0
  0
APPID
  5
5FCA
330
9
100
AcDbSymbolTableRecord
100
AcDbRegAppTableRecord
  2
GEVID1234834921
 70
     0
  0
APPID
  5
5FEE
330
9
100
AcDbSymbolTableRecord
100
AcDbRegAppTableRecord
  2
GEVID1234834922
 70
     0
  0
APPID
  5
6001
330
9
100
AcDbSymbolTableRecord
100
AcDbRegAppTableRecord
  2
GEVID1234834923
 70
     0
  0
APPID
  5
6005
330
9
100
AcDbSymbolTableRecord
100
AcDbRegAppTableRecord
  2
GEVID1234834924
 70
     0
  0
APPID
  5
6081
330
9
100
AcDbSymbolTableRecord
100
AcDbRegAppTableRecord
  2
GEVID1234834925
 70
     0
  0
ENDTAB
  0
TABLE
  2
DIMSTYLE
  5
A
330
0
100
AcDbSymbolTable
 70
    29
100
AcDbDimStyleTable
 71
     1
340
5AB
  0
DIMSTYLE
105
5AB
330
A
100
AcDbSymbolTableRecord
100
AcDbDimStyleTableRecord
  2
SEISA
 70
     0
  4
"
 40
5.0
 41
2.5
 42
0.625
 43
10.0
 44
0.625
 47
0.1
 48
0.1
 73
     0
 74
     0
 77
     3
 78
     8
 79
     2
 90
     1
140
3.5
141
0.0
143
0.0393701
146
0.71
147
1.5
172
     1
176
     3
177
     3
178
     3
271
     2
272
     2
283
     0
286
     8
340
5D5
341
69
342
69
371
    -1
372
    -1
1001
ACAD_DSTYLE_DIMJAG
1070
   388
1040
1.5
1001
ACAD_DSTYLE_DIMTALN
1070
   392
1070
     1
  0
DIMSTYLE
105
5E9
102
{ACAD_REACTORS
330
3BC3
330
3A4F
330
3A4C
330
3A50
330
3A49
330
3A3E
330
3A3D
330
3A3C
330
3BB4
330
3A75
330
3A63
330
3AAE
330
783C
330
8A4F
330
8B1E
330
8B61
102
}
330
A
100
AcDbSymbolTableRecord
100
AcDbDimStyleTableRecord
  2
SEISA$0
 70
     0
  4
"
 40
5.0
 41
2.5
 42
0.625
 43
10.0
 44
0.625
 47
0.1
 48
0.1
 73
     0
 74
     0
 77
     3
 78
     8
 79
     2
 90
     1
140
3.5
141
0.0
143
0.0393701
146
0.71
147
1.5
172
     1
176
     3
177
     3
178
     3
271
     2
272
     2
283
     0
286
     8
340
5D5
341
69
342
69
371
    -1
372
    -1
  0
DIMSTYLE
105
8DF8
330
A
100
AcDbSymbolTableRecord
100
AcDbDimStyleTableRecord
  2
AM_ISO
 70
     0
  4
"
 41
2.5
 42
1.0
 43
10.0
 44
1.0
 47
0.1
 48
0.1
 73
     0
 74
     0
 77
     1
 78
     8
 79
     2
 90
     1
140
3.5
141
0.0
143
0.0393701
146
0.71
147
1.5
172
     1
176
   256
177
   256
178
     2
271
     2
272
     3
274
     4
283
     0
284
     8
340
11
371
    -1
372
    -1
  0
DIMSTYLE
105
8DF9
330
A
100
AcDbSymbolTableRecord
100
AcDbDimStyleTableRecord
  2
AM_ISO$3
 70
     0
  4
"
 41
2.5
 42
1.0
 43
10.0
 44
1.0
 47
0.1
 48
0.1
 73
     0
 77
     1
 78
     8
 79
     2
 90
     1
140
3.5
141
0.0
143
0.0393701
146
0.71
147
1.5
176
   256
177
   256
178
     2
271
     2
272
     3
274
     4
283
     0
284
     8
288
     1
289
     0
340
11
371
    -1
372
    -1
  0
DIMSTYLE
105
8DFA
330
A
100
AcDbSymbolTableRecord
100
AcDbDimStyleTableRecord
  2
AM_ISO$4
 70
     0
  4
"
 41
2.5
 42
1.0
 43
10.0
 44
1.0
 47
0.1
 48
0.1
 73
     0
 77
     1
 78
     8
 79
     2
 90
     1
140
3.5
141
0.0
143
0.0393701
146
0.71
147
1.5
176
   256
177
   256
178
     2
271
     2
272
     3
274
     4
283
     0
284
     8
288
     1
289
     0
340
11
371
    -1
372
    -1
  0
DIMSTYLE
105
8DFB
330
A
100
AcDbSymbolTableRecord
100
AcDbDimStyleTableRecord
  2
AM_ISO$6
 70
     0
  4
"
 41
2.5
 42
1.0
 43
10.0
 44
1.0
 47
0.1
 48
0.1
 73
     0
 74
     0
 78
     8
 79
     2
 90
     1
140
3.5
141
0.0
143
0.0393701
146
0.71
147
1.5
172
     1
176
   256
177
   256
178
     2
271
     2
272
     3
274
     4
283
     0
284
     8
340
11
371
    -1
372
    -1
  0
DIMSTYLE
105
8DFC
330
A
100
AcDbSymbolTableRecord
100
AcDbDimStyleTableRecord
  2
AM_ISO$7
 70
     0
  4
"
 41
2.5
 42
1.0
 43
10.0
 44
1.0
 47
0.1
 48
0.1
 73
     0
 74
     0
 77
     1
 78
     8
 79
     2
 90
     1
140
5.0
141
0.0
143
0.0393701
146
0.71
147
1.5
172
     1
176
   256
177
   256
178
     2
271
     2
272
     3
274
     4
283
     0
284
     8
340
11
371
    -1
372
    -1
  0
DIMSTYLE
105
8DFD
330
A
100
AcDbSymbolTableRecord
100
AcDbDimStyleTableRecord
  2
AM_ISO$SF
 70
     0
  4
"
 41
2.5
 42
1.0
 43
10.0
 44
1.0
 47
0.1
 48
0.1
 73
     0
 74
     0
 75
     1
 76
     1
 77
     1
 78
     8
 79
     2
 90
     1
140
3.5
141
0.0
143
0.0393701
146
0.71
147
1.5
172
     1
176
   256
177
   256
178
     2
271
     2
272
     3
274
     4
283
     0
284
     8
340
11
371
    -1
372
    -1
  0
DIMSTYLE
105
8DFE
330
A
100
AcDbSymbolTableRecord
100
AcDbDimStyleTableRecord
  2
AM_ISO$SH
 70
     0
  4
"
 41
2.5
 42
1.0
 43
10.0
 44
1.0
 47
0.1
 48
0.1
 73
     0
 74
     0
 75
     1
 76
     1
 77
     1
 78
     8
 79
     2
 90
     1
140
3.5
141
0.0
143
0.0393701
144
2.0
146
0.71
147
1.5
172
     1
173
     1
176
   256
177
   256
178
     2
271
     2
272
     3
274
     4
283
     0
284
     8
340
11
343
74
371
    -1
372
    -1
  0
ENDTAB
  0
TABLE
  2
BLOCK_RECORD
  5
1
330
0
100
AcDbSymbolTable
 70
    31
  0
BLOCK_RECORD
  5
1F
102
{ACAD_XDICTIONARY
360
82
102
}
330
1
100
AcDbSymbolTableRecord
100
AcDbBlockTableRecord
  2
*Model_Space
340
22
 70
     0
280
     1
281
     0
  0
BLOCK_RECORD
  5
1B
330
1
100
AcDbSymbolTableRecord
100
AcDbBlockTableRecord
  2
*Paper_Space
340
1E
 70
     0
280
     1
281
     0
  0
BLOCK_RECORD
  5
23
330
1
100
AcDbSymbolTableRecord
100
AcDbBlockTableRecord
  2
*Paper_Space0
340
26
 70
     0
280
     1
281
     0
  0
BLOCK_RECORD
  5
69
330
1
100
AcDbSymbolTableRecord
100
AcDbBlockTableRecord
  2
_Open30
340
0
102
{BLKREFS
331
7364
331
7365
331
736B
331
736C
331
7373
331
7374
331
7485
331
7486
331
76FD
331
76FE
331
7723
331
7724
331
7735
331
7736
331
773E
331
773F
331
781F
331
7820
331
7F07
331
7F1E
331
8A0A
331
8A0B
331
8B5C
331
8B5D
331
8BAF
331
8BB0
331
8BF2
331
8BF3
331
8CC3
331
8CC4
102
}
 70
     0
280
     1
281
     0
  0
BLOCK_RECORD
  5
74
330
1
100
AcDbSymbolTableRecord
100
AcDbBlockTableRecord
  2
GENAXEH
340
0
 70
     0
280
     1
281
     0
  0
BLOCK_RECORD
  5
3BFA
330
1
100
AcDbSymbolTableRecord
100
AcDbBlockTableRecord
  2
*D6
340
0
 70
     0
280
     1
281
     0
  0
BLOCK_RECORD
  5
3C06
330
1
100
AcDbSymbolTableRecord
100
AcDbBlockTableRecord
  2
*D7
340
0
 70
     0
280
     1
281
     0
  0
BLOCK_RECORD
  5
3C12
330
1
100
AcDbSymbolTableRecord
100
AcDbBlockTableRecord
  2
*D8
340
0
 70
     0
280
     1
281
     0
  0
BLOCK_RECORD
  5
3C2E
330
1
100
AcDbSymbolTableRecord
100
AcDbBlockTableRecord
  2
*D9
340
0
 70
     0
280
     1
281
     0
  0
BLOCK_RECORD
  5
3C52
330
1
100
AcDbSymbolTableRecord
100
AcDbBlockTableRecord
  2
*D10
340
0
 70
     0
280
     1
281
     0
  0
BLOCK_RECORD
  5
3CB6
330
1
100
AcDbSymbolTableRecord
100
AcDbBlockTableRecord
  2
*D11
340
0
 70
     0
280
     1
281
     0
  0
BLOCK_RECORD
  5
3CC2
330
1
100
AcDbSymbolTableRecord
100
AcDbBlockTableRecord
  2
*D12
340
0
 70
     0
280
     1
281
     0
  0
BLOCK_RECORD
  5
3CCE
330
1
100
AcDbSymbolTableRecord
100
AcDbBlockTableRecord
  2
*D13
340
0
 70
     0
280
     1
281
     0
  0
BLOCK_RECORD
  5
3D00
330
1
100
AcDbSymbolTableRecord
100
AcDbBlockTableRecord
  2
*D14
340
0
 70
     0
280
     1
281
     0
  0
BLOCK_RECORD
  5
3D18
330
1
100
AcDbSymbolTableRecord
100
AcDbBlockTableRecord
  2
*D15
340
0
 70
     0
280
     1
281
     0
  0
BLOCK_RECORD
  5
3D24
330
1
100
AcDbSymbolTableRecord
100
AcDbBlockTableRecord
  2
*D16
340
0
 70
     0
280
     1
281
     0
  0
BLOCK_RECORD
  5
3D32
330
1
100
AcDbSymbolTableRecord
100
AcDbBlockTableRecord
  2
*D17
340
0
 70
     0
280
     1
281
     0
  0
BLOCK_RECORD
  5
4185
102
{ACAD_XDICTIONARY
360
41BC
102
}
330
1
100
AcDbSymbolTableRecord
100
AcDbBlockTableRecord
  2
ロッカクアナツキプラグ R1／4
340
0
310
2800000020000000200000000100080000000000000400000000000000000000000000000000000000000000000080000080000000808000800000008000800080800000C0C0C000C0DCC000F0CAA6000020400000206000002080000020A0000020C0000020E00000400000004020000040400000406000004080000040A0
310
000040C0000040E00000600000006020000060400000606000006080000060A0000060C0000060E00000800000008020000080400000806000008080000080A0000080C0000080E00000A0000000A0200000A0400000A0600000A0800000A0A00000A0C00000A0E00000C0000000C0200000C0400000C0600000C0800000C0
310
A00000C0C00000C0E00000E0000000E0200000E0400000E0600000E0800000E0A00000E0C00000E0E00040000000400020004000400040006000400080004000A0004000C0004000E00040200000402020004020400040206000402080004020A0004020C0004020E000404000004040200040404000404060004040800040
310
40A0004040C0004040E00040600000406020004060400040606000406080004060A0004060C0004060E00040800000408020004080400040806000408080004080A0004080C0004080E00040A0000040A0200040A0400040A0600040A0800040A0A00040A0C00040A0E00040C0000040C0200040C0400040C0600040C08000
310
40C0A00040C0C00040C0E00040E0000040E0200040E0400040E0600040E0800040E0A00040E0C00040E0E00080000000800020008000400080006000800080008000A0008000C0008000E00080200000802020008020400080206000802080008020A0008020C0008020E00080400000804020008040400080406000804080
310
008040A0008040C0008040E00080600000806020008060400080606000806080008060A0008060C0008060E00080800000808020008080400080806000808080008080A0008080C0008080E00080A0000080A0200080A0400080A0600080A0800080A0A00080A0C00080A0E00080C0000080C0200080C0400080C0600080C0
310
800080C0A00080C0C00080C0E00080E0000080E0200080E0400080E0600080E0800080E0A00080E0C00080E0E000C0000000C0002000C0004000C0006000C0008000C000A000C000C000C000E000C0200000C0202000C0204000C0206000C0208000C020A000C020C000C020E000C0400000C0402000C0404000C0406000C0
310
408000C040A000C040C000C040E000C0600000C0602000C0604000C0606000C0608000C060A000C060C000C060E000C0800000C0802000C0804000C0806000C0808000C080A000C080C000C080E000C0A00000C0A02000C0A04000C0A06000C0A08000C0A0A000C0A0C000C0A0E000C0C00000C0C02000C0C04000C0C06000
310
C0C08000C0C0A000F0FBFF00A4A0A000808080000000FF0000FF000000FFFF00FF000000FF00FF00FFFF0000FFFFFF0000000000000000000000000000000000000000000000000000000000000000000000000000000000000000000000000000000000000000000000000000000000000000000000000000000000000000
310
F900000000000000000000000000000000000000000000000000000000000000F9000000000000000000000000000000000000000000000000000000000000FFF9FFFFFF00000000000000000000000000000000000000000000000000FFFFFEFEFEFE00FFFF000000000000000000000000000000000000000000FFFFFEFE
310
00F90000FEFE00FFFF0000000000000000000000000000000000FFFFFEFE000000F900000000FEFE00FF000000000000000000000000000000FF00FE0000000000F9000000000000FE00FF00000000000000000000000000FF00FE000000000000F900000000000000FE00FF000000000000000000000000FFFE0000000000
310
0000F90000000000000000FE00FF00000000000000000000FFFE0000000000000000FFFF0000000000000000FEFF00000000000000000000FFFE000000000000FFFFF900FFFF000000000000FE00FF000000000000000000FFFE00000000FFFF0000F9000000FFFF00000000FE00FF0000000000000000FF00FE00000000FF
310
000000F900000000FF00000000FE00FF0000000000000000FFFE0000000000FF000000F900000000FF0000000000FEFF0000000000F9F9F9F9F9F9F9F9F9F9FFF9F9F9F9F9F9F9F9FFF9F9F9F9F9F9F9F9F9F90000000000FF00FE00000000FF000000F900000000FF0000000000FEFF000000000000000000FFFE00000000
310
FF000000F9000000FFFF00000000FE00FF000000000000000000FFFE0000000000FFFF00F900FFFF000000000000FE00FF000000000000000000FFFE00000000000000FFFFFF0000000000000000FEFF0000000000000000000000FFFE00000000000000F90000000000000000FE00FF0000000000000000000000FF00FE00
310
0000000000F900000000000000FE00FF00000000000000000000000000FF00FE0000000000F9000000000000FE00FF000000000000000000000000000000FF00FE00000000F90000000000FE00FF0000000000000000000000000000000000FFFFFEFE0000F9000000FEFE00FF000000000000000000000000000000000000
310
0000FFFFFEFEFEFEFEFEFFFFFF000000000000000000000000000000000000000000000000FFF9FFFFFF00000000000000000000000000000000000000000000000000000000F900000000000000000000000000000000000000000000000000000000000000F9000000000000000000000000000000000000000000000000
310
0000000000000000000000000000000000000000000000000000000000000000000000000000000000000000000000000000000000000000
102
{BLKREFS
331
4316
102
}
 70
     4
280
     1
281
     0
  0
BLOCK_RECORD
  5
41E0
102
{ACAD_XDICTIONARY
360
4276
102
}
330
1
100
AcDbSymbolTableRecord
100
AcDbBlockTableRecord
  2
センタＡ SSM400
340
0
310
2800000020000000200000000100080000000000000400000000000000000000000000000000000000000000000080000080000000808000800000008000800080800000C0C0C000C0DCC000F0CAA6000020400000206000002080000020A0000020C0000020E00000400000004020000040400000406000004080000040A0
310
000040C0000040E00000600000006020000060400000606000006080000060A0000060C0000060E00000800000008020000080400000806000008080000080A0000080C0000080E00000A0000000A0200000A0400000A0600000A0800000A0A00000A0C00000A0E00000C0000000C0200000C0400000C0600000C0800000C0
310
A00000C0C00000C0E00000E0000000E0200000E0400000E0600000E0800000E0A00000E0C00000E0E00040000000400020004000400040006000400080004000A0004000C0004000E00040200000402020004020400040206000402080004020A0004020C0004020E000404000004040200040404000404060004040800040
310
40A0004040C0004040E00040600000406020004060400040606000406080004060A0004060C0004060E00040800000408020004080400040806000408080004080A0004080C0004080E00040A0000040A0200040A0400040A0600040A0800040A0A00040A0C00040A0E00040C0000040C0200040C0400040C0600040C08000
310
40C0A00040C0C00040C0E00040E0000040E0200040E0400040E0600040E0800040E0A00040E0C00040E0E00080000000800020008000400080006000800080008000A0008000C0008000E00080200000802020008020400080206000802080008020A0008020C0008020E00080400000804020008040400080406000804080
310
008040A0008040C0008040E00080600000806020008060400080606000806080008060A0008060C0008060E00080800000808020008080400080806000808080008080A0008080C0008080E00080A0000080A0200080A0400080A0600080A0800080A0A00080A0C00080A0E00080C0000080C0200080C0400080C0600080C0
310
800080C0A00080C0C00080C0E00080E0000080E0200080E0400080E0600080E0800080E0A00080E0C00080E0E000C0000000C0002000C0004000C0006000C0008000C000A000C000C000C000E000C0200000C0202000C0204000C0206000C0208000C020A000C020C000C020E000C0400000C0402000C0404000C0406000C0
310
408000C040A000C040C000C040E000C0600000C0602000C0604000C0606000C0608000C060A000C060C000C060E000C0800000C0802000C0804000C0806000C0808000C080A000C080C000C080E000C0A00000C0A02000C0A04000C0A06000C0A08000C0A0A000C0A0C000C0A0E000C0C00000C0C02000C0C04000C0C06000
310
C0C08000C0C0A000F0FBFF00A4A0A000808080000000FF0000FF000000FFFF00FF000000FF00FF00FFFF0000FFFFFF00000000000000000000000000000000000000000000000000000000000000000000000000000000000000000000000000FFFFFFFFFFFFFFFFFF00000000000000000000000000000000000000000000
310
00000000FF0000000000FF00000000000000000000000000000000000000000000000000FF0000000000FF00000000000000000000000000000000000000000000000000FF0000000000FF00000000000000000000000000000000000000000000000000FF0000000000FF0000000000000000000000000000000000000000
310
0000000000FF0000000000FF00000000000000000000000000000000000000000000000000FF0000000000FF00000000000000000000000000000000000000000000000000FF0000000000FF00000000000000000000000000000000000000000000000000FF0000000000FF00000000000000000000000000000000000000
310
000000000000FF0000000000FF00000000000000000000000000000000000000000000000000FF0000000000FF00000000000000000000000000000000000000000000000000FF0000000000FF00000000000000000000000000000000000000000000000000FF0000000000FF000000000000000000000000000000000000
310
00000000000000FF0000000000FF000000000000000000000000A4A4A4A4A40000000000000000FF00000000FFFF000000000000000000000000FF0000000000000000000000000000000000FFFF000000000000000000000000FF0000000000000000000000000000000000FFFF000000000000000000000000FF00000000
310
00000000000000000000000000FFFF000000000000000000000000FF0000000000000000000000000000000000FFFF000000000000000000000000FF0000000000000000000000000000000000FFFF000000000000000000000000FF0000000000000000000000000000000000FFFF000000000000000000000000FF000000
310
0000000000000000000000000000FFFF000000000000000000000000FFFFFFFFFFFFFFFFFFFFFFFFFFFFFFFFFFFFFFFF000000000000000000000000FF00000000FAFAFAFAFAFAFAFAFAFAFA000000FF000000000000000000000000FF000000000000FAFAFA00FAFAFAFA00000000FF000000000000000000000000FF0000
310
0000000000FA0000FAFAFAFA00000000FF000000000000000000000000FF00000000000000FA0000FAFAFAFA00000000FF000000000000000000000000FFFFFFFFFFF9FFFFFFFFFFFFFFFFFFFFFFFFFF00000000000000000000000000000000FFFFF9FFFFFF00000000000000000000000000000000000000000000000000
310
000000F900000000000000000000000000000000000000000000000000000000000000000000000000000000000000000000000000000000
102
{BLKREFS
331
4209
102
}
 70
     4
280
     1
281
     0
  0
BLOCK_RECORD
  5
42D2
102
{ACAD_XDICTIONARY
360
439F
102
}
330
1
100
AcDbSymbolTableRecord
100
AcDbBlockTableRecord
  2
ケースＡ SSM400
340
0
310
2800000020000000200000000100080000000000000400000000000000000000000000000000000000000000000080000080000000808000800000008000800080800000C0C0C000C0DCC000F0CAA6000020400000206000002080000020A0000020C0000020E00000400000004020000040400000406000004080000040A0
310
000040C0000040E00000600000006020000060400000606000006080000060A0000060C0000060E00000800000008020000080400000806000008080000080A0000080C0000080E00000A0000000A0200000A0400000A0600000A0800000A0A00000A0C00000A0E00000C0000000C0200000C0400000C0600000C0800000C0
310
A00000C0C00000C0E00000E0000000E0200000E0400000E0600000E0800000E0A00000E0C00000E0E00040000000400020004000400040006000400080004000A0004000C0004000E00040200000402020004020400040206000402080004020A0004020C0004020E000404000004040200040404000404060004040800040
310
40A0004040C0004040E00040600000406020004060400040606000406080004060A0004060C0004060E00040800000408020004080400040806000408080004080A0004080C0004080E00040A0000040A0200040A0400040A0600040A0800040A0A00040A0C00040A0E00040C0000040C0200040C0400040C0600040C08000
310
40C0A00040C0C00040C0E00040E0000040E0200040E0400040E0600040E0800040E0A00040E0C00040E0E00080000000800020008000400080006000800080008000A0008000C0008000E00080200000802020008020400080206000802080008020A0008020C0008020E00080400000804020008040400080406000804080
310
008040A0008040C0008040E00080600000806020008060400080606000806080008060A0008060C0008060E00080800000808020008080400080806000808080008080A0008080C0008080E00080A0000080A0200080A0400080A0600080A0800080A0A00080A0C00080A0E00080C0000080C0200080C0400080C0600080C0
310
800080C0A00080C0C00080C0E00080E0000080E0200080E0400080E0600080E0800080E0A00080E0C00080E0E000C0000000C0002000C0004000C0006000C0008000C000A000C000C000C000E000C0200000C0202000C0204000C0206000C0208000C020A000C020C000C020E000C0400000C0402000C0404000C0406000C0
310
408000C040A000C040C000C040E000C0600000C0602000C0604000C0606000C0608000C060A000C060C000C060E000C0800000C0802000C0804000C0806000C0808000C080A000C080C000C080E000C0A00000C0A02000C0A04000C0A06000C0A08000C0A0A000C0A0C000C0A0E000C0C00000C0C02000C0C04000C0C06000
310
C0C08000C0C0A000F0FBFF00A4A0A000808080000000FF0000FF000000FFFF00FF000000FF00FF00FFFF0000FFFFFF00000000000000000000000000000000000000000000000000000000000000000000000000000000000000000000FFFF000000000000000000000000000000000000000000000000000000000000FFFF
310
000000000000000000000000000000000000000000000000000000000000FFFF000000000000000000000000000000000000000000000000000000000000FFFFFFFFFFFFFFFFFF0000000000000000000000000000000000000000000000FFFF000000000000FF0000000000000000000000000000000000000000000000FF
310
FF000000000000FF0000000000000000000000000000000000000000000000FFFF000000000000FF0000000000000000000000000000000000000000000000FFFF000000000000FF0000000000000000000000000000000000000000000000FFFF000000000000FF0000000000000000000000000000000000000000000000
310
FFFF000000000000FF0000000000000000000000000000000000000000000000FFFF000000000000FF0000000000000000000000000000000000000000000000FFFF000000000000FF0000000000000000000000000000000000000000000000FEFE000000000000FF00000000000000000000000000000000000000000000
310
00FFFF000000000000FF0000000000000000000000000000000000000000000000FFFF000000000000FF0000000000000000000000000000000000000000000000FFFF000000000000FF0000000000000000000000000000000000000000000000000000000000000000000000000000000000000000000000000000000000
310
00000000000000000000000000000000000000000000000000000000000000000000000000000000000000000000000000000000000000000000000000000000000000000000000000000000000000000000000000000000000000000000000000000000000000000000000000000000000000000000000000000000000000
310
00000000000000000000000000000000000000000000000000000000000000000000000000000000000000000000000000000000000000000000000000000000000000000000000000000000000000000000000000000000000000000000000000000000000000000000000000000000000000000000000000000000000000
310
000000FF0000FFA4A4A4A4FFFF00000000000000000000000000000000000000000000FFFFFFFFFFFFFFFFFFFF0000000000000000000000000000000000000000F9F9F9FFFFF9F900000000000000000000000000000000000000000000000000000000FFFF00000000000000000000000000000000000000000000000000
310
000000FFFFFFFF00000000000000000000000000000000000000000000000000000000000000000000000000000000000000000000000000
102
{BLKREFS
331
626E
102
}
 70
     4
280
     1
281
     0
  0
BLOCK_RECORD
  5
43F0
102
{ACAD_XDICTIONARY
360
449E
102
}
330
1
100
AcDbSymbolTableRecord
100
AcDbBlockTableRecord
  2
ケースＢ SSM400
340
0
310
2800000020000000200000000100080000000000000400000000000000000000000000000000000000000000000080000080000000808000800000008000800080800000C0C0C000C0DCC000F0CAA6000020400000206000002080000020A0000020C0000020E00000400000004020000040400000406000004080000040A0
310
000040C0000040E00000600000006020000060400000606000006080000060A0000060C0000060E00000800000008020000080400000806000008080000080A0000080C0000080E00000A0000000A0200000A0400000A0600000A0800000A0A00000A0C00000A0E00000C0000000C0200000C0400000C0600000C0800000C0
310
A00000C0C00000C0E00000E0000000E0200000E0400000E0600000E0800000E0A00000E0C00000E0E00040000000400020004000400040006000400080004000A0004000C0004000E00040200000402020004020400040206000402080004020A0004020C0004020E000404000004040200040404000404060004040800040
310
40A0004040C0004040E00040600000406020004060400040606000406080004060A0004060C0004060E00040800000408020004080400040806000408080004080A0004080C0004080E00040A0000040A0200040A0400040A0600040A0800040A0A00040A0C00040A0E00040C0000040C0200040C0400040C0600040C08000
310
40C0A00040C0C00040C0E00040E0000040E0200040E0400040E0600040E0800040E0A00040E0C00040E0E00080000000800020008000400080006000800080008000A0008000C0008000E00080200000802020008020400080206000802080008020A0008020C0008020E00080400000804020008040400080406000804080
310
008040A0008040C0008040E00080600000806020008060400080606000806080008060A0008060C0008060E00080800000808020008080400080806000808080008080A0008080C0008080E00080A0000080A0200080A0400080A0600080A0800080A0A00080A0C00080A0E00080C0000080C0200080C0400080C0600080C0
310
800080C0A00080C0C00080C0E00080E0000080E0200080E0400080E0600080E0800080E0A00080E0C00080E0E000C0000000C0002000C0004000C0006000C0008000C000A000C000C000C000E000C0200000C0202000C0204000C0206000C0208000C020A000C020C000C020E000C0400000C0402000C0404000C0406000C0
310
408000C040A000C040C000C040E000C0600000C0602000C0604000C0606000C0608000C060A000C060C000C060E000C0800000C0802000C0804000C0806000C0808000C080A000C080C000C080E000C0A00000C0A02000C0A04000C0A06000C0A08000C0A0A000C0A0C000C0A0E000C0C00000C0C02000C0C04000C0C06000
310
C0C08000C0C0A000F0FBFF00A4A0A000808080000000FF0000FF000000FFFF00FF000000FF00FF00FFFF0000FFFFFF0000000000000000000000000000000000000000000000000000000000000000000000000000000000000000000000000000FFFF00000000000000000000000000000000000000000000000000000000
310
0000FF000000000000000000000000000000000000000000000000000000000000F9F9F9F9F9F90000000000000000000000000000000000000000FFFFFFFFFFFFFFFF000000000000000000000000000000000000000000000000FF000000000000FF000000000000000000000000000000000000000000000000FF000000
310
000000FF000000000000000000000000000000000000000000000000FF000000000000FF000000000000000000000000000000000000000000000000FF000000000000FF000000000000000000000000000000000000000000000000FF000000000000FF000000000000000000000000000000000000000000000000FF0000
310
00000000FF000000000000000000000000000000000000000000000000FF000000000000FF000000000000000000000000000000000000000000000000FF000000000000FF000000000000000000000000000000000000000000000000FF000000000000FF000000000000000000000000000000000000000000000000FF00
310
0000000000FF000000000000000000000000000000000000000000000000FF000000000000FF000000000000000000000000000000000000000000000000FF000000000000FF000000000000000000000000000000000000000000000000000000000000000000000000000000000000000000000000000000000000000000
310
00000000000000000000000000000000000000000000000000000000000000000000000000000000000000000000000000000000000000000000000000000000000000000000000000000000000000000000000000000000000000000000000000000000000000000000000000000000000000000000000000000000000000
310
00000000000000000000000000000000000000000000000000000000000000000000000000000000000000000000000000000000000000000000000000000000000000000000000000000000000000000000000000000000000000000000000000000000000000000000000000000000000000000000000000000000000000
310
00FFFFFFFFFFFFFF00FF0000000000000000000000000000000000000000000000FFFFFFFFFFFFFFFFFF000000000000000000000000000000000000000000000000000000000000FFFF000000000000000000000000000000000000000000000000000000000000FFFF000000000000000000000000000000000000000000
310
000000000000000000FFFF000000000000000000000000000000000000000000000000000000000000000000000000000000000000000000
102
{BLKREFS
331
4428
102
}
 70
     4
280
     1
281
     0
  0
BLOCK_RECORD
  5
44A3
102
{ACAD_XDICTIONARY
360
4505
102
}
330
1
100
AcDbSymbolTableRecord
100
AcDbBlockTableRecord
  2
センタＢ SSM400
340
0
310
2800000020000000200000000100080000000000000400000000000000000000000000000000000000000000000080000080000000808000800000008000800080800000C0C0C000C0DCC000F0CAA6000020400000206000002080000020A0000020C0000020E00000400000004020000040400000406000004080000040A0
310
000040C0000040E00000600000006020000060400000606000006080000060A0000060C0000060E00000800000008020000080400000806000008080000080A0000080C0000080E00000A0000000A0200000A0400000A0600000A0800000A0A00000A0C00000A0E00000C0000000C0200000C0400000C0600000C0800000C0
310
A00000C0C00000C0E00000E0000000E0200000E0400000E0600000E0800000E0A00000E0C00000E0E00040000000400020004000400040006000400080004000A0004000C0004000E00040200000402020004020400040206000402080004020A0004020C0004020E000404000004040200040404000404060004040800040
310
40A0004040C0004040E00040600000406020004060400040606000406080004060A0004060C0004060E00040800000408020004080400040806000408080004080A0004080C0004080E00040A0000040A0200040A0400040A0600040A0800040A0A00040A0C00040A0E00040C0000040C0200040C0400040C0600040C08000
310
40C0A00040C0C00040C0E00040E0000040E0200040E0400040E0600040E0800040E0A00040E0C00040E0E00080000000800020008000400080006000800080008000A0008000C0008000E00080200000802020008020400080206000802080008020A0008020C0008020E00080400000804020008040400080406000804080
310
008040A0008040C0008040E00080600000806020008060400080606000806080008060A0008060C0008060E00080800000808020008080400080806000808080008080A0008080C0008080E00080A0000080A0200080A0400080A0600080A0800080A0A00080A0C00080A0E00080C0000080C0200080C0400080C0600080C0
310
800080C0A00080C0C00080C0E00080E0000080E0200080E0400080E0600080E0800080E0A00080E0C00080E0E000C0000000C0002000C0004000C0006000C0008000C000A000C000C000C000E000C0200000C0202000C0204000C0206000C0208000C020A000C020C000C020E000C0400000C0402000C0404000C0406000C0
310
408000C040A000C040C000C040E000C0600000C0602000C0604000C0606000C0608000C060A000C060C000C060E000C0800000C0802000C0804000C0806000C0808000C080A000C080C000C080E000C0A00000C0A02000C0A04000C0A06000C0A08000C0A0A000C0A0C000C0A0E000C0C00000C0C02000C0C04000C0C06000
310
C0C08000C0C0A000F0FBFF00A4A0A000808080000000FF0000FF000000FFFF00FF000000FF00FF00FFFF0000FFFFFF00000000000000000000000000000000000000000000000000000000000000000000000000000000FFFFFFFFFFFFFFFFFF00000000000000000000000000000000000000000000FF0000000000FF0000
310
0000000000000000000000000000000000000000000000FF0000000000FF00000000000000000000000000000000000000000000000000FF0000000000FF00000000000000000000000000000000000000000000000000FF0000000000FF00000000000000000000000000000000000000000000000000FF0000000000FF00
310
000000000000000000000000000000000000000000000000FF0000000000FF00000000000000000000000000000000000000000000000000FF0000000000FF00000000000000000000000000000000000000000000000000FF0000000000FF00000000000000000000000000000000000000000000000000FF0000000000FF
310
00000000000000000000000000000000000000000000000000FF0000000000FF00000000000000000000000000000000000000000000000000FF0000000000FF00000000000000000000000000000000000000000000000000FF0000000000FF00000000000000000000000000000000000000000000000000FF0000000000
310
FF00000000000000000000000000000000000000000000000000FFFF00000000FF000000000000000000000000FF000000000000000000000000FFFF0000000000000000000000000000000000FF000000000000000000000000FFFF0000000000000000000000000000000000FF000000000000000000000000FFFF000000
310
0000000000000000000000000000FF000000000000000000000000FFFF0000000000000000000000000000000000FF000000000000000000000000FFFF0000000000000000000000000000000000FF000000000000000000000000FFFF0000000000000000000000000000000000FF000000000000000000000000FFFF0000
310
000000000000000000000000000000FF000000000000000000000000FFFFFFFFFFFFFFFFFFFFFFFFFFFFFFFFFFFFFFFF000000000000000000000000FF000000000000000000000000000000000000FF000000000000000000000000FF000000000000000000000000000000000000FF000000000000000000000000FF0000
310
00000000000000000000000000000000FF000000000000000000000000FF000000000000000000000000000000000000FF00000000000000000000000000FFFFFFFFFFFFFFFFFFFFFFFFFFF9FFFFFFFFFF0000000000000000000000000000000000000000000000FFFFFFF9FFFF0000000000000000000000000000000000
310
000000000000000000000000F900000000000000000000000000000000000000000000000000000000000000000000000000000000000000
102
{BLKREFS
331
44C3
102
}
 70
     4
280
     1
281
     0
  0
BLOCK_RECORD
  5
6208
102
{ACAD_XDICTIONARY
360
62A7
102
}
330
1
100
AcDbSymbolTableRecord
100
AcDbBlockTableRecord
  2
リーマボルト SSM400 M16
340
0
310
2800000020000000200000000100080000000000000400000000000000000000000000000000000000000000000080000080000000808000800000008000800080800000C0C0C000C0DCC000F0CAA6000020400000206000002080000020A0000020C0000020E00000400000004020000040400000406000004080000040A0
310
000040C0000040E00000600000006020000060400000606000006080000060A0000060C0000060E00000800000008020000080400000806000008080000080A0000080C0000080E00000A0000000A0200000A0400000A0600000A0800000A0A00000A0C00000A0E00000C0000000C0200000C0400000C0600000C0800000C0
310
A00000C0C00000C0E00000E0000000E0200000E0400000E0600000E0800000E0A00000E0C00000E0E00040000000400020004000400040006000400080004000A0004000C0004000E00040200000402020004020400040206000402080004020A0004020C0004020E000404000004040200040404000404060004040800040
310
40A0004040C0004040E00040600000406020004060400040606000406080004060A0004060C0004060E00040800000408020004080400040806000408080004080A0004080C0004080E00040A0000040A0200040A0400040A0600040A0800040A0A00040A0C00040A0E00040C0000040C0200040C0400040C0600040C08000
310
40C0A00040C0C00040C0E00040E0000040E0200040E0400040E0600040E0800040E0A00040E0C00040E0E00080000000800020008000400080006000800080008000A0008000C0008000E00080200000802020008020400080206000802080008020A0008020C0008020E00080400000804020008040400080406000804080
310
008040A0008040C0008040E00080600000806020008060400080606000806080008060A0008060C0008060E00080800000808020008080400080806000808080008080A0008080C0008080E00080A0000080A0200080A0400080A0600080A0800080A0A00080A0C00080A0E00080C0000080C0200080C0400080C0600080C0
310
800080C0A00080C0C00080C0E00080E0000080E0200080E0400080E0600080E0800080E0A00080E0C00080E0E000C0000000C0002000C0004000C0006000C0008000C000A000C000C000C000E000C0200000C0202000C0204000C0206000C0208000C020A000C020C000C020E000C0400000C0402000C0404000C0406000C0
310
408000C040A000C040C000C040E000C0600000C0602000C0604000C0606000C0608000C060A000C060C000C060E000C0800000C0802000C0804000C0806000C0808000C080A000C080C000C080E000C0A00000C0A02000C0A04000C0A06000C0A08000C0A0A000C0A0C000C0A0E000C0C00000C0C02000C0C04000C0C06000
310
C0C08000C0C0A000F0FBFF00A4A0A000808080000000FF0000FF000000FFFF00FF000000FF00FF00FFFF0000FFFFFF00000000000000000000000000000000000000000000000000000000000000000000000000000000000000000000FFFF000000000000000000000000000000000000000000000000000000000000FFFF
310
000000000000000000000000000000000000000000000000000000000000FFFF000000000000000000000000000000000000000000000000000000000000FFFFFFFFFFFFFFFFFF0000000000000000000000000000000000000000000000FFFF000000000000FF0000000000000000000000000000000000000000000000FF
310
FF000000000000FF0000000000000000000000000000000000000000000000FFFF000000000000FF0000000000000000000000000000000000000000000000FFFF000000000000FF0000000000000000000000000000000000000000000000FFFF000000000000FF0000000000000000000000000000000000000000000000
310
FFFF000000000000FF0000000000000000000000000000000000000000000000FFFF000000000000FF0000000000000000000000000000000000000000000000FFFF000000000000FF0000000000000000000000000000000000000000000000FEFE000000000000FF00000000000000000000000000000000000000000000
310
00FFFF000000000000FF0000000000000000000000000000000000000000000000FFFF000000000000FF0000000000000000000000000000000000000000000000FFFF000000000000FF0000000000000000000000000000000000000000000000000000000000000000000000000000000000000000000000000000000000
310
00000000000000000000000000000000000000000000000000000000000000000000000000000000000000000000000000000000000000000000000000000000000000000000000000000000000000000000000000000000000000000000000000000000000000000000000000000000000000000000000000000000000000
310
00000000000000000000000000000000000000000000000000000000000000000000000000000000000000000000000000000000000000000000000000000000000000000000000000000000000000000000000000000000000000000000000000000000000000000000000000000000000000000000000000000000000000
310
000000FF0000FFA4A4A4A4FFFF000000000000000000000000000000000000000000FFFFFFFFFFFFFFFFFFFFFF0000000000000000000000000000000000000000F9F9F9FFFFF9F90000000000000000000000000000000000000000000000000000FF00FFFFFFFF0000000000000000000000000000000000000000000000
310
0000000000FFFF00000000000000000000000000000000000000000000000000000000000000000000000000000000000000000000000000
102
{BLKREFS
331
6238
102
}
 70
     4
280
     1
281
     0
  0
BLOCK_RECORD
  5
783D
330
1
100
AcDbSymbolTableRecord
100
AcDbBlockTableRecord
  2
*D24
340
0
 70
     0
280
     1
281
     0
  0
BLOCK_RECORD
  5
7EBA
330
1
100
AcDbSymbolTableRecord
100
AcDbBlockTableRecord
  2
GENDOT
340
0
102
{BLKREFS
331
7F08
331
7F1D
102
}
 70
     0
280
     1
281
     0
  0
BLOCK_RECORD
  5
8A50
330
1
100
AcDbSymbolTableRecord
100
AcDbBlockTableRecord
  2
*D26
340
0
 70
     0
280
     1
281
     0
  0
BLOCK_RECORD
  5
8B1F
330
1
100
AcDbSymbolTableRecord
100
AcDbBlockTableRecord
  2
*D27
340
0
 70
     0
280
     1
281
     0
  0
BLOCK_RECORD
  5
8B62
330
1
100
AcDbSymbolTableRecord
100
AcDbBlockTableRecord
  2
*D28
340
0
 70
     0
280
     1
281
     0
  0
BLOCK_RECORD
  5
8D38
330
1
100
AcDbSymbolTableRecord
100
AcDbBlockTableRecord
  2
ケース
340
0
310
2800000020000000200000000100080000000000000400000000000000000000000000000000000000000000000080000080000000808000800000008000800080800000C0C0C000C0DCC000F0CAA6000020400000206000002080000020A0000020C0000020E00000400000004020000040400000406000004080000040A0
310
000040C0000040E00000600000006020000060400000606000006080000060A0000060C0000060E00000800000008020000080400000806000008080000080A0000080C0000080E00000A0000000A0200000A0400000A0600000A0800000A0A00000A0C00000A0E00000C0000000C0200000C0400000C0600000C0800000C0
310
A00000C0C00000C0E00000E0000000E0200000E0400000E0600000E0800000E0A00000E0C00000E0E00040000000400020004000400040006000400080004000A0004000C0004000E00040200000402020004020400040206000402080004020A0004020C0004020E000404000004040200040404000404060004040800040
310
40A0004040C0004040E00040600000406020004060400040606000406080004060A0004060C0004060E00040800000408020004080400040806000408080004080A0004080C0004080E00040A0000040A0200040A0400040A0600040A0800040A0A00040A0C00040A0E00040C0000040C0200040C0400040C0600040C08000
310
40C0A00040C0C00040C0E00040E0000040E0200040E0400040E0600040E0800040E0A00040E0C00040E0E00080000000800020008000400080006000800080008000A0008000C0008000E00080200000802020008020400080206000802080008020A0008020C0008020E00080400000804020008040400080406000804080
310
008040A0008040C0008040E00080600000806020008060400080606000806080008060A0008060C0008060E00080800000808020008080400080806000808080008080A0008080C0008080E00080A0000080A0200080A0400080A0600080A0800080A0A00080A0C00080A0E00080C0000080C0200080C0400080C0600080C0
310
800080C0A00080C0C00080C0E00080E0000080E0200080E0400080E0600080E0800080E0A00080E0C00080E0E000C0000000C0002000C0004000C0006000C0008000C000A000C000C000C000E000C0200000C0202000C0204000C0206000C0208000C020A000C020C000C020E000C0400000C0402000C0404000C0406000C0
310
408000C040A000C040C000C040E000C0600000C0602000C0604000C0606000C0608000C060A000C060C000C060E000C0800000C0802000C0804000C0806000C0808000C080A000C080C000C080E000C0A00000C0A02000C0A04000C0A06000C0A08000C0A0A000C0A0C000C0A0E000C0C00000C0C02000C0C04000C0C06000
310
C0C08000C0C0A000F0FBFF00A4A0A000808080000000FF0000FF000000FFFF00FF000000FF00FF00FFFF0000FFFFFF0000000000000000000000000000000000000000000000000000000000000000000000000000000000000000000000000000000000000000000000000000000000000000000000000000000000000000
310
000000000000000000000000000000000000000000000000000000000000000000000000000000000000000000000000000000000000000000000000000000000000000000000000000000000000000000000000000000000000000000000000000000000000000000000000000000000000FC0000FC000000000000000000
310
FC00FC00000000000000000000000000000000FC0000FC000000000000000000FC00FC00000000000000000000000000000000FCFCFCFC000000000000000000FCFCFC00000000000000000000000000000000FC0000FC000000000000000000FC00FC00000000000000000000000000000000FC0000FC0000000000000000
310
00FC00FC00000000000000000000000000000000FC0000FC000000000000000000FC00FC00000000000000000000000000000000FC0000FCFCFCFCFCFCFCFCFCFCFC00FC0000000000FCFCFCFCFCFCFCFCFC0000FC0000000000000000000000000000FC0000000000FC00000000000000000000FC00000000000000000000
310
00000000FC000000FCFCFCFCFCFCFCFCFCFCFC0000FC0000000000000000000000000000FC0000000000FC00000000000000000000FC0000000000000000000000000000FC0000000000FC00000000000000000000FC0000000000000000000000000000FC0000000000FC00000000000000000000FC000000000000000000
310
0000000000FCFCFCFCFCFCFCFCFCFCFCFCFCFCFC0000FC00000000000000000000000000000000000000000000000000000000000000FC00000000000000000000000000000000000000000000000000000000000000FC0000000000000000000000000000000000000000000000000000000000000000FC00000000000000
310
00000000000000000000000000000000000000000000000000FC0000000000000000000000000000000000000000000000000000000000000000FC0000000000000000000000000000000000000000000000000000000000000000FCFCFCFCFCFCFCFCFCFCFCFCFCFCFCFCFCFCFCFCFCFCFCFCFCFC00000000000000000000
310
00000000000000000000000000000000000000000000000000000000000000000000000000000000000000000000000000000000000000000000000000000000000000000000000000000000000000000000000000000000000000000000000000000000000000000000000000000000000000000000000000000000000000
310
0000000000000000000000000000000000000000000000000000000000000000000000000000000000000000000000000000000000000000
102
{BLKREFS
331
8D53
102
}
 70
     4
280
     1
281
     1
  0
ENDTAB
  0
ENDSEC
  0
SECTION
  2
BLOCKS
  0
BLOCK
  5
20
330
1F
100
AcDbEntity
  8
0
100
AcDbBlockBegin
  2
*Model_Space
 70
     0
 10
0.0
 20
0.0
 30
0.0
  3
*Model_Space
  1

  0
ENDBLK
  5
21
330
1F
100
AcDbEntity
  8
0
100
AcDbBlockEnd
  0
BLOCK
  5
1C
330
1B
100
AcDbEntity
 67
     1
  8
0
100
AcDbBlockBegin
  2
*Paper_Space
 70
     0
 10
0.0
 20
0.0
 30
0.0
  3
*Paper_Space
  1

  0
ENDBLK
  5
1D
330
1B
100
AcDbEntity
 67
     1
  8
0
100
AcDbBlockEnd
  0
BLOCK
  5
24
330
23
100
AcDbEntity
 67
     1
  8
0
100
AcDbBlockBegin
  2
*Paper_Space0
 70
     0
 10
0.0
 20
0.0
 30
0.0
  3
*Paper_Space0
  1

  0
ENDBLK
  5
25
330
23
100
AcDbEntity
 67
     1
  8
0
100
AcDbBlockEnd
  0
BLOCK
  5
6D
330
69
100
AcDbEntity
  8
0
100
AcDbBlockBegin
  2
_Open30
 70
     0
 10
0.0
 20
0.0
 30
0.0
  3
_Open30
  1

  0
LINE
  5
6A
330
69
100
AcDbEntity
  8
0
  6
ByBlock
 62
     0
370
    -2
100
AcDbLine
 10
-1.0
 20
0.26794919
 30
0.0
 11
0.0
 21
0.0
 31
0.0
  0
LINE
  5
6B
330
69
100
AcDbEntity
  8
0
  6
ByBlock
 62
     0
370
    -2
100
AcDbLine
 10
0.0
 20
0.0
 30
0.0
 11
-1.0
 21
-0.26794919
 31
0.0
  0
LINE
  5
6C
330
69
100
AcDbEntity
  8
0
  6
ByBlock
 62
     0
370
    -2
100
AcDbLine
 10
0.0
 20
0.0
 30
0.0
 11
-1.0
 21
0.0
 31
0.0
  0
ENDBLK
  5
6E
330
69
100
AcDbEntity
  8
0
100
AcDbBlockEnd
  0
BLOCK
  5
76
330
74
100
AcDbEntity
  8
0
100
AcDbBlockBegin
  2
GENAXEH
 70
     0
 10
0.0
 20
0.0
 30
0.0
  3
GENAXEH
  1

  0
LINE
  5
75
330
74
100
AcDbEntity
  8
0
100
AcDbLine
 10
-1.0
 20
0.0
 30
0.0
 11
1.0
 21
0.0
 31
0.0
  0
ENDBLK
  5
77
330
74
100
AcDbEntity
  8
0
100
AcDbBlockEnd
  0
BLOCK
  5
3BFB
330
3BFA
100
AcDbEntity
  8
0
100
AcDbBlockBegin
  2
*D6
 70
     1
 10
0.0
 20
0.0
 30
0.0
  3
*D6
  1

  0
LINE
  5
7371
330
3BFA
100
AcDbEntity
  8
AM_5 寸法線
 62
     3
100
AcDbLine
 10
979.8835052156873
 20
1079.896560468206
 30
0.0
 11
979.8835052156873
 21
1079.762585468205
 31
0.0
  0
LINE
  5
7372
330
3BFA
100
AcDbEntity
  8
AM_5 寸法線
 62
     3
100
AcDbLine
 10
792.3835052156873
 20
1082.887585468205
 30
0.0
 11
967.3835052156873
 21
1082.887585468205
 31
0.0
  0
INSERT
  5
7373
330
3BFA
100
AcDbEntity
  8
AM_5 寸法線
 62
     3
100
AcDbBlockReference
  2
_Open30
 10
779.8835052156873
 20
1082.887585468205
 30
0.0
 41
12.5
 42
12.5
 43
12.5
 50
180.0
  0
INSERT
  5
7374
330
3BFA
100
AcDbEntity
  8
AM_5 寸法線
 62
     3
100
AcDbBlockReference
  2
_Open30
 10
979.8835052156873
 20
1082.887585468205
 30
0.0
 41
12.5
 42
12.5
 43
12.5
  0
MTEXT
  5
7375
330
3BFA
100
AcDbEntity
  8
AM_5 寸法線
 62
     3
100
AcDbMText
 10
879.8835052156873
 20
1099.137585468205
 30
0.0
 40
17.5
 41
0.0
 46
0.0
 71
     5
 72
     1
  1
200
  7
SEISA
 73
     1
 44
1.0
  0
POINT
  5
7376
330
3BFA
100
AcDbEntity
  8
Defpoints
 62
     0
100
AcDbPoint
 10
779.8835052156873
 20
1082.887585468205
 30
0.0
  0
POINT
  5
7377
330
3BFA
100
AcDbEntity
  8
Defpoints
 62
     0
100
AcDbPoint
 10
979.8835052156873
 20
1083.021560468206
 30
0.0
  0
POINT
  5
7378
330
3BFA
100
AcDbEntity
  8
Defpoints
 62
     0
100
AcDbPoint
 10
979.8835052156873
 20
1082.887585468205
 30
0.0
  0
ENDBLK
  5
3BFC
330
3BFA
100
AcDbEntity
  8
0
100
AcDbBlockEnd
  0
BLOCK
  5
3C07
330
3C06
100
AcDbEntity
  8
0
100
AcDbBlockBegin
  2
*D7
 70
     1
 10
0.0
 20
0.0
 30
0.0
  3
*D7
  1

  0
LINE
  5
736A
330
3C06
100
AcDbEntity
  8
AM_5 寸法線
 62
     3
100
AcDbLine
 10
1010.383505215687
 20
1082.887585468205
 30
0.0
 11
1185.383505215687
 21
1082.887585468205
 31
0.0
  0
INSERT
  5
736B
330
3C06
100
AcDbEntity
  8
AM_5 寸法線
 62
     3
100
AcDbBlockReference
  2
_Open30
 10
997.8835052156874
 20
1082.887585468205
 30
0.0
 41
12.5
 42
12.5
 43
12.5
 50
180.0
  0
INSERT
  5
736C
330
3C06
100
AcDbEntity
  8
AM_5 寸法線
 62
     3
100
AcDbBlockReference
  2
_Open30
 10
1197.883505215687
 20
1082.887585468205
 30
0.0
 41
12.5
 42
12.5
 43
12.5
  0
MTEXT
  5
736D
330
3C06
100
AcDbEntity
  8
AM_5 寸法線
 62
     3
100
AcDbMText
 10
1097.883505215687
 20
1099.137585468205
 30
0.0
 40
17.5
 41
0.0
 46
0.0
 71
     5
 72
     1
  1
200
  7
SEISA
 73
     1
 44
1.0
  0
POINT
  5
736E
330
3C06
100
AcDbEntity
  8
Defpoints
 62
     0
100
AcDbPoint
 10
997.8835052156874
 20
1082.887585468205
 30
0.0
  0
POINT
  5
736F
330
3C06
100
AcDbEntity
  8
Defpoints
 62
     0
100
AcDbPoint
 10
1197.883505215687
 20
1082.887585468205
 30
0.0
  0
POINT
  5
7370
330
3C06
100
AcDbEntity
  8
Defpoints
 62
     0
100
AcDbPoint
 10
1197.883505215687
 20
1082.887585468205
 30
0.0
  0
ENDBLK
  5
3C08
330
3C06
100
AcDbEntity
  8
0
100
AcDbBlockEnd
  0
BLOCK
  5
3C13
330
3C12
100
AcDbEntity
  8
0
100
AcDbBlockBegin
  2
*D8
 70
     1
 10
0.0
 20
0.0
 30
0.0
  3
*D8
  1

  0
LINE
  5
781A
330
3C12
100
AcDbEntity
  8
AM_5 寸法線
 62
     3
100
AcDbLine
 10
892.8835052156872
 20
1191.068920468205
 30
0.0
 11
892.8835052156872
 21
1153.977431468205
 31
0.0
  0
LINE
  5
781B
330
3C12
100
AcDbEntity
  8
AM_5 寸法線
 62
     3
100
AcDbLine
 10
899.3835052156873
 20
1191.568920468205
 30
0.0
 11
899.3835052156873
 21
1153.977431468205
 31
0.0
  0
LINE
  5
781C
330
3C12
100
AcDbEntity
  8
AM_5 寸法線
 62
     3
100
AcDbLine
 10
911.8835052156873
 20
1157.102431468205
 30
0.0
 11
924.3835052156873
 21
1157.102431468205
 31
0.0
  0
LINE
  5
781D
330
3C12
100
AcDbEntity
  8
AM_5 寸法線
 62
     3
100
AcDbLine
 10
880.3835052156872
 20
1157.102431468205
 30
0.0
 11
820.6335052156871
 21
1157.102431468205
 31
0.0
  0
LINE
  5
781E
330
3C12
100
AcDbEntity
  8
AM_5 寸法線
 62
     3
100
AcDbLine
 10
899.3835052156873
 20
1157.102431468205
 30
0.0
 11
892.8835052156872
 21
1157.102431468205
 31
0.0
  0
INSERT
  5
781F
330
3C12
100
AcDbEntity
  8
AM_5 寸法線
 62
     3
100
AcDbBlockReference
  2
_Open30
 10
899.3835052156873
 20
1157.102431468205
 30
0.0
 41
12.5
 42
12.5
 43
12.5
 50
180.0
  0
INSERT
  5
7820
330
3C12
100
AcDbEntity
  8
AM_5 寸法線
 62
     3
100
AcDbBlockReference
  2
_Open30
 10
892.8835052156872
 20
1157.102431468205
 30
0.0
 41
12.5
 42
12.5
 43
12.5
  0
MTEXT
  5
7821
330
3C12
100
AcDbEntity
  8
AM_5 寸法線
 62
     3
100
AcDbMText
 10
844.2585052156871
 20
1173.352431468205
 30
0.0
 40
17.5
 41
0.0
 46
0.0
 71
     5
 72
     1
  1
6.5
  7
SEISA
 73
     1
 44
1.0
  0
POINT
  5
7822
330
3C12
100
AcDbEntity
  8
Defpoints
 62
     0
100
AcDbPoint
 10
892.8835052156872
 20
1194.193920468205
 30
0.0
  0
POINT
  5
7823
330
3C12
100
AcDbEntity
  8
Defpoints
 62
     0
100
AcDbPoint
 10
899.3835052156873
 20
1194.693920468205
 30
0.0
  0
POINT
  5
7824
330
3C12
100
AcDbEntity
  8
Defpoints
 62
     0
100
AcDbPoint
 10
899.3835052156873
 20
1157.102431468205
 30
0.0
  0
ENDBLK
  5
3C14
330
3C12
100
AcDbEntity
  8
0
100
AcDbBlockEnd
  0
BLOCK
  5
3C2F
330
3C2E
100
AcDbEntity
  8
0
100
AcDbBlockBegin
  2
*D9
 70
     1
 10
0.0
 20
0.0
 30
0.0
  3
*D9
  1

  0
LINE
  5
7361
330
3C2E
100
AcDbEntity
  8
AM_5 寸法線
 62
     3
100
AcDbLine
 10
997.8835052156874
 20
1054.818920468205
 30
0.0
 11
997.8835052156874
 21
1086.012585468205
 31
0.0
  0
LINE
  5
7362
330
3C2E
100
AcDbEntity
  8
AM_5 寸法線
 62
     3
100
AcDbLine
 10
1197.883505215687
 20
1054.818920468205
 30
0.0
 11
1197.883505215687
 21
1086.012585468205
 31
0.0
  0
LINE
  5
7363
330
3C2E
100
AcDbEntity
  8
AM_5 寸法線
 62
     3
100
AcDbLine
 10
1010.383505215687
 20
1082.887585468205
 30
0.0
 11
1185.383505215687
 21
1082.887585468205
 31
0.0
  0
INSERT
  5
7364
330
3C2E
100
AcDbEntity
  8
AM_5 寸法線
 62
     3
100
AcDbBlockReference
  2
_Open30
 10
997.8835052156874
 20
1082.887585468205
 30
0.0
 41
12.5
 42
12.5
 43
12.5
 50
180.0
  0
INSERT
  5
7365
330
3C2E
100
AcDbEntity
  8
AM_5 寸法線
 62
     3
100
AcDbBlockReference
  2
_Open30
 10
1197.883505215687
 20
1082.887585468205
 30
0.0
 41
12.5
 42
12.5
 43
12.5
  0
MTEXT
  5
7366
330
3C2E
100
AcDbEntity
  8
AM_5 寸法線
 62
     3
100
AcDbMText
 10
1097.883505215687
 20
1099.137585468205
 30
0.0
 40
17.5
 41
0.0
 46
0.0
 71
     5
 72
     1
  1
200
  7
SEISA
 73
     1
 44
1.0
  0
POINT
  5
7367
330
3C2E
100
AcDbEntity
  8
Defpoints
 62
     0
100
AcDbPoint
 10
997.8835052156874
 20
1051.693920468204
 30
0.0
  0
POINT
  5
7368
330
3C2E
100
AcDbEntity
  8
Defpoints
 62
     0
100
AcDbPoint
 10
1197.883505215687
 20
1051.693920468204
 30
0.0
  0
POINT
  5
7369
330
3C2E
100
AcDbEntity
  8
Defpoints
 62
     0
100
AcDbPoint
 10
1197.883505215687
 20
1082.887585468205
 30
0.0
  0
ENDBLK
  5
3C30
330
3C2E
100
AcDbEntity
  8
0
100
AcDbBlockEnd
  0
BLOCK
  5
3C53
330
3C52
100
AcDbEntity
  8
0
100
AcDbBlockBegin
  2
*D10
 70
     1
 10
0.0
 20
0.0
 30
0.0
  3
*D10
  1

  0
LINE
  5
76FA
330
3C52
100
AcDbEntity
  8
AM_5 寸法線
 62
     3
100
AcDbLine
 10
841.2585052156874
 20
1194.193920468205
 30
0.0
 11
701.7585052156873
 21
1194.193920468205
 31
0.0
  0
LINE
  5
76FB
330
3C52
100
AcDbEntity
  8
AM_5 寸法線
 62
     3
100
AcDbLine
 10
846.3141787590112
 20
909.1939204682056
 30
0.0
 11
701.7585052156873
 21
909.1939204682056
 31
0.0
  0
LINE
  5
76FC
330
3C52
100
AcDbEntity
  8
AM_5 寸法線
 62
     3
100
AcDbLine
 10
704.8835052156873
 20
1181.693920468205
 30
0.0
 11
704.8835052156873
 21
921.6939204682056
 31
0.0
  0
INSERT
  5
76FD
330
3C52
100
AcDbEntity
  8
AM_5 寸法線
 62
     3
100
AcDbBlockReference
  2
_Open30
 10
704.8835052156873
 20
1194.193920468205
 30
0.0
 41
12.5
 42
12.5
 43
12.5
 50
90.0
  0
INSERT
  5
76FE
330
3C52
100
AcDbEntity
  8
AM_5 寸法線
 62
     3
100
AcDbBlockReference
  2
_Open30
 10
704.8835052156873
 20
909.1939204682056
 30
0.0
 41
12.5
 42
12.5
 43
12.5
 50
270.0
  0
MTEXT
  5
76FF
330
3C52
100
AcDbEntity
  8
AM_5 寸法線
 62
     3
100
AcDbMText
 10
688.6335052156872
 20
1054.004415408874
 30
0.0
 40
17.5
 41
0.0
 46
0.0
 71
     5
 72
     1
  1
%%C285
  7
SEISA
 11
0.0000000000000001
 21
1.0
 31
0.0
 73
     1
 44
1.0
  0
POINT
  5
7700
330
3C52
100
AcDbEntity
  8
Defpoints
 62
     0
100
AcDbPoint
 10
844.3835052156874
 20
1194.193920468205
 30
0.0
  0
POINT
  5
7701
330
3C52
100
AcDbEntity
  8
Defpoints
 62
     0
100
AcDbPoint
 10
849.4391787590112
 20
909.1939204682056
 30
0.0
  0
POINT
  5
7702
330
3C52
100
AcDbEntity
  8
Defpoints
 62
     0
100
AcDbPoint
 10
704.8835052156873
 20
909.1939204682056
 30
0.0
  0
ENDBLK
  5
3C54
330
3C52
100
AcDbEntity
  8
0
100
AcDbBlockEnd
  0
BLOCK
  5
3CB7
330
3CB6
100
AcDbEntity
  8
0
100
AcDbBlockBegin
  2
*D11
 70
     1
 10
0.0
 20
0.0
 30
0.0
  3
*D11
  1

  0
LINE
  5
7720
330
3CB6
100
AcDbEntity
  8
AM_5 寸法線
 62
     3
100
AcDbLine
 10
1136.508505215687
 20
909.1939204682056
 30
0.0
 11
1301.008505215687
 21
909.1939204682054
 31
0.0
  0
LINE
  5
7721
330
3CB6
100
AcDbEntity
  8
AM_5 寸法線
 62
     3
100
AcDbLine
 10
1136.508505215687
 20
1194.193920468205
 30
0.0
 11
1301.008505215687
 21
1194.193920468205
 31
0.0
  0
LINE
  5
7722
330
3CB6
100
AcDbEntity
  8
AM_5 寸法線
 62
     3
100
AcDbLine
 10
1297.883505215687
 20
921.6939204682054
 30
0.0
 11
1297.883505215687
 21
1181.693920468205
 31
0.0
  0
INSERT
  5
7723
330
3CB6
100
AcDbEntity
  8
AM_5 寸法線
 62
     3
100
AcDbBlockReference
  2
_Open30
 10
1297.883505215687
 20
909.1939204682054
 30
0.0
 41
12.5
 42
12.5
 43
12.5
 50
270.0
  0
INSERT
  5
7724
330
3CB6
100
AcDbEntity
  8
AM_5 寸法線
 62
     3
100
AcDbBlockReference
  2
_Open30
 10
1297.883505215687
 20
1194.193920468205
 30
0.0
 41
12.5
 42
12.5
 43
12.5
 50
90.0
  0
MTEXT
  5
7725
330
3CB6
100
AcDbEntity
  8
AM_5 寸法線
 62
     3
100
AcDbMText
 10
1281.633505215687
 20
1051.693920468206
 30
0.0
 40
17.5
 41
0.0
 46
0.0
 71
     5
 72
     1
  1
%%C285
  7
SEISA
 11
0.0000000000000001
 21
1.0
 31
0.0
 73
     1
 44
1.0
  0
POINT
  5
7726
330
3CB6
100
AcDbEntity
  8
Defpoints
 62
     0
100
AcDbPoint
 10
1133.383505215687
 20
909.1939204682056
 30
0.0
  0
POINT
  5
7727
330
3CB6
100
AcDbEntity
  8
Defpoints
 62
     0
100
AcDbPoint
 10
1133.383505215687
 20
1194.193920468205
 30
0.0
  0
POINT
  5
7728
330
3CB6
100
AcDbEntity
  8
Defpoints
 62
     0
100
AcDbPoint
 10
1297.883505215687
 20
1194.193920468205
 30
0.0
  0
ENDBLK
  5
3CB8
330
3CB6
100
AcDbEntity
  8
0
100
AcDbBlockEnd
  0
BLOCK
  5
3CC3
330
3CC2
100
AcDbEntity
  8
0
100
AcDbBlockBegin
  2
*D12
 70
     1
 10
0.0
 20
0.0
 30
0.0
  3
*D12
  1

  0
LINE
  5
7732
330
3CC2
100
AcDbEntity
  8
AM_5 寸法線
 62
     3
100
AcDbLine
 10
1102.008505215687
 20
887.1939204682055
 30
0.0
 11
1351.008505215687
 21
887.1939204682053
 31
0.0
  0
LINE
  5
7733
330
3CC2
100
AcDbEntity
  8
AM_5 寸法線
 62
     3
100
AcDbLine
 10
1102.008505215687
 20
1216.193920468205
 30
0.0
 11
1351.008505215687
 21
1216.193920468205
 31
0.0
  0
LINE
  5
7734
330
3CC2
100
AcDbEntity
  8
AM_5 寸法線
 62
     3
100
AcDbLine
 10
1347.883505215687
 20
899.6939204682053
 30
0.0
 11
1347.883505215687
 21
1203.693920468206
 31
0.0
  0
INSERT
  5
7735
330
3CC2
100
AcDbEntity
  8
AM_5 寸法線
 62
     3
100
AcDbBlockReference
  2
_Open30
 10
1347.883505215687
 20
887.1939204682053
 30
0.0
 41
12.5
 42
12.5
 43
12.5
 50
270.0
  0
INSERT
  5
7736
330
3CC2
100
AcDbEntity
  8
AM_5 寸法線
 62
     3
100
AcDbBlockReference
  2
_Open30
 10
1347.883505215687
 20
1216.193920468205
 30
0.0
 41
12.5
 42
12.5
 43
12.5
 50
90.0
  0
MTEXT
  5
7737
330
3CC2
100
AcDbEntity
  8
AM_5 寸法線
 62
     3
100
AcDbMText
 10
1331.633505215687
 20
1051.693920468206
 30
0.0
 40
17.5
 41
0.0
 46
0.0
 71
     5
 72
     1
  1
%%C329
  7
SEISA
 11
0.0000000000000001
 21
1.0
 31
0.0
 73
     1
 44
1.0
  0
POINT
  5
7738
330
3CC2
100
AcDbEntity
  8
Defpoints
 62
     0
100
AcDbPoint
 10
1098.883505215687
 20
887.1939204682055
 30
0.0
  0
POINT
  5
7739
330
3CC2
100
AcDbEntity
  8
Defpoints
 62
     0
100
AcDbPoint
 10
1098.883505215687
 20
1216.193920468205
 30
0.0
  0
POINT
  5
773A
330
3CC2
100
AcDbEntity
  8
Defpoints
 62
     0
100
AcDbPoint
 10
1347.883505215687
 20
1216.193920468205
 30
0.0
  0
ENDBLK
  5
3CC4
330
3CC2
100
AcDbEntity
  8
0
100
AcDbBlockEnd
  0
BLOCK
  5
3CCF
330
3CCE
100
AcDbEntity
  8
0
100
AcDbBlockBegin
  2
*D13
 70
     1
 10
0.0
 20
0.0
 30
0.0
  3
*D13
  1

  0
LINE
  5
773B
330
3CCE
100
AcDbEntity
  8
AM_5 寸法線
 62
     3
100
AcDbLine
 10
1013.008505215687
 20
851.6939204682055
 30
0.0
 11
1401.008505215688
 21
851.6939204682055
 31
0.0
  0
LINE
  5
773C
330
3CCE
100
AcDbEntity
  8
AM_5 寸法線
 62
     3
100
AcDbLine
 10
1012.008505215687
 20
1251.693920468205
 30
0.0
 11
1401.008505215688
 21
1251.693920468205
 31
0.0
  0
LINE
  5
773D
330
3CCE
100
AcDbEntity
  8
AM_5 寸法線
 62
     3
100
AcDbLine
 10
1397.883505215688
 20
864.1939204682055
 30
0.0
 11
1397.883505215688
 21
1239.193920468205
 31
0.0
  0
INSERT
  5
773E
330
3CCE
100
AcDbEntity
  8
AM_5 寸法線
 62
     3
100
AcDbBlockReference
  2
_Open30
 10
1397.883505215688
 20
851.6939204682055
 30
0.0
 41
12.5
 42
12.5
 43
12.5
 50
270.0
  0
INSERT
  5
773F
330
3CCE
100
AcDbEntity
  8
AM_5 寸法線
 62
     3
100
AcDbBlockReference
  2
_Open30
 10
1397.883505215688
 20
1251.693920468205
 30
0.0
 41
12.5
 42
12.5
 43
12.5
 50
90.0
  0
MTEXT
  5
7740
330
3CCE
100
AcDbEntity
  8
AM_5 寸法線
 62
     3
100
AcDbMText
 10
1381.633505215688
 20
1051.693920468206
 30
0.0
 40
17.5
 41
0.0
 46
0.0
 71
     5
 72
     1
  1
%%C400
  7
SEISA
 11
0.0000000000000001
 21
1.0
 31
0.0
 73
     1
 44
1.0
  0
POINT
  5
7741
330
3CCE
100
AcDbEntity
  8
Defpoints
 62
     0
100
AcDbPoint
 10
1009.883505215687
 20
851.6939204682055
 30
0.0
  0
POINT
  5
7742
330
3CCE
100
AcDbEntity
  8
Defpoints
 62
     0
100
AcDbPoint
 10
1008.883505215687
 20
1251.693920468205
 30
0.0
  0
POINT
  5
7743
330
3CCE
100
AcDbEntity
  8
Defpoints
 62
     0
100
AcDbPoint
 10
1397.883505215688
 20
1251.693920468205
 30
0.0
  0
ENDBLK
  5
3CD0
330
3CCE
100
AcDbEntity
  8
0
100
AcDbBlockEnd
  0
BLOCK
  5
3D01
330
3D00
100
AcDbEntity
  8
0
100
AcDbBlockBegin
  2
*D14
 70
     1
 10
0.0
 20
0.0
 30
0.0
  3
*D14
  1

  0
LINE
  5
7482
330
3D00
100
AcDbEntity
  8
AM_5 寸法線
 62
     3
100
AcDbLine
 10
779.8835052156873
 20
910.8689204682054
 30
0.0
 11
779.8835052156873
 21
698.5689204682055
 31
0.0
  0
LINE
  5
7483
330
3D00
100
AcDbEntity
  8
AM_5 寸法線
 62
     3
100
AcDbLine
 10
1197.883505215687
 20
910.8689204682054
 30
0.0
 11
1197.883505215687
 21
698.5689204682055
 31
0.0
  0
LINE
  5
7484
330
3D00
100
AcDbEntity
  8
AM_5 寸法線
 62
     3
100
AcDbLine
 10
792.3835052156873
 20
701.6939204682055
 30
0.0
 11
1185.383505215687
 21
701.6939204682055
 31
0.0
  0
INSERT
  5
7485
330
3D00
100
AcDbEntity
  8
AM_5 寸法線
 62
     3
100
AcDbBlockReference
  2
_Open30
 10
779.8835052156873
 20
701.6939204682055
 30
0.0
 41
12.5
 42
12.5
 43
12.5
 50
180.0
  0
INSERT
  5
7486
330
3D00
100
AcDbEntity
  8
AM_5 寸法線
 62
     3
100
AcDbBlockReference
  2
_Open30
 10
1197.883505215687
 20
701.6939204682055
 30
0.0
 41
12.5
 42
12.5
 43
12.5
  0
MTEXT
  5
7487
330
3D00
100
AcDbEntity
  8
AM_5 寸法線
 62
     3
100
AcDbMText
 10
988.8835052156874
 20
717.9439204682055
 30
0.0
 40
17.5
 41
0.0
 46
0.0
 71
     5
 72
     1
  1
418
  7
SEISA
 73
     1
 44
1.0
  0
POINT
  5
7488
330
3D00
100
AcDbEntity
  8
Defpoints
 62
     0
100
AcDbPoint
 10
779.8835052156873
 20
913.9939204682054
 30
0.0
  0
POINT
  5
7489
330
3D00
100
AcDbEntity
  8
Defpoints
 62
     0
100
AcDbPoint
 10
1197.883505215687
 20
913.9939204682054
 30
0.0
  0
POINT
  5
748A
330
3D00
100
AcDbEntity
  8
Defpoints
 62
     0
100
AcDbPoint
 10
1197.883505215687
 20
701.6939204682055
 30
0.0
  0
ENDBLK
  5
3D02
330
3D00
100
AcDbEntity
  8
0
100
AcDbBlockEnd
  0
BLOCK
  5
3D19
330
3D18
100
AcDbEntity
  8
0
100
AcDbBlockBegin
  2
*D15
 70
     1
 10
0.0
 20
0.0
 30
0.0
  3
*D15
  1

  0
LINE
  5
8A07
330
3D18
100
AcDbEntity
  8
AM_5 寸法線
 62
     3
100
AcDbLine
 10
874.8835052156874
 20
888.0689204682054
 30
0.0
 11
874.8835052156874
 21
748.5689204682055
 31
0.0
  0
LINE
  5
8A08
330
3D18
100
AcDbEntity
  8
AM_5 寸法線
 62
     3
100
AcDbLine
 10
1102.883505215687
 20
888.0689204682054
 30
0.0
 11
1102.883505215687
 21
748.5689204682055
 31
0.0
  0
LINE
  5
8A09
330
3D18
100
AcDbEntity
  8
AM_5 寸法線
 62
     3
100
AcDbLine
 10
887.3835052156874
 20
751.6939204682055
 30
0.0
 11
1090.383505215687
 21
751.6939204682055
 31
0.0
  0
INSERT
  5
8A0A
330
3D18
100
AcDbEntity
  8
AM_5 寸法線
 62
     3
100
AcDbBlockReference
  2
_Open30
 10
874.8835052156874
 20
751.6939204682055
 30
0.0
 41
12.5
 42
12.5
 43
12.5
 50
180.0
  0
INSERT
  5
8A0B
330
3D18
100
AcDbEntity
  8
AM_5 寸法線
 62
     3
100
AcDbBlockReference
  2
_Open30
 10
1102.883505215687
 20
751.6939204682055
 30
0.0
 41
12.5
 42
12.5
 43
12.5
  0
MTEXT
  5
8A0C
330
3D18
100
AcDbEntity
  8
AM_5 寸法線
 62
     3
100
AcDbMText
 10
988.8835052156874
 20
767.9439204682055
 30
0.0
 40
17.5
 41
0.0
 46
0.0
 71
     5
 72
     1
  1
228
  7
SEISA
 73
     1
 44
1.0
  0
POINT
  5
8A0D
330
3D18
100
AcDbEntity
  8
Defpoints
 62
     0
100
AcDbPoint
 10
874.8835052156874
 20
891.1939204682054
 30
0.0
  0
POINT
  5
8A0E
330
3D18
100
AcDbEntity
  8
Defpoints
 62
     0
100
AcDbPoint
 10
1102.883505215687
 20
891.1939204682054
 30
0.0
  0
POINT
  5
8A0F
330
3D18
100
AcDbEntity
  8
Defpoints
 62
     0
100
AcDbPoint
 10
1102.883505215687
 20
751.6939204682055
 30
0.0
  0
ENDBLK
  5
3D1A
330
3D18
100
AcDbEntity
  8
0
100
AcDbBlockEnd
  0
BLOCK
  5
3D25
330
3D24
100
AcDbEntity
  8
0
100
AcDbBlockBegin
  2
*D16
 70
     1
 10
0.0
 20
0.0
 30
0.0
  3
*D16
  1

  0
LINE
  5
7F01
330
3D24
100
AcDbEntity
  8
AM_5 寸法線
 62
     3
100
AcDbLine
 10
967.8835052156872
 20
849.5689204682054
 30
0.0
 11
967.8835052156872
 21
798.5689204682055
 31
0.0
  0
LINE
  5
7F02
330
3D24
100
AcDbEntity
  8
AM_5 寸法線
 62
     3
100
AcDbLine
 10
988.8835052156876
 20
849.5689204682058
 30
0.0
 11
988.8835052156876
 21
798.5689204682055
 31
0.0
  0
LINE
  5
7F03
330
3D24
100
AcDbEntity
  8
AM_5 寸法線
 62
     3
100
AcDbLine
 10
955.3835052156872
 20
801.6939204682055
 30
0.0
 11
942.8835052156872
 21
801.6939204682055
 31
0.0
  0
LINE
  5
7F04
330
3D24
100
AcDbEntity
  8
AM_5 寸法線
 62
     3
100
AcDbLine
 10
1001.383505215687
 20
801.6939204682055
 30
0.0
 11
1013.883505215687
 21
801.6939204682055
 31
0.0
  0
MTEXT
  5
7F05
330
3D24
100
AcDbEntity
  8
AM_5 寸法線
 62
     3
100
AcDbMText
 10
940.2929356041703
 20
815.2644061256392
 30
0.0
 40
17.5
 41
0.0
 46
0.0
 71
     5
 72
     1
  1
21
  7
SEISA
 73
     1
 44
1.0
  0
LINE
  5
7F06
330
3D24
100
AcDbEntity
  8
AM_5 寸法線
 62
     3
100
AcDbLine
 10
967.8835052156872
 20
801.6939204682055
 30
0.0
 11
988.8835052156876
 21
801.6939204682055
 31
0.0
  0
INSERT
  5
7F07
330
3D24
100
AcDbEntity
  8
AM_5 寸法線
 62
     3
100
AcDbBlockReference
  2
_Open30
 10
967.8835052156872
 20
801.6939204682055
 30
0.0
 41
12.5
 42
12.5
 43
12.5
  0
INSERT
  5
7F08
330
3D24
100
AcDbEntity
  8
AM_5 寸法線
 62
     3
100
AcDbBlockReference
  2
GENDOT
 10
988.8835052156876
 20
801.6939204682055
 30
0.0
 41
12.5
 42
12.5
 43
12.5
 50
180.0
  0
POINT
  5
7F09
330
3D24
100
AcDbEntity
  8
Defpoints
 62
     0
100
AcDbPoint
 10
967.8835052156872
 20
852.6939204682054
 30
0.0
  0
POINT
  5
7F0A
330
3D24
100
AcDbEntity
  8
Defpoints
 62
     0
100
AcDbPoint
 10
988.8835052156876
 20
852.6939204682058
 30
0.0
  0
POINT
  5
7F0B
330
3D24
100
AcDbEntity
  8
Defpoints
 62
     0
100
AcDbPoint
 10
988.8835052156876
 20
801.6939204682055
 30
0.0
  0
ENDBLK
  5
3D26
330
3D24
100
AcDbEntity
  8
0
100
AcDbBlockEnd
  0
BLOCK
  5
3D33
330
3D32
100
AcDbEntity
  8
0
100
AcDbBlockBegin
  2
*D17
 70
     1
 10
0.0
 20
0.0
 30
0.0
  3
*D17
  1

  0
LINE
  5
7F17
330
3D32
100
AcDbEntity
  8
AM_5 寸法線
 62
     3
100
AcDbLine
 10
988.8835052156874
 20
848.5689204682055
 30
0.0
 11
988.8835052156874
 21
798.5689204682055
 31
0.0
  0
LINE
  5
7F18
330
3D32
100
AcDbEntity
  8
AM_5 寸法線
 62
     3
100
AcDbLine
 10
1009.883505215687
 20
848.5689204682055
 30
0.0
 11
1009.883505215687
 21
798.5689204682055
 31
0.0
  0
LINE
  5
7F19
330
3D32
100
AcDbEntity
  8
AM_5 寸法線
 62
     3
100
AcDbLine
 10
976.3835052156874
 20
801.6939204682055
 30
0.0
 11
963.8835052156874
 21
801.6939204682055
 31
0.0
  0
LINE
  5
7F1A
330
3D32
100
AcDbEntity
  8
AM_5 寸法線
 62
     3
100
AcDbLine
 10
1022.383505215687
 20
801.6939204682055
 30
0.0
 11
1034.883505215687
 21
801.6939204682055
 31
0.0
  0
MTEXT
  5
7F1B
330
3D32
100
AcDbEntity
  8
AM_5 寸法線
 62
     3
100
AcDbMText
 10
1030.991080942726
 20
815.2629835560309
 30
0.0
 40
17.5
 41
0.0
 46
0.0
 71
     5
 72
     1
  1
21
  7
SEISA
 73
     1
 44
1.0
  0
LINE
  5
7F1C
330
3D32
100
AcDbEntity
  8
AM_5 寸法線
 62
     3
100
AcDbLine
 10
988.8835052156874
 20
801.6939204682055
 30
0.0
 11
1009.883505215687
 21
801.6939204682055
 31
0.0
  0
INSERT
  5
7F1D
330
3D32
100
AcDbEntity
  8
AM_5 寸法線
 62
     3
100
AcDbBlockReference
  2
GENDOT
 10
988.8835052156874
 20
801.6939204682055
 30
0.0
 41
12.5
 42
12.5
 43
12.5
  0
INSERT
  5
7F1E
330
3D32
100
AcDbEntity
  8
AM_5 寸法線
 62
     3
100
AcDbBlockReference
  2
_Open30
 10
1009.883505215687
 20
801.6939204682055
 30
0.0
 41
12.5
 42
12.5
 43
12.5
 50
180.0
  0
POINT
  5
7F1F
330
3D32
100
AcDbEntity
  8
Defpoints
 62
     0
100
AcDbPoint
 10
988.8835052156874
 20
851.6939204682055
 30
0.0
  0
POINT
  5
7F20
330
3D32
100
AcDbEntity
  8
Defpoints
 62
     0
100
AcDbPoint
 10
1009.883505215687
 20
851.6939204682055
 30
0.0
  0
POINT
  5
7F21
330
3D32
100
AcDbEntity
  8
Defpoints
 62
     0
100
AcDbPoint
 10
1009.883505215687
 20
801.6939204682055
 30
0.0
  0
ENDBLK
  5
3D34
330
3D32
100
AcDbEntity
  8
0
100
AcDbBlockEnd
  0
BLOCK
  5
4186
330
4185
100
AcDbEntity
  8
0
100
AcDbBlockBegin
  2
ロッカクアナツキプラグ R1／4
 70
     0
 10
0.0
 20
0.0
 30
0.0
  3
ロッカクアナツキプラグ R1／4
  1

  0
CIRCLE
  5
4188
330
4185
100
AcDbEntity
  8
AM_0 外形線1
100
AcDbCircle
 10
0.0
 20
0.0000005000000556
 30
0.0
 40
7.174975999999999
  0
LINE
  5
4189
330
4185
100
AcDbEntity
  8
AM_7 中心線
100
AcDbLine
 10
0.0
 20
-8.712967499999875
 30
0.0
 11
0.0
 21
8.71296749999999
 31
0.0
  0
CIRCLE
  5
418A
330
4185
100
AcDbEntity
  8
AM_4 細線
100
AcDbCircle
 10
0.0
 20
0.0000005000000556
 30
0.0
 40
6.504976
  0
LINE
  5
418B
330
4185
100
AcDbEntity
  8
AM_7 中心線
100
AcDbLine
 10
-8.900266999999985
 20
0.0000005000000556
 30
0.0
 11
8.900266999999985
 21
0.0000005000000556
 31
0.0
  0
LINE
  5
418C
330
4185
100
AcDbEntity
  8
AM_0 外形線1
100
AcDbLine
 10
2.611067000000048
 20
-1.507499499999993
 30
0.0
 11
2.611067000000048
 21
1.507500500000104
 31
0.0
  0
LINE
  5
418D
330
4185
100
AcDbEntity
  8
AM_0 外形線1
100
AcDbLine
 10
0.0
 20
-3.01499949999993
 30
0.0
 11
2.611067000000048
 21
-1.507499499999993
 31
0.0
  0
LINE
  5
418E
330
4185
100
AcDbEntity
  8
AM_0 外形線1
100
AcDbLine
 10
-2.611067000000048
 20
-1.507499499999993
 30
0.0
 11
0.0
 21
-3.01499949999993
 31
0.0
  0
LINE
  5
418F
330
4185
100
AcDbEntity
  8
AM_0 外形線1
100
AcDbLine
 10
-2.611067000000048
 20
1.507500500000104
 30
0.0
 11
-2.611067000000048
 21
-1.507499499999993
 31
0.0
  0
LINE
  5
4190
330
4185
100
AcDbEntity
  8
AM_0 外形線1
100
AcDbLine
 10
0.0
 20
3.015000500000041
 30
0.0
 11
-2.611067000000048
 21
1.507500500000104
 31
0.0
  0
LINE
  5
4191
330
4185
100
AcDbEntity
  8
AM_0 外形線1
100
AcDbLine
 10
2.611067000000048
 20
1.507500500000104
 30
0.0
 11
0.0
 21
3.015000500000041
 31
0.0
  0
ENDBLK
  5
4187
330
4185
100
AcDbEntity
  8
0
100
AcDbBlockEnd
  0
BLOCK
  5
41E1
330
41E0
100
AcDbEntity
  8
0
100
AcDbBlockBegin
  2
センタＡ SSM400
 70
     0
 10
0.0
 20
0.0
 30
0.0
  3
センタＡ SSM400
  1

  0
LINE
  5
41E3
330
41E0
100
AcDbEntity
  8
AM_0 外形線1
100
AcDbLine
 10
0.0
 20
141.0
 30
0.0
 11
0.0
 21
0.0
 31
0.0
  0
LINE
  5
41E4
330
41E0
100
AcDbEntity
  8
AM_0 外形線1
100
AcDbLine
 10
200.0
 20
-137.7
 30
0.0
 11
200.0
 21
137.7
 31
0.0
  0
LINE
  5
41E5
330
41E0
100
AcDbEntity
  8
AM_3 隠れ線
100
AcDbLine
 10
37.0
 20
7.0
 30
0.0
 11
0.0
 21
7.0
 31
0.0
  0
LINE
  5
41E6
330
41E0
100
AcDbEntity
  8
AM_3 隠れ線
100
AcDbLine
 10
0.0
 20
8.0
 30
0.0
 11
32.0
 21
8.0
 31
0.0
  0
LINE
  5
41E7
330
41E0
100
AcDbEntity
  8
AM_3 隠れ線
100
AcDbLine
 10
32.0
 20
8.0
 30
0.0
 11
32.57735000000002
 21
7.0
 31
0.0
  0
LINE
  5
41E8
330
41E0
100
AcDbEntity
  8
AM_3 隠れ線
100
AcDbLine
 10
32.57735000000002
 20
7.0
 30
0.0
 11
32.57735000000002
 21
0.0
 31
0.0
  0
LINE
  5
41E9
330
41E0
100
AcDbEntity
  8
AM_3 隠れ線
100
AcDbLine
 10
32.0
 20
8.0
 30
0.0
 11
32.0
 21
0.0
 31
0.0
  0
LINE
  5
41EA
330
41E0
100
AcDbEntity
  8
AM_0 外形線1
100
AcDbLine
 10
137.5
 20
-141.6999999999999
 30
0.0
 11
137.5
 21
0.0
 31
0.0
  0
LINE
  5
41EB
330
41E0
100
AcDbEntity
  8
AM_0 外形線1
100
AcDbLine
 10
135.5
 20
-142.5
 30
0.0
 11
135.5
 21
0.0
 31
0.0
  0
LINE
  5
41EC
330
41E0
100
AcDbEntity
  8
AM_0 外形線1
100
AcDbLine
 10
105.0
 20
-142.5
 30
0.0
 11
135.5
 21
-142.5
 31
0.0
  0
LINE
  5
41ED
330
41E0
100
AcDbEntity
  8
AM_0 外形線1
100
AcDbLine
 10
137.5
 20
-141.6999999999999
 30
0.0
 11
196.0
 21
-141.6999999999999
 31
0.0
  0
LINE
  5
41EE
330
41E0
100
AcDbEntity
  8
AM_0 外形線1
100
AcDbLine
 10
135.5
 20
-142.5
 30
0.0
 11
137.5
 21
-141.6999999999999
 31
0.0
  0
ARC
  5
41EF
330
41E0
100
AcDbEntity
  8
AM_0 外形線1
100
AcDbCircle
 10
196.0
 20
-137.7
 30
0.0
 40
4.0
100
AcDbArc
 50
270.0
 51
0.0
  0
LINE
  5
41F0
330
41E0
100
AcDbEntity
  8
AM_3 隠れ線
100
AcDbLine
 10
37.0
 20
7.0
 30
0.0
 11
37.0
 21
0.0
 31
0.0
  0
LINE
  5
41F1
330
41E0
100
AcDbEntity
  8
AM_3 隠れ線
100
AcDbLine
 10
37.0
 20
7.0
 30
0.0
 11
41.04145199999993
 21
0.0
 31
0.0
  0
ARC
  5
41F5
330
41E0
100
AcDbEntity
  8
AM_0 外形線1
100
AcDbCircle
 10
56.0
 20
0.0
 30
0.0
 40
155.81
100
AcDbArc
 50
81.32527699999478
 51
97.37491799998863
  0
LINE
  5
41F6
330
41E0
100
AcDbEntity
  8
AM_0 外形線1
100
AcDbLine
 10
34.5
 20
142.0
 30
0.0
 11
1.0
 21
142.0
 31
0.0
  0
LINE
  5
41F7
330
41E0
100
AcDbEntity
  8
AM_0 外形線1
100
AcDbLine
 10
1.0
 20
142.0
 30
0.0
 11
0.0
 21
141.0
 31
0.0
  0
ARC
  5
41F8
330
41E0
100
AcDbEntity
  8
AM_0 外形線1
100
AcDbCircle
 10
34.5
 20
142.5
 30
0.0
 40
0.5
100
AcDbArc
 50
270.0
 51
0.0
  0
LINE
  5
41F9
330
41E0
100
AcDbEntity
  8
AM_0 外形線1
100
AcDbLine
 10
35.0
 20
153.3883289999999
 30
0.0
 11
35.0
 21
142.5
 31
0.0
  0
LINE
  5
41FA
330
41E0
100
AcDbEntity
  8
AM_0 外形線1
100
AcDbLine
 10
36.0
 20
154.521054
 30
0.0
 11
35.0
 21
153.3883289999999
 31
0.0
  0
LINE
  5
41FB
330
41E0
100
AcDbEntity
  8
AM_0 外形線1
100
AcDbLine
 10
135.5
 20
142.5
 30
0.0
 11
81.0
 21
142.5
 31
0.0
  0
LINE
  5
41FD
330
41E0
100
AcDbEntity
  8
AM_7 中心線
100
AcDbLine
 10
56.0
 20
160.8099999999999
 30
0.0
 11
56.0
 21
142.6000000000001
 31
0.0
  0
LINE
  5
41FF
330
41E0
100
AcDbEntity
  8
AM_0 外形線1
100
AcDbLine
 10
80.5
 20
152.8717199999998
 30
0.0
 11
79.5
 21
154.0276150000002
 31
0.0
  0
LINE
  5
4200
330
41E0
100
AcDbEntity
  8
AM_0 外形線1
100
AcDbLine
 10
80.5
 20
143.0
 30
0.0
 11
80.5
 21
152.8717199999998
 31
0.0
  0
ARC
  5
4201
330
41E0
100
AcDbEntity
  8
AM_0 外形線1
100
AcDbCircle
 10
81.0
 20
143.0
 30
0.0
 40
0.5
100
AcDbArc
 50
180.0
 51
270.0
  0
LINE
  5
4202
330
41E0
100
AcDbEntity
  8
AM_0 外形線1
100
AcDbLine
 10
196.0
 20
141.6999999999999
 30
0.0
 11
137.5
 21
141.6999999999999
 31
0.0
  0
LINE
  5
4203
330
41E0
100
AcDbEntity
  8
AM_0 外形線1
100
AcDbLine
 10
137.5
 20
141.6999999999999
 30
0.0
 11
135.5
 21
142.5
 31
0.0
  0
ARC
  5
4204
330
41E0
100
AcDbEntity
  8
AM_0 外形線1
100
AcDbCircle
 10
196.0
 20
137.7
 30
0.0
 40
4.0
100
AcDbArc
 50
0.0
 51
90.0
  0
LINE
  5
4206
330
41E0
100
AcDbEntity
  8
AM_0 外形線1
100
AcDbLine
 10
-0.0000000000002274
 20
84.99999999999976
 30
0.0
 11
200.0
 21
85.0
 31
0.0
  0
ARC
  5
8AFA
330
41E0
100
AcDbEntity
  8
AM_0 外形線1
100
AcDbCircle
 10
56.0
 20
0.0
 30
0.0
 40
147.5999999999999
100
AcDbArc
 50
80.4452984104649
 51
98.17959450763082
  0
ARC
  5
8AFB
330
41E0
100
AcDbEntity
  8
AM_7 中心線
100
AcDbCircle
 10
56.0
 20
0.0
 30
0.0
 40
152.0
100
AcDbArc
 50
78.2224297464153
 51
99.84902691064604
  0
ENDBLK
  5
41E2
330
41E0
100
AcDbEntity
  8
0
100
AcDbBlockEnd
  0
BLOCK
  5
42D3
330
42D2
100
AcDbEntity
  8
0
100
AcDbBlockBegin
  2
ケースＡ SSM400
 70
     0
 10
0.0
 20
0.0
 30
0.0
  3
ケースＡ SSM400
  1

  0
LINE
  5
42D5
330
42D2
100
AcDbEntity
  8
AM_0 外形線1
100
AcDbLine
 10
0.0000000000002274
 20
0.0
 30
0.0
 11
0.0000000000002274
 21
-199.0
 31
0.0
  0
LINE
  5
42D6
330
42D2
100
AcDbEntity
  8
AM_0 外形線1
100
AcDbLine
 10
0.0000000000002274
 20
0.0
 30
0.0
 11
0.0000000000002274
 21
-199.0
 31
0.0
  0
LINE
  5
42D7
330
42D2
100
AcDbEntity
  8
AM_0 外形線1
100
AcDbLine
 10
114.0
 20
-160.5
 30
0.0
 11
114.0
 21
0.0
 31
0.0
  0
LINE
  5
42D8
330
42D2
100
AcDbEntity
  8
AM_0 外形線1
100
AcDbLine
 10
0.0
 20
0.0
 30
0.0
 11
0.0
 21
-199.0
 31
0.0
  0
LINE
  5
42D9
330
42D2
100
AcDbEntity
  8
AM_0 外形線1
100
AcDbLine
 10
21.0
 20
-199.0
 30
0.0
 11
21.0
 21
0.0
 31
0.0
  0
LINE
  5
42DA
330
42D2
100
AcDbEntity
  8
AM_0 外形線1
100
AcDbLine
 10
25.0
 20
-164.5
 30
0.0
 11
105.5798279999999
 21
-164.5
 31
0.0
  0
LINE
  5
42DB
330
42D2
100
AcDbEntity
  8
AM_0 外形線1
100
AcDbLine
 10
1.0
 20
-200.0
 30
0.0
 11
20.0
 21
-200.0
 31
0.0
  0
LINE
  5
42DC
330
42D2
100
AcDbEntity
  8
AM_0 外形線1
100
AcDbLine
 10
0.0
 20
-199.0
 30
0.0
 11
1.0
 21
-200.0
 31
0.0
  0
LINE
  5
42DD
330
42D2
100
AcDbEntity
  8
AM_0 外形線1
100
AcDbLine
 10
20.0
 20
-200.0
 30
0.0
 11
21.0
 21
-199.0
 31
0.0
  0
ARC
  5
42DE
330
42D2
100
AcDbEntity
  8
AM_0 外形線1
100
AcDbCircle
 10
25.0
 20
-168.5
 30
0.0
 40
4.0
100
AcDbArc
 50
90.0
 51
180.0
  0
LINE
  5
42DF
330
42D2
100
AcDbEntity
  8
AM_0 外形線1
100
AcDbLine
 10
105.5798279999999
 20
-164.5
 30
0.0
 11
110.0
 21
-164.5
 31
0.0
  0
ARC
  5
42E0
330
42D2
100
AcDbEntity
  8
AM_0 外形線1
100
AcDbCircle
 10
110.0
 20
-160.5
 30
0.0
 40
4.0
100
AcDbArc
 50
270.0
 51
0.0
  0
LINE
  5
42E2
330
42D2
100
AcDbEntity
  8
AM_7 中心線
100
AcDbLine
 10
-36.0
 20
184.0
 30
0.0
 11
49.0
 21
184.0
 31
0.0
  0
LINE
  5
42E3
330
42D2
100
AcDbEntity
  8
AM_7 中心線
100
AcDbLine
 10
37.0
 20
152.0
 30
0.0
 11
91.5
 21
152.0
 31
0.0
  0
LINE
  5
42E4
330
42D2
100
AcDbEntity
  8
AM_0 外形線1
100
AcDbLine
 10
25.0
 20
164.5
 30
0.0
 11
110.0
 21
164.5
 31
0.0
  0
LINE
  5
42E5
330
42D2
100
AcDbEntity
  8
AM_0 外形線1
100
AcDbLine
 10
39.0
 20
156.0
 30
0.0
 11
89.50000000000001
 21
156.0
 31
0.0
  0
LINE
  5
42E6
330
42D2
100
AcDbEntity
  8
AM_0 外形線1
100
AcDbLine
 10
21.0
 20
198.0
 30
0.0
 11
21.0
 21
170.0
 31
0.0
  0
LINE
  5
42E7
330
42D2
100
AcDbEntity
  8
AM_0 外形線1
100
AcDbLine
 10
38.0
 20
157.0
 30
0.0
 11
-5.0
 21
157.0
 31
0.0
  0
LINE
  5
42E8
330
42D2
100
AcDbEntity
  8
AM_0 外形線1
100
AcDbLine
 10
0.0
 20
175.0
 30
0.0
 11
21.0
 21
175.0
 31
0.0
  0
LINE
  5
42EA
330
42D2
100
AcDbEntity
  8
AM_0 外形線1
100
AcDbLine
 10
-5.0
 20
162.5
 30
0.0
 11
-5.0
 21
151.5
 31
0.0
  0
LWPOLYLINE
  5
42EB
330
42D2
100
AcDbEntity
  8
AM_0 外形線1
100
AcDbPolyline
 90
       73
 70
     0
 43
0.0
 10
1.349999999999909
 20
163.0
 10
1.467660000000023
 20
163.008372
 10
1.58442500000001
 20
163.033423
 10
1.699405999999953
 20
163.074963
 10
1.811727000000018
 20
163.1326759999999
 10
1.920534999999971
 20
163.2061230000001
 10
2.02500000000009
 20
163.294744
 10
2.124327999999876
 20
163.397866
 10
2.217763000000104
 20
163.5147019999999
 10
2.30459399999995
 20
163.6443649999999
 10
2.384160000000064
 20
163.7858669999998
 10
2.455855000000154
 20
163.938132
 10
2.519133999999894
 20
164.1000000000001
 10
2.573515999999925
 20
164.27024
 10
2.618584999999939
 20
164.447556
 10
2.653999999999995
 20
164.6305979999999
 10
2.679489999999987
 20
164.817974
 10
2.694863000000168
 20
165.0082570000002
 10
2.700000000000044
 20
165.2
 10
2.694863000000168
 20
165.3917429999999
 10
2.679489999999987
 20
165.5820259999998
 10
2.653999999999995
 20
165.7694019999999
 10
2.618584999999939
 20
165.9524439999998
 10
2.573515999999925
 20
166.12976
 10
2.519133999999894
 20
166.2999999999999
 10
2.455855000000154
 20
166.4618680000001
 10
2.384160000000064
 20
166.614133
 10
2.30459399999995
 20
166.755635
 10
2.217763000000104
 20
166.8852979999999
 10
2.124327999999876
 20
167.002134
 10
2.02500000000009
 20
167.105256
 10
1.920534999999971
 20
167.1938769999999
 10
1.811727000000018
 20
167.2673240000001
 10
1.699405999999953
 20
167.3250369999998
 10
1.58442500000001
 20
167.366577
 10
1.467660000000023
 20
167.3916280000001
 10
1.349999999999909
 20
167.3999999999998
 10
1.232340000000021
 20
167.3916280000001
 10
1.115575000000034
 20
167.366577
 10
1.000593999999863
 20
167.3250369999998
 10
0.8882730000000265
 20
167.2673240000001
 10
0.7794650000000729
 20
167.1938769999999
 10
0.6749999999999547
 20
167.105256
 10
0.575672000000168
 20
167.002134
 10
0.4822369999999411
 20
166.8852979999999
 10
0.3954060000000936
 20
166.755635
 10
0.3158399999999801
 20
166.614133
 10
0.2441449999998895
 20
166.4618680000001
 10
0.1808659999999236
 20
166.2999999999999
 10
0.1264839999998912
 20
166.12976
 10
0.0814150000001064
 20
165.9524439999998
 10
0.0460000000000491
 20
165.7694019999999
 10
0.0205100000000584
 20
165.5820259999998
 10
0.0051369999998769
 20
165.3917429999999
 10
0.0
 20
165.2
 10
0.0051369999998769
 20
165.0082570000002
 10
0.0205100000000584
 20
164.817974
 10
0.0460000000000491
 20
164.6305979999999
 10
0.0814150000001064
 20
164.447556
 10
0.1264839999998912
 20
164.27024
 10
0.1808659999999236
 20
164.1000000000001
 10
0.2441449999998895
 20
163.938132
 10
0.3158399999999801
 20
163.7858669999998
 10
0.3954060000000936
 20
163.6443649999999
 10
0.4822369999999411
 20
163.5147019999999
 10
0.575672000000168
 20
163.397866
 10
0.6749999999999547
 20
163.294744
 10
0.7794650000000729
 20
163.2061230000001
 10
0.8882730000000265
 20
163.1326759999999
 10
1.000593999999863
 20
163.074963
 10
1.115575000000034
 20
163.033423
 10
1.232340000000021
 20
163.008372
 10
1.349999999999909
 20
163.0
  0
LINE
  5
42EC
330
42D2
100
AcDbEntity
  8
AM_0 外形線1
100
AcDbLine
 10
0.0
 20
167.3999999999998
 30
0.0
 11
0.0
 21
175.0
 31
0.0
  0
LINE
  5
42ED
330
42D2
100
AcDbEntity
  8
AM_0 外形線1
100
AcDbLine
 10
2.200000000000045
 20
167.3999999999998
 30
0.0
 11
0.0
 21
167.3999999999998
 31
0.0
  0
ARC
  5
42EE
330
42D2
100
AcDbEntity
  8
AM_0 外形線1
100
AcDbCircle
 10
2.200000000000045
 20
166.8999999999998
 30
0.0
 40
0.5
100
AcDbArc
 50
0.0
 51
90.0
  0
LINE
  5
42EF
330
42D2
100
AcDbEntity
  8
AM_0 外形線1
100
AcDbLine
 10
2.700000000000044
 20
163.5
 30
0.0
 11
2.700000000000044
 21
166.8999999999998
 31
0.0
  0
ARC
  5
42F0
330
42D2
100
AcDbEntity
  8
AM_0 外形線1
100
AcDbCircle
 10
2.200000000000045
 20
163.5
 30
0.0
 40
0.5
100
AcDbArc
 50
270.0
 51
0.0
  0
LINE
  5
42F1
330
42D2
100
AcDbEntity
  8
AM_0 外形線1
100
AcDbLine
 10
-4.5
 20
163.0
 30
0.0
 11
2.200000000000045
 21
163.0
 31
0.0
  0
LINE
  5
42F2
330
42D2
100
AcDbEntity
  8
AM_0 外形線1
100
AcDbLine
 10
-5.0
 20
162.5
 30
0.0
 11
-4.5
 21
163.0
 31
0.0
  0
LINE
  5
42F3
330
42D2
100
AcDbEntity
  8
AM_0 外形線1
100
AcDbLine
 10
44.0
 20
148.7999999999999
 30
0.0
 11
40.0
 21
148.7999999999999
 31
0.0
  0
ARC
  5
42F4
330
42D2
100
AcDbEntity
  8
AM_0 外形線1
100
AcDbCircle
 10
38.0
 20
156.0
 30
0.0
 40
1.0
100
AcDbArc
 50
0.0
 51
90.0
  0
LINE
  5
42F5
330
42D2
100
AcDbEntity
  8
AM_0 外形線1
100
AcDbLine
 10
39.0
 20
149.7999999999999
 30
0.0
 11
39.0
 21
156.0
 31
0.0
  0
LINE
  5
42F6
330
42D2
100
AcDbEntity
  8
AM_0 外形線1
100
AcDbLine
 10
40.0
 20
148.7999999999999
 30
0.0
 11
39.0
 21
149.7999999999999
 31
0.0
  0
LINE
  5
42F7
330
42D2
100
AcDbEntity
  8
AM_0 外形線1
100
AcDbLine
 10
39.0
 20
149.7999999999999
 30
0.0
 11
39.0
 21
145.5005560000001
 31
0.0
  0
ARC
  5
42F8
330
42D2
100
AcDbEntity
  8
AM_0 外形線1
100
AcDbCircle
 10
25.0
 20
168.5
 30
0.0
 40
4.0
100
AcDbArc
 50
180.0
 51
270.0
  0
LINE
  5
42F9
330
42D2
100
AcDbEntity
  8
AM_0 外形線1
100
AcDbLine
 10
21.0
 20
175.0
 30
0.0
 11
21.0
 21
168.5
 31
0.0
  0
LINE
  5
42FA
330
42D2
100
AcDbEntity
  8
AM_0 外形線1
100
AcDbLine
 10
21.0
 20
193.0
 30
0.0
 11
0.0
 21
193.0
 31
0.0
  0
LINE
  5
42FB
330
42D2
100
AcDbEntity
  8
AM_0 外形線1
100
AcDbLine
 10
1.0
 20
200.0
 30
0.0
 11
20.0
 21
200.0
 31
0.0
  0
LINE
  5
42FE
330
42D2
100
AcDbEntity
  8
AM_0 外形線1
100
AcDbLine
 10
0.0
 20
193.0
 30
0.0
 11
0.0
 21
199.0
 31
0.0
  0
LINE
  5
42FF
330
42D2
100
AcDbEntity
  8
AM_0 外形線1
100
AcDbLine
 10
0.0
 20
199.0
 30
0.0
 11
1.0
 21
200.0
 31
0.0
  0
LINE
  5
4300
330
42D2
100
AcDbEntity
  8
AM_0 外形線1
100
AcDbLine
 10
0.0
 20
193.0
 30
0.0
 11
0.0
 21
199.0
 31
0.0
  0
LINE
  5
4301
330
42D2
100
AcDbEntity
  8
AM_0 外形線1
100
AcDbLine
 10
21.0
 20
199.0
 30
0.0
 11
21.0
 21
193.0
 31
0.0
  0
LINE
  5
4302
330
42D2
100
AcDbEntity
  8
AM_0 外形線1
100
AcDbLine
 10
20.0
 20
200.0
 30
0.0
 11
21.0
 21
199.0
 31
0.0
  0
ARC
  5
4303
330
42D2
100
AcDbEntity
  8
AM_0 外形線1
100
AcDbCircle
 10
110.0
 20
160.5
 30
0.0
 40
4.0
100
AcDbArc
 50
0.0
 51
90.0
  0
LWPOLYLINE
  5
4304
330
42D2
100
AcDbEntity
  8
AM_0 外形線1
100
AcDbPolyline
 90
       73
 70
     0
 43
0.0
 10
99.4000000000001
 20
145.95
 10
99.42130999999996
 20
145.6493130000001
 10
99.48507700000003
 20
145.3509140000001
 10
99.59081500000003
 20
145.057074
 10
99.73772100000021
 20
144.770031
 10
99.9246760000001
 20
144.4919670000001
 10
100.1502579999999
 20
144.2250000000001
 10
100.4127490000001
 20
143.9711609999999
 10
100.710151
 20
143.732383
 10
101.0402019999999
 20
143.5104819999999
 10
101.4003890000001
 20
143.3071470000002
 10
101.7879720000001
 20
143.1239250000001
 10
102.2
 20
142.9622119999999
 10
102.6333380000001
 20
142.8232380000002
 10
103.084687
 20
142.7080599999999
 10
103.5506130000001
 20
142.6175559999999
 10
104.02757
 20
142.5524130000001
 10
104.5119279999999
 20
142.5131279999998
 10
105.0
 20
142.5
 10
105.4880720000001
 20
142.5131279999998
 10
105.97243
 20
142.5524130000001
 10
106.4493869999999
 20
142.6175559999999
 10
106.9153129999999
 20
142.7080599999999
 10
107.3666619999999
 20
142.8232380000002
 10
107.7999999999999
 20
142.9622119999999
 10
108.2120279999999
 20
143.1239250000001
 10
108.5996109999998
 20
143.3071470000002
 10
108.9597980000001
 20
143.5104819999999
 10
109.289849
 20
143.732383
 10
109.5872509999999
 20
143.9711609999999
 10
109.8497420000001
 20
144.2250000000001
 10
110.0753239999999
 20
144.4919670000001
 10
110.2622789999998
 20
144.770031
 10
110.409185
 20
145.057074
 10
110.5149229999999
 20
145.3509140000001
 10
110.57869
 20
145.6493130000001
 10
110.5999999999999
 20
145.95
 10
110.57869
 20
146.2506869999999
 10
110.5149229999999
 20
146.549086
 10
110.409185
 20
146.842926
 10
110.2622789999998
 20
147.1299689999998
 10
110.0753239999999
 20
147.4080329999999
 10
109.8497420000001
 20
147.6749999999999
 10
109.5872509999999
 20
147.9288389999999
 10
109.289849
 20
148.1676169999998
 10
108.9597980000001
 20
148.3895179999999
 10
108.5996109999998
 20
148.5928529999998
 10
108.2120279999999
 20
148.776075
 10
107.7999999999999
 20
148.9377879999999
 10
107.3666619999999
 20
149.0767619999999
 10
106.9153129999999
 20
149.1919399999999
 10
106.4493869999999
 20
149.2824439999999
 10
105.97243
 20
149.3475869999999
 10
105.4880720000001
 20
149.386872
 10
105.0
 20
149.3999999999998
 10
104.5119279999999
 20
149.386872
 10
104.02757
 20
149.3475869999999
 10
103.5506130000001
 20
149.2824439999999
 10
103.084687
 20
149.1919399999999
 10
102.6333380000001
 20
149.0767619999999
 10
102.2
 20
148.9377879999999
 10
101.7879720000001
 20
148.776075
 10
101.4003890000001
 20
148.5928529999998
 10
101.0402019999999
 20
148.3895179999999
 10
100.710151
 20
148.1676169999998
 10
100.4127490000001
 20
147.9288389999999
 10
100.1502579999999
 20
147.6749999999999
 10
99.9246760000001
 20
147.4080329999999
 10
99.73772100000021
 20
147.1299689999998
 10
99.59081500000003
 20
146.842926
 10
99.48507700000003
 20
146.549086
 10
99.42130999999996
 20
146.2506869999999
 10
99.4000000000001
 20
145.95
  0
LINE
  5
4305
330
42D2
100
AcDbEntity
  8
AM_0 外形線1
100
AcDbLine
 10
110.0999999999999
 20
149.3999999999998
 30
0.0
 11
99.90000000000009
 21
149.3999999999998
 31
0.0
  0
LINE
  5
4306
330
42D2
100
AcDbEntity
  8
AM_0 外形線1
100
AcDbLine
 10
89.50000000000001
 20
156.0
 30
0.0
 11
89.50000000000001
 21
152.8717199999998
 31
0.0
  0
ARC
  5
4307
330
42D2
100
AcDbEntity
  8
AM_0 外形線1
100
AcDbCircle
 10
90.5
 20
156.0
 30
0.0
 40
1.0
100
AcDbArc
 50
90.0
 51
180.0
  0
LINE
  5
4308
330
42D2
100
AcDbEntity
  8
AM_0 外形線1
100
AcDbLine
 10
95.0
 20
157.0
 30
0.0
 11
90.5
 21
157.0
 31
0.0
  0
ARC
  5
4309
330
42D2
100
AcDbEntity
  8
AM_0 外形線1
100
AcDbCircle
 10
95.0
 20
156.0
 30
0.0
 40
1.0
100
AcDbArc
 50
0.0
 51
90.0
  0
LINE
  5
430A
330
42D2
100
AcDbEntity
  8
AM_0 外形線1
100
AcDbLine
 10
96.0
 20
144.0
 30
0.0
 11
96.0
 21
156.0
 31
0.0
  0
LINE
  5
430B
330
42D2
100
AcDbEntity
  8
AM_0 外形線1
100
AcDbLine
 10
99.4000000000001
 20
144.0
 30
0.0
 11
96.0
 21
144.0
 31
0.0
  0
ARC
  5
430D
330
42D2
100
AcDbEntity
  8
AM_0 外形線1
100
AcDbCircle
 10
99.90000000000009
 20
148.8999999999998
 30
0.0
 40
0.5
100
AcDbArc
 50
90.0
 51
180.0
  0
LINE
  5
430E
330
42D2
100
AcDbEntity
  8
AM_0 外形線1
100
AcDbLine
 10
99.4000000000001
 20
148.8999999999998
 30
0.0
 11
99.4000000000001
 21
142.5
 31
0.0
  0
LINE
  5
430F
330
42D2
100
AcDbEntity
  8
AM_0 外形線1
100
AcDbLine
 10
96.0
 20
144.0
 30
0.0
 11
96.0
 21
142.5
 31
0.0
  0
ARC
  5
4310
330
42D2
100
AcDbEntity
  8
AM_0 外形線1
100
AcDbCircle
 10
110.0999999999999
 20
148.8999999999998
 30
0.0
 40
0.5
100
AcDbArc
 50
0.0
 51
90.0
  0
LINE
  5
4312
330
42D2
100
AcDbEntity
  8
AM_0 外形線1
100
AcDbLine
 10
114.0
 20
144.0
 30
0.0
 11
110.5999999999999
 21
144.0
 31
0.0
  0
LINE
  5
4314
330
42D2
100
AcDbEntity
  8
AM_0 外形線1
100
AcDbLine
 10
114.0
 20
160.5
 30
0.0
 11
114.0
 21
142.5
 31
0.0
  0
LINE
  5
4315
330
42D2
100
AcDbEntity
  8
AM_0 外形線1
100
AcDbLine
 10
110.5999999999999
 20
148.8999999999998
 30
0.0
 11
110.5999999999999
 21
142.5
 31
0.0
  0
INSERT
  5
4316
330
42D2
100
AcDbEntity
  8
図面枠(細線)
100
AcDbBlockReference
  2
ロッカクアナツキプラグ R1／4
 10
10.5
 20
-47.62270450000005
 30
0.0
  0
LINE
  5
4317
330
42D2
100
AcDbEntity
  8
AM_3 隠れ線
100
AcDbLine
 10
44.0
 20
148.7999999999999
 30
0.0
 11
88.49999999999999
 21
148.7999999999999
 31
0.0
  0
LINE
  5
684F
330
42D2
100
AcDbEntity
  8
AM_3 隠れ線
100
AcDbLine
 10
89.50000000000001
 20
149.7999999999999
 30
0.0
 11
88.49999999999999
 21
148.7999999999999
 31
0.0
  0
LINE
  5
692C
330
42D2
100
AcDbEntity
  8
AM_3 隠れ線
100
AcDbLine
 10
89.50000000000001
 20
149.7999999999999
 30
0.0
 11
89.50000000000001
 21
152.8717199999998
 31
0.0
  0
ENDBLK
  5
42D4
330
42D2
100
AcDbEntity
  8
0
100
AcDbBlockEnd
  0
BLOCK
  5
43F1
330
43F0
100
AcDbEntity
  8
0
100
AcDbBlockBegin
  2
ケースＢ SSM400
 70
     0
 10
0.0
 20
0.0
 30
0.0
  3
ケースＢ SSM400
  1

  0
LINE
  5
43F3
330
43F0
100
AcDbEntity
  8
AM_0 外形線1
100
AcDbLine
 10
-114.0000000000002
 20
-160.5
 30
0.0
 11
-114.0000000000002
 21
0.0
 31
0.0
  0
LINE
  5
43F4
330
43F0
100
AcDbEntity
  8
AM_0 外形線1
100
AcDbLine
 10
-21.00000000000023
 20
-199.0
 30
0.0
 11
-21.00000000000023
 21
0.0
 31
0.0
  0
LINE
  5
43F5
330
43F0
100
AcDbEntity
  8
AM_0 外形線1
100
AcDbLine
 10
-25.00000000000023
 20
-164.5
 30
0.0
 11
-110.0000000000002
 21
-164.5
 31
0.0
  0
ARC
  5
43F6
330
43F0
100
AcDbEntity
  8
AM_0 外形線1
100
AcDbCircle
 10
-110.0000000000002
 20
-160.5
 30
0.0
 40
4.0
100
AcDbArc
 50
180.0
 51
270.0
  0
LINE
  5
43F7
330
43F0
100
AcDbEntity
  8
AM_0 外形線1
100
AcDbLine
 10
-1.000000000000227
 20
-200.0
 30
0.0
 11
-20.00000000000023
 21
-200.0
 31
0.0
  0
LINE
  5
43F8
330
43F0
100
AcDbEntity
  8
AM_0 外形線1
100
AcDbLine
 10
-20.00000000000023
 20
-200.0
 30
0.0
 11
-21.00000000000023
 21
-199.0
 31
0.0
  0
LINE
  5
43F9
330
43F0
100
AcDbEntity
  8
AM_0 外形線1
100
AcDbLine
 10
-0.0000000000002274
 20
-199.0
 30
0.0
 11
-1.000000000000227
 21
-200.0
 31
0.0
  0
LINE
  5
43FA
330
43F0
100
AcDbEntity
  8
AM_7 中心線
100
AcDbLine
 10
32.77021599634873
 20
-184.0
 30
0.0
 11
-32.77021599634873
 21
-184.0
 31
0.0
  0
ARC
  5
43FB
330
43F0
100
AcDbEntity
  8
AM_0 外形線1
100
AcDbCircle
 10
-25.00000000000023
 20
-168.5
 30
0.0
 40
4.0
100
AcDbArc
 50
0.0
 51
90.0
  0
LINE
  5
43FC
330
43F0
100
AcDbEntity
  8
AM_0 外形線1
100
AcDbLine
 10
-21.00000000000023
 20
170.1499999999998
 30
0.0
 11
-21.00000000000023
 21
197.8499999999999
 31
0.0
  0
LINE
  5
43FD
330
43F0
100
AcDbEntity
  8
AM_0 外形線1
100
AcDbLine
 10
-38.00000000000023
 20
157.0
 30
0.0
 11
-6.000000000000227
 21
157.0
 31
0.0
  0
LINE
  5
43FE
330
43F0
100
AcDbEntity
  8
AM_0 外形線1
100
AcDbLine
 10
-25.00000000000023
 20
164.5
 30
0.0
 11
-110.0000000000002
 21
164.5
 31
0.0
  0
LINE
  5
43FF
330
43F0
100
AcDbEntity
  8
AM_3 隠れ線
100
AcDbLine
 10
-44.00000000000022
 20
148.7999999999999
 30
0.0
 11
-88.5000000000002
 21
148.7999999999999
 31
0.0
  0
LINE
  5
4400
330
43F0
100
AcDbEntity
  8
AM_7 中心線
100
AcDbLine
 10
-37.00000000000023
 20
152.0
 30
0.0
 11
-91.50000000000023
 21
152.0
 31
0.0
  0
LINE
  5
4401
330
43F0
100
AcDbEntity
  8
AM_0 外形線1
100
AcDbLine
 10
-39.00000000000023
 20
156.0
 30
0.0
 11
-89.50000000000022
 21
156.0
 31
0.0
  0
ARC
  5
4402
330
43F0
100
AcDbEntity
  8
AM_0 外形線1
100
AcDbCircle
 10
-110.0000000000002
 20
160.5
 30
0.0
 40
4.0
100
AcDbArc
 50
90.0
 51
180.0
  0
LINE
  5
4403
330
43F0
100
AcDbEntity
  8
AM_0 外形線1
100
AcDbLine
 10
-99.40000000000031
 20
144.0
 30
0.0
 11
-96.00000000000022
 21
144.0
 31
0.0
  0
LWPOLYLINE
  5
4404
330
43F0
100
AcDbEntity
  8
AM_0 外形線1
100
AcDbPolyline
 90
       73
 70
     0
 43
0.0
 10
-99.40000000000031
 20
145.95
 10
-99.42131000000015
 20
146.2506869999999
 10
-99.48507700000028
 20
146.549086
 10
-99.59081500000024
 20
146.842926
 10
-99.73772100000042
 20
147.1299689999998
 10
-99.92467600000031
 20
147.4080329999999
 10
-100.1502580000001
 20
147.6749999999999
 10
-100.4127490000003
 20
147.9288389999999
 10
-100.7101510000002
 20
148.1676169999998
 10
-101.0402020000001
 20
148.3895179999999
 10
-101.4003890000003
 20
148.5928529999998
 10
-101.7879720000003
 20
148.776075
 10
-102.2000000000002
 20
148.9377879999999
 10
-102.6333380000003
 20
149.0767619999999
 10
-103.0846870000002
 20
149.1919399999999
 10
-103.5506130000003
 20
149.2824439999999
 10
-104.0275700000002
 20
149.3475869999999
 10
-104.5119280000001
 20
149.386872
 10
-105.0000000000002
 20
149.3999999999998
 10
-105.4880720000003
 20
149.386872
 10
-105.9724300000002
 20
149.3475869999999
 10
-106.4493870000001
 20
149.2824439999999
 10
-106.9153130000002
 20
149.1919399999999
 10
-107.3666620000001
 20
149.0767619999999
 10
-107.8000000000002
 20
148.9377879999999
 10
-108.2120280000001
 20
148.776075
 10
-108.5996110000001
 20
148.5928529999998
 10
-108.9597980000003
 20
148.3895179999999
 10
-109.2898490000002
 20
148.1676169999998
 10
-109.5872510000001
 20
147.9288389999999
 10
-109.8497420000003
 20
147.6749999999999
 10
-110.0753240000001
 20
147.4080329999999
 10
-110.262279
 20
147.1299689999998
 10
-110.4091850000002
 20
146.842926
 10
-110.5149230000002
 20
146.549086
 10
-110.5786900000003
 20
146.2506869999999
 10
-110.6000000000001
 20
145.95
 10
-110.5786900000003
 20
145.6493130000001
 10
-110.5149230000002
 20
145.3509140000001
 10
-110.4091850000002
 20
145.057074
 10
-110.262279
 20
144.770031
 10
-110.0753240000001
 20
144.4919670000001
 10
-109.8497420000003
 20
144.2250000000001
 10
-109.5872510000001
 20
143.9711609999999
 10
-109.2898490000002
 20
143.732383
 10
-108.9597980000003
 20
143.5104819999999
 10
-108.5996110000001
 20
143.3071470000002
 10
-108.2120280000001
 20
143.1239250000001
 10
-107.8000000000002
 20
142.9622119999999
 10
-107.3666620000001
 20
142.8232380000002
 10
-106.9153130000002
 20
142.7080599999999
 10
-106.4493870000001
 20
142.6175559999999
 10
-105.9724300000002
 20
142.5524130000001
 10
-105.4880720000003
 20
142.5131279999998
 10
-105.0000000000002
 20
142.5
 10
-104.5119280000001
 20
142.5131279999998
 10
-104.0275700000002
 20
142.5524130000001
 10
-103.5506130000003
 20
142.6175559999999
 10
-103.0846870000002
 20
142.7080599999999
 10
-102.6333380000003
 20
142.8232380000002
 10
-102.2000000000002
 20
142.9622119999999
 10
-101.7879720000003
 20
143.1239250000001
 10
-101.4003890000003
 20
143.3071470000002
 10
-101.0402020000001
 20
143.5104819999999
 10
-100.7101510000002
 20
143.732383
 10
-100.4127490000003
 20
143.9711609999999
 10
-100.1502580000001
 20
144.2250000000001
 10
-99.92467600000031
 20
144.4919670000001
 10
-99.73772100000042
 20
144.770031
 10
-99.59081500000024
 20
145.057074
 10
-99.48507700000028
 20
145.3509140000001
 10
-99.42131000000015
 20
145.6493130000001
 10
-99.40000000000031
 20
145.95
  0
LINE
  5
4405
330
43F0
100
AcDbEntity
  8
AM_0 外形線1
100
AcDbLine
 10
-99.40000000000031
 20
148.8999999999998
 30
0.0
 11
-99.40000000000031
 21
144.0
 31
0.0
  0
ARC
  5
4406
330
43F0
100
AcDbEntity
  8
AM_0 外形線1
100
AcDbCircle
 10
-99.9000000000003
 20
148.8999999999998
 30
0.0
 40
0.5
100
AcDbArc
 50
0.0
 51
90.0
  0
LINE
  5
4407
330
43F0
100
AcDbEntity
  8
AM_0 外形線1
100
AcDbLine
 10
-110.1000000000001
 20
149.3999999999998
 30
0.0
 11
-99.9000000000003
 21
149.3999999999998
 31
0.0
  0
ARC
  5
4408
330
43F0
100
AcDbEntity
  8
AM_0 外形線1
100
AcDbCircle
 10
-110.1000000000001
 20
148.8999999999998
 30
0.0
 40
0.5
100
AcDbArc
 50
90.0
 51
180.0
  0
LINE
  5
4409
330
43F0
100
AcDbEntity
  8
AM_0 外形線1
100
AcDbLine
 10
-110.6000000000001
 20
144.0
 30
0.0
 11
-110.6000000000001
 21
148.8999999999998
 31
0.0
  0
LINE
  5
440A
330
43F0
100
AcDbEntity
  8
AM_0 外形線1
100
AcDbLine
 10
-114.0000000000002
 20
144.0
 30
0.0
 11
-110.6000000000001
 21
144.0
 31
0.0
  0
LINE
  5
440B
330
43F0
100
AcDbEntity
  8
AM_0 外形線1
100
AcDbLine
 10
-114.0000000000002
 20
160.5
 30
0.0
 11
-114.0000000000002
 21
144.0
 31
0.0
  0
LINE
  5
440C
330
43F0
100
AcDbEntity
  8
AM_0 外形線1
100
AcDbLine
 10
-99.40000000000031
 20
144.0
 30
0.0
 11
-99.40000000000031
 21
142.5
 31
0.0
  0
LINE
  5
440D
330
43F0
100
AcDbEntity
  8
AM_0 外形線1
100
AcDbLine
 10
-110.6000000000001
 20
144.0
 30
0.0
 11
-110.6000000000001
 21
142.5
 31
0.0
  0
LINE
  5
440E
330
43F0
100
AcDbEntity
  8
AM_0 外形線1
100
AcDbLine
 10
-114.0000000000002
 20
144.0
 30
0.0
 11
-114.0000000000002
 21
142.5
 31
0.0
  0
LINE
  5
440F
330
43F0
100
AcDbEntity
  8
AM_3 隠れ線
100
AcDbLine
 10
-89.50000000000022
 20
149.7999999999999
 30
0.0
 11
-88.5000000000002
 21
148.7999999999999
 31
0.0
  0
LINE
  5
4410
330
43F0
100
AcDbEntity
  8
AM_0 外形線1
100
AcDbLine
 10
-89.50000000000022
 20
156.0
 30
0.0
 11
-89.50000000000022
 21
152.8717199999998
 31
0.0
  0
ARC
  5
4411
330
43F0
100
AcDbEntity
  8
AM_0 外形線1
100
AcDbCircle
 10
-90.50000000000023
 20
156.0
 30
0.0
 40
1.0
100
AcDbArc
 50
0.0
 51
90.0
  0
LINE
  5
4412
330
43F0
100
AcDbEntity
  8
AM_0 外形線1
100
AcDbLine
 10
-95.00000000000023
 20
157.0
 30
0.0
 11
-90.50000000000023
 21
157.0
 31
0.0
  0
ARC
  5
4413
330
43F0
100
AcDbEntity
  8
AM_0 外形線1
100
AcDbCircle
 10
-95.00000000000023
 20
156.0
 30
0.0
 40
1.0
100
AcDbArc
 50
90.0
 51
180.0
  0
LINE
  5
4414
330
43F0
100
AcDbEntity
  8
AM_0 外形線1
100
AcDbLine
 10
-96.00000000000022
 20
144.0
 30
0.0
 11
-96.00000000000022
 21
156.0
 31
0.0
  0
LINE
  5
4415
330
43F0
100
AcDbEntity
  8
AM_0 外形線1
100
AcDbLine
 10
-96.00000000000022
 20
144.0
 30
0.0
 11
-96.00000000000022
 21
142.5
 31
0.0
  0
LINE
  5
4416
330
43F0
100
AcDbEntity
  8
AM_0 外形線1
100
AcDbLine
 10
-44.00000000000022
 20
148.7999999999999
 30
0.0
 11
-40.00000000000023
 21
148.7999999999999
 31
0.0
  0
ARC
  5
4417
330
43F0
100
AcDbEntity
  8
AM_0 外形線1
100
AcDbCircle
 10
-38.00000000000023
 20
156.0
 30
0.0
 40
1.0
100
AcDbArc
 50
90.0
 51
180.0
  0
LINE
  5
4418
330
43F0
100
AcDbEntity
  8
AM_0 外形線1
100
AcDbLine
 10
-39.00000000000023
 20
149.7999999999999
 30
0.0
 11
-39.00000000000023
 21
156.0
 31
0.0
  0
LINE
  5
4419
330
43F0
100
AcDbEntity
  8
AM_0 外形線1
100
AcDbLine
 10
-40.00000000000023
 20
148.7999999999999
 30
0.0
 11
-39.00000000000023
 21
149.7999999999999
 31
0.0
  0
LINE
  5
441A
330
43F0
100
AcDbEntity
  8
AM_0 外形線1
100
AcDbLine
 10
-39.00000000000023
 20
149.7999999999999
 30
0.0
 11
-39.00000000000023
 21
145.5005560000001
 31
0.0
  0
LINE
  5
441B
330
43F0
100
AcDbEntity
  8
AM_0 外形線1
100
AcDbLine
 10
-6.000000000000227
 20
157.0
 30
0.0
 11
-6.000000000000227
 21
163.0
 31
0.0
  0
LINE
  5
441C
330
43F0
100
AcDbEntity
  8
AM_0 外形線1
100
AcDbLine
 10
-6.000000000000227
 20
157.0
 30
0.0
 11
-6.000000000000227
 21
151.0
 31
0.0
  0
LINE
  5
441D
330
43F0
100
AcDbEntity
  8
AM_0 外形線1
100
AcDbLine
 10
-0.0000000000002274
 20
175.0
 30
0.0
 11
-21.00000000000023
 21
175.0
 31
0.0
  0
ARC
  5
441E
330
43F0
100
AcDbEntity
  8
AM_0 外形線1
100
AcDbCircle
 10
-25.00000000000023
 20
168.5
 30
0.0
 40
4.0
100
AcDbArc
 50
270.0
 51
0.0
  0
LINE
  5
441F
330
43F0
100
AcDbEntity
  8
AM_0 外形線1
100
AcDbLine
 10
-21.00000000000023
 20
175.0
 30
0.0
 11
-21.00000000000023
 21
168.5
 31
0.0
  0
LINE
  5
4420
330
43F0
100
AcDbEntity
  8
AM_0 外形線1
100
AcDbLine
 10
-0.0000000000002274
 20
163.5
 30
0.0
 11
-0.0000000000002274
 21
175.0
 31
0.0
  0
LINE
  5
4421
330
43F0
100
AcDbEntity
  8
AM_0 外形線1
100
AcDbLine
 10
-0.5000000000002274
 20
163.0
 30
0.0
 11
-0.0000000000002274
 21
163.5
 31
0.0
  0
LINE
  5
4422
330
43F0
100
AcDbEntity
  8
AM_0 外形線1
100
AcDbLine
 10
-6.000000000000227
 20
163.0
 30
0.0
 11
-0.5000000000002274
 21
163.0
 31
0.0
  0
LINE
  5
4423
330
43F0
100
AcDbEntity
  8
AM_0 外形線1
100
AcDbLine
 10
-21.00000000000023
 20
193.0
 30
0.0
 11
-0.0000000000002274
 21
193.0
 31
0.0
  0
LINE
  5
4424
330
43F0
100
AcDbEntity
  8
AM_0 外形線1
100
AcDbLine
 10
-21.00000000000023
 20
199.0
 30
0.0
 11
-21.00000000000023
 21
193.0
 31
0.0
  0
LINE
  5
4425
330
43F0
100
AcDbEntity
  8
AM_0 外形線1
100
AcDbLine
 10
-20.00000000000023
 20
200.0
 30
0.0
 11
-21.00000000000023
 21
199.0
 31
0.0
  0
LINE
  5
4426
330
43F0
100
AcDbEntity
  8
AM_0 外形線1
100
AcDbLine
 10
-1.000000000000227
 20
200.0
 30
0.0
 11
-20.00000000000023
 21
200.0
 31
0.0
  0
LINE
  5
4427
330
43F0
100
AcDbEntity
  8
AM_0 外形線1
100
AcDbLine
 10
-0.0000000000002274
 20
199.0
 30
0.0
 11
-1.000000000000227
 21
200.0
 31
0.0
  0
LINE
  5
449C
330
43F0
100
AcDbEntity
  8
AM_0 外形線1
100
AcDbLine
 10
-0.0000000000002274
 20
-199.0
 30
0.0
 11
-0.0000000000002274
 21
0.0
 31
0.0
  0
LINE
  5
449D
330
43F0
100
AcDbEntity
  8
AM_0 外形線1
100
AcDbLine
 10
-0.0000000000002274
 20
193.0
 30
0.0
 11
-0.0000000000002274
 21
199.0
 31
0.0
  0
LINE
  5
68C4
330
43F0
100
AcDbEntity
  8
AM_3 隠れ線
100
AcDbLine
 10
-89.50000000000022
 20
152.8717199999998
 30
0.0
 11
-89.50000000000022
 21
149.7999999999999
 31
0.0
  0
ENDBLK
  5
43F2
330
43F0
100
AcDbEntity
  8
0
100
AcDbBlockEnd
  0
BLOCK
  5
44A4
330
44A3
100
AcDbEntity
  8
0
100
AcDbBlockBegin
  2
センタＢ SSM400
 70
     0
 10
0.0
 20
0.0
 30
0.0
  3
センタＢ SSM400
  1

  0
LINE
  5
44A6
330
44A3
100
AcDbEntity
  8
AM_0 外形線1
100
AcDbLine
 10
-135.5
 20
142.5
 30
0.0
 11
-81.0
 21
142.5
 31
0.0
  0
LINE
  5
44A7
330
44A3
100
AcDbEntity
  8
AM_0 外形線1
100
AcDbLine
 10
-105.0
 20
-142.5
 30
0.0
 11
-135.5
 21
-142.5
 31
0.0
  0
LINE
  5
44A8
330
44A3
100
AcDbEntity
  8
AM_0 外形線1
100
AcDbLine
 10
-200.0
 20
-137.7
 30
0.0
 11
-200.0
 21
137.7
 31
0.0
  0
LINE
  5
44A9
330
44A3
100
AcDbEntity
  8
AM_0 外形線1
100
AcDbLine
 10
-137.5
 20
-141.6999999999999
 30
0.0
 11
-137.5
 21
0.0
 31
0.0
  0
LINE
  5
44AA
330
44A3
100
AcDbEntity
  8
AM_0 外形線1
100
AcDbLine
 10
-135.5
 20
-142.5
 30
0.0
 11
-135.5
 21
0.0
 31
0.0
  0
LINE
  5
44AB
330
44A3
100
AcDbEntity
  8
AM_0 外形線1
100
AcDbLine
 10
-137.5
 20
-141.6999999999999
 30
0.0
 11
-196.0
 21
-141.6999999999999
 31
0.0
  0
ARC
  5
44AC
330
44A3
100
AcDbEntity
  8
AM_0 外形線1
100
AcDbCircle
 10
-196.0
 20
-137.7
 30
0.0
 40
4.0
100
AcDbArc
 50
180.0
 51
270.0
  0
LINE
  5
44AD
330
44A3
100
AcDbEntity
  8
AM_0 外形線1
100
AcDbLine
 10
-135.5
 20
-142.5
 30
0.0
 11
-137.5
 21
-141.6999999999999
 31
0.0
  0
LINE
  5
44AE
330
44A3
100
AcDbEntity
  8
AM_0 外形線1
100
AcDbLine
 10
-196.0
 20
141.6999999999999
 30
0.0
 11
-137.5
 21
141.6999999999999
 31
0.0
  0
ARC
  5
44AF
330
44A3
100
AcDbEntity
  8
AM_0 外形線1
100
AcDbCircle
 10
-196.0
 20
137.7
 30
0.0
 40
4.0
100
AcDbArc
 50
90.0
 51
180.0
  0
LINE
  5
44B0
330
44A3
100
AcDbEntity
  8
AM_0 外形線1
100
AcDbLine
 10
-137.5
 20
141.6999999999999
 30
0.0
 11
-135.5
 21
142.5
 31
0.0
  0
LINE
  5
44B1
330
44A3
100
AcDbEntity
  8
AM_0 外形線1
100
AcDbLine
 10
0.0
 20
141.0
 30
0.0
 11
0.0
 21
0.0
 31
0.0
  0
LINE
  5
44B2
330
44A3
100
AcDbEntity
  8
AM_0 外形線1
100
AcDbLine
 10
-34.5
 20
142.0
 30
0.0
 11
-1.0
 21
142.0
 31
0.0
  0
ARC
  5
44B4
330
44A3
100
AcDbEntity
  8
AM_0 外形線1
100
AcDbCircle
 10
-56.0
 20
0.0
 30
0.0
 40
155.81
100
AcDbArc
 50
82.62508200001134
 51
98.67472300000521
  0
LINE
  5
44B6
330
44A3
100
AcDbEntity
  8
AM_0 外形線1
100
AcDbLine
 10
-80.5
 20
152.8717199999998
 30
0.0
 11
-79.5
 21
154.0276150000002
 31
0.0
  0
LINE
  5
44B7
330
44A3
100
AcDbEntity
  8
AM_0 外形線1
100
AcDbLine
 10
-80.5
 20
143.0
 30
0.0
 11
-80.5
 21
152.8717199999998
 31
0.0
  0
ARC
  5
44B8
330
44A3
100
AcDbEntity
  8
AM_0 外形線1
100
AcDbCircle
 10
-81.0
 20
143.0
 30
0.0
 40
0.5
100
AcDbArc
 50
270.0
 51
0.0
  0
LINE
  5
44B9
330
44A3
100
AcDbEntity
  8
AM_7 中心線
100
AcDbLine
 10
-56.0
 20
160.8099999999999
 30
0.0
 11
-56.0
 21
142.6000000000001
 31
0.0
  0
ARC
  5
44BA
330
44A3
100
AcDbEntity
  8
AM_0 外形線1
100
AcDbCircle
 10
-34.5
 20
142.5
 30
0.0
 40
0.5
100
AcDbArc
 50
180.0
 51
270.0
  0
LINE
  5
44BB
330
44A3
100
AcDbEntity
  8
AM_0 外形線1
100
AcDbLine
 10
-35.0
 20
153.3883289999999
 30
0.0
 11
-35.0
 21
142.5
 31
0.0
  0
LINE
  5
44BC
330
44A3
100
AcDbEntity
  8
AM_0 外形線1
100
AcDbLine
 10
-36.0
 20
154.521054
 30
0.0
 11
-35.0
 21
153.3883289999999
 31
0.0
  0
LINE
  5
44BE
330
44A3
100
AcDbEntity
  8
AM_0 外形線1
100
AcDbLine
 10
-1.0
 20
142.0
 30
0.0
 11
0.0
 21
141.0
 31
0.0
  0
LINE
  5
44BF
330
44A3
100
AcDbEntity
  8
AM_0 外形線1
100
AcDbLine
 10
0.0000000000013642
 20
84.99999999999976
 30
0.0
 11
-200.0
 21
85.00000000000159
 31
0.0
  0
LINE
  5
6D84
330
44A3
100
AcDbEntity
  8
AM_3 隠れ線
100
AcDbLine
 10
0.0
 20
7.0
 30
0.0
 11
-37.0
 21
7.0
 31
0.0
  0
LINE
  5
6D85
330
44A3
100
AcDbEntity
  8
AM_3 隠れ線
100
AcDbLine
 10
-32.0
 20
8.0
 30
0.0
 11
0.0
 21
8.0
 31
0.0
  0
LINE
  5
6D86
330
44A3
100
AcDbEntity
  8
AM_3 隠れ線
100
AcDbLine
 10
-37.0
 20
7.0
 30
0.0
 11
-41.04145199999993
 21
0.0
 31
0.0
  0
LINE
  5
6D87
330
44A3
100
AcDbEntity
  8
AM_3 隠れ線
100
AcDbLine
 10
-37.0
 20
7.0
 30
0.0
 11
-37.0
 21
0.0
 31
0.0
  0
LINE
  5
6D88
330
44A3
100
AcDbEntity
  8
AM_3 隠れ線
100
AcDbLine
 10
-32.0
 20
8.0
 30
0.0
 11
-32.57735000000002
 21
7.0
 31
0.0
  0
LINE
  5
6D89
330
44A3
100
AcDbEntity
  8
AM_3 隠れ線
100
AcDbLine
 10
-32.0
 20
8.0
 30
0.0
 11
-32.0
 21
0.0
 31
0.0
  0
LINE
  5
6D8A
330
44A3
100
AcDbEntity
  8
AM_3 隠れ線
100
AcDbLine
 10
-32.57735000000002
 20
7.0
 30
0.0
 11
-32.57735000000002
 21
0.0
 31
0.0
  0
ARC
  5
8AAF
330
44A3
100
AcDbEntity
  8
AM_0 外形線1
100
AcDbCircle
 10
-56.0
 20
0.0
 30
0.0
 40
147.5999999999999
100
AcDbArc
 50
81.82040549237564
 51
99.55470158954151
  0
ARC
  5
8AD1
330
44A3
100
AcDbEntity
  8
AM_7 中心線
100
AcDbCircle
 10
-56.0
 20
0.0
 30
0.0
 40
152.0
100
AcDbArc
 50
80.15097308935395
 51
101.7775702535847
  0
ENDBLK
  5
44A5
330
44A3
100
AcDbEntity
  8
0
100
AcDbBlockEnd
  0
BLOCK
  5
6209
330
6208
100
AcDbEntity
  8
0
100
AcDbBlockBegin
  2
リーマボルト SSM400 M16
 70
     0
 10
0.0
 20
0.0
 30
0.0
  3
リーマボルト SSM400 M16
  1

  0
LINE
  5
620B
330
6208
100
AcDbEntity
  8
AM_0 外形線1
100
AcDbLine
 10
63.0
 20
8.000000000000227
 30
0.0
 11
63.0
 21
-7.999999999999772
 31
0.0
  0
LINE
  5
620C
330
6208
100
AcDbEntity
  8
AM_0 外形線1
100
AcDbLine
 10
63.0
 20
8.000000000000227
 30
0.0
 11
65.0
 21
6.000000000000227
 31
0.0
  0
ARC
  5
620D
330
6208
100
AcDbEntity
  8
AM_0 外形線1
100
AcDbCircle
 10
52.85887300000013
 20
10.38910200000032
 30
0.0
 40
6.141127
100
AcDbArc
 50
325.6975910000146
 51
34.30240899998549
  0
LINE
  5
620E
330
6208
100
AcDbEntity
  8
AM_0 外形線1
100
AcDbLine
 10
46.0
 20
-13.84999999999991
 30
0.0
 11
46.0
 21
13.85000000000013
 31
0.0
  0
LINE
  5
620F
330
6208
100
AcDbEntity
  8
AM_0 外形線1
100
AcDbLine
 10
59.0
 20
12.00000000000023
 30
0.0
 11
59.0
 21
-11.99999999999977
 31
0.0
  0
LINE
  5
6210
330
6208
100
AcDbEntity
  8
AM_0 外形線1
100
AcDbLine
 10
40.0
 20
9.000000000000227
 30
0.0
 11
40.0
 21
-8.999999999999772
 31
0.0
  0
LINE
  5
6211
330
6208
100
AcDbEntity
  8
AM_0 外形線1
100
AcDbLine
 10
2.0
 20
-8.999999999999772
 30
0.0
 11
2.0
 21
9.000000000000227
 31
0.0
  0
LINE
  5
6212
330
6208
100
AcDbEntity
  8
AM_0 外形線1
100
AcDbLine
 10
41.0
 20
8.422650000000203
 30
0.0
 11
41.0
 21
-8.422649999999746
 31
0.0
  0
ARC
  5
6213
330
6208
100
AcDbEntity
  8
AM_0 外形線1
100
AcDbCircle
 10
-3.85887300000013
 20
10.38910200000032
 30
0.0
 40
6.141127
100
AcDbArc
 50
145.6975910000145
 51
214.3024089999855
  0
LINE
  5
6214
330
6208
100
AcDbEntity
  8
AM_0 外形線1
100
AcDbLine
 10
-10.0
 20
12.00000000000023
 30
0.0
 11
-10.0
 21
-11.99999999999977
 31
0.0
  0
ARC
  5
6215
330
6208
100
AcDbEntity
  8
AM_0 外形線1
100
AcDbCircle
 10
1.0
 20
-8.999999999999772
 30
0.0
 40
1.0
100
AcDbArc
 50
0.0
 51
180.0
  0
ARC
  5
6216
330
6208
100
AcDbEntity
  8
AM_0 外形線1
100
AcDbCircle
 10
-3.85887300000013
 20
-10.38910199999964
 30
0.0
 40
6.141127
100
AcDbArc
 50
145.6975910000145
 51
214.3024089999855
  0
ARC
  5
6217
330
6208
100
AcDbEntity
  8
AM_0 外形線1
100
AcDbCircle
 10
13.00389700000005
 20
0.0000000000002274
 30
0.0
 40
23.003897
100
AcDbArc
 50
162.471797999992
 51
197.528202000008
  0
LINE
  5
6218
330
6208
100
AcDbEntity
  8
AM_0 外形線1
100
AcDbLine
 10
0.0
 20
-6.928202999999713
 30
0.0
 11
-8.931902000000036
 21
-6.928202999999713
 31
0.0
  0
LINE
  5
6219
330
6208
100
AcDbEntity
  8
AM_0 外形線1
100
AcDbLine
 10
0.0
 20
6.928203000000165
 30
0.0
 11
-8.931902000000036
 21
6.928203000000165
 31
0.0
  0
LINE
  5
621A
330
6208
100
AcDbEntity
  8
AM_0 外形線1
100
AcDbLine
 10
-8.931902000000036
 20
-13.84999999999991
 30
0.0
 11
0.0
 21
-13.84999999999991
 31
0.0
  0
LINE
  5
621B
330
6208
100
AcDbEntity
  8
AM_0 外形線1
100
AcDbLine
 10
-10.0
 20
-11.99999999999977
 30
0.0
 11
-8.931902000000036
 21
-13.84999999999991
 31
0.0
  0
LINE
  5
621C
330
6208
100
AcDbEntity
  8
AM_0 外形線1
100
AcDbLine
 10
46.0
 20
-6.928202999999713
 30
0.0
 11
57.93190200000004
 21
-6.928202999999713
 31
0.0
  0
LINE
  5
621D
330
6208
100
AcDbEntity
  8
AM_0 外形線1
100
AcDbLine
 10
46.0
 20
6.928203000000165
 30
0.0
 11
57.93190200000004
 21
6.928203000000165
 31
0.0
  0
LINE
  5
621E
330
6208
100
AcDbEntity
  8
AM_0 外形線1
100
AcDbLine
 10
57.93190200000004
 20
-13.84999999999991
 30
0.0
 11
46.0
 21
-13.84999999999991
 31
0.0
  0
LINE
  5
621F
330
6208
100
AcDbEntity
  8
AM_0 外形線1
100
AcDbLine
 10
41.0
 20
-8.422649999999746
 30
0.0
 11
42.0
 21
-8.422649999999746
 31
0.0
  0
LINE
  5
6220
330
6208
100
AcDbEntity
  8
AM_0 外形線1
100
AcDbLine
 10
46.0
 20
1.333333000000265
 30
0.0
 11
42.0
 21
-2.666666999999733
 31
0.0
  0
LINE
  5
6221
330
6208
100
AcDbEntity
  8
AM_0 外形線1
100
AcDbLine
 10
46.0
 20
2.666667000000188
 30
0.0
 11
42.0
 21
-1.333332999999811
 31
0.0
  0
LINE
  5
6222
330
6208
100
AcDbEntity
  8
AM_0 外形線1
100
AcDbLine
 10
46.0
 20
-13.99999999999977
 30
0.0
 11
46.0
 21
-13.84999999999991
 31
0.0
  0
LINE
  5
6223
330
6208
100
AcDbEntity
  8
AM_0 外形線1
100
AcDbLine
 10
42.0
 20
-13.99999999999977
 30
0.0
 11
46.0
 21
-13.99999999999977
 31
0.0
  0
LINE
  5
6224
330
6208
100
AcDbEntity
  8
AM_0 外形線1
100
AcDbLine
 10
41.0
 20
-8.422649999999746
 30
0.0
 11
40.0
 21
-8.999999999999772
 31
0.0
  0
LINE
  5
6225
330
6208
100
AcDbEntity
  8
AM_4 細線
100
AcDbLine
 10
59.0
 20
-6.999999999999772
 30
0.0
 11
64.0
 21
-6.999999999999772
 31
0.0
  0
LINE
  5
6226
330
6208
100
AcDbEntity
  8
AM_0 外形線1
100
AcDbLine
 10
63.0
 20
-7.999999999999772
 30
0.0
 11
59.0
 21
-7.999999999999772
 31
0.0
  0
LINE
  5
6227
330
6208
100
AcDbEntity
  8
AM_0 外形線1
100
AcDbLine
 10
65.0
 20
-5.999999999999772
 30
0.0
 11
63.0
 21
-7.999999999999772
 31
0.0
  0
LINE
  5
6228
330
6208
100
AcDbEntity
  8
AM_0 外形線1
100
AcDbLine
 10
65.0
 20
6.000000000000227
 30
0.0
 11
65.0
 21
-5.999999999999772
 31
0.0
  0
ARC
  5
6229
330
6208
100
AcDbEntity
  8
AM_0 外形線1
100
AcDbCircle
 10
52.85887300000013
 20
-10.38910199999964
 30
0.0
 40
6.141127
100
AcDbArc
 50
325.6975910000146
 51
34.30240899998549
  0
ARC
  5
622A
330
6208
100
AcDbEntity
  8
AM_0 外形線1
100
AcDbCircle
 10
35.99610299999996
 20
0.0000000000002274
 30
0.0
 40
23.003897
100
AcDbArc
 50
342.471797999992
 51
17.52820200000799
  0
LINE
  5
622B
330
6208
100
AcDbEntity
  8
AM_0 外形線1
100
AcDbLine
 10
59.0
 20
-11.99999999999977
 30
0.0
 11
57.93190200000004
 21
-13.84999999999991
 31
0.0
  0
ARC
  5
622C
330
6208
100
AcDbEntity
  8
AM_0 外形線1
100
AcDbCircle
 10
1.0
 20
9.000000000000227
 30
0.0
 40
1.0
100
AcDbArc
 50
180.0
 51
0.0
  0
LINE
  5
622D
330
6208
100
AcDbEntity
  8
AM_0 外形線1
100
AcDbLine
 10
-8.931902000000036
 20
13.85000000000013
 30
0.0
 11
-10.0
 21
12.00000000000023
 31
0.0
  0
LINE
  5
622E
330
6208
100
AcDbEntity
  8
AM_0 外形線1
100
AcDbLine
 10
0.0
 20
13.85000000000013
 30
0.0
 11
-8.931902000000036
 21
13.85000000000013
 31
0.0
  0
LINE
  5
622F
330
6208
100
AcDbEntity
  8
AM_0 外形線1
100
AcDbLine
 10
46.0
 20
13.85000000000013
 30
0.0
 11
57.93190200000004
 21
13.85000000000013
 31
0.0
  0
LINE
  5
6230
330
6208
100
AcDbEntity
  8
AM_0 外形線1
100
AcDbLine
 10
41.0
 20
8.422650000000203
 30
0.0
 11
42.0
 21
8.422650000000203
 31
0.0
  0
LINE
  5
6231
330
6208
100
AcDbEntity
  8
AM_0 外形線1
100
AcDbLine
 10
46.0
 20
14.00000000000023
 30
0.0
 11
42.0
 21
14.00000000000023
 31
0.0
  0
LINE
  5
6232
330
6208
100
AcDbEntity
  8
AM_0 外形線1
100
AcDbLine
 10
46.0
 20
13.85000000000013
 30
0.0
 11
46.0
 21
14.00000000000023
 31
0.0
  0
LINE
  5
6233
330
6208
100
AcDbEntity
  8
AM_0 外形線1
100
AcDbLine
 10
40.0
 20
9.000000000000227
 30
0.0
 11
41.0
 21
8.422650000000203
 31
0.0
  0
LINE
  5
6234
330
6208
100
AcDbEntity
  8
AM_4 細線
100
AcDbLine
 10
59.0
 20
7.000000000000227
 30
0.0
 11
64.0
 21
7.000000000000227
 31
0.0
  0
LINE
  5
6235
330
6208
100
AcDbEntity
  8
AM_0 外形線1
100
AcDbLine
 10
59.0
 20
8.000000000000227
 30
0.0
 11
63.0
 21
8.000000000000227
 31
0.0
  0
LINE
  5
6236
330
6208
100
AcDbEntity
  8
AM_0 外形線1
100
AcDbLine
 10
57.93190200000004
 20
13.85000000000013
 30
0.0
 11
59.0
 21
12.00000000000023
 31
0.0
  0
LINE
  5
62A3
330
6208
100
AcDbEntity
  8
AM_0 外形線1
100
AcDbLine
 10
0.0
 20
13.85000000000013
 30
0.0
 11
-0.0000000000001137
 21
-13.84999999999991
 31
0.0
  0
LINE
  5
62A4
330
6208
100
AcDbEntity
  8
AM_0 外形線1
100
AcDbLine
 10
2.0
 20
9.000000000000227
 30
0.0
 11
40.0
 21
9.000000000000227
 31
0.0
  0
LINE
  5
62A5
330
6208
100
AcDbEntity
  8
AM_0 外形線1
100
AcDbLine
 10
2.0
 20
-8.999999999999772
 30
0.0
 11
40.0
 21
-8.999999999999772
 31
0.0
  0
LINE
  5
62A6
330
6208
100
AcDbEntity
  8
AM_0 外形線1
100
AcDbLine
 10
42.0
 20
14.00000000000023
 30
0.0
 11
42.0
 21
-13.99999999999977
 31
0.0
  0
ENDBLK
  5
620A
330
6208
100
AcDbEntity
  8
0
100
AcDbBlockEnd
  0
BLOCK
  5
783E
330
783D
100
AcDbEntity
  8
0
100
AcDbBlockBegin
  2
*D24
 70
     1
 10
0.0
 20
0.0
 30
0.0
  3
*D24
  1

  0
LINE
  5
8CBD
330
783D
100
AcDbEntity
  8
AM_5 寸法線
 62
     3
100
AcDbLine
 10
979.8835052156873
 20
1077.666282318192
 30
0.0
 11
979.8835052156873
 21
1086.012585468205
 31
0.0
  0
LINE
  5
8CBE
330
783D
100
AcDbEntity
  8
AM_5 寸法線
 62
     3
100
AcDbLine
 10
997.8835052156874
 20
1077.666282318192
 30
0.0
 11
997.8835052156874
 21
1086.012585468205
 31
0.0
  0
LINE
  5
8CBF
330
783D
100
AcDbEntity
  8
AM_5 寸法線
 62
     3
100
AcDbLine
 10
967.3835052156873
 20
1082.887585468205
 30
0.0
 11
954.8835052156873
 21
1082.887585468205
 31
0.0
  0
LINE
  5
8CC0
330
783D
100
AcDbEntity
  8
AM_5 寸法線
 62
     3
100
AcDbLine
 10
1010.383505215687
 20
1082.887585468205
 30
0.0
 11
1022.883505215687
 21
1082.887585468205
 31
0.0
  0
MTEXT
  5
8CC1
330
783D
100
AcDbEntity
  8
AM_5 寸法線
 62
     3
100
AcDbMText
 10
1013.800383046409
 20
1101.000783146863
 30
0.0
 40
17.5
 41
0.0
 46
0.0
 71
     5
 72
     1
  1
18
  7
SEISA
 73
     1
 44
1.0
  0
LINE
  5
8CC2
330
783D
100
AcDbEntity
  8
AM_5 寸法線
 62
     3
100
AcDbLine
 10
979.8835052156873
 20
1082.887585468205
 30
0.0
 11
997.8835052156874
 21
1082.887585468205
 31
0.0
  0
INSERT
  5
8CC3
330
783D
100
AcDbEntity
  8
AM_5 寸法線
 62
     3
100
AcDbBlockReference
  2
_Open30
 10
979.8835052156873
 20
1082.887585468205
 30
0.0
 41
12.5
 42
12.5
 43
12.5
  0
INSERT
  5
8CC4
330
783D
100
AcDbEntity
  8
AM_5 寸法線
 62
     3
100
AcDbBlockReference
  2
_Open30
 10
997.8835052156874
 20
1082.887585468205
 30
0.0
 41
12.5
 42
12.5
 43
12.5
 50
180.0
  0
POINT
  5
8CC5
330
783D
100
AcDbEntity
  8
Defpoints
 62
     0
100
AcDbPoint
 10
979.8835052156873
 20
1074.541282318192
 30
0.0
  0
POINT
  5
8CC6
330
783D
100
AcDbEntity
  8
Defpoints
 62
     0
100
AcDbPoint
 10
997.8835052156874
 20
1074.541282318192
 30
0.0
  0
POINT
  5
8CC7
330
783D
100
AcDbEntity
  8
Defpoints
 62
     0
100
AcDbPoint
 10
997.8835052156874
 20
1082.887585468205
 30
0.0
  0
ENDBLK
  5
783F
330
783D
100
AcDbEntity
  8
0
100
AcDbBlockEnd
  0
BLOCK
  5
7EBD
330
7EBA
100
AcDbEntity
  8
0
100
AcDbBlockBegin
  2
GENDOT
 70
     0
 10
0.0
 20
0.0
 30
0.0
  3
GENDOT
  1

  0
LINE
  5
7EBB
330
7EBA
100
AcDbEntity
  8
0
100
AcDbLine
 10
0.0
 20
0.0
 30
0.0
 11
-1.0
 21
0.0
 31
0.0
  0
LWPOLYLINE
  5
7EBC
330
7EBA
100
AcDbEntity
  8
0
100
AcDbPolyline
 90
        2
 70
     1
 43
0.25
 10
-0.125
 20
0.0
 42
1.0
 10
0.125
 20
0.0
 42
1.0
  0
ENDBLK
  5
7EBE
330
7EBA
100
AcDbEntity
  8
0
100
AcDbBlockEnd
  0
BLOCK
  5
8A51
330
8A50
100
AcDbEntity
  8
0
100
AcDbBlockBegin
  2
*D26
 70
     1
 10
0.0
 20
0.0
 30
0.0
  3
*D26
  1

  0
LINE
  5
8BEE
330
8A50
100
AcDbEntity
  8
AM_5 寸法線
 62
     3
100
AcDbLine
 10
779.8835052156873
 20
1215.318920468205
 30
0.0
 11
779.8835052156873
 21
1254.818920468205
 31
0.0
  0
LINE
  5
8BEF
330
8A50
100
AcDbEntity
  8
AM_5 寸法線
 62
     3
100
AcDbLine
 10
779.8835052156873
 20
1192.518920468205
 30
0.0
 11
779.8835052156873
 21
1254.818920468205
 31
0.0
  0
LINE
  5
8BF0
330
8A50
100
AcDbEntity
  8
AM_5 寸法線
 62
     3
100
AcDbLine
 10
767.3835052156873
 20
1251.693920468205
 30
0.0
 11
754.8835052156873
 21
1251.693920468205
 31
0.0
  0
LINE
  5
8BF1
330
8A50
100
AcDbEntity
  8
AM_5 寸法線
 62
     3
100
AcDbLine
 10
792.3835052156873
 20
1251.693920468205
 30
0.0
 11
830.3835052156872
 21
1251.693920468205
 31
0.0
  0
INSERT
  5
8BF2
330
8A50
100
AcDbEntity
  8
AM_5 寸法線
 62
     3
100
AcDbBlockReference
  2
_Open30
 10
779.8835052156873
 20
1251.693920468205
 30
0.0
 41
12.5
 42
12.5
 43
12.5
  0
INSERT
  5
8BF3
330
8A50
100
AcDbEntity
  8
AM_5 寸法線
 62
     3
100
AcDbBlockReference
  2
_Open30
 10
779.8835052156873
 20
1251.693920468205
 30
0.0
 41
12.5
 42
12.5
 43
12.5
 50
180.0
  0
MTEXT
  5
8BF4
330
8A50
100
AcDbEntity
  8
AM_5 寸法線
 62
     3
100
AcDbMText
 10
817.6335052156874
 20
1267.943920468205
 30
0.0
 40
17.5
 41
0.0
 46
0.0
 71
     5
 72
     1
  1
0
  7
SEISA
 73
     1
 44
1.0
  0
POINT
  5
8BF5
330
8A50
100
AcDbEntity
  8
Defpoints
 62
     0
100
AcDbPoint
 10
779.8835052156873
 20
1212.193920468205
 30
0.0
  0
POINT
  5
8BF6
330
8A50
100
AcDbEntity
  8
Defpoints
 62
     0
100
AcDbPoint
 10
779.8835052156873
 20
1189.393920468205
 30
0.0
  0
POINT
  5
8BF7
330
8A50
100
AcDbEntity
  8
Defpoints
 62
     0
100
AcDbPoint
 10
779.8835052156873
 20
1251.693920468205
 30
0.0
  0
ENDBLK
  5
8A52
330
8A50
100
AcDbEntity
  8
0
100
AcDbBlockEnd
  0
BLOCK
  5
8B20
330
8B1F
100
AcDbEntity
  8
0
100
AcDbBlockBegin
  2
*D27
 70
     1
 10
0.0
 20
0.0
 30
0.0
  3
*D27
  1

  0
LINE
  5
8B56
330
8B1F
100
AcDbEntity
  8
AM_5 寸法線
 62
     3
100
AcDbLine
 10
899.3835052156873
 20
1191.568920468205
 30
0.0
 11
899.3835052156873
 21
1153.977431468206
 31
0.0
  0
LINE
  5
8B57
330
8B1F
100
AcDbEntity
  8
AM_5 寸法線
 62
     3
100
AcDbLine
 10
944.8835052156873
 20
1191.568920468205
 30
0.0
 11
944.8835052156873
 21
1153.977431468206
 31
0.0
  0
LINE
  5
8B58
330
8B1F
100
AcDbEntity
  8
AM_5 寸法線
 62
     3
100
AcDbLine
 10
911.8835052156873
 20
1157.102431468206
 30
0.0
 11
932.3835052156873
 21
1157.102431468206
 31
0.0
  0
LINE
  5
8B59
330
8B1F
100
AcDbEntity
  8
AM_5 寸法線
 62
     3
100
AcDbLine
 10
922.1335052156874
 20
1157.102431468206
 30
0.0
 11
919.1130704982816
 21
1098.027634317017
 31
0.0
  0
LINE
  5
8B5A
330
8B1F
100
AcDbEntity
  8
AM_5 寸法線
 62
     3
100
AcDbLine
 10
919.1130704982816
 20
1098.027634317017
 30
0.0
 11
982.1130704982815
 21
1098.027634317017
 31
0.0
  0
MTEXT
  5
8B5B
330
8B1F
100
AcDbEntity
  8
AM_5 寸法線
 62
     3
100
AcDbMText
 10
950.6130704982815
 20
1114.277634317017
 30
0.0
 40
17.5
 41
0.0
 46
0.0
 71
     5
 72
     1
  1
45.5
  7
SEISA
 73
     1
 44
1.0
  0
INSERT
  5
8B5C
330
8B1F
100
AcDbEntity
  8
AM_5 寸法線
 62
     3
100
AcDbBlockReference
  2
_Open30
 10
899.3835052156873
 20
1157.102431468206
 30
0.0
 41
12.5
 42
12.5
 43
12.5
 50
180.0
  0
INSERT
  5
8B5D
330
8B1F
100
AcDbEntity
  8
AM_5 寸法線
 62
     3
100
AcDbBlockReference
  2
_Open30
 10
944.8835052156873
 20
1157.102431468206
 30
0.0
 41
12.5
 42
12.5
 43
12.5
  0
POINT
  5
8B5E
330
8B1F
100
AcDbEntity
  8
Defpoints
 62
     0
100
AcDbPoint
 10
899.3835052156873
 20
1194.693920468205
 30
0.0
  0
POINT
  5
8B5F
102
{ACAD_REACTORS
330
8B71
102
}
330
8B1F
100
AcDbEntity
  8
Defpoints
 62
     0
100
AcDbPoint
 10
944.8835052156873
 20
1194.693920468205
 30
0.0
  0
POINT
  5
8B60
330
8B1F
100
AcDbEntity
  8
Defpoints
 62
     0
100
AcDbPoint
 10
944.8835052156873
 20
1157.102431468206
 30
0.0
  0
ENDBLK
  5
8B21
330
8B1F
100
AcDbEntity
  8
0
100
AcDbBlockEnd
  0
BLOCK
  5
8B63
330
8B62
100
AcDbEntity
  8
0
100
AcDbBlockBegin
  2
*D28
 70
     1
 10
0.0
 20
0.0
 30
0.0
  3
*D28
  1

  0
LINE
  5
8BA9
330
8B62
100
AcDbEntity
  8
AM_5 寸法線
 62
     3
100
AcDbLine
 10
944.8835052156873
 20
1191.568920468205
 30
0.0
 11
944.8835052156873
 21
1153.977431468206
 31
0.0
  0
LINE
  5
8BAA
330
8B62
100
AcDbEntity
  8
AM_5 寸法線
 62
     3
100
AcDbLine
 10
979.8835052156873
 20
1189.568920468205
 30
0.0
 11
979.8835052156873
 21
1153.977431468206
 31
0.0
  0
LINE
  5
8BAB
330
8B62
100
AcDbEntity
  8
AM_5 寸法線
 62
     3
100
AcDbLine
 10
932.3835052156873
 20
1157.102431468206
 30
0.0
 11
919.8835052156873
 21
1157.102431468206
 31
0.0
  0
LINE
  5
8BAC
330
8B62
100
AcDbEntity
  8
AM_5 寸法線
 62
     3
100
AcDbLine
 10
992.3835052156873
 20
1157.102431468206
 30
0.0
 11
1004.883505215687
 21
1157.102431468206
 31
0.0
  0
MTEXT
  5
8BAD
330
8B62
100
AcDbEntity
  8
AM_5 寸法線
 62
     3
100
AcDbMText
 10
962.7183061404863
 20
1173.232983012622
 30
0.0
 40
17.5
 41
0.0
 46
0.0
 71
     5
 72
     1
  1
35
  7
SEISA
 73
     1
 44
1.0
  0
LINE
  5
8BAE
330
8B62
100
AcDbEntity
  8
AM_5 寸法線
 62
     3
100
AcDbLine
 10
944.8835052156873
 20
1157.102431468206
 30
0.0
 11
979.8835052156873
 21
1157.102431468206
 31
0.0
  0
INSERT
  5
8BAF
330
8B62
100
AcDbEntity
  8
AM_5 寸法線
 62
     3
100
AcDbBlockReference
  2
_Open30
 10
944.8835052156873
 20
1157.102431468206
 30
0.0
 41
12.5
 42
12.5
 43
12.5
  0
INSERT
  5
8BB0
330
8B62
100
AcDbEntity
  8
AM_5 寸法線
 62
     3
100
AcDbBlockReference
  2
_Open30
 10
979.8835052156873
 20
1157.102431468206
 30
0.0
 41
12.5
 42
12.5
 43
12.5
 50
180.0
  0
POINT
  5
8BB1
330
8B62
100
AcDbEntity
  8
Defpoints
 62
     0
100
AcDbPoint
 10
944.8835052156873
 20
1194.693920468205
 30
0.0
  0
POINT
  5
8BB2
330
8B62
100
AcDbEntity
  8
Defpoints
 62
     0
100
AcDbPoint
 10
979.8835052156873
 20
1192.693920468204
 30
0.0
  0
POINT
  5
8BB3
330
8B62
100
AcDbEntity
  8
Defpoints
 62
     0
100
AcDbPoint
 10
979.8835052156873
 20
1157.102431468206
 30
0.0
  0
ENDBLK
  5
8B64
330
8B62
100
AcDbEntity
  8
0
100
AcDbBlockEnd
  0
BLOCK
  5
8D39
330
8D38
100
AcDbEntity
  8
0
100
AcDbBlockBegin
  2
ケース
 70
     0
 10
0.0
 20
0.0
 30
0.0
  3
ケース
  1

  0
LINE
  5
8D3B
330
8D38
100
AcDbEntity
  8
AM_11 想像線
 48
0.1
100
AcDbLine
 10
0.0
 20
0.0
 30
0.0
 11
-30.01461264930822
 21
0.0
 31
0.0
  0
LINE
  5
8D3C
330
8D38
100
AcDbEntity
  8
AM_11 想像線
 48
0.1
100
AcDbLine
 10
0.0
 20
-15.70000000000004
 30
0.0
 11
-8.514612649308219
 21
-15.70000000000004
 31
0.0
  0
LINE
  5
8D3D
330
8D38
100
AcDbEntity
  8
AM_11 想像線
 48
0.1
100
AcDbLine
 10
0.0
 20
-12.5
 30
0.0
 11
-11.51461264930822
 21
-12.5
 31
0.0
  0
LINE
  5
8D3E
330
8D38
100
AcDbEntity
  8
AM_11 想像線
 48
0.1
100
AcDbLine
 10
0.0
 20
-8.5
 30
0.0
 11
-9.514612649308219
 21
-8.5
 31
0.0
  0
ARC
  5
8D3F
330
8D38
100
AcDbEntity
  8
AM_11 想像線
 48
0.1
100
AcDbCircle
 10
-30.01461264930822
 20
-4.0
 30
0.0
 40
4.0
100
AcDbArc
 50
90.0
 51
180.0
  0
LINE
  5
8D40
330
8D38
100
AcDbEntity
  8
AM_11 想像線
 48
0.1
100
AcDbLine
 10
-19.41461264930831
 20
-20.5
 30
0.0
 11
-16.01461264930822
 21
-20.5
 31
0.0
  0
LINE
  5
8D41
330
8D38
100
AcDbEntity
  8
AM_11 想像線
 48
0.1
100
AcDbLine
 10
-19.41461264930831
 20
-15.60000000000013
 30
0.0
 11
-19.41461264930831
 21
-20.5
 31
0.0
  0
ARC
  5
8D42
330
8D38
100
AcDbEntity
  8
AM_11 想像線
 48
0.1
100
AcDbCircle
 10
-19.91461264930831
 20
-15.60000000000013
 30
0.0
 40
0.5
100
AcDbArc
 50
0.0
 51
90.0
  0
LINE
  5
8D43
330
8D38
100
AcDbEntity
  8
AM_11 想像線
 48
0.1
100
AcDbLine
 10
-30.11461264930813
 20
-15.10000000000013
 30
0.0
 11
-19.91461264930831
 21
-15.10000000000013
 31
0.0
  0
ARC
  5
8D44
330
8D38
100
AcDbEntity
  8
AM_11 想像線
 48
0.1
100
AcDbCircle
 10
-30.11461264930813
 20
-15.60000000000013
 30
0.0
 40
0.5
100
AcDbArc
 50
90.0
 51
180.0
  0
LINE
  5
8D45
330
8D38
100
AcDbEntity
  8
AM_11 想像線
 48
0.1
100
AcDbLine
 10
-30.61461264930813
 20
-20.5
 30
0.0
 11
-30.61461264930813
 21
-15.60000000000013
 31
0.0
  0
LINE
  5
8D46
330
8D38
100
AcDbEntity
  8
AM_11 想像線
 48
0.1
100
AcDbLine
 10
-34.01461264930822
 20
-20.5
 30
0.0
 11
-30.61461264930813
 21
-20.5
 31
0.0
  0
LINE
  5
8D47
102
{ACAD_REACTORS
330
8A5F
102
}
330
8D38
100
AcDbEntity
  8
AM_11 想像線
 48
0.1
100
AcDbLine
 10
-34.01461264930822
 20
-4.0
 30
0.0
 11
-34.01461264930822
 21
-20.5
 31
0.0
  0
LINE
  5
8D48
330
8D38
100
AcDbEntity
  8
AM_11 想像線
 48
0.1
100
AcDbLine
 10
-19.41461264930831
 20
-20.5
 30
0.0
 11
-19.41461264930831
 21
-22.0
 31
0.0
  0
LINE
  5
8D49
330
8D38
100
AcDbEntity
  8
AM_11 想像線
 48
0.1
100
AcDbLine
 10
-30.61461264930813
 20
-20.5
 30
0.0
 11
-30.61461264930813
 21
-22.0
 31
0.0
  0
LINE
  5
8D4A
330
8D38
100
AcDbEntity
  8
AM_11 想像線
 48
0.1
100
AcDbLine
 10
-34.01461264930822
 20
-20.5
 30
0.0
 11
-34.01461264930822
 21
-22.0
 31
0.0
  0
LINE
  5
8D4B
330
8D38
100
AcDbEntity
  8
AM_11 想像線
 48
0.1
100
AcDbLine
 10
-9.514612649308219
 20
-14.70000000000004
 30
0.0
 11
-8.514612649308219
 21
-15.70000000000004
 31
0.0
  0
LINE
  5
8D4C
330
8D38
100
AcDbEntity
  8
AM_11 想像線
 48
0.1
100
AcDbLine
 10
-9.514612649308219
 20
-8.5
 30
0.0
 11
-9.514612649308219
 21
-11.62828000000013
 31
0.0
  0
ARC
  5
8D4D
330
8D38
100
AcDbEntity
  8
AM_11 想像線
 48
0.1
100
AcDbCircle
 10
-10.51461264930822
 20
-8.5
 30
0.0
 40
1.0
100
AcDbArc
 50
0.0
 51
90.0
  0
LINE
  5
8D4E
330
8D38
100
AcDbEntity
  8
AM_11 想像線
 48
0.1
100
AcDbLine
 10
-15.01461264930822
 20
-7.5
 30
0.0
 11
-10.51461264930822
 21
-7.5
 31
0.0
  0
ARC
  5
8D4F
330
8D38
100
AcDbEntity
  8
AM_11 想像線
 48
0.1
100
AcDbCircle
 10
-15.01461264930822
 20
-8.5
 30
0.0
 40
1.0
100
AcDbArc
 50
90.0
 51
180.0
  0
LINE
  5
8D50
330
8D38
100
AcDbEntity
  8
AM_11 想像線
 48
0.1
100
AcDbLine
 10
-16.01461264930822
 20
-20.5
 30
0.0
 11
-16.01461264930822
 21
-8.5
 31
0.0
  0
LINE
  5
8D51
330
8D38
100
AcDbEntity
  8
AM_11 想像線
 48
0.1
100
AcDbLine
 10
-16.01461264930822
 20
-20.5
 30
0.0
 11
-16.01461264930822
 21
-22.0
 31
0.0
  0
LINE
  5
8D52
330
8D38
100
AcDbEntity
  8
AM_11 想像線
 48
0.1
100
AcDbLine
 10
-9.514612649308219
 20
-11.62828000000013
 30
0.0
 11
-9.514612649308219
 21
-14.70000000000004
 31
0.0
  0
ENDBLK
  5
8D3A
330
8D38
100
AcDbEntity
  8
0
100
AcDbBlockEnd
  0
ENDSEC
  0
SECTION
  2
ENTITIES
  0
LINE
  5
3A3B
330
1F
100
AcDbEntity
  8
AM_7 中心線
100
AcDbLine
 10
774.8835052156874
 20
1051.693920468204
 30
0.0
 11
1202.883505215687
 21
1051.693920468204
 31
0.0
  0
DIMENSION
  5
3A3C
330
1F
100
AcDbEntity
  8
AM_5 寸法線
100
AcDbDimension
  2
*D11
 10
1297.883505215687
 20
1194.193920468205
 30
0.0
 11
1281.633505215687
 21
1051.693920468206
 31
0.0
 70
    32
  1
%%C<>
 71
     5
 42
285.0
 73
     0
 74
     0
 75
     0
  3
SEISA$0
100
AcDbAlignedDimension
 13
1133.383505215687
 23
909.1939204682056
 33
0.0
 14
1133.383505215687
 24
1194.193920468205
 34
0.0
 50
90.0
100
AcDbRotatedDimension
1001
ACAD
1000
DSTYLE
1002
{
1070
   279
1070
     0
1002
}
  0
DIMENSION
  5
3A3D
330
1F
100
AcDbEntity
  8
AM_5 寸法線
100
AcDbDimension
  2
*D12
 10
1347.883505215687
 20
1216.193920468205
 30
0.0
 11
1347.883505215687
 21
1051.693920468206
 31
0.0
 70
   160
  1
%%C<>
 71
     5
 42
329.0
 73
     0
 74
     0
 75
     0
  3
SEISA$0
100
AcDbAlignedDimension
 13
1098.883505215687
 23
887.1939204682055
 33
0.0
 14
1098.883505215687
 24
1216.193920468205
 34
0.0
 50
90.0
100
AcDbRotatedDimension
1001
ACAD
1000
DSTYLE
1002
{
1070
   279
1070
     0
1002
}
  0
DIMENSION
  5
3A3E
330
1F
100
AcDbEntity
  8
AM_5 寸法線
100
AcDbDimension
  2
*D13
 10
1397.883505215688
 20
1251.693920468205
 30
0.0
 11
1397.883505215687
 21
1051.693920468206
 31
0.0
 70
   160
  1
%%C<>
 71
     5
 42
400.0
 73
     0
 74
     0
 75
     0
  3
SEISA$0
100
AcDbAlignedDimension
 13
1009.883505215687
 23
851.6939204682055
 33
0.0
 14
1008.883505215687
 24
1251.693920468205
 34
0.0
 50
90.0
100
AcDbRotatedDimension
1001
ACAD
1000
DSTYLE
1002
{
1070
   279
1070
     0
1002
}
  0
DIMENSION
  5
3A49
330
1F
100
AcDbEntity
  8
AM_5 寸法線
100
AcDbDimension
  2
*D14
 10
1197.883505215687
 20
701.6939204682055
 30
0.0
 11
988.8835052156874
 21
717.9439204682055
 31
0.0
 70
    32
 71
     5
 42
418.0
 73
     0
 74
     0
 75
     0
  3
SEISA$0
100
AcDbAlignedDimension
 13
779.8835052156873
 23
913.9939204682054
 33
0.0
 14
1197.883505215687
 24
913.9939204682054
 34
0.0
100
AcDbRotatedDimension
  0
DIMENSION
  5
3A4C
330
1F
100
AcDbEntity
  8
AM_5 寸法線
100
AcDbDimension
  2
*D15
 10
1102.883505215687
 20
751.6939204682055
 30
0.0
 11
988.8835052156874
 21
767.9439204682055
 31
0.0
 70
    32
 71
     5
 42
228.0
 73
     0
 74
     0
 75
     0
  3
SEISA$0
100
AcDbAlignedDimension
 13
874.8835052156874
 23
891.1939204682054
 33
0.0
 14
1102.883505215687
 24
891.1939204682054
 34
0.0
100
AcDbRotatedDimension
1001
ACAD
1000
DSTYLE
1002
{
1070
   279
1070
     0
1002
}
  0
DIMENSION
  5
3A4F
330
1F
100
AcDbEntity
  8
AM_5 寸法線
100
AcDbDimension
  2
*D16
 10
988.8835052156876
 20
801.6939204682055
 30
0.0
 11
940.2929356041703
 21
815.2644061256392
 31
0.0
 70
   160
 71
     5
 42
21.00000000000023
 73
     0
 74
     0
 75
     0
  3
SEISA$0
100
AcDbAlignedDimension
 13
967.8835052156872
 23
852.6939204682054
 33
0.0
 14
988.8835052156876
 24
852.6939204682058
 34
0.0
100
AcDbRotatedDimension
1001
ACAD_DSTYLE_DIMINSPECT
1070
   396
1000
100%
1070
   395
1000

1070
   394
1070
    33
1070
   393
1070
     0
1001
ACAD
1000
DSTYLE
1002
{
1070
   173
1070
     1
1070
   279
1070
     2
1070
   342
1005
0
1070
   343
1005
69
1070
   344
1005
7EBA
1002
}
  0
DIMENSION
  5
3A50
330
1F
100
AcDbEntity
  8
AM_5 寸法線
100
AcDbDimension
  2
*D17
 10
1009.883505215687
 20
801.6939204682055
 30
0.0
 11
1030.991080942726
 21
815.2629835560309
 31
0.0
 70
   160
 71
     5
 42
21.0
 73
     0
 74
     0
 75
     0
  3
SEISA$0
100
AcDbAlignedDimension
 13
988.8835052156874
 23
851.6939204682055
 33
0.0
 14
1009.883505215687
 24
851.6939204682055
 34
0.0
100
AcDbRotatedDimension
1001
ACAD_DSTYLE_DIMINSPECT
1070
   396
1000
100%
1070
   395
1000

1070
   394
1070
    33
1070
   393
1070
     0
1001
ACAD
1000
DSTYLE
1002
{
1070
   173
1070
     1
1070
   279
1070
     2
1070
   342
1005
0
1070
   343
1005
7EBA
1070
   344
1005
69
1002
}
  0
DIMENSION
  5
3A63
330
1F
100
AcDbEntity
  8
AM_5 寸法線
100
AcDbDimension
  2
*D6
 10
979.8835052156873
 20
1082.887585468205
 30
0.0
 11
879.8835052156873
 21
1099.137585468205
 31
0.0
 70
    32
 71
     5
 42
200.0
 73
     0
 74
     0
 75
     0
  3
SEISA$0
100
AcDbAlignedDimension
 13
779.8835052156873
 23
1082.887585468205
 33
0.0
 14
979.8835052156873
 24
1083.021560468206
 34
0.0
100
AcDbRotatedDimension
  0
DIMENSION
  5
3A75
330
1F
100
AcDbEntity
  8
AM_5 寸法線
100
AcDbDimension
  2
*D7
 10
1197.883505215687
 20
1082.887585468205
 30
0.0
 11
1097.883505215687
 21
1099.137585468205
 31
0.0
 70
    32
 71
     5
 42
200.0
 73
     0
 74
     0
 75
     0
  3
SEISA$0
100
AcDbAlignedDimension
 13
997.8835052156874
 23
1082.887585468205
 33
0.0
 14
1197.883505215687
 24
1082.887585468205
 34
0.0
100
AcDbRotatedDimension
  0
DIMENSION
  5
3AAE
330
1F
100
AcDbEntity
  8
AM_5 寸法線
100
AcDbDimension
  2
*D8
 10
899.3835052156873
 20
1157.102431468205
 30
0.0
 11
844.2585052156871
 21
1157.102431468205
 31
0.0
 70
   160
 71
     5
 42
6.5
 73
     0
 74
     0
 75
     0
  3
SEISA$0
100
AcDbAlignedDimension
 13
892.8835052156872
 23
1194.193920468205
 33
0.0
 14
899.3835052156873
 24
1194.693920468205
 34
0.0
100
AcDbRotatedDimension
1001
ACAD
1000
DSTYLE
1002
{
1070
   279
1070
     0
1002
}
  0
LINE
  5
3B00
330
1F
100
AcDbEntity
  8
AM_0 外形線1
100
AcDbLine
 10
1007.883505215687
 20
1226.693920468205
 30
0.0
 11
969.8835052156873
 21
1226.693920468205
 31
0.0
  0
LINE
  5
3B39
330
1F
100
AcDbEntity
  8
AM_0 外形線1
100
AcDbLine
 10
969.8835052156873
 20
1244.693920468205
 30
0.0
 11
1007.883505215687
 21
1244.693920468205
 31
0.0
  0
DIMENSION
  5
3BB4
330
1F
100
AcDbEntity
  8
AM_5 寸法線
100
AcDbDimension
  2
*D9
 10
1197.883505215687
 20
1082.887585468205
 30
0.0
 11
1097.883505215687
 21
1099.137585468205
 31
0.0
 70
    32
 71
     5
 42
200.0
 73
     0
 74
     0
 75
     0
  3
SEISA$0
100
AcDbAlignedDimension
 13
997.8835052156874
 23
1051.693920468204
 33
0.0
 14
1197.883505215687
 24
1051.693920468204
 34
0.0
100
AcDbRotatedDimension
  0
DIMENSION
  5
3BC3
330
1F
100
AcDbEntity
  8
AM_5 寸法線
100
AcDbDimension
  2
*D10
 10
704.8835052156873
 20
909.1939204682056
 30
0.0
 11
704.8835052156873
 21
1054.004415408874
 31
0.0
 70
   160
  1
%%C<>
 71
     5
 42
284.9999999999999
 73
     0
 74
     0
 75
     0
  3
SEISA$0
100
AcDbAlignedDimension
 13
844.3835052156874
 23
1194.193920468205
 33
0.0
 14
849.4391787590112
 24
909.1939204682056
 34
0.0
 50
90.0
100
AcDbRotatedDimension
  0
INSERT
  5
4209
102
{ACAD_REACTORS
330
7857
102
}
330
1F
100
AcDbEntity
  8
AM_0 外形線1
100
AcDbBlockReference
  2
センタＡ SSM400
 10
997.8835052156874
 20
1051.693920468204
 30
0.0
  0
INSERT
  5
4428
330
1F
100
AcDbEntity
  8
AM_0 外形線1
100
AcDbBlockReference
  2
ケースＢ SSM400
 10
988.8835052156876
 20
1051.693920468204
 30
0.0
  0
INSERT
  5
44C3
102
{ACAD_REACTORS
330
7857
330
8A5F
330
8B2D
330
8B71
102
}
330
1F
100
AcDbEntity
  8
AM_0 外形線1
100
AcDbBlockReference
  2
センタＢ SSM400
 10
979.8835052156873
 20
1051.693920468204
 30
0.0
  0
INSERT
  5
6238
330
1F
100
AcDbEntity
  8
AM_0 外形線1
100
AcDbBlockReference
  2
リーマボルト SSM400 M16
 10
967.8835052156872
 20
1235.693920468205
 30
0.0
  0
INSERT
  5
626E
330
1F
100
AcDbEntity
  8
AM_0 外形線1
100
AcDbBlockReference
  2
ケースＡ SSM400
 10
988.8835052156874
 20
1051.693920468204
 30
0.0
  0
DIMENSION
  5
783C
102
{ACAD_XDICTIONARY
360
784B
102
}
102
{ACAD_REACTORS
330
7857
102
}
330
1F
100
AcDbEntity
  8
AM_5 寸法線
100
AcDbDimension
  2
*D24
 10
997.8835052156874
 20
1082.887585468205
 30
0.0
 11
1013.800383046409
 21
1101.000783146863
 31
0.0
 70
   160
 71
     5
 42
18.0
 73
     0
 74
     0
 75
     0
  3
SEISA$0
100
AcDbAlignedDimension
 13
979.8835052156873
 23
1074.541282318192
 33
0.0
 14
997.8835052156874
 24
1074.541282318192
 34
0.0
100
AcDbRotatedDimension
1001
ACAD
1000
DSTYLE
1002
{
1070
   279
1070
     2
1002
}
  0
LINE
  5
7F4E
330
1F
100
AcDbEntity
  8
AM_5 寸法線
100
AcDbLine
 10
942.8835052156872
 20
801.6939204682055
 30
0.0
 11
926.9704312889572
 21
801.6939204682055
 31
0.0
  0
LINE
  5
7F4F
330
1F
100
AcDbEntity
  8
AM_5 寸法線
100
AcDbLine
 10
1034.883505215687
 20
801.6939204682055
 30
0.0
 11
1043.833861615176
 21
801.6939204682055
 31
0.0
  0
MTEXT
  5
82C8
330
1F
100
AcDbEntity
  8
AM_5 寸法線
 62
     3
100
AcDbMText
 10
2143.095972343818
 20
347.775047948388
 30
0.0
 40
17.5
 41
0.0
 46
0.0
 71
     7
 72
     1
  1
 
  7
SEISA
 73
     1
 44
1.0
  0
MTEXT
  5
89F4
330
1F
100
AcDbEntity
  8
AM_6 文字
100
AcDbMText
 10
1236.483079142442
 20
822.5504776130961
 30
0.0
 40
17.5
 41
317.2891173153024
 46
81.68971969175943
 71
     1
 72
     5
  1
{\W0.6;TYPE:SSM400/SSMH400\PSHAFT DIA:MAX/MIN φ200/φ140}
  7
SEISA
 73
     1
 44
1.0
  0
DIMENSION
  5
8A4F
102
{ACAD_XDICTIONARY
360
8A5E
102
}
102
{ACAD_REACTORS
330
8A5F
102
}
330
1F
100
AcDbEntity
  8
AM_5 寸法線
100
AcDbDimension
  2
*D26
 10
779.8835052156873
 20
1251.693920468205
 30
0.0
 11
817.6335052156874
 21
1267.943920468205
 31
0.0
 70
    32
 71
     5
 42
0.0
 73
     0
 74
     0
 75
     0
  3
SEISA$0
100
AcDbAlignedDimension
 13
779.8835052156873
 23
1212.193920468205
 33
0.0
 14
779.8835052156873
 24
1189.393920468205
 34
0.0
100
AcDbRotatedDimension
1001
ACAD_DSTYLE_DIMINSPECT
1070
   396
1000
100%
1070
   395
1000

1070
   394
1070
    33
1070
   393
1070
     0
  0
DIMENSION
  5
8B1E
102
{ACAD_XDICTIONARY
360
8B2C
102
}
102
{ACAD_REACTORS
330
8B2D
330
8B71
102
}
330
1F
100
AcDbEntity
  8
AM_5 寸法線
100
AcDbDimension
  2
*D27
 10
944.8835052156873
 20
1157.102431468206
 30
0.0
 11
926.6130704982815
 21
1098.027634317017
 31
0.0
 70
   160
 71
     5
 42
45.49999999999999
 73
     0
 74
     0
 75
     0
  3
SEISA$0
100
AcDbAlignedDimension
 13
899.3835052156873
 23
1194.693920468205
 33
0.0
 14
944.8835052156873
 24
1194.693920468205
 34
0.0
 50
0.0000000000001132
100
AcDbRotatedDimension
1001
ACAD_DSTYLE_DIMINSPECT
1070
   396
1000
100%
1070
   395
1000

1070
   394
1070
    33
1070
   393
1070
     0
1001
ACAD
1000
DSTYLE
1002
{
1070
   279
1070
     1
1002
}
  0
DIMENSION
  5
8B61
102
{ACAD_XDICTIONARY
360
8B70
102
}
102
{ACAD_REACTORS
330
8B71
102
}
330
1F
100
AcDbEntity
  8
AM_5 寸法線
100
AcDbDimension
  2
*D28
 10
979.8835052156873
 20
1157.102431468206
 30
0.0
 11
962.7183061404863
 21
1173.232983012622
 31
0.0
 70
   160
 71
     5
 42
35.0
 73
     0
 74
     0
 75
     0
  3
SEISA$0
100
AcDbAlignedDimension
 13
944.8835052156873
 23
1194.693920468205
 33
0.0
 14
979.8835052156873
 24
1192.693920468204
 34
0.0
 50
0.0000000000001132
100
AcDbRotatedDimension
1001
ACAD_DSTYLE_DIMINSPECT
1070
   396
1000
100%
1070
   395
1000

1070
   394
1070
    33
1070
   393
1070
     0
1001
ACAD
1000
DSTYLE
1002
{
1070
   279
1070
     2
1002
}
  0
INSERT
  5
8D53
330
1F
100
AcDbEntity
  8
AM_5 寸法線
100
AcDbBlockReference
  2
ケース
 10
813.8981178649956
 20
1216.193920468205
 30
0.0
  0
ENDSEC
  0
SECTION
  2
OBJECTS
  0
DICTIONARY
  5
C
330
0
100
AcDbDictionary
281
     1
  3
ACAD_COLOR
350
C5
  3
ACAD_GROUP
350
D
  3
ACAD_LAYOUT
350
1A
  3
ACAD_MATERIAL
350
C4
  3
ACAD_MLEADERSTYLE
350
2D5
  3
ACAD_MLINESTYLE
350
17
  3
ACAD_PLOTSETTINGS
350
19
  3
ACAD_PLOTSTYLENAME
350
E
  3
ACAD_SCALELIST
350
2B3
  3
ACAD_TABLESTYLE
350
121
  3
ACAD_VISUALSTYLE
350
27F
  3
AcadDim
350
82CB
  3
ACDB_RECOMPOSE_DATA
350
2F7
  3
AcDbVariableDictionary
350
34
  3
AcmDictionary
350
49
  3
AMG
350
2B
  3
AMGSNAPSETTINGS
350
1DE
  0
DICTIONARY
  5
BF
330
2
100
AcDbDictionary
280
     1
281
     1
  3
ACAD_LAYERFILTERS
360
71E0
  3
ACAD_LAYERSTATES
360
89EB
  3
ACLYDICTIONARY
360
71DF
  3
AMLAYER_GROUPCOLORS
360
C0
  0
DICTIONARY
  5
2A98
330
10
100
AcDbDictionary
280
     1
281
     1
  3
ADSK_XREC_LAYER_RECONCILED
360
2A99
  0
DICTIONARY
  5
2A9A
330
81
100
AcDbDictionary
280
     1
281
     1
  3
ADSK_XREC_LAYER_RECONCILED
360
2A9B
  0
DICTIONARY
  5
2AA1
330
25C9
100
AcDbDictionary
280
     1
281
     1
  3
ADSK_XREC_LAYER_RECONCILED
360
2AA2
  0
DICTIONARY
  5
2AA3
330
25CA
100
AcDbDictionary
280
     1
281
     1
  3
ADSK_XREC_LAYER_RECONCILED
360
2AA4
  0
DICTIONARY
  5
2AA9
330
26B3
100
AcDbDictionary
280
     1
281
     1
  3
ADSK_XREC_LAYER_RECONCILED
360
2AAA
  0
DICTIONARY
  5
82
330
1F
100
AcDbDictionary
280
     1
281
     1
  3
ACAD_SORTENTS
360
A41
  0
DICTIONARY
  5
41BC
330
4185
100
AcDbDictionary
280
     1
281
     1
  3
ACAD_SORTENTS
360
6B69
  0
DICTIONARY
  5
4276
330
41E0
100
AcDbDictionary
280
     1
281
     1
  3
ACAD_SORTENTS
360
8C8E
  0
DICTIONARY
  5
439F
330
42D2
100
AcDbDictionary
280
     1
281
     1
  3
ACAD_SORTENTS
360
861D
  0
DICTIONARY
  5
449E
330
43F0
100
AcDbDictionary
280
     1
281
     1
  3
ACAD_SORTENTS
360
855B
  0
DICTIONARY
  5
4505
330
44A3
100
AcDbDictionary
280
     1
281
     1
  3
ACAD_SORTENTS
360
8C46
  0
DICTIONARY
  5
62A7
330
6208
100
AcDbDictionary
280
     1
281
     1
  3
ACAD_SORTENTS
360
86B5
  0
DICTIONARY
  5
784B
330
783C
100
AcDbDictionary
280
     1
281
     1
  3
ACAD_DIMASSOC
360
7857
  0
DICTIONARY
  5
8A5E
330
8A4F
100
AcDbDictionary
280
     1
281
     1
  3
ACAD_DIMASSOC
360
8A5F
  0
DICTIONARY
  5
8B2C
330
8B1E
100
AcDbDictionary
280
     1
281
     1
  3
ACAD_DIMASSOC
360
8B2D
  0
DICTIONARY
  5
8B70
330
8B61
100
AcDbDictionary
280
     1
281
     1
  3
ACAD_DIMASSOC
360
8B71
  0
DICTIONARY
  5
C5
102
{ACAD_REACTORS
330
C
102
}
330
C
100
AcDbDictionary
281
     1
  0
DICTIONARY
  5
D
102
{ACAD_REACTORS
330
C
102
}
330
C
100
AcDbDictionary
281
     1
  0
DICTIONARY
  5
1A
102
{ACAD_REACTORS
330
C
102
}
330
C
100
AcDbDictionary
281
     1
  3
Model
350
22
  3
レイアウト1
350
1E
  3
レイアウト2
350
26
  0
DICTIONARY
  5
C4
102
{ACAD_REACTORS
330
C
102
}
330
C
100
AcDbDictionary
281
     1
  3
ByBlock
350
27D
  3
ByLayer
350
27C
  3
Global
350
27E
  0
DICTIONARY
  5
2D5
102
{ACAD_REACTORS
330
C
102
}
330
C
100
AcDbDictionary
281
     1
  3
Standard
350
2D6
  0
DICTIONARY
  5
17
102
{ACAD_REACTORS
330
C
102
}
330
C
100
AcDbDictionary
281
     1
  3
Standard
350
18
  0
DICTIONARY
  5
19
102
{ACAD_REACTORS
330
C
102
}
330
C
100
AcDbDictionary
281
     1
  3
SEISA基本
350
1C7E
  0
ACDBDICTIONARYWDFLT
  5
E
102
{ACAD_REACTORS
330
C
102
}
330
C
100
AcDbDictionary
281
     1
  3
Normal
350
F
100
AcDbDictionaryWithDefault
340
F
  0
DICTIONARY
  5
2B3
102
{ACAD_REACTORS
330
C
102
}
330
C
100
AcDbDictionary
281
     1
  3
*A1
350
89E8
  3
*A2
350
89E9
  3
*A3
350
89EA
  3
A0
350
2B4
  3
A1
350
2B5
  3
A2
350
2B6
  3
A3
350
2B7
  3
A4
350
2B8
  3
A5
350
2B9
  3
A6
350
2BA
  3
A7
350
2BB
  3
A8
350
2BC
  3
A9
350
2BD
  3
B0
350
2BE
  3
B1
350
2BF
  3
B2
350
2C0
  3
B3
350
2C1
  3
B4
350
2C2
  3
B5
350
2C3
  3
B6
350
2C4
  3
B7
350
2C5
  3
B8
350
2C6
  3
B9
350
2C7
  3
C0
350
2C8
  3
C1
350
2C9
  3
C2
350
2CA
  3
C3
350
2CB
  3
C4
350
2CC
  3
C5
350
2CD
  3
C6
350
2CE
  3
C7
350
2CF
  3
C8
350
2D0
  3
C9
350
2D1
  3
D0
350
2D2
  3
D1
350
2D3
  3
D2
350
2D4
  0
DICTIONARY
  5
121
102
{ACAD_REACTORS
330
C
102
}
330
C
100
AcDbDictionary
281
     1
  3
Standard
350
122
  0
DICTIONARY
  5
27F
102
{ACAD_REACTORS
330
C
102
}
330
C
100
AcDbDictionary
281
     1
  3
2dWireframe
350
285
  3
3D Hidden
350
287
  3
3dWireframe
350
286
  3
Basic
350
284
  3
Brighten
350
28B
  3
ColorChange
350
28F
  3
Conceptual
350
288
  3
Dim
350
28A
  3
Facepattern
350
28E
  3
Flat
350
280
  3
FlatWithEdges
350
281
  3
Gouraud
350
282
  3
GouraudWithEdges
350
283
  3
Linepattern
350
28D
  3
Realistic
350
289
  3
Thicken
350
28C
  0
XRECORD
  5
82CB
102
{ACAD_REACTORS
330
C
102
}
330
C
100
AcDbXrecord
280
     1
 90
   990106
  3

 60
     0
 61
     0
 62
     4
 63
     4
 64
     1
 65
     0
 66
     0
 67
     3
 68
     1
 69
     0
 70
     0
 71
     0
 72
     0
 40
0.0
170
     2
340
0
  0
XRECORD
  5
2F7
102
{ACAD_REACTORS
330
C
102
}
330
C
100
AcDbXrecord
280
     1
 90
        1
330
122
  0
DICTIONARY
  5
34
102
{ACAD_REACTORS
330
C
102
}
330
C
100
AcDbDictionary
281
     1
  3
CANNOSCALE
350
2FA
  3
CMLEADERSTYLE
350
2F8
  3
CTABLESTYLE
350
140
  3
DIMASSOC
350
AC
  3
INDEXCTL
350
35
  3
LAYEREVAL
350
5EBE
  3
LAYERNOTIFY
350
5EBF
  3
LIGHTINGUNITS
350
2FB
  3
MSLTSCALE
350
2F9
  0
DICTIONARY
  5
49
102
{ACAD_REACTORS
330
C
102
}
330
C
100
AcDbDictionary
281
     1
  3
AcmBOM
350
161B
  3
AcmStdDictionary
350
4A
  3
AMDTSECTSYM_ARROWCOLOR
350
12B
  0
DICTIONARY
  5
2B
102
{ACAD_REACTORS
330
C
102
}
330
C
100
AcDbDictionary
281
     1
  0
DICTIONARY
  5
1DE
102
{ACAD_REACTORS
330
C
102
}
330
C
100
AcDbDictionary
281
     1
  0
DICTIONARY
  5
71E0
102
{ACAD_REACTORS
330
BF
102
}
330
BF
100
AcDbDictionary
281
     1
  0
DICTIONARY
  5
89EB
102
{ACAD_REACTORS
330
BF
102
}
330
BF
100
AcDbDictionary
281
     1
  0
DICTIONARY
  5
71DF
102
{ACAD_REACTORS
330
BF
102
}
330
BF
100
AcDbDictionary
281
     1
1001
ACAD
1000
<All
  0
DICTIONARY
  5
C0
102
{ACAD_REACTORS
330
BF
102
}
330
BF
100
AcDbDictionary
280
     1
281
     1
  0
XRECORD
  5
2A99
102
{ACAD_REACTORS
330
2A98
102
}
330
2A98
100
AcDbXrecord
280
     1
290
     1
  0
XRECORD
  5
2A9B
102
{ACAD_REACTORS
330
2A9A
102
}
330
2A9A
100
AcDbXrecord
280
     1
290
     1
  0
XRECORD
  5
2AA2
102
{ACAD_REACTORS
330
2AA1
102
}
330
2AA1
100
AcDbXrecord
280
     1
290
     1
  0
XRECORD
  5
2AA4
102
{ACAD_REACTORS
330
2AA3
102
}
330
2AA3
100
AcDbXrecord
280
     1
290
     1
  0
XRECORD
  5
2AAA
102
{ACAD_REACTORS
330
2AA9
102
}
330
2AA9
100
AcDbXrecord
280
     1
290
     1
  0
SORTENTSTABLE
  5
A41
102
{ACAD_REACTORS
330
82
102
}
330
82
100
AcDbSortentsTable
330
1F
331
3A4F
  5
3A51
331
3BB4
  5
3BB7
331
3A50
  5
3A52
331
89F4
  5
89F4
331
3A75
  5
3A77
331
3AAE
  5
3ADC
331
3A49
  5
3A4B
331
4209
  5
4428
331
44C3
  5
4908
331
626E
  5
64C2
331
3B00
  5
3B0D
331
3A3B
  5
3A3D
331
3B39
  5
3B40
331
7F4E
  5
7F4F
331
6238
  5
626E
331
3BC3
  5
3BC8
331
4428
  5
4541
331
3A3C
  5
3A3E
331
783C
  5
7B88
331
3A4C
  5
3A4E
331
7F4F
  5
7F50
331
3A3D
  5
3A3F
331
82C8
  5
8855
331
3A3E
  5
3A40
331
3A63
  5
3A65
  0
SORTENTSTABLE
  5
6B69
102
{ACAD_REACTORS
330
41BC
102
}
330
41BC
100
AcDbSortentsTable
330
4185
  0
SORTENTSTABLE
  5
8C8E
102
{ACAD_REACTORS
330
4276
102
}
330
4276
100
AcDbSortentsTable
330
41E0
331
41F8
  5
41FA
331
41FA
  5
41FD
331
41F9
  5
41FB
331
41FB
  5
41FF
331
41FF
  5
4201
331
41E8
  5
41EA
331
41E9
  5
41EB
331
4201
  5
4203
331
4200
  5
4202
331
41EA
  5
41EC
331
41EB
  5
41ED
331
4203
  5
4206
331
4202
  5
4204
331
41EC
  5
41EE
331
41ED
  5
41EF
331
4204
  5
8AFA
331
41EE
  5
41F0
331
41EF
  5
41F1
331
4206
  5
8AFB
331
41F1
  5
41F6
331
41F0
  5
41F5
331
41E4
  5
41E6
331
8AFB
  5
41E4
331
41E3
  5
41E5
331
41E6
  5
41E8
331
41F5
  5
41F7
331
41E5
  5
41E7
331
8AFA
  5
41E3
331
41F7
  5
41F9
331
41E7
  5
41E9
331
41F6
  5
41F8
331
41FD
  5
4200
  0
SORTENTSTABLE
  5
861D
102
{ACAD_REACTORS
330
439F
102
}
330
439F
100
AcDbSortentsTable
330
42D2
331
42E2
  5
42E3
331
42FF
  5
4300
331
42D5
  5
42D6
331
42DE
  5
42DF
331
42F7
  5
42F8
331
42EF
  5
42F0
331
4308
  5
4309
331
4300
  5
4301
331
42E7
  5
42E8
331
4310
  5
4312
331
430D
  5
430E
331
42DB
  5
42DC
331
42F4
  5
42F5
331
42EC
  5
42ED
331
4305
  5
4306
331
42E4
  5
42E5
331
4315
  5
4316
331
42D7
  5
42D8
331
42F9
  5
42FA
331
42D8
  5
42D9
331
42F1
  5
42F2
331
430A
  5
430B
331
4302
  5
4303
331
4312
  5
4314
331
42FE
  5
42FF
331
684F
  5
42D5
331
430F
  5
4310
331
42DD
  5
42DE
331
42F6
  5
42F7
331
42EE
  5
42EF
331
4307
  5
4308
331
42E6
  5
42E7
331
4317
  5
684F
331
42FB
  5
42FE
331
42DA
  5
42DB
331
42F3
  5
42F4
331
42EB
  5
42EC
331
4304
  5
4305
331
42E3
  5
42E4
331
4314
  5
4315
331
42D6
  5
42D7
331
42DF
  5
42E0
331
42F8
  5
42F9
331
42F0
  5
42F1
331
4309
  5
430A
331
42E8
  5
42EA
331
4301
  5
4302
331
42E0
  5
42E2
331
42DC
  5
42DD
331
42F5
  5
42F6
331
430E
  5
430F
331
42ED
  5
42EE
331
4306
  5
4307
331
42E5
  5
42E6
331
4316
  5
4317
331
42FA
  5
42FB
331
430B
  5
430D
331
42D9
  5
42DA
331
42F2
  5
42F3
331
42EA
  5
42EB
331
4303
  5
4304
  0
SORTENTSTABLE
  5
855B
102
{ACAD_REACTORS
330
449E
102
}
330
449E
100
AcDbSortentsTable
330
43F0
  0
SORTENTSTABLE
  5
8C46
102
{ACAD_REACTORS
330
4505
102
}
330
4505
100
AcDbSortentsTable
330
44A3
331
44A8
  5
44B1
331
6D8A
  5
44AE
331
44AA
  5
44B4
331
6D89
  5
44AD
331
44A9
  5
44B2
331
44AC
  5
44B7
331
44AB
  5
44B6
331
44AE
  5
44B9
331
44AD
  5
44B8
331
44B0
  5
44BB
331
44AF
  5
44BA
331
44B2
  5
44BE
331
44B4
  5
44BF
331
44B6
  5
6D84
331
44B1
  5
44BC
331
6D88
  5
44AC
331
44B9
  5
6D87
331
44B8
  5
6D86
331
8AAF
  5
44A6
331
44B7
  5
6D85
331
44BB
  5
6D89
331
44BA
  5
6D88
331
44BC
  5
6D8A
331
44BF
  5
8AD1
331
44BE
  5
8AAF
331
44A6
  5
44AF
331
6D85
  5
44A9
331
6D84
  5
44A8
331
6D87
  5
44AB
331
44A7
  5
44B0
331
6D86
  5
44AA
331
8AD1
  5
44A7
  0
SORTENTSTABLE
  5
86B5
102
{ACAD_REACTORS
330
62A7
102
}
330
62A7
100
AcDbSortentsTable
330
6208
  0
DIMASSOC
  5
7857
102
{ACAD_REACTORS
330
784B
102
}
330
784B
100
AcDbDimAssoc
330
783C
 90
        3
 70
     0
 71
     0
  1
AcDbOsnapPointRef
 72
    10
331
44C3
331
44B1
 73
     2
 91
        0
 40
0.8379619726951275
 10
0.0
 20
0.0
 30
0.0
 75
     0
  1
AcDbOsnapPointRef
 72
     8
331
4209
331
41E3
 73
     2
 91
        0
 40
0.8724381487174406
 10
0.0
 20
0.0
 30
0.0
 75
     1
  1
AcDbOsnapPointRef
 72
    10
331
44C3
331
44B1
 73
     2
 91
        0
 40
0.8379619726951275
 10
0.0
 20
0.0
 30
0.0
 75
     0
  0
DIMASSOC
  5
8A5F
102
{ACAD_REACTORS
330
8A5E
102
}
330
8A5E
100
AcDbDimAssoc
330
8A4F
 90
        2
 70
     0
 71
     0
  1
AcDbOsnapPointRef
 72
     1
331
44C3
331
44A8
 73
     0
 91
        0
 40
0.0
 10
0.0
 20
0.0
 30
2.000000000000000E+50
 75
     0
  0
DIMASSOC
  5
8B2D
102
{ACAD_REACTORS
330
8B2C
102
}
330
8B2C
100
AcDbDimAssoc
330
8B1E
 90
        3
 70
     0
 71
     0
  1
AcDbOsnapPointRef
 72
    13
331
44C3
331
44B7
 73
     0
 91
        0
 40
0.0
 10
0.0
 20
0.0
 30
2.000000000000000E+50
 75
     0
  1
AcDbOsnapPointRef
 72
     8
331
44C3
331
44BB
 73
     0
 91
        0
 40
0.9540792714841728
 10
0.0
 20
0.0
 30
0.0
 75
     1
  1
AcDbOsnapPointRef
 72
    13
331
44C3
331
44B7
 73
     0
 91
        0
 40
0.0
 10
0.0
 20
0.0
 30
2.000000000000000E+50
 75
     0
  0
DIMASSOC
  5
8B71
102
{ACAD_REACTORS
330
8B70
102
}
330
8B70
100
AcDbDimAssoc
330
8B61
 90
        3
 70
     0
 71
     0
  1
AcDbOsnapPointRef
 72
     4
331
8B1E
331
8B5F
 73
     0
 91
        0
 40
0.0
 10
0.0
 20
0.0
 30
0.0
 75
     0
  1
AcDbOsnapPointRef
 72
    13
331
44C3
331
44B1
 73
     0
 91
        0
 40
0.0
 10
0.0
 20
0.0
 30
2.000000000000000E+50
 75
     0
  0
LAYOUT
  5
22
102
{ACAD_REACTORS
330
1A
102
}
330
1A
100
AcDbPlotSettings
  1

  2
KONICA MINOLTA 501 PCL
  4
A4
  6

 40
5.027082920074462
 41
5.027085781097412
 42
5.027069091796875
 43
5.027069091796875
 44
209.9733276367186
 45
296.9259948730469
 46
0.0
 47
2.521878934378179
 48
0.0
 49
0.0
140
0.0
141
0.0
142
1.0
143
2.893629242985633
 70
 11956
 72
     1
 73
     1
 74
     1
  7
SEISA.ctb
 75
     0
147
0.3455867756465595
 76
     0
 77
     2
 78
   300
148
-679.7378606418377
149
-698.3143676896555
100
AcDbLayout
  1
Model
 70
     1
 71
     0
 10
0.0
 20
0.0
 11
12.0
 21
9.0
 12
0.0
 22
0.0
 32
0.0
 14
0.0
 24
0.0
 34
0.0
 15
0.0
 25
0.0
 35
0.0
146
0.0
 13
0.0
 23
0.0
 33
0.0
 16
1.0
 26
0.0
 36
0.0
 17
0.0
 27
1.0
 37
0.0
 76
     0
330
1F
331
27A
1001
ACAD_PSEXT
1000
KONICA MINOLTA 501 PCL
1000
KONICA MINOLTA 501/421/361PCL
1000
IP_192.168.20.231_(1)
1000

1070
     0
  0
LAYOUT
  5
1E
102
{ACAD_REACTORS
330
1A
102
}
330
1A
100
AcDbPlotSettings
  1

  2
none_device
  4
Letter_(8.50_x_11.00_Inches)
  6

 40
6.349999904632567
 41
6.349999904632567
 42
6.350006103515625
 43
6.350006103515625
 44
215.8999938964844
 45
279.3999938964844
 46
0.0
 47
0.0
 48
0.0
 49
0.0
140
0.0
141
0.0
142
1.0
143
1.0
 70
 15024
 72
     1
 73
     1
 74
     5
  7
SEISA.ctb
 75
    16
147
1.0
 76
     0
 77
     2
 78
   300
148
0.0
149
0.0
100
AcDbLayout
  1
レイアウト1
 70
     1
 71
     1
 10
0.0
 20
0.0
 11
420.0
 21
297.0
 12
0.0
 22
0.0
 32
0.0
 14
1.000000000000000E+20
 24
1.000000000000000E+20
 34
1.000000000000000E+20
 15
-1.000000000000000E+20
 25
-1.000000000000000E+20
 35
-1.000000000000000E+20
146
0.0
 13
0.0
 23
0.0
 33
0.0
 16
1.0
 26
0.0
 36
0.0
 17
0.0
 27
1.0
 37
0.0
 76
     0
330
1B
  0
LAYOUT
  5
26
102
{ACAD_REACTORS
330
1A
102
}
330
1A
100
AcDbPlotSettings
  1

  2
none_device
  4
Letter_(8.50_x_11.00_Inches)
  6

 40
6.349999904632567
 41
6.349999904632567
 42
6.350006103515625
 43
6.350006103515625
 44
215.8999938964844
 45
279.3999938964844
 46
0.0
 47
0.0
 48
0.0
 49
0.0
140
0.0
141
0.0
142
1.0
143
1.0
 70
 15024
 72
     1
 73
     1
 74
     5
  7
SEISA.ctb
 75
    16
147
1.0
 76
     0
 77
     2
 78
   300
148
0.0
149
0.0
100
AcDbLayout
  1
レイアウト2
 70
     1
 71
     2
 10
0.0
 20
0.0
 11
12.0
 21
9.0
 12
0.0
 22
0.0
 32
0.0
 14
0.0
 24
0.0
 34
0.0
 15
0.0
 25
0.0
 35
0.0
146
0.0
 13
0.0
 23
0.0
 33
0.0
 16
1.0
 26
0.0
 36
0.0
 17
0.0
 27
1.0
 37
0.0
 76
     0
330
23
  0
MATERIAL
  5
27D
102
{ACAD_REACTORS
330
C4
102
}
330
C4
100
AcDbMaterial
  1
ByBlock
 73
     1
 78
     1
172
     1
176
     1
270
     1
274
     1
 94
       63
  0
MATERIAL
  5
27C
102
{ACAD_REACTORS
330
C4
102
}
330
C4
100
AcDbMaterial
  1
ByLayer
 73
     1
 78
     1
172
     1
176
     1
270
     1
274
     1
 94
       63
  0
MATERIAL
  5
27E
102
{ACAD_REACTORS
330
C4
102
}
330
C4
100
AcDbMaterial
  1
Global
 73
     1
 78
     1
172
     1
176
     1
270
     1
274
     1
 94
       63
  0
MLEADERSTYLE
  5
2D6
102
{ACAD_REACTORS
330
2D5
102
}
330
2D5
100
AcDbMLeaderStyle
170
     2
171
     1
172
     0
 90
        2
 40
0.0
 41
0.0
173
     1
 91
-1056964608
340
14
 92
       -2
290
     1
 42
2.0
291
     1
 43
0.36
  3
Standard
 44
4.0
300

342
11
174
     1
178
     6
175
     1
176
     0
 93
-1056964608
 45
4.0
292
     0
297
     0
 46
4.0
 94
-1056964608
 47
1.0
 49
1.0
140
1.0
293
     1
141
0.0
294
     1
177
     0
142
1.0
295
     0
296
     0
143
0.125
1001
ACAD_MLEADERVER
1070
     2
  0
MLINESTYLE
  5
18
102
{ACAD_REACTORS
330
17
102
}
330
17
100
AcDbMlineStyle
  2
STANDARD
 70
     0
  3

 62
   256
 51
90.0
 52
90.0
 71
     2
 49
0.5
 62
   256
  6
BYLAYER
 49
-0.5
 62
   256
  6
BYLAYER
  0
PLOTSETTINGS
  5
1C7E
102
{ACAD_REACTORS
330
19
102
}
330
19
100
AcDbPlotSettings
  1
SEISA基本
  2
none_device
  4
Letter_(8.50_x_11.00_Inches)
  6

 40
6.349999904632567
 41
6.349999904632567
 42
6.350006103515625
 43
6.350006103515625
 44
215.8999938964844
 45
279.3999938964844
 46
7.302498226506357
 47
0.0
 48
0.0
 49
0.0
140
0.0
141
0.0
142
1.0
143
1.574803221122935
 70
 11956
 72
     1
 73
     1
 74
     2
  7
SEISA.ctb
 75
     0
147
0.6349999711627054
 76
     0
 77
     2
 78
   300
148
0.0
149
0.0
1001
ACAD_PSEXT
1000
なし
1000
なし
1000
適切ではありません
1000
新しいプロッタ環境設定名を選択しない限り、レイアウトは印刷されません。
1070
     0
  0
ACDBPLACEHOLDER
  5
F
102
{ACAD_REACTORS
330
E
102
}
330
E
  0
SCALE
  5
89E8
102
{ACAD_REACTORS
330
2B3
102
}
330
2B3
100
AcDbScale
 70
     0
300
1:3
140
1.0
141
3.0
290
     0
  0
SCALE
  5
89E9
102
{ACAD_REACTORS
330
2B3
102
}
330
2B3
100
AcDbScale
 70
     0
300
1:2.5
140
1.0
141
2.5
290
     0
  0
SCALE
  5
89EA
102
{ACAD_REACTORS
330
2B3
102
}
330
2B3
100
AcDbScale
 70
     0
300
1:1.5
140
1.0
141
1.5
290
     0
  0
SCALE
  5
2B4
102
{ACAD_REACTORS
330
2B3
102
}
330
2B3
100
AcDbScale
 70
     0
300
1:1
140
1.0
141
1.0
290
     1
  0
SCALE
  5
2B5
102
{ACAD_REACTORS
330
2B3
102
}
330
2B3
100
AcDbScale
 70
     0
300
1:2
140
1.0
141
2.0
290
     0
  0
SCALE
  5
2B6
102
{ACAD_REACTORS
330
2B3
102
}
330
2B3
100
AcDbScale
 70
     0
300
1:4
140
1.0
141
4.0
290
     0
  0
SCALE
  5
2B7
102
{ACAD_REACTORS
330
2B3
102
}
330
2B3
100
AcDbScale
 70
     0
300
1:5
140
1.0
141
5.0
290
     0
  0
SCALE
  5
2B8
102
{ACAD_REACTORS
330
2B3
102
}
330
2B3
100
AcDbScale
 70
     0
300
1:8
140
1.0
141
8.0
290
     0
  0
SCALE
  5
2B9
102
{ACAD_REACTORS
330
2B3
102
}
330
2B3
100
AcDbScale
 70
     0
300
1:10
140
1.0
141
10.0
290
     0
  0
SCALE
  5
2BA
102
{ACAD_REACTORS
330
2B3
102
}
330
2B3
100
AcDbScale
 70
     0
300
1:16
140
1.0
141
16.0
290
     0
  0
SCALE
  5
2BB
102
{ACAD_REACTORS
330
2B3
102
}
330
2B3
100
AcDbScale
 70
     0
300
1:20
140
1.0
141
20.0
290
     0
  0
SCALE
  5
2BC
102
{ACAD_REACTORS
330
2B3
102
}
330
2B3
100
AcDbScale
 70
     0
300
1:30
140
1.0
141
30.0
290
     0
  0
SCALE
  5
2BD
102
{ACAD_REACTORS
330
2B3
102
}
330
2B3
100
AcDbScale
 70
     0
300
1:40
140
1.0
141
40.0
290
     0
  0
SCALE
  5
2BE
102
{ACAD_REACTORS
330
2B3
102
}
330
2B3
100
AcDbScale
 70
     0
300
1:50
140
1.0
141
50.0
290
     0
  0
SCALE
  5
2BF
102
{ACAD_REACTORS
330
2B3
102
}
330
2B3
100
AcDbScale
 70
     0
300
1:100
140
1.0
141
100.0
290
     0
  0
SCALE
  5
2C0
102
{ACAD_REACTORS
330
2B3
102
}
330
2B3
100
AcDbScale
 70
     0
300
2:1
140
2.0
141
1.0
290
     0
  0
SCALE
  5
2C1
102
{ACAD_REACTORS
330
2B3
102
}
330
2B3
100
AcDbScale
 70
     0
300
4:1
140
4.0
141
1.0
290
     0
  0
SCALE
  5
2C2
102
{ACAD_REACTORS
330
2B3
102
}
330
2B3
100
AcDbScale
 70
     0
300
8:1
140
8.0
141
1.0
290
     0
  0
SCALE
  5
2C3
102
{ACAD_REACTORS
330
2B3
102
}
330
2B3
100
AcDbScale
 70
     0
300
10:1
140
10.0
141
1.0
290
     0
  0
SCALE
  5
2C4
102
{ACAD_REACTORS
330
2B3
102
}
330
2B3
100
AcDbScale
 70
     0
300
100:1
140
100.0
141
1.0
290
     0
  0
SCALE
  5
2C5
102
{ACAD_REACTORS
330
2B3
102
}
330
2B3
100
AcDbScale
 70
     0
300
1/128" = 1'-0"
140
0.0078125
141
12.0
290
     0
  0
SCALE
  5
2C6
102
{ACAD_REACTORS
330
2B3
102
}
330
2B3
100
AcDbScale
 70
     0
300
1/64" = 1'-0"
140
0.015625
141
12.0
290
     0
  0
SCALE
  5
2C7
102
{ACAD_REACTORS
330
2B3
102
}
330
2B3
100
AcDbScale
 70
     0
300
1/32" = 1'-0"
140
0.03125
141
12.0
290
     0
  0
SCALE
  5
2C8
102
{ACAD_REACTORS
330
2B3
102
}
330
2B3
100
AcDbScale
 70
     0
300
1/16" = 1'-0"
140
0.0625
141
12.0
290
     0
  0
SCALE
  5
2C9
102
{ACAD_REACTORS
330
2B3
102
}
330
2B3
100
AcDbScale
 70
     0
300
3/32" = 1'-0"
140
0.09375
141
12.0
290
     0
  0
SCALE
  5
2CA
102
{ACAD_REACTORS
330
2B3
102
}
330
2B3
100
AcDbScale
 70
     0
300
1/8" = 1'-0"
140
0.125
141
12.0
290
     0
  0
SCALE
  5
2CB
102
{ACAD_REACTORS
330
2B3
102
}
330
2B3
100
AcDbScale
 70
     0
300
3/16" = 1'-0"
140
0.1875
141
12.0
290
     0
  0
SCALE
  5
2CC
102
{ACAD_REACTORS
330
2B3
102
}
330
2B3
100
AcDbScale
 70
     0
300
1/4" = 1'-0"
140
0.25
141
12.0
290
     0
  0
SCALE
  5
2CD
102
{ACAD_REACTORS
330
2B3
102
}
330
2B3
100
AcDbScale
 70
     0
300
3/8" = 1'-0"
140
0.375
141
12.0
290
     0
  0
SCALE
  5
2CE
102
{ACAD_REACTORS
330
2B3
102
}
330
2B3
100
AcDbScale
 70
     0
300
1/2" = 1'-0"
140
0.5
141
12.0
290
     0
  0
SCALE
  5
2CF
102
{ACAD_REACTORS
330
2B3
102
}
330
2B3
100
AcDbScale
 70
     0
300
3/4" = 1'-0"
140
0.75
141
12.0
290
     0
  0
SCALE
  5
2D0
102
{ACAD_REACTORS
330
2B3
102
}
330
2B3
100
AcDbScale
 70
     0
300
1" = 1'-0"
140
1.0
141
12.0
290
     0
  0
SCALE
  5
2D1
102
{ACAD_REACTORS
330
2B3
102
}
330
2B3
100
AcDbScale
 70
     0
300
1-1/2" = 1'-0"
140
1.5
141
12.0
290
     0
  0
SCALE
  5
2D2
102
{ACAD_REACTORS
330
2B3
102
}
330
2B3
100
AcDbScale
 70
     0
300
3" = 1'-0"
140
3.0
141
12.0
290
     0
  0
SCALE
  5
2D3
102
{ACAD_REACTORS
330
2B3
102
}
330
2B3
100
AcDbScale
 70
     0
300
6" = 1'-0"
140
6.0
141
12.0
290
     0
  0
SCALE
  5
2D4
102
{ACAD_REACTORS
330
2B3
102
}
330
2B3
100
AcDbScale
 70
     0
300
1'-0" = 1'-0"
140
12.0
141
12.0
290
     0
  0
TABLESTYLE
  5
122
102
{ACAD_XDICTIONARY
360
2F5
102
}
102
{ACAD_REACTORS
330
121
102
}
330
121
100
AcDbTableStyle
  3
Standard
 70
     0
 71
     0
 40
1.5
 41
1.5
280
     0
281
     0
  7
STANDARD
140
4.5
170
     2
 62
     0
 63
     7
283
     0
 90
      512
 91
        0
  1

274
    -2
284
     1
 64
     0
275
    -2
285
     1
 65
     0
276
    -2
286
     1
 66
     0
277
    -2
287
     1
 67
     0
278
    -2
288
     1
 68
     0
279
    -2
289
     1
 69
     0
  7
STANDARD
140
6.0
170
     5
 62
     0
 63
     7
283
     0
 90
      512
 91
        0
  1

274
    -2
284
     1
 64
     0
275
    -2
285
     1
 65
     0
276
    -2
286
     1
 66
     0
277
    -2
287
     1
 67
     0
278
    -2
288
     1
 68
     0
279
    -2
289
     1
 69
     0
  7
STANDARD
140
4.5
170
     5
 62
     0
 63
     7
283
     0
 90
      512
 91
        0
  1

274
    -2
284
     1
 64
     0
275
    -2
285
     1
 65
     0
276
    -2
286
     1
 66
     0
277
    -2
287
     1
 67
     0
278
    -2
288
     1
 68
     0
279
    -2
289
     1
 69
     0
  0
VISUALSTYLE
  5
285
102
{ACAD_REACTORS
330
27F
102
}
330
27F
100
AcDbVisualStyle
  2
2dWireframe
 70
     4
 71
     0
 72
     2
 73
     0
 90
        0
 40
-0.6
 41
-30.0
 62
     5
 63
     7
421
 16777215
 74
     1
 91
        4
 64
     7
 65
   257
 75
     1
175
     1
 42
1.0
 92
        0
 66
   257
 43
1.0
 76
     1
 77
     6
 78
     2
 67
     7
 79
     5
170
     0
171
     0
290
     0
174
     0
 93
        1
 44
0.0
173
     0
291
     0
 45
0.0
  0
VISUALSTYLE
  5
287
102
{ACAD_REACTORS
330
27F
102
}
330
27F
100
AcDbVisualStyle
  2
3D Hidden
 70
     6
 71
     1
 72
     2
 73
     2
 90
        0
 40
-0.6
 41
-30.0
 62
     5
 63
     7
421
 16777215
 74
     2
 91
        2
 64
     7
 65
   257
 75
     2
175
     1
 42
40.0
 92
        0
 66
   257
 43
1.0
 76
     1
 77
     6
 78
     2
 67
     7
 79
     3
170
     0
171
     0
290
     0
174
     0
 93
        1
 44
0.0
173
     0
291
     0
 45
0.0
  0
VISUALSTYLE
  5
286
102
{ACAD_REACTORS
330
27F
102
}
330
27F
100
AcDbVisualStyle
  2
3dWireframe
 70
     5
 71
     0
 72
     2
 73
     0
 90
        0
 40
-0.6
 41
-30.0
 62
     5
 63
     7
421
 16777215
 74
     1
 91
        4
 64
     7
 65
   257
 75
     1
175
     1
 42
1.0
 92
        0
 66
   257
 43
1.0
 76
     1
 77
     6
 78
     2
 67
     7
 79
     5
170
     0
171
     0
290
     0
174
     0
 93
        1
 44
0.0
173
     0
291
     0
 45
0.0
  0
VISUALSTYLE
  5
284
102
{ACAD_REACTORS
330
27F
102
}
330
27F
100
AcDbVisualStyle
  2
Basic
 70
     7
 71
     1
 72
     0
 73
     1
 90
        0
 40
-0.6
 41
-30.0
 62
     5
 63
     7
421
 16777215
 74
     0
 91
        4
 64
     7
 65
   257
 75
     1
175
     1
 42
1.0
 92
        8
 66
     7
 43
1.0
 76
     1
 77
     6
 78
     2
 67
     7
 79
     5
170
     0
171
     0
290
     0
174
     0
 93
        1
 44
0.0
173
     0
291
     1
 45
0.0
  0
VISUALSTYLE
  5
28B
102
{ACAD_REACTORS
330
27F
102
}
330
27F
100
AcDbVisualStyle
  2
Brighten
 70
    12
 71
     2
 72
     2
 73
     0
 90
        0
 40
-0.6
 41
-30.0
 62
     5
 63
     7
421
 16777215
 74
     1
 91
        4
 64
     7
 65
   257
 75
     1
175
     1
 42
1.0
 92
        8
 66
     7
 43
1.0
 76
     1
 77
     6
 78
     2
 67
     7
 79
     5
170
     0
171
     0
290
     0
174
     0
 93
        1
 44
50.0
173
     0
291
     1
 45
0.0
  0
VISUALSTYLE
  5
28F
102
{ACAD_REACTORS
330
27F
102
}
330
27F
100
AcDbVisualStyle
  2
ColorChange
 70
    16
 71
     2
 72
     2
 73
     3
 90
        0
 40
-0.6
 41
-30.0
 62
     5
 63
     8
421
  8421504
 74
     1
 91
        4
 64
     7
 65
   257
 75
     1
175
     1
 42
1.0
 92
        8
 66
     8
424
  8421504
 43
1.0
 76
     1
 77
     6
 78
     2
 67
     7
 79
     5
170
     0
171
     0
290
     0
174
     0
 93
        1
 44
0.0
173
     0
291
     1
 45
0.0
  0
VISUALSTYLE
  5
288
102
{ACAD_REACTORS
330
27F
102
}
330
27F
100
AcDbVisualStyle
  2
Conceptual
 70
     9
 71
     3
 72
     2
 73
     0
 90
        0
 40
-0.6
 41
-30.0
 62
     5
 63
     7
421
 16777215
 74
     2
 91
        2
 64
     7
 65
   257
 75
     1
175
     1
 42
40.0
 92
        8
 66
     7
 43
1.0
 76
     1
 77
     6
 78
     2
 67
     7
 79
     3
170
     0
171
     0
290
     0
174
     0
 93
        1
 44
0.0
173
     0
291
     0
 45
0.0
  0
VISUALSTYLE
  5
28A
102
{ACAD_REACTORS
330
27F
102
}
330
27F
100
AcDbVisualStyle
  2
Dim
 70
    11
 71
     2
 72
     2
 73
     0
 90
        0
 40
-0.6
 41
-30.0
 62
     5
 63
     7
421
 16777215
 74
     1
 91
        4
 64
     7
 65
   257
 75
     1
175
     1
 42
1.0
 92
        8
 66
     7
 43
1.0
 76
     1
 77
     6
 78
     2
 67
     7
 79
     5
170
     0
171
     0
290
     0
174
     0
 93
        1
 44
-50.0
173
     0
291
     1
 45
0.0
  0
VISUALSTYLE
  5
28E
102
{ACAD_REACTORS
330
27F
102
}
330
27F
100
AcDbVisualStyle
  2
Facepattern
 70
    15
 71
     2
 72
     2
 73
     0
 90
        0
 40
-0.6
 41
-30.0
 62
     5
 63
     7
421
 16777215
 74
     1
 91
        4
 64
     7
 65
   257
 75
     1
175
     1
 42
1.0
 92
        8
 66
     7
 43
1.0
 76
     1
 77
     6
 78
     2
 67
     7
 79
     5
170
     0
171
     0
290
     0
174
     0
 93
        1
 44
0.0
173
     0
291
     1
 45
0.0
  0
VISUALSTYLE
  5
280
102
{ACAD_REACTORS
330
27F
102
}
330
27F
100
AcDbVisualStyle
  2
Flat
 70
     0
 71
     2
 72
     1
 73
     1
 90
        2
 40
-0.6
 41
30.0
 62
     5
 63
     7
421
 16777215
 74
     0
 91
        4
 64
     7
 65
   257
 75
     1
175
     1
 42
1.0
 92
        8
 66
     7
 43
1.0
 76
     1
 77
     6
 78
     2
 67
     7
 79
     5
170
     0
171
     0
290
     0
174
     0
 93
       13
 44
0.0
173
     0
291
     1
 45
0.0
  0
VISUALSTYLE
  5
281
102
{ACAD_REACTORS
330
27F
102
}
330
27F
100
AcDbVisualStyle
  2
FlatWithEdges
 70
     1
 71
     2
 72
     1
 73
     1
 90
        2
 40
-0.6
 41
30.0
 62
     5
 63
     7
421
 16777215
 74
     1
 91
        4
 64
     7
 65
   257
 75
     1
175
     1
 42
1.0
 92
        0
 66
   257
 43
1.0
 76
     1
 77
     6
 78
     2
 67
     7
 79
     5
170
     0
171
     0
290
     0
174
     0
 93
       13
 44
0.0
173
     0
291
     1
 45
0.0
  0
VISUALSTYLE
  5
282
102
{ACAD_REACTORS
330
27F
102
}
330
27F
100
AcDbVisualStyle
  2
Gouraud
 70
     2
 71
     2
 72
     2
 73
     1
 90
        2
 40
-0.6
 41
30.0
 62
     5
 63
     7
421
 16777215
 74
     0
 91
        4
 64
     7
 65
   257
 75
     1
175
     1
 42
1.0
 92
        0
 66
     7
 43
1.0
 76
     1
 77
     6
 78
     2
 67
     7
 79
     5
170
     0
171
     0
290
     0
174
     0
 93
       13
 44
0.0
173
     0
291
     1
 45
0.0
  0
VISUALSTYLE
  5
283
102
{ACAD_REACTORS
330
27F
102
}
330
27F
100
AcDbVisualStyle
  2
GouraudWithEdges
 70
     3
 71
     2
 72
     2
 73
     1
 90
        2
 40
-0.6
 41
30.0
 62
     5
 63
     7
421
 16777215
 74
     1
 91
        4
 64
     7
 65
   257
 75
     1
175
     1
 42
1.0
 92
        0
 66
   257
 43
1.0
 76
     1
 77
     6
 78
     2
 67
     7
 79
     5
170
     0
171
     0
290
     0
174
     0
 93
       13
 44
0.0
173
     0
291
     1
 45
0.0
  0
VISUALSTYLE
  5
28D
102
{ACAD_REACTORS
330
27F
102
}
330
27F
100
AcDbVisualStyle
  2
Linepattern
 70
    14
 71
     2
 72
     2
 73
     0
 90
        0
 40
-0.6
 41
-30.0
 62
     5
 63
     7
421
 16777215
 74
     1
 91
        4
 64
     7
 65
   257
 75
     7
175
     7
 42
1.0
 92
        8
 66
     7
 43
1.0
 76
     1
 77
     6
 78
     2
 67
     7
 79
     5
170
     0
171
     0
290
     0
174
     0
 93
        1
 44
0.0
173
     0
291
     1
 45
0.0
  0
VISUALSTYLE
  5
289
102
{ACAD_REACTORS
330
27F
102
}
330
27F
100
AcDbVisualStyle
  2
Realistic
 70
     8
 71
     2
 72
     2
 73
     0
 90
        0
 40
-0.6
 41
-30.0
 62
     5
 63
     7
421
 16777215
 74
     1
 91
        0
 64
     7
 65
   257
 75
     1
175
     1
 42
1.0
 92
        8
 66
     8
424
  7895160
 43
1.0
 76
     1
 77
     6
 78
     2
 67
     7
 79
     5
170
     0
171
     0
290
     0
174
     0
 93
       13
 44
0.0
173
     0
291
     0
 45
0.0
  0
VISUALSTYLE
  5
28C
102
{ACAD_REACTORS
330
27F
102
}
330
27F
100
AcDbVisualStyle
  2
Thicken
 70
    13
 71
     2
 72
     2
 73
     0
 90
        0
 40
-0.6
 41
-30.0
 62
     5
 63
     7
421
 16777215
 74
     1
 91
        4
 64
     7
 65
   257
 75
     1
175
     1
 42
1.0
 92
       12
 66
     7
 43
1.0
 76
     1
 77
     6
 78
     2
 67
     7
 79
     5
170
     0
171
     0
290
     0
174
     0
 93
        1
 44
0.0
173
     0
291
     1
 45
0.0
  0
DICTIONARYVAR
  5
2FA
102
{ACAD_REACTORS
330
34
102
}
330
34
100
DictionaryVariables
280
     0
  1
1:5
  0
DICTIONARYVAR
  5
2F8
102
{ACAD_REACTORS
330
34
102
}
330
34
100
DictionaryVariables
280
     0
  1
STANDARD
  0
DICTIONARYVAR
  5
140
102
{ACAD_REACTORS
330
34
102
}
330
34
100
DictionaryVariables
280
     0
  1
STANDARD
  0
DICTIONARYVAR
  5
AC
102
{ACAD_REACTORS
330
34
102
}
330
34
100
DictionaryVariables
280
     0
  1
1
  0
DICTIONARYVAR
  5
35
102
{ACAD_REACTORS
330
34
102
}
330
34
100
DictionaryVariables
280
     0
  1
1
  0
DICTIONARYVAR
  5
5EBE
102
{ACAD_REACTORS
330
34
102
}
330
34
100
DictionaryVariables
280
     0
  1
1
  0
DICTIONARYVAR
  5
5EBF
102
{ACAD_REACTORS
330
34
102
}
330
34
100
DictionaryVariables
280
     0
  1
15
  0
DICTIONARYVAR
  5
2FB
102
{ACAD_REACTORS
330
34
102
}
330
34
100
DictionaryVariables
280
     0
  1
0
  0
DICTIONARYVAR
  5
2F9
102
{ACAD_REACTORS
330
34
102
}
330
34
100
DictionaryVariables
280
     0
  1
0
  0
DICTIONARY
  5
161B
102
{ACAD_REACTORS
330
49
102
}
330
49
100
AcDbDictionary
281
     1
  0
DICTIONARY
  5
4A
102
{ACAD_REACTORS
330
49
102
}
330
49
100
AcDbDictionary
281
     1
  0
XRECORD
  5
12B
102
{ACAD_REACTORS
330
49
102
}
330
49
100
AcDbXrecord
280
     1
 90
-1023410169
  0
DICTIONARY
  5
2F5
330
122
100
AcDbDictionary
280
     1
281
     1
  3
ACAD_ROUNDTRIP_2008_TABLESTYLE_CELLSTYLEMAP
360
8E01
  0
CELLSTYLEMAP
  5
8E01
102
{ACAD_REACTORS
330
2F5
102
}
330
2F5
100
AcDbCellStyleMap
 90
        3
300
CELLSTYLE
  1
TABLEFORMAT_BEGIN
 90
        5
170
     1
 91
        0
 92
    32768
 62
   257
 93
        1
300
CONTENTFORMAT
  1
CONTENTFORMAT_BEGIN
 90
        0
 91
        0
 92
      512
 93
        0
300

 40
0.0
140
1.0
 94
        5
 62
     0
340
11
144
6.0
309
CONTENTFORMAT_END
171
     1
301
MARGIN
  1
CELLMARGIN_BEGIN
 40
1.5
 40
1.5
 40
1.5
 40
1.5
 40
0.18
 40
0.18
309
CELLMARGIN_END
 94
        6
 95
        1
302
GRIDFORMAT
  1
GRIDFORMAT_BEGIN
 90
        0
 91
        1
 62
     0
 92
       -2
340
0
 93
        0
 40
0.045
309
GRIDFORMAT_END
 95
        2
302
GRIDFORMAT
  1
GRIDFORMAT_BEGIN
 90
        0
 91
        1
 62
     0
 92
       -2
340
0
 93
        0
 40
0.045
309
GRIDFORMAT_END
 95
        4
302
GRIDFORMAT
  1
GRIDFORMAT_BEGIN
 90
        0
 91
        1
 62
     0
 92
       -2
340
0
 93
        0
 40
0.045
309
GRIDFORMAT_END
 95
        8
302
GRIDFORMAT
  1
GRIDFORMAT_BEGIN
 90
        0
 91
        1
 62
     0
 92
       -2
340
0
 93
        0
 40
0.045
309
GRIDFORMAT_END
 95
       16
302
GRIDFORMAT
  1
GRIDFORMAT_BEGIN
 90
        0
 91
        1
 62
     0
 92
       -2
340
0
 93
        0
 40
0.045
309
GRIDFORMAT_END
 95
       32
302
GRIDFORMAT
  1
GRIDFORMAT_BEGIN
 90
        0
 91
        1
 62
     0
 92
       -2
340
0
 93
        0
 40
0.045
309
GRIDFORMAT_END
309
TABLEFORMAT_END
  1
CELLSTYLE_BEGIN
 90
        1
 91
        1
300
_TITLE
309
CELLSTYLE_END
300
CELLSTYLE
  1
TABLEFORMAT_BEGIN
 90
        5
170
     1
 91
        0
 92
        0
 62
   257
 93
        1
300
CONTENTFORMAT
  1
CONTENTFORMAT_BEGIN
 90
        0
 91
        0
 92
      512
 93
        0
300

 40
0.0
140
1.0
 94
        5
 62
     0
340
11
144
4.5
309
CONTENTFORMAT_END
171
     1
301
MARGIN
  1
CELLMARGIN_BEGIN
 40
1.5
 40
1.5
 40
1.5
 40
1.5
 40
0.18
 40
0.18
309
CELLMARGIN_END
 94
        6
 95
        1
302
GRIDFORMAT
  1
GRIDFORMAT_BEGIN
 90
        0
 91
        1
 62
     0
 92
       -2
340
0
 93
        0
 40
0.045
309
GRIDFORMAT_END
 95
        2
302
GRIDFORMAT
  1
GRIDFORMAT_BEGIN
 90
        0
 91
        1
 62
     0
 92
       -2
340
0
 93
        0
 40
0.045
309
GRIDFORMAT_END
 95
        4
302
GRIDFORMAT
  1
GRIDFORMAT_BEGIN
 90
        0
 91
        1
 62
     0
 92
       -2
340
0
 93
        0
 40
0.045
309
GRIDFORMAT_END
 95
        8
302
GRIDFORMAT
  1
GRIDFORMAT_BEGIN
 90
        0
 91
        1
 62
     0
 92
       -2
340
0
 93
        0
 40
0.045
309
GRIDFORMAT_END
 95
       16
302
GRIDFORMAT
  1
GRIDFORMAT_BEGIN
 90
        0
 91
        1
 62
     0
 92
       -2
340
0
 93
        0
 40
0.045
309
GRIDFORMAT_END
 95
       32
302
GRIDFORMAT
  1
GRIDFORMAT_BEGIN
 90
        0
 91
        1
 62
     0
 92
       -2
340
0
 93
        0
 40
0.045
309
GRIDFORMAT_END
309
TABLEFORMAT_END
  1
CELLSTYLE_BEGIN
 90
        2
 91
        1
300
_HEADER
309
CELLSTYLE_END
300
CELLSTYLE
  1
TABLEFORMAT_BEGIN
 90
        5
170
     1
 91
        0
 92
        0
 62
   257
 93
        1
300
CONTENTFORMAT
  1
CONTENTFORMAT_BEGIN
 90
        0
 91
        0
 92
      512
 93
        0
300

 40
0.0
140
1.0
 94
        2
 62
     0
340
11
144
4.5
309
CONTENTFORMAT_END
171
     1
301
MARGIN
  1
CELLMARGIN_BEGIN
 40
1.5
 40
1.5
 40
1.5
 40
1.5
 40
0.18
 40
0.18
309
CELLMARGIN_END
 94
        6
 95
        1
302
GRIDFORMAT
  1
GRIDFORMAT_BEGIN
 90
        0
 91
        1
 62
     0
 92
       -2
340
0
 93
        0
 40
0.045
309
GRIDFORMAT_END
 95
        2
302
GRIDFORMAT
  1
GRIDFORMAT_BEGIN
 90
        0
 91
        1
 62
     0
 92
       -2
340
0
 93
        0
 40
0.045
309
GRIDFORMAT_END
 95
        4
302
GRIDFORMAT
  1
GRIDFORMAT_BEGIN
 90
        0
 91
        1
 62
     0
 92
       -2
340
0
 93
        0
 40
0.045
309
GRIDFORMAT_END
 95
        8
302
GRIDFORMAT
  1
GRIDFORMAT_BEGIN
 90
        0
 91
        1
 62
     0
 92
       -2
340
0
 93
        0
 40
0.045
309
GRIDFORMAT_END
 95
       16
302
GRIDFORMAT
  1
GRIDFORMAT_BEGIN
 90
        0
 91
        1
 62
     0
 92
       -2
340
0
 93
        0
 40
0.045
309
GRIDFORMAT_END
 95
       32
302
GRIDFORMAT
  1
GRIDFORMAT_BEGIN
 90
        0
 91
        1
 62
     0
 92
       -2
340
0
 93
        0
 40
0.045
309
GRIDFORMAT_END
309
TABLEFORMAT_END
  1
CELLSTYLE_BEGIN
 90
        3
 91
        2
300
_DATA
309
CELLSTYLE_END
  0
ENDSEC
  0
EOF
