  0
SECTION
  2
HEADER
  9
$ACADVER
  1
AC1021
  9
$ACADMAINTVER
 70
    26
  9
$DWGCODEPAGE
  3
ANSI_932
  9
$LASTSAVEDBY
  1
Htm_Terada
  9
$CUSTOMPROPERTYTAG
  1
AmdtFileType
  9
$CUSTOMPROPERTY
  1
84
  9
$INSBASE
 10
0.0
 20
0.0
 30
0.0
  9
$EXTMIN
 10
489.1882376686553
 20
549.315861816638
 30
-0.0015258207003583
  9
$EXTMAX
 10
1217.343754138687
 20
1067.126224805965
 30
0.0000000349246037
  9
$LIMMIN
 10
0.0000007657354217
 20
0.000001477528258
  9
$LIMMAX
 10
1680.000000765735
 20
1188.000001477528
  9
$ORTHOMODE
 70
     1
  9
$REGENMODE
 70
     1
  9
$FILLMODE
 70
     1
  9
$QTEXTMODE
 70
     0
  9
$MIRRTEXT
 70
     1
  9
$LTSCALE
 40
4.0
  9
$ATTMODE
 70
     1
  9
$TEXTSIZE
 40
25.0
  9
$TRACEWID
 40
1.0
  9
$TEXTSTYLE
  7
SEISA
  9
$CLAYER
  8
AM_11 想像線
  9
$CELTYPE
  6
ByLayer
  9
$CECOLOR
 62
   256
  9
$CELTSCALE
 40
1.0
  9
$DISPSILH
 70
     0
  9
$DIMSCALE
 40
4.0
  9
$DIMASZ
 40
2.5
  9
$DIMEXO
 40
0.625
  9
$DIMDLI
 40
10.0
  9
$DIMRND
 40
0.0
  9
$DIMDLE
 40
0.0
  9
$DIMEXE
 40
0.625
  9
$DIMTP
 40
0.1
  9
$DIMTM
 40
0.1
  9
$DIMTXT
 40
3.5
  9
$DIMCEN
 40
0.0
  9
$DIMTSZ
 40
0.0
  9
$DIMTOL
 70
     0
  9
$DIMLIM
 70
     0
  9
$DIMTIH
 70
     0
  9
$DIMTOH
 70
     0
  9
$DIMSE1
 70
     0
  9
$DIMSE2
 70
     0
  9
$DIMTAD
 70
     3
  9
$DIMZIN
 70
     8
  9
$DIMBLK
  1
Open30
  9
$DIMASO
 70
     1
  9
$DIMSHO
 70
     1
  9
$DIMPOST
  1

  9
$DIMAPOST
  1
"
  9
$DIMALT
 70
     0
  9
$DIMALTD
 70
     2
  9
$DIMALTF
 40
0.0393701
  9
$DIMLFAC
 40
1.0
  9
$DIMTOFL
 70
     1
  9
$DIMTVP
 40
0.0
  9
$DIMTIX
 70
     0
  9
$DIMSOXD
 70
     0
  9
$DIMSAH
 70
     0
  9
$DIMBLK1
  1

  9
$DIMBLK2
  1

  9
$DIMSTYLE
  2
SEISA
  9
$DIMCLRD
 70
     3
  9
$DIMCLRE
 70
     3
  9
$DIMCLRT
 70
     3
  9
$DIMTFAC
 40
0.71
  9
$DIMGAP
 40
1.5
  9
$DIMJUST
 70
     0
  9
$DIMSD1
 70
     0
  9
$DIMSD2
 70
     0
  9
$DIMTOLJ
 70
     0
  9
$DIMTZIN
 70
     0
  9
$DIMALTZ
 70
     0
  9
$DIMALTTZ
 70
     8
  9
$DIMUPT
 70
     0
  9
$DIMDEC
 70
     2
  9
$DIMTDEC
 70
     2
  9
$DIMALTU
 70
     2
  9
$DIMALTTD
 70
     2
  9
$DIMTXSTY
  7
SEISA
  9
$DIMAUNIT
 70
     0
  9
$DIMADEC
 70
     0
  9
$DIMALTRND
 40
0.0
  9
$DIMAZIN
 70
     2
  9
$DIMDSEP
 70
    46
  9
$DIMATFIT
 70
     3
  9
$DIMFRAC
 70
     0
  9
$DIMLDRBLK
  1
Open30
  9
$DIMLUNIT
 70
     2
  9
$DIMLWD
 70
    -1
  9
$DIMLWE
 70
    -1
  9
$DIMTMOVE
 70
     0
  9
$DIMFXL
 40
1.0
  9
$DIMFXLON
 70
     0
  9
$DIMJOGANG
 40
0.7853981633974483
  9
$DIMTFILL
 70
     0
  9
$DIMTFILLCLR
 70
     0
  9
$DIMARCSYM
 70
     1
  9
$DIMLTYPE
  6

  9
$DIMLTEX1
  6

  9
$DIMLTEX2
  6

  9
$LUNITS
 70
     2
  9
$LUPREC
 70
     2
  9
$SKETCHINC
 40
1.0
  9
$FILLETRAD
 40
10.0
  9
$AUNITS
 70
     0
  9
$AUPREC
 70
     0
  9
$MENU
  1
.
  9
$ELEVATION
 40
0.0
  9
$PELEVATION
 40
0.0
  9
$THICKNESS
 40
0.0
  9
$LIMCHECK
 70
     0
  9
$CHAMFERA
 40
2.999999999999771
  9
$CHAMFERB
 40
3.0
  9
$CHAMFERC
 40
2.999999999999771
  9
$CHAMFERD
 40
0.7853981633974483
  9
$SKPOLY
 70
     0
  9
$TDCREATE
 40
2454903.685414121
  9
$TDUCREATE
 40
2454903.310414121
  9
$TDUPDATE
 40
2456478.694506655
  9
$TDUUPDATE
 40
2456478.319506655
  9
$TDINDWG
 40
0.2826508449
  9
$TDUSRTIMER
 40
0.2826503009
  9
$USRTIMER
 70
     1
  9
$ANGBASE
 50
0.0
  9
$ANGDIR
 70
     0
  9
$PDMODE
 70
     0
  9
$PDSIZE
 40
0.0
  9
$PLINEWID
 40
0.0
  9
$SPLFRAME
 70
     0
  9
$SPLINETYPE
 70
     6
  9
$SPLINESEGS
 70
     8
  9
$HANDSEED
  5
7FA9
  9
$SURFTAB1
 70
     6
  9
$SURFTAB2
 70
     6
  9
$SURFTYPE
 70
     6
  9
$SURFU
 70
     6
  9
$SURFV
 70
     6
  9
$UCSBASE
  2

  9
$UCSNAME
  2

  9
$UCSORG
 10
0.0
 20
0.0
 30
0.0
  9
$UCSXDIR
 10
1.0
 20
0.0
 30
0.0
  9
$UCSYDIR
 10
0.0
 20
1.0
 30
0.0
  9
$UCSORTHOREF
  2

  9
$UCSORTHOVIEW
 70
     0
  9
$UCSORGTOP
 10
0.0
 20
0.0
 30
0.0
  9
$UCSORGBOTTOM
 10
0.0
 20
0.0
 30
0.0
  9
$UCSORGLEFT
 10
0.0
 20
0.0
 30
0.0
  9
$UCSORGRIGHT
 10
0.0
 20
0.0
 30
0.0
  9
$UCSORGFRONT
 10
0.0
 20
0.0
 30
0.0
  9
$UCSORGBACK
 10
0.0
 20
0.0
 30
0.0
  9
$PUCSBASE
  2

  9
$PUCSNAME
  2

  9
$PUCSORG
 10
0.0
 20
0.0
 30
0.0
  9
$PUCSXDIR
 10
1.0
 20
0.0
 30
0.0
  9
$PUCSYDIR
 10
0.0
 20
1.0
 30
0.0
  9
$PUCSORTHOREF
  2

  9
$PUCSORTHOVIEW
 70
     0
  9
$PUCSORGTOP
 10
0.0
 20
0.0
 30
0.0
  9
$PUCSORGBOTTOM
 10
0.0
 20
0.0
 30
0.0
  9
$PUCSORGLEFT
 10
0.0
 20
0.0
 30
0.0
  9
$PUCSORGRIGHT
 10
0.0
 20
0.0
 30
0.0
  9
$PUCSORGFRONT
 10
0.0
 20
0.0
 30
0.0
  9
$PUCSORGBACK
 10
0.0
 20
0.0
 30
0.0
  9
$USERI1
 70
     0
  9
$USERI2
 70
     0
  9
$USERI3
 70
     0
  9
$USERI4
 70
     0
  9
$USERI5
 70
     0
  9
$USERR1
 40
0.0
  9
$USERR2
 40
0.0
  9
$USERR3
 40
0.0
  9
$USERR4
 40
0.0
  9
$USERR5
 40
0.0
  9
$WORLDVIEW
 70
     1
  9
$SHADEDGE
 70
     3
  9
$SHADEDIF
 70
    70
  9
$TILEMODE
 70
     1
  9
$MAXACTVP
 70
    64
  9
$PINSBASE
 10
0.0
 20
0.0
 30
0.0
  9
$PLIMCHECK
 70
     0
  9
$PEXTMIN
 10
1.000000000000000E+20
 20
1.000000000000000E+20
 30
1.000000000000000E+20
  9
$PEXTMAX
 10
-1.000000000000000E+20
 20
-1.000000000000000E+20
 30
-1.000000000000000E+20
  9
$PLIMMIN
 10
0.0
 20
0.0
  9
$PLIMMAX
 10
420.0
 20
297.0
  9
$UNITMODE
 70
     0
  9
$VISRETAIN
 70
     1
  9
$PLINEGEN
 70
     0
  9
$PSLTSCALE
 70
     1
  9
$TREEDEPTH
 70
  3020
  9
$CMLSTYLE
  2
Standard
  9
$CMLJUST
 70
     0
  9
$CMLSCALE
 40
20.0
  9
$PROXYGRAPHICS
 70
     1
  9
$MEASUREMENT
 70
     1
  9
$CELWEIGHT
370
    -1
  9
$ENDCAPS
280
     0
  9
$JOINSTYLE
280
     0
  9
$LWDISPLAY
290
     0
  9
$INSUNITS
 70
     4
  9
$HYPERLINKBASE
  1

  9
$STYLESHEET
  1
SEISA.CTB
  9
$XEDIT
290
     1
  9
$CEPSNTYPE
380
     0
  9
$PSTYLEMODE
290
     1
  9
$FINGERPRINTGUID
  2
{FDB64B99-A5F3-4A85-B586-8660C61D2FC0}
  9
$VERSIONGUID
  2
{9C9DCC66-859E-4E31-BF58-B0EBDE050D7B}
  9
$EXTNAMES
290
     1
  9
$PSVPSCALE
 40
0.0
  9
$OLESTARTUP
290
     0
  9
$SORTENTS
280
   127
  9
$INDEXCTL
280
     0
  9
$HIDETEXT
280
     0
  9
$XCLIPFRAME
290
     0
  9
$HALOGAP
280
     0
  9
$OBSCOLOR
 70
   257
  9
$OBSLTYPE
280
     0
  9
$INTERSECTIONDISPLAY
280
     0
  9
$INTERSECTIONCOLOR
 70
   257
  9
$DIMASSOC
280
     2
  9
$PROJECTNAME
  1

  9
$CAMERADISPLAY
290
     0
  9
$LENSLENGTH
 40
50.0
  9
$CAMERAHEIGHT
 40
0.0
  9
$STEPSPERSEC
 40
2.0
  9
$STEPSIZE
 40
6.0
  9
$3DDWFPREC
 40
2.0
  9
$PSOLWIDTH
 40
0.25
  9
$PSOLHEIGHT
 40
4.0
  9
$LOFTANG1
 40
1.570796326794896
  9
$LOFTANG2
 40
1.570796326794896
  9
$LOFTMAG1
 40
0.0
  9
$LOFTMAG2
 40
0.0
  9
$LOFTPARAM
 70
     7
  9
$LOFTNORMALS
280
     1
  9
$LATITUDE
 40
37.795
  9
$LONGITUDE
 40
-122.394
  9
$NORTHDIRECTION
 40
0.0
  9
$TIMEZONE
 70
 -8000
  9
$LIGHTGLYPHDISPLAY
280
     1
  9
$TILEMODELIGHTSYNCH
280
     1
  9
$CMATERIAL
347
27C
  9
$SOLIDHIST
280
     1
  9
$SHOWHIST
280
     1
  9
$DWFFRAME
280
     2
  9
$DGNFRAME
280
     0
  9
$REALWORLDSCALE
290
     1
  9
$INTERFERECOLOR
 62
     1
  9
$INTERFEREOBJVS
345
289
  9
$INTERFEREVPVS
346
286
  9
$CSHADOW
280
     0
  9
$SHADOWPLANELOCATION
 40
0.0
  0
ENDSEC
  0
SECTION
  2
CLASSES
  0
CLASS
  1
ACDBDICTIONARYWDFLT
  2
AcDbDictionaryWithDefault
  3
ObjectDBX Classes
 90
        0
 91
        1
280
     0
281
     0
  0
CLASS
  1
AMGSETTINGSOBJ
  2
AmgSettingsObj
  3
"AcadM|Product Description: AutoCAD Mechanical|Company: Autodesk, Inc."
 90
     1024
 91
        2
280
     0
281
     0
  0
CLASS
  1
ACME_DOCUMENT
  2
AcMeDbDoc
  3
AcMeServices
 90
     1024
 91
        1
280
     0
281
     0
  0
CLASS
  1
ACMESCOPE
  2
AcMeScope
  3
AcMeServices
 90
     1024
 91
        1
280
     0
281
     0
  0
CLASS
  1
ACMECOMMANDHISTORY
  2
AcMeCommandHistory
  3
AcMeServices
 90
     1024
 91
        1
280
     0
281
     0
  0
CLASS
  1
DICTIONARYVAR
  2
AcDbDictionaryVar
  3
ObjectDBX Classes
 90
        0
 91
        9
280
     0
281
     0
  0
CLASS
  1
ACIMSYSVARMAN
  2
AcImSysVarManager
  3
AcMeServices
 90
     1024
 91
        5
280
     0
281
     0
  0
CLASS
  1
ACIMREALSYSVAR
  2
AcImRealSysVar
  3
AcMeServices
 90
     1024
 91
        1
280
     0
281
     0
  0
CLASS
  1
ACIMINTSYSVAR
  2
AcImIntSysVar
  3
AcMeServices
 90
     1024
 91
       27
280
     0
281
     0
  0
CLASS
  1
ACMEDRAWINGMAN
  2
AcMeDrawingMan
  3
AcMeServices
 90
     1024
 91
        1
280
     0
281
     0
  0
CLASS
  1
ACMEVIEW
  2
AcMeView
  3
AcMeServices
 90
     1024
 91
        1
280
     0
281
     0
  0
CLASS
  1
ACDBENTITYCACHE
  2
AcMeEntityCache
  3
AcMeServices
 90
     1024
 91
        1
280
     0
281
     0
  0
CLASS
  1
GSMANAGER
  2
AcMeGSManager
  3
AcMeServices
 90
     1024
 91
        1
280
     0
281
     0
  0
CLASS
  1
AMDTINTERNALREACTOR
  2
AmdtInternalReactor
  3
AcMeServices
 90
     1024
 91
        2
280
     0
281
     0
  0
CLASS
  1
ACMESTATEMGR
  2
AcMeStateMgr
  3
AcMeServices
 90
     1024
 91
        1
280
     0
281
     0
  0
CLASS
  1
ACGREFMASTER
  2
AcGrefMaster
  3
AcAttribServices
 90
     1024
 91
        1
280
     0
281
     0
  0
CLASS
  1
ACME_DATABASE
  2
AcMeDbDatabase
  3
AcMeServices
 90
     1024
 91
        1
280
     0
281
     0
  0
CLASS
  1
ACRFINSADJUSTERMGR
  2
AcRfInsAdjusterMgr
  3
AcMeServices
 90
     1024
 91
        1
280
     0
281
     0
  0
CLASS
  1
ACGREFACADMASTER
  2
AcGrefacadMaster
  3
AcGrefServices
 90
     1024
 91
        1
280
     0
281
     0
  0
CLASS
  1
AMIMASTER
  2
AmiMaster
  3
AmiServices
 90
     1024
 91
        1
280
     0
281
     0
  0
CLASS
  1
ACIMSTRSYSVAR
  2
AcImStrSysVar
  3
AcMeServices
 90
     1024
 91
        5
280
     0
281
     0
  0
CLASS
  1
ACMSTANDARDJIS
  2
AcmStandardJIS
  3
"Amdt_StdImp|Product Description: AutoCAD Mechanical|Company: Autodesk, Inc."
 90
     1024
 91
        0
280
     0
281
     0
  0
CLASS
  1
AMGOBJPROPCFG
  2
AmgObjPropCfg
  3
"AmgLay|Product Description: AutoCAD Mechanical|Company: Autodesk, Inc."
 90
     1025
 91
        1
280
     0
281
     0
  0
CLASS
  1
ACMSURFSTANDARDJIS
  2
AcmSurfTextStdJIS
  3
"Amdt_StdImp|Product Description: AutoCAD Mechanical|Company: Autodesk, Inc."
 90
     1024
 91
        0
280
     0
281
     0
  0
CLASS
  1
ACMFCFSTANDARDJIS
  2
AcmFCFStdJIS
  3
"Amdt_StdImp|Product Description: AutoCAD Mechanical|Company: Autodesk, Inc."
 90
     1024
 91
        0
280
     0
281
     0
  0
CLASS
  1
ACMWELDSTANDARDJIS
  2
AcmWeldingStdJIS
  3
"Amdt_StdImp|Product Description: AutoCAD Mechanical|Company: Autodesk, Inc."
 90
     1024
 91
        0
280
     0
281
     0
  0
CLASS
  1
ACMIDSTANDARDJIS
  2
AcmIdStdJIS
  3
"Amdt_StdImp|Product Description: AutoCAD Mechanical|Company: Autodesk, Inc."
 90
     1024
 91
        0
280
     0
281
     0
  0
CLASS
  1
ACMDATUMSTANDARDJIS
  2
AcmDatumStdJIS
  3
"Amdt_StdImp|Product Description: AutoCAD Mechanical|Company: Autodesk, Inc."
 90
     1024
 91
        0
280
     0
281
     0
  0
CLASS
  1
ACMBOMSTANDARDJIS
  2
AcmBOMStdJIS
  3
"Amdt_StdImp|Product Description: AutoCAD Mechanical|Company: Autodesk, Inc."
 90
     1024
 91
        0
280
     0
281
     0
  0
CLASS
  1
ACMDETAILSTANDARDJIS
  2
AmdtDetailSymStdJIS
  3
"Amdt_StdImp|Product Description: AutoCAD Mechanical|Company: Autodesk, Inc."
 90
     1024
 91
        0
280
     0
281
     0
  0
CLASS
  1
ACMSECTIONSTANDARDJIS
  2
AmdtSectionSymStdJIS
  3
"Amdt_StdImp|Product Description: AutoCAD Mechanical|Company: Autodesk, Inc."
 90
     1024
 91
        0
280
     0
281
     0
  0
CLASS
  1
ACMCENTERLINESTANDARDJIS
  2
AmdtCenterLineStdJIS
  3
"Amdt_StdImp|Product Description: AutoCAD Mechanical|Company: Autodesk, Inc."
 90
     1024
 91
        0
280
     0
281
     0
  0
CLASS
  1
ACMTHREADLINESTANDARDJIS
  2
AmdtThreadLineStdJIS
  3
"Amdt_StdImp|Product Description: AutoCAD Mechanical|Company: Autodesk, Inc."
 90
     1024
 91
        0
280
     0
281
     0
  0
CLASS
  1
ACAMGLAYSTD
  2
AcAmgLayStd
  3
"AmgLay|Product Description: AutoCAD Mechanical|Company: Autodesk, Inc."
 90
     1024
 91
        1
280
     0
281
     0
  0
CLASS
  1
ACAMGDIMSTD
  2
AcAmgDimStd
  3
"AmgDim|Product Description: AutoCAD Mechanical|Company: Autodesk, Inc."
 90
     1024
 91
        1
280
     0
281
     0
  0
CLASS
  1
ACAMGTITLESTD
  2
AcAmgTitleStd
  3
"AmgTitle|Product Description: AutoCAD Mechanical|Company: Autodesk, Inc."
 90
     4095
 91
        1
280
     0
281
     0
  0
CLASS
  1
ACMDATADICTIONARY
  2
AcmDataDictionary
  3
"AcmSymBB|Product Description: AutoCAD Mechanical|Company: Autodesk, Inc."
 90
     1024
 91
        1
280
     0
281
     0
  0
CLASS
  1
ACMDATAENTRYBLOCK
  2
AcmDataEntryBlock
  3
AcmSymBB|Product Description: AutoCAD Mechanical|Company: Autodesk, Inc.
 90
     1024
 91
        0
280
     0
281
     0
  0
CLASS
  1
LAYER_INDEX
  2
AcDbLayerIndex
  3
ObjectDBX Classes
 90
        0
 91
        0
280
     0
281
     0
  0
CLASS
  1
IDBUFFER
  2
AcDbIdBuffer
  3
ObjectDBX Classes
 90
        0
 91
        0
280
     0
281
     0
  0
CLASS
  1
ACMNOTESTANDARDJIS
  2
AmdtNoteStdJIS
  3
"Amdt_StdImp|Product Description: AutoCAD Mechanical|Company: Autodesk, Inc."
 90
     1024
 91
        0
280
     0
281
     0
  0
CLASS
  1
ACAMGHOLECHARTSTDJIS
  2
AcAmgHoleChartStdJIS
  3
AmgDim|Product Description: AutoCAD Mechanical|Company: Autodesk, Inc.
 90
     1024
 91
        0
280
     0
281
     0
  0
CLASS
  1
AM_DRAWING_MGR
  2
AcDmDwgMgr
  3
AcMechDwgViewMgmt
 90
     1024
 91
        1
280
     0
281
     0
  0
CLASS
  1
AM_DWG_DOCUMENT
  2
AcDmDwgDocument
  3
AcMechDwgViewMgmt
 90
     1024
 91
        1
280
     0
281
     0
  0
CLASS
  1
AM_DWG_SHEET
  2
AcDmSheet
  3
AcMechDwgViewMgmt
 90
     1024
 91
        2
280
     0
281
     0
  0
CLASS
  1
AM_VIEWDIMPARMAP
  2
AcDmViewDimParMap
  3
AcMechDwgViewMgmt
 90
     1024
 91
        2
280
     0
281
     0
  0
CLASS
  1
AM_DWGMGR_NAME
  2
AcDmDwgMgrName
  3
AcMechDwgViewMgmt
 90
     1024
 91
        1
280
     0
281
     0
  0
CLASS
  1
AMDTMENUSTATEMGR
  2
AmdtMenuStateMgr
  3
McadcomServices
 90
     1024
 91
        1
280
     0
281
     0
  0
CLASS
  1
AMDTMCOMMENUSTATE
  2
AmdtMcomMenuState
  3
McadcomServices
 90
     1024
 91
        1
280
     0
281
     0
  0
CLASS
  1
MAPIAMMOUDLE
  2
MApiAmModule
  3
MApiAmServices
 90
     1024
 91
        1
280
     0
281
     0
  0
CLASS
  1
AMDTADMENUSTATE
  2
AmdtAdMenuState
  3
DesignerServices
 90
     1024
 91
        1
280
     0
281
     0
  0
CLASS
  1
ADAPPL
  2
AcAdAppl
  3
DesignerServices
 90
     1024
 91
        1
280
     0
281
     0
  0
CLASS
  1
DEPMGR
  2
AcAdDepMgr
  3
DesignerServices
 90
     1024
 91
        1
280
     0
281
     0
  0
CLASS
  1
PARAMMGR
  2
AcAdParamMgr
  3
DesignerServices
 90
     1024
 91
        1
280
     0
281
     0
  0
CLASS
  1
PARAMSCOPE
  2
AcAdParamScope
  3
DesignerServices
 90
     1024
 91
        1
280
     0
281
     0
  0
CLASS
  1
NAMEDAPPL
  2
AcAdNamedAppl
  3
DesignerServices
 90
     1024
 91
        1
280
     0
281
     0
  0
CLASS
  1
AMDTDMMENUSTATE
  2
AmdtDmMenuState
  3
AcMechDwgViewMgmt
 90
     1024
 91
        1
280
     0
281
     0
  0
CLASS
  1
AMDTAMMENUSTATE
  2
AmdtAmMenuState
  3
DesignerAssemblies
 90
     1024
 91
        1
280
     0
281
     0
  0
CLASS
  1
ACAMPROJECT
  2
AcAmProject
  3
DesignerAssemblies
 90
     1024
 91
        1
280
     0
281
     0
  0
CLASS
  1
ACAMGRCOMPDEF
  2
AcAmGrCompDef
  3
DesignerAssemblies
 90
     1024
 91
        1
280
     0
281
     0
  0
CLASS
  1
ACCMCONTEXT
  2
AcCmContext
  3
DesignerAssemblies
 90
     1024
 91
        1
280
     0
281
     0
  0
CLASS
  1
ACAMCOMPDEF
  2
AcAmCompDef
  3
DesignerAssemblies
 90
     1024
 91
        1
280
     0
281
     0
  0
CLASS
  1
ACAMCOMPDEFMGR
  2
AcAmCompDefMgr
  3
DesignerAssemblies
 90
     1024
 91
        1
280
     0
281
     0
  0
CLASS
  1
AMCONTEXTMGR
  2
AcAmContextMgr
  3
DesignerAssemblies
 90
     1024
 91
        1
280
     0
281
     0
  0
CLASS
  1
ACAMCONTEXTMODELER
  2
AcAmContextModeler
  3
DesignerAssemblies
 90
     1024
 91
        1
280
     0
281
     0
  0
CLASS
  1
CATALOGSTATE
  2
AcAmCatalogState
  3
DesignerAssemblies
 90
     1024
 91
        1
280
     0
281
     0
  0
CLASS
  1
ACAMGRCOMPDEFSET
  2
AcAmGrCompDefSet
  3
DesignerAssemblies
 90
     1024
 91
        1
280
     0
281
     0
  0
CLASS
  1
AMDTBROWSERDBTAB
  2
AmdtBrowserDbTab
  3
McadcomServices
 90
     1024
 91
        1
280
     0
281
     0
  0
CLASS
  1
CBROWSERAPPOBJECT
  2
CBrowserAppObject
  3
McadcomServices
 90
     1024
 91
        3
280
     0
281
     0
  0
CLASS
  1
DM_PLACEHOLDER
  2
AcDmSelsetPlaceholder
  3
AcMechDwgViewMgmt
 90
     1024
 91
        1
280
     0
281
     0
  0
CLASS
  1
TABLESTYLE
  2
AcDbTableStyle
  3
ObjectDBX Classes
 90
     4095
 91
        1
280
     0
281
     0
  0
CLASS
  1
VAACXREFPANELOBJECT
  2
VaAcXREFPanelObject
  3
VAAC_ADDIN
 90
        0
 91
        0
280
     0
281
     0
  0
CLASS
  1
VAACIMAGEINVENTORY
  2
VaAcImageInventory
  3
VAAC_ADDIN
 90
        0
 91
        0
280
     0
281
     0
  0
CLASS
  1
AMDTNOTETEMPLATEDB
  2
AmdtNoteTemplateDB
  3
AcmSymBB|Product Description: AutoCAD Mechanical|Company: Autodesk, Inc.
 90
     1024
 91
        6
280
     0
281
     0
  0
CLASS
  1
ACAMGFILTERDAT
  2
AcAmgFilterDat
  3
"AcadM|Product Description: AutoCAD Mechanical|Company: Autodesk, Inc."
 90
     1024
 91
        0
280
     0
281
     0
  0
CLASS
  1
MATERIAL
  2
AcDbMaterial
  3
ObjectDBX Classes
 90
     1153
 91
        3
280
     0
281
     0
  0
CLASS
  1
VISUALSTYLE
  2
AcDbVisualStyle
  3
ObjectDBX Classes
 90
     4095
 91
       16
280
     0
281
     0
  0
CLASS
  1
ACRFATTGENMGR
  2
AcRfAttGeneralMgr
  3
AcAttribServices
 90
     1024
 91
        0
280
     0
281
     0
  0
CLASS
  1
ACRFOBJATTMGR
  2
AcRfObjAttGroupMgr
  3
AcAttribServices
 90
     1024
 91
        0
280
     0
281
     0
  0
CLASS
  1
ACRFMCADAPIATTHOLDER
  2
AcRfMCADAPIAttHolder
  3
AcAttribServices
 90
     1024
 91
        0
280
     0
281
     0
  0
CLASS
  1
AMDTSYSATTR
  2
AmdtSystemAttribute
  3
AcAttribServices
 90
     1024
 91
        0
280
     0
281
     0
  0
CLASS
  1
ACMTAPERSTANDARDJIS
  2
AcmTaperStdJIS
  3
"Amdt_StdImp|Product Description: AutoCAD Mechanical|Company: Autodesk, Inc."
 90
     1024
 91
        0
280
     0
281
     0
  0
CLASS
  1
CAMSSTRUCTBTNSTATE
  2
StructBtnState
  3
DesignerAssemblies
 90
     1024
 91
        0
280
     0
281
     0
  0
CLASS
  1
SCALE
  2
AcDbScale
  3
ObjectDBX Classes
 90
     1153
 91
       36
280
     0
281
     0
  0
CLASS
  1
MLEADERSTYLE
  2
AcDbMLeaderStyle
  3
ACDB_MLEADERSTYLE_CLASS
 90
     4095
 91
        1
280
     0
281
     0
  0
CLASS
  1
ACMANOOTATIONVIEWSTANDARDJIS
  2
AmdtAnViewStdJIS
  3
"Amdt_StdImp|Product Description: AutoCAD Mechanical|Company: Autodesk, Inc."
 90
     1024
 91
        0
280
     0
281
     0
  0
CLASS
  1
ACMSURFSTANDARDJIS2003
  2
AcmSurfTextStdJIS2003
  3
"Amdt_StdImp|Product Description: AutoCAD Mechanical|Company: Autodesk, Inc."
 90
     1024
 91
        0
280
     0
281
     0
  0
CLASS
  1
CELLSTYLEMAP
  2
AcDbCellStyleMap
  3
ObjectDBX Classes
 90
     1152
 91
        2
280
     0
281
     0
  0
CLASS
  1
ACMFCFSTANDARDJIS98
  2
AcmFCFStdJIS98
  3
"Amdt_StdImp|Product Description: AutoCAD Mechanical|Company: Autodesk, Inc."
 90
     1024
 91
        0
280
     0
281
     0
  0
CLASS
  1
SORTENTSTABLE
  2
AcDbSortentsTable
  3
ObjectDBX Classes
 90
        0
 91
       10
280
     0
281
     0
  0
CLASS
  1
DIMASSOC
  2
AcDbDimAssoc
  3
"AcDbDimAssoc|Product Desc:     AcDim ARX App For Dimension|Company:          Autodesk, Inc.|WEB Address:      www.autodesk.com"
 90
        0
 91
       10
280
     0
281
     0
  0
CLASS
  1
STDPART2D
  2
AmgStdPart
  3
AmgStdPart|Product Description: AutoCAD Mechanical|Company: Autodesk, Inc.
 90
     4095
 91
        0
280
     0
281
     1
  0
CLASS
  1
ACMDATAENTRYPART
  2
AcmDataEntryPart
  3
AcmSymBB|Product Description: AutoCAD Mechanical|Company: Autodesk, Inc.
 90
     1024
 91
        0
280
     0
281
     0
  0
CLASS
  1
ACMPARTREF
  2
AcmPartRef
  3
"AcmSymBB|Product Description: AutoCAD Mechanical|Company: Autodesk, Inc."
 90
     4095
 91
        0
280
     0
281
     1
  0
CLASS
  1
ACDBSTDPARTRES_LINE
  2
AcDbStdPartRes_Line
  3
AmgStdPart|Product Description: AutoCAD Mechanical|Company: Autodesk, Inc.
 90
     1024
 91
        0
280
     0
281
     0
  0
CLASS
  1
ACMBOM
  2
AcmBom
  3
"AcmSymBB|Product Description: AutoCAD Mechanical|Company: Autodesk, Inc."
 90
     1024
 91
        0
280
     0
281
     0
  0
CLASS
  1
AMDTFORMULAUPDATEDISPATCHER
  2
AmdtFormulaUpdateDispatcher
  3
AcMeServices
 90
     1024
 91
        0
280
     0
281
     0
  0
CLASS
  1
ACMBOMROW
  2
AcmBomRow
  3
"AcmSymBB|Product Description: AutoCAD Mechanical|Company: Autodesk, Inc."
 90
     1024
 91
        0
280
     0
281
     0
  0
CLASS
  1
ACMPARTLIST
  2
AcmPartList
  3
"AcmSymBB|Product Description: AutoCAD Mechanical|Company: Autodesk, Inc."
 90
     4095
 91
        0
280
     0
281
     1
  0
CLASS
  1
ACDBLINERES
  2
AcDbLineRes
  3
AcGrefServices
 90
     1024
 91
        0
280
     0
281
     0
  0
CLASS
  1
ACRFINSADJ
  2
AcRfInsAdjuster
  3
AcMeServices
 90
     1024
 91
        0
280
     0
281
     0
  0
CLASS
  1
ACMSTANDARDISO
  2
AcmStandardISO
  3
"Amdt_StdImp|Product Description: AutoCAD Mechanical|Company: Autodesk, Inc."
 90
     1024
 91
        1
280
     0
281
     0
  0
CLASS
  1
AMDTEDGESTANDARDISO13715
  2
AmdtEdgeStdISO13715
  3
"Amdt_StdImp|Product Description: AutoCAD Mechanical|Company: Autodesk, Inc."
 90
     1024
 91
        1
280
     0
281
     0
  0
CLASS
  1
ACMSURFSTANDARDISO2002
  2
AcmSurfTextStdISO2002
  3
"Amdt_StdImp|Product Description: AutoCAD Mechanical|Company: Autodesk, Inc."
 90
     1024
 91
        1
280
     0
281
     0
  0
CLASS
  1
ACMFCFSTANDARDISO
  2
AcmFCFStdISO
  3
"Amdt_StdImp|Product Description: AutoCAD Mechanical|Company: Autodesk, Inc."
 90
     1024
 91
        1
280
     0
281
     0
  0
CLASS
  1
ACMWELDSTANDARDISO
  2
AcmWeldingStdISO
  3
"Amdt_StdImp|Product Description: AutoCAD Mechanical|Company: Autodesk, Inc."
 90
     1024
 91
        1
280
     0
281
     0
  0
CLASS
  1
ACMIDSTANDARDISO
  2
AcmIdStdISO
  3
"Amdt_StdImp|Product Description: AutoCAD Mechanical|Company: Autodesk, Inc."
 90
     1024
 91
        1
280
     0
281
     0
  0
CLASS
  1
ACMDATUMSTANDARDISO
  2
AcmDatumStdISO
  3
"Amdt_StdImp|Product Description: AutoCAD Mechanical|Company: Autodesk, Inc."
 90
     1024
 91
        1
280
     0
281
     0
  0
CLASS
  1
ACMBOMSTANDARDISO
  2
AcmBOMStdISO
  3
"Amdt_StdImp|Product Description: AutoCAD Mechanical|Company: Autodesk, Inc."
 90
     1024
 91
        1
280
     0
281
     0
  0
CLASS
  1
ACMDETAILSTANDARDISO
  2
AmdtDetailSymStdISO
  3
"Amdt_StdImp|Product Description: AutoCAD Mechanical|Company: Autodesk, Inc."
 90
     1024
 91
        1
280
     0
281
     0
  0
CLASS
  1
ACMSECTIONSTANDARDISO2001
  2
AmdtSectionSymStdISO2001
  3
"Amdt_StdImp|Product Description: AutoCAD Mechanical|Company: Autodesk, Inc."
 90
     1024
 91
        1
280
     0
281
     0
  0
CLASS
  1
ACMCENTERLINESTANDARDISO
  2
AmdtCenterLineStdISO
  3
"Amdt_StdImp|Product Description: AutoCAD Mechanical|Company: Autodesk, Inc."
 90
     1024
 91
        1
280
     0
281
     0
  0
CLASS
  1
ACMTHREADLINESTANDARDISO
  2
AmdtThreadLineStdISO
  3
"Amdt_StdImp|Product Description: AutoCAD Mechanical|Company: Autodesk, Inc."
 90
     1024
 91
        1
280
     0
281
     0
  0
CLASS
  1
ACMNOTESTANDARDISO
  2
AmdtNoteStdISO
  3
"Amdt_StdImp|Product Description: AutoCAD Mechanical|Company: Autodesk, Inc."
 90
     1024
 91
        1
280
     0
281
     0
  0
CLASS
  1
ACMTAPERSTANDARDISO
  2
AcmTaperStdISO
  3
"Amdt_StdImp|Product Description: AutoCAD Mechanical|Company: Autodesk, Inc."
 90
     1024
 91
        1
280
     0
281
     0
  0
CLASS
  1
ACMANOOTATIONVIEWSTANDARDISO
  2
AmdtAnViewStdISO
  3
"Amdt_StdImp|Product Description: AutoCAD Mechanical|Company: Autodesk, Inc."
 90
     1024
 91
        1
280
     0
281
     0
  0
CLASS
  1
ACAMGHOLECHARTSTDISO
  2
AcAmgHoleChartStdISO
  3
AmgDim|Product Description: AutoCAD Mechanical|Company: Autodesk, Inc.
 90
     1024
 91
        1
280
     0
281
     0
  0
CLASS
  1
EXACXREFPANELOBJECT
  2
ExAcXREFPanelObject
  3
EXAC_ESW
 90
     1025
 91
        0
280
     0
281
     0
  0
CLASS
  1
NPOCOLLECTION
  2
AcDbImpNonPersistentObjectsCollection
  3
ObjectDBX Classes
 90
     1153
 91
        0
280
     0
281
     0
  0
CLASS
  1
ACDBSTDPARTRES_ARC
  2
AcDbStdPartRes_Arc
  3
AmgStdPart|Product Description: AutoCAD Mechanical|Company: Autodesk, Inc.
 90
     1024
 91
        0
280
     0
281
     0
  0
CLASS
  1
AMDTNOTE
  2
AmdtNote
  3
"AcmSymBB|Product Description: AutoCAD Mechanical|Company: Autodesk, Inc."
 90
     4095
 91
        0
280
     0
281
     1
  0
CLASS
  1
PLOTSETTINGS
  2
AcDbPlotSettings
  3
ObjectDBX Classes
 90
        0
 91
        1
280
     0
281
     0
  0
CLASS
  1
ACMSTANDARDANSI
  2
AcmStandardANSI
  3
"Amdt_StdImp|Product Description: AutoCAD Mechanical|Company: Autodesk, Inc."
 90
     1024
 91
        0
280
     0
281
     0
  0
CLASS
  1
ACMSURFSTANDARDANSI
  2
AcmSurfTextStdANSI
  3
"Amdt_StdImp|Product Description: AutoCAD Mechanical|Company: Autodesk, Inc."
 90
     1024
 91
        0
280
     0
281
     0
  0
CLASS
  1
ACMFCFSTANDARDANSI
  2
AcmFCFStdANSI
  3
"Amdt_StdImp|Product Description: AutoCAD Mechanical|Company: Autodesk, Inc."
 90
     1024
 91
        0
280
     0
281
     0
  0
CLASS
  1
ACMWELDSTANDARDANSI
  2
AcmWeldingStdANSI
  3
"Amdt_StdImp|Product Description: AutoCAD Mechanical|Company: Autodesk, Inc."
 90
     1024
 91
        0
280
     0
281
     0
  0
CLASS
  1
ACMIDSTANDARDANSI
  2
AcmIdStdANSI
  3
"Amdt_StdImp|Product Description: AutoCAD Mechanical|Company: Autodesk, Inc."
 90
     1024
 91
        0
280
     0
281
     0
  0
CLASS
  1
ACMDATUMSTANDARDANSI
  2
AcmDatumStdANSI
  3
"Amdt_StdImp|Product Description: AutoCAD Mechanical|Company: Autodesk, Inc."
 90
     1024
 91
        0
280
     0
281
     0
  0
CLASS
  1
ACMBOMSTANDARDANSI
  2
AcmBOMStdANSI
  3
"Amdt_StdImp|Product Description: AutoCAD Mechanical|Company: Autodesk, Inc."
 90
     1024
 91
        0
280
     0
281
     0
  0
CLASS
  1
ACMDETAILSTANDARDANSI
  2
AmdtDetailSymStdANSI
  3
"Amdt_StdImp|Product Description: AutoCAD Mechanical|Company: Autodesk, Inc."
 90
     1024
 91
        0
280
     0
281
     0
  0
CLASS
  1
ACMSECTIONSTANDARDANSI
  2
AmdtSectionSymStdANSI
  3
"Amdt_StdImp|Product Description: AutoCAD Mechanical|Company: Autodesk, Inc."
 90
     1024
 91
        0
280
     0
281
     0
  0
CLASS
  1
ACMCENTERLINESTANDARDANSI
  2
AmdtCenterLineStdANSI
  3
"Amdt_StdImp|Product Description: AutoCAD Mechanical|Company: Autodesk, Inc."
 90
     1024
 91
        0
280
     0
281
     0
  0
CLASS
  1
ACMTHREADLINESTANDARDANSI
  2
AmdtThreadLineStdANSI
  3
"Amdt_StdImp|Product Description: AutoCAD Mechanical|Company: Autodesk, Inc."
 90
     1024
 91
        0
280
     0
281
     0
  0
CLASS
  1
ACMNOTESTANDARDANSI
  2
AmdtNoteStdANSI
  3
"Amdt_StdImp|Product Description: AutoCAD Mechanical|Company: Autodesk, Inc."
 90
     1024
 91
        0
280
     0
281
     0
  0
CLASS
  1
ACMTAPERSTANDARDANSI
  2
AcmTaperStdANSI
  3
"Amdt_StdImp|Product Description: AutoCAD Mechanical|Company: Autodesk, Inc."
 90
     1024
 91
        0
280
     0
281
     0
  0
CLASS
  1
ACMANOOTATIONVIEWSTANDARDANSI
  2
AmdtAnViewStdANSI
  3
"Amdt_StdImp|Product Description: AutoCAD Mechanical|Company: Autodesk, Inc."
 90
     1024
 91
        0
280
     0
281
     0
  0
CLASS
  1
ACAMGHOLECHARTSTDANSI
  2
AcAmgHoleChartStdANSI
  3
AmgDim|Product Description: AutoCAD Mechanical|Company: Autodesk, Inc.
 90
     1024
 91
        0
280
     0
281
     0
  0
CLASS
  1
ACMSTANDARDBSI
  2
AcmStandardBSI
  3
"Amdt_StdImp|Product Description: AutoCAD Mechanical|Company: Autodesk, Inc."
 90
     1024
 91
        0
280
     0
281
     0
  0
CLASS
  1
ACMSURFSTANDARDBSI2002
  2
AcmSurfTextStdBSI2002
  3
"Amdt_StdImp|Product Description: AutoCAD Mechanical|Company: Autodesk, Inc."
 90
     1024
 91
        0
280
     0
281
     0
  0
CLASS
  1
ACMFCFSTANDARDBSI
  2
AcmFCFStdBSI
  3
"Amdt_StdImp|Product Description: AutoCAD Mechanical|Company: Autodesk, Inc."
 90
     1024
 91
        0
280
     0
281
     0
  0
CLASS
  1
ACMWELDSTANDARDBSI
  2
AcmWeldingStdBSI
  3
"Amdt_StdImp|Product Description: AutoCAD Mechanical|Company: Autodesk, Inc."
 90
     1024
 91
        0
280
     0
281
     0
  0
CLASS
  1
ACMIDSTANDARDBSI
  2
AcmIdStdBSI
  3
"Amdt_StdImp|Product Description: AutoCAD Mechanical|Company: Autodesk, Inc."
 90
     1024
 91
        0
280
     0
281
     0
  0
CLASS
  1
ACMDATUMSTANDARDBSI
  2
AcmDatumStdBSI
  3
"Amdt_StdImp|Product Description: AutoCAD Mechanical|Company: Autodesk, Inc."
 90
     1024
 91
        0
280
     0
281
     0
  0
CLASS
  1
ACMBOMSTANDARDBSI
  2
AcmBOMStdBSI
  3
"Amdt_StdImp|Product Description: AutoCAD Mechanical|Company: Autodesk, Inc."
 90
     1024
 91
        0
280
     0
281
     0
  0
CLASS
  1
ACMDETAILSTANDARDBSI
  2
AmdtDetailSymStdBSI
  3
"Amdt_StdImp|Product Description: AutoCAD Mechanical|Company: Autodesk, Inc."
 90
     1024
 91
        0
280
     0
281
     0
  0
CLASS
  1
ACMSECTIONSTANDARDBSI2001
  2
AmdtSectionSymStdBSI2001
  3
"Amdt_StdImp|Product Description: AutoCAD Mechanical|Company: Autodesk, Inc."
 90
     1024
 91
        0
280
     0
281
     0
  0
CLASS
  1
ACMCENTERLINESTANDARDBSI
  2
AmdtCenterLineStdBSI
  3
"Amdt_StdImp|Product Description: AutoCAD Mechanical|Company: Autodesk, Inc."
 90
     1024
 91
        0
280
     0
281
     0
  0
CLASS
  1
ACMTHREADLINESTANDARDBSI
  2
AmdtThreadLineStdBSI
  3
"Amdt_StdImp|Product Description: AutoCAD Mechanical|Company: Autodesk, Inc."
 90
     1024
 91
        0
280
     0
281
     0
  0
CLASS
  1
ACMNOTESTANDARDBSI
  2
AmdtNoteStdBSI
  3
"Amdt_StdImp|Product Description: AutoCAD Mechanical|Company: Autodesk, Inc."
 90
     1024
 91
        0
280
     0
281
     0
  0
CLASS
  1
ACMTAPERSTANDARDBSI
  2
AcmTaperStdBSI
  3
"Amdt_StdImp|Product Description: AutoCAD Mechanical|Company: Autodesk, Inc."
 90
     1024
 91
        0
280
     0
281
     0
  0
CLASS
  1
ACMANOOTATIONVIEWSTANDARDBSI
  2
AmdtAnViewStdBSI
  3
"Amdt_StdImp|Product Description: AutoCAD Mechanical|Company: Autodesk, Inc."
 90
     1024
 91
        0
280
     0
281
     0
  0
CLASS
  1
ACAMGHOLECHARTSTDBSI
  2
AcAmgHoleChartStdBSI
  3
AmgDim|Product Description: AutoCAD Mechanical|Company: Autodesk, Inc.
 90
     1024
 91
        0
280
     0
281
     0
  0
CLASS
  1
AMDTEDGESTANDARDJIS
  2
AmdtEdgeStdJIS
  3
"Amdt_StdImp|Product Description: AutoCAD Mechanical|Company: Autodesk, Inc."
 90
     1024
 91
        0
280
     0
281
     0
  0
CLASS
  1
ACMSURFSYM
  2
AcmSurfaceTexture
  3
"AcmSymBB|Product Description: AutoCAD Mechanical|Company: Autodesk, Inc."
 90
     4095
 91
        0
280
     0
281
     1
  0
CLASS
  1
ACDBDIMENSIONRES
  2
AcDbDimensionRes
  3
AcmSymBB|Product Description: AutoCAD Mechanical|Company: Autodesk, Inc.
 90
     1024
 91
        0
280
     0
281
     0
  0
CLASS
  1
ACDBCIRCARCRES
  2
AcDbCircArcRes
  3
AcGrefServices
 90
     1024
 91
        0
280
     0
281
     0
  0
CLASS
  1
AMDTACMWBLOCKBOMENTITY
  2
AmdtAcmWblockBomEntity
  3
"AcmSymBB|Product Description: AutoCAD Mechanical|Company: Autodesk, Inc."
 90
     4095
 91
        0
280
     0
281
     1
  0
CLASS
  1
ACDBOPPOLYLINERES
  2
AcDbOpPolylineRes
  3
AcGrefServices
 90
     1024
 91
        0
280
     0
281
     0
  0
CLASS
  1
ACDB_BLKREFOBJECTCONTEXTDATA_CLASS
  2
AcDbBlkRefObjectContextData
  3
ObjectDBX Classes
 90
     1153
 91
        0
280
     0
281
     0
  0
CLASS
  1
ACMPICKOBJ
  2
AcmPickEnt
  3
"AcmSymBB|Product Description: AutoCAD Mechanical|Company: Autodesk, Inc."
 90
     1024
 91
        0
280
     0
281
     1
  0
CLASS
  1
ACMBALLOON
  2
AcmBalloon
  3
"AcmSymBB|Product Description: AutoCAD Mechanical|Company: Autodesk, Inc."
 90
     4095
 91
        0
280
     0
281
     1
  0
ENDSEC
  0
SECTION
  2
TABLES
  0
TABLE
  2
VPORT
  5
8
330
0
100
AcDbSymbolTable
 70
     1
  0
VPORT
  5
27A
330
8
100
AcDbSymbolTableRecord
100
AcDbViewportTableRecord
  2
*Active
 70
     0
 10
0.0
 20
0.0
 11
1.0
 21
1.0
 12
853.2659959036713
 22
808.2210433113019
 13
0.0
 23
0.0
 14
10.0
 24
10.0
 15
40.0
 25
40.0
 16
0.0
 26
0.0
 36
1.0
 17
0.0
 27
0.0
 37
0.0
 40
569.7099754481029
 41
1.285714285714285
 42
50.0
 43
0.0
 44
0.0
 50
0.0
 51
0.0
 71
    16
 72
 20000
 73
     1
 74
     3
 75
     0
 76
     0
 77
     0
 78
     0
281
     0
 65
     0
110
0.0
120
0.0
130
0.0
111
1.0
121
0.0
131
0.0
112
0.0
122
1.0
132
0.0
 79
     0
146
0.0
348
285
 60
     3
 61
     5
292
     1
282
     0
141
0.0
142
0.0
 63
   250
421
  3355443
  0
ENDTAB
  0
TABLE
  2
LTYPE
  5
5
330
0
100
AcDbSymbolTable
 70
    22
  0
LTYPE
  5
14
330
5
100
AcDbSymbolTableRecord
100
AcDbLinetypeTableRecord
  2
ByBlock
 70
     0
  3

 72
    65
 73
     0
 40
0.0
  0
LTYPE
  5
15
330
5
100
AcDbSymbolTableRecord
100
AcDbLinetypeTableRecord
  2
ByLayer
 70
     0
  3

 72
    65
 73
     0
 40
0.0
  0
LTYPE
  5
16
330
5
100
AcDbSymbolTableRecord
100
AcDbLinetypeTableRecord
  2
Continuous
 70
     0
  3
Solid line
 72
    65
 73
     0
 40
0.0
  0
LTYPE
  5
4D
330
5
100
AcDbSymbolTableRecord
100
AcDbLinetypeTableRecord
  2
AM_ISO02W050
 70
     0
  3
__ __ __ __ __ __ __ __ __ __ __ __ __ __ __
 72
    65
 73
     2
 40
7.5
 49
6.0
 74
     0
 49
-1.5
 74
     0
  0
LTYPE
  5
4E
330
5
100
AcDbSymbolTableRecord
100
AcDbLinetypeTableRecord
  2
AM_ISO08W050
 70
     0
  3
____ . ____ . ____ . ____ . ____ . ____ . ____
 72
    65
 73
     4
 40
18.0
 49
12.0
 74
     0
 49
-1.5
 74
     0
 49
3.0
 74
     0
 49
-1.5
 74
     0
  0
LTYPE
  5
4F
330
5
100
AcDbSymbolTableRecord
100
AcDbLinetypeTableRecord
  2
AM_ISO09W050
 70
     0
  3
_____ . . _____ . . _____ . . ____ .. ____
 72
    65
 73
     6
 40
22.5
 49
12.0
 74
     0
 49
-1.5
 74
     0
 49
3.0
 74
     0
 49
-1.5
 74
     0
 49
3.0
 74
     0
 49
-1.5
 74
     0
  0
LTYPE
  5
50
330
5
100
AcDbSymbolTableRecord
100
AcDbLinetypeTableRecord
  2
Amconstr
 70
     0
  3
_______________________
 72
    65
 73
     2
 40
9999.0
 49
9999.0
 74
     0
 49
0.0
 74
     0
  0
LTYPE
  5
51
330
5
100
AcDbSymbolTableRecord
100
AcDbLinetypeTableRecord
  2
AM_ISO08W050x2
 70
     0
  3
__ . __ . __ . __ . __ . __
 72
    65
 73
     4
 40
9.0
 49
6.0
 74
     0
 49
-0.75
 74
     0
 49
1.5
 74
     0
 49
-0.75
 74
     0
  0
LTYPE
  5
52
330
5
100
AcDbSymbolTableRecord
100
AcDbLinetypeTableRecord
  2
AM_ISO02W050x2
 70
     0
  3
 _ _ _ _ _ _ _ _ _ _ _ _
 72
    65
 73
     2
 40
3.75
 49
3.0
 74
     0
 49
-0.75
 74
     0
  0
LTYPE
  5
55
330
5
100
AcDbSymbolTableRecord
100
AcDbLinetypeTableRecord
  2
Amzigzag
 70
     0
  3
/\/-/\/-/\/-/\/-/\/-/\/
 72
    65
 73
     2
 40
11.0001
 49
0.0001
 74
     4
 75
   136
340
23D
 46
0.04
 50
0.0
 44
0.0
 45
0.0
 49
-11.0
 74
     0
  0
LTYPE
  5
65
330
5
100
AcDbSymbolTableRecord
100
AcDbLinetypeTableRecord
  2
CENTER
 70
     0
  3
__ . __
 72
    65
 73
     4
 40
7.0
 49
4.0
 74
     0
 49
-1.0
 74
     0
 49
1.0
 74
     0
 49
-1.0
 74
     0
  0
LTYPE
  5
E0
330
5
100
AcDbSymbolTableRecord
100
AcDbLinetypeTableRecord
  2
HIDDEN
 70
     0
  3
Hidden __ __ __ __ __ __ __ __ __ __ __ __ __ _
 72
    65
 73
     2
 40
9.524999999999996
 49
6.349999999999998
 74
     0
 49
-3.174999999999998
 74
     0
  0
LTYPE
  5
E1
330
5
100
AcDbSymbolTableRecord
100
AcDbLinetypeTableRecord
  2
PHANTOM2
 70
     0
  3
Phantom (.5x) ___ _ _ ___ _ _ ___ _ _ ___ _ _
 72
    65
 73
     6
 40
31.75
 49
15.875
 74
     0
 49
-3.174999999999998
 74
     0
 49
3.174999999999998
 74
     0
 49
-3.174999999999998
 74
     0
 49
3.174999999999998
 74
     0
 49
-3.174999999999998
 74
     0
  0
LTYPE
  5
5A2
330
5
100
AcDbSymbolTableRecord
100
AcDbLinetypeTableRecord
  2
ACJISWELD
 70
     0
  3
_ _ _ _ _
 72
    65
 73
     2
 40
2.0
 49
2.0
 74
     0
 49
-1.0
 74
     0
  0
LTYPE
  5
7F94
330
5
100
AcDbSymbolTableRecord
100
AcDbLinetypeTableRecord
  2
ACISOWELD
 70
     0
  3
_ _ _ _ _
 72
    65
 73
     2
 40
2.0
 49
2.0
 74
     0
 49
-1.0
 74
     0
  0
LTYPE
  5
7F95
330
5
100
AcDbSymbolTableRecord
100
AcDbLinetypeTableRecord
  2
ACISOTGB
 70
     0
  3
__ . . __ . .
 72
    65
 73
     6
 40
9.0
 49
4.0
 74
     0
 49
-1.0
 74
     0
 49
1.0
 74
     0
 49
-1.0
 74
     0
 49
1.0
 74
     0
 49
-1.0
 74
     0
  0
LTYPE
  5
7F96
330
5
100
AcDbSymbolTableRecord
100
AcDbLinetypeTableRecord
  2
ACISOTGL
 70
     0
  3
_ _ _ _ _
 72
    65
 73
     2
 40
3.0
 49
2.0
 74
     0
 49
-1.0
 74
     0
  0
ENDTAB
  0
TABLE
  2
LAYER
  5
2
102
{ACAD_XDICTIONARY
360
BF
102
}
330
0
100
AcDbSymbolTable
 70
    10
  0
LAYER
  5
10
102
{ACAD_XDICTIONARY
360
29D8
102
}
330
2
100
AcDbSymbolTableRecord
100
AcDbLayerTableRecord
  2
0
 70
     0
 62
     7
  6
Continuous
370
    -3
390
F
347
27E
  0
LAYER
  5
81
102
{ACAD_XDICTIONARY
360
29DA
102
}
330
2
100
AcDbSymbolTableRecord
100
AcDbLayerTableRecord
  2
AM_0 外形線1
 70
     0
 62
     7
  6
Continuous
370
    25
390
F
347
27E
  0
LAYER
  5
427
330
2
100
AcDbSymbolTableRecord
100
AcDbLayerTableRecord
  2
Defpoints
 70
     0
 62
     7
  6
Continuous
290
     0
370
    -3
390
F
347
27E
  0
LAYER
  5
25C9
102
{ACAD_XDICTIONARY
360
29E1
102
}
330
2
100
AcDbSymbolTableRecord
100
AcDbLayerTableRecord
  2
AM_3 隠れ線
 70
     0
 62
     8
  6
ACJISWELD
370
    13
390
F
347
27E
1001
AcAecLayerStandard
1000

1000

  0
LAYER
  5
25CA
102
{ACAD_XDICTIONARY
360
29E3
102
}
330
2
100
AcDbSymbolTableRecord
100
AcDbLayerTableRecord
  2
AM_4 細線
 70
     0
 62
     4
  6
Continuous
370
    13
390
F
347
27E
1001
AcAecLayerStandard
1000

1000

  0
LAYER
  5
26B3
102
{ACAD_XDICTIONARY
360
29E9
102
}
330
2
100
AcDbSymbolTableRecord
100
AcDbLayerTableRecord
  2
AM_5 寸法線
 70
     0
 62
     3
  6
Continuous
370
    13
390
F
347
27E
1001
AcAecLayerStandard
1000

1000

  0
LAYER
  5
2CD0
330
2
100
AcDbSymbolTableRecord
100
AcDbLayerTableRecord
  2
AM_7 中心線
 70
     0
 62
     1
  6
AM_ISO08W050
370
    13
390
F
347
27E
1001
AcAecLayerStandard
1000

1000

  0
LAYER
  5
2CD3
330
2
100
AcDbSymbolTableRecord
100
AcDbLayerTableRecord
  2
AM_6 文字
 70
     0
 62
     2
  6
Continuous
370
    13
390
F
347
27E
1001
AcAecLayerStandard
1000

1000

  0
LAYER
  5
7AF3
330
2
100
AcDbSymbolTableRecord
100
AcDbLayerTableRecord
  2
AM_11 想像線
 70
     0
 62
     5
  6
AM_ISO09W050
370
    13
390
F
347
27E
1001
AcAecLayerStandard
1000

1000

  0
ENDTAB
  0
TABLE
  2
STYLE
  5
3
330
0
100
AcDbSymbolTable
 70
    10
  0
STYLE
  5
11
330
3
100
AcDbSymbolTableRecord
100
AcDbTextStyleTableRecord
  2
STANDARD
 70
     0
 40
0.0
 41
1.0
 50
0.0
 71
     0
 42
25.0
  3
ISOCP.SHX
  4
EXTFONT.SHX
  0
STYLE
  5
23D
330
3
100
AcDbSymbolTableRecord
100
AcDbTextStyleTableRecord
  2

 70
     1
 40
0.0
 41
1.0
 50
0.0
 71
     0
 42
2.5
  3
genltshp.shx
  4

  0
STYLE
  5
5D5
330
3
100
AcDbSymbolTableRecord
100
AcDbTextStyleTableRecord
  2
SEISA
 70
     0
 40
0.0
 41
0.9
 50
0.0
 71
     0
 42
25.0
  3
romans.shx
  4
extfont2.shx
  0
STYLE
  5
7F84
330
3
100
AcDbSymbolTableRecord
100
AcDbTextStyleTableRecord
  2
ACISOTS
 70
     0
 40
1.0
 41
1.0
 50
0.0
 71
     0
 42
25.0
  3
isocp.shx
  4
extfont.shx
  0
STYLE
  5
7F93
330
3
100
AcDbSymbolTableRecord
100
AcDbTextStyleTableRecord
  2
ACISOGDT
 70
     0
 40
0.0
 41
1.0
 50
0.0
 71
     0
 42
25.0
  3
amgdt.shx
  4

  0
ENDTAB
  0
TABLE
  2
VIEW
  5
6
330
0
100
AcDbSymbolTable
 70
     6
  0
VIEW
  5
91B
330
6
100
AcDbSymbolTableRecord
100
AcDbViewTableRecord
  2
AM_VIEW1
 70
     0
 40
594.0000000000001
 10
584.4901485489867
 20
891.0000014775285
 41
1168.980295566503
 11
0.0
 21
0.0
 31
1.0
 12
0.0
 22
0.0
 32
0.0
 42
50.0
 43
0.0
 44
0.0
 50
0.0
 71
    16
281
     0
 72
     0
 73
     0
  0
VIEW
  5
91C
330
6
100
AcDbSymbolTableRecord
100
AcDbViewTableRecord
  2
AM_VIEW2
 70
     0
 40
594.0000000000001
 10
1095.509852982484
 20
891.0000014775285
 41
1168.980295566503
 11
0.0
 21
0.0
 31
1.0
 12
0.0
 22
0.0
 32
0.0
 42
50.0
 43
0.0
 44
0.0
 50
0.0
 71
    16
281
     0
 72
     0
 73
     0
  0
VIEW
  5
91D
330
6
100
AcDbSymbolTableRecord
100
AcDbViewTableRecord
  2
AM_VIEW3
 70
     0
 40
594.0000000000001
 10
584.4901485489867
 20
297.0000014775283
 41
1168.980295566503
 11
0.0
 21
0.0
 31
1.0
 12
0.0
 22
0.0
 32
0.0
 42
50.0
 43
0.0
 44
0.0
 50
0.0
 71
    16
281
     0
 72
     0
 73
     0
  0
VIEW
  5
91E
330
6
100
AcDbSymbolTableRecord
100
AcDbViewTableRecord
  2
AM_VIEW4
 70
     0
 40
594.0000000000001
 10
1095.509852982484
 20
297.0000014775283
 41
1168.980295566503
 11
0.0
 21
0.0
 31
1.0
 12
0.0
 22
0.0
 32
0.0
 42
50.0
 43
0.0
 44
0.0
 50
0.0
 71
    16
281
     0
 72
     0
 73
     0
  0
VIEW
  5
91F
330
6
100
AcDbSymbolTableRecord
100
AcDbViewTableRecord
  2
AM_VIEW5
 70
     0
 40
594.0000000000002
 10
840.0000007657352
 20
594.0000014775282
 41
1168.980295566503
 11
0.0
 21
0.0
 31
1.0
 12
0.0
 22
0.0
 32
0.0
 42
50.0
 43
0.0
 44
0.0
 50
0.0
 71
    16
281
     0
 72
     0
 73
     0
  0
VIEW
  5
920
330
6
100
AcDbSymbolTableRecord
100
AcDbViewTableRecord
  2
AM_VIEW6
 70
     0
 40
1187.98812
 10
840.0000007657352
 20
594.0000014775282
 41
2337.937211527094
 11
0.0
 21
0.0
 31
1.0
 12
0.0
 22
0.0
 32
0.0
 42
50.0
 43
0.0
 44
0.0
 50
0.0
 71
    16
281
     0
 72
     0
 73
     0
  0
ENDTAB
  0
TABLE
  2
UCS
  5
7
330
0
100
AcDbSymbolTable
 70
     0
  0
ENDTAB
  0
TABLE
  2
APPID
  5
9
330
0
100
AcDbSymbolTable
 70
   394
  0
APPID
  5
12
330
9
100
AcDbSymbolTableRecord
100
AcDbRegAppTableRecord
  2
ACAD
 70
     0
  0
APPID
  5
30
330
9
100
AcDbSymbolTableRecord
100
AcDbRegAppTableRecord
  2
MCAD_NO_VIS
 70
     0
  0
APPID
  5
31
330
9
100
AcDbSymbolTableRecord
100
AcDbRegAppTableRecord
  2
ACAD_TEMP_GRAPHIC
 70
     0
  0
APPID
  5
44
330
9
100
AcDbSymbolTableRecord
100
AcDbRegAppTableRecord
  2
ACATTRIBSERVICES
 70
     0
  0
APPID
  5
F6
330
9
100
AcDbSymbolTableRecord
100
AcDbRegAppTableRecord
  2
AD_DRAW
 70
     0
  0
APPID
  5
114
330
9
100
AcDbSymbolTableRecord
100
AcDbRegAppTableRecord
  2
DESIGNERASSEMBLIES
 70
     0
  0
APPID
  5
118
330
9
100
AcDbSymbolTableRecord
100
AcDbRegAppTableRecord
  2
ACADM_DIM_EDIT
 70
     0
  0
APPID
  5
119
330
9
100
AcDbSymbolTableRecord
100
AcDbRegAppTableRecord
  2
AMDT_DM_ADJ
 70
     0
  0
APPID
  5
1AF
330
9
100
AcDbSymbolTableRecord
100
AcDbRegAppTableRecord
  2
ACAD_DSTYLE_DIMARC_LENGTH_SYMBOL
 70
     0
  0
APPID
  5
1B0
330
9
100
AcDbSymbolTableRecord
100
AcDbRegAppTableRecord
  2
ACAD_DSTYLE_DIMJOGGED_JOGANGLE_SYMBOL
 70
     0
  0
APPID
  5
2D7
330
9
100
AcDbSymbolTableRecord
100
AcDbRegAppTableRecord
  2
ACAD_MLEADERVER
 70
     0
  0
APPID
  5
355
330
9
100
AcDbSymbolTableRecord
100
AcDbRegAppTableRecord
  2
AcadAnnoPO
 70
     0
  0
APPID
  5
428
330
9
100
AcDbSymbolTableRecord
100
AcDbRegAppTableRecord
  2
ACAD_DSTYLE_DIMTEXT_FILL
 70
     0
  0
APPID
  5
429
330
9
100
AcDbSymbolTableRecord
100
AcDbRegAppTableRecord
  2
GENIUS_GENSCREG_15
 70
     0
  0
APPID
  5
42A
330
9
100
AcDbSymbolTableRecord
100
AcDbRegAppTableRecord
  2
GENIUS_GENOBJ-N-SDF_13
 70
     0
  0
APPID
  5
42B
330
9
100
AcDbSymbolTableRecord
100
AcDbRegAppTableRecord
  2
GENIUS_GENODEF_13
 70
     0
  0
APPID
  5
42C
330
9
100
AcDbSymbolTableRecord
100
AcDbRegAppTableRecord
  2
ACAD_EXEMPT_FROM_CAD_STANDARDS
 70
     0
  0
APPID
  5
42D
330
9
100
AcDbSymbolTableRecord
100
AcDbRegAppTableRecord
  2
AcAecLayerStandard
 70
     0
  0
APPID
  5
42E
330
9
100
AcDbSymbolTableRecord
100
AcDbRegAppTableRecord
  2
GENIUS_GENOBJ-N-CEN_13
 70
     0
  0
APPID
  5
42F
330
9
100
AcDbSymbolTableRecord
100
AcDbRegAppTableRecord
  2
GENIUS_GENCEN_19
 70
     0
  0
APPID
  5
430
330
9
100
AcDbSymbolTableRecord
100
AcDbRegAppTableRecord
  2
ACAD_DSTYLE_DIMINSPECT
 70
     0
  0
APPID
  5
431
330
9
100
AcDbSymbolTableRecord
100
AcDbRegAppTableRecord
  2
GENIUS_AMGTXT_16
 70
     0
  0
APPID
  5
432
330
9
100
AcDbSymbolTableRecord
100
AcDbRegAppTableRecord
  2
GENIUS_GENFIL_13
 70
     0
  0
APPID
  5
433
330
9
100
AcDbSymbolTableRecord
100
AcDbRegAppTableRecord
  2
GENIUS_GENOLIS_13
 70
     0
  0
APPID
  5
434
330
9
100
AcDbSymbolTableRecord
100
AcDbRegAppTableRecord
  2
GENIUS_GENOBJ-N-CHA_13
 70
     0
  0
APPID
  5
435
330
9
100
AcDbSymbolTableRecord
100
AcDbRegAppTableRecord
  2
GENIUS_GENOENT_13
 70
     0
  0
APPID
  5
436
330
9
100
AcDbSymbolTableRecord
100
AcDbRegAppTableRecord
  2
GENIUS_GENOREF_13
 70
     0
  0
APPID
  5
437
330
9
100
AcDbSymbolTableRecord
100
AcDbRegAppTableRecord
  2
GENIUS_GENOBJ-N-FIL_13
 70
     0
  0
APPID
  5
438
330
9
100
AcDbSymbolTableRecord
100
AcDbRegAppTableRecord
  2
GEVID1208829536
 70
     0
  0
APPID
  5
439
330
9
100
AcDbSymbolTableRecord
100
AcDbRegAppTableRecord
  2
GEVDC
 70
     0
  0
APPID
  5
43A
330
9
100
AcDbSymbolTableRecord
100
AcDbRegAppTableRecord
  2
GEVRADREF
 70
     0
  0
APPID
  5
43B
330
9
100
AcDbSymbolTableRecord
100
AcDbRegAppTableRecord
  2
GENIUS_GENBH_13
 70
     0
  0
APPID
  5
43C
330
9
100
AcDbSymbolTableRecord
100
AcDbRegAppTableRecord
  2
GENIUS_GENOBJ-NBEHI-BHF_13
 70
     0
  0
APPID
  5
43D
330
9
100
AcDbSymbolTableRecord
100
AcDbRegAppTableRecord
  2
GENIUS_GENOBJ-NBEHI-BHB_13
 70
     0
  0
APPID
  5
43E
330
9
100
AcDbSymbolTableRecord
100
AcDbRegAppTableRecord
  2
GEVID1208829537
 70
     0
  0
APPID
  5
43F
330
9
100
AcDbSymbolTableRecord
100
AcDbRegAppTableRecord
  2
ACAD_DSTYLE_DIMJAG
 70
     0
  0
APPID
  5
440
330
9
100
AcDbSymbolTableRecord
100
AcDbRegAppTableRecord
  2
ACAD_DSTYLE_DIMTALN
 70
     0
  0
APPID
  5
441
330
9
100
AcDbSymbolTableRecord
100
AcDbRegAppTableRecord
  2
AMG_2DHIDE
 70
     0
  0
APPID
  5
442
330
9
100
AcDbSymbolTableRecord
100
AcDbRegAppTableRecord
  2
AMG_2DSTRUCT_BTR
 70
     0
  0
APPID
  5
443
330
9
100
AcDbSymbolTableRecord
100
AcDbRegAppTableRecord
  2
GEVID1208845772
 70
     0
  0
APPID
  5
444
330
9
100
AcDbSymbolTableRecord
100
AcDbRegAppTableRecord
  2
GEVID1208845773
 70
     0
  0
APPID
  5
445
330
9
100
AcDbSymbolTableRecord
100
AcDbRegAppTableRecord
  2
ACADM_2DVIEW_IGN_NOTIFY
 70
     0
  0
APPID
  5
446
330
9
100
AcDbSymbolTableRecord
100
AcDbRegAppTableRecord
  2
GEVID1208845774
 70
     0
  0
APPID
  5
447
330
9
100
AcDbSymbolTableRecord
100
AcDbRegAppTableRecord
  2
GEVID1208845775
 70
     0
  0
APPID
  5
448
330
9
100
AcDbSymbolTableRecord
100
AcDbRegAppTableRecord
  2
GEVID1208845776
 70
     0
  0
APPID
  5
449
330
9
100
AcDbSymbolTableRecord
100
AcDbRegAppTableRecord
  2
GEVID1208845777
 70
     0
  0
APPID
  5
44A
330
9
100
AcDbSymbolTableRecord
100
AcDbRegAppTableRecord
  2
GEVCON
 70
     0
  0
APPID
  5
44B
330
9
100
AcDbSymbolTableRecord
100
AcDbRegAppTableRecord
  2
GENIUS_GENOBJ-F-SCPASSM_13
 70
     0
  0
APPID
  5
44C
330
9
100
AcDbSymbolTableRecord
100
AcDbRegAppTableRecord
  2
GEVID1208845778
 70
     0
  0
APPID
  5
44D
330
9
100
AcDbSymbolTableRecord
100
AcDbRegAppTableRecord
  2
GEVID1208845779
 70
     0
  0
APPID
  5
44E
330
9
100
AcDbSymbolTableRecord
100
AcDbRegAppTableRecord
  2
GEVID1208845780
 70
     0
  0
APPID
  5
44F
330
9
100
AcDbSymbolTableRecord
100
AcDbRegAppTableRecord
  2
GEVID1208845781
 70
     0
  0
APPID
  5
450
330
9
100
AcDbSymbolTableRecord
100
AcDbRegAppTableRecord
  2
GEVID1208845782
 70
     0
  0
APPID
  5
451
330
9
100
AcDbSymbolTableRecord
100
AcDbRegAppTableRecord
  2
GEVID1208845783
 70
     0
  0
APPID
  5
452
330
9
100
AcDbSymbolTableRecord
100
AcDbRegAppTableRecord
  2
GEVID1208845784
 70
     0
  0
APPID
  5
453
330
9
100
AcDbSymbolTableRecord
100
AcDbRegAppTableRecord
  2
GEVID1208845785
 70
     0
  0
APPID
  5
454
330
9
100
AcDbSymbolTableRecord
100
AcDbRegAppTableRecord
  2
GEVID1208845787
 70
     0
  0
APPID
  5
455
330
9
100
AcDbSymbolTableRecord
100
AcDbRegAppTableRecord
  2
GEVID1208845788
 70
     0
  0
APPID
  5
456
330
9
100
AcDbSymbolTableRecord
100
AcDbRegAppTableRecord
  2
GEVID1208845789
 70
     0
  0
APPID
  5
457
330
9
100
AcDbSymbolTableRecord
100
AcDbRegAppTableRecord
  2
GEVID1208845790
 70
     0
  0
APPID
  5
458
330
9
100
AcDbSymbolTableRecord
100
AcDbRegAppTableRecord
  2
GEVID1208845791
 70
     0
  0
APPID
  5
459
330
9
100
AcDbSymbolTableRecord
100
AcDbRegAppTableRecord
  2
GEVID1208845792
 70
     0
  0
APPID
  5
45A
330
9
100
AcDbSymbolTableRecord
100
AcDbRegAppTableRecord
  2
GEVID1208845793
 70
     0
  0
APPID
  5
45B
330
9
100
AcDbSymbolTableRecord
100
AcDbRegAppTableRecord
  2
GEVID1208845794
 70
     0
  0
APPID
  5
45C
330
9
100
AcDbSymbolTableRecord
100
AcDbRegAppTableRecord
  2
GEVID1208845795
 70
     0
  0
APPID
  5
45D
330
9
100
AcDbSymbolTableRecord
100
AcDbRegAppTableRecord
  2
GEVID1208845796
 70
     0
  0
APPID
  5
45E
330
9
100
AcDbSymbolTableRecord
100
AcDbRegAppTableRecord
  2
GEVID1208845797
 70
     0
  0
APPID
  5
45F
330
9
100
AcDbSymbolTableRecord
100
AcDbRegAppTableRecord
  2
GEVID1208845798
 70
     0
  0
APPID
  5
460
330
9
100
AcDbSymbolTableRecord
100
AcDbRegAppTableRecord
  2
GEVID1208845799
 70
     0
  0
APPID
  5
461
330
9
100
AcDbSymbolTableRecord
100
AcDbRegAppTableRecord
  2
GEVID1208845800
 70
     0
  0
APPID
  5
462
330
9
100
AcDbSymbolTableRecord
100
AcDbRegAppTableRecord
  2
GEVID1208845801
 70
     0
  0
APPID
  5
463
330
9
100
AcDbSymbolTableRecord
100
AcDbRegAppTableRecord
  2
GEVID1208845802
 70
     0
  0
APPID
  5
464
330
9
100
AcDbSymbolTableRecord
100
AcDbRegAppTableRecord
  2
GENIUS_GENOBJ-N-DIM_13
 70
     0
  0
APPID
  5
465
330
9
100
AcDbSymbolTableRecord
100
AcDbRegAppTableRecord
  2
GENIUS_GENDIM_13
 70
     0
  0
APPID
  5
466
330
9
100
AcDbSymbolTableRecord
100
AcDbRegAppTableRecord
  2
GENIUS_GENDIMSH_14
 70
     0
  0
APPID
  5
467
330
9
100
AcDbSymbolTableRecord
100
AcDbRegAppTableRecord
  2
GEVID1208845803
 70
     0
  0
APPID
  5
468
330
9
100
AcDbSymbolTableRecord
100
AcDbRegAppTableRecord
  2
GEVID1208845804
 70
     0
  0
APPID
  5
469
330
9
100
AcDbSymbolTableRecord
100
AcDbRegAppTableRecord
  2
GEVID1208845805
 70
     0
  0
APPID
  5
46A
330
9
100
AcDbSymbolTableRecord
100
AcDbRegAppTableRecord
  2
GEVID1208845806
 70
     0
  0
APPID
  5
46B
330
9
100
AcDbSymbolTableRecord
100
AcDbRegAppTableRecord
  2
GEVID1208845807
 70
     0
  0
APPID
  5
46C
330
9
100
AcDbSymbolTableRecord
100
AcDbRegAppTableRecord
  2
GEVID1208845808
 70
     0
  0
APPID
  5
46D
330
9
100
AcDbSymbolTableRecord
100
AcDbRegAppTableRecord
  2
GEVID1208845809
 70
     0
  0
APPID
  5
46E
330
9
100
AcDbSymbolTableRecord
100
AcDbRegAppTableRecord
  2
GEVID1208845810
 70
     0
  0
APPID
  5
46F
330
9
100
AcDbSymbolTableRecord
100
AcDbRegAppTableRecord
  2
GEVID1208845811
 70
     0
  0
APPID
  5
470
330
9
100
AcDbSymbolTableRecord
100
AcDbRegAppTableRecord
  2
GEVID1208845813
 70
     0
  0
APPID
  5
471
330
9
100
AcDbSymbolTableRecord
100
AcDbRegAppTableRecord
  2
GEVID1208845814
 70
     0
  0
APPID
  5
472
330
9
100
AcDbSymbolTableRecord
100
AcDbRegAppTableRecord
  2
GEVID1208845815
 70
     0
  0
APPID
  5
473
330
9
100
AcDbSymbolTableRecord
100
AcDbRegAppTableRecord
  2
GEVID1208845816
 70
     0
  0
APPID
  5
474
330
9
100
AcDbSymbolTableRecord
100
AcDbRegAppTableRecord
  2
GEVID1208845817
 70
     0
  0
APPID
  5
475
330
9
100
AcDbSymbolTableRecord
100
AcDbRegAppTableRecord
  2
GEVID1208845818
 70
     0
  0
APPID
  5
476
330
9
100
AcDbSymbolTableRecord
100
AcDbRegAppTableRecord
  2
GEVID1208845819
 70
     0
  0
APPID
  5
477
330
9
100
AcDbSymbolTableRecord
100
AcDbRegAppTableRecord
  2
GEVID1208845820
 70
     0
  0
APPID
  5
478
330
9
100
AcDbSymbolTableRecord
100
AcDbRegAppTableRecord
  2
GENIUS_GENOBJ-F-SHCL_13
 70
     0
  0
APPID
  5
479
330
9
100
AcDbSymbolTableRecord
100
AcDbRegAppTableRecord
  2
GENIUS_GEFMSH_13
 70
     0
  0
APPID
  5
47A
330
9
100
AcDbSymbolTableRecord
100
AcDbRegAppTableRecord
  2
GENIUS_GENOBJ-F-SHCA_13
 70
     0
  0
APPID
  5
47B
330
9
100
AcDbSymbolTableRecord
100
AcDbRegAppTableRecord
  2
GENIUS_GEFSH_13
 70
     0
  0
APPID
  5
47C
330
9
100
AcDbSymbolTableRecord
100
AcDbRegAppTableRecord
  2
GENIUS_GEFSHP_13
 70
     0
  0
APPID
  5
47D
330
9
100
AcDbSymbolTableRecord
100
AcDbRegAppTableRecord
  2
GENIUS_GEFSHP0_13
 70
     0
  0
APPID
  5
47E
330
9
100
AcDbSymbolTableRecord
100
AcDbRegAppTableRecord
  2
GENIUS_GEFSH0_13
 70
     0
  0
APPID
  5
47F
330
9
100
AcDbSymbolTableRecord
100
AcDbRegAppTableRecord
  2
GENIUS_GEFSHP1_13
 70
     0
  0
APPID
  5
480
330
9
100
AcDbSymbolTableRecord
100
AcDbRegAppTableRecord
  2
GENIUS_GEFSH1_13
 70
     0
  0
APPID
  5
481
330
9
100
AcDbSymbolTableRecord
100
AcDbRegAppTableRecord
  2
GEVID1208866337
 70
     0
  0
APPID
  5
482
330
9
100
AcDbSymbolTableRecord
100
AcDbRegAppTableRecord
  2
GEVID1208866338
 70
     0
  0
APPID
  5
483
330
9
100
AcDbSymbolTableRecord
100
AcDbRegAppTableRecord
  2
GEVID1208866339
 70
     0
  0
APPID
  5
484
330
9
100
AcDbSymbolTableRecord
100
AcDbRegAppTableRecord
  2
GEVID1208866340
 70
     0
  0
APPID
  5
485
330
9
100
AcDbSymbolTableRecord
100
AcDbRegAppTableRecord
  2
GEVID1208866341
 70
     0
  0
APPID
  5
486
330
9
100
AcDbSymbolTableRecord
100
AcDbRegAppTableRecord
  2
ACAD_PSEXT
 70
     0
  0
APPID
  5
487
330
9
100
AcDbSymbolTableRecord
100
AcDbRegAppTableRecord
  2
GEVID1208866342
 70
     0
  0
APPID
  5
488
330
9
100
AcDbSymbolTableRecord
100
AcDbRegAppTableRecord
  2
GEVID1208913836
 70
     0
  0
APPID
  5
489
330
9
100
AcDbSymbolTableRecord
100
AcDbRegAppTableRecord
  2
GEVID1208913837
 70
     0
  0
APPID
  5
48A
330
9
100
AcDbSymbolTableRecord
100
AcDbRegAppTableRecord
  2
GEVID1208913838
 70
     0
  0
APPID
  5
48B
330
9
100
AcDbSymbolTableRecord
100
AcDbRegAppTableRecord
  2
GEVID1208913839
 70
     0
  0
APPID
  5
48C
330
9
100
AcDbSymbolTableRecord
100
AcDbRegAppTableRecord
  2
GENIUS_GENDTOL_13
 70
     0
  0
APPID
  5
48D
330
9
100
AcDbSymbolTableRecord
100
AcDbRegAppTableRecord
  2
GEVID1208928889
 70
     0
  0
APPID
  5
48E
330
9
100
AcDbSymbolTableRecord
100
AcDbRegAppTableRecord
  2
GEVID1208928890
 70
     0
  0
APPID
  5
48F
330
9
100
AcDbSymbolTableRecord
100
AcDbRegAppTableRecord
  2
GEVID1208928891
 70
     0
  0
APPID
  5
490
330
9
100
AcDbSymbolTableRecord
100
AcDbRegAppTableRecord
  2
GEVID1208928892
 70
     0
  0
APPID
  5
491
330
9
100
AcDbSymbolTableRecord
100
AcDbRegAppTableRecord
  2
GEVID1208933827
 70
     0
  0
APPID
  5
492
330
9
100
AcDbSymbolTableRecord
100
AcDbRegAppTableRecord
  2
GEVID1208933829
 70
     0
  0
APPID
  5
493
330
9
100
AcDbSymbolTableRecord
100
AcDbRegAppTableRecord
  2
GEVID1208933830
 70
     0
  0
APPID
  5
494
330
9
100
AcDbSymbolTableRecord
100
AcDbRegAppTableRecord
  2
GEVID1208933831
 70
     0
  0
APPID
  5
495
330
9
100
AcDbSymbolTableRecord
100
AcDbRegAppTableRecord
  2
GEVID1208933832
 70
     0
  0
APPID
  5
496
330
9
100
AcDbSymbolTableRecord
100
AcDbRegAppTableRecord
  2
GEVID1208933833
 70
     0
  0
APPID
  5
497
330
9
100
AcDbSymbolTableRecord
100
AcDbRegAppTableRecord
  2
GEVID1208933834
 70
     0
  0
APPID
  5
498
330
9
100
AcDbSymbolTableRecord
100
AcDbRegAppTableRecord
  2
GEVID1208933835
 70
     0
  0
APPID
  5
499
330
9
100
AcDbSymbolTableRecord
100
AcDbRegAppTableRecord
  2
GEVID1208933836
 70
     0
  0
APPID
  5
49A
330
9
100
AcDbSymbolTableRecord
100
AcDbRegAppTableRecord
  2
GEVID1208933837
 70
     0
  0
APPID
  5
49B
330
9
100
AcDbSymbolTableRecord
100
AcDbRegAppTableRecord
  2
GEVID1208933838
 70
     0
  0
APPID
  5
49C
330
9
100
AcDbSymbolTableRecord
100
AcDbRegAppTableRecord
  2
GEVID1208933840
 70
     0
  0
APPID
  5
49D
330
9
100
AcDbSymbolTableRecord
100
AcDbRegAppTableRecord
  2
GEVID1208933842
 70
     0
  0
APPID
  5
49E
330
9
100
AcDbSymbolTableRecord
100
AcDbRegAppTableRecord
  2
GEVID1208933843
 70
     0
  0
APPID
  5
49F
330
9
100
AcDbSymbolTableRecord
100
AcDbRegAppTableRecord
  2
GEVID1208933844
 70
     0
  0
APPID
  5
4A0
330
9
100
AcDbSymbolTableRecord
100
AcDbRegAppTableRecord
  2
GEVID1208933845
 70
     0
  0
APPID
  5
4A1
330
9
100
AcDbSymbolTableRecord
100
AcDbRegAppTableRecord
  2
GEVID1208933846
 70
     0
  0
APPID
  5
4A2
330
9
100
AcDbSymbolTableRecord
100
AcDbRegAppTableRecord
  2
GEVID1208933847
 70
     0
  0
APPID
  5
4A3
330
9
100
AcDbSymbolTableRecord
100
AcDbRegAppTableRecord
  2
GEVID1208933848
 70
     0
  0
APPID
  5
4A4
330
9
100
AcDbSymbolTableRecord
100
AcDbRegAppTableRecord
  2
GEVID1208933849
 70
     0
  0
APPID
  5
4A5
330
9
100
AcDbSymbolTableRecord
100
AcDbRegAppTableRecord
  2
GEVID1208933850
 70
     0
  0
APPID
  5
4A6
330
9
100
AcDbSymbolTableRecord
100
AcDbRegAppTableRecord
  2
GEVID1208933851
 70
     0
  0
APPID
  5
4A7
330
9
100
AcDbSymbolTableRecord
100
AcDbRegAppTableRecord
  2
GEVID1208933852
 70
     0
  0
APPID
  5
4A8
330
9
100
AcDbSymbolTableRecord
100
AcDbRegAppTableRecord
  2
GEVID1208933853
 70
     0
  0
APPID
  5
4A9
330
9
100
AcDbSymbolTableRecord
100
AcDbRegAppTableRecord
  2
GEVID1208933854
 70
     0
  0
APPID
  5
4AA
330
9
100
AcDbSymbolTableRecord
100
AcDbRegAppTableRecord
  2
GEVID1208933855
 70
     0
  0
APPID
  5
4AB
330
9
100
AcDbSymbolTableRecord
100
AcDbRegAppTableRecord
  2
GEVID1208933856
 70
     0
  0
APPID
  5
4AC
330
9
100
AcDbSymbolTableRecord
100
AcDbRegAppTableRecord
  2
GEVID1208933857
 70
     0
  0
APPID
  5
4AD
330
9
100
AcDbSymbolTableRecord
100
AcDbRegAppTableRecord
  2
GEVID1208933858
 70
     0
  0
APPID
  5
4AE
330
9
100
AcDbSymbolTableRecord
100
AcDbRegAppTableRecord
  2
GEVID1208933859
 70
     0
  0
APPID
  5
4AF
330
9
100
AcDbSymbolTableRecord
100
AcDbRegAppTableRecord
  2
GEVID1208933860
 70
     0
  0
APPID
  5
4B0
330
9
100
AcDbSymbolTableRecord
100
AcDbRegAppTableRecord
  2
GEVID1208933861
 70
     0
  0
APPID
  5
4B1
330
9
100
AcDbSymbolTableRecord
100
AcDbRegAppTableRecord
  2
GEVID1208933862
 70
     0
  0
APPID
  5
4B2
330
9
100
AcDbSymbolTableRecord
100
AcDbRegAppTableRecord
  2
GEVID1208933863
 70
     0
  0
APPID
  5
4B3
330
9
100
AcDbSymbolTableRecord
100
AcDbRegAppTableRecord
  2
GEVID1208933864
 70
     0
  0
APPID
  5
4B4
330
9
100
AcDbSymbolTableRecord
100
AcDbRegAppTableRecord
  2
GEVID1208933865
 70
     0
  0
APPID
  5
4B5
330
9
100
AcDbSymbolTableRecord
100
AcDbRegAppTableRecord
  2
GEVID1208933866
 70
     0
  0
APPID
  5
4B6
330
9
100
AcDbSymbolTableRecord
100
AcDbRegAppTableRecord
  2
GEVID1208933867
 70
     0
  0
APPID
  5
4B7
330
9
100
AcDbSymbolTableRecord
100
AcDbRegAppTableRecord
  2
GEVID1208933868
 70
     0
  0
APPID
  5
4B8
330
9
100
AcDbSymbolTableRecord
100
AcDbRegAppTableRecord
  2
GEVID1208933869
 70
     0
  0
APPID
  5
4B9
330
9
100
AcDbSymbolTableRecord
100
AcDbRegAppTableRecord
  2
GEVID1208933870
 70
     0
  0
APPID
  5
4BA
330
9
100
AcDbSymbolTableRecord
100
AcDbRegAppTableRecord
  2
GEVID1208933871
 70
     0
  0
APPID
  5
4BB
330
9
100
AcDbSymbolTableRecord
100
AcDbRegAppTableRecord
  2
GEVID1208933872
 70
     0
  0
APPID
  5
4BC
330
9
100
AcDbSymbolTableRecord
100
AcDbRegAppTableRecord
  2
GEVID1208933873
 70
     0
  0
APPID
  5
4BD
330
9
100
AcDbSymbolTableRecord
100
AcDbRegAppTableRecord
  2
GEVID1208933874
 70
     0
  0
APPID
  5
4BE
330
9
100
AcDbSymbolTableRecord
100
AcDbRegAppTableRecord
  2
GEVID1208933875
 70
     0
  0
APPID
  5
4BF
330
9
100
AcDbSymbolTableRecord
100
AcDbRegAppTableRecord
  2
GEVID1208933876
 70
     0
  0
APPID
  5
4C0
330
9
100
AcDbSymbolTableRecord
100
AcDbRegAppTableRecord
  2
ACAD_DSTYLE_DIMRADIAL_EXTENSION
 70
     0
  0
APPID
  5
4C1
330
9
100
AcDbSymbolTableRecord
100
AcDbRegAppTableRecord
  2
GEVID1208999100
 70
     0
  0
APPID
  5
4C2
330
9
100
AcDbSymbolTableRecord
100
AcDbRegAppTableRecord
  2
GEVID1208999101
 70
     0
  0
APPID
  5
4C3
330
9
100
AcDbSymbolTableRecord
100
AcDbRegAppTableRecord
  2
GEVID1208999102
 70
     0
  0
APPID
  5
4C4
330
9
100
AcDbSymbolTableRecord
100
AcDbRegAppTableRecord
  2
GEVID1208999103
 70
     0
  0
APPID
  5
4C5
330
9
100
AcDbSymbolTableRecord
100
AcDbRegAppTableRecord
  2
GEVID1208999105
 70
     0
  0
APPID
  5
4C6
330
9
100
AcDbSymbolTableRecord
100
AcDbRegAppTableRecord
  2
GEVID1208999106
 70
     0
  0
APPID
  5
4C7
330
9
100
AcDbSymbolTableRecord
100
AcDbRegAppTableRecord
  2
GEVID1208999108
 70
     0
  0
APPID
  5
4C8
330
9
100
AcDbSymbolTableRecord
100
AcDbRegAppTableRecord
  2
GEVID1208999109
 70
     0
  0
APPID
  5
4C9
330
9
100
AcDbSymbolTableRecord
100
AcDbRegAppTableRecord
  2
GEVID1208999110
 70
     0
  0
APPID
  5
4CA
330
9
100
AcDbSymbolTableRecord
100
AcDbRegAppTableRecord
  2
GEVID1208999111
 70
     0
  0
APPID
  5
4CB
330
9
100
AcDbSymbolTableRecord
100
AcDbRegAppTableRecord
  2
GEVID1208999112
 70
     0
  0
APPID
  5
4CC
330
9
100
AcDbSymbolTableRecord
100
AcDbRegAppTableRecord
  2
GEVID1208999113
 70
     0
  0
APPID
  5
4CD
330
9
100
AcDbSymbolTableRecord
100
AcDbRegAppTableRecord
  2
GEVID1208999114
 70
     0
  0
APPID
  5
4CE
330
9
100
AcDbSymbolTableRecord
100
AcDbRegAppTableRecord
  2
GEVID1210218799
 70
     0
  0
APPID
  5
4CF
330
9
100
AcDbSymbolTableRecord
100
AcDbRegAppTableRecord
  2
GEVID1210218800
 70
     0
  0
APPID
  5
4D0
330
9
100
AcDbSymbolTableRecord
100
AcDbRegAppTableRecord
  2
GENIUS_GEFWELD_13
 70
     0
  0
APPID
  5
4D1
330
9
100
AcDbSymbolTableRecord
100
AcDbRegAppTableRecord
  2
GENIUS_GENOBJ-F-WELS_13
 70
     0
  0
APPID
  5
4D2
330
9
100
AcDbSymbolTableRecord
100
AcDbRegAppTableRecord
  2
AcadAnnotative
 70
     0
  0
APPID
  5
4D3
330
9
100
AcDbSymbolTableRecord
100
AcDbRegAppTableRecord
  2
GEVID1210145339
 70
     0
  0
APPID
  5
4D4
330
9
100
AcDbSymbolTableRecord
100
AcDbRegAppTableRecord
  2
ACAD_DSTYLE_DIMBREAK
 70
     0
  0
APPID
  5
4D5
330
9
100
AcDbSymbolTableRecord
100
AcDbRegAppTableRecord
  2
GEVID1210145340
 70
     0
  0
APPID
  5
4D6
330
9
100
AcDbSymbolTableRecord
100
AcDbRegAppTableRecord
  2
GEVID1210145341
 70
     0
  0
APPID
  5
4D7
330
9
100
AcDbSymbolTableRecord
100
AcDbRegAppTableRecord
  2
GEVID1210145342
 70
     0
  0
APPID
  5
4D8
330
9
100
AcDbSymbolTableRecord
100
AcDbRegAppTableRecord
  2
GEVID1210145343
 70
     0
  0
APPID
  5
4D9
330
9
100
AcDbSymbolTableRecord
100
AcDbRegAppTableRecord
  2
GEVID1210145344
 70
     0
  0
APPID
  5
4DA
330
9
100
AcDbSymbolTableRecord
100
AcDbRegAppTableRecord
  2
GEVID1210145345
 70
     0
  0
APPID
  5
4DB
330
9
100
AcDbSymbolTableRecord
100
AcDbRegAppTableRecord
  2
GEVID1210152816
 70
     0
  0
APPID
  5
4DC
330
9
100
AcDbSymbolTableRecord
100
AcDbRegAppTableRecord
  2
GEVID1210153850
 70
     0
  0
APPID
  5
4DD
330
9
100
AcDbSymbolTableRecord
100
AcDbRegAppTableRecord
  2
GEVID1210153851
 70
     0
  0
APPID
  5
4DE
330
9
100
AcDbSymbolTableRecord
100
AcDbRegAppTableRecord
  2
GEVID1210153852
 70
     0
  0
APPID
  5
4DF
330
9
100
AcDbSymbolTableRecord
100
AcDbRegAppTableRecord
  2
GEVID1210549898
 70
     0
  0
APPID
  5
4E0
330
9
100
AcDbSymbolTableRecord
100
AcDbRegAppTableRecord
  2
GEVID1210549899
 70
     0
  0
APPID
  5
4E1
330
9
100
AcDbSymbolTableRecord
100
AcDbRegAppTableRecord
  2
GEVID1210549900
 70
     0
  0
APPID
  5
4E2
330
9
100
AcDbSymbolTableRecord
100
AcDbRegAppTableRecord
  2
GEVID1210549901
 70
     0
  0
APPID
  5
4E3
330
9
100
AcDbSymbolTableRecord
100
AcDbRegAppTableRecord
  2
GEVID1210549902
 70
     0
  0
APPID
  5
4E4
330
9
100
AcDbSymbolTableRecord
100
AcDbRegAppTableRecord
  2
GEVID1210549903
 70
     0
  0
APPID
  5
4E5
330
9
100
AcDbSymbolTableRecord
100
AcDbRegAppTableRecord
  2
GEVID1210549904
 70
     0
  0
APPID
  5
4E6
330
9
100
AcDbSymbolTableRecord
100
AcDbRegAppTableRecord
  2
GEVID1210549905
 70
     0
  0
APPID
  5
4E7
330
9
100
AcDbSymbolTableRecord
100
AcDbRegAppTableRecord
  2
GEVID1210549906
 70
     0
  0
APPID
  5
4E8
330
9
100
AcDbSymbolTableRecord
100
AcDbRegAppTableRecord
  2
GEVID1210549907
 70
     0
  0
APPID
  5
4E9
330
9
100
AcDbSymbolTableRecord
100
AcDbRegAppTableRecord
  2
GEVID1210549908
 70
     0
  0
APPID
  5
4EA
330
9
100
AcDbSymbolTableRecord
100
AcDbRegAppTableRecord
  2
GEVID1210549909
 70
     0
  0
APPID
  5
4EB
330
9
100
AcDbSymbolTableRecord
100
AcDbRegAppTableRecord
  2
GEVID1210549910
 70
     0
  0
APPID
  5
4EC
330
9
100
AcDbSymbolTableRecord
100
AcDbRegAppTableRecord
  2
GEVID1210549911
 70
     0
  0
APPID
  5
4ED
330
9
100
AcDbSymbolTableRecord
100
AcDbRegAppTableRecord
  2
GEVID1210549912
 70
     0
  0
APPID
  5
4EE
330
9
100
AcDbSymbolTableRecord
100
AcDbRegAppTableRecord
  2
GEVID1210549913
 70
     0
  0
APPID
  5
4EF
330
9
100
AcDbSymbolTableRecord
100
AcDbRegAppTableRecord
  2
GEVID1210549914
 70
     0
  0
APPID
  5
4F0
330
9
100
AcDbSymbolTableRecord
100
AcDbRegAppTableRecord
  2
GEVID1210549915
 70
     0
  0
APPID
  5
4F1
330
9
100
AcDbSymbolTableRecord
100
AcDbRegAppTableRecord
  2
GEVID1210549916
 70
     0
  0
APPID
  5
4F2
330
9
100
AcDbSymbolTableRecord
100
AcDbRegAppTableRecord
  2
GEVID1210549917
 70
     0
  0
APPID
  5
4F3
330
9
100
AcDbSymbolTableRecord
100
AcDbRegAppTableRecord
  2
GENIUS_GENOBJ-N-CRS_13
 70
     0
  0
APPID
  5
4F4
330
9
100
AcDbSymbolTableRecord
100
AcDbRegAppTableRecord
  2
GEVID1210549918
 70
     0
  0
APPID
  5
4F5
330
9
100
AcDbSymbolTableRecord
100
AcDbRegAppTableRecord
  2
GENIUS_GENOBJ-N-CRC_13
 70
     0
  0
APPID
  5
4F6
330
9
100
AcDbSymbolTableRecord
100
AcDbRegAppTableRecord
  2
GENIUS_GENCRC_14
 70
     0
  0
APPID
  5
4F7
330
9
100
AcDbSymbolTableRecord
100
AcDbRegAppTableRecord
  2
GEVID1210549919
 70
     0
  0
APPID
  5
4F8
330
9
100
AcDbSymbolTableRecord
100
AcDbRegAppTableRecord
  2
GEVID1210549921
 70
     0
  0
APPID
  5
4F9
330
9
100
AcDbSymbolTableRecord
100
AcDbRegAppTableRecord
  2
GEVID1210549922
 70
     0
  0
APPID
  5
4FA
330
9
100
AcDbSymbolTableRecord
100
AcDbRegAppTableRecord
  2
GEVID1210635173
 70
     0
  0
APPID
  5
4FB
330
9
100
AcDbSymbolTableRecord
100
AcDbRegAppTableRecord
  2
GEVID1210635174
 70
     0
  0
APPID
  5
4FC
330
9
100
AcDbSymbolTableRecord
100
AcDbRegAppTableRecord
  2
GEVID1210635175
 70
     0
  0
APPID
  5
4FD
330
9
100
AcDbSymbolTableRecord
100
AcDbRegAppTableRecord
  2
GEVID1210635176
 70
     0
  0
APPID
  5
4FE
330
9
100
AcDbSymbolTableRecord
100
AcDbRegAppTableRecord
  2
GEVID1210635177
 70
     0
  0
APPID
  5
4FF
330
9
100
AcDbSymbolTableRecord
100
AcDbRegAppTableRecord
  2
GEVID1210635178
 70
     0
  0
APPID
  5
500
330
9
100
AcDbSymbolTableRecord
100
AcDbRegAppTableRecord
  2
GENIUS_GENIUS_GENBHEDTMP_13
 70
     0
  0
APPID
  5
501
330
9
100
AcDbSymbolTableRecord
100
AcDbRegAppTableRecord
  2
GEVID1210635179
 70
     0
  0
APPID
  5
502
330
9
100
AcDbSymbolTableRecord
100
AcDbRegAppTableRecord
  2
GEVID1210635180
 70
     0
  0
APPID
  5
503
330
9
100
AcDbSymbolTableRecord
100
AcDbRegAppTableRecord
  2
GEVID1210635181
 70
     0
  0
APPID
  5
504
330
9
100
AcDbSymbolTableRecord
100
AcDbRegAppTableRecord
  2
GEVID1210635182
 70
     0
  0
APPID
  5
505
330
9
100
AcDbSymbolTableRecord
100
AcDbRegAppTableRecord
  2
GEVID1210635184
 70
     0
  0
APPID
  5
506
330
9
100
AcDbSymbolTableRecord
100
AcDbRegAppTableRecord
  2
GEVID1210635185
 70
     0
  0
APPID
  5
507
330
9
100
AcDbSymbolTableRecord
100
AcDbRegAppTableRecord
  2
GEVID1210635186
 70
     0
  0
APPID
  5
508
330
9
100
AcDbSymbolTableRecord
100
AcDbRegAppTableRecord
  2
GEVID1210635187
 70
     0
  0
APPID
  5
509
330
9
100
AcDbSymbolTableRecord
100
AcDbRegAppTableRecord
  2
GEVID1210635188
 70
     0
  0
APPID
  5
50A
330
9
100
AcDbSymbolTableRecord
100
AcDbRegAppTableRecord
  2
GEVID1210635189
 70
     0
  0
APPID
  5
50B
330
9
100
AcDbSymbolTableRecord
100
AcDbRegAppTableRecord
  2
GEVID1210635190
 70
     0
  0
APPID
  5
50C
330
9
100
AcDbSymbolTableRecord
100
AcDbRegAppTableRecord
  2
GENIUS_GENREC_14
 70
     0
  0
APPID
  5
50D
330
9
100
AcDbSymbolTableRecord
100
AcDbRegAppTableRecord
  2
GENIUS_GENOBJ-N-REC_13
 70
     0
  0
APPID
  5
50E
330
9
100
AcDbSymbolTableRecord
100
AcDbRegAppTableRecord
  2
GEVID1210676655
 70
     0
  0
APPID
  5
50F
330
9
100
AcDbSymbolTableRecord
100
AcDbRegAppTableRecord
  2
GEVID1210676656
 70
     0
  0
APPID
  5
510
330
9
100
AcDbSymbolTableRecord
100
AcDbRegAppTableRecord
  2
GEVID1210676657
 70
     0
  0
APPID
  5
511
330
9
100
AcDbSymbolTableRecord
100
AcDbRegAppTableRecord
  2
GEVID1210676659
 70
     0
  0
APPID
  5
512
330
9
100
AcDbSymbolTableRecord
100
AcDbRegAppTableRecord
  2
GEVID1210676660
 70
     0
  0
APPID
  5
513
330
9
100
AcDbSymbolTableRecord
100
AcDbRegAppTableRecord
  2
GEVID1210676661
 70
     0
  0
APPID
  5
514
330
9
100
AcDbSymbolTableRecord
100
AcDbRegAppTableRecord
  2
GEVID1210676662
 70
     0
  0
APPID
  5
515
330
9
100
AcDbSymbolTableRecord
100
AcDbRegAppTableRecord
  2
GEVID1210721646
 70
     0
  0
APPID
  5
516
330
9
100
AcDbSymbolTableRecord
100
AcDbRegAppTableRecord
  2
GEVID1210721647
 70
     0
  0
APPID
  5
517
330
9
100
AcDbSymbolTableRecord
100
AcDbRegAppTableRecord
  2
GEVID1210721648
 70
     0
  0
APPID
  5
518
330
9
100
AcDbSymbolTableRecord
100
AcDbRegAppTableRecord
  2
GEVID1210721649
 70
     0
  0
APPID
  5
519
330
9
100
AcDbSymbolTableRecord
100
AcDbRegAppTableRecord
  2
GEVID1210721650
 70
     0
  0
APPID
  5
51A
330
9
100
AcDbSymbolTableRecord
100
AcDbRegAppTableRecord
  2
GEVID1210721651
 70
     0
  0
APPID
  5
51B
330
9
100
AcDbSymbolTableRecord
100
AcDbRegAppTableRecord
  2
GEVID1210721652
 70
     0
  0
APPID
  5
51C
330
9
100
AcDbSymbolTableRecord
100
AcDbRegAppTableRecord
  2
GEVID1210721653
 70
     0
  0
APPID
  5
51D
330
9
100
AcDbSymbolTableRecord
100
AcDbRegAppTableRecord
  2
PE_URL
 70
     0
  0
APPID
  5
51E
330
9
100
AcDbSymbolTableRecord
100
AcDbRegAppTableRecord
  2
GEVID1210825555
 70
     0
  0
APPID
  5
51F
330
9
100
AcDbSymbolTableRecord
100
AcDbRegAppTableRecord
  2
GEVID1210825556
 70
     0
  0
APPID
  5
520
330
9
100
AcDbSymbolTableRecord
100
AcDbRegAppTableRecord
  2
GEVID1210825557
 70
     0
  0
APPID
  5
521
330
9
100
AcDbSymbolTableRecord
100
AcDbRegAppTableRecord
  2
GEVID1210825558
 70
     0
  0
APPID
  5
522
330
9
100
AcDbSymbolTableRecord
100
AcDbRegAppTableRecord
  2
GEVID1210825559
 70
     0
  0
APPID
  5
523
330
9
100
AcDbSymbolTableRecord
100
AcDbRegAppTableRecord
  2
GEVID1210825560
 70
     0
  0
APPID
  5
524
330
9
100
AcDbSymbolTableRecord
100
AcDbRegAppTableRecord
  2
GEVID1210825561
 70
     0
  0
APPID
  5
525
330
9
100
AcDbSymbolTableRecord
100
AcDbRegAppTableRecord
  2
GEVID1210825562
 70
     0
  0
APPID
  5
526
330
9
100
AcDbSymbolTableRecord
100
AcDbRegAppTableRecord
  2
GEVID1210825563
 70
     0
  0
APPID
  5
527
330
9
100
AcDbSymbolTableRecord
100
AcDbRegAppTableRecord
  2
GEVID1210825564
 70
     0
  0
APPID
  5
528
330
9
100
AcDbSymbolTableRecord
100
AcDbRegAppTableRecord
  2
GEVID1210825565
 70
     0
  0
APPID
  5
529
330
9
100
AcDbSymbolTableRecord
100
AcDbRegAppTableRecord
  2
GEVID1210825566
 70
     0
  0
APPID
  5
52A
330
9
100
AcDbSymbolTableRecord
100
AcDbRegAppTableRecord
  2
GEVID1210825567
 70
     0
  0
APPID
  5
52B
330
9
100
AcDbSymbolTableRecord
100
AcDbRegAppTableRecord
  2
GENIUS_GENOBJ-N-ZOO_13
 70
     0
  0
APPID
  5
52C
330
9
100
AcDbSymbolTableRecord
100
AcDbRegAppTableRecord
  2
GENIUS_GENZOO_17
 70
     0
  0
APPID
  5
52D
330
9
100
AcDbSymbolTableRecord
100
AcDbRegAppTableRecord
  2
ACADANNOTATIVEDECOMPOSITION
 70
     0
  0
APPID
  5
52E
330
9
100
AcDbSymbolTableRecord
100
AcDbRegAppTableRecord
  2
GENIUS_GENOBJ-N-HTC_13
 70
     0
  0
APPID
  5
52F
330
9
100
AcDbSymbolTableRecord
100
AcDbRegAppTableRecord
  2
GENIUS_GENHATCH_13
 70
     0
  0
APPID
  5
530
330
9
100
AcDbSymbolTableRecord
100
AcDbRegAppTableRecord
  2
GEVID1210896020
 70
     0
  0
APPID
  5
531
330
9
100
AcDbSymbolTableRecord
100
AcDbRegAppTableRecord
  2
GEVID1210896021
 70
     0
  0
APPID
  5
532
330
9
100
AcDbSymbolTableRecord
100
AcDbRegAppTableRecord
  2
GEVID1209083540
 70
     0
  0
APPID
  5
533
330
9
100
AcDbSymbolTableRecord
100
AcDbRegAppTableRecord
  2
GEVMK
 70
     0
  0
APPID
  5
534
330
9
100
AcDbSymbolTableRecord
100
AcDbRegAppTableRecord
  2
GEVID1209083542
 70
     0
  0
APPID
  5
535
330
9
100
AcDbSymbolTableRecord
100
AcDbRegAppTableRecord
  2
GEVID1209083543
 70
     0
  0
APPID
  5
536
330
9
100
AcDbSymbolTableRecord
100
AcDbRegAppTableRecord
  2
GEVID1209083544
 70
     0
  0
APPID
  5
537
330
9
100
AcDbSymbolTableRecord
100
AcDbRegAppTableRecord
  2
GEVID1209083545
 70
     0
  0
APPID
  5
538
330
9
100
AcDbSymbolTableRecord
100
AcDbRegAppTableRecord
  2
GEVID1209083546
 70
     0
  0
APPID
  5
539
330
9
100
AcDbSymbolTableRecord
100
AcDbRegAppTableRecord
  2
GEVID1209083547
 70
     0
  0
APPID
  5
53A
330
9
100
AcDbSymbolTableRecord
100
AcDbRegAppTableRecord
  2
GEVID1209083548
 70
     0
  0
APPID
  5
53B
330
9
100
AcDbSymbolTableRecord
100
AcDbRegAppTableRecord
  2
GEVID1209083549
 70
     0
  0
APPID
  5
53C
330
9
100
AcDbSymbolTableRecord
100
AcDbRegAppTableRecord
  2
GEVID1209083550
 70
     0
  0
APPID
  5
53D
330
9
100
AcDbSymbolTableRecord
100
AcDbRegAppTableRecord
  2
GEVID1209083551
 70
     0
  0
APPID
  5
53E
330
9
100
AcDbSymbolTableRecord
100
AcDbRegAppTableRecord
  2
GEVID1209083552
 70
     0
  0
APPID
  5
53F
330
9
100
AcDbSymbolTableRecord
100
AcDbRegAppTableRecord
  2
GEVID1209083553
 70
     0
  0
APPID
  5
540
330
9
100
AcDbSymbolTableRecord
100
AcDbRegAppTableRecord
  2
GEVID1210896022
 70
     0
  0
APPID
  5
541
330
9
100
AcDbSymbolTableRecord
100
AcDbRegAppTableRecord
  2
GEVID1211508364
 70
     0
  0
APPID
  5
542
330
9
100
AcDbSymbolTableRecord
100
AcDbRegAppTableRecord
  2
GEVID1211414908
 70
     0
  0
APPID
  5
543
330
9
100
AcDbSymbolTableRecord
100
AcDbRegAppTableRecord
  2
GEVID1211414909
 70
     0
  0
APPID
  5
544
330
9
100
AcDbSymbolTableRecord
100
AcDbRegAppTableRecord
  2
GEVID1211508359
 70
     0
  0
APPID
  5
545
330
9
100
AcDbSymbolTableRecord
100
AcDbRegAppTableRecord
  2
GEVID1211508360
 70
     0
  0
APPID
  5
546
330
9
100
AcDbSymbolTableRecord
100
AcDbRegAppTableRecord
  2
GEVID1211508361
 70
     0
  0
APPID
  5
547
330
9
100
AcDbSymbolTableRecord
100
AcDbRegAppTableRecord
  2
GEVID1211508362
 70
     0
  0
APPID
  5
548
330
9
100
AcDbSymbolTableRecord
100
AcDbRegAppTableRecord
  2
GEVID1211508363
 70
     0
  0
APPID
  5
549
330
9
100
AcDbSymbolTableRecord
100
AcDbRegAppTableRecord
  2
GEVID1211878469
 70
     0
  0
APPID
  5
54A
330
9
100
AcDbSymbolTableRecord
100
AcDbRegAppTableRecord
  2
GEVID1212642819
 70
     0
  0
APPID
  5
54B
330
9
100
AcDbSymbolTableRecord
100
AcDbRegAppTableRecord
  2
GEVID1212642820
 70
     0
  0
APPID
  5
54C
330
9
100
AcDbSymbolTableRecord
100
AcDbRegAppTableRecord
  2
GEVID1212642821
 70
     0
  0
APPID
  5
54D
330
9
100
AcDbSymbolTableRecord
100
AcDbRegAppTableRecord
  2
GEVID1212642822
 70
     0
  0
APPID
  5
54E
330
9
100
AcDbSymbolTableRecord
100
AcDbRegAppTableRecord
  2
GEVID1212642823
 70
     0
  0
APPID
  5
54F
330
9
100
AcDbSymbolTableRecord
100
AcDbRegAppTableRecord
  2
GEVID1212642825
 70
     0
  0
APPID
  5
550
330
9
100
AcDbSymbolTableRecord
100
AcDbRegAppTableRecord
  2
GEVID1212642826
 70
     0
  0
APPID
  5
551
330
9
100
AcDbSymbolTableRecord
100
AcDbRegAppTableRecord
  2
GEVID1212642827
 70
     0
  0
APPID
  5
552
330
9
100
AcDbSymbolTableRecord
100
AcDbRegAppTableRecord
  2
GEVID1212642828
 70
     0
  0
APPID
  5
553
330
9
100
AcDbSymbolTableRecord
100
AcDbRegAppTableRecord
  2
GEVID1212642831
 70
     0
  0
APPID
  5
554
330
9
100
AcDbSymbolTableRecord
100
AcDbRegAppTableRecord
  2
GEVID1212642834
 70
     0
  0
APPID
  5
555
330
9
100
AcDbSymbolTableRecord
100
AcDbRegAppTableRecord
  2
GEVID1212642835
 70
     0
  0
APPID
  5
556
330
9
100
AcDbSymbolTableRecord
100
AcDbRegAppTableRecord
  2
GEVID1212642836
 70
     0
  0
APPID
  5
557
330
9
100
AcDbSymbolTableRecord
100
AcDbRegAppTableRecord
  2
GEVID1212642837
 70
     0
  0
APPID
  5
558
330
9
100
AcDbSymbolTableRecord
100
AcDbRegAppTableRecord
  2
GEVID1212642839
 70
     0
  0
APPID
  5
559
330
9
100
AcDbSymbolTableRecord
100
AcDbRegAppTableRecord
  2
GEVID1212642840
 70
     0
  0
APPID
  5
55A
330
9
100
AcDbSymbolTableRecord
100
AcDbRegAppTableRecord
  2
GEVID1212642841
 70
     0
  0
APPID
  5
55B
330
9
100
AcDbSymbolTableRecord
100
AcDbRegAppTableRecord
  2
GEVID1212655312
 70
     0
  0
APPID
  5
55C
330
9
100
AcDbSymbolTableRecord
100
AcDbRegAppTableRecord
  2
GEVID1212655313
 70
     0
  0
APPID
  5
55D
330
9
100
AcDbSymbolTableRecord
100
AcDbRegAppTableRecord
  2
GEVID1212656533
 70
     0
  0
APPID
  5
55E
330
9
100
AcDbSymbolTableRecord
100
AcDbRegAppTableRecord
  2
GEVID1212656534
 70
     0
  0
APPID
  5
55F
330
9
100
AcDbSymbolTableRecord
100
AcDbRegAppTableRecord
  2
GEVID1212656535
 70
     0
  0
APPID
  5
560
330
9
100
AcDbSymbolTableRecord
100
AcDbRegAppTableRecord
  2
GEVID1212656536
 70
     0
  0
APPID
  5
561
330
9
100
AcDbSymbolTableRecord
100
AcDbRegAppTableRecord
  2
GEVID1212656538
 70
     0
  0
APPID
  5
562
330
9
100
AcDbSymbolTableRecord
100
AcDbRegAppTableRecord
  2
GEVID1212656541
 70
     0
  0
APPID
  5
563
330
9
100
AcDbSymbolTableRecord
100
AcDbRegAppTableRecord
  2
GEVID1212656543
 70
     0
  0
APPID
  5
564
330
9
100
AcDbSymbolTableRecord
100
AcDbRegAppTableRecord
  2
GENIUS_GENOBJ-F-PFASSM_13
 70
     0
  0
APPID
  5
565
330
9
100
AcDbSymbolTableRecord
100
AcDbRegAppTableRecord
  2
GEVID1212656544
 70
     0
  0
APPID
  5
566
330
9
100
AcDbSymbolTableRecord
100
AcDbRegAppTableRecord
  2
GEVID1212656545
 70
     0
  0
APPID
  5
567
330
9
100
AcDbSymbolTableRecord
100
AcDbRegAppTableRecord
  2
GEVID1212656546
 70
     0
  0
APPID
  5
568
330
9
100
AcDbSymbolTableRecord
100
AcDbRegAppTableRecord
  2
GEVID1212656547
 70
     0
  0
APPID
  5
569
330
9
100
AcDbSymbolTableRecord
100
AcDbRegAppTableRecord
  2
GEVID1212656548
 70
     0
  0
APPID
  5
56A
330
9
100
AcDbSymbolTableRecord
100
AcDbRegAppTableRecord
  2
GEVID1212656549
 70
     0
  0
APPID
  5
56B
330
9
100
AcDbSymbolTableRecord
100
AcDbRegAppTableRecord
  2
GEVID1212656550
 70
     0
  0
APPID
  5
56C
330
9
100
AcDbSymbolTableRecord
100
AcDbRegAppTableRecord
  2
GEVID1212656552
 70
     0
  0
APPID
  5
56D
330
9
100
AcDbSymbolTableRecord
100
AcDbRegAppTableRecord
  2
GEVID1212656553
 70
     0
  0
APPID
  5
56E
330
9
100
AcDbSymbolTableRecord
100
AcDbRegAppTableRecord
  2
GEVID1212656554
 70
     0
  0
APPID
  5
56F
330
9
100
AcDbSymbolTableRecord
100
AcDbRegAppTableRecord
  2
GEVID1212656555
 70
     0
  0
APPID
  5
570
330
9
100
AcDbSymbolTableRecord
100
AcDbRegAppTableRecord
  2
GEVID1212656556
 70
     0
  0
APPID
  5
571
330
9
100
AcDbSymbolTableRecord
100
AcDbRegAppTableRecord
  2
GEVID1212656557
 70
     0
  0
APPID
  5
572
330
9
100
AcDbSymbolTableRecord
100
AcDbRegAppTableRecord
  2
GEVID1212656559
 70
     0
  0
APPID
  5
573
330
9
100
AcDbSymbolTableRecord
100
AcDbRegAppTableRecord
  2
GEVID1212656560
 70
     0
  0
APPID
  5
574
330
9
100
AcDbSymbolTableRecord
100
AcDbRegAppTableRecord
  2
GEVID1212656561
 70
     0
  0
APPID
  5
575
330
9
100
AcDbSymbolTableRecord
100
AcDbRegAppTableRecord
  2
GEVID1212656562
 70
     0
  0
APPID
  5
576
330
9
100
AcDbSymbolTableRecord
100
AcDbRegAppTableRecord
  2
GEVID1212656563
 70
     0
  0
APPID
  5
577
330
9
100
AcDbSymbolTableRecord
100
AcDbRegAppTableRecord
  2
GEVID1212711781
 70
     0
  0
APPID
  5
578
330
9
100
AcDbSymbolTableRecord
100
AcDbRegAppTableRecord
  2
GEVID1212711782
 70
     0
  0
APPID
  5
579
330
9
100
AcDbSymbolTableRecord
100
AcDbRegAppTableRecord
  2
GEVID1212711783
 70
     0
  0
APPID
  5
57A
330
9
100
AcDbSymbolTableRecord
100
AcDbRegAppTableRecord
  2
GEVID1212711784
 70
     0
  0
APPID
  5
57B
330
9
100
AcDbSymbolTableRecord
100
AcDbRegAppTableRecord
  2
GEVID1212711788
 70
     0
  0
APPID
  5
57C
330
9
100
AcDbSymbolTableRecord
100
AcDbRegAppTableRecord
  2
GEVID1212711789
 70
     0
  0
APPID
  5
57D
330
9
100
AcDbSymbolTableRecord
100
AcDbRegAppTableRecord
  2
GEVID1212711790
 70
     0
  0
APPID
  5
57E
330
9
100
AcDbSymbolTableRecord
100
AcDbRegAppTableRecord
  2
GEVID1212711791
 70
     0
  0
APPID
  5
57F
330
9
100
AcDbSymbolTableRecord
100
AcDbRegAppTableRecord
  2
GEVID1212711792
 70
     0
  0
APPID
  5
580
330
9
100
AcDbSymbolTableRecord
100
AcDbRegAppTableRecord
  2
GEVID1212711793
 70
     0
  0
APPID
  5
581
330
9
100
AcDbSymbolTableRecord
100
AcDbRegAppTableRecord
  2
GEVID1212711794
 70
     0
  0
APPID
  5
582
330
9
100
AcDbSymbolTableRecord
100
AcDbRegAppTableRecord
  2
GEVID1212711795
 70
     0
  0
APPID
  5
583
330
9
100
AcDbSymbolTableRecord
100
AcDbRegAppTableRecord
  2
GEVID1212711797
 70
     0
  0
APPID
  5
584
330
9
100
AcDbSymbolTableRecord
100
AcDbRegAppTableRecord
  2
GEVID1212711798
 70
     0
  0
APPID
  5
585
330
9
100
AcDbSymbolTableRecord
100
AcDbRegAppTableRecord
  2
GEVID1212711799
 70
     0
  0
APPID
  5
586
330
9
100
AcDbSymbolTableRecord
100
AcDbRegAppTableRecord
  2
GEVID1212711800
 70
     0
  0
APPID
  5
587
330
9
100
AcDbSymbolTableRecord
100
AcDbRegAppTableRecord
  2
GEVID1212711801
 70
     0
  0
APPID
  5
588
330
9
100
AcDbSymbolTableRecord
100
AcDbRegAppTableRecord
  2
GEVID1212711802
 70
     0
  0
APPID
  5
589
330
9
100
AcDbSymbolTableRecord
100
AcDbRegAppTableRecord
  2
GEVID1212711803
 70
     0
  0
APPID
  5
58A
330
9
100
AcDbSymbolTableRecord
100
AcDbRegAppTableRecord
  2
GEVID1212711804
 70
     0
  0
APPID
  5
58B
330
9
100
AcDbSymbolTableRecord
100
AcDbRegAppTableRecord
  2
GEVID1212711805
 70
     0
  0
APPID
  5
58C
330
9
100
AcDbSymbolTableRecord
100
AcDbRegAppTableRecord
  2
GEVID1212711806
 70
     0
  0
APPID
  5
58D
330
9
100
AcDbSymbolTableRecord
100
AcDbRegAppTableRecord
  2
GEVID1212711807
 70
     0
  0
APPID
  5
58E
330
9
100
AcDbSymbolTableRecord
100
AcDbRegAppTableRecord
  2
GEVID1212711808
 70
     0
  0
APPID
  5
58F
330
9
100
AcDbSymbolTableRecord
100
AcDbRegAppTableRecord
  2
GEVID1212711809
 70
     0
  0
APPID
  5
590
330
9
100
AcDbSymbolTableRecord
100
AcDbRegAppTableRecord
  2
GEVID1212711810
 70
     0
  0
APPID
  5
591
330
9
100
AcDbSymbolTableRecord
100
AcDbRegAppTableRecord
  2
GEVID1212711811
 70
     0
  0
APPID
  5
90A
330
9
100
AcDbSymbolTableRecord
100
AcDbRegAppTableRecord
  2
GENIUS_GENTRA_14
 70
     0
  0
APPID
  5
919
330
9
100
AcDbSymbolTableRecord
100
AcDbRegAppTableRecord
  2
GENIUS_GENOBJ-N-TIT_13
 70
     0
  0
APPID
  5
91A
330
9
100
AcDbSymbolTableRecord
100
AcDbRegAppTableRecord
  2
GENIUS_GENTITLE_13
 70
     0
  0
APPID
  5
949
330
9
100
AcDbSymbolTableRecord
100
AcDbRegAppTableRecord
  2
GENIUS_GENBLLY_14
 70
     0
  0
APPID
  5
DDD
330
9
100
AcDbSymbolTableRecord
100
AcDbRegAppTableRecord
  2
GEVID1213165152
 70
     0
  0
APPID
  5
12F9
330
9
100
AcDbSymbolTableRecord
100
AcDbRegAppTableRecord
  2
AcDbDynamicBlockTrueName
 70
     0
  0
APPID
  5
12FA
330
9
100
AcDbSymbolTableRecord
100
AcDbRegAppTableRecord
  2
ACDBBLOCKREPETAG
 70
     0
  0
APPID
  5
1C15
330
9
100
AcDbSymbolTableRecord
100
AcDbRegAppTableRecord
  2
GEVID1214872427
 70
     0
  0
APPID
  5
1C2A
330
9
100
AcDbSymbolTableRecord
100
AcDbRegAppTableRecord
  2
GEVID1214872428
 70
     0
  0
APPID
  5
1C2F
330
9
100
AcDbSymbolTableRecord
100
AcDbRegAppTableRecord
  2
GEVID1214872429
 70
     0
  0
APPID
  5
1C33
330
9
100
AcDbSymbolTableRecord
100
AcDbRegAppTableRecord
  2
GEVID1214872430
 70
     0
  0
APPID
  5
1C3F
330
9
100
AcDbSymbolTableRecord
100
AcDbRegAppTableRecord
  2
GEVID1214872432
 70
     0
  0
APPID
  5
1C4E
330
9
100
AcDbSymbolTableRecord
100
AcDbRegAppTableRecord
  2
GEVID1214872433
 70
     0
  0
APPID
  5
20DC
330
9
100
AcDbSymbolTableRecord
100
AcDbRegAppTableRecord
  2
AcDbDynamicBlockGUID
 70
     0
  0
APPID
  5
20FD
330
9
100
AcDbSymbolTableRecord
100
AcDbRegAppTableRecord
  2
GENIUS_GENOBJ-N-REV_13
 70
     0
  0
APPID
  5
20FE
330
9
100
AcDbSymbolTableRecord
100
AcDbRegAppTableRecord
  2
GENIUS_GENOBJ-N-RSSYM_13
 70
     0
  0
APPID
  5
20FF
330
9
100
AcDbSymbolTableRecord
100
AcDbRegAppTableRecord
  2
GENIUS_GENSYMENT_13
 70
     0
  0
APPID
  5
2100
330
9
100
AcDbSymbolTableRecord
100
AcDbRegAppTableRecord
  2
GENIUS_GENSCSYM_13
 70
     0
  0
APPID
  5
49EF
330
9
100
AcDbSymbolTableRecord
100
AcDbRegAppTableRecord
  2
GEVID1236841482
 70
     0
  0
APPID
  5
4A01
330
9
100
AcDbSymbolTableRecord
100
AcDbRegAppTableRecord
  2
GEVID1236841483
 70
     0
  0
ENDTAB
  0
TABLE
  2
DIMSTYLE
  5
A
330
0
100
AcDbSymbolTable
 70
    29
100
AcDbDimStyleTable
 71
     1
340
5AB
  0
DIMSTYLE
105
5AB
330
A
100
AcDbSymbolTableRecord
100
AcDbDimStyleTableRecord
  2
SEISA
 70
     0
  4
"
 40
4.0
 41
2.5
 42
0.625
 43
10.0
 44
0.625
 47
0.1
 48
0.1
 73
     0
 74
     0
 77
     3
 78
     8
 79
     2
 90
     1
140
3.5
141
0.0
143
0.0393701
146
0.71
147
1.5
172
     1
176
     3
177
     3
178
     3
271
     2
272
     2
283
     0
286
     8
340
5D5
341
69
342
69
371
    -1
372
    -1
1001
ACAD_DSTYLE_DIMJAG
1070
   388
1040
1.5
1001
ACAD_DSTYLE_DIMTALN
1070
   392
1070
     1
  0
DIMSTYLE
105
5E9
102
{ACAD_REACTORS
330
4A72
330
4AC3
330
4B17
330
4B2F
330
4B4B
330
6334
330
6350
330
64C8
330
6518
330
6591
330
65A9
330
65C1
330
7BD1
330
7BFB
330
7C93
102
}
330
A
100
AcDbSymbolTableRecord
100
AcDbDimStyleTableRecord
  2
SEISA$0
 70
     0
  4
"
 40
4.0
 41
2.5
 42
0.625
 43
10.0
 44
0.625
 47
0.1
 48
0.1
 73
     0
 74
     0
 77
     3
 78
     8
 79
     2
 90
     1
140
3.5
141
0.0
143
0.0393701
146
0.71
147
1.5
172
     1
176
     3
177
     3
178
     3
271
     2
272
     2
283
     0
286
     8
340
5D5
341
69
342
69
371
    -1
372
    -1
  0
DIMSTYLE
105
7F9F
330
A
100
AcDbSymbolTableRecord
100
AcDbDimStyleTableRecord
  2
AM_ISO
 70
     0
  4
"
 41
2.5
 42
1.0
 43
10.0
 44
1.0
 47
0.1
 48
0.1
 73
     0
 74
     0
 77
     1
 78
     8
 79
     2
 90
     1
140
3.5
141
0.0
143
0.0393701
146
0.71
147
1.5
172
     1
176
   256
177
   256
178
     2
271
     2
272
     3
274
     4
283
     0
284
     8
340
11
371
    -1
372
    -1
  0
DIMSTYLE
105
7FA0
330
A
100
AcDbSymbolTableRecord
100
AcDbDimStyleTableRecord
  2
AM_ISO$3
 70
     0
  4
"
 41
2.5
 42
1.0
 43
10.0
 44
1.0
 47
0.1
 48
0.1
 73
     0
 77
     1
 78
     8
 79
     2
 90
     1
140
3.5
141
0.0
143
0.0393701
146
0.71
147
1.5
176
   256
177
   256
178
     2
271
     2
272
     3
274
     4
283
     0
284
     8
288
     1
289
     0
340
11
371
    -1
372
    -1
  0
DIMSTYLE
105
7FA1
330
A
100
AcDbSymbolTableRecord
100
AcDbDimStyleTableRecord
  2
AM_ISO$4
 70
     0
  4
"
 41
2.5
 42
1.0
 43
10.0
 44
1.0
 47
0.1
 48
0.1
 73
     0
 77
     1
 78
     8
 79
     2
 90
     1
140
3.5
141
0.0
143
0.0393701
146
0.71
147
1.5
176
   256
177
   256
178
     2
271
     2
272
     3
274
     4
283
     0
284
     8
288
     1
289
     0
340
11
371
    -1
372
    -1
  0
DIMSTYLE
105
7FA2
330
A
100
AcDbSymbolTableRecord
100
AcDbDimStyleTableRecord
  2
AM_ISO$6
 70
     0
  4
"
 41
2.5
 42
1.0
 43
10.0
 44
1.0
 47
0.1
 48
0.1
 73
     0
 74
     0
 78
     8
 79
     2
 90
     1
140
3.5
141
0.0
143
0.0393701
146
0.71
147
1.5
172
     1
176
   256
177
   256
178
     2
271
     2
272
     3
274
     4
283
     0
284
     8
340
11
371
    -1
372
    -1
  0
DIMSTYLE
105
7FA3
330
A
100
AcDbSymbolTableRecord
100
AcDbDimStyleTableRecord
  2
AM_ISO$7
 70
     0
  4
"
 41
2.5
 42
1.0
 43
10.0
 44
1.0
 47
0.1
 48
0.1
 73
     0
 74
     0
 77
     1
 78
     8
 79
     2
 90
     1
140
5.0
141
0.0
143
0.0393701
146
0.71
147
1.5
172
     1
176
   256
177
   256
178
     2
271
     2
272
     3
274
     4
283
     0
284
     8
340
11
371
    -1
372
    -1
  0
DIMSTYLE
105
7FA4
330
A
100
AcDbSymbolTableRecord
100
AcDbDimStyleTableRecord
  2
AM_ISO$SF
 70
     0
  4
"
 41
2.5
 42
1.0
 43
10.0
 44
1.0
 47
0.1
 48
0.1
 73
     0
 74
     0
 75
     1
 76
     1
 77
     1
 78
     8
 79
     2
 90
     1
140
3.5
141
0.0
143
0.0393701
146
0.71
147
1.5
172
     1
176
   256
177
   256
178
     2
271
     2
272
     3
274
     4
283
     0
284
     8
340
11
371
    -1
372
    -1
  0
DIMSTYLE
105
7FA5
330
A
100
AcDbSymbolTableRecord
100
AcDbDimStyleTableRecord
  2
AM_ISO$SH
 70
     0
  4
"
 41
2.5
 42
1.0
 43
10.0
 44
1.0
 47
0.1
 48
0.1
 73
     0
 74
     0
 75
     1
 76
     1
 77
     1
 78
     8
 79
     2
 90
     1
140
3.5
141
0.0
143
0.0393701
144
2.0
146
0.71
147
1.5
172
     1
173
     1
176
   256
177
   256
178
     2
271
     2
272
     3
274
     4
283
     0
284
     8
340
11
343
74
371
    -1
372
    -1
  0
ENDTAB
  0
TABLE
  2
BLOCK_RECORD
  5
1
330
0
100
AcDbSymbolTable
 70
    30
  0
BLOCK_RECORD
  5
1F
102
{ACAD_XDICTIONARY
360
82
102
}
330
1
100
AcDbSymbolTableRecord
100
AcDbBlockTableRecord
  2
*Model_Space
340
22
 70
     0
280
     1
281
     0
  0
BLOCK_RECORD
  5
1B
330
1
100
AcDbSymbolTableRecord
100
AcDbBlockTableRecord
  2
*Paper_Space
340
1E
 70
     0
280
     1
281
     0
  0
BLOCK_RECORD
  5
23
330
1
100
AcDbSymbolTableRecord
100
AcDbBlockTableRecord
  2
*Paper_Space0
340
26
 70
     0
280
     1
281
     0
  0
BLOCK_RECORD
  5
69
330
1
100
AcDbSymbolTableRecord
100
AcDbBlockTableRecord
  2
_Open30
340
0
102
{BLKREFS
331
5C77
331
5C78
331
5D3D
331
5D3E
331
5D66
331
5D67
331
6529
331
652A
331
65E5
331
65E6
331
65F7
331
65F8
331
6609
331
660A
331
72E0
331
72F6
331
7AB3
331
7AB4
331
7D96
331
7D97
331
7DCA
331
7DCB
331
7DD2
331
7DD3
331
7DE3
331
7DE4
331
7E4B
331
7E4C
102
}
 70
     0
280
     1
281
     0
  0
BLOCK_RECORD
  5
74
330
1
100
AcDbSymbolTableRecord
100
AcDbBlockTableRecord
  2
GENAXEH
340
0
 70
     0
280
     1
281
     0
  0
BLOCK_RECORD
  5
2C8E
102
{ACAD_XDICTIONARY
360
2C8F
102
}
330
1
100
AcDbSymbolTableRecord
100
AcDbBlockTableRecord
  2
ロッカクアナツキプラグ R1／4
340
0
310
2800000020000000200000000100080000000000000400000000000000000000000000000000000000000000000080000080000000808000800000008000800080800000C0C0C000C0DCC000F0CAA6000020400000206000002080000020A0000020C0000020E00000400000004020000040400000406000004080000040A0
310
000040C0000040E00000600000006020000060400000606000006080000060A0000060C0000060E00000800000008020000080400000806000008080000080A0000080C0000080E00000A0000000A0200000A0400000A0600000A0800000A0A00000A0C00000A0E00000C0000000C0200000C0400000C0600000C0800000C0
310
A00000C0C00000C0E00000E0000000E0200000E0400000E0600000E0800000E0A00000E0C00000E0E00040000000400020004000400040006000400080004000A0004000C0004000E00040200000402020004020400040206000402080004020A0004020C0004020E000404000004040200040404000404060004040800040
310
40A0004040C0004040E00040600000406020004060400040606000406080004060A0004060C0004060E00040800000408020004080400040806000408080004080A0004080C0004080E00040A0000040A0200040A0400040A0600040A0800040A0A00040A0C00040A0E00040C0000040C0200040C0400040C0600040C08000
310
40C0A00040C0C00040C0E00040E0000040E0200040E0400040E0600040E0800040E0A00040E0C00040E0E00080000000800020008000400080006000800080008000A0008000C0008000E00080200000802020008020400080206000802080008020A0008020C0008020E00080400000804020008040400080406000804080
310
008040A0008040C0008040E00080600000806020008060400080606000806080008060A0008060C0008060E00080800000808020008080400080806000808080008080A0008080C0008080E00080A0000080A0200080A0400080A0600080A0800080A0A00080A0C00080A0E00080C0000080C0200080C0400080C0600080C0
310
800080C0A00080C0C00080C0E00080E0000080E0200080E0400080E0600080E0800080E0A00080E0C00080E0E000C0000000C0002000C0004000C0006000C0008000C000A000C000C000C000E000C0200000C0202000C0204000C0206000C0208000C020A000C020C000C020E000C0400000C0402000C0404000C0406000C0
310
408000C040A000C040C000C040E000C0600000C0602000C0604000C0606000C0608000C060A000C060C000C060E000C0800000C0802000C0804000C0806000C0808000C080A000C080C000C080E000C0A00000C0A02000C0A04000C0A06000C0A08000C0A0A000C0A0C000C0A0E000C0C00000C0C02000C0C04000C0C06000
310
C0C08000C0C0A000F0FBFF00A4A0A000808080000000FF0000FF000000FFFF00FF000000FF00FF00FFFF0000FFFFFF0000000000000000000000000000000000000000000000000000000000000000000000000000000000000000000000000000000000000000000000000000000000000000000000000000000000000000
310
000000000000000000000000000000000000000000000000000000000000000000F900000000000000000000000000000000000000000000000000000000000000F900000000000000000000000000000000000000000000000000000000000000F90000000000000000000000000000000000000000000000000000000000
310
0000F9000000000000000000000000000000000000000000000000000000000000FFFFFF000000000000000000000000000000000000000000000000000000FFFFFEFEFEFFFF0000000000000000000000000000000000000000000000FFFFFEFE00F900FEFEFFFF000000000000000000000000000000000000000000FFFE
310
000000F9000000FEFEFF00000000000000000000000000000000000000FFFE00000000F90000000000FEFF000000000000000000000000000000000000FF0000000000FF000000000000FEFF00000000000000000000000000000000FFFE000000FFFFF9FFFF00000000FEFF00000000000000000000000000000000FF0000
310
00FF0000F90000FF000000FEFF0000000000000000F9F9F9F9F9F9F9F9F9F9F9F9F9F9F9F9F9F9F9F9F9F9F9F9F9F9F9F9F9F900000000000000000000FF000000FF0000F90000FF000000FEFF00000000000000000000000000000000FFFE0000FFFF00F900FFFF000000FEFF0000000000000000000000000000000000FF
310
00000000FFFFFF0000000000FEFF0000000000000000000000000000000000FFFE00000000F90000000000FEFF00000000000000000000000000000000000000FF00000000F90000000000FF0000000000000000000000000000000000000000FFFEFE0000F900000000FF0000000000000000000000000000000000000000
310
0000FFFFFEFEFEFEFEFFFF00000000000000000000000000000000000000000000000000FFFFFFFFFF0000000000000000000000000000000000000000000000000000000000F900000000000000000000000000000000000000000000000000000000000000F9000000000000000000000000000000000000000000000000
310
00000000000000F900000000000000000000000000000000000000000000000000000000000000F900000000000000000000000000000000000000000000000000000000000000F900000000000000000000000000000000000000000000000000000000000000000000000000000000000000000000000000000000000000
310
0000000000000000000000000000000000000000000000000000000000000000000000000000000000000000000000000000000000000000
102
{BLKREFS
331
5A95
102
}
 70
     4
280
     1
281
     0
  0
BLOCK_RECORD
  5
4A73
330
1
100
AcDbSymbolTableRecord
100
AcDbBlockTableRecord
  2
*D7
340
0
 70
     0
280
     1
281
     0
  0
BLOCK_RECORD
  5
4AC4
330
1
100
AcDbSymbolTableRecord
100
AcDbBlockTableRecord
  2
*D8
340
0
 70
     0
280
     1
281
     0
  0
BLOCK_RECORD
  5
4B18
330
1
100
AcDbSymbolTableRecord
100
AcDbBlockTableRecord
  2
*D9
340
0
 70
     0
280
     1
281
     0
  0
BLOCK_RECORD
  5
4B30
330
1
100
AcDbSymbolTableRecord
100
AcDbBlockTableRecord
  2
*D10
340
0
 70
     0
280
     1
281
     0
  0
BLOCK_RECORD
  5
4B4C
330
1
100
AcDbSymbolTableRecord
100
AcDbBlockTableRecord
  2
*D11
340
0
 70
     0
280
     1
281
     0
  0
BLOCK_RECORD
  5
5A58
102
{ACAD_XDICTIONARY
360
6120
102
}
330
1
100
AcDbSymbolTableRecord
100
AcDbBlockTableRecord
  2
ケースＡ SSM355
340
0
310
2800000020000000200000000100080000000000000400000000000000000000000000000000000000000000000080000080000000808000800000008000800080800000C0C0C000C0DCC000F0CAA6000020400000206000002080000020A0000020C0000020E00000400000004020000040400000406000004080000040A0
310
000040C0000040E00000600000006020000060400000606000006080000060A0000060C0000060E00000800000008020000080400000806000008080000080A0000080C0000080E00000A0000000A0200000A0400000A0600000A0800000A0A00000A0C00000A0E00000C0000000C0200000C0400000C0600000C0800000C0
310
A00000C0C00000C0E00000E0000000E0200000E0400000E0600000E0800000E0A00000E0C00000E0E00040000000400020004000400040006000400080004000A0004000C0004000E00040200000402020004020400040206000402080004020A0004020C0004020E000404000004040200040404000404060004040800040
310
40A0004040C0004040E00040600000406020004060400040606000406080004060A0004060C0004060E00040800000408020004080400040806000408080004080A0004080C0004080E00040A0000040A0200040A0400040A0600040A0800040A0A00040A0C00040A0E00040C0000040C0200040C0400040C0600040C08000
310
40C0A00040C0C00040C0E00040E0000040E0200040E0400040E0600040E0800040E0A00040E0C00040E0E00080000000800020008000400080006000800080008000A0008000C0008000E00080200000802020008020400080206000802080008020A0008020C0008020E00080400000804020008040400080406000804080
310
008040A0008040C0008040E00080600000806020008060400080606000806080008060A0008060C0008060E00080800000808020008080400080806000808080008080A0008080C0008080E00080A0000080A0200080A0400080A0600080A0800080A0A00080A0C00080A0E00080C0000080C0200080C0400080C0600080C0
310
800080C0A00080C0C00080C0E00080E0000080E0200080E0400080E0600080E0800080E0A00080E0C00080E0E000C0000000C0002000C0004000C0006000C0008000C000A000C000C000C000E000C0200000C0202000C0204000C0206000C0208000C020A000C020C000C020E000C0400000C0402000C0404000C0406000C0
310
408000C040A000C040C000C040E000C0600000C0602000C0604000C0606000C0608000C060A000C060C000C060E000C0800000C0802000C0804000C0806000C0808000C080A000C080C000C080E000C0A00000C0A02000C0A04000C0A06000C0A08000C0A0A000C0A0C000C0A0E000C0C00000C0C02000C0C04000C0C06000
310
C0C08000C0C0A000F0FBFF00A4A0A000808080000000FF0000FF000000FFFF00FF000000FF00FF00FFFF0000FFFFFF00000000000000000000000000000000000000000000000000000000000000000000000000000000000000000000FFFF000000000000000000000000000000000000000000000000000000000000FFFF
310
000000000000000000000000000000000000000000000000000000000000FFFF000000000000000000000000000000000000000000000000000000000000FFFFFFFFFFFFFFFFFF0000000000000000000000000000000000000000000000FFFF000000000000FF0000000000000000000000000000000000000000000000FF
310
FF000000000000FF0000000000000000000000000000000000000000000000FFFF000000000000FF0000000000000000000000000000000000000000000000FFFF000000000000FF0000000000000000000000000000000000000000000000FFFF000000000000FF0000000000000000000000000000000000000000000000
310
FFFF000000000000FF0000000000000000000000000000000000000000000000F9FF000000000000FF00000000000000000000000000000000000000000000F9FFFF000000000000FF0000000000000000000000000000000000000000000000FFFF000000000000FF00000000000000000000000000000000000000000000
310
00FFFF000000000000FF0000000000000000000000000000000000000000000000FFFF000000000000FF0000000000000000000000000000000000000000000000FFFF000000000000FF0000000000000000000000000000000000000000000000000000000000000000000000000000000000000000000000000000000000
310
00000000000000000000000000000000000000000000000000000000000000000000000000000000000000000000000000000000000000000000000000000000000000000000000000000000000000000000000000000000000000000000000000000000000000000000000000000000000000000000000000000000000000
310
000000000000000000000000000000000000000000000000000000000000000000000000000000000000000000000000000000000000000000000000000000000000000000000000000000000000000000000000000000000000000000000000000000000000FF000000FFFF00000000000000000000000000000000000000
310
000000FFFFFFFFFFA4A4FFFFFF00000000000000000000000000000000000000000000FFFFFFFFFFFFFFFFFFFF0000000000000000000000000000000000000000F9F9F9FFFFF9F9F9000000000000000000000000000000000000000000000000000000FFFF00000000000000000000000000000000000000000000000000
310
0000000000FFFF00000000000000000000000000000000000000000000000000000000000000000000000000000000000000000000000000
102
{BLKREFS
331
5AB3
102
}
 70
     4
280
     1
281
     0
  0
BLOCK_RECORD
  5
5B31
102
{ACAD_XDICTIONARY
360
5BF7
102
}
330
1
100
AcDbSymbolTableRecord
100
AcDbBlockTableRecord
  2
ケースＢ SSM355
340
0
310
2800000020000000200000000100080000000000000400000000000000000000000000000000000000000000000080000080000000808000800000008000800080800000C0C0C000C0DCC000F0CAA6000020400000206000002080000020A0000020C0000020E00000400000004020000040400000406000004080000040A0
310
000040C0000040E00000600000006020000060400000606000006080000060A0000060C0000060E00000800000008020000080400000806000008080000080A0000080C0000080E00000A0000000A0200000A0400000A0600000A0800000A0A00000A0C00000A0E00000C0000000C0200000C0400000C0600000C0800000C0
310
A00000C0C00000C0E00000E0000000E0200000E0400000E0600000E0800000E0A00000E0C00000E0E00040000000400020004000400040006000400080004000A0004000C0004000E00040200000402020004020400040206000402080004020A0004020C0004020E000404000004040200040404000404060004040800040
310
40A0004040C0004040E00040600000406020004060400040606000406080004060A0004060C0004060E00040800000408020004080400040806000408080004080A0004080C0004080E00040A0000040A0200040A0400040A0600040A0800040A0A00040A0C00040A0E00040C0000040C0200040C0400040C0600040C08000
310
40C0A00040C0C00040C0E00040E0000040E0200040E0400040E0600040E0800040E0A00040E0C00040E0E00080000000800020008000400080006000800080008000A0008000C0008000E00080200000802020008020400080206000802080008020A0008020C0008020E00080400000804020008040400080406000804080
310
008040A0008040C0008040E00080600000806020008060400080606000806080008060A0008060C0008060E00080800000808020008080400080806000808080008080A0008080C0008080E00080A0000080A0200080A0400080A0600080A0800080A0A00080A0C00080A0E00080C0000080C0200080C0400080C0600080C0
310
800080C0A00080C0C00080C0E00080E0000080E0200080E0400080E0600080E0800080E0A00080E0C00080E0E000C0000000C0002000C0004000C0006000C0008000C000A000C000C000C000E000C0200000C0202000C0204000C0206000C0208000C020A000C020C000C020E000C0400000C0402000C0404000C0406000C0
310
408000C040A000C040C000C040E000C0600000C0602000C0604000C0606000C0608000C060A000C060C000C060E000C0800000C0802000C0804000C0806000C0808000C080A000C080C000C080E000C0A00000C0A02000C0A04000C0A06000C0A08000C0A0A000C0A0C000C0A0E000C0C00000C0C02000C0C04000C0C06000
310
C0C08000C0C0A000F0FBFF00A4A0A000808080000000FF0000FF000000FFFF00FF000000FF00FF00FFFF0000FFFFFF0000000000000000000000000000000000000000000000000000000000000000000000000000000000000000000000000000FFFFFF000000000000000000000000000000000000000000000000000000
310
0000FF00000000000000000000000000000000000000000000000000000000000000F9F9F9F9F90000000000000000000000000000000000000000FFFFFFFFFFFFFFFF000000000000000000000000000000000000000000000000FF000000000000FF000000000000000000000000000000000000000000000000FF000000
310
000000FF000000000000000000000000000000000000000000000000FF000000000000FF000000000000000000000000000000000000000000000000FF000000000000FF000000000000000000000000000000000000000000000000FF000000000000FF000000000000000000000000000000000000000000000000FF0000
310
00000000FF000000000000000000000000000000000000000000000000FF000000000000FF000000000000000000000000000000000000000000000000FF000000000000FF000000000000000000000000000000000000000000000000FF000000000000FF000000000000000000000000000000000000000000000000FF00
310
0000000000FF000000000000000000000000000000000000000000000000FF000000000000FF000000000000000000000000000000000000000000000000FF000000000000FF000000000000000000000000000000000000000000000000000000000000000000000000000000000000000000000000000000000000000000
310
00000000000000000000000000000000000000000000000000000000000000000000000000000000000000000000000000000000000000000000000000000000000000000000000000000000000000000000000000000000000000000000000000000000000000000000000000000000000000000000000000000000000000
310
000000000000000000000000000000000000000000000000000000000000000000000000000000000000000000000000000000000000000000000000000000000000000000000000000000000000000000000000000000000000000000000000FFFFFF000000FF000000000000000000000000000000000000000000000000
310
00FFFFFFA4A4FFFFFFFF0000000000000000000000000000000000000000000000FFFFFFFFFFFFFFFFFFFF0000000000000000000000000000000000000000000000000000000000FFFFFF0000000000000000000000000000000000000000000000000000000000FFFFFF0000000000000000000000000000000000000000
310
000000000000000000FFFFFF0000000000000000000000000000000000000000000000000000000000000000000000000000000000000000
102
{BLKREFS
331
5B7D
102
}
 70
     4
280
     1
281
     0
  0
BLOCK_RECORD
  5
5C44
102
{ACAD_XDICTIONARY
360
694C
102
}
330
1
100
AcDbSymbolTableRecord
100
AcDbBlockTableRecord
  2
センタＡ SSM355
340
0
310
2800000020000000200000000100080000000000000400000000000000000000000000000000000000000000000080000080000000808000800000008000800080800000C0C0C000C0DCC000F0CAA6000020400000206000002080000020A0000020C0000020E00000400000004020000040400000406000004080000040A0
310
000040C0000040E00000600000006020000060400000606000006080000060A0000060C0000060E00000800000008020000080400000806000008080000080A0000080C0000080E00000A0000000A0200000A0400000A0600000A0800000A0A00000A0C00000A0E00000C0000000C0200000C0400000C0600000C0800000C0
310
A00000C0C00000C0E00000E0000000E0200000E0400000E0600000E0800000E0A00000E0C00000E0E00040000000400020004000400040006000400080004000A0004000C0004000E00040200000402020004020400040206000402080004020A0004020C0004020E000404000004040200040404000404060004040800040
310
40A0004040C0004040E00040600000406020004060400040606000406080004060A0004060C0004060E00040800000408020004080400040806000408080004080A0004080C0004080E00040A0000040A0200040A0400040A0600040A0800040A0A00040A0C00040A0E00040C0000040C0200040C0400040C0600040C08000
310
40C0A00040C0C00040C0E00040E0000040E0200040E0400040E0600040E0800040E0A00040E0C00040E0E00080000000800020008000400080006000800080008000A0008000C0008000E00080200000802020008020400080206000802080008020A0008020C0008020E00080400000804020008040400080406000804080
310
008040A0008040C0008040E00080600000806020008060400080606000806080008060A0008060C0008060E00080800000808020008080400080806000808080008080A0008080C0008080E00080A0000080A0200080A0400080A0600080A0800080A0A00080A0C00080A0E00080C0000080C0200080C0400080C0600080C0
310
800080C0A00080C0C00080C0E00080E0000080E0200080E0400080E0600080E0800080E0A00080E0C00080E0E000C0000000C0002000C0004000C0006000C0008000C000A000C000C000C000E000C0200000C0202000C0204000C0206000C0208000C020A000C020C000C020E000C0400000C0402000C0404000C0406000C0
310
408000C040A000C040C000C040E000C0600000C0602000C0604000C0606000C0608000C060A000C060C000C060E000C0800000C0802000C0804000C0806000C0808000C080A000C080C000C080E000C0A00000C0A02000C0A04000C0A06000C0A08000C0A0A000C0A0C000C0A0E000C0C00000C0C02000C0C04000C0C06000
310
C0C08000C0C0A000F0FBFF00A4A0A000808080000000FF0000FF000000FFFF00FF000000FF00FF00FFFF0000FFFFFF00000000000000000000000000000000000000000000000000000000000000000000000000000000000000000000000000FFFFFFFFFFFFFFFFFFFF000000000000000000000000000000000000000000
310
00000000FF000000000000FF000000000000000000000000000000000000000000000000FF000000000000FF000000000000000000000000000000000000000000000000FF000000000000FF000000000000000000000000000000000000000000000000FF000000000000FF00000000000000000000000000000000000000
310
0000000000FF000000000000FF000000000000000000000000000000000000000000000000FF000000000000FF000000000000000000000000000000000000000000000000FF000000000000FF000000000000000000000000000000000000000000000000FF000000000000FF000000000000000000000000000000000000
310
000000000000FF000000000000FF000000000000000000000000000000000000000000000000FF000000000000FF000000000000000000000000000000000000000000000000FF000000000000FF000000000000000000000000000000000000000000000000FF000000000000FF0000000000000000000000000000000000
310
00000000000000FF000000000000FF00000000000000000000A4A4A4A4A4A40000000000000000FF0000000000FFFF00000000000000000000A4A4A4A4A4000000000000000000000000000000FFFF00000000000000000000FF00000000000000000000000000000000000000FFFF00000000000000000000FF0000000000
310
0000000000000000000000000000FFFF00000000000000000000FF00000000000000000000000000000000000000FFFF00000000000000000000FF00000000000000000000000000000000000000FFFF00000000000000000000FF00000000000000000000000000000000000000FFFF00000000000000000000FF00000000
310
000000000000000000000000000000FFFF00000000000000000000FFFFFFFFFFFFFFFFFFFFFFFFFFFFFFFFFFFFFFFFFFFF00000000000000000000FFFFFFFFFFFFFFFFFFFFFFFFFFFFFFFFFFFFFFFFFFFF00000000000000000000FF0000000000000000000000000000000000000000FF00000000000000000000FF000000
310
0000000000000000000000000000000000FF00000000000000000000FF0000000000000000000000000000000000000000FF0000000000000000000000FFFFFFFFFFF9FFFFFFFFFFFFFFFFFFFFFFFFFFFF000000000000000000000000000000FFFFF9FFFFFF00000000000000000000000000000000000000000000000000
310
000000F900000000000000000000000000000000000000000000000000000000000000000000000000000000000000000000000000000000
102
{BLKREFS
331
5C91
102
}
 70
     4
280
     1
281
     0
  0
BLOCK_RECORD
  5
5D11
102
{ACAD_XDICTIONARY
360
699E
102
}
330
1
100
AcDbSymbolTableRecord
100
AcDbBlockTableRecord
  2
センタＢ SSM355
340
0
310
2800000020000000200000000100080000000000000400000000000000000000000000000000000000000000000080000080000000808000800000008000800080800000C0C0C000C0DCC000F0CAA6000020400000206000002080000020A0000020C0000020E00000400000004020000040400000406000004080000040A0
310
000040C0000040E00000600000006020000060400000606000006080000060A0000060C0000060E00000800000008020000080400000806000008080000080A0000080C0000080E00000A0000000A0200000A0400000A0600000A0800000A0A00000A0C00000A0E00000C0000000C0200000C0400000C0600000C0800000C0
310
A00000C0C00000C0E00000E0000000E0200000E0400000E0600000E0800000E0A00000E0C00000E0E00040000000400020004000400040006000400080004000A0004000C0004000E00040200000402020004020400040206000402080004020A0004020C0004020E000404000004040200040404000404060004040800040
310
40A0004040C0004040E00040600000406020004060400040606000406080004060A0004060C0004060E00040800000408020004080400040806000408080004080A0004080C0004080E00040A0000040A0200040A0400040A0600040A0800040A0A00040A0C00040A0E00040C0000040C0200040C0400040C0600040C08000
310
40C0A00040C0C00040C0E00040E0000040E0200040E0400040E0600040E0800040E0A00040E0C00040E0E00080000000800020008000400080006000800080008000A0008000C0008000E00080200000802020008020400080206000802080008020A0008020C0008020E00080400000804020008040400080406000804080
310
008040A0008040C0008040E00080600000806020008060400080606000806080008060A0008060C0008060E00080800000808020008080400080806000808080008080A0008080C0008080E00080A0000080A0200080A0400080A0600080A0800080A0A00080A0C00080A0E00080C0000080C0200080C0400080C0600080C0
310
800080C0A00080C0C00080C0E00080E0000080E0200080E0400080E0600080E0800080E0A00080E0C00080E0E000C0000000C0002000C0004000C0006000C0008000C000A000C000C000C000E000C0200000C0202000C0204000C0206000C0208000C020A000C020C000C020E000C0400000C0402000C0404000C0406000C0
310
408000C040A000C040C000C040E000C0600000C0602000C0604000C0606000C0608000C060A000C060C000C060E000C0800000C0802000C0804000C0806000C0808000C080A000C080C000C080E000C0A00000C0A02000C0A04000C0A06000C0A08000C0A0A000C0A0C000C0A0E000C0C00000C0C02000C0C04000C0C06000
310
C0C08000C0C0A000F0FBFF00A4A0A000808080000000FF0000FF000000FFFF00FF000000FF00FF00FFFF0000FFFFFF000000000000000000000000000000000000000000000000000000000000000000000000000000FFFFFFFFFFFFFFFFFFFF000000000000000000000000000000000000000000FF000000000000FF0000
310
00000000000000000000000000000000000000000000FF000000000000FF000000000000000000000000000000000000000000000000FF000000000000FF000000000000000000000000000000000000000000000000FF000000000000FF000000000000000000000000000000000000000000000000FF000000000000FF00
310
0000000000000000000000000000000000000000000000FF000000000000FF000000000000000000000000000000000000000000000000FF000000000000FF000000000000000000000000000000000000000000000000FF000000000000FF000000000000000000000000000000000000000000000000FF000000000000FF
310
000000000000000000000000000000000000000000000000FF000000000000FF000000000000000000000000000000000000000000000000FF000000000000FF000000000000000000000000000000000000000000000000FF000000000000FF000000000000000000000000000000000000000000000000FF000000000000
310
FF000000000000000000000000000000000000000000000000FFFF0000000000FF0000000000000000A4A4A4A4A4A400000000000000000000FFFF000000000000000000000000000000A4A4A4A4A400000000000000000000FFFF00000000000000000000000000000000000000FF00000000000000000000FFFF00000000
310
000000000000000000000000000000FF00000000000000000000FFFF00000000000000000000000000000000000000FF00000000000000000000FFFF00000000000000000000000000000000000000FF00000000000000000000FFFF00000000000000000000000000000000000000FF00000000000000000000FFFF000000
310
00000000000000000000000000000000FF00000000000000000000FFFFFFFFFFFFFFFFFFFFFFFFFFFFFFFFFFFFFFFFFFFF00000000000000000000FFFFFFFFFFFFFFFFFFFFFFFFFFFFFFFFFFFFFFFFFFFF00000000000000000000FF0000000000000000000000000000000000000000FF00000000000000000000FF000000
310
0000000000000000000000000000000000FF00000000000000000000FF0000000000000000000000000000000000000000FF0000000000000000000000FFFFFFFFFFFFFFFFFFFFFFFFFFFFF9FFFFFFFFFF0000000000000000000000000000000000000000000000FFFFFFF9FFFF0000000000000000000000000000000000
310
000000000000000000000000F900000000000000000000000000000000000000000000000000000000000000000000000000000000000000
102
{BLKREFS
331
5D7E
102
}
 70
     4
280
     1
281
     0
  0
BLOCK_RECORD
  5
5F0B
102
{ACAD_XDICTIONARY
360
5F9F
102
}
330
1
100
AcDbSymbolTableRecord
100
AcDbBlockTableRecord
  2
リーマボルト SSM355 M16
340
0
310
2800000020000000200000000100080000000000000400000000000000000000000000000000000000000000000080000080000000808000800000008000800080800000C0C0C000C0DCC000F0CAA6000020400000206000002080000020A0000020C0000020E00000400000004020000040400000406000004080000040A0
310
000040C0000040E00000600000006020000060400000606000006080000060A0000060C0000060E00000800000008020000080400000806000008080000080A0000080C0000080E00000A0000000A0200000A0400000A0600000A0800000A0A00000A0C00000A0E00000C0000000C0200000C0400000C0600000C0800000C0
310
A00000C0C00000C0E00000E0000000E0200000E0400000E0600000E0800000E0A00000E0C00000E0E00040000000400020004000400040006000400080004000A0004000C0004000E00040200000402020004020400040206000402080004020A0004020C0004020E000404000004040200040404000404060004040800040
310
40A0004040C0004040E00040600000406020004060400040606000406080004060A0004060C0004060E00040800000408020004080400040806000408080004080A0004080C0004080E00040A0000040A0200040A0400040A0600040A0800040A0A00040A0C00040A0E00040C0000040C0200040C0400040C0600040C08000
310
40C0A00040C0C00040C0E00040E0000040E0200040E0400040E0600040E0800040E0A00040E0C00040E0E00080000000800020008000400080006000800080008000A0008000C0008000E00080200000802020008020400080206000802080008020A0008020C0008020E00080400000804020008040400080406000804080
310
008040A0008040C0008040E00080600000806020008060400080606000806080008060A0008060C0008060E00080800000808020008080400080806000808080008080A0008080C0008080E00080A0000080A0200080A0400080A0600080A0800080A0A00080A0C00080A0E00080C0000080C0200080C0400080C0600080C0
310
800080C0A00080C0C00080C0E00080E0000080E0200080E0400080E0600080E0800080E0A00080E0C00080E0E000C0000000C0002000C0004000C0006000C0008000C000A000C000C000C000E000C0200000C0202000C0204000C0206000C0208000C020A000C020C000C020E000C0400000C0402000C0404000C0406000C0
310
408000C040A000C040C000C040E000C0600000C0602000C0604000C0606000C0608000C060A000C060C000C060E000C0800000C0802000C0804000C0806000C0808000C080A000C080C000C080E000C0A00000C0A02000C0A04000C0A06000C0A08000C0A0A000C0A0C000C0A0E000C0C00000C0C02000C0C04000C0C06000
310
C0C08000C0C0A000F0FBFF00A4A0A000808080000000FF0000FF000000FFFF00FF000000FF00FF00FFFF0000FFFFFF0000000000000000000000000000000000000000000000000000000000000000000000000000000000000000000000000000000000000000000000000000000000000000000000000000000000000000
310
00000000000000000000000000000000000000000000000000000000000000000000000000000000000000000000000000000000000000000000000000000000000000000000000000000000000000000000000000000000000000000000000000000000000000000000000000000000000000000000000000000000000000
310
0000000000000000000000000000000000000000000000000000000000000000000000000000000000000000000000000000000000000000000000000000000000000000000000000000000000000000000000000000000000000000000000000000000000000000000000000000000000000000FFFFFFFF00000000000000
310
0000000000000000FFFFFFFFFFFFFF0000000000FFFF00000000000000000000000000000000000000FF00000000FF0000000000FFFF0000FFFF00000000000000000000000000FFFFFF00000000FFFFFF000000FFFFFFFFFFFF00000000000000000000000000FFFFFFFFFFFFFFFFFEFEFF0000FFFF000000FF0000000000
310
0000000000000000FFFFFF00000000FF00FFFF0000FFFF000000FF00000000000000000000000000FFFFFF00000000FF00FFFF0000FFFF000000FF00000000000000000000000000FFFFFF00000000FF00FFFF0000FFFF000000FF00000000000000000000000000FFFFFF00000000FF00FFFF0000FFFFFFFFFFFF00000000
310
000000000000000000FFFFFFFFFFFFFFFFFEFEFF0000FFFF0000FFFF00000000000000000000000000FFFFFF00000000FFFFFF000000FFFF00000000000000000000000000000000000000FF00000000FF000000000000FFFFFFFF000000000000000000000000000000FFFFFFFFFFFFFF0000000000000000000000000000
310
00000000000000000000000000000000000000000000000000000000000000000000000000000000000000000000000000000000000000000000000000000000000000000000000000000000000000000000000000000000000000000000000000000000000000000000000000000000000000000000000000000000000000
310
00000000000000000000000000000000000000000000000000000000000000000000000000000000000000000000000000000000000000000000000000000000000000000000000000000000000000000000000000000000000000000000000000000000000000000000000000000000000000000000000000000000000000
310
0000000000000000000000000000000000000000000000000000000000000000000000000000000000000000000000000000000000000000
102
{BLKREFS
331
5F3A
102
}
 70
     4
280
     1
281
     0
  0
BLOCK_RECORD
  5
6335
330
1
100
AcDbSymbolTableRecord
100
AcDbBlockTableRecord
  2
*D17
340
0
 70
     0
280
     1
281
     0
  0
BLOCK_RECORD
  5
6351
330
1
100
AcDbSymbolTableRecord
100
AcDbBlockTableRecord
  2
*D18
340
0
 70
     0
280
     1
281
     0
  0
BLOCK_RECORD
  5
64C9
330
1
100
AcDbSymbolTableRecord
100
AcDbBlockTableRecord
  2
*D19
340
0
 70
     0
280
     1
281
     0
  0
BLOCK_RECORD
  5
6519
330
1
100
AcDbSymbolTableRecord
100
AcDbBlockTableRecord
  2
*D20
340
0
 70
     0
280
     1
281
     0
  0
BLOCK_RECORD
  5
6592
330
1
100
AcDbSymbolTableRecord
100
AcDbBlockTableRecord
  2
*D21
340
0
 70
     0
280
     1
281
     0
  0
BLOCK_RECORD
  5
65AA
330
1
100
AcDbSymbolTableRecord
100
AcDbBlockTableRecord
  2
*D22
340
0
 70
     0
280
     1
281
     0
  0
BLOCK_RECORD
  5
65C2
330
1
100
AcDbSymbolTableRecord
100
AcDbBlockTableRecord
  2
*D23
340
0
 70
     0
280
     1
281
     0
  0
BLOCK_RECORD
  5
7224
330
1
100
AcDbSymbolTableRecord
100
AcDbBlockTableRecord
  2
GENDOT
340
0
102
{BLKREFS
331
72DF
331
72F5
102
}
 70
     0
280
     1
281
     0
  0
BLOCK_RECORD
  5
7BD2
330
1
100
AcDbSymbolTableRecord
100
AcDbBlockTableRecord
  2
*D25
340
0
 70
     0
280
     1
281
     0
  0
BLOCK_RECORD
  5
7BFC
330
1
100
AcDbSymbolTableRecord
100
AcDbBlockTableRecord
  2
*D26
340
0
 70
     0
280
     1
281
     0
  0
BLOCK_RECORD
  5
7C94
330
1
100
AcDbSymbolTableRecord
100
AcDbBlockTableRecord
  2
*D27
340
0
 70
     0
280
     1
281
     0
  0
BLOCK_RECORD
  5
7EDF
330
1
100
AcDbSymbolTableRecord
100
AcDbBlockTableRecord
  2
ケース
340
0
310
2800000020000000200000000100080000000000000400000000000000000000000000000000000000000000000080000080000000808000800000008000800080800000C0C0C000C0DCC000F0CAA6000020400000206000002080000020A0000020C0000020E00000400000004020000040400000406000004080000040A0
310
000040C0000040E00000600000006020000060400000606000006080000060A0000060C0000060E00000800000008020000080400000806000008080000080A0000080C0000080E00000A0000000A0200000A0400000A0600000A0800000A0A00000A0C00000A0E00000C0000000C0200000C0400000C0600000C0800000C0
310
A00000C0C00000C0E00000E0000000E0200000E0400000E0600000E0800000E0A00000E0C00000E0E00040000000400020004000400040006000400080004000A0004000C0004000E00040200000402020004020400040206000402080004020A0004020C0004020E000404000004040200040404000404060004040800040
310
40A0004040C0004040E00040600000406020004060400040606000406080004060A0004060C0004060E00040800000408020004080400040806000408080004080A0004080C0004080E00040A0000040A0200040A0400040A0600040A0800040A0A00040A0C00040A0E00040C0000040C0200040C0400040C0600040C08000
310
40C0A00040C0C00040C0E00040E0000040E0200040E0400040E0600040E0800040E0A00040E0C00040E0E00080000000800020008000400080006000800080008000A0008000C0008000E00080200000802020008020400080206000802080008020A0008020C0008020E00080400000804020008040400080406000804080
310
008040A0008040C0008040E00080600000806020008060400080606000806080008060A0008060C0008060E00080800000808020008080400080806000808080008080A0008080C0008080E00080A0000080A0200080A0400080A0600080A0800080A0A00080A0C00080A0E00080C0000080C0200080C0400080C0600080C0
310
800080C0A00080C0C00080C0E00080E0000080E0200080E0400080E0600080E0800080E0A00080E0C00080E0E000C0000000C0002000C0004000C0006000C0008000C000A000C000C000C000E000C0200000C0202000C0204000C0206000C0208000C020A000C020C000C020E000C0400000C0402000C0404000C0406000C0
310
408000C040A000C040C000C040E000C0600000C0602000C0604000C0606000C0608000C060A000C060C000C060E000C0800000C0802000C0804000C0806000C0808000C080A000C080C000C080E000C0A00000C0A02000C0A04000C0A06000C0A08000C0A0A000C0A0C000C0A0E000C0C00000C0C02000C0C04000C0C06000
310
C0C08000C0C0A000F0FBFF00A4A0A000808080000000FF0000FF000000FFFF00FF000000FF00FF00FFFF0000FFFFFF0000000000000000000000000000000000000000000000000000000000000000000000000000000000000000000000000000000000000000000000000000000000000000000000000000000000000000
310
00000000000000000000000000000000000000000000000000000000000000000000000000000000000000000000000000000000000000000000000000000000000000000000000000000000000000000000000000000000000000000000000000000000000000000000000000000000000000000000000000000000000000
310
000000000000000000000000000000000000000000000000000000000000000000000000000000000000000000000000000000FC0000FC0000000000000000FC00FC0000000000000000000000000000000000FCFCFCFC0000000000000000FCFCFC0000000000000000000000000000000000FC0000FC0000000000000000
310
FC00FC0000000000000000000000000000000000FC0000FC0000000000000000FC00FC0000000000FCFCFCFCFCFCFCFCFCFC0000FC0000FC0000000000000000FC00FC00000000FC000000000000000000000000FC0000FCFCFCFCFCFCFCFCFCFC00FC000000FCFCFCFCFCFCFCFCFCFCFCFC0000FC00000000000000000000
310
000000FC00000000FC000000000000000000000000FC00000000000000000000000000FC00000000FC000000000000000000000000FC00000000000000000000000000FC00000000FC000000000000000000000000FC00000000000000000000000000FC00000000FCFCFCFCFCFCFCFCFCFCFC0000FC000000000000000000
310
0000000000FCFCFCFCFC000000000000000000000000FC00000000000000000000000000000000000000000000000000000000000000FC0000000000000000000000000000000000000000000000000000000000000000FCFC0000000000000000000000000000000000000000000000000000000000000000FC0000000000
310
000000000000000000000000000000000000000000000000000000FCFCFCFCFCFCFCFCFCFCFCFCFCFCFCFCFCFCFCFCFCFCFCFCFCFC0000000000000000000000000000000000000000000000000000000000000000000000000000000000000000000000000000000000000000000000000000000000000000000000000000
310
00000000000000000000000000000000000000000000000000000000000000000000000000000000000000000000000000000000000000000000000000000000000000000000000000000000000000000000000000000000000000000000000000000000000000000000000000000000000000000000000000000000000000
310
0000000000000000000000000000000000000000000000000000000000000000000000000000000000000000000000000000000000000000
102
{BLKREFS
331
7EFA
102
}
 70
     4
280
     1
281
     1
  0
ENDTAB
  0
ENDSEC
  0
SECTION
  2
BLOCKS
  0
BLOCK
  5
20
330
1F
100
AcDbEntity
  8
0
100
AcDbBlockBegin
  2
*Model_Space
 70
     0
 10
0.0
 20
0.0
 30
0.0
  3
*Model_Space
  1

  0
ENDBLK
  5
21
330
1F
100
AcDbEntity
  8
0
100
AcDbBlockEnd
  0
BLOCK
  5
1C
330
1B
100
AcDbEntity
 67
     1
  8
0
100
AcDbBlockBegin
  2
*Paper_Space
 70
     0
 10
0.0
 20
0.0
 30
0.0
  3
*Paper_Space
  1

  0
ENDBLK
  5
1D
330
1B
100
AcDbEntity
 67
     1
  8
0
100
AcDbBlockEnd
  0
BLOCK
  5
24
330
23
100
AcDbEntity
 67
     1
  8
0
100
AcDbBlockBegin
  2
*Paper_Space0
 70
     0
 10
0.0
 20
0.0
 30
0.0
  3
*Paper_Space0
  1

  0
ENDBLK
  5
25
330
23
100
AcDbEntity
 67
     1
  8
0
100
AcDbBlockEnd
  0
BLOCK
  5
6D
330
69
100
AcDbEntity
  8
0
100
AcDbBlockBegin
  2
_Open30
 70
     0
 10
0.0
 20
0.0
 30
0.0
  3
_Open30
  1

  0
LINE
  5
6A
330
69
100
AcDbEntity
  8
0
  6
ByBlock
 62
     0
370
    -2
100
AcDbLine
 10
-1.0
 20
0.26794919
 30
0.0
 11
0.0
 21
0.0
 31
0.0
  0
LINE
  5
6B
330
69
100
AcDbEntity
  8
0
  6
ByBlock
 62
     0
370
    -2
100
AcDbLine
 10
0.0
 20
0.0
 30
0.0
 11
-1.0
 21
-0.26794919
 31
0.0
  0
LINE
  5
6C
330
69
100
AcDbEntity
  8
0
  6
ByBlock
 62
     0
370
    -2
100
AcDbLine
 10
0.0
 20
0.0
 30
0.0
 11
-1.0
 21
0.0
 31
0.0
  0
ENDBLK
  5
6E
330
69
100
AcDbEntity
  8
0
100
AcDbBlockEnd
  0
BLOCK
  5
76
330
74
100
AcDbEntity
  8
0
100
AcDbBlockBegin
  2
GENAXEH
 70
     0
 10
0.0
 20
0.0
 30
0.0
  3
GENAXEH
  1

  0
LINE
  5
75
330
74
100
AcDbEntity
  8
0
100
AcDbLine
 10
-1.0
 20
0.0
 30
0.0
 11
1.0
 21
0.0
 31
0.0
  0
ENDBLK
  5
77
330
74
100
AcDbEntity
  8
0
100
AcDbBlockEnd
  0
BLOCK
  5
2C91
330
2C8E
100
AcDbEntity
  8
0
100
AcDbBlockBegin
  2
ロッカクアナツキプラグ R1／4
 70
     0
 10
0.0
 20
0.0
 30
0.0
  3
ロッカクアナツキプラグ R1／4
  1

  0
LINE
  5
59CA
330
2C8E
100
AcDbEntity
  8
AM_7 中心線
100
AcDbLine
 10
0.0
 20
11.70438399999989
 30
0.0
 11
0.0
 21
-11.16571499999998
 31
0.0
  0
CIRCLE
  5
59CB
330
2C8E
100
AcDbEntity
  8
AM_4 細線
100
AcDbCircle
 10
0.0
 20
0.0
 30
0.0
 40
6.504976
  0
CIRCLE
  5
59CC
330
2C8E
100
AcDbEntity
  8
AM_0 外形線1
100
AcDbCircle
 10
0.0
 20
0.0
 30
0.0
 40
7.174975999999999
  0
LINE
  5
59CD
330
2C8E
100
AcDbEntity
  8
AM_0 外形線1
100
AcDbLine
 10
2.611067000000048
 20
-1.50750000000005
 30
0.0
 11
2.611067000000048
 21
1.507499999999935
 31
0.0
  0
LINE
  5
59CE
330
2C8E
100
AcDbEntity
  8
AM_0 外形線1
100
AcDbLine
 10
-2.611067000000048
 20
1.507499999999935
 30
0.0
 11
-2.611067000000048
 21
-1.50750000000005
 31
0.0
  0
LINE
  5
59CF
330
2C8E
100
AcDbEntity
  8
AM_7 中心線
100
AcDbLine
 10
12.28604600000017
 20
0.0
 30
0.0
 11
-13.67190699999992
 21
0.0
 31
0.0
  0
LINE
  5
59D0
330
2C8E
100
AcDbEntity
  8
AM_0 外形線1
100
AcDbLine
 10
0.0
 20
-3.014999999999986
 30
0.0
 11
2.611067000000048
 21
-1.50750000000005
 31
0.0
  0
LINE
  5
59D1
330
2C8E
100
AcDbEntity
  8
AM_0 外形線1
100
AcDbLine
 10
-2.611067000000048
 20
-1.50750000000005
 30
0.0
 11
0.0
 21
-3.014999999999986
 31
0.0
  0
LINE
  5
59D2
330
2C8E
100
AcDbEntity
  8
AM_0 外形線1
100
AcDbLine
 10
2.611067000000048
 20
1.507499999999935
 30
0.0
 11
0.0
 21
3.014999999999986
 31
0.0
  0
LINE
  5
59D3
330
2C8E
100
AcDbEntity
  8
AM_0 外形線1
100
AcDbLine
 10
0.0
 20
3.014999999999986
 30
0.0
 11
-2.611067000000048
 21
1.507499999999935
 31
0.0
  0
ENDBLK
  5
2C9C
330
2C8E
100
AcDbEntity
  8
0
100
AcDbBlockEnd
  0
BLOCK
  5
4A74
330
4A73
100
AcDbEntity
  8
0
100
AcDbBlockBegin
  2
*D7
 70
     1
 10
0.0
 20
0.0
 30
0.0
  3
*D7
  1

  0
LINE
  5
5D63
330
4A73
100
AcDbEntity
  8
AM_5 寸法線
 62
     3
100
AcDbLine
 10
650.7386435967287
 20
994.5475024501313
 30
0.0
 11
506.759098739633
 21
994.5475024501313
 31
0.0
  0
LINE
  5
5D64
330
4A73
100
AcDbEntity
  8
AM_5 寸法線
 62
     3
100
AcDbLine
 10
650.7386435967287
 20
744.5475024501311
 30
0.0
 11
506.759098739633
 21
744.5475024501311
 31
0.0
  0
LINE
  5
5D65
330
4A73
100
AcDbEntity
  8
AM_5 寸法線
 62
     3
100
AcDbLine
 10
509.2590987396332
 20
984.5475024501311
 30
0.0
 11
509.2590987396331
 21
754.547502450131
 31
0.0
  0
INSERT
  5
5D66
330
4A73
100
AcDbEntity
  8
AM_5 寸法線
 62
     3
100
AcDbBlockReference
  2
_Open30
 10
509.2590987396332
 20
994.5475024501313
 30
0.0
 41
10.0
 42
10.0
 43
10.0
 50
90.0
  0
INSERT
  5
5D67
330
4A73
100
AcDbEntity
  8
AM_5 寸法線
 62
     3
100
AcDbBlockReference
  2
_Open30
 10
509.2590987396331
 20
744.5475024501311
 30
0.0
 41
10.0
 42
10.0
 43
10.0
 50
270.0
  0
MTEXT
  5
5D68
330
4A73
100
AcDbEntity
  8
AM_5 寸法線
 62
     3
100
AcDbMText
 10
496.259098739633
 20
879.7656488206202
 30
0.0
 40
14.0
 41
0.0
 46
0.0
 71
     5
 72
     1
  1
%%c250
  7
SEISA
 11
0.0000000000000001
 21
1.0
 31
0.0
 73
     1
 44
1.0
  0
POINT
  5
5D69
330
4A73
100
AcDbEntity
  8
Defpoints
 62
     0
100
AcDbPoint
 10
653.2386435967286
 20
994.5475024501313
 30
0.0
  0
POINT
  5
5D6A
330
4A73
100
AcDbEntity
  8
Defpoints
 62
     0
100
AcDbPoint
 10
653.2386435967286
 20
744.5475024501311
 30
0.0
  0
POINT
  5
5D6B
330
4A73
100
AcDbEntity
  8
Defpoints
 62
     0
100
AcDbPoint
 10
509.2590987396331
 20
744.5475024501311
 30
0.0
  0
ENDBLK
  5
4A75
330
4A73
100
AcDbEntity
  8
0
100
AcDbBlockEnd
  0
BLOCK
  5
4AC5
330
4AC4
100
AcDbEntity
  8
0
100
AcDbBlockBegin
  2
*D8
 70
     1
 10
0.0
 20
0.0
 30
0.0
  3
*D8
  1

  0
LINE
  5
7DDE
330
4AC4
100
AcDbEntity
  8
AM_5 寸法線
 62
     3
100
AcDbLine
 10
698.7386435967287
 20
992.047502450131
 30
0.0
 11
698.7386435967287
 21
962.5578066446285
 31
0.0
  0
LINE
  5
7DDF
330
4AC4
100
AcDbEntity
  8
AM_5 寸法線
 62
     3
100
AcDbLine
 10
704.2386435967288
 20
992.7212892843725
 30
0.0
 11
704.2386435967288
 21
962.5578066446285
 31
0.0
  0
LINE
  5
7DE0
330
4AC4
100
AcDbEntity
  8
AM_5 寸法線
 62
     3
100
AcDbLine
 10
714.2386435967288
 20
965.0578066446284
 30
0.0
 11
724.2386435967286
 21
965.0578066446284
 31
0.0
  0
LINE
  5
7DE1
330
4AC4
100
AcDbEntity
  8
AM_5 寸法線
 62
     3
100
AcDbLine
 10
688.7386435967288
 20
965.0578066446284
 30
0.0
 11
640.3386435967287
 21
965.0578066446284
 31
0.0
  0
LINE
  5
7DE2
330
4AC4
100
AcDbEntity
  8
AM_5 寸法線
 62
     3
100
AcDbLine
 10
704.2386435967288
 20
965.0578066446284
 30
0.0
 11
698.7386435967287
 21
965.0578066446284
 31
0.0
  0
INSERT
  5
7DE3
330
4AC4
100
AcDbEntity
  8
AM_5 寸法線
 62
     3
100
AcDbBlockReference
  2
_Open30
 10
704.2386435967288
 20
965.0578066446284
 30
0.0
 41
10.0
 42
10.0
 43
10.0
 50
180.0
  0
INSERT
  5
7DE4
330
4AC4
100
AcDbEntity
  8
AM_5 寸法線
 62
     3
100
AcDbBlockReference
  2
_Open30
 10
698.7386435967287
 20
965.0578066446284
 30
0.0
 41
10.0
 42
10.0
 43
10.0
  0
MTEXT
  5
7DE5
330
4AC4
100
AcDbEntity
  8
AM_5 寸法線
 62
     3
100
AcDbMText
 10
659.5386435967285
 20
978.0578066446285
 30
0.0
 40
14.0
 41
0.0
 46
0.0
 71
     5
 72
     1
  1
5.5
  7
SEISA
 73
     1
 44
1.0
  0
POINT
  5
7DE6
330
4AC4
100
AcDbEntity
  8
Defpoints
 62
     0
100
AcDbPoint
 10
698.7386435967287
 20
994.5475024501313
 30
0.0
  0
POINT
  5
7DE7
330
4AC4
100
AcDbEntity
  8
Defpoints
 62
     0
100
AcDbPoint
 10
704.2386435967288
 20
995.2212892843727
 30
0.0
  0
POINT
  5
7DE8
330
4AC4
100
AcDbEntity
  8
Defpoints
 62
     0
100
AcDbPoint
 10
704.2386435967288
 20
965.0578066446284
 30
0.0
  0
ENDBLK
  5
4AC6
330
4AC4
100
AcDbEntity
  8
0
100
AcDbBlockEnd
  0
BLOCK
  5
4B19
330
4B18
100
AcDbEntity
  8
0
100
AcDbBlockBegin
  2
*D9
 70
     1
 10
0.0
 20
0.0
 30
0.0
  3
*D9
  1

  0
LINE
  5
5D3A
330
4B18
100
AcDbEntity
  8
AM_5 寸法線
 62
     3
100
AcDbLine
 10
591.7386435967285
 20
872.0475024501311
 30
0.0
 11
591.7386435967285
 21
900.8666514501312
 31
0.0
  0
LINE
  5
5D3B
330
4B18
100
AcDbEntity
  8
AM_5 寸法線
 62
     3
100
AcDbLine
 10
781.7386435967287
 20
872.0475024501311
 30
0.0
 11
781.7386435967287
 21
900.8666514501312
 31
0.0
  0
LINE
  5
5D3C
330
4B18
100
AcDbEntity
  8
AM_5 寸法線
 62
     3
100
AcDbLine
 10
601.7386435967287
 20
898.3666514501312
 30
0.0
 11
771.7386435967288
 21
898.3666514501312
 31
0.0
  0
INSERT
  5
5D3D
330
4B18
100
AcDbEntity
  8
AM_5 寸法線
 62
     3
100
AcDbBlockReference
  2
_Open30
 10
591.7386435967285
 20
898.3666514501312
 30
0.0
 41
10.0
 42
10.0
 43
10.0
 50
180.0
  0
INSERT
  5
5D3E
330
4B18
100
AcDbEntity
  8
AM_5 寸法線
 62
     3
100
AcDbBlockReference
  2
_Open30
 10
781.7386435967287
 20
898.3666514501312
 30
0.0
 41
10.0
 42
10.0
 43
10.0
  0
MTEXT
  5
5D3F
330
4B18
100
AcDbEntity
  8
AM_5 寸法線
 62
     3
100
AcDbMText
 10
686.7386435967286
 20
911.3666514501312
 30
0.0
 40
14.0
 41
0.0
 46
0.0
 71
     5
 72
     1
  1
190
  7
SEISA
 73
     1
 44
1.0
  0
POINT
  5
5D40
330
4B18
100
AcDbEntity
  8
Defpoints
 62
     0
100
AcDbPoint
 10
591.7386435967285
 20
869.5475024501311
 30
0.0
  0
POINT
  5
5D41
330
4B18
100
AcDbEntity
  8
Defpoints
 62
     0
100
AcDbPoint
 10
781.7386435967287
 20
869.5475024501311
 30
0.0
  0
POINT
  5
5D42
330
4B18
100
AcDbEntity
  8
Defpoints
 62
     0
100
AcDbPoint
 10
781.7386435967287
 20
898.3666514501312
 30
0.0
  0
ENDBLK
  5
4B1A
330
4B18
100
AcDbEntity
  8
0
100
AcDbBlockEnd
  0
BLOCK
  5
4B31
330
4B30
100
AcDbEntity
  8
0
100
AcDbBlockBegin
  2
*D10
 70
     1
 10
0.0
 20
0.0
 30
0.0
  3
*D10
  1

  0
LINE
  5
7E45
330
4B30
100
AcDbEntity
  8
AM_5 寸法線
 62
     3
100
AcDbLine
 10
781.7386435967287
 20
872.0475024501311
 30
0.0
 11
781.7386435967287
 21
900.8666514501312
 31
0.0
  0
LINE
  5
7E46
330
4B30
100
AcDbEntity
  8
AM_5 寸法線
 62
     3
100
AcDbLine
 10
797.7386435967288
 20
872.0475024501311
 30
0.0
 11
797.7386435967288
 21
900.8666514501312
 31
0.0
  0
LINE
  5
7E47
330
4B30
100
AcDbEntity
  8
AM_5 寸法線
 62
     3
100
AcDbLine
 10
771.7386435967288
 20
898.3666514501312
 30
0.0
 11
761.7386435967286
 21
898.3666514501312
 31
0.0
  0
LINE
  5
7E48
330
4B30
100
AcDbEntity
  8
AM_5 寸法線
 62
     3
100
AcDbLine
 10
807.7386435967287
 20
898.3666514501312
 30
0.0
 11
817.7386435967289
 21
898.3666514501312
 31
0.0
  0
MTEXT
  5
7E49
330
4B30
100
AcDbEntity
  8
AM_5 寸法線
 62
     3
100
AcDbMText
 10
809.9172385641066
 20
911.6026646400538
 30
0.0
 40
14.0
 41
0.0
 46
0.0
 71
     5
 72
     1
  1
16
  7
SEISA
 73
     1
 44
1.0
  0
LINE
  5
7E4A
330
4B30
100
AcDbEntity
  8
AM_5 寸法線
 62
     3
100
AcDbLine
 10
781.7386435967287
 20
898.3666514501312
 30
0.0
 11
797.7386435967288
 21
898.3666514501312
 31
0.0
  0
INSERT
  5
7E4B
330
4B30
100
AcDbEntity
  8
AM_5 寸法線
 62
     3
100
AcDbBlockReference
  2
_Open30
 10
781.7386435967287
 20
898.3666514501312
 30
0.0
 41
10.0
 42
10.0
 43
10.0
  0
INSERT
  5
7E4C
330
4B30
100
AcDbEntity
  8
AM_5 寸法線
 62
     3
100
AcDbBlockReference
  2
_Open30
 10
797.7386435967288
 20
898.3666514501312
 30
0.0
 41
10.0
 42
10.0
 43
10.0
 50
180.0
  0
POINT
  5
7E4D
330
4B30
100
AcDbEntity
  8
Defpoints
 62
     0
100
AcDbPoint
 10
781.7386435967287
 20
869.5475024501311
 30
0.0
  0
POINT
  5
7E4E
330
4B30
100
AcDbEntity
  8
Defpoints
 62
     0
100
AcDbPoint
 10
797.7386435967288
 20
869.5475024501311
 30
0.0
  0
POINT
  5
7E4F
330
4B30
100
AcDbEntity
  8
Defpoints
 62
     0
100
AcDbPoint
 10
797.7386435967288
 20
898.3666514501312
 30
0.0
  0
ENDBLK
  5
4B32
330
4B30
100
AcDbEntity
  8
0
100
AcDbBlockEnd
  0
BLOCK
  5
4B4D
330
4B4C
100
AcDbEntity
  8
0
100
AcDbBlockBegin
  2
*D11
 70
     1
 10
0.0
 20
0.0
 30
0.0
  3
*D11
  1

  0
LINE
  5
5C74
330
4B4C
100
AcDbEntity
  8
AM_5 寸法線
 62
     3
100
AcDbLine
 10
797.7386435967288
 20
872.0475024501311
 30
0.0
 11
797.7386435967288
 21
900.8666514501312
 31
0.0
  0
LINE
  5
5C75
330
4B4C
100
AcDbEntity
  8
AM_5 寸法線
 62
     3
100
AcDbLine
 10
987.7386435967286
 20
872.0475024501309
 30
0.0
 11
987.7386435967286
 21
900.8666514501312
 31
0.0
  0
LINE
  5
5C76
330
4B4C
100
AcDbEntity
  8
AM_5 寸法線
 62
     3
100
AcDbLine
 10
807.7386435967287
 20
898.3666514501312
 30
0.0
 11
977.7386435967288
 21
898.3666514501312
 31
0.0
  0
INSERT
  5
5C77
330
4B4C
100
AcDbEntity
  8
AM_5 寸法線
 62
     3
100
AcDbBlockReference
  2
_Open30
 10
797.7386435967288
 20
898.3666514501312
 30
0.0
 41
10.0
 42
10.0
 43
10.0
 50
180.0
  0
INSERT
  5
5C78
330
4B4C
100
AcDbEntity
  8
AM_5 寸法線
 62
     3
100
AcDbBlockReference
  2
_Open30
 10
987.7386435967286
 20
898.3666514501312
 30
0.0
 41
10.0
 42
10.0
 43
10.0
  0
MTEXT
  5
5C79
330
4B4C
100
AcDbEntity
  8
AM_5 寸法線
 62
     3
100
AcDbMText
 10
892.7386435967289
 20
911.3666514501312
 30
0.0
 40
14.0
 41
0.0
 46
0.0
 71
     5
 72
     1
  1
190
  7
SEISA
 73
     1
 44
1.0
  0
POINT
  5
5C7A
330
4B4C
100
AcDbEntity
  8
Defpoints
 62
     0
100
AcDbPoint
 10
797.7386435967288
 20
869.5475024501311
 30
0.0
  0
POINT
  5
5C7B
330
4B4C
100
AcDbEntity
  8
Defpoints
 62
     0
100
AcDbPoint
 10
987.7386435967286
 20
869.5475024501309
 30
0.0
  0
POINT
  5
5C7C
330
4B4C
100
AcDbEntity
  8
Defpoints
 62
     0
100
AcDbPoint
 10
987.7386435967286
 20
898.3666514501312
 30
0.0
  0
ENDBLK
  5
4B4E
330
4B4C
100
AcDbEntity
  8
0
100
AcDbBlockEnd
  0
BLOCK
  5
5A59
330
5A58
100
AcDbEntity
  8
0
100
AcDbBlockBegin
  2
ケースＡ SSM355
 70
     0
 10
0.0
 20
0.0
 30
0.0
  3
ケースＡ SSM355
  1

  0
LINE
  5
5A5B
330
5A58
100
AcDbEntity
  8
AM_0 外形線1
100
AcDbLine
 10
108.0
 20
-134.308511
 30
0.0
 11
108.0
 21
0.0
 31
0.0
  0
LINE
  5
5A5C
330
5A58
100
AcDbEntity
  8
AM_0 外形線1
100
AcDbLine
 10
21.0
 20
-176.5
 30
0.0
 11
21.0
 21
0.0
 31
0.0
  0
LINE
  5
5A5D
330
5A58
100
AcDbEntity
  8
AM_0 外形線1
100
AcDbLine
 10
0.0
 20
0.0
 30
0.0
 11
0.0
 21
-176.5
 31
0.0
  0
LINE
  5
5A5E
330
5A58
100
AcDbEntity
  8
AM_0 外形線1
100
AcDbLine
 10
25.0
 20
-144.0
 30
0.0
 11
104.0
 21
-144.0
 31
0.0
  0
LINE
  5
5A5F
330
5A58
100
AcDbEntity
  8
AM_0 外形線1
100
AcDbLine
 10
1.0
 20
-177.5
 30
0.0
 11
20.0
 21
-177.5
 31
0.0
  0
LINE
  5
5A60
330
5A58
100
AcDbEntity
  8
AM_0 外形線1
100
AcDbLine
 10
0.0
 20
-176.5
 30
0.0
 11
1.0
 21
-177.5
 31
0.0
  0
LINE
  5
5A61
330
5A58
100
AcDbEntity
  8
AM_0 外形線1
100
AcDbLine
 10
20.0
 20
-177.5
 30
0.0
 11
21.0
 21
-176.5
 31
0.0
  0
ARC
  5
5A62
330
5A58
100
AcDbEntity
  8
AM_0 外形線1
100
AcDbCircle
 10
25.0
 20
-148.0
 30
0.0
 40
4.0
100
AcDbArc
 50
90.0
 51
180.0
  0
ARC
  5
5A63
330
5A58
100
AcDbEntity
  8
AM_0 外形線1
100
AcDbCircle
 10
104.0
 20
-140.0
 30
0.0
 40
4.0
100
AcDbArc
 50
270.0
 51
0.0
  0
LINE
  5
5A64
330
5A58
100
AcDbEntity
  8
AM_7 中心線
100
AcDbLine
 10
-36.0
 20
162.5
 30
0.0
 11
49.0
 21
162.5
 31
0.0
  0
LWPOLYLINE
  5
5A65
330
5A58
100
AcDbEntity
  8
AM_0 外形線1
100
AcDbPolyline
 90
       73
 70
     0
 43
0.0
 10
1.349999999999909
 20
142.0
 10
1.467659999999795
 20
142.008372
 10
1.58442500000001
 20
142.033423
 10
1.69940600000018
 20
142.074963
 10
1.811726999999791
 20
142.1326759999999
 10
1.920534999999971
 20
142.206123
 10
2.02500000000009
 20
142.294744
 10
2.124327999999876
 20
142.397866
 10
2.217763000000104
 20
142.5147019999999
 10
2.30459399999995
 20
142.644365
 10
2.384160000000064
 20
142.7858669999999
 10
2.455855000000154
 20
142.938132
 10
2.51913400000012
 20
143.1
 10
2.573515999999925
 20
143.27024
 10
2.618584999999939
 20
143.4475559999999
 10
2.653999999999995
 20
143.6305980000001
 10
2.679489999999987
 20
143.817974
 10
2.694863000000168
 20
144.0082570000001
 10
2.700000000000044
 20
144.2
 10
2.694863000000168
 20
144.391743
 10
2.679489999999987
 20
144.5820259999999
 10
2.653999999999995
 20
144.7694019999999
 10
2.618584999999939
 20
144.952444
 10
2.573515999999925
 20
145.1297599999999
 10
2.51913400000012
 20
145.2999999999999
 10
2.455855000000154
 20
145.461868
 10
2.384160000000064
 20
145.614133
 10
2.30459399999995
 20
145.755635
 10
2.217763000000104
 20
145.885298
 10
2.124327999999876
 20
146.0021339999999
 10
2.02500000000009
 20
146.1052559999999
 10
1.920534999999971
 20
146.1938769999999
 10
1.811726999999791
 20
146.267324
 10
1.69940600000018
 20
146.325037
 10
1.58442500000001
 20
146.366577
 10
1.467659999999795
 20
146.3916280000001
 10
1.349999999999909
 20
146.3999999999999
 10
1.232340000000021
 20
146.3916280000001
 10
1.115575000000034
 20
146.366577
 10
1.00059400000009
 20
146.325037
 10
0.8882730000000265
 20
146.267324
 10
0.7794650000000729
 20
146.1938769999999
 10
0.6749999999999547
 20
146.1052559999999
 10
0.5756719999999405
 20
146.0021339999999
 10
0.4822369999999411
 20
145.885298
 10
0.3954060000000936
 20
145.755635
 10
0.3158400000002075
 20
145.614133
 10
0.2441449999998895
 20
145.461868
 10
0.1808660000001509
 20
145.2999999999999
 10
0.1264839999998912
 20
145.1297599999999
 10
0.0814150000001064
 20
144.952444
 10
0.0460000000000491
 20
144.7694019999999
 10
0.0205099999998311
 20
144.5820259999999
 10
0.0051369999998769
 20
144.391743
 10
0.0
 20
144.2
 10
0.0051369999998769
 20
144.0082570000001
 10
0.0205099999998311
 20
143.817974
 10
0.0460000000000491
 20
143.6305980000001
 10
0.0814150000001064
 20
143.4475559999999
 10
0.1264839999998912
 20
143.27024
 10
0.1808660000001509
 20
143.1
 10
0.2441449999998895
 20
142.938132
 10
0.3158400000002075
 20
142.7858669999999
 10
0.3954060000000936
 20
142.644365
 10
0.4822369999999411
 20
142.5147019999999
 10
0.5756719999999405
 20
142.397866
 10
0.6749999999999547
 20
142.294744
 10
0.7794650000000729
 20
142.206123
 10
0.8882730000000265
 20
142.1326759999999
 10
1.00059400000009
 20
142.074963
 10
1.115575000000034
 20
142.033423
 10
1.232340000000021
 20
142.008372
 10
1.349999999999909
 20
142.0
  0
ARC
  5
5A66
330
5A58
100
AcDbEntity
  8
AM_0 外形線1
100
AcDbCircle
 10
25.0
 20
148.0
 30
0.0
 40
4.0
100
AcDbArc
 50
180.0
 51
270.0
  0
ARC
  5
5A67
330
5A58
100
AcDbEntity
  8
AM_0 外形線1
100
AcDbCircle
 10
104.0
 20
140.0
 30
0.0
 40
4.0
100
AcDbArc
 50
0.0
 51
90.0
  0
LINE
  5
5A68
330
5A58
100
AcDbEntity
  8
AM_7 中心線
100
AcDbLine
 10
36.0
 20
132.0
 30
0.0
 11
86.5
 21
132.0
 31
0.0
  0
LINE
  5
5A69
330
5A58
100
AcDbEntity
  8
AM_0 外形線1
100
AcDbLine
 10
38.0
 20
136.0
 30
0.0
 11
84.50000000000001
 21
136.0
 31
0.0
  0
LINE
  5
5A6A
330
5A58
100
AcDbEntity
  8
AM_0 外形線1
100
AcDbLine
 10
25.0
 20
144.0
 30
0.0
 11
104.0
 21
144.0
 31
0.0
  0
LINE
  5
5A6B
330
5A58
100
AcDbEntity
  8
AM_3 隠れ線
100
AcDbLine
 10
42.5
 20
128.7999999999999
 30
0.0
 11
83.49999999999999
 21
128.7999999999999
 31
0.0
  0
LINE
  5
5A6C
330
5A58
100
AcDbEntity
  8
AM_0 外形線1
100
AcDbLine
 10
37.0
 20
137.0
 30
0.0
 11
-5.0
 21
137.0
 31
0.0
  0
LINE
  5
5A6D
330
5A58
100
AcDbEntity
  8
AM_0 外形線1
100
AcDbLine
 10
-5.0
 20
141.5
 30
0.0
 11
-4.5
 21
142.0
 31
0.0
  0
LINE
  5
5A6E
330
5A58
100
AcDbEntity
  8
AM_0 外形線1
100
AcDbLine
 10
-5.0
 20
137.0
 30
0.0
 11
-5.0
 21
132.5
 31
0.0
  0
LINE
  5
5A6F
330
5A58
100
AcDbEntity
  8
AM_0 外形線1
100
AcDbLine
 10
-5.0
 20
137.0
 30
0.0
 11
-5.0
 21
141.5
 31
0.0
  0
ARC
  5
5A70
330
5A58
100
AcDbEntity
  8
AM_0 外形線1
100
AcDbCircle
 10
2.200000000000045
 20
142.5
 30
0.0
 40
0.5
100
AcDbArc
 50
270.0
 51
0.0
  0
LINE
  5
5A71
330
5A58
100
AcDbEntity
  8
AM_0 外形線1
100
AcDbLine
 10
-4.5
 20
142.0
 30
0.0
 11
2.200000000000045
 21
142.0
 31
0.0
  0
ARC
  5
5A72
330
5A58
100
AcDbEntity
  8
AM_0 外形線1
100
AcDbCircle
 10
37.0
 20
136.0
 30
0.0
 40
1.0
100
AcDbArc
 50
0.0
 51
90.0
  0
LINE
  5
5A73
330
5A58
100
AcDbEntity
  8
AM_0 外形線1
100
AcDbLine
 10
42.5
 20
128.7999999999999
 30
0.0
 11
39.0
 21
128.7999999999999
 31
0.0
  0
LINE
  5
5A74
330
5A58
100
AcDbEntity
  8
AM_0 外形線1
100
AcDbLine
 10
39.0
 20
128.7999999999999
 30
0.0
 11
38.0
 21
129.7999999999999
 31
0.0
  0
LINE
  5
5A75
330
5A58
100
AcDbEntity
  8
AM_0 外形線1
100
AcDbLine
 10
38.0
 20
129.7999999999999
 30
0.0
 11
38.0
 21
136.0
 31
0.0
  0
LINE
  5
5A76
330
5A58
100
AcDbEntity
  8
AM_0 外形線1
100
AcDbLine
 10
38.0
 20
129.7999999999999
 30
0.0
 11
38.0
 21
124.8497169999999
 31
0.0
  0
LINE
  5
5A77
330
5A58
100
AcDbEntity
  8
AM_0 外形線1
100
AcDbLine
 10
93.90000000000007
 20
126.5
 30
0.0
 11
91.0
 21
126.5
 31
0.0
  0
LINE
  5
5A78
330
5A58
100
AcDbEntity
  8
AM_3 隠れ線
100
AcDbLine
 10
84.50000000000001
 20
133.943355
 30
0.0
 11
84.50000000000001
 21
129.7999999999999
 31
0.0
  0
LINE
  5
5A79
330
5A58
100
AcDbEntity
  8
AM_3 隠れ線
100
AcDbLine
 10
84.50000000000001
 20
129.7999999999999
 30
0.0
 11
83.49999999999999
 21
128.7999999999999
 31
0.0
  0
LINE
  5
5A7A
330
5A58
100
AcDbEntity
  8
AM_0 外形線1
100
AcDbLine
 10
84.50000000000001
 20
133.943355
 30
0.0
 11
84.50000000000001
 21
136.0
 31
0.0
  0
ARC
  5
5A7B
330
5A58
100
AcDbEntity
  8
AM_0 外形線1
100
AcDbCircle
 10
85.5
 20
136.0
 30
0.0
 40
1.0
100
AcDbArc
 50
90.0
 51
180.0
  0
LINE
  5
5A7C
330
5A58
100
AcDbEntity
  8
AM_0 外形線1
100
AcDbLine
 10
91.0
 20
126.5
 30
0.0
 11
91.0
 21
125.0
 31
0.0
  0
LINE
  5
5A7D
330
5A58
100
AcDbEntity
  8
AM_0 外形線1
100
AcDbLine
 10
90.0
 20
137.0
 30
0.0
 11
85.5
 21
137.0
 31
0.0
  0
ARC
  5
5A7E
330
5A58
100
AcDbEntity
  8
AM_0 外形線1
100
AcDbCircle
 10
90.0
 20
136.0
 30
0.0
 40
1.0
100
AcDbArc
 50
0.0
 51
90.0
  0
LINE
  5
5A7F
330
5A58
100
AcDbEntity
  8
AM_0 外形線1
100
AcDbLine
 10
91.0
 20
126.5
 30
0.0
 11
91.0
 21
136.0
 31
0.0
  0
LINE
  5
5A80
330
5A58
100
AcDbEntity
  8
AM_0 外形線1
100
AcDbLine
 10
108.0
 20
126.5
 30
0.0
 11
105.0999999999999
 21
126.5
 31
0.0
  0
LINE
  5
5A81
330
5A58
100
AcDbEntity
  8
AM_0 外形線1
100
AcDbLine
 10
108.0
 20
126.5
 30
0.0
 11
108.0
 21
125.0
 31
0.0
  0
LINE
  5
5A82
330
5A58
100
AcDbEntity
  8
AM_0 外形線1
100
AcDbLine
 10
105.0999999999999
 20
126.5
 30
0.0
 11
105.0999999999999
 21
125.0
 31
0.0
  0
LINE
  5
5A83
330
5A58
100
AcDbEntity
  8
AM_0 外形線1
100
AcDbLine
 10
93.90000000000007
 20
126.5
 30
0.0
 11
93.90000000000007
 21
125.0
 31
0.0
  0
LWPOLYLINE
  5
5A84
330
5A58
100
AcDbEntity
  8
AM_0 外形線1
100
AcDbPolyline
 90
       73
 70
     0
 43
0.0
 10
93.90000000000007
 20
128.45
 10
93.92130999999997
 20
128.149313
 10
93.9850769999998
 20
127.850914
 10
94.09081500000002
 20
127.557074
 10
94.23772099999997
 20
127.2700309999999
 10
94.42467600000007
 20
126.991967
 10
94.65025800000013
 20
126.725
 10
94.91274900000007
 20
126.471161
 10
95.21015099999999
 20
126.232383
 10
95.54020199999992
 20
126.010482
 10
95.9003889999999
 20
125.807147
 10
96.28797200000008
 20
125.623925
 10
96.70000000000003
 20
125.462212
 10
97.13333800000008
 20
125.3232379999999
 10
97.58468700000005
 20
125.2080599999999
 10
98.05061299999987
 20
125.1175559999999
 10
98.52756999999996
 20
125.052413
 10
99.01192799999988
 20
125.013128
 10
99.50000000000001
 20
125.0
 10
99.9880720000001
 20
125.013128
 10
100.47243
 20
125.052413
 10
100.9493870000001
 20
125.1175559999999
 10
101.4153129999999
 20
125.2080599999999
 10
101.8666619999999
 20
125.3232379999999
 10
102.2999999999999
 20
125.462212
 10
102.7120279999999
 20
125.623925
 10
103.0996110000001
 20
125.807147
 10
103.4597980000001
 20
126.010482
 10
103.789849
 20
126.232383
 10
104.0872509999999
 20
126.471161
 10
104.3497419999999
 20
126.725
 10
104.5753239999999
 20
126.991967
 10
104.762279
 20
127.2700309999999
 10
104.9091849999999
 20
127.557074
 10
105.0149230000002
 20
127.850914
 10
105.07869
 20
128.149313
 10
105.0999999999999
 20
128.45
 10
105.07869
 20
128.7506869999999
 10
105.0149230000002
 20
129.049086
 10
104.9091849999999
 20
129.342926
 10
104.762279
 20
129.6299690000001
 10
104.5753239999999
 20
129.908033
 10
104.3497419999999
 20
130.1749999999999
 10
104.0872509999999
 20
130.4288389999999
 10
103.789849
 20
130.6676169999999
 10
103.4597980000001
 20
130.8895179999999
 10
103.0996110000001
 20
131.092853
 10
102.7120279999999
 20
131.276075
 10
102.2999999999999
 20
131.4377879999999
 10
101.8666619999999
 20
131.576762
 10
101.4153129999999
 20
131.69194
 10
100.9493870000001
 20
131.782444
 10
100.47243
 20
131.847587
 10
99.9880720000001
 20
131.8868719999999
 10
99.50000000000001
 20
131.8999999999999
 10
99.01192799999988
 20
131.8868719999999
 10
98.52756999999996
 20
131.847587
 10
98.05061299999987
 20
131.782444
 10
97.58468700000005
 20
131.69194
 10
97.13333800000008
 20
131.576762
 10
96.70000000000003
 20
131.4377879999999
 10
96.28797200000008
 20
131.276075
 10
95.9003889999999
 20
131.092853
 10
95.54020199999992
 20
130.8895179999999
 10
95.21015099999999
 20
130.6676169999999
 10
94.91274900000007
 20
130.4288389999999
 10
94.65025800000013
 20
130.1749999999999
 10
94.42467600000007
 20
129.908033
 10
94.23772099999997
 20
129.6299690000001
 10
94.09081500000002
 20
129.342926
 10
93.9850769999998
 20
129.049086
 10
93.92130999999997
 20
128.7506869999999
 10
93.90000000000007
 20
128.45
  0
LINE
  5
5A85
330
5A58
100
AcDbEntity
  8
AM_0 外形線1
100
AcDbLine
 10
93.90000000000007
 20
131.4
 30
0.0
 11
93.90000000000007
 21
126.5
 31
0.0
  0
LINE
  5
5A86
330
5A58
100
AcDbEntity
  8
AM_0 外形線1
100
AcDbLine
 10
104.5999999999999
 20
131.8999999999999
 30
0.0
 11
94.4000000000001
 21
131.8999999999999
 31
0.0
  0
ARC
  5
5A87
330
5A58
100
AcDbEntity
  8
AM_0 外形線1
100
AcDbCircle
 10
104.5999999999999
 20
131.4
 30
0.0
 40
0.5
100
AcDbArc
 50
0.0
 51
90.0
  0
LINE
  5
5A88
330
5A58
100
AcDbEntity
  8
AM_0 外形線1
100
AcDbLine
 10
105.0999999999999
 20
126.5
 30
0.0
 11
105.0999999999999
 21
131.4
 31
0.0
  0
LINE
  5
5A89
330
5A58
100
AcDbEntity
  8
AM_0 外形線1
100
AcDbLine
 10
108.0
 20
140.0
 30
0.0
 11
108.0
 21
126.5
 31
0.0
  0
LINE
  5
5A8A
330
5A58
100
AcDbEntity
  8
AM_0 外形線1
100
AcDbLine
 10
0.0
 20
153.5
 30
0.0
 11
21.0
 21
153.5
 31
0.0
  0
LINE
  5
5A8B
330
5A58
100
AcDbEntity
  8
AM_0 外形線1
100
AcDbLine
 10
21.0
 20
171.5
 30
0.0
 11
0.0
 21
171.5
 31
0.0
  0
LINE
  5
5A8C
330
5A58
100
AcDbEntity
  8
AM_0 外形線1
100
AcDbLine
 10
1.0
 20
177.5
 30
0.0
 11
20.0
 21
177.5
 31
0.0
  0
LINE
  5
5A8D
330
5A58
100
AcDbEntity
  8
AM_0 外形線1
100
AcDbLine
 10
2.200000000000045
 20
146.3999999999999
 30
0.0
 11
0.0
 21
146.3999999999999
 31
0.0
  0
ARC
  5
5A8E
330
5A58
100
AcDbEntity
  8
AM_0 外形線1
100
AcDbCircle
 10
2.200000000000045
 20
145.9
 30
0.0
 40
0.5
100
AcDbArc
 50
0.0
 51
90.0
  0
LINE
  5
5A8F
330
5A58
100
AcDbEntity
  8
AM_0 外形線1
100
AcDbLine
 10
0.0
 20
146.3999999999999
 30
0.0
 11
0.0
 21
153.5
 31
0.0
  0
LINE
  5
5A90
330
5A58
100
AcDbEntity
  8
AM_0 外形線1
100
AcDbLine
 10
0.0
 20
176.5
 30
0.0
 11
1.0
 21
177.5
 31
0.0
  0
LINE
  5
5A91
330
5A58
100
AcDbEntity
  8
AM_0 外形線1
100
AcDbLine
 10
0.0
 20
171.5
 30
0.0
 11
0.0
 21
176.5
 31
0.0
  0
LINE
  5
5A92
330
5A58
100
AcDbEntity
  8
AM_0 外形線1
100
AcDbLine
 10
21.0
 20
176.5
 30
0.0
 11
21.0
 21
148.5
 31
0.0
  0
LINE
  5
5A93
330
5A58
100
AcDbEntity
  8
AM_0 外形線1
100
AcDbLine
 10
21.0
 20
153.5
 30
0.0
 11
21.0
 21
148.0
 31
0.0
  0
LINE
  5
5A94
330
5A58
100
AcDbEntity
  8
AM_0 外形線1
100
AcDbLine
 10
20.0
 20
177.5
 30
0.0
 11
21.0
 21
176.5
 31
0.0
  0
INSERT
  5
5A95
330
5A58
100
AcDbEntity
  8
AM_0 外形線1
100
AcDbBlockReference
  2
ロッカクアナツキプラグ R1／4
 10
10.5
 20
-42.05809499999997
 30
0.0
  0
LINE
  5
611F
330
5A58
100
AcDbEntity
  8
AM_0 外形線1
100
AcDbLine
 10
108.0
 20
-140.0
 30
0.0
 11
108.0
 21
-134.308511
 31
0.0
  0
ARC
  5
6247
330
5A58
100
AcDbEntity
  8
AM_0 外形線1
100
AcDbCircle
 10
94.4000000000001
 20
131.4
 30
0.0
 40
0.5
100
AcDbArc
 50
90.0
 51
180.0
  0
LINE
  5
6D02
330
5A58
100
AcDbEntity
  8
AM_0 外形線1
100
AcDbLine
 10
2.700000000000044
 20
142.5
 30
0.0
 11
2.700000000000044
 21
145.9
 31
0.0
  0
ENDBLK
  5
5A5A
330
5A58
100
AcDbEntity
  8
0
100
AcDbBlockEnd
  0
BLOCK
  5
5B32
330
5B31
100
AcDbEntity
  8
0
100
AcDbBlockBegin
  2
ケースＢ SSM355
 70
     0
 10
0.0
 20
0.0
 30
0.0
  3
ケースＢ SSM355
  1

  0
LINE
  5
5B34
330
5B31
100
AcDbEntity
  8
AM_0 外形線1
100
AcDbLine
 10
-108.0
 20
-140.0
 30
0.0
 11
-108.0
 21
0.0
 31
0.0
  0
LINE
  5
5B35
330
5B31
100
AcDbEntity
  8
AM_0 外形線1
100
AcDbLine
 10
-21.0
 20
-176.5
 30
0.0
 11
-21.0
 21
0.0
 31
0.0
  0
LINE
  5
5B36
330
5B31
100
AcDbEntity
  8
AM_7 中心線
100
AcDbLine
 10
25.93976200114127
 20
-162.5
 30
0.0
 11
-26.0
 21
-162.5
 31
0.0
  0
ARC
  5
5B37
330
5B31
100
AcDbEntity
  8
AM_0 外形線1
100
AcDbCircle
 10
-25.0
 20
-148.0
 30
0.0
 40
4.0
100
AcDbArc
 50
0.0
 51
90.0
  0
LINE
  5
5B38
330
5B31
100
AcDbEntity
  8
AM_0 外形線1
100
AcDbLine
 10
-25.0
 20
-144.0
 30
0.0
 11
-104.0
 21
-144.0
 31
0.0
  0
ARC
  5
5B39
330
5B31
100
AcDbEntity
  8
AM_0 外形線1
100
AcDbCircle
 10
-104.0
 20
-140.0
 30
0.0
 40
4.0
100
AcDbArc
 50
180.0
 51
270.0
  0
LINE
  5
5B3A
330
5B31
100
AcDbEntity
  8
AM_0 外形線1
100
AcDbLine
 10
-1.0
 20
-177.5
 30
0.0
 11
-20.0
 21
-177.5
 31
0.0
  0
LINE
  5
5B3B
330
5B31
100
AcDbEntity
  8
AM_0 外形線1
100
AcDbLine
 10
-20.0
 20
-177.5
 30
0.0
 11
-21.0
 21
-176.5
 31
0.0
  0
LINE
  5
5B3C
330
5B31
100
AcDbEntity
  8
AM_0 外形線1
100
AcDbLine
 10
0.0
 20
-176.5
 30
0.0
 11
-1.0
 21
-177.5
 31
0.0
  0
LINE
  5
5B3D
330
5B31
100
AcDbEntity
  8
AM_0 外形線1
100
AcDbLine
 10
-37.0
 20
137.0
 30
0.0
 11
-6.0
 21
137.0
 31
0.0
  0
ARC
  5
5B3E
330
5B31
100
AcDbEntity
  8
AM_0 外形線1
100
AcDbCircle
 10
-25.0
 20
148.0
 30
0.0
 40
4.0
100
AcDbArc
 50
270.0
 51
0.0
  0
ARC
  5
5B3F
330
5B31
100
AcDbEntity
  8
AM_0 外形線1
100
AcDbCircle
 10
-104.0
 20
140.0
 30
0.0
 40
4.0
100
AcDbArc
 50
90.0
 51
180.0
  0
LINE
  5
5B40
330
5B31
100
AcDbEntity
  8
AM_0 外形線1
100
AcDbLine
 10
-90.0
 20
137.0
 30
0.0
 11
-85.5
 21
137.0
 31
0.0
  0
LINE
  5
5B41
330
5B31
100
AcDbEntity
  8
AM_0 外形線1
100
AcDbLine
 10
-25.0
 20
144.0
 30
0.0
 11
-104.0
 21
144.0
 31
0.0
  0
LINE
  5
5B42
330
5B31
100
AcDbEntity
  8
AM_0 外形線1
100
AcDbLine
 10
-104.5999999999999
 20
131.8999999999999
 30
0.0
 11
-94.4000000000001
 21
131.8999999999999
 31
0.0
  0
LWPOLYLINE
  5
5B43
330
5B31
100
AcDbEntity
  8
AM_0 外形線1
100
AcDbPolyline
 90
       73
 70
     0
 43
0.0
 10
-93.90000000000007
 20
128.45
 10
-93.92130999999997
 20
128.7506869999999
 10
-93.9850769999998
 20
129.049086
 10
-94.09081500000002
 20
129.342926
 10
-94.23772099999997
 20
129.6299690000001
 10
-94.42467600000007
 20
129.908033
 10
-94.65025800000013
 20
130.1749999999999
 10
-94.91274900000007
 20
130.4288389999999
 10
-95.21015099999999
 20
130.6676169999999
 10
-95.54020199999992
 20
130.8895179999999
 10
-95.9003889999999
 20
131.092853
 10
-96.28797200000008
 20
131.276075
 10
-96.70000000000003
 20
131.4377879999999
 10
-97.13333800000008
 20
131.576762
 10
-97.58468700000005
 20
131.69194
 10
-98.05061300000014
 20
131.782444
 10
-98.52756999999996
 20
131.847587
 10
-99.01192799999988
 20
131.8868719999999
 10
-99.50000000000001
 20
131.8999999999999
 10
-99.9880720000001
 20
131.8868719999999
 10
-100.47243
 20
131.847587
 10
-100.9493869999999
 20
131.782444
 10
-101.4153129999999
 20
131.69194
 10
-101.8666619999999
 20
131.576762
 10
-102.2999999999999
 20
131.4377879999999
 10
-102.7120279999999
 20
131.276075
 10
-103.0996110000001
 20
131.092853
 10
-103.4597980000001
 20
130.8895179999999
 10
-103.789849
 20
130.6676169999999
 10
-104.0872509999999
 20
130.4288389999999
 10
-104.3497419999999
 20
130.1749999999999
 10
-104.5753239999999
 20
129.908033
 10
-104.762279
 20
129.6299690000001
 10
-104.9091849999999
 20
129.342926
 10
-105.0149230000002
 20
129.049086
 10
-105.07869
 20
128.7506869999999
 10
-105.0999999999999
 20
128.45
 10
-105.07869
 20
128.149313
 10
-105.0149230000002
 20
127.850914
 10
-104.9091849999999
 20
127.557074
 10
-104.762279
 20
127.2700309999999
 10
-104.5753239999999
 20
126.991967
 10
-104.3497419999999
 20
126.725
 10
-104.0872509999999
 20
126.471161
 10
-103.789849
 20
126.232383
 10
-103.4597980000001
 20
126.010482
 10
-103.0996110000001
 20
125.807147
 10
-102.7120279999999
 20
125.623925
 10
-102.2999999999999
 20
125.462212
 10
-101.8666619999999
 20
125.3232379999999
 10
-101.4153129999999
 20
125.2080599999999
 10
-100.9493869999999
 20
125.1175559999999
 10
-100.47243
 20
125.052413
 10
-99.9880720000001
 20
125.013128
 10
-99.50000000000001
 20
125.0
 10
-99.01192799999988
 20
125.013128
 10
-98.52756999999996
 20
125.052413
 10
-98.05061300000014
 20
125.1175559999999
 10
-97.58468700000005
 20
125.2080599999999
 10
-97.13333800000008
 20
125.3232379999999
 10
-96.70000000000003
 20
125.462212
 10
-96.28797200000008
 20
125.623925
 10
-95.9003889999999
 20
125.807147
 10
-95.54020199999992
 20
126.010482
 10
-95.21015099999999
 20
126.232383
 10
-94.91274900000007
 20
126.471161
 10
-94.65025800000013
 20
126.725
 10
-94.42467600000007
 20
126.991967
 10
-94.23772099999997
 20
127.2700309999999
 10
-94.09081500000002
 20
127.557074
 10
-93.9850769999998
 20
127.850914
 10
-93.92130999999997
 20
128.149313
 10
-93.90000000000007
 20
128.45
  0
ARC
  5
5B44
330
5B31
100
AcDbEntity
  8
AM_0 外形線1
100
AcDbCircle
 10
-104.5999999999999
 20
131.4
 30
0.0
 40
0.5
100
AcDbArc
 50
90.0
 51
180.0
  0
LINE
  5
5B45
330
5B31
100
AcDbEntity
  8
AM_0 外形線1
100
AcDbLine
 10
-105.0999999999999
 20
126.5
 30
0.0
 11
-105.0999999999999
 21
131.4
 31
0.0
  0
LINE
  5
5B46
330
5B31
100
AcDbEntity
  8
AM_0 外形線1
100
AcDbLine
 10
-108.0
 20
126.5
 30
0.0
 11
-105.0999999999999
 21
126.5
 31
0.0
  0
LINE
  5
5B47
330
5B31
100
AcDbEntity
  8
AM_0 外形線1
100
AcDbLine
 10
-108.0
 20
140.0
 30
0.0
 11
-108.0
 21
126.5
 31
0.0
  0
LINE
  5
5B48
330
5B31
100
AcDbEntity
  8
AM_0 外形線1
100
AcDbLine
 10
-105.0999999999999
 20
126.5
 30
0.0
 11
-105.0999999999999
 21
125.0
 31
0.0
  0
LINE
  5
5B49
330
5B31
100
AcDbEntity
  8
AM_0 外形線1
100
AcDbLine
 10
-108.0
 20
126.5
 30
0.0
 11
-108.0
 21
125.0
 31
0.0
  0
ARC
  5
5B4A
330
5B31
100
AcDbEntity
  8
AM_0 外形線1
100
AcDbCircle
 10
-90.0
 20
136.0
 30
0.0
 40
1.0
100
AcDbArc
 50
90.0
 51
180.0
  0
ARC
  5
5B4B
330
5B31
100
AcDbEntity
  8
AM_0 外形線1
100
AcDbCircle
 10
-94.4000000000001
 20
131.4
 30
0.0
 40
0.5
100
AcDbArc
 50
0.0
 51
90.0
  0
LINE
  5
5B4C
330
5B31
100
AcDbEntity
  8
AM_0 外形線1
100
AcDbLine
 10
-91.0
 20
126.5
 30
0.0
 11
-91.0
 21
136.0
 31
0.0
  0
LINE
  5
5B4D
330
5B31
100
AcDbEntity
  8
AM_0 外形線1
100
AcDbLine
 10
-93.90000000000007
 20
126.5
 30
0.0
 11
-91.0
 21
126.5
 31
0.0
  0
LINE
  5
5B4E
330
5B31
100
AcDbEntity
  8
AM_0 外形線1
100
AcDbLine
 10
-93.90000000000007
 20
131.4
 30
0.0
 11
-93.90000000000007
 21
126.5
 31
0.0
  0
LINE
  5
5B4F
330
5B31
100
AcDbEntity
  8
AM_0 外形線1
100
AcDbLine
 10
-91.0
 20
126.5
 30
0.0
 11
-91.0
 21
125.0
 31
0.0
  0
LINE
  5
5B50
330
5B31
100
AcDbEntity
  8
AM_0 外形線1
100
AcDbLine
 10
-93.90000000000007
 20
126.5
 30
0.0
 11
-93.90000000000007
 21
125.0
 31
0.0
  0
LINE
  5
5B51
330
5B31
100
AcDbEntity
  8
AM_7 中心線
100
AcDbLine
 10
-36.0
 20
132.0
 30
0.0
 11
-86.5
 21
132.0
 31
0.0
  0
LINE
  5
5B52
330
5B31
100
AcDbEntity
  8
AM_0 外形線1
100
AcDbLine
 10
-38.0
 20
136.0
 30
0.0
 11
-84.50000000000001
 21
136.0
 31
0.0
  0
LINE
  5
5B53
330
5B31
100
AcDbEntity
  8
AM_3 隠れ線
100
AcDbLine
 10
-42.5
 20
128.7999999999999
 30
0.0
 11
-83.49999999999999
 21
128.7999999999999
 31
0.0
  0
LINE
  5
5B54
330
5B31
100
AcDbEntity
  8
AM_0 外形線1
100
AcDbLine
 10
-84.50000000000001
 20
133.943355
 30
0.0
 11
-84.50000000000001
 21
136.0
 31
0.0
  0
ARC
  5
5B55
330
5B31
100
AcDbEntity
  8
AM_0 外形線1
100
AcDbCircle
 10
-85.5
 20
136.0
 30
0.0
 40
1.0
100
AcDbArc
 50
0.0
 51
90.0
  0
LINE
  5
5B56
330
5B31
100
AcDbEntity
  8
AM_3 隠れ線
100
AcDbLine
 10
-84.50000000000001
 20
129.7999999999999
 30
0.0
 11
-83.49999999999999
 21
128.7999999999999
 31
0.0
  0
LINE
  5
5B57
330
5B31
100
AcDbEntity
  8
AM_3 隠れ線
100
AcDbLine
 10
-84.50000000000001
 20
133.943355
 30
0.0
 11
-84.50000000000001
 21
129.7999999999999
 31
0.0
  0
ARC
  5
5B58
330
5B31
100
AcDbEntity
  8
AM_0 外形線1
100
AcDbCircle
 10
-37.0
 20
136.0
 30
0.0
 40
1.0
100
AcDbArc
 50
90.0
 51
180.0
  0
LINE
  5
5B59
330
5B31
100
AcDbEntity
  8
AM_0 外形線1
100
AcDbLine
 10
-42.5
 20
128.7999999999999
 30
0.0
 11
-39.0
 21
128.7999999999999
 31
0.0
  0
LINE
  5
5B5A
330
5B31
100
AcDbEntity
  8
AM_0 外形線1
100
AcDbLine
 10
-38.0
 20
129.7999999999999
 30
0.0
 11
-38.0
 21
136.0
 31
0.0
  0
LINE
  5
5B5B
330
5B31
100
AcDbEntity
  8
AM_0 外形線1
100
AcDbLine
 10
-39.0
 20
128.7999999999999
 30
0.0
 11
-38.0
 21
129.7999999999999
 31
0.0
  0
LINE
  5
5B5C
330
5B31
100
AcDbEntity
  8
AM_0 外形線1
100
AcDbLine
 10
-38.0
 20
129.7999999999999
 30
0.0
 11
-38.0
 21
124.8497169999999
 31
0.0
  0
LINE
  5
5B5D
330
5B31
100
AcDbEntity
  8
AM_0 外形線1
100
AcDbLine
 10
0.0
 20
142.5
 30
0.0
 11
0.0
 21
153.5
 31
0.0
  0
LINE
  5
5B5E
330
5B31
100
AcDbEntity
  8
AM_0 外形線1
100
AcDbLine
 10
-6.0
 20
142.0
 30
0.0
 11
-0.5
 21
142.0
 31
0.0
  0
LINE
  5
5B5F
330
5B31
100
AcDbEntity
  8
AM_0 外形線1
100
AcDbLine
 10
-6.0
 20
137.0
 30
0.0
 11
-6.0
 21
132.0
 31
0.0
  0
LINE
  5
5B60
330
5B31
100
AcDbEntity
  8
AM_0 外形線1
100
AcDbLine
 10
-6.0
 20
137.0
 30
0.0
 11
-6.0
 21
142.0
 31
0.0
  0
LINE
  5
5B61
330
5B31
100
AcDbEntity
  8
AM_0 外形線1
100
AcDbLine
 10
-0.5
 20
142.0
 30
0.0
 11
0.0
 21
142.5
 31
0.0
  0
LINE
  5
5B63
330
5B31
100
AcDbEntity
  8
AM_0 外形線1
100
AcDbLine
 10
0.0
 20
153.5
 30
0.0
 11
-21.0
 21
153.5
 31
0.0
  0
LINE
  5
5B65
330
5B31
100
AcDbEntity
  8
AM_0 外形線1
100
AcDbLine
 10
-21.0
 20
171.5
 30
0.0
 11
0.0
 21
171.5
 31
0.0
  0
LINE
  5
5B66
330
5B31
100
AcDbEntity
  8
AM_0 外形線1
100
AcDbLine
 10
-1.0
 20
177.5
 30
0.0
 11
-20.0
 21
177.5
 31
0.0
  0
LINE
  5
5B67
330
5B31
100
AcDbEntity
  8
AM_0 外形線1
100
AcDbLine
 10
-20.0
 20
177.5
 30
0.0
 11
-21.0
 21
176.5
 31
0.0
  0
LINE
  5
5B68
330
5B31
100
AcDbEntity
  8
AM_0 外形線1
100
AcDbLine
 10
0.0
 20
176.5
 30
0.0
 11
-1.0
 21
177.5
 31
0.0
  0
LINE
  5
5BF4
330
5B31
100
AcDbEntity
  8
AM_0 外形線1
100
AcDbLine
 10
0.0
 20
-176.5
 30
0.0
 11
0.0
 21
-0.0000000000001137
 31
0.0
  0
LINE
  5
5BF5
330
5B31
100
AcDbEntity
  8
AM_0 外形線1
100
AcDbLine
 10
0.0
 20
176.5
 30
0.0
 11
0.0
 21
171.5
 31
0.0
  0
LINE
  5
5BF6
330
5B31
100
AcDbEntity
  8
AM_0 外形線1
100
AcDbLine
 10
-21.0
 20
176.5
 30
0.0
 11
-21.0
 21
148.0
 31
0.0
  0
ENDBLK
  5
5B33
330
5B31
100
AcDbEntity
  8
0
100
AcDbBlockEnd
  0
BLOCK
  5
5C45
330
5C44
100
AcDbEntity
  8
0
100
AcDbBlockBegin
  2
センタＡ SSM355
 70
     0
 10
0.0
 20
0.0
 30
0.0
  3
センタＡ SSM355
  1

  0
LINE
  5
5C47
330
5C44
100
AcDbEntity
  8
AM_0 外形線1
100
AcDbLine
 10
128.5
 20
125.0
 30
0.0
 11
78.0
 21
125.0
 31
0.0
  0
LINE
  5
5C48
330
5C44
100
AcDbEntity
  8
AM_0 外形線1
100
AcDbLine
 10
100.0
 20
-125.0
 30
0.0
 11
128.5
 21
-125.0
 31
0.0
  0
LINE
  5
5C49
330
5C44
100
AcDbEntity
  8
AM_0 外形線1
100
AcDbLine
 10
0.0
 20
121.0
 30
0.0
 11
0.0
 21
0.0
 31
0.0
  0
LINE
  5
5C4A
330
5C44
100
AcDbEntity
  8
AM_3 隠れ線
100
AcDbLine
 10
0.0
 20
7.0
 30
0.0
 11
37.0
 21
7.0
 31
0.0
  0
LINE
  5
5C4B
330
5C44
100
AcDbEntity
  8
AM_3 隠れ線
100
AcDbLine
 10
32.57735000000002
 20
7.0
 30
0.0
 11
32.57735000000002
 21
0.0
 31
0.0
  0
LINE
  5
5C4C
330
5C44
100
AcDbEntity
  8
AM_3 隠れ線
100
AcDbLine
 10
32.0
 20
8.0
 30
0.0
 11
32.0
 21
0.0
 31
0.0
  0
LINE
  5
5C4D
330
5C44
100
AcDbEntity
  8
AM_3 隠れ線
100
AcDbLine
 10
0.0
 20
8.0
 30
0.0
 11
32.0
 21
8.0
 31
0.0
  0
LINE
  5
5C4E
330
5C44
100
AcDbEntity
  8
AM_3 隠れ線
100
AcDbLine
 10
32.0
 20
8.0
 30
0.0
 11
32.57735000000002
 21
7.0
 31
0.0
  0
LINE
  5
5C4F
330
5C44
100
AcDbEntity
  8
AM_3 隠れ線
100
AcDbLine
 10
37.0
 20
7.0
 30
0.0
 11
41.04145199999993
 21
0.0
 31
0.0
  0
LINE
  5
5C50
330
5C44
100
AcDbEntity
  8
AM_3 隠れ線
100
AcDbLine
 10
37.0
 20
7.0
 30
0.0
 11
37.0
 21
0.0
 31
0.0
  0
ARC
  5
5C52
330
5C44
100
AcDbEntity
  8
AM_0 外形線1
100
AcDbCircle
 10
54.0
 20
0.0
 30
0.0
 40
135.82
100
AcDbArc
 50
80.46439800000047
 51
97.82857599999481
  0
LINE
  5
5C54
330
5C44
100
AcDbEntity
  8
AM_0 外形線1
100
AcDbLine
 10
34.0
 20
122.0
 30
0.0
 11
1.0
 21
122.0
 31
0.0
  0
LINE
  5
5C55
330
5C44
100
AcDbEntity
  8
AM_0 外形線1
100
AcDbLine
 10
1.0
 20
122.0
 30
0.0
 11
0.0
 21
121.0
 31
0.0
  0
LINE
  5
5C56
330
5C44
100
AcDbEntity
  8
AM_0 外形線1
100
AcDbLine
 10
35.5
 20
134.554162
 30
0.0
 11
34.5
 21
133.41288
 31
0.0
  0
ARC
  5
5C57
330
5C44
100
AcDbEntity
  8
AM_0 外形線1
100
AcDbCircle
 10
34.0
 20
122.5
 30
0.0
 40
0.5
100
AcDbArc
 50
270.0
 51
0.0
  0
LINE
  5
5C58
330
5C44
100
AcDbEntity
  8
AM_0 外形線1
100
AcDbLine
 10
34.5
 20
133.41288
 30
0.0
 11
34.5
 21
122.5
 31
0.0
  0
LINE
  5
5C59
330
5C44
100
AcDbEntity
  8
AM_7 中心線
100
AcDbLine
 10
54.0
 20
140.82
 30
0.0
 11
54.0
 21
122.6
 31
0.0
  0
LINE
  5
5C5A
330
5C44
100
AcDbEntity
  8
AM_0 外形線1
100
AcDbLine
 10
77.5
 20
132.771531
 30
0.0
 11
76.5
 21
133.943355
 31
0.0
  0
LINE
  5
5C5B
330
5C44
100
AcDbEntity
  8
AM_0 外形線1
100
AcDbLine
 10
77.5
 20
125.5
 30
0.0
 11
77.5
 21
132.771531
 31
0.0
  0
ARC
  5
5C5C
330
5C44
100
AcDbEntity
  8
AM_0 外形線1
100
AcDbCircle
 10
78.0
 20
125.5
 30
0.0
 40
0.5
100
AcDbArc
 50
180.0
 51
270.0
  0
LINE
  5
5C5D
330
5C44
100
AcDbEntity
  8
AM_0 外形線1
100
AcDbLine
 10
190.0
 20
0.0
 30
0.0
 11
190.0
 21
120.2
 31
0.0
  0
LINE
  5
5C5E
330
5C44
100
AcDbEntity
  8
AM_0 外形線1
100
AcDbLine
 10
190.0
 20
0.0
 30
0.0
 11
190.0
 21
-120.2
 31
0.0
  0
LINE
  5
5C5F
330
5C44
100
AcDbEntity
  8
AM_0 外形線1
100
AcDbLine
 10
130.5
 20
-124.2
 30
0.0
 11
130.5
 21
0.0
 31
0.0
  0
LINE
  5
5C60
330
5C44
100
AcDbEntity
  8
AM_0 外形線1
100
AcDbLine
 10
128.5
 20
-125.0
 30
0.0
 11
128.5
 21
0.0
 31
0.0
  0
LINE
  5
5C61
330
5C44
100
AcDbEntity
  8
AM_0 外形線1
100
AcDbLine
 10
130.5
 20
-124.2
 30
0.0
 11
186.0
 21
-124.2
 31
0.0
  0
LINE
  5
5C62
330
5C44
100
AcDbEntity
  8
AM_0 外形線1
100
AcDbLine
 10
128.5
 20
-125.0
 30
0.0
 11
130.5
 21
-124.2
 31
0.0
  0
ARC
  5
5C63
330
5C44
100
AcDbEntity
  8
AM_0 外形線1
100
AcDbCircle
 10
186.0
 20
-120.2
 30
0.0
 40
4.0
100
AcDbArc
 50
270.0
 51
0.0
  0
LINE
  5
5C64
330
5C44
100
AcDbEntity
  8
AM_0 外形線1
100
AcDbLine
 10
186.0
 20
124.2
 30
0.0
 11
130.5
 21
124.2
 31
0.0
  0
LINE
  5
5C65
330
5C44
100
AcDbEntity
  8
AM_0 外形線1
100
AcDbLine
 10
130.5
 20
124.2
 30
0.0
 11
128.5
 21
125.0
 31
0.0
  0
ARC
  5
5C66
330
5C44
100
AcDbEntity
  8
AM_0 外形線1
100
AcDbCircle
 10
186.0
 20
120.2
 30
0.0
 40
4.0
100
AcDbArc
 50
0.0
 51
90.0
  0
LINE
  5
5C68
330
5C44
100
AcDbEntity
  8
AM_0 外形線1
100
AcDbLine
 10
0.0000000000001137
 20
77.5000000000001
 30
0.0
 11
190.0
 21
77.49999999999976
 31
0.0
  0
ARC
  5
7BAC
330
5C44
100
AcDbEntity
  8
AM_0 外形線1
100
AcDbCircle
 10
54.0
 20
0.0
 30
0.0
 40
127.5999999999999
100
AcDbArc
 50
79.38405095213351
 51
98.79046155577446
  0
ARC
  5
7BAD
330
5C44
100
AcDbEntity
  8
AM_7 中心線
100
AcDbCircle
 10
54.0
 20
0.0
 30
0.0
 40
132.0
100
AcDbArc
 50
77.30876480350092
 51
100.475681696393
  0
ENDBLK
  5
5C46
330
5C44
100
AcDbEntity
  8
0
100
AcDbBlockEnd
  0
BLOCK
  5
5D12
330
5D11
100
AcDbEntity
  8
0
100
AcDbBlockBegin
  2
センタＢ SSM355
 70
     0
 10
0.0
 20
0.0
 30
0.0
  3
センタＢ SSM355
  1

  0
LINE
  5
5D14
330
5D11
100
AcDbEntity
  8
AM_0 外形線1
100
AcDbLine
 10
-186.0
 20
124.2
 30
0.0
 11
-130.5
 21
124.2
 31
0.0
  0
LINE
  5
5D15
330
5D11
100
AcDbEntity
  8
AM_0 外形線1
100
AcDbLine
 10
-130.5
 20
-124.2
 30
0.0
 11
-186.0
 21
-124.2
 31
0.0
  0
LINE
  5
5D16
330
5D11
100
AcDbEntity
  8
AM_0 外形線1
100
AcDbLine
 10
-190.0
 20
0.0
 30
0.0
 11
-190.0
 21
120.2
 31
0.0
  0
LINE
  5
5D17
330
5D11
100
AcDbEntity
  8
AM_0 外形線1
100
AcDbLine
 10
-190.0
 20
0.0
 30
0.0
 11
-190.0
 21
-120.2
 31
0.0
  0
ARC
  5
5D18
330
5D11
100
AcDbEntity
  8
AM_0 外形線1
100
AcDbCircle
 10
-186.0
 20
-120.2
 30
0.0
 40
4.0
100
AcDbArc
 50
180.0
 51
270.0
  0
ARC
  5
5D19
330
5D11
100
AcDbEntity
  8
AM_0 外形線1
100
AcDbCircle
 10
-186.0
 20
120.2
 30
0.0
 40
4.0
100
AcDbArc
 50
90.0
 51
180.0
  0
LINE
  5
5D1A
330
5D11
100
AcDbEntity
  8
AM_0 外形線1
100
AcDbLine
 10
0.0
 20
121.0
 30
0.0
 11
0.0
 21
0.0
 31
0.0
  0
LINE
  5
5D1B
330
5D11
100
AcDbEntity
  8
AM_3 隠れ線
100
AcDbLine
 10
0.0
 20
8.0
 30
0.0
 11
-32.0
 21
8.0
 31
0.0
  0
LINE
  5
5D1C
330
5D11
100
AcDbEntity
  8
AM_3 隠れ線
100
AcDbLine
 10
0.0
 20
7.0
 30
0.0
 11
-37.0
 21
7.0
 31
0.0
  0
LINE
  5
5D1D
330
5D11
100
AcDbEntity
  8
AM_0 外形線1
100
AcDbLine
 10
-130.5
 20
-124.2
 30
0.0
 11
-130.5
 21
0.0
 31
0.0
  0
LINE
  5
5D1E
330
5D11
100
AcDbEntity
  8
AM_0 外形線1
100
AcDbLine
 10
-128.5
 20
-125.0
 30
0.0
 11
-128.5
 21
0.0
 31
0.0
  0
LINE
  5
5D1F
330
5D11
100
AcDbEntity
  8
AM_0 外形線1
100
AcDbLine
 10
-100.0
 20
-125.0
 30
0.0
 11
-128.5
 21
-125.0
 31
0.0
  0
LINE
  5
5D20
330
5D11
100
AcDbEntity
  8
AM_0 外形線1
100
AcDbLine
 10
-128.5
 20
-125.0
 30
0.0
 11
-130.5
 21
-124.2
 31
0.0
  0
LINE
  5
5D21
330
5D11
100
AcDbEntity
  8
AM_3 隠れ線
100
AcDbLine
 10
-37.0
 20
7.0
 30
0.0
 11
-41.04145199999993
 21
0.0
 31
0.0
  0
LINE
  5
5D22
330
5D11
100
AcDbEntity
  8
AM_3 隠れ線
100
AcDbLine
 10
-37.0
 20
7.0
 30
0.0
 11
-37.0
 21
0.0
 31
0.0
  0
LINE
  5
5D23
330
5D11
100
AcDbEntity
  8
AM_3 隠れ線
100
AcDbLine
 10
-32.57735000000002
 20
7.0
 30
0.0
 11
-32.57735000000002
 21
0.0
 31
0.0
  0
LINE
  5
5D24
330
5D11
100
AcDbEntity
  8
AM_3 隠れ線
100
AcDbLine
 10
-32.0
 20
7.0
 30
0.0
 11
-32.0
 21
0.0
 31
0.0
  0
LINE
  5
5D25
330
5D11
100
AcDbEntity
  8
AM_3 隠れ線
100
AcDbLine
 10
-32.0
 20
8.0
 30
0.0
 11
-32.57735000000002
 21
7.0
 31
0.0
  0
LINE
  5
5D26
330
5D11
100
AcDbEntity
  8
AM_3 隠れ線
100
AcDbLine
 10
-32.0
 20
7.0
 30
0.0
 11
-32.0
 21
8.0
 31
0.0
  0
LINE
  5
5D27
330
5D11
100
AcDbEntity
  8
AM_0 外形線1
100
AcDbLine
 10
-34.0
 20
122.0
 30
0.0
 11
-1.0
 21
122.0
 31
0.0
  0
LINE
  5
5D29
330
5D11
100
AcDbEntity
  8
AM_0 外形線1
100
AcDbLine
 10
-128.5
 20
125.0
 30
0.0
 11
-78.0
 21
125.0
 31
0.0
  0
LINE
  5
5D2A
330
5D11
100
AcDbEntity
  8
AM_0 外形線1
100
AcDbLine
 10
-130.5
 20
124.2
 30
0.0
 11
-128.5
 21
125.0
 31
0.0
  0
ARC
  5
5D2B
330
5D11
100
AcDbEntity
  8
AM_0 外形線1
100
AcDbCircle
 10
-54.0
 20
0.0
 30
0.0
 40
135.82
100
AcDbArc
 50
82.1714240000052
 51
99.53560199999953
  0
LINE
  5
5D2D
330
5D11
100
AcDbEntity
  8
AM_0 外形線1
100
AcDbLine
 10
-77.5
 20
132.771531
 30
0.0
 11
-76.5
 21
133.943355
 31
0.0
  0
ARC
  5
5D2E
330
5D11
100
AcDbEntity
  8
AM_0 外形線1
100
AcDbCircle
 10
-78.0
 20
125.5
 30
0.0
 40
0.5
100
AcDbArc
 50
270.0
 51
0.0
  0
LINE
  5
5D2F
330
5D11
100
AcDbEntity
  8
AM_0 外形線1
100
AcDbLine
 10
-77.5
 20
125.5
 30
0.0
 11
-77.5
 21
132.771531
 31
0.0
  0
LINE
  5
5D30
330
5D11
100
AcDbEntity
  8
AM_7 中心線
100
AcDbLine
 10
-54.0
 20
140.82
 30
0.0
 11
-54.0
 21
122.6
 31
0.0
  0
LINE
  5
5D31
330
5D11
100
AcDbEntity
  8
AM_0 外形線1
100
AcDbLine
 10
-35.5
 20
134.554162
 30
0.0
 11
-34.5
 21
133.41288
 31
0.0
  0
ARC
  5
5D32
330
5D11
100
AcDbEntity
  8
AM_0 外形線1
100
AcDbCircle
 10
-34.0
 20
122.5
 30
0.0
 40
0.5
100
AcDbArc
 50
180.0
 51
270.0
  0
LINE
  5
5D33
330
5D11
100
AcDbEntity
  8
AM_0 外形線1
100
AcDbLine
 10
-34.5
 20
133.41288
 30
0.0
 11
-34.5
 21
122.5
 31
0.0
  0
LINE
  5
5D34
330
5D11
100
AcDbEntity
  8
AM_0 外形線1
100
AcDbLine
 10
-1.0
 20
122.0
 30
0.0
 11
0.0
 21
121.0
 31
0.0
  0
LINE
  5
5D36
330
5D11
100
AcDbEntity
  8
AM_0 外形線1
100
AcDbLine
 10
-0.0000000000001137
 20
77.5000000000001
 30
0.0
 11
-190.0
 21
77.49999999999976
 31
0.0
  0
ARC
  5
7B80
330
5D11
100
AcDbEntity
  8
AM_11 想像線
100
AcDbCircle
 10
-54.0
 20
0.0
 30
0.0
 40
132.0
100
AcDbArc
 50
103.9736347110382
 51
104.0012464288308
  0
ARC
  5
7B81
330
5D11
100
AcDbEntity
  8
AM_7 中心線
100
AcDbCircle
 10
-54.0
 20
0.0
 30
0.0
 40
132.0
100
AcDbArc
 50
79.52431830361334
 51
102.691235196499
  0
ARC
  5
7B82
330
5D11
100
AcDbEntity
  8
AM_0 外形線1
100
AcDbCircle
 10
-54.0
 20
0.0
 30
0.0
 40
127.5999999999999
100
AcDbArc
 50
81.2095384442191
 51
100.6159490478665
  0
ENDBLK
  5
5D13
330
5D11
100
AcDbEntity
  8
0
100
AcDbBlockEnd
  0
BLOCK
  5
5F0C
330
5F0B
100
AcDbEntity
  8
0
100
AcDbBlockBegin
  2
リーマボルト SSM355 M16
 70
     0
 10
0.0
 20
0.0
 30
0.0
  3
リーマボルト SSM355 M16
  1

  0
LINE
  5
5F0E
330
5F0B
100
AcDbEntity
  8
AM_0 外形線1
100
AcDbLine
 10
0.0
 20
-6.928202999999937
 30
0.0
 11
-8.931901999999807
 21
-6.928202999999937
 31
0.0
  0
LINE
  5
5F0F
330
5F0B
100
AcDbEntity
  8
AM_0 外形線1
100
AcDbLine
 10
0.0
 20
6.928202999999937
 30
0.0
 11
-8.931901999999807
 21
6.928202999999937
 31
0.0
  0
LINE
  5
5F10
330
5F0B
100
AcDbEntity
  8
AM_0 外形線1
100
AcDbLine
 10
-8.931901999999807
 20
-13.85000000000002
 30
0.0
 11
0.0
 21
-13.85000000000002
 31
0.0
  0
LINE
  5
5F11
330
5F0B
100
AcDbEntity
  8
AM_0 外形線1
100
AcDbLine
 10
0.0
 20
13.84999999999991
 30
0.0
 11
-8.931901999999807
 21
13.84999999999991
 31
0.0
  0
ARC
  5
5F12
330
5F0B
100
AcDbEntity
  8
AM_0 外形線1
100
AcDbCircle
 10
13.00389700000005
 20
0.0
 30
0.0
 40
23.003897
100
AcDbArc
 50
162.471797999992
 51
197.528202000008
  0
LINE
  5
5F13
330
5F0B
100
AcDbEntity
  8
AM_0 外形線1
100
AcDbLine
 10
-10.0
 20
12.0
 30
0.0
 11
-10.0
 21
-12.0
 31
0.0
  0
ARC
  5
5F14
330
5F0B
100
AcDbEntity
  8
AM_0 外形線1
100
AcDbCircle
 10
-3.85887300000013
 20
-10.38910199999998
 30
0.0
 40
6.141127
100
AcDbArc
 50
145.6975910000001
 51
214.3024089999999
  0
LINE
  5
5F15
330
5F0B
100
AcDbEntity
  8
AM_0 外形線1
100
AcDbLine
 10
-10.0
 20
-12.0
 30
0.0
 11
-8.931901999999807
 21
-13.85000000000002
 31
0.0
  0
ARC
  5
5F16
330
5F0B
100
AcDbEntity
  8
AM_0 外形線1
100
AcDbCircle
 10
-3.85887300000013
 20
10.38910200000009
 30
0.0
 40
6.141127
100
AcDbArc
 50
145.6975910000001
 51
214.3024089999999
  0
LINE
  5
5F17
330
5F0B
100
AcDbEntity
  8
AM_0 外形線1
100
AcDbLine
 10
-8.931901999999807
 20
13.84999999999991
 30
0.0
 11
-10.0
 21
12.0
 31
0.0
  0
LINE
  5
5F18
330
5F0B
100
AcDbEntity
  8
AM_0 外形線1
100
AcDbLine
 10
2.0
 20
-9.0
 30
0.0
 11
2.0
 21
9.0
 31
0.0
  0
ARC
  5
5F19
330
5F0B
100
AcDbEntity
  8
AM_0 外形線1
100
AcDbCircle
 10
1.0
 20
-9.0
 30
0.0
 40
1.0
100
AcDbArc
 50
0.0
 51
180.0
  0
ARC
  5
5F1A
330
5F0B
100
AcDbEntity
  8
AM_0 外形線1
100
AcDbCircle
 10
1.0
 20
9.0
 30
0.0
 40
1.0
100
AcDbArc
 50
180.0
 51
0.0
  0
LINE
  5
5F1B
330
5F0B
100
AcDbEntity
  8
AM_0 外形線1
100
AcDbLine
 10
63.0
 20
8.0
 30
0.0
 11
63.0
 21
-8.0
 31
0.0
  0
LINE
  5
5F1C
330
5F0B
100
AcDbEntity
  8
AM_0 外形線1
100
AcDbLine
 10
65.0
 20
6.0
 30
0.0
 11
65.0
 21
-6.0
 31
0.0
  0
ARC
  5
5F1D
330
5F0B
100
AcDbEntity
  8
AM_0 外形線1
100
AcDbCircle
 10
35.99610299999996
 20
0.0
 30
0.0
 40
23.003897
100
AcDbArc
 50
342.471797999992
 51
17.52820200000799
  0
LINE
  5
5F1E
330
5F0B
100
AcDbEntity
  8
AM_0 外形線1
100
AcDbLine
 10
46.0
 20
-13.85000000000002
 30
0.0
 11
46.0
 21
13.84999999999991
 31
0.0
  0
LINE
  5
5F1F
330
5F0B
100
AcDbEntity
  8
AM_0 外形線1
100
AcDbLine
 10
59.0
 20
12.0
 30
0.0
 11
59.0
 21
-12.0
 31
0.0
  0
LINE
  5
5F20
330
5F0B
100
AcDbEntity
  8
AM_0 外形線1
100
AcDbLine
 10
40.0
 20
9.0
 30
0.0
 11
40.0
 21
-9.0
 31
0.0
  0
LINE
  5
5F21
330
5F0B
100
AcDbEntity
  8
AM_0 外形線1
100
AcDbLine
 10
41.0
 20
8.422649999999974
 30
0.0
 11
41.0
 21
-8.422649999999974
 31
0.0
  0
LINE
  5
5F22
330
5F0B
100
AcDbEntity
  8
AM_0 外形線1
100
AcDbLine
 10
46.0
 20
-6.928202999999937
 30
0.0
 11
57.93190199999981
 21
-6.928202999999937
 31
0.0
  0
LINE
  5
5F23
330
5F0B
100
AcDbEntity
  8
AM_0 外形線1
100
AcDbLine
 10
57.93190199999981
 20
-13.85000000000002
 30
0.0
 11
46.0
 21
-13.85000000000002
 31
0.0
  0
LINE
  5
5F24
330
5F0B
100
AcDbEntity
  8
AM_0 外形線1
100
AcDbLine
 10
41.0
 20
-8.422649999999974
 30
0.0
 11
42.0
 21
-8.422649999999974
 31
0.0
  0
LINE
  5
5F25
330
5F0B
100
AcDbEntity
  8
AM_0 外形線1
100
AcDbLine
 10
46.0
 20
1.333333000000038
 30
0.0
 11
42.0
 21
-2.66666699999996
 31
0.0
  0
LINE
  5
5F26
330
5F0B
100
AcDbEntity
  8
AM_0 外形線1
100
AcDbLine
 10
46.0
 20
2.66666699999996
 30
0.0
 11
42.0
 21
-1.333333000000038
 31
0.0
  0
LINE
  5
5F27
330
5F0B
100
AcDbEntity
  8
AM_0 外形線1
100
AcDbLine
 10
46.0
 20
-14.0
 30
0.0
 11
46.0
 21
-13.85000000000002
 31
0.0
  0
LINE
  5
5F28
330
5F0B
100
AcDbEntity
  8
AM_0 外形線1
100
AcDbLine
 10
42.0
 20
-14.0
 30
0.0
 11
46.0
 21
-14.0
 31
0.0
  0
LINE
  5
5F29
330
5F0B
100
AcDbEntity
  8
AM_0 外形線1
100
AcDbLine
 10
41.0
 20
-8.422649999999974
 30
0.0
 11
40.0
 21
-9.0
 31
0.0
  0
LINE
  5
5F2A
330
5F0B
100
AcDbEntity
  8
AM_4 細線
100
AcDbLine
 10
59.0
 20
-7.0
 30
0.0
 11
64.0
 21
-7.0
 31
0.0
  0
LINE
  5
5F2B
330
5F0B
100
AcDbEntity
  8
AM_0 外形線1
100
AcDbLine
 10
63.0
 20
-8.0
 30
0.0
 11
59.0
 21
-8.0
 31
0.0
  0
LINE
  5
5F2C
330
5F0B
100
AcDbEntity
  8
AM_0 外形線1
100
AcDbLine
 10
65.0
 20
-6.0
 30
0.0
 11
63.0
 21
-8.0
 31
0.0
  0
ARC
  5
5F2D
330
5F0B
100
AcDbEntity
  8
AM_0 外形線1
100
AcDbCircle
 10
52.85887300000013
 20
-10.38910199999998
 30
0.0
 40
6.141127
100
AcDbArc
 50
325.697591
 51
34.30240899999993
  0
LINE
  5
5F2E
330
5F0B
100
AcDbEntity
  8
AM_0 外形線1
100
AcDbLine
 10
59.0
 20
-12.0
 30
0.0
 11
57.93190199999981
 21
-13.85000000000002
 31
0.0
  0
LINE
  5
5F2F
330
5F0B
100
AcDbEntity
  8
AM_0 外形線1
100
AcDbLine
 10
46.0
 20
6.928202999999937
 30
0.0
 11
57.93190199999981
 21
6.928202999999937
 31
0.0
  0
LINE
  5
5F30
330
5F0B
100
AcDbEntity
  8
AM_0 外形線1
100
AcDbLine
 10
46.0
 20
13.84999999999991
 30
0.0
 11
57.93190199999981
 21
13.84999999999991
 31
0.0
  0
LINE
  5
5F31
330
5F0B
100
AcDbEntity
  8
AM_0 外形線1
100
AcDbLine
 10
41.0
 20
8.422649999999974
 30
0.0
 11
42.0
 21
8.422649999999974
 31
0.0
  0
LINE
  5
5F32
330
5F0B
100
AcDbEntity
  8
AM_0 外形線1
100
AcDbLine
 10
46.0
 20
14.0
 30
0.0
 11
42.0
 21
14.0
 31
0.0
  0
LINE
  5
5F33
330
5F0B
100
AcDbEntity
  8
AM_0 外形線1
100
AcDbLine
 10
46.0
 20
13.84999999999991
 30
0.0
 11
46.0
 21
14.0
 31
0.0
  0
LINE
  5
5F34
330
5F0B
100
AcDbEntity
  8
AM_0 外形線1
100
AcDbLine
 10
40.0
 20
9.0
 30
0.0
 11
41.0
 21
8.422649999999974
 31
0.0
  0
LINE
  5
5F35
330
5F0B
100
AcDbEntity
  8
AM_4 細線
100
AcDbLine
 10
59.0
 20
7.0
 30
0.0
 11
64.0
 21
7.0
 31
0.0
  0
LINE
  5
5F36
330
5F0B
100
AcDbEntity
  8
AM_0 外形線1
100
AcDbLine
 10
63.0
 20
8.0
 30
0.0
 11
65.0
 21
6.0
 31
0.0
  0
LINE
  5
5F37
330
5F0B
100
AcDbEntity
  8
AM_0 外形線1
100
AcDbLine
 10
59.0
 20
8.0
 30
0.0
 11
63.0
 21
8.0
 31
0.0
  0
ARC
  5
5F38
330
5F0B
100
AcDbEntity
  8
AM_0 外形線1
100
AcDbCircle
 10
52.85887300000013
 20
10.38910200000009
 30
0.0
 40
6.141127
100
AcDbArc
 50
325.697591
 51
34.30240899999993
  0
LINE
  5
5F39
330
5F0B
100
AcDbEntity
  8
AM_0 外形線1
100
AcDbLine
 10
57.93190199999981
 20
13.84999999999991
 30
0.0
 11
59.0
 21
12.0
 31
0.0
  0
LINE
  5
5F9B
330
5F0B
100
AcDbEntity
  8
AM_0 外形線1
100
AcDbLine
 10
0.0
 20
13.84999999999991
 30
0.0
 11
0.0
 21
-13.85000000000002
 31
0.0
  0
LINE
  5
5F9C
330
5F0B
100
AcDbEntity
  8
AM_0 外形線1
100
AcDbLine
 10
42.0
 20
14.0
 30
0.0
 11
42.0
 21
-14.0
 31
0.0
  0
LINE
  5
5F9D
330
5F0B
100
AcDbEntity
  8
AM_0 外形線1
100
AcDbLine
 10
2.0
 20
9.0
 30
0.0
 11
40.0
 21
9.0
 31
0.0
  0
LINE
  5
5F9E
330
5F0B
100
AcDbEntity
  8
AM_0 外形線1
100
AcDbLine
 10
2.0
 20
-9.0
 30
0.0
 11
40.0
 21
-9.0
 31
0.0
  0
ENDBLK
  5
5F0D
330
5F0B
100
AcDbEntity
  8
0
100
AcDbBlockEnd
  0
BLOCK
  5
6336
330
6335
100
AcDbEntity
  8
0
100
AcDbBlockBegin
  2
*D17
 70
     1
 10
0.0
 20
0.0
 30
0.0
  3
*D17
  1

  0
LINE
  5
72D9
330
6335
100
AcDbEntity
  8
AM_5 寸法線
 62
     3
100
AcDbLine
 10
789.7386435967288
 20
690.5475024501311
 30
0.0
 11
789.7386435967288
 21
629.547502450131
 31
0.0
  0
LINE
  5
72DA
330
6335
100
AcDbEntity
  8
AM_5 寸法線
 62
     3
100
AcDbLine
 10
768.7386435967288
 20
690.5475024501311
 30
0.0
 11
768.7386435967288
 21
629.547502450131
 31
0.0
  0
LINE
  5
72DB
330
6335
100
AcDbEntity
  8
AM_5 寸法線
 62
     3
100
AcDbLine
 10
799.7386435967286
 20
632.0475024501311
 30
0.0
 11
809.7386435967289
 21
632.0475024501311
 31
0.0
  0
LINE
  5
72DC
330
6335
100
AcDbEntity
  8
AM_5 寸法線
 62
     3
100
AcDbLine
 10
758.7386435967288
 20
632.0475024501311
 30
0.0
 11
748.7386435967287
 21
632.0475024501311
 31
0.0
  0
MTEXT
  5
72DD
330
6335
100
AcDbEntity
  8
AM_5 寸法線
 62
     3
100
AcDbMText
 10
748.9474095793116
 20
645.1615223837125
 30
0.0
 40
14.0
 41
0.0
 46
0.0
 71
     5
 72
     1
  1
21
  7
SEISA
 73
     1
 44
1.0
  0
LINE
  5
72DE
330
6335
100
AcDbEntity
  8
AM_5 寸法線
 62
     3
100
AcDbLine
 10
789.7386435967288
 20
632.0475024501311
 30
0.0
 11
768.7386435967288
 21
632.0475024501311
 31
0.0
  0
INSERT
  5
72DF
330
6335
100
AcDbEntity
  8
AM_5 寸法線
 62
     3
100
AcDbBlockReference
  2
GENDOT
 10
789.7386435967288
 20
632.0475024501311
 30
0.0
 41
10.0
 42
10.0
 43
10.0
 50
180.0
  0
INSERT
  5
72E0
330
6335
100
AcDbEntity
  8
AM_5 寸法線
 62
     3
100
AcDbBlockReference
  2
_Open30
 10
768.7386435967288
 20
632.0475024501311
 30
0.0
 41
10.0
 42
10.0
 43
10.0
  0
POINT
  5
72E1
330
6335
100
AcDbEntity
  8
Defpoints
 62
     0
100
AcDbPoint
 10
789.7386435967288
 20
693.0475024501311
 30
0.0
  0
POINT
  5
72E2
330
6335
100
AcDbEntity
  8
Defpoints
 62
     0
100
AcDbPoint
 10
768.7386435967288
 20
693.0475024501311
 30
0.0
  0
POINT
  5
72E3
330
6335
100
AcDbEntity
  8
Defpoints
 62
     0
100
AcDbPoint
 10
768.7386435967288
 20
632.0475024501311
 30
0.0
  0
ENDBLK
  5
6337
330
6335
100
AcDbEntity
  8
0
100
AcDbBlockEnd
  0
BLOCK
  5
6352
330
6351
100
AcDbEntity
  8
0
100
AcDbBlockBegin
  2
*D18
 70
     1
 10
0.0
 20
0.0
 30
0.0
  3
*D18
  1

  0
LINE
  5
72EF
330
6351
100
AcDbEntity
  8
AM_5 寸法線
 62
     3
100
AcDbLine
 10
789.7386435967288
 20
690.5475024501311
 30
0.0
 11
789.7386435967288
 21
629.547502450131
 31
0.0
  0
LINE
  5
72F0
330
6351
100
AcDbEntity
  8
AM_5 寸法線
 62
     3
100
AcDbLine
 10
810.7386435967288
 20
690.5475024501311
 30
0.0
 11
810.7386435967288
 21
629.547502450131
 31
0.0
  0
LINE
  5
72F1
330
6351
100
AcDbEntity
  8
AM_5 寸法線
 62
     3
100
AcDbLine
 10
779.7386435967288
 20
632.0475024501311
 30
0.0
 11
769.7386435967286
 21
632.0475024501311
 31
0.0
  0
LINE
  5
72F2
330
6351
100
AcDbEntity
  8
AM_5 寸法線
 62
     3
100
AcDbLine
 10
820.7386435967286
 20
632.0475024501311
 30
0.0
 11
830.7386435967286
 21
632.0475024501311
 31
0.0
  0
MTEXT
  5
72F3
330
6351
100
AcDbEntity
  8
AM_5 寸法線
 62
     3
100
AcDbMText
 10
828.2863986209845
 20
645.1333734164307
 30
0.0
 40
14.0
 41
0.0
 46
0.0
 71
     5
 72
     1
  1
21
  7
SEISA
 73
     1
 44
1.0
  0
LINE
  5
72F4
330
6351
100
AcDbEntity
  8
AM_5 寸法線
 62
     3
100
AcDbLine
 10
789.7386435967288
 20
632.0475024501311
 30
0.0
 11
810.7386435967288
 21
632.0475024501311
 31
0.0
  0
INSERT
  5
72F5
330
6351
100
AcDbEntity
  8
AM_5 寸法線
 62
     3
100
AcDbBlockReference
  2
GENDOT
 10
789.7386435967288
 20
632.0475024501311
 30
0.0
 41
10.0
 42
10.0
 43
10.0
  0
INSERT
  5
72F6
330
6351
100
AcDbEntity
  8
AM_5 寸法線
 62
     3
100
AcDbBlockReference
  2
_Open30
 10
810.7386435967288
 20
632.0475024501311
 30
0.0
 41
10.0
 42
10.0
 43
10.0
 50
180.0
  0
POINT
  5
72F7
330
6351
100
AcDbEntity
  8
Defpoints
 62
     0
100
AcDbPoint
 10
789.7386435967288
 20
693.0475024501311
 30
0.0
  0
POINT
  5
72F8
330
6351
100
AcDbEntity
  8
Defpoints
 62
     0
100
AcDbPoint
 10
810.7386435967288
 20
693.0475024501311
 30
0.0
  0
POINT
  5
72F9
330
6351
100
AcDbEntity
  8
Defpoints
 62
     0
100
AcDbPoint
 10
810.7386435967288
 20
632.0475024501311
 30
0.0
  0
ENDBLK
  5
6353
330
6351
100
AcDbEntity
  8
0
100
AcDbBlockEnd
  0
BLOCK
  5
64CA
330
64C9
100
AcDbEntity
  8
0
100
AcDbBlockBegin
  2
*D19
 70
     1
 10
0.0
 20
0.0
 30
0.0
  3
*D19
  1

  0
LINE
  5
7AB0
330
64C9
100
AcDbEntity
  8
AM_5 寸法線
 62
     3
100
AcDbLine
 10
681.7386435967287
 20
727.0475024501311
 30
0.0
 11
681.7386435967287
 21
589.5475024501311
 31
0.0
  0
LINE
  5
7AB1
330
64C9
100
AcDbEntity
  8
AM_5 寸法線
 62
     3
100
AcDbLine
 10
897.7386435967288
 20
729.8932469501311
 30
0.0
 11
897.7386435967288
 21
589.5475024501311
 31
0.0
  0
LINE
  5
7AB2
330
64C9
100
AcDbEntity
  8
AM_5 寸法線
 62
     3
100
AcDbLine
 10
691.7386435967288
 20
592.047502450131
 30
0.0
 11
887.7386435967286
 21
592.047502450131
 31
0.0
  0
INSERT
  5
7AB3
330
64C9
100
AcDbEntity
  8
AM_5 寸法線
 62
     3
100
AcDbBlockReference
  2
_Open30
 10
681.7386435967287
 20
592.047502450131
 30
0.0
 41
10.0
 42
10.0
 43
10.0
 50
180.0
  0
INSERT
  5
7AB4
330
64C9
100
AcDbEntity
  8
AM_5 寸法線
 62
     3
100
AcDbBlockReference
  2
_Open30
 10
897.7386435967288
 20
592.047502450131
 30
0.0
 41
10.0
 42
10.0
 43
10.0
  0
MTEXT
  5
7AB5
330
64C9
100
AcDbEntity
  8
AM_5 寸法線
 62
     3
100
AcDbMText
 10
789.7386435967288
 20
605.0475024501309
 30
0.0
 40
14.0
 41
0.0
 46
0.0
 71
     5
 72
     1
  1
216
  7
SEISA
 73
     1
 44
1.0
  0
POINT
  5
7AB6
330
64C9
100
AcDbEntity
  8
Defpoints
 62
     0
100
AcDbPoint
 10
681.7386435967287
 20
729.547502450131
 30
0.0
  0
POINT
  5
7AB7
330
64C9
100
AcDbEntity
  8
Defpoints
 62
     0
100
AcDbPoint
 10
897.7386435967288
 20
732.3932469501309
 30
0.0
  0
POINT
  5
7AB8
330
64C9
100
AcDbEntity
  8
Defpoints
 62
     0
100
AcDbPoint
 10
897.7386435967288
 20
592.047502450131
 30
0.0
  0
ENDBLK
  5
64CB
330
64C9
100
AcDbEntity
  8
0
100
AcDbBlockEnd
  0
BLOCK
  5
651A
330
6519
100
AcDbEntity
  8
0
100
AcDbBlockBegin
  2
*D20
 70
     1
 10
0.0
 20
0.0
 30
0.0
  3
*D20
  1

  0
LINE
  5
6526
330
6519
100
AcDbEntity
  8
AM_5 寸法線
 62
     3
100
AcDbLine
 10
591.7386435967285
 20
746.847502450131
 30
0.0
 11
591.7386435967285
 21
549.5475024501311
 31
0.0
  0
LINE
  5
6527
330
6519
100
AcDbEntity
  8
AM_5 寸法線
 62
     3
100
AcDbLine
 10
987.7386435967286
 20
746.847502450131
 30
0.0
 11
987.7386435967286
 21
549.5475024501311
 31
0.0
  0
LINE
  5
6528
330
6519
100
AcDbEntity
  8
AM_5 寸法線
 62
     3
100
AcDbLine
 10
601.7386435967287
 20
552.0475024501311
 30
0.0
 11
977.7386435967288
 21
552.0475024501311
 31
0.0
  0
INSERT
  5
6529
330
6519
100
AcDbEntity
  8
AM_5 寸法線
 62
     3
100
AcDbBlockReference
  2
_Open30
 10
591.7386435967285
 20
552.0475024501311
 30
0.0
 41
10.0
 42
10.0
 43
10.0
 50
180.0
  0
INSERT
  5
652A
330
6519
100
AcDbEntity
  8
AM_5 寸法線
 62
     3
100
AcDbBlockReference
  2
_Open30
 10
987.7386435967286
 20
552.0475024501311
 30
0.0
 41
10.0
 42
10.0
 43
10.0
  0
MTEXT
  5
652B
330
6519
100
AcDbEntity
  8
AM_5 寸法線
 62
     3
100
AcDbMText
 10
789.7386435967288
 20
565.0475024501311
 30
0.0
 40
14.0
 41
0.0
 46
0.0
 71
     5
 72
     1
  1
396
  7
SEISA
 73
     1
 44
1.0
  0
POINT
  5
652C
330
6519
100
AcDbEntity
  8
Defpoints
 62
     0
100
AcDbPoint
 10
591.7386435967285
 20
749.347502450131
 30
0.0
  0
POINT
  5
652D
330
6519
100
AcDbEntity
  8
Defpoints
 62
     0
100
AcDbPoint
 10
987.7386435967286
 20
749.347502450131
 30
0.0
  0
POINT
  5
652E
330
6519
100
AcDbEntity
  8
Defpoints
 62
     0
100
AcDbPoint
 10
987.7386435967286
 20
552.0475024501311
 30
0.0
  0
ENDBLK
  5
651B
330
6519
100
AcDbEntity
  8
0
100
AcDbBlockEnd
  0
BLOCK
  5
6593
330
6592
100
AcDbEntity
  8
0
100
AcDbBlockBegin
  2
*D21
 70
     1
 10
0.0
 20
0.0
 30
0.0
  3
*D21
  1

  0
LINE
  5
65E2
330
6592
100
AcDbEntity
  8
AM_5 寸法線
 62
     3
100
AcDbLine
 10
928.7386435967286
 20
994.5475024501313
 30
0.0
 11
1078.238643596729
 21
994.5475024501313
 31
0.0
  0
LINE
  5
65E3
330
6592
100
AcDbEntity
  8
AM_5 寸法線
 62
     3
100
AcDbLine
 10
928.7386435967286
 20
744.5475024501311
 30
0.0
 11
1078.238643596729
 21
744.5475024501311
 31
0.0
  0
LINE
  5
65E4
330
6592
100
AcDbEntity
  8
AM_5 寸法線
 62
     3
100
AcDbLine
 10
1075.738643596729
 20
984.5475024501311
 30
0.0
 11
1075.738643596729
 21
754.547502450131
 31
0.0
  0
INSERT
  5
65E5
330
6592
100
AcDbEntity
  8
AM_5 寸法線
 62
     3
100
AcDbBlockReference
  2
_Open30
 10
1075.738643596729
 20
994.5475024501313
 30
0.0
 41
10.0
 42
10.0
 43
10.0
 50
90.0
  0
INSERT
  5
65E6
330
6592
100
AcDbEntity
  8
AM_5 寸法線
 62
     3
100
AcDbBlockReference
  2
_Open30
 10
1075.738643596729
 20
744.5475024501311
 30
0.0
 41
10.0
 42
10.0
 43
10.0
 50
270.0
  0
MTEXT
  5
65E7
330
6592
100
AcDbEntity
  8
AM_5 寸法線
 62
     3
100
AcDbMText
 10
1062.738643596728
 20
869.5475024501313
 30
0.0
 40
14.0
 41
0.0
 46
0.0
 71
     5
 72
     1
  1
%%c250
  7
SEISA
 11
0.0000000000000001
 21
1.0
 31
0.0
 73
     1
 44
1.0
  0
POINT
  5
65E8
330
6592
100
AcDbEntity
  8
Defpoints
 62
     0
100
AcDbPoint
 10
926.2386435967286
 20
994.5475024501313
 30
0.0
  0
POINT
  5
65E9
330
6592
100
AcDbEntity
  8
Defpoints
 62
     0
100
AcDbPoint
 10
926.2386435967286
 20
744.5475024501311
 30
0.0
  0
POINT
  5
65EA
330
6592
100
AcDbEntity
  8
Defpoints
 62
     0
100
AcDbPoint
 10
1075.738643596729
 20
744.5475024501311
 30
0.0
  0
ENDBLK
  5
6594
330
6592
100
AcDbEntity
  8
0
100
AcDbBlockEnd
  0
BLOCK
  5
65AB
330
65AA
100
AcDbEntity
  8
0
100
AcDbBlockBegin
  2
*D22
 70
     1
 10
0.0
 20
0.0
 30
0.0
  3
*D22
  1

  0
LINE
  5
65F4
330
65AA
100
AcDbEntity
  8
AM_5 寸法線
 62
     3
100
AcDbLine
 10
896.2386435967287
 20
1013.547502450131
 30
0.0
 11
1118.238643596729
 21
1013.547502450131
 31
0.0
  0
LINE
  5
65F5
330
65AA
100
AcDbEntity
  8
AM_5 寸法線
 62
     3
100
AcDbLine
 10
896.2386435967287
 20
725.5475024501309
 30
0.0
 11
1118.238643596729
 21
725.5475024501309
 31
0.0
  0
LINE
  5
65F6
330
65AA
100
AcDbEntity
  8
AM_5 寸法線
 62
     3
100
AcDbLine
 10
1115.738643596729
 20
1003.547502450131
 30
0.0
 11
1115.738643596729
 21
735.5475024501308
 31
0.0
  0
INSERT
  5
65F7
330
65AA
100
AcDbEntity
  8
AM_5 寸法線
 62
     3
100
AcDbBlockReference
  2
_Open30
 10
1115.738643596729
 20
1013.547502450131
 30
0.0
 41
10.0
 42
10.0
 43
10.0
 50
90.0
  0
INSERT
  5
65F8
330
65AA
100
AcDbEntity
  8
AM_5 寸法線
 62
     3
100
AcDbBlockReference
  2
_Open30
 10
1115.738643596729
 20
725.5475024501309
 30
0.0
 41
10.0
 42
10.0
 43
10.0
 50
270.0
  0
MTEXT
  5
65F9
330
65AA
100
AcDbEntity
  8
AM_5 寸法線
 62
     3
100
AcDbMText
 10
1102.738643596729
 20
869.5475024501313
 30
0.0
 40
14.0
 41
0.0
 46
0.0
 71
     5
 72
     1
  1
%%c288
  7
SEISA
 11
0.0000000000000001
 21
1.0
 31
0.0
 73
     1
 44
1.0
  0
POINT
  5
65FA
330
65AA
100
AcDbEntity
  8
Defpoints
 62
     0
100
AcDbPoint
 10
893.7386435967288
 20
1013.547502450131
 30
0.0
  0
POINT
  5
65FB
330
65AA
100
AcDbEntity
  8
Defpoints
 62
     0
100
AcDbPoint
 10
893.7386435967288
 20
725.5475024501309
 30
0.0
  0
POINT
  5
65FC
330
65AA
100
AcDbEntity
  8
Defpoints
 62
     0
100
AcDbPoint
 10
1115.738643596729
 20
725.5475024501309
 30
0.0
  0
ENDBLK
  5
65AC
330
65AA
100
AcDbEntity
  8
0
100
AcDbBlockEnd
  0
BLOCK
  5
65C3
330
65C2
100
AcDbEntity
  8
0
100
AcDbBlockBegin
  2
*D23
 70
     1
 10
0.0
 20
0.0
 30
0.0
  3
*D23
  1

  0
LINE
  5
6606
330
65C2
100
AcDbEntity
  8
AM_5 寸法線
 62
     3
100
AcDbLine
 10
812.2386435967287
 20
1047.047502450131
 30
0.0
 11
1158.238643596729
 21
1047.047502450131
 31
0.0
  0
LINE
  5
6607
330
65C2
100
AcDbEntity
  8
AM_5 寸法線
 62
     3
100
AcDbLine
 10
812.2386435967287
 20
692.047502450131
 30
0.0
 11
1158.238643596729
 21
692.047502450131
 31
0.0
  0
LINE
  5
6608
330
65C2
100
AcDbEntity
  8
AM_5 寸法線
 62
     3
100
AcDbLine
 10
1155.738643596729
 20
1037.047502450131
 30
0.0
 11
1155.738643596729
 21
702.0475024501311
 31
0.0
  0
INSERT
  5
6609
330
65C2
100
AcDbEntity
  8
AM_5 寸法線
 62
     3
100
AcDbBlockReference
  2
_Open30
 10
1155.738643596729
 20
1047.047502450131
 30
0.0
 41
10.0
 42
10.0
 43
10.0
 50
90.0
  0
INSERT
  5
660A
330
65C2
100
AcDbEntity
  8
AM_5 寸法線
 62
     3
100
AcDbBlockReference
  2
_Open30
 10
1155.738643596729
 20
692.047502450131
 30
0.0
 41
10.0
 42
10.0
 43
10.0
 50
270.0
  0
MTEXT
  5
660B
330
65C2
100
AcDbEntity
  8
AM_5 寸法線
 62
     3
100
AcDbMText
 10
1142.738643596729
 20
869.5475024501313
 30
0.0
 40
14.0
 41
0.0
 46
0.0
 71
     5
 72
     1
  1
%%c355
  7
SEISA
 11
0.0000000000000001
 21
1.0
 31
0.0
 73
     1
 44
1.0
  0
POINT
  5
660C
330
65C2
100
AcDbEntity
  8
Defpoints
 62
     0
100
AcDbPoint
 10
809.7386435967289
 20
1047.047502450131
 30
0.0
  0
POINT
  5
660D
330
65C2
100
AcDbEntity
  8
Defpoints
 62
     0
100
AcDbPoint
 10
809.7386435967289
 20
692.047502450131
 30
0.0
  0
POINT
  5
660E
330
65C2
100
AcDbEntity
  8
Defpoints
 62
     0
100
AcDbPoint
 10
1155.738643596729
 20
692.047502450131
 30
0.0
  0
ENDBLK
  5
65C4
330
65C2
100
AcDbEntity
  8
0
100
AcDbBlockEnd
  0
BLOCK
  5
7227
330
7224
100
AcDbEntity
  8
0
100
AcDbBlockBegin
  2
GENDOT
 70
     0
 10
0.0
 20
0.0
 30
0.0
  3
GENDOT
  1

  0
LINE
  5
7225
330
7224
100
AcDbEntity
  8
0
100
AcDbLine
 10
0.0
 20
0.0
 30
0.0
 11
-1.0
 21
0.0
 31
0.0
  0
LWPOLYLINE
  5
7226
330
7224
100
AcDbEntity
  8
0
100
AcDbPolyline
 90
        2
 70
     1
 43
0.25
 10
-0.125
 20
0.0
 42
1.0
 10
0.125
 20
0.0
 42
1.0
  0
ENDBLK
  5
7228
330
7224
100
AcDbEntity
  8
0
100
AcDbBlockEnd
  0
BLOCK
  5
7BD3
330
7BD2
100
AcDbEntity
  8
0
100
AcDbBlockBegin
  2
*D25
 70
     1
 10
0.0
 20
0.0
 30
0.0
  3
*D25
  1

  0
LINE
  5
7DCF
330
7BD2
100
AcDbEntity
  8
AM_5 寸法線
 62
     3
100
AcDbLine
 10
704.2386435967288
 20
992.5475024501311
 30
0.0
 11
704.2386435967288
 21
962.5578066446285
 31
0.0
  0
LINE
  5
7DD0
330
7BD2
100
AcDbEntity
  8
AM_5 寸法線
 62
     3
100
AcDbLine
 10
747.2386435967287
 20
989.547502450131
 30
0.0
 11
747.2386435967287
 21
962.5578066446285
 31
0.0
  0
LINE
  5
7DD1
330
7BD2
100
AcDbEntity
  8
AM_5 寸法線
 62
     3
100
AcDbLine
 10
714.2386435967288
 20
965.0578066446284
 30
0.0
 11
737.2386435967285
 21
965.0578066446284
 31
0.0
  0
INSERT
  5
7DD2
330
7BD2
100
AcDbEntity
  8
AM_5 寸法線
 62
     3
100
AcDbBlockReference
  2
_Open30
 10
704.2386435967288
 20
965.0578066446284
 30
0.0
 41
10.0
 42
10.0
 43
10.0
 50
180.0
  0
INSERT
  5
7DD3
330
7BD2
100
AcDbEntity
  8
AM_5 寸法線
 62
     3
100
AcDbBlockReference
  2
_Open30
 10
747.2386435967287
 20
965.0578066446284
 30
0.0
 41
10.0
 42
10.0
 43
10.0
  0
MTEXT
  5
7DD4
330
7BD2
100
AcDbEntity
  8
AM_5 寸法線
 62
     3
100
AcDbMText
 10
725.7386435967288
 20
978.0578066446285
 30
0.0
 40
14.0
 41
0.0
 46
0.0
 71
     5
 72
     1
  1
43
  7
SEISA
 73
     1
 44
1.0
  0
POINT
  5
7DD5
330
7BD2
100
AcDbEntity
  8
Defpoints
 62
     0
100
AcDbPoint
 10
704.2386435967288
 20
995.0475024501312
 30
0.0
  0
POINT
  5
7DD6
330
7BD2
100
AcDbEntity
  8
Defpoints
 62
     0
100
AcDbPoint
 10
747.2386435967287
 20
992.047502450131
 30
0.0
  0
POINT
  5
7DD7
330
7BD2
100
AcDbEntity
  8
Defpoints
 62
     0
100
AcDbPoint
 10
747.2386435967287
 20
965.0578066446284
 30
0.0
  0
ENDBLK
  5
7BD4
330
7BD2
100
AcDbEntity
  8
0
100
AcDbBlockEnd
  0
BLOCK
  5
7BFD
330
7BFC
100
AcDbEntity
  8
0
100
AcDbBlockBegin
  2
*D26
 70
     1
 10
0.0
 20
0.0
 30
0.0
  3
*D26
  1

  0
LINE
  5
7DC5
330
7BFC
100
AcDbEntity
  8
AM_5 寸法線
 62
     3
100
AcDbLine
 10
747.2386435967288
 20
989.547502450131
 30
0.0
 11
747.2386435967288
 21
962.5578066446285
 31
0.0
  0
LINE
  5
7DC6
330
7BFC
100
AcDbEntity
  8
AM_5 寸法線
 62
     3
100
AcDbLine
 10
781.7386435967287
 20
988.0475024501311
 30
0.0
 11
781.7386435967287
 21
962.5578066446285
 31
0.0
  0
LINE
  5
7DC7
330
7BFC
100
AcDbEntity
  8
AM_5 寸法線
 62
     3
100
AcDbLine
 10
757.2386435967286
 20
965.0578066446284
 30
0.0
 11
771.7386435967288
 21
965.0578066446284
 31
0.0
  0
LINE
  5
7DC8
330
7BFC
100
AcDbEntity
  8
AM_5 寸法線
 62
     3
100
AcDbLine
 10
846.1268973207303
 20
965.0578066446284
 30
0.0
 11
781.7386435967287
 21
965.0578066446284
 31
0.0
  0
MTEXT
  5
7DC9
330
7BFC
100
AcDbEntity
  8
AM_5 寸法線
 62
     3
100
AcDbMText
 10
820.9268973207302
 20
978.0578066446285
 30
0.0
 40
14.0
 41
0.0
 46
0.0
 71
     5
 72
     1
  1
34.5
  7
SEISA
 73
     1
 44
1.0
  0
INSERT
  5
7DCA
330
7BFC
100
AcDbEntity
  8
AM_5 寸法線
 62
     3
100
AcDbBlockReference
  2
_Open30
 10
747.2386435967288
 20
965.0578066446284
 30
0.0
 41
10.0
 42
10.0
 43
10.0
 50
180.0
  0
INSERT
  5
7DCB
330
7BFC
100
AcDbEntity
  8
AM_5 寸法線
 62
     3
100
AcDbBlockReference
  2
_Open30
 10
781.7386435967287
 20
965.0578066446284
 30
0.0
 41
10.0
 42
10.0
 43
10.0
  0
POINT
  5
7DCC
330
7BFC
100
AcDbEntity
  8
Defpoints
 62
     0
100
AcDbPoint
 10
747.2386435967288
 20
992.047502450131
 30
0.0
  0
POINT
  5
7DCD
330
7BFC
100
AcDbEntity
  8
Defpoints
 62
     0
100
AcDbPoint
 10
781.7386435967287
 20
990.5475024501312
 30
0.0
  0
POINT
  5
7DCE
330
7BFC
100
AcDbEntity
  8
Defpoints
 62
     0
100
AcDbPoint
 10
781.7386435967287
 20
965.0578066446284
 30
0.0
  0
ENDBLK
  5
7BFE
330
7BFC
100
AcDbEntity
  8
0
100
AcDbBlockEnd
  0
BLOCK
  5
7C95
330
7C94
100
AcDbEntity
  8
0
100
AcDbBlockBegin
  2
*D27
 70
     1
 10
0.0
 20
0.0
 30
0.0
  3
*D27
  1

  0
LINE
  5
7D91
330
7C94
100
AcDbEntity
  8
AM_5 寸法線
 62
     3
100
AcDbLine
 10
590.7386435967286
 20
1012.047502450131
 30
0.0
 11
590.7386435967286
 21
1049.547502450131
 31
0.0
  0
LINE
  5
7D92
330
7C94
100
AcDbEntity
  8
AM_5 寸法線
 62
     3
100
AcDbLine
 10
591.7386435967285
 20
992.2475024501313
 30
0.0
 11
591.7386435967285
 21
1049.547502450131
 31
0.0
  0
LINE
  5
7D93
330
7C94
100
AcDbEntity
  8
AM_5 寸法線
 62
     3
100
AcDbLine
 10
580.7386435967287
 20
1047.047502450131
 30
0.0
 11
570.7386435967285
 21
1047.047502450131
 31
0.0
  0
LINE
  5
7D94
330
7C94
100
AcDbEntity
  8
AM_5 寸法線
 62
     3
100
AcDbLine
 10
601.7386435967287
 20
1047.047502450131
 30
0.0
 11
626.7386435967287
 21
1047.047502450131
 31
0.0
  0
LINE
  5
7D95
330
7C94
100
AcDbEntity
  8
AM_5 寸法線
 62
     3
100
AcDbLine
 10
590.7386435967286
 20
1047.047502450131
 30
0.0
 11
591.7386435967285
 21
1047.047502450131
 31
0.0
  0
INSERT
  5
7D96
330
7C94
100
AcDbEntity
  8
AM_5 寸法線
 62
     3
100
AcDbBlockReference
  2
_Open30
 10
590.7386435967286
 20
1047.047502450131
 30
0.0
 41
10.0
 42
10.0
 43
10.0
  0
INSERT
  5
7D97
330
7C94
100
AcDbEntity
  8
AM_5 寸法線
 62
     3
100
AcDbBlockReference
  2
_Open30
 10
591.7386435967285
 20
1047.047502450131
 30
0.0
 41
10.0
 42
10.0
 43
10.0
 50
180.0
  0
MTEXT
  5
7D98
330
7C94
100
AcDbEntity
  8
AM_5 寸法線
 62
     3
100
AcDbMText
 10
619.2386435967287
 20
1060.047502450131
 30
0.0
 40
14.0
 41
0.0
 46
0.0
 71
     5
 72
     1
  1
1
  7
SEISA
 73
     1
 44
1.0
  0
POINT
  5
7D99
330
7C94
100
AcDbEntity
  8
Defpoints
 62
     0
100
AcDbPoint
 10
590.7386435967286
 20
1009.547502450131
 30
0.0
  0
POINT
  5
7D9A
330
7C94
100
AcDbEntity
  8
Defpoints
 62
     0
100
AcDbPoint
 10
591.7386435967285
 20
989.7475024501313
 30
0.0
  0
POINT
  5
7D9B
330
7C94
100
AcDbEntity
  8
Defpoints
 62
     0
100
AcDbPoint
 10
591.7386435967285
 20
1047.047502450131
 30
0.0
  0
ENDBLK
  5
7C96
330
7C94
100
AcDbEntity
  8
0
100
AcDbBlockEnd
  0
BLOCK
  5
7EE0
330
7EDF
100
AcDbEntity
  8
0
100
AcDbBlockBegin
  2
ケース
 70
     0
 10
0.0
 20
0.0
 30
0.0
  3
ケース
  1

  0
ARC
  5
7EE2
330
7EDF
100
AcDbEntity
  8
AM_11 想像線
 48
0.1
100
AcDbCircle
 10
-31.00539048804603
 20
-4.0
 30
0.0
 40
4.0
100
AcDbArc
 50
90.0
 51
180.0
  0
LINE
  5
7EE3
330
7EDF
100
AcDbEntity
  8
AM_11 想像線
 48
0.1
100
AcDbLine
 10
-17.00539048804603
 20
-7.0
 30
0.0
 11
-12.50539048804603
 21
-7.0
 31
0.0
  0
LINE
  5
7EE4
330
7EDF
100
AcDbEntity
  8
AM_11 想像線
 48
0.1
100
AcDbLine
 10
0.0
 20
0.0
 30
0.0
 11
-31.00539048804603
 21
0.0
 31
0.0
  0
LINE
  5
7EE5
330
7EDF
100
AcDbEntity
  8
AM_11 想像線
 48
0.1
100
AcDbLine
 10
-31.60539048804594
 20
-12.10000000000002
 30
0.0
 11
-21.40539048804612
 21
-12.10000000000002
 31
0.0
  0
ARC
  5
7EE6
330
7EDF
100
AcDbEntity
  8
AM_11 想像線
 48
0.1
100
AcDbCircle
 10
-31.60539048804594
 20
-12.60000000000002
 30
0.0
 40
0.5
100
AcDbArc
 50
90.0
 51
180.0
  0
LINE
  5
7EE7
330
7EDF
100
AcDbEntity
  8
AM_11 想像線
 48
0.1
100
AcDbLine
 10
-32.10539048804594
 20
-17.5
 30
0.0
 11
-32.10539048804594
 21
-12.60000000000002
 31
0.0
  0
LINE
  5
7EE8
330
7EDF
100
AcDbEntity
  8
AM_11 想像線
 48
0.1
100
AcDbLine
 10
-35.00539048804603
 20
-17.5
 30
0.0
 11
-32.10539048804594
 21
-17.5
 31
0.0
  0
LINE
  5
7EE9
102
{ACAD_REACTORS
330
7CA3
102
}
330
7EDF
100
AcDbEntity
  8
AM_11 想像線
 48
0.1
100
AcDbLine
 10
-35.00539048804603
 20
-4.0
 30
0.0
 11
-35.00539048804603
 21
-17.5
 31
0.0
  0
LINE
  5
7EEA
330
7EDF
100
AcDbEntity
  8
AM_11 想像線
 48
0.1
100
AcDbLine
 10
-32.10539048804594
 20
-17.5
 30
0.0
 11
-32.10539048804594
 21
-19.0
 31
0.0
  0
LINE
  5
7EEB
330
7EDF
100
AcDbEntity
  8
AM_11 想像線
 48
0.1
100
AcDbLine
 10
-35.00539048804603
 20
-17.5
 30
0.0
 11
-35.00539048804603
 21
-19.0
 31
0.0
  0
ARC
  5
7EEC
330
7EDF
100
AcDbEntity
  8
AM_11 想像線
 48
0.1
100
AcDbCircle
 10
-17.00539048804603
 20
-8.0
 30
0.0
 40
1.0
100
AcDbArc
 50
90.0
 51
180.0
  0
ARC
  5
7EED
330
7EDF
100
AcDbEntity
  8
AM_11 想像線
 48
0.1
100
AcDbCircle
 10
-21.40539048804612
 20
-12.60000000000002
 30
0.0
 40
0.5
100
AcDbArc
 50
0.0
 51
90.0
  0
LINE
  5
7EEE
330
7EDF
100
AcDbEntity
  8
AM_11 想像線
 48
0.1
100
AcDbLine
 10
-18.00539048804603
 20
-17.5
 30
0.0
 11
-18.00539048804603
 21
-8.0
 31
0.0
  0
LINE
  5
7EEF
330
7EDF
100
AcDbEntity
  8
AM_11 想像線
 48
0.1
100
AcDbLine
 10
-20.90539048804612
 20
-17.5
 30
0.0
 11
-18.00539048804603
 21
-17.5
 31
0.0
  0
LINE
  5
7EF0
330
7EDF
100
AcDbEntity
  8
AM_11 想像線
 48
0.1
100
AcDbLine
 10
-20.90539048804612
 20
-12.60000000000002
 30
0.0
 11
-20.90539048804612
 21
-17.5
 31
0.0
  0
LINE
  5
7EF1
330
7EDF
100
AcDbEntity
  8
AM_11 想像線
 48
0.1
100
AcDbLine
 10
-18.00539048804603
 20
-17.5
 30
0.0
 11
-18.00539048804603
 21
-19.0
 31
0.0
  0
LINE
  5
7EF2
330
7EDF
100
AcDbEntity
  8
AM_11 想像線
 48
0.1
100
AcDbLine
 10
-20.90539048804612
 20
-17.5
 30
0.0
 11
-20.90539048804612
 21
-19.0
 31
0.0
  0
LINE
  5
7EF3
330
7EDF
100
AcDbEntity
  8
AM_11 想像線
 48
0.1
100
AcDbLine
 10
0.0
 20
-12.0
 30
0.0
 11
-13.50539048804603
 21
-12.0
 31
0.0
  0
LINE
  5
7EF4
330
7EDF
100
AcDbEntity
  8
AM_11 想像線
 48
0.1
100
AcDbLine
 10
0.0
 20
-8.0
 30
0.0
 11
-11.50539048804603
 21
-8.0
 31
0.0
  0
LINE
  5
7EF5
330
7EDF
100
AcDbEntity
  8
AM_11 想像線
 48
0.1
100
AcDbLine
 10
0.0
 20
-15.20000000000004
 30
0.0
 11
-10.50539048804603
 21
-15.20000000000004
 31
0.0
  0
LINE
  5
7EF6
330
7EDF
100
AcDbEntity
  8
AM_11 想像線
 48
0.1
100
AcDbLine
 10
-11.50539048804603
 20
-10.056645
 30
0.0
 11
-11.50539048804603
 21
-8.0
 31
0.0
  0
ARC
  5
7EF7
330
7EDF
100
AcDbEntity
  8
AM_11 想像線
 48
0.1
100
AcDbCircle
 10
-12.50539048804603
 20
-8.0
 30
0.0
 40
1.0
100
AcDbArc
 50
0.0
 51
90.0
  0
LINE
  5
7EF8
330
7EDF
100
AcDbEntity
  8
AM_11 想像線
 48
0.1
100
AcDbLine
 10
-11.50539048804603
 20
-14.20000000000004
 30
0.0
 11
-10.50539048804603
 21
-15.20000000000004
 31
0.0
  0
LINE
  5
7EF9
330
7EDF
100
AcDbEntity
  8
AM_11 想像線
 48
0.1
100
AcDbLine
 10
-11.50539048804603
 20
-10.056645
 30
0.0
 11
-11.50539048804603
 21
-14.20000000000004
 31
0.0
  0
ENDBLK
  5
7EE1
330
7EDF
100
AcDbEntity
  8
0
100
AcDbBlockEnd
  0
ENDSEC
  0
SECTION
  2
ENTITIES
  0
LINE
  5
400C
330
1F
100
AcDbEntity
  8
AM_7 中心線
100
AcDbLine
 10
579.7386435967287
 20
869.5475024501311
 30
0.0
 11
999.7386435967287
 21
869.5475024501311
 31
0.0
  0
LINE
  5
4015
330
1F
100
AcDbEntity
  8
AM_0 外形線1
100
AcDbLine
 10
789.7386435967288
 20
869.5475024501311
 30
0.0
 11
789.7386435967288
 21
693.0475024501311
 31
0.0
  0
LINE
  5
40F1
330
1F
100
AcDbEntity
  8
AM_0 外形線1
100
AcDbLine
 10
808.7386435967287
 20
1023.047502450131
 30
0.0
 11
770.7386435967288
 21
1023.047502450131
 31
0.0
  0
LINE
  5
40F2
330
1F
100
AcDbEntity
  8
AM_0 外形線1
100
AcDbLine
 10
770.7386435967288
 20
1041.047502450131
 30
0.0
 11
808.7386435967287
 21
1041.047502450131
 31
0.0
  0
LINE
  5
4103
330
1F
100
AcDbEntity
  8
AM_0 外形線1
100
AcDbLine
 10
789.7386435967288
 20
1041.047502450131
 30
0.0
 11
789.7386435967288
 21
1046.047502450131
 31
0.0
  0
LINE
  5
4122
330
1F
100
AcDbEntity
  8
AM_0 外形線1
100
AcDbLine
 10
810.7386435967288
 20
1046.047502450131
 30
0.0
 11
810.7386435967288
 21
1041.047502450131
 31
0.0
  0
DIMENSION
  5
4A72
330
1F
100
AcDbEntity
  8
AM_5 寸法線
100
AcDbDimension
  2
*D7
 10
509.2590987396331
 20
744.5475024501311
 30
0.0
 11
509.259098739633
 21
879.7656488206202
 31
0.0
 70
   160
  1
%%c<>
 71
     5
 42
250.0
 73
     0
 74
     0
 75
     0
  3
SEISA$0
100
AcDbAlignedDimension
 13
653.2386435967286
 23
994.5475024501313
 33
0.0
 14
653.2386435967286
 24
744.5475024501311
 34
0.0
 50
90.0
100
AcDbRotatedDimension
1001
ACAD_DSTYLE_DIMINSPECT
1070
   396
1000
100%
1070
   395
1000

1070
   394
1070
    33
1070
   393
1070
     0
  0
DIMENSION
  5
4AC3
330
1F
100
AcDbEntity
  8
AM_5 寸法線
100
AcDbDimension
  2
*D8
 10
704.2386435967288
 20
965.0578066446284
 30
0.0
 11
659.5386435967285
 21
965.0578066446284
 31
0.0
 70
   160
 71
     5
 42
5.5
 73
     0
 74
     0
 75
     0
  3
SEISA$0
100
AcDbAlignedDimension
 13
698.7386435967287
 23
994.5475024501313
 33
0.0
 14
704.2386435967288
 24
995.2212892843727
 34
0.0
100
AcDbRotatedDimension
  0
DIMENSION
  5
4B17
330
1F
100
AcDbEntity
  8
AM_5 寸法線
100
AcDbDimension
  2
*D9
 10
781.7386435967287
 20
898.3666514501312
 30
0.0
 11
686.7386435967286
 21
911.3666514501312
 31
0.0
 70
    32
 71
     5
 42
190.0
 73
     0
 74
     0
 75
     0
  3
SEISA$0
100
AcDbAlignedDimension
 13
591.7386435967285
 23
869.5475024501311
 33
0.0
 14
781.7386435967287
 24
869.5475024501311
 34
0.0
100
AcDbRotatedDimension
  0
DIMENSION
  5
4B2F
330
1F
100
AcDbEntity
  8
AM_5 寸法線
100
AcDbDimension
  2
*D10
 10
797.7386435967288
 20
898.3666514501312
 30
0.0
 11
809.9172385641066
 21
911.6026646400538
 31
0.0
 70
   160
 71
     5
 42
16.0
 73
     0
 74
     0
 75
     0
  3
SEISA$0
100
AcDbAlignedDimension
 13
781.7386435967287
 23
869.5475024501311
 33
0.0
 14
797.7386435967288
 24
869.5475024501311
 34
0.0
100
AcDbRotatedDimension
1001
ACAD
1000
DSTYLE
1002
{
1070
   279
1070
     2
1002
}
  0
DIMENSION
  5
4B4B
330
1F
100
AcDbEntity
  8
AM_5 寸法線
100
AcDbDimension
  2
*D11
 10
987.7386435967286
 20
898.3666514501312
 30
0.0
 11
892.7386435967289
 21
911.3666514501312
 31
0.0
 70
    32
 71
     5
 42
190.0
 73
     0
 74
     0
 75
     0
  3
SEISA$0
100
AcDbAlignedDimension
 13
797.7386435967288
 23
869.5475024501311
 33
0.0
 14
987.7386435967286
 24
869.5475024501309
 34
0.0
100
AcDbRotatedDimension
  0
INSERT
  5
5AB3
102
{ACAD_REACTORS
330
636B
330
65C0
330
65D8
102
}
330
1F
100
AcDbEntity
  8
AM_0 外形線1
100
AcDbBlockReference
  2
ケースＡ SSM355
 10
789.7386435967288
 20
869.5475024501311
 30
0.0
  0
INSERT
  5
5B7D
102
{ACAD_REACTORS
330
634F
330
636B
330
64DF
102
}
330
1F
100
AcDbEntity
  8
AM_0 外形線1
100
AcDbBlockReference
  2
ケースＢ SSM355
 10
789.7386435967288
 20
869.5475024501311
 30
0.0
  0
INSERT
  5
5C91
102
{ACAD_REACTORS
330
652F
330
65A8
102
}
330
1F
100
AcDbEntity
  8
AM_0 外形線1
100
AcDbBlockReference
  2
センタＡ SSM355
 10
797.7386435967288
 20
869.5475024501311
 30
0.0
  0
INSERT
  5
5D7E
102
{ACAD_REACTORS
330
652F
330
7BDF
330
7C0A
330
7CA3
102
}
330
1F
100
AcDbEntity
  8
AM_0 外形線1
100
AcDbBlockReference
  2
センタＢ SSM355
 10
781.7386435967287
 20
869.5475024501311
 30
0.0
  0
INSERT
  5
5F3A
330
1F
100
AcDbEntity
  8
AM_0 外形線1
100
AcDbBlockReference
  2
リーマボルト SSM355 M16
 10
768.7386435967288
 20
1032.047502450131
 30
0.0
  0
DIMENSION
  5
6334
102
{ACAD_XDICTIONARY
360
6343
102
}
102
{ACAD_REACTORS
330
634F
102
}
330
1F
100
AcDbEntity
  8
AM_5 寸法線
100
AcDbDimension
  2
*D17
 10
768.7386435967288
 20
632.0475024501311
 30
0.0
 11
748.9474095793116
 21
645.1615223837125
 31
0.0
 70
   160
 71
     5
 42
21.0
 73
     0
 74
     0
 75
     0
  3
SEISA$0
100
AcDbAlignedDimension
 13
789.7386435967288
 23
693.0475024501311
 33
0.0
 14
768.7386435967288
 24
693.0475024501311
 34
0.0
100
AcDbRotatedDimension
1001
ACAD_DSTYLE_DIMINSPECT
1070
   396
1000
100%
1070
   395
1000

1070
   394
1070
    33
1070
   393
1070
     0
1001
ACAD
1000
DSTYLE
1002
{
1070
   173
1070
     1
1070
   279
1070
     2
1070
   342
1005
0
1070
   343
1005
7224
1070
   344
1005
69
1002
}
  0
DIMENSION
  5
6350
102
{ACAD_XDICTIONARY
360
635F
102
}
102
{ACAD_REACTORS
330
636B
102
}
330
1F
100
AcDbEntity
  8
AM_5 寸法線
100
AcDbDimension
  2
*D18
 10
810.7386435967288
 20
632.0475024501311
 30
0.0
 11
828.2863986209845
 21
645.1333734164307
 31
0.0
 70
   160
 71
     5
 42
21.0
 73
     0
 74
     0
 75
     0
  3
SEISA$0
100
AcDbAlignedDimension
 13
789.7386435967288
 23
693.0475024501311
 33
0.0
 14
810.7386435967288
 24
693.0475024501311
 34
0.0
100
AcDbRotatedDimension
1001
ACAD_DSTYLE_DIMINSPECT
1070
   396
1000
100%
1070
   395
1000

1070
   394
1070
    33
1070
   393
1070
     0
1001
ACAD
1000
DSTYLE
1002
{
1070
   173
1070
     1
1070
   279
1070
     2
1070
   342
1005
0
1070
   343
1005
7224
1070
   344
1005
69
1002
}
  0
DIMENSION
  5
64C8
102
{ACAD_XDICTIONARY
360
64D5
102
}
102
{ACAD_REACTORS
330
64DF
102
}
330
1F
100
AcDbEntity
  8
AM_5 寸法線
100
AcDbDimension
  2
*D19
 10
897.7386435967288
 20
592.047502450131
 30
0.0
 11
789.7386435967288
 21
605.0475024501309
 31
0.0
 70
    32
 71
     5
 42
216.0
 73
     0
 74
     0
 75
     0
  3
SEISA$0
100
AcDbAlignedDimension
 13
681.7386435967287
 23
729.547502450131
 33
0.0
 14
897.7386435967288
 24
732.3932469501309
 34
0.0
100
AcDbRotatedDimension
  0
DIMENSION
  5
6518
102
{ACAD_XDICTIONARY
360
6525
102
}
102
{ACAD_REACTORS
330
652F
102
}
330
1F
100
AcDbEntity
  8
AM_5 寸法線
100
AcDbDimension
  2
*D20
 10
987.7386435967286
 20
552.0475024501311
 30
0.0
 11
789.7386435967288
 21
565.0475024501311
 31
0.0
 70
    32
 71
     5
 42
396.0
 73
     0
 74
     0
 75
     0
  3
SEISA$0
100
AcDbAlignedDimension
 13
591.7386435967285
 23
749.347502450131
 33
0.0
 14
987.7386435967286
 24
749.347502450131
 34
0.0
100
AcDbRotatedDimension
  0
DIMENSION
  5
6591
102
{ACAD_XDICTIONARY
360
659E
102
}
102
{ACAD_REACTORS
330
65A8
102
}
330
1F
100
AcDbEntity
  8
AM_5 寸法線
100
AcDbDimension
  2
*D21
 10
1075.738643596729
 20
744.5475024501311
 30
0.0
 11
1062.738643596728
 21
869.5475024501313
 31
0.0
 70
    32
  1
%%c<>
 71
     5
 42
250.0
 73
     0
 74
     0
 75
     0
  3
SEISA$0
100
AcDbAlignedDimension
 13
926.2386435967286
 23
994.5475024501313
 33
0.0
 14
926.2386435967286
 24
744.5475024501311
 34
0.0
 50
90.0
100
AcDbRotatedDimension
1001
ACAD_DSTYLE_DIMINSPECT
1070
   396
1000
100%
1070
   395
1000

1070
   394
1070
    33
1070
   393
1070
     0
  0
DIMENSION
  5
65A9
102
{ACAD_XDICTIONARY
360
65B6
102
}
102
{ACAD_REACTORS
330
65C0
102
}
330
1F
100
AcDbEntity
  8
AM_5 寸法線
100
AcDbDimension
  2
*D22
 10
1115.738643596729
 20
725.5475024501309
 30
0.0
 11
1102.738643596729
 21
869.5475024501313
 31
0.0
 70
    32
  1
%%c<>
 71
     5
 42
288.0000000000001
 73
     0
 74
     0
 75
     0
  3
SEISA$0
100
AcDbAlignedDimension
 13
893.7386435967288
 23
1013.547502450131
 33
0.0
 14
893.7386435967288
 24
725.5475024501309
 34
0.0
 50
90.0
100
AcDbRotatedDimension
1001
ACAD_DSTYLE_DIMINSPECT
1070
   396
1000
100%
1070
   395
1000

1070
   394
1070
    33
1070
   393
1070
     0
  0
DIMENSION
  5
65C1
102
{ACAD_XDICTIONARY
360
65CE
102
}
102
{ACAD_REACTORS
330
65D8
102
}
330
1F
100
AcDbEntity
  8
AM_5 寸法線
100
AcDbDimension
  2
*D23
 10
1155.738643596729
 20
692.047502450131
 30
0.0
 11
1142.738643596729
 21
869.5475024501313
 31
0.0
 70
    32
  1
%%c<>
 71
     5
 42
355.0
 73
     0
 74
     0
 75
     0
  3
SEISA$0
100
AcDbAlignedDimension
 13
809.7386435967289
 23
1047.047502450131
 33
0.0
 14
809.7386435967289
 24
692.047502450131
 34
0.0
 50
90.0
100
AcDbRotatedDimension
1001
ACAD_DSTYLE_DIMINSPECT
1070
   396
1000
100%
1070
   395
1000

1070
   394
1070
    33
1070
   393
1070
     0
  0
LINE
  5
7330
330
1F
100
AcDbEntity
  8
AM_5 寸法線
100
AcDbLine
 10
830.7386435967286
 20
632.0475024501311
 30
0.0
 11
842.2680070059591
 21
632.0475024501311
 31
0.0
  0
LINE
  5
7331
330
1F
100
AcDbEntity
  8
AM_5 寸法線
100
AcDbLine
 10
748.7386435967287
 20
632.0475024501311
 30
0.0
 11
737.510919796728
 21
632.0475024501311
 31
0.0
  0
MTEXT
  5
7AAF
330
1F
100
AcDbEntity
  8
AM_6 文字
100
AcDbMText
 10
1010.337215746093
 20
653.7367619910355
 30
0.0
 40
14.0
 41
283.5880087724983
 46
27.69412895091155
 71
     1
 72
     5
  1
{\W0.6;TYPE:SSM355/SSMH355\PSHAFT DIA:MAX/MIN φ180/φ125}
  7
SEISA
 73
     1
 44
1.0
  0
DIMENSION
  5
7BD1
102
{ACAD_XDICTIONARY
360
7BDE
102
}
102
{ACAD_REACTORS
330
7BDF
102
}
330
1F
100
AcDbEntity
  8
AM_5 寸法線
100
AcDbDimension
  2
*D25
 10
747.2386435967287
 20
965.0578066446284
 30
0.0
 11
725.7386435967288
 21
978.0578066446285
 31
0.0
 70
    32
 71
     5
 42
42.99999999999989
 73
     0
 74
     0
 75
     0
  3
SEISA$0
100
AcDbAlignedDimension
 13
704.2386435967288
 23
995.0475024501312
 33
0.0
 14
747.2386435967287
 24
992.047502450131
 34
0.0
 50
0.0000000000001132
100
AcDbRotatedDimension
1001
ACAD_DSTYLE_DIMINSPECT
1070
   396
1000
100%
1070
   395
1000

1070
   394
1070
    33
1070
   393
1070
     0
  0
DIMENSION
  5
7BFB
102
{ACAD_XDICTIONARY
360
7C09
102
}
102
{ACAD_REACTORS
330
7C0A
102
}
330
1F
100
AcDbEntity
  8
AM_5 寸法線
100
AcDbDimension
  2
*D26
 10
781.7386435967287
 20
965.0578066446284
 30
0.0
 11
820.9268973207302
 21
970.2535447560704
 31
0.0
 70
   160
 71
     5
 42
34.5
 73
     0
 74
     0
 75
     0
  3
SEISA$0
100
AcDbAlignedDimension
 13
747.2386435967288
 23
992.047502450131
 33
0.0
 14
781.7386435967287
 24
990.5475024501312
 34
0.0
 50
0.0000000000001132
100
AcDbRotatedDimension
1001
ACAD_DSTYLE_DIMINSPECT
1070
   396
1000
100%
1070
   395
1000

1070
   394
1070
    33
1070
   393
1070
     0
1001
ACAD
1000
DSTYLE
1002
{
1070
   279
1070
     1
1002
}
  0
DIMENSION
  5
7C93
102
{ACAD_XDICTIONARY
360
7CA2
102
}
102
{ACAD_REACTORS
330
7CA3
102
}
330
1F
100
AcDbEntity
  8
AM_5 寸法線
100
AcDbDimension
  2
*D27
 10
591.7386435967285
 20
1047.047502450131
 30
0.0
 11
619.2386435967287
 21
1060.047502450131
 31
0.0
 70
    32
 71
     5
 42
-1.0
 73
     0
 74
     0
 75
     0
  3
SEISA$0
100
AcDbAlignedDimension
 13
590.7386435967286
 23
1009.547502450131
 33
0.0
 14
591.7386435967285
 24
989.7475024501313
 34
0.0
100
AcDbRotatedDimension
1001
ACAD_DSTYLE_DIMINSPECT
1070
   396
1000
100%
1070
   395
1000

1070
   394
1070
    33
1070
   393
1070
     0
  0
INSERT
  5
7EFA
330
1F
100
AcDbEntity
  8
AM_11 想像線
100
AcDbBlockReference
  2
ケース
 10
625.7440340847747
 20
1013.547502450131
 30
0.0
  0
ENDSEC
  0
SECTION
  2
OBJECTS
  0
DICTIONARY
  5
C
330
0
100
AcDbDictionary
281
     1
  3
ACAD_COLOR
350
C5
  3
ACAD_GROUP
350
D
  3
ACAD_LAYOUT
350
1A
  3
ACAD_MATERIAL
350
C4
  3
ACAD_MLEADERSTYLE
350
2D5
  3
ACAD_MLINESTYLE
350
17
  3
ACAD_PLOTSETTINGS
350
19
  3
ACAD_PLOTSTYLENAME
350
E
  3
ACAD_SCALELIST
350
2B3
  3
ACAD_TABLESTYLE
350
121
  3
ACAD_VISUALSTYLE
350
27F
  3
ACDB_RECOMPOSE_DATA
350
2F7
  3
AcDbVariableDictionary
350
34
  3
AcmDictionary
350
49
  3
AMG
350
2B
  3
AMGSNAPSETTINGS
350
1DE
  0
DICTIONARY
  5
BF
330
2
100
AcDbDictionary
280
     1
281
     1
  3
ACAD_LAYERSTATES
360
7AA6
  3
AMLAYER_GROUPCOLORS
360
C0
  0
DICTIONARY
  5
29D8
330
10
100
AcDbDictionary
280
     1
281
     1
  3
ADSK_XREC_LAYER_RECONCILED
360
29D9
  0
DICTIONARY
  5
29DA
330
81
100
AcDbDictionary
280
     1
281
     1
  3
ADSK_XREC_LAYER_RECONCILED
360
29DB
  0
DICTIONARY
  5
29E1
330
25C9
100
AcDbDictionary
280
     1
281
     1
  3
ADSK_XREC_LAYER_RECONCILED
360
29E2
  0
DICTIONARY
  5
29E3
330
25CA
100
AcDbDictionary
280
     1
281
     1
  3
ADSK_XREC_LAYER_RECONCILED
360
29E4
  0
DICTIONARY
  5
29E9
330
26B3
100
AcDbDictionary
280
     1
281
     1
  3
ADSK_XREC_LAYER_RECONCILED
360
29EA
  0
DICTIONARY
  5
82
330
1F
100
AcDbDictionary
280
     1
281
     1
  3
ACAD_SORTENTS
360
A41
  0
DICTIONARY
  5
2C8F
330
2C8E
100
AcDbDictionary
280
     1
281
     1
  3
ACAD_SORTENTS
360
6803
  0
DICTIONARY
  5
6120
330
5A58
100
AcDbDictionary
280
     1
281
     1
  3
ACAD_SORTENTS
360
76A1
  0
DICTIONARY
  5
5BF7
330
5B31
100
AcDbDictionary
280
     1
281
     1
  3
ACAD_SORTENTS
360
75DF
  0
DICTIONARY
  5
694C
330
5C44
100
AcDbDictionary
280
     1
281
     1
  3
ACAD_SORTENTS
360
7D21
  0
DICTIONARY
  5
699E
330
5D11
100
AcDbDictionary
280
     1
281
     1
  3
ACAD_SORTENTS
360
7D6F
  0
DICTIONARY
  5
5F9F
330
5F0B
100
AcDbDictionary
280
     1
281
     1
  3
ACAD_SORTENTS
360
7739
  0
DICTIONARY
  5
6343
330
6334
100
AcDbDictionary
280
     1
281
     1
  3
ACAD_DIMASSOC
360
634F
  0
DICTIONARY
  5
635F
330
6350
100
AcDbDictionary
280
     1
281
     1
  3
ACAD_DIMASSOC
360
636B
  0
DICTIONARY
  5
64D5
330
64C8
100
AcDbDictionary
280
     1
281
     1
  3
ACAD_DIMASSOC
360
64DF
  0
DICTIONARY
  5
6525
330
6518
100
AcDbDictionary
280
     1
281
     1
  3
ACAD_DIMASSOC
360
652F
  0
DICTIONARY
  5
659E
330
6591
100
AcDbDictionary
280
     1
281
     1
  3
ACAD_DIMASSOC
360
65A8
  0
DICTIONARY
  5
65B6
330
65A9
100
AcDbDictionary
280
     1
281
     1
  3
ACAD_DIMASSOC
360
65C0
  0
DICTIONARY
  5
65CE
330
65C1
100
AcDbDictionary
280
     1
281
     1
  3
ACAD_DIMASSOC
360
65D8
  0
DICTIONARY
  5
7BDE
330
7BD1
100
AcDbDictionary
280
     1
281
     1
  3
ACAD_DIMASSOC
360
7BDF
  0
DICTIONARY
  5
7C09
330
7BFB
100
AcDbDictionary
280
     1
281
     1
  3
ACAD_DIMASSOC
360
7C0A
  0
DICTIONARY
  5
7CA2
330
7C93
100
AcDbDictionary
280
     1
281
     1
  3
ACAD_DIMASSOC
360
7CA3
  0
DICTIONARY
  5
C5
102
{ACAD_REACTORS
330
C
102
}
330
C
100
AcDbDictionary
281
     1
  0
DICTIONARY
  5
D
102
{ACAD_REACTORS
330
C
102
}
330
C
100
AcDbDictionary
281
     1
  0
DICTIONARY
  5
1A
102
{ACAD_REACTORS
330
C
102
}
330
C
100
AcDbDictionary
281
     1
  3
Model
350
22
  3
レイアウト1
350
1E
  3
レイアウト2
350
26
  0
DICTIONARY
  5
C4
102
{ACAD_REACTORS
330
C
102
}
330
C
100
AcDbDictionary
281
     1
  3
ByBlock
350
27D
  3
ByLayer
350
27C
  3
Global
350
27E
  0
DICTIONARY
  5
2D5
102
{ACAD_REACTORS
330
C
102
}
330
C
100
AcDbDictionary
281
     1
  3
Standard
350
2D6
  0
DICTIONARY
  5
17
102
{ACAD_REACTORS
330
C
102
}
330
C
100
AcDbDictionary
281
     1
  3
Standard
350
18
  0
DICTIONARY
  5
19
102
{ACAD_REACTORS
330
C
102
}
330
C
100
AcDbDictionary
281
     1
  3
SEISA基本
350
1C7E
  0
ACDBDICTIONARYWDFLT
  5
E
102
{ACAD_REACTORS
330
C
102
}
330
C
100
AcDbDictionary
281
     1
  3
Normal
350
F
100
AcDbDictionaryWithDefault
340
F
  0
DICTIONARY
  5
2B3
102
{ACAD_REACTORS
330
C
102
}
330
C
100
AcDbDictionary
281
     1
  3
*A1
350
7AA3
  3
*A2
350
7AA4
  3
*A3
350
7AA5
  3
A0
350
2B4
  3
A1
350
2B5
  3
A2
350
2B6
  3
A3
350
2B7
  3
A4
350
2B8
  3
A5
350
2B9
  3
A6
350
2BA
  3
A7
350
2BB
  3
A8
350
2BC
  3
A9
350
2BD
  3
B0
350
2BE
  3
B1
350
2BF
  3
B2
350
2C0
  3
B3
350
2C1
  3
B4
350
2C2
  3
B5
350
2C3
  3
B6
350
2C4
  3
B7
350
2C5
  3
B8
350
2C6
  3
B9
350
2C7
  3
C0
350
2C8
  3
C1
350
2C9
  3
C2
350
2CA
  3
C3
350
2CB
  3
C4
350
2CC
  3
C5
350
2CD
  3
C6
350
2CE
  3
C7
350
2CF
  3
C8
350
2D0
  3
C9
350
2D1
  3
D0
350
2D2
  3
D1
350
2D3
  3
D2
350
2D4
  0
DICTIONARY
  5
121
102
{ACAD_REACTORS
330
C
102
}
330
C
100
AcDbDictionary
281
     1
  3
Standard
350
122
  0
DICTIONARY
  5
27F
102
{ACAD_REACTORS
330
C
102
}
330
C
100
AcDbDictionary
281
     1
  3
2dWireframe
350
285
  3
3D Hidden
350
287
  3
3dWireframe
350
286
  3
Basic
350
284
  3
Brighten
350
28B
  3
ColorChange
350
28F
  3
Conceptual
350
288
  3
Dim
350
28A
  3
Facepattern
350
28E
  3
Flat
350
280
  3
FlatWithEdges
350
281
  3
Gouraud
350
282
  3
GouraudWithEdges
350
283
  3
Linepattern
350
28D
  3
Realistic
350
289
  3
Thicken
350
28C
  0
XRECORD
  5
2F7
102
{ACAD_REACTORS
330
C
102
}
330
C
100
AcDbXrecord
280
     1
 90
        1
330
122
  0
DICTIONARY
  5
34
102
{ACAD_REACTORS
330
C
102
}
330
C
100
AcDbDictionary
281
     1
  3
CANNOSCALE
350
2FA
  3
CMLEADERSTYLE
350
2F8
  3
CTABLESTYLE
350
140
  3
DIMASSOC
350
AC
  3
INDEXCTL
350
35
  3
LAYEREVAL
350
4F8C
  3
LAYERNOTIFY
350
4F8D
  3
LIGHTINGUNITS
350
2FB
  3
MSLTSCALE
350
2F9
  0
DICTIONARY
  5
49
102
{ACAD_REACTORS
330
C
102
}
330
C
100
AcDbDictionary
281
     1
  3
AcmBOM
350
161B
  3
AcmStdDictionary
350
4A
  3
AMDTSECTSYM_ARROWCOLOR
350
12B
  0
DICTIONARY
  5
2B
102
{ACAD_REACTORS
330
C
102
}
330
C
100
AcDbDictionary
281
     1
  0
DICTIONARY
  5
1DE
102
{ACAD_REACTORS
330
C
102
}
330
C
100
AcDbDictionary
281
     1
  0
DICTIONARY
  5
7AA6
102
{ACAD_REACTORS
330
BF
102
}
330
BF
100
AcDbDictionary
281
     1
  0
DICTIONARY
  5
C0
102
{ACAD_REACTORS
330
BF
102
}
330
BF
100
AcDbDictionary
280
     1
281
     1
  0
XRECORD
  5
29D9
102
{ACAD_REACTORS
330
29D8
102
}
330
29D8
100
AcDbXrecord
280
     1
290
     1
  0
XRECORD
  5
29DB
102
{ACAD_REACTORS
330
29DA
102
}
330
29DA
100
AcDbXrecord
280
     1
290
     1
  0
XRECORD
  5
29E2
102
{ACAD_REACTORS
330
29E1
102
}
330
29E1
100
AcDbXrecord
280
     1
290
     1
  0
XRECORD
  5
29E4
102
{ACAD_REACTORS
330
29E3
102
}
330
29E3
100
AcDbXrecord
280
     1
290
     1
  0
XRECORD
  5
29EA
102
{ACAD_REACTORS
330
29E9
102
}
330
29E9
100
AcDbXrecord
280
     1
290
     1
  0
SORTENTSTABLE
  5
A41
102
{ACAD_REACTORS
330
82
102
}
330
82
100
AcDbSortentsTable
330
1F
331
65C1
  5
6D05
331
4103
  5
4104
331
5B7D
  5
5C91
331
5F3A
  5
615A
331
6518
  5
6591
331
6334
  5
6350
331
5D7E
  5
5F3A
331
40F2
  5
40F3
331
7331
  5
7332
331
4AC3
  5
4AF2
331
7AAF
  5
7AAF
331
65A9
  5
65C1
331
4B2F
  5
4B6C
331
6350
  5
63A8
331
4B4B
  5
4B8E
331
4A72
  5
4AB5
331
4015
  5
4016
331
6591
  5
65A9
331
64C8
  5
64E8
331
5C91
  5
5D7E
331
4122
  5
4123
331
5AB3
  5
5B7D
331
4B17
  5
4B6B
331
40F1
  5
40F2
331
7330
  5
7331
331
400C
  5
4011
  0
SORTENTSTABLE
  5
6803
102
{ACAD_REACTORS
330
2C8F
102
}
330
2C8F
100
AcDbSortentsTable
330
2C8E
  0
SORTENTSTABLE
  5
76A1
102
{ACAD_REACTORS
330
6120
102
}
330
6120
100
AcDbSortentsTable
330
5A58
331
5A5E
  5
5A61
331
5A76
  5
5A79
331
5A86
  5
5A89
331
5A67
  5
5A6A
331
5A87
  5
5A8A
331
5A5F
  5
5A62
331
5A77
  5
5A7A
331
5A90
  5
5A93
331
611F
  5
5A5D
331
5A68
  5
5A6B
331
5A78
  5
5A7B
331
5A91
  5
5A94
331
5A88
  5
5A8B
331
5A69
  5
5A6C
331
5A89
  5
5A8C
331
5A79
  5
5A7C
331
5A92
  5
5A95
331
5A6A
  5
5A6D
331
5A7A
  5
5A7D
331
5A93
  5
611F
331
5A8A
  5
5A8D
331
5A6B
  5
5A6E
331
5A8B
  5
5A8E
331
5A7B
  5
5A7E
331
5A94
  5
6247
331
5A6C
  5
5A6F
331
5A7C
  5
5A7F
331
5A95
  5
6D02
331
5A8C
  5
5A8F
331
5A6D
  5
5A70
331
5A8D
  5
5A90
331
5A7D
  5
5A80
331
5A6E
  5
5A71
331
5A7E
  5
5A81
331
5A8E
  5
5A91
331
5A6F
  5
5A72
331
5A8F
  5
5A92
331
5A60
  5
5A63
331
5A7F
  5
5A82
331
5A80
  5
5A83
331
6247
  5
5A5C
331
5A70
  5
5A73
331
5A61
  5
5A64
331
5A71
  5
5A74
331
5A81
  5
5A84
331
5A62
  5
5A65
331
5A72
  5
5A75
331
5A82
  5
5A85
331
5A63
  5
5A66
331
6D02
  5
5A5B
331
5A83
  5
5A86
331
5A73
  5
5A76
331
5A5B
  5
5A5E
331
5A64
  5
5A67
331
5A74
  5
5A77
331
5A5C
  5
5A5F
331
5A84
  5
5A87
331
5A65
  5
5A68
331
5A85
  5
5A88
331
5A5D
  5
5A60
331
5A75
  5
5A78
331
5A66
  5
5A69
  0
SORTENTSTABLE
  5
75DF
102
{ACAD_REACTORS
330
5BF7
102
}
330
5BF7
100
AcDbSortentsTable
330
5B31
331
5B46
  5
5B47
331
5B52
  5
5B53
331
5B50
  5
5B51
331
5B44
  5
5B45
331
5B42
  5
5B43
331
5B67
  5
5B68
331
5B40
  5
5B41
331
5B65
  5
5B66
331
5B3E
  5
5B3F
331
5B63
  5
5B65
331
5B3C
  5
5B3D
331
5BF6
  5
5B34
331
5B61
  5
5B63
331
5B3A
  5
5B3B
331
5BF4
  5
5BF5
331
5B5F
  5
5B60
331
5B38
  5
5B39
331
5B5D
  5
5B5E
331
5B5B
  5
5B5C
331
5B4F
  5
5B50
331
5B59
  5
5B5A
331
5B4D
  5
5B4E
331
5B57
  5
5B58
331
5B37
  5
5B38
331
5B4B
  5
5B4C
331
5B35
  5
5B36
331
5B49
  5
5B4A
331
5B55
  5
5B56
331
5B47
  5
5B48
331
5B53
  5
5B54
331
5B45
  5
5B46
331
5B51
  5
5B52
331
5B43
  5
5B44
331
5B41
  5
5B42
331
5B3F
  5
5B40
331
5B66
  5
5B67
331
5B68
  5
5BF4
331
5B3D
  5
5B3E
331
5B3B
  5
5B3C
331
5B39
  5
5B3A
331
5BF5
  5
5BF6
331
5B60
  5
5B61
331
5B5E
  5
5B5F
331
5B5C
  5
5B5D
331
5B4E
  5
5B4F
331
5B5A
  5
5B5B
331
5B4C
  5
5B4D
331
5B58
  5
5B59
331
5B56
  5
5B57
331
5B4A
  5
5B4B
331
5B36
  5
5B37
331
5B54
  5
5B55
331
5B48
  5
5B49
331
5B34
  5
5B35
  0
SORTENTSTABLE
  5
7D21
102
{ACAD_REACTORS
330
694C
102
}
330
694C
100
AcDbSortentsTable
330
5C44
331
5C49
  5
5C4B
331
5C60
  5
5C62
331
5C68
  5
7BAD
331
5C59
  5
5C5B
331
5C48
  5
5C4A
331
5C50
  5
5C54
331
5C58
  5
5C5A
331
5C4F
  5
5C52
331
5C66
  5
7BAC
331
5C57
  5
5C59
331
5C5F
  5
5C61
331
5C4E
  5
5C50
331
5C65
  5
5C68
331
5C56
  5
5C58
331
5C5E
  5
5C60
331
7BAD
  5
5C48
331
5C4D
  5
5C4F
331
5C64
  5
5C66
331
5C55
  5
5C57
331
5C5D
  5
5C5F
331
7BAC
  5
5C47
331
5C4C
  5
5C4E
331
5C63
  5
5C65
331
5C54
  5
5C56
331
5C47
  5
5C49
331
5C5C
  5
5C5E
331
5C4B
  5
5C4D
331
5C62
  5
5C64
331
5C5B
  5
5C5D
331
5C4A
  5
5C4C
331
5C61
  5
5C63
331
5C52
  5
5C55
331
5C5A
  5
5C5C
  0
SORTENTSTABLE
  5
7D6F
102
{ACAD_REACTORS
330
699E
102
}
330
699E
100
AcDbSortentsTable
330
5D11
331
5D33
  5
7B80
331
5D26
  5
5D2A
331
5D1E
  5
5D21
331
5D2F
  5
5D32
331
5D22
  5
5D25
331
5D16
  5
5D19
331
7B80
  5
5D16
331
5D1A
  5
5D1D
331
5D2B
  5
5D2F
331
5D34
  5
7B81
331
5D27
  5
5D2B
331
5D1F
  5
5D22
331
5D30
  5
5D33
331
5D17
  5
5D1A
331
5D23
  5
5D26
331
7B81
  5
5D15
331
5D1B
  5
5D1E
331
5D31
  5
5D34
331
5D24
  5
5D27
331
5D1C
  5
5D1F
331
7B82
  5
5D14
331
5D2D
  5
5D30
331
5D20
  5
5D23
331
5D14
  5
5D17
331
5D36
  5
7B82
331
5D18
  5
5D1B
331
5D29
  5
5D2D
331
5D32
  5
5D36
331
5D25
  5
5D29
331
5D1D
  5
5D20
331
5D2E
  5
5D31
331
5D15
  5
5D18
331
5D21
  5
5D24
331
5D19
  5
5D1C
331
5D2A
  5
5D2E
  0
SORTENTSTABLE
  5
7739
102
{ACAD_REACTORS
330
5F9F
102
}
330
5F9F
100
AcDbSortentsTable
330
5F0B
  0
DIMASSOC
  5
634F
102
{ACAD_REACTORS
330
6343
102
}
330
6343
100
AcDbDimAssoc
330
6334
 90
        3
 70
     0
 71
     0
  1
AcDbOsnapPointRef
 72
    13
331
5B7D
331
5B3C
 73
     2
 91
        0
 40
0.0
 10
0.0
 20
0.0
 30
2.000000000000000E+50
 75
     0
  1
AcDbOsnapPointRef
 72
    13
331
5B7D
331
5B35
 73
     2
 91
        0
 40
0.0
 10
0.0
 20
0.0
 30
2.000000000000000E+50
 75
     0
  0
DIMASSOC
  5
636B
102
{ACAD_REACTORS
330
635F
102
}
330
635F
100
AcDbDimAssoc
330
6350
 90
        3
 70
     0
 71
     0
  1
AcDbOsnapPointRef
 72
    13
331
5B7D
331
5B3C
 73
     2
 91
        0
 40
0.0
 10
0.0
 20
0.0
 30
2.000000000000000E+50
 75
     0
  1
AcDbOsnapPointRef
 72
    13
331
5AB3
331
5A5C
 73
     2
 91
        0
 40
0.0
 10
0.0
 20
0.0
 30
2.000000000000000E+50
 75
     0
  0
DIMASSOC
  5
64DF
102
{ACAD_REACTORS
330
64D5
102
}
330
64D5
100
AcDbDimAssoc
330
64C8
 90
        1
 70
     0
 71
     0
  1
AcDbOsnapPointRef
 72
    13
331
5B7D
331
5B34
 73
     2
 91
        0
 40
0.0
 10
0.0
 20
0.0
 30
2.000000000000000E+50
 75
     0
  0
DIMASSOC
  5
652F
102
{ACAD_REACTORS
330
6525
102
}
330
6525
100
AcDbDimAssoc
330
6518
 90
        3
 70
     0
 71
     0
  1
AcDbOsnapPointRef
 72
     1
331
5D7E
331
5D17
 73
     2
 91
        0
 40
1.0
 10
0.0
 20
0.0
 30
2.000000000000000E+50
 75
     0
  1
AcDbOsnapPointRef
 72
     1
331
5C91
331
5C5E
 73
     2
 91
        0
 40
1.0
 10
0.0
 20
0.0
 30
2.000000000000000E+50
 75
     0
  0
DIMASSOC
  5
65A8
102
{ACAD_REACTORS
330
659E
102
}
330
659E
100
AcDbDimAssoc
330
6591
 90
        3
 70
     0
 71
     0
  1
AcDbOsnapPointRef
 72
    13
331
5C91
331
5C47
 73
     2
 91
        0
 40
0.0
 10
0.0
 20
0.0
 30
2.000000000000000E+50
 75
     0
  1
AcDbOsnapPointRef
 72
     8
331
5C91
331
5C48
 73
     2
 91
        0
 40
0.999999999999996
 10
0.0
 20
0.0
 30
0.0
 75
     1
  1
AcDbOsnapPointRef
 72
    13
331
5C91
331
5C47
 73
     2
 91
        0
 40
0.0
 10
0.0
 20
0.0
 30
2.000000000000000E+50
 75
     0
  0
DIMASSOC
  5
65C0
102
{ACAD_REACTORS
330
65B6
102
}
330
65B6
100
AcDbDimAssoc
330
65A9
 90
        3
 70
     0
 71
     0
  1
AcDbOsnapPointRef
 72
     1
331
5AB3
331
5A67
 73
     2
 91
        0
 40
1.570796326794896
 10
0.0
 20
0.0
 30
2.000000000000000E+50
 75
     0
  1
AcDbOsnapPointRef
 72
     8
331
5AB3
331
5A5E
 73
     2
 91
        0
 40
1.0
 10
0.0
 20
0.0
 30
0.0
 75
     1
  1
AcDbOsnapPointRef
 72
     1
331
5AB3
331
5A67
 73
     2
 91
        0
 40
1.570796326794896
 10
0.0
 20
0.0
 30
2.000000000000000E+50
 75
     0
  0
DIMASSOC
  5
65D8
102
{ACAD_REACTORS
330
65CE
102
}
330
65CE
100
AcDbDimAssoc
330
65C1
 90
        3
 70
     0
 71
     0
  1
AcDbOsnapPointRef
 72
     1
331
5AB3
331
5A8C
 73
     2
 91
        0
 40
1.0
 10
0.0
 20
0.0
 30
2.000000000000000E+50
 75
     0
  1
AcDbOsnapPointRef
 72
     1
331
5AB3
331
5A5F
 73
     2
 91
        0
 40
1.0
 10
0.0
 20
0.0
 30
2.000000000000000E+50
 75
     0
  0
DIMASSOC
  5
7BDF
102
{ACAD_REACTORS
330
7BDE
102
}
330
7BDE
100
AcDbDimAssoc
330
7BD1
 90
        3
 70
     0
 71
     0
  1
AcDbOsnapPointRef
 72
     1
331
5D7E
331
5D2E
 73
     0
 91
        0
 40
0.0
 10
0.0
 20
0.0
 30
2.000000000000000E+50
 75
     0
  1
AcDbOsnapPointRef
 72
     6
331
5D7E
331
5D33
 73
     0
 91
        0
 40
1.0
 10
0.0
 20
0.0
 30
0.0
332
5D7E
332
5D32
 74
     0
 92
        0
 75
     0
  0
DIMASSOC
  5
7C0A
102
{ACAD_REACTORS
330
7C09
102
}
330
7C09
100
AcDbDimAssoc
330
7BFB
 90
        3
 70
     0
 71
     0
  1
AcDbOsnapPointRef
 72
    13
331
5D7E
331
5D32
 73
     0
 91
        0
 40
0.0
 10
0.0
 20
0.0
 30
2.000000000000000E+50
 75
     0
  1
AcDbOsnapPointRef
 72
    13
331
5D7E
331
5D1A
 73
     0
 91
        0
 40
0.0
 10
0.0
 20
0.0
 30
2.000000000000000E+50
 75
     0
  0
DIMASSOC
  5
7CA3
102
{ACAD_REACTORS
330
7CA2
102
}
330
7CA2
100
AcDbDimAssoc
330
7C93
 90
        2
 70
     0
 71
     0
  1
AcDbOsnapPointRef
 72
     1
331
5D7E
331
5D16
 73
     0
 91
        0
 40
0.0
 10
0.0
 20
0.0
 30
2.000000000000000E+50
 75
     0
  0
LAYOUT
  5
22
102
{ACAD_REACTORS
330
1A
102
}
330
1A
100
AcDbPlotSettings
  1

  2
KONICA MINOLTA 501 PCL
  4
A4
  6

 40
5.027082920074462
 41
5.027085781097412
 42
5.027069091796875
 43
5.027069091796875
 44
209.9733276367186
 45
296.9259948730469
 46
0.0000000000000142
 47
2.870704446081902
 48
0.0
 49
0.0
140
0.0
141
0.0
142
1.0
143
2.590098530423162
 70
 11956
 72
     1
 73
     1
 74
     1
  7
SEISA.ctb
 75
     0
147
0.3860856983833054
 76
     0
 77
     2
 78
   300
148
-489.1882376686553
149
-549.315861816638
100
AcDbLayout
  1
Model
 70
     1
 71
     0
 10
0.0
 20
0.0
 11
12.0
 21
9.0
 12
0.0
 22
0.0
 32
0.0
 14
0.0
 24
0.0
 34
0.0
 15
0.0
 25
0.0
 35
0.0
146
0.0
 13
0.0
 23
0.0
 33
0.0
 16
1.0
 26
0.0
 36
0.0
 17
0.0
 27
1.0
 37
0.0
 76
     0
330
1F
331
27A
1001
ACAD_PSEXT
1000
KONICA MINOLTA 501 PCL
1000
KONICA MINOLTA 501/421/361PCL
1000
IP_192.168.20.231_(1)
1000

1070
     0
  0
LAYOUT
  5
1E
102
{ACAD_REACTORS
330
1A
102
}
330
1A
100
AcDbPlotSettings
  1

  2
none_device
  4
Letter_(8.50_x_11.00_Inches)
  6

 40
6.349999904632567
 41
6.349999904632567
 42
6.350006103515625
 43
6.350006103515625
 44
215.8999938964844
 45
279.3999938964844
 46
0.0
 47
0.0
 48
0.0
 49
0.0
140
0.0
141
0.0
142
1.0
143
1.0
 70
 15024
 72
     1
 73
     1
 74
     5
  7
SEISA.ctb
 75
    16
147
1.0
 76
     0
 77
     2
 78
   300
148
0.0
149
0.0
100
AcDbLayout
  1
レイアウト1
 70
     1
 71
     1
 10
0.0
 20
0.0
 11
420.0
 21
297.0
 12
0.0
 22
0.0
 32
0.0
 14
1.000000000000000E+20
 24
1.000000000000000E+20
 34
1.000000000000000E+20
 15
-1.000000000000000E+20
 25
-1.000000000000000E+20
 35
-1.000000000000000E+20
146
0.0
 13
0.0
 23
0.0
 33
0.0
 16
1.0
 26
0.0
 36
0.0
 17
0.0
 27
1.0
 37
0.0
 76
     0
330
1B
  0
LAYOUT
  5
26
102
{ACAD_REACTORS
330
1A
102
}
330
1A
100
AcDbPlotSettings
  1

  2
none_device
  4
Letter_(8.50_x_11.00_Inches)
  6

 40
6.349999904632567
 41
6.349999904632567
 42
6.350006103515625
 43
6.350006103515625
 44
215.8999938964844
 45
279.3999938964844
 46
0.0
 47
0.0
 48
0.0
 49
0.0
140
0.0
141
0.0
142
1.0
143
1.0
 70
 15024
 72
     1
 73
     1
 74
     5
  7
SEISA.ctb
 75
    16
147
1.0
 76
     0
 77
     2
 78
   300
148
0.0
149
0.0
100
AcDbLayout
  1
レイアウト2
 70
     1
 71
     2
 10
0.0
 20
0.0
 11
12.0
 21
9.0
 12
0.0
 22
0.0
 32
0.0
 14
0.0
 24
0.0
 34
0.0
 15
0.0
 25
0.0
 35
0.0
146
0.0
 13
0.0
 23
0.0
 33
0.0
 16
1.0
 26
0.0
 36
0.0
 17
0.0
 27
1.0
 37
0.0
 76
     0
330
23
  0
MATERIAL
  5
27D
102
{ACAD_REACTORS
330
C4
102
}
330
C4
100
AcDbMaterial
  1
ByBlock
 73
     1
 78
     1
172
     1
176
     1
270
     1
274
     1
 94
       63
  0
MATERIAL
  5
27C
102
{ACAD_REACTORS
330
C4
102
}
330
C4
100
AcDbMaterial
  1
ByLayer
 73
     1
 78
     1
172
     1
176
     1
270
     1
274
     1
 94
       63
  0
MATERIAL
  5
27E
102
{ACAD_REACTORS
330
C4
102
}
330
C4
100
AcDbMaterial
  1
Global
 73
     1
 78
     1
172
     1
176
     1
270
     1
274
     1
 94
       63
  0
MLEADERSTYLE
  5
2D6
102
{ACAD_REACTORS
330
2D5
102
}
330
2D5
100
AcDbMLeaderStyle
170
     2
171
     1
172
     0
 90
        2
 40
0.0
 41
0.0
173
     1
 91
-1056964608
340
14
 92
       -2
290
     1
 42
2.0
291
     1
 43
0.36
  3
Standard
 44
4.0
300

342
11
174
     1
178
     6
175
     1
176
     0
 93
-1056964608
 45
4.0
292
     0
297
     0
 46
4.0
 94
-1056964608
 47
1.0
 49
1.0
140
1.0
293
     1
141
0.0
294
     1
177
     0
142
1.0
295
     0
296
     0
143
0.125
1001
ACAD_MLEADERVER
1070
     2
  0
MLINESTYLE
  5
18
102
{ACAD_REACTORS
330
17
102
}
330
17
100
AcDbMlineStyle
  2
STANDARD
 70
     0
  3

 62
   256
 51
90.0
 52
90.0
 71
     2
 49
0.5
 62
   256
  6
BYLAYER
 49
-0.5
 62
   256
  6
BYLAYER
  0
PLOTSETTINGS
  5
1C7E
102
{ACAD_REACTORS
330
19
102
}
330
19
100
AcDbPlotSettings
  1
SEISA基本
  2
none_device
  4
Letter_(8.50_x_11.00_Inches)
  6

 40
6.349999904632567
 41
6.349999904632567
 42
6.350006103515625
 43
6.350006103515625
 44
215.8999938964844
 45
279.3999938964844
 46
7.302498226506357
 47
0.0
 48
0.0
 49
0.0
140
0.0
141
0.0
142
1.0
143
1.574803221122935
 70
 11956
 72
     1
 73
     1
 74
     2
  7
SEISA.ctb
 75
     0
147
0.6349999711627054
 76
     0
 77
     2
 78
   300
148
0.0
149
0.0
1001
ACAD_PSEXT
1000
なし
1000
なし
1000
適切ではありません
1000
新しいプロッタ環境設定名を選択しない限り、レイアウトは印刷されません。
1070
     0
  0
ACDBPLACEHOLDER
  5
F
102
{ACAD_REACTORS
330
E
102
}
330
E
  0
SCALE
  5
7AA3
102
{ACAD_REACTORS
330
2B3
102
}
330
2B3
100
AcDbScale
 70
     0
300
1:3
140
1.0
141
3.0
290
     0
  0
SCALE
  5
7AA4
102
{ACAD_REACTORS
330
2B3
102
}
330
2B3
100
AcDbScale
 70
     0
300
1:2.5
140
1.0
141
2.5
290
     0
  0
SCALE
  5
7AA5
102
{ACAD_REACTORS
330
2B3
102
}
330
2B3
100
AcDbScale
 70
     0
300
1:1.5
140
1.0
141
1.5
290
     0
  0
SCALE
  5
2B4
102
{ACAD_REACTORS
330
2B3
102
}
330
2B3
100
AcDbScale
 70
     0
300
1:1
140
1.0
141
1.0
290
     1
  0
SCALE
  5
2B5
102
{ACAD_REACTORS
330
2B3
102
}
330
2B3
100
AcDbScale
 70
     0
300
1:2
140
1.0
141
2.0
290
     0
  0
SCALE
  5
2B6
102
{ACAD_REACTORS
330
2B3
102
}
330
2B3
100
AcDbScale
 70
     0
300
1:4
140
1.0
141
4.0
290
     0
  0
SCALE
  5
2B7
102
{ACAD_REACTORS
330
2B3
102
}
330
2B3
100
AcDbScale
 70
     0
300
1:5
140
1.0
141
5.0
290
     0
  0
SCALE
  5
2B8
102
{ACAD_REACTORS
330
2B3
102
}
330
2B3
100
AcDbScale
 70
     0
300
1:8
140
1.0
141
8.0
290
     0
  0
SCALE
  5
2B9
102
{ACAD_REACTORS
330
2B3
102
}
330
2B3
100
AcDbScale
 70
     0
300
1:10
140
1.0
141
10.0
290
     0
  0
SCALE
  5
2BA
102
{ACAD_REACTORS
330
2B3
102
}
330
2B3
100
AcDbScale
 70
     0
300
1:16
140
1.0
141
16.0
290
     0
  0
SCALE
  5
2BB
102
{ACAD_REACTORS
330
2B3
102
}
330
2B3
100
AcDbScale
 70
     0
300
1:20
140
1.0
141
20.0
290
     0
  0
SCALE
  5
2BC
102
{ACAD_REACTORS
330
2B3
102
}
330
2B3
100
AcDbScale
 70
     0
300
1:30
140
1.0
141
30.0
290
     0
  0
SCALE
  5
2BD
102
{ACAD_REACTORS
330
2B3
102
}
330
2B3
100
AcDbScale
 70
     0
300
1:40
140
1.0
141
40.0
290
     0
  0
SCALE
  5
2BE
102
{ACAD_REACTORS
330
2B3
102
}
330
2B3
100
AcDbScale
 70
     0
300
1:50
140
1.0
141
50.0
290
     0
  0
SCALE
  5
2BF
102
{ACAD_REACTORS
330
2B3
102
}
330
2B3
100
AcDbScale
 70
     0
300
1:100
140
1.0
141
100.0
290
     0
  0
SCALE
  5
2C0
102
{ACAD_REACTORS
330
2B3
102
}
330
2B3
100
AcDbScale
 70
     0
300
2:1
140
2.0
141
1.0
290
     0
  0
SCALE
  5
2C1
102
{ACAD_REACTORS
330
2B3
102
}
330
2B3
100
AcDbScale
 70
     0
300
4:1
140
4.0
141
1.0
290
     0
  0
SCALE
  5
2C2
102
{ACAD_REACTORS
330
2B3
102
}
330
2B3
100
AcDbScale
 70
     0
300
8:1
140
8.0
141
1.0
290
     0
  0
SCALE
  5
2C3
102
{ACAD_REACTORS
330
2B3
102
}
330
2B3
100
AcDbScale
 70
     0
300
10:1
140
10.0
141
1.0
290
     0
  0
SCALE
  5
2C4
102
{ACAD_REACTORS
330
2B3
102
}
330
2B3
100
AcDbScale
 70
     0
300
100:1
140
100.0
141
1.0
290
     0
  0
SCALE
  5
2C5
102
{ACAD_REACTORS
330
2B3
102
}
330
2B3
100
AcDbScale
 70
     0
300
1/128" = 1'-0"
140
0.0078125
141
12.0
290
     0
  0
SCALE
  5
2C6
102
{ACAD_REACTORS
330
2B3
102
}
330
2B3
100
AcDbScale
 70
     0
300
1/64" = 1'-0"
140
0.015625
141
12.0
290
     0
  0
SCALE
  5
2C7
102
{ACAD_REACTORS
330
2B3
102
}
330
2B3
100
AcDbScale
 70
     0
300
1/32" = 1'-0"
140
0.03125
141
12.0
290
     0
  0
SCALE
  5
2C8
102
{ACAD_REACTORS
330
2B3
102
}
330
2B3
100
AcDbScale
 70
     0
300
1/16" = 1'-0"
140
0.0625
141
12.0
290
     0
  0
SCALE
  5
2C9
102
{ACAD_REACTORS
330
2B3
102
}
330
2B3
100
AcDbScale
 70
     0
300
3/32" = 1'-0"
140
0.09375
141
12.0
290
     0
  0
SCALE
  5
2CA
102
{ACAD_REACTORS
330
2B3
102
}
330
2B3
100
AcDbScale
 70
     0
300
1/8" = 1'-0"
140
0.125
141
12.0
290
     0
  0
SCALE
  5
2CB
102
{ACAD_REACTORS
330
2B3
102
}
330
2B3
100
AcDbScale
 70
     0
300
3/16" = 1'-0"
140
0.1875
141
12.0
290
     0
  0
SCALE
  5
2CC
102
{ACAD_REACTORS
330
2B3
102
}
330
2B3
100
AcDbScale
 70
     0
300
1/4" = 1'-0"
140
0.25
141
12.0
290
     0
  0
SCALE
  5
2CD
102
{ACAD_REACTORS
330
2B3
102
}
330
2B3
100
AcDbScale
 70
     0
300
3/8" = 1'-0"
140
0.375
141
12.0
290
     0
  0
SCALE
  5
2CE
102
{ACAD_REACTORS
330
2B3
102
}
330
2B3
100
AcDbScale
 70
     0
300
1/2" = 1'-0"
140
0.5
141
12.0
290
     0
  0
SCALE
  5
2CF
102
{ACAD_REACTORS
330
2B3
102
}
330
2B3
100
AcDbScale
 70
     0
300
3/4" = 1'-0"
140
0.75
141
12.0
290
     0
  0
SCALE
  5
2D0
102
{ACAD_REACTORS
330
2B3
102
}
330
2B3
100
AcDbScale
 70
     0
300
1" = 1'-0"
140
1.0
141
12.0
290
     0
  0
SCALE
  5
2D1
102
{ACAD_REACTORS
330
2B3
102
}
330
2B3
100
AcDbScale
 70
     0
300
1-1/2" = 1'-0"
140
1.5
141
12.0
290
     0
  0
SCALE
  5
2D2
102
{ACAD_REACTORS
330
2B3
102
}
330
2B3
100
AcDbScale
 70
     0
300
3" = 1'-0"
140
3.0
141
12.0
290
     0
  0
SCALE
  5
2D3
102
{ACAD_REACTORS
330
2B3
102
}
330
2B3
100
AcDbScale
 70
     0
300
6" = 1'-0"
140
6.0
141
12.0
290
     0
  0
SCALE
  5
2D4
102
{ACAD_REACTORS
330
2B3
102
}
330
2B3
100
AcDbScale
 70
     0
300
1'-0" = 1'-0"
140
12.0
141
12.0
290
     0
  0
TABLESTYLE
  5
122
102
{ACAD_XDICTIONARY
360
2F5
102
}
102
{ACAD_REACTORS
330
121
102
}
330
121
100
AcDbTableStyle
  3
Standard
 70
     0
 71
     0
 40
1.5
 41
1.5
280
     0
281
     0
  7
STANDARD
140
4.5
170
     2
 62
     0
 63
     7
283
     0
 90
      512
 91
        0
  1

274
    -2
284
     1
 64
     0
275
    -2
285
     1
 65
     0
276
    -2
286
     1
 66
     0
277
    -2
287
     1
 67
     0
278
    -2
288
     1
 68
     0
279
    -2
289
     1
 69
     0
  7
STANDARD
140
6.0
170
     5
 62
     0
 63
     7
283
     0
 90
      512
 91
        0
  1

274
    -2
284
     1
 64
     0
275
    -2
285
     1
 65
     0
276
    -2
286
     1
 66
     0
277
    -2
287
     1
 67
     0
278
    -2
288
     1
 68
     0
279
    -2
289
     1
 69
     0
  7
STANDARD
140
4.5
170
     5
 62
     0
 63
     7
283
     0
 90
      512
 91
        0
  1

274
    -2
284
     1
 64
     0
275
    -2
285
     1
 65
     0
276
    -2
286
     1
 66
     0
277
    -2
287
     1
 67
     0
278
    -2
288
     1
 68
     0
279
    -2
289
     1
 69
     0
  0
VISUALSTYLE
  5
285
102
{ACAD_REACTORS
330
27F
102
}
330
27F
100
AcDbVisualStyle
  2
2dWireframe
 70
     4
 71
     0
 72
     2
 73
     0
 90
        0
 40
-0.6
 41
-30.0
 62
     5
 63
     7
421
 16777215
 74
     1
 91
        4
 64
     7
 65
   257
 75
     1
175
     1
 42
1.0
 92
        0
 66
   257
 43
1.0
 76
     1
 77
     6
 78
     2
 67
     7
 79
     5
170
     0
171
     0
290
     0
174
     0
 93
        1
 44
0.0
173
     0
291
     0
 45
0.0
  0
VISUALSTYLE
  5
287
102
{ACAD_REACTORS
330
27F
102
}
330
27F
100
AcDbVisualStyle
  2
3D Hidden
 70
     6
 71
     1
 72
     2
 73
     2
 90
        0
 40
-0.6
 41
-30.0
 62
     5
 63
     7
421
 16777215
 74
     2
 91
        2
 64
     7
 65
   257
 75
     2
175
     1
 42
40.0
 92
        0
 66
   257
 43
1.0
 76
     1
 77
     6
 78
     2
 67
     7
 79
     3
170
     0
171
     0
290
     0
174
     0
 93
        1
 44
0.0
173
     0
291
     0
 45
0.0
  0
VISUALSTYLE
  5
286
102
{ACAD_REACTORS
330
27F
102
}
330
27F
100
AcDbVisualStyle
  2
3dWireframe
 70
     5
 71
     0
 72
     2
 73
     0
 90
        0
 40
-0.6
 41
-30.0
 62
     5
 63
     7
421
 16777215
 74
     1
 91
        4
 64
     7
 65
   257
 75
     1
175
     1
 42
1.0
 92
        0
 66
   257
 43
1.0
 76
     1
 77
     6
 78
     2
 67
     7
 79
     5
170
     0
171
     0
290
     0
174
     0
 93
        1
 44
0.0
173
     0
291
     0
 45
0.0
  0
VISUALSTYLE
  5
284
102
{ACAD_REACTORS
330
27F
102
}
330
27F
100
AcDbVisualStyle
  2
Basic
 70
     7
 71
     1
 72
     0
 73
     1
 90
        0
 40
-0.6
 41
-30.0
 62
     5
 63
     7
421
 16777215
 74
     0
 91
        4
 64
     7
 65
   257
 75
     1
175
     1
 42
1.0
 92
        8
 66
     7
 43
1.0
 76
     1
 77
     6
 78
     2
 67
     7
 79
     5
170
     0
171
     0
290
     0
174
     0
 93
        1
 44
0.0
173
     0
291
     1
 45
0.0
  0
VISUALSTYLE
  5
28B
102
{ACAD_REACTORS
330
27F
102
}
330
27F
100
AcDbVisualStyle
  2
Brighten
 70
    12
 71
     2
 72
     2
 73
     0
 90
        0
 40
-0.6
 41
-30.0
 62
     5
 63
     7
421
 16777215
 74
     1
 91
        4
 64
     7
 65
   257
 75
     1
175
     1
 42
1.0
 92
        8
 66
     7
 43
1.0
 76
     1
 77
     6
 78
     2
 67
     7
 79
     5
170
     0
171
     0
290
     0
174
     0
 93
        1
 44
50.0
173
     0
291
     1
 45
0.0
  0
VISUALSTYLE
  5
28F
102
{ACAD_REACTORS
330
27F
102
}
330
27F
100
AcDbVisualStyle
  2
ColorChange
 70
    16
 71
     2
 72
     2
 73
     3
 90
        0
 40
-0.6
 41
-30.0
 62
     5
 63
     8
421
  8421504
 74
     1
 91
        4
 64
     7
 65
   257
 75
     1
175
     1
 42
1.0
 92
        8
 66
     8
424
  8421504
 43
1.0
 76
     1
 77
     6
 78
     2
 67
     7
 79
     5
170
     0
171
     0
290
     0
174
     0
 93
        1
 44
0.0
173
     0
291
     1
 45
0.0
  0
VISUALSTYLE
  5
288
102
{ACAD_REACTORS
330
27F
102
}
330
27F
100
AcDbVisualStyle
  2
Conceptual
 70
     9
 71
     3
 72
     2
 73
     0
 90
        0
 40
-0.6
 41
-30.0
 62
     5
 63
     7
421
 16777215
 74
     2
 91
        2
 64
     7
 65
   257
 75
     1
175
     1
 42
40.0
 92
        8
 66
     7
 43
1.0
 76
     1
 77
     6
 78
     2
 67
     7
 79
     3
170
     0
171
     0
290
     0
174
     0
 93
        1
 44
0.0
173
     0
291
     0
 45
0.0
  0
VISUALSTYLE
  5
28A
102
{ACAD_REACTORS
330
27F
102
}
330
27F
100
AcDbVisualStyle
  2
Dim
 70
    11
 71
     2
 72
     2
 73
     0
 90
        0
 40
-0.6
 41
-30.0
 62
     5
 63
     7
421
 16777215
 74
     1
 91
        4
 64
     7
 65
   257
 75
     1
175
     1
 42
1.0
 92
        8
 66
     7
 43
1.0
 76
     1
 77
     6
 78
     2
 67
     7
 79
     5
170
     0
171
     0
290
     0
174
     0
 93
        1
 44
-50.0
173
     0
291
     1
 45
0.0
  0
VISUALSTYLE
  5
28E
102
{ACAD_REACTORS
330
27F
102
}
330
27F
100
AcDbVisualStyle
  2
Facepattern
 70
    15
 71
     2
 72
     2
 73
     0
 90
        0
 40
-0.6
 41
-30.0
 62
     5
 63
     7
421
 16777215
 74
     1
 91
        4
 64
     7
 65
   257
 75
     1
175
     1
 42
1.0
 92
        8
 66
     7
 43
1.0
 76
     1
 77
     6
 78
     2
 67
     7
 79
     5
170
     0
171
     0
290
     0
174
     0
 93
        1
 44
0.0
173
     0
291
     1
 45
0.0
  0
VISUALSTYLE
  5
280
102
{ACAD_REACTORS
330
27F
102
}
330
27F
100
AcDbVisualStyle
  2
Flat
 70
     0
 71
     2
 72
     1
 73
     1
 90
        2
 40
-0.6
 41
30.0
 62
     5
 63
     7
421
 16777215
 74
     0
 91
        4
 64
     7
 65
   257
 75
     1
175
     1
 42
1.0
 92
        8
 66
     7
 43
1.0
 76
     1
 77
     6
 78
     2
 67
     7
 79
     5
170
     0
171
     0
290
     0
174
     0
 93
       13
 44
0.0
173
     0
291
     1
 45
0.0
  0
VISUALSTYLE
  5
281
102
{ACAD_REACTORS
330
27F
102
}
330
27F
100
AcDbVisualStyle
  2
FlatWithEdges
 70
     1
 71
     2
 72
     1
 73
     1
 90
        2
 40
-0.6
 41
30.0
 62
     5
 63
     7
421
 16777215
 74
     1
 91
        4
 64
     7
 65
   257
 75
     1
175
     1
 42
1.0
 92
        0
 66
   257
 43
1.0
 76
     1
 77
     6
 78
     2
 67
     7
 79
     5
170
     0
171
     0
290
     0
174
     0
 93
       13
 44
0.0
173
     0
291
     1
 45
0.0
  0
VISUALSTYLE
  5
282
102
{ACAD_REACTORS
330
27F
102
}
330
27F
100
AcDbVisualStyle
  2
Gouraud
 70
     2
 71
     2
 72
     2
 73
     1
 90
        2
 40
-0.6
 41
30.0
 62
     5
 63
     7
421
 16777215
 74
     0
 91
        4
 64
     7
 65
   257
 75
     1
175
     1
 42
1.0
 92
        0
 66
     7
 43
1.0
 76
     1
 77
     6
 78
     2
 67
     7
 79
     5
170
     0
171
     0
290
     0
174
     0
 93
       13
 44
0.0
173
     0
291
     1
 45
0.0
  0
VISUALSTYLE
  5
283
102
{ACAD_REACTORS
330
27F
102
}
330
27F
100
AcDbVisualStyle
  2
GouraudWithEdges
 70
     3
 71
     2
 72
     2
 73
     1
 90
        2
 40
-0.6
 41
30.0
 62
     5
 63
     7
421
 16777215
 74
     1
 91
        4
 64
     7
 65
   257
 75
     1
175
     1
 42
1.0
 92
        0
 66
   257
 43
1.0
 76
     1
 77
     6
 78
     2
 67
     7
 79
     5
170
     0
171
     0
290
     0
174
     0
 93
       13
 44
0.0
173
     0
291
     1
 45
0.0
  0
VISUALSTYLE
  5
28D
102
{ACAD_REACTORS
330
27F
102
}
330
27F
100
AcDbVisualStyle
  2
Linepattern
 70
    14
 71
     2
 72
     2
 73
     0
 90
        0
 40
-0.6
 41
-30.0
 62
     5
 63
     7
421
 16777215
 74
     1
 91
        4
 64
     7
 65
   257
 75
     7
175
     7
 42
1.0
 92
        8
 66
     7
 43
1.0
 76
     1
 77
     6
 78
     2
 67
     7
 79
     5
170
     0
171
     0
290
     0
174
     0
 93
        1
 44
0.0
173
     0
291
     1
 45
0.0
  0
VISUALSTYLE
  5
289
102
{ACAD_REACTORS
330
27F
102
}
330
27F
100
AcDbVisualStyle
  2
Realistic
 70
     8
 71
     2
 72
     2
 73
     0
 90
        0
 40
-0.6
 41
-30.0
 62
     5
 63
     7
421
 16777215
 74
     1
 91
        0
 64
     7
 65
   257
 75
     1
175
     1
 42
1.0
 92
        8
 66
     8
424
  7895160
 43
1.0
 76
     1
 77
     6
 78
     2
 67
     7
 79
     5
170
     0
171
     0
290
     0
174
     0
 93
       13
 44
0.0
173
     0
291
     0
 45
0.0
  0
VISUALSTYLE
  5
28C
102
{ACAD_REACTORS
330
27F
102
}
330
27F
100
AcDbVisualStyle
  2
Thicken
 70
    13
 71
     2
 72
     2
 73
     0
 90
        0
 40
-0.6
 41
-30.0
 62
     5
 63
     7
421
 16777215
 74
     1
 91
        4
 64
     7
 65
   257
 75
     1
175
     1
 42
1.0
 92
       12
 66
     7
 43
1.0
 76
     1
 77
     6
 78
     2
 67
     7
 79
     5
170
     0
171
     0
290
     0
174
     0
 93
        1
 44
0.0
173
     0
291
     1
 45
0.0
  0
DICTIONARYVAR
  5
2FA
102
{ACAD_REACTORS
330
34
102
}
330
34
100
DictionaryVariables
280
     0
  1
1:4
  0
DICTIONARYVAR
  5
2F8
102
{ACAD_REACTORS
330
34
102
}
330
34
100
DictionaryVariables
280
     0
  1
STANDARD
  0
DICTIONARYVAR
  5
140
102
{ACAD_REACTORS
330
34
102
}
330
34
100
DictionaryVariables
280
     0
  1
STANDARD
  0
DICTIONARYVAR
  5
AC
102
{ACAD_REACTORS
330
34
102
}
330
34
100
DictionaryVariables
280
     0
  1
1
  0
DICTIONARYVAR
  5
35
102
{ACAD_REACTORS
330
34
102
}
330
34
100
DictionaryVariables
280
     0
  1
1
  0
DICTIONARYVAR
  5
4F8C
102
{ACAD_REACTORS
330
34
102
}
330
34
100
DictionaryVariables
280
     0
  1
1
  0
DICTIONARYVAR
  5
4F8D
102
{ACAD_REACTORS
330
34
102
}
330
34
100
DictionaryVariables
280
     0
  1
15
  0
DICTIONARYVAR
  5
2FB
102
{ACAD_REACTORS
330
34
102
}
330
34
100
DictionaryVariables
280
     0
  1
0
  0
DICTIONARYVAR
  5
2F9
102
{ACAD_REACTORS
330
34
102
}
330
34
100
DictionaryVariables
280
     0
  1
0
  0
DICTIONARY
  5
161B
102
{ACAD_REACTORS
330
49
102
}
330
49
100
AcDbDictionary
281
     1
  0
DICTIONARY
  5
4A
102
{ACAD_REACTORS
330
49
102
}
330
49
100
AcDbDictionary
281
     1
  0
XRECORD
  5
12B
102
{ACAD_REACTORS
330
49
102
}
330
49
100
AcDbXrecord
280
     1
 90
-1023410169
  0
DICTIONARY
  5
2F5
330
122
100
AcDbDictionary
280
     1
281
     1
  3
ACAD_ROUNDTRIP_2008_TABLESTYLE_CELLSTYLEMAP
360
7FA8
  0
CELLSTYLEMAP
  5
7FA8
102
{ACAD_REACTORS
330
2F5
102
}
330
2F5
100
AcDbCellStyleMap
 90
        3
300
CELLSTYLE
  1
TABLEFORMAT_BEGIN
 90
        5
170
     1
 91
        0
 92
    32768
 62
   257
 93
        1
300
CONTENTFORMAT
  1
CONTENTFORMAT_BEGIN
 90
        0
 91
        0
 92
      512
 93
        0
300

 40
0.0
140
1.0
 94
        5
 62
     0
340
11
144
6.0
309
CONTENTFORMAT_END
171
     1
301
MARGIN
  1
CELLMARGIN_BEGIN
 40
1.5
 40
1.5
 40
1.5
 40
1.5
 40
0.18
 40
0.18
309
CELLMARGIN_END
 94
        6
 95
        1
302
GRIDFORMAT
  1
GRIDFORMAT_BEGIN
 90
        0
 91
        1
 62
     0
 92
       -2
340
0
 93
        0
 40
0.045
309
GRIDFORMAT_END
 95
        2
302
GRIDFORMAT
  1
GRIDFORMAT_BEGIN
 90
        0
 91
        1
 62
     0
 92
       -2
340
0
 93
        0
 40
0.045
309
GRIDFORMAT_END
 95
        4
302
GRIDFORMAT
  1
GRIDFORMAT_BEGIN
 90
        0
 91
        1
 62
     0
 92
       -2
340
0
 93
        0
 40
0.045
309
GRIDFORMAT_END
 95
        8
302
GRIDFORMAT
  1
GRIDFORMAT_BEGIN
 90
        0
 91
        1
 62
     0
 92
       -2
340
0
 93
        0
 40
0.045
309
GRIDFORMAT_END
 95
       16
302
GRIDFORMAT
  1
GRIDFORMAT_BEGIN
 90
        0
 91
        1
 62
     0
 92
       -2
340
0
 93
        0
 40
0.045
309
GRIDFORMAT_END
 95
       32
302
GRIDFORMAT
  1
GRIDFORMAT_BEGIN
 90
        0
 91
        1
 62
     0
 92
       -2
340
0
 93
        0
 40
0.045
309
GRIDFORMAT_END
309
TABLEFORMAT_END
  1
CELLSTYLE_BEGIN
 90
        1
 91
        1
300
_TITLE
309
CELLSTYLE_END
300
CELLSTYLE
  1
TABLEFORMAT_BEGIN
 90
        5
170
     1
 91
        0
 92
        0
 62
   257
 93
        1
300
CONTENTFORMAT
  1
CONTENTFORMAT_BEGIN
 90
        0
 91
        0
 92
      512
 93
        0
300

 40
0.0
140
1.0
 94
        5
 62
     0
340
11
144
4.5
309
CONTENTFORMAT_END
171
     1
301
MARGIN
  1
CELLMARGIN_BEGIN
 40
1.5
 40
1.5
 40
1.5
 40
1.5
 40
0.18
 40
0.18
309
CELLMARGIN_END
 94
        6
 95
        1
302
GRIDFORMAT
  1
GRIDFORMAT_BEGIN
 90
        0
 91
        1
 62
     0
 92
       -2
340
0
 93
        0
 40
0.045
309
GRIDFORMAT_END
 95
        2
302
GRIDFORMAT
  1
GRIDFORMAT_BEGIN
 90
        0
 91
        1
 62
     0
 92
       -2
340
0
 93
        0
 40
0.045
309
GRIDFORMAT_END
 95
        4
302
GRIDFORMAT
  1
GRIDFORMAT_BEGIN
 90
        0
 91
        1
 62
     0
 92
       -2
340
0
 93
        0
 40
0.045
309
GRIDFORMAT_END
 95
        8
302
GRIDFORMAT
  1
GRIDFORMAT_BEGIN
 90
        0
 91
        1
 62
     0
 92
       -2
340
0
 93
        0
 40
0.045
309
GRIDFORMAT_END
 95
       16
302
GRIDFORMAT
  1
GRIDFORMAT_BEGIN
 90
        0
 91
        1
 62
     0
 92
       -2
340
0
 93
        0
 40
0.045
309
GRIDFORMAT_END
 95
       32
302
GRIDFORMAT
  1
GRIDFORMAT_BEGIN
 90
        0
 91
        1
 62
     0
 92
       -2
340
0
 93
        0
 40
0.045
309
GRIDFORMAT_END
309
TABLEFORMAT_END
  1
CELLSTYLE_BEGIN
 90
        2
 91
        1
300
_HEADER
309
CELLSTYLE_END
300
CELLSTYLE
  1
TABLEFORMAT_BEGIN
 90
        5
170
     1
 91
        0
 92
        0
 62
   257
 93
        1
300
CONTENTFORMAT
  1
CONTENTFORMAT_BEGIN
 90
        0
 91
        0
 92
      512
 93
        0
300

 40
0.0
140
1.0
 94
        2
 62
     0
340
11
144
4.5
309
CONTENTFORMAT_END
171
     1
301
MARGIN
  1
CELLMARGIN_BEGIN
 40
1.5
 40
1.5
 40
1.5
 40
1.5
 40
0.18
 40
0.18
309
CELLMARGIN_END
 94
        6
 95
        1
302
GRIDFORMAT
  1
GRIDFORMAT_BEGIN
 90
        0
 91
        1
 62
     0
 92
       -2
340
0
 93
        0
 40
0.045
309
GRIDFORMAT_END
 95
        2
302
GRIDFORMAT
  1
GRIDFORMAT_BEGIN
 90
        0
 91
        1
 62
     0
 92
       -2
340
0
 93
        0
 40
0.045
309
GRIDFORMAT_END
 95
        4
302
GRIDFORMAT
  1
GRIDFORMAT_BEGIN
 90
        0
 91
        1
 62
     0
 92
       -2
340
0
 93
        0
 40
0.045
309
GRIDFORMAT_END
 95
        8
302
GRIDFORMAT
  1
GRIDFORMAT_BEGIN
 90
        0
 91
        1
 62
     0
 92
       -2
340
0
 93
        0
 40
0.045
309
GRIDFORMAT_END
 95
       16
302
GRIDFORMAT
  1
GRIDFORMAT_BEGIN
 90
        0
 91
        1
 62
     0
 92
       -2
340
0
 93
        0
 40
0.045
309
GRIDFORMAT_END
 95
       32
302
GRIDFORMAT
  1
GRIDFORMAT_BEGIN
 90
        0
 91
        1
 62
     0
 92
       -2
340
0
 93
        0
 40
0.045
309
GRIDFORMAT_END
309
TABLEFORMAT_END
  1
CELLSTYLE_BEGIN
 90
        3
 91
        2
300
_DATA
309
CELLSTYLE_END
  0
ENDSEC
  0
EOF
