  0
SECTION
  2
HEADER
  9
$ACADVER
  1
AC1021
  9
$ACADMAINTVER
 70
    26
  9
$DWGCODEPAGE
  3
ANSI_932
  9
$AUTHOR
  1
技術部_日野
  9
$LASTSAVEDBY
  1
Htm_Terada
  9
$INSBASE
 10
0.0
 20
0.0
 30
0.0
  9
$EXTMIN
 10
592.6055572553362
 20
873.016602749883
 30
0.0
  9
$EXTMAX
 10
1257.57849062199
 20
1349.696094649885
 30
0.0
  9
$LIMMIN
 10
0.0
 20
0.0
  9
$LIMMAX
 10
2376.0
 20
1680.0
  9
$ORTHOMODE
 70
     1
  9
$REGENMODE
 70
     1
  9
$FILLMODE
 70
     1
  9
$QTEXTMODE
 70
     0
  9
$MIRRTEXT
 70
     0
  9
$LTSCALE
 40
4.0
  9
$ATTMODE
 70
     1
  9
$TEXTSIZE
 40
25.0
  9
$TRACEWID
 40
0.05
  9
$TEXTSTYLE
  7
SEISA
  9
$CLAYER
  8
AM_PAREF
  9
$CELTYPE
  6
BYLAYER
  9
$CECOLOR
 62
   256
  9
$CELTSCALE
 40
1.0
  9
$DISPSILH
 70
     0
  9
$DIMSCALE
 40
4.0
  9
$DIMASZ
 40
2.5
  9
$DIMEXO
 40
0.625
  9
$DIMDLI
 40
10.0
  9
$DIMRND
 40
0.0
  9
$DIMDLE
 40
0.0
  9
$DIMEXE
 40
0.625
  9
$DIMTP
 40
0.1
  9
$DIMTM
 40
0.1
  9
$DIMTXT
 40
3.5
  9
$DIMCEN
 40
0.0
  9
$DIMTSZ
 40
0.0
  9
$DIMTOL
 70
     0
  9
$DIMLIM
 70
     0
  9
$DIMTIH
 70
     0
  9
$DIMTOH
 70
     0
  9
$DIMSE1
 70
     0
  9
$DIMSE2
 70
     0
  9
$DIMTAD
 70
     3
  9
$DIMZIN
 70
     8
  9
$DIMBLK
  1
Open30
  9
$DIMASO
 70
     1
  9
$DIMSHO
 70
     0
  9
$DIMPOST
  1

  9
$DIMAPOST
  1
"
  9
$DIMALT
 70
     0
  9
$DIMALTD
 70
     2
  9
$DIMALTF
 40
0.0393701
  9
$DIMLFAC
 40
1.0
  9
$DIMTOFL
 70
     1
  9
$DIMTVP
 40
0.0
  9
$DIMTIX
 70
     0
  9
$DIMSOXD
 70
     0
  9
$DIMSAH
 70
     0
  9
$DIMBLK1
  1

  9
$DIMBLK2
  1

  9
$DIMSTYLE
  2
SEISA
  9
$DIMCLRD
 70
     3
  9
$DIMCLRE
 70
     3
  9
$DIMCLRT
 70
     3
  9
$DIMTFAC
 40
0.71
  9
$DIMGAP
 40
1.5
  9
$DIMJUST
 70
     0
  9
$DIMSD1
 70
     0
  9
$DIMSD2
 70
     0
  9
$DIMTOLJ
 70
     0
  9
$DIMTZIN
 70
     0
  9
$DIMALTZ
 70
     0
  9
$DIMALTTZ
 70
     8
  9
$DIMUPT
 70
     0
  9
$DIMDEC
 70
     2
  9
$DIMTDEC
 70
     2
  9
$DIMALTU
 70
     2
  9
$DIMALTTD
 70
     2
  9
$DIMTXSTY
  7
SEISA
  9
$DIMAUNIT
 70
     0
  9
$DIMADEC
 70
     0
  9
$DIMALTRND
 40
0.0
  9
$DIMAZIN
 70
     2
  9
$DIMDSEP
 70
    46
  9
$DIMATFIT
 70
     1
  9
$DIMFRAC
 70
     0
  9
$DIMLDRBLK
  1
Open30
  9
$DIMLUNIT
 70
     2
  9
$DIMLWD
 70
    -1
  9
$DIMLWE
 70
    -1
  9
$DIMTMOVE
 70
     0
  9
$DIMFXL
 40
1.0
  9
$DIMFXLON
 70
     0
  9
$DIMJOGANG
 40
0.7853981633974483
  9
$DIMTFILL
 70
     0
  9
$DIMTFILLCLR
 70
     0
  9
$DIMARCSYM
 70
     1
  9
$DIMLTYPE
  6

  9
$DIMLTEX1
  6

  9
$DIMLTEX2
  6

  9
$LUNITS
 70
     2
  9
$LUPREC
 70
     2
  9
$SKETCHINC
 40
0.1
  9
$FILLETRAD
 40
10.0
  9
$AUNITS
 70
     0
  9
$AUPREC
 70
     3
  9
$MENU
  1
ACAD
  9
$ELEVATION
 40
0.0
  9
$PELEVATION
 40
0.0
  9
$THICKNESS
 40
0.0
  9
$LIMCHECK
 70
     0
  9
$CHAMFERA
 40
3.000000000000113
  9
$CHAMFERB
 40
3.000000000000113
  9
$CHAMFERC
 40
3.000000000000113
  9
$CHAMFERD
 40
0.7853981633974865
  9
$SKPOLY
 70
     0
  9
$TDCREATE
 40
2450570.407364005
  9
$TDUCREATE
 40
2450570.032364005
  9
$TDUPDATE
 40
2456478.694071713
  9
$TDUUPDATE
 40
2456478.319071713
  9
$TDINDWG
 40
1.7726313889
  9
$TDUSRTIMER
 40
1.7726306597
  9
$USRTIMER
 70
     1
  9
$ANGBASE
 50
0.0
  9
$ANGDIR
 70
     0
  9
$PDMODE
 70
     0
  9
$PDSIZE
 40
0.0
  9
$PLINEWID
 40
0.0
  9
$SPLFRAME
 70
     0
  9
$SPLINETYPE
 70
     6
  9
$SPLINESEGS
 70
     8
  9
$HANDSEED
  5
E8FB
  9
$SURFTAB1
 70
     6
  9
$SURFTAB2
 70
     6
  9
$SURFTYPE
 70
     6
  9
$SURFU
 70
     6
  9
$SURFV
 70
     6
  9
$UCSBASE
  2

  9
$UCSNAME
  2

  9
$UCSORG
 10
0.0
 20
0.0
 30
0.0
  9
$UCSXDIR
 10
1.0
 20
0.0
 30
0.0
  9
$UCSYDIR
 10
0.0
 20
1.0
 30
0.0
  9
$UCSORTHOREF
  2

  9
$UCSORTHOVIEW
 70
     0
  9
$UCSORGTOP
 10
0.0
 20
0.0
 30
0.0
  9
$UCSORGBOTTOM
 10
0.0
 20
0.0
 30
0.0
  9
$UCSORGLEFT
 10
0.0
 20
0.0
 30
0.0
  9
$UCSORGRIGHT
 10
0.0
 20
0.0
 30
0.0
  9
$UCSORGFRONT
 10
0.0
 20
0.0
 30
0.0
  9
$UCSORGBACK
 10
0.0
 20
0.0
 30
0.0
  9
$PUCSBASE
  2

  9
$PUCSNAME
  2

  9
$PUCSORG
 10
0.0
 20
0.0
 30
0.0
  9
$PUCSXDIR
 10
1.0
 20
0.0
 30
0.0
  9
$PUCSYDIR
 10
0.0
 20
1.0
 30
0.0
  9
$PUCSORTHOREF
  2

  9
$PUCSORTHOVIEW
 70
     0
  9
$PUCSORGTOP
 10
0.0
 20
0.0
 30
0.0
  9
$PUCSORGBOTTOM
 10
0.0
 20
0.0
 30
0.0
  9
$PUCSORGLEFT
 10
0.0
 20
0.0
 30
0.0
  9
$PUCSORGRIGHT
 10
0.0
 20
0.0
 30
0.0
  9
$PUCSORGFRONT
 10
0.0
 20
0.0
 30
0.0
  9
$PUCSORGBACK
 10
0.0
 20
0.0
 30
0.0
  9
$USERI1
 70
     0
  9
$USERI2
 70
     0
  9
$USERI3
 70
     0
  9
$USERI4
 70
     0
  9
$USERI5
 70
     0
  9
$USERR1
 40
25.4
  9
$USERR2
 40
1.0
  9
$USERR3
 40
111111111111111.0
  9
$USERR4
 40
9.0
  9
$USERR5
 40
1122112.0
  9
$WORLDVIEW
 70
     1
  9
$SHADEDGE
 70
     3
  9
$SHADEDIF
 70
    70
  9
$TILEMODE
 70
     1
  9
$MAXACTVP
 70
    16
  9
$PINSBASE
 10
0.0
 20
0.0
 30
0.0
  9
$PLIMCHECK
 70
     0
  9
$PEXTMIN
 10
1.12308328358207
 20
0.7804166500962629
 30
0.0
  9
$PEXTMAX
 10
10.10774955223864
 20
7.023749850866361
 30
0.0
  9
$PLIMMIN
 10
-0.2312499519408218
 20
-0.2312499894870548
  9
$PLIMMAX
 10
11.4620827502153
 20
8.035416452903447
  9
$UNITMODE
 70
     0
  9
$VISRETAIN
 70
     0
  9
$PLINEGEN
 70
     0
  9
$PSLTSCALE
 70
     0
  9
$TREEDEPTH
 70
  3020
  9
$CMLSTYLE
  2
STANDARD
  9
$CMLJUST
 70
     0
  9
$CMLSCALE
 40
1.0
  9
$PROXYGRAPHICS
 70
     1
  9
$MEASUREMENT
 70
     1
  9
$CELWEIGHT
370
    -1
  9
$ENDCAPS
280
     0
  9
$JOINSTYLE
280
     0
  9
$LWDISPLAY
290
     0
  9
$INSUNITS
 70
     4
  9
$HYPERLINKBASE
  1

  9
$STYLESHEET
  1
SEISA.CTB
  9
$XEDIT
290
     1
  9
$CEPSNTYPE
380
     0
  9
$PSTYLEMODE
290
     1
  9
$FINGERPRINTGUID
  2
{6A3D63E2-4DC2-11D5-AB86-003005066AB5}
  9
$VERSIONGUID
  2
{7895B681-2623-460D-93BE-A8ABF1DD29D5}
  9
$EXTNAMES
290
     1
  9
$PSVPSCALE
 40
0.0
  9
$OLESTARTUP
290
     0
  9
$SORTENTS
280
    96
  9
$INDEXCTL
280
     0
  9
$HIDETEXT
280
     0
  9
$XCLIPFRAME
290
     0
  9
$HALOGAP
280
     0
  9
$OBSCOLOR
 70
   257
  9
$OBSLTYPE
280
     0
  9
$INTERSECTIONDISPLAY
280
     0
  9
$INTERSECTIONCOLOR
 70
   257
  9
$DIMASSOC
280
     2
  9
$PROJECTNAME
  1

  9
$CAMERADISPLAY
290
     0
  9
$LENSLENGTH
 40
50.0
  9
$CAMERAHEIGHT
 40
0.0
  9
$STEPSPERSEC
 40
2.0
  9
$STEPSIZE
 40
6.0
  9
$3DDWFPREC
 40
2.0
  9
$PSOLWIDTH
 40
0.25
  9
$PSOLHEIGHT
 40
4.0
  9
$LOFTANG1
 40
1.570796326794896
  9
$LOFTANG2
 40
1.570796326794896
  9
$LOFTMAG1
 40
0.0
  9
$LOFTMAG2
 40
0.0
  9
$LOFTPARAM
 70
     7
  9
$LOFTNORMALS
280
     1
  9
$LATITUDE
 40
37.795
  9
$LONGITUDE
 40
-122.394
  9
$NORTHDIRECTION
 40
0.0
  9
$TIMEZONE
 70
 -8000
  9
$LIGHTGLYPHDISPLAY
280
     1
  9
$TILEMODELIGHTSYNCH
280
     1
  9
$CMATERIAL
347
851C
  9
$SOLIDHIST
280
     1
  9
$SHOWHIST
280
     1
  9
$DWFFRAME
280
     2
  9
$DGNFRAME
280
     0
  9
$REALWORLDSCALE
290
     1
  9
$INTERFERECOLOR
 62
     1
  9
$INTERFEREOBJVS
345
853E
  9
$INTERFEREVPVS
346
853B
  9
$CSHADOW
280
     0
  9
$SHADOWPLANELOCATION
 40
0.0
  0
ENDSEC
  0
SECTION
  2
CLASSES
  0
CLASS
  1
ACDBDICTIONARYWDFLT
  2
AcDbDictionaryWithDefault
  3
ObjectDBX Classes
 90
        0
 91
        1
280
     0
281
     0
  0
CLASS
  1
DICTIONARYVAR
  2
AcDbDictionaryVar
  3
ObjectDBX Classes
 90
        0
 91
       10
280
     0
281
     0
  0
CLASS
  1
TABLESTYLE
  2
AcDbTableStyle
  3
ObjectDBX Classes
 90
     4095
 91
        1
280
     0
281
     0
  0
CLASS
  1
SORTENTSTABLE
  2
AcDbSortentsTable
  3
ObjectDBX Classes
 90
        0
 91
       10
280
     0
281
     0
  0
CLASS
  1
MATERIAL
  2
AcDbMaterial
  3
ObjectDBX Classes
 90
     1153
 91
        3
280
     0
281
     0
  0
CLASS
  1
VISUALSTYLE
  2
AcDbVisualStyle
  3
ObjectDBX Classes
 90
     4095
 91
       16
280
     0
281
     0
  0
CLASS
  1
SCALE
  2
AcDbScale
  3
ObjectDBX Classes
 90
     1153
 91
       36
280
     0
281
     0
  0
CLASS
  1
MLEADERSTYLE
  2
AcDbMLeaderStyle
  3
ACDB_MLEADERSTYLE_CLASS
 90
     4095
 91
        1
280
     0
281
     0
  0
CLASS
  1
ACME_DOCUMENT
  2
AcMeDbDoc
  3
AcMeServices
 90
     1024
 91
        1
280
     0
281
     0
  0
CLASS
  1
AMGSETTINGSOBJ
  2
AmgSettingsObj
  3
"AcadM|Product Description: AutoCAD Mechanical|Company: Autodesk, Inc."
 90
     1024
 91
        2
280
     0
281
     0
  0
CLASS
  1
ACMESCOPE
  2
AcMeScope
  3
AcMeServices
 90
     1024
 91
        1
280
     0
281
     0
  0
CLASS
  1
ACMECOMMANDHISTORY
  2
AcMeCommandHistory
  3
AcMeServices
 90
     1024
 91
        1
280
     0
281
     0
  0
CLASS
  1
ACIMSYSVARMAN
  2
AcImSysVarManager
  3
AcMeServices
 90
     1024
 91
        5
280
     0
281
     0
  0
CLASS
  1
ACIMINTSYSVAR
  2
AcImIntSysVar
  3
AcMeServices
 90
     1024
 91
       27
280
     0
281
     0
  0
CLASS
  1
ACMEDRAWINGMAN
  2
AcMeDrawingMan
  3
AcMeServices
 90
     1024
 91
        1
280
     0
281
     0
  0
CLASS
  1
ACMEVIEW
  2
AcMeView
  3
AcMeServices
 90
     1024
 91
        1
280
     0
281
     0
  0
CLASS
  1
ACDBENTITYCACHE
  2
AcMeEntityCache
  3
AcMeServices
 90
     1024
 91
        1
280
     0
281
     0
  0
CLASS
  1
GSMANAGER
  2
AcMeGSManager
  3
AcMeServices
 90
     1024
 91
        1
280
     0
281
     0
  0
CLASS
  1
AMDTINTERNALREACTOR
  2
AmdtInternalReactor
  3
AcMeServices
 90
     1024
 91
        2
280
     0
281
     0
  0
CLASS
  1
ACMESTATEMGR
  2
AcMeStateMgr
  3
AcMeServices
 90
     1024
 91
        1
280
     0
281
     0
  0
CLASS
  1
ACGREFMASTER
  2
AcGrefMaster
  3
AcAttribServices
 90
     1024
 91
        1
280
     0
281
     0
  0
CLASS
  1
AM_DRAWING_MGR
  2
AcDmDwgMgr
  3
AcMechDwgViewMgmt
 90
     1024
 91
        1
280
     0
281
     0
  0
CLASS
  1
AM_DWG_DOCUMENT
  2
AcDmDwgDocument
  3
AcMechDwgViewMgmt
 90
     1024
 91
        1
280
     0
281
     0
  0
CLASS
  1
AM_DWG_SHEET
  2
AcDmSheet
  3
AcMechDwgViewMgmt
 90
     1024
 91
        1
280
     0
281
     0
  0
CLASS
  1
AM_VIEWDIMPARMAP
  2
AcDmViewDimParMap
  3
AcMechDwgViewMgmt
 90
     1024
 91
        1
280
     0
281
     0
  0
CLASS
  1
ACIMREALSYSVAR
  2
AcImRealSysVar
  3
AcMeServices
 90
     1024
 91
        1
280
     0
281
     0
  0
CLASS
  1
AM_DWGMGR_NAME
  2
AcDmDwgMgrName
  3
AcMechDwgViewMgmt
 90
     1024
 91
        1
280
     0
281
     0
  0
CLASS
  1
ACME_DATABASE
  2
AcMeDbDatabase
  3
AcMeServices
 90
     1024
 91
        1
280
     0
281
     0
  0
CLASS
  1
ACRFINSADJUSTERMGR
  2
AcRfInsAdjusterMgr
  3
AcMeServices
 90
     1024
 91
        1
280
     0
281
     0
  0
CLASS
  1
ACGREFACADMASTER
  2
AcGrefacadMaster
  3
AcGrefServices
 90
     1024
 91
        1
280
     0
281
     0
  0
CLASS
  1
AMDTMENUSTATEMGR
  2
AmdtMenuStateMgr
  3
McadcomServices
 90
     1024
 91
        1
280
     0
281
     0
  0
CLASS
  1
AMDTMCOMMENUSTATE
  2
AmdtMcomMenuState
  3
McadcomServices
 90
     1024
 91
        1
280
     0
281
     0
  0
CLASS
  1
AMIMASTER
  2
AmiMaster
  3
AmiServices
 90
     1024
 91
        1
280
     0
281
     0
  0
CLASS
  1
MAPIAMMOUDLE
  2
MApiAmModule
  3
MApiAmServices
 90
     1024
 91
        1
280
     0
281
     0
  0
CLASS
  1
ACIMSTRSYSVAR
  2
AcImStrSysVar
  3
AcMeServices
 90
     1024
 91
        5
280
     0
281
     0
  0
CLASS
  1
AMDTADMENUSTATE
  2
AmdtAdMenuState
  3
DesignerServices
 90
     1024
 91
        1
280
     0
281
     0
  0
CLASS
  1
ADAPPL
  2
AcAdAppl
  3
DesignerServices
 90
     1024
 91
        1
280
     0
281
     0
  0
CLASS
  1
DEPMGR
  2
AcAdDepMgr
  3
DesignerServices
 90
     1024
 91
        1
280
     0
281
     0
  0
CLASS
  1
PARAMMGR
  2
AcAdParamMgr
  3
DesignerServices
 90
     1024
 91
        1
280
     0
281
     0
  0
CLASS
  1
PARAMSCOPE
  2
AcAdParamScope
  3
DesignerServices
 90
     1024
 91
        1
280
     0
281
     0
  0
CLASS
  1
NAMEDAPPL
  2
AcAdNamedAppl
  3
DesignerServices
 90
     1024
 91
        1
280
     0
281
     0
  0
CLASS
  1
AMDTDMMENUSTATE
  2
AmdtDmMenuState
  3
AcMechDwgViewMgmt
 90
     1024
 91
        1
280
     0
281
     0
  0
CLASS
  1
AMDTAMMENUSTATE
  2
AmdtAmMenuState
  3
DesignerAssemblies
 90
     1024
 91
        1
280
     0
281
     0
  0
CLASS
  1
ACAMPROJECT
  2
AcAmProject
  3
DesignerAssemblies
 90
     1024
 91
        1
280
     0
281
     0
  0
CLASS
  1
ACAMGRCOMPDEF
  2
AcAmGrCompDef
  3
DesignerAssemblies
 90
     1024
 91
        1
280
     0
281
     0
  0
CLASS
  1
ACCMCONTEXT
  2
AcCmContext
  3
DesignerAssemblies
 90
     1024
 91
        1
280
     0
281
     0
  0
CLASS
  1
ACAMCOMPDEF
  2
AcAmCompDef
  3
DesignerAssemblies
 90
     1024
 91
        1
280
     0
281
     0
  0
CLASS
  1
ACAMCOMPDEFMGR
  2
AcAmCompDefMgr
  3
DesignerAssemblies
 90
     1024
 91
        1
280
     0
281
     0
  0
CLASS
  1
AMCONTEXTMGR
  2
AcAmContextMgr
  3
DesignerAssemblies
 90
     1024
 91
        1
280
     0
281
     0
  0
CLASS
  1
ACAMCONTEXTMODELER
  2
AcAmContextModeler
  3
DesignerAssemblies
 90
     1024
 91
        1
280
     0
281
     0
  0
CLASS
  1
ACMDATADICTIONARY
  2
AcmDataDictionary
  3
"AcmSymBB|Product Description: AutoCAD Mechanical|Company: Autodesk, Inc."
 90
     1024
 91
        1
280
     0
281
     0
  0
CLASS
  1
CATALOGSTATE
  2
AcAmCatalogState
  3
DesignerAssemblies
 90
     1024
 91
        1
280
     0
281
     0
  0
CLASS
  1
ACAMGRCOMPDEFSET
  2
AcAmGrCompDefSet
  3
DesignerAssemblies
 90
     1024
 91
        1
280
     0
281
     0
  0
CLASS
  1
AMDTBROWSERDBTAB
  2
AmdtBrowserDbTab
  3
McadcomServices
 90
     1024
 91
        1
280
     0
281
     0
  0
CLASS
  1
CBROWSERAPPOBJECT
  2
CBrowserAppObject
  3
McadcomServices
 90
     1024
 91
        3
280
     0
281
     0
  0
CLASS
  1
DM_PLACEHOLDER
  2
AcDmSelsetPlaceholder
  3
AcMechDwgViewMgmt
 90
     1024
 91
        1
280
     0
281
     0
  0
CLASS
  1
ACMSTANDARDANSI
  2
AcmStandardANSI
  3
"Amdt_StdImp|Product Description: AutoCAD Mechanical|Company: Autodesk, Inc."
 90
     1024
 91
        0
280
     0
281
     0
  0
CLASS
  1
AMGOBJPROPCFG
  2
AmgObjPropCfg
  3
"AmgLay|Product Description: AutoCAD Mechanical|Company: Autodesk, Inc."
 90
     1025
 91
        1
280
     0
281
     0
  0
CLASS
  1
ACMSURFSTANDARDANSI
  2
AcmSurfTextStdANSI
  3
"Amdt_StdImp|Product Description: AutoCAD Mechanical|Company: Autodesk, Inc."
 90
     1024
 91
        0
280
     0
281
     0
  0
CLASS
  1
ACMFCFSTANDARDANSI
  2
AcmFCFStdANSI
  3
"Amdt_StdImp|Product Description: AutoCAD Mechanical|Company: Autodesk, Inc."
 90
     1024
 91
        0
280
     0
281
     0
  0
CLASS
  1
ACMWELDSTANDARDANSI
  2
AcmWeldingStdANSI
  3
"Amdt_StdImp|Product Description: AutoCAD Mechanical|Company: Autodesk, Inc."
 90
     1024
 91
        0
280
     0
281
     0
  0
CLASS
  1
ACMIDSTANDARDANSI
  2
AcmIdStdANSI
  3
"Amdt_StdImp|Product Description: AutoCAD Mechanical|Company: Autodesk, Inc."
 90
     1024
 91
        0
280
     0
281
     0
  0
CLASS
  1
ACMDATUMSTANDARDANSI
  2
AcmDatumStdANSI
  3
"Amdt_StdImp|Product Description: AutoCAD Mechanical|Company: Autodesk, Inc."
 90
     1024
 91
        0
280
     0
281
     0
  0
CLASS
  1
ACMBOMSTANDARDANSI
  2
AcmBOMStdANSI
  3
"Amdt_StdImp|Product Description: AutoCAD Mechanical|Company: Autodesk, Inc."
 90
     1024
 91
        0
280
     0
281
     0
  0
CLASS
  1
ACMDETAILSTANDARDANSI
  2
AmdtDetailSymStdANSI
  3
"Amdt_StdImp|Product Description: AutoCAD Mechanical|Company: Autodesk, Inc."
 90
     1024
 91
        0
280
     0
281
     0
  0
CLASS
  1
ACMSECTIONSTANDARDANSI
  2
AmdtSectionSymStdANSI
  3
"Amdt_StdImp|Product Description: AutoCAD Mechanical|Company: Autodesk, Inc."
 90
     1024
 91
        0
280
     0
281
     0
  0
CLASS
  1
ACMCENTERLINESTANDARDANSI
  2
AmdtCenterLineStdANSI
  3
"Amdt_StdImp|Product Description: AutoCAD Mechanical|Company: Autodesk, Inc."
 90
     1024
 91
        0
280
     0
281
     0
  0
CLASS
  1
ACMTHREADLINESTANDARDANSI
  2
AmdtThreadLineStdANSI
  3
"Amdt_StdImp|Product Description: AutoCAD Mechanical|Company: Autodesk, Inc."
 90
     1024
 91
        0
280
     0
281
     0
  0
CLASS
  1
ACMNOTESTANDARDANSI
  2
AmdtNoteStdANSI
  3
"Amdt_StdImp|Product Description: AutoCAD Mechanical|Company: Autodesk, Inc."
 90
     1024
 91
        0
280
     0
281
     0
  0
CLASS
  1
ACMTAPERSTANDARDANSI
  2
AcmTaperStdANSI
  3
"Amdt_StdImp|Product Description: AutoCAD Mechanical|Company: Autodesk, Inc."
 90
     1024
 91
        0
280
     0
281
     0
  0
CLASS
  1
ACMANOOTATIONVIEWSTANDARDANSI
  2
AmdtAnViewStdANSI
  3
"Amdt_StdImp|Product Description: AutoCAD Mechanical|Company: Autodesk, Inc."
 90
     1024
 91
        0
280
     0
281
     0
  0
CLASS
  1
AMDTNOTETEMPLATEDB
  2
AmdtNoteTemplateDB
  3
AcmSymBB|Product Description: AutoCAD Mechanical|Company: Autodesk, Inc.
 90
     1024
 91
        6
280
     0
281
     0
  0
CLASS
  1
ACAMGLAYSTD
  2
AcAmgLayStd
  3
"AmgLay|Product Description: AutoCAD Mechanical|Company: Autodesk, Inc."
 90
     1024
 91
        1
280
     0
281
     0
  0
CLASS
  1
ACAMGDIMSTD
  2
AcAmgDimStd
  3
"AmgDim|Product Description: AutoCAD Mechanical|Company: Autodesk, Inc."
 90
     1024
 91
        1
280
     0
281
     0
  0
CLASS
  1
ACAMGHOLECHARTSTDANSI
  2
AcAmgHoleChartStdANSI
  3
AmgDim|Product Description: AutoCAD Mechanical|Company: Autodesk, Inc.
 90
     1024
 91
        0
280
     0
281
     0
  0
CLASS
  1
ACAMGTITLESTD
  2
AcAmgTitleStd
  3
"AmgTitle|Product Description: AutoCAD Mechanical|Company: Autodesk, Inc."
 90
     4095
 91
        1
280
     0
281
     0
  0
CLASS
  1
CAMSSTRUCTBTNSTATE
  2
StructBtnState
  3
DesignerAssemblies
 90
     1024
 91
        0
280
     0
281
     0
  0
CLASS
  1
CELLSTYLEMAP
  2
AcDbCellStyleMap
  3
ObjectDBX Classes
 90
     1152
 91
        2
280
     0
281
     0
  0
CLASS
  1
ACMSTANDARDJIS
  2
AcmStandardJIS
  3
"Amdt_StdImp|Product Description: AutoCAD Mechanical|Company: Autodesk, Inc."
 90
     1024
 91
        0
280
     0
281
     0
  0
CLASS
  1
ACMSURFSTANDARDJIS2003
  2
AcmSurfTextStdJIS2003
  3
"Amdt_StdImp|Product Description: AutoCAD Mechanical|Company: Autodesk, Inc."
 90
     1024
 91
        0
280
     0
281
     0
  0
CLASS
  1
ACMFCFSTANDARDJIS
  2
AcmFCFStdJIS
  3
"Amdt_StdImp|Product Description: AutoCAD Mechanical|Company: Autodesk, Inc."
 90
     1024
 91
        0
280
     0
281
     0
  0
CLASS
  1
ACMWELDSTANDARDJIS
  2
AcmWeldingStdJIS
  3
"Amdt_StdImp|Product Description: AutoCAD Mechanical|Company: Autodesk, Inc."
 90
     1024
 91
        0
280
     0
281
     0
  0
CLASS
  1
ACMIDSTANDARDJIS
  2
AcmIdStdJIS
  3
"Amdt_StdImp|Product Description: AutoCAD Mechanical|Company: Autodesk, Inc."
 90
     1024
 91
        0
280
     0
281
     0
  0
CLASS
  1
ACMDATUMSTANDARDJIS
  2
AcmDatumStdJIS
  3
"Amdt_StdImp|Product Description: AutoCAD Mechanical|Company: Autodesk, Inc."
 90
     1024
 91
        0
280
     0
281
     0
  0
CLASS
  1
ACMBOMSTANDARDJIS
  2
AcmBOMStdJIS
  3
"Amdt_StdImp|Product Description: AutoCAD Mechanical|Company: Autodesk, Inc."
 90
     1024
 91
        0
280
     0
281
     0
  0
CLASS
  1
ACMDETAILSTANDARDJIS
  2
AmdtDetailSymStdJIS
  3
"Amdt_StdImp|Product Description: AutoCAD Mechanical|Company: Autodesk, Inc."
 90
     1024
 91
        0
280
     0
281
     0
  0
CLASS
  1
ACMSECTIONSTANDARDJIS
  2
AmdtSectionSymStdJIS
  3
"Amdt_StdImp|Product Description: AutoCAD Mechanical|Company: Autodesk, Inc."
 90
     1024
 91
        0
280
     0
281
     0
  0
CLASS
  1
ACMCENTERLINESTANDARDJIS
  2
AmdtCenterLineStdJIS
  3
"Amdt_StdImp|Product Description: AutoCAD Mechanical|Company: Autodesk, Inc."
 90
     1024
 91
        0
280
     0
281
     0
  0
CLASS
  1
ACMTHREADLINESTANDARDJIS
  2
AmdtThreadLineStdJIS
  3
"Amdt_StdImp|Product Description: AutoCAD Mechanical|Company: Autodesk, Inc."
 90
     1024
 91
        0
280
     0
281
     0
  0
CLASS
  1
ACMNOTESTANDARDJIS
  2
AmdtNoteStdJIS
  3
"Amdt_StdImp|Product Description: AutoCAD Mechanical|Company: Autodesk, Inc."
 90
     1024
 91
        0
280
     0
281
     0
  0
CLASS
  1
ACAMGHOLECHARTSTDJIS
  2
AcAmgHoleChartStdJIS
  3
AmgDim|Product Description: AutoCAD Mechanical|Company: Autodesk, Inc.
 90
     1024
 91
        0
280
     0
281
     0
  0
CLASS
  1
ACMTAPERSTANDARDJIS
  2
AcmTaperStdJIS
  3
"Amdt_StdImp|Product Description: AutoCAD Mechanical|Company: Autodesk, Inc."
 90
     1024
 91
        0
280
     0
281
     0
  0
CLASS
  1
ACMANOOTATIONVIEWSTANDARDJIS
  2
AmdtAnViewStdJIS
  3
"Amdt_StdImp|Product Description: AutoCAD Mechanical|Company: Autodesk, Inc."
 90
     1024
 91
        0
280
     0
281
     0
  0
CLASS
  1
ACMSURFSTANDARDJIS
  2
AcmSurfTextStdJIS
  3
"Amdt_StdImp|Product Description: AutoCAD Mechanical|Company: Autodesk, Inc."
 90
     1024
 91
        0
280
     0
281
     0
  0
CLASS
  1
ACMFCFSTANDARDJIS98
  2
AcmFCFStdJIS98
  3
"Amdt_StdImp|Product Description: AutoCAD Mechanical|Company: Autodesk, Inc."
 90
     1024
 91
        0
280
     0
281
     0
  0
CLASS
  1
ACAMGFILTERDAT
  2
AcAmgFilterDat
  3
"AcadM|Product Description: AutoCAD Mechanical|Company: Autodesk, Inc."
 90
     1024
 91
        0
280
     0
281
     0
  0
CLASS
  1
ACMDATAENTRYBLOCK
  2
AcmDataEntryBlock
  3
AcmSymBB|Product Description: AutoCAD Mechanical|Company: Autodesk, Inc.
 90
     1024
 91
        0
280
     0
281
     0
  0
CLASS
  1
STDPART2D
  2
AmgStdPart
  3
AmgStdPart|Product Description: AutoCAD Mechanical|Company: Autodesk, Inc.
 90
     4095
 91
        0
280
     0
281
     1
  0
CLASS
  1
ACMDATAENTRYPART
  2
AcmDataEntryPart
  3
AcmSymBB|Product Description: AutoCAD Mechanical|Company: Autodesk, Inc.
 90
     1024
 91
        0
280
     0
281
     0
  0
CLASS
  1
ACMPARTREF
  2
AcmPartRef
  3
"AcmSymBB|Product Description: AutoCAD Mechanical|Company: Autodesk, Inc."
 90
     4095
 91
        0
280
     0
281
     1
  0
CLASS
  1
ACDBSTDPARTRES_LINE
  2
AcDbStdPartRes_Line
  3
AmgStdPart|Product Description: AutoCAD Mechanical|Company: Autodesk, Inc.
 90
     1024
 91
        0
280
     0
281
     0
  0
CLASS
  1
DIMASSOC
  2
AcDbDimAssoc
  3
"AcDbDimAssoc|Product Desc:     AcDim ARX App For Dimension|Company:          Autodesk, Inc.|WEB Address:      www.autodesk.com"
 90
        0
 91
       15
280
     0
281
     0
  0
CLASS
  1
ACDBDIMENSIONRES
  2
AcDbDimensionRes
  3
AcmSymBB|Product Description: AutoCAD Mechanical|Company: Autodesk, Inc.
 90
     1024
 91
        0
280
     0
281
     0
  0
CLASS
  1
ACMSURFSYM
  2
AcmSurfaceTexture
  3
"AcmSymBB|Product Description: AutoCAD Mechanical|Company: Autodesk, Inc."
 90
     4095
 91
        0
280
     0
281
     1
  0
CLASS
  1
ACDBCIRCARCRES
  2
AcDbCircArcRes
  3
AcGrefServices
 90
     1024
 91
        0
280
     0
281
     0
  0
CLASS
  1
ACDBSTDPARTRES_ARC
  2
AcDbStdPartRes_Arc
  3
AmgStdPart|Product Description: AutoCAD Mechanical|Company: Autodesk, Inc.
 90
     1024
 91
        0
280
     0
281
     0
  0
CLASS
  1
AMDTNOTE
  2
AmdtNote
  3
"AcmSymBB|Product Description: AutoCAD Mechanical|Company: Autodesk, Inc."
 90
     4095
 91
        0
280
     0
281
     1
  0
CLASS
  1
AMDTFORMULAUPDATEDISPATCHER
  2
AmdtFormulaUpdateDispatcher
  3
AcMeServices
 90
     1024
 91
        0
280
     0
281
     0
  0
CLASS
  1
ACDBLINERES
  2
AcDbLineRes
  3
AcGrefServices
 90
     1024
 91
        0
280
     0
281
     0
  0
CLASS
  1
ACRFINSADJ
  2
AcRfInsAdjuster
  3
AcMeServices
 90
     1024
 91
        0
280
     0
281
     0
  0
CLASS
  1
ACMBOM
  2
AcmBom
  3
"AcmSymBB|Product Description: AutoCAD Mechanical|Company: Autodesk, Inc."
 90
     1024
 91
        0
280
     0
281
     0
  0
CLASS
  1
ACMBOMROW
  2
AcmBomRow
  3
"AcmSymBB|Product Description: AutoCAD Mechanical|Company: Autodesk, Inc."
 90
     1024
 91
        0
280
     0
281
     0
  0
CLASS
  1
ACMPARTLIST
  2
AcmPartList
  3
"AcmSymBB|Product Description: AutoCAD Mechanical|Company: Autodesk, Inc."
 90
     4095
 91
        0
280
     0
281
     1
  0
CLASS
  1
ACDBOPPOLYLINERES
  2
AcDbOpPolylineRes
  3
AcGrefServices
 90
     1024
 91
        0
280
     0
281
     0
  0
CLASS
  1
ACMPICKOBJ
  2
AcmPickEnt
  3
"AcmSymBB|Product Description: AutoCAD Mechanical|Company: Autodesk, Inc."
 90
     1024
 91
        0
280
     0
281
     1
  0
CLASS
  1
ACMBALLOON
  2
AcmBalloon
  3
"AcmSymBB|Product Description: AutoCAD Mechanical|Company: Autodesk, Inc."
 90
     4095
 91
        0
280
     0
281
     1
  0
CLASS
  1
ACRFATTGENMGR
  2
AcRfAttGeneralMgr
  3
AcAttribServices
 90
     1024
 91
        0
280
     0
281
     0
  0
CLASS
  1
ACRFOBJATTMGR
  2
AcRfObjAttGroupMgr
  3
AcAttribServices
 90
     1024
 91
        0
280
     0
281
     0
  0
CLASS
  1
ACRFMCADAPIATTHOLDER
  2
AcRfMCADAPIAttHolder
  3
AcAttribServices
 90
     1024
 91
        0
280
     0
281
     0
  0
CLASS
  1
AMDTSYSATTR
  2
AmdtSystemAttribute
  3
AcAttribServices
 90
     1024
 91
        0
280
     0
281
     0
  0
CLASS
  1
ACDB_BLKREFOBJECTCONTEXTDATA_CLASS
  2
AcDbBlkRefObjectContextData
  3
ObjectDBX Classes
 90
     1153
 91
        0
280
     0
281
     0
  0
CLASS
  1
AMDTEDGESTANDARDJIS
  2
AmdtEdgeStdJIS
  3
"Amdt_StdImp|Product Description: AutoCAD Mechanical|Company: Autodesk, Inc."
 90
     1024
 91
        0
280
     0
281
     0
  0
CLASS
  1
EXACXREFPANELOBJECT
  2
ExAcXREFPanelObject
  3
EXAC_ESW
 90
     1025
 91
        0
280
     0
281
     0
  0
CLASS
  1
NPOCOLLECTION
  2
AcDbImpNonPersistentObjectsCollection
  3
ObjectDBX Classes
 90
     1153
 91
        0
280
     0
281
     0
  0
CLASS
  1
ACMSTANDARDISO
  2
AcmStandardISO
  3
"Amdt_StdImp|Product Description: AutoCAD Mechanical|Company: Autodesk, Inc."
 90
     1024
 91
        1
280
     0
281
     0
  0
CLASS
  1
AMDTEDGESTANDARDISO13715
  2
AmdtEdgeStdISO13715
  3
"Amdt_StdImp|Product Description: AutoCAD Mechanical|Company: Autodesk, Inc."
 90
     1024
 91
        1
280
     0
281
     0
  0
CLASS
  1
ACMSURFSTANDARDISO2002
  2
AcmSurfTextStdISO2002
  3
"Amdt_StdImp|Product Description: AutoCAD Mechanical|Company: Autodesk, Inc."
 90
     1024
 91
        1
280
     0
281
     0
  0
CLASS
  1
ACMFCFSTANDARDISO
  2
AcmFCFStdISO
  3
"Amdt_StdImp|Product Description: AutoCAD Mechanical|Company: Autodesk, Inc."
 90
     1024
 91
        1
280
     0
281
     0
  0
CLASS
  1
ACMWELDSTANDARDISO
  2
AcmWeldingStdISO
  3
"Amdt_StdImp|Product Description: AutoCAD Mechanical|Company: Autodesk, Inc."
 90
     1024
 91
        1
280
     0
281
     0
  0
CLASS
  1
ACMIDSTANDARDISO
  2
AcmIdStdISO
  3
"Amdt_StdImp|Product Description: AutoCAD Mechanical|Company: Autodesk, Inc."
 90
     1024
 91
        1
280
     0
281
     0
  0
CLASS
  1
ACMDATUMSTANDARDISO
  2
AcmDatumStdISO
  3
"Amdt_StdImp|Product Description: AutoCAD Mechanical|Company: Autodesk, Inc."
 90
     1024
 91
        1
280
     0
281
     0
  0
CLASS
  1
ACMBOMSTANDARDISO
  2
AcmBOMStdISO
  3
"Amdt_StdImp|Product Description: AutoCAD Mechanical|Company: Autodesk, Inc."
 90
     1024
 91
        1
280
     0
281
     0
  0
CLASS
  1
ACMDETAILSTANDARDISO
  2
AmdtDetailSymStdISO
  3
"Amdt_StdImp|Product Description: AutoCAD Mechanical|Company: Autodesk, Inc."
 90
     1024
 91
        1
280
     0
281
     0
  0
CLASS
  1
ACMSECTIONSTANDARDISO2001
  2
AmdtSectionSymStdISO2001
  3
"Amdt_StdImp|Product Description: AutoCAD Mechanical|Company: Autodesk, Inc."
 90
     1024
 91
        1
280
     0
281
     0
  0
CLASS
  1
ACMCENTERLINESTANDARDISO
  2
AmdtCenterLineStdISO
  3
"Amdt_StdImp|Product Description: AutoCAD Mechanical|Company: Autodesk, Inc."
 90
     1024
 91
        1
280
     0
281
     0
  0
CLASS
  1
ACMTHREADLINESTANDARDISO
  2
AmdtThreadLineStdISO
  3
"Amdt_StdImp|Product Description: AutoCAD Mechanical|Company: Autodesk, Inc."
 90
     1024
 91
        1
280
     0
281
     0
  0
CLASS
  1
ACMNOTESTANDARDISO
  2
AmdtNoteStdISO
  3
"Amdt_StdImp|Product Description: AutoCAD Mechanical|Company: Autodesk, Inc."
 90
     1024
 91
        1
280
     0
281
     0
  0
CLASS
  1
ACMTAPERSTANDARDISO
  2
AcmTaperStdISO
  3
"Amdt_StdImp|Product Description: AutoCAD Mechanical|Company: Autodesk, Inc."
 90
     1024
 91
        1
280
     0
281
     0
  0
CLASS
  1
ACMANOOTATIONVIEWSTANDARDISO
  2
AmdtAnViewStdISO
  3
"Amdt_StdImp|Product Description: AutoCAD Mechanical|Company: Autodesk, Inc."
 90
     1024
 91
        1
280
     0
281
     0
  0
CLASS
  1
ACAMGHOLECHARTSTDISO
  2
AcAmgHoleChartStdISO
  3
AmgDim|Product Description: AutoCAD Mechanical|Company: Autodesk, Inc.
 90
     1024
 91
        1
280
     0
281
     0
  0
ENDSEC
  0
SECTION
  2
TABLES
  0
TABLE
  2
VPORT
  5
8
330
0
100
AcDbSymbolTable
 70
     1
  0
VPORT
  5
851A
330
8
100
AcDbSymbolTableRecord
100
AcDbViewportTableRecord
  2
*Active
 70
     0
 10
0.0
 20
0.0
 11
1.0
 21
1.0
 12
1073.752573131592
 22
1111.343998368066
 13
0.0
 23
0.0
 14
10.0
 24
10.0
 15
40.0
 25
40.0
 16
0.0
 26
0.0
 36
1.0
 17
0.0
 27
0.0
 37
0.0
 40
520.5595652605201
 41
1.285714285714285
 42
50.0
 43
0.0
 44
0.0
 50
0.0
 51
0.0
 71
    16
 72
 20000
 73
     1
 74
     0
 75
     0
 76
     0
 77
     0
 78
     0
281
     0
 65
     0
110
0.0
120
0.0
130
0.0
111
1.0
121
0.0
131
0.0
112
0.0
122
1.0
132
0.0
 79
     0
146
0.0
348
853A
 60
     3
 61
     5
292
     1
282
     1
141
0.0
142
0.0
 63
   250
421
  3355443
  0
ENDTAB
  0
TABLE
  2
LTYPE
  5
5
330
0
100
AcDbSymbolTable
 70
    20
  0
LTYPE
  5
12
330
5
100
AcDbSymbolTableRecord
100
AcDbLinetypeTableRecord
  2
BYBLOCK
 70
     0
  3

 72
    65
 73
     0
 40
0.0
  0
LTYPE
  5
13
330
5
100
AcDbSymbolTableRecord
100
AcDbLinetypeTableRecord
  2
BYLAYER
 70
     0
  3

 72
    65
 73
     0
 40
0.0
  0
LTYPE
  5
14
330
5
100
AcDbSymbolTableRecord
100
AcDbLinetypeTableRecord
  2
CONTINUOUS
 70
     0
  3
Solid line
 72
    65
 73
     0
 40
0.0
  0
LTYPE
  5
22
330
5
100
AcDbSymbolTableRecord
100
AcDbLinetypeTableRecord
  2
CENTER
 70
     0
  3
__ . __
 72
    65
 73
     4
 40
7.0
 49
4.0
 74
     0
 49
-1.0
 74
     0
 49
1.0
 74
     0
 49
-1.0
 74
     0
  0
LTYPE
  5
24
330
5
100
AcDbSymbolTableRecord
100
AcDbLinetypeTableRecord
  2
HIDDEN
 70
     0
  3
Hidden __ __ __ __ __ __ __ __ __ __ __ __ __ _
 72
    65
 73
     2
 40
9.524999999999996
 49
6.349999999999998
 74
     0
 49
-3.174999999999998
 74
     0
  0
LTYPE
  5
85A2
330
5
100
AcDbSymbolTableRecord
100
AcDbLinetypeTableRecord
  2
PHANTOM2
 70
     0
  3
Phantom (.5x) ___ _ _ ___ _ _ ___ _ _ ___ _ _
 72
    65
 73
     6
 40
1.25
 49
0.625
 74
     0
 49
-0.125
 74
     0
 49
0.125
 74
     0
 49
-0.125
 74
     0
 49
0.125
 74
     0
 49
-0.125
 74
     0
  0
LTYPE
  5
85D7
330
5
100
AcDbSymbolTableRecord
100
AcDbLinetypeTableRecord
  2
AM_ISO02W050
 70
     0
  3
__ __ __ __ __ __ __ __ __ __ __ __ __ __ __
 72
    65
 73
     2
 40
7.5
 49
6.0
 74
     0
 49
-1.5
 74
     0
  0
LTYPE
  5
85D8
330
5
100
AcDbSymbolTableRecord
100
AcDbLinetypeTableRecord
  2
AM_ISO08W050
 70
     0
  3
____ . ____ . ____ . ____ . ____ . ____ . ____
 72
    65
 73
     4
 40
18.0
 49
12.0
 74
     0
 49
-1.5
 74
     0
 49
3.0
 74
     0
 49
-1.5
 74
     0
  0
LTYPE
  5
85D9
330
5
100
AcDbSymbolTableRecord
100
AcDbLinetypeTableRecord
  2
AM_ISO09W050
 70
     0
  3
_____ . . _____ . . _____ . . ____ .. ____
 72
    65
 73
     6
 40
22.5
 49
12.0
 74
     0
 49
-1.5
 74
     0
 49
3.0
 74
     0
 49
-1.5
 74
     0
 49
3.0
 74
     0
 49
-1.5
 74
     0
  0
LTYPE
  5
85DA
330
5
100
AcDbSymbolTableRecord
100
AcDbLinetypeTableRecord
  2
Amconstr
 70
     0
  3
_______________________
 72
    65
 73
     2
 40
9999.0
 49
9999.0
 74
     0
 49
0.0
 74
     0
  0
LTYPE
  5
85DB
330
5
100
AcDbSymbolTableRecord
100
AcDbLinetypeTableRecord
  2
AM_ISO08W050x2
 70
     0
  3
__ . __ . __ . __ . __ . __
 72
    65
 73
     4
 40
9.0
 49
6.0
 74
     0
 49
-0.75
 74
     0
 49
1.5
 74
     0
 49
-0.75
 74
     0
  0
LTYPE
  5
85DC
330
5
100
AcDbSymbolTableRecord
100
AcDbLinetypeTableRecord
  2
AM_ISO02W050x2
 70
     0
  3
 _ _ _ _ _ _ _ _ _ _ _ _
 72
    65
 73
     2
 40
3.75
 49
3.0
 74
     0
 49
-0.75
 74
     0
  0
LTYPE
  5
85DF
330
5
100
AcDbSymbolTableRecord
100
AcDbLinetypeTableRecord
  2
Amzigzag
 70
     0
  3
/\/-/\/-/\/-/\/-/\/-/\/
 72
    65
 73
     2
 40
11.0001
 49
0.0001
 74
     4
 75
   136
340
85DE
 46
0.04
 50
0.0
 44
0.0
 45
0.0
 49
-11.0
 74
     0
  0
LTYPE
  5
87DD
330
5
100
AcDbSymbolTableRecord
100
AcDbLinetypeTableRecord
  2
ACJISWELD
 70
     0
  3
_ _ _ _ _
 72
    65
 73
     2
 40
2.0
 49
2.0
 74
     0
 49
-1.0
 74
     0
  0
LTYPE
  5
E8E6
330
5
100
AcDbSymbolTableRecord
100
AcDbLinetypeTableRecord
  2
ACISOWELD
 70
     0
  3
_ _ _ _ _
 72
    65
 73
     2
 40
2.0
 49
2.0
 74
     0
 49
-1.0
 74
     0
  0
LTYPE
  5
E8E7
330
5
100
AcDbSymbolTableRecord
100
AcDbLinetypeTableRecord
  2
ACISOTGB
 70
     0
  3
__ . . __ . .
 72
    65
 73
     6
 40
9.0
 49
4.0
 74
     0
 49
-1.0
 74
     0
 49
1.0
 74
     0
 49
-1.0
 74
     0
 49
1.0
 74
     0
 49
-1.0
 74
     0
  0
LTYPE
  5
E8E8
330
5
100
AcDbSymbolTableRecord
100
AcDbLinetypeTableRecord
  2
ACISOTGL
 70
     0
  3
_ _ _ _ _
 72
    65
 73
     2
 40
3.0
 49
2.0
 74
     0
 49
-1.0
 74
     0
  0
ENDTAB
  0
TABLE
  2
LAYER
  5
2
102
{ACAD_XDICTIONARY
360
8884
102
}
330
0
100
AcDbSymbolTable
 70
    11
  0
LAYER
  5
F
102
{ACAD_XDICTIONARY
360
860E
102
}
330
2
100
AcDbSymbolTableRecord
100
AcDbLayerTableRecord
  2
0
 70
     0
 62
     3
  6
CONTINUOUS
370
    13
390
28B
347
852C
  0
LAYER
  5
AC5
330
2
100
AcDbSymbolTableRecord
100
AcDbLayerTableRecord
  2
Defpoints
 70
     0
 62
     7
  6
CONTINUOUS
290
     0
370
    25
390
28B
347
852C
  0
LAYER
  5
8811
102
{ACAD_XDICTIONARY
360
8812
102
}
330
2
100
AcDbSymbolTableRecord
100
AcDbLayerTableRecord
  2
AM_BOR 図面枠
 70
     0
 62
     2
  6
CONTINUOUS
370
    13
390
28B
347
852C
1001
AcAecLayerStandard
1000

1000

  0
LAYER
  5
8858
330
2
100
AcDbSymbolTableRecord
100
AcDbLayerTableRecord
  2
AM_0 外形線1
 70
     0
 62
     7
  6
CONTINUOUS
370
    25
390
28B
347
852C
  0
LAYER
  5
8CFB
330
2
100
AcDbSymbolTableRecord
100
AcDbLayerTableRecord
  2
AM_5 寸法線
 70
     0
 62
     3
  6
CONTINUOUS
370
    13
390
28B
347
852C
1001
AcAecLayerStandard
1000

1000

  0
LAYER
  5
8EE3
330
2
100
AcDbSymbolTableRecord
100
AcDbLayerTableRecord
  2
AM_4 細線
 70
     0
 62
     4
  6
CONTINUOUS
370
    13
390
28B
347
852C
1001
AcAecLayerStandard
1000

1000

  0
LAYER
  5
8EE9
330
2
100
AcDbSymbolTableRecord
100
AcDbLayerTableRecord
  2
AM_7 中心線
 70
     0
 62
     1
  6
AM_ISO08W050
370
    13
390
28B
347
852C
1001
AcAecLayerStandard
1000

1000

  0
LAYER
  5
8EEB
330
2
100
AcDbSymbolTableRecord
100
AcDbLayerTableRecord
  2
AM_3 隠れ線
 70
     0
 62
     8
  6
ACJISWELD
370
    13
390
28B
347
852C
1001
AcAecLayerStandard
1000

1000

  0
LAYER
  5
9E08
330
2
100
AcDbSymbolTableRecord
100
AcDbLayerTableRecord
  2
AM_PAREF
 70
     0
 62
     4
  6
CONTINUOUS
290
     0
370
    25
390
28B
347
852C
1001
AcAecLayerStandard
1000

1000

  0
LAYER
  5
A01D
330
2
100
AcDbSymbolTableRecord
100
AcDbLayerTableRecord
  2
AM_6 文字
 70
     0
 62
     2
  6
CONTINUOUS
370
    13
390
28B
347
852C
1001
AcAecLayerStandard
1000

1000

  0
LAYER
  5
E327
330
2
100
AcDbSymbolTableRecord
100
AcDbLayerTableRecord
  2
AM_11 想像線
 70
     0
 62
     5
  6
AM_ISO09W050
370
    13
390
28B
347
852C
1001
AcAecLayerStandard
1000

1000

  0
ENDTAB
  0
TABLE
  2
STYLE
  5
3
330
0
100
AcDbSymbolTable
 70
    11
  0
STYLE
  5
10
330
3
100
AcDbSymbolTableRecord
100
AcDbTextStyleTableRecord
  2
STANDARD
 70
     0
 40
0.0
 41
1.0
 50
0.0
 71
     0
 42
25.0
  3
ISOCP.SHX
  4
EXTFONT.SHX
  0
STYLE
  5
306
330
3
100
AcDbSymbolTableRecord
100
AcDbTextStyleTableRecord
  2
SEISA
 70
     0
 40
0.0
 41
0.9
 50
0.0
 71
     0
 42
25.0
  3
romans.shx
  4
extfont2.shx
  0
STYLE
  5
85DE
330
3
100
AcDbSymbolTableRecord
100
AcDbTextStyleTableRecord
  2

 70
     1
 40
0.0
 41
1.0
 50
0.0
 71
     0
 42
14.0
  3
genltshp.shx
  4

  0
STYLE
  5
E8D6
330
3
100
AcDbSymbolTableRecord
100
AcDbTextStyleTableRecord
  2
ACISOTS
 70
     0
 40
1.0
 41
1.0
 50
0.0
 71
     0
 42
25.0
  3
isocp.shx
  4
extfont.shx
  0
STYLE
  5
E8E5
330
3
100
AcDbSymbolTableRecord
100
AcDbTextStyleTableRecord
  2
ACISOGDT
 70
     0
 40
0.0
 41
1.0
 50
0.0
 71
     0
 42
25.0
  3
amgdt.shx
  4

  0
ENDTAB
  0
TABLE
  2
VIEW
  5
6
330
0
100
AcDbSymbolTable
 70
     6
  0
VIEW
  5
8BDE
330
6
100
AcDbSymbolTableRecord
100
AcDbViewTableRecord
  2
AM_VIEW1
 70
     0
 40
630.2158273381295
 10
420.0000001914338
 20
872.8920867003171
 41
840.0
 11
0.0
 21
0.0
 31
1.0
 12
0.0
 22
0.0
 32
0.0
 42
50.0
 43
0.0
 44
0.0
 50
0.0
 71
    16
281
     0
 72
     0
 73
     0
  0
VIEW
  5
8BDF
330
6
100
AcDbSymbolTableRecord
100
AcDbViewTableRecord
  2
AM_VIEW2
 70
     0
 40
630.2158273381295
 10
1260.000000191434
 20
872.8920867003171
 41
840.0
 11
0.0
 21
0.0
 31
1.0
 12
0.0
 22
0.0
 32
0.0
 42
50.0
 43
0.0
 44
0.0
 50
0.0
 71
    16
281
     0
 72
     0
 73
     0
  0
VIEW
  5
8BE0
330
6
100
AcDbSymbolTableRecord
100
AcDbViewTableRecord
  2
AM_VIEW3
 70
     0
 40
630.2158273381295
 10
420.0000001914338
 20
315.1079140384468
 41
840.0
 11
0.0
 21
0.0
 31
1.0
 12
0.0
 22
0.0
 32
0.0
 42
50.0
 43
0.0
 44
0.0
 50
0.0
 71
    16
281
     0
 72
     0
 73
     0
  0
VIEW
  5
8BE1
330
6
100
AcDbSymbolTableRecord
100
AcDbViewTableRecord
  2
AM_VIEW4
 70
     0
 40
630.2158273381295
 10
1260.000000191434
 20
315.1079140384468
 41
840.0
 11
0.0
 21
0.0
 31
1.0
 12
0.0
 22
0.0
 32
0.0
 42
50.0
 43
0.0
 44
0.0
 50
0.0
 71
    16
281
     0
 72
     0
 73
     0
  0
VIEW
  5
8BE2
330
6
100
AcDbSymbolTableRecord
100
AcDbViewTableRecord
  2
AM_VIEW5
 70
     0
 40
630.2158273381293
 10
840.0000001914339
 20
594.000000369382
 41
840.0
 11
0.0
 21
0.0
 31
1.0
 12
0.0
 22
0.0
 32
0.0
 42
50.0
 43
0.0
 44
0.0
 50
0.0
 71
    16
281
     0
 72
     0
 73
     0
  0
VIEW
  5
8BE3
330
6
100
AcDbSymbolTableRecord
100
AcDbViewTableRecord
  2
AM_VIEW6
 70
     0
 40
1260.419050359712
 10
840.0000001914339
 20
594.0000003693818
 41
1679.9832
 11
0.0
 21
0.0
 31
1.0
 12
0.0
 22
0.0
 32
0.0
 42
50.0
 43
0.0
 44
0.0
 50
0.0
 71
    16
281
     0
 72
     0
 73
     0
  0
ENDTAB
  0
TABLE
  2
UCS
  5
7
330
0
100
AcDbSymbolTable
 70
     0
  0
ENDTAB
  0
TABLE
  2
APPID
  5
9
330
0
100
AcDbSymbolTable
 70
   401
  0
APPID
  5
11
330
9
100
AcDbSymbolTableRecord
100
AcDbRegAppTableRecord
  2
ACAD
 70
     0
  0
APPID
  5
7519
330
9
100
AcDbSymbolTableRecord
100
AcDbRegAppTableRecord
  2
ACAD_PSEXT
 70
     0
  0
APPID
  5
8569
330
9
100
AcDbSymbolTableRecord
100
AcDbRegAppTableRecord
  2
ACAD_MLEADERVER
 70
     0
  0
APPID
  5
8575
330
9
100
AcDbSymbolTableRecord
100
AcDbRegAppTableRecord
  2
MCAD_NO_VIS
 70
     0
  0
APPID
  5
8576
330
9
100
AcDbSymbolTableRecord
100
AcDbRegAppTableRecord
  2
ACAD_TEMP_GRAPHIC
 70
     0
  0
APPID
  5
85A4
330
9
100
AcDbSymbolTableRecord
100
AcDbRegAppTableRecord
  2
AD_DRAW
 70
     0
  0
APPID
  5
85A7
330
9
100
AcDbSymbolTableRecord
100
AcDbRegAppTableRecord
  2
ACATTRIBSERVICES
 70
     0
  0
APPID
  5
85C8
330
9
100
AcDbSymbolTableRecord
100
AcDbRegAppTableRecord
  2
DESIGNERASSEMBLIES
 70
     0
  0
APPID
  5
85CE
330
9
100
AcDbSymbolTableRecord
100
AcDbRegAppTableRecord
  2
ACADM_DIM_EDIT
 70
     0
  0
APPID
  5
85CF
330
9
100
AcDbSymbolTableRecord
100
AcDbRegAppTableRecord
  2
AMDT_DM_ADJ
 70
     0
  0
APPID
  5
860A
330
9
100
AcDbSymbolTableRecord
100
AcDbRegAppTableRecord
  2
GENIUS_GENSCREG_15
 70
     0
  0
APPID
  5
860B
330
9
100
AcDbSymbolTableRecord
100
AcDbRegAppTableRecord
  2
GENIUS_GENODEF_13
 70
     0
  0
APPID
  5
860C
330
9
100
AcDbSymbolTableRecord
100
AcDbRegAppTableRecord
  2
GENIUS_GENOBJ-N-SDF_13
 70
     0
  0
APPID
  5
864D
330
9
100
AcDbSymbolTableRecord
100
AcDbRegAppTableRecord
  2
ACAD_DSTYLE_DIMARC_LENGTH_SYMBOL
 70
     0
  0
APPID
  5
864E
330
9
100
AcDbSymbolTableRecord
100
AcDbRegAppTableRecord
  2
ACAD_DSTYLE_DIMJOGGED_JOGANGLE_SYMBOL
 70
     0
  0
APPID
  5
864F
330
9
100
AcDbSymbolTableRecord
100
AcDbRegAppTableRecord
  2
AcadAnnoPO
 70
     0
  0
APPID
  5
8650
330
9
100
AcDbSymbolTableRecord
100
AcDbRegAppTableRecord
  2
ACAD_DSTYLE_DIMTEXT_FILL
 70
     0
  0
APPID
  5
8651
330
9
100
AcDbSymbolTableRecord
100
AcDbRegAppTableRecord
  2
ACAD_EXEMPT_FROM_CAD_STANDARDS
 70
     0
  0
APPID
  5
8652
330
9
100
AcDbSymbolTableRecord
100
AcDbRegAppTableRecord
  2
AcAecLayerStandard
 70
     0
  0
APPID
  5
8653
330
9
100
AcDbSymbolTableRecord
100
AcDbRegAppTableRecord
  2
GENIUS_GENOBJ-N-CEN_13
 70
     0
  0
APPID
  5
8654
330
9
100
AcDbSymbolTableRecord
100
AcDbRegAppTableRecord
  2
GENIUS_GENCEN_19
 70
     0
  0
APPID
  5
8655
330
9
100
AcDbSymbolTableRecord
100
AcDbRegAppTableRecord
  2
ACAD_DSTYLE_DIMINSPECT
 70
     0
  0
APPID
  5
8656
330
9
100
AcDbSymbolTableRecord
100
AcDbRegAppTableRecord
  2
GENIUS_AMGTXT_16
 70
     0
  0
APPID
  5
8657
330
9
100
AcDbSymbolTableRecord
100
AcDbRegAppTableRecord
  2
GENIUS_GENFIL_13
 70
     0
  0
APPID
  5
8658
330
9
100
AcDbSymbolTableRecord
100
AcDbRegAppTableRecord
  2
GENIUS_GENOLIS_13
 70
     0
  0
APPID
  5
8659
330
9
100
AcDbSymbolTableRecord
100
AcDbRegAppTableRecord
  2
GENIUS_GENOBJ-N-CHA_13
 70
     0
  0
APPID
  5
865A
330
9
100
AcDbSymbolTableRecord
100
AcDbRegAppTableRecord
  2
GENIUS_GENOENT_13
 70
     0
  0
APPID
  5
865B
330
9
100
AcDbSymbolTableRecord
100
AcDbRegAppTableRecord
  2
GENIUS_GENOREF_13
 70
     0
  0
APPID
  5
865C
330
9
100
AcDbSymbolTableRecord
100
AcDbRegAppTableRecord
  2
GENIUS_GENOBJ-N-FIL_13
 70
     0
  0
APPID
  5
865D
330
9
100
AcDbSymbolTableRecord
100
AcDbRegAppTableRecord
  2
GEVID1208829536
 70
     0
  0
APPID
  5
865E
330
9
100
AcDbSymbolTableRecord
100
AcDbRegAppTableRecord
  2
GEVDC
 70
     0
  0
APPID
  5
865F
330
9
100
AcDbSymbolTableRecord
100
AcDbRegAppTableRecord
  2
GEVRADREF
 70
     0
  0
APPID
  5
8660
330
9
100
AcDbSymbolTableRecord
100
AcDbRegAppTableRecord
  2
GENIUS_GENBH_13
 70
     0
  0
APPID
  5
8661
330
9
100
AcDbSymbolTableRecord
100
AcDbRegAppTableRecord
  2
GENIUS_GENOBJ-NBEHI-BHF_13
 70
     0
  0
APPID
  5
8662
330
9
100
AcDbSymbolTableRecord
100
AcDbRegAppTableRecord
  2
GENIUS_GENOBJ-NBEHI-BHB_13
 70
     0
  0
APPID
  5
8663
330
9
100
AcDbSymbolTableRecord
100
AcDbRegAppTableRecord
  2
GEVID1208829537
 70
     0
  0
APPID
  5
8664
330
9
100
AcDbSymbolTableRecord
100
AcDbRegAppTableRecord
  2
ACAD_DSTYLE_DIMJAG
 70
     0
  0
APPID
  5
8665
330
9
100
AcDbSymbolTableRecord
100
AcDbRegAppTableRecord
  2
ACAD_DSTYLE_DIMTALN
 70
     0
  0
APPID
  5
8666
330
9
100
AcDbSymbolTableRecord
100
AcDbRegAppTableRecord
  2
AMG_2DHIDE
 70
     0
  0
APPID
  5
8667
330
9
100
AcDbSymbolTableRecord
100
AcDbRegAppTableRecord
  2
AMG_2DSTRUCT_BTR
 70
     0
  0
APPID
  5
8668
330
9
100
AcDbSymbolTableRecord
100
AcDbRegAppTableRecord
  2
GEVID1208845772
 70
     0
  0
APPID
  5
8669
330
9
100
AcDbSymbolTableRecord
100
AcDbRegAppTableRecord
  2
GEVID1208845773
 70
     0
  0
APPID
  5
866A
330
9
100
AcDbSymbolTableRecord
100
AcDbRegAppTableRecord
  2
ACADM_2DVIEW_IGN_NOTIFY
 70
     0
  0
APPID
  5
866B
330
9
100
AcDbSymbolTableRecord
100
AcDbRegAppTableRecord
  2
GEVID1208845774
 70
     0
  0
APPID
  5
866C
330
9
100
AcDbSymbolTableRecord
100
AcDbRegAppTableRecord
  2
GEVID1208845775
 70
     0
  0
APPID
  5
866D
330
9
100
AcDbSymbolTableRecord
100
AcDbRegAppTableRecord
  2
GEVID1208845776
 70
     0
  0
APPID
  5
866E
330
9
100
AcDbSymbolTableRecord
100
AcDbRegAppTableRecord
  2
GEVID1208845777
 70
     0
  0
APPID
  5
866F
330
9
100
AcDbSymbolTableRecord
100
AcDbRegAppTableRecord
  2
GEVCON
 70
     0
  0
APPID
  5
8670
330
9
100
AcDbSymbolTableRecord
100
AcDbRegAppTableRecord
  2
GENIUS_GENOBJ-F-SCPASSM_13
 70
     0
  0
APPID
  5
8671
330
9
100
AcDbSymbolTableRecord
100
AcDbRegAppTableRecord
  2
GEVID1208845778
 70
     0
  0
APPID
  5
8672
330
9
100
AcDbSymbolTableRecord
100
AcDbRegAppTableRecord
  2
GEVID1208845779
 70
     0
  0
APPID
  5
8673
330
9
100
AcDbSymbolTableRecord
100
AcDbRegAppTableRecord
  2
GEVID1208845780
 70
     0
  0
APPID
  5
8674
330
9
100
AcDbSymbolTableRecord
100
AcDbRegAppTableRecord
  2
GEVID1208845781
 70
     0
  0
APPID
  5
8675
330
9
100
AcDbSymbolTableRecord
100
AcDbRegAppTableRecord
  2
GEVID1208845782
 70
     0
  0
APPID
  5
8676
330
9
100
AcDbSymbolTableRecord
100
AcDbRegAppTableRecord
  2
GEVID1208845783
 70
     0
  0
APPID
  5
8677
330
9
100
AcDbSymbolTableRecord
100
AcDbRegAppTableRecord
  2
GEVID1208845784
 70
     0
  0
APPID
  5
8678
330
9
100
AcDbSymbolTableRecord
100
AcDbRegAppTableRecord
  2
GEVID1208845785
 70
     0
  0
APPID
  5
8679
330
9
100
AcDbSymbolTableRecord
100
AcDbRegAppTableRecord
  2
GEVID1208845787
 70
     0
  0
APPID
  5
867A
330
9
100
AcDbSymbolTableRecord
100
AcDbRegAppTableRecord
  2
GEVID1208845788
 70
     0
  0
APPID
  5
867B
330
9
100
AcDbSymbolTableRecord
100
AcDbRegAppTableRecord
  2
GEVID1208845789
 70
     0
  0
APPID
  5
867C
330
9
100
AcDbSymbolTableRecord
100
AcDbRegAppTableRecord
  2
GEVID1208845790
 70
     0
  0
APPID
  5
867D
330
9
100
AcDbSymbolTableRecord
100
AcDbRegAppTableRecord
  2
GEVID1208845791
 70
     0
  0
APPID
  5
867E
330
9
100
AcDbSymbolTableRecord
100
AcDbRegAppTableRecord
  2
GEVID1208845792
 70
     0
  0
APPID
  5
867F
330
9
100
AcDbSymbolTableRecord
100
AcDbRegAppTableRecord
  2
GEVID1208845793
 70
     0
  0
APPID
  5
8680
330
9
100
AcDbSymbolTableRecord
100
AcDbRegAppTableRecord
  2
GEVID1208845794
 70
     0
  0
APPID
  5
8681
330
9
100
AcDbSymbolTableRecord
100
AcDbRegAppTableRecord
  2
GEVID1208845795
 70
     0
  0
APPID
  5
8682
330
9
100
AcDbSymbolTableRecord
100
AcDbRegAppTableRecord
  2
GEVID1208845796
 70
     0
  0
APPID
  5
8683
330
9
100
AcDbSymbolTableRecord
100
AcDbRegAppTableRecord
  2
GEVID1208845797
 70
     0
  0
APPID
  5
8684
330
9
100
AcDbSymbolTableRecord
100
AcDbRegAppTableRecord
  2
GEVID1208845798
 70
     0
  0
APPID
  5
8685
330
9
100
AcDbSymbolTableRecord
100
AcDbRegAppTableRecord
  2
GEVID1208845799
 70
     0
  0
APPID
  5
8686
330
9
100
AcDbSymbolTableRecord
100
AcDbRegAppTableRecord
  2
GEVID1208845800
 70
     0
  0
APPID
  5
8687
330
9
100
AcDbSymbolTableRecord
100
AcDbRegAppTableRecord
  2
GEVID1208845801
 70
     0
  0
APPID
  5
8688
330
9
100
AcDbSymbolTableRecord
100
AcDbRegAppTableRecord
  2
GEVID1208845802
 70
     0
  0
APPID
  5
8689
330
9
100
AcDbSymbolTableRecord
100
AcDbRegAppTableRecord
  2
GENIUS_GENOBJ-N-DIM_13
 70
     0
  0
APPID
  5
868A
330
9
100
AcDbSymbolTableRecord
100
AcDbRegAppTableRecord
  2
GENIUS_GENDIM_13
 70
     0
  0
APPID
  5
868B
330
9
100
AcDbSymbolTableRecord
100
AcDbRegAppTableRecord
  2
GENIUS_GENDIMSH_14
 70
     0
  0
APPID
  5
868C
330
9
100
AcDbSymbolTableRecord
100
AcDbRegAppTableRecord
  2
GEVID1208845803
 70
     0
  0
APPID
  5
868D
330
9
100
AcDbSymbolTableRecord
100
AcDbRegAppTableRecord
  2
GEVID1208845804
 70
     0
  0
APPID
  5
868E
330
9
100
AcDbSymbolTableRecord
100
AcDbRegAppTableRecord
  2
GEVID1208845805
 70
     0
  0
APPID
  5
868F
330
9
100
AcDbSymbolTableRecord
100
AcDbRegAppTableRecord
  2
GEVID1208845806
 70
     0
  0
APPID
  5
8690
330
9
100
AcDbSymbolTableRecord
100
AcDbRegAppTableRecord
  2
GEVID1208845807
 70
     0
  0
APPID
  5
8691
330
9
100
AcDbSymbolTableRecord
100
AcDbRegAppTableRecord
  2
GEVID1208845808
 70
     0
  0
APPID
  5
8692
330
9
100
AcDbSymbolTableRecord
100
AcDbRegAppTableRecord
  2
GEVID1208845809
 70
     0
  0
APPID
  5
8693
330
9
100
AcDbSymbolTableRecord
100
AcDbRegAppTableRecord
  2
GEVID1208845810
 70
     0
  0
APPID
  5
8694
330
9
100
AcDbSymbolTableRecord
100
AcDbRegAppTableRecord
  2
GEVID1208845811
 70
     0
  0
APPID
  5
8695
330
9
100
AcDbSymbolTableRecord
100
AcDbRegAppTableRecord
  2
GEVID1208845813
 70
     0
  0
APPID
  5
8696
330
9
100
AcDbSymbolTableRecord
100
AcDbRegAppTableRecord
  2
GEVID1208845814
 70
     0
  0
APPID
  5
8697
330
9
100
AcDbSymbolTableRecord
100
AcDbRegAppTableRecord
  2
GEVID1208845815
 70
     0
  0
APPID
  5
8698
330
9
100
AcDbSymbolTableRecord
100
AcDbRegAppTableRecord
  2
GEVID1208845816
 70
     0
  0
APPID
  5
8699
330
9
100
AcDbSymbolTableRecord
100
AcDbRegAppTableRecord
  2
GEVID1208845817
 70
     0
  0
APPID
  5
869A
330
9
100
AcDbSymbolTableRecord
100
AcDbRegAppTableRecord
  2
GEVID1208845818
 70
     0
  0
APPID
  5
869B
330
9
100
AcDbSymbolTableRecord
100
AcDbRegAppTableRecord
  2
GEVID1208845819
 70
     0
  0
APPID
  5
869C
330
9
100
AcDbSymbolTableRecord
100
AcDbRegAppTableRecord
  2
GEVID1208845820
 70
     0
  0
APPID
  5
869D
330
9
100
AcDbSymbolTableRecord
100
AcDbRegAppTableRecord
  2
GENIUS_GENOBJ-F-SHCL_13
 70
     0
  0
APPID
  5
869E
330
9
100
AcDbSymbolTableRecord
100
AcDbRegAppTableRecord
  2
GENIUS_GEFMSH_13
 70
     0
  0
APPID
  5
869F
330
9
100
AcDbSymbolTableRecord
100
AcDbRegAppTableRecord
  2
GENIUS_GENOBJ-F-SHCA_13
 70
     0
  0
APPID
  5
86A0
330
9
100
AcDbSymbolTableRecord
100
AcDbRegAppTableRecord
  2
GENIUS_GEFSH_13
 70
     0
  0
APPID
  5
86A1
330
9
100
AcDbSymbolTableRecord
100
AcDbRegAppTableRecord
  2
GENIUS_GEFSHP_13
 70
     0
  0
APPID
  5
86A2
330
9
100
AcDbSymbolTableRecord
100
AcDbRegAppTableRecord
  2
GENIUS_GEFSHP0_13
 70
     0
  0
APPID
  5
86A3
330
9
100
AcDbSymbolTableRecord
100
AcDbRegAppTableRecord
  2
GENIUS_GEFSH0_13
 70
     0
  0
APPID
  5
86A4
330
9
100
AcDbSymbolTableRecord
100
AcDbRegAppTableRecord
  2
GENIUS_GEFSHP1_13
 70
     0
  0
APPID
  5
86A5
330
9
100
AcDbSymbolTableRecord
100
AcDbRegAppTableRecord
  2
GENIUS_GEFSH1_13
 70
     0
  0
APPID
  5
86A6
330
9
100
AcDbSymbolTableRecord
100
AcDbRegAppTableRecord
  2
GEVID1208866337
 70
     0
  0
APPID
  5
86A7
330
9
100
AcDbSymbolTableRecord
100
AcDbRegAppTableRecord
  2
GEVID1208866338
 70
     0
  0
APPID
  5
86A8
330
9
100
AcDbSymbolTableRecord
100
AcDbRegAppTableRecord
  2
GEVID1208866339
 70
     0
  0
APPID
  5
86A9
330
9
100
AcDbSymbolTableRecord
100
AcDbRegAppTableRecord
  2
GEVID1208866340
 70
     0
  0
APPID
  5
86AA
330
9
100
AcDbSymbolTableRecord
100
AcDbRegAppTableRecord
  2
GEVID1208866341
 70
     0
  0
APPID
  5
86AB
330
9
100
AcDbSymbolTableRecord
100
AcDbRegAppTableRecord
  2
GEVID1208866342
 70
     0
  0
APPID
  5
86AC
330
9
100
AcDbSymbolTableRecord
100
AcDbRegAppTableRecord
  2
GEVID1208913836
 70
     0
  0
APPID
  5
86AD
330
9
100
AcDbSymbolTableRecord
100
AcDbRegAppTableRecord
  2
GEVID1208913837
 70
     0
  0
APPID
  5
86AE
330
9
100
AcDbSymbolTableRecord
100
AcDbRegAppTableRecord
  2
GEVID1208913838
 70
     0
  0
APPID
  5
86AF
330
9
100
AcDbSymbolTableRecord
100
AcDbRegAppTableRecord
  2
GEVID1208913839
 70
     0
  0
APPID
  5
86B0
330
9
100
AcDbSymbolTableRecord
100
AcDbRegAppTableRecord
  2
GENIUS_GENDTOL_13
 70
     0
  0
APPID
  5
86B1
330
9
100
AcDbSymbolTableRecord
100
AcDbRegAppTableRecord
  2
GEVID1208928889
 70
     0
  0
APPID
  5
86B2
330
9
100
AcDbSymbolTableRecord
100
AcDbRegAppTableRecord
  2
GEVID1208928890
 70
     0
  0
APPID
  5
86B3
330
9
100
AcDbSymbolTableRecord
100
AcDbRegAppTableRecord
  2
GEVID1208928891
 70
     0
  0
APPID
  5
86B4
330
9
100
AcDbSymbolTableRecord
100
AcDbRegAppTableRecord
  2
GEVID1208928892
 70
     0
  0
APPID
  5
86B5
330
9
100
AcDbSymbolTableRecord
100
AcDbRegAppTableRecord
  2
GEVID1208933827
 70
     0
  0
APPID
  5
86B6
330
9
100
AcDbSymbolTableRecord
100
AcDbRegAppTableRecord
  2
GEVID1208933829
 70
     0
  0
APPID
  5
86B7
330
9
100
AcDbSymbolTableRecord
100
AcDbRegAppTableRecord
  2
GEVID1208933830
 70
     0
  0
APPID
  5
86B8
330
9
100
AcDbSymbolTableRecord
100
AcDbRegAppTableRecord
  2
GEVID1208933831
 70
     0
  0
APPID
  5
86B9
330
9
100
AcDbSymbolTableRecord
100
AcDbRegAppTableRecord
  2
GEVID1208933832
 70
     0
  0
APPID
  5
86BA
330
9
100
AcDbSymbolTableRecord
100
AcDbRegAppTableRecord
  2
GEVID1208933833
 70
     0
  0
APPID
  5
86BB
330
9
100
AcDbSymbolTableRecord
100
AcDbRegAppTableRecord
  2
GEVID1208933834
 70
     0
  0
APPID
  5
86BC
330
9
100
AcDbSymbolTableRecord
100
AcDbRegAppTableRecord
  2
GEVID1208933835
 70
     0
  0
APPID
  5
86BD
330
9
100
AcDbSymbolTableRecord
100
AcDbRegAppTableRecord
  2
GEVID1208933836
 70
     0
  0
APPID
  5
86BE
330
9
100
AcDbSymbolTableRecord
100
AcDbRegAppTableRecord
  2
GEVID1208933837
 70
     0
  0
APPID
  5
86BF
330
9
100
AcDbSymbolTableRecord
100
AcDbRegAppTableRecord
  2
GEVID1208933838
 70
     0
  0
APPID
  5
86C0
330
9
100
AcDbSymbolTableRecord
100
AcDbRegAppTableRecord
  2
GEVID1208933840
 70
     0
  0
APPID
  5
86C1
330
9
100
AcDbSymbolTableRecord
100
AcDbRegAppTableRecord
  2
GEVID1208933842
 70
     0
  0
APPID
  5
86C2
330
9
100
AcDbSymbolTableRecord
100
AcDbRegAppTableRecord
  2
GEVID1208933843
 70
     0
  0
APPID
  5
86C3
330
9
100
AcDbSymbolTableRecord
100
AcDbRegAppTableRecord
  2
GEVID1208933844
 70
     0
  0
APPID
  5
86C4
330
9
100
AcDbSymbolTableRecord
100
AcDbRegAppTableRecord
  2
GEVID1208933845
 70
     0
  0
APPID
  5
86C5
330
9
100
AcDbSymbolTableRecord
100
AcDbRegAppTableRecord
  2
GEVID1208933846
 70
     0
  0
APPID
  5
86C6
330
9
100
AcDbSymbolTableRecord
100
AcDbRegAppTableRecord
  2
GEVID1208933847
 70
     0
  0
APPID
  5
86C7
330
9
100
AcDbSymbolTableRecord
100
AcDbRegAppTableRecord
  2
GEVID1208933848
 70
     0
  0
APPID
  5
86C8
330
9
100
AcDbSymbolTableRecord
100
AcDbRegAppTableRecord
  2
GEVID1208933849
 70
     0
  0
APPID
  5
86C9
330
9
100
AcDbSymbolTableRecord
100
AcDbRegAppTableRecord
  2
GEVID1208933850
 70
     0
  0
APPID
  5
86CA
330
9
100
AcDbSymbolTableRecord
100
AcDbRegAppTableRecord
  2
GEVID1208933851
 70
     0
  0
APPID
  5
86CB
330
9
100
AcDbSymbolTableRecord
100
AcDbRegAppTableRecord
  2
GEVID1208933852
 70
     0
  0
APPID
  5
86CC
330
9
100
AcDbSymbolTableRecord
100
AcDbRegAppTableRecord
  2
GEVID1208933853
 70
     0
  0
APPID
  5
86CD
330
9
100
AcDbSymbolTableRecord
100
AcDbRegAppTableRecord
  2
GEVID1208933854
 70
     0
  0
APPID
  5
86CE
330
9
100
AcDbSymbolTableRecord
100
AcDbRegAppTableRecord
  2
GEVID1208933855
 70
     0
  0
APPID
  5
86CF
330
9
100
AcDbSymbolTableRecord
100
AcDbRegAppTableRecord
  2
GEVID1208933856
 70
     0
  0
APPID
  5
86D0
330
9
100
AcDbSymbolTableRecord
100
AcDbRegAppTableRecord
  2
GEVID1208933857
 70
     0
  0
APPID
  5
86D1
330
9
100
AcDbSymbolTableRecord
100
AcDbRegAppTableRecord
  2
GEVID1208933858
 70
     0
  0
APPID
  5
86D2
330
9
100
AcDbSymbolTableRecord
100
AcDbRegAppTableRecord
  2
GEVID1208933859
 70
     0
  0
APPID
  5
86D3
330
9
100
AcDbSymbolTableRecord
100
AcDbRegAppTableRecord
  2
GEVID1208933860
 70
     0
  0
APPID
  5
86D4
330
9
100
AcDbSymbolTableRecord
100
AcDbRegAppTableRecord
  2
GEVID1208933861
 70
     0
  0
APPID
  5
86D5
330
9
100
AcDbSymbolTableRecord
100
AcDbRegAppTableRecord
  2
GEVID1208933862
 70
     0
  0
APPID
  5
86D6
330
9
100
AcDbSymbolTableRecord
100
AcDbRegAppTableRecord
  2
GEVID1208933863
 70
     0
  0
APPID
  5
86D7
330
9
100
AcDbSymbolTableRecord
100
AcDbRegAppTableRecord
  2
GEVID1208933864
 70
     0
  0
APPID
  5
86D8
330
9
100
AcDbSymbolTableRecord
100
AcDbRegAppTableRecord
  2
GEVID1208933865
 70
     0
  0
APPID
  5
86D9
330
9
100
AcDbSymbolTableRecord
100
AcDbRegAppTableRecord
  2
GEVID1208933866
 70
     0
  0
APPID
  5
86DA
330
9
100
AcDbSymbolTableRecord
100
AcDbRegAppTableRecord
  2
GEVID1208933867
 70
     0
  0
APPID
  5
86DB
330
9
100
AcDbSymbolTableRecord
100
AcDbRegAppTableRecord
  2
GEVID1208933868
 70
     0
  0
APPID
  5
86DC
330
9
100
AcDbSymbolTableRecord
100
AcDbRegAppTableRecord
  2
GEVID1208933869
 70
     0
  0
APPID
  5
86DD
330
9
100
AcDbSymbolTableRecord
100
AcDbRegAppTableRecord
  2
GEVID1208933870
 70
     0
  0
APPID
  5
86DE
330
9
100
AcDbSymbolTableRecord
100
AcDbRegAppTableRecord
  2
GEVID1208933871
 70
     0
  0
APPID
  5
86DF
330
9
100
AcDbSymbolTableRecord
100
AcDbRegAppTableRecord
  2
GEVID1208933872
 70
     0
  0
APPID
  5
86E0
330
9
100
AcDbSymbolTableRecord
100
AcDbRegAppTableRecord
  2
GEVID1208933873
 70
     0
  0
APPID
  5
86E1
330
9
100
AcDbSymbolTableRecord
100
AcDbRegAppTableRecord
  2
GEVID1208933874
 70
     0
  0
APPID
  5
86E2
330
9
100
AcDbSymbolTableRecord
100
AcDbRegAppTableRecord
  2
GEVID1208933875
 70
     0
  0
APPID
  5
86E3
330
9
100
AcDbSymbolTableRecord
100
AcDbRegAppTableRecord
  2
GEVID1208933876
 70
     0
  0
APPID
  5
86E4
330
9
100
AcDbSymbolTableRecord
100
AcDbRegAppTableRecord
  2
ACAD_DSTYLE_DIMRADIAL_EXTENSION
 70
     0
  0
APPID
  5
86E5
330
9
100
AcDbSymbolTableRecord
100
AcDbRegAppTableRecord
  2
GEVID1208999100
 70
     0
  0
APPID
  5
86E6
330
9
100
AcDbSymbolTableRecord
100
AcDbRegAppTableRecord
  2
GEVID1208999101
 70
     0
  0
APPID
  5
86E7
330
9
100
AcDbSymbolTableRecord
100
AcDbRegAppTableRecord
  2
GEVID1208999102
 70
     0
  0
APPID
  5
86E8
330
9
100
AcDbSymbolTableRecord
100
AcDbRegAppTableRecord
  2
GEVID1208999103
 70
     0
  0
APPID
  5
86E9
330
9
100
AcDbSymbolTableRecord
100
AcDbRegAppTableRecord
  2
GEVID1208999105
 70
     0
  0
APPID
  5
86EA
330
9
100
AcDbSymbolTableRecord
100
AcDbRegAppTableRecord
  2
GEVID1208999106
 70
     0
  0
APPID
  5
86EB
330
9
100
AcDbSymbolTableRecord
100
AcDbRegAppTableRecord
  2
GEVID1208999108
 70
     0
  0
APPID
  5
86EC
330
9
100
AcDbSymbolTableRecord
100
AcDbRegAppTableRecord
  2
GEVID1208999109
 70
     0
  0
APPID
  5
86ED
330
9
100
AcDbSymbolTableRecord
100
AcDbRegAppTableRecord
  2
GEVID1208999110
 70
     0
  0
APPID
  5
86EE
330
9
100
AcDbSymbolTableRecord
100
AcDbRegAppTableRecord
  2
GEVID1208999111
 70
     0
  0
APPID
  5
86EF
330
9
100
AcDbSymbolTableRecord
100
AcDbRegAppTableRecord
  2
GEVID1208999112
 70
     0
  0
APPID
  5
86F0
330
9
100
AcDbSymbolTableRecord
100
AcDbRegAppTableRecord
  2
GEVID1208999113
 70
     0
  0
APPID
  5
86F1
330
9
100
AcDbSymbolTableRecord
100
AcDbRegAppTableRecord
  2
GEVID1208999114
 70
     0
  0
APPID
  5
86F2
330
9
100
AcDbSymbolTableRecord
100
AcDbRegAppTableRecord
  2
GEVID1210218799
 70
     0
  0
APPID
  5
86F3
330
9
100
AcDbSymbolTableRecord
100
AcDbRegAppTableRecord
  2
GEVID1210218800
 70
     0
  0
APPID
  5
86F4
330
9
100
AcDbSymbolTableRecord
100
AcDbRegAppTableRecord
  2
GENIUS_GEFWELD_13
 70
     0
  0
APPID
  5
86F5
330
9
100
AcDbSymbolTableRecord
100
AcDbRegAppTableRecord
  2
GENIUS_GENOBJ-F-WELS_13
 70
     0
  0
APPID
  5
86F6
330
9
100
AcDbSymbolTableRecord
100
AcDbRegAppTableRecord
  2
AcadAnnotative
 70
     0
  0
APPID
  5
86F7
330
9
100
AcDbSymbolTableRecord
100
AcDbRegAppTableRecord
  2
GEVID1210145339
 70
     0
  0
APPID
  5
86F8
330
9
100
AcDbSymbolTableRecord
100
AcDbRegAppTableRecord
  2
ACAD_DSTYLE_DIMBREAK
 70
     0
  0
APPID
  5
86F9
330
9
100
AcDbSymbolTableRecord
100
AcDbRegAppTableRecord
  2
GEVID1210145340
 70
     0
  0
APPID
  5
86FA
330
9
100
AcDbSymbolTableRecord
100
AcDbRegAppTableRecord
  2
GEVID1210145341
 70
     0
  0
APPID
  5
86FB
330
9
100
AcDbSymbolTableRecord
100
AcDbRegAppTableRecord
  2
GEVID1210145342
 70
     0
  0
APPID
  5
86FC
330
9
100
AcDbSymbolTableRecord
100
AcDbRegAppTableRecord
  2
GEVID1210145343
 70
     0
  0
APPID
  5
86FD
330
9
100
AcDbSymbolTableRecord
100
AcDbRegAppTableRecord
  2
GEVID1210145344
 70
     0
  0
APPID
  5
86FE
330
9
100
AcDbSymbolTableRecord
100
AcDbRegAppTableRecord
  2
GEVID1210145345
 70
     0
  0
APPID
  5
86FF
330
9
100
AcDbSymbolTableRecord
100
AcDbRegAppTableRecord
  2
GEVID1210152816
 70
     0
  0
APPID
  5
8700
330
9
100
AcDbSymbolTableRecord
100
AcDbRegAppTableRecord
  2
GEVID1210153850
 70
     0
  0
APPID
  5
8701
330
9
100
AcDbSymbolTableRecord
100
AcDbRegAppTableRecord
  2
GEVID1210153851
 70
     0
  0
APPID
  5
8702
330
9
100
AcDbSymbolTableRecord
100
AcDbRegAppTableRecord
  2
GEVID1210153852
 70
     0
  0
APPID
  5
8703
330
9
100
AcDbSymbolTableRecord
100
AcDbRegAppTableRecord
  2
GEVID1210549898
 70
     0
  0
APPID
  5
8704
330
9
100
AcDbSymbolTableRecord
100
AcDbRegAppTableRecord
  2
GEVID1210549899
 70
     0
  0
APPID
  5
8705
330
9
100
AcDbSymbolTableRecord
100
AcDbRegAppTableRecord
  2
GEVID1210549900
 70
     0
  0
APPID
  5
8706
330
9
100
AcDbSymbolTableRecord
100
AcDbRegAppTableRecord
  2
GEVID1210549901
 70
     0
  0
APPID
  5
8707
330
9
100
AcDbSymbolTableRecord
100
AcDbRegAppTableRecord
  2
GEVID1210549902
 70
     0
  0
APPID
  5
8708
330
9
100
AcDbSymbolTableRecord
100
AcDbRegAppTableRecord
  2
GEVID1210549903
 70
     0
  0
APPID
  5
8709
330
9
100
AcDbSymbolTableRecord
100
AcDbRegAppTableRecord
  2
GEVID1210549904
 70
     0
  0
APPID
  5
870A
330
9
100
AcDbSymbolTableRecord
100
AcDbRegAppTableRecord
  2
GEVID1210549905
 70
     0
  0
APPID
  5
870B
330
9
100
AcDbSymbolTableRecord
100
AcDbRegAppTableRecord
  2
GEVID1210549906
 70
     0
  0
APPID
  5
870C
330
9
100
AcDbSymbolTableRecord
100
AcDbRegAppTableRecord
  2
GEVID1210549907
 70
     0
  0
APPID
  5
870D
330
9
100
AcDbSymbolTableRecord
100
AcDbRegAppTableRecord
  2
GEVID1210549908
 70
     0
  0
APPID
  5
870E
330
9
100
AcDbSymbolTableRecord
100
AcDbRegAppTableRecord
  2
GEVID1210549909
 70
     0
  0
APPID
  5
870F
330
9
100
AcDbSymbolTableRecord
100
AcDbRegAppTableRecord
  2
GEVID1210549910
 70
     0
  0
APPID
  5
8710
330
9
100
AcDbSymbolTableRecord
100
AcDbRegAppTableRecord
  2
GEVID1210549911
 70
     0
  0
APPID
  5
8711
330
9
100
AcDbSymbolTableRecord
100
AcDbRegAppTableRecord
  2
GEVID1210549912
 70
     0
  0
APPID
  5
8712
330
9
100
AcDbSymbolTableRecord
100
AcDbRegAppTableRecord
  2
GEVID1210549913
 70
     0
  0
APPID
  5
8713
330
9
100
AcDbSymbolTableRecord
100
AcDbRegAppTableRecord
  2
GEVID1210549914
 70
     0
  0
APPID
  5
8714
330
9
100
AcDbSymbolTableRecord
100
AcDbRegAppTableRecord
  2
GEVID1210549915
 70
     0
  0
APPID
  5
8715
330
9
100
AcDbSymbolTableRecord
100
AcDbRegAppTableRecord
  2
GEVID1210549916
 70
     0
  0
APPID
  5
8716
330
9
100
AcDbSymbolTableRecord
100
AcDbRegAppTableRecord
  2
GEVID1210549917
 70
     0
  0
APPID
  5
8717
330
9
100
AcDbSymbolTableRecord
100
AcDbRegAppTableRecord
  2
GENIUS_GENOBJ-N-CRS_13
 70
     0
  0
APPID
  5
8718
330
9
100
AcDbSymbolTableRecord
100
AcDbRegAppTableRecord
  2
GEVID1210549918
 70
     0
  0
APPID
  5
8719
330
9
100
AcDbSymbolTableRecord
100
AcDbRegAppTableRecord
  2
GENIUS_GENOBJ-N-CRC_13
 70
     0
  0
APPID
  5
871A
330
9
100
AcDbSymbolTableRecord
100
AcDbRegAppTableRecord
  2
GENIUS_GENCRC_14
 70
     0
  0
APPID
  5
871B
330
9
100
AcDbSymbolTableRecord
100
AcDbRegAppTableRecord
  2
GEVID1210549919
 70
     0
  0
APPID
  5
871C
330
9
100
AcDbSymbolTableRecord
100
AcDbRegAppTableRecord
  2
GEVID1210549921
 70
     0
  0
APPID
  5
871D
330
9
100
AcDbSymbolTableRecord
100
AcDbRegAppTableRecord
  2
GEVID1210549922
 70
     0
  0
APPID
  5
871E
330
9
100
AcDbSymbolTableRecord
100
AcDbRegAppTableRecord
  2
GEVID1210635173
 70
     0
  0
APPID
  5
871F
330
9
100
AcDbSymbolTableRecord
100
AcDbRegAppTableRecord
  2
GEVID1210635174
 70
     0
  0
APPID
  5
8720
330
9
100
AcDbSymbolTableRecord
100
AcDbRegAppTableRecord
  2
GEVID1210635175
 70
     0
  0
APPID
  5
8721
330
9
100
AcDbSymbolTableRecord
100
AcDbRegAppTableRecord
  2
GEVID1210635176
 70
     0
  0
APPID
  5
8722
330
9
100
AcDbSymbolTableRecord
100
AcDbRegAppTableRecord
  2
GEVID1210635177
 70
     0
  0
APPID
  5
8723
330
9
100
AcDbSymbolTableRecord
100
AcDbRegAppTableRecord
  2
GEVID1210635178
 70
     0
  0
APPID
  5
8724
330
9
100
AcDbSymbolTableRecord
100
AcDbRegAppTableRecord
  2
GENIUS_GENIUS_GENBHEDTMP_13
 70
     0
  0
APPID
  5
8725
330
9
100
AcDbSymbolTableRecord
100
AcDbRegAppTableRecord
  2
GEVID1210635179
 70
     0
  0
APPID
  5
8726
330
9
100
AcDbSymbolTableRecord
100
AcDbRegAppTableRecord
  2
GEVID1210635180
 70
     0
  0
APPID
  5
8727
330
9
100
AcDbSymbolTableRecord
100
AcDbRegAppTableRecord
  2
GEVID1210635181
 70
     0
  0
APPID
  5
8728
330
9
100
AcDbSymbolTableRecord
100
AcDbRegAppTableRecord
  2
GEVID1210635182
 70
     0
  0
APPID
  5
8729
330
9
100
AcDbSymbolTableRecord
100
AcDbRegAppTableRecord
  2
GEVID1210635184
 70
     0
  0
APPID
  5
872A
330
9
100
AcDbSymbolTableRecord
100
AcDbRegAppTableRecord
  2
GEVID1210635185
 70
     0
  0
APPID
  5
872B
330
9
100
AcDbSymbolTableRecord
100
AcDbRegAppTableRecord
  2
GEVID1210635186
 70
     0
  0
APPID
  5
872C
330
9
100
AcDbSymbolTableRecord
100
AcDbRegAppTableRecord
  2
GEVID1210635187
 70
     0
  0
APPID
  5
872D
330
9
100
AcDbSymbolTableRecord
100
AcDbRegAppTableRecord
  2
GEVID1210635188
 70
     0
  0
APPID
  5
872E
330
9
100
AcDbSymbolTableRecord
100
AcDbRegAppTableRecord
  2
GEVID1210635189
 70
     0
  0
APPID
  5
872F
330
9
100
AcDbSymbolTableRecord
100
AcDbRegAppTableRecord
  2
GEVID1210635190
 70
     0
  0
APPID
  5
8730
330
9
100
AcDbSymbolTableRecord
100
AcDbRegAppTableRecord
  2
GENIUS_GENREC_14
 70
     0
  0
APPID
  5
8731
330
9
100
AcDbSymbolTableRecord
100
AcDbRegAppTableRecord
  2
GENIUS_GENOBJ-N-REC_13
 70
     0
  0
APPID
  5
8732
330
9
100
AcDbSymbolTableRecord
100
AcDbRegAppTableRecord
  2
GEVID1210676655
 70
     0
  0
APPID
  5
8733
330
9
100
AcDbSymbolTableRecord
100
AcDbRegAppTableRecord
  2
GEVID1210676656
 70
     0
  0
APPID
  5
8734
330
9
100
AcDbSymbolTableRecord
100
AcDbRegAppTableRecord
  2
GEVID1210676657
 70
     0
  0
APPID
  5
8735
330
9
100
AcDbSymbolTableRecord
100
AcDbRegAppTableRecord
  2
GEVID1210676659
 70
     0
  0
APPID
  5
8736
330
9
100
AcDbSymbolTableRecord
100
AcDbRegAppTableRecord
  2
GEVID1210676660
 70
     0
  0
APPID
  5
8737
330
9
100
AcDbSymbolTableRecord
100
AcDbRegAppTableRecord
  2
GEVID1210676661
 70
     0
  0
APPID
  5
8738
330
9
100
AcDbSymbolTableRecord
100
AcDbRegAppTableRecord
  2
GEVID1210676662
 70
     0
  0
APPID
  5
8739
330
9
100
AcDbSymbolTableRecord
100
AcDbRegAppTableRecord
  2
GEVID1210721646
 70
     0
  0
APPID
  5
873A
330
9
100
AcDbSymbolTableRecord
100
AcDbRegAppTableRecord
  2
GEVID1210721647
 70
     0
  0
APPID
  5
873B
330
9
100
AcDbSymbolTableRecord
100
AcDbRegAppTableRecord
  2
GEVID1210721648
 70
     0
  0
APPID
  5
873C
330
9
100
AcDbSymbolTableRecord
100
AcDbRegAppTableRecord
  2
GEVID1210721649
 70
     0
  0
APPID
  5
873D
330
9
100
AcDbSymbolTableRecord
100
AcDbRegAppTableRecord
  2
GEVID1210721650
 70
     0
  0
APPID
  5
873E
330
9
100
AcDbSymbolTableRecord
100
AcDbRegAppTableRecord
  2
GEVID1210721651
 70
     0
  0
APPID
  5
873F
330
9
100
AcDbSymbolTableRecord
100
AcDbRegAppTableRecord
  2
GEVID1210721652
 70
     0
  0
APPID
  5
8740
330
9
100
AcDbSymbolTableRecord
100
AcDbRegAppTableRecord
  2
GEVID1210721653
 70
     0
  0
APPID
  5
8741
330
9
100
AcDbSymbolTableRecord
100
AcDbRegAppTableRecord
  2
PE_URL
 70
     0
  0
APPID
  5
8742
330
9
100
AcDbSymbolTableRecord
100
AcDbRegAppTableRecord
  2
GEVID1210825555
 70
     0
  0
APPID
  5
8743
330
9
100
AcDbSymbolTableRecord
100
AcDbRegAppTableRecord
  2
GEVID1210825556
 70
     0
  0
APPID
  5
8744
330
9
100
AcDbSymbolTableRecord
100
AcDbRegAppTableRecord
  2
GEVID1210825557
 70
     0
  0
APPID
  5
8745
330
9
100
AcDbSymbolTableRecord
100
AcDbRegAppTableRecord
  2
GEVID1210825558
 70
     0
  0
APPID
  5
8746
330
9
100
AcDbSymbolTableRecord
100
AcDbRegAppTableRecord
  2
GEVID1210825559
 70
     0
  0
APPID
  5
8747
330
9
100
AcDbSymbolTableRecord
100
AcDbRegAppTableRecord
  2
GEVID1210825560
 70
     0
  0
APPID
  5
8748
330
9
100
AcDbSymbolTableRecord
100
AcDbRegAppTableRecord
  2
GEVID1210825561
 70
     0
  0
APPID
  5
8749
330
9
100
AcDbSymbolTableRecord
100
AcDbRegAppTableRecord
  2
GEVID1210825562
 70
     0
  0
APPID
  5
874A
330
9
100
AcDbSymbolTableRecord
100
AcDbRegAppTableRecord
  2
GEVID1210825563
 70
     0
  0
APPID
  5
874B
330
9
100
AcDbSymbolTableRecord
100
AcDbRegAppTableRecord
  2
GEVID1210825564
 70
     0
  0
APPID
  5
874C
330
9
100
AcDbSymbolTableRecord
100
AcDbRegAppTableRecord
  2
GEVID1210825565
 70
     0
  0
APPID
  5
874D
330
9
100
AcDbSymbolTableRecord
100
AcDbRegAppTableRecord
  2
GEVID1210825566
 70
     0
  0
APPID
  5
874E
330
9
100
AcDbSymbolTableRecord
100
AcDbRegAppTableRecord
  2
GEVID1210825567
 70
     0
  0
APPID
  5
874F
330
9
100
AcDbSymbolTableRecord
100
AcDbRegAppTableRecord
  2
GENIUS_GENOBJ-N-ZOO_13
 70
     0
  0
APPID
  5
8750
330
9
100
AcDbSymbolTableRecord
100
AcDbRegAppTableRecord
  2
GENIUS_GENZOO_17
 70
     0
  0
APPID
  5
8751
330
9
100
AcDbSymbolTableRecord
100
AcDbRegAppTableRecord
  2
ACADANNOTATIVEDECOMPOSITION
 70
     0
  0
APPID
  5
8752
330
9
100
AcDbSymbolTableRecord
100
AcDbRegAppTableRecord
  2
GENIUS_GENOBJ-N-HTC_13
 70
     0
  0
APPID
  5
8753
330
9
100
AcDbSymbolTableRecord
100
AcDbRegAppTableRecord
  2
GENIUS_GENHATCH_13
 70
     0
  0
APPID
  5
8754
330
9
100
AcDbSymbolTableRecord
100
AcDbRegAppTableRecord
  2
GEVID1210896020
 70
     0
  0
APPID
  5
8755
330
9
100
AcDbSymbolTableRecord
100
AcDbRegAppTableRecord
  2
GEVID1210896021
 70
     0
  0
APPID
  5
8756
330
9
100
AcDbSymbolTableRecord
100
AcDbRegAppTableRecord
  2
GEVID1209083540
 70
     0
  0
APPID
  5
8757
330
9
100
AcDbSymbolTableRecord
100
AcDbRegAppTableRecord
  2
GEVMK
 70
     0
  0
APPID
  5
8758
330
9
100
AcDbSymbolTableRecord
100
AcDbRegAppTableRecord
  2
GEVID1209083542
 70
     0
  0
APPID
  5
8759
330
9
100
AcDbSymbolTableRecord
100
AcDbRegAppTableRecord
  2
GEVID1209083543
 70
     0
  0
APPID
  5
875A
330
9
100
AcDbSymbolTableRecord
100
AcDbRegAppTableRecord
  2
GEVID1209083544
 70
     0
  0
APPID
  5
875B
330
9
100
AcDbSymbolTableRecord
100
AcDbRegAppTableRecord
  2
GEVID1209083545
 70
     0
  0
APPID
  5
875C
330
9
100
AcDbSymbolTableRecord
100
AcDbRegAppTableRecord
  2
GEVID1209083546
 70
     0
  0
APPID
  5
875D
330
9
100
AcDbSymbolTableRecord
100
AcDbRegAppTableRecord
  2
GEVID1209083547
 70
     0
  0
APPID
  5
875E
330
9
100
AcDbSymbolTableRecord
100
AcDbRegAppTableRecord
  2
GEVID1209083548
 70
     0
  0
APPID
  5
875F
330
9
100
AcDbSymbolTableRecord
100
AcDbRegAppTableRecord
  2
GEVID1209083549
 70
     0
  0
APPID
  5
8760
330
9
100
AcDbSymbolTableRecord
100
AcDbRegAppTableRecord
  2
GEVID1209083550
 70
     0
  0
APPID
  5
8761
330
9
100
AcDbSymbolTableRecord
100
AcDbRegAppTableRecord
  2
GEVID1209083551
 70
     0
  0
APPID
  5
8762
330
9
100
AcDbSymbolTableRecord
100
AcDbRegAppTableRecord
  2
GEVID1209083552
 70
     0
  0
APPID
  5
8763
330
9
100
AcDbSymbolTableRecord
100
AcDbRegAppTableRecord
  2
GEVID1209083553
 70
     0
  0
APPID
  5
8764
330
9
100
AcDbSymbolTableRecord
100
AcDbRegAppTableRecord
  2
GEVID1210896022
 70
     0
  0
APPID
  5
8765
330
9
100
AcDbSymbolTableRecord
100
AcDbRegAppTableRecord
  2
GEVID1211508364
 70
     0
  0
APPID
  5
8766
330
9
100
AcDbSymbolTableRecord
100
AcDbRegAppTableRecord
  2
GEVID1211414908
 70
     0
  0
APPID
  5
8767
330
9
100
AcDbSymbolTableRecord
100
AcDbRegAppTableRecord
  2
GEVID1211414909
 70
     0
  0
APPID
  5
8768
330
9
100
AcDbSymbolTableRecord
100
AcDbRegAppTableRecord
  2
GEVID1211508359
 70
     0
  0
APPID
  5
8769
330
9
100
AcDbSymbolTableRecord
100
AcDbRegAppTableRecord
  2
GEVID1211508360
 70
     0
  0
APPID
  5
876A
330
9
100
AcDbSymbolTableRecord
100
AcDbRegAppTableRecord
  2
GEVID1211508361
 70
     0
  0
APPID
  5
876B
330
9
100
AcDbSymbolTableRecord
100
AcDbRegAppTableRecord
  2
GEVID1211508362
 70
     0
  0
APPID
  5
876C
330
9
100
AcDbSymbolTableRecord
100
AcDbRegAppTableRecord
  2
GEVID1211508363
 70
     0
  0
APPID
  5
876D
330
9
100
AcDbSymbolTableRecord
100
AcDbRegAppTableRecord
  2
GEVID1211878469
 70
     0
  0
APPID
  5
876E
330
9
100
AcDbSymbolTableRecord
100
AcDbRegAppTableRecord
  2
GEVID1212642819
 70
     0
  0
APPID
  5
876F
330
9
100
AcDbSymbolTableRecord
100
AcDbRegAppTableRecord
  2
GEVID1212642820
 70
     0
  0
APPID
  5
8770
330
9
100
AcDbSymbolTableRecord
100
AcDbRegAppTableRecord
  2
GEVID1212642821
 70
     0
  0
APPID
  5
8771
330
9
100
AcDbSymbolTableRecord
100
AcDbRegAppTableRecord
  2
GEVID1212642822
 70
     0
  0
APPID
  5
8772
330
9
100
AcDbSymbolTableRecord
100
AcDbRegAppTableRecord
  2
GEVID1212642823
 70
     0
  0
APPID
  5
8773
330
9
100
AcDbSymbolTableRecord
100
AcDbRegAppTableRecord
  2
GEVID1212642825
 70
     0
  0
APPID
  5
8774
330
9
100
AcDbSymbolTableRecord
100
AcDbRegAppTableRecord
  2
GEVID1212642826
 70
     0
  0
APPID
  5
8775
330
9
100
AcDbSymbolTableRecord
100
AcDbRegAppTableRecord
  2
GEVID1212642827
 70
     0
  0
APPID
  5
8776
330
9
100
AcDbSymbolTableRecord
100
AcDbRegAppTableRecord
  2
GEVID1212642828
 70
     0
  0
APPID
  5
8777
330
9
100
AcDbSymbolTableRecord
100
AcDbRegAppTableRecord
  2
GEVID1212642831
 70
     0
  0
APPID
  5
8778
330
9
100
AcDbSymbolTableRecord
100
AcDbRegAppTableRecord
  2
GEVID1212642834
 70
     0
  0
APPID
  5
8779
330
9
100
AcDbSymbolTableRecord
100
AcDbRegAppTableRecord
  2
GEVID1212642835
 70
     0
  0
APPID
  5
877A
330
9
100
AcDbSymbolTableRecord
100
AcDbRegAppTableRecord
  2
GEVID1212642836
 70
     0
  0
APPID
  5
877B
330
9
100
AcDbSymbolTableRecord
100
AcDbRegAppTableRecord
  2
GEVID1212642837
 70
     0
  0
APPID
  5
877C
330
9
100
AcDbSymbolTableRecord
100
AcDbRegAppTableRecord
  2
GEVID1212642839
 70
     0
  0
APPID
  5
877D
330
9
100
AcDbSymbolTableRecord
100
AcDbRegAppTableRecord
  2
GEVID1212642840
 70
     0
  0
APPID
  5
877E
330
9
100
AcDbSymbolTableRecord
100
AcDbRegAppTableRecord
  2
GEVID1212642841
 70
     0
  0
APPID
  5
877F
330
9
100
AcDbSymbolTableRecord
100
AcDbRegAppTableRecord
  2
GEVID1212655312
 70
     0
  0
APPID
  5
8780
330
9
100
AcDbSymbolTableRecord
100
AcDbRegAppTableRecord
  2
GEVID1212655313
 70
     0
  0
APPID
  5
8781
330
9
100
AcDbSymbolTableRecord
100
AcDbRegAppTableRecord
  2
GEVID1212656533
 70
     0
  0
APPID
  5
8782
330
9
100
AcDbSymbolTableRecord
100
AcDbRegAppTableRecord
  2
GEVID1212656534
 70
     0
  0
APPID
  5
8783
330
9
100
AcDbSymbolTableRecord
100
AcDbRegAppTableRecord
  2
GEVID1212656535
 70
     0
  0
APPID
  5
8784
330
9
100
AcDbSymbolTableRecord
100
AcDbRegAppTableRecord
  2
GEVID1212656536
 70
     0
  0
APPID
  5
8785
330
9
100
AcDbSymbolTableRecord
100
AcDbRegAppTableRecord
  2
GEVID1212656538
 70
     0
  0
APPID
  5
8786
330
9
100
AcDbSymbolTableRecord
100
AcDbRegAppTableRecord
  2
GEVID1212656541
 70
     0
  0
APPID
  5
8787
330
9
100
AcDbSymbolTableRecord
100
AcDbRegAppTableRecord
  2
GEVID1212656543
 70
     0
  0
APPID
  5
8788
330
9
100
AcDbSymbolTableRecord
100
AcDbRegAppTableRecord
  2
GENIUS_GENOBJ-F-PFASSM_13
 70
     0
  0
APPID
  5
8789
330
9
100
AcDbSymbolTableRecord
100
AcDbRegAppTableRecord
  2
GEVID1212656544
 70
     0
  0
APPID
  5
878A
330
9
100
AcDbSymbolTableRecord
100
AcDbRegAppTableRecord
  2
GEVID1212656545
 70
     0
  0
APPID
  5
878B
330
9
100
AcDbSymbolTableRecord
100
AcDbRegAppTableRecord
  2
GEVID1212656546
 70
     0
  0
APPID
  5
878C
330
9
100
AcDbSymbolTableRecord
100
AcDbRegAppTableRecord
  2
GEVID1212656547
 70
     0
  0
APPID
  5
878D
330
9
100
AcDbSymbolTableRecord
100
AcDbRegAppTableRecord
  2
GEVID1212656548
 70
     0
  0
APPID
  5
878E
330
9
100
AcDbSymbolTableRecord
100
AcDbRegAppTableRecord
  2
GEVID1212656549
 70
     0
  0
APPID
  5
878F
330
9
100
AcDbSymbolTableRecord
100
AcDbRegAppTableRecord
  2
GEVID1212656550
 70
     0
  0
APPID
  5
8790
330
9
100
AcDbSymbolTableRecord
100
AcDbRegAppTableRecord
  2
GEVID1212656552
 70
     0
  0
APPID
  5
8791
330
9
100
AcDbSymbolTableRecord
100
AcDbRegAppTableRecord
  2
GEVID1212656553
 70
     0
  0
APPID
  5
8792
330
9
100
AcDbSymbolTableRecord
100
AcDbRegAppTableRecord
  2
GEVID1212656554
 70
     0
  0
APPID
  5
8793
330
9
100
AcDbSymbolTableRecord
100
AcDbRegAppTableRecord
  2
GEVID1212656555
 70
     0
  0
APPID
  5
8794
330
9
100
AcDbSymbolTableRecord
100
AcDbRegAppTableRecord
  2
GEVID1212656556
 70
     0
  0
APPID
  5
8795
330
9
100
AcDbSymbolTableRecord
100
AcDbRegAppTableRecord
  2
GEVID1212656557
 70
     0
  0
APPID
  5
8796
330
9
100
AcDbSymbolTableRecord
100
AcDbRegAppTableRecord
  2
GEVID1212656559
 70
     0
  0
APPID
  5
8797
330
9
100
AcDbSymbolTableRecord
100
AcDbRegAppTableRecord
  2
GEVID1212656560
 70
     0
  0
APPID
  5
8798
330
9
100
AcDbSymbolTableRecord
100
AcDbRegAppTableRecord
  2
GEVID1212656561
 70
     0
  0
APPID
  5
8799
330
9
100
AcDbSymbolTableRecord
100
AcDbRegAppTableRecord
  2
GEVID1212656562
 70
     0
  0
APPID
  5
879A
330
9
100
AcDbSymbolTableRecord
100
AcDbRegAppTableRecord
  2
GEVID1212656563
 70
     0
  0
APPID
  5
879B
330
9
100
AcDbSymbolTableRecord
100
AcDbRegAppTableRecord
  2
GEVID1212711781
 70
     0
  0
APPID
  5
879C
330
9
100
AcDbSymbolTableRecord
100
AcDbRegAppTableRecord
  2
GEVID1212711782
 70
     0
  0
APPID
  5
879D
330
9
100
AcDbSymbolTableRecord
100
AcDbRegAppTableRecord
  2
GEVID1212711783
 70
     0
  0
APPID
  5
879E
330
9
100
AcDbSymbolTableRecord
100
AcDbRegAppTableRecord
  2
GEVID1212711784
 70
     0
  0
APPID
  5
879F
330
9
100
AcDbSymbolTableRecord
100
AcDbRegAppTableRecord
  2
GEVID1212711788
 70
     0
  0
APPID
  5
87A0
330
9
100
AcDbSymbolTableRecord
100
AcDbRegAppTableRecord
  2
GEVID1212711789
 70
     0
  0
APPID
  5
87A1
330
9
100
AcDbSymbolTableRecord
100
AcDbRegAppTableRecord
  2
GEVID1212711790
 70
     0
  0
APPID
  5
87A2
330
9
100
AcDbSymbolTableRecord
100
AcDbRegAppTableRecord
  2
GEVID1212711791
 70
     0
  0
APPID
  5
87A3
330
9
100
AcDbSymbolTableRecord
100
AcDbRegAppTableRecord
  2
GEVID1212711792
 70
     0
  0
APPID
  5
87A4
330
9
100
AcDbSymbolTableRecord
100
AcDbRegAppTableRecord
  2
GEVID1212711793
 70
     0
  0
APPID
  5
87A5
330
9
100
AcDbSymbolTableRecord
100
AcDbRegAppTableRecord
  2
GEVID1212711794
 70
     0
  0
APPID
  5
87A6
330
9
100
AcDbSymbolTableRecord
100
AcDbRegAppTableRecord
  2
GEVID1212711795
 70
     0
  0
APPID
  5
87A7
330
9
100
AcDbSymbolTableRecord
100
AcDbRegAppTableRecord
  2
GEVID1212711797
 70
     0
  0
APPID
  5
87A8
330
9
100
AcDbSymbolTableRecord
100
AcDbRegAppTableRecord
  2
GEVID1212711798
 70
     0
  0
APPID
  5
87A9
330
9
100
AcDbSymbolTableRecord
100
AcDbRegAppTableRecord
  2
GEVID1212711799
 70
     0
  0
APPID
  5
87AA
330
9
100
AcDbSymbolTableRecord
100
AcDbRegAppTableRecord
  2
GEVID1212711800
 70
     0
  0
APPID
  5
87AB
330
9
100
AcDbSymbolTableRecord
100
AcDbRegAppTableRecord
  2
GEVID1212711801
 70
     0
  0
APPID
  5
87AC
330
9
100
AcDbSymbolTableRecord
100
AcDbRegAppTableRecord
  2
GEVID1212711802
 70
     0
  0
APPID
  5
87AD
330
9
100
AcDbSymbolTableRecord
100
AcDbRegAppTableRecord
  2
GEVID1212711803
 70
     0
  0
APPID
  5
87AE
330
9
100
AcDbSymbolTableRecord
100
AcDbRegAppTableRecord
  2
GEVID1212711804
 70
     0
  0
APPID
  5
87AF
330
9
100
AcDbSymbolTableRecord
100
AcDbRegAppTableRecord
  2
GEVID1212711805
 70
     0
  0
APPID
  5
87B0
330
9
100
AcDbSymbolTableRecord
100
AcDbRegAppTableRecord
  2
GEVID1212711806
 70
     0
  0
APPID
  5
87B1
330
9
100
AcDbSymbolTableRecord
100
AcDbRegAppTableRecord
  2
GEVID1212711807
 70
     0
  0
APPID
  5
87B2
330
9
100
AcDbSymbolTableRecord
100
AcDbRegAppTableRecord
  2
GEVID1212711808
 70
     0
  0
APPID
  5
87B3
330
9
100
AcDbSymbolTableRecord
100
AcDbRegAppTableRecord
  2
GEVID1212711809
 70
     0
  0
APPID
  5
87B4
330
9
100
AcDbSymbolTableRecord
100
AcDbRegAppTableRecord
  2
GEVID1212711810
 70
     0
  0
APPID
  5
87B5
330
9
100
AcDbSymbolTableRecord
100
AcDbRegAppTableRecord
  2
GEVID1212711811
 70
     0
  0
APPID
  5
87B6
330
9
100
AcDbSymbolTableRecord
100
AcDbRegAppTableRecord
  2
GENIUS_GENTRA_14
 70
     0
  0
APPID
  5
87B7
330
9
100
AcDbSymbolTableRecord
100
AcDbRegAppTableRecord
  2
GENIUS_GENOBJ-N-TIT_13
 70
     0
  0
APPID
  5
87B8
330
9
100
AcDbSymbolTableRecord
100
AcDbRegAppTableRecord
  2
GENIUS_GENTITLE_13
 70
     0
  0
APPID
  5
87B9
330
9
100
AcDbSymbolTableRecord
100
AcDbRegAppTableRecord
  2
GENIUS_GENBLLY_14
 70
     0
  0
APPID
  5
87BA
330
9
100
AcDbSymbolTableRecord
100
AcDbRegAppTableRecord
  2
GEVID1213165152
 70
     0
  0
APPID
  5
87BB
330
9
100
AcDbSymbolTableRecord
100
AcDbRegAppTableRecord
  2
AcDbDynamicBlockTrueName
 70
     0
  0
APPID
  5
87BC
330
9
100
AcDbSymbolTableRecord
100
AcDbRegAppTableRecord
  2
ACDBBLOCKREPETAG
 70
     0
  0
APPID
  5
87BD
330
9
100
AcDbSymbolTableRecord
100
AcDbRegAppTableRecord
  2
GEVID1214872427
 70
     0
  0
APPID
  5
87BE
330
9
100
AcDbSymbolTableRecord
100
AcDbRegAppTableRecord
  2
GEVID1214872428
 70
     0
  0
APPID
  5
87BF
330
9
100
AcDbSymbolTableRecord
100
AcDbRegAppTableRecord
  2
GEVID1214872429
 70
     0
  0
APPID
  5
87C0
330
9
100
AcDbSymbolTableRecord
100
AcDbRegAppTableRecord
  2
GEVID1214872430
 70
     0
  0
APPID
  5
87C1
330
9
100
AcDbSymbolTableRecord
100
AcDbRegAppTableRecord
  2
GEVID1214872432
 70
     0
  0
APPID
  5
87C2
330
9
100
AcDbSymbolTableRecord
100
AcDbRegAppTableRecord
  2
GEVID1214872433
 70
     0
  0
APPID
  5
87C3
330
9
100
AcDbSymbolTableRecord
100
AcDbRegAppTableRecord
  2
AcDbDynamicBlockGUID
 70
     0
  0
APPID
  5
87C4
330
9
100
AcDbSymbolTableRecord
100
AcDbRegAppTableRecord
  2
GENIUS_GENOBJ-N-REV_13
 70
     0
  0
APPID
  5
87C5
330
9
100
AcDbSymbolTableRecord
100
AcDbRegAppTableRecord
  2
GENIUS_GENOBJ-N-RSSYM_13
 70
     0
  0
APPID
  5
87C6
330
9
100
AcDbSymbolTableRecord
100
AcDbRegAppTableRecord
  2
GENIUS_GENSYMENT_13
 70
     0
  0
APPID
  5
87C7
330
9
100
AcDbSymbolTableRecord
100
AcDbRegAppTableRecord
  2
GENIUS_GENSCSYM_13
 70
     0
  0
APPID
  5
8F28
330
9
100
AcDbSymbolTableRecord
100
AcDbRegAppTableRecord
  2
GEVID1223941364
 70
     0
  0
APPID
  5
8F3B
330
9
100
AcDbSymbolTableRecord
100
AcDbRegAppTableRecord
  2
GENIUS_GENCFG_13
 70
     0
1001
GENIUS_GENCFG0_13
1000
GEN
  0
APPID
  5
8F3C
330
9
100
AcDbSymbolTableRecord
100
AcDbRegAppTableRecord
  2
GENIUS_GENCFG0_13
 70
     0
1001
GENIUS_GENCFG_13
1071
1223942093
1000
8F3C
1000
GEN
1070
     0
  0
APPID
  5
8F68
330
9
100
AcDbSymbolTableRecord
100
AcDbRegAppTableRecord
  2
GEVID1223941365
 70
     0
  0
APPID
  5
8F7C
330
9
100
AcDbSymbolTableRecord
100
AcDbRegAppTableRecord
  2
GEVID1223941366
 70
     0
  0
APPID
  5
8F8D
330
9
100
AcDbSymbolTableRecord
100
AcDbRegAppTableRecord
  2
GEVID1223941367
 70
     0
  0
APPID
  5
8FA0
330
9
100
AcDbSymbolTableRecord
100
AcDbRegAppTableRecord
  2
GEVID1223941369
 70
     0
  0
APPID
  5
8FB8
330
9
100
AcDbSymbolTableRecord
100
AcDbRegAppTableRecord
  2
GEVID1223941372
 70
     0
  0
APPID
  5
9328
330
9
100
AcDbSymbolTableRecord
100
AcDbRegAppTableRecord
  2
GEVID1223969722
 70
     0
  0
ENDTAB
  0
TABLE
  2
DIMSTYLE
  5
A
330
0
100
AcDbSymbolTable
 70
    29
100
AcDbDimStyleTable
 71
     1
340
8879
  0
DIMSTYLE
105
8879
330
A
100
AcDbSymbolTableRecord
100
AcDbDimStyleTableRecord
  2
SEISA
 70
     0
  4
"
 40
4.0
 41
2.5
 42
0.625
 43
10.0
 44
0.625
 47
0.1
 48
0.1
 73
     0
 74
     0
 77
     3
 78
     8
 79
     2
 90
     1
140
3.5
141
0.0
143
0.0393701
146
0.71
147
1.5
172
     1
176
     3
177
     3
178
     3
271
     2
272
     2
283
     0
286
     8
289
     1
340
306
341
322
342
322
371
    -1
372
    -1
1001
ACAD_DSTYLE_DIMJAG
1070
   388
1040
1.5
1001
ACAD_DSTYLE_DIMTALN
1070
   392
1070
     1
  0
DIMSTYLE
105
887A
102
{ACAD_REACTORS
330
950B
330
9548
330
95A6
330
9621
330
965E
330
96D3
330
9705
330
979C
330
98E6
330
9911
330
9944
330
9977
330
E56B
330
E5C9
330
E63F
102
}
330
A
100
AcDbSymbolTableRecord
100
AcDbDimStyleTableRecord
  2
SEISA$0
 70
     0
  4
"
 40
4.0
 41
2.5
 42
0.625
 43
10.0
 44
0.625
 47
0.1
 48
0.1
 73
     0
 74
     0
 77
     3
 78
     8
 79
     2
 90
     1
140
3.5
141
0.0
143
0.0393701
146
0.71
147
1.5
172
     1
176
     3
177
     3
178
     3
271
     2
272
     2
283
     0
286
     8
289
     1
340
306
341
322
342
322
371
    -1
372
    -1
  0
DIMSTYLE
105
E8F1
330
A
100
AcDbSymbolTableRecord
100
AcDbDimStyleTableRecord
  2
AM_ISO
 70
     0
  4
"
 41
2.5
 42
1.0
 43
10.0
 44
1.0
 47
0.1
 48
0.1
 73
     0
 74
     0
 77
     1
 78
     8
 79
     2
 90
     1
140
3.5
141
0.0
143
0.0393701
146
0.71
147
1.5
172
     1
176
   256
177
   256
178
     2
271
     2
272
     3
274
     4
283
     0
284
     8
340
10
371
    -1
372
    -1
  0
DIMSTYLE
105
E8F2
330
A
100
AcDbSymbolTableRecord
100
AcDbDimStyleTableRecord
  2
AM_ISO$3
 70
     0
  4
"
 41
2.5
 42
1.0
 43
10.0
 44
1.0
 47
0.1
 48
0.1
 73
     0
 77
     1
 78
     8
 79
     2
 90
     1
140
3.5
141
0.0
143
0.0393701
146
0.71
147
1.5
176
   256
177
   256
178
     2
271
     2
272
     3
274
     4
283
     0
284
     8
288
     1
289
     0
340
10
371
    -1
372
    -1
  0
DIMSTYLE
105
E8F3
330
A
100
AcDbSymbolTableRecord
100
AcDbDimStyleTableRecord
  2
AM_ISO$4
 70
     0
  4
"
 41
2.5
 42
1.0
 43
10.0
 44
1.0
 47
0.1
 48
0.1
 73
     0
 77
     1
 78
     8
 79
     2
 90
     1
140
3.5
141
0.0
143
0.0393701
146
0.71
147
1.5
176
   256
177
   256
178
     2
271
     2
272
     3
274
     4
283
     0
284
     8
288
     1
289
     0
340
10
371
    -1
372
    -1
  0
DIMSTYLE
105
E8F4
330
A
100
AcDbSymbolTableRecord
100
AcDbDimStyleTableRecord
  2
AM_ISO$6
 70
     0
  4
"
 41
2.5
 42
1.0
 43
10.0
 44
1.0
 47
0.1
 48
0.1
 73
     0
 74
     0
 78
     8
 79
     2
 90
     1
140
3.5
141
0.0
143
0.0393701
146
0.71
147
1.5
172
     1
176
   256
177
   256
178
     2
271
     2
272
     3
274
     4
283
     0
284
     8
340
10
371
    -1
372
    -1
  0
DIMSTYLE
105
E8F5
330
A
100
AcDbSymbolTableRecord
100
AcDbDimStyleTableRecord
  2
AM_ISO$7
 70
     0
  4
"
 41
2.5
 42
1.0
 43
10.0
 44
1.0
 47
0.1
 48
0.1
 73
     0
 74
     0
 77
     1
 78
     8
 79
     2
 90
     1
140
5.0
141
0.0
143
0.0393701
146
0.71
147
1.5
172
     1
176
   256
177
   256
178
     2
271
     2
272
     3
274
     4
283
     0
284
     8
340
10
371
    -1
372
    -1
  0
DIMSTYLE
105
E8F6
330
A
100
AcDbSymbolTableRecord
100
AcDbDimStyleTableRecord
  2
AM_ISO$SF
 70
     0
  4
"
 41
2.5
 42
1.0
 43
10.0
 44
1.0
 47
0.1
 48
0.1
 73
     0
 74
     0
 75
     1
 76
     1
 77
     1
 78
     8
 79
     2
 90
     1
140
3.5
141
0.0
143
0.0393701
146
0.71
147
1.5
172
     1
176
   256
177
   256
178
     2
271
     2
272
     3
274
     4
283
     0
284
     8
340
10
371
    -1
372
    -1
  0
DIMSTYLE
105
E8F7
330
A
100
AcDbSymbolTableRecord
100
AcDbDimStyleTableRecord
  2
AM_ISO$SH
 70
     0
  4
"
 41
2.5
 42
1.0
 43
10.0
 44
1.0
 47
0.1
 48
0.1
 73
     0
 74
     0
 75
     1
 76
     1
 77
     1
 78
     8
 79
     2
 90
     1
140
3.5
141
0.0
143
0.0393701
144
2.0
146
0.71
147
1.5
172
     1
173
     1
176
   256
177
   256
178
     2
271
     2
272
     3
274
     4
283
     0
284
     8
340
10
343
8603
371
    -1
372
    -1
  0
ENDTAB
  0
TABLE
  2
BLOCK_RECORD
  5
1
330
0
100
AcDbSymbolTable
 70
    29
  0
BLOCK_RECORD
  5
18
102
{ACAD_XDICTIONARY
360
82C6
102
}
330
1
100
AcDbSymbolTableRecord
100
AcDbBlockTableRecord
  2
*MODEL_SPACE
340
28E
 70
     0
280
     1
281
     0
  0
BLOCK_RECORD
  5
15
330
1
100
AcDbSymbolTableRecord
100
AcDbBlockTableRecord
  2
*PAPER_SPACE
340
28F
 70
     0
280
     1
281
     0
  0
BLOCK_RECORD
  5
322
330
1
100
AcDbSymbolTableRecord
100
AcDbBlockTableRecord
  2
_Open30
340
0
102
{BLKREFS
331
C11E
331
C11F
331
C127
331
C128
331
C145
331
C146
331
C1A9
331
C1AA
331
C1B2
331
C1B3
331
C1BB
331
C1BC
331
C1C4
331
C1C5
331
DA5D
331
DA73
331
E3A1
331
E3A2
331
E5F6
331
E5F7
331
E602
331
E603
331
E60C
331
E60D
331
E730
331
E731
331
E7B0
331
E7B1
102
}
 70
     0
280
     1
281
     0
  0
BLOCK_RECORD
  5
8603
330
1
100
AcDbSymbolTableRecord
100
AcDbBlockTableRecord
  2
GENAXEH
340
0
 70
     0
280
     1
281
     0
  0
BLOCK_RECORD
  5
8FC8
102
{ACAD_XDICTIONARY
360
9149
102
}
330
1
100
AcDbSymbolTableRecord
100
AcDbBlockTableRecord
  2
ケースＡ SSM315
340
0
310
2800000020000000200000000100080000000000000400000000000000000000000000000000000000000000000080000080000000808000800000008000800080800000C0C0C000C0DCC000F0CAA6000020400000206000002080000020A0000020C0000020E00000400000004020000040400000406000004080000040A0
310
000040C0000040E00000600000006020000060400000606000006080000060A0000060C0000060E00000800000008020000080400000806000008080000080A0000080C0000080E00000A0000000A0200000A0400000A0600000A0800000A0A00000A0C00000A0E00000C0000000C0200000C0400000C0600000C0800000C0
310
A00000C0C00000C0E00000E0000000E0200000E0400000E0600000E0800000E0A00000E0C00000E0E00040000000400020004000400040006000400080004000A0004000C0004000E00040200000402020004020400040206000402080004020A0004020C0004020E000404000004040200040404000404060004040800040
310
40A0004040C0004040E00040600000406020004060400040606000406080004060A0004060C0004060E00040800000408020004080400040806000408080004080A0004080C0004080E00040A0000040A0200040A0400040A0600040A0800040A0A00040A0C00040A0E00040C0000040C0200040C0400040C0600040C08000
310
40C0A00040C0C00040C0E00040E0000040E0200040E0400040E0600040E0800040E0A00040E0C00040E0E00080000000800020008000400080006000800080008000A0008000C0008000E00080200000802020008020400080206000802080008020A0008020C0008020E00080400000804020008040400080406000804080
310
008040A0008040C0008040E00080600000806020008060400080606000806080008060A0008060C0008060E00080800000808020008080400080806000808080008080A0008080C0008080E00080A0000080A0200080A0400080A0600080A0800080A0A00080A0C00080A0E00080C0000080C0200080C0400080C0600080C0
310
800080C0A00080C0C00080C0E00080E0000080E0200080E0400080E0600080E0800080E0A00080E0C00080E0E000C0000000C0002000C0004000C0006000C0008000C000A000C000C000C000E000C0200000C0202000C0204000C0206000C0208000C020A000C020C000C020E000C0400000C0402000C0404000C0406000C0
310
408000C040A000C040C000C040E000C0600000C0602000C0604000C0606000C0608000C060A000C060C000C060E000C0800000C0802000C0804000C0806000C0808000C080A000C080C000C080E000C0A00000C0A02000C0A04000C0A06000C0A08000C0A0A000C0A0C000C0A0E000C0C00000C0C02000C0C04000C0C06000
310
C0C08000C0C0A000F0FBFF00A4A0A000808080000000FF0000FF000000FFFF00FF000000FF00FF00FFFF0000FFFFFF00000000000000000000000000000000000000000000000000000000000000000000000000000000000000000000FFFFFF00000000000000000000000000000000000000000000000000000000000000
310
FF00000000000000000000000000000000000000000000000000000000000000FF00000000000000000000000000000000000000000000000000000000000000FFFFFFFFFFFFFF00000000000000000000000000000000000000000000000000FF0000000000FF000000000000000000000000000000000000000000000000
310
00FF0000000000FF00000000000000000000000000000000000000000000000000FF0000000000FF00000000000000000000000000000000000000000000000000FF0000000000FF00000000000000000000000000000000000000000000000000FF0000000000FF0000000000000000000000000000000000000000000000
310
0000FF0000000000FF000000000000000000000000000000000000000000000000F9FF0000000000FF0000000000000000000000000000000000000000000000F9F9FF0000000000FF000000000000000000000000000000000000000000000000F9FF0000000000FF00000000000000000000000000000000000000000000
310
000000FF0000000000FF00000000000000000000000000000000000000000000000000FF0000000000FF00000000000000000000000000000000000000000000000000FF0000000000FF0000000000000000000000000000000000000000000000000000000000000000000000000000000000000000000000000000000000
310
00000000000000000000000000000000000000000000000000000000000000000000000000000000000000000000000000000000000000000000000000000000000000000000000000000000000000000000000000000000000000000000000000000000000000000000000000000000000000000000000000000000000000
310
00000000000000000000000000000000000000000000000000000000000000000000000000000000000000000000000000000000000000000000000000000000000000000000000000000000000000000000000000000000000000000000000000000000000000000000000000000000000000000000000000000000000000
310
000000FF000000A4A4A4A4FFFF00000000000000000000000000000000000000000000FFFFFFFFFFFFFFFFFFFF000000000000000000000000000000000000000000FFFFFFFFFFFF00000000000000000000000000000000000000000000000000F9FFFFFFFFFFFEF900000000000000000000000000000000000000000000
310
0000000000FFFFFF000000000000000000000000000000000000000000000000000000000000000000000000000000000000000000000000
102
{BLKREFS
331
9030
102
}
 70
     4
280
     1
281
     1
  0
BLOCK_RECORD
  5
9031
102
{ACAD_XDICTIONARY
360
91D7
102
}
330
1
100
AcDbSymbolTableRecord
100
AcDbBlockTableRecord
  2
ケースＢ SSM315
340
0
310
2800000020000000200000000100080000000000000400000000000000000000000000000000000000000000000080000080000000808000800000008000800080800000C0C0C000C0DCC000F0CAA6000020400000206000002080000020A0000020C0000020E00000400000004020000040400000406000004080000040A0
310
000040C0000040E00000600000006020000060400000606000006080000060A0000060C0000060E00000800000008020000080400000806000008080000080A0000080C0000080E00000A0000000A0200000A0400000A0600000A0800000A0A00000A0C00000A0E00000C0000000C0200000C0400000C0600000C0800000C0
310
A00000C0C00000C0E00000E0000000E0200000E0400000E0600000E0800000E0A00000E0C00000E0E00040000000400020004000400040006000400080004000A0004000C0004000E00040200000402020004020400040206000402080004020A0004020C0004020E000404000004040200040404000404060004040800040
310
40A0004040C0004040E00040600000406020004060400040606000406080004060A0004060C0004060E00040800000408020004080400040806000408080004080A0004080C0004080E00040A0000040A0200040A0400040A0600040A0800040A0A00040A0C00040A0E00040C0000040C0200040C0400040C0600040C08000
310
40C0A00040C0C00040C0E00040E0000040E0200040E0400040E0600040E0800040E0A00040E0C00040E0E00080000000800020008000400080006000800080008000A0008000C0008000E00080200000802020008020400080206000802080008020A0008020C0008020E00080400000804020008040400080406000804080
310
008040A0008040C0008040E00080600000806020008060400080606000806080008060A0008060C0008060E00080800000808020008080400080806000808080008080A0008080C0008080E00080A0000080A0200080A0400080A0600080A0800080A0A00080A0C00080A0E00080C0000080C0200080C0400080C0600080C0
310
800080C0A00080C0C00080C0E00080E0000080E0200080E0400080E0600080E0800080E0A00080E0C00080E0E000C0000000C0002000C0004000C0006000C0008000C000A000C000C000C000E000C0200000C0202000C0204000C0206000C0208000C020A000C020C000C020E000C0400000C0402000C0404000C0406000C0
310
408000C040A000C040C000C040E000C0600000C0602000C0604000C0606000C0608000C060A000C060C000C060E000C0800000C0802000C0804000C0806000C0808000C080A000C080C000C080E000C0A00000C0A02000C0A04000C0A06000C0A08000C0A0A000C0A0C000C0A0E000C0C00000C0C02000C0C04000C0C06000
310
C0C08000C0C0A000F0FBFF00A4A0A000808080000000FF0000FF000000FFFF00FF000000FF00FF00FFFF0000FFFFFF000000000000000000000000000000000000000000000000000000000000000000000000000000000000000000000000000000FFFFFF0000000000000000000000000000000000000000000000000000
310
000000FF00FF0000000000000000000000000000000000000000000000000000000000FF00FF00000000000000000000000000000000000000000000FFFFFFFFFFFFFFFF00FF00000000000000000000000000000000000000000000FF000000000000FF00FF00000000000000000000000000000000000000000000FF0000
310
00000000FF00FF00000000000000000000000000000000000000000000FF000000000000FF00FF00000000000000000000000000000000000000000000FF000000000000FF00FF00000000000000000000000000000000000000000000FF000000000000FF00FF00000000000000000000000000000000000000000000FF00
310
0000000000FF00FF00000000000000000000000000000000000000000000FF000000000000FF00FF00000000000000000000000000000000000000000000FF000000000000FF00FF00000000000000000000000000000000000000000000FF000000000000FF00FF00000000000000000000000000000000000000000000FF
310
000000000000FF00FF00000000000000000000000000000000000000000000FF000000000000FF00FF00000000000000000000000000000000000000000000FF000000000000FF00FF000000000000000000000000000000000000000000000000000000000000000000000000000000000000000000000000000000000000
310
00000000000000000000000000000000000000000000000000000000000000000000000000000000000000000000000000000000000000000000000000000000000000000000000000000000000000000000000000000000000000000000000000000000000000000000000000000000000000000000000000000000000000
310
00000000000000000000000000000000000000000000000000000000000000000000000000000000000000000000000000000000000000000000000000000000000000000000000000000000000000000000000000000000000000000000000000000000000000000000000000000000000000000000000000000000000000
310
0000FFFFF9F9F9F9F900FF0000000000000000000000000000000000000000000000FFFFF9F9F9F9FFFFFFFF00000000000000000000000000000000000000000000000000000000FFFFFFFF00000000000000000000000000000000000000000000000000000000FFFFFFFF00000000000000000000000000000000000000
310
00000000000000000000FFFFFF00000000000000000000000000000000000000000000000000000000000000000000000000000000000000
102
{BLKREFS
331
9078
102
}
 70
     4
280
     1
281
     1
  0
BLOCK_RECORD
  5
9227
102
{ACAD_XDICTIONARY
360
AC84
102
}
330
1
100
AcDbSymbolTableRecord
100
AcDbBlockTableRecord
  2
センタＡ SSM315
340
0
310
2800000020000000200000000100080000000000000400000000000000000000000000000000000000000000000080000080000000808000800000008000800080800000C0C0C000C0DCC000F0CAA6000020400000206000002080000020A0000020C0000020E00000400000004020000040400000406000004080000040A0
310
000040C0000040E00000600000006020000060400000606000006080000060A0000060C0000060E00000800000008020000080400000806000008080000080A0000080C0000080E00000A0000000A0200000A0400000A0600000A0800000A0A00000A0C00000A0E00000C0000000C0200000C0400000C0600000C0800000C0
310
A00000C0C00000C0E00000E0000000E0200000E0400000E0600000E0800000E0A00000E0C00000E0E00040000000400020004000400040006000400080004000A0004000C0004000E00040200000402020004020400040206000402080004020A0004020C0004020E000404000004040200040404000404060004040800040
310
40A0004040C0004040E00040600000406020004060400040606000406080004060A0004060C0004060E00040800000408020004080400040806000408080004080A0004080C0004080E00040A0000040A0200040A0400040A0600040A0800040A0A00040A0C00040A0E00040C0000040C0200040C0400040C0600040C08000
310
40C0A00040C0C00040C0E00040E0000040E0200040E0400040E0600040E0800040E0A00040E0C00040E0E00080000000800020008000400080006000800080008000A0008000C0008000E00080200000802020008020400080206000802080008020A0008020C0008020E00080400000804020008040400080406000804080
310
008040A0008040C0008040E00080600000806020008060400080606000806080008060A0008060C0008060E00080800000808020008080400080806000808080008080A0008080C0008080E00080A0000080A0200080A0400080A0600080A0800080A0A00080A0C00080A0E00080C0000080C0200080C0400080C0600080C0
310
800080C0A00080C0C00080C0E00080E0000080E0200080E0400080E0600080E0800080E0A00080E0C00080E0E000C0000000C0002000C0004000C0006000C0008000C000A000C000C000C000E000C0200000C0202000C0204000C0206000C0208000C020A000C020C000C020E000C0400000C0402000C0404000C0406000C0
310
408000C040A000C040C000C040E000C0600000C0602000C0604000C0606000C0608000C060A000C060C000C060E000C0800000C0802000C0804000C0806000C0808000C080A000C080C000C080E000C0A00000C0A02000C0A04000C0A06000C0A08000C0A0A000C0A0C000C0A0E000C0C00000C0C02000C0C04000C0C06000
310
C0C08000C0C0A000F0FBFF00A4A0A000808080000000FF0000FF000000FFFF00FF000000FF00FF00FFFF0000FFFFFF00000000000000000000000000000000000000000000000000000000000000000000000000000000000000000000000000FFFFFFFF000000000000000000000000000000000000000000000000000000
310
00000000FFFFFFFFFFFFFF00000000000000000000000000000000000000000000000000FF0000000000FF00000000000000000000000000000000000000000000000000FF0000000000FF00000000000000000000000000000000000000000000000000FF0000000000FF0000000000000000000000000000000000000000
310
0000000000FF0000000000FF00000000000000000000000000000000000000000000000000FF0000000000FF00000000000000000000000000000000000000000000000000FF0000000000FF00000000000000000000000000000000000000000000000000FF0000000000FF00000000000000000000000000000000000000
310
000000000000FF0000000000FF00000000000000000000000000000000000000000000000000FF0000000000FF00000000000000000000000000000000000000000000000000FF0000000000FF00000000000000000000000000000000000000000000000000FF0000000000FF000000000000000000000000000000000000
310
00000000000000FF0000000000FF000000000000000000000000FFA4A4A4A40000000000000000FF0000000000FF000000000000000000000000FF000000000000000000000000000000000000FF000000000000000000000000FF000000000000000000000000000000000000FF000000000000000000000000FF00000000
310
0000000000000000000000000000FF000000000000000000000000FF000000000000000000000000000000000000FF000000000000000000000000FF000000000000000000000000000000000000FF000000000000000000000000FF000000000000000000000000000000000000FF000000000000000000000000FFFFFFFF
310
FFFFFFFFFFFFFFFFFFFFFFFFFFFFFFFF000000000000000000000000FFFFFFFFFFFFFFFFFFFFFFFFFFFFFFFFFFFFFFFF000000000000000000000000FF000000000000000000000000000000000000FF000000000000000000000000FF000000000000000000000000000000000000FF000000000000000000000000FF0000
310
00000000000000000000000000000000FF000000000000000000000000FF000000000000000000000000000000000000FF000000000000000000000000FFFFFFFFFFF9FFFFFFFFFFFFFFFFFFFFFFFFFFFF000000000000000000000000000000FFFFF9FFFFFF00000000000000000000000000000000000000000000000000
310
000000F900000000000000000000000000000000000000000000000000000000000000000000000000000000000000000000000000000000
102
{BLKREFS
331
924D
102
}
 70
     4
280
     1
281
     1
  0
BLOCK_RECORD
  5
924E
102
{ACAD_XDICTIONARY
360
AC12
102
}
330
1
100
AcDbSymbolTableRecord
100
AcDbBlockTableRecord
  2
センタＢ SSM315
340
0
310
2800000020000000200000000100080000000000000400000000000000000000000000000000000000000000000080000080000000808000800000008000800080800000C0C0C000C0DCC000F0CAA6000020400000206000002080000020A0000020C0000020E00000400000004020000040400000406000004080000040A0
310
000040C0000040E00000600000006020000060400000606000006080000060A0000060C0000060E00000800000008020000080400000806000008080000080A0000080C0000080E00000A0000000A0200000A0400000A0600000A0800000A0A00000A0C00000A0E00000C0000000C0200000C0400000C0600000C0800000C0
310
A00000C0C00000C0E00000E0000000E0200000E0400000E0600000E0800000E0A00000E0C00000E0E00040000000400020004000400040006000400080004000A0004000C0004000E00040200000402020004020400040206000402080004020A0004020C0004020E000404000004040200040404000404060004040800040
310
40A0004040C0004040E00040600000406020004060400040606000406080004060A0004060C0004060E00040800000408020004080400040806000408080004080A0004080C0004080E00040A0000040A0200040A0400040A0600040A0800040A0A00040A0C00040A0E00040C0000040C0200040C0400040C0600040C08000
310
40C0A00040C0C00040C0E00040E0000040E0200040E0400040E0600040E0800040E0A00040E0C00040E0E00080000000800020008000400080006000800080008000A0008000C0008000E00080200000802020008020400080206000802080008020A0008020C0008020E00080400000804020008040400080406000804080
310
008040A0008040C0008040E00080600000806020008060400080606000806080008060A0008060C0008060E00080800000808020008080400080806000808080008080A0008080C0008080E00080A0000080A0200080A0400080A0600080A0800080A0A00080A0C00080A0E00080C0000080C0200080C0400080C0600080C0
310
800080C0A00080C0C00080C0E00080E0000080E0200080E0400080E0600080E0800080E0A00080E0C00080E0E000C0000000C0002000C0004000C0006000C0008000C000A000C000C000C000E000C0200000C0202000C0204000C0206000C0208000C020A000C020C000C020E000C0400000C0402000C0404000C0406000C0
310
408000C040A000C040C000C040E000C0600000C0602000C0604000C0606000C0608000C060A000C060C000C060E000C0800000C0802000C0804000C0806000C0808000C080A000C080C000C080E000C0A00000C0A02000C0A04000C0A06000C0A08000C0A0A000C0A0C000C0A0E000C0C00000C0C02000C0C04000C0C06000
310
C0C08000C0C0A000F0FBFF00A4A0A000808080000000FF0000FF000000FFFF00FF000000FF00FF00FFFF0000FFFFFF000000000000000000000000000000000000000000000000000000000000000000000000000000000000000000FFFFFFFF00000000000000000000000000000000000000000000FFFFFFFFFFFFFF0000
310
0000000000000000000000000000000000000000000000FF0000000000FF00000000000000000000000000000000000000000000000000FF0000000000FF00000000000000000000000000000000000000000000000000FF0000000000FF00000000000000000000000000000000000000000000000000FF0000000000FF00
310
000000000000000000000000000000000000000000000000FF0000000000FF00000000000000000000000000000000000000000000000000FF0000000000FF00000000000000000000000000000000000000000000000000FF0000000000FF00000000000000000000000000000000000000000000000000FF0000000000FF
310
00000000000000000000000000000000000000000000000000FF0000000000FF00000000000000000000000000000000000000000000000000FF0000000000FF00000000000000000000000000000000000000000000000000FF0000000000FF00000000000000000000000000000000000000000000000000FF0000000000
310
FF00000000000000000000000000000000000000000000000000FF0000000000FF0000000000000000A4A4A4A4FF000000000000000000000000FF000000000000000000000000000000000000FF000000000000000000000000FF000000000000000000000000000000000000FF000000000000000000000000FF00000000
310
0000000000000000000000000000FF000000000000000000000000FF000000000000000000000000000000000000FF000000000000000000000000FF000000000000000000000000000000000000FF000000000000000000000000FF000000000000000000000000000000000000FF000000000000000000000000FFFFFFFF
310
FFFFFFFFFFFFFFFFFFFFFFFFFFFFFFFF000000000000000000000000FFFFFFFFFFFFFFFFFFFFFFFFFFFFFFFFFFFFFFFF000000000000000000000000FF000000000000000000000000000000000000FF000000000000000000000000FF000000000000000000000000000000000000FF000000000000000000000000FF0000
310
00000000000000000000000000000000FF000000000000000000000000FF000000000000000000000000000000000000FF000000000000000000000000FFFFFFFFFFFFFFFFFFFFFFFFFFFFF9FFFFFFFFFF0000000000000000000000000000000000000000000000FFFFFFF9FFFF0000000000000000000000000000000000
310
000000000000000000000000F900000000000000000000000000000000000000000000000000000000000000000000000000000000000000
102
{BLKREFS
331
9275
102
}
 70
     4
280
     1
281
     1
  0
BLOCK_RECORD
  5
950C
330
1
100
AcDbSymbolTableRecord
100
AcDbBlockTableRecord
  2
*D9
340
0
 70
     0
280
     1
281
     0
  0
BLOCK_RECORD
  5
9549
330
1
100
AcDbSymbolTableRecord
100
AcDbBlockTableRecord
  2
*D10
340
0
 70
     0
280
     1
281
     0
  0
BLOCK_RECORD
  5
95A7
330
1
100
AcDbSymbolTableRecord
100
AcDbBlockTableRecord
  2
*D11
340
0
 70
     0
280
     1
281
     0
  0
BLOCK_RECORD
  5
9622
330
1
100
AcDbSymbolTableRecord
100
AcDbBlockTableRecord
  2
*D12
340
0
 70
     0
280
     1
281
     0
  0
BLOCK_RECORD
  5
965F
330
1
100
AcDbSymbolTableRecord
100
AcDbBlockTableRecord
  2
*D13
340
0
 70
     0
280
     1
281
     0
  0
BLOCK_RECORD
  5
96D4
330
1
100
AcDbSymbolTableRecord
100
AcDbBlockTableRecord
  2
*D14
340
0
 70
     0
280
     1
281
     0
  0
BLOCK_RECORD
  5
9706
330
1
100
AcDbSymbolTableRecord
100
AcDbBlockTableRecord
  2
*D15
340
0
 70
     0
280
     1
281
     0
  0
BLOCK_RECORD
  5
979D
330
1
100
AcDbSymbolTableRecord
100
AcDbBlockTableRecord
  2
*D16
340
0
 70
     0
280
     1
281
     0
  0
BLOCK_RECORD
  5
98E7
330
1
100
AcDbSymbolTableRecord
100
AcDbBlockTableRecord
  2
*D17
340
0
 70
     0
280
     1
281
     0
  0
BLOCK_RECORD
  5
9912
330
1
100
AcDbSymbolTableRecord
100
AcDbBlockTableRecord
  2
*D18
340
0
 70
     0
280
     1
281
     0
  0
BLOCK_RECORD
  5
9945
330
1
100
AcDbSymbolTableRecord
100
AcDbBlockTableRecord
  2
*D19
340
0
 70
     0
280
     1
281
     0
  0
BLOCK_RECORD
  5
9978
330
1
100
AcDbSymbolTableRecord
100
AcDbBlockTableRecord
  2
*D20
340
0
 70
     0
280
     1
281
     0
  0
BLOCK_RECORD
  5
A919
102
{ACAD_XDICTIONARY
360
BCDC
102
}
330
1
100
AcDbSymbolTableRecord
100
AcDbBlockTableRecord
  2
ロッカクアナツキプラグ R1／4
340
0
310
2800000020000000200000000100080000000000000400000000000000000000000000000000000000000000000080000080000000808000800000008000800080800000C0C0C000C0DCC000F0CAA6000020400000206000002080000020A0000020C0000020E00000400000004020000040400000406000004080000040A0
310
000040C0000040E00000600000006020000060400000606000006080000060A0000060C0000060E00000800000008020000080400000806000008080000080A0000080C0000080E00000A0000000A0200000A0400000A0600000A0800000A0A00000A0C00000A0E00000C0000000C0200000C0400000C0600000C0800000C0
310
A00000C0C00000C0E00000E0000000E0200000E0400000E0600000E0800000E0A00000E0C00000E0E00040000000400020004000400040006000400080004000A0004000C0004000E00040200000402020004020400040206000402080004020A0004020C0004020E000404000004040200040404000404060004040800040
310
40A0004040C0004040E00040600000406020004060400040606000406080004060A0004060C0004060E00040800000408020004080400040806000408080004080A0004080C0004080E00040A0000040A0200040A0400040A0600040A0800040A0A00040A0C00040A0E00040C0000040C0200040C0400040C0600040C08000
310
40C0A00040C0C00040C0E00040E0000040E0200040E0400040E0600040E0800040E0A00040E0C00040E0E00080000000800020008000400080006000800080008000A0008000C0008000E00080200000802020008020400080206000802080008020A0008020C0008020E00080400000804020008040400080406000804080
310
008040A0008040C0008040E00080600000806020008060400080606000806080008060A0008060C0008060E00080800000808020008080400080806000808080008080A0008080C0008080E00080A0000080A0200080A0400080A0600080A0800080A0A00080A0C00080A0E00080C0000080C0200080C0400080C0600080C0
310
800080C0A00080C0C00080C0E00080E0000080E0200080E0400080E0600080E0800080E0A00080E0C00080E0E000C0000000C0002000C0004000C0006000C0008000C000A000C000C000C000E000C0200000C0202000C0204000C0206000C0208000C020A000C020C000C020E000C0400000C0402000C0404000C0406000C0
310
408000C040A000C040C000C040E000C0600000C0602000C0604000C0606000C0608000C060A000C060C000C060E000C0800000C0802000C0804000C0806000C0808000C080A000C080C000C080E000C0A00000C0A02000C0A04000C0A06000C0A08000C0A0A000C0A0C000C0A0E000C0C00000C0C02000C0C04000C0C06000
310
C0C08000C0C0A000F0FBFF00A4A0A000808080000000FF0000FF000000FFFF00FF000000FF00FF00FFFF0000FFFFFF0000000000000000000000000000000000000000000000000000000000000000000000000000000000000000000000000000000000000000000000000000000000000000000000000000000000000000
310
000000000000000000000000000000000000000000000000000000000000000000F900000000000000000000000000000000000000000000000000000000000000F9000000000000000000000000000000000000000000000000000000000000FFF9FF0000000000000000000000000000000000000000000000000000FFFF
310
FFFEF900FFFF00000000000000000000000000000000000000000000FFFF00FEFE00F9FEFE00FFFF000000000000000000000000000000000000FFFF00FEFE000000F90000FEFE00FFFF00000000000000000000000000000000FFFEFE0000000000F900000000FEFEFF000000000000000000000000000000FF00FE000000
310
000000F90000000000FE00FF0000000000000000000000000000FFFE00000000000000FF000000000000FEFF0000000000000000000000000000FFFE0000000000FFFFF9FFFF00000000FE00FF000000000000000000000000FFFE00000000FFFF0000F90000FF00000000FEFF000000000000000000000000FFFE00000000
310
FF000000F90000FF00000000FEFF0000000000000000000000FFFE0000000000FF000000F90000FF0000000000FEFF000000000000F9F9F9F9F9F9F9F9F9F9F9FFF9F9F9F9F9F9FFF9F9F9F9F9F9F9F9F9F9F9000000000000FF00FE00000000FF000000F90000FF0000000000FEFF0000000000000000000000FFFE000000
310
00FF000000F90000FF00000000FEFF000000000000000000000000FF00FE00000000FFFF00F9FFFF0000000000FEFF00000000000000000000000000FFFE000000000000FFFF000000000000FEFF0000000000000000000000000000FF00FE000000000000F9000000000000FEFF000000000000000000000000000000FFFE
310
FE0000000000F90000000000FEFF00000000000000000000000000000000FFFF00FEFE000000F9000000FEFEFFFF000000000000000000000000000000000000FFFFFFFEFE00F900FEFEFFFF0000000000000000000000000000000000000000000000FFFFFEF9FEFFFF000000000000000000000000000000000000000000
310
000000000000FFF9FF000000000000000000000000000000000000000000000000000000000000F900000000000000000000000000000000000000000000000000000000000000F900000000000000000000000000000000000000000000000000000000000000000000000000000000000000000000000000000000000000
310
0000000000000000000000000000000000000000000000000000000000000000000000000000000000000000000000000000000000000000
102
{BLKREFS
331
A969
102
}
 70
     4
280
     1
281
     1
  0
BLOCK_RECORD
  5
AC86
102
{ACAD_XDICTIONARY
360
AD41
102
}
330
1
100
AcDbSymbolTableRecord
100
AcDbBlockTableRecord
  2
リーマボルト SSM315 M12
340
0
310
2800000020000000200000000100080000000000000400000000000000000000000000000000000000000000000080000080000000808000800000008000800080800000C0C0C000C0DCC000F0CAA6000020400000206000002080000020A0000020C0000020E00000400000004020000040400000406000004080000040A0
310
000040C0000040E00000600000006020000060400000606000006080000060A0000060C0000060E00000800000008020000080400000806000008080000080A0000080C0000080E00000A0000000A0200000A0400000A0600000A0800000A0A00000A0C00000A0E00000C0000000C0200000C0400000C0600000C0800000C0
310
A00000C0C00000C0E00000E0000000E0200000E0400000E0600000E0800000E0A00000E0C00000E0E00040000000400020004000400040006000400080004000A0004000C0004000E00040200000402020004020400040206000402080004020A0004020C0004020E000404000004040200040404000404060004040800040
310
40A0004040C0004040E00040600000406020004060400040606000406080004060A0004060C0004060E00040800000408020004080400040806000408080004080A0004080C0004080E00040A0000040A0200040A0400040A0600040A0800040A0A00040A0C00040A0E00040C0000040C0200040C0400040C0600040C08000
310
40C0A00040C0C00040C0E00040E0000040E0200040E0400040E0600040E0800040E0A00040E0C00040E0E00080000000800020008000400080006000800080008000A0008000C0008000E00080200000802020008020400080206000802080008020A0008020C0008020E00080400000804020008040400080406000804080
310
008040A0008040C0008040E00080600000806020008060400080606000806080008060A0008060C0008060E00080800000808020008080400080806000808080008080A0008080C0008080E00080A0000080A0200080A0400080A0600080A0800080A0A00080A0C00080A0E00080C0000080C0200080C0400080C0600080C0
310
800080C0A00080C0C00080C0E00080E0000080E0200080E0400080E0600080E0800080E0A00080E0C00080E0E000C0000000C0002000C0004000C0006000C0008000C000A000C000C000C000E000C0200000C0202000C0204000C0206000C0208000C020A000C020C000C020E000C0400000C0402000C0404000C0406000C0
310
408000C040A000C040C000C040E000C0600000C0602000C0604000C0606000C0608000C060A000C060C000C060E000C0800000C0802000C0804000C0806000C0808000C080A000C080C000C080E000C0A00000C0A02000C0A04000C0A06000C0A08000C0A0A000C0A0C000C0A0E000C0C00000C0C02000C0C04000C0C06000
310
C0C08000C0C0A000F0FBFF00A4A0A000808080000000FF0000FF000000FFFF00FF000000FF00FF00FFFF0000FFFFFF0000000000000000000000000000000000000000000000000000000000000000000000000000000000000000000000000000000000000000000000000000000000000000000000000000000000000000
310
00000000000000000000000000000000000000000000000000000000000000000000000000000000000000000000000000000000000000000000000000000000000000000000000000000000000000000000000000000000000000000000000000000000000000000000000000000000000000000000000000000000000000
310
00000000000000000000000000000000000000000000000000000000000000000000000000000000000000000000000000000000000000000000000000000000000000000000000000000000000000000000000000000000000000000000000000000000000000000000000000000000000000000000000000000000000000
310
000000000000000000000000000000000000000000FFFFFFFF00000000000000000000000000000000FFFFFFFFFFFF0000000000FFFF0000000000000000000000000000000000000000FF000000FFFF00000000FFFFFFFFFFFFFFFFFFFFFFFFFFFFFFFFFFFFFFFFFFFFFFFFFFFFFFFEFE000000FFFF000000FF0000000000
310
0000000000000000FF0000FF000000FFFFFFFF0000FFFF000000FF00000000000000000000000000FF00FFFF000000FFFFFFFF0000FFFF000000FF00000000000000000000000000FF0000FF000000FFFFFFFF0000FFFF000000FF00000000000000000000000000FF0000FF000000FFFFFFFF0000FFFFFFFFFFFFFFFFFFFF
310
FFFFFFFFFFFFFFFFFFFFFFFFFFFFFFFFFFFEFE000000FFFF0000000000000000000000000000000000000000FF000000FFFF0000000000FFFFFFFF00000000000000000000000000000000FFFFFFFFFFFF00000000000000000000000000000000000000000000000000000000000000000000000000000000000000000000
310
00000000000000000000000000000000000000000000000000000000000000000000000000000000000000000000000000000000000000000000000000000000000000000000000000000000000000000000000000000000000000000000000000000000000000000000000000000000000000000000000000000000000000
310
00000000000000000000000000000000000000000000000000000000000000000000000000000000000000000000000000000000000000000000000000000000000000000000000000000000000000000000000000000000000000000000000000000000000000000000000000000000000000000000000000000000000000
310
0000000000000000000000000000000000000000000000000000000000000000000000000000000000000000000000000000000000000000
102
{BLKREFS
331
ACB5
102
}
 70
     4
280
     1
281
     1
  0
BLOCK_RECORD
  5
D9A7
330
1
100
AcDbSymbolTableRecord
100
AcDbBlockTableRecord
  2
GENDOT
340
0
102
{BLKREFS
331
DA5C
331
DA72
102
}
 70
     0
280
     1
281
     0
  0
BLOCK_RECORD
  5
E56C
330
1
100
AcDbSymbolTableRecord
100
AcDbBlockTableRecord
  2
*D24
340
0
 70
     0
280
     1
281
     0
  0
BLOCK_RECORD
  5
E5CA
330
1
100
AcDbSymbolTableRecord
100
AcDbBlockTableRecord
  2
*D25
340
0
 70
     0
280
     1
281
     0
  0
BLOCK_RECORD
  5
E640
330
1
100
AcDbSymbolTableRecord
100
AcDbBlockTableRecord
  2
*D26
340
0
 70
     0
280
     1
281
     0
  0
BLOCK_RECORD
  5
E82D
330
1
100
AcDbSymbolTableRecord
100
AcDbBlockTableRecord
  2
ケース
340
0
310
2800000020000000200000000100080000000000000400000000000000000000000000000000000000000000000080000080000000808000800000008000800080800000C0C0C000C0DCC000F0CAA6000020400000206000002080000020A0000020C0000020E00000400000004020000040400000406000004080000040A0
310
000040C0000040E00000600000006020000060400000606000006080000060A0000060C0000060E00000800000008020000080400000806000008080000080A0000080C0000080E00000A0000000A0200000A0400000A0600000A0800000A0A00000A0C00000A0E00000C0000000C0200000C0400000C0600000C0800000C0
310
A00000C0C00000C0E00000E0000000E0200000E0400000E0600000E0800000E0A00000E0C00000E0E00040000000400020004000400040006000400080004000A0004000C0004000E00040200000402020004020400040206000402080004020A0004020C0004020E000404000004040200040404000404060004040800040
310
40A0004040C0004040E00040600000406020004060400040606000406080004060A0004060C0004060E00040800000408020004080400040806000408080004080A0004080C0004080E00040A0000040A0200040A0400040A0600040A0800040A0A00040A0C00040A0E00040C0000040C0200040C0400040C0600040C08000
310
40C0A00040C0C00040C0E00040E0000040E0200040E0400040E0600040E0800040E0A00040E0C00040E0E00080000000800020008000400080006000800080008000A0008000C0008000E00080200000802020008020400080206000802080008020A0008020C0008020E00080400000804020008040400080406000804080
310
008040A0008040C0008040E00080600000806020008060400080606000806080008060A0008060C0008060E00080800000808020008080400080806000808080008080A0008080C0008080E00080A0000080A0200080A0400080A0600080A0800080A0A00080A0C00080A0E00080C0000080C0200080C0400080C0600080C0
310
800080C0A00080C0C00080C0E00080E0000080E0200080E0400080E0600080E0800080E0A00080E0C00080E0E000C0000000C0002000C0004000C0006000C0008000C000A000C000C000C000E000C0200000C0202000C0204000C0206000C0208000C020A000C020C000C020E000C0400000C0402000C0404000C0406000C0
310
408000C040A000C040C000C040E000C0600000C0602000C0604000C0606000C0608000C060A000C060C000C060E000C0800000C0802000C0804000C0806000C0808000C080A000C080C000C080E000C0A00000C0A02000C0A04000C0A06000C0A08000C0A0A000C0A0C000C0A0E000C0C00000C0C02000C0C04000C0C06000
310
C0C08000C0C0A000F0FBFF00A4A0A000808080000000FF0000FF000000FFFF00FF000000FF00FF00FFFF0000FFFFFF0000000000000000000000000000000000000000000000000000000000000000000000000000000000000000000000000000000000000000000000000000000000000000000000000000000000000000
310
00000000000000000000000000000000000000000000000000000000000000000000000000000000000000000000000000000000000000000000000000000000000000000000000000000000000000000000000000000000000000000000000000000000000000000000000000000000000000000000000000000000000000
310
000000000000000000000000000000000000000000000000000000000000000000000000000000000000000000000000000000FC00FC000000000000000000FC00FC0000000000000000000000000000000000FCFCFC000000000000000000FCFCFC0000000000000000000000000000000000FC00FC000000000000000000
310
FC00FC0000000000000000000000000000000000FC00FC000000000000000000FC00FC0000000000000000000000000000000000FC00FC000000000000000000FC00FC0000000000FCFCFCFCFCFCFCFCFCFC0000FC00FC000000000000000000FC00FC00000000FC000000000000000000000000FC0000FCFCFCFCFCFCFCFC
310
FCFC00FC0000FCFCFCFCFCFCFCFCFCFCFCFCFC0000FC00000000000000000000000000FC00000000FC000000000000000000000000FC00000000000000000000000000FC00000000FC000000000000000000000000FC00000000000000000000000000FCFCFCFCFCFCFCFCFCFCFCFCFCFCFCFC0000FC000000000000000000
310
00000000000000000000000000000000000000000000FC00000000000000000000000000000000000000000000000000000000000000FC0000000000000000000000000000000000000000000000000000000000000000FCFC0000000000000000000000000000000000000000000000000000000000000000FC0000000000
310
000000000000000000000000000000000000000000000000000000FCFCFCFCFCFCFCFCFCFCFCFCFCFCFCFCFCFCFCFCFCFCFCFCFCFC0000000000000000000000000000000000000000000000000000000000000000000000000000000000000000000000000000000000000000000000000000000000000000000000000000
310
00000000000000000000000000000000000000000000000000000000000000000000000000000000000000000000000000000000000000000000000000000000000000000000000000000000000000000000000000000000000000000000000000000000000000000000000000000000000000000000000000000000000000
310
0000000000000000000000000000000000000000000000000000000000000000000000000000000000000000000000000000000000000000
102
{BLKREFS
331
E848
102
}
 70
     4
280
     1
281
     1
  0
ENDTAB
  0
ENDSEC
  0
SECTION
  2
BLOCKS
  0
BLOCK
  5
4F
330
18
100
AcDbEntity
  8
0
100
AcDbBlockBegin
  2
*MODEL_SPACE
 70
     0
 10
0.0
 20
0.0
 30
0.0
  3
*MODEL_SPACE
  1

  0
ENDBLK
  5
50
330
18
100
AcDbEntity
  8
0
100
AcDbBlockEnd
  0
BLOCK
  5
4D
330
15
100
AcDbEntity
 67
     1
  8
0
100
AcDbBlockBegin
  2
*PAPER_SPACE
 70
     0
 10
0.0
 20
0.0
 30
0.0
  3
*PAPER_SPACE
  1

  0
ENDBLK
  5
4E
330
15
100
AcDbEntity
 67
     1
  8
0
100
AcDbBlockEnd
  0
BLOCK
  5
87E9
330
322
100
AcDbEntity
  8
0
100
AcDbBlockBegin
  2
_Open30
 70
     0
 10
0.0
 20
0.0
 30
0.0
  3
_Open30
  1

  0
LINE
  5
87EA
330
322
100
AcDbEntity
  8
0
  6
ByBlock
 62
     0
370
    -2
100
AcDbLine
 10
-1.0
 20
0.26794919
 30
0.0
 11
0.0
 21
0.0
 31
0.0
  0
LINE
  5
87EB
330
322
100
AcDbEntity
  8
0
  6
ByBlock
 62
     0
370
    -2
100
AcDbLine
 10
0.0
 20
0.0
 30
0.0
 11
-1.0
 21
-0.26794919
 31
0.0
  0
LINE
  5
87EC
330
322
100
AcDbEntity
  8
0
  6
ByBlock
 62
     0
370
    -2
100
AcDbLine
 10
0.0
 20
0.0
 30
0.0
 11
-1.0
 21
0.0
 31
0.0
  0
ENDBLK
  5
87ED
330
322
100
AcDbEntity
  8
0
100
AcDbBlockEnd
  0
BLOCK
  5
87F5
330
8603
100
AcDbEntity
  8
0
100
AcDbBlockBegin
  2
GENAXEH
 70
     0
 10
0.0
 20
0.0
 30
0.0
  3
GENAXEH
  1

  0
LINE
  5
87F6
330
8603
100
AcDbEntity
  8
0
100
AcDbLine
 10
-1.0
 20
0.0
 30
0.0
 11
1.0
 21
0.0
 31
0.0
  0
ENDBLK
  5
87F7
330
8603
100
AcDbEntity
  8
0
100
AcDbBlockEnd
  0
BLOCK
  5
8FC9
330
8FC8
100
AcDbEntity
  8
0
100
AcDbBlockBegin
  2
ケースＡ SSM315
 70
     0
 10
0.0
 20
0.0
 30
0.0
  3
ケースＡ SSM315
  1

  0
LINE
  5
8FCB
330
8FC8
100
AcDbEntity
  8
AM_0 外形線1
100
AcDbLine
 10
98.0
 20
-126.0
 30
0.0
 11
98.0
 21
-121.0481950000001
 31
0.0
  0
LINE
  5
8FCC
330
8FC8
100
AcDbEntity
  8
AM_0 外形線1
100
AcDbLine
 10
21.0
 20
-156.5
 30
0.0
 11
21.0
 21
0.0
 31
0.0
  0
LINE
  5
8FCD
330
8FC8
100
AcDbEntity
  8
AM_0 外形線1
100
AcDbLine
 10
25.0
 20
-130.0
 30
0.0
 11
94.0
 21
-130.0
 31
0.0
  0
LINE
  5
8FCE
330
8FC8
100
AcDbEntity
  8
AM_0 外形線1
100
AcDbLine
 10
1.0
 20
-157.5
 30
0.0
 11
20.0
 21
-157.5
 31
0.0
  0
LINE
  5
8FCF
330
8FC8
100
AcDbEntity
  8
AM_0 外形線1
100
AcDbLine
 10
20.0
 20
-157.5
 30
0.0
 11
21.0
 21
-156.5
 31
0.0
  0
ARC
  5
8FD0
330
8FC8
100
AcDbEntity
  8
AM_0 外形線1
100
AcDbCircle
 10
25.0
 20
-134.0
 30
0.0
 40
4.0
100
AcDbArc
 50
90.0
 51
180.0
  0
ARC
  5
8FD1
330
8FC8
100
AcDbEntity
  8
AM_0 外形線1
100
AcDbCircle
 10
94.0
 20
-126.0
 30
0.0
 40
4.0
100
AcDbArc
 50
270.0
 51
0.0
  0
LINE
  5
8FDC
330
8FC8
100
AcDbEntity
  8
AM_0 外形線1
100
AcDbLine
 10
98.0
 20
-121.0481950000001
 30
0.0
 11
98.0
 21
0.0
 31
0.0
  0
LINE
  5
8FDD
330
8FC8
100
AcDbEntity
  8
AM_3 隠れ線
100
AcDbLine
 10
41.0
 20
117.6000000000001
 30
0.0
 11
75.0
 21
117.6000000000001
 31
0.0
  0
LINE
  5
8FDE
330
8FC8
100
AcDbEntity
  8
AM_7 中心線
100
AcDbLine
 10
35.0
 20
120.0
 30
0.0
 11
78.0
 21
120.0
 31
0.0
  0
LINE
  5
8FDF
330
8FC8
100
AcDbEntity
  8
AM_0 外形線1
100
AcDbLine
 10
25.0
 20
130.0
 30
0.0
 11
94.0
 21
130.0
 31
0.0
  0
LINE
  5
8FE0
330
8FC8
100
AcDbEntity
  8
AM_0 外形線1
100
AcDbLine
 10
37.0
 20
123.0
 30
0.0
 11
76.0
 21
123.0
 31
0.0
  0
LINE
  5
8FE4
330
8FC8
100
AcDbEntity
  8
AM_0 外形線1
100
AcDbLine
 10
21.0
 20
156.25
 30
0.0
 11
21.0
 21
134.75
 31
0.0
  0
LINE
  5
8FE5
330
8FC8
100
AcDbEntity
  8
AM_0 外形線1
100
AcDbLine
 10
0.0
 20
152.5
 30
0.0
 11
0.0
 21
156.5
 31
0.0
  0
LINE
  5
8FE6
330
8FC8
100
AcDbEntity
  8
AM_0 外形線1
100
AcDbLine
 10
21.0
 20
156.5
 30
0.0
 11
21.0
 21
152.5
 31
0.0
  0
LINE
  5
8FE7
330
8FC8
100
AcDbEntity
  8
AM_7 中心線
100
AcDbLine
 10
-34.0
 20
145.5
 30
0.0
 11
44.0
 21
145.5
 31
0.0
  0
LINE
  5
8FEA
330
8FC8
100
AcDbEntity
  8
AM_0 外形線1
100
AcDbLine
 10
36.0
 20
123.5
 30
0.0
 11
-4.0
 21
123.5
 31
0.0
  0
LINE
  5
8FEB
330
8FC8
100
AcDbEntity
  8
AM_0 外形線1
100
AcDbLine
 10
0.0
 20
138.5
 30
0.0
 11
21.0
 21
138.5
 31
0.0
  0
LINE
  5
8FEE
330
8FC8
100
AcDbEntity
  8
AM_0 外形線1
100
AcDbLine
 10
21.0
 20
152.5
 30
0.0
 11
0.0
 21
152.5
 31
0.0
  0
LWPOLYLINE
  5
8FEF
330
8FC8
100
AcDbEntity
  8
AM_0 外形線1
100
AcDbPolyline
 90
       73
 70
     0
 43
0.0
 10
1.349999999999909
 20
129.5
 10
1.467659999999795
 20
129.508372
 10
1.58442500000001
 20
129.5334230000001
 10
1.69940600000018
 20
129.574963
 10
1.811726999999791
 20
129.6326759999999
 10
1.920535000000199
 20
129.7061230000001
 10
2.02500000000009
 20
129.794744
 10
2.124327999999876
 20
129.897866
 10
2.217763000000104
 20
130.0147019999999
 10
2.304594000000179
 20
130.1443649999999
 10
2.384160000000064
 20
130.2858669999998
 10
2.455855000000154
 20
130.438132
 10
2.51913400000012
 20
130.6000000000001
 10
2.573515999999925
 20
130.77024
 10
2.618585000000166
 20
130.9475559999998
 10
2.653999999999995
 20
131.1305979999999
 10
2.679489999999987
 20
131.317974
 10
2.694863000000168
 20
131.5082570000002
 10
2.699999999999818
 20
131.7
 10
2.694863000000168
 20
131.8917429999999
 10
2.679489999999987
 20
132.0820259999998
 10
2.653999999999995
 20
132.2694019999999
 10
2.618585000000166
 20
132.452444
 10
2.573515999999925
 20
132.62976
 10
2.51913400000012
 20
132.7999999999999
 10
2.455855000000154
 20
132.9618680000001
 10
2.384160000000064
 20
133.114133
 10
2.304594000000179
 20
133.255635
 10
2.217763000000104
 20
133.3852979999999
 10
2.124327999999876
 20
133.502134
 10
2.02500000000009
 20
133.605256
 10
1.920535000000199
 20
133.6938769999999
 10
1.811726999999791
 20
133.7673240000001
 10
1.69940600000018
 20
133.825037
 10
1.58442500000001
 20
133.866577
 10
1.467659999999795
 20
133.8916280000001
 10
1.349999999999909
 20
133.8999999999997
 10
1.232340000000021
 20
133.8916280000001
 10
1.115574999999807
 20
133.866577
 10
1.00059400000009
 20
133.825037
 10
0.8882730000000265
 20
133.7673240000001
 10
0.7794650000000729
 20
133.6938769999999
 10
0.6750000000001819
 20
133.605256
 10
0.5756719999999405
 20
133.502134
 10
0.4822370000001685
 20
133.3852979999999
 10
0.3954060000000936
 20
133.255635
 10
0.3158400000002075
 20
133.114133
 10
0.2441449999996621
 20
132.9618680000001
 10
0.1808660000001509
 20
132.7999999999999
 10
0.1264839999998912
 20
132.62976
 10
0.0814150000001064
 20
132.452444
 10
0.0460000000002765
 20
132.2694019999999
 10
0.0205099999998311
 20
132.0820259999998
 10
0.0051370000001043
 20
131.8917429999999
 10
0.0
 20
131.7
 10
0.0051370000001043
 20
131.5082570000002
 10
0.0205099999998311
 20
131.317974
 10
0.0460000000002765
 20
131.1305979999999
 10
0.0814150000001064
 20
130.9475559999998
 10
0.1264839999998912
 20
130.77024
 10
0.1808660000001509
 20
130.6000000000001
 10
0.2441449999996621
 20
130.438132
 10
0.3158400000002075
 20
130.2858669999998
 10
0.3954060000000936
 20
130.1443649999999
 10
0.4822370000001685
 20
130.0147019999999
 10
0.5756719999999405
 20
129.897866
 10
0.6750000000001819
 20
129.794744
 10
0.7794650000000729
 20
129.7061230000001
 10
0.8882730000000265
 20
129.6326759999999
 10
1.00059400000009
 20
129.574963
 10
1.115574999999807
 20
129.5334230000001
 10
1.232340000000021
 20
129.508372
 10
1.349999999999909
 20
129.5
  0
ARC
  5
8FF0
330
8FC8
100
AcDbEntity
  8
AM_0 外形線1
100
AcDbCircle
 10
2.199999999999818
 20
130.0
 30
0.0
 40
0.5
100
AcDbArc
 50
270.0
 51
0.0
  0
LINE
  5
8FF1
330
8FC8
100
AcDbEntity
  8
AM_0 外形線1
100
AcDbLine
 10
-3.5
 20
129.5
 30
0.0
 11
2.199999999999818
 21
129.5
 31
0.0
  0
LINE
  5
8FF2
330
8FC8
100
AcDbEntity
  8
AM_0 外形線1
100
AcDbLine
 10
-4.0
 20
123.5
 30
0.0
 11
-4.0
 21
118.0
 31
0.0
  0
LINE
  5
8FF3
330
8FC8
100
AcDbEntity
  8
AM_0 外形線1
100
AcDbLine
 10
-4.0
 20
129.0
 30
0.0
 11
-3.5
 21
129.5
 31
0.0
  0
LINE
  5
8FF4
330
8FC8
100
AcDbEntity
  8
AM_0 外形線1
100
AcDbLine
 10
-4.0
 20
123.5
 30
0.0
 11
-4.0
 21
129.0
 31
0.0
  0
LINE
  5
8FF5
330
8FC8
100
AcDbEntity
  8
AM_0 外形線1
100
AcDbLine
 10
0.0
 20
133.8999999999997
 30
0.0
 11
0.0
 21
138.5
 31
0.0
  0
LINE
  5
8FF6
330
8FC8
100
AcDbEntity
  8
AM_0 外形線1
100
AcDbLine
 10
2.199999999999818
 20
133.8999999999997
 30
0.0
 11
0.0
 21
133.8999999999997
 31
0.0
  0
ARC
  5
8FF7
330
8FC8
100
AcDbEntity
  8
AM_0 外形線1
100
AcDbCircle
 10
2.199999999999818
 20
133.3999999999998
 30
0.0
 40
0.5
100
AcDbArc
 50
0.0
 51
90.0
  0
LINE
  5
8FF8
330
8FC8
100
AcDbEntity
  8
AM_0 外形線1
100
AcDbLine
 10
2.699999999999818
 20
130.0
 30
0.0
 11
2.699999999999818
 21
133.3999999999998
 31
0.0
  0
ARC
  5
8FFA
330
8FC8
100
AcDbEntity
  8
AM_0 外形線1
100
AcDbCircle
 10
25.0
 20
134.0
 30
0.0
 40
4.0
100
AcDbArc
 50
180.0
 51
270.0
  0
LINE
  5
8FFB
330
8FC8
100
AcDbEntity
  8
AM_0 外形線1
100
AcDbLine
 10
41.0
 20
117.6000000000001
 30
0.0
 11
38.0
 21
117.6000000000001
 31
0.0
  0
LINE
  5
8FFC
330
8FC8
100
AcDbEntity
  8
AM_0 外形線1
100
AcDbLine
 10
38.0
 20
117.6000000000001
 30
0.0
 11
37.0
 21
118.6000000000001
 31
0.0
  0
ARC
  5
8FFD
330
8FC8
100
AcDbEntity
  8
AM_0 外形線1
100
AcDbCircle
 10
36.0
 20
122.5
 30
0.0
 40
1.0
100
AcDbArc
 50
0.0
 51
90.0
  0
LINE
  5
8FFE
330
8FC8
100
AcDbEntity
  8
AM_0 外形線1
100
AcDbLine
 10
37.0
 20
118.6000000000001
 30
0.0
 11
37.0
 21
122.5
 31
0.0
  0
LINE
  5
8FFF
330
8FC8
100
AcDbEntity
  8
AM_0 外形線1
100
AcDbLine
 10
37.0
 20
118.6000000000001
 30
0.0
 11
37.0
 21
114.719417
 31
0.0
  0
LINE
  5
9003
330
8FC8
100
AcDbEntity
  8
AM_0 外形線1
100
AcDbLine
 10
21.0
 20
138.5
 30
0.0
 11
21.0
 21
134.0
 31
0.0
  0
LINE
  5
9015
330
8FC8
100
AcDbEntity
  8
AM_0 外形線1
100
AcDbLine
 10
1.0
 20
157.5
 30
0.0
 11
20.0
 21
157.5
 31
0.0
  0
LINE
  5
9016
330
8FC8
100
AcDbEntity
  8
AM_0 外形線1
100
AcDbLine
 10
0.0
 20
156.5
 30
0.0
 11
1.0
 21
157.5
 31
0.0
  0
LINE
  5
9019
330
8FC8
100
AcDbEntity
  8
AM_0 外形線1
100
AcDbLine
 10
20.0
 20
157.5
 30
0.0
 11
21.0
 21
156.5
 31
0.0
  0
ARC
  5
901B
330
8FC8
100
AcDbEntity
  8
AM_0 外形線1
100
AcDbCircle
 10
81.0
 20
122.5
 30
0.0
 40
1.0
100
AcDbArc
 50
0.0
 51
90.0
  0
LINE
  5
901C
330
8FC8
100
AcDbEntity
  8
AM_3 隠れ線
100
AcDbLine
 10
76.0
 20
120.8606589999999
 30
0.0
 11
76.0
 21
118.6000000000001
 31
0.0
  0
LINE
  5
901D
330
8FC8
100
AcDbEntity
  8
AM_3 隠れ線
100
AcDbLine
 10
76.0
 20
118.6000000000001
 30
0.0
 11
75.0
 21
117.6000000000001
 31
0.0
  0
LINE
  5
901E
330
8FC8
100
AcDbEntity
  8
AM_0 外形線1
100
AcDbLine
 10
76.0
 20
120.8606589999999
 30
0.0
 11
76.0
 21
122.5
 31
0.0
  0
ARC
  5
901F
330
8FC8
100
AcDbEntity
  8
AM_0 外形線1
100
AcDbCircle
 10
77.0
 20
122.5
 30
0.0
 40
1.0
100
AcDbArc
 50
90.0
 51
180.0
  0
LINE
  5
9020
330
8FC8
100
AcDbEntity
  8
AM_0 外形線1
100
AcDbLine
 10
81.0
 20
123.5
 30
0.0
 11
77.0
 21
123.5
 31
0.0
  0
ARC
  5
9021
330
8FC8
100
AcDbEntity
  8
AM_0 外形線1
100
AcDbCircle
 10
94.0
 20
126.0
 30
0.0
 40
4.0
100
AcDbArc
 50
0.0
 51
90.0
  0
LINE
  5
9022
330
8FC8
100
AcDbEntity
  8
AM_0 外形線1
100
AcDbLine
 10
98.0
 20
114.0
 30
0.0
 11
95.59999999999993
 21
114.0
 31
0.0
  0
LWPOLYLINE
  5
9023
330
8FC8
100
AcDbEntity
  8
AM_0 外形線1
100
AcDbPolyline
 90
       73
 70
     0
 43
0.0
 10
84.4000000000001
 20
115.95
 10
84.42130999999973
 20
115.6493130000001
 10
84.4850769999998
 20
115.3509139999999
 10
84.59081500000001
 20
115.057074
 10
84.73772099999996
 20
114.7700309999998
 10
84.9246760000001
 20
114.4919670000001
 10
85.15025800000012
 20
114.2250000000001
 10
85.41274900000008
 20
113.9711610000001
 10
85.71015100000023
 20
113.732383
 10
86.04020200000013
 20
113.5104819999999
 10
86.40038899999991
 20
113.307147
 10
86.78797200000008
 20
113.1239250000001
 10
87.19999999999981
 20
112.9622120000001
 10
87.6333380000001
 20
112.8232379999999
 10
88.08468700000004
 20
112.7080599999999
 10
88.55061300000034
 20
112.6175559999999
 10
89.0275700000002
 20
112.5524130000001
 10
89.5119279999999
 20
112.513128
 10
90.0
 20
112.5
 10
90.48807200000013
 20
112.513128
 10
90.97242999999979
 20
112.5524130000001
 10
91.44938699999968
 20
112.6175559999999
 10
91.91531299999995
 20
112.7080599999999
 10
92.36666199999993
 20
112.8232379999999
 10
92.8000000000002
 20
112.9622120000001
 10
93.21202799999992
 20
113.1239250000001
 10
93.5996110000001
 20
113.307147
 10
93.95979799999986
 20
113.5104819999999
 10
94.2898489999998
 20
113.732383
 10
94.58725099999993
 20
113.9711610000001
 10
94.84974199999987
 20
114.2250000000001
 10
95.07532399999993
 20
114.4919670000001
 10
95.26227900000003
 20
114.7700309999998
 10
95.40918499999998
 20
115.057074
 10
95.5149230000002
 20
115.3509139999999
 10
95.5786900000003
 20
115.6493130000001
 10
95.59999999999993
 20
115.95
 10
95.5786900000003
 20
116.2506869999999
 10
95.5149230000002
 20
116.549086
 10
95.40918499999998
 20
116.842926
 10
95.26227900000003
 20
117.1299690000001
 10
95.07532399999993
 20
117.4080329999999
 10
94.84974199999987
 20
117.6749999999999
 10
94.58725099999993
 20
117.9288389999999
 10
94.2898489999998
 20
118.1676169999998
 10
93.95979799999986
 20
118.3895179999999
 10
93.5996110000001
 20
118.5928529999999
 10
93.21202799999992
 20
118.776075
 10
92.8000000000002
 20
118.9377879999999
 10
92.36666199999993
 20
119.0767619999999
 10
91.91531299999995
 20
119.1919399999999
 10
91.44938699999968
 20
119.2824440000001
 10
90.97242999999979
 20
119.347587
 10
90.48807200000013
 20
119.3868719999997
 10
90.0
 20
119.3999999999998
 10
89.5119279999999
 20
119.3868719999997
 10
89.0275700000002
 20
119.347587
 10
88.55061300000034
 20
119.2824440000001
 10
88.08468700000004
 20
119.1919399999999
 10
87.6333380000001
 20
119.0767619999999
 10
87.19999999999981
 20
118.9377879999999
 10
86.78797200000008
 20
118.776075
 10
86.40038899999991
 20
118.5928529999999
 10
86.04020200000013
 20
118.3895179999999
 10
85.71015100000023
 20
118.1676169999998
 10
85.41274900000008
 20
117.9288389999999
 10
85.15025800000012
 20
117.6749999999999
 10
84.9246760000001
 20
117.4080329999999
 10
84.73772099999996
 20
117.1299690000001
 10
84.59081500000001
 20
116.842926
 10
84.4850769999998
 20
116.549086
 10
84.42130999999973
 20
116.2506869999999
 10
84.4000000000001
 20
115.95
  0
LINE
  5
9024
330
8FC8
100
AcDbEntity
  8
AM_0 外形線1
100
AcDbLine
 10
82.0
 20
114.0
 30
0.0
 11
82.0
 21
122.5
 31
0.0
  0
LINE
  5
9025
330
8FC8
100
AcDbEntity
  8
AM_0 外形線1
100
AcDbLine
 10
84.4000000000001
 20
114.0
 30
0.0
 11
82.0
 21
114.0
 31
0.0
  0
LINE
  5
9026
330
8FC8
100
AcDbEntity
  8
AM_0 外形線1
100
AcDbLine
 10
84.4000000000001
 20
118.8999999999998
 30
0.0
 11
84.4000000000001
 21
114.0
 31
0.0
  0
ARC
  5
9027
330
8FC8
100
AcDbEntity
  8
AM_0 外形線1
100
AcDbCircle
 10
84.90000000000009
 20
118.8999999999998
 30
0.0
 40
0.5
100
AcDbArc
 50
90.0
 51
180.0
  0
LINE
  5
9028
330
8FC8
100
AcDbEntity
  8
AM_0 外形線1
100
AcDbLine
 10
95.0999999999999
 20
119.3999999999998
 30
0.0
 11
84.90000000000009
 21
119.3999999999998
 31
0.0
  0
ARC
  5
9029
330
8FC8
100
AcDbEntity
  8
AM_0 外形線1
100
AcDbCircle
 10
95.0999999999999
 20
118.8999999999998
 30
0.0
 40
0.5
100
AcDbArc
 50
0.0
 51
90.0
  0
LINE
  5
902A
330
8FC8
100
AcDbEntity
  8
AM_0 外形線1
100
AcDbLine
 10
95.59999999999993
 20
114.0
 30
0.0
 11
95.59999999999993
 21
118.8999999999998
 31
0.0
  0
LINE
  5
902B
330
8FC8
100
AcDbEntity
  8
AM_0 外形線1
100
AcDbLine
 10
95.59999999999993
 20
114.0
 30
0.0
 11
95.59999999999993
 21
112.5
 31
0.0
  0
LINE
  5
902C
330
8FC8
100
AcDbEntity
  8
AM_0 外形線1
100
AcDbLine
 10
84.4000000000001
 20
114.0
 30
0.0
 11
84.4000000000001
 21
112.5
 31
0.0
  0
LINE
  5
902D
330
8FC8
100
AcDbEntity
  8
AM_0 外形線1
100
AcDbLine
 10
82.0
 20
114.0
 30
0.0
 11
82.0
 21
112.5
 31
0.0
  0
LINE
  5
902E
330
8FC8
100
AcDbEntity
  8
AM_0 外形線1
100
AcDbLine
 10
98.0
 20
126.0
 30
0.0
 11
98.0
 21
114.0
 31
0.0
  0
LINE
  5
902F
330
8FC8
100
AcDbEntity
  8
AM_0 外形線1
100
AcDbLine
 10
98.0
 20
114.0
 30
0.0
 11
98.0
 21
112.5
 31
0.0
  0
LINE
  5
9148
330
8FC8
100
AcDbEntity
  8
AM_0 外形線1
100
AcDbLine
 10
0.0
 20
-156.5
 30
0.0
 11
1.0
 21
-157.5
 31
0.0
  0
LINE
  5
A917
330
8FC8
100
AcDbEntity
  8
AM_0 外形線1
100
AcDbLine
 10
0.0
 20
0.0
 30
0.0
 11
0.0
 21
-156.5
 31
0.0
  0
INSERT
  5
A969
330
8FC8
100
AcDbEntity
  8
AM_0 外形線1
100
AcDbBlockReference
  2
ロッカクアナツキプラグ R1／4
 10
10.5
 20
-37.65817100000004
 30
0.0
  0
ENDBLK
  5
8FCA
330
8FC8
100
AcDbEntity
  8
0
100
AcDbBlockEnd
  0
BLOCK
  5
9032
330
9031
100
AcDbEntity
  8
0
100
AcDbBlockBegin
  2
ケースＢ SSM315
 70
     0
 10
0.0
 20
0.0
 30
0.0
  3
ケースＢ SSM315
  1

  0
LINE
  5
9034
330
9031
100
AcDbEntity
  8
AM_0 外形線1
100
AcDbLine
 10
0.0
 20
0.0
 30
0.0
 11
0.0
 21
-156.5
 31
0.0
  0
LINE
  5
9035
330
9031
100
AcDbEntity
  8
AM_0 外形線1
100
AcDbLine
 10
-98.0
 20
-126.0
 30
0.0
 11
-98.0
 21
0.0
 31
0.0
  0
LINE
  5
9036
330
9031
100
AcDbEntity
  8
AM_0 外形線1
100
AcDbLine
 10
-21.0
 20
-156.5
 30
0.0
 11
-21.0
 21
0.0
 31
0.0
  0
LINE
  5
9037
330
9031
100
AcDbEntity
  8
AM_0 外形線1
100
AcDbLine
 10
-25.0
 20
-130.0
 30
0.0
 11
-94.0
 21
-130.0
 31
0.0
  0
ARC
  5
9038
330
9031
100
AcDbEntity
  8
AM_0 外形線1
100
AcDbCircle
 10
-94.0
 20
-126.0
 30
0.0
 40
4.0
100
AcDbArc
 50
180.0
 51
270.0
  0
LINE
  5
9039
330
9031
100
AcDbEntity
  8
AM_0 外形線1
100
AcDbLine
 10
-1.0
 20
-157.5
 30
0.0
 11
-20.0
 21
-157.5
 31
0.0
  0
LINE
  5
903A
330
9031
100
AcDbEntity
  8
AM_0 外形線1
100
AcDbLine
 10
-20.0
 20
-157.5
 30
0.0
 11
-21.0
 21
-156.5
 31
0.0
  0
ARC
  5
903B
330
9031
100
AcDbEntity
  8
AM_0 外形線1
100
AcDbCircle
 10
-25.0
 20
-134.0
 30
0.0
 40
4.0
100
AcDbArc
 50
0.0
 51
90.0
  0
LINE
  5
903C
330
9031
100
AcDbEntity
  8
AM_0 外形線1
100
AcDbLine
 10
0.0
 20
-156.5
 30
0.0
 11
-1.0
 21
-157.5
 31
0.0
  0
LINE
  5
903D
330
9031
100
AcDbEntity
  8
AM_0 外形線1
100
AcDbLine
 10
-84.4000000000001
 20
114.0
 30
0.0
 11
-82.0
 21
114.0
 31
0.0
  0
LINE
  5
903E
330
9031
100
AcDbEntity
  8
AM_0 外形線1
100
AcDbLine
 10
-25.0
 20
130.0
 30
0.0
 11
-94.0
 21
130.0
 31
0.0
  0
ARC
  5
903F
330
9031
100
AcDbEntity
  8
AM_0 外形線1
100
AcDbCircle
 10
-94.0
 20
126.0
 30
0.0
 40
4.0
100
AcDbArc
 50
90.0
 51
180.0
  0
LWPOLYLINE
  5
9040
330
9031
100
AcDbEntity
  8
AM_0 外形線1
100
AcDbPolyline
 90
       73
 70
     0
 43
0.0
 10
-84.4000000000001
 20
115.95
 10
-84.42130999999973
 20
116.2506869999999
 10
-84.48507700000027
 20
116.549086
 10
-84.59081500000001
 20
116.842926
 10
-84.73772100000042
 20
117.1299690000001
 10
-84.9246760000001
 20
117.4080329999999
 10
-85.15025799999966
 20
117.6749999999999
 10
-85.41274900000008
 20
117.9288389999999
 10
-85.71015100000023
 20
118.1676169999998
 10
-86.04020200000013
 20
118.3895179999999
 10
-86.40038900000034
 20
118.5928529999999
 10
-86.78797200000008
 20
118.776075
 10
-87.19999999999981
 20
118.9377879999999
 10
-87.6333380000001
 20
119.0767619999999
 10
-88.08468700000004
 20
119.1919399999999
 10
-88.55061300000034
 20
119.2824440000001
 10
-89.0275700000002
 20
119.347587
 10
-89.5119279999999
 20
119.3868719999997
 10
-90.0
 20
119.3999999999998
 10
-90.48807200000013
 20
119.3868719999997
 10
-90.97242999999979
 20
119.347587
 10
-91.44938699999968
 20
119.2824440000001
 10
-91.91531299999995
 20
119.1919399999999
 10
-92.36666199999993
 20
119.0767619999999
 10
-92.8000000000002
 20
118.9377879999999
 10
-93.21202799999992
 20
118.776075
 10
-93.59961099999964
 20
118.5928529999999
 10
-93.95979799999986
 20
118.3895179999999
 10
-94.2898489999998
 20
118.1676169999998
 10
-94.58725099999993
 20
117.9288389999999
 10
-94.8497420000003
 20
117.6749999999999
 10
-95.07532399999993
 20
117.4080329999999
 10
-95.26227899999957
 20
117.1299690000001
 10
-95.40918499999998
 20
116.842926
 10
-95.51492299999971
 20
116.549086
 10
-95.5786900000003
 20
116.2506869999999
 10
-95.59999999999993
 20
115.95
 10
-95.5786900000003
 20
115.6493130000001
 10
-95.51492299999971
 20
115.3509139999999
 10
-95.40918499999998
 20
115.057074
 10
-95.26227899999957
 20
114.7700309999998
 10
-95.07532399999993
 20
114.4919670000001
 10
-94.8497420000003
 20
114.2250000000001
 10
-94.58725099999993
 20
113.9711610000001
 10
-94.2898489999998
 20
113.732383
 10
-93.95979799999986
 20
113.5104819999999
 10
-93.59961099999964
 20
113.307147
 10
-93.21202799999992
 20
113.1239250000001
 10
-92.8000000000002
 20
112.9622120000001
 10
-92.36666199999993
 20
112.8232379999999
 10
-91.91531299999995
 20
112.7080599999999
 10
-91.44938699999968
 20
112.6175559999999
 10
-90.97242999999979
 20
112.5524130000001
 10
-90.48807200000013
 20
112.513128
 10
-90.0
 20
112.5
 10
-89.5119279999999
 20
112.513128
 10
-89.0275700000002
 20
112.5524130000001
 10
-88.55061300000034
 20
112.6175559999999
 10
-88.08468700000004
 20
112.7080599999999
 10
-87.6333380000001
 20
112.8232379999999
 10
-87.19999999999981
 20
112.9622120000001
 10
-86.78797200000008
 20
113.1239250000001
 10
-86.40038900000034
 20
113.307147
 10
-86.04020200000013
 20
113.5104819999999
 10
-85.71015100000023
 20
113.732383
 10
-85.41274900000008
 20
113.9711610000001
 10
-85.15025799999966
 20
114.2250000000001
 10
-84.9246760000001
 20
114.4919670000001
 10
-84.73772100000042
 20
114.7700309999998
 10
-84.59081500000001
 20
115.057074
 10
-84.48507700000027
 20
115.3509139999999
 10
-84.42130999999973
 20
115.6493130000001
 10
-84.4000000000001
 20
115.95
  0
LINE
  5
9041
330
9031
100
AcDbEntity
  8
AM_0 外形線1
100
AcDbLine
 10
-84.4000000000001
 20
118.8999999999998
 30
0.0
 11
-84.4000000000001
 21
114.0
 31
0.0
  0
ARC
  5
9042
330
9031
100
AcDbEntity
  8
AM_0 外形線1
100
AcDbCircle
 10
-84.90000000000009
 20
118.8999999999998
 30
0.0
 40
0.5
100
AcDbArc
 50
0.0
 51
90.0
  0
LINE
  5
9043
330
9031
100
AcDbEntity
  8
AM_0 外形線1
100
AcDbLine
 10
-95.0999999999999
 20
119.3999999999998
 30
0.0
 11
-84.90000000000009
 21
119.3999999999998
 31
0.0
  0
ARC
  5
9044
330
9031
100
AcDbEntity
  8
AM_0 外形線1
100
AcDbCircle
 10
-95.0999999999999
 20
118.8999999999998
 30
0.0
 40
0.5
100
AcDbArc
 50
90.0
 51
180.0
  0
LINE
  5
9045
330
9031
100
AcDbEntity
  8
AM_0 外形線1
100
AcDbLine
 10
-95.59999999999993
 20
114.0
 30
0.0
 11
-95.59999999999993
 21
118.8999999999998
 31
0.0
  0
LINE
  5
9046
330
9031
100
AcDbEntity
  8
AM_0 外形線1
100
AcDbLine
 10
-98.0
 20
114.0
 30
0.0
 11
-95.59999999999993
 21
114.0
 31
0.0
  0
LINE
  5
9047
330
9031
100
AcDbEntity
  8
AM_0 外形線1
100
AcDbLine
 10
-98.0
 20
126.0
 30
0.0
 11
-98.0
 21
114.0
 31
0.0
  0
LINE
  5
9048
330
9031
100
AcDbEntity
  8
AM_0 外形線1
100
AcDbLine
 10
-84.4000000000001
 20
114.0
 30
0.0
 11
-84.4000000000001
 21
112.5
 31
0.0
  0
LINE
  5
9049
330
9031
100
AcDbEntity
  8
AM_0 外形線1
100
AcDbLine
 10
-95.59999999999993
 20
114.0
 30
0.0
 11
-95.59999999999993
 21
112.5
 31
0.0
  0
LINE
  5
904A
330
9031
100
AcDbEntity
  8
AM_0 外形線1
100
AcDbLine
 10
-98.0
 20
114.0
 30
0.0
 11
-98.0
 21
112.5
 31
0.0
  0
LINE
  5
904C
330
9031
100
AcDbEntity
  8
AM_0 外形線1
100
AcDbLine
 10
-21.0
 20
134.5499999999999
 30
0.0
 11
-21.0
 21
156.45
 31
0.0
  0
LINE
  5
904E
330
9031
100
AcDbEntity
  8
AM_0 外形線1
100
AcDbLine
 10
-21.0
 20
156.5
 30
0.0
 11
-21.0
 21
152.5
 31
0.0
  0
LINE
  5
904F
330
9031
100
AcDbEntity
  8
AM_0 外形線1
100
AcDbLine
 10
0.0
 20
152.5
 30
0.0
 11
0.0
 21
156.5
 31
0.0
  0
LINE
  5
9050
330
9031
100
AcDbEntity
  8
AM_0 外形線1
100
AcDbLine
 10
-36.0
 20
123.5
 30
0.0
 11
-5.0
 21
123.5
 31
0.0
  0
LINE
  5
9051
330
9031
100
AcDbEntity
  8
AM_0 外形線1
100
AcDbLine
 10
0.0
 20
138.5
 30
0.0
 11
-21.0
 21
138.5
 31
0.0
  0
LINE
  5
9052
330
9031
100
AcDbEntity
  8
AM_0 外形線1
100
AcDbLine
 10
-21.0
 20
152.5
 30
0.0
 11
0.0
 21
152.5
 31
0.0
  0
LINE
  5
9053
330
9031
100
AcDbEntity
  8
AM_3 隠れ線
100
AcDbLine
 10
-41.0
 20
117.6000000000001
 30
0.0
 11
-75.0
 21
117.6000000000001
 31
0.0
  0
LINE
  5
9054
330
9031
100
AcDbEntity
  8
AM_7 中心線
100
AcDbLine
 10
-35.0
 20
120.0
 30
0.0
 11
-78.0
 21
120.0
 31
0.0
  0
LINE
  5
9055
330
9031
100
AcDbEntity
  8
AM_0 外形線1
100
AcDbLine
 10
-37.0
 20
123.0
 30
0.0
 11
-76.0
 21
123.0
 31
0.0
  0
LINE
  5
9056
330
9031
100
AcDbEntity
  8
AM_3 隠れ線
100
AcDbLine
 10
-76.0
 20
120.8606589999999
 30
0.0
 11
-76.0
 21
118.6000000000001
 31
0.0
  0
LINE
  5
9057
330
9031
100
AcDbEntity
  8
AM_3 隠れ線
100
AcDbLine
 10
-76.0
 20
118.6000000000001
 30
0.0
 11
-75.0
 21
117.6000000000001
 31
0.0
  0
LINE
  5
9058
330
9031
100
AcDbEntity
  8
AM_0 外形線1
100
AcDbLine
 10
-76.0
 20
120.8606589999999
 30
0.0
 11
-76.0
 21
122.5
 31
0.0
  0
ARC
  5
9059
330
9031
100
AcDbEntity
  8
AM_0 外形線1
100
AcDbCircle
 10
-77.0
 20
122.5
 30
0.0
 40
1.0
100
AcDbArc
 50
0.0
 51
90.0
  0
LINE
  5
905A
330
9031
100
AcDbEntity
  8
AM_0 外形線1
100
AcDbLine
 10
-81.0
 20
123.5
 30
0.0
 11
-77.0
 21
123.5
 31
0.0
  0
ARC
  5
905B
330
9031
100
AcDbEntity
  8
AM_0 外形線1
100
AcDbCircle
 10
-81.0
 20
122.5
 30
0.0
 40
1.0
100
AcDbArc
 50
90.0
 51
180.0
  0
LINE
  5
905C
330
9031
100
AcDbEntity
  8
AM_0 外形線1
100
AcDbLine
 10
-82.0
 20
114.0
 30
0.0
 11
-82.0
 21
122.5
 31
0.0
  0
LINE
  5
905D
330
9031
100
AcDbEntity
  8
AM_0 外形線1
100
AcDbLine
 10
-82.0
 20
114.0
 30
0.0
 11
-82.0
 21
112.5
 31
0.0
  0
ARC
  5
905E
330
9031
100
AcDbEntity
  8
AM_0 外形線1
100
AcDbCircle
 10
-25.0
 20
134.0
 30
0.0
 40
4.0
100
AcDbArc
 50
270.0
 51
0.0
  0
LINE
  5
905F
330
9031
100
AcDbEntity
  8
AM_0 外形線1
100
AcDbLine
 10
-38.0
 20
117.6000000000001
 30
0.0
 11
-37.0
 21
118.6000000000001
 31
0.0
  0
LINE
  5
9060
330
9031
100
AcDbEntity
  8
AM_0 外形線1
100
AcDbLine
 10
-41.0
 20
117.6000000000001
 30
0.0
 11
-38.0
 21
117.6000000000001
 31
0.0
  0
ARC
  5
9061
330
9031
100
AcDbEntity
  8
AM_0 外形線1
100
AcDbCircle
 10
-36.0
 20
122.5
 30
0.0
 40
1.0
100
AcDbArc
 50
90.0
 51
180.0
  0
LINE
  5
9062
330
9031
100
AcDbEntity
  8
AM_0 外形線1
100
AcDbLine
 10
-37.0
 20
118.6000000000001
 30
0.0
 11
-37.0
 21
122.5
 31
0.0
  0
LINE
  5
9063
330
9031
100
AcDbEntity
  8
AM_0 外形線1
100
AcDbLine
 10
-37.0
 20
118.6000000000001
 30
0.0
 11
-37.0
 21
114.955655
 31
0.0
  0
LINE
  5
9064
330
9031
100
AcDbEntity
  8
AM_0 外形線1
100
AcDbLine
 10
-21.0
 20
138.5
 30
0.0
 11
-21.0
 21
134.0
 31
0.0
  0
LINE
  5
906E
330
9031
100
AcDbEntity
  8
AM_0 外形線1
100
AcDbLine
 10
-0.5
 20
129.5
 30
0.0
 11
0.0
 21
130.0
 31
0.0
  0
LINE
  5
906F
330
9031
100
AcDbEntity
  8
AM_0 外形線1
100
AcDbLine
 10
-5.0
 20
123.5
 30
0.0
 11
-5.0
 21
117.5
 31
0.0
  0
LINE
  5
9070
330
9031
100
AcDbEntity
  8
AM_0 外形線1
100
AcDbLine
 10
-5.0
 20
129.5
 30
0.0
 11
-0.5
 21
129.5
 31
0.0
  0
LINE
  5
9071
330
9031
100
AcDbEntity
  8
AM_0 外形線1
100
AcDbLine
 10
-5.0
 20
123.5
 30
0.0
 11
-5.0
 21
129.5
 31
0.0
  0
LINE
  5
9072
330
9031
100
AcDbEntity
  8
AM_0 外形線1
100
AcDbLine
 10
0.0
 20
130.0
 30
0.0
 11
0.0
 21
138.5
 31
0.0
  0
LINE
  5
9073
330
9031
100
AcDbEntity
  8
AM_0 外形線1
100
AcDbLine
 10
-1.0
 20
157.5
 30
0.0
 11
-20.0
 21
157.5
 31
0.0
  0
LINE
  5
9076
330
9031
100
AcDbEntity
  8
AM_0 外形線1
100
AcDbLine
 10
-20.0
 20
157.5
 30
0.0
 11
-21.0
 21
156.5
 31
0.0
  0
LINE
  5
9077
330
9031
100
AcDbEntity
  8
AM_0 外形線1
100
AcDbLine
 10
0.0
 20
156.5
 30
0.0
 11
-1.0
 21
157.5
 31
0.0
  0
LINE
  5
AAED
330
9031
100
AcDbEntity
  8
AM_7 中心線
100
AcDbLine
 10
28.84120926055766
 20
-145.5
 30
0.0
 11
-28.84120926055766
 21
-145.5
 31
0.0
  0
ENDBLK
  5
9033
330
9031
100
AcDbEntity
  8
0
100
AcDbBlockEnd
  0
BLOCK
  5
9228
330
9227
100
AcDbEntity
  8
0
100
AcDbBlockBegin
  2
センタＡ SSM315
 70
     0
 10
0.0
 20
0.0
 30
0.0
  3
センタＡ SSM315
  1

  0
LINE
  5
922A
330
9227
100
AcDbEntity
  8
AM_0 外形線1
100
AcDbLine
 10
0.0
 20
111.0
 30
0.0
 11
0.0
 21
0.0
 31
0.0
  0
LINE
  5
922B
330
9227
100
AcDbEntity
  8
AM_0 外形線1
100
AcDbLine
 10
170.0
 20
-107.7
 30
0.0
 11
170.0
 21
107.7
 31
0.0
  0
LINE
  5
922C
330
9227
100
AcDbEntity
  8
AM_3 隠れ線
100
AcDbLine
 10
0.0
 20
5.149999999999863
 30
0.0
 11
33.0
 21
5.149999999999863
 31
0.0
  0
LINE
  5
922D
330
9227
100
AcDbEntity
  8
AM_3 隠れ線
100
AcDbLine
 10
0.0
 20
6.0
 30
0.0
 11
28.0
 21
6.0
 31
0.0
  0
LINE
  5
922E
330
9227
100
AcDbEntity
  8
AM_3 隠れ線
100
AcDbLine
 10
33.0
 20
5.149999999999863
 30
0.0
 11
35.97335399999975
 21
0.0
 31
0.0
  0
LINE
  5
922F
330
9227
100
AcDbEntity
  8
AM_3 隠れ線
100
AcDbLine
 10
33.0
 20
5.149999999999863
 30
0.0
 11
33.0
 21
0.0
 31
0.0
  0
LINE
  5
9230
330
9227
100
AcDbEntity
  8
AM_3 隠れ線
100
AcDbLine
 10
28.0
 20
6.0
 30
0.0
 11
28.49074800000017
 21
5.149999999999863
 31
0.0
  0
LINE
  5
9231
330
9227
100
AcDbEntity
  8
AM_3 隠れ線
100
AcDbLine
 10
28.0
 20
6.0
 30
0.0
 11
28.0
 21
0.0
 31
0.0
  0
LINE
  5
9232
330
9227
100
AcDbEntity
  8
AM_3 隠れ線
100
AcDbLine
 10
28.49074800000017
 20
5.149999999999863
 30
0.0
 11
28.49074800000017
 21
0.0
 31
0.0
  0
LINE
  5
9233
330
9227
100
AcDbEntity
  8
AM_0 外形線1
100
AcDbLine
 10
113.5
 20
-111.7
 30
0.0
 11
113.5
 21
0.0
 31
0.0
  0
LINE
  5
9234
330
9227
100
AcDbEntity
  8
AM_0 外形線1
100
AcDbLine
 10
111.5
 20
-112.5
 30
0.0
 11
111.5
 21
0.0
 31
0.0
  0
LINE
  5
9235
330
9227
100
AcDbEntity
  8
AM_0 外形線1
100
AcDbLine
 10
90.0
 20
-112.5
 30
0.0
 11
111.5
 21
-112.5
 31
0.0
  0
LINE
  5
9236
330
9227
100
AcDbEntity
  8
AM_0 外形線1
100
AcDbLine
 10
113.5
 20
-111.7
 30
0.0
 11
166.0
 21
-111.7
 31
0.0
  0
LINE
  5
9237
330
9227
100
AcDbEntity
  8
AM_0 外形線1
100
AcDbLine
 10
111.5
 20
-112.5
 30
0.0
 11
113.5
 21
-111.7
 31
0.0
  0
ARC
  5
9238
330
9227
100
AcDbEntity
  8
AM_0 外形線1
100
AcDbCircle
 10
166.0
 20
-107.7
 30
0.0
 40
4.0
100
AcDbArc
 50
270.0
 51
0.0
  0
ARC
  5
923B
330
9227
100
AcDbEntity
  8
AM_0 外形線1
100
AcDbCircle
 10
49.0
 20
0.0
 30
0.0
 40
122.84
100
AcDbArc
 50
81.33816100000144
 51
97.0138959999922
  0
LINE
  5
923C
330
9227
100
AcDbEntity
  8
AM_0 外形線1
100
AcDbLine
 10
32.5
 20
112.0
 30
0.0
 11
1.0
 21
112.0
 31
0.0
  0
LINE
  5
923D
330
9227
100
AcDbEntity
  8
AM_0 外形線1
100
AcDbLine
 10
1.0
 20
112.0
 30
0.0
 11
0.0
 21
111.0
 31
0.0
  0
LINE
  5
923E
330
9227
100
AcDbEntity
  8
AM_0 外形線1
100
AcDbLine
 10
33.0
 20
120.793537
 30
0.0
 11
33.0
 21
112.5
 31
0.0
  0
ARC
  5
923F
330
9227
100
AcDbEntity
  8
AM_0 外形線1
100
AcDbCircle
 10
32.5
 20
112.5
 30
0.0
 40
0.5
100
AcDbArc
 50
270.0
 51
0.0
  0
LINE
  5
9240
330
9227
100
AcDbEntity
  8
AM_0 外形線1
100
AcDbLine
 10
34.0
 20
121.9207349999999
 30
0.0
 11
33.0
 21
120.793537
 31
0.0
  0
LINE
  5
9241
330
9227
100
AcDbEntity
  8
AM_0 外形線1
100
AcDbLine
 10
111.5
 20
112.5
 30
0.0
 11
69.0
 21
112.5
 31
0.0
  0
LINE
  5
9242
330
9227
100
AcDbEntity
  8
AM_7 中心線
100
AcDbLine
 10
49.0
 20
127.8399999999999
 30
0.0
 11
49.0
 21
111.7
 31
0.0
  0
LINE
  5
9243
330
9227
100
AcDbEntity
  8
AM_0 外形線1
100
AcDbLine
 10
68.5
 20
120.2823799999999
 30
0.0
 11
67.5
 21
121.438938
 31
0.0
  0
LINE
  5
9244
330
9227
100
AcDbEntity
  8
AM_0 外形線1
100
AcDbLine
 10
68.5
 20
113.0
 30
0.0
 11
68.5
 21
120.2823799999999
 31
0.0
  0
ARC
  5
9245
330
9227
100
AcDbEntity
  8
AM_0 外形線1
100
AcDbCircle
 10
69.0
 20
113.0
 30
0.0
 40
0.5
100
AcDbArc
 50
180.0
 51
270.0
  0
LINE
  5
9246
330
9227
100
AcDbEntity
  8
AM_0 外形線1
100
AcDbLine
 10
166.0
 20
111.7
 30
0.0
 11
113.5
 21
111.7
 31
0.0
  0
LINE
  5
9247
330
9227
100
AcDbEntity
  8
AM_0 外形線1
100
AcDbLine
 10
113.5
 20
111.7
 30
0.0
 11
111.5
 21
112.5
 31
0.0
  0
ARC
  5
9248
330
9227
100
AcDbEntity
  8
AM_0 外形線1
100
AcDbCircle
 10
166.0
 20
107.7
 30
0.0
 40
4.0
100
AcDbArc
 50
0.0
 51
90.0
  0
LINE
  5
9249
330
9227
100
AcDbEntity
  8
AM_0 外形線1
100
AcDbLine
 10
0.0
 20
65.0
 30
0.0
 11
170.0
 21
64.99999999999977
 31
0.0
  0
ARC
  5
E4B3
330
9227
100
AcDbEntity
  8
AM_0 外形線1
100
AcDbCircle
 10
49.0
 20
0.0
 30
0.0
 40
116.6999999999998
100
AcDbArc
 50
80.38103431718566
 51
97.88028342679751
  0
ARC
  5
E4B4
330
9227
100
AcDbEntity
  8
AM_7 中心線
100
AcDbCircle
 10
49.0
 20
0.0
 30
0.0
 40
120.0
100
AcDbArc
 50
77.97530081943875
 51
99.5940682268648
  0
ENDBLK
  5
9229
330
9227
100
AcDbEntity
  8
0
100
AcDbBlockEnd
  0
BLOCK
  5
924F
330
924E
100
AcDbEntity
  8
0
100
AcDbBlockBegin
  2
センタＢ SSM315
 70
     0
 10
0.0
 20
0.0
 30
0.0
  3
センタＢ SSM315
  1

  0
LINE
  5
9251
330
924E
100
AcDbEntity
  8
AM_0 外形線1
100
AcDbLine
 10
-111.5
 20
112.5
 30
0.0
 11
-69.0
 21
112.5
 31
0.0
  0
LINE
  5
9252
330
924E
100
AcDbEntity
  8
AM_0 外形線1
100
AcDbLine
 10
-170.0
 20
-107.7
 30
0.0
 11
-170.0
 21
107.7
 31
0.0
  0
LINE
  5
9253
330
924E
100
AcDbEntity
  8
AM_0 外形線1
100
AcDbLine
 10
-113.5
 20
-111.7
 30
0.0
 11
-113.5
 21
0.0
 31
0.0
  0
LINE
  5
9254
330
924E
100
AcDbEntity
  8
AM_0 外形線1
100
AcDbLine
 10
-111.5
 20
-112.5
 30
0.0
 11
-111.5
 21
0.0
 31
0.0
  0
LINE
  5
9255
330
924E
100
AcDbEntity
  8
AM_0 外形線1
100
AcDbLine
 10
-113.5
 20
-111.7
 30
0.0
 11
-166.0
 21
-111.7
 31
0.0
  0
ARC
  5
9256
330
924E
100
AcDbEntity
  8
AM_0 外形線1
100
AcDbCircle
 10
-166.0
 20
-107.7
 30
0.0
 40
4.0
100
AcDbArc
 50
180.0
 51
270.0
  0
LINE
  5
9257
330
924E
100
AcDbEntity
  8
AM_0 外形線1
100
AcDbLine
 10
-90.0
 20
-112.5
 30
0.0
 11
-111.5
 21
-112.5
 31
0.0
  0
LINE
  5
9258
330
924E
100
AcDbEntity
  8
AM_0 外形線1
100
AcDbLine
 10
-111.5
 20
-112.5
 30
0.0
 11
-113.5
 21
-111.7
 31
0.0
  0
LINE
  5
9259
330
924E
100
AcDbEntity
  8
AM_0 外形線1
100
AcDbLine
 10
-166.0
 20
111.7
 30
0.0
 11
-113.5
 21
111.7
 31
0.0
  0
ARC
  5
925A
330
924E
100
AcDbEntity
  8
AM_0 外形線1
100
AcDbCircle
 10
-166.0
 20
107.7
 30
0.0
 40
4.0
100
AcDbArc
 50
90.0
 51
180.0
  0
LINE
  5
925B
330
924E
100
AcDbEntity
  8
AM_0 外形線1
100
AcDbLine
 10
-113.5
 20
111.7
 30
0.0
 11
-111.5
 21
112.5
 31
0.0
  0
LINE
  5
925C
330
924E
100
AcDbEntity
  8
AM_0 外形線1
100
AcDbLine
 10
0.0
 20
111.0
 30
0.0
 11
0.0
 21
0.0
 31
0.0
  0
LINE
  5
925D
330
924E
100
AcDbEntity
  8
AM_3 隠れ線
100
AcDbLine
 10
0.0
 20
5.149999999999863
 30
0.0
 11
-33.0
 21
5.149999999999863
 31
0.0
  0
LINE
  5
925E
330
924E
100
AcDbEntity
  8
AM_3 隠れ線
100
AcDbLine
 10
0.0
 20
6.0
 30
0.0
 11
-28.0
 21
6.0
 31
0.0
  0
LINE
  5
925F
330
924E
100
AcDbEntity
  8
AM_3 隠れ線
100
AcDbLine
 10
-33.0
 20
5.149999999999863
 30
0.0
 11
-35.97335399999975
 21
0.0
 31
0.0
  0
LINE
  5
9260
330
924E
100
AcDbEntity
  8
AM_3 隠れ線
100
AcDbLine
 10
-33.0
 20
5.149999999999863
 30
0.0
 11
-33.0
 21
0.0
 31
0.0
  0
LINE
  5
9261
330
924E
100
AcDbEntity
  8
AM_3 隠れ線
100
AcDbLine
 10
-28.0
 20
6.0
 30
0.0
 11
-28.0
 21
0.0
 31
0.0
  0
LINE
  5
9262
330
924E
100
AcDbEntity
  8
AM_3 隠れ線
100
AcDbLine
 10
-28.49074800000017
 20
5.149999999999863
 30
0.0
 11
-28.49074800000017
 21
0.0
 31
0.0
  0
LINE
  5
9263
330
924E
100
AcDbEntity
  8
AM_3 隠れ線
100
AcDbLine
 10
-28.0
 20
6.0
 30
0.0
 11
-28.49074800000017
 21
5.149999999999863
 31
0.0
  0
LINE
  5
9264
330
924E
100
AcDbEntity
  8
AM_0 外形線1
100
AcDbLine
 10
-32.5
 20
112.0
 30
0.0
 11
-1.0
 21
112.0
 31
0.0
  0
ARC
  5
9266
330
924E
100
AcDbEntity
  8
AM_0 外形線1
100
AcDbCircle
 10
-49.0
 20
0.0
 30
0.0
 40
122.84
100
AcDbArc
 50
82.9861040000078
 51
98.66183899999851
  0
LINE
  5
9268
330
924E
100
AcDbEntity
  8
AM_0 外形線1
100
AcDbLine
 10
-68.5
 20
120.2823799999999
 30
0.0
 11
-67.5
 21
121.438938
 31
0.0
  0
LINE
  5
9269
330
924E
100
AcDbEntity
  8
AM_0 外形線1
100
AcDbLine
 10
-68.5
 20
113.0
 30
0.0
 11
-68.5
 21
120.2823799999999
 31
0.0
  0
ARC
  5
926A
330
924E
100
AcDbEntity
  8
AM_0 外形線1
100
AcDbCircle
 10
-69.0
 20
113.0
 30
0.0
 40
0.5
100
AcDbArc
 50
270.0
 51
0.0
  0
LINE
  5
926B
330
924E
100
AcDbEntity
  8
AM_7 中心線
100
AcDbLine
 10
-49.0
 20
127.8399999999999
 30
0.0
 11
-49.0
 21
111.7
 31
0.0
  0
ARC
  5
926C
330
924E
100
AcDbEntity
  8
AM_0 外形線1
100
AcDbCircle
 10
-32.5
 20
112.5
 30
0.0
 40
0.5
100
AcDbArc
 50
180.0
 51
270.0
  0
LINE
  5
926D
330
924E
100
AcDbEntity
  8
AM_0 外形線1
100
AcDbLine
 10
-33.0
 20
120.793537
 30
0.0
 11
-33.0
 21
112.5
 31
0.0
  0
LINE
  5
926E
330
924E
100
AcDbEntity
  8
AM_0 外形線1
100
AcDbLine
 10
-34.0
 20
121.9207349999999
 30
0.0
 11
-33.0
 21
120.793537
 31
0.0
  0
LINE
  5
9270
330
924E
100
AcDbEntity
  8
AM_0 外形線1
100
AcDbLine
 10
-1.0
 20
112.0
 30
0.0
 11
0.0
 21
111.0
 31
0.0
  0
LINE
  5
9271
330
924E
100
AcDbEntity
  8
AM_0 外形線1
100
AcDbLine
 10
0.0
 20
65.0
 30
0.0
 11
-170.0
 21
64.99999999999977
 31
0.0
  0
ARC
  5
E3D4
330
924E
100
AcDbEntity
  8
AM_0 外形線1
100
AcDbCircle
 10
-49.0
 20
0.0
 30
0.0
 40
116.6999999999998
100
AcDbArc
 50
82.11971657320246
 51
99.61896568280792
  0
ARC
  5
E3F6
330
924E
100
AcDbEntity
  8
AM_7 中心線
100
AcDbCircle
 10
-49.0
 20
0.0
 30
0.0
 40
120.0
100
AcDbArc
 50
80.40593177314162
 51
102.0246991805676
  0
ENDBLK
  5
9250
330
924E
100
AcDbEntity
  8
0
100
AcDbBlockEnd
  0
BLOCK
  5
950D
330
950C
100
AcDbEntity
  8
0
100
AcDbBlockBegin
  2
*D9
 70
     1
 10
0.0
 20
0.0
 30
0.0
  3
*D9
  1

  0
LINE
  5
E607
330
950C
100
AcDbEntity
  8
AM_5 寸法線
 62
     3
100
AcDbLine
 10
774.1055582653366
 20
1282.696094649885
 30
0.0
 11
774.1055582653366
 21
1251.947409377798
 31
0.0
  0
LINE
  5
E608
330
950C
100
AcDbEntity
  8
AM_5 寸法線
 62
     3
100
AcDbLine
 10
768.6055582653366
 20
1282.196094649885
 30
0.0
 11
768.6055582653366
 21
1251.947409377798
 31
0.0
  0
LINE
  5
E609
330
950C
100
AcDbEntity
  8
AM_5 寸法線
 62
     3
100
AcDbLine
 10
784.1055582653366
 20
1254.447409377797
 30
0.0
 11
794.1055582653366
 21
1254.447409377797
 31
0.0
  0
LINE
  5
E60A
330
950C
100
AcDbEntity
  8
AM_5 寸法線
 62
     3
100
AcDbLine
 10
758.6055582653366
 20
1254.447409377797
 30
0.0
 11
710.2055582653366
 21
1254.447409377797
 31
0.0
  0
LINE
  5
E60B
330
950C
100
AcDbEntity
  8
AM_5 寸法線
 62
     3
100
AcDbLine
 10
774.1055582653366
 20
1254.447409377797
 30
0.0
 11
768.6055582653366
 21
1254.447409377797
 31
0.0
  0
INSERT
  5
E60C
330
950C
100
AcDbEntity
  8
AM_5 寸法線
 62
     3
100
AcDbBlockReference
  2
_Open30
 10
774.1055582653366
 20
1254.447409377797
 30
0.0
 41
10.0
 42
10.0
 43
10.0
 50
180.0
  0
INSERT
  5
E60D
330
950C
100
AcDbEntity
  8
AM_5 寸法線
 62
     3
100
AcDbBlockReference
  2
_Open30
 10
768.6055582653366
 20
1254.447409377797
 30
0.0
 41
10.0
 42
10.0
 43
10.0
  0
MTEXT
  5
E60E
330
950C
100
AcDbEntity
  8
AM_5 寸法線
 62
     3
100
AcDbMText
 10
729.4055582653364
 20
1267.447409377797
 30
0.0
 40
14.0
 41
0.0
 46
0.0
 71
     5
 72
     1
  1
5.5
  7
SEISA
 73
     1
 44
1.0
  0
POINT
  5
E60F
330
950C
100
AcDbEntity
  8
Defpoints
 62
     0
100
AcDbPoint
 10
774.1055582653366
 20
1285.196094649885
 30
0.0
  0
POINT
  5
E610
330
950C
100
AcDbEntity
  8
Defpoints
 62
     0
100
AcDbPoint
 10
768.6055582653366
 20
1284.696094649885
 30
0.0
  0
POINT
  5
E611
330
950C
100
AcDbEntity
  8
Defpoints
 62
     0
100
AcDbPoint
 10
768.6055582653366
 20
1254.447409377797
 30
0.0
  0
ENDBLK
  5
950E
330
950C
100
AcDbEntity
  8
0
100
AcDbBlockEnd
  0
BLOCK
  5
954A
330
9549
100
AcDbEntity
  8
0
100
AcDbBlockBegin
  2
*D10
 70
     1
 10
0.0
 20
0.0
 30
0.0
  3
*D10
  1

  0
LINE
  5
C11B
330
9549
100
AcDbEntity
  8
AM_5 寸法線
 62
     3
100
AcDbLine
 10
672.6055582653366
 20
1192.78963333514
 30
0.0
 11
672.6055582653366
 21
1192.100250565378
 31
0.0
  0
LINE
  5
C11C
330
9549
100
AcDbEntity
  8
AM_5 寸法線
 62
     3
100
AcDbLine
 10
842.6055582653367
 20
1192.78963333514
 30
0.0
 11
842.6055582653367
 21
1192.100250565378
 31
0.0
  0
LINE
  5
C11D
330
9549
100
AcDbEntity
  8
AM_5 寸法線
 62
     3
100
AcDbLine
 10
682.6055582653366
 20
1194.600250565378
 30
0.0
 11
832.6055582653363
 21
1194.600250565378
 31
0.0
  0
INSERT
  5
C11E
330
9549
100
AcDbEntity
  8
AM_5 寸法線
 62
     3
100
AcDbBlockReference
  2
_Open30
 10
672.6055582653366
 20
1194.600250565378
 30
0.0
 41
10.0
 42
10.0
 43
10.0
 50
180.0
  0
INSERT
  5
C11F
330
9549
100
AcDbEntity
  8
AM_5 寸法線
 62
     3
100
AcDbBlockReference
  2
_Open30
 10
842.6055582653367
 20
1194.600250565378
 30
0.0
 41
10.0
 42
10.0
 43
10.0
  0
MTEXT
  5
C120
330
9549
100
AcDbEntity
  8
AM_5 寸法線
 62
     3
100
AcDbMText
 10
757.6055582653366
 20
1207.600250565378
 30
0.0
 40
14.0
 41
0.0
 46
0.0
 71
     5
 72
     1
  1
170
  7
SEISA
 73
     1
 44
1.0
  0
POINT
  5
C121
330
9549
100
AcDbEntity
  8
Defpoints
 62
     0
100
AcDbPoint
 10
672.6055582653366
 20
1195.28963333514
 30
0.0
  0
POINT
  5
C122
330
9549
100
AcDbEntity
  8
Defpoints
 62
     0
100
AcDbPoint
 10
842.6055582653367
 20
1195.28963333514
 30
0.0
  0
POINT
  5
C123
330
9549
100
AcDbEntity
  8
Defpoints
 62
     0
100
AcDbPoint
 10
842.6055582653367
 20
1194.600250565378
 30
0.0
  0
ENDBLK
  5
954B
330
9549
100
AcDbEntity
  8
0
100
AcDbBlockEnd
  0
BLOCK
  5
95A8
330
95A7
100
AcDbEntity
  8
0
100
AcDbBlockBegin
  2
*D11
 70
     1
 10
0.0
 20
0.0
 30
0.0
  3
*D11
  1

  0
LINE
  5
C124
330
95A7
100
AcDbEntity
  8
AM_5 寸法線
 62
     3
100
AcDbLine
 10
728.6055582653366
 20
1284.696094649885
 30
0.0
 11
610.1055572553365
 21
1284.696094649885
 31
0.0
  0
LINE
  5
C125
330
95A7
100
AcDbEntity
  8
AM_5 寸法線
 62
     3
100
AcDbLine
 10
728.6055582653366
 20
1059.696094649885
 30
0.0
 11
610.1055572553364
 21
1059.696094649885
 31
0.0
  0
LINE
  5
C126
330
95A7
100
AcDbEntity
  8
AM_5 寸法線
 62
     3
100
AcDbLine
 10
612.6055572553362
 20
1274.696094649885
 30
0.0
 11
612.6055572553362
 21
1069.696094649885
 31
0.0
  0
INSERT
  5
C127
330
95A7
100
AcDbEntity
  8
AM_5 寸法線
 62
     3
100
AcDbBlockReference
  2
_Open30
 10
612.6055572553365
 20
1284.696094649885
 30
0.0
 41
10.0
 42
10.0
 43
10.0
 50
90.0
  0
INSERT
  5
C128
330
95A7
100
AcDbEntity
  8
AM_5 寸法線
 62
     3
100
AcDbBlockReference
  2
_Open30
 10
612.6055572553362
 20
1059.696094649885
 30
0.0
 41
10.0
 42
10.0
 43
10.0
 50
270.0
  0
MTEXT
  5
C129
330
95A7
100
AcDbEntity
  8
AM_5 寸法線
 62
     3
100
AcDbMText
 10
599.6055572553362
 20
1172.196094649885
 30
0.0
 40
14.0
 41
0.0
 46
0.0
 71
     5
 72
     1
  1
%%c225
  7
SEISA
 11
0.0000000000000001
 21
1.0
 31
0.0
 73
     1
 44
1.0
  0
POINT
  5
C12A
330
95A7
100
AcDbEntity
  8
Defpoints
 62
     0
100
AcDbPoint
 10
731.1055582653366
 20
1284.696094649885
 30
0.0
  0
POINT
  5
C12B
330
95A7
100
AcDbEntity
  8
Defpoints
 62
     0
100
AcDbPoint
 10
731.1055582653366
 20
1059.696094649885
 30
0.0
  0
POINT
  5
C12C
330
95A7
100
AcDbEntity
  8
Defpoints
 62
     0
100
AcDbPoint
 10
612.6055572553362
 20
1059.696094649885
 30
0.0
  0
ENDBLK
  5
95A9
330
95A7
100
AcDbEntity
  8
0
100
AcDbBlockEnd
  0
BLOCK
  5
9623
330
9622
100
AcDbEntity
  8
0
100
AcDbBlockBegin
  2
*D12
 70
     1
 10
0.0
 20
0.0
 30
0.0
  3
*D12
  1

  0
LINE
  5
E7AA
330
9622
100
AcDbEntity
  8
AM_5 寸法線
 62
     3
100
AcDbLine
 10
842.6055582653367
 20
1197.320701101213
 30
0.0
 11
842.6055582653367
 21
1192.100250565378
 31
0.0
  0
LINE
  5
E7AB
330
9622
100
AcDbEntity
  8
AM_5 寸法線
 62
     3
100
AcDbLine
 10
858.6055582653367
 20
1197.320701101213
 30
0.0
 11
858.6055582653367
 21
1192.100250565378
 31
0.0
  0
LINE
  5
E7AC
330
9622
100
AcDbEntity
  8
AM_5 寸法線
 62
     3
100
AcDbLine
 10
832.6055582653363
 20
1194.600250565378
 30
0.0
 11
822.6055582653366
 21
1194.600250565378
 31
0.0
  0
LINE
  5
E7AD
330
9622
100
AcDbEntity
  8
AM_5 寸法線
 62
     3
100
AcDbLine
 10
868.6055582653366
 20
1194.600250565378
 30
0.0
 11
878.6055582653366
 21
1194.600250565378
 31
0.0
  0
MTEXT
  5
E7AE
330
9622
100
AcDbEntity
  8
AM_5 寸法線
 62
     3
100
AcDbMText
 10
870.3527728088536
 20
1207.950155212733
 30
0.0
 40
14.0
 41
0.0
 46
0.0
 71
     5
 72
     1
  1
16
  7
SEISA
 73
     1
 44
1.0
  0
LINE
  5
E7AF
330
9622
100
AcDbEntity
  8
AM_5 寸法線
 62
     3
100
AcDbLine
 10
842.6055582653367
 20
1194.600250565378
 30
0.0
 11
858.6055582653367
 21
1194.600250565378
 31
0.0
  0
INSERT
  5
E7B0
330
9622
100
AcDbEntity
  8
AM_5 寸法線
 62
     3
100
AcDbBlockReference
  2
_Open30
 10
842.6055582653367
 20
1194.600250565378
 30
0.0
 41
10.0
 42
10.0
 43
10.0
  0
INSERT
  5
E7B1
330
9622
100
AcDbEntity
  8
AM_5 寸法線
 62
     3
100
AcDbBlockReference
  2
_Open30
 10
858.6055582653367
 20
1194.600250565378
 30
0.0
 41
10.0
 42
10.0
 43
10.0
 50
180.0
  0
POINT
  5
E7B2
330
9622
100
AcDbEntity
  8
Defpoints
 62
     0
100
AcDbPoint
 10
842.6055582653367
 20
1199.820701101213
 30
0.0
  0
POINT
  5
E7B3
330
9622
100
AcDbEntity
  8
Defpoints
 62
     0
100
AcDbPoint
 10
858.6055582653367
 20
1199.820701101213
 30
0.0
  0
POINT
  5
E7B4
330
9622
100
AcDbEntity
  8
Defpoints
 62
     0
100
AcDbPoint
 10
858.6055582653367
 20
1194.600250565378
 30
0.0
  0
ENDBLK
  5
9624
330
9622
100
AcDbEntity
  8
0
100
AcDbBlockEnd
  0
BLOCK
  5
9660
330
965F
100
AcDbEntity
  8
0
100
AcDbBlockBegin
  2
*D13
 70
     1
 10
0.0
 20
0.0
 30
0.0
  3
*D13
  1

  0
LINE
  5
C142
330
965F
100
AcDbEntity
  8
AM_5 寸法線
 62
     3
100
AcDbLine
 10
858.6055582653367
 20
1194.239685581259
 30
0.0
 11
858.6055582653367
 21
1197.100250565378
 31
0.0
  0
LINE
  5
C143
330
965F
100
AcDbEntity
  8
AM_5 寸法線
 62
     3
100
AcDbLine
 10
1028.605558265336
 20
1194.239685581259
 30
0.0
 11
1028.605558265336
 21
1197.100250565378
 31
0.0
  0
LINE
  5
C144
330
965F
100
AcDbEntity
  8
AM_5 寸法線
 62
     3
100
AcDbLine
 10
868.6055582653366
 20
1194.600250565378
 30
0.0
 11
1018.605558265337
 21
1194.600250565378
 31
0.0
  0
INSERT
  5
C145
330
965F
100
AcDbEntity
  8
AM_5 寸法線
 62
     3
100
AcDbBlockReference
  2
_Open30
 10
858.6055582653367
 20
1194.600250565378
 30
0.0
 41
10.0
 42
10.0
 43
10.0
 50
180.0
  0
INSERT
  5
C146
330
965F
100
AcDbEntity
  8
AM_5 寸法線
 62
     3
100
AcDbBlockReference
  2
_Open30
 10
1028.605558265336
 20
1194.600250565378
 30
0.0
 41
10.0
 42
10.0
 43
10.0
  0
MTEXT
  5
C147
330
965F
100
AcDbEntity
  8
AM_5 寸法線
 62
     3
100
AcDbMText
 10
943.6055582653366
 20
1207.600250565378
 30
0.0
 40
14.0
 41
0.0
 46
0.0
 71
     5
 72
     1
  1
170
  7
SEISA
 73
     1
 44
1.0
  0
POINT
  5
C148
330
965F
100
AcDbEntity
  8
Defpoints
 62
     0
100
AcDbPoint
 10
858.6055582653367
 20
1191.739685581259
 30
0.0
  0
POINT
  5
C149
330
965F
100
AcDbEntity
  8
Defpoints
 62
     0
100
AcDbPoint
 10
1028.605558265336
 20
1191.739685581259
 30
0.0
  0
POINT
  5
C14A
330
965F
100
AcDbEntity
  8
Defpoints
 62
     0
100
AcDbPoint
 10
1028.605558265336
 20
1194.600250565378
 30
0.0
  0
ENDBLK
  5
9661
330
965F
100
AcDbEntity
  8
0
100
AcDbBlockEnd
  0
BLOCK
  5
96D5
330
96D4
100
AcDbEntity
  8
0
100
AcDbBlockBegin
  2
*D14
 70
     1
 10
0.0
 20
0.0
 30
0.0
  3
*D14
  1

  0
LINE
  5
DA56
330
96D4
100
AcDbEntity
  8
AM_5 寸法線
 62
     3
100
AcDbLine
 10
850.6055582653367
 20
1013.196094649885
 30
0.0
 11
850.6055582653367
 21
953.1960946498854
 31
0.0
  0
LINE
  5
DA57
330
96D4
100
AcDbEntity
  8
AM_5 寸法線
 62
     3
100
AcDbLine
 10
829.6055582653366
 20
1013.196094649885
 30
0.0
 11
829.6055582653366
 21
953.1960946498854
 31
0.0
  0
LINE
  5
DA58
330
96D4
100
AcDbEntity
  8
AM_5 寸法線
 62
     3
100
AcDbLine
 10
860.6055582653366
 20
955.6960946498854
 30
0.0
 11
870.6055582653366
 21
955.6960946498854
 31
0.0
  0
LINE
  5
DA59
330
96D4
100
AcDbEntity
  8
AM_5 寸法線
 62
     3
100
AcDbLine
 10
819.6055582653366
 20
955.6960946498854
 30
0.0
 11
809.6055582653367
 21
955.6960946498854
 31
0.0
  0
MTEXT
  5
DA5A
330
96D4
100
AcDbEntity
  8
AM_5 寸法線
 62
     3
100
AcDbMText
 10
808.98088275804
 20
968.7142320256752
 30
0.0
 40
14.0
 41
0.0
 46
0.0
 71
     5
 72
     1
  1
21
  7
SEISA
 73
     1
 44
1.0
  0
LINE
  5
DA5B
330
96D4
100
AcDbEntity
  8
AM_5 寸法線
 62
     3
100
AcDbLine
 10
850.6055582653367
 20
955.6960946498854
 30
0.0
 11
829.6055582653366
 21
955.6960946498854
 31
0.0
  0
INSERT
  5
DA5C
330
96D4
100
AcDbEntity
  8
AM_5 寸法線
 62
     3
100
AcDbBlockReference
  2
GENDOT
 10
850.6055582653367
 20
955.6960946498854
 30
0.0
 41
10.0
 42
10.0
 43
10.0
 50
180.0
  0
INSERT
  5
DA5D
330
96D4
100
AcDbEntity
  8
AM_5 寸法線
 62
     3
100
AcDbBlockReference
  2
_Open30
 10
829.6055582653366
 20
955.6960946498854
 30
0.0
 41
10.0
 42
10.0
 43
10.0
  0
POINT
  5
DA5E
330
96D4
100
AcDbEntity
  8
Defpoints
 62
     0
100
AcDbPoint
 10
850.6055582653367
 20
1015.696094649885
 30
0.0
  0
POINT
  5
DA5F
330
96D4
100
AcDbEntity
  8
Defpoints
 62
     0
100
AcDbPoint
 10
829.6055582653366
 20
1015.696094649885
 30
0.0
  0
POINT
  5
DA60
330
96D4
100
AcDbEntity
  8
Defpoints
 62
     0
100
AcDbPoint
 10
829.6055582653366
 20
955.6960946498854
 30
0.0
  0
ENDBLK
  5
96D6
330
96D4
100
AcDbEntity
  8
0
100
AcDbBlockEnd
  0
BLOCK
  5
9707
330
9706
100
AcDbEntity
  8
0
100
AcDbBlockBegin
  2
*D15
 70
     1
 10
0.0
 20
0.0
 30
0.0
  3
*D15
  1

  0
LINE
  5
DA6C
330
9706
100
AcDbEntity
  8
AM_5 寸法線
 62
     3
100
AcDbLine
 10
850.6055582653367
 20
1013.196094649885
 30
0.0
 11
850.6055582653367
 21
953.1960946498848
 31
0.0
  0
LINE
  5
DA6D
330
9706
100
AcDbEntity
  8
AM_5 寸法線
 62
     3
100
AcDbLine
 10
871.6055582653366
 20
1013.196094649885
 30
0.0
 11
871.6055582653366
 21
953.1960946498848
 31
0.0
  0
LINE
  5
DA6E
330
9706
100
AcDbEntity
  8
AM_5 寸法線
 62
     3
100
AcDbLine
 10
840.6055582653364
 20
955.6960946498849
 30
0.0
 11
830.6055582653366
 21
955.6960946498849
 31
0.0
  0
LINE
  5
DA6F
330
9706
100
AcDbEntity
  8
AM_5 寸法線
 62
     3
100
AcDbLine
 10
881.6055582653364
 20
955.6960946498849
 30
0.0
 11
891.6055582653367
 21
955.6960946498849
 31
0.0
  0
MTEXT
  5
DA70
330
9706
100
AcDbEntity
  8
AM_5 寸法線
 62
     3
100
AcDbMText
 10
891.4359880831607
 20
968.5404678051275
 30
0.0
 40
14.0
 41
0.0
 46
0.0
 71
     5
 72
     1
  1
21
  7
SEISA
 73
     1
 44
1.0
  0
LINE
  5
DA71
330
9706
100
AcDbEntity
  8
AM_5 寸法線
 62
     3
100
AcDbLine
 10
850.6055582653367
 20
955.6960946498849
 30
0.0
 11
871.6055582653366
 21
955.6960946498849
 31
0.0
  0
INSERT
  5
DA72
330
9706
100
AcDbEntity
  8
AM_5 寸法線
 62
     3
100
AcDbBlockReference
  2
GENDOT
 10
850.6055582653367
 20
955.6960946498849
 30
0.0
 41
10.0
 42
10.0
 43
10.0
  0
INSERT
  5
DA73
330
9706
100
AcDbEntity
  8
AM_5 寸法線
 62
     3
100
AcDbBlockReference
  2
_Open30
 10
871.6055582653366
 20
955.6960946498849
 30
0.0
 41
10.0
 42
10.0
 43
10.0
 50
180.0
  0
POINT
  5
DA74
330
9706
100
AcDbEntity
  8
Defpoints
 62
     0
100
AcDbPoint
 10
850.6055582653367
 20
1015.696094649885
 30
0.0
  0
POINT
  5
DA75
330
9706
100
AcDbEntity
  8
Defpoints
 62
     0
100
AcDbPoint
 10
871.6055582653366
 20
1015.696094649885
 30
0.0
  0
POINT
  5
DA76
330
9706
100
AcDbEntity
  8
Defpoints
 62
     0
100
AcDbPoint
 10
871.6055582653366
 20
955.6960946498849
 30
0.0
  0
ENDBLK
  5
9708
330
9706
100
AcDbEntity
  8
0
100
AcDbBlockEnd
  0
BLOCK
  5
979E
330
979D
100
AcDbEntity
  8
0
100
AcDbBlockBegin
  2
*D16
 70
     1
 10
0.0
 20
0.0
 30
0.0
  3
*D16
  1

  0
LINE
  5
E39E
330
979D
100
AcDbEntity
  8
AM_5 寸法線
 62
     3
100
AcDbLine
 10
752.6055582653366
 20
1043.696094649885
 30
0.0
 11
752.6055582653366
 21
913.1960946498848
 31
0.0
  0
LINE
  5
E39F
330
979D
100
AcDbEntity
  8
AM_5 寸法線
 62
     3
100
AcDbLine
 10
948.6055582653362
 20
1048.647899649885
 30
0.0
 11
948.6055582653362
 21
913.1960946498848
 31
0.0
  0
LINE
  5
E3A0
330
979D
100
AcDbEntity
  8
AM_5 寸法線
 62
     3
100
AcDbLine
 10
762.6055582653366
 20
915.6960946498848
 30
0.0
 11
938.6055582653366
 21
915.6960946498848
 31
0.0
  0
INSERT
  5
E3A1
330
979D
100
AcDbEntity
  8
AM_5 寸法線
 62
     3
100
AcDbBlockReference
  2
_Open30
 10
752.6055582653366
 20
915.6960946498848
 30
0.0
 41
10.0
 42
10.0
 43
10.0
 50
180.0
  0
INSERT
  5
E3A2
330
979D
100
AcDbEntity
  8
AM_5 寸法線
 62
     3
100
AcDbBlockReference
  2
_Open30
 10
948.6055582653362
 20
915.6960946498848
 30
0.0
 41
10.0
 42
10.0
 43
10.0
  0
MTEXT
  5
E3A3
330
979D
100
AcDbEntity
  8
AM_5 寸法線
 62
     3
100
AcDbMText
 10
850.6055582653367
 20
928.6960946498847
 30
0.0
 40
14.0
 41
0.0
 46
0.0
 71
     5
 72
     1
  1
196
  7
SEISA
 73
     1
 44
1.0
  0
POINT
  5
E3A4
330
979D
100
AcDbEntity
  8
Defpoints
 62
     0
100
AcDbPoint
 10
752.6055582653366
 20
1046.196094649885
 30
0.0
  0
POINT
  5
E3A5
330
979D
100
AcDbEntity
  8
Defpoints
 62
     0
100
AcDbPoint
 10
948.6055582653362
 20
1051.147899649885
 30
0.0
  0
POINT
  5
E3A6
330
979D
100
AcDbEntity
  8
Defpoints
 62
     0
100
AcDbPoint
 10
948.6055582653362
 20
915.6960946498848
 30
0.0
  0
ENDBLK
  5
979F
330
979D
100
AcDbEntity
  8
0
100
AcDbBlockEnd
  0
BLOCK
  5
98E8
330
98E7
100
AcDbEntity
  8
0
100
AcDbBlockBegin
  2
*D17
 70
     1
 10
0.0
 20
0.0
 30
0.0
  3
*D17
  1

  0
LINE
  5
C1A6
330
98E7
100
AcDbEntity
  8
AM_5 寸法線
 62
     3
100
AcDbLine
 10
672.6055582653366
 20
1061.996094649885
 30
0.0
 11
672.6055582653366
 21
873.196094649883
 31
0.0
  0
LINE
  5
C1A7
330
98E7
100
AcDbEntity
  8
AM_5 寸法線
 62
     3
100
AcDbLine
 10
1028.605558265336
 20
1061.996094649885
 30
0.0
 11
1028.605558265336
 21
873.196094649883
 31
0.0
  0
LINE
  5
C1A8
330
98E7
100
AcDbEntity
  8
AM_5 寸法線
 62
     3
100
AcDbLine
 10
682.6055582653366
 20
875.696094649883
 30
0.0
 11
1018.605558265337
 21
875.696094649883
 31
0.0
  0
INSERT
  5
C1A9
330
98E7
100
AcDbEntity
  8
AM_5 寸法線
 62
     3
100
AcDbBlockReference
  2
_Open30
 10
672.6055582653366
 20
875.696094649883
 30
0.0
 41
10.0
 42
10.0
 43
10.0
 50
180.0
  0
INSERT
  5
C1AA
330
98E7
100
AcDbEntity
  8
AM_5 寸法線
 62
     3
100
AcDbBlockReference
  2
_Open30
 10
1028.605558265336
 20
875.696094649883
 30
0.0
 41
10.0
 42
10.0
 43
10.0
  0
MTEXT
  5
C1AB
330
98E7
100
AcDbEntity
  8
AM_5 寸法線
 62
     3
100
AcDbMText
 10
850.6055582653367
 20
888.6960946498829
 30
0.0
 40
14.0
 41
0.0
 46
0.0
 71
     5
 72
     1
  1
356
  7
SEISA
 73
     1
 44
1.0
  0
POINT
  5
C1AC
330
98E7
100
AcDbEntity
  8
Defpoints
 62
     0
100
AcDbPoint
 10
672.6055582653366
 20
1064.496094649885
 30
0.0
  0
POINT
  5
C1AD
330
98E7
100
AcDbEntity
  8
Defpoints
 62
     0
100
AcDbPoint
 10
1028.605558265336
 20
1064.496094649885
 30
0.0
  0
POINT
  5
C1AE
330
98E7
100
AcDbEntity
  8
Defpoints
 62
     0
100
AcDbPoint
 10
1028.605558265336
 20
875.696094649883
 30
0.0
  0
ENDBLK
  5
98E9
330
98E7
100
AcDbEntity
  8
0
100
AcDbBlockEnd
  0
BLOCK
  5
9913
330
9912
100
AcDbEntity
  8
0
100
AcDbBlockBegin
  2
*D18
 70
     1
 10
0.0
 20
0.0
 30
0.0
  3
*D18
  1

  0
LINE
  5
C1AF
330
9912
100
AcDbEntity
  8
AM_5 寸法線
 62
     3
100
AcDbLine
 10
972.6055582653366
 20
1284.696094649885
 30
0.0
 11
1091.105559275336
 21
1284.696094649885
 31
0.0
  0
LINE
  5
C1B0
330
9912
100
AcDbEntity
  8
AM_5 寸法線
 62
     3
100
AcDbLine
 10
972.6055582653366
 20
1059.696094649885
 30
0.0
 11
1091.105559275336
 21
1059.696094649885
 31
0.0
  0
LINE
  5
C1B1
330
9912
100
AcDbEntity
  8
AM_5 寸法線
 62
     3
100
AcDbLine
 10
1088.605559275336
 20
1274.696094649885
 30
0.0
 11
1088.605559275336
 21
1069.696094649885
 31
0.0
  0
INSERT
  5
C1B2
330
9912
100
AcDbEntity
  8
AM_5 寸法線
 62
     3
100
AcDbBlockReference
  2
_Open30
 10
1088.605559275336
 20
1284.696094649885
 30
0.0
 41
10.0
 42
10.0
 43
10.0
 50
90.0
  0
INSERT
  5
C1B3
330
9912
100
AcDbEntity
  8
AM_5 寸法線
 62
     3
100
AcDbBlockReference
  2
_Open30
 10
1088.605559275336
 20
1059.696094649885
 30
0.0
 41
10.0
 42
10.0
 43
10.0
 50
270.0
  0
MTEXT
  5
C1B4
330
9912
100
AcDbEntity
  8
AM_5 寸法線
 62
     3
100
AcDbMText
 10
1075.605559275336
 20
1172.196094649885
 30
0.0
 40
14.0
 41
0.0
 46
0.0
 71
     5
 72
     1
  1
%%c225
  7
SEISA
 11
0.0000000000000001
 21
1.0
 31
0.0
 73
     1
 44
1.0
  0
POINT
  5
C1B5
330
9912
100
AcDbEntity
  8
Defpoints
 62
     0
100
AcDbPoint
 10
970.1055582653363
 20
1284.696094649885
 30
0.0
  0
POINT
  5
C1B6
330
9912
100
AcDbEntity
  8
Defpoints
 62
     0
100
AcDbPoint
 10
970.1055582653363
 20
1059.696094649885
 30
0.0
  0
POINT
  5
C1B7
330
9912
100
AcDbEntity
  8
Defpoints
 62
     0
100
AcDbPoint
 10
1088.605559275336
 20
1059.696094649885
 30
0.0
  0
ENDBLK
  5
9914
330
9912
100
AcDbEntity
  8
0
100
AcDbBlockEnd
  0
BLOCK
  5
9946
330
9945
100
AcDbEntity
  8
0
100
AcDbBlockBegin
  2
*D19
 70
     1
 10
0.0
 20
0.0
 30
0.0
  3
*D19
  1

  0
LINE
  5
C1B8
330
9945
100
AcDbEntity
  8
AM_5 寸法線
 62
     3
100
AcDbLine
 10
947.1055582653367
 20
1302.196094649885
 30
0.0
 11
1131.105559275337
 21
1302.196094649885
 31
0.0
  0
LINE
  5
C1B9
330
9945
100
AcDbEntity
  8
AM_5 寸法線
 62
     3
100
AcDbLine
 10
947.1055582653367
 20
1042.196094649885
 30
0.0
 11
1131.105559275337
 21
1042.196094649885
 31
0.0
  0
LINE
  5
C1BA
330
9945
100
AcDbEntity
  8
AM_5 寸法線
 62
     3
100
AcDbLine
 10
1128.605559275337
 20
1292.196094649885
 30
0.0
 11
1128.605559275337
 21
1052.196094649885
 31
0.0
  0
INSERT
  5
C1BB
330
9945
100
AcDbEntity
  8
AM_5 寸法線
 62
     3
100
AcDbBlockReference
  2
_Open30
 10
1128.605559275337
 20
1302.196094649885
 30
0.0
 41
10.0
 42
10.0
 43
10.0
 50
90.0
  0
INSERT
  5
C1BC
330
9945
100
AcDbEntity
  8
AM_5 寸法線
 62
     3
100
AcDbBlockReference
  2
_Open30
 10
1128.605559275337
 20
1042.196094649885
 30
0.0
 41
10.0
 42
10.0
 43
10.0
 50
270.0
  0
MTEXT
  5
C1BD
330
9945
100
AcDbEntity
  8
AM_5 寸法線
 62
     3
100
AcDbMText
 10
1115.605559275337
 20
1172.196094649885
 30
0.0
 40
14.0
 41
0.0
 46
0.0
 71
     5
 72
     1
  1
%%c260
  7
SEISA
 11
0.0000000000000001
 21
1.0
 31
0.0
 73
     1
 44
1.0
  0
POINT
  5
C1BE
330
9945
100
AcDbEntity
  8
Defpoints
 62
     0
100
AcDbPoint
 10
944.6055582653366
 20
1302.196094649885
 30
0.0
  0
POINT
  5
C1BF
330
9945
100
AcDbEntity
  8
Defpoints
 62
     0
100
AcDbPoint
 10
944.6055582653366
 20
1042.196094649885
 30
0.0
  0
POINT
  5
C1C0
330
9945
100
AcDbEntity
  8
Defpoints
 62
     0
100
AcDbPoint
 10
1128.605559275337
 20
1042.196094649885
 30
0.0
  0
ENDBLK
  5
9947
330
9945
100
AcDbEntity
  8
0
100
AcDbBlockEnd
  0
BLOCK
  5
9979
330
9978
100
AcDbEntity
  8
0
100
AcDbBlockBegin
  2
*D20
 70
     1
 10
0.0
 20
0.0
 30
0.0
  3
*D20
  1

  0
LINE
  5
C1C1
330
9978
100
AcDbEntity
  8
AM_5 寸法線
 62
     3
100
AcDbLine
 10
873.1055582653366
 20
1329.696094649885
 30
0.0
 11
1171.105559275337
 21
1329.696094649885
 31
0.0
  0
LINE
  5
C1C2
330
9978
100
AcDbEntity
  8
AM_5 寸法線
 62
     3
100
AcDbLine
 10
873.1055582653366
 20
1014.696094649885
 30
0.0
 11
1171.105559275337
 21
1014.696094649885
 31
0.0
  0
LINE
  5
C1C3
330
9978
100
AcDbEntity
  8
AM_5 寸法線
 62
     3
100
AcDbLine
 10
1168.605559275337
 20
1319.696094649885
 30
0.0
 11
1168.605559275337
 21
1024.696094649885
 31
0.0
  0
INSERT
  5
C1C4
330
9978
100
AcDbEntity
  8
AM_5 寸法線
 62
     3
100
AcDbBlockReference
  2
_Open30
 10
1168.605559275337
 20
1329.696094649885
 30
0.0
 41
10.0
 42
10.0
 43
10.0
 50
90.0
  0
INSERT
  5
C1C5
330
9978
100
AcDbEntity
  8
AM_5 寸法線
 62
     3
100
AcDbBlockReference
  2
_Open30
 10
1168.605559275337
 20
1014.696094649885
 30
0.0
 41
10.0
 42
10.0
 43
10.0
 50
270.0
  0
MTEXT
  5
C1C6
330
9978
100
AcDbEntity
  8
AM_5 寸法線
 62
     3
100
AcDbMText
 10
1155.605559275337
 20
1172.196094649885
 30
0.0
 40
14.0
 41
0.0
 46
0.0
 71
     5
 72
     1
  1
%%c315
  7
SEISA
 11
0.0000000000000001
 21
1.0
 31
0.0
 73
     1
 44
1.0
  0
POINT
  5
C1C7
330
9978
100
AcDbEntity
  8
Defpoints
 62
     0
100
AcDbPoint
 10
870.6055582653366
 20
1329.696094649885
 30
0.0
  0
POINT
  5
C1C8
330
9978
100
AcDbEntity
  8
Defpoints
 62
     0
100
AcDbPoint
 10
870.6055582653366
 20
1014.696094649885
 30
0.0
  0
POINT
  5
C1C9
330
9978
100
AcDbEntity
  8
Defpoints
 62
     0
100
AcDbPoint
 10
1168.605559275337
 20
1014.696094649885
 30
0.0
  0
ENDBLK
  5
997A
330
9978
100
AcDbEntity
  8
0
100
AcDbBlockEnd
  0
BLOCK
  5
A91A
330
A919
100
AcDbEntity
  8
0
100
AcDbBlockBegin
  2
ロッカクアナツキプラグ R1／4
 70
     0
 10
0.0
 20
0.0
 30
0.0
  3
ロッカクアナツキプラグ R1／4
  1

  0
CIRCLE
  5
A91C
330
A919
100
AcDbEntity
  8
AM_0 外形線1
100
AcDbCircle
 10
0.0
 20
0.0
 30
0.0
 40
7.174975999999999
  0
CIRCLE
  5
A91D
330
A919
100
AcDbEntity
  8
AM_4 細線
100
AcDbCircle
 10
0.0
 20
0.0
 30
0.0
 40
6.504976
  0
LINE
  5
A91E
330
A919
100
AcDbEntity
  8
AM_7 中心線
100
AcDbLine
 10
0.0
 20
-8.718511999999916
 30
0.0
 11
0.0
 21
8.718511000000034
 31
0.0
  0
LINE
  5
A91F
330
A919
100
AcDbEntity
  8
AM_7 中心線
100
AcDbLine
 10
-9.489575999999942
 20
0.0
 30
0.0
 11
9.489575999999942
 21
0.0
 31
0.0
  0
LINE
  5
A920
330
A919
100
AcDbEntity
  8
AM_0 外形線1
100
AcDbLine
 10
2.611066999999819
 20
-1.507499999999935
 30
0.0
 11
2.611066999999819
 21
1.507499999999935
 31
0.0
  0
LINE
  5
A921
330
A919
100
AcDbEntity
  8
AM_0 外形線1
100
AcDbLine
 10
0.0
 20
-3.0150000000001
 30
0.0
 11
2.611066999999819
 21
-1.507499999999935
 31
0.0
  0
LINE
  5
A922
330
A919
100
AcDbEntity
  8
AM_0 外形線1
100
AcDbLine
 10
-2.611066999999819
 20
-1.507499999999935
 30
0.0
 11
0.0
 21
-3.0150000000001
 31
0.0
  0
LINE
  5
A923
330
A919
100
AcDbEntity
  8
AM_0 外形線1
100
AcDbLine
 10
-2.611066999999819
 20
1.507499999999935
 30
0.0
 11
-2.611066999999819
 21
-1.507499999999935
 31
0.0
  0
LINE
  5
A924
330
A919
100
AcDbEntity
  8
AM_0 外形線1
100
AcDbLine
 10
0.0
 20
3.0150000000001
 30
0.0
 11
-2.611066999999819
 21
1.507499999999935
 31
0.0
  0
LINE
  5
A925
330
A919
100
AcDbEntity
  8
AM_0 外形線1
100
AcDbLine
 10
2.611066999999819
 20
1.507499999999935
 30
0.0
 11
0.0
 21
3.0150000000001
 31
0.0
  0
ENDBLK
  5
A91B
330
A919
100
AcDbEntity
  8
0
100
AcDbBlockEnd
  0
BLOCK
  5
AC87
330
AC86
100
AcDbEntity
  8
0
100
AcDbBlockBegin
  2
リーマボルト SSM315 M12
 70
     0
 10
0.0
 20
0.0
 30
0.0
  3
リーマボルト SSM315 M12
  1

  0
ARC
  5
AC89
330
AC86
100
AcDbEntity
  8
AM_0 外形線1
100
AcDbCircle
 10
50.12167200000021
 20
8.217413999999962
 30
0.0
 40
4.878327999999998
100
AcDbArc
 50
325.9339549999888
 51
34.06604500001118
  0
LINE
  5
AC8A
330
AC86
100
AcDbEntity
  8
AM_0 外形線1
100
AcDbLine
 10
45.0
 20
-10.95000000000004
 30
0.0
 11
45.0
 21
10.95000000000004
 31
0.0
  0
LINE
  5
AC8B
330
AC86
100
AcDbEntity
  8
AM_0 外形線1
100
AcDbLine
 10
55.0
 20
9.5
 30
0.0
 11
55.0
 21
-9.5
 31
0.0
  0
LINE
  5
AC8C
330
AC86
100
AcDbEntity
  8
AM_0 外形線1
100
AcDbLine
 10
36.0
 20
-7.0
 30
0.0
 11
2.0
 21
-7.0
 31
0.0
  0
LINE
  5
AC8D
330
AC86
100
AcDbEntity
  8
AM_0 外形線1
100
AcDbLine
 10
2.0
 20
7.0
 30
0.0
 11
36.0
 21
7.0
 31
0.0
  0
LINE
  5
AC8E
330
AC86
100
AcDbEntity
  8
AM_0 外形線1
100
AcDbLine
 10
37.0
 20
-6.422649999999975
 30
0.0
 11
36.0
 21
-7.0
 31
0.0
  0
LINE
  5
AC8F
330
AC86
100
AcDbEntity
  8
AM_0 外形線1
100
AcDbLine
 10
36.0
 20
7.0
 30
0.0
 11
37.0
 21
6.422649999999975
 31
0.0
  0
LINE
  5
AC90
330
AC86
100
AcDbEntity
  8
AM_0 外形線1
100
AcDbLine
 10
36.0
 20
7.0
 30
0.0
 11
36.0
 21
-7.0
 31
0.0
  0
LINE
  5
AC91
330
AC86
100
AcDbEntity
  8
AM_0 外形線1
100
AcDbLine
 10
45.0
 20
-5.484827999999878
 30
0.0
 11
54.16284199999972
 21
-5.484827999999878
 31
0.0
  0
LINE
  5
AC92
330
AC86
100
AcDbEntity
  8
AM_0 外形線1
100
AcDbLine
 10
45.0
 20
5.484827999999878
 30
0.0
 11
54.16284199999972
 21
5.484827999999878
 31
0.0
  0
LINE
  5
AC93
330
AC86
100
AcDbEntity
  8
AM_0 外形線1
100
AcDbLine
 10
54.16284199999972
 20
-10.95000000000004
 30
0.0
 11
45.0
 21
-10.95000000000004
 31
0.0
  0
LINE
  5
AC94
330
AC86
100
AcDbEntity
  8
AM_0 外形線1
100
AcDbLine
 10
37.0
 20
-6.422649999999975
 30
0.0
 11
42.0
 21
-6.422649999999975
 31
0.0
  0
LINE
  5
AC95
330
AC86
100
AcDbEntity
  8
AM_0 外形線1
100
AcDbLine
 10
37.0
 20
6.422649999999975
 30
0.0
 11
42.0
 21
6.422649999999975
 31
0.0
  0
LINE
  5
AC96
330
AC86
100
AcDbEntity
  8
AM_0 外形線1
100
AcDbLine
 10
45.0
 20
1.0
 30
0.0
 11
42.0
 21
-2.0
 31
0.0
  0
LINE
  5
AC97
330
AC86
100
AcDbEntity
  8
AM_0 外形線1
100
AcDbLine
 10
45.0
 20
2.0
 30
0.0
 11
42.0
 21
-1.0
 31
0.0
  0
LINE
  5
AC98
330
AC86
100
AcDbEntity
  8
AM_0 外形線1
100
AcDbLine
 10
42.0
 20
-10.75
 30
0.0
 11
45.0
 21
-10.75
 31
0.0
  0
LINE
  5
AC99
330
AC86
100
AcDbEntity
  8
AM_0 外形線1
100
AcDbLine
 10
37.0
 20
6.422649999999975
 30
0.0
 11
37.0
 21
-6.422649999999975
 31
0.0
  0
LINE
  5
AC9A
330
AC86
100
AcDbEntity
  8
AM_4 細線
100
AcDbLine
 10
55.0
 20
-5.125
 30
0.0
 11
58.875
 21
-5.125
 31
0.0
  0
LINE
  5
AC9B
330
AC86
100
AcDbEntity
  8
AM_4 細線
100
AcDbLine
 10
55.0
 20
5.125
 30
0.0
 11
58.875
 21
5.125
 31
0.0
  0
LINE
  5
AC9C
330
AC86
100
AcDbEntity
  8
AM_0 外形線1
100
AcDbLine
 10
58.0
 20
6.0
 30
0.0
 11
58.0
 21
-6.0
 31
0.0
  0
LINE
  5
AC9D
330
AC86
100
AcDbEntity
  8
AM_0 外形線1
100
AcDbLine
 10
58.0
 20
-6.0
 30
0.0
 11
55.0
 21
-6.0
 31
0.0
  0
LINE
  5
AC9E
330
AC86
100
AcDbEntity
  8
AM_0 外形線1
100
AcDbLine
 10
60.0
 20
-4.0
 30
0.0
 11
58.0
 21
-6.0
 31
0.0
  0
LINE
  5
AC9F
330
AC86
100
AcDbEntity
  8
AM_0 外形線1
100
AcDbLine
 10
60.0
 20
4.0
 30
0.0
 11
60.0
 21
-4.0
 31
0.0
  0
LINE
  5
ACA0
330
AC86
100
AcDbEntity
  8
AM_0 外形線1
100
AcDbLine
 10
58.0
 20
6.0
 30
0.0
 11
60.0
 21
4.0
 31
0.0
  0
LINE
  5
ACA1
330
AC86
100
AcDbEntity
  8
AM_0 外形線1
100
AcDbLine
 10
55.0
 20
6.0
 30
0.0
 11
58.0
 21
6.0
 31
0.0
  0
ARC
  5
ACA2
330
AC86
100
AcDbEntity
  8
AM_0 外形線1
100
AcDbCircle
 10
50.12167200000021
 20
-8.217413999999962
 30
0.0
 40
4.878327999999998
100
AcDbArc
 50
325.9339549999888
 51
34.06604500001118
  0
ARC
  5
ACA3
330
AC86
100
AcDbEntity
  8
AM_0 外形線1
100
AcDbCircle
 10
36.61388299999999
 20
0.0
 30
0.0
 40
18.386117
100
AcDbArc
 50
342.6436620000027
 51
17.35633799999734
  0
LINE
  5
ACA4
330
AC86
100
AcDbEntity
  8
AM_0 外形線1
100
AcDbLine
 10
55.0
 20
-9.5
 30
0.0
 11
54.16284199999972
 21
-10.95000000000004
 31
0.0
  0
LINE
  5
ACA5
330
AC86
100
AcDbEntity
  8
AM_0 外形線1
100
AcDbLine
 10
45.0
 20
10.95000000000004
 30
0.0
 11
54.16284199999972
 21
10.95000000000004
 31
0.0
  0
LINE
  5
ACA6
330
AC86
100
AcDbEntity
  8
AM_0 外形線1
100
AcDbLine
 10
45.0
 20
10.75
 30
0.0
 11
42.0
 21
10.75
 31
0.0
  0
LINE
  5
ACA7
330
AC86
100
AcDbEntity
  8
AM_0 外形線1
100
AcDbLine
 10
54.16284199999972
 20
10.95000000000004
 30
0.0
 11
55.0
 21
9.5
 31
0.0
  0
ARC
  5
ACA8
330
AC86
100
AcDbEntity
  8
AM_0 外形線1
100
AcDbCircle
 10
-3.121672000000216
 20
8.217413999999962
 30
0.0
 40
4.878327999999998
100
AcDbArc
 50
145.9339549999888
 51
214.0660450000112
  0
LINE
  5
ACA9
330
AC86
100
AcDbEntity
  8
AM_0 外形線1
100
AcDbLine
 10
-8.0
 20
9.5
 30
0.0
 11
-8.0
 21
-9.5
 31
0.0
  0
LINE
  5
ACAA
330
AC86
100
AcDbEntity
  8
AM_0 外形線1
100
AcDbLine
 10
2.0
 20
-7.0
 30
0.0
 11
2.0
 21
7.0
 31
0.0
  0
ARC
  5
ACAB
330
AC86
100
AcDbEntity
  8
AM_0 外形線1
100
AcDbCircle
 10
1.0
 20
-7.0
 30
0.0
 40
1.0
100
AcDbArc
 50
0.0
 51
180.0
  0
ARC
  5
ACAC
330
AC86
100
AcDbEntity
  8
AM_0 外形線1
100
AcDbCircle
 10
1.0
 20
7.0
 30
0.0
 40
1.0
100
AcDbArc
 50
180.0
 51
0.0
  0
ARC
  5
ACAD
330
AC86
100
AcDbEntity
  8
AM_0 外形線1
100
AcDbCircle
 10
-3.121672000000216
 20
-8.217413999999962
 30
0.0
 40
4.878327999999998
100
AcDbArc
 50
145.9339549999888
 51
214.0660450000112
  0
ARC
  5
ACAE
330
AC86
100
AcDbEntity
  8
AM_0 外形線1
100
AcDbCircle
 10
10.38611700000001
 20
0.0
 30
0.0
 40
18.386117
100
AcDbArc
 50
162.6436620000026
 51
197.3563379999973
  0
LINE
  5
ACAF
330
AC86
100
AcDbEntity
  8
AM_0 外形線1
100
AcDbLine
 10
0.0
 20
-5.484827999999878
 30
0.0
 11
-7.162841999999726
 21
-5.484827999999878
 31
0.0
  0
LINE
  5
ACB0
330
AC86
100
AcDbEntity
  8
AM_0 外形線1
100
AcDbLine
 10
0.0
 20
5.484827999999878
 30
0.0
 11
-7.162841999999726
 21
5.484827999999878
 31
0.0
  0
LINE
  5
ACB1
330
AC86
100
AcDbEntity
  8
AM_0 外形線1
100
AcDbLine
 10
-7.162841999999726
 20
-10.95000000000004
 30
0.0
 11
0.0
 21
-10.95000000000004
 31
0.0
  0
LINE
  5
ACB2
330
AC86
100
AcDbEntity
  8
AM_0 外形線1
100
AcDbLine
 10
-8.0
 20
-9.5
 30
0.0
 11
-7.162841999999726
 21
-10.95000000000004
 31
0.0
  0
LINE
  5
ACB3
330
AC86
100
AcDbEntity
  8
AM_0 外形線1
100
AcDbLine
 10
-7.162841999999726
 20
10.95000000000004
 30
0.0
 11
-8.0
 21
9.5
 31
0.0
  0
LINE
  5
ACB4
330
AC86
100
AcDbEntity
  8
AM_0 外形線1
100
AcDbLine
 10
0.0
 20
10.95000000000004
 30
0.0
 11
-7.162841999999726
 21
10.95000000000004
 31
0.0
  0
LINE
  5
ADA1
330
AC86
100
AcDbEntity
  8
AM_0 外形線1
100
AcDbLine
 10
42.0
 20
10.75
 30
0.0
 11
42.0
 21
-10.75
 31
0.0
  0
LINE
  5
ADA2
330
AC86
100
AcDbEntity
  8
AM_0 外形線1
100
AcDbLine
 10
0.0
 20
10.95000000000004
 30
0.0
 11
0.0
 21
-10.95000000000004
 31
0.0
  0
ENDBLK
  5
AC88
330
AC86
100
AcDbEntity
  8
0
100
AcDbBlockEnd
  0
BLOCK
  5
D9AA
330
D9A7
100
AcDbEntity
  8
0
100
AcDbBlockBegin
  2
GENDOT
 70
     0
 10
0.0
 20
0.0
 30
0.0
  3
GENDOT
  1

  0
LINE
  5
D9A8
330
D9A7
100
AcDbEntity
  8
0
100
AcDbLine
 10
0.0
 20
0.0
 30
0.0
 11
-1.0
 21
0.0
 31
0.0
  0
LWPOLYLINE
  5
D9A9
330
D9A7
100
AcDbEntity
  8
0
100
AcDbPolyline
 90
        2
 70
     1
 43
0.25
 10
-0.125
 20
0.0
 42
1.0
 10
0.125
 20
0.0
 42
1.0
  0
ENDBLK
  5
D9AB
330
D9A7
100
AcDbEntity
  8
0
100
AcDbBlockEnd
  0
BLOCK
  5
E56D
330
E56C
100
AcDbEntity
  8
0
100
AcDbBlockBegin
  2
*D24
 70
     1
 10
0.0
 20
0.0
 30
0.0
  3
*D24
  1

  0
LINE
  5
E5FC
330
E56C
100
AcDbEntity
  8
AM_5 寸法線
 62
     3
100
AcDbLine
 10
774.1055582653366
 20
1282.696094649885
 30
0.0
 11
774.1055582653366
 21
1251.947409377798
 31
0.0
  0
LINE
  5
E5FD
330
E56C
100
AcDbEntity
  8
AM_5 寸法線
 62
     3
100
AcDbLine
 10
809.6055582653363
 20
1282.196094649885
 30
0.0
 11
809.6055582653363
 21
1251.947409377798
 31
0.0
  0
LINE
  5
E5FE
330
E56C
100
AcDbEntity
  8
AM_5 寸法線
 62
     3
100
AcDbLine
 10
784.1055582653366
 20
1254.447409377798
 30
0.0
 11
799.6055582653363
 21
1254.447409377798
 31
0.0
  0
LINE
  5
E5FF
330
E56C
100
AcDbEntity
  8
AM_5 寸法線
 62
     3
100
AcDbLine
 10
791.8555582653366
 20
1254.447409377798
 30
0.0
 11
793.5617517059482
 21
1207.836863874819
 31
0.0
  0
LINE
  5
E600
330
E56C
100
AcDbEntity
  8
AM_5 寸法線
 62
     3
100
AcDbLine
 10
793.5617517059482
 20
1207.836863874819
 30
0.0
 11
843.9617517059481
 21
1207.836863874819
 31
0.0
  0
MTEXT
  5
E601
330
E56C
100
AcDbEntity
  8
AM_5 寸法線
 62
     3
100
AcDbMText
 10
818.7617517059482
 20
1220.836863874819
 30
0.0
 40
14.0
 41
0.0
 46
0.0
 71
     5
 72
     1
  1
35.5
  7
SEISA
 73
     1
 44
1.0
  0
INSERT
  5
E602
330
E56C
100
AcDbEntity
  8
AM_5 寸法線
 62
     3
100
AcDbBlockReference
  2
_Open30
 10
774.1055582653366
 20
1254.447409377798
 30
0.0
 41
10.0
 42
10.0
 43
10.0
 50
180.0
  0
INSERT
  5
E603
330
E56C
100
AcDbEntity
  8
AM_5 寸法線
 62
     3
100
AcDbBlockReference
  2
_Open30
 10
809.6055582653363
 20
1254.447409377798
 30
0.0
 41
10.0
 42
10.0
 43
10.0
  0
POINT
  5
E604
330
E56C
100
AcDbEntity
  8
Defpoints
 62
     0
100
AcDbPoint
 10
774.1055582653366
 20
1285.196094649885
 30
0.0
  0
POINT
  5
E605
330
E56C
100
AcDbEntity
  8
Defpoints
 62
     0
100
AcDbPoint
 10
809.6055582653363
 20
1284.696094649885
 30
0.0
  0
POINT
  5
E606
330
E56C
100
AcDbEntity
  8
Defpoints
 62
     0
100
AcDbPoint
 10
809.6055582653363
 20
1254.447409377798
 30
0.0
  0
ENDBLK
  5
E56E
330
E56C
100
AcDbEntity
  8
0
100
AcDbBlockEnd
  0
BLOCK
  5
E5CB
330
E5CA
100
AcDbEntity
  8
0
100
AcDbBlockBegin
  2
*D25
 70
     1
 10
0.0
 20
0.0
 30
0.0
  3
*D25
  1

  0
LINE
  5
E5F3
330
E5CA
100
AcDbEntity
  8
AM_5 寸法線
 62
     3
100
AcDbLine
 10
809.6055582653367
 20
1282.196094649885
 30
0.0
 11
809.6055582653367
 21
1251.947409377798
 31
0.0
  0
LINE
  5
E5F4
330
E5CA
100
AcDbEntity
  8
AM_5 寸法線
 62
     3
100
AcDbLine
 10
842.6055582653367
 20
1280.696094649885
 30
0.0
 11
842.6055582653367
 21
1251.947409377798
 31
0.0
  0
LINE
  5
E5F5
330
E5CA
100
AcDbEntity
  8
AM_5 寸法線
 62
     3
100
AcDbLine
 10
819.6055582653366
 20
1254.447409377798
 30
0.0
 11
832.6055582653363
 21
1254.447409377798
 31
0.0
  0
INSERT
  5
E5F6
330
E5CA
100
AcDbEntity
  8
AM_5 寸法線
 62
     3
100
AcDbBlockReference
  2
_Open30
 10
809.6055582653367
 20
1254.447409377798
 30
0.0
 41
10.0
 42
10.0
 43
10.0
 50
180.0
  0
INSERT
  5
E5F7
330
E5CA
100
AcDbEntity
  8
AM_5 寸法線
 62
     3
100
AcDbBlockReference
  2
_Open30
 10
842.6055582653367
 20
1254.447409377798
 30
0.0
 41
10.0
 42
10.0
 43
10.0
  0
MTEXT
  5
E5F8
330
E5CA
100
AcDbEntity
  8
AM_5 寸法線
 62
     3
100
AcDbMText
 10
826.1055582653366
 20
1267.447409377798
 30
0.0
 40
14.0
 41
0.0
 46
0.0
 71
     5
 72
     1
  1
33
  7
SEISA
 73
     1
 44
1.0
  0
POINT
  5
E5F9
330
E5CA
100
AcDbEntity
  8
Defpoints
 62
     0
100
AcDbPoint
 10
809.6055582653367
 20
1284.696094649885
 30
0.0
  0
POINT
  5
E5FA
330
E5CA
100
AcDbEntity
  8
Defpoints
 62
     0
100
AcDbPoint
 10
842.6055582653367
 20
1283.196094649885
 30
0.0
  0
POINT
  5
E5FB
330
E5CA
100
AcDbEntity
  8
Defpoints
 62
     0
100
AcDbPoint
 10
842.6055582653367
 20
1254.447409377798
 30
0.0
  0
ENDBLK
  5
E5CC
330
E5CA
100
AcDbEntity
  8
0
100
AcDbBlockEnd
  0
BLOCK
  5
E641
330
E640
100
AcDbEntity
  8
0
100
AcDbBlockBegin
  2
*D26
 70
     1
 10
0.0
 20
0.0
 30
0.0
  3
*D26
  1

  0
LINE
  5
E72B
330
E640
100
AcDbEntity
  8
AM_5 寸法線
 62
     3
100
AcDbLine
 10
671.6055582653366
 20
1300.696094649885
 30
0.0
 11
671.6055582653366
 21
1332.196094649885
 31
0.0
  0
LINE
  5
E72C
330
E640
100
AcDbEntity
  8
AM_5 寸法線
 62
     3
100
AcDbLine
 10
672.6055582653366
 20
1282.396094649885
 30
0.0
 11
672.6055582653366
 21
1332.196094649885
 31
0.0
  0
LINE
  5
E72D
330
E640
100
AcDbEntity
  8
AM_5 寸法線
 62
     3
100
AcDbLine
 10
661.6055582653366
 20
1329.696094649885
 30
0.0
 11
651.6055582653366
 21
1329.696094649885
 31
0.0
  0
LINE
  5
E72E
330
E640
100
AcDbEntity
  8
AM_5 寸法線
 62
     3
100
AcDbLine
 10
682.6055582653366
 20
1329.696094649885
 30
0.0
 11
707.6055582653366
 21
1329.696094649885
 31
0.0
  0
LINE
  5
E72F
330
E640
100
AcDbEntity
  8
AM_5 寸法線
 62
     3
100
AcDbLine
 10
671.6055582653366
 20
1329.696094649885
 30
0.0
 11
672.6055582653366
 21
1329.696094649885
 31
0.0
  0
INSERT
  5
E730
330
E640
100
AcDbEntity
  8
AM_5 寸法線
 62
     3
100
AcDbBlockReference
  2
_Open30
 10
671.6055582653366
 20
1329.696094649885
 30
0.0
 41
10.0
 42
10.0
 43
10.0
  0
INSERT
  5
E731
330
E640
100
AcDbEntity
  8
AM_5 寸法線
 62
     3
100
AcDbBlockReference
  2
_Open30
 10
672.6055582653366
 20
1329.696094649885
 30
0.0
 41
10.0
 42
10.0
 43
10.0
 50
180.0
  0
MTEXT
  5
E732
330
E640
100
AcDbEntity
  8
AM_5 寸法線
 62
     3
100
AcDbMText
 10
700.1055582653366
 20
1342.696094649885
 30
0.0
 40
14.0
 41
0.0
 46
0.0
 71
     5
 72
     1
  1
1
  7
SEISA
 73
     1
 44
1.0
  0
POINT
  5
E733
330
E640
100
AcDbEntity
  8
Defpoints
 62
     0
100
AcDbPoint
 10
671.6055582653366
 20
1298.196094649885
 30
0.0
  0
POINT
  5
E734
330
E640
100
AcDbEntity
  8
Defpoints
 62
     0
100
AcDbPoint
 10
672.6055582653366
 20
1279.896094649885
 30
0.0
  0
POINT
  5
E735
330
E640
100
AcDbEntity
  8
Defpoints
 62
     0
100
AcDbPoint
 10
672.6055582653366
 20
1329.696094649885
 30
0.0
  0
ENDBLK
  5
E642
330
E640
100
AcDbEntity
  8
0
100
AcDbBlockEnd
  0
BLOCK
  5
E82E
330
E82D
100
AcDbEntity
  8
0
100
AcDbBlockBegin
  2
ケース
 70
     0
 10
0.0
 20
0.0
 30
0.0
  3
ケース
  1

  0
LINE
  5
E830
330
E82D
100
AcDbEntity
  8
AM_11 想像線
 48
0.1
100
AcDbLine
 10
-19.47903276912734
 20
-16.0
 30
0.0
 11
-17.07903276912725
 21
-16.0
 31
0.0
  0
LINE
  5
E831
330
E82D
100
AcDbEntity
  8
AM_11 想像線
 48
0.2
100
AcDbLine
 10
0.0
 20
0.0
 30
0.0
 11
-29.07903276912725
 21
0.0
 31
0.0
  0
ARC
  5
E832
102
{ACAD_REACTORS
330
E64F
102
}
330
E82D
100
AcDbEntity
  8
AM_11 想像線
 48
0.2
100
AcDbCircle
 10
-29.07903276912725
 20
-4.0
 30
0.0
 40
4.0
100
AcDbArc
 50
90.0
 51
180.0
  0
LINE
  5
E833
330
E82D
100
AcDbEntity
  8
AM_11 想像線
 48
0.1
100
AcDbLine
 10
-19.47903276912734
 20
-11.10000000000013
 30
0.0
 11
-19.47903276912734
 21
-16.0
 31
0.0
  0
ARC
  5
E834
330
E82D
100
AcDbEntity
  8
AM_11 想像線
 48
0.1
100
AcDbCircle
 10
-19.97903276912734
 20
-11.10000000000013
 30
0.0
 40
0.5
100
AcDbArc
 50
0.0
 51
90.0
  0
LINE
  5
E835
330
E82D
100
AcDbEntity
  8
AM_11 想像線
 48
0.1
100
AcDbLine
 10
-30.17903276912716
 20
-10.60000000000013
 30
0.0
 11
-19.97903276912734
 21
-10.60000000000013
 31
0.0
  0
ARC
  5
E836
330
E82D
100
AcDbEntity
  8
AM_11 想像線
 48
0.2
100
AcDbCircle
 10
-30.17903276912716
 20
-11.10000000000013
 30
0.0
 40
0.5
100
AcDbArc
 50
90.0
 51
180.0
  0
LINE
  5
E837
330
E82D
100
AcDbEntity
  8
AM_11 想像線
 48
0.2
100
AcDbLine
 10
-30.67903276912716
 20
-16.0
 30
0.0
 11
-30.67903276912716
 21
-11.10000000000013
 31
0.0
  0
LINE
  5
E838
330
E82D
100
AcDbEntity
  8
AM_11 想像線
 48
0.2
100
AcDbLine
 10
-33.07903276912725
 20
-16.0
 30
0.0
 11
-30.67903276912716
 21
-16.0
 31
0.0
  0
LINE
  5
E839
330
E82D
100
AcDbEntity
  8
AM_11 想像線
 48
0.1
100
AcDbLine
 10
-33.07903276912725
 20
-4.0
 30
0.0
 11
-33.07903276912725
 21
-16.0
 31
0.0
  0
LINE
  5
E83A
330
E82D
100
AcDbEntity
  8
AM_11 想像線
 48
0.1
100
AcDbLine
 10
-19.47903276912734
 20
-16.0
 30
0.0
 11
-19.47903276912734
 21
-17.5
 31
0.0
  0
LINE
  5
E83B
330
E82D
100
AcDbEntity
  8
AM_11 想像線
 48
0.2
100
AcDbLine
 10
-30.67903276912716
 20
-16.0
 30
0.0
 11
-30.67903276912716
 21
-17.5
 31
0.0
  0
LINE
  5
E83C
330
E82D
100
AcDbEntity
  8
AM_11 想像線
 48
0.2
100
AcDbLine
 10
-33.07903276912725
 20
-16.0
 30
0.0
 11
-33.07903276912725
 21
-17.5
 31
0.0
  0
LINE
  5
E83D
330
E82D
100
AcDbEntity
  8
AM_11 想像線
 48
0.1
100
AcDbLine
 10
0.0
 20
-12.39999999999986
 30
0.0
 11
-10.07903276912725
 21
-12.39999999999986
 31
0.0
  0
LINE
  5
E83E
330
E82D
100
AcDbEntity
  8
AM_11 想像線
 48
0.1
100
AcDbLine
 10
0.0
 20
-10.0
 30
0.0
 11
-13.07903276912725
 21
-10.0
 31
0.0
  0
LINE
  5
E83F
330
E82D
100
AcDbEntity
  8
AM_11 想像線
 48
0.1
100
AcDbLine
 10
0.0
 20
-7.0
 30
0.0
 11
-11.07903276912725
 21
-7.0
 31
0.0
  0
LINE
  5
E840
330
E82D
100
AcDbEntity
  8
AM_11 想像線
 48
0.1
100
AcDbLine
 10
-11.07903276912725
 20
-9.139341000000056
 30
0.0
 11
-11.07903276912725
 21
-11.39999999999986
 31
0.0
  0
LINE
  5
E841
330
E82D
100
AcDbEntity
  8
AM_11 想像線
 48
0.1
100
AcDbLine
 10
-11.07903276912725
 20
-11.39999999999986
 30
0.0
 11
-10.07903276912725
 21
-12.39999999999986
 31
0.0
  0
LINE
  5
E842
330
E82D
100
AcDbEntity
  8
AM_11 想像線
 48
0.1
100
AcDbLine
 10
-11.07903276912725
 20
-9.139341000000056
 30
0.0
 11
-11.07903276912725
 21
-7.5
 31
0.0
  0
ARC
  5
E843
330
E82D
100
AcDbEntity
  8
AM_11 想像線
 48
0.1
100
AcDbCircle
 10
-12.07903276912725
 20
-7.5
 30
0.0
 40
1.0
100
AcDbArc
 50
0.0
 51
90.0
  0
LINE
  5
E844
330
E82D
100
AcDbEntity
  8
AM_11 想像線
 48
0.1
100
AcDbLine
 10
-16.07903276912725
 20
-6.5
 30
0.0
 11
-12.07903276912725
 21
-6.5
 31
0.0
  0
ARC
  5
E845
330
E82D
100
AcDbEntity
  8
AM_11 想像線
 48
0.1
100
AcDbCircle
 10
-16.07903276912725
 20
-7.5
 30
0.0
 40
1.0
100
AcDbArc
 50
90.0
 51
180.0
  0
LINE
  5
E846
330
E82D
100
AcDbEntity
  8
AM_11 想像線
 48
0.1
100
AcDbLine
 10
-17.07903276912725
 20
-16.0
 30
0.0
 11
-17.07903276912725
 21
-7.5
 31
0.0
  0
LINE
  5
E847
330
E82D
100
AcDbEntity
  8
AM_11 想像線
 48
0.1
100
AcDbLine
 10
-17.07903276912725
 20
-16.0
 30
0.0
 11
-17.07903276912725
 21
-17.5
 31
0.0
  0
ENDBLK
  5
E82F
330
E82D
100
AcDbEntity
  8
0
100
AcDbBlockEnd
  0
ENDSEC
  0
SECTION
  2
ENTITIES
  0
LINE
  5
6808
330
18
100
AcDbEntity
  8
AM_7 中心線
100
AcDbLine
 10
667.6055582653366
 20
1172.196094649885
 30
0.0
 11
1033.605558265336
 21
1172.196094649885
 31
0.0
  0
TEXT
  5
82A9
330
18
100
AcDbEntity
  8
AM_5 寸法線
100
AcDbText
 10
-3972.650287045184
 20
-7587.697062693283
 30
0.0
 40
166.6666666666667
  1

 41
0.9
  7
SEISA
100
AcDbText
  0
MTEXT
  5
82B9
330
18
100
AcDbEntity
  8
AM_5 寸法線
100
AcDbMText
 10
3616.950068297148
 20
1690.318491578718
 30
0.0
 40
14.0
 41
0.0
 46
0.0
 71
     7
 72
     1
  1

  7
SEISA
 73
     1
 44
1.0
  0
INSERT
  5
9030
102
{ACAD_REACTORS
330
96E3
330
9715
330
9952
330
9985
102
}
330
18
100
AcDbEntity
  8
AM_0 外形線1
100
AcDbBlockReference
  2
ケースＡ SSM315
 10
850.6055582653367
 20
1172.196094649885
 30
0.0
  0
INSERT
  5
9078
102
{ACAD_REACTORS
330
951B
330
96E3
330
97AA
102
}
330
18
100
AcDbEntity
  8
AM_0 外形線1
100
AcDbBlockReference
  2
ケースＢ SSM315
 10
850.6055582653367
 20
1172.196094649885
 30
0.0
  0
INSERT
  5
924D
102
{ACAD_REACTORS
330
9631
330
966C
330
98F4
330
991F
102
}
330
18
100
AcDbEntity
  8
AM_0 外形線1
100
AcDbBlockReference
  2
センタＡ SSM315
 10
858.6055582653367
 20
1172.196094649885
 30
0.0
  0
INSERT
  5
9275
102
{ACAD_REACTORS
330
951B
330
9556
330
95B4
330
9631
330
98F4
330
E57B
330
E5D7
330
E64F
102
}
330
18
100
AcDbEntity
  8
AM_0 外形線1
100
AcDbBlockReference
  2
センタＢ SSM315
 10
842.6055582653367
 20
1172.196094649885
 30
0.0
  0
DIMENSION
  5
950B
102
{ACAD_XDICTIONARY
360
951A
102
}
102
{ACAD_REACTORS
330
951B
102
}
330
18
100
AcDbEntity
  8
AM_5 寸法線
100
AcDbDimension
  2
*D9
 10
768.6055582653366
 20
1254.447409377797
 30
0.0
 11
729.4055582653364
 21
1267.447409377797
 31
0.0
 70
    32
 71
     5
 42
5.5
 73
     0
 74
     0
 75
     0
  3
SEISA$0
100
AcDbAlignedDimension
 13
774.1055582653366
 23
1285.196094649885
 33
0.0
 14
768.6055582653366
 24
1284.696094649885
 34
0.0
100
AcDbRotatedDimension
1001
ACAD_DSTYLE_DIMINSPECT
1070
   396
1000
100%
1070
   395
1000

1070
   394
1070
    33
1070
   393
1070
     0
1001
ACAD
1000
DSTYLE
1002
{
1070
   344
1005
322
1070
   342
1005
0
1070
   173
1070
     1
1070
   343
1005
322
1002
}
  0
DIMENSION
  5
9548
102
{ACAD_XDICTIONARY
360
9555
102
}
102
{ACAD_REACTORS
330
9556
102
}
330
18
100
AcDbEntity
  8
AM_5 寸法線
100
AcDbDimension
  2
*D10
 10
842.6055582653367
 20
1194.600250565378
 30
0.0
 11
757.6055582653366
 21
1207.600250565378
 31
0.0
 70
    32
 71
     5
 42
170.0
 73
     0
 74
     0
 75
     0
  3
SEISA$0
100
AcDbAlignedDimension
 13
672.6055582653366
 23
1195.28963333514
 33
0.0
 14
842.6055582653367
 24
1195.28963333514
 34
0.0
100
AcDbRotatedDimension
1001
ACAD_DSTYLE_DIMINSPECT
1070
   396
1000
100%
1070
   395
1000

1070
   394
1070
    33
1070
   393
1070
     0
  0
DIMENSION
  5
95A6
102
{ACAD_XDICTIONARY
360
95B3
102
}
102
{ACAD_REACTORS
330
95B4
102
}
330
18
100
AcDbEntity
  8
AM_5 寸法線
100
AcDbDimension
  2
*D11
 10
612.6055572553362
 20
1059.696094649885
 30
0.0
 11
599.6055572553362
 21
1172.196094649885
 31
0.0
 70
    32
  1
%%c<>
 71
     5
 42
224.9999999999998
 73
     0
 74
     0
 75
     0
  3
SEISA$0
100
AcDbAlignedDimension
 13
731.1055582653366
 23
1284.696094649885
 33
0.0
 14
731.1055582653366
 24
1059.696094649885
 34
0.0
 50
90.0
100
AcDbRotatedDimension
1001
ACAD_DSTYLE_DIMINSPECT
1070
   396
1000
100%
1070
   395
1000

1070
   394
1070
    33
1070
   393
1070
     0
  0
DIMENSION
  5
9621
102
{ACAD_XDICTIONARY
360
9630
102
}
102
{ACAD_REACTORS
330
9631
102
}
330
18
100
AcDbEntity
  8
AM_5 寸法線
100
AcDbDimension
  2
*D12
 10
858.6055582653367
 20
1194.600250565378
 30
0.0
 11
870.3527728088536
 21
1207.950155212733
 31
0.0
 70
   160
 71
     5
 42
16.0
 73
     0
 74
     0
 75
     0
  3
SEISA$0
100
AcDbAlignedDimension
 13
842.6055582653367
 23
1199.820701101213
 33
0.0
 14
858.6055582653367
 24
1199.820701101213
 34
0.0
100
AcDbRotatedDimension
1001
ACAD_DSTYLE_DIMINSPECT
1070
   396
1000
100%
1070
   395
1000

1070
   394
1070
    33
1070
   393
1070
     0
1001
ACAD
1000
DSTYLE
1002
{
1070
   279
1070
     2
1002
}
  0
DIMENSION
  5
965E
102
{ACAD_XDICTIONARY
360
966B
102
}
102
{ACAD_REACTORS
330
966C
102
}
330
18
100
AcDbEntity
  8
AM_5 寸法線
100
AcDbDimension
  2
*D13
 10
1028.605558265336
 20
1194.600250565378
 30
0.0
 11
943.6055582653366
 21
1207.600250565378
 31
0.0
 70
    32
 71
     5
 42
170.0
 73
     0
 74
     0
 75
     0
  3
SEISA$0
100
AcDbAlignedDimension
 13
858.6055582653367
 23
1191.739685581259
 33
0.0
 14
1028.605558265336
 24
1191.739685581259
 34
0.0
100
AcDbRotatedDimension
1001
ACAD_DSTYLE_DIMINSPECT
1070
   396
1000
100%
1070
   395
1000

1070
   394
1070
    33
1070
   393
1070
     0
  0
DIMENSION
  5
96D3
102
{ACAD_XDICTIONARY
360
96E2
102
}
102
{ACAD_REACTORS
330
96E3
102
}
330
18
100
AcDbEntity
  8
AM_5 寸法線
100
AcDbDimension
  2
*D14
 10
829.6055582653366
 20
955.6960946498854
 30
0.0
 11
808.98088275804
 21
968.7142320256752
 31
0.0
 70
   160
 71
     5
 42
21.0
 73
     0
 74
     0
 75
     0
  3
SEISA$0
100
AcDbAlignedDimension
 13
850.6055582653367
 23
1015.696094649885
 33
0.0
 14
829.6055582653366
 24
1015.696094649885
 34
0.0
100
AcDbRotatedDimension
1001
ACAD_DSTYLE_DIMINSPECT
1070
   396
1000
100%
1070
   395
1000

1070
   394
1070
    33
1070
   393
1070
     0
1001
ACAD
1000
DSTYLE
1002
{
1070
   173
1070
     1
1070
   279
1070
     2
1070
   342
1005
0
1070
   343
1005
D9A7
1070
   344
1005
322
1002
}
  0
DIMENSION
  5
9705
102
{ACAD_XDICTIONARY
360
9714
102
}
102
{ACAD_REACTORS
330
9715
102
}
330
18
100
AcDbEntity
  8
AM_5 寸法線
100
AcDbDimension
  2
*D15
 10
871.6055582653366
 20
955.6960946498849
 30
0.0
 11
891.4359880831607
 21
968.5404678051275
 31
0.0
 70
   160
 71
     5
 42
21.0
 73
     0
 74
     0
 75
     0
  3
SEISA$0
100
AcDbAlignedDimension
 13
850.6055582653367
 23
1015.696094649885
 33
0.0
 14
871.6055582653366
 24
1015.696094649885
 34
0.0
100
AcDbRotatedDimension
1001
ACAD_DSTYLE_DIMINSPECT
1070
   396
1000
100%
1070
   395
1000

1070
   394
1070
    33
1070
   393
1070
     0
1001
ACAD
1000
DSTYLE
1002
{
1070
   173
1070
     1
1070
   279
1070
     2
1070
   342
1005
0
1070
   343
1005
D9A7
1070
   344
1005
322
1002
}
  0
DIMENSION
  5
979C
102
{ACAD_XDICTIONARY
360
97A9
102
}
102
{ACAD_REACTORS
330
97AA
102
}
330
18
100
AcDbEntity
  8
AM_5 寸法線
100
AcDbDimension
  2
*D16
 10
948.6055582653362
 20
915.6960946498848
 30
0.0
 11
850.6055582653367
 21
928.6960946498847
 31
0.0
 70
    32
 71
     5
 42
196.0
 73
     0
 74
     0
 75
     0
  3
SEISA$0
100
AcDbAlignedDimension
 13
752.6055582653366
 23
1046.196094649885
 33
0.0
 14
948.6055582653362
 24
1051.147899649885
 34
0.0
100
AcDbRotatedDimension
1001
ACAD_DSTYLE_DIMINSPECT
1070
   396
1000
100%
1070
   395
1000

1070
   394
1070
    33
1070
   393
1070
     0
  0
DIMENSION
  5
98E6
102
{ACAD_XDICTIONARY
360
98F3
102
}
102
{ACAD_REACTORS
330
98F4
102
}
330
18
100
AcDbEntity
  8
AM_5 寸法線
100
AcDbDimension
  2
*D17
 10
1028.605558265336
 20
875.696094649883
 30
0.0
 11
850.6055582653367
 21
888.6960946498829
 31
0.0
 70
    32
 71
     5
 42
356.0
 73
     0
 74
     0
 75
     0
  3
SEISA$0
100
AcDbAlignedDimension
 13
672.6055582653366
 23
1064.496094649885
 33
0.0
 14
1028.605558265336
 24
1064.496094649885
 34
0.0
100
AcDbRotatedDimension
1001
ACAD_DSTYLE_DIMINSPECT
1070
   396
1000
100%
1070
   395
1000

1070
   394
1070
    33
1070
   393
1070
     0
  0
DIMENSION
  5
9911
102
{ACAD_XDICTIONARY
360
991E
102
}
102
{ACAD_REACTORS
330
991F
102
}
330
18
100
AcDbEntity
  8
AM_5 寸法線
100
AcDbDimension
  2
*D18
 10
1088.605559275336
 20
1059.696094649885
 30
0.0
 11
1075.605559275336
 21
1172.196094649885
 31
0.0
 70
    32
  1
%%c<>
 71
     5
 42
225.0
 73
     0
 74
     0
 75
     0
  3
SEISA$0
100
AcDbAlignedDimension
 13
970.1055582653363
 23
1284.696094649885
 33
0.0
 14
970.1055582653363
 24
1059.696094649885
 34
0.0
 50
90.0
100
AcDbRotatedDimension
1001
ACAD_DSTYLE_DIMINSPECT
1070
   396
1000
100%
1070
   395
1000

1070
   394
1070
    33
1070
   393
1070
     0
  0
DIMENSION
  5
9944
102
{ACAD_XDICTIONARY
360
9951
102
}
102
{ACAD_REACTORS
330
9952
102
}
330
18
100
AcDbEntity
  8
AM_5 寸法線
100
AcDbDimension
  2
*D19
 10
1128.605559275337
 20
1042.196094649885
 30
0.0
 11
1115.605559275337
 21
1172.196094649885
 31
0.0
 70
    32
  1
%%c<>
 71
     5
 42
260.0
 73
     0
 74
     0
 75
     0
  3
SEISA$0
100
AcDbAlignedDimension
 13
944.6055582653366
 23
1302.196094649885
 33
0.0
 14
944.6055582653366
 24
1042.196094649885
 34
0.0
 50
90.0
100
AcDbRotatedDimension
1001
ACAD_DSTYLE_DIMINSPECT
1070
   396
1000
100%
1070
   395
1000

1070
   394
1070
    33
1070
   393
1070
     0
  0
DIMENSION
  5
9977
102
{ACAD_XDICTIONARY
360
9984
102
}
102
{ACAD_REACTORS
330
9985
102
}
330
18
100
AcDbEntity
  8
AM_5 寸法線
100
AcDbDimension
  2
*D20
 10
1168.605559275337
 20
1014.696094649885
 30
0.0
 11
1155.605559275337
 21
1172.196094649885
 31
0.0
 70
    32
  1
%%c<>
 71
     5
 42
315.0000000000001
 73
     0
 74
     0
 75
     0
  3
SEISA$0
100
AcDbAlignedDimension
 13
870.6055582653366
 23
1329.696094649885
 33
0.0
 14
870.6055582653366
 24
1014.696094649885
 34
0.0
 50
90.0
100
AcDbRotatedDimension
1001
ACAD_DSTYLE_DIMINSPECT
1070
   396
1000
100%
1070
   395
1000

1070
   394
1070
    33
1070
   393
1070
     0
  0
INSERT
  5
ACB5
330
18
100
AcDbEntity
  8
AM_0 外形線1
100
AcDbBlockReference
  2
リーマボルト SSM315 M12
 10
829.6055582653366
 20
1317.696094649885
 30
0.0
  0
TEXT
  5
B630
330
18
100
AcDbEntity
  8
AM_6 文字
100
AcDbText
 10
1815.818948626568
 20
1035.999531167226
 30
0.0
 40
16.0
  1
　
 41
0.9
  7
SEISA
100
AcDbText
  0
LINE
  5
DA8F
330
18
100
AcDbEntity
  8
AM_5 寸法線
100
AcDbLine
 10
809.6055582653367
 20
955.6960946498854
 30
0.0
 11
796.7296560477342
 21
955.6960946498854
 31
0.0
  0
LINE
  5
DA90
330
18
100
AcDbEntity
  8
AM_5 寸法線
100
AcDbLine
 10
891.6055582653367
 20
955.6960946498849
 30
0.0
 11
904.549547939845
 21
955.6960946498849
 31
0.0
  0
MTEXT
  5
E334
330
18
100
AcDbEntity
  8
AM_6 文字
100
AcDbMText
 10
1050.618490621991
 20
995.7389652718978
 30
0.0
 40
14.0
 41
235.4395754975911
 46
27.69412895091155
 71
     1
 72
     5
  1
{\W0.6;TYPE:SSM315/SSMH315\PSHAFT DIA:MAX/MIN φ160/φ100}
  7
SEISA
 73
     1
 44
1.0
  0
DIMENSION
  5
E56B
102
{ACAD_XDICTIONARY
360
E57A
102
}
102
{ACAD_REACTORS
330
E57B
102
}
330
18
100
AcDbEntity
  8
AM_5 寸法線
100
AcDbDimension
  2
*D24
 10
809.6055582653363
 20
1254.447409377798
 30
0.0
 11
799.5617517059481
 21
1207.836863874819
 31
0.0
 70
   160
 71
     5
 42
35.4999999999999
 73
     0
 74
     0
 75
     0
  3
SEISA$0
100
AcDbAlignedDimension
 13
774.1055582653366
 23
1285.196094649885
 33
0.0
 14
809.6055582653363
 24
1284.696094649885
 34
0.0
 50
0.0000000000001132
100
AcDbRotatedDimension
1001
ACAD_DSTYLE_DIMINSPECT
1070
   396
1000
100%
1070
   395
1000

1070
   394
1070
    33
1070
   393
1070
     0
1001
ACAD
1000
DSTYLE
1002
{
1070
   173
1070
     1
1070
   279
1070
     1
1070
   342
1005
0
1070
   343
1005
322
1070
   344
1005
322
1002
}
  0
DIMENSION
  5
E5C9
102
{ACAD_XDICTIONARY
360
E5D6
102
}
102
{ACAD_REACTORS
330
E5D7
102
}
330
18
100
AcDbEntity
  8
AM_5 寸法線
100
AcDbDimension
  2
*D25
 10
842.6055582653367
 20
1254.447409377798
 30
0.0
 11
826.1055582653366
 21
1267.447409377798
 31
0.0
 70
    32
 71
     5
 42
33.0
 73
     0
 74
     0
 75
     0
  3
SEISA$0
100
AcDbAlignedDimension
 13
809.6055582653367
 23
1284.696094649885
 33
0.0
 14
842.6055582653367
 24
1283.196094649885
 34
0.0
 50
0.0000000000001132
100
AcDbRotatedDimension
1001
ACAD_DSTYLE_DIMINSPECT
1070
   396
1000
100%
1070
   395
1000

1070
   394
1070
    33
1070
   393
1070
     0
  0
DIMENSION
  5
E63F
102
{ACAD_XDICTIONARY
360
E64E
102
}
102
{ACAD_REACTORS
330
E64F
102
}
330
18
100
AcDbEntity
  8
AM_5 寸法線
100
AcDbDimension
  2
*D26
 10
672.6055582653366
 20
1329.696094649885
 30
0.0
 11
700.1055582653366
 21
1342.696094649885
 31
0.0
 70
    32
 71
     5
 42
-1.0
 73
     0
 74
     0
 75
     0
  3
SEISA$0
100
AcDbAlignedDimension
 13
671.6055582653366
 23
1298.196094649885
 33
0.0
 14
672.6055582653366
 24
1279.896094649885
 34
0.0
100
AcDbRotatedDimension
1001
ACAD_DSTYLE_DIMINSPECT
1070
   396
1000
100%
1070
   395
1000

1070
   394
1070
    33
1070
   393
1070
     0
  0
INSERT
  5
E848
330
18
100
AcDbEntity
  8
AM_PAREF
100
AcDbBlockReference
  2
ケース
 10
704.6845910344638
 20
1302.196094649885
 30
0.0
  0
VIEWPORT
  5
2BA
330
15
100
AcDbEntity
 67
     1
  8
0
100
AcDbViewport
 10
5.615416399137242
 20
3.902083231708196
 30
0.0
 40
14.90560945389522
 41
8.746133096049151
 68
     1
 69
     1
 12
5.615416399137242
 22
3.902083231708196
 13
0.0
 23
0.0
 14
10.0
 24
10.0
 15
10.0
 25
10.0
 16
0.0
 26
0.0
 36
1.0
 17
0.0
 27
0.0
 37
0.0
 42
50.0
 43
0.0
 44
0.0
 45
8.746133096049151
 50
0.0
 51
0.0
 72
   100
 90
    32800
  1

281
     0
 71
     1
 74
     0
110
0.0
120
0.0
130
0.0
111
1.0
121
0.0
131
0.0
112
0.0
122
1.0
132
0.0
 79
     0
146
0.0
170
     0
 61
     5
348
853A
292
     1
282
     1
141
0.0
142
0.0
 63
   250
421
  3355443
1001
GENIUS_GENODEF_13
1002
{
1000
HIER
1070
     0
1002
}
1002
{
1000
MANEDIT
1070
     0
1002
}
1002
{
1000
NOSEL
1070
     0
1002
}
1002
{
1000
BEHIND
1070
     0
1002
}
1002
{
1000
OTHER
1070
     0
1002
}
1002
{
1000
REACTOR
1002
}
1001
GENIUS_GENOBJ-N-SDF_13
1002
{
1000
OWNER
1000
GEN
1002
}
1001
GENIUS_GENSCREG_15
1000
PF
1040
1.0
1000
DF
1040
1.0
1000
MIN
1011
-1.837388327810367
1021
-0.4709833163163797
1031
0.0
1000
MAX
1011
13.06822112608485
1021
8.275149779732771
1031
0.0
1000
FLAGS
1070
     2
  0
VIEWPORT
  5
2BC
330
15
100
AcDbEntity
 67
     1
  8
AM_BOR 図面枠
100
AcDbViewport
 10
5.615416417910358
 20
3.902083250481312
 30
0.0
 40
8.984666268656575
 41
6.243333200770099
 68
     2
 69
     2
 12
425.4930627244785
 22
297.0000041492955
 13
0.0
 23
0.0
 14
10.0
 24
10.0
 15
10.0
 25
10.0
 16
0.0
 26
0.0
 36
1.0
 17
0.0
 27
0.0
 37
0.0
 42
50.0
 43
0.0
 44
0.0
 45
603.2515653422467
 50
0.0
 51
0.0
 72
   100
 90
    32768
  1

281
     0
 71
     1
 74
     0
110
0.0
120
0.0
130
0.0
111
1.0
121
0.0
131
0.0
112
0.0
122
1.0
132
0.0
 79
     0
146
0.0
170
     0
 61
     5
348
853A
292
     1
282
     1
141
0.0
142
0.0
 63
   250
421
  3355443
1001
GENIUS_GENOBJ-N-SDF_13
1002
{
1000
OWNER
1000
GEN
1002
}
1001
GENIUS_GENODEF_13
1002
{
1000
HIER
1070
     0
1002
}
1002
{
1000
MANEDIT
1070
     0
1002
}
1002
{
1000
NOSEL
1070
     0
1002
}
1002
{
1000
BEHIND
1070
     0
1002
}
1002
{
1000
OTHER
1070
     0
1002
}
1002
{
1000
REACTOR
1002
}
1001
GENIUS_GENSCREG_15
1000
PF
1040
0.0
1000
DF
1040
0.0
1000
MIN
1011
1.12308328358207
1021
0.7804166500962629
1031
0.0
1000
MAX
1011
10.10774955223864
1021
7.023749850866361
1031
0.0
1000
FLAGS
1070
     2
  0
ENDSEC
  0
SECTION
  2
OBJECTS
  0
DICTIONARY
  5
C
330
0
100
AcDbDictionary
281
     1
  3
ACAD_COLOR
350
7387
  3
ACAD_GROUP
350
D
  3
ACAD_LAYOUT
350
28C
  3
ACAD_MATERIAL
350
7386
  3
ACAD_MLEADERSTYLE
350
8567
  3
ACAD_MLINESTYLE
350
E
  3
ACAD_PLOTSETTINGS
350
28D
  3
ACAD_PLOTSTYLENAME
350
28A
  3
ACAD_SCALELIST
350
8545
  3
ACAD_TABLESTYLE
350
7388
  3
ACAD_VISUALSTYLE
350
8534
  3
AcadDim
350
7084
  3
ACDB_RECOMPOSE_DATA
350
8628
  3
AcDbVariableDictionary
350
29E
  3
AcmDictionary
350
85C9
  3
AMG
350
8570
  3
AMGSNAPSETTINGS
350
8886
  0
DICTIONARY
  5
8884
330
2
100
AcDbDictionary
280
     1
281
     1
  3
ACAD_LAYERSTATES
360
E32B
  3
AMLAYER_GROUPCOLORS
360
8885
  0
DICTIONARY
  5
860E
330
F
100
AcDbDictionary
280
     1
281
     1
  3
ADSK_XREC_LAYER_RECONCILED
360
860F
  0
DICTIONARY
  5
8812
330
8811
100
AcDbDictionary
280
     1
281
     1
  0
DICTIONARY
  5
82C6
330
18
100
AcDbDictionary
280
     1
281
     1
  3
ACAD_SORTENTS
360
82C7
  0
DICTIONARY
  5
9149
330
8FC8
100
AcDbDictionary
280
     1
281
     1
  3
ACAD_SORTENTS
360
DE3D
  0
DICTIONARY
  5
91D7
330
9031
100
AcDbDictionary
280
     1
281
     1
  3
ACAD_SORTENTS
360
DD78
  0
DICTIONARY
  5
AC84
330
9227
100
AcDbDictionary
280
     1
281
     1
  3
ACAD_SORTENTS
360
E707
  0
DICTIONARY
  5
AC12
330
924E
100
AcDbDictionary
280
     1
281
     1
  3
ACAD_SORTENTS
360
E6BF
  0
DICTIONARY
  5
BCDC
330
A919
100
AcDbDictionary
280
     1
281
     1
  3
ACAD_SORTENTS
360
C66F
  0
DICTIONARY
  5
AD41
330
AC86
100
AcDbDictionary
280
     1
281
     1
  3
ACAD_SORTENTS
360
DECF
  0
DICTIONARY
  5
951A
330
950B
100
AcDbDictionary
280
     1
281
     1
  3
ACAD_DIMASSOC
360
951B
  0
DICTIONARY
  5
9555
330
9548
100
AcDbDictionary
280
     1
281
     1
  3
ACAD_DIMASSOC
360
9556
  0
DICTIONARY
  5
95B3
330
95A6
100
AcDbDictionary
280
     1
281
     1
  3
ACAD_DIMASSOC
360
95B4
  0
DICTIONARY
  5
9630
330
9621
100
AcDbDictionary
280
     1
281
     1
  3
ACAD_DIMASSOC
360
9631
  0
DICTIONARY
  5
966B
330
965E
100
AcDbDictionary
280
     1
281
     1
  3
ACAD_DIMASSOC
360
966C
  0
DICTIONARY
  5
96E2
330
96D3
100
AcDbDictionary
280
     1
281
     1
  3
ACAD_DIMASSOC
360
96E3
  0
DICTIONARY
  5
9714
330
9705
100
AcDbDictionary
280
     1
281
     1
  3
ACAD_DIMASSOC
360
9715
  0
DICTIONARY
  5
97A9
330
979C
100
AcDbDictionary
280
     1
281
     1
  3
ACAD_DIMASSOC
360
97AA
  0
DICTIONARY
  5
98F3
330
98E6
100
AcDbDictionary
280
     1
281
     1
  3
ACAD_DIMASSOC
360
98F4
  0
DICTIONARY
  5
991E
330
9911
100
AcDbDictionary
280
     1
281
     1
  3
ACAD_DIMASSOC
360
991F
  0
DICTIONARY
  5
9951
330
9944
100
AcDbDictionary
280
     1
281
     1
  3
ACAD_DIMASSOC
360
9952
  0
DICTIONARY
  5
9984
330
9977
100
AcDbDictionary
280
     1
281
     1
  3
ACAD_DIMASSOC
360
9985
  0
DICTIONARY
  5
E57A
330
E56B
100
AcDbDictionary
280
     1
281
     1
  3
ACAD_DIMASSOC
360
E57B
  0
DICTIONARY
  5
E5D6
330
E5C9
100
AcDbDictionary
280
     1
281
     1
  3
ACAD_DIMASSOC
360
E5D7
  0
DICTIONARY
  5
E64E
330
E63F
100
AcDbDictionary
280
     1
281
     1
  3
ACAD_DIMASSOC
360
E64F
  0
DICTIONARY
  5
7387
102
{ACAD_REACTORS
330
C
102
}
330
C
100
AcDbDictionary
281
     1
  0
DICTIONARY
  5
D
102
{ACAD_REACTORS
330
C
102
}
330
C
100
AcDbDictionary
281
     1
  3
*A1
350
8246
  3
*A10
350
824D
  3
*A11
350
825B
  3
*A12
350
8281
  3
*A13
350
8251
  3
*A14
350
826C
  3
*A15
350
827D
  3
*A16
350
8283
  3
*A17
350
8282
  3
*A18
350
8255
  3
*A19
350
8262
  3
*A2
350
8284
  3
*A20
350
8247
  3
*A21
350
8271
  3
*A22
350
824B
  3
*A23
350
824C
  3
*A24
350
8285
  3
*A25
350
825C
  3
*A26
350
8268
  3
*A27
350
824F
  3
*A28
350
8276
  3
*A29
350
8253
  3
*A3
350
8254
  3
*A30
350
824E
  3
*A31
350
8248
  3
*A32
350
826D
  3
*A33
350
8257
  3
*A34
350
827A
  3
*A35
350
825A
  3
*A36
350
8256
  3
*A37
350
8250
  3
*A38
350
8272
  3
*A39
350
825E
  3
*A4
350
827E
  3
*A40
350
8261
  3
*A41
350
825D
  3
*A42
350
8258
  3
*A43
350
824A
  3
*A44
350
8264
  3
*A45
350
8267
  3
*A46
350
8263
  3
*A47
350
825F
  3
*A48
350
8252
  3
*A49
350
826A
  3
*A5
350
8249
  3
*A50
350
8269
  3
*A51
350
8265
  3
*A52
350
8259
  3
*A53
350
826F
  3
*A54
350
826E
  3
*A55
350
826B
  3
*A56
350
8260
  3
*A57
350
8274
  3
*A58
350
8273
  3
*A59
350
8270
  3
*A6
350
8266
  3
*A60
350
8278
  3
*A61
350
8277
  3
*A62
350
8275
  3
*A63
350
827C
  3
*A64
350
827B
  3
*A7
350
8279
  3
*A8
350
8280
  3
*A9
350
827F
  0
DICTIONARY
  5
28C
102
{ACAD_REACTORS
330
C
102
}
330
C
100
AcDbDictionary
281
     1
  3
Model
350
28E
  3
ﾚｲｱｳﾄ1
350
28F
  0
DICTIONARY
  5
7386
102
{ACAD_REACTORS
330
C
102
}
330
C
100
AcDbDictionary
281
     1
  3
ByBlock
350
8524
  3
ByLayer
350
851C
  3
Global
350
852C
  0
DICTIONARY
  5
8567
102
{ACAD_REACTORS
330
C
102
}
330
C
100
AcDbDictionary
281
     1
  3
Standard
350
8568
  0
DICTIONARY
  5
E
102
{ACAD_REACTORS
330
C
102
}
330
C
100
AcDbDictionary
281
     1
  3
STANDARD
350
1B
  0
DICTIONARY
  5
28D
102
{ACAD_REACTORS
330
C
102
}
330
C
100
AcDbDictionary
281
     1
  0
ACDBDICTIONARYWDFLT
  5
28A
102
{ACAD_REACTORS
330
C
102
}
330
C
100
AcDbDictionary
281
     1
  3
Normal
350
28B
100
AcDbDictionaryWithDefault
340
28B
  0
DICTIONARY
  5
8545
102
{ACAD_REACTORS
330
C
102
}
330
C
100
AcDbDictionary
281
     1
  3
*A1
350
E328
  3
*A2
350
E329
  3
*A3
350
E32A
  3
A0
350
8546
  3
A1
350
8547
  3
A2
350
8548
  3
A3
350
8549
  3
A4
350
854A
  3
A5
350
854B
  3
A6
350
854C
  3
A7
350
854D
  3
A8
350
854E
  3
A9
350
854F
  3
B0
350
8550
  3
B1
350
8551
  3
B2
350
8552
  3
B3
350
8553
  3
B4
350
8554
  3
B5
350
8555
  3
B6
350
8556
  3
B7
350
8557
  3
B8
350
8558
  3
B9
350
8559
  3
C0
350
855A
  3
C1
350
855B
  3
C2
350
855C
  3
C3
350
855D
  3
C4
350
855E
  3
C5
350
855F
  3
C6
350
8560
  3
C7
350
8561
  3
C8
350
8562
  3
C9
350
8563
  3
D0
350
8564
  3
D1
350
8565
  3
D2
350
8566
  0
DICTIONARY
  5
7388
102
{ACAD_REACTORS
330
C
102
}
330
C
100
AcDbDictionary
281
     1
  3
Standard
350
7389
  0
DICTIONARY
  5
8534
102
{ACAD_REACTORS
330
C
102
}
330
C
100
AcDbDictionary
281
     1
  3
2dWireframe
350
853A
  3
3D Hidden
350
853C
  3
3dWireframe
350
853B
  3
Basic
350
8539
  3
Brighten
350
8540
  3
ColorChange
350
8544
  3
Conceptual
350
853D
  3
Dim
350
853F
  3
Facepattern
350
8543
  3
Flat
350
8535
  3
FlatWithEdges
350
8536
  3
Gouraud
350
8537
  3
GouraudWithEdges
350
8538
  3
Linepattern
350
8542
  3
Realistic
350
853E
  3
Thicken
350
8541
  0
XRECORD
  5
7084
102
{ACAD_REACTORS
330
C
102
}
330
C
100
AcDbXrecord
280
     1
 90
   990106
  3

 60
     1
 61
     0
 62
     4
 63
     4
 64
     1
 65
     0
 66
     0
 67
     3
 68
     1
 69
     0
 70
     0
 71
     0
 72
     0
 40
0.0
170
     0
  0
XRECORD
  5
8628
102
{ACAD_REACTORS
330
C
102
}
330
C
100
AcDbXrecord
280
     1
 90
        1
330
7389
  0
DICTIONARY
  5
29E
102
{ACAD_REACTORS
330
C
102
}
330
C
100
AcDbDictionary
281
     1
  3
CANNOSCALE
350
862B
  3
CMLEADERSTYLE
350
8629
  3
CTABLESTYLE
350
73BC
  3
DIMASSOC
350
73BD
  3
LAYEREVAL
350
C375
  3
LAYERNOTIFY
350
C376
  3
LIGHTINGUNITS
350
862C
  3
MSLTSCALE
350
862A
  3
PROJECTNAME
350
73BE
  3
SORTENTS
350
29F
  0
DICTIONARY
  5
85C9
102
{ACAD_REACTORS
330
C
102
}
330
C
100
AcDbDictionary
281
     1
  3
AcmBOM
350
9EA6
  3
AcmStdDictionary
350
85D4
  3
AMDTSECTSYM_ARROWCOLOR
350
85F5
  0
DICTIONARY
  5
8570
102
{ACAD_REACTORS
330
C
102
}
330
C
100
AcDbDictionary
281
     1
  0
DICTIONARY
  5
8886
102
{ACAD_REACTORS
330
C
102
}
330
C
100
AcDbDictionary
281
     1
  0
DICTIONARY
  5
E32B
102
{ACAD_REACTORS
330
8884
102
}
330
8884
100
AcDbDictionary
281
     1
  0
DICTIONARY
  5
8885
102
{ACAD_REACTORS
330
8884
102
}
330
8884
100
AcDbDictionary
280
     1
281
     1
  0
XRECORD
  5
860F
102
{ACAD_REACTORS
330
860E
102
}
330
860E
100
AcDbXrecord
280
     1
290
     1
  0
SORTENTSTABLE
  5
82C7
102
{ACAD_REACTORS
330
82C6
102
}
330
82C6
100
AcDbSortentsTable
330
18
331
9944
  5
9977
331
82B9
  5
8BC6
331
979C
  5
97BD
331
950B
  5
9548
331
ACB5
  5
B6C0
331
95A6
  5
95D9
331
9621
  5
965E
331
6808
  5
6811
331
96D3
  5
9705
331
B630
  5
CBBC
331
9911
  5
9944
331
98E6
  5
9910
331
82A9
  5
8A27
331
DA8F
  5
DA90
331
9030
  5
924D
331
924D
  5
927D
331
DA90
  5
DA91
331
9705
  5
9772
331
9548
  5
9572
331
9977
  5
99AA
331
9078
  5
9275
331
E334
  5
E334
331
965E
  5
96A1
331
9275
  5
92A8
  0
SORTENTSTABLE
  5
DE3D
102
{ACAD_REACTORS
330
9149
102
}
330
9149
100
AcDbSortentsTable
330
8FC8
331
A969
  5
8FCB
331
8FCC
  5
8FCE
331
8FE0
  5
8FE5
331
9025
  5
9027
331
8FF0
  5
8FF2
331
8FFF
  5
9015
331
902D
  5
902F
331
901F
  5
9021
331
8FCD
  5
8FCF
331
8FF8
  5
8FFB
331
9026
  5
9028
331
8FF1
  5
8FF3
331
902E
  5
9148
331
8FCE
  5
8FD0
331
9148
  5
8FCC
331
8FEA
  5
8FEE
331
9027
  5
9029
331
8FF2
  5
8FF4
331
902F
  5
A917
331
8FDC
  5
8FDE
331
A917
  5
A969
331
9019
  5
901C
331
8FCF
  5
8FD1
331
9020
  5
9022
331
8FEB
  5
8FEF
331
8FFA
  5
8FFC
331
9028
  5
902A
331
8FF3
  5
8FF5
331
8FDD
  5
8FDF
331
8FE4
  5
8FE6
331
9021
  5
9023
331
8FFB
  5
8FFD
331
9029
  5
902B
331
8FF4
  5
8FF6
331
9003
  5
9016
331
8FDE
  5
8FE0
331
901B
  5
901D
331
8FE5
  5
8FE7
331
9022
  5
9024
331
8FFC
  5
8FFE
331
902A
  5
902C
331
8FF5
  5
8FF7
331
8FDF
  5
8FE4
331
901C
  5
901E
331
8FE6
  5
8FEA
331
9023
  5
9025
331
8FEE
  5
8FF0
331
8FFD
  5
8FFF
331
8FD0
  5
8FDC
331
902B
  5
902D
331
8FF6
  5
8FF8
331
9015
  5
9019
331
901D
  5
901F
331
8FCB
  5
8FCD
331
8FE7
  5
8FEB
331
9024
  5
9026
331
8FEF
  5
8FF1
331
8FFE
  5
9003
331
8FD1
  5
8FDD
331
8FF7
  5
8FFA
331
902C
  5
902E
331
9016
  5
901B
331
901E
  5
9020
  0
SORTENTSTABLE
  5
DD78
102
{ACAD_REACTORS
330
91D7
102
}
330
91D7
100
AcDbSortentsTable
330
9031
331
9063
  5
9064
331
9045
  5
9046
331
9071
  5
9072
331
905A
  5
905B
331
903C
  5
903D
331
9053
  5
9054
331
904C
  5
904E
331
9034
  5
9035
331
9064
  5
906E
331
9072
  5
9073
331
9054
  5
9055
331
9046
  5
9047
331
905B
  5
905C
331
903D
  5
903E
331
9035
  5
9036
331
9047
  5
9048
331
9040
  5
9041
331
9073
  5
9076
331
905C
  5
905D
331
903E
  5
903F
331
9055
  5
9056
331
904E
  5
904F
331
9041
  5
9042
331
9036
  5
9037
331
9056
  5
9057
331
9038
  5
9039
331
904F
  5
9050
331
9048
  5
9049
331
903F
  5
9040
331
905D
  5
905E
331
9060
  5
9061
331
AAED
  5
9034
331
9037
  5
9038
331
9049
  5
904A
331
9042
  5
9043
331
9050
  5
9051
331
9057
  5
9058
331
905E
  5
905F
331
9039
  5
903A
331
906E
  5
906F
331
9061
  5
9062
331
9043
  5
9044
331
906F
  5
9070
331
9076
  5
9077
331
9058
  5
9059
331
903A
  5
903B
331
9051
  5
9052
331
904A
  5
904C
331
905F
  5
9060
331
9062
  5
9063
331
9044
  5
9045
331
9052
  5
9053
331
9077
  5
AAED
331
9059
  5
905A
331
903B
  5
903C
331
9070
  5
9071
  0
SORTENTSTABLE
  5
E707
102
{ACAD_REACTORS
330
AC84
102
}
330
AC84
100
AcDbSortentsTable
330
9227
331
922A
  5
922C
331
E4B4
  5
922B
331
922C
  5
922E
331
E4B3
  5
922A
331
922B
  5
922D
331
922E
  5
9230
331
922D
  5
922F
331
9249
  5
E4B4
331
9230
  5
9232
331
9248
  5
E4B3
331
922F
  5
9231
331
9233
  5
9235
331
9232
  5
9234
331
9235
  5
9237
331
9234
  5
9236
331
9237
  5
923B
331
9236
  5
9238
331
923B
  5
923D
331
9238
  5
923C
331
923D
  5
923F
331
923C
  5
923E
331
923F
  5
9241
331
923E
  5
9240
331
9241
  5
9243
331
9240
  5
9242
331
9244
  5
9246
331
9243
  5
9245
331
9246
  5
9248
331
9245
  5
9247
331
9247
  5
9249
331
9242
  5
9244
331
9231
  5
9233
  0
SORTENTSTABLE
  5
E6BF
102
{ACAD_REACTORS
330
AC12
102
}
330
AC12
100
AcDbSortentsTable
330
924E
331
9268
  5
926A
331
9270
  5
E3D4
331
926A
  5
926C
331
9269
  5
926B
331
926C
  5
926E
331
926B
  5
926D
331
926E
  5
9271
331
926D
  5
9270
331
9271
  5
E3F6
331
9252
  5
9254
331
9251
  5
9253
331
9255
  5
9257
331
E3D4
  5
9251
331
9254
  5
9256
331
9257
  5
9259
331
9256
  5
9258
331
9259
  5
925B
331
9258
  5
925A
331
925B
  5
925D
331
925A
  5
925C
331
925D
  5
925F
331
925C
  5
925E
331
925F
  5
9261
331
E3F6
  5
9252
331
925E
  5
9260
331
9261
  5
9263
331
9260
  5
9262
331
9263
  5
9266
331
9262
  5
9264
331
9253
  5
9255
331
9266
  5
9269
331
9264
  5
9268
  0
SORTENTSTABLE
  5
C66F
102
{ACAD_REACTORS
330
BCDC
102
}
330
BCDC
100
AcDbSortentsTable
330
A919
  0
SORTENTSTABLE
  5
DECF
102
{ACAD_REACTORS
330
AD41
102
}
330
AD41
100
AcDbSortentsTable
330
AC86
  0
DIMASSOC
  5
951B
102
{ACAD_REACTORS
330
951A
102
}
330
951A
100
AcDbDimAssoc
330
950B
 90
        3
 70
     0
 71
     0
  1
AcDbOsnapPointRef
 72
    13
331
9275
331
9269
 73
     0
 91
        0
 40
0.0
 10
0.0
 20
0.0
 30
2.000000000000000E+50
 75
     0
  1
AcDbOsnapPointRef
 72
     1
331
9078
331
905D
 73
     0
 91
        0
 40
0.0
 10
0.0
 20
0.0
 30
2.000000000000000E+50
 75
     0
  0
DIMASSOC
  5
9556
102
{ACAD_REACTORS
330
9555
102
}
330
9555
100
AcDbDimAssoc
330
9548
 90
        1
 70
     0
 71
     0
  1
AcDbOsnapPointRef
 72
    10
331
9275
331
9252
 73
     0
 91
        0
 40
0.607212343014183
 10
0.0
 20
0.0
 30
0.0
 75
     0
  0
DIMASSOC
  5
95B4
102
{ACAD_REACTORS
330
95B3
102
}
330
95B3
100
AcDbDimAssoc
330
95A6
 90
        3
 70
     0
 71
     0
  1
AcDbOsnapPointRef
 72
    13
331
9275
331
9251
 73
     0
 91
        0
 40
0.0
 10
0.0
 20
0.0
 30
2.000000000000000E+50
 75
     0
  1
AcDbOsnapPointRef
 72
     8
331
9275
331
9257
 73
     0
 91
        0
 40
0.9999999999999944
 10
0.0
 20
0.0
 30
0.0
 75
     1
  1
AcDbOsnapPointRef
 72
    13
331
9275
331
9251
 73
     0
 91
        0
 40
0.0
 10
0.0
 20
0.0
 30
2.000000000000000E+50
 75
     0
  0
DIMASSOC
  5
9631
102
{ACAD_REACTORS
330
9630
102
}
330
9630
100
AcDbDimAssoc
330
9621
 90
        3
 70
     0
 71
     0
  1
AcDbOsnapPointRef
 72
    10
331
9275
331
925C
 73
     0
 91
        0
 40
0.7511296716096573
 10
0.0
 20
0.0
 30
0.0
 75
     0
  1
AcDbOsnapPointRef
 72
     8
331
924D
331
922A
 73
     0
 91
        0
 40
0.8071815473732478
 10
0.0
 20
0.0
 30
0.0
 75
     1
  1
AcDbOsnapPointRef
 72
    10
331
9275
331
925C
 73
     0
 91
        0
 40
0.7511296716096573
 10
0.0
 20
0.0
 30
0.0
 75
     0
  0
DIMASSOC
  5
966C
102
{ACAD_REACTORS
330
966B
102
}
330
966B
100
AcDbDimAssoc
330
965E
 90
        1
 70
     0
 71
     0
  1
AcDbOsnapPointRef
 72
    10
331
924D
331
922A
 73
     0
 91
        0
 40
0.8239316132308694
 10
0.0
 20
0.0
 30
0.0
 75
     0
  0
DIMASSOC
  5
96E3
102
{ACAD_REACTORS
330
96E2
102
}
330
96E2
100
AcDbDimAssoc
330
96D3
 90
        3
 70
     0
 71
     0
  1
AcDbOsnapPointRef
 72
    13
331
9030
331
9148
 73
     0
 91
        0
 40
0.0
 10
0.0
 20
0.0
 30
2.000000000000000E+50
 75
     0
  1
AcDbOsnapPointRef
 72
    13
331
9078
331
9036
 73
     0
 91
        0
 40
0.0
 10
0.0
 20
0.0
 30
2.000000000000000E+50
 75
     0
  0
DIMASSOC
  5
9715
102
{ACAD_REACTORS
330
9714
102
}
330
9714
100
AcDbDimAssoc
330
9705
 90
        3
 70
     0
 71
     0
  1
AcDbOsnapPointRef
 72
    13
331
9030
331
9148
 73
     0
 91
        0
 40
0.0
 10
0.0
 20
0.0
 30
2.000000000000000E+50
 75
     0
  1
AcDbOsnapPointRef
 72
    13
331
9030
331
8FCC
 73
     0
 91
        0
 40
0.0
 10
0.0
 20
0.0
 30
2.000000000000000E+50
 75
     0
  0
DIMASSOC
  5
97AA
102
{ACAD_REACTORS
330
97A9
102
}
330
97A9
100
AcDbDimAssoc
330
979C
 90
        1
 70
     0
 71
     0
  1
AcDbOsnapPointRef
 72
    13
331
9078
331
9035
 73
     0
 91
        0
 40
0.0
 10
0.0
 20
0.0
 30
2.000000000000000E+50
 75
     0
  0
DIMASSOC
  5
98F4
102
{ACAD_REACTORS
330
98F3
102
}
330
98F3
100
AcDbDimAssoc
330
98E6
 90
        3
 70
     0
 71
     0
  1
AcDbOsnapPointRef
 72
    13
331
9275
331
9252
 73
     0
 91
        0
 40
0.0
 10
0.0
 20
0.0
 30
2.000000000000000E+50
 75
     0
  1
AcDbOsnapPointRef
 72
    13
331
924D
331
922B
 73
     0
 91
        0
 40
0.0
 10
0.0
 20
0.0
 30
2.000000000000000E+50
 75
     0
  0
DIMASSOC
  5
991F
102
{ACAD_REACTORS
330
991E
102
}
330
991E
100
AcDbDimAssoc
330
9911
 90
        3
 70
     0
 71
     0
  1
AcDbOsnapPointRef
 72
    13
331
924D
331
9241
 73
     0
 91
        0
 40
0.0
 10
0.0
 20
0.0
 30
2.000000000000000E+50
 75
     0
  1
AcDbOsnapPointRef
 72
    13
331
924D
331
9234
 73
     0
 91
        0
 40
0.0
 10
0.0
 20
0.0
 30
2.000000000000000E+50
 75
     0
  0
DIMASSOC
  5
9952
102
{ACAD_REACTORS
330
9951
102
}
330
9951
100
AcDbDimAssoc
330
9944
 90
        3
 70
     0
 71
     0
  1
AcDbOsnapPointRef
 72
     1
331
9030
331
8FDF
 73
     0
 91
        0
 40
0.0
 10
0.0
 20
0.0
 30
2.000000000000000E+50
 75
     0
  1
AcDbOsnapPointRef
 72
     1
331
9030
331
8FCD
 73
     0
 91
        0
 40
0.0
 10
0.0
 20
0.0
 30
2.000000000000000E+50
 75
     0
  0
DIMASSOC
  5
9985
102
{ACAD_REACTORS
330
9984
102
}
330
9984
100
AcDbDimAssoc
330
9977
 90
        1
 70
     0
 71
     0
  1
AcDbOsnapPointRef
 72
     1
331
9030
331
9015
 73
     0
 91
        0
 40
0.0
 10
0.0
 20
0.0
 30
2.000000000000000E+50
 75
     0
  0
DIMASSOC
  5
E57B
102
{ACAD_REACTORS
330
E57A
102
}
330
E57A
100
AcDbDimAssoc
330
E56B
 90
        1
 70
     0
 71
     0
  1
AcDbOsnapPointRef
 72
    13
331
9275
331
9269
 73
     0
 91
        0
 40
0.0
 10
0.0
 20
0.0
 30
2.000000000000000E+50
 75
     0
  0
DIMASSOC
  5
E5D7
102
{ACAD_REACTORS
330
E5D6
102
}
330
E5D6
100
AcDbDimAssoc
330
E5C9
 90
        3
 70
     0
 71
     0
  1
AcDbOsnapPointRef
 72
    13
331
9275
331
926C
 73
     0
 91
        0
 40
0.0
 10
0.0
 20
0.0
 30
2.000000000000000E+50
 75
     0
  1
AcDbOsnapPointRef
 72
    13
331
9275
331
925C
 73
     0
 91
        0
 40
0.0
 10
0.0
 20
0.0
 30
2.000000000000000E+50
 75
     0
  0
DIMASSOC
  5
E64F
102
{ACAD_REACTORS
330
E64E
102
}
330
E64E
100
AcDbDimAssoc
330
E63F
 90
        2
 70
     0
 71
     0
  1
AcDbOsnapPointRef
 72
     1
331
9275
331
9252
 73
     0
 91
        0
 40
0.0
 10
0.0
 20
0.0
 30
2.000000000000000E+50
 75
     0
  0
GROUP
  5
8246
102
{ACAD_REACTORS
330
D
102
}
330
D
100
AcDbGroup
300

 70
     1
 71
     1
  0
GROUP
  5
824D
102
{ACAD_REACTORS
330
D
102
}
330
D
100
AcDbGroup
300

 70
     1
 71
     1
  0
GROUP
  5
825B
102
{ACAD_REACTORS
330
D
102
}
330
D
100
AcDbGroup
300

 70
     1
 71
     1
  0
GROUP
  5
8281
102
{ACAD_REACTORS
330
D
102
}
330
D
100
AcDbGroup
300

 70
     1
 71
     1
  0
GROUP
  5
8251
102
{ACAD_REACTORS
330
D
102
}
330
D
100
AcDbGroup
300

 70
     1
 71
     1
  0
GROUP
  5
826C
102
{ACAD_REACTORS
330
D
102
}
330
D
100
AcDbGroup
300

 70
     1
 71
     1
  0
GROUP
  5
827D
102
{ACAD_REACTORS
330
D
102
}
330
D
100
AcDbGroup
300

 70
     1
 71
     1
  0
GROUP
  5
8283
102
{ACAD_REACTORS
330
D
102
}
330
D
100
AcDbGroup
300

 70
     1
 71
     1
  0
GROUP
  5
8282
102
{ACAD_REACTORS
330
D
102
}
330
D
100
AcDbGroup
300

 70
     1
 71
     1
  0
GROUP
  5
8255
102
{ACAD_REACTORS
330
D
102
}
330
D
100
AcDbGroup
300

 70
     1
 71
     1
  0
GROUP
  5
8262
102
{ACAD_REACTORS
330
D
102
}
330
D
100
AcDbGroup
300

 70
     1
 71
     1
  0
GROUP
  5
8284
102
{ACAD_REACTORS
330
D
102
}
330
D
100
AcDbGroup
300

 70
     1
 71
     1
  0
GROUP
  5
8247
102
{ACAD_REACTORS
330
D
102
}
330
D
100
AcDbGroup
300

 70
     1
 71
     1
  0
GROUP
  5
8271
102
{ACAD_REACTORS
330
D
102
}
330
D
100
AcDbGroup
300

 70
     1
 71
     1
  0
GROUP
  5
824B
102
{ACAD_REACTORS
330
D
102
}
330
D
100
AcDbGroup
300

 70
     1
 71
     1
  0
GROUP
  5
824C
102
{ACAD_REACTORS
330
D
102
}
330
D
100
AcDbGroup
300

 70
     1
 71
     1
  0
GROUP
  5
8285
102
{ACAD_REACTORS
330
D
102
}
330
D
100
AcDbGroup
300

 70
     1
 71
     1
  0
GROUP
  5
825C
102
{ACAD_REACTORS
330
D
102
}
330
D
100
AcDbGroup
300

 70
     1
 71
     1
  0
GROUP
  5
8268
102
{ACAD_REACTORS
330
D
102
}
330
D
100
AcDbGroup
300

 70
     1
 71
     1
  0
GROUP
  5
824F
102
{ACAD_REACTORS
330
D
102
}
330
D
100
AcDbGroup
300

 70
     1
 71
     1
  0
GROUP
  5
8276
102
{ACAD_REACTORS
330
D
102
}
330
D
100
AcDbGroup
300

 70
     1
 71
     1
  0
GROUP
  5
8253
102
{ACAD_REACTORS
330
D
102
}
330
D
100
AcDbGroup
300

 70
     1
 71
     1
  0
GROUP
  5
8254
102
{ACAD_REACTORS
330
D
102
}
330
D
100
AcDbGroup
300

 70
     1
 71
     1
  0
GROUP
  5
824E
102
{ACAD_REACTORS
330
D
102
}
330
D
100
AcDbGroup
300

 70
     1
 71
     1
  0
GROUP
  5
8248
102
{ACAD_REACTORS
330
D
102
}
330
D
100
AcDbGroup
300

 70
     1
 71
     1
  0
GROUP
  5
826D
102
{ACAD_REACTORS
330
D
102
}
330
D
100
AcDbGroup
300

 70
     1
 71
     1
  0
GROUP
  5
8257
102
{ACAD_REACTORS
330
D
102
}
330
D
100
AcDbGroup
300

 70
     1
 71
     1
  0
GROUP
  5
827A
102
{ACAD_REACTORS
330
D
102
}
330
D
100
AcDbGroup
300

 70
     1
 71
     1
  0
GROUP
  5
825A
102
{ACAD_REACTORS
330
D
102
}
330
D
100
AcDbGroup
300

 70
     1
 71
     1
  0
GROUP
  5
8256
102
{ACAD_REACTORS
330
D
102
}
330
D
100
AcDbGroup
300

 70
     1
 71
     1
  0
GROUP
  5
8250
102
{ACAD_REACTORS
330
D
102
}
330
D
100
AcDbGroup
300

 70
     1
 71
     1
  0
GROUP
  5
8272
102
{ACAD_REACTORS
330
D
102
}
330
D
100
AcDbGroup
300

 70
     1
 71
     1
  0
GROUP
  5
825E
102
{ACAD_REACTORS
330
D
102
}
330
D
100
AcDbGroup
300

 70
     1
 71
     1
  0
GROUP
  5
827E
102
{ACAD_REACTORS
330
D
102
}
330
D
100
AcDbGroup
300

 70
     1
 71
     1
  0
GROUP
  5
8261
102
{ACAD_REACTORS
330
D
102
}
330
D
100
AcDbGroup
300

 70
     1
 71
     1
  0
GROUP
  5
825D
102
{ACAD_REACTORS
330
D
102
}
330
D
100
AcDbGroup
300

 70
     1
 71
     1
  0
GROUP
  5
8258
102
{ACAD_REACTORS
330
D
102
}
330
D
100
AcDbGroup
300

 70
     1
 71
     1
  0
GROUP
  5
824A
102
{ACAD_REACTORS
330
D
102
}
330
D
100
AcDbGroup
300

 70
     1
 71
     1
  0
GROUP
  5
8264
102
{ACAD_REACTORS
330
D
102
}
330
D
100
AcDbGroup
300

 70
     1
 71
     1
  0
GROUP
  5
8267
102
{ACAD_REACTORS
330
D
102
}
330
D
100
AcDbGroup
300

 70
     1
 71
     1
  0
GROUP
  5
8263
102
{ACAD_REACTORS
330
D
102
}
330
D
100
AcDbGroup
300

 70
     1
 71
     1
  0
GROUP
  5
825F
102
{ACAD_REACTORS
330
D
102
}
330
D
100
AcDbGroup
300

 70
     1
 71
     1
  0
GROUP
  5
8252
102
{ACAD_REACTORS
330
D
102
}
330
D
100
AcDbGroup
300

 70
     1
 71
     1
  0
GROUP
  5
826A
102
{ACAD_REACTORS
330
D
102
}
330
D
100
AcDbGroup
300

 70
     1
 71
     1
  0
GROUP
  5
8249
102
{ACAD_REACTORS
330
D
102
}
330
D
100
AcDbGroup
300

 70
     1
 71
     1
  0
GROUP
  5
8269
102
{ACAD_REACTORS
330
D
102
}
330
D
100
AcDbGroup
300

 70
     1
 71
     1
  0
GROUP
  5
8265
102
{ACAD_REACTORS
330
D
102
}
330
D
100
AcDbGroup
300

 70
     1
 71
     1
  0
GROUP
  5
8259
102
{ACAD_REACTORS
330
D
102
}
330
D
100
AcDbGroup
300

 70
     1
 71
     1
  0
GROUP
  5
826F
102
{ACAD_REACTORS
330
D
102
}
330
D
100
AcDbGroup
300

 70
     1
 71
     1
  0
GROUP
  5
826E
102
{ACAD_REACTORS
330
D
102
}
330
D
100
AcDbGroup
300

 70
     1
 71
     1
  0
GROUP
  5
826B
102
{ACAD_REACTORS
330
D
102
}
330
D
100
AcDbGroup
300

 70
     1
 71
     1
  0
GROUP
  5
8260
102
{ACAD_REACTORS
330
D
102
}
330
D
100
AcDbGroup
300

 70
     1
 71
     1
  0
GROUP
  5
8274
102
{ACAD_REACTORS
330
D
102
}
330
D
100
AcDbGroup
300

 70
     1
 71
     1
  0
GROUP
  5
8273
102
{ACAD_REACTORS
330
D
102
}
330
D
100
AcDbGroup
300

 70
     1
 71
     1
  0
GROUP
  5
8270
102
{ACAD_REACTORS
330
D
102
}
330
D
100
AcDbGroup
300

 70
     1
 71
     1
  0
GROUP
  5
8266
102
{ACAD_REACTORS
330
D
102
}
330
D
100
AcDbGroup
300

 70
     1
 71
     1
  0
GROUP
  5
8278
102
{ACAD_REACTORS
330
D
102
}
330
D
100
AcDbGroup
300

 70
     1
 71
     1
  0
GROUP
  5
8277
102
{ACAD_REACTORS
330
D
102
}
330
D
100
AcDbGroup
300

 70
     1
 71
     1
  0
GROUP
  5
8275
102
{ACAD_REACTORS
330
D
102
}
330
D
100
AcDbGroup
300

 70
     1
 71
     1
  0
GROUP
  5
827C
102
{ACAD_REACTORS
330
D
102
}
330
D
100
AcDbGroup
300

 70
     1
 71
     1
  0
GROUP
  5
827B
102
{ACAD_REACTORS
330
D
102
}
330
D
100
AcDbGroup
300

 70
     1
 71
     1
  0
GROUP
  5
8279
102
{ACAD_REACTORS
330
D
102
}
330
D
100
AcDbGroup
300

 70
     1
 71
     1
  0
GROUP
  5
8280
102
{ACAD_REACTORS
330
D
102
}
330
D
100
AcDbGroup
300

 70
     1
 71
     1
  0
GROUP
  5
827F
102
{ACAD_REACTORS
330
D
102
}
330
D
100
AcDbGroup
300

 70
     1
 71
     1
  0
LAYOUT
  5
28E
102
{ACAD_REACTORS
330
28C
102
}
330
28C
100
AcDbPlotSettings
  1

  2
KONICA MINOLTA 501 PCL
  4
A4
  6

 40
5.027082920074462
 41
5.027085781097412
 42
5.027069091796875
 43
5.027069091796875
 44
209.9733276367186
 45
296.9259948730469
 46
0.0
 47
4.002659483085948
 48
-2355.056327357377
 49
-99.32408324836069
140
-197.4381835620652
141
1459.207648611925
142
1.0
143
2.384997025593166
 70
 11956
 72
     1
 73
     1
 74
     1
  7
SEISA.ctb
 75
     0
147
0.4192877346466679
 76
     0
 77
     2
 78
   300
148
-592.5135560265196
149
-872.9406787559165
100
AcDbLayout
  1
Model
 70
     1
 71
     0
 10
0.0
 20
0.0
 11
12.0
 21
9.0
 12
0.0
 22
0.0
 32
0.0
 14
0.0
 24
0.0
 34
0.0
 15
0.0
 25
0.0
 35
0.0
146
0.0
 13
0.0
 23
0.0
 33
0.0
 16
1.0
 26
0.0
 36
0.0
 17
0.0
 27
1.0
 37
0.0
 76
     0
330
18
331
851A
1001
ACAD_PSEXT
1000
KONICA MINOLTA 501 PCL
1000
KONICA MINOLTA 501/421/361PCL
1000
IP_192.168.20.231_(1)
1000

1070
     0
  0
LAYOUT
  5
28F
102
{ACAD_REACTORS
330
28C
102
}
330
28C
100
AcDbPlotSettings
  1

  2
EPSON LP-8300S
  4
A4
  6

 40
5.873749732971191
 41
5.873747825622557
 42
5.873748779296875
 43
5.873748779296875
 44
209.9733276367186
 45
297.0106506347656
 46
0.0
 47
0.0
 48
0.0
 49
0.0
140
0.0
141
0.0
142
1.0
143
1.0
 70
   688
 72
     0
 73
     1
 74
     5
  7
SEISA.ctb
 75
    16
147
1.0
 76
     0
 77
     2
 78
   300
148
0.0
149
0.0
100
AcDbLayout
  1
ﾚｲｱｳﾄ1
 70
     0
 71
     1
 10
-0.2312499519408218
 20
-0.2312499894870548
 11
11.4620827502153
 21
8.035416452903447
 12
0.0
 22
0.0
 32
0.0
 14
1.12308328358207
 24
0.7804166500962629
 34
0.0
 15
10.10774955223864
 25
7.023749850866361
 35
0.0
146
0.0
 13
0.0
 23
0.0
 33
0.0
 16
1.0
 26
0.0
 36
0.0
 17
0.0
 27
1.0
 37
0.0
 76
     0
330
15
331
2BA
  0
MATERIAL
  5
8524
102
{ACAD_XDICTIONARY
360
8525
102
}
102
{ACAD_REACTORS
330
7386
102
}
330
7386
100
AcDbMaterial
  1
ByBlock
 72
     0
 43
0.0008202099737533
 43
0.0
 43
0.0
 43
0.0
 43
0.0
 43
0.0008202099737533
 43
0.0
 43
0.0
 43
0.0
 43
0.0
 43
1.0
 43
0.0
 43
0.0
 43
0.0
 43
0.0
 43
1.0
 77
     0
 47
0.0008202099737533
 47
0.0
 47
0.0
 47
0.0
 47
0.0
 47
0.0008202099737533
 47
0.0
 47
0.0
 47
0.0
 47
0.0
 47
1.0
 47
0.0
 47
0.0
 47
0.0
 47
0.0
 47
1.0
171
     0
 49
0.0008202099737533
 49
0.0
 49
0.0
 49
0.0
 49
0.0
 49
0.0008202099737533
 49
0.0
 49
0.0
 49
0.0
 49
0.0
 49
1.0
 49
0.0
 49
0.0
 49
0.0
 49
0.0
 49
1.0
175
     0
142
0.0008202099737533
142
0.0
142
0.0
142
0.0
142
0.0
142
0.0008202099737533
142
0.0
142
0.0
142
0.0
142
0.0
142
1.0
142
0.0
142
0.0
142
0.0
142
0.0
142
1.0
179
     0
144
0.0008202099737533
144
0.0
144
0.0
144
0.0
144
0.0
144
0.0008202099737533
144
0.0
144
0.0
144
0.0
144
0.0
144
1.0
144
0.0
144
0.0
144
0.0
144
0.0
144
1.0
147
0.0008202099737533
147
0.0
147
0.0
147
0.0
147
0.0
147
0.0008202099737533
147
0.0
147
0.0
147
0.0
147
0.0
147
1.0
147
0.0
147
0.0
147
0.0
147
0.0
147
1.0
  0
MATERIAL
  5
851C
102
{ACAD_XDICTIONARY
360
851D
102
}
102
{ACAD_REACTORS
330
7386
102
}
330
7386
100
AcDbMaterial
  1
ByLayer
 72
     0
 43
0.0008202099737533
 43
0.0
 43
0.0
 43
0.0
 43
0.0
 43
0.0008202099737533
 43
0.0
 43
0.0
 43
0.0
 43
0.0
 43
1.0
 43
0.0
 43
0.0
 43
0.0
 43
0.0
 43
1.0
 77
     0
 47
0.0008202099737533
 47
0.0
 47
0.0
 47
0.0
 47
0.0
 47
0.0008202099737533
 47
0.0
 47
0.0
 47
0.0
 47
0.0
 47
1.0
 47
0.0
 47
0.0
 47
0.0
 47
0.0
 47
1.0
171
     0
 49
0.0008202099737533
 49
0.0
 49
0.0
 49
0.0
 49
0.0
 49
0.0008202099737533
 49
0.0
 49
0.0
 49
0.0
 49
0.0
 49
1.0
 49
0.0
 49
0.0
 49
0.0
 49
0.0
 49
1.0
175
     0
142
0.0008202099737533
142
0.0
142
0.0
142
0.0
142
0.0
142
0.0008202099737533
142
0.0
142
0.0
142
0.0
142
0.0
142
1.0
142
0.0
142
0.0
142
0.0
142
0.0
142
1.0
179
     0
144
0.0008202099737533
144
0.0
144
0.0
144
0.0
144
0.0
144
0.0008202099737533
144
0.0
144
0.0
144
0.0
144
0.0
144
1.0
144
0.0
144
0.0
144
0.0
144
0.0
144
1.0
147
0.0008202099737533
147
0.0
147
0.0
147
0.0
147
0.0
147
0.0008202099737533
147
0.0
147
0.0
147
0.0
147
0.0
147
1.0
147
0.0
147
0.0
147
0.0
147
0.0
147
1.0
  0
MATERIAL
  5
852C
102
{ACAD_XDICTIONARY
360
852D
102
}
102
{ACAD_REACTORS
330
7386
102
}
330
7386
100
AcDbMaterial
  1
Global
 72
     0
 43
0.0008202099737533
 43
0.0
 43
0.0
 43
0.0
 43
0.0
 43
0.0008202099737533
 43
0.0
 43
0.0
 43
0.0
 43
0.0
 43
1.0
 43
0.0
 43
0.0
 43
0.0
 43
0.0
 43
1.0
 77
     0
 47
0.0008202099737533
 47
0.0
 47
0.0
 47
0.0
 47
0.0
 47
0.0008202099737533
 47
0.0
 47
0.0
 47
0.0
 47
0.0
 47
1.0
 47
0.0
 47
0.0
 47
0.0
 47
0.0
 47
1.0
171
     0
 49
0.0008202099737533
 49
0.0
 49
0.0
 49
0.0
 49
0.0
 49
0.0008202099737533
 49
0.0
 49
0.0
 49
0.0
 49
0.0
 49
1.0
 49
0.0
 49
0.0
 49
0.0
 49
0.0
 49
1.0
175
     0
142
0.0008202099737533
142
0.0
142
0.0
142
0.0
142
0.0
142
0.0008202099737533
142
0.0
142
0.0
142
0.0
142
0.0
142
1.0
142
0.0
142
0.0
142
0.0
142
0.0
142
1.0
179
     0
144
0.0008202099737533
144
0.0
144
0.0
144
0.0
144
0.0
144
0.0008202099737533
144
0.0
144
0.0
144
0.0
144
0.0
144
1.0
144
0.0
144
0.0
144
0.0
144
0.0
144
1.0
147
0.0008202099737533
147
0.0
147
0.0
147
0.0
147
0.0
147
0.0008202099737533
147
0.0
147
0.0
147
0.0
147
0.0
147
1.0
147
0.0
147
0.0
147
0.0
147
0.0
147
1.0
  0
MLEADERSTYLE
  5
8568
102
{ACAD_REACTORS
330
8567
102
}
330
8567
100
AcDbMLeaderStyle
170
     2
171
     1
172
     0
 90
        2
 40
0.0
 41
0.0
173
     1
 91
-1056964608
340
12
 92
       -2
290
     1
 42
0.09
291
     1
 43
0.36
  3
Standard
 44
0.18
300

342
10
174
     1
178
     6
175
     1
176
     0
 93
-1056964608
 45
0.18
292
     0
297
     0
 46
0.18
 94
-1056964608
 47
1.0
 49
1.0
140
1.0
293
     1
141
0.0
294
     1
177
     0
142
1.0
295
     0
296
     0
143
0.125
1001
ACAD_MLEADERVER
1070
     2
  0
MLINESTYLE
  5
1B
102
{ACAD_REACTORS
330
E
102
}
330
E
100
AcDbMlineStyle
  2
STANDARD
 70
     0
  3

 62
     0
 51
90.0
 52
90.0
 71
     2
 49
0.5
 62
   256
  6
BYLAYER
 49
-0.5
 62
   256
  6
BYLAYER
  0
ACDBPLACEHOLDER
  5
28B
102
{ACAD_REACTORS
330
28A
102
}
330
28A
  0
SCALE
  5
E328
102
{ACAD_REACTORS
330
8545
102
}
330
8545
100
AcDbScale
 70
     0
300
1:3
140
1.0
141
3.0
290
     0
  0
SCALE
  5
E329
102
{ACAD_REACTORS
330
8545
102
}
330
8545
100
AcDbScale
 70
     0
300
1:2.5
140
1.0
141
2.5
290
     0
  0
SCALE
  5
E32A
102
{ACAD_REACTORS
330
8545
102
}
330
8545
100
AcDbScale
 70
     0
300
1:1.5
140
1.0
141
1.5
290
     0
  0
SCALE
  5
8546
102
{ACAD_REACTORS
330
8545
102
}
330
8545
100
AcDbScale
 70
     0
300
1:1
140
1.0
141
1.0
290
     1
  0
SCALE
  5
8547
102
{ACAD_REACTORS
330
8545
102
}
330
8545
100
AcDbScale
 70
     0
300
1:2
140
1.0
141
2.0
290
     0
  0
SCALE
  5
8548
102
{ACAD_REACTORS
330
8545
102
}
330
8545
100
AcDbScale
 70
     0
300
1:4
140
1.0
141
4.0
290
     0
  0
SCALE
  5
8549
102
{ACAD_REACTORS
330
8545
102
}
330
8545
100
AcDbScale
 70
     0
300
1:5
140
1.0
141
5.0
290
     0
  0
SCALE
  5
854A
102
{ACAD_REACTORS
330
8545
102
}
330
8545
100
AcDbScale
 70
     0
300
1:8
140
1.0
141
8.0
290
     0
  0
SCALE
  5
854B
102
{ACAD_REACTORS
330
8545
102
}
330
8545
100
AcDbScale
 70
     0
300
1:10
140
1.0
141
10.0
290
     0
  0
SCALE
  5
854C
102
{ACAD_REACTORS
330
8545
102
}
330
8545
100
AcDbScale
 70
     0
300
1:16
140
1.0
141
16.0
290
     0
  0
SCALE
  5
854D
102
{ACAD_REACTORS
330
8545
102
}
330
8545
100
AcDbScale
 70
     0
300
1:20
140
1.0
141
20.0
290
     0
  0
SCALE
  5
854E
102
{ACAD_REACTORS
330
8545
102
}
330
8545
100
AcDbScale
 70
     0
300
1:30
140
1.0
141
30.0
290
     0
  0
SCALE
  5
854F
102
{ACAD_REACTORS
330
8545
102
}
330
8545
100
AcDbScale
 70
     0
300
1:40
140
1.0
141
40.0
290
     0
  0
SCALE
  5
8550
102
{ACAD_REACTORS
330
8545
102
}
330
8545
100
AcDbScale
 70
     0
300
1:50
140
1.0
141
50.0
290
     0
  0
SCALE
  5
8551
102
{ACAD_REACTORS
330
8545
102
}
330
8545
100
AcDbScale
 70
     0
300
1:100
140
1.0
141
100.0
290
     0
  0
SCALE
  5
8552
102
{ACAD_REACTORS
330
8545
102
}
330
8545
100
AcDbScale
 70
     0
300
2:1
140
2.0
141
1.0
290
     0
  0
SCALE
  5
8553
102
{ACAD_REACTORS
330
8545
102
}
330
8545
100
AcDbScale
 70
     0
300
4:1
140
4.0
141
1.0
290
     0
  0
SCALE
  5
8554
102
{ACAD_REACTORS
330
8545
102
}
330
8545
100
AcDbScale
 70
     0
300
8:1
140
8.0
141
1.0
290
     0
  0
SCALE
  5
8555
102
{ACAD_REACTORS
330
8545
102
}
330
8545
100
AcDbScale
 70
     0
300
10:1
140
10.0
141
1.0
290
     0
  0
SCALE
  5
8556
102
{ACAD_REACTORS
330
8545
102
}
330
8545
100
AcDbScale
 70
     0
300
100:1
140
100.0
141
1.0
290
     0
  0
SCALE
  5
8557
102
{ACAD_REACTORS
330
8545
102
}
330
8545
100
AcDbScale
 70
     0
300
1/128" = 1'-0"
140
0.0078125
141
12.0
290
     0
  0
SCALE
  5
8558
102
{ACAD_REACTORS
330
8545
102
}
330
8545
100
AcDbScale
 70
     0
300
1/64" = 1'-0"
140
0.015625
141
12.0
290
     0
  0
SCALE
  5
8559
102
{ACAD_REACTORS
330
8545
102
}
330
8545
100
AcDbScale
 70
     0
300
1/32" = 1'-0"
140
0.03125
141
12.0
290
     0
  0
SCALE
  5
855A
102
{ACAD_REACTORS
330
8545
102
}
330
8545
100
AcDbScale
 70
     0
300
1/16" = 1'-0"
140
0.0625
141
12.0
290
     0
  0
SCALE
  5
855B
102
{ACAD_REACTORS
330
8545
102
}
330
8545
100
AcDbScale
 70
     0
300
3/32" = 1'-0"
140
0.09375
141
12.0
290
     0
  0
SCALE
  5
855C
102
{ACAD_REACTORS
330
8545
102
}
330
8545
100
AcDbScale
 70
     0
300
1/8" = 1'-0"
140
0.125
141
12.0
290
     0
  0
SCALE
  5
855D
102
{ACAD_REACTORS
330
8545
102
}
330
8545
100
AcDbScale
 70
     0
300
3/16" = 1'-0"
140
0.1875
141
12.0
290
     0
  0
SCALE
  5
855E
102
{ACAD_REACTORS
330
8545
102
}
330
8545
100
AcDbScale
 70
     0
300
1/4" = 1'-0"
140
0.25
141
12.0
290
     0
  0
SCALE
  5
855F
102
{ACAD_REACTORS
330
8545
102
}
330
8545
100
AcDbScale
 70
     0
300
3/8" = 1'-0"
140
0.375
141
12.0
290
     0
  0
SCALE
  5
8560
102
{ACAD_REACTORS
330
8545
102
}
330
8545
100
AcDbScale
 70
     0
300
1/2" = 1'-0"
140
0.5
141
12.0
290
     0
  0
SCALE
  5
8561
102
{ACAD_REACTORS
330
8545
102
}
330
8545
100
AcDbScale
 70
     0
300
3/4" = 1'-0"
140
0.75
141
12.0
290
     0
  0
SCALE
  5
8562
102
{ACAD_REACTORS
330
8545
102
}
330
8545
100
AcDbScale
 70
     0
300
1" = 1'-0"
140
1.0
141
12.0
290
     0
  0
SCALE
  5
8563
102
{ACAD_REACTORS
330
8545
102
}
330
8545
100
AcDbScale
 70
     0
300
1-1/2" = 1'-0"
140
1.5
141
12.0
290
     0
  0
SCALE
  5
8564
102
{ACAD_REACTORS
330
8545
102
}
330
8545
100
AcDbScale
 70
     0
300
3" = 1'-0"
140
3.0
141
12.0
290
     0
  0
SCALE
  5
8565
102
{ACAD_REACTORS
330
8545
102
}
330
8545
100
AcDbScale
 70
     0
300
6" = 1'-0"
140
6.0
141
12.0
290
     0
  0
SCALE
  5
8566
102
{ACAD_REACTORS
330
8545
102
}
330
8545
100
AcDbScale
 70
     0
300
1'-0" = 1'-0"
140
12.0
141
12.0
290
     0
  0
TABLESTYLE
  5
7389
102
{ACAD_XDICTIONARY
360
8626
102
}
102
{ACAD_REACTORS
330
7388
102
}
330
7388
100
AcDbTableStyle
  3
Standard
 70
     0
 71
     0
 40
0.06
 41
0.06
280
     0
281
     0
  7
STANDARD
140
0.18
170
     2
 62
     0
 63
     7
283
     0
 90
        4
 91
        0
  1

274
    -2
284
     1
 64
     0
275
    -2
285
     1
 65
     0
276
    -2
286
     1
 66
     0
277
    -2
287
     1
 67
     0
278
    -2
288
     1
 68
     0
279
    -2
289
     1
 69
     0
  7
STANDARD
140
0.25
170
     5
 62
     0
 63
     7
283
     0
 90
        4
 91
        0
  1

274
    -2
284
     1
 64
     0
275
    -2
285
     1
 65
     0
276
    -2
286
     1
 66
     0
277
    -2
287
     1
 67
     0
278
    -2
288
     1
 68
     0
279
    -2
289
     1
 69
     0
  7
STANDARD
140
0.18
170
     5
 62
     0
 63
     7
283
     0
 90
        4
 91
        0
  1

274
    -2
284
     1
 64
     0
275
    -2
285
     1
 65
     0
276
    -2
286
     1
 66
     0
277
    -2
287
     1
 67
     0
278
    -2
288
     1
 68
     0
279
    -2
289
     1
 69
     0
  0
VISUALSTYLE
  5
853A
102
{ACAD_REACTORS
330
8534
102
}
330
8534
100
AcDbVisualStyle
  2
2dWireframe
 70
     4
 71
     0
 72
     2
 73
     0
 90
        0
 40
-0.6
 41
-30.0
 62
     5
 63
     7
421
 16777215
 74
     1
 91
        4
 64
     7
 65
   257
 75
     1
175
     1
 42
1.0
 92
        0
 66
   257
 43
1.0
 76
     1
 77
     6
 78
     2
 67
     7
 79
     5
170
     0
171
     0
290
     0
174
     0
 93
        1
 44
0.0
173
     0
291
     0
 45
0.0
  0
VISUALSTYLE
  5
853C
102
{ACAD_REACTORS
330
8534
102
}
330
8534
100
AcDbVisualStyle
  2
3D Hidden
 70
     6
 71
     1
 72
     2
 73
     2
 90
        0
 40
-0.6
 41
-30.0
 62
     5
 63
     7
421
 16777215
 74
     2
 91
        2
 64
     7
 65
   257
 75
     2
175
     1
 42
40.0
 92
        0
 66
   257
 43
1.0
 76
     1
 77
     6
 78
     2
 67
     7
 79
     3
170
     0
171
     0
290
     0
174
     0
 93
        1
 44
0.0
173
     0
291
     0
 45
0.0
  0
VISUALSTYLE
  5
853B
102
{ACAD_REACTORS
330
8534
102
}
330
8534
100
AcDbVisualStyle
  2
3dWireframe
 70
     5
 71
     0
 72
     2
 73
     0
 90
        0
 40
-0.6
 41
-30.0
 62
     5
 63
     7
421
 16777215
 74
     1
 91
        4
 64
     7
 65
   257
 75
     1
175
     1
 42
1.0
 92
        0
 66
   257
 43
1.0
 76
     1
 77
     6
 78
     2
 67
     7
 79
     5
170
     0
171
     0
290
     0
174
     0
 93
        1
 44
0.0
173
     0
291
     0
 45
0.0
  0
VISUALSTYLE
  5
8539
102
{ACAD_REACTORS
330
8534
102
}
330
8534
100
AcDbVisualStyle
  2
Basic
 70
     7
 71
     1
 72
     0
 73
     1
 90
        0
 40
-0.6
 41
-30.0
 62
     5
 63
     7
421
 16777215
 74
     0
 91
        4
 64
     7
 65
   257
 75
     1
175
     1
 42
1.0
 92
        8
 66
     7
 43
1.0
 76
     1
 77
     6
 78
     2
 67
     7
 79
     5
170
     0
171
     0
290
     0
174
     0
 93
        1
 44
0.0
173
     0
291
     1
 45
0.0
  0
VISUALSTYLE
  5
8540
102
{ACAD_REACTORS
330
8534
102
}
330
8534
100
AcDbVisualStyle
  2
Brighten
 70
    12
 71
     2
 72
     2
 73
     0
 90
        0
 40
-0.6
 41
-30.0
 62
     5
 63
     7
421
 16777215
 74
     1
 91
        4
 64
     7
 65
   257
 75
     1
175
     1
 42
1.0
 92
        8
 66
     7
 43
1.0
 76
     1
 77
     6
 78
     2
 67
     7
 79
     5
170
     0
171
     0
290
     0
174
     0
 93
        1
 44
50.0
173
     0
291
     1
 45
0.0
  0
VISUALSTYLE
  5
8544
102
{ACAD_REACTORS
330
8534
102
}
330
8534
100
AcDbVisualStyle
  2
ColorChange
 70
    16
 71
     2
 72
     2
 73
     3
 90
        0
 40
-0.6
 41
-30.0
 62
     5
 63
     8
421
  8421504
 74
     1
 91
        4
 64
     7
 65
   257
 75
     1
175
     1
 42
1.0
 92
        8
 66
     8
424
  8421504
 43
1.0
 76
     1
 77
     6
 78
     2
 67
     7
 79
     5
170
     0
171
     0
290
     0
174
     0
 93
        1
 44
0.0
173
     0
291
     1
 45
0.0
  0
VISUALSTYLE
  5
853D
102
{ACAD_REACTORS
330
8534
102
}
330
8534
100
AcDbVisualStyle
  2
Conceptual
 70
     9
 71
     3
 72
     2
 73
     0
 90
        0
 40
-0.6
 41
-30.0
 62
     5
 63
     7
421
 16777215
 74
     2
 91
        2
 64
     7
 65
   257
 75
     1
175
     1
 42
40.0
 92
        8
 66
     7
 43
1.0
 76
     1
 77
     6
 78
     2
 67
     7
 79
     3
170
     0
171
     0
290
     0
174
     0
 93
        1
 44
0.0
173
     0
291
     0
 45
0.0
  0
VISUALSTYLE
  5
853F
102
{ACAD_REACTORS
330
8534
102
}
330
8534
100
AcDbVisualStyle
  2
Dim
 70
    11
 71
     2
 72
     2
 73
     0
 90
        0
 40
-0.6
 41
-30.0
 62
     5
 63
     7
421
 16777215
 74
     1
 91
        4
 64
     7
 65
   257
 75
     1
175
     1
 42
1.0
 92
        8
 66
     7
 43
1.0
 76
     1
 77
     6
 78
     2
 67
     7
 79
     5
170
     0
171
     0
290
     0
174
     0
 93
        1
 44
-50.0
173
     0
291
     1
 45
0.0
  0
VISUALSTYLE
  5
8543
102
{ACAD_REACTORS
330
8534
102
}
330
8534
100
AcDbVisualStyle
  2
Facepattern
 70
    15
 71
     2
 72
     2
 73
     0
 90
        0
 40
-0.6
 41
-30.0
 62
     5
 63
     7
421
 16777215
 74
     1
 91
        4
 64
     7
 65
   257
 75
     1
175
     1
 42
1.0
 92
        8
 66
     7
 43
1.0
 76
     1
 77
     6
 78
     2
 67
     7
 79
     5
170
     0
171
     0
290
     0
174
     0
 93
        1
 44
0.0
173
     0
291
     1
 45
0.0
  0
VISUALSTYLE
  5
8535
102
{ACAD_REACTORS
330
8534
102
}
330
8534
100
AcDbVisualStyle
  2
Flat
 70
     0
 71
     2
 72
     1
 73
     1
 90
        2
 40
-0.6
 41
30.0
 62
     5
 63
     7
421
 16777215
 74
     0
 91
        4
 64
     7
 65
   257
 75
     1
175
     1
 42
1.0
 92
        8
 66
     7
 43
1.0
 76
     1
 77
     6
 78
     2
 67
     7
 79
     5
170
     0
171
     0
290
     0
174
     0
 93
       13
 44
0.0
173
     0
291
     1
 45
0.0
  0
VISUALSTYLE
  5
8536
102
{ACAD_REACTORS
330
8534
102
}
330
8534
100
AcDbVisualStyle
  2
FlatWithEdges
 70
     1
 71
     2
 72
     1
 73
     1
 90
        2
 40
-0.6
 41
30.0
 62
     5
 63
     7
421
 16777215
 74
     1
 91
        4
 64
     7
 65
   257
 75
     1
175
     1
 42
1.0
 92
        0
 66
   257
 43
1.0
 76
     1
 77
     6
 78
     2
 67
     7
 79
     5
170
     0
171
     0
290
     0
174
     0
 93
       13
 44
0.0
173
     0
291
     1
 45
0.0
  0
VISUALSTYLE
  5
8537
102
{ACAD_REACTORS
330
8534
102
}
330
8534
100
AcDbVisualStyle
  2
Gouraud
 70
     2
 71
     2
 72
     2
 73
     1
 90
        2
 40
-0.6
 41
30.0
 62
     5
 63
     7
421
 16777215
 74
     0
 91
        4
 64
     7
 65
   257
 75
     1
175
     1
 42
1.0
 92
        0
 66
     7
 43
1.0
 76
     1
 77
     6
 78
     2
 67
     7
 79
     5
170
     0
171
     0
290
     0
174
     0
 93
       13
 44
0.0
173
     0
291
     1
 45
0.0
  0
VISUALSTYLE
  5
8538
102
{ACAD_REACTORS
330
8534
102
}
330
8534
100
AcDbVisualStyle
  2
GouraudWithEdges
 70
     3
 71
     2
 72
     2
 73
     1
 90
        2
 40
-0.6
 41
30.0
 62
     5
 63
     7
421
 16777215
 74
     1
 91
        4
 64
     7
 65
   257
 75
     1
175
     1
 42
1.0
 92
        0
 66
   257
 43
1.0
 76
     1
 77
     6
 78
     2
 67
     7
 79
     5
170
     0
171
     0
290
     0
174
     0
 93
       13
 44
0.0
173
     0
291
     1
 45
0.0
  0
VISUALSTYLE
  5
8542
102
{ACAD_REACTORS
330
8534
102
}
330
8534
100
AcDbVisualStyle
  2
Linepattern
 70
    14
 71
     2
 72
     2
 73
     0
 90
        0
 40
-0.6
 41
-30.0
 62
     5
 63
     7
421
 16777215
 74
     1
 91
        4
 64
     7
 65
   257
 75
     7
175
     7
 42
1.0
 92
        8
 66
     7
 43
1.0
 76
     1
 77
     6
 78
     2
 67
     7
 79
     5
170
     0
171
     0
290
     0
174
     0
 93
        1
 44
0.0
173
     0
291
     1
 45
0.0
  0
VISUALSTYLE
  5
853E
102
{ACAD_REACTORS
330
8534
102
}
330
8534
100
AcDbVisualStyle
  2
Realistic
 70
     8
 71
     2
 72
     2
 73
     0
 90
        0
 40
-0.6
 41
-30.0
 62
     5
 63
     7
421
 16777215
 74
     1
 91
        0
 64
     7
 65
   257
 75
     1
175
     1
 42
1.0
 92
        8
 66
     8
424
  7895160
 43
1.0
 76
     1
 77
     6
 78
     2
 67
     7
 79
     5
170
     0
171
     0
290
     0
174
     0
 93
       13
 44
0.0
173
     0
291
     0
 45
0.0
  0
VISUALSTYLE
  5
8541
102
{ACAD_REACTORS
330
8534
102
}
330
8534
100
AcDbVisualStyle
  2
Thicken
 70
    13
 71
     2
 72
     2
 73
     0
 90
        0
 40
-0.6
 41
-30.0
 62
     5
 63
     7
421
 16777215
 74
     1
 91
        4
 64
     7
 65
   257
 75
     1
175
     1
 42
1.0
 92
       12
 66
     7
 43
1.0
 76
     1
 77
     6
 78
     2
 67
     7
 79
     5
170
     0
171
     0
290
     0
174
     0
 93
        1
 44
0.0
173
     0
291
     1
 45
0.0
  0
DICTIONARYVAR
  5
862B
102
{ACAD_REACTORS
330
29E
102
}
330
29E
100
DictionaryVariables
280
     0
  1
1:4
  0
DICTIONARYVAR
  5
8629
102
{ACAD_REACTORS
330
29E
102
}
330
29E
100
DictionaryVariables
280
     0
  1
STANDARD
  0
DICTIONARYVAR
  5
73BC
102
{ACAD_REACTORS
330
29E
102
}
330
29E
100
DictionaryVariables
280
     0
  1
STANDARD
  0
DICTIONARYVAR
  5
73BD
102
{ACAD_REACTORS
330
29E
102
}
330
29E
100
DictionaryVariables
280
     0
  1
1
  0
DICTIONARYVAR
  5
C375
102
{ACAD_REACTORS
330
29E
102
}
330
29E
100
DictionaryVariables
280
     0
  1
1
  0
DICTIONARYVAR
  5
C376
102
{ACAD_REACTORS
330
29E
102
}
330
29E
100
DictionaryVariables
280
     0
  1
15
  0
DICTIONARYVAR
  5
862C
102
{ACAD_REACTORS
330
29E
102
}
330
29E
100
DictionaryVariables
280
     0
  1
0
  0
DICTIONARYVAR
  5
862A
102
{ACAD_REACTORS
330
29E
102
}
330
29E
100
DictionaryVariables
280
     0
  1
0
  0
DICTIONARYVAR
  5
73BE
102
{ACAD_REACTORS
330
29E
102
}
330
29E
100
DictionaryVariables
280
     0
  1

  0
DICTIONARYVAR
  5
29F
102
{ACAD_REACTORS
330
29E
102
}
330
29E
100
DictionaryVariables
280
     0
  1
96
  0
DICTIONARY
  5
9EA6
102
{ACAD_REACTORS
330
85C9
102
}
330
85C9
100
AcDbDictionary
281
     1
  0
DICTIONARY
  5
85D4
102
{ACAD_REACTORS
330
85C9
102
}
330
85C9
100
AcDbDictionary
281
     1
  0
XRECORD
  5
85F5
102
{ACAD_REACTORS
330
85C9
102
}
330
85C9
100
AcDbXrecord
280
     1
 90
-1023410169
  0
DICTIONARY
  5
8525
330
8524
100
AcDbDictionary
280
     1
281
     1
  3
BUMPTILE
360
8527
  3
DIFFUSETILE
360
8526
  3
OPACITYTILE
360
852A
  3
REFLECTIONTILE
360
8529
  3
REFRACTIONTILE
360
852B
  3
SPECULARTILE
360
8528
  0
DICTIONARY
  5
851D
330
851C
100
AcDbDictionary
280
     1
281
     1
  3
BUMPTILE
360
851F
  3
DIFFUSETILE
360
851E
  3
OPACITYTILE
360
8522
  3
REFLECTIONTILE
360
8521
  3
REFRACTIONTILE
360
8523
  3
SPECULARTILE
360
8520
  0
DICTIONARY
  5
852D
330
852C
100
AcDbDictionary
280
     1
281
     1
  3
BUMPTILE
360
852F
  3
DIFFUSETILE
360
852E
  3
OPACITYTILE
360
8532
  3
REFLECTIONTILE
360
8531
  3
REFRACTIONTILE
360
8533
  3
SPECULARTILE
360
8530
  0
DICTIONARY
  5
8626
330
7389
100
AcDbDictionary
280
     1
281
     1
  3
ACAD_ROUNDTRIP_2008_TABLESTYLE_CELLSTYLEMAP
360
E8FA
  0
XRECORD
  5
8527
102
{ACAD_REACTORS
330
8525
102
}
330
8525
100
AcDbXrecord
280
     1
270
     1
271
     1
  0
XRECORD
  5
8526
102
{ACAD_REACTORS
330
8525
102
}
330
8525
100
AcDbXrecord
280
     1
270
     1
271
     1
  0
XRECORD
  5
852A
102
{ACAD_REACTORS
330
8525
102
}
330
8525
100
AcDbXrecord
280
     1
270
     1
271
     1
  0
XRECORD
  5
8529
102
{ACAD_REACTORS
330
8525
102
}
330
8525
100
AcDbXrecord
280
     1
270
     1
271
     1
  0
XRECORD
  5
852B
102
{ACAD_REACTORS
330
8525
102
}
330
8525
100
AcDbXrecord
280
     1
270
     1
271
     1
  0
XRECORD
  5
8528
102
{ACAD_REACTORS
330
8525
102
}
330
8525
100
AcDbXrecord
280
     1
270
     1
271
     1
  0
XRECORD
  5
851F
102
{ACAD_REACTORS
330
851D
102
}
330
851D
100
AcDbXrecord
280
     1
270
     1
271
     1
  0
XRECORD
  5
851E
102
{ACAD_REACTORS
330
851D
102
}
330
851D
100
AcDbXrecord
280
     1
270
     1
271
     1
  0
XRECORD
  5
8522
102
{ACAD_REACTORS
330
851D
102
}
330
851D
100
AcDbXrecord
280
     1
270
     1
271
     1
  0
XRECORD
  5
8521
102
{ACAD_REACTORS
330
851D
102
}
330
851D
100
AcDbXrecord
280
     1
270
     1
271
     1
  0
XRECORD
  5
8523
102
{ACAD_REACTORS
330
851D
102
}
330
851D
100
AcDbXrecord
280
     1
270
     1
271
     1
  0
XRECORD
  5
8520
102
{ACAD_REACTORS
330
851D
102
}
330
851D
100
AcDbXrecord
280
     1
270
     1
271
     1
  0
XRECORD
  5
852F
102
{ACAD_REACTORS
330
852D
102
}
330
852D
100
AcDbXrecord
280
     1
270
     1
271
     1
  0
XRECORD
  5
852E
102
{ACAD_REACTORS
330
852D
102
}
330
852D
100
AcDbXrecord
280
     1
270
     1
271
     1
  0
XRECORD
  5
8532
102
{ACAD_REACTORS
330
852D
102
}
330
852D
100
AcDbXrecord
280
     1
270
     1
271
     1
  0
XRECORD
  5
8531
102
{ACAD_REACTORS
330
852D
102
}
330
852D
100
AcDbXrecord
280
     1
270
     1
271
     1
  0
XRECORD
  5
8533
102
{ACAD_REACTORS
330
852D
102
}
330
852D
100
AcDbXrecord
280
     1
270
     1
271
     1
  0
XRECORD
  5
8530
102
{ACAD_REACTORS
330
852D
102
}
330
852D
100
AcDbXrecord
280
     1
270
     1
271
     1
  0
CELLSTYLEMAP
  5
E8FA
102
{ACAD_REACTORS
330
8626
102
}
330
8626
100
AcDbCellStyleMap
 90
        3
300
CELLSTYLE
  1
TABLEFORMAT_BEGIN
 90
        5
170
     1
 91
        0
 92
    32768
 62
   257
 93
        1
300
CONTENTFORMAT
  1
CONTENTFORMAT_BEGIN
 90
        0
 91
        0
 92
        4
 93
        0
300

 40
0.0
140
1.0
 94
        5
 62
     0
340
10
144
0.25
309
CONTENTFORMAT_END
171
     1
301
MARGIN
  1
CELLMARGIN_BEGIN
 40
0.06
 40
0.06
 40
0.06
 40
0.06
 40
0.18
 40
0.18
309
CELLMARGIN_END
 94
        6
 95
        1
302
GRIDFORMAT
  1
GRIDFORMAT_BEGIN
 90
        0
 91
        1
 62
     0
 92
       -2
340
0
 93
        0
 40
0.045
309
GRIDFORMAT_END
 95
        2
302
GRIDFORMAT
  1
GRIDFORMAT_BEGIN
 90
        0
 91
        1
 62
     0
 92
       -2
340
0
 93
        0
 40
0.045
309
GRIDFORMAT_END
 95
        4
302
GRIDFORMAT
  1
GRIDFORMAT_BEGIN
 90
        0
 91
        1
 62
     0
 92
       -2
340
0
 93
        0
 40
0.045
309
GRIDFORMAT_END
 95
        8
302
GRIDFORMAT
  1
GRIDFORMAT_BEGIN
 90
        0
 91
        1
 62
     0
 92
       -2
340
0
 93
        0
 40
0.045
309
GRIDFORMAT_END
 95
       16
302
GRIDFORMAT
  1
GRIDFORMAT_BEGIN
 90
        0
 91
        1
 62
     0
 92
       -2
340
0
 93
        0
 40
0.045
309
GRIDFORMAT_END
 95
       32
302
GRIDFORMAT
  1
GRIDFORMAT_BEGIN
 90
        0
 91
        1
 62
     0
 92
       -2
340
0
 93
        0
 40
0.045
309
GRIDFORMAT_END
309
TABLEFORMAT_END
  1
CELLSTYLE_BEGIN
 90
        1
 91
        1
300
_TITLE
309
CELLSTYLE_END
300
CELLSTYLE
  1
TABLEFORMAT_BEGIN
 90
        5
170
     1
 91
        0
 92
        0
 62
   257
 93
        1
300
CONTENTFORMAT
  1
CONTENTFORMAT_BEGIN
 90
        0
 91
        0
 92
        4
 93
        0
300

 40
0.0
140
1.0
 94
        5
 62
     0
340
10
144
0.18
309
CONTENTFORMAT_END
171
     1
301
MARGIN
  1
CELLMARGIN_BEGIN
 40
0.06
 40
0.06
 40
0.06
 40
0.06
 40
0.18
 40
0.18
309
CELLMARGIN_END
 94
        6
 95
        1
302
GRIDFORMAT
  1
GRIDFORMAT_BEGIN
 90
        0
 91
        1
 62
     0
 92
       -2
340
0
 93
        0
 40
0.045
309
GRIDFORMAT_END
 95
        2
302
GRIDFORMAT
  1
GRIDFORMAT_BEGIN
 90
        0
 91
        1
 62
     0
 92
       -2
340
0
 93
        0
 40
0.045
309
GRIDFORMAT_END
 95
        4
302
GRIDFORMAT
  1
GRIDFORMAT_BEGIN
 90
        0
 91
        1
 62
     0
 92
       -2
340
0
 93
        0
 40
0.045
309
GRIDFORMAT_END
 95
        8
302
GRIDFORMAT
  1
GRIDFORMAT_BEGIN
 90
        0
 91
        1
 62
     0
 92
       -2
340
0
 93
        0
 40
0.045
309
GRIDFORMAT_END
 95
       16
302
GRIDFORMAT
  1
GRIDFORMAT_BEGIN
 90
        0
 91
        1
 62
     0
 92
       -2
340
0
 93
        0
 40
0.045
309
GRIDFORMAT_END
 95
       32
302
GRIDFORMAT
  1
GRIDFORMAT_BEGIN
 90
        0
 91
        1
 62
     0
 92
       -2
340
0
 93
        0
 40
0.045
309
GRIDFORMAT_END
309
TABLEFORMAT_END
  1
CELLSTYLE_BEGIN
 90
        2
 91
        1
300
_HEADER
309
CELLSTYLE_END
300
CELLSTYLE
  1
TABLEFORMAT_BEGIN
 90
        5
170
     1
 91
        0
 92
        0
 62
   257
 93
        1
300
CONTENTFORMAT
  1
CONTENTFORMAT_BEGIN
 90
        0
 91
        0
 92
        4
 93
        0
300

 40
0.0
140
1.0
 94
        2
 62
     0
340
10
144
0.18
309
CONTENTFORMAT_END
171
     1
301
MARGIN
  1
CELLMARGIN_BEGIN
 40
0.06
 40
0.06
 40
0.06
 40
0.06
 40
0.18
 40
0.18
309
CELLMARGIN_END
 94
        6
 95
        1
302
GRIDFORMAT
  1
GRIDFORMAT_BEGIN
 90
        0
 91
        1
 62
     0
 92
       -2
340
0
 93
        0
 40
0.045
309
GRIDFORMAT_END
 95
        2
302
GRIDFORMAT
  1
GRIDFORMAT_BEGIN
 90
        0
 91
        1
 62
     0
 92
       -2
340
0
 93
        0
 40
0.045
309
GRIDFORMAT_END
 95
        4
302
GRIDFORMAT
  1
GRIDFORMAT_BEGIN
 90
        0
 91
        1
 62
     0
 92
       -2
340
0
 93
        0
 40
0.045
309
GRIDFORMAT_END
 95
        8
302
GRIDFORMAT
  1
GRIDFORMAT_BEGIN
 90
        0
 91
        1
 62
     0
 92
       -2
340
0
 93
        0
 40
0.045
309
GRIDFORMAT_END
 95
       16
302
GRIDFORMAT
  1
GRIDFORMAT_BEGIN
 90
        0
 91
        1
 62
     0
 92
       -2
340
0
 93
        0
 40
0.045
309
GRIDFORMAT_END
 95
       32
302
GRIDFORMAT
  1
GRIDFORMAT_BEGIN
 90
        0
 91
        1
 62
     0
 92
       -2
340
0
 93
        0
 40
0.045
309
GRIDFORMAT_END
309
TABLEFORMAT_END
  1
CELLSTYLE_BEGIN
 90
        3
 91
        2
300
_DATA
309
CELLSTYLE_END
  0
ENDSEC
  0
EOF
