  0
SECTION
  2
HEADER
  9
$ACADVER
  1
AC1021
  9
$ACADMAINTVER
 70
    26
  9
$DWGCODEPAGE
  3
ANSI_932
  9
$LASTSAVEDBY
  1
Htm_Terada
  9
$CUSTOMPROPERTYTAG
  1
AmdtFileType
  9
$CUSTOMPROPERTY
  1
84
  9
$INSBASE
 10
0.0
 20
0.0
 30
0.0
  9
$EXTMIN
 10
365.5086446351887
 20
418.7910624101448
 30
0.0
  9
$EXTMAX
 10
920.2555404003373
 20
806.7910624101449
 30
0.0
  9
$LIMMIN
 10
0.0000005743015663
 20
0.0000011081461935
  9
$LIMMAX
 10
1260.000000574301
 20
891.0000011081463
  9
$ORTHOMODE
 70
     0
  9
$REGENMODE
 70
     1
  9
$FILLMODE
 70
     1
  9
$QTEXTMODE
 70
     0
  9
$MIRRTEXT
 70
     1
  9
$LTSCALE
 40
3.0
  9
$ATTMODE
 70
     1
  9
$TEXTSIZE
 40
25.0
  9
$TRACEWID
 40
1.0
  9
$TEXTSTYLE
  7
SEISA
  9
$CLAYER
  8
AM_11 想像線
  9
$CELTYPE
  6
ByLayer
  9
$CECOLOR
 62
   256
  9
$CELTSCALE
 40
1.0
  9
$DISPSILH
 70
     0
  9
$DIMSCALE
 40
3.0
  9
$DIMASZ
 40
2.5
  9
$DIMEXO
 40
1.0
  9
$DIMDLI
 40
10.0
  9
$DIMRND
 40
0.0
  9
$DIMDLE
 40
0.0
  9
$DIMEXE
 40
1.0
  9
$DIMTP
 40
0.1
  9
$DIMTM
 40
0.1
  9
$DIMTXT
 40
3.5
  9
$DIMCEN
 40
0.0
  9
$DIMTSZ
 40
0.0
  9
$DIMTOL
 70
     0
  9
$DIMLIM
 70
     0
  9
$DIMTIH
 70
     0
  9
$DIMTOH
 70
     0
  9
$DIMSE1
 70
     0
  9
$DIMSE2
 70
     0
  9
$DIMTAD
 70
     3
  9
$DIMZIN
 70
     8
  9
$DIMBLK
  1
Open30
  9
$DIMASO
 70
     1
  9
$DIMSHO
 70
     1
  9
$DIMPOST
  1

  9
$DIMAPOST
  1
"
  9
$DIMALT
 70
     0
  9
$DIMALTD
 70
     2
  9
$DIMALTF
 40
0.0393701
  9
$DIMLFAC
 40
1.0
  9
$DIMTOFL
 70
     1
  9
$DIMTVP
 40
0.0
  9
$DIMTIX
 70
     0
  9
$DIMSOXD
 70
     0
  9
$DIMSAH
 70
     0
  9
$DIMBLK1
  1

  9
$DIMBLK2
  1

  9
$DIMSTYLE
  2
SEISA
  9
$DIMCLRD
 70
     3
  9
$DIMCLRE
 70
     3
  9
$DIMCLRT
 70
     3
  9
$DIMTFAC
 40
0.71
  9
$DIMGAP
 40
1.5
  9
$DIMJUST
 70
     0
  9
$DIMSD1
 70
     0
  9
$DIMSD2
 70
     0
  9
$DIMTOLJ
 70
     0
  9
$DIMTZIN
 70
     8
  9
$DIMALTZ
 70
     0
  9
$DIMALTTZ
 70
     8
  9
$DIMUPT
 70
     0
  9
$DIMDEC
 70
     2
  9
$DIMTDEC
 70
     2
  9
$DIMALTU
 70
     2
  9
$DIMALTTD
 70
     2
  9
$DIMTXSTY
  7
SEISA
  9
$DIMAUNIT
 70
     0
  9
$DIMADEC
 70
     0
  9
$DIMALTRND
 40
0.0
  9
$DIMAZIN
 70
     2
  9
$DIMDSEP
 70
    46
  9
$DIMATFIT
 70
     3
  9
$DIMFRAC
 70
     0
  9
$DIMLDRBLK
  1
Open30
  9
$DIMLUNIT
 70
     2
  9
$DIMLWD
 70
    -1
  9
$DIMLWE
 70
    -1
  9
$DIMTMOVE
 70
     0
  9
$DIMFXL
 40
1.0
  9
$DIMFXLON
 70
     0
  9
$DIMJOGANG
 40
0.7853981633974483
  9
$DIMTFILL
 70
     0
  9
$DIMTFILLCLR
 70
     0
  9
$DIMARCSYM
 70
     1
  9
$DIMLTYPE
  6

  9
$DIMLTEX1
  6

  9
$DIMLTEX2
  6

  9
$LUNITS
 70
     2
  9
$LUPREC
 70
     2
  9
$SKETCHINC
 40
1.0
  9
$FILLETRAD
 40
7.5
  9
$AUNITS
 70
     0
  9
$AUPREC
 70
     0
  9
$MENU
  1
.
  9
$ELEVATION
 40
0.0
  9
$PELEVATION
 40
0.0
  9
$THICKNESS
 40
0.0
  9
$LIMCHECK
 70
     0
  9
$CHAMFERA
 40
1.999999999999885
  9
$CHAMFERB
 40
2.0
  9
$CHAMFERC
 40
1.999999999999885
  9
$CHAMFERD
 40
0.7853981633974767
  9
$SKPOLY
 70
     0
  9
$TDCREATE
 40
2454902.764421250
  9
$TDUCREATE
 40
2454902.389421250
  9
$TDUPDATE
 40
2456478.693643298
  9
$TDUUPDATE
 40
2456478.318643299
  9
$TDINDWG
 40
0.2529746412
  9
$TDUSRTIMER
 40
0.2529740972
  9
$USRTIMER
 70
     1
  9
$ANGBASE
 50
0.0
  9
$ANGDIR
 70
     0
  9
$PDMODE
 70
     0
  9
$PDSIZE
 40
0.0
  9
$PLINEWID
 40
0.0
  9
$SPLFRAME
 70
     0
  9
$SPLINETYPE
 70
     6
  9
$SPLINESEGS
 70
     8
  9
$HANDSEED
  5
88E7
  9
$SURFTAB1
 70
     6
  9
$SURFTAB2
 70
     6
  9
$SURFTYPE
 70
     6
  9
$SURFU
 70
     6
  9
$SURFV
 70
     6
  9
$UCSBASE
  2

  9
$UCSNAME
  2

  9
$UCSORG
 10
0.0
 20
0.0
 30
0.0
  9
$UCSXDIR
 10
1.0
 20
0.0
 30
0.0
  9
$UCSYDIR
 10
0.0
 20
1.0
 30
0.0
  9
$UCSORTHOREF
  2

  9
$UCSORTHOVIEW
 70
     0
  9
$UCSORGTOP
 10
0.0
 20
0.0
 30
0.0
  9
$UCSORGBOTTOM
 10
0.0
 20
0.0
 30
0.0
  9
$UCSORGLEFT
 10
0.0
 20
0.0
 30
0.0
  9
$UCSORGRIGHT
 10
0.0
 20
0.0
 30
0.0
  9
$UCSORGFRONT
 10
0.0
 20
0.0
 30
0.0
  9
$UCSORGBACK
 10
0.0
 20
0.0
 30
0.0
  9
$PUCSBASE
  2

  9
$PUCSNAME
  2

  9
$PUCSORG
 10
0.0
 20
0.0
 30
0.0
  9
$PUCSXDIR
 10
1.0
 20
0.0
 30
0.0
  9
$PUCSYDIR
 10
0.0
 20
1.0
 30
0.0
  9
$PUCSORTHOREF
  2

  9
$PUCSORTHOVIEW
 70
     0
  9
$PUCSORGTOP
 10
0.0
 20
0.0
 30
0.0
  9
$PUCSORGBOTTOM
 10
0.0
 20
0.0
 30
0.0
  9
$PUCSORGLEFT
 10
0.0
 20
0.0
 30
0.0
  9
$PUCSORGRIGHT
 10
0.0
 20
0.0
 30
0.0
  9
$PUCSORGFRONT
 10
0.0
 20
0.0
 30
0.0
  9
$PUCSORGBACK
 10
0.0
 20
0.0
 30
0.0
  9
$USERI1
 70
     0
  9
$USERI2
 70
     0
  9
$USERI3
 70
     0
  9
$USERI4
 70
     0
  9
$USERI5
 70
     0
  9
$USERR1
 40
0.0
  9
$USERR2
 40
0.0
  9
$USERR3
 40
0.0
  9
$USERR4
 40
0.0
  9
$USERR5
 40
0.0
  9
$WORLDVIEW
 70
     1
  9
$SHADEDGE
 70
     3
  9
$SHADEDIF
 70
    70
  9
$TILEMODE
 70
     1
  9
$MAXACTVP
 70
    64
  9
$PINSBASE
 10
0.0
 20
0.0
 30
0.0
  9
$PLIMCHECK
 70
     0
  9
$PEXTMIN
 10
1.000000000000000E+20
 20
1.000000000000000E+20
 30
1.000000000000000E+20
  9
$PEXTMAX
 10
-1.000000000000000E+20
 20
-1.000000000000000E+20
 30
-1.000000000000000E+20
  9
$PLIMMIN
 10
0.0
 20
0.0
  9
$PLIMMAX
 10
420.0
 20
297.0
  9
$UNITMODE
 70
     0
  9
$VISRETAIN
 70
     1
  9
$PLINEGEN
 70
     0
  9
$PSLTSCALE
 70
     1
  9
$TREEDEPTH
 70
  3020
  9
$CMLSTYLE
  2
Standard
  9
$CMLJUST
 70
     0
  9
$CMLSCALE
 40
20.0
  9
$PROXYGRAPHICS
 70
     1
  9
$MEASUREMENT
 70
     1
  9
$CELWEIGHT
370
    -1
  9
$ENDCAPS
280
     0
  9
$JOINSTYLE
280
     0
  9
$LWDISPLAY
290
     0
  9
$INSUNITS
 70
     4
  9
$HYPERLINKBASE
  1

  9
$STYLESHEET
  1
SEISA.CTB
  9
$XEDIT
290
     1
  9
$CEPSNTYPE
380
     0
  9
$PSTYLEMODE
290
     1
  9
$FINGERPRINTGUID
  2
{6E3DC1E1-69E8-49BC-9F40-635B2AE51C92}
  9
$VERSIONGUID
  2
{A38A8897-73E7-4B3A-B6C0-2A7EC9CA1CAF}
  9
$EXTNAMES
290
     1
  9
$PSVPSCALE
 40
0.0
  9
$OLESTARTUP
290
     0
  9
$SORTENTS
280
   127
  9
$INDEXCTL
280
     0
  9
$HIDETEXT
280
     0
  9
$XCLIPFRAME
290
     0
  9
$HALOGAP
280
     0
  9
$OBSCOLOR
 70
   257
  9
$OBSLTYPE
280
     0
  9
$INTERSECTIONDISPLAY
280
     0
  9
$INTERSECTIONCOLOR
 70
   257
  9
$DIMASSOC
280
     2
  9
$PROJECTNAME
  1

  9
$CAMERADISPLAY
290
     0
  9
$LENSLENGTH
 40
50.0
  9
$CAMERAHEIGHT
 40
0.0
  9
$STEPSPERSEC
 40
2.0
  9
$STEPSIZE
 40
6.0
  9
$3DDWFPREC
 40
2.0
  9
$PSOLWIDTH
 40
0.25
  9
$PSOLHEIGHT
 40
4.0
  9
$LOFTANG1
 40
1.570796326794896
  9
$LOFTANG2
 40
1.570796326794896
  9
$LOFTMAG1
 40
0.0
  9
$LOFTMAG2
 40
0.0
  9
$LOFTPARAM
 70
     7
  9
$LOFTNORMALS
280
     1
  9
$LATITUDE
 40
37.795
  9
$LONGITUDE
 40
-122.394
  9
$NORTHDIRECTION
 40
0.0
  9
$TIMEZONE
 70
 -8000
  9
$LIGHTGLYPHDISPLAY
280
     1
  9
$TILEMODELIGHTSYNCH
280
     1
  9
$CMATERIAL
347
27C
  9
$SOLIDHIST
280
     1
  9
$SHOWHIST
280
     1
  9
$DWFFRAME
280
     2
  9
$DGNFRAME
280
     0
  9
$REALWORLDSCALE
290
     1
  9
$INTERFERECOLOR
 62
     1
  9
$INTERFEREOBJVS
345
289
  9
$INTERFEREVPVS
346
286
  9
$CSHADOW
280
     0
  9
$SHADOWPLANELOCATION
 40
0.0
  0
ENDSEC
  0
SECTION
  2
CLASSES
  0
CLASS
  1
ACDBDICTIONARYWDFLT
  2
AcDbDictionaryWithDefault
  3
ObjectDBX Classes
 90
        0
 91
        1
280
     0
281
     0
  0
CLASS
  1
AMGSETTINGSOBJ
  2
AmgSettingsObj
  3
"AcadM|Product Description: AutoCAD Mechanical|Company: Autodesk, Inc."
 90
     1024
 91
        2
280
     0
281
     0
  0
CLASS
  1
ACME_DOCUMENT
  2
AcMeDbDoc
  3
AcMeServices
 90
     1024
 91
        1
280
     0
281
     0
  0
CLASS
  1
ACMESCOPE
  2
AcMeScope
  3
AcMeServices
 90
     1024
 91
        1
280
     0
281
     0
  0
CLASS
  1
ACMECOMMANDHISTORY
  2
AcMeCommandHistory
  3
AcMeServices
 90
     1024
 91
        1
280
     0
281
     0
  0
CLASS
  1
DICTIONARYVAR
  2
AcDbDictionaryVar
  3
ObjectDBX Classes
 90
        0
 91
        9
280
     0
281
     0
  0
CLASS
  1
ACIMSYSVARMAN
  2
AcImSysVarManager
  3
AcMeServices
 90
     1024
 91
        5
280
     0
281
     0
  0
CLASS
  1
ACIMREALSYSVAR
  2
AcImRealSysVar
  3
AcMeServices
 90
     1024
 91
        1
280
     0
281
     0
  0
CLASS
  1
ACIMINTSYSVAR
  2
AcImIntSysVar
  3
AcMeServices
 90
     1024
 91
       27
280
     0
281
     0
  0
CLASS
  1
ACMEDRAWINGMAN
  2
AcMeDrawingMan
  3
AcMeServices
 90
     1024
 91
        1
280
     0
281
     0
  0
CLASS
  1
ACMEVIEW
  2
AcMeView
  3
AcMeServices
 90
     1024
 91
        1
280
     0
281
     0
  0
CLASS
  1
ACDBENTITYCACHE
  2
AcMeEntityCache
  3
AcMeServices
 90
     1024
 91
        1
280
     0
281
     0
  0
CLASS
  1
GSMANAGER
  2
AcMeGSManager
  3
AcMeServices
 90
     1024
 91
        1
280
     0
281
     0
  0
CLASS
  1
AMDTINTERNALREACTOR
  2
AmdtInternalReactor
  3
AcMeServices
 90
     1024
 91
        2
280
     0
281
     0
  0
CLASS
  1
ACMESTATEMGR
  2
AcMeStateMgr
  3
AcMeServices
 90
     1024
 91
        1
280
     0
281
     0
  0
CLASS
  1
ACGREFMASTER
  2
AcGrefMaster
  3
AcAttribServices
 90
     1024
 91
        1
280
     0
281
     0
  0
CLASS
  1
ACME_DATABASE
  2
AcMeDbDatabase
  3
AcMeServices
 90
     1024
 91
        1
280
     0
281
     0
  0
CLASS
  1
ACRFINSADJUSTERMGR
  2
AcRfInsAdjusterMgr
  3
AcMeServices
 90
     1024
 91
        1
280
     0
281
     0
  0
CLASS
  1
ACGREFACADMASTER
  2
AcGrefacadMaster
  3
AcGrefServices
 90
     1024
 91
        1
280
     0
281
     0
  0
CLASS
  1
AMIMASTER
  2
AmiMaster
  3
AmiServices
 90
     1024
 91
        1
280
     0
281
     0
  0
CLASS
  1
ACIMSTRSYSVAR
  2
AcImStrSysVar
  3
AcMeServices
 90
     1024
 91
        5
280
     0
281
     0
  0
CLASS
  1
ACMSTANDARDJIS
  2
AcmStandardJIS
  3
"Amdt_StdImp|Product Description: AutoCAD Mechanical|Company: Autodesk, Inc."
 90
     1024
 91
        0
280
     0
281
     0
  0
CLASS
  1
AMGOBJPROPCFG
  2
AmgObjPropCfg
  3
"AmgLay|Product Description: AutoCAD Mechanical|Company: Autodesk, Inc."
 90
     1025
 91
        1
280
     0
281
     0
  0
CLASS
  1
ACMSURFSTANDARDJIS
  2
AcmSurfTextStdJIS
  3
"Amdt_StdImp|Product Description: AutoCAD Mechanical|Company: Autodesk, Inc."
 90
     1024
 91
        0
280
     0
281
     0
  0
CLASS
  1
ACMFCFSTANDARDJIS
  2
AcmFCFStdJIS
  3
"Amdt_StdImp|Product Description: AutoCAD Mechanical|Company: Autodesk, Inc."
 90
     1024
 91
        0
280
     0
281
     0
  0
CLASS
  1
ACMWELDSTANDARDJIS
  2
AcmWeldingStdJIS
  3
"Amdt_StdImp|Product Description: AutoCAD Mechanical|Company: Autodesk, Inc."
 90
     1024
 91
        0
280
     0
281
     0
  0
CLASS
  1
ACMIDSTANDARDJIS
  2
AcmIdStdJIS
  3
"Amdt_StdImp|Product Description: AutoCAD Mechanical|Company: Autodesk, Inc."
 90
     1024
 91
        0
280
     0
281
     0
  0
CLASS
  1
ACMDATUMSTANDARDJIS
  2
AcmDatumStdJIS
  3
"Amdt_StdImp|Product Description: AutoCAD Mechanical|Company: Autodesk, Inc."
 90
     1024
 91
        0
280
     0
281
     0
  0
CLASS
  1
ACMBOMSTANDARDJIS
  2
AcmBOMStdJIS
  3
"Amdt_StdImp|Product Description: AutoCAD Mechanical|Company: Autodesk, Inc."
 90
     1024
 91
        0
280
     0
281
     0
  0
CLASS
  1
ACMDETAILSTANDARDJIS
  2
AmdtDetailSymStdJIS
  3
"Amdt_StdImp|Product Description: AutoCAD Mechanical|Company: Autodesk, Inc."
 90
     1024
 91
        0
280
     0
281
     0
  0
CLASS
  1
ACMSECTIONSTANDARDJIS
  2
AmdtSectionSymStdJIS
  3
"Amdt_StdImp|Product Description: AutoCAD Mechanical|Company: Autodesk, Inc."
 90
     1024
 91
        0
280
     0
281
     0
  0
CLASS
  1
ACMCENTERLINESTANDARDJIS
  2
AmdtCenterLineStdJIS
  3
"Amdt_StdImp|Product Description: AutoCAD Mechanical|Company: Autodesk, Inc."
 90
     1024
 91
        0
280
     0
281
     0
  0
CLASS
  1
ACMTHREADLINESTANDARDJIS
  2
AmdtThreadLineStdJIS
  3
"Amdt_StdImp|Product Description: AutoCAD Mechanical|Company: Autodesk, Inc."
 90
     1024
 91
        0
280
     0
281
     0
  0
CLASS
  1
ACAMGLAYSTD
  2
AcAmgLayStd
  3
"AmgLay|Product Description: AutoCAD Mechanical|Company: Autodesk, Inc."
 90
     1024
 91
        1
280
     0
281
     0
  0
CLASS
  1
ACAMGDIMSTD
  2
AcAmgDimStd
  3
"AmgDim|Product Description: AutoCAD Mechanical|Company: Autodesk, Inc."
 90
     1024
 91
        1
280
     0
281
     0
  0
CLASS
  1
ACAMGTITLESTD
  2
AcAmgTitleStd
  3
"AmgTitle|Product Description: AutoCAD Mechanical|Company: Autodesk, Inc."
 90
     4095
 91
        1
280
     0
281
     0
  0
CLASS
  1
ACMDATADICTIONARY
  2
AcmDataDictionary
  3
"AcmSymBB|Product Description: AutoCAD Mechanical|Company: Autodesk, Inc."
 90
     1024
 91
        1
280
     0
281
     0
  0
CLASS
  1
ACMDATAENTRYBLOCK
  2
AcmDataEntryBlock
  3
AcmSymBB|Product Description: AutoCAD Mechanical|Company: Autodesk, Inc.
 90
     1024
 91
        0
280
     0
281
     0
  0
CLASS
  1
LAYER_INDEX
  2
AcDbLayerIndex
  3
ObjectDBX Classes
 90
        0
 91
        0
280
     0
281
     0
  0
CLASS
  1
IDBUFFER
  2
AcDbIdBuffer
  3
ObjectDBX Classes
 90
        0
 91
        0
280
     0
281
     0
  0
CLASS
  1
ACMNOTESTANDARDJIS
  2
AmdtNoteStdJIS
  3
"Amdt_StdImp|Product Description: AutoCAD Mechanical|Company: Autodesk, Inc."
 90
     1024
 91
        0
280
     0
281
     0
  0
CLASS
  1
ACAMGHOLECHARTSTDJIS
  2
AcAmgHoleChartStdJIS
  3
AmgDim|Product Description: AutoCAD Mechanical|Company: Autodesk, Inc.
 90
     1024
 91
        0
280
     0
281
     0
  0
CLASS
  1
AM_DRAWING_MGR
  2
AcDmDwgMgr
  3
AcMechDwgViewMgmt
 90
     1024
 91
        1
280
     0
281
     0
  0
CLASS
  1
AM_DWG_DOCUMENT
  2
AcDmDwgDocument
  3
AcMechDwgViewMgmt
 90
     1024
 91
        1
280
     0
281
     0
  0
CLASS
  1
AM_DWG_SHEET
  2
AcDmSheet
  3
AcMechDwgViewMgmt
 90
     1024
 91
        2
280
     0
281
     0
  0
CLASS
  1
AM_VIEWDIMPARMAP
  2
AcDmViewDimParMap
  3
AcMechDwgViewMgmt
 90
     1024
 91
        2
280
     0
281
     0
  0
CLASS
  1
AM_DWGMGR_NAME
  2
AcDmDwgMgrName
  3
AcMechDwgViewMgmt
 90
     1024
 91
        1
280
     0
281
     0
  0
CLASS
  1
AMDTMENUSTATEMGR
  2
AmdtMenuStateMgr
  3
McadcomServices
 90
     1024
 91
        1
280
     0
281
     0
  0
CLASS
  1
AMDTMCOMMENUSTATE
  2
AmdtMcomMenuState
  3
McadcomServices
 90
     1024
 91
        1
280
     0
281
     0
  0
CLASS
  1
MAPIAMMOUDLE
  2
MApiAmModule
  3
MApiAmServices
 90
     1024
 91
        1
280
     0
281
     0
  0
CLASS
  1
AMDTADMENUSTATE
  2
AmdtAdMenuState
  3
DesignerServices
 90
     1024
 91
        1
280
     0
281
     0
  0
CLASS
  1
ADAPPL
  2
AcAdAppl
  3
DesignerServices
 90
     1024
 91
        1
280
     0
281
     0
  0
CLASS
  1
DEPMGR
  2
AcAdDepMgr
  3
DesignerServices
 90
     1024
 91
        1
280
     0
281
     0
  0
CLASS
  1
PARAMMGR
  2
AcAdParamMgr
  3
DesignerServices
 90
     1024
 91
        1
280
     0
281
     0
  0
CLASS
  1
PARAMSCOPE
  2
AcAdParamScope
  3
DesignerServices
 90
     1024
 91
        1
280
     0
281
     0
  0
CLASS
  1
NAMEDAPPL
  2
AcAdNamedAppl
  3
DesignerServices
 90
     1024
 91
        1
280
     0
281
     0
  0
CLASS
  1
AMDTDMMENUSTATE
  2
AmdtDmMenuState
  3
AcMechDwgViewMgmt
 90
     1024
 91
        1
280
     0
281
     0
  0
CLASS
  1
AMDTAMMENUSTATE
  2
AmdtAmMenuState
  3
DesignerAssemblies
 90
     1024
 91
        1
280
     0
281
     0
  0
CLASS
  1
ACAMPROJECT
  2
AcAmProject
  3
DesignerAssemblies
 90
     1024
 91
        1
280
     0
281
     0
  0
CLASS
  1
ACAMGRCOMPDEF
  2
AcAmGrCompDef
  3
DesignerAssemblies
 90
     1024
 91
        1
280
     0
281
     0
  0
CLASS
  1
ACCMCONTEXT
  2
AcCmContext
  3
DesignerAssemblies
 90
     1024
 91
        1
280
     0
281
     0
  0
CLASS
  1
ACAMCOMPDEF
  2
AcAmCompDef
  3
DesignerAssemblies
 90
     1024
 91
        1
280
     0
281
     0
  0
CLASS
  1
ACAMCOMPDEFMGR
  2
AcAmCompDefMgr
  3
DesignerAssemblies
 90
     1024
 91
        1
280
     0
281
     0
  0
CLASS
  1
AMCONTEXTMGR
  2
AcAmContextMgr
  3
DesignerAssemblies
 90
     1024
 91
        1
280
     0
281
     0
  0
CLASS
  1
ACAMCONTEXTMODELER
  2
AcAmContextModeler
  3
DesignerAssemblies
 90
     1024
 91
        1
280
     0
281
     0
  0
CLASS
  1
CATALOGSTATE
  2
AcAmCatalogState
  3
DesignerAssemblies
 90
     1024
 91
        1
280
     0
281
     0
  0
CLASS
  1
ACAMGRCOMPDEFSET
  2
AcAmGrCompDefSet
  3
DesignerAssemblies
 90
     1024
 91
        1
280
     0
281
     0
  0
CLASS
  1
AMDTBROWSERDBTAB
  2
AmdtBrowserDbTab
  3
McadcomServices
 90
     1024
 91
        1
280
     0
281
     0
  0
CLASS
  1
CBROWSERAPPOBJECT
  2
CBrowserAppObject
  3
McadcomServices
 90
     1024
 91
        3
280
     0
281
     0
  0
CLASS
  1
DM_PLACEHOLDER
  2
AcDmSelsetPlaceholder
  3
AcMechDwgViewMgmt
 90
     1024
 91
        1
280
     0
281
     0
  0
CLASS
  1
TABLESTYLE
  2
AcDbTableStyle
  3
ObjectDBX Classes
 90
     4095
 91
        1
280
     0
281
     0
  0
CLASS
  1
VAACXREFPANELOBJECT
  2
VaAcXREFPanelObject
  3
VAAC_ADDIN
 90
        0
 91
        0
280
     0
281
     0
  0
CLASS
  1
VAACIMAGEINVENTORY
  2
VaAcImageInventory
  3
VAAC_ADDIN
 90
        0
 91
        0
280
     0
281
     0
  0
CLASS
  1
AMDTNOTETEMPLATEDB
  2
AmdtNoteTemplateDB
  3
AcmSymBB|Product Description: AutoCAD Mechanical|Company: Autodesk, Inc.
 90
     1024
 91
        6
280
     0
281
     0
  0
CLASS
  1
ACAMGFILTERDAT
  2
AcAmgFilterDat
  3
"AcadM|Product Description: AutoCAD Mechanical|Company: Autodesk, Inc."
 90
     1024
 91
        0
280
     0
281
     0
  0
CLASS
  1
MATERIAL
  2
AcDbMaterial
  3
ObjectDBX Classes
 90
     1153
 91
        3
280
     0
281
     0
  0
CLASS
  1
VISUALSTYLE
  2
AcDbVisualStyle
  3
ObjectDBX Classes
 90
     4095
 91
       16
280
     0
281
     0
  0
CLASS
  1
ACRFATTGENMGR
  2
AcRfAttGeneralMgr
  3
AcAttribServices
 90
     1024
 91
        0
280
     0
281
     0
  0
CLASS
  1
ACRFOBJATTMGR
  2
AcRfObjAttGroupMgr
  3
AcAttribServices
 90
     1024
 91
        0
280
     0
281
     0
  0
CLASS
  1
ACRFMCADAPIATTHOLDER
  2
AcRfMCADAPIAttHolder
  3
AcAttribServices
 90
     1024
 91
        0
280
     0
281
     0
  0
CLASS
  1
AMDTSYSATTR
  2
AmdtSystemAttribute
  3
AcAttribServices
 90
     1024
 91
        0
280
     0
281
     0
  0
CLASS
  1
ACMTAPERSTANDARDJIS
  2
AcmTaperStdJIS
  3
"Amdt_StdImp|Product Description: AutoCAD Mechanical|Company: Autodesk, Inc."
 90
     1024
 91
        0
280
     0
281
     0
  0
CLASS
  1
CAMSSTRUCTBTNSTATE
  2
StructBtnState
  3
DesignerAssemblies
 90
     1024
 91
        0
280
     0
281
     0
  0
CLASS
  1
SCALE
  2
AcDbScale
  3
ObjectDBX Classes
 90
     1153
 91
       36
280
     0
281
     0
  0
CLASS
  1
MLEADERSTYLE
  2
AcDbMLeaderStyle
  3
ACDB_MLEADERSTYLE_CLASS
 90
     4095
 91
        1
280
     0
281
     0
  0
CLASS
  1
ACMANOOTATIONVIEWSTANDARDJIS
  2
AmdtAnViewStdJIS
  3
"Amdt_StdImp|Product Description: AutoCAD Mechanical|Company: Autodesk, Inc."
 90
     1024
 91
        0
280
     0
281
     0
  0
CLASS
  1
ACMSURFSTANDARDJIS2003
  2
AcmSurfTextStdJIS2003
  3
"Amdt_StdImp|Product Description: AutoCAD Mechanical|Company: Autodesk, Inc."
 90
     1024
 91
        0
280
     0
281
     0
  0
CLASS
  1
CELLSTYLEMAP
  2
AcDbCellStyleMap
  3
ObjectDBX Classes
 90
     1152
 91
        2
280
     0
281
     0
  0
CLASS
  1
ACMFCFSTANDARDJIS98
  2
AcmFCFStdJIS98
  3
"Amdt_StdImp|Product Description: AutoCAD Mechanical|Company: Autodesk, Inc."
 90
     1024
 91
        0
280
     0
281
     0
  0
CLASS
  1
SORTENTSTABLE
  2
AcDbSortentsTable
  3
ObjectDBX Classes
 90
        0
 91
       10
280
     0
281
     0
  0
CLASS
  1
DIMASSOC
  2
AcDbDimAssoc
  3
"AcDbDimAssoc|Product Desc:     AcDim ARX App For Dimension|Company:          Autodesk, Inc.|WEB Address:      www.autodesk.com"
 90
        0
 91
       15
280
     0
281
     0
  0
CLASS
  1
STDPART2D
  2
AmgStdPart
  3
AmgStdPart|Product Description: AutoCAD Mechanical|Company: Autodesk, Inc.
 90
     4095
 91
        0
280
     0
281
     1
  0
CLASS
  1
ACMDATAENTRYPART
  2
AcmDataEntryPart
  3
AcmSymBB|Product Description: AutoCAD Mechanical|Company: Autodesk, Inc.
 90
     1024
 91
        0
280
     0
281
     0
  0
CLASS
  1
ACMPARTREF
  2
AcmPartRef
  3
"AcmSymBB|Product Description: AutoCAD Mechanical|Company: Autodesk, Inc."
 90
     4095
 91
        0
280
     0
281
     1
  0
CLASS
  1
ACDBSTDPARTRES_LINE
  2
AcDbStdPartRes_Line
  3
AmgStdPart|Product Description: AutoCAD Mechanical|Company: Autodesk, Inc.
 90
     1024
 91
        0
280
     0
281
     0
  0
CLASS
  1
ACMBOM
  2
AcmBom
  3
"AcmSymBB|Product Description: AutoCAD Mechanical|Company: Autodesk, Inc."
 90
     1024
 91
        0
280
     0
281
     0
  0
CLASS
  1
AMDTFORMULAUPDATEDISPATCHER
  2
AmdtFormulaUpdateDispatcher
  3
AcMeServices
 90
     1024
 91
        0
280
     0
281
     0
  0
CLASS
  1
ACMBOMROW
  2
AcmBomRow
  3
"AcmSymBB|Product Description: AutoCAD Mechanical|Company: Autodesk, Inc."
 90
     1024
 91
        0
280
     0
281
     0
  0
CLASS
  1
ACMPARTLIST
  2
AcmPartList
  3
"AcmSymBB|Product Description: AutoCAD Mechanical|Company: Autodesk, Inc."
 90
     4095
 91
        0
280
     0
281
     1
  0
CLASS
  1
ACDBLINERES
  2
AcDbLineRes
  3
AcGrefServices
 90
     1024
 91
        0
280
     0
281
     0
  0
CLASS
  1
ACRFINSADJ
  2
AcRfInsAdjuster
  3
AcMeServices
 90
     1024
 91
        0
280
     0
281
     0
  0
CLASS
  1
ACMSTANDARDISO
  2
AcmStandardISO
  3
"Amdt_StdImp|Product Description: AutoCAD Mechanical|Company: Autodesk, Inc."
 90
     1024
 91
        1
280
     0
281
     0
  0
CLASS
  1
AMDTEDGESTANDARDISO13715
  2
AmdtEdgeStdISO13715
  3
"Amdt_StdImp|Product Description: AutoCAD Mechanical|Company: Autodesk, Inc."
 90
     1024
 91
        1
280
     0
281
     0
  0
CLASS
  1
ACMSURFSTANDARDISO2002
  2
AcmSurfTextStdISO2002
  3
"Amdt_StdImp|Product Description: AutoCAD Mechanical|Company: Autodesk, Inc."
 90
     1024
 91
        1
280
     0
281
     0
  0
CLASS
  1
ACMFCFSTANDARDISO
  2
AcmFCFStdISO
  3
"Amdt_StdImp|Product Description: AutoCAD Mechanical|Company: Autodesk, Inc."
 90
     1024
 91
        1
280
     0
281
     0
  0
CLASS
  1
ACMWELDSTANDARDISO
  2
AcmWeldingStdISO
  3
"Amdt_StdImp|Product Description: AutoCAD Mechanical|Company: Autodesk, Inc."
 90
     1024
 91
        1
280
     0
281
     0
  0
CLASS
  1
ACMIDSTANDARDISO
  2
AcmIdStdISO
  3
"Amdt_StdImp|Product Description: AutoCAD Mechanical|Company: Autodesk, Inc."
 90
     1024
 91
        1
280
     0
281
     0
  0
CLASS
  1
ACMDATUMSTANDARDISO
  2
AcmDatumStdISO
  3
"Amdt_StdImp|Product Description: AutoCAD Mechanical|Company: Autodesk, Inc."
 90
     1024
 91
        1
280
     0
281
     0
  0
CLASS
  1
ACMBOMSTANDARDISO
  2
AcmBOMStdISO
  3
"Amdt_StdImp|Product Description: AutoCAD Mechanical|Company: Autodesk, Inc."
 90
     1024
 91
        1
280
     0
281
     0
  0
CLASS
  1
ACMDETAILSTANDARDISO
  2
AmdtDetailSymStdISO
  3
"Amdt_StdImp|Product Description: AutoCAD Mechanical|Company: Autodesk, Inc."
 90
     1024
 91
        1
280
     0
281
     0
  0
CLASS
  1
ACMSECTIONSTANDARDISO2001
  2
AmdtSectionSymStdISO2001
  3
"Amdt_StdImp|Product Description: AutoCAD Mechanical|Company: Autodesk, Inc."
 90
     1024
 91
        1
280
     0
281
     0
  0
CLASS
  1
ACMCENTERLINESTANDARDISO
  2
AmdtCenterLineStdISO
  3
"Amdt_StdImp|Product Description: AutoCAD Mechanical|Company: Autodesk, Inc."
 90
     1024
 91
        1
280
     0
281
     0
  0
CLASS
  1
ACMTHREADLINESTANDARDISO
  2
AmdtThreadLineStdISO
  3
"Amdt_StdImp|Product Description: AutoCAD Mechanical|Company: Autodesk, Inc."
 90
     1024
 91
        1
280
     0
281
     0
  0
CLASS
  1
ACMNOTESTANDARDISO
  2
AmdtNoteStdISO
  3
"Amdt_StdImp|Product Description: AutoCAD Mechanical|Company: Autodesk, Inc."
 90
     1024
 91
        1
280
     0
281
     0
  0
CLASS
  1
ACMTAPERSTANDARDISO
  2
AcmTaperStdISO
  3
"Amdt_StdImp|Product Description: AutoCAD Mechanical|Company: Autodesk, Inc."
 90
     1024
 91
        1
280
     0
281
     0
  0
CLASS
  1
ACMANOOTATIONVIEWSTANDARDISO
  2
AmdtAnViewStdISO
  3
"Amdt_StdImp|Product Description: AutoCAD Mechanical|Company: Autodesk, Inc."
 90
     1024
 91
        1
280
     0
281
     0
  0
CLASS
  1
ACAMGHOLECHARTSTDISO
  2
AcAmgHoleChartStdISO
  3
AmgDim|Product Description: AutoCAD Mechanical|Company: Autodesk, Inc.
 90
     1024
 91
        1
280
     0
281
     0
  0
CLASS
  1
EXACXREFPANELOBJECT
  2
ExAcXREFPanelObject
  3
EXAC_ESW
 90
     1025
 91
        0
280
     0
281
     0
  0
CLASS
  1
NPOCOLLECTION
  2
AcDbImpNonPersistentObjectsCollection
  3
ObjectDBX Classes
 90
     1153
 91
        0
280
     0
281
     0
  0
CLASS
  1
ACDBSTDPARTRES_ARC
  2
AcDbStdPartRes_Arc
  3
AmgStdPart|Product Description: AutoCAD Mechanical|Company: Autodesk, Inc.
 90
     1024
 91
        0
280
     0
281
     0
  0
CLASS
  1
AMDTNOTE
  2
AmdtNote
  3
"AcmSymBB|Product Description: AutoCAD Mechanical|Company: Autodesk, Inc."
 90
     4095
 91
        0
280
     0
281
     1
  0
CLASS
  1
PLOTSETTINGS
  2
AcDbPlotSettings
  3
ObjectDBX Classes
 90
        0
 91
        1
280
     0
281
     0
  0
CLASS
  1
ACMSTANDARDANSI
  2
AcmStandardANSI
  3
"Amdt_StdImp|Product Description: AutoCAD Mechanical|Company: Autodesk, Inc."
 90
     1024
 91
        0
280
     0
281
     0
  0
CLASS
  1
ACMSURFSTANDARDANSI
  2
AcmSurfTextStdANSI
  3
"Amdt_StdImp|Product Description: AutoCAD Mechanical|Company: Autodesk, Inc."
 90
     1024
 91
        0
280
     0
281
     0
  0
CLASS
  1
ACMFCFSTANDARDANSI
  2
AcmFCFStdANSI
  3
"Amdt_StdImp|Product Description: AutoCAD Mechanical|Company: Autodesk, Inc."
 90
     1024
 91
        0
280
     0
281
     0
  0
CLASS
  1
ACMWELDSTANDARDANSI
  2
AcmWeldingStdANSI
  3
"Amdt_StdImp|Product Description: AutoCAD Mechanical|Company: Autodesk, Inc."
 90
     1024
 91
        0
280
     0
281
     0
  0
CLASS
  1
ACMIDSTANDARDANSI
  2
AcmIdStdANSI
  3
"Amdt_StdImp|Product Description: AutoCAD Mechanical|Company: Autodesk, Inc."
 90
     1024
 91
        0
280
     0
281
     0
  0
CLASS
  1
ACMDATUMSTANDARDANSI
  2
AcmDatumStdANSI
  3
"Amdt_StdImp|Product Description: AutoCAD Mechanical|Company: Autodesk, Inc."
 90
     1024
 91
        0
280
     0
281
     0
  0
CLASS
  1
ACMBOMSTANDARDANSI
  2
AcmBOMStdANSI
  3
"Amdt_StdImp|Product Description: AutoCAD Mechanical|Company: Autodesk, Inc."
 90
     1024
 91
        0
280
     0
281
     0
  0
CLASS
  1
ACMDETAILSTANDARDANSI
  2
AmdtDetailSymStdANSI
  3
"Amdt_StdImp|Product Description: AutoCAD Mechanical|Company: Autodesk, Inc."
 90
     1024
 91
        0
280
     0
281
     0
  0
CLASS
  1
ACMSECTIONSTANDARDANSI
  2
AmdtSectionSymStdANSI
  3
"Amdt_StdImp|Product Description: AutoCAD Mechanical|Company: Autodesk, Inc."
 90
     1024
 91
        0
280
     0
281
     0
  0
CLASS
  1
ACMCENTERLINESTANDARDANSI
  2
AmdtCenterLineStdANSI
  3
"Amdt_StdImp|Product Description: AutoCAD Mechanical|Company: Autodesk, Inc."
 90
     1024
 91
        0
280
     0
281
     0
  0
CLASS
  1
ACMTHREADLINESTANDARDANSI
  2
AmdtThreadLineStdANSI
  3
"Amdt_StdImp|Product Description: AutoCAD Mechanical|Company: Autodesk, Inc."
 90
     1024
 91
        0
280
     0
281
     0
  0
CLASS
  1
ACMNOTESTANDARDANSI
  2
AmdtNoteStdANSI
  3
"Amdt_StdImp|Product Description: AutoCAD Mechanical|Company: Autodesk, Inc."
 90
     1024
 91
        0
280
     0
281
     0
  0
CLASS
  1
ACMTAPERSTANDARDANSI
  2
AcmTaperStdANSI
  3
"Amdt_StdImp|Product Description: AutoCAD Mechanical|Company: Autodesk, Inc."
 90
     1024
 91
        0
280
     0
281
     0
  0
CLASS
  1
ACMANOOTATIONVIEWSTANDARDANSI
  2
AmdtAnViewStdANSI
  3
"Amdt_StdImp|Product Description: AutoCAD Mechanical|Company: Autodesk, Inc."
 90
     1024
 91
        0
280
     0
281
     0
  0
CLASS
  1
ACAMGHOLECHARTSTDANSI
  2
AcAmgHoleChartStdANSI
  3
AmgDim|Product Description: AutoCAD Mechanical|Company: Autodesk, Inc.
 90
     1024
 91
        0
280
     0
281
     0
  0
CLASS
  1
ACMSTANDARDBSI
  2
AcmStandardBSI
  3
"Amdt_StdImp|Product Description: AutoCAD Mechanical|Company: Autodesk, Inc."
 90
     1024
 91
        0
280
     0
281
     0
  0
CLASS
  1
ACMSURFSTANDARDBSI2002
  2
AcmSurfTextStdBSI2002
  3
"Amdt_StdImp|Product Description: AutoCAD Mechanical|Company: Autodesk, Inc."
 90
     1024
 91
        0
280
     0
281
     0
  0
CLASS
  1
ACMFCFSTANDARDBSI
  2
AcmFCFStdBSI
  3
"Amdt_StdImp|Product Description: AutoCAD Mechanical|Company: Autodesk, Inc."
 90
     1024
 91
        0
280
     0
281
     0
  0
CLASS
  1
ACMWELDSTANDARDBSI
  2
AcmWeldingStdBSI
  3
"Amdt_StdImp|Product Description: AutoCAD Mechanical|Company: Autodesk, Inc."
 90
     1024
 91
        0
280
     0
281
     0
  0
CLASS
  1
ACMIDSTANDARDBSI
  2
AcmIdStdBSI
  3
"Amdt_StdImp|Product Description: AutoCAD Mechanical|Company: Autodesk, Inc."
 90
     1024
 91
        0
280
     0
281
     0
  0
CLASS
  1
ACMDATUMSTANDARDBSI
  2
AcmDatumStdBSI
  3
"Amdt_StdImp|Product Description: AutoCAD Mechanical|Company: Autodesk, Inc."
 90
     1024
 91
        0
280
     0
281
     0
  0
CLASS
  1
ACMBOMSTANDARDBSI
  2
AcmBOMStdBSI
  3
"Amdt_StdImp|Product Description: AutoCAD Mechanical|Company: Autodesk, Inc."
 90
     1024
 91
        0
280
     0
281
     0
  0
CLASS
  1
ACMDETAILSTANDARDBSI
  2
AmdtDetailSymStdBSI
  3
"Amdt_StdImp|Product Description: AutoCAD Mechanical|Company: Autodesk, Inc."
 90
     1024
 91
        0
280
     0
281
     0
  0
CLASS
  1
ACMSECTIONSTANDARDBSI2001
  2
AmdtSectionSymStdBSI2001
  3
"Amdt_StdImp|Product Description: AutoCAD Mechanical|Company: Autodesk, Inc."
 90
     1024
 91
        0
280
     0
281
     0
  0
CLASS
  1
ACMCENTERLINESTANDARDBSI
  2
AmdtCenterLineStdBSI
  3
"Amdt_StdImp|Product Description: AutoCAD Mechanical|Company: Autodesk, Inc."
 90
     1024
 91
        0
280
     0
281
     0
  0
CLASS
  1
ACMTHREADLINESTANDARDBSI
  2
AmdtThreadLineStdBSI
  3
"Amdt_StdImp|Product Description: AutoCAD Mechanical|Company: Autodesk, Inc."
 90
     1024
 91
        0
280
     0
281
     0
  0
CLASS
  1
ACMNOTESTANDARDBSI
  2
AmdtNoteStdBSI
  3
"Amdt_StdImp|Product Description: AutoCAD Mechanical|Company: Autodesk, Inc."
 90
     1024
 91
        0
280
     0
281
     0
  0
CLASS
  1
ACMTAPERSTANDARDBSI
  2
AcmTaperStdBSI
  3
"Amdt_StdImp|Product Description: AutoCAD Mechanical|Company: Autodesk, Inc."
 90
     1024
 91
        0
280
     0
281
     0
  0
CLASS
  1
ACMANOOTATIONVIEWSTANDARDBSI
  2
AmdtAnViewStdBSI
  3
"Amdt_StdImp|Product Description: AutoCAD Mechanical|Company: Autodesk, Inc."
 90
     1024
 91
        0
280
     0
281
     0
  0
CLASS
  1
ACAMGHOLECHARTSTDBSI
  2
AcAmgHoleChartStdBSI
  3
AmgDim|Product Description: AutoCAD Mechanical|Company: Autodesk, Inc.
 90
     1024
 91
        0
280
     0
281
     0
  0
CLASS
  1
AMDTEDGESTANDARDJIS
  2
AmdtEdgeStdJIS
  3
"Amdt_StdImp|Product Description: AutoCAD Mechanical|Company: Autodesk, Inc."
 90
     1024
 91
        0
280
     0
281
     0
  0
CLASS
  1
ACMSURFSYM
  2
AcmSurfaceTexture
  3
"AcmSymBB|Product Description: AutoCAD Mechanical|Company: Autodesk, Inc."
 90
     4095
 91
        0
280
     0
281
     1
  0
CLASS
  1
ACDBDIMENSIONRES
  2
AcDbDimensionRes
  3
AcmSymBB|Product Description: AutoCAD Mechanical|Company: Autodesk, Inc.
 90
     1024
 91
        0
280
     0
281
     0
  0
CLASS
  1
ACDBCIRCARCRES
  2
AcDbCircArcRes
  3
AcGrefServices
 90
     1024
 91
        0
280
     0
281
     0
  0
CLASS
  1
AMDTACMWBLOCKBOMENTITY
  2
AmdtAcmWblockBomEntity
  3
"AcmSymBB|Product Description: AutoCAD Mechanical|Company: Autodesk, Inc."
 90
     4095
 91
        0
280
     0
281
     1
  0
CLASS
  1
ACDBOPPOLYLINERES
  2
AcDbOpPolylineRes
  3
AcGrefServices
 90
     1024
 91
        0
280
     0
281
     0
  0
CLASS
  1
ACDB_BLKREFOBJECTCONTEXTDATA_CLASS
  2
AcDbBlkRefObjectContextData
  3
ObjectDBX Classes
 90
     1153
 91
        0
280
     0
281
     0
  0
CLASS
  1
ACMPICKOBJ
  2
AcmPickEnt
  3
"AcmSymBB|Product Description: AutoCAD Mechanical|Company: Autodesk, Inc."
 90
     1024
 91
        0
280
     0
281
     1
  0
CLASS
  1
ACMBALLOON
  2
AcmBalloon
  3
"AcmSymBB|Product Description: AutoCAD Mechanical|Company: Autodesk, Inc."
 90
     4095
 91
        0
280
     0
281
     1
  0
ENDSEC
  0
SECTION
  2
TABLES
  0
TABLE
  2
VPORT
  5
8
330
0
100
AcDbSymbolTable
 70
     1
  0
VPORT
  5
27A
330
8
100
AcDbSymbolTableRecord
100
AcDbViewportTableRecord
  2
*Active
 70
     0
 10
0.0
 20
0.0
 11
1.0
 21
1.0
 12
704.9324465092233
 22
612.7936282553521
 13
0.0
 23
0.0
 14
7.5
 24
7.5
 15
30.0
 25
30.0
 16
0.0
 26
0.0
 36
1.0
 17
0.0
 27
0.0
 37
0.0
 40
434.4350964644191
 41
1.285714285714285
 42
50.0
 43
0.0
 44
0.0
 50
0.0
 51
0.0
 71
    16
 72
 20000
 73
     1
 74
     3
 75
     0
 76
     0
 77
     0
 78
     0
281
     0
 65
     0
110
0.0
120
0.0
130
0.0
111
1.0
121
0.0
131
0.0
112
0.0
122
1.0
132
0.0
 79
     0
146
0.0
348
285
 60
     3
 61
     5
292
     1
282
     0
141
0.0
142
0.0
 63
   250
421
  3355443
  0
ENDTAB
  0
TABLE
  2
LTYPE
  5
5
330
0
100
AcDbSymbolTable
 70
    22
  0
LTYPE
  5
14
330
5
100
AcDbSymbolTableRecord
100
AcDbLinetypeTableRecord
  2
ByBlock
 70
     0
  3

 72
    65
 73
     0
 40
0.0
  0
LTYPE
  5
15
330
5
100
AcDbSymbolTableRecord
100
AcDbLinetypeTableRecord
  2
ByLayer
 70
     0
  3

 72
    65
 73
     0
 40
0.0
  0
LTYPE
  5
16
330
5
100
AcDbSymbolTableRecord
100
AcDbLinetypeTableRecord
  2
Continuous
 70
     0
  3
Solid line
 72
    65
 73
     0
 40
0.0
  0
LTYPE
  5
4D
330
5
100
AcDbSymbolTableRecord
100
AcDbLinetypeTableRecord
  2
AM_ISO02W050
 70
     0
  3
__ __ __ __ __ __ __ __ __ __ __ __ __ __ __
 72
    65
 73
     2
 40
7.5
 49
6.0
 74
     0
 49
-1.5
 74
     0
  0
LTYPE
  5
4E
330
5
100
AcDbSymbolTableRecord
100
AcDbLinetypeTableRecord
  2
AM_ISO08W050
 70
     0
  3
____ . ____ . ____ . ____ . ____ . ____ . ____
 72
    65
 73
     4
 40
18.0
 49
12.0
 74
     0
 49
-1.5
 74
     0
 49
3.0
 74
     0
 49
-1.5
 74
     0
  0
LTYPE
  5
4F
330
5
100
AcDbSymbolTableRecord
100
AcDbLinetypeTableRecord
  2
AM_ISO09W050
 70
     0
  3
_____ . . _____ . . _____ . . ____ .. ____
 72
    65
 73
     6
 40
22.5
 49
12.0
 74
     0
 49
-1.5
 74
     0
 49
3.0
 74
     0
 49
-1.5
 74
     0
 49
3.0
 74
     0
 49
-1.5
 74
     0
  0
LTYPE
  5
50
330
5
100
AcDbSymbolTableRecord
100
AcDbLinetypeTableRecord
  2
Amconstr
 70
     0
  3
_______________________
 72
    65
 73
     2
 40
9999.0
 49
9999.0
 74
     0
 49
0.0
 74
     0
  0
LTYPE
  5
51
330
5
100
AcDbSymbolTableRecord
100
AcDbLinetypeTableRecord
  2
AM_ISO08W050x2
 70
     0
  3
__ . __ . __ . __ . __ . __
 72
    65
 73
     4
 40
9.0
 49
6.0
 74
     0
 49
-0.75
 74
     0
 49
1.5
 74
     0
 49
-0.75
 74
     0
  0
LTYPE
  5
52
330
5
100
AcDbSymbolTableRecord
100
AcDbLinetypeTableRecord
  2
AM_ISO02W050x2
 70
     0
  3
 _ _ _ _ _ _ _ _ _ _ _ _
 72
    65
 73
     2
 40
3.75
 49
3.0
 74
     0
 49
-0.75
 74
     0
  0
LTYPE
  5
55
330
5
100
AcDbSymbolTableRecord
100
AcDbLinetypeTableRecord
  2
Amzigzag
 70
     0
  3
/\/-/\/-/\/-/\/-/\/-/\/
 72
    65
 73
     2
 40
11.0001
 49
0.0001
 74
     4
 75
   136
340
23D
 46
0.04
 50
0.0
 44
0.0
 45
0.0
 49
-11.0
 74
     0
  0
LTYPE
  5
65
330
5
100
AcDbSymbolTableRecord
100
AcDbLinetypeTableRecord
  2
CENTER
 70
     0
  3
__ . __
 72
    65
 73
     4
 40
7.0
 49
4.0
 74
     0
 49
-1.0
 74
     0
 49
1.0
 74
     0
 49
-1.0
 74
     0
  0
LTYPE
  5
E0
330
5
100
AcDbSymbolTableRecord
100
AcDbLinetypeTableRecord
  2
HIDDEN
 70
     0
  3
Hidden __ __ __ __ __ __ __ __ __ __ __ __ __ _
 72
    65
 73
     2
 40
9.524999999999996
 49
6.349999999999998
 74
     0
 49
-3.174999999999998
 74
     0
  0
LTYPE
  5
E1
330
5
100
AcDbSymbolTableRecord
100
AcDbLinetypeTableRecord
  2
PHANTOM2
 70
     0
  3
Phantom (.5x) ___ _ _ ___ _ _ ___ _ _ ___ _ _
 72
    65
 73
     6
 40
31.75
 49
15.875
 74
     0
 49
-3.174999999999998
 74
     0
 49
3.174999999999998
 74
     0
 49
-3.174999999999998
 74
     0
 49
3.174999999999998
 74
     0
 49
-3.174999999999998
 74
     0
  0
LTYPE
  5
5A2
330
5
100
AcDbSymbolTableRecord
100
AcDbLinetypeTableRecord
  2
ACJISWELD
 70
     0
  3
_ _ _ _ _
 72
    65
 73
     2
 40
2.0
 49
2.0
 74
     0
 49
-1.0
 74
     0
  0
LTYPE
  5
88D2
330
5
100
AcDbSymbolTableRecord
100
AcDbLinetypeTableRecord
  2
ACISOWELD
 70
     0
  3
_ _ _ _ _
 72
    65
 73
     2
 40
2.0
 49
2.0
 74
     0
 49
-1.0
 74
     0
  0
LTYPE
  5
88D3
330
5
100
AcDbSymbolTableRecord
100
AcDbLinetypeTableRecord
  2
ACISOTGB
 70
     0
  3
__ . . __ . .
 72
    65
 73
     6
 40
9.0
 49
4.0
 74
     0
 49
-1.0
 74
     0
 49
1.0
 74
     0
 49
-1.0
 74
     0
 49
1.0
 74
     0
 49
-1.0
 74
     0
  0
LTYPE
  5
88D4
330
5
100
AcDbSymbolTableRecord
100
AcDbLinetypeTableRecord
  2
ACISOTGL
 70
     0
  3
_ _ _ _ _
 72
    65
 73
     2
 40
3.0
 49
2.0
 74
     0
 49
-1.0
 74
     0
  0
ENDTAB
  0
TABLE
  2
LAYER
  5
2
102
{ACAD_XDICTIONARY
360
BF
102
}
330
0
100
AcDbSymbolTable
 70
    10
  0
LAYER
  5
10
102
{ACAD_XDICTIONARY
360
29D8
102
}
330
2
100
AcDbSymbolTableRecord
100
AcDbLayerTableRecord
  2
0
 70
     0
 62
     7
  6
Continuous
370
    -3
390
F
347
27E
  0
LAYER
  5
81
102
{ACAD_XDICTIONARY
360
29DA
102
}
330
2
100
AcDbSymbolTableRecord
100
AcDbLayerTableRecord
  2
AM_0 外形線1
 70
     0
 62
     7
  6
Continuous
370
    25
390
F
347
27E
  0
LAYER
  5
427
330
2
100
AcDbSymbolTableRecord
100
AcDbLayerTableRecord
  2
Defpoints
 70
     0
 62
     7
  6
Continuous
290
     0
370
    -3
390
F
347
27E
  0
LAYER
  5
25C9
102
{ACAD_XDICTIONARY
360
29E1
102
}
330
2
100
AcDbSymbolTableRecord
100
AcDbLayerTableRecord
  2
AM_3 隠れ線
 70
     0
 62
     8
  6
ACJISWELD
370
    13
390
F
347
27E
1001
AcAecLayerStandard
1000

1000

  0
LAYER
  5
25CA
102
{ACAD_XDICTIONARY
360
29E3
102
}
330
2
100
AcDbSymbolTableRecord
100
AcDbLayerTableRecord
  2
AM_4 細線
 70
     0
 62
     4
  6
Continuous
370
    13
390
F
347
27E
1001
AcAecLayerStandard
1000

1000

  0
LAYER
  5
26B3
102
{ACAD_XDICTIONARY
360
29E9
102
}
330
2
100
AcDbSymbolTableRecord
100
AcDbLayerTableRecord
  2
AM_5 寸法線
 70
     0
 62
     3
  6
Continuous
370
    13
390
F
347
27E
1001
AcAecLayerStandard
1000

1000

  0
LAYER
  5
37D0
330
2
100
AcDbSymbolTableRecord
100
AcDbLayerTableRecord
  2
AM_7 中心線
 70
     0
 62
     1
  6
AM_ISO08W050
370
    13
390
F
347
27E
1001
AcAecLayerStandard
1000

1000

  0
LAYER
  5
37D3
330
2
100
AcDbSymbolTableRecord
100
AcDbLayerTableRecord
  2
AM_6 文字
 70
     0
 62
     2
  6
Continuous
370
    13
390
F
347
27E
1001
AcAecLayerStandard
1000

1000

  0
LAYER
  5
8384
330
2
100
AcDbSymbolTableRecord
100
AcDbLayerTableRecord
  2
AM_11 想像線
 70
     0
 62
     5
  6
AM_ISO09W050
370
    13
390
F
347
27E
1001
AcAecLayerStandard
1000

1000

  0
ENDTAB
  0
TABLE
  2
STYLE
  5
3
330
0
100
AcDbSymbolTable
 70
    10
  0
STYLE
  5
11
330
3
100
AcDbSymbolTableRecord
100
AcDbTextStyleTableRecord
  2
STANDARD
 70
     0
 40
0.0
 41
1.0
 50
0.0
 71
     0
 42
25.0
  3
ISOCP.SHX
  4
EXTFONT.SHX
  0
STYLE
  5
23D
330
3
100
AcDbSymbolTableRecord
100
AcDbTextStyleTableRecord
  2

 70
     1
 40
0.0
 41
1.0
 50
0.0
 71
     0
 42
2.5
  3
genltshp.shx
  4

  0
STYLE
  5
5D5
330
3
100
AcDbSymbolTableRecord
100
AcDbTextStyleTableRecord
  2
SEISA
 70
     0
 40
0.0
 41
0.9
 50
0.0
 71
     0
 42
25.0
  3
romans.shx
  4
extfont2.shx
  0
STYLE
  5
88C2
330
3
100
AcDbSymbolTableRecord
100
AcDbTextStyleTableRecord
  2
ACISOTS
 70
     0
 40
1.0
 41
1.0
 50
0.0
 71
     0
 42
25.0
  3
isocp.shx
  4
extfont.shx
  0
STYLE
  5
88D1
330
3
100
AcDbSymbolTableRecord
100
AcDbTextStyleTableRecord
  2
ACISOGDT
 70
     0
 40
0.0
 41
1.0
 50
0.0
 71
     0
 42
25.0
  3
amgdt.shx
  4

  0
ENDTAB
  0
TABLE
  2
VIEW
  5
6
330
0
100
AcDbSymbolTable
 70
     6
  0
VIEW
  5
91B
330
6
100
AcDbSymbolTableRecord
100
AcDbViewTableRecord
  2
AM_VIEW1
 70
     0
 40
445.5
 10
438.3676114117401
 20
668.2500011081462
 41
876.735221674877
 11
0.0
 21
0.0
 31
1.0
 12
0.0
 22
0.0
 32
0.0
 42
50.0
 43
0.0
 44
0.0
 50
0.0
 71
    16
281
     0
 72
     0
 73
     0
  0
VIEW
  5
91C
330
6
100
AcDbSymbolTableRecord
100
AcDbViewTableRecord
  2
AM_VIEW2
 70
     0
 40
445.5
 10
821.632389736863
 20
668.2500011081462
 41
876.735221674877
 11
0.0
 21
0.0
 31
1.0
 12
0.0
 22
0.0
 32
0.0
 42
50.0
 43
0.0
 44
0.0
 50
0.0
 71
    16
281
     0
 72
     0
 73
     0
  0
VIEW
  5
91D
330
6
100
AcDbSymbolTableRecord
100
AcDbViewTableRecord
  2
AM_VIEW3
 70
     0
 40
445.5
 10
438.3676114117401
 20
222.7500011081462
 41
876.735221674877
 11
0.0
 21
0.0
 31
1.0
 12
0.0
 22
0.0
 32
0.0
 42
50.0
 43
0.0
 44
0.0
 50
0.0
 71
    16
281
     0
 72
     0
 73
     0
  0
VIEW
  5
91E
330
6
100
AcDbSymbolTableRecord
100
AcDbViewTableRecord
  2
AM_VIEW4
 70
     0
 40
445.5
 10
821.632389736863
 20
222.7500011081462
 41
876.735221674877
 11
0.0
 21
0.0
 31
1.0
 12
0.0
 22
0.0
 32
0.0
 42
50.0
 43
0.0
 44
0.0
 50
0.0
 71
    16
281
     0
 72
     0
 73
     0
  0
VIEW
  5
91F
330
6
100
AcDbSymbolTableRecord
100
AcDbViewTableRecord
  2
AM_VIEW5
 70
     0
 40
445.5
 10
630.0000005743015
 20
445.5000011081462
 41
876.7352216748772
 11
0.0
 21
0.0
 31
1.0
 12
0.0
 22
0.0
 32
0.0
 42
50.0
 43
0.0
 44
0.0
 50
0.0
 71
    16
281
     0
 72
     0
 73
     0
  0
VIEW
  5
920
330
6
100
AcDbSymbolTableRecord
100
AcDbViewTableRecord
  2
AM_VIEW6
 70
     0
 40
890.9910900000001
 10
630.0000005743015
 20
445.5000011081462
 41
1753.452908645321
 11
0.0
 21
0.0
 31
1.0
 12
0.0
 22
0.0
 32
0.0
 42
50.0
 43
0.0
 44
0.0
 50
0.0
 71
    16
281
     0
 72
     0
 73
     0
  0
ENDTAB
  0
TABLE
  2
UCS
  5
7
330
0
100
AcDbSymbolTable
 70
     0
  0
ENDTAB
  0
TABLE
  2
APPID
  5
9
330
0
100
AcDbSymbolTable
 70
   393
  0
APPID
  5
12
330
9
100
AcDbSymbolTableRecord
100
AcDbRegAppTableRecord
  2
ACAD
 70
     0
  0
APPID
  5
30
330
9
100
AcDbSymbolTableRecord
100
AcDbRegAppTableRecord
  2
MCAD_NO_VIS
 70
     0
  0
APPID
  5
31
330
9
100
AcDbSymbolTableRecord
100
AcDbRegAppTableRecord
  2
ACAD_TEMP_GRAPHIC
 70
     0
  0
APPID
  5
44
330
9
100
AcDbSymbolTableRecord
100
AcDbRegAppTableRecord
  2
ACATTRIBSERVICES
 70
     0
  0
APPID
  5
F6
330
9
100
AcDbSymbolTableRecord
100
AcDbRegAppTableRecord
  2
AD_DRAW
 70
     0
  0
APPID
  5
114
330
9
100
AcDbSymbolTableRecord
100
AcDbRegAppTableRecord
  2
DESIGNERASSEMBLIES
 70
     0
  0
APPID
  5
118
330
9
100
AcDbSymbolTableRecord
100
AcDbRegAppTableRecord
  2
ACADM_DIM_EDIT
 70
     0
  0
APPID
  5
119
330
9
100
AcDbSymbolTableRecord
100
AcDbRegAppTableRecord
  2
AMDT_DM_ADJ
 70
     0
  0
APPID
  5
1AF
330
9
100
AcDbSymbolTableRecord
100
AcDbRegAppTableRecord
  2
ACAD_DSTYLE_DIMARC_LENGTH_SYMBOL
 70
     0
  0
APPID
  5
1B0
330
9
100
AcDbSymbolTableRecord
100
AcDbRegAppTableRecord
  2
ACAD_DSTYLE_DIMJOGGED_JOGANGLE_SYMBOL
 70
     0
  0
APPID
  5
2D7
330
9
100
AcDbSymbolTableRecord
100
AcDbRegAppTableRecord
  2
ACAD_MLEADERVER
 70
     0
  0
APPID
  5
355
330
9
100
AcDbSymbolTableRecord
100
AcDbRegAppTableRecord
  2
AcadAnnoPO
 70
     0
  0
APPID
  5
428
330
9
100
AcDbSymbolTableRecord
100
AcDbRegAppTableRecord
  2
ACAD_DSTYLE_DIMTEXT_FILL
 70
     0
  0
APPID
  5
429
330
9
100
AcDbSymbolTableRecord
100
AcDbRegAppTableRecord
  2
GENIUS_GENSCREG_15
 70
     0
  0
APPID
  5
42A
330
9
100
AcDbSymbolTableRecord
100
AcDbRegAppTableRecord
  2
GENIUS_GENOBJ-N-SDF_13
 70
     0
  0
APPID
  5
42B
330
9
100
AcDbSymbolTableRecord
100
AcDbRegAppTableRecord
  2
GENIUS_GENODEF_13
 70
     0
  0
APPID
  5
42C
330
9
100
AcDbSymbolTableRecord
100
AcDbRegAppTableRecord
  2
ACAD_EXEMPT_FROM_CAD_STANDARDS
 70
     0
  0
APPID
  5
42D
330
9
100
AcDbSymbolTableRecord
100
AcDbRegAppTableRecord
  2
AcAecLayerStandard
 70
     0
  0
APPID
  5
42E
330
9
100
AcDbSymbolTableRecord
100
AcDbRegAppTableRecord
  2
GENIUS_GENOBJ-N-CEN_13
 70
     0
  0
APPID
  5
42F
330
9
100
AcDbSymbolTableRecord
100
AcDbRegAppTableRecord
  2
GENIUS_GENCEN_19
 70
     0
  0
APPID
  5
430
330
9
100
AcDbSymbolTableRecord
100
AcDbRegAppTableRecord
  2
ACAD_DSTYLE_DIMINSPECT
 70
     0
  0
APPID
  5
431
330
9
100
AcDbSymbolTableRecord
100
AcDbRegAppTableRecord
  2
GENIUS_AMGTXT_16
 70
     0
  0
APPID
  5
432
330
9
100
AcDbSymbolTableRecord
100
AcDbRegAppTableRecord
  2
GENIUS_GENFIL_13
 70
     0
  0
APPID
  5
433
330
9
100
AcDbSymbolTableRecord
100
AcDbRegAppTableRecord
  2
GENIUS_GENOLIS_13
 70
     0
  0
APPID
  5
434
330
9
100
AcDbSymbolTableRecord
100
AcDbRegAppTableRecord
  2
GENIUS_GENOBJ-N-CHA_13
 70
     0
  0
APPID
  5
435
330
9
100
AcDbSymbolTableRecord
100
AcDbRegAppTableRecord
  2
GENIUS_GENOENT_13
 70
     0
  0
APPID
  5
436
330
9
100
AcDbSymbolTableRecord
100
AcDbRegAppTableRecord
  2
GENIUS_GENOREF_13
 70
     0
  0
APPID
  5
437
330
9
100
AcDbSymbolTableRecord
100
AcDbRegAppTableRecord
  2
GENIUS_GENOBJ-N-FIL_13
 70
     0
  0
APPID
  5
438
330
9
100
AcDbSymbolTableRecord
100
AcDbRegAppTableRecord
  2
GEVID1208829536
 70
     0
  0
APPID
  5
439
330
9
100
AcDbSymbolTableRecord
100
AcDbRegAppTableRecord
  2
GEVDC
 70
     0
  0
APPID
  5
43A
330
9
100
AcDbSymbolTableRecord
100
AcDbRegAppTableRecord
  2
GEVRADREF
 70
     0
  0
APPID
  5
43B
330
9
100
AcDbSymbolTableRecord
100
AcDbRegAppTableRecord
  2
GENIUS_GENBH_13
 70
     0
  0
APPID
  5
43C
330
9
100
AcDbSymbolTableRecord
100
AcDbRegAppTableRecord
  2
GENIUS_GENOBJ-NBEHI-BHF_13
 70
     0
  0
APPID
  5
43D
330
9
100
AcDbSymbolTableRecord
100
AcDbRegAppTableRecord
  2
GENIUS_GENOBJ-NBEHI-BHB_13
 70
     0
  0
APPID
  5
43E
330
9
100
AcDbSymbolTableRecord
100
AcDbRegAppTableRecord
  2
GEVID1208829537
 70
     0
  0
APPID
  5
43F
330
9
100
AcDbSymbolTableRecord
100
AcDbRegAppTableRecord
  2
ACAD_DSTYLE_DIMJAG
 70
     0
  0
APPID
  5
440
330
9
100
AcDbSymbolTableRecord
100
AcDbRegAppTableRecord
  2
ACAD_DSTYLE_DIMTALN
 70
     0
  0
APPID
  5
441
330
9
100
AcDbSymbolTableRecord
100
AcDbRegAppTableRecord
  2
AMG_2DHIDE
 70
     0
  0
APPID
  5
442
330
9
100
AcDbSymbolTableRecord
100
AcDbRegAppTableRecord
  2
AMG_2DSTRUCT_BTR
 70
     0
  0
APPID
  5
443
330
9
100
AcDbSymbolTableRecord
100
AcDbRegAppTableRecord
  2
GEVID1208845772
 70
     0
  0
APPID
  5
444
330
9
100
AcDbSymbolTableRecord
100
AcDbRegAppTableRecord
  2
GEVID1208845773
 70
     0
  0
APPID
  5
445
330
9
100
AcDbSymbolTableRecord
100
AcDbRegAppTableRecord
  2
ACADM_2DVIEW_IGN_NOTIFY
 70
     0
  0
APPID
  5
446
330
9
100
AcDbSymbolTableRecord
100
AcDbRegAppTableRecord
  2
GEVID1208845774
 70
     0
  0
APPID
  5
447
330
9
100
AcDbSymbolTableRecord
100
AcDbRegAppTableRecord
  2
GEVID1208845775
 70
     0
  0
APPID
  5
448
330
9
100
AcDbSymbolTableRecord
100
AcDbRegAppTableRecord
  2
GEVID1208845776
 70
     0
  0
APPID
  5
449
330
9
100
AcDbSymbolTableRecord
100
AcDbRegAppTableRecord
  2
GEVID1208845777
 70
     0
  0
APPID
  5
44A
330
9
100
AcDbSymbolTableRecord
100
AcDbRegAppTableRecord
  2
GEVCON
 70
     0
  0
APPID
  5
44B
330
9
100
AcDbSymbolTableRecord
100
AcDbRegAppTableRecord
  2
GENIUS_GENOBJ-F-SCPASSM_13
 70
     0
  0
APPID
  5
44C
330
9
100
AcDbSymbolTableRecord
100
AcDbRegAppTableRecord
  2
GEVID1208845778
 70
     0
  0
APPID
  5
44D
330
9
100
AcDbSymbolTableRecord
100
AcDbRegAppTableRecord
  2
GEVID1208845779
 70
     0
  0
APPID
  5
44E
330
9
100
AcDbSymbolTableRecord
100
AcDbRegAppTableRecord
  2
GEVID1208845780
 70
     0
  0
APPID
  5
44F
330
9
100
AcDbSymbolTableRecord
100
AcDbRegAppTableRecord
  2
GEVID1208845781
 70
     0
  0
APPID
  5
450
330
9
100
AcDbSymbolTableRecord
100
AcDbRegAppTableRecord
  2
GEVID1208845782
 70
     0
  0
APPID
  5
451
330
9
100
AcDbSymbolTableRecord
100
AcDbRegAppTableRecord
  2
GEVID1208845783
 70
     0
  0
APPID
  5
452
330
9
100
AcDbSymbolTableRecord
100
AcDbRegAppTableRecord
  2
GEVID1208845784
 70
     0
  0
APPID
  5
453
330
9
100
AcDbSymbolTableRecord
100
AcDbRegAppTableRecord
  2
GEVID1208845785
 70
     0
  0
APPID
  5
454
330
9
100
AcDbSymbolTableRecord
100
AcDbRegAppTableRecord
  2
GEVID1208845787
 70
     0
  0
APPID
  5
455
330
9
100
AcDbSymbolTableRecord
100
AcDbRegAppTableRecord
  2
GEVID1208845788
 70
     0
  0
APPID
  5
456
330
9
100
AcDbSymbolTableRecord
100
AcDbRegAppTableRecord
  2
GEVID1208845789
 70
     0
  0
APPID
  5
457
330
9
100
AcDbSymbolTableRecord
100
AcDbRegAppTableRecord
  2
GEVID1208845790
 70
     0
  0
APPID
  5
458
330
9
100
AcDbSymbolTableRecord
100
AcDbRegAppTableRecord
  2
GEVID1208845791
 70
     0
  0
APPID
  5
459
330
9
100
AcDbSymbolTableRecord
100
AcDbRegAppTableRecord
  2
GEVID1208845792
 70
     0
  0
APPID
  5
45A
330
9
100
AcDbSymbolTableRecord
100
AcDbRegAppTableRecord
  2
GEVID1208845793
 70
     0
  0
APPID
  5
45B
330
9
100
AcDbSymbolTableRecord
100
AcDbRegAppTableRecord
  2
GEVID1208845794
 70
     0
  0
APPID
  5
45C
330
9
100
AcDbSymbolTableRecord
100
AcDbRegAppTableRecord
  2
GEVID1208845795
 70
     0
  0
APPID
  5
45D
330
9
100
AcDbSymbolTableRecord
100
AcDbRegAppTableRecord
  2
GEVID1208845796
 70
     0
  0
APPID
  5
45E
330
9
100
AcDbSymbolTableRecord
100
AcDbRegAppTableRecord
  2
GEVID1208845797
 70
     0
  0
APPID
  5
45F
330
9
100
AcDbSymbolTableRecord
100
AcDbRegAppTableRecord
  2
GEVID1208845798
 70
     0
  0
APPID
  5
460
330
9
100
AcDbSymbolTableRecord
100
AcDbRegAppTableRecord
  2
GEVID1208845799
 70
     0
  0
APPID
  5
461
330
9
100
AcDbSymbolTableRecord
100
AcDbRegAppTableRecord
  2
GEVID1208845800
 70
     0
  0
APPID
  5
462
330
9
100
AcDbSymbolTableRecord
100
AcDbRegAppTableRecord
  2
GEVID1208845801
 70
     0
  0
APPID
  5
463
330
9
100
AcDbSymbolTableRecord
100
AcDbRegAppTableRecord
  2
GEVID1208845802
 70
     0
  0
APPID
  5
464
330
9
100
AcDbSymbolTableRecord
100
AcDbRegAppTableRecord
  2
GENIUS_GENOBJ-N-DIM_13
 70
     0
  0
APPID
  5
465
330
9
100
AcDbSymbolTableRecord
100
AcDbRegAppTableRecord
  2
GENIUS_GENDIM_13
 70
     0
  0
APPID
  5
466
330
9
100
AcDbSymbolTableRecord
100
AcDbRegAppTableRecord
  2
GENIUS_GENDIMSH_14
 70
     0
  0
APPID
  5
467
330
9
100
AcDbSymbolTableRecord
100
AcDbRegAppTableRecord
  2
GEVID1208845803
 70
     0
  0
APPID
  5
468
330
9
100
AcDbSymbolTableRecord
100
AcDbRegAppTableRecord
  2
GEVID1208845804
 70
     0
  0
APPID
  5
469
330
9
100
AcDbSymbolTableRecord
100
AcDbRegAppTableRecord
  2
GEVID1208845805
 70
     0
  0
APPID
  5
46A
330
9
100
AcDbSymbolTableRecord
100
AcDbRegAppTableRecord
  2
GEVID1208845806
 70
     0
  0
APPID
  5
46B
330
9
100
AcDbSymbolTableRecord
100
AcDbRegAppTableRecord
  2
GEVID1208845807
 70
     0
  0
APPID
  5
46C
330
9
100
AcDbSymbolTableRecord
100
AcDbRegAppTableRecord
  2
GEVID1208845808
 70
     0
  0
APPID
  5
46D
330
9
100
AcDbSymbolTableRecord
100
AcDbRegAppTableRecord
  2
GEVID1208845809
 70
     0
  0
APPID
  5
46E
330
9
100
AcDbSymbolTableRecord
100
AcDbRegAppTableRecord
  2
GEVID1208845810
 70
     0
  0
APPID
  5
46F
330
9
100
AcDbSymbolTableRecord
100
AcDbRegAppTableRecord
  2
GEVID1208845811
 70
     0
  0
APPID
  5
470
330
9
100
AcDbSymbolTableRecord
100
AcDbRegAppTableRecord
  2
GEVID1208845813
 70
     0
  0
APPID
  5
471
330
9
100
AcDbSymbolTableRecord
100
AcDbRegAppTableRecord
  2
GEVID1208845814
 70
     0
  0
APPID
  5
472
330
9
100
AcDbSymbolTableRecord
100
AcDbRegAppTableRecord
  2
GEVID1208845815
 70
     0
  0
APPID
  5
473
330
9
100
AcDbSymbolTableRecord
100
AcDbRegAppTableRecord
  2
GEVID1208845816
 70
     0
  0
APPID
  5
474
330
9
100
AcDbSymbolTableRecord
100
AcDbRegAppTableRecord
  2
GEVID1208845817
 70
     0
  0
APPID
  5
475
330
9
100
AcDbSymbolTableRecord
100
AcDbRegAppTableRecord
  2
GEVID1208845818
 70
     0
  0
APPID
  5
476
330
9
100
AcDbSymbolTableRecord
100
AcDbRegAppTableRecord
  2
GEVID1208845819
 70
     0
  0
APPID
  5
477
330
9
100
AcDbSymbolTableRecord
100
AcDbRegAppTableRecord
  2
GEVID1208845820
 70
     0
  0
APPID
  5
478
330
9
100
AcDbSymbolTableRecord
100
AcDbRegAppTableRecord
  2
GENIUS_GENOBJ-F-SHCL_13
 70
     0
  0
APPID
  5
479
330
9
100
AcDbSymbolTableRecord
100
AcDbRegAppTableRecord
  2
GENIUS_GEFMSH_13
 70
     0
  0
APPID
  5
47A
330
9
100
AcDbSymbolTableRecord
100
AcDbRegAppTableRecord
  2
GENIUS_GENOBJ-F-SHCA_13
 70
     0
  0
APPID
  5
47B
330
9
100
AcDbSymbolTableRecord
100
AcDbRegAppTableRecord
  2
GENIUS_GEFSH_13
 70
     0
  0
APPID
  5
47C
330
9
100
AcDbSymbolTableRecord
100
AcDbRegAppTableRecord
  2
GENIUS_GEFSHP_13
 70
     0
  0
APPID
  5
47D
330
9
100
AcDbSymbolTableRecord
100
AcDbRegAppTableRecord
  2
GENIUS_GEFSHP0_13
 70
     0
  0
APPID
  5
47E
330
9
100
AcDbSymbolTableRecord
100
AcDbRegAppTableRecord
  2
GENIUS_GEFSH0_13
 70
     0
  0
APPID
  5
47F
330
9
100
AcDbSymbolTableRecord
100
AcDbRegAppTableRecord
  2
GENIUS_GEFSHP1_13
 70
     0
  0
APPID
  5
480
330
9
100
AcDbSymbolTableRecord
100
AcDbRegAppTableRecord
  2
GENIUS_GEFSH1_13
 70
     0
  0
APPID
  5
481
330
9
100
AcDbSymbolTableRecord
100
AcDbRegAppTableRecord
  2
GEVID1208866337
 70
     0
  0
APPID
  5
482
330
9
100
AcDbSymbolTableRecord
100
AcDbRegAppTableRecord
  2
GEVID1208866338
 70
     0
  0
APPID
  5
483
330
9
100
AcDbSymbolTableRecord
100
AcDbRegAppTableRecord
  2
GEVID1208866339
 70
     0
  0
APPID
  5
484
330
9
100
AcDbSymbolTableRecord
100
AcDbRegAppTableRecord
  2
GEVID1208866340
 70
     0
  0
APPID
  5
485
330
9
100
AcDbSymbolTableRecord
100
AcDbRegAppTableRecord
  2
GEVID1208866341
 70
     0
  0
APPID
  5
486
330
9
100
AcDbSymbolTableRecord
100
AcDbRegAppTableRecord
  2
ACAD_PSEXT
 70
     0
  0
APPID
  5
487
330
9
100
AcDbSymbolTableRecord
100
AcDbRegAppTableRecord
  2
GEVID1208866342
 70
     0
  0
APPID
  5
488
330
9
100
AcDbSymbolTableRecord
100
AcDbRegAppTableRecord
  2
GEVID1208913836
 70
     0
  0
APPID
  5
489
330
9
100
AcDbSymbolTableRecord
100
AcDbRegAppTableRecord
  2
GEVID1208913837
 70
     0
  0
APPID
  5
48A
330
9
100
AcDbSymbolTableRecord
100
AcDbRegAppTableRecord
  2
GEVID1208913838
 70
     0
  0
APPID
  5
48B
330
9
100
AcDbSymbolTableRecord
100
AcDbRegAppTableRecord
  2
GEVID1208913839
 70
     0
  0
APPID
  5
48C
330
9
100
AcDbSymbolTableRecord
100
AcDbRegAppTableRecord
  2
GENIUS_GENDTOL_13
 70
     0
  0
APPID
  5
48D
330
9
100
AcDbSymbolTableRecord
100
AcDbRegAppTableRecord
  2
GEVID1208928889
 70
     0
  0
APPID
  5
48E
330
9
100
AcDbSymbolTableRecord
100
AcDbRegAppTableRecord
  2
GEVID1208928890
 70
     0
  0
APPID
  5
48F
330
9
100
AcDbSymbolTableRecord
100
AcDbRegAppTableRecord
  2
GEVID1208928891
 70
     0
  0
APPID
  5
490
330
9
100
AcDbSymbolTableRecord
100
AcDbRegAppTableRecord
  2
GEVID1208928892
 70
     0
  0
APPID
  5
491
330
9
100
AcDbSymbolTableRecord
100
AcDbRegAppTableRecord
  2
GEVID1208933827
 70
     0
  0
APPID
  5
492
330
9
100
AcDbSymbolTableRecord
100
AcDbRegAppTableRecord
  2
GEVID1208933829
 70
     0
  0
APPID
  5
493
330
9
100
AcDbSymbolTableRecord
100
AcDbRegAppTableRecord
  2
GEVID1208933830
 70
     0
  0
APPID
  5
494
330
9
100
AcDbSymbolTableRecord
100
AcDbRegAppTableRecord
  2
GEVID1208933831
 70
     0
  0
APPID
  5
495
330
9
100
AcDbSymbolTableRecord
100
AcDbRegAppTableRecord
  2
GEVID1208933832
 70
     0
  0
APPID
  5
496
330
9
100
AcDbSymbolTableRecord
100
AcDbRegAppTableRecord
  2
GEVID1208933833
 70
     0
  0
APPID
  5
497
330
9
100
AcDbSymbolTableRecord
100
AcDbRegAppTableRecord
  2
GEVID1208933834
 70
     0
  0
APPID
  5
498
330
9
100
AcDbSymbolTableRecord
100
AcDbRegAppTableRecord
  2
GEVID1208933835
 70
     0
  0
APPID
  5
499
330
9
100
AcDbSymbolTableRecord
100
AcDbRegAppTableRecord
  2
GEVID1208933836
 70
     0
  0
APPID
  5
49A
330
9
100
AcDbSymbolTableRecord
100
AcDbRegAppTableRecord
  2
GEVID1208933837
 70
     0
  0
APPID
  5
49B
330
9
100
AcDbSymbolTableRecord
100
AcDbRegAppTableRecord
  2
GEVID1208933838
 70
     0
  0
APPID
  5
49C
330
9
100
AcDbSymbolTableRecord
100
AcDbRegAppTableRecord
  2
GEVID1208933840
 70
     0
  0
APPID
  5
49D
330
9
100
AcDbSymbolTableRecord
100
AcDbRegAppTableRecord
  2
GEVID1208933842
 70
     0
  0
APPID
  5
49E
330
9
100
AcDbSymbolTableRecord
100
AcDbRegAppTableRecord
  2
GEVID1208933843
 70
     0
  0
APPID
  5
49F
330
9
100
AcDbSymbolTableRecord
100
AcDbRegAppTableRecord
  2
GEVID1208933844
 70
     0
  0
APPID
  5
4A0
330
9
100
AcDbSymbolTableRecord
100
AcDbRegAppTableRecord
  2
GEVID1208933845
 70
     0
  0
APPID
  5
4A1
330
9
100
AcDbSymbolTableRecord
100
AcDbRegAppTableRecord
  2
GEVID1208933846
 70
     0
  0
APPID
  5
4A2
330
9
100
AcDbSymbolTableRecord
100
AcDbRegAppTableRecord
  2
GEVID1208933847
 70
     0
  0
APPID
  5
4A3
330
9
100
AcDbSymbolTableRecord
100
AcDbRegAppTableRecord
  2
GEVID1208933848
 70
     0
  0
APPID
  5
4A4
330
9
100
AcDbSymbolTableRecord
100
AcDbRegAppTableRecord
  2
GEVID1208933849
 70
     0
  0
APPID
  5
4A5
330
9
100
AcDbSymbolTableRecord
100
AcDbRegAppTableRecord
  2
GEVID1208933850
 70
     0
  0
APPID
  5
4A6
330
9
100
AcDbSymbolTableRecord
100
AcDbRegAppTableRecord
  2
GEVID1208933851
 70
     0
  0
APPID
  5
4A7
330
9
100
AcDbSymbolTableRecord
100
AcDbRegAppTableRecord
  2
GEVID1208933852
 70
     0
  0
APPID
  5
4A8
330
9
100
AcDbSymbolTableRecord
100
AcDbRegAppTableRecord
  2
GEVID1208933853
 70
     0
  0
APPID
  5
4A9
330
9
100
AcDbSymbolTableRecord
100
AcDbRegAppTableRecord
  2
GEVID1208933854
 70
     0
  0
APPID
  5
4AA
330
9
100
AcDbSymbolTableRecord
100
AcDbRegAppTableRecord
  2
GEVID1208933855
 70
     0
  0
APPID
  5
4AB
330
9
100
AcDbSymbolTableRecord
100
AcDbRegAppTableRecord
  2
GEVID1208933856
 70
     0
  0
APPID
  5
4AC
330
9
100
AcDbSymbolTableRecord
100
AcDbRegAppTableRecord
  2
GEVID1208933857
 70
     0
  0
APPID
  5
4AD
330
9
100
AcDbSymbolTableRecord
100
AcDbRegAppTableRecord
  2
GEVID1208933858
 70
     0
  0
APPID
  5
4AE
330
9
100
AcDbSymbolTableRecord
100
AcDbRegAppTableRecord
  2
GEVID1208933859
 70
     0
  0
APPID
  5
4AF
330
9
100
AcDbSymbolTableRecord
100
AcDbRegAppTableRecord
  2
GEVID1208933860
 70
     0
  0
APPID
  5
4B0
330
9
100
AcDbSymbolTableRecord
100
AcDbRegAppTableRecord
  2
GEVID1208933861
 70
     0
  0
APPID
  5
4B1
330
9
100
AcDbSymbolTableRecord
100
AcDbRegAppTableRecord
  2
GEVID1208933862
 70
     0
  0
APPID
  5
4B2
330
9
100
AcDbSymbolTableRecord
100
AcDbRegAppTableRecord
  2
GEVID1208933863
 70
     0
  0
APPID
  5
4B3
330
9
100
AcDbSymbolTableRecord
100
AcDbRegAppTableRecord
  2
GEVID1208933864
 70
     0
  0
APPID
  5
4B4
330
9
100
AcDbSymbolTableRecord
100
AcDbRegAppTableRecord
  2
GEVID1208933865
 70
     0
  0
APPID
  5
4B5
330
9
100
AcDbSymbolTableRecord
100
AcDbRegAppTableRecord
  2
GEVID1208933866
 70
     0
  0
APPID
  5
4B6
330
9
100
AcDbSymbolTableRecord
100
AcDbRegAppTableRecord
  2
GEVID1208933867
 70
     0
  0
APPID
  5
4B7
330
9
100
AcDbSymbolTableRecord
100
AcDbRegAppTableRecord
  2
GEVID1208933868
 70
     0
  0
APPID
  5
4B8
330
9
100
AcDbSymbolTableRecord
100
AcDbRegAppTableRecord
  2
GEVID1208933869
 70
     0
  0
APPID
  5
4B9
330
9
100
AcDbSymbolTableRecord
100
AcDbRegAppTableRecord
  2
GEVID1208933870
 70
     0
  0
APPID
  5
4BA
330
9
100
AcDbSymbolTableRecord
100
AcDbRegAppTableRecord
  2
GEVID1208933871
 70
     0
  0
APPID
  5
4BB
330
9
100
AcDbSymbolTableRecord
100
AcDbRegAppTableRecord
  2
GEVID1208933872
 70
     0
  0
APPID
  5
4BC
330
9
100
AcDbSymbolTableRecord
100
AcDbRegAppTableRecord
  2
GEVID1208933873
 70
     0
  0
APPID
  5
4BD
330
9
100
AcDbSymbolTableRecord
100
AcDbRegAppTableRecord
  2
GEVID1208933874
 70
     0
  0
APPID
  5
4BE
330
9
100
AcDbSymbolTableRecord
100
AcDbRegAppTableRecord
  2
GEVID1208933875
 70
     0
  0
APPID
  5
4BF
330
9
100
AcDbSymbolTableRecord
100
AcDbRegAppTableRecord
  2
GEVID1208933876
 70
     0
  0
APPID
  5
4C0
330
9
100
AcDbSymbolTableRecord
100
AcDbRegAppTableRecord
  2
ACAD_DSTYLE_DIMRADIAL_EXTENSION
 70
     0
  0
APPID
  5
4C1
330
9
100
AcDbSymbolTableRecord
100
AcDbRegAppTableRecord
  2
GEVID1208999100
 70
     0
  0
APPID
  5
4C2
330
9
100
AcDbSymbolTableRecord
100
AcDbRegAppTableRecord
  2
GEVID1208999101
 70
     0
  0
APPID
  5
4C3
330
9
100
AcDbSymbolTableRecord
100
AcDbRegAppTableRecord
  2
GEVID1208999102
 70
     0
  0
APPID
  5
4C4
330
9
100
AcDbSymbolTableRecord
100
AcDbRegAppTableRecord
  2
GEVID1208999103
 70
     0
  0
APPID
  5
4C5
330
9
100
AcDbSymbolTableRecord
100
AcDbRegAppTableRecord
  2
GEVID1208999105
 70
     0
  0
APPID
  5
4C6
330
9
100
AcDbSymbolTableRecord
100
AcDbRegAppTableRecord
  2
GEVID1208999106
 70
     0
  0
APPID
  5
4C7
330
9
100
AcDbSymbolTableRecord
100
AcDbRegAppTableRecord
  2
GEVID1208999108
 70
     0
  0
APPID
  5
4C8
330
9
100
AcDbSymbolTableRecord
100
AcDbRegAppTableRecord
  2
GEVID1208999109
 70
     0
  0
APPID
  5
4C9
330
9
100
AcDbSymbolTableRecord
100
AcDbRegAppTableRecord
  2
GEVID1208999110
 70
     0
  0
APPID
  5
4CA
330
9
100
AcDbSymbolTableRecord
100
AcDbRegAppTableRecord
  2
GEVID1208999111
 70
     0
  0
APPID
  5
4CB
330
9
100
AcDbSymbolTableRecord
100
AcDbRegAppTableRecord
  2
GEVID1208999112
 70
     0
  0
APPID
  5
4CC
330
9
100
AcDbSymbolTableRecord
100
AcDbRegAppTableRecord
  2
GEVID1208999113
 70
     0
  0
APPID
  5
4CD
330
9
100
AcDbSymbolTableRecord
100
AcDbRegAppTableRecord
  2
GEVID1208999114
 70
     0
  0
APPID
  5
4CE
330
9
100
AcDbSymbolTableRecord
100
AcDbRegAppTableRecord
  2
GEVID1210218799
 70
     0
  0
APPID
  5
4CF
330
9
100
AcDbSymbolTableRecord
100
AcDbRegAppTableRecord
  2
GEVID1210218800
 70
     0
  0
APPID
  5
4D0
330
9
100
AcDbSymbolTableRecord
100
AcDbRegAppTableRecord
  2
GENIUS_GEFWELD_13
 70
     0
  0
APPID
  5
4D1
330
9
100
AcDbSymbolTableRecord
100
AcDbRegAppTableRecord
  2
GENIUS_GENOBJ-F-WELS_13
 70
     0
  0
APPID
  5
4D2
330
9
100
AcDbSymbolTableRecord
100
AcDbRegAppTableRecord
  2
AcadAnnotative
 70
     0
  0
APPID
  5
4D3
330
9
100
AcDbSymbolTableRecord
100
AcDbRegAppTableRecord
  2
GEVID1210145339
 70
     0
  0
APPID
  5
4D4
330
9
100
AcDbSymbolTableRecord
100
AcDbRegAppTableRecord
  2
ACAD_DSTYLE_DIMBREAK
 70
     0
  0
APPID
  5
4D5
330
9
100
AcDbSymbolTableRecord
100
AcDbRegAppTableRecord
  2
GEVID1210145340
 70
     0
  0
APPID
  5
4D6
330
9
100
AcDbSymbolTableRecord
100
AcDbRegAppTableRecord
  2
GEVID1210145341
 70
     0
  0
APPID
  5
4D7
330
9
100
AcDbSymbolTableRecord
100
AcDbRegAppTableRecord
  2
GEVID1210145342
 70
     0
  0
APPID
  5
4D8
330
9
100
AcDbSymbolTableRecord
100
AcDbRegAppTableRecord
  2
GEVID1210145343
 70
     0
  0
APPID
  5
4D9
330
9
100
AcDbSymbolTableRecord
100
AcDbRegAppTableRecord
  2
GEVID1210145344
 70
     0
  0
APPID
  5
4DA
330
9
100
AcDbSymbolTableRecord
100
AcDbRegAppTableRecord
  2
GEVID1210145345
 70
     0
  0
APPID
  5
4DB
330
9
100
AcDbSymbolTableRecord
100
AcDbRegAppTableRecord
  2
GEVID1210152816
 70
     0
  0
APPID
  5
4DC
330
9
100
AcDbSymbolTableRecord
100
AcDbRegAppTableRecord
  2
GEVID1210153850
 70
     0
  0
APPID
  5
4DD
330
9
100
AcDbSymbolTableRecord
100
AcDbRegAppTableRecord
  2
GEVID1210153851
 70
     0
  0
APPID
  5
4DE
330
9
100
AcDbSymbolTableRecord
100
AcDbRegAppTableRecord
  2
GEVID1210153852
 70
     0
  0
APPID
  5
4DF
330
9
100
AcDbSymbolTableRecord
100
AcDbRegAppTableRecord
  2
GEVID1210549898
 70
     0
  0
APPID
  5
4E0
330
9
100
AcDbSymbolTableRecord
100
AcDbRegAppTableRecord
  2
GEVID1210549899
 70
     0
  0
APPID
  5
4E1
330
9
100
AcDbSymbolTableRecord
100
AcDbRegAppTableRecord
  2
GEVID1210549900
 70
     0
  0
APPID
  5
4E2
330
9
100
AcDbSymbolTableRecord
100
AcDbRegAppTableRecord
  2
GEVID1210549901
 70
     0
  0
APPID
  5
4E3
330
9
100
AcDbSymbolTableRecord
100
AcDbRegAppTableRecord
  2
GEVID1210549902
 70
     0
  0
APPID
  5
4E4
330
9
100
AcDbSymbolTableRecord
100
AcDbRegAppTableRecord
  2
GEVID1210549903
 70
     0
  0
APPID
  5
4E5
330
9
100
AcDbSymbolTableRecord
100
AcDbRegAppTableRecord
  2
GEVID1210549904
 70
     0
  0
APPID
  5
4E6
330
9
100
AcDbSymbolTableRecord
100
AcDbRegAppTableRecord
  2
GEVID1210549905
 70
     0
  0
APPID
  5
4E7
330
9
100
AcDbSymbolTableRecord
100
AcDbRegAppTableRecord
  2
GEVID1210549906
 70
     0
  0
APPID
  5
4E8
330
9
100
AcDbSymbolTableRecord
100
AcDbRegAppTableRecord
  2
GEVID1210549907
 70
     0
  0
APPID
  5
4E9
330
9
100
AcDbSymbolTableRecord
100
AcDbRegAppTableRecord
  2
GEVID1210549908
 70
     0
  0
APPID
  5
4EA
330
9
100
AcDbSymbolTableRecord
100
AcDbRegAppTableRecord
  2
GEVID1210549909
 70
     0
  0
APPID
  5
4EB
330
9
100
AcDbSymbolTableRecord
100
AcDbRegAppTableRecord
  2
GEVID1210549910
 70
     0
  0
APPID
  5
4EC
330
9
100
AcDbSymbolTableRecord
100
AcDbRegAppTableRecord
  2
GEVID1210549911
 70
     0
  0
APPID
  5
4ED
330
9
100
AcDbSymbolTableRecord
100
AcDbRegAppTableRecord
  2
GEVID1210549912
 70
     0
  0
APPID
  5
4EE
330
9
100
AcDbSymbolTableRecord
100
AcDbRegAppTableRecord
  2
GEVID1210549913
 70
     0
  0
APPID
  5
4EF
330
9
100
AcDbSymbolTableRecord
100
AcDbRegAppTableRecord
  2
GEVID1210549914
 70
     0
  0
APPID
  5
4F0
330
9
100
AcDbSymbolTableRecord
100
AcDbRegAppTableRecord
  2
GEVID1210549915
 70
     0
  0
APPID
  5
4F1
330
9
100
AcDbSymbolTableRecord
100
AcDbRegAppTableRecord
  2
GEVID1210549916
 70
     0
  0
APPID
  5
4F2
330
9
100
AcDbSymbolTableRecord
100
AcDbRegAppTableRecord
  2
GEVID1210549917
 70
     0
  0
APPID
  5
4F3
330
9
100
AcDbSymbolTableRecord
100
AcDbRegAppTableRecord
  2
GENIUS_GENOBJ-N-CRS_13
 70
     0
  0
APPID
  5
4F4
330
9
100
AcDbSymbolTableRecord
100
AcDbRegAppTableRecord
  2
GEVID1210549918
 70
     0
  0
APPID
  5
4F5
330
9
100
AcDbSymbolTableRecord
100
AcDbRegAppTableRecord
  2
GENIUS_GENOBJ-N-CRC_13
 70
     0
  0
APPID
  5
4F6
330
9
100
AcDbSymbolTableRecord
100
AcDbRegAppTableRecord
  2
GENIUS_GENCRC_14
 70
     0
  0
APPID
  5
4F7
330
9
100
AcDbSymbolTableRecord
100
AcDbRegAppTableRecord
  2
GEVID1210549919
 70
     0
  0
APPID
  5
4F8
330
9
100
AcDbSymbolTableRecord
100
AcDbRegAppTableRecord
  2
GEVID1210549921
 70
     0
  0
APPID
  5
4F9
330
9
100
AcDbSymbolTableRecord
100
AcDbRegAppTableRecord
  2
GEVID1210549922
 70
     0
  0
APPID
  5
4FA
330
9
100
AcDbSymbolTableRecord
100
AcDbRegAppTableRecord
  2
GEVID1210635173
 70
     0
  0
APPID
  5
4FB
330
9
100
AcDbSymbolTableRecord
100
AcDbRegAppTableRecord
  2
GEVID1210635174
 70
     0
  0
APPID
  5
4FC
330
9
100
AcDbSymbolTableRecord
100
AcDbRegAppTableRecord
  2
GEVID1210635175
 70
     0
  0
APPID
  5
4FD
330
9
100
AcDbSymbolTableRecord
100
AcDbRegAppTableRecord
  2
GEVID1210635176
 70
     0
  0
APPID
  5
4FE
330
9
100
AcDbSymbolTableRecord
100
AcDbRegAppTableRecord
  2
GEVID1210635177
 70
     0
  0
APPID
  5
4FF
330
9
100
AcDbSymbolTableRecord
100
AcDbRegAppTableRecord
  2
GEVID1210635178
 70
     0
  0
APPID
  5
500
330
9
100
AcDbSymbolTableRecord
100
AcDbRegAppTableRecord
  2
GENIUS_GENIUS_GENBHEDTMP_13
 70
     0
  0
APPID
  5
501
330
9
100
AcDbSymbolTableRecord
100
AcDbRegAppTableRecord
  2
GEVID1210635179
 70
     0
  0
APPID
  5
502
330
9
100
AcDbSymbolTableRecord
100
AcDbRegAppTableRecord
  2
GEVID1210635180
 70
     0
  0
APPID
  5
503
330
9
100
AcDbSymbolTableRecord
100
AcDbRegAppTableRecord
  2
GEVID1210635181
 70
     0
  0
APPID
  5
504
330
9
100
AcDbSymbolTableRecord
100
AcDbRegAppTableRecord
  2
GEVID1210635182
 70
     0
  0
APPID
  5
505
330
9
100
AcDbSymbolTableRecord
100
AcDbRegAppTableRecord
  2
GEVID1210635184
 70
     0
  0
APPID
  5
506
330
9
100
AcDbSymbolTableRecord
100
AcDbRegAppTableRecord
  2
GEVID1210635185
 70
     0
  0
APPID
  5
507
330
9
100
AcDbSymbolTableRecord
100
AcDbRegAppTableRecord
  2
GEVID1210635186
 70
     0
  0
APPID
  5
508
330
9
100
AcDbSymbolTableRecord
100
AcDbRegAppTableRecord
  2
GEVID1210635187
 70
     0
  0
APPID
  5
509
330
9
100
AcDbSymbolTableRecord
100
AcDbRegAppTableRecord
  2
GEVID1210635188
 70
     0
  0
APPID
  5
50A
330
9
100
AcDbSymbolTableRecord
100
AcDbRegAppTableRecord
  2
GEVID1210635189
 70
     0
  0
APPID
  5
50B
330
9
100
AcDbSymbolTableRecord
100
AcDbRegAppTableRecord
  2
GEVID1210635190
 70
     0
  0
APPID
  5
50C
330
9
100
AcDbSymbolTableRecord
100
AcDbRegAppTableRecord
  2
GENIUS_GENREC_14
 70
     0
  0
APPID
  5
50D
330
9
100
AcDbSymbolTableRecord
100
AcDbRegAppTableRecord
  2
GENIUS_GENOBJ-N-REC_13
 70
     0
  0
APPID
  5
50E
330
9
100
AcDbSymbolTableRecord
100
AcDbRegAppTableRecord
  2
GEVID1210676655
 70
     0
  0
APPID
  5
50F
330
9
100
AcDbSymbolTableRecord
100
AcDbRegAppTableRecord
  2
GEVID1210676656
 70
     0
  0
APPID
  5
510
330
9
100
AcDbSymbolTableRecord
100
AcDbRegAppTableRecord
  2
GEVID1210676657
 70
     0
  0
APPID
  5
511
330
9
100
AcDbSymbolTableRecord
100
AcDbRegAppTableRecord
  2
GEVID1210676659
 70
     0
  0
APPID
  5
512
330
9
100
AcDbSymbolTableRecord
100
AcDbRegAppTableRecord
  2
GEVID1210676660
 70
     0
  0
APPID
  5
513
330
9
100
AcDbSymbolTableRecord
100
AcDbRegAppTableRecord
  2
GEVID1210676661
 70
     0
  0
APPID
  5
514
330
9
100
AcDbSymbolTableRecord
100
AcDbRegAppTableRecord
  2
GEVID1210676662
 70
     0
  0
APPID
  5
515
330
9
100
AcDbSymbolTableRecord
100
AcDbRegAppTableRecord
  2
GEVID1210721646
 70
     0
  0
APPID
  5
516
330
9
100
AcDbSymbolTableRecord
100
AcDbRegAppTableRecord
  2
GEVID1210721647
 70
     0
  0
APPID
  5
517
330
9
100
AcDbSymbolTableRecord
100
AcDbRegAppTableRecord
  2
GEVID1210721648
 70
     0
  0
APPID
  5
518
330
9
100
AcDbSymbolTableRecord
100
AcDbRegAppTableRecord
  2
GEVID1210721649
 70
     0
  0
APPID
  5
519
330
9
100
AcDbSymbolTableRecord
100
AcDbRegAppTableRecord
  2
GEVID1210721650
 70
     0
  0
APPID
  5
51A
330
9
100
AcDbSymbolTableRecord
100
AcDbRegAppTableRecord
  2
GEVID1210721651
 70
     0
  0
APPID
  5
51B
330
9
100
AcDbSymbolTableRecord
100
AcDbRegAppTableRecord
  2
GEVID1210721652
 70
     0
  0
APPID
  5
51C
330
9
100
AcDbSymbolTableRecord
100
AcDbRegAppTableRecord
  2
GEVID1210721653
 70
     0
  0
APPID
  5
51D
330
9
100
AcDbSymbolTableRecord
100
AcDbRegAppTableRecord
  2
PE_URL
 70
     0
  0
APPID
  5
51E
330
9
100
AcDbSymbolTableRecord
100
AcDbRegAppTableRecord
  2
GEVID1210825555
 70
     0
  0
APPID
  5
51F
330
9
100
AcDbSymbolTableRecord
100
AcDbRegAppTableRecord
  2
GEVID1210825556
 70
     0
  0
APPID
  5
520
330
9
100
AcDbSymbolTableRecord
100
AcDbRegAppTableRecord
  2
GEVID1210825557
 70
     0
  0
APPID
  5
521
330
9
100
AcDbSymbolTableRecord
100
AcDbRegAppTableRecord
  2
GEVID1210825558
 70
     0
  0
APPID
  5
522
330
9
100
AcDbSymbolTableRecord
100
AcDbRegAppTableRecord
  2
GEVID1210825559
 70
     0
  0
APPID
  5
523
330
9
100
AcDbSymbolTableRecord
100
AcDbRegAppTableRecord
  2
GEVID1210825560
 70
     0
  0
APPID
  5
524
330
9
100
AcDbSymbolTableRecord
100
AcDbRegAppTableRecord
  2
GEVID1210825561
 70
     0
  0
APPID
  5
525
330
9
100
AcDbSymbolTableRecord
100
AcDbRegAppTableRecord
  2
GEVID1210825562
 70
     0
  0
APPID
  5
526
330
9
100
AcDbSymbolTableRecord
100
AcDbRegAppTableRecord
  2
GEVID1210825563
 70
     0
  0
APPID
  5
527
330
9
100
AcDbSymbolTableRecord
100
AcDbRegAppTableRecord
  2
GEVID1210825564
 70
     0
  0
APPID
  5
528
330
9
100
AcDbSymbolTableRecord
100
AcDbRegAppTableRecord
  2
GEVID1210825565
 70
     0
  0
APPID
  5
529
330
9
100
AcDbSymbolTableRecord
100
AcDbRegAppTableRecord
  2
GEVID1210825566
 70
     0
  0
APPID
  5
52A
330
9
100
AcDbSymbolTableRecord
100
AcDbRegAppTableRecord
  2
GEVID1210825567
 70
     0
  0
APPID
  5
52B
330
9
100
AcDbSymbolTableRecord
100
AcDbRegAppTableRecord
  2
GENIUS_GENOBJ-N-ZOO_13
 70
     0
  0
APPID
  5
52C
330
9
100
AcDbSymbolTableRecord
100
AcDbRegAppTableRecord
  2
GENIUS_GENZOO_17
 70
     0
  0
APPID
  5
52D
330
9
100
AcDbSymbolTableRecord
100
AcDbRegAppTableRecord
  2
ACADANNOTATIVEDECOMPOSITION
 70
     0
  0
APPID
  5
52E
330
9
100
AcDbSymbolTableRecord
100
AcDbRegAppTableRecord
  2
GENIUS_GENOBJ-N-HTC_13
 70
     0
  0
APPID
  5
52F
330
9
100
AcDbSymbolTableRecord
100
AcDbRegAppTableRecord
  2
GENIUS_GENHATCH_13
 70
     0
  0
APPID
  5
530
330
9
100
AcDbSymbolTableRecord
100
AcDbRegAppTableRecord
  2
GEVID1210896020
 70
     0
  0
APPID
  5
531
330
9
100
AcDbSymbolTableRecord
100
AcDbRegAppTableRecord
  2
GEVID1210896021
 70
     0
  0
APPID
  5
532
330
9
100
AcDbSymbolTableRecord
100
AcDbRegAppTableRecord
  2
GEVID1209083540
 70
     0
  0
APPID
  5
533
330
9
100
AcDbSymbolTableRecord
100
AcDbRegAppTableRecord
  2
GEVMK
 70
     0
  0
APPID
  5
534
330
9
100
AcDbSymbolTableRecord
100
AcDbRegAppTableRecord
  2
GEVID1209083542
 70
     0
  0
APPID
  5
535
330
9
100
AcDbSymbolTableRecord
100
AcDbRegAppTableRecord
  2
GEVID1209083543
 70
     0
  0
APPID
  5
536
330
9
100
AcDbSymbolTableRecord
100
AcDbRegAppTableRecord
  2
GEVID1209083544
 70
     0
  0
APPID
  5
537
330
9
100
AcDbSymbolTableRecord
100
AcDbRegAppTableRecord
  2
GEVID1209083545
 70
     0
  0
APPID
  5
538
330
9
100
AcDbSymbolTableRecord
100
AcDbRegAppTableRecord
  2
GEVID1209083546
 70
     0
  0
APPID
  5
539
330
9
100
AcDbSymbolTableRecord
100
AcDbRegAppTableRecord
  2
GEVID1209083547
 70
     0
  0
APPID
  5
53A
330
9
100
AcDbSymbolTableRecord
100
AcDbRegAppTableRecord
  2
GEVID1209083548
 70
     0
  0
APPID
  5
53B
330
9
100
AcDbSymbolTableRecord
100
AcDbRegAppTableRecord
  2
GEVID1209083549
 70
     0
  0
APPID
  5
53C
330
9
100
AcDbSymbolTableRecord
100
AcDbRegAppTableRecord
  2
GEVID1209083550
 70
     0
  0
APPID
  5
53D
330
9
100
AcDbSymbolTableRecord
100
AcDbRegAppTableRecord
  2
GEVID1209083551
 70
     0
  0
APPID
  5
53E
330
9
100
AcDbSymbolTableRecord
100
AcDbRegAppTableRecord
  2
GEVID1209083552
 70
     0
  0
APPID
  5
53F
330
9
100
AcDbSymbolTableRecord
100
AcDbRegAppTableRecord
  2
GEVID1209083553
 70
     0
  0
APPID
  5
540
330
9
100
AcDbSymbolTableRecord
100
AcDbRegAppTableRecord
  2
GEVID1210896022
 70
     0
  0
APPID
  5
541
330
9
100
AcDbSymbolTableRecord
100
AcDbRegAppTableRecord
  2
GEVID1211508364
 70
     0
  0
APPID
  5
542
330
9
100
AcDbSymbolTableRecord
100
AcDbRegAppTableRecord
  2
GEVID1211414908
 70
     0
  0
APPID
  5
543
330
9
100
AcDbSymbolTableRecord
100
AcDbRegAppTableRecord
  2
GEVID1211414909
 70
     0
  0
APPID
  5
544
330
9
100
AcDbSymbolTableRecord
100
AcDbRegAppTableRecord
  2
GEVID1211508359
 70
     0
  0
APPID
  5
545
330
9
100
AcDbSymbolTableRecord
100
AcDbRegAppTableRecord
  2
GEVID1211508360
 70
     0
  0
APPID
  5
546
330
9
100
AcDbSymbolTableRecord
100
AcDbRegAppTableRecord
  2
GEVID1211508361
 70
     0
  0
APPID
  5
547
330
9
100
AcDbSymbolTableRecord
100
AcDbRegAppTableRecord
  2
GEVID1211508362
 70
     0
  0
APPID
  5
548
330
9
100
AcDbSymbolTableRecord
100
AcDbRegAppTableRecord
  2
GEVID1211508363
 70
     0
  0
APPID
  5
549
330
9
100
AcDbSymbolTableRecord
100
AcDbRegAppTableRecord
  2
GEVID1211878469
 70
     0
  0
APPID
  5
54A
330
9
100
AcDbSymbolTableRecord
100
AcDbRegAppTableRecord
  2
GEVID1212642819
 70
     0
  0
APPID
  5
54B
330
9
100
AcDbSymbolTableRecord
100
AcDbRegAppTableRecord
  2
GEVID1212642820
 70
     0
  0
APPID
  5
54C
330
9
100
AcDbSymbolTableRecord
100
AcDbRegAppTableRecord
  2
GEVID1212642821
 70
     0
  0
APPID
  5
54D
330
9
100
AcDbSymbolTableRecord
100
AcDbRegAppTableRecord
  2
GEVID1212642822
 70
     0
  0
APPID
  5
54E
330
9
100
AcDbSymbolTableRecord
100
AcDbRegAppTableRecord
  2
GEVID1212642823
 70
     0
  0
APPID
  5
54F
330
9
100
AcDbSymbolTableRecord
100
AcDbRegAppTableRecord
  2
GEVID1212642825
 70
     0
  0
APPID
  5
550
330
9
100
AcDbSymbolTableRecord
100
AcDbRegAppTableRecord
  2
GEVID1212642826
 70
     0
  0
APPID
  5
551
330
9
100
AcDbSymbolTableRecord
100
AcDbRegAppTableRecord
  2
GEVID1212642827
 70
     0
  0
APPID
  5
552
330
9
100
AcDbSymbolTableRecord
100
AcDbRegAppTableRecord
  2
GEVID1212642828
 70
     0
  0
APPID
  5
553
330
9
100
AcDbSymbolTableRecord
100
AcDbRegAppTableRecord
  2
GEVID1212642831
 70
     0
  0
APPID
  5
554
330
9
100
AcDbSymbolTableRecord
100
AcDbRegAppTableRecord
  2
GEVID1212642834
 70
     0
  0
APPID
  5
555
330
9
100
AcDbSymbolTableRecord
100
AcDbRegAppTableRecord
  2
GEVID1212642835
 70
     0
  0
APPID
  5
556
330
9
100
AcDbSymbolTableRecord
100
AcDbRegAppTableRecord
  2
GEVID1212642836
 70
     0
  0
APPID
  5
557
330
9
100
AcDbSymbolTableRecord
100
AcDbRegAppTableRecord
  2
GEVID1212642837
 70
     0
  0
APPID
  5
558
330
9
100
AcDbSymbolTableRecord
100
AcDbRegAppTableRecord
  2
GEVID1212642839
 70
     0
  0
APPID
  5
559
330
9
100
AcDbSymbolTableRecord
100
AcDbRegAppTableRecord
  2
GEVID1212642840
 70
     0
  0
APPID
  5
55A
330
9
100
AcDbSymbolTableRecord
100
AcDbRegAppTableRecord
  2
GEVID1212642841
 70
     0
  0
APPID
  5
55B
330
9
100
AcDbSymbolTableRecord
100
AcDbRegAppTableRecord
  2
GEVID1212655312
 70
     0
  0
APPID
  5
55C
330
9
100
AcDbSymbolTableRecord
100
AcDbRegAppTableRecord
  2
GEVID1212655313
 70
     0
  0
APPID
  5
55D
330
9
100
AcDbSymbolTableRecord
100
AcDbRegAppTableRecord
  2
GEVID1212656533
 70
     0
  0
APPID
  5
55E
330
9
100
AcDbSymbolTableRecord
100
AcDbRegAppTableRecord
  2
GEVID1212656534
 70
     0
  0
APPID
  5
55F
330
9
100
AcDbSymbolTableRecord
100
AcDbRegAppTableRecord
  2
GEVID1212656535
 70
     0
  0
APPID
  5
560
330
9
100
AcDbSymbolTableRecord
100
AcDbRegAppTableRecord
  2
GEVID1212656536
 70
     0
  0
APPID
  5
561
330
9
100
AcDbSymbolTableRecord
100
AcDbRegAppTableRecord
  2
GEVID1212656538
 70
     0
  0
APPID
  5
562
330
9
100
AcDbSymbolTableRecord
100
AcDbRegAppTableRecord
  2
GEVID1212656541
 70
     0
  0
APPID
  5
563
330
9
100
AcDbSymbolTableRecord
100
AcDbRegAppTableRecord
  2
GEVID1212656543
 70
     0
  0
APPID
  5
564
330
9
100
AcDbSymbolTableRecord
100
AcDbRegAppTableRecord
  2
GENIUS_GENOBJ-F-PFASSM_13
 70
     0
  0
APPID
  5
565
330
9
100
AcDbSymbolTableRecord
100
AcDbRegAppTableRecord
  2
GEVID1212656544
 70
     0
  0
APPID
  5
566
330
9
100
AcDbSymbolTableRecord
100
AcDbRegAppTableRecord
  2
GEVID1212656545
 70
     0
  0
APPID
  5
567
330
9
100
AcDbSymbolTableRecord
100
AcDbRegAppTableRecord
  2
GEVID1212656546
 70
     0
  0
APPID
  5
568
330
9
100
AcDbSymbolTableRecord
100
AcDbRegAppTableRecord
  2
GEVID1212656547
 70
     0
  0
APPID
  5
569
330
9
100
AcDbSymbolTableRecord
100
AcDbRegAppTableRecord
  2
GEVID1212656548
 70
     0
  0
APPID
  5
56A
330
9
100
AcDbSymbolTableRecord
100
AcDbRegAppTableRecord
  2
GEVID1212656549
 70
     0
  0
APPID
  5
56B
330
9
100
AcDbSymbolTableRecord
100
AcDbRegAppTableRecord
  2
GEVID1212656550
 70
     0
  0
APPID
  5
56C
330
9
100
AcDbSymbolTableRecord
100
AcDbRegAppTableRecord
  2
GEVID1212656552
 70
     0
  0
APPID
  5
56D
330
9
100
AcDbSymbolTableRecord
100
AcDbRegAppTableRecord
  2
GEVID1212656553
 70
     0
  0
APPID
  5
56E
330
9
100
AcDbSymbolTableRecord
100
AcDbRegAppTableRecord
  2
GEVID1212656554
 70
     0
  0
APPID
  5
56F
330
9
100
AcDbSymbolTableRecord
100
AcDbRegAppTableRecord
  2
GEVID1212656555
 70
     0
  0
APPID
  5
570
330
9
100
AcDbSymbolTableRecord
100
AcDbRegAppTableRecord
  2
GEVID1212656556
 70
     0
  0
APPID
  5
571
330
9
100
AcDbSymbolTableRecord
100
AcDbRegAppTableRecord
  2
GEVID1212656557
 70
     0
  0
APPID
  5
572
330
9
100
AcDbSymbolTableRecord
100
AcDbRegAppTableRecord
  2
GEVID1212656559
 70
     0
  0
APPID
  5
573
330
9
100
AcDbSymbolTableRecord
100
AcDbRegAppTableRecord
  2
GEVID1212656560
 70
     0
  0
APPID
  5
574
330
9
100
AcDbSymbolTableRecord
100
AcDbRegAppTableRecord
  2
GEVID1212656561
 70
     0
  0
APPID
  5
575
330
9
100
AcDbSymbolTableRecord
100
AcDbRegAppTableRecord
  2
GEVID1212656562
 70
     0
  0
APPID
  5
576
330
9
100
AcDbSymbolTableRecord
100
AcDbRegAppTableRecord
  2
GEVID1212656563
 70
     0
  0
APPID
  5
577
330
9
100
AcDbSymbolTableRecord
100
AcDbRegAppTableRecord
  2
GEVID1212711781
 70
     0
  0
APPID
  5
578
330
9
100
AcDbSymbolTableRecord
100
AcDbRegAppTableRecord
  2
GEVID1212711782
 70
     0
  0
APPID
  5
579
330
9
100
AcDbSymbolTableRecord
100
AcDbRegAppTableRecord
  2
GEVID1212711783
 70
     0
  0
APPID
  5
57A
330
9
100
AcDbSymbolTableRecord
100
AcDbRegAppTableRecord
  2
GEVID1212711784
 70
     0
  0
APPID
  5
57B
330
9
100
AcDbSymbolTableRecord
100
AcDbRegAppTableRecord
  2
GEVID1212711788
 70
     0
  0
APPID
  5
57C
330
9
100
AcDbSymbolTableRecord
100
AcDbRegAppTableRecord
  2
GEVID1212711789
 70
     0
  0
APPID
  5
57D
330
9
100
AcDbSymbolTableRecord
100
AcDbRegAppTableRecord
  2
GEVID1212711790
 70
     0
  0
APPID
  5
57E
330
9
100
AcDbSymbolTableRecord
100
AcDbRegAppTableRecord
  2
GEVID1212711791
 70
     0
  0
APPID
  5
57F
330
9
100
AcDbSymbolTableRecord
100
AcDbRegAppTableRecord
  2
GEVID1212711792
 70
     0
  0
APPID
  5
580
330
9
100
AcDbSymbolTableRecord
100
AcDbRegAppTableRecord
  2
GEVID1212711793
 70
     0
  0
APPID
  5
581
330
9
100
AcDbSymbolTableRecord
100
AcDbRegAppTableRecord
  2
GEVID1212711794
 70
     0
  0
APPID
  5
582
330
9
100
AcDbSymbolTableRecord
100
AcDbRegAppTableRecord
  2
GEVID1212711795
 70
     0
  0
APPID
  5
583
330
9
100
AcDbSymbolTableRecord
100
AcDbRegAppTableRecord
  2
GEVID1212711797
 70
     0
  0
APPID
  5
584
330
9
100
AcDbSymbolTableRecord
100
AcDbRegAppTableRecord
  2
GEVID1212711798
 70
     0
  0
APPID
  5
585
330
9
100
AcDbSymbolTableRecord
100
AcDbRegAppTableRecord
  2
GEVID1212711799
 70
     0
  0
APPID
  5
586
330
9
100
AcDbSymbolTableRecord
100
AcDbRegAppTableRecord
  2
GEVID1212711800
 70
     0
  0
APPID
  5
587
330
9
100
AcDbSymbolTableRecord
100
AcDbRegAppTableRecord
  2
GEVID1212711801
 70
     0
  0
APPID
  5
588
330
9
100
AcDbSymbolTableRecord
100
AcDbRegAppTableRecord
  2
GEVID1212711802
 70
     0
  0
APPID
  5
589
330
9
100
AcDbSymbolTableRecord
100
AcDbRegAppTableRecord
  2
GEVID1212711803
 70
     0
  0
APPID
  5
58A
330
9
100
AcDbSymbolTableRecord
100
AcDbRegAppTableRecord
  2
GEVID1212711804
 70
     0
  0
APPID
  5
58B
330
9
100
AcDbSymbolTableRecord
100
AcDbRegAppTableRecord
  2
GEVID1212711805
 70
     0
  0
APPID
  5
58C
330
9
100
AcDbSymbolTableRecord
100
AcDbRegAppTableRecord
  2
GEVID1212711806
 70
     0
  0
APPID
  5
58D
330
9
100
AcDbSymbolTableRecord
100
AcDbRegAppTableRecord
  2
GEVID1212711807
 70
     0
  0
APPID
  5
58E
330
9
100
AcDbSymbolTableRecord
100
AcDbRegAppTableRecord
  2
GEVID1212711808
 70
     0
  0
APPID
  5
58F
330
9
100
AcDbSymbolTableRecord
100
AcDbRegAppTableRecord
  2
GEVID1212711809
 70
     0
  0
APPID
  5
590
330
9
100
AcDbSymbolTableRecord
100
AcDbRegAppTableRecord
  2
GEVID1212711810
 70
     0
  0
APPID
  5
591
330
9
100
AcDbSymbolTableRecord
100
AcDbRegAppTableRecord
  2
GEVID1212711811
 70
     0
  0
APPID
  5
90A
330
9
100
AcDbSymbolTableRecord
100
AcDbRegAppTableRecord
  2
GENIUS_GENTRA_14
 70
     0
  0
APPID
  5
919
330
9
100
AcDbSymbolTableRecord
100
AcDbRegAppTableRecord
  2
GENIUS_GENOBJ-N-TIT_13
 70
     0
  0
APPID
  5
91A
330
9
100
AcDbSymbolTableRecord
100
AcDbRegAppTableRecord
  2
GENIUS_GENTITLE_13
 70
     0
  0
APPID
  5
949
330
9
100
AcDbSymbolTableRecord
100
AcDbRegAppTableRecord
  2
GENIUS_GENBLLY_14
 70
     0
  0
APPID
  5
DDD
330
9
100
AcDbSymbolTableRecord
100
AcDbRegAppTableRecord
  2
GEVID1213165152
 70
     0
  0
APPID
  5
12F9
330
9
100
AcDbSymbolTableRecord
100
AcDbRegAppTableRecord
  2
AcDbDynamicBlockTrueName
 70
     0
  0
APPID
  5
12FA
330
9
100
AcDbSymbolTableRecord
100
AcDbRegAppTableRecord
  2
ACDBBLOCKREPETAG
 70
     0
  0
APPID
  5
1C15
330
9
100
AcDbSymbolTableRecord
100
AcDbRegAppTableRecord
  2
GEVID1214872427
 70
     0
  0
APPID
  5
1C2A
330
9
100
AcDbSymbolTableRecord
100
AcDbRegAppTableRecord
  2
GEVID1214872428
 70
     0
  0
APPID
  5
1C2F
330
9
100
AcDbSymbolTableRecord
100
AcDbRegAppTableRecord
  2
GEVID1214872429
 70
     0
  0
APPID
  5
1C33
330
9
100
AcDbSymbolTableRecord
100
AcDbRegAppTableRecord
  2
GEVID1214872430
 70
     0
  0
APPID
  5
1C3F
330
9
100
AcDbSymbolTableRecord
100
AcDbRegAppTableRecord
  2
GEVID1214872432
 70
     0
  0
APPID
  5
1C4E
330
9
100
AcDbSymbolTableRecord
100
AcDbRegAppTableRecord
  2
GEVID1214872433
 70
     0
  0
APPID
  5
20DC
330
9
100
AcDbSymbolTableRecord
100
AcDbRegAppTableRecord
  2
AcDbDynamicBlockGUID
 70
     0
  0
APPID
  5
20FD
330
9
100
AcDbSymbolTableRecord
100
AcDbRegAppTableRecord
  2
GENIUS_GENOBJ-N-REV_13
 70
     0
  0
APPID
  5
20FE
330
9
100
AcDbSymbolTableRecord
100
AcDbRegAppTableRecord
  2
GENIUS_GENOBJ-N-RSSYM_13
 70
     0
  0
APPID
  5
20FF
330
9
100
AcDbSymbolTableRecord
100
AcDbRegAppTableRecord
  2
GENIUS_GENSYMENT_13
 70
     0
  0
APPID
  5
2100
330
9
100
AcDbSymbolTableRecord
100
AcDbRegAppTableRecord
  2
GENIUS_GENSCSYM_13
 70
     0
  0
APPID
  5
4765
330
9
100
AcDbSymbolTableRecord
100
AcDbRegAppTableRecord
  2
GEVID1236732270
 70
     0
  0
ENDTAB
  0
TABLE
  2
DIMSTYLE
  5
A
330
0
100
AcDbSymbolTable
 70
    29
100
AcDbDimStyleTable
 71
     1
340
5AB
  0
DIMSTYLE
105
5AB
330
A
100
AcDbSymbolTableRecord
100
AcDbDimStyleTableRecord
  2
SEISA
 70
     0
  4
"
 40
3.0
 41
2.5
 42
1.0
 43
10.0
 44
1.0
 47
0.1
 48
0.1
 73
     0
 74
     0
 77
     3
 78
     8
 79
     2
 90
     1
140
3.5
141
0.0
143
0.0393701
146
0.71
147
1.5
172
     1
176
     3
177
     3
178
     3
271
     2
272
     2
283
     0
284
     8
286
     8
340
5D5
341
69
342
69
371
    -1
372
    -1
1001
ACAD_DSTYLE_DIMJAG
1070
   388
1040
1.5
1001
ACAD_DSTYLE_DIMTALN
1070
   392
1070
     1
  0
DIMSTYLE
105
5E9
102
{ACAD_REACTORS
330
6B1B
330
6B7B
330
6B93
330
6BAF
330
6C0E
330
6C2A
330
6D8A
330
6EF1
330
6F09
330
6F21
330
71A6
330
8385
330
83B8
330
8482
330
84AC
102
}
330
A
100
AcDbSymbolTableRecord
100
AcDbDimStyleTableRecord
  2
SEISA$0
 70
     0
  4
"
 40
3.0
 41
2.5
 42
1.0
 43
10.0
 44
1.0
 47
0.1
 48
0.1
 73
     0
 74
     0
 77
     3
 78
     8
 79
     2
 90
     1
140
3.5
141
0.0
143
0.0393701
146
0.71
147
1.5
172
     1
176
     3
177
     3
178
     3
271
     2
272
     2
283
     0
284
     8
286
     8
340
5D5
341
69
342
69
371
    -1
372
    -1
  0
DIMSTYLE
105
88DD
330
A
100
AcDbSymbolTableRecord
100
AcDbDimStyleTableRecord
  2
AM_ISO
 70
     0
  4
"
 41
2.5
 42
1.0
 43
10.0
 44
1.0
 47
0.1
 48
0.1
 73
     0
 74
     0
 77
     1
 78
     8
 79
     2
 90
     1
140
3.5
141
0.0
143
0.0393701
146
0.71
147
1.5
172
     1
176
   256
177
   256
178
     2
271
     2
272
     3
274
     4
283
     0
284
     8
340
11
371
    -1
372
    -1
  0
DIMSTYLE
105
88DE
330
A
100
AcDbSymbolTableRecord
100
AcDbDimStyleTableRecord
  2
AM_ISO$3
 70
     0
  4
"
 41
2.5
 42
1.0
 43
10.0
 44
1.0
 47
0.1
 48
0.1
 73
     0
 77
     1
 78
     8
 79
     2
 90
     1
140
3.5
141
0.0
143
0.0393701
146
0.71
147
1.5
176
   256
177
   256
178
     2
271
     2
272
     3
274
     4
283
     0
284
     8
288
     1
289
     0
340
11
371
    -1
372
    -1
  0
DIMSTYLE
105
88DF
330
A
100
AcDbSymbolTableRecord
100
AcDbDimStyleTableRecord
  2
AM_ISO$4
 70
     0
  4
"
 41
2.5
 42
1.0
 43
10.0
 44
1.0
 47
0.1
 48
0.1
 73
     0
 77
     1
 78
     8
 79
     2
 90
     1
140
3.5
141
0.0
143
0.0393701
146
0.71
147
1.5
176
   256
177
   256
178
     2
271
     2
272
     3
274
     4
283
     0
284
     8
288
     1
289
     0
340
11
371
    -1
372
    -1
  0
DIMSTYLE
105
88E0
330
A
100
AcDbSymbolTableRecord
100
AcDbDimStyleTableRecord
  2
AM_ISO$6
 70
     0
  4
"
 41
2.5
 42
1.0
 43
10.0
 44
1.0
 47
0.1
 48
0.1
 73
     0
 74
     0
 78
     8
 79
     2
 90
     1
140
3.5
141
0.0
143
0.0393701
146
0.71
147
1.5
172
     1
176
   256
177
   256
178
     2
271
     2
272
     3
274
     4
283
     0
284
     8
340
11
371
    -1
372
    -1
  0
DIMSTYLE
105
88E1
330
A
100
AcDbSymbolTableRecord
100
AcDbDimStyleTableRecord
  2
AM_ISO$7
 70
     0
  4
"
 41
2.5
 42
1.0
 43
10.0
 44
1.0
 47
0.1
 48
0.1
 73
     0
 74
     0
 77
     1
 78
     8
 79
     2
 90
     1
140
5.0
141
0.0
143
0.0393701
146
0.71
147
1.5
172
     1
176
   256
177
   256
178
     2
271
     2
272
     3
274
     4
283
     0
284
     8
340
11
371
    -1
372
    -1
  0
DIMSTYLE
105
88E2
330
A
100
AcDbSymbolTableRecord
100
AcDbDimStyleTableRecord
  2
AM_ISO$SF
 70
     0
  4
"
 41
2.5
 42
1.0
 43
10.0
 44
1.0
 47
0.1
 48
0.1
 73
     0
 74
     0
 75
     1
 76
     1
 77
     1
 78
     8
 79
     2
 90
     1
140
3.5
141
0.0
143
0.0393701
146
0.71
147
1.5
172
     1
176
   256
177
   256
178
     2
271
     2
272
     3
274
     4
283
     0
284
     8
340
11
371
    -1
372
    -1
  0
DIMSTYLE
105
88E3
330
A
100
AcDbSymbolTableRecord
100
AcDbDimStyleTableRecord
  2
AM_ISO$SH
 70
     0
  4
"
 41
2.5
 42
1.0
 43
10.0
 44
1.0
 47
0.1
 48
0.1
 73
     0
 74
     0
 75
     1
 76
     1
 77
     1
 78
     8
 79
     2
 90
     1
140
3.5
141
0.0
143
0.0393701
144
2.0
146
0.71
147
1.5
172
     1
173
     1
176
   256
177
   256
178
     2
271
     2
272
     3
274
     4
283
     0
284
     8
340
11
343
74
371
    -1
372
    -1
  0
ENDTAB
  0
TABLE
  2
BLOCK_RECORD
  5
1
330
0
100
AcDbSymbolTable
 70
    30
  0
BLOCK_RECORD
  5
1F
102
{ACAD_XDICTIONARY
360
82
102
}
330
1
100
AcDbSymbolTableRecord
100
AcDbBlockTableRecord
  2
*Model_Space
340
22
 70
     0
280
     1
281
     0
  0
BLOCK_RECORD
  5
1B
330
1
100
AcDbSymbolTableRecord
100
AcDbBlockTableRecord
  2
*Paper_Space
340
1E
 70
     0
280
     1
281
     0
  0
BLOCK_RECORD
  5
23
330
1
100
AcDbSymbolTableRecord
100
AcDbBlockTableRecord
  2
*Paper_Space0
340
26
 70
     0
280
     1
281
     0
  0
BLOCK_RECORD
  5
69
330
1
100
AcDbSymbolTableRecord
100
AcDbBlockTableRecord
  2
_Open30
340
0
102
{BLKREFS
331
6B47
331
6B48
331
6BC0
331
6BC1
331
6F45
331
6F46
331
6F57
331
6F58
331
6F69
331
6F6A
331
71B7
331
71B8
331
7BA9
331
7BBF
331
8343
331
8344
331
83B2
331
83B3
331
84A6
331
84A7
331
8622
331
8623
331
86B2
331
86B3
331
8723
331
8724
331
87A8
331
87A9
102
}
 70
     0
280
     1
281
     0
  0
BLOCK_RECORD
  5
74
330
1
100
AcDbSymbolTableRecord
100
AcDbBlockTableRecord
  2
GENAXEH
340
0
 70
     0
280
     1
281
     0
  0
BLOCK_RECORD
  5
378E
102
{ACAD_XDICTIONARY
360
378F
102
}
330
1
100
AcDbSymbolTableRecord
100
AcDbBlockTableRecord
  2
ロッカクアナツキプラグ R1／4
340
0
310
2800000020000000200000000100080000000000000400000000000000000000000000000000000000000000000080000080000000808000800000008000800080800000C0C0C000C0DCC000F0CAA6000020400000206000002080000020A0000020C0000020E00000400000004020000040400000406000004080000040A0
310
000040C0000040E00000600000006020000060400000606000006080000060A0000060C0000060E00000800000008020000080400000806000008080000080A0000080C0000080E00000A0000000A0200000A0400000A0600000A0800000A0A00000A0C00000A0E00000C0000000C0200000C0400000C0600000C0800000C0
310
A00000C0C00000C0E00000E0000000E0200000E0400000E0600000E0800000E0A00000E0C00000E0E00040000000400020004000400040006000400080004000A0004000C0004000E00040200000402020004020400040206000402080004020A0004020C0004020E000404000004040200040404000404060004040800040
310
40A0004040C0004040E00040600000406020004060400040606000406080004060A0004060C0004060E00040800000408020004080400040806000408080004080A0004080C0004080E00040A0000040A0200040A0400040A0600040A0800040A0A00040A0C00040A0E00040C0000040C0200040C0400040C0600040C08000
310
40C0A00040C0C00040C0E00040E0000040E0200040E0400040E0600040E0800040E0A00040E0C00040E0E00080000000800020008000400080006000800080008000A0008000C0008000E00080200000802020008020400080206000802080008020A0008020C0008020E00080400000804020008040400080406000804080
310
008040A0008040C0008040E00080600000806020008060400080606000806080008060A0008060C0008060E00080800000808020008080400080806000808080008080A0008080C0008080E00080A0000080A0200080A0400080A0600080A0800080A0A00080A0C00080A0E00080C0000080C0200080C0400080C0600080C0
310
800080C0A00080C0C00080C0E00080E0000080E0200080E0400080E0600080E0800080E0A00080E0C00080E0E000C0000000C0002000C0004000C0006000C0008000C000A000C000C000C000E000C0200000C0202000C0204000C0206000C0208000C020A000C020C000C020E000C0400000C0402000C0404000C0406000C0
310
408000C040A000C040C000C040E000C0600000C0602000C0604000C0606000C0608000C060A000C060C000C060E000C0800000C0802000C0804000C0806000C0808000C080A000C080C000C080E000C0A00000C0A02000C0A04000C0A06000C0A08000C0A0A000C0A0C000C0A0E000C0C00000C0C02000C0C04000C0C06000
310
C0C08000C0C0A000F0FBFF00A4A0A000808080000000FF0000FF000000FFFF00FF000000FF00FF00FFFF0000FFFFFF00000000000000000000000000000000000000000000000000000000000000000000000000000000000000000000000000F9000000000000000000000000000000000000000000000000000000000000
310
00F900000000000000000000000000000000000000000000000000000000000000F900000000000000000000000000000000000000000000000000000000000000F900000000000000000000000000000000000000000000000000000000000000F90000000000000000000000000000000000000000000000000000000000
310
0000F900000000000000000000000000000000000000000000000000000000FFFFFFFFFFFF000000000000000000000000000000000000000000000000FFFFFEFEFEFEFEFEFFFF0000000000000000000000000000000000000000FFFFFEFE000000F9000000FEFFFF000000000000000000000000000000000000FFFE0000
310
000000F900000000FE00FF00000000000000000000000000000000FFFE000000000000F90000000000FEFF00000000000000000000000000000000FF00000000000000FF000000000000FEFF0000000000000000000000000000FFFE0000000000FFFFF9FFFF00000000FEFF0000000000000000000000000000FFFE000000
310
FFFF0000F90000FF000000FEFF0000000000000000000000000000FFFE000000FF000000F90000FF000000FEFF0000000000000000F9F9F9F9F9F9FFF9F9F9F9FFF9F9F9F9F9F9FFF9F9F9F9FFF9F9F9F9F9F90000000000000000FFFE000000FF000000F90000FF000000FEFF0000000000000000000000000000FFFE0000
310
0000FFFF00F9FFFF00000000FEFF000000000000000000000000000000FF000000000000FFFF000000000000FEFF000000000000000000000000000000FFFE000000000000F90000000000FEFF0000000000000000000000000000000000FFFE0000000000F900000000FE00FF0000000000000000000000000000000000FF
310
00FE00000000F90000FEFE00FF00000000000000000000000000000000000000FFFFFEFEFEFEFEFEFE00FFFF00000000000000000000000000000000000000000000FFFFFFFFFFFFFFFF00000000000000000000000000000000000000000000000000000000F9000000000000000000000000000000000000000000000000
310
00000000000000F900000000000000000000000000000000000000000000000000000000000000F900000000000000000000000000000000000000000000000000000000000000F900000000000000000000000000000000000000000000000000000000000000F90000000000000000000000000000000000000000000000
310
0000000000000000F90000000000000000000000000000000000000000000000000000000000000000000000000000000000000000000000
102
{BLKREFS
331
5C31
102
}
 70
     4
280
     1
281
     0
  0
BLOCK_RECORD
  5
5BF2
102
{ACAD_XDICTIONARY
360
5CE8
102
}
330
1
100
AcDbSymbolTableRecord
100
AcDbBlockTableRecord
  2
ケースＡ SSM280
340
0
310
2800000020000000200000000100080000000000000400000000000000000000000000000000000000000000000080000080000000808000800000008000800080800000C0C0C000C0DCC000F0CAA6000020400000206000002080000020A0000020C0000020E00000400000004020000040400000406000004080000040A0
310
000040C0000040E00000600000006020000060400000606000006080000060A0000060C0000060E00000800000008020000080400000806000008080000080A0000080C0000080E00000A0000000A0200000A0400000A0600000A0800000A0A00000A0C00000A0E00000C0000000C0200000C0400000C0600000C0800000C0
310
A00000C0C00000C0E00000E0000000E0200000E0400000E0600000E0800000E0A00000E0C00000E0E00040000000400020004000400040006000400080004000A0004000C0004000E00040200000402020004020400040206000402080004020A0004020C0004020E000404000004040200040404000404060004040800040
310
40A0004040C0004040E00040600000406020004060400040606000406080004060A0004060C0004060E00040800000408020004080400040806000408080004080A0004080C0004080E00040A0000040A0200040A0400040A0600040A0800040A0A00040A0C00040A0E00040C0000040C0200040C0400040C0600040C08000
310
40C0A00040C0C00040C0E00040E0000040E0200040E0400040E0600040E0800040E0A00040E0C00040E0E00080000000800020008000400080006000800080008000A0008000C0008000E00080200000802020008020400080206000802080008020A0008020C0008020E00080400000804020008040400080406000804080
310
008040A0008040C0008040E00080600000806020008060400080606000806080008060A0008060C0008060E00080800000808020008080400080806000808080008080A0008080C0008080E00080A0000080A0200080A0400080A0600080A0800080A0A00080A0C00080A0E00080C0000080C0200080C0400080C0600080C0
310
800080C0A00080C0C00080C0E00080E0000080E0200080E0400080E0600080E0800080E0A00080E0C00080E0E000C0000000C0002000C0004000C0006000C0008000C000A000C000C000C000E000C0200000C0202000C0204000C0206000C0208000C020A000C020C000C020E000C0400000C0402000C0404000C0406000C0
310
408000C040A000C040C000C040E000C0600000C0602000C0604000C0606000C0608000C060A000C060C000C060E000C0800000C0802000C0804000C0806000C0808000C080A000C080C000C080E000C0A00000C0A02000C0A04000C0A06000C0A08000C0A0A000C0A0C000C0A0E000C0C00000C0C02000C0C04000C0C06000
310
C0C08000C0C0A000F0FBFF00A4A0A000808080000000FF0000FF000000FFFF00FF000000FF00FF00FFFF0000FFFFFF00000000000000000000000000000000000000000000000000000000000000000000000000000000000000000000FFFFFF0000000000000000000000000000000000000000000000000000000000FF00
310
FF0000000000000000000000000000000000000000000000000000000000FF00FF0000000000000000000000000000000000000000000000000000000000FF00FFFFFFFFFFFFFF0000000000000000000000000000000000000000000000FF00FF0000000000FF0000000000000000000000000000000000000000000000FF
310
00FF0000000000FF0000000000000000000000000000000000000000000000FF00FF0000000000FF0000000000000000000000000000000000000000000000FF00FF0000000000FF0000000000000000000000000000000000000000000000FF00FF0000000000FF0000000000000000000000000000000000000000000000
310
FF00FF0000000000FF0000000000000000000000000000000000000000000000FFFFFF0000000000FF0000000000000000000000000000000000000000000000FFFFFF0000000000FF0000000000000000000000000000000000000000000000FFFFFF0000000000FF00000000000000000000000000000000000000000000
310
00FF00FF0000000000FF0000000000000000000000000000000000000000000000FF00FF0000000000FF0000000000000000000000000000000000000000000000FF00FF0000000000FF0000000000000000000000000000000000000000000000000000000000000000000000000000000000000000000000000000000000
310
00000000000000000000000000000000000000000000000000000000000000000000000000000000000000000000000000000000000000000000000000000000000000000000000000000000000000000000000000000000000000000000000000000000000000000000000000000000000000000000000000000000000000
310
000000000000000000000000000000000000000000000000000000000000000000000000000000000000000000000000000000000000000000000000000000000000000000000000000000000000000000000000000000000000000000000000000000000000FF000000FFFF00000000000000000000000000000000000000
310
00000000FFFFFFFFF9F9FFFFFF0000000000000000000000000000000000000000000000FF00FFFFFFFFFFFFFF0000000000000000000000000000000000000000F9F9F9FFF9FFF9F9F90000000000000000000000000000000000000000000000000000FFFFFF000000000000000000000000000000000000000000000000
310
0000000000FFFFFF000000000000000000000000000000000000000000000000000000000000000000000000000000000000000000000000
102
{BLKREFS
331
6175
102
}
 70
     4
280
     1
281
     0
  0
BLOCK_RECORD
  5
5D5F
102
{ACAD_XDICTIONARY
360
5E1A
102
}
330
1
100
AcDbSymbolTableRecord
100
AcDbBlockTableRecord
  2
ケースＢ SSM280
340
0
310
2800000020000000200000000100080000000000000400000000000000000000000000000000000000000000000080000080000000808000800000008000800080800000C0C0C000C0DCC000F0CAA6000020400000206000002080000020A0000020C0000020E00000400000004020000040400000406000004080000040A0
310
000040C0000040E00000600000006020000060400000606000006080000060A0000060C0000060E00000800000008020000080400000806000008080000080A0000080C0000080E00000A0000000A0200000A0400000A0600000A0800000A0A00000A0C00000A0E00000C0000000C0200000C0400000C0600000C0800000C0
310
A00000C0C00000C0E00000E0000000E0200000E0400000E0600000E0800000E0A00000E0C00000E0E00040000000400020004000400040006000400080004000A0004000C0004000E00040200000402020004020400040206000402080004020A0004020C0004020E000404000004040200040404000404060004040800040
310
40A0004040C0004040E00040600000406020004060400040606000406080004060A0004060C0004060E00040800000408020004080400040806000408080004080A0004080C0004080E00040A0000040A0200040A0400040A0600040A0800040A0A00040A0C00040A0E00040C0000040C0200040C0400040C0600040C08000
310
40C0A00040C0C00040C0E00040E0000040E0200040E0400040E0600040E0800040E0A00040E0C00040E0E00080000000800020008000400080006000800080008000A0008000C0008000E00080200000802020008020400080206000802080008020A0008020C0008020E00080400000804020008040400080406000804080
310
008040A0008040C0008040E00080600000806020008060400080606000806080008060A0008060C0008060E00080800000808020008080400080806000808080008080A0008080C0008080E00080A0000080A0200080A0400080A0600080A0800080A0A00080A0C00080A0E00080C0000080C0200080C0400080C0600080C0
310
800080C0A00080C0C00080C0E00080E0000080E0200080E0400080E0600080E0800080E0A00080E0C00080E0E000C0000000C0002000C0004000C0006000C0008000C000A000C000C000C000E000C0200000C0202000C0204000C0206000C0208000C020A000C020C000C020E000C0400000C0402000C0404000C0406000C0
310
408000C040A000C040C000C040E000C0600000C0602000C0604000C0606000C0608000C060A000C060C000C060E000C0800000C0802000C0804000C0806000C0808000C080A000C080C000C080E000C0A00000C0A02000C0A04000C0A06000C0A08000C0A0A000C0A0C000C0A0E000C0C00000C0C02000C0C04000C0C06000
310
C0C08000C0C0A000F0FBFF00A4A0A000808080000000FF0000FF000000FFFF00FF000000FF00FF00FFFF0000FFFFFF00000000000000000000000000000000000000000000000000000000000000000000000000000000000000000000000000FFFFFF00000000000000000000000000000000000000000000000000000000
310
00FF00FF0000000000000000000000000000000000000000000000000000000000F9F9F9F9F9F90000000000000000000000000000000000000000FFFFFFFFFFFFFF00000000000000000000000000000000000000000000000000FF0000000000FF00000000000000000000000000000000000000000000000000FF000000
310
0000FF00000000000000000000000000000000000000000000000000FF0000000000FF00000000000000000000000000000000000000000000000000FF0000000000FF00000000000000000000000000000000000000000000000000FF0000000000FF00000000000000000000000000000000000000000000000000FF0000
310
000000FF00000000000000000000000000000000000000000000000000FF0000000000FF00000000000000000000000000000000000000000000000000FF0000000000FF00000000000000000000000000000000000000000000000000FF0000000000FF00000000000000000000000000000000000000000000000000FF00
310
00000000FF00000000000000000000000000000000000000000000000000FF0000000000FF00000000000000000000000000000000000000000000000000FF0000000000FF00000000000000000000000000000000000000000000000000000000000000000000000000000000000000000000000000000000000000000000
310
00000000000000000000000000000000000000000000000000000000000000000000000000000000000000000000000000000000000000000000000000000000000000000000000000000000000000000000000000000000000000000000000000000000000000000000000000000000000000000000000000000000000000
310
000000000000000000000000000000000000000000000000000000000000000000000000000000000000000000000000000000000000000000000000000000000000000000000000000000000000000000000000000000000000000000000000FFFFFF000000FF000000000000000000000000000000000000000000000000
310
00FFFFFFF9F9FFFFFFFF0000000000000000000000000000000000000000000000FFFFFFFFFFFFFF00FF0000000000000000000000000000000000000000000000000000000000FFFFFF0000000000000000000000000000000000000000000000000000000000FFFFFF000000000000000000000000000000000000000000
310
0000000000000000FFFFFF000000000000000000000000000000000000000000000000000000000000000000000000000000000000000000
102
{BLKREFS
331
5DA0
102
}
 70
     4
280
     1
281
     0
  0
BLOCK_RECORD
  5
5E81
102
{ACAD_XDICTIONARY
360
64FD
102
}
330
1
100
AcDbSymbolTableRecord
100
AcDbBlockTableRecord
  2
センタＡ SSM280
340
0
310
2800000020000000200000000100080000000000000400000000000000000000000000000000000000000000000080000080000000808000800000008000800080800000C0C0C000C0DCC000F0CAA6000020400000206000002080000020A0000020C0000020E00000400000004020000040400000406000004080000040A0
310
000040C0000040E00000600000006020000060400000606000006080000060A0000060C0000060E00000800000008020000080400000806000008080000080A0000080C0000080E00000A0000000A0200000A0400000A0600000A0800000A0A00000A0C00000A0E00000C0000000C0200000C0400000C0600000C0800000C0
310
A00000C0C00000C0E00000E0000000E0200000E0400000E0600000E0800000E0A00000E0C00000E0E00040000000400020004000400040006000400080004000A0004000C0004000E00040200000402020004020400040206000402080004020A0004020C0004020E000404000004040200040404000404060004040800040
310
40A0004040C0004040E00040600000406020004060400040606000406080004060A0004060C0004060E00040800000408020004080400040806000408080004080A0004080C0004080E00040A0000040A0200040A0400040A0600040A0800040A0A00040A0C00040A0E00040C0000040C0200040C0400040C0600040C08000
310
40C0A00040C0C00040C0E00040E0000040E0200040E0400040E0600040E0800040E0A00040E0C00040E0E00080000000800020008000400080006000800080008000A0008000C0008000E00080200000802020008020400080206000802080008020A0008020C0008020E00080400000804020008040400080406000804080
310
008040A0008040C0008040E00080600000806020008060400080606000806080008060A0008060C0008060E00080800000808020008080400080806000808080008080A0008080C0008080E00080A0000080A0200080A0400080A0600080A0800080A0A00080A0C00080A0E00080C0000080C0200080C0400080C0600080C0
310
800080C0A00080C0C00080C0E00080E0000080E0200080E0400080E0600080E0800080E0A00080E0C00080E0E000C0000000C0002000C0004000C0006000C0008000C000A000C000C000C000E000C0200000C0202000C0204000C0206000C0208000C020A000C020C000C020E000C0400000C0402000C0404000C0406000C0
310
408000C040A000C040C000C040E000C0600000C0602000C0604000C0606000C0608000C060A000C060C000C060E000C0800000C0802000C0804000C0806000C0808000C080A000C080C000C080E000C0A00000C0A02000C0A04000C0A06000C0A08000C0A0A000C0A0C000C0A0E000C0C00000C0C02000C0C04000C0C06000
310
C0C08000C0C0A000F0FBFF00A4A0A000808080000000FF0000FF000000FFFF00FF000000FF00FF00FFFF0000FFFFFF00000000000000000000000000000000000000000000000000000000000000000000000000000000000000000000000000FFFFFFFF000000000000000000000000000000000000000000000000000000
310
00000000FFFFFFFFFFFFFF00000000000000000000000000000000000000000000000000FF0000000000FF00000000000000000000000000000000000000000000000000FF0000000000FF00000000000000000000000000000000000000000000000000FF0000000000FF0000000000000000000000000000000000000000
310
0000000000FF0000000000FF00000000000000000000000000000000000000000000000000FF0000000000FF00000000000000000000000000000000000000000000000000FF0000000000FF00000000000000000000000000000000000000000000000000FF0000000000FF00000000000000000000000000000000000000
310
000000000000FF0000000000FF00000000000000000000000000000000000000000000000000FF0000000000FF00000000000000000000000000000000000000000000000000FF0000000000FF00000000000000000000000000000000000000000000000000FF0000000000FF000000000000000000000000FF000000A4A4
310
00000000000000FF0000000000FF000000000000000000000000A4A4A4A4A40000000000000000000000000000FF000000000000000000000000FF000000000000000000000000000000000000FF000000000000000000000000FF000000000000000000000000000000000000FF000000000000000000000000FF00000000
310
0000000000000000000000000000FF000000000000000000000000FF000000000000000000000000000000000000FF000000000000000000000000FF000000000000000000000000000000000000FF000000000000000000000000FFFFFFFFFFFFFFFFFFFFFFFFFFFFFFFFFFFFFFFF000000000000000000000000FF000000
310
000000000000000000000000000000FF000000000000000000000000FF000000000000000000000000000000000000FF000000000000000000000000FF000000000000000000000000000000000000FF000000000000000000000000FF000000000000000000000000000000000000FF000000000000000000000000FF0000
310
00000000000000000000000000000000FF000000000000000000000000FFFFFFFF00F900000000000000FFFFFFFFFFFFFF000000000000000000000000000000FFF9F9F9FFFFFFFFFFFFFF000000000000000000000000000000000000000000FFFFF9FFFF0000000000000000000000000000000000000000000000000000
310
000000F900000000000000000000000000000000000000000000000000000000000000000000000000000000000000000000000000000000
102
{BLKREFS
331
5ECD
102
}
 70
     4
280
     1
281
     0
  0
BLOCK_RECORD
  5
5F2B
102
{ACAD_XDICTIONARY
360
654A
102
}
330
1
100
AcDbSymbolTableRecord
100
AcDbBlockTableRecord
  2
センタＢ SSM280
340
0
310
2800000020000000200000000100080000000000000400000000000000000000000000000000000000000000000080000080000000808000800000008000800080800000C0C0C000C0DCC000F0CAA6000020400000206000002080000020A0000020C0000020E00000400000004020000040400000406000004080000040A0
310
000040C0000040E00000600000006020000060400000606000006080000060A0000060C0000060E00000800000008020000080400000806000008080000080A0000080C0000080E00000A0000000A0200000A0400000A0600000A0800000A0A00000A0C00000A0E00000C0000000C0200000C0400000C0600000C0800000C0
310
A00000C0C00000C0E00000E0000000E0200000E0400000E0600000E0800000E0A00000E0C00000E0E00040000000400020004000400040006000400080004000A0004000C0004000E00040200000402020004020400040206000402080004020A0004020C0004020E000404000004040200040404000404060004040800040
310
40A0004040C0004040E00040600000406020004060400040606000406080004060A0004060C0004060E00040800000408020004080400040806000408080004080A0004080C0004080E00040A0000040A0200040A0400040A0600040A0800040A0A00040A0C00040A0E00040C0000040C0200040C0400040C0600040C08000
310
40C0A00040C0C00040C0E00040E0000040E0200040E0400040E0600040E0800040E0A00040E0C00040E0E00080000000800020008000400080006000800080008000A0008000C0008000E00080200000802020008020400080206000802080008020A0008020C0008020E00080400000804020008040400080406000804080
310
008040A0008040C0008040E00080600000806020008060400080606000806080008060A0008060C0008060E00080800000808020008080400080806000808080008080A0008080C0008080E00080A0000080A0200080A0400080A0600080A0800080A0A00080A0C00080A0E00080C0000080C0200080C0400080C0600080C0
310
800080C0A00080C0C00080C0E00080E0000080E0200080E0400080E0600080E0800080E0A00080E0C00080E0E000C0000000C0002000C0004000C0006000C0008000C000A000C000C000C000E000C0200000C0202000C0204000C0206000C0208000C020A000C020C000C020E000C0400000C0402000C0404000C0406000C0
310
408000C040A000C040C000C040E000C0600000C0602000C0604000C0606000C0608000C060A000C060C000C060E000C0800000C0802000C0804000C0806000C0808000C080A000C080C000C080E000C0A00000C0A02000C0A04000C0A06000C0A08000C0A0A000C0A0C000C0A0E000C0C00000C0C02000C0C04000C0C06000
310
C0C08000C0C0A000F0FBFF00A4A0A000808080000000FF0000FF000000FFFF00FF000000FF00FF00FFFF0000FFFFFF000000000000000000000000000000000000000000000000000000000000000000000000000000000000000000FFFFFFFF00000000000000000000000000000000000000000000FFFFFFFFFFFFFF0000
310
0000000000000000000000000000000000000000000000FF0000000000FF00000000000000000000000000000000000000000000000000FF0000000000FF00000000000000000000000000000000000000000000000000FF0000000000FF00000000000000000000000000000000000000000000000000FF0000000000FF00
310
000000000000000000000000000000000000000000000000FF0000000000FF00000000000000000000000000000000000000000000000000FF0000000000FF00000000000000000000000000000000000000000000000000FF0000000000FF00000000000000000000000000000000000000000000000000FF0000000000FF
310
00000000000000000000000000000000000000000000000000FF0000000000FF00000000000000000000000000000000000000000000000000FF0000000000FF00000000000000000000000000000000000000000000000000FF0000000000FF00000000000000000000000000000000000000000000000000FF0000000000
310
FF000000000000000000000000FF000000000000000000000000FF000000000000000000000000000000000000FF000000000000000000000000FF000000000000000000000000000000000000FF000000000000000000000000FF000000000000000000000000000000000000FF000000000000000000000000FF00000000
310
0000000000000000000000000000FF000000000000000000000000FF000000000000000000000000000000000000FF000000000000000000000000FF000000000000000000000000000000000000FF000000000000000000000000FFFFFFFFFFFFFFFFFFFFFFFFFFFFFFFFFFFFFFFF000000000000000000000000FF000000
310
000000000000000000000000000000FF000000000000000000000000FF000000000000000000000000000000000000FF000000000000000000000000FF000000000000000000000000000000000000FF000000000000000000000000FF000000000000000000000000000000000000FF000000000000000000000000FF0000
310
00000000000000000000000000000000FF000000000000000000000000FFFFFFFFFFFFFF00000000000000F900FFFFFFFF000000000000000000000000000000000000FFFFFFFFFFFFFFF9F9F9FF000000000000000000000000000000000000000000000000000000FFFFF9FFFF0000000000000000000000000000000000
310
000000000000000000000000F900000000000000000000000000000000000000000000000000000000000000000000000000000000000000
102
{BLKREFS
331
5F85
102
}
 70
     4
280
     1
281
     0
  0
BLOCK_RECORD
  5
611B
102
{ACAD_XDICTIONARY
360
61A9
102
}
330
1
100
AcDbSymbolTableRecord
100
AcDbBlockTableRecord
  2
リーマボルト SSM280 M12
340
0
310
2800000020000000200000000100080000000000000400000000000000000000000000000000000000000000000080000080000000808000800000008000800080800000C0C0C000C0DCC000F0CAA6000020400000206000002080000020A0000020C0000020E00000400000004020000040400000406000004080000040A0
310
000040C0000040E00000600000006020000060400000606000006080000060A0000060C0000060E00000800000008020000080400000806000008080000080A0000080C0000080E00000A0000000A0200000A0400000A0600000A0800000A0A00000A0C00000A0E00000C0000000C0200000C0400000C0600000C0800000C0
310
A00000C0C00000C0E00000E0000000E0200000E0400000E0600000E0800000E0A00000E0C00000E0E00040000000400020004000400040006000400080004000A0004000C0004000E00040200000402020004020400040206000402080004020A0004020C0004020E000404000004040200040404000404060004040800040
310
40A0004040C0004040E00040600000406020004060400040606000406080004060A0004060C0004060E00040800000408020004080400040806000408080004080A0004080C0004080E00040A0000040A0200040A0400040A0600040A0800040A0A00040A0C00040A0E00040C0000040C0200040C0400040C0600040C08000
310
40C0A00040C0C00040C0E00040E0000040E0200040E0400040E0600040E0800040E0A00040E0C00040E0E00080000000800020008000400080006000800080008000A0008000C0008000E00080200000802020008020400080206000802080008020A0008020C0008020E00080400000804020008040400080406000804080
310
008040A0008040C0008040E00080600000806020008060400080606000806080008060A0008060C0008060E00080800000808020008080400080806000808080008080A0008080C0008080E00080A0000080A0200080A0400080A0600080A0800080A0A00080A0C00080A0E00080C0000080C0200080C0400080C0600080C0
310
800080C0A00080C0C00080C0E00080E0000080E0200080E0400080E0600080E0800080E0A00080E0C00080E0E000C0000000C0002000C0004000C0006000C0008000C000A000C000C000C000E000C0200000C0202000C0204000C0206000C0208000C020A000C020C000C020E000C0400000C0402000C0404000C0406000C0
310
408000C040A000C040C000C040E000C0600000C0602000C0604000C0606000C0608000C060A000C060C000C060E000C0800000C0802000C0804000C0806000C0808000C080A000C080C000C080E000C0A00000C0A02000C0A04000C0A06000C0A08000C0A0A000C0A0C000C0A0E000C0C00000C0C02000C0C04000C0C06000
310
C0C08000C0C0A000F0FBFF00A4A0A000808080000000FF0000FF000000FFFF00FF000000FF00FF00FFFF0000FFFFFF00000000000000000000000000000000000000000000000000000000000000000000000000000000000000000000FFFFFF0000000000000000000000000000000000000000000000000000000000FF00
310
FF0000000000000000000000000000000000000000000000000000000000FF00FF0000000000000000000000000000000000000000000000000000000000FF00FFFFFFFFFFFFFF0000000000000000000000000000000000000000000000FF00FF0000000000FF0000000000000000000000000000000000000000000000FF
310
00FF0000000000FF0000000000000000000000000000000000000000000000FF00FF0000000000FF0000000000000000000000000000000000000000000000FF00FF0000000000FF0000000000000000000000000000000000000000000000FF00FF0000000000FF0000000000000000000000000000000000000000000000
310
FF00FF0000000000FF0000000000000000000000000000000000000000000000FFFFFF0000000000FF0000000000000000000000000000000000000000000000FFFFFF0000000000FF0000000000000000000000000000000000000000000000FFFFFF0000000000FF00000000000000000000000000000000000000000000
310
00FF00FF0000000000FF0000000000000000000000000000000000000000000000FF00FF0000000000FF0000000000000000000000000000000000000000000000FF00FF0000000000FF0000000000000000000000000000000000000000000000000000000000000000000000000000000000000000000000000000000000
310
00000000000000000000000000000000000000000000000000000000000000000000000000000000000000000000000000000000000000000000000000000000000000000000000000000000000000000000000000000000000000000000000000000000000000000000000000000000000000000000000000000000000000
310
000000000000000000000000000000000000000000000000000000000000000000000000000000000000000000000000000000000000000000000000000000000000000000000000000000000000000000000000000000000000000000000000000000000000FF000000FFFF00000000000000000000000000000000000000
310
00000000FFFFFFFFF9F9FFFFFF0000000000000000000000000000000000000000FFFF00FF00FFFFFFFFFFFFFF0000000000000000000000000000000000000000F9F9F9FFF9FFF9F9F90000000000000000000000000000000000000000000000FFFF00FFFFFFFFFF00000000000000000000000000000000000000000000
310
0000000000FFFFFF000000000000000000000000000000000000000000000000000000000000000000000000000000000000000000000000
102
{BLKREFS
331
6149
102
}
 70
     4
280
     1
281
     0
  0
BLOCK_RECORD
  5
6B1C
330
1
100
AcDbSymbolTableRecord
100
AcDbBlockTableRecord
  2
*D12
340
0
 70
     0
280
     1
281
     0
  0
BLOCK_RECORD
  5
6B7C
330
1
100
AcDbSymbolTableRecord
100
AcDbBlockTableRecord
  2
*D13
340
0
 70
     0
280
     1
281
     0
  0
BLOCK_RECORD
  5
6B94
330
1
100
AcDbSymbolTableRecord
100
AcDbBlockTableRecord
  2
*D14
340
0
 70
     0
280
     1
281
     0
  0
BLOCK_RECORD
  5
6BB0
330
1
100
AcDbSymbolTableRecord
100
AcDbBlockTableRecord
  2
*D15
340
0
 70
     0
280
     1
281
     0
  0
BLOCK_RECORD
  5
6C0F
330
1
100
AcDbSymbolTableRecord
100
AcDbBlockTableRecord
  2
*D16
340
0
 70
     0
280
     1
281
     0
  0
BLOCK_RECORD
  5
6C2B
330
1
100
AcDbSymbolTableRecord
100
AcDbBlockTableRecord
  2
*D17
340
0
 70
     0
280
     1
281
     0
  0
BLOCK_RECORD
  5
6D8B
330
1
100
AcDbSymbolTableRecord
100
AcDbBlockTableRecord
  2
*D18
340
0
 70
     0
280
     1
281
     0
  0
BLOCK_RECORD
  5
6EF2
330
1
100
AcDbSymbolTableRecord
100
AcDbBlockTableRecord
  2
*D19
340
0
 70
     0
280
     1
281
     0
  0
BLOCK_RECORD
  5
6F0A
330
1
100
AcDbSymbolTableRecord
100
AcDbBlockTableRecord
  2
*D20
340
0
 70
     0
280
     1
281
     0
  0
BLOCK_RECORD
  5
6F22
330
1
100
AcDbSymbolTableRecord
100
AcDbBlockTableRecord
  2
*D21
340
0
 70
     0
280
     1
281
     0
  0
BLOCK_RECORD
  5
71A7
330
1
100
AcDbSymbolTableRecord
100
AcDbBlockTableRecord
  2
*D22
340
0
 70
     0
280
     1
281
     0
  0
BLOCK_RECORD
  5
7AEF
330
1
100
AcDbSymbolTableRecord
100
AcDbBlockTableRecord
  2
GENDOT
340
0
102
{BLKREFS
331
7BA8
331
7BBE
102
}
 70
     0
280
     1
281
     0
  0
BLOCK_RECORD
  5
8386
330
1
100
AcDbSymbolTableRecord
100
AcDbBlockTableRecord
  2
*D24
340
0
 70
     0
280
     1
281
     0
  0
BLOCK_RECORD
  5
83B9
330
1
100
AcDbSymbolTableRecord
100
AcDbBlockTableRecord
  2
*D25
340
0
 70
     0
280
     1
281
     0
  0
BLOCK_RECORD
  5
8483
330
1
100
AcDbSymbolTableRecord
100
AcDbBlockTableRecord
  2
*D26
340
0
 70
     0
280
     1
281
     0
  0
BLOCK_RECORD
  5
84AD
330
1
100
AcDbSymbolTableRecord
100
AcDbBlockTableRecord
  2
*D27
340
0
 70
     0
280
     1
281
     0
  0
BLOCK_RECORD
  5
881D
330
1
100
AcDbSymbolTableRecord
100
AcDbBlockTableRecord
  2
ケース
340
0
310
2800000020000000200000000100080000000000000400000000000000000000000000000000000000000000000080000080000000808000800000008000800080800000C0C0C000C0DCC000F0CAA6000020400000206000002080000020A0000020C0000020E00000400000004020000040400000406000004080000040A0
310
000040C0000040E00000600000006020000060400000606000006080000060A0000060C0000060E00000800000008020000080400000806000008080000080A0000080C0000080E00000A0000000A0200000A0400000A0600000A0800000A0A00000A0C00000A0E00000C0000000C0200000C0400000C0600000C0800000C0
310
A00000C0C00000C0E00000E0000000E0200000E0400000E0600000E0800000E0A00000E0C00000E0E00040000000400020004000400040006000400080004000A0004000C0004000E00040200000402020004020400040206000402080004020A0004020C0004020E000404000004040200040404000404060004040800040
310
40A0004040C0004040E00040600000406020004060400040606000406080004060A0004060C0004060E00040800000408020004080400040806000408080004080A0004080C0004080E00040A0000040A0200040A0400040A0600040A0800040A0A00040A0C00040A0E00040C0000040C0200040C0400040C0600040C08000
310
40C0A00040C0C00040C0E00040E0000040E0200040E0400040E0600040E0800040E0A00040E0C00040E0E00080000000800020008000400080006000800080008000A0008000C0008000E00080200000802020008020400080206000802080008020A0008020C0008020E00080400000804020008040400080406000804080
310
008040A0008040C0008040E00080600000806020008060400080606000806080008060A0008060C0008060E00080800000808020008080400080806000808080008080A0008080C0008080E00080A0000080A0200080A0400080A0600080A0800080A0A00080A0C00080A0E00080C0000080C0200080C0400080C0600080C0
310
800080C0A00080C0C00080C0E00080E0000080E0200080E0400080E0600080E0800080E0A00080E0C00080E0E000C0000000C0002000C0004000C0006000C0008000C000A000C000C000C000E000C0200000C0202000C0204000C0206000C0208000C020A000C020C000C020E000C0400000C0402000C0404000C0406000C0
310
408000C040A000C040C000C040E000C0600000C0602000C0604000C0606000C0608000C060A000C060C000C060E000C0800000C0802000C0804000C0806000C0808000C080A000C080C000C080E000C0A00000C0A02000C0A04000C0A06000C0A08000C0A0A000C0A0C000C0A0E000C0C00000C0C02000C0C04000C0C06000
310
C0C08000C0C0A000F0FBFF00A4A0A000808080000000FF0000FF000000FFFF00FF000000FF00FF00FFFF0000FFFFFF0000000000000000000000000000000000000000000000000000000000000000000000000000000000000000000000000000000000000000000000000000000000000000000000000000000000000000
310
00000000000000000000000000000000000000000000000000000000000000000000000000000000000000000000000000000000000000000000000000000000000000000000000000000000000000000000000000000000000000000000000000000000000000000000000000000000000000000000000000000000000000
310
000000000000000000000000000000000000000000000000000000000000000000000000000000000000000000000000000000FC0000FC000000000000000000FC00FC00000000000000000000000000000000FCFCFCFC000000000000000000FCFCFC00000000000000000000000000000000FC0000FC0000000000000000
310
00FC00FC00000000000000000000000000000000FC0000FC000000000000000000FC00FC00000000000000000000000000000000FC0000FC000000000000000000FC00FC000000000000FCFCFCFCFCFCFCFC0000FC0000FC000000000000000000FC00FC0000000000FC00000000000000000000FC0000FCFCFCFCFCFCFCFC
310
FCFCFC00FC000000FCFCFCFCFCFCFCFCFCFCFC0000FC0000000000000000000000000000FC0000000000FC00000000000000000000FC0000000000000000000000000000FC0000000000FC00000000000000000000FC000000000000000000000000000000FCFCFCFCFCFCFCFCFCFCFCFCFCFC0000FC000000000000000000
310
00000000000000000000000000000000000000000000FC00000000000000000000000000000000000000000000000000000000000000FC0000000000000000000000000000000000000000000000000000000000000000FCFC0000000000000000000000000000000000000000000000000000000000000000FC0000000000
310
000000000000000000000000000000000000000000000000000000FCFCFCFCFCFCFCFCFCFCFCFCFCFCFCFCFCFCFCFCFCFCFCFCFCFC0000000000000000000000000000000000000000000000000000000000000000000000000000000000000000000000000000000000000000000000000000000000000000000000000000
310
00000000000000000000000000000000000000000000000000000000000000000000000000000000000000000000000000000000000000000000000000000000000000000000000000000000000000000000000000000000000000000000000000000000000000000000000000000000000000000000000000000000000000
310
0000000000000000000000000000000000000000000000000000000000000000000000000000000000000000000000000000000000000000
102
{BLKREFS
331
8838
102
}
 70
     4
280
     1
281
     1
  0
ENDTAB
  0
ENDSEC
  0
SECTION
  2
BLOCKS
  0
BLOCK
  5
20
330
1F
100
AcDbEntity
  8
0
100
AcDbBlockBegin
  2
*Model_Space
 70
     0
 10
0.0
 20
0.0
 30
0.0
  3
*Model_Space
  1

  0
ENDBLK
  5
21
330
1F
100
AcDbEntity
  8
0
100
AcDbBlockEnd
  0
BLOCK
  5
1C
330
1B
100
AcDbEntity
 67
     1
  8
0
100
AcDbBlockBegin
  2
*Paper_Space
 70
     0
 10
0.0
 20
0.0
 30
0.0
  3
*Paper_Space
  1

  0
ENDBLK
  5
1D
330
1B
100
AcDbEntity
 67
     1
  8
0
100
AcDbBlockEnd
  0
BLOCK
  5
24
330
23
100
AcDbEntity
 67
     1
  8
0
100
AcDbBlockBegin
  2
*Paper_Space0
 70
     0
 10
0.0
 20
0.0
 30
0.0
  3
*Paper_Space0
  1

  0
ENDBLK
  5
25
330
23
100
AcDbEntity
 67
     1
  8
0
100
AcDbBlockEnd
  0
BLOCK
  5
6D
330
69
100
AcDbEntity
  8
0
100
AcDbBlockBegin
  2
_Open30
 70
     0
 10
0.0
 20
0.0
 30
0.0
  3
_Open30
  1

  0
LINE
  5
6A
330
69
100
AcDbEntity
  8
0
  6
ByBlock
 62
     0
370
    -2
100
AcDbLine
 10
-1.0
 20
0.26794919
 30
0.0
 11
0.0
 21
0.0
 31
0.0
  0
LINE
  5
6B
330
69
100
AcDbEntity
  8
0
  6
ByBlock
 62
     0
370
    -2
100
AcDbLine
 10
0.0
 20
0.0
 30
0.0
 11
-1.0
 21
-0.26794919
 31
0.0
  0
LINE
  5
6C
330
69
100
AcDbEntity
  8
0
  6
ByBlock
 62
     0
370
    -2
100
AcDbLine
 10
0.0
 20
0.0
 30
0.0
 11
-1.0
 21
0.0
 31
0.0
  0
ENDBLK
  5
6E
330
69
100
AcDbEntity
  8
0
100
AcDbBlockEnd
  0
BLOCK
  5
76
330
74
100
AcDbEntity
  8
0
100
AcDbBlockBegin
  2
GENAXEH
 70
     0
 10
0.0
 20
0.0
 30
0.0
  3
GENAXEH
  1

  0
LINE
  5
75
330
74
100
AcDbEntity
  8
0
100
AcDbLine
 10
-1.0
 20
0.0
 30
0.0
 11
1.0
 21
0.0
 31
0.0
  0
ENDBLK
  5
77
330
74
100
AcDbEntity
  8
0
100
AcDbBlockEnd
  0
BLOCK
  5
3791
330
378E
100
AcDbEntity
  8
0
100
AcDbBlockBegin
  2
ロッカクアナツキプラグ R1／4
 70
     0
 10
0.0
 20
0.0
 30
0.0
  3
ロッカクアナツキプラグ R1／4
  1

  0
LINE
  5
5B49
330
378E
100
AcDbEntity
  8
AM_7 中心線
100
AcDbLine
 10
0.0
 20
11.63056600000003
 30
0.0
 11
0.0
 21
-11.63056599999993
 31
0.0
  0
CIRCLE
  5
5B4A
330
378E
100
AcDbEntity
  8
AM_4 細線
100
AcDbCircle
 10
0.0
 20
-0.0314669999999069
 30
0.0
 40
6.504976
  0
LINE
  5
5B4B
330
378E
100
AcDbEntity
  8
AM_7 中心線
100
AcDbLine
 10
11.63056600000027
 20
0.0
 30
0.0
 11
-11.63056600000027
 21
0.0
 31
0.0
  0
CIRCLE
  5
5B4C
330
378E
100
AcDbEntity
  8
AM_0 外形線1
100
AcDbCircle
 10
0.0
 20
-0.0314669999999069
 30
0.0
 40
7.174975999999999
  0
LINE
  5
5B4D
330
378E
100
AcDbEntity
  8
AM_0 外形線1
100
AcDbLine
 10
2.611067000000274
 20
-1.538966999999956
 30
0.0
 11
2.611067000000274
 21
1.476033000000143
 31
0.0
  0
LINE
  5
5B4E
330
378E
100
AcDbEntity
  8
AM_0 外形線1
100
AcDbLine
 10
0.0
 20
-3.046466999999893
 30
0.0
 11
2.611067000000274
 21
-1.538966999999956
 31
0.0
  0
LINE
  5
5B4F
330
378E
100
AcDbEntity
  8
AM_0 外形線1
100
AcDbLine
 10
-2.611067000000274
 20
-1.538966999999956
 30
0.0
 11
0.0
 21
-3.046466999999893
 31
0.0
  0
LINE
  5
5B50
330
378E
100
AcDbEntity
  8
AM_0 外形線1
100
AcDbLine
 10
-2.611067000000274
 20
1.476033000000143
 30
0.0
 11
-2.611067000000274
 21
-1.538966999999956
 31
0.0
  0
LINE
  5
5B51
330
378E
100
AcDbEntity
  8
AM_0 外形線1
100
AcDbLine
 10
0.0
 20
2.983533000000078
 30
0.0
 11
-2.611067000000274
 21
1.476033000000143
 31
0.0
  0
LINE
  5
5B52
330
378E
100
AcDbEntity
  8
AM_0 外形線1
100
AcDbLine
 10
2.611067000000274
 20
1.476033000000143
 30
0.0
 11
0.0
 21
2.983533000000078
 31
0.0
  0
ENDBLK
  5
379C
330
378E
100
AcDbEntity
  8
0
100
AcDbBlockEnd
  0
BLOCK
  5
5BF3
330
5BF2
100
AcDbEntity
  8
0
100
AcDbBlockBegin
  2
ケースＡ SSM280
 70
     0
 10
0.0
 20
0.0
 30
0.0
  3
ケースＡ SSM280
  1

  0
LINE
  5
5BF5
330
5BF2
100
AcDbEntity
  8
AM_0 外形線1
100
AcDbLine
 10
0.0
 20
0.0
 30
0.0
 11
0.0
 21
-139.0
 31
0.0
  0
LINE
  5
5BF6
330
5BF2
100
AcDbEntity
  8
AM_0 外形線1
100
AcDbLine
 10
82.0
 20
-102.8799349999999
 30
0.0
 11
82.0
 21
0.0
 31
0.0
  0
LINE
  5
5BF7
330
5BF2
100
AcDbEntity
  8
AM_0 外形線1
100
AcDbLine
 10
21.0
 20
-139.0
 30
0.0
 11
21.0
 21
0.0
 31
0.0
  0
LINE
  5
5BF8
330
5BF2
100
AcDbEntity
  8
AM_0 外形線1
100
AcDbLine
 10
25.0
 20
-112.0
 30
0.0
 11
78.0
 21
-112.0
 31
0.0
  0
LINE
  5
5BF9
330
5BF2
100
AcDbEntity
  8
AM_0 外形線1
100
AcDbLine
 10
1.0
 20
-140.0
 30
0.0
 11
20.0
 21
-140.0
 31
0.0
  0
LINE
  5
5BFA
330
5BF2
100
AcDbEntity
  8
AM_0 外形線1
100
AcDbLine
 10
0.0
 20
-139.0
 30
0.0
 11
1.0
 21
-140.0
 31
0.0
  0
LINE
  5
5BFB
330
5BF2
100
AcDbEntity
  8
AM_0 外形線1
100
AcDbLine
 10
20.0
 20
-140.0
 30
0.0
 11
21.0
 21
-139.0
 31
0.0
  0
ARC
  5
5BFC
330
5BF2
100
AcDbEntity
  8
AM_0 外形線1
100
AcDbCircle
 10
25.0
 20
-116.0
 30
0.0
 40
4.0
100
AcDbArc
 50
90.0
 51
180.0
  0
ARC
  5
5BFD
330
5BF2
100
AcDbEntity
  8
AM_0 外形線1
100
AcDbCircle
 10
78.0
 20
-108.0
 30
0.0
 40
4.0
100
AcDbArc
 50
270.0
 51
0.0
  0
LINE
  5
5BFE
330
5BF2
100
AcDbEntity
  8
AM_0 外形線1
100
AcDbLine
 10
82.0
 20
-108.0
 30
0.0
 11
82.0
 21
-102.8799349999999
 31
0.0
  0
LINE
  5
5BFF
330
5BF2
100
AcDbEntity
  8
AM_3 隠れ線
100
AcDbLine
 10
59.0
 20
99.60000000000002
 30
0.0
 11
28.5
 21
99.60000000000002
 31
0.0
  0
LINE
  5
5C00
330
5BF2
100
AcDbEntity
  8
AM_0 外形線1
100
AcDbLine
 10
25.0
 20
112.0
 30
0.0
 11
78.0
 21
112.0
 31
0.0
  0
LINE
  5
5C01
330
5BF2
100
AcDbEntity
  8
AM_0 外形線1
100
AcDbLine
 10
25.0
 20
105.0
 30
0.0
 11
60.0
 21
105.0
 31
0.0
  0
LINE
  5
5C02
330
5BF2
100
AcDbEntity
  8
AM_7 中心線
100
AcDbLine
 10
23.0
 20
102.0
 30
0.0
 11
62.0
 21
102.0
 31
0.0
  0
LWPOLYLINE
  5
5C03
330
5BF2
100
AcDbEntity
  8
AM_0 外形線1
100
AcDbPolyline
 90
       73
 70
     0
 43
0.0
 10
1.349999999999909
 20
111.0
 10
1.467659999999795
 20
111.008467
 10
1.58442500000001
 20
111.033803
 10
1.69940600000018
 20
111.075815
 10
1.811726999999791
 20
111.134184
 10
1.920534999999745
 20
111.208465
 10
2.02500000000009
 20
111.298093
 10
2.124327999999876
 20
111.402387
 10
2.217763000000104
 20
111.5205509999999
 10
2.304594000000179
 20
111.651687
 10
2.384160000000064
 20
111.794798
 10
2.455854999999701
 20
111.948792
 10
2.51913400000012
 20
112.1124999999999
 10
2.573515999999925
 20
112.284674
 10
2.61858499999971
 20
112.4640049999999
 10
2.653999999999995
 20
112.649128
 10
2.679489999999987
 20
112.8386329999999
 10
2.694863000000168
 20
113.031078
 10
2.700000000000271
 20
113.225
 10
2.694863000000168
 20
113.4189219999999
 10
2.679489999999987
 20
113.611367
 10
2.653999999999995
 20
113.800872
 10
2.61858499999971
 20
113.985995
 10
2.573515999999925
 20
114.1653259999999
 10
2.51913400000012
 20
114.3375
 10
2.455854999999701
 20
114.501208
 10
2.384160000000064
 20
114.6552019999999
 10
2.304594000000179
 20
114.798313
 10
2.217763000000104
 20
114.9294489999999
 10
2.124327999999876
 20
115.0476129999999
 10
2.02500000000009
 20
115.151907
 10
1.920534999999745
 20
115.241535
 10
1.811726999999791
 20
115.315816
 10
1.69940600000018
 20
115.374185
 10
1.58442500000001
 20
115.416197
 10
1.467659999999795
 20
115.441533
 10
1.349999999999909
 20
115.45
 10
1.232340000000021
 20
115.441533
 10
1.115575000000261
 20
115.416197
 10
1.00059400000009
 20
115.374185
 10
0.8882730000000265
 20
115.315816
 10
0.7794650000000729
 20
115.241535
 10
0.6749999999997272
 20
115.151907
 10
0.5756719999999405
 20
115.0476129999999
 10
0.4822370000001685
 20
114.9294489999999
 10
0.3954060000000936
 20
114.798313
 10
0.3158400000002075
 20
114.6552019999999
 10
0.2441450000001168
 20
114.501208
 10
0.1808660000001509
 20
114.3375
 10
0.1264839999998912
 20
114.1653259999999
 10
0.0814150000001064
 20
113.985995
 10
0.0459999999998218
 20
113.800872
 10
0.0205099999998311
 20
113.611367
 10
0.0051370000001043
 20
113.4189219999999
 10
0.0
 20
113.225
 10
0.0051370000001043
 20
113.031078
 10
0.0205099999998311
 20
112.8386329999999
 10
0.0459999999998218
 20
112.649128
 10
0.0814150000001064
 20
112.4640049999999
 10
0.1264839999998912
 20
112.284674
 10
0.1808660000001509
 20
112.1124999999999
 10
0.2441450000001168
 20
111.948792
 10
0.3158400000002075
 20
111.794798
 10
0.3954060000000936
 20
111.651687
 10
0.4822370000001685
 20
111.5205509999999
 10
0.5756719999999405
 20
111.402387
 10
0.6749999999997272
 20
111.298093
 10
0.7794650000000729
 20
111.208465
 10
0.8882730000000265
 20
111.134184
 10
1.00059400000009
 20
111.075815
 10
1.115575000000261
 20
111.033803
 10
1.232340000000021
 20
111.008467
 10
1.349999999999909
 20
111.0
  0
ARC
  5
5C04
330
5BF2
100
AcDbEntity
  8
AM_0 外形線1
100
AcDbCircle
 10
25.0
 20
116.0
 30
0.0
 40
4.0
100
AcDbArc
 50
180.0
 51
270.0
  0
LINE
  5
5C05
330
5BF2
100
AcDbEntity
  8
AM_0 外形線1
100
AcDbLine
 10
2.700000000000271
 20
111.5
 30
0.0
 11
2.700000000000271
 21
114.95
 31
0.0
  0
LINE
  5
5C06
330
5BF2
100
AcDbEntity
  8
AM_0 外形線1
100
AcDbLine
 10
24.0
 20
105.5
 30
0.0
 11
-4.0
 21
105.5
 31
0.0
  0
LINE
  5
5C07
330
5BF2
100
AcDbEntity
  8
AM_0 外形線1
100
AcDbLine
 10
-4.0
 20
105.5
 30
0.0
 11
-4.0
 21
100.5
 31
0.0
  0
ARC
  5
5C08
330
5BF2
100
AcDbEntity
  8
AM_0 外形線1
100
AcDbCircle
 10
2.200000000000271
 20
111.5
 30
0.0
 40
0.5
100
AcDbArc
 50
270.0
 51
0.0
  0
LINE
  5
5C09
330
5BF2
100
AcDbEntity
  8
AM_0 外形線1
100
AcDbLine
 10
-3.5
 20
111.0
 30
0.0
 11
2.200000000000271
 21
111.0
 31
0.0
  0
LINE
  5
5C0A
330
5BF2
100
AcDbEntity
  8
AM_0 外形線1
100
AcDbLine
 10
-4.0
 20
110.5
 30
0.0
 11
-3.5
 21
111.0
 31
0.0
  0
LINE
  5
5C0B
330
5BF2
100
AcDbEntity
  8
AM_0 外形線1
100
AcDbLine
 10
-4.0
 20
105.5
 30
0.0
 11
-4.0
 21
110.5
 31
0.0
  0
LINE
  5
5C0C
330
5BF2
100
AcDbEntity
  8
AM_0 外形線1
100
AcDbLine
 10
25.0
 20
100.6
 30
0.0
 11
25.0
 21
96.31316200000004
 31
0.0
  0
ARC
  5
5C0D
330
5BF2
100
AcDbEntity
  8
AM_0 外形線1
100
AcDbCircle
 10
24.0
 20
104.5
 30
0.0
 40
1.0
100
AcDbArc
 50
0.0
 51
90.0
  0
LINE
  5
5C0E
330
5BF2
100
AcDbEntity
  8
AM_0 外形線1
100
AcDbLine
 10
25.0
 20
100.6
 30
0.0
 11
25.0
 21
104.5
 31
0.0
  0
LINE
  5
5C0F
330
5BF2
100
AcDbEntity
  8
AM_0 外形線1
100
AcDbLine
 10
26.0
 20
99.60000000000002
 30
0.0
 11
25.0
 21
100.6
 31
0.0
  0
LINE
  5
5C10
330
5BF2
100
AcDbEntity
  8
AM_0 外形線1
100
AcDbLine
 10
28.5
 20
99.60000000000002
 30
0.0
 11
26.0
 21
99.60000000000002
 31
0.0
  0
LINE
  5
5C11
330
5BF2
100
AcDbEntity
  8
AM_0 外形線1
100
AcDbLine
 10
21.0
 20
135.0
 30
0.0
 11
0.0
 21
135.0
 31
0.0
  0
LINE
  5
5C12
330
5BF2
100
AcDbEntity
  8
AM_0 外形線1
100
AcDbLine
 10
1.0
 20
140.0
 30
0.0
 11
20.0
 21
140.0
 31
0.0
  0
LINE
  5
5C13
330
5BF2
100
AcDbEntity
  8
AM_7 中心線
100
AcDbLine
 10
-34.0
 20
128.0
 30
0.0
 11
44.0
 21
128.0
 31
0.0
  0
LINE
  5
5C14
330
5BF2
100
AcDbEntity
  8
AM_0 外形線1
100
AcDbLine
 10
0.0
 20
115.45
 30
0.0
 11
0.0
 21
121.0
 31
0.0
  0
LINE
  5
5C15
330
5BF2
100
AcDbEntity
  8
AM_0 外形線1
100
AcDbLine
 10
2.200000000000271
 20
115.45
 30
0.0
 11
0.0
 21
115.45
 31
0.0
  0
ARC
  5
5C16
330
5BF2
100
AcDbEntity
  8
AM_0 外形線1
100
AcDbCircle
 10
2.200000000000271
 20
114.95
 30
0.0
 40
0.5
100
AcDbArc
 50
0.0
 51
90.0
  0
LINE
  5
5C17
330
5BF2
100
AcDbEntity
  8
AM_0 外形線1
100
AcDbLine
 10
0.0
 20
139.0
 30
0.0
 11
1.0
 21
140.0
 31
0.0
  0
LINE
  5
5C18
330
5BF2
100
AcDbEntity
  8
AM_0 外形線1
100
AcDbLine
 10
0.0
 20
135.0
 30
0.0
 11
0.0
 21
139.0
 31
0.0
  0
LINE
  5
5C19
330
5BF2
100
AcDbEntity
  8
AM_0 外形線1
100
AcDbLine
 10
21.0
 20
138.75
 30
0.0
 11
21.0
 21
117.25
 31
0.0
  0
LINE
  5
5C1A
330
5BF2
100
AcDbEntity
  8
AM_0 外形線1
100
AcDbLine
 10
21.0
 20
121.0
 30
0.0
 11
21.0
 21
116.0
 31
0.0
  0
LINE
  5
5C1B
330
5BF2
100
AcDbEntity
  8
AM_0 外形線1
100
AcDbLine
 10
21.0
 20
139.0
 30
0.0
 11
21.0
 21
135.0
 31
0.0
  0
LINE
  5
5C1C
330
5BF2
100
AcDbEntity
  8
AM_0 外形線1
100
AcDbLine
 10
20.0
 20
140.0
 30
0.0
 11
21.0
 21
139.0
 31
0.0
  0
LINE
  5
5C1D
330
5BF2
100
AcDbEntity
  8
AM_0 外形線1
100
AcDbLine
 10
82.0
 20
96.5
 30
0.0
 11
79.59999999999991
 21
96.5
 31
0.0
  0
ARC
  5
5C1E
330
5BF2
100
AcDbEntity
  8
AM_0 外形線1
100
AcDbCircle
 10
78.0
 20
108.0
 30
0.0
 40
4.0
100
AcDbArc
 50
0.0
 51
90.0
  0
LWPOLYLINE
  5
5C1F
330
5BF2
100
AcDbEntity
  8
AM_0 外形線1
100
AcDbPolyline
 90
       73
 70
     0
 43
0.0
 10
68.36485900000003
 20
98.44735300000003
 10
68.38616800000001
 20
98.14666500000001
 10
68.44993500000009
 20
97.84826699999996
 10
68.55567400000018
 20
97.55442699999992
 10
68.70258000000013
 20
97.267383
 10
68.88953499999979
 20
96.98932000000002
 10
69.11511699999983
 20
96.722353
 10
69.3776069999999
 20
96.46851399999993
 10
69.67500999999993
 20
96.22973600000001
 10
70.00506100000007
 20
96.007834
 10
70.36524800000006
 20
95.80449900000008
 10
70.75283100000001
 20
95.62127800000007
 10
71.16485899999998
 20
95.459565
 10
71.59819700000003
 20
95.32059100000003
 10
72.04954599999997
 20
95.20541300000003
 10
72.51547200000004
 20
95.114909
 10
72.9924289999999
 20
95.04976599999997
 10
73.47678700000007
 20
95.01048099999993
 10
73.96485899999993
 20
94.99735299999995
 10
74.45293099999981
 20
95.01048099999993
 10
74.93728899999997
 20
95.04976599999997
 10
75.41424499999994
 20
95.114909
 10
75.88017200000013
 20
95.20541300000003
 10
76.33152100000007
 20
95.32059100000003
 10
76.76485899999987
 20
95.459565
 10
77.17688700000008
 20
95.62127800000007
 10
77.56446899999992
 20
95.80449900000008
 10
77.92465700000002
 20
96.007834
 10
78.25470799999994
 20
96.22973600000001
 10
78.55211000000007
 20
96.46851399999993
 10
78.81460100000005
 20
96.722353
 10
79.04018200000018
 20
96.98932000000002
 10
79.22713699999984
 20
97.267383
 10
79.3740429999998
 20
97.55442699999992
 10
79.4797819999999
 20
97.84826699999996
 10
79.54354899999998
 20
98.14666500000001
 10
79.56485900000007
 20
98.44735300000003
 10
79.54354899999998
 20
98.74804000000006
 10
79.4797819999999
 20
99.04643899999996
 10
79.3740429999998
 20
99.34027800000002
 10
79.22713699999984
 20
99.62732199999996
 10
79.04018200000018
 20
99.90538600000002
 10
78.81460100000005
 20
100.172353
 10
78.55211000000007
 20
100.426191
 10
78.25470799999994
 20
100.66497
 10
77.92465700000002
 20
100.886871
 10
77.56446899999992
 20
101.0902059999999
 10
77.17688700000008
 20
101.2734269999999
 10
76.76485899999987
 20
101.43514
 10
76.33152100000007
 20
101.574115
 10
75.88017200000013
 20
101.689292
 10
75.41424499999994
 20
101.779797
 10
74.93728899999997
 20
101.84494
 10
74.45293099999981
 20
101.884225
 10
73.96485899999993
 20
101.897353
 10
73.47678700000007
 20
101.884225
 10
72.9924289999999
 20
101.84494
 10
72.51547200000004
 20
101.779797
 10
72.04954599999997
 20
101.689292
 10
71.59819700000003
 20
101.574115
 10
71.16485899999998
 20
101.43514
 10
70.75283100000001
 20
101.2734269999999
 10
70.36524800000006
 20
101.0902059999999
 10
70.00506100000007
 20
100.886871
 10
69.67500999999993
 20
100.66497
 10
69.3776069999999
 20
100.426191
 10
69.11511699999983
 20
100.172353
 10
68.88953499999979
 20
99.90538600000002
 10
68.70258000000013
 20
99.62732199999996
 10
68.55567400000018
 20
99.34027800000002
 10
68.44993500000009
 20
99.04643899999996
 10
68.38616800000001
 20
98.74804000000006
 10
68.36485900000003
 20
98.44735300000003
  0
LINE
  5
5C20
330
5BF2
100
AcDbEntity
  8
AM_0 外形線1
100
AcDbLine
 10
66.0
 20
96.5
 30
0.0
 11
66.0
 21
104.5
 31
0.0
  0
LINE
  5
5C21
330
5BF2
100
AcDbEntity
  8
AM_0 外形線1
100
AcDbLine
 10
68.40000000000009
 20
101.4
 30
0.0
 11
68.40000000000009
 21
96.5
 31
0.0
  0
LINE
  5
5C22
330
5BF2
100
AcDbEntity
  8
AM_0 外形線1
100
AcDbLine
 10
79.59999999999991
 20
96.5
 30
0.0
 11
79.59999999999991
 21
101.4
 31
0.0
  0
LINE
  5
5C23
330
5BF2
100
AcDbEntity
  8
AM_0 外形線1
100
AcDbLine
 10
68.40000000000009
 20
96.5
 30
0.0
 11
66.0
 21
96.5
 31
0.0
  0
LINE
  5
5C24
330
5BF2
100
AcDbEntity
  8
AM_0 外形線1
100
AcDbLine
 10
68.40000000000009
 20
96.5
 30
0.0
 11
68.40000000000009
 21
95.0
 31
0.0
  0
LINE
  5
5C25
330
5BF2
100
AcDbEntity
  8
AM_0 外形線1
100
AcDbLine
 10
66.0
 20
96.5
 30
0.0
 11
66.0
 21
95.0
 31
0.0
  0
LINE
  5
5C26
330
5BF2
100
AcDbEntity
  8
AM_0 外形線1
100
AcDbLine
 10
79.59999999999991
 20
96.5
 30
0.0
 11
79.59999999999991
 21
95.0
 31
0.0
  0
ARC
  5
5C27
330
5BF2
100
AcDbEntity
  8
AM_0 外形線1
100
AcDbCircle
 10
68.90000000000009
 20
101.4
 30
0.0
 40
0.5
100
AcDbArc
 50
90.0
 51
180.0
  0
LINE
  5
5C28
330
5BF2
100
AcDbEntity
  8
AM_3 隠れ線
100
AcDbLine
 10
60.0
 20
103.472796
 30
0.0
 11
60.0
 21
100.6
 31
0.0
  0
LINE
  5
5C29
330
5BF2
100
AcDbEntity
  8
AM_3 隠れ線
100
AcDbLine
 10
60.0
 20
100.6
 30
0.0
 11
59.0
 21
99.60000000000002
 31
0.0
  0
LINE
  5
5C2A
330
5BF2
100
AcDbEntity
  8
AM_0 外形線1
100
AcDbLine
 10
60.0
 20
103.472796
 30
0.0
 11
60.0
 21
104.5
 31
0.0
  0
ARC
  5
5C2B
330
5BF2
100
AcDbEntity
  8
AM_0 外形線1
100
AcDbCircle
 10
61.0
 20
104.5
 30
0.0
 40
1.0
100
AcDbArc
 50
90.0
 51
180.0
  0
LINE
  5
5C2C
330
5BF2
100
AcDbEntity
  8
AM_0 外形線1
100
AcDbLine
 10
65.0
 20
105.5
 30
0.0
 11
61.0
 21
105.5
 31
0.0
  0
ARC
  5
5C2D
330
5BF2
100
AcDbEntity
  8
AM_0 外形線1
100
AcDbCircle
 10
65.0
 20
104.5
 30
0.0
 40
1.0
100
AcDbArc
 50
0.0
 51
90.0
  0
LINE
  5
5C2E
330
5BF2
100
AcDbEntity
  8
AM_0 外形線1
100
AcDbLine
 10
79.09999999999991
 20
101.8999999999999
 30
0.0
 11
68.90000000000009
 21
101.8999999999999
 31
0.0
  0
LINE
  5
5C2F
330
5BF2
100
AcDbEntity
  8
AM_0 外形線1
100
AcDbLine
 10
82.0
 20
108.0
 30
0.0
 11
82.0
 21
96.5
 31
0.0
  0
LINE
  5
5C30
330
5BF2
100
AcDbEntity
  8
AM_0 外形線1
100
AcDbLine
 10
82.0
 20
96.5
 30
0.0
 11
82.0
 21
95.0
 31
0.0
  0
INSERT
  5
5C31
330
5BF2
100
AcDbEntity
  8
AM_5 寸法線
100
AcDbBlockReference
  2
ロッカクアナツキプラグ R1／4
 10
10.5
 20
-33.09737100000007
 30
0.0
  0
LINE
  5
61F4
330
5BF2
100
AcDbEntity
  8
AM_0 外形線1
100
AcDbLine
 10
0.0
 20
121.0
 30
0.0
 11
21.0
 21
121.0
 31
0.0
  0
ENDBLK
  5
5BF4
330
5BF2
100
AcDbEntity
  8
0
100
AcDbBlockEnd
  0
BLOCK
  5
5D60
330
5D5F
100
AcDbEntity
  8
0
100
AcDbBlockBegin
  2
ケースＢ SSM280
 70
     0
 10
0.0
 20
0.0
 30
0.0
  3
ケースＢ SSM280
  1

  0
LINE
  5
5D62
330
5D5F
100
AcDbEntity
  8
AM_0 外形線1
100
AcDbLine
 10
-21.0
 20
-139.0
 30
0.0
 11
-21.0
 21
0.0
 31
0.0
  0
LINE
  5
5D63
330
5D5F
100
AcDbEntity
  8
AM_0 外形線1
100
AcDbLine
 10
-82.0
 20
-108.0
 30
0.0
 11
-82.0
 21
0.0
 31
0.0
  0
LINE
  5
5D64
330
5D5F
100
AcDbEntity
  8
AM_0 外形線1
100
AcDbLine
 10
-25.0
 20
-112.0
 30
0.0
 11
-78.0
 21
-112.0
 31
0.0
  0
ARC
  5
5D65
330
5D5F
100
AcDbEntity
  8
AM_0 外形線1
100
AcDbCircle
 10
-78.0
 20
-108.0
 30
0.0
 40
4.0
100
AcDbArc
 50
180.0
 51
270.0
  0
LINE
  5
5D66
330
5D5F
100
AcDbEntity
  8
AM_0 外形線1
100
AcDbLine
 10
-1.0
 20
-140.0
 30
0.0
 11
-20.0
 21
-140.0
 31
0.0
  0
LINE
  5
5D67
330
5D5F
100
AcDbEntity
  8
AM_0 外形線1
100
AcDbLine
 10
-20.0
 20
-140.0
 30
0.0
 11
-21.0
 21
-139.0
 31
0.0
  0
LINE
  5
5D68
330
5D5F
100
AcDbEntity
  8
AM_0 外形線1
100
AcDbLine
 10
0.0
 20
-139.0
 30
0.0
 11
-1.0
 21
-140.0
 31
0.0
  0
LINE
  5
5D69
330
5D5F
100
AcDbEntity
  8
AM_7 中心線
100
AcDbLine
 10
26.14115718968311
 20
-128.0
 30
0.0
 11
-26.0
 21
-128.0
 31
0.0
  0
ARC
  5
5D6A
330
5D5F
100
AcDbEntity
  8
AM_0 外形線1
100
AcDbCircle
 10
-25.0
 20
-116.0
 30
0.0
 40
4.0
100
AcDbArc
 50
0.0
 51
90.0
  0
LINE
  5
5D6B
330
5D5F
100
AcDbEntity
  8
AM_3 隠れ線
100
AcDbLine
 10
-59.0
 20
99.60000000000002
 30
0.0
 11
-28.5
 21
99.60000000000002
 31
0.0
  0
LINE
  5
5D6C
330
5D5F
100
AcDbEntity
  8
AM_0 外形線1
100
AcDbLine
 10
-25.0
 20
112.0
 30
0.0
 11
-78.0
 21
112.0
 31
0.0
  0
LINE
  5
5D6D
330
5D5F
100
AcDbEntity
  8
AM_0 外形線1
100
AcDbLine
 10
-25.0
 20
105.0
 30
0.0
 11
-60.0
 21
105.0
 31
0.0
  0
LINE
  5
5D6E
330
5D5F
100
AcDbEntity
  8
AM_7 中心線
100
AcDbLine
 10
-23.0
 20
102.0
 30
0.0
 11
-62.0
 21
102.0
 31
0.0
  0
LINE
  5
5D6F
330
5D5F
100
AcDbEntity
  8
AM_0 外形線1
100
AcDbLine
 10
-68.40000000000009
 20
96.5
 30
0.0
 11
-66.0
 21
96.5
 31
0.0
  0
LWPOLYLINE
  5
5D70
330
5D5F
100
AcDbEntity
  8
AM_0 外形線1
100
AcDbPolyline
 90
       73
 70
     0
 43
0.0
 10
-68.3648589999998
 20
98.44735300000003
 10
-68.38616800000001
 20
98.74804000000006
 10
-68.44993500000009
 20
99.04643899999996
 10
-68.55567400000018
 20
99.34027800000002
 10
-68.70258000000013
 20
99.62732199999996
 10
-68.88953499999979
 20
99.90538600000002
 10
-69.11511699999983
 20
100.172353
 10
-69.3776069999999
 20
100.426191
 10
-69.67500999999993
 20
100.66497
 10
-70.0050610000003
 20
100.886871
 10
-70.36524800000006
 20
101.0902059999999
 10
-70.75283100000024
 20
101.2734269999999
 10
-71.16485899999998
 20
101.43514
 10
-71.5981969999998
 20
101.574115
 10
-72.04954599999974
 20
101.689292
 10
-72.51547200000004
 20
101.779797
 10
-72.9924289999999
 20
101.84494
 10
-73.47678700000007
 20
101.884225
 10
-73.96485900000015
 20
101.897353
 10
-74.45293099999981
 20
101.884225
 10
-74.93728899999997
 20
101.84494
 10
-75.41424499999994
 20
101.779797
 10
-75.88017200000013
 20
101.689292
 10
-76.33152100000007
 20
101.574115
 10
-76.76485899999987
 20
101.43514
 10
-77.17688700000008
 20
101.2734269999999
 10
-77.56446899999992
 20
101.0902059999999
 10
-77.92465700000002
 20
100.886871
 10
-78.25470799999994
 20
100.66497
 10
-78.55211000000007
 20
100.426191
 10
-78.81460100000005
 20
100.172353
 10
-79.04018200000018
 20
99.90538600000002
 10
-79.22713699999984
 20
99.62732199999996
 10
-79.3740429999998
 20
99.34027800000002
 10
-79.4797819999999
 20
99.04643899999996
 10
-79.54354899999998
 20
98.74804000000006
 10
-79.56485900000007
 20
98.44735300000003
 10
-79.54354899999998
 20
98.14666500000001
 10
-79.4797819999999
 20
97.84826699999996
 10
-79.3740429999998
 20
97.55442699999992
 10
-79.22713699999984
 20
97.267383
 10
-79.04018200000018
 20
96.98932000000002
 10
-78.81460100000005
 20
96.722353
 10
-78.55211000000007
 20
96.46851399999993
 10
-78.25470799999994
 20
96.22973600000001
 10
-77.92465700000002
 20
96.007834
 10
-77.56446899999992
 20
95.80449900000008
 10
-77.17688700000008
 20
95.62127800000007
 10
-76.76485899999987
 20
95.459565
 10
-76.33152100000007
 20
95.32059100000003
 10
-75.88017200000013
 20
95.20541300000003
 10
-75.41424499999994
 20
95.114909
 10
-74.93728899999997
 20
95.04976599999997
 10
-74.45293099999981
 20
95.01048099999993
 10
-73.96485900000015
 20
94.99735299999995
 10
-73.47678700000007
 20
95.01048099999993
 10
-72.9924289999999
 20
95.04976599999997
 10
-72.51547200000004
 20
95.114909
 10
-72.04954599999974
 20
95.20541300000003
 10
-71.5981969999998
 20
95.32059100000003
 10
-71.16485899999998
 20
95.459565
 10
-70.75283100000024
 20
95.62127800000007
 10
-70.36524800000006
 20
95.80449900000008
 10
-70.0050610000003
 20
96.007834
 10
-69.67500999999993
 20
96.22973600000001
 10
-69.3776069999999
 20
96.46851399999993
 10
-69.11511699999983
 20
96.722353
 10
-68.88953499999979
 20
96.98932000000002
 10
-68.70258000000013
 20
97.267383
 10
-68.55567400000018
 20
97.55442699999992
 10
-68.44993500000009
 20
97.84826699999996
 10
-68.38616800000001
 20
98.14666500000001
 10
-68.3648589999998
 20
98.44735300000003
  0
LINE
  5
5D71
330
5D5F
100
AcDbEntity
  8
AM_0 外形線1
100
AcDbLine
 10
-68.40000000000009
 20
101.4
 30
0.0
 11
-68.40000000000009
 21
96.5
 31
0.0
  0
LINE
  5
5D72
330
5D5F
100
AcDbEntity
  8
AM_0 外形線1
100
AcDbLine
 10
-79.59999999999991
 20
96.5
 30
0.0
 11
-79.59999999999991
 21
101.4
 31
0.0
  0
LINE
  5
5D73
330
5D5F
100
AcDbEntity
  8
AM_0 外形線1
100
AcDbLine
 10
-82.0
 20
108.0
 30
0.0
 11
-82.0
 21
96.5
 31
0.0
  0
LINE
  5
5D74
330
5D5F
100
AcDbEntity
  8
AM_0 外形線1
100
AcDbLine
 10
-82.0
 20
96.5
 30
0.0
 11
-79.59999999999991
 21
96.5
 31
0.0
  0
LINE
  5
5D75
330
5D5F
100
AcDbEntity
  8
AM_0 外形線1
100
AcDbLine
 10
-79.59999999999991
 20
96.5
 30
0.0
 11
-79.59999999999991
 21
95.0
 31
0.0
  0
LINE
  5
5D76
330
5D5F
100
AcDbEntity
  8
AM_0 外形線1
100
AcDbLine
 10
-82.0
 20
96.5
 30
0.0
 11
-82.0
 21
95.0
 31
0.0
  0
LINE
  5
5D77
330
5D5F
100
AcDbEntity
  8
AM_0 外形線1
100
AcDbLine
 10
-68.40000000000009
 20
96.5
 30
0.0
 11
-68.40000000000009
 21
95.0
 31
0.0
  0
LINE
  5
5D78
330
5D5F
100
AcDbEntity
  8
AM_0 外形線1
100
AcDbLine
 10
-79.09999999999991
 20
101.8999999999999
 30
0.0
 11
-68.90000000000009
 21
101.8999999999999
 31
0.0
  0
ARC
  5
5D79
330
5D5F
100
AcDbEntity
  8
AM_0 外形線1
100
AcDbCircle
 10
-78.0
 20
108.0
 30
0.0
 40
4.0
100
AcDbArc
 50
90.0
 51
180.0
  0
ARC
  5
5D7A
330
5D5F
100
AcDbEntity
  8
AM_0 外形線1
100
AcDbCircle
 10
-79.09999999999991
 20
101.4
 30
0.0
 40
0.5
100
AcDbArc
 50
90.0
 51
180.0
  0
ARC
  5
5D7B
330
5D5F
100
AcDbEntity
  8
AM_0 外形線1
100
AcDbCircle
 10
-68.90000000000009
 20
101.4
 30
0.0
 40
0.5
100
AcDbArc
 50
0.0
 51
90.0
  0
LINE
  5
5D7C
330
5D5F
100
AcDbEntity
  8
AM_0 外形線1
100
AcDbLine
 10
-66.0
 20
96.5
 30
0.0
 11
-66.0
 21
104.5
 31
0.0
  0
LINE
  5
5D7D
330
5D5F
100
AcDbEntity
  8
AM_0 外形線1
100
AcDbLine
 10
-66.0
 20
96.5
 30
0.0
 11
-66.0
 21
95.0
 31
0.0
  0
LINE
  5
5D7E
330
5D5F
100
AcDbEntity
  8
AM_3 隠れ線
100
AcDbLine
 10
-60.0
 20
100.6
 30
0.0
 11
-59.0
 21
99.60000000000002
 31
0.0
  0
LINE
  5
5D7F
330
5D5F
100
AcDbEntity
  8
AM_3 隠れ線
100
AcDbLine
 10
-60.0
 20
103.472796
 30
0.0
 11
-60.0
 21
100.6
 31
0.0
  0
LINE
  5
5D80
330
5D5F
100
AcDbEntity
  8
AM_0 外形線1
100
AcDbLine
 10
-60.0
 20
103.472796
 30
0.0
 11
-60.0
 21
104.5
 31
0.0
  0
ARC
  5
5D81
330
5D5F
100
AcDbEntity
  8
AM_0 外形線1
100
AcDbCircle
 10
-61.0
 20
104.5
 30
0.0
 40
1.0
100
AcDbArc
 50
0.0
 51
90.0
  0
LINE
  5
5D82
330
5D5F
100
AcDbEntity
  8
AM_0 外形線1
100
AcDbLine
 10
-65.0
 20
105.5
 30
0.0
 11
-61.0
 21
105.5
 31
0.0
  0
ARC
  5
5D83
330
5D5F
100
AcDbEntity
  8
AM_0 外形線1
100
AcDbCircle
 10
-65.0
 20
104.5
 30
0.0
 40
1.0
100
AcDbArc
 50
90.0
 51
180.0
  0
ARC
  5
5D84
330
5D5F
100
AcDbEntity
  8
AM_0 外形線1
100
AcDbCircle
 10
-25.0
 20
116.0
 30
0.0
 40
4.0
100
AcDbArc
 50
270.0
 51
0.0
  0
LINE
  5
5D85
330
5D5F
100
AcDbEntity
  8
AM_0 外形線1
100
AcDbLine
 10
0.0
 20
111.5
 30
0.0
 11
0.0
 21
121.0
 31
0.0
  0
LINE
  5
5D86
330
5D5F
100
AcDbEntity
  8
AM_0 外形線1
100
AcDbLine
 10
-24.0
 20
105.5
 30
0.0
 11
-5.0
 21
105.5
 31
0.0
  0
LINE
  5
5D87
330
5D5F
100
AcDbEntity
  8
AM_0 外形線1
100
AcDbLine
 10
-25.0
 20
100.6
 30
0.0
 11
-25.0
 21
97.13999200000001
 31
0.0
  0
ARC
  5
5D88
330
5D5F
100
AcDbEntity
  8
AM_0 外形線1
100
AcDbCircle
 10
-24.0
 20
104.5
 30
0.0
 40
1.0
100
AcDbArc
 50
90.0
 51
180.0
  0
LINE
  5
5D89
330
5D5F
100
AcDbEntity
  8
AM_0 外形線1
100
AcDbLine
 10
-25.0
 20
100.6
 30
0.0
 11
-25.0
 21
104.5
 31
0.0
  0
LINE
  5
5D8A
330
5D5F
100
AcDbEntity
  8
AM_0 外形線1
100
AcDbLine
 10
-26.0
 20
99.60000000000002
 30
0.0
 11
-25.0
 21
100.6
 31
0.0
  0
LINE
  5
5D8B
330
5D5F
100
AcDbEntity
  8
AM_0 外形線1
100
AcDbLine
 10
-28.5
 20
99.60000000000002
 30
0.0
 11
-26.0
 21
99.60000000000002
 31
0.0
  0
LINE
  5
5D8C
330
5D5F
100
AcDbEntity
  8
AM_0 外形線1
100
AcDbLine
 10
-5.0
 20
111.0
 30
0.0
 11
-0.5
 21
111.0
 31
0.0
  0
LINE
  5
5D8D
330
5D5F
100
AcDbEntity
  8
AM_0 外形線1
100
AcDbLine
 10
-5.0
 20
105.5
 30
0.0
 11
-5.0
 21
100.0
 31
0.0
  0
LINE
  5
5D8E
330
5D5F
100
AcDbEntity
  8
AM_0 外形線1
100
AcDbLine
 10
-5.0
 20
105.5
 30
0.0
 11
-5.0
 21
111.0
 31
0.0
  0
LINE
  5
5D8F
330
5D5F
100
AcDbEntity
  8
AM_0 外形線1
100
AcDbLine
 10
-0.5
 20
111.0
 30
0.0
 11
0.0
 21
111.5
 31
0.0
  0
LINE
  5
5D90
330
5D5F
100
AcDbEntity
  8
AM_0 外形線1
100
AcDbLine
 10
0.0
 20
121.0
 30
0.0
 11
-21.0
 21
121.0
 31
0.0
  0
LINE
  5
5D91
330
5D5F
100
AcDbEntity
  8
AM_0 外形線1
100
AcDbLine
 10
-21.0
 20
135.0
 30
0.0
 11
0.0
 21
135.0
 31
0.0
  0
LINE
  5
5D92
330
5D5F
100
AcDbEntity
  8
AM_0 外形線1
100
AcDbLine
 10
-1.0
 20
140.0
 30
0.0
 11
-20.0
 21
140.0
 31
0.0
  0
LINE
  5
5D93
330
5D5F
100
AcDbEntity
  8
AM_0 外形線1
100
AcDbLine
 10
-21.0
 20
139.0
 30
0.0
 11
-21.0
 21
116.0
 31
0.0
  0
LINE
  5
5D95
330
5D5F
100
AcDbEntity
  8
AM_0 外形線1
100
AcDbLine
 10
-20.0
 20
140.0
 30
0.0
 11
-21.0
 21
139.0
 31
0.0
  0
LINE
  5
5D96
330
5D5F
100
AcDbEntity
  8
AM_0 外形線1
100
AcDbLine
 10
0.0
 20
139.0
 30
0.0
 11
-1.0
 21
140.0
 31
0.0
  0
LINE
  5
5E18
330
5D5F
100
AcDbEntity
  8
AM_0 外形線1
100
AcDbLine
 10
0.0
 20
139.0
 30
0.0
 11
0.0
 21
135.0
 31
0.0
  0
LINE
  5
5E19
330
5D5F
100
AcDbEntity
  8
AM_0 外形線1
100
AcDbLine
 10
0.0
 20
0.0
 30
0.0
 11
0.0
 21
-139.0
 31
0.0
  0
ENDBLK
  5
5D61
330
5D5F
100
AcDbEntity
  8
0
100
AcDbBlockEnd
  0
BLOCK
  5
5E82
330
5E81
100
AcDbEntity
  8
0
100
AcDbBlockBegin
  2
センタＡ SSM280
 70
     0
 10
0.0
 20
0.0
 30
0.0
  3
センタＡ SSM280
  1

  0
LINE
  5
5E84
330
5E81
100
AcDbEntity
  8
AM_0 外形線1
100
AcDbLine
 10
95.5
 20
-94.20000000000003
 30
0.0
 11
95.5
 21
0.0
 31
0.0
  0
LINE
  5
5E85
330
5E81
100
AcDbEntity
  8
AM_0 外形線1
100
AcDbLine
 10
93.49999999999999
 20
-95.0
 30
0.0
 11
93.49999999999999
 21
0.0
 31
0.0
  0
ARC
  5
5E86
330
5E81
100
AcDbEntity
  8
AM_0 外形線1
100
AcDbCircle
 10
136.0
 20
-90.20000000000003
 30
0.0
 40
4.0
100
AcDbArc
 50
270.0
 51
0.0
  0
LINE
  5
5E87
330
5E81
100
AcDbEntity
  8
AM_0 外形線1
100
AcDbLine
 10
95.5
 20
-94.20000000000003
 30
0.0
 11
136.0
 21
-94.20000000000003
 31
0.0
  0
LINE
  5
5E88
330
5E81
100
AcDbEntity
  8
AM_0 外形線1
100
AcDbLine
 10
75.0
 20
-95.0
 30
0.0
 11
93.49999999999999
 21
-95.0
 31
0.0
  0
LINE
  5
5E89
330
5E81
100
AcDbEntity
  8
AM_0 外形線1
100
AcDbLine
 10
93.49999999999999
 20
-95.0
 30
0.0
 11
95.5
 21
-94.20000000000003
 31
0.0
  0
LINE
  5
5E8A
330
5E81
100
AcDbEntity
  8
AM_0 外形線1
100
AcDbLine
 10
0.0
 20
93.49999999999999
 30
0.0
 11
0.0
 21
0.0
 31
0.0
  0
LINE
  5
5E8B
330
5E81
100
AcDbEntity
  8
AM_0 外形線1
100
AcDbLine
 10
140.0
 20
-90.20000000000003
 30
0.0
 11
140.0
 21
90.20000000000003
 31
0.0
  0
LINE
  5
5E8C
330
5E81
100
AcDbEntity
  8
AM_3 隠れ線
100
AcDbLine
 10
0.0
 20
5.149999999999976
 30
0.0
 11
33.0
 21
5.149999999999976
 31
0.0
  0
LINE
  5
5E8D
330
5E81
100
AcDbEntity
  8
AM_3 隠れ線
100
AcDbLine
 10
0.0
 20
6.0
 30
0.0
 11
28.0
 21
6.0
 31
0.0
  0
LINE
  5
5E8E
330
5E81
100
AcDbEntity
  8
AM_3 隠れ線
100
AcDbLine
 10
33.0
 20
5.149999999999976
 30
0.0
 11
35.97335400000021
 21
0.0
 31
0.0
  0
LINE
  5
5E8F
330
5E81
100
AcDbEntity
  8
AM_3 隠れ線
100
AcDbLine
 10
33.0
 20
5.149999999999976
 30
0.0
 11
33.0
 21
0.0
 31
0.0
  0
LINE
  5
5E90
330
5E81
100
AcDbEntity
  8
AM_3 隠れ線
100
AcDbLine
 10
28.0
 20
6.0
 30
0.0
 11
28.0
 21
0.0
 31
0.0
  0
LINE
  5
5E91
330
5E81
100
AcDbEntity
  8
AM_3 隠れ線
100
AcDbLine
 10
28.49074800000017
 20
5.149999999999976
 30
0.0
 11
28.49074800000017
 21
0.0
 31
0.0
  0
LINE
  5
5E92
330
5E81
100
AcDbEntity
  8
AM_3 隠れ線
100
AcDbLine
 10
28.0
 20
6.0
 30
0.0
 11
28.49074800000017
 21
5.149999999999976
 31
0.0
  0
ARC
  5
5E94
330
5E81
100
AcDbEntity
  8
AM_0 外形線1
100
AcDbCircle
 10
36.0
 20
0.0
 30
0.0
 40
104.86
100
AcDbArc
 50
80.39300100001232
 51
97.39696599998856
  0
LINE
  5
5E96
330
5E81
100
AcDbEntity
  8
AM_0 外形線1
100
AcDbLine
 10
1.0
 20
94.50000000000001
 30
0.0
 11
0.0
 21
93.49999999999999
 31
0.0
  0
LINE
  5
5E97
330
5E81
100
AcDbEntity
  8
AM_0 外形線1
100
AcDbLine
 10
21.5
 20
102.8526339999999
 30
0.0
 11
21.5
 21
95.0
 31
0.0
  0
LINE
  5
5E98
330
5E81
100
AcDbEntity
  8
AM_0 外形線1
100
AcDbLine
 10
21.0
 20
94.50000000000001
 30
0.0
 11
1.0
 21
94.50000000000001
 31
0.0
  0
ARC
  5
5E99
330
5E81
100
AcDbEntity
  8
AM_0 外形線1
100
AcDbCircle
 10
21.0
 20
95.0
 30
0.0
 40
0.5
100
AcDbArc
 50
270.0
 51
0.0
  0
LINE
  5
5E9A
330
5E81
100
AcDbEntity
  8
AM_0 外形線1
100
AcDbLine
 10
22.5
 20
103.987353
 30
0.0
 11
21.5
 21
102.8526339999999
 31
0.0
  0
LINE
  5
5E9B
330
5E81
100
AcDbEntity
  8
AM_7 中心線
100
AcDbLine
 10
36.0
 20
109.86
 30
0.0
 11
36.0
 21
93.70000000000002
 31
0.0
  0
LINE
  5
5E9C
330
5E81
100
AcDbEntity
  8
AM_0 外形線1
100
AcDbLine
 10
136.0
 20
94.20000000000003
 30
0.0
 11
95.5
 21
94.20000000000003
 31
0.0
  0
LINE
  5
5E9D
330
5E81
100
AcDbEntity
  8
AM_0 外形線1
100
AcDbLine
 10
93.49999999999999
 20
95.0
 30
0.0
 11
55.0
 21
95.0
 31
0.0
  0
LINE
  5
5E9E
330
5E81
100
AcDbEntity
  8
AM_0 外形線1
100
AcDbLine
 10
54.5
 20
95.5
 30
0.0
 11
54.5
 21
102.2151619999999
 31
0.0
  0
ARC
  5
5E9F
330
5E81
100
AcDbEntity
  8
AM_0 外形線1
100
AcDbCircle
 10
55.0
 20
95.5
 30
0.0
 40
0.5
100
AcDbArc
 50
180.0
 51
270.0
  0
LINE
  5
5EA0
330
5E81
100
AcDbEntity
  8
AM_0 外形線1
100
AcDbLine
 10
54.5
 20
102.2151619999999
 30
0.0
 11
53.5
 21
103.389408
 31
0.0
  0
LINE
  5
5EA1
330
5E81
100
AcDbEntity
  8
AM_0 外形線1
100
AcDbLine
 10
95.5
 20
94.20000000000003
 30
0.0
 11
93.49999999999999
 21
95.0
 31
0.0
  0
ARC
  5
5EA2
330
5E81
100
AcDbEntity
  8
AM_0 外形線1
100
AcDbCircle
 10
136.0
 20
90.20000000000003
 30
0.0
 40
4.0
100
AcDbArc
 50
0.0
 51
90.0
  0
LINE
  5
5EA4
330
5E81
100
AcDbEntity
  8
AM_0 外形線1
100
AcDbLine
 10
140.0
 20
45.0
 30
0.0
 11
0.0
 21
44.99999999999988
 31
0.0
  0
ARC
  5
845E
330
5E81
100
AcDbEntity
  8
AM_0 外形線1
100
AcDbCircle
 10
35.97335400000021
 20
0.0
 30
0.0
 40
98.70000359680503
100
AcDbArc
 50
79.18102353731756
 51
98.43225098493064
  0
ARC
  5
845F
330
5E81
100
AcDbEntity
  8
AM_7 中心線
100
AcDbCircle
 10
36.0
 20
0.0
 30
0.0
 40
101.9999999999999
100
AcDbArc
 50
76.96829487896855
 51
100.1642486217269
  0
ENDBLK
  5
5E83
330
5E81
100
AcDbEntity
  8
0
100
AcDbBlockEnd
  0
BLOCK
  5
5F2C
330
5F2B
100
AcDbEntity
  8
0
100
AcDbBlockBegin
  2
センタＢ SSM280
 70
     0
 10
0.0
 20
0.0
 30
0.0
  3
センタＢ SSM280
  1

  0
ARC
  5
5F2E
330
5F2B
100
AcDbEntity
  8
AM_0 外形線1
100
AcDbCircle
 10
-136.0
 20
-90.20000000000003
 30
0.0
 40
4.0
100
AcDbArc
 50
180.0
 51
270.0
  0
LINE
  5
5F2F
330
5F2B
100
AcDbEntity
  8
AM_0 外形線1
100
AcDbLine
 10
-95.5
 20
-94.20000000000003
 30
0.0
 11
-95.5
 21
0.0
 31
0.0
  0
LINE
  5
5F30
330
5F2B
100
AcDbEntity
  8
AM_0 外形線1
100
AcDbLine
 10
-93.49999999999999
 20
-95.0
 30
0.0
 11
-93.49999999999999
 21
0.0
 31
0.0
  0
LINE
  5
5F31
330
5F2B
100
AcDbEntity
  8
AM_0 外形線1
100
AcDbLine
 10
-95.5
 20
-94.20000000000003
 30
0.0
 11
-136.0
 21
-94.20000000000003
 31
0.0
  0
LINE
  5
5F32
330
5F2B
100
AcDbEntity
  8
AM_0 外形線1
100
AcDbLine
 10
-75.0
 20
-95.0
 30
0.0
 11
-93.49999999999999
 21
-95.0
 31
0.0
  0
LINE
  5
5F33
330
5F2B
100
AcDbEntity
  8
AM_0 外形線1
100
AcDbLine
 10
-93.49999999999999
 20
-95.0
 30
0.0
 11
-95.5
 21
-94.20000000000003
 31
0.0
  0
ARC
  5
5F34
330
5F2B
100
AcDbEntity
  8
AM_0 外形線1
100
AcDbCircle
 10
-36.0
 20
0.0
 30
0.0
 40
104.86
100
AcDbArc
 50
82.60303400001145
 51
99.60699899998765
  0
LINE
  5
5F37
330
5F2B
100
AcDbEntity
  8
AM_0 外形線1
100
AcDbLine
 10
-140.0
 20
-90.20000000000003
 30
0.0
 11
-140.0
 21
90.20000000000003
 31
0.0
  0
LINE
  5
5F38
330
5F2B
100
AcDbEntity
  8
AM_0 外形線1
100
AcDbLine
 10
-136.0
 20
94.20000000000003
 30
0.0
 11
-95.5
 21
94.20000000000003
 31
0.0
  0
ARC
  5
5F39
330
5F2B
100
AcDbEntity
  8
AM_0 外形線1
100
AcDbCircle
 10
-136.0
 20
90.20000000000003
 30
0.0
 40
4.0
100
AcDbArc
 50
90.0
 51
180.0
  0
LINE
  5
5F3A
330
5F2B
100
AcDbEntity
  8
AM_0 外形線1
100
AcDbLine
 10
-93.49999999999999
 20
95.0
 30
0.0
 11
-55.0
 21
95.0
 31
0.0
  0
LINE
  5
5F3B
330
5F2B
100
AcDbEntity
  8
AM_0 外形線1
100
AcDbLine
 10
-95.5
 20
94.20000000000003
 30
0.0
 11
-93.49999999999999
 21
95.0
 31
0.0
  0
LINE
  5
5F3C
330
5F2B
100
AcDbEntity
  8
AM_0 外形線1
100
AcDbLine
 10
-54.5
 20
95.5
 30
0.0
 11
-54.5
 21
102.2151619999999
 31
0.0
  0
LINE
  5
5F3D
330
5F2B
100
AcDbEntity
  8
AM_7 中心線
100
AcDbLine
 10
-36.0
 20
109.86
 30
0.0
 11
-36.0
 21
93.70000000000002
 31
0.0
  0
ARC
  5
5F3E
330
5F2B
100
AcDbEntity
  8
AM_0 外形線1
100
AcDbCircle
 10
-55.0
 20
95.5
 30
0.0
 40
0.5
100
AcDbArc
 50
270.0
 51
0.0
  0
LINE
  5
5F3F
330
5F2B
100
AcDbEntity
  8
AM_0 外形線1
100
AcDbLine
 10
-54.5
 20
102.2151619999999
 30
0.0
 11
-53.5
 21
103.389408
 31
0.0
  0
LINE
  5
5F42
330
5F2B
100
AcDbEntity
  8
AM_0 外形線1
100
AcDbLine
 10
-21.0
 20
94.50000000000001
 30
0.0
 11
-1.0
 21
94.50000000000001
 31
0.0
  0
LINE
  5
5F43
330
5F2B
100
AcDbEntity
  8
AM_0 外形線1
100
AcDbLine
 10
-21.5
 20
102.8526339999999
 30
0.0
 11
-21.5
 21
95.0
 31
0.0
  0
ARC
  5
5F44
330
5F2B
100
AcDbEntity
  8
AM_0 外形線1
100
AcDbCircle
 10
-21.0
 20
95.0
 30
0.0
 40
0.5
100
AcDbArc
 50
180.0
 51
270.0
  0
LINE
  5
5F45
330
5F2B
100
AcDbEntity
  8
AM_0 外形線1
100
AcDbLine
 10
-22.5
 20
103.987353
 30
0.0
 11
-21.5
 21
102.8526339999999
 31
0.0
  0
LINE
  5
5F46
330
5F2B
100
AcDbEntity
  8
AM_0 外形線1
100
AcDbLine
 10
-1.0
 20
94.50000000000001
 30
0.0
 11
0.0
 21
93.49999999999999
 31
0.0
  0
LINE
  5
5F47
330
5F2B
100
AcDbEntity
  8
AM_0 外形線1
100
AcDbLine
 10
-140.0
 20
45.0
 30
0.0
 11
0.0
 21
44.99999999999988
 31
0.0
  0
LINE
  5
6543
330
5F2B
100
AcDbEntity
  8
AM_3 隠れ線
100
AcDbLine
 10
-33.0
 20
5.149999999999976
 30
0.0
 11
-35.97335400000021
 21
0.0
 31
0.0
  0
LINE
  5
6544
330
5F2B
100
AcDbEntity
  8
AM_3 隠れ線
100
AcDbLine
 10
0.0
 20
5.149999999999976
 30
0.0
 11
-33.0
 21
5.149999999999976
 31
0.0
  0
LINE
  5
6545
330
5F2B
100
AcDbEntity
  8
AM_3 隠れ線
100
AcDbLine
 10
0.0
 20
6.0
 30
0.0
 11
-28.0
 21
6.0
 31
0.0
  0
LINE
  5
6546
330
5F2B
100
AcDbEntity
  8
AM_3 隠れ線
100
AcDbLine
 10
-33.0
 20
5.149999999999976
 30
0.0
 11
-33.0
 21
0.0
 31
0.0
  0
LINE
  5
6547
330
5F2B
100
AcDbEntity
  8
AM_3 隠れ線
100
AcDbLine
 10
-28.49074800000017
 20
5.149999999999976
 30
0.0
 11
-28.49074800000017
 21
0.0
 31
0.0
  0
LINE
  5
6548
330
5F2B
100
AcDbEntity
  8
AM_3 隠れ線
100
AcDbLine
 10
-28.0
 20
6.0
 30
0.0
 11
-28.0
 21
0.0
 31
0.0
  0
LINE
  5
6549
330
5F2B
100
AcDbEntity
  8
AM_3 隠れ線
100
AcDbLine
 10
-28.0
 20
6.0
 30
0.0
 11
-28.49074800000017
 21
5.149999999999976
 31
0.0
  0
ARC
  5
8412
330
5F2B
100
AcDbEntity
  8
AM_7 中心線
100
AcDbCircle
 10
-36.0
 20
0.0
 30
0.0
 40
101.9999999999999
100
AcDbArc
 50
79.83575137827945
 51
103.0317051210314
  0
ARC
  5
8434
330
5F2B
100
AcDbEntity
  8
AM_0 外形線1
100
AcDbCircle
 10
-35.97335400000021
 20
0.0
 30
0.0
 40
98.70000359680503
100
AcDbArc
 50
81.56774901507578
 51
100.818976462676
  0
ARC
  5
8435
330
5F2B
100
AcDbEntity
  8
AM_7 中心線
100
AcDbCircle
 10
-36.0
 20
0.0
 30
0.0
 40
101.9999999999999
100
AcDbArc
 50
104.3845360745331
 51
104.4195052217286
  0
LINE
  5
868F
330
5F2B
100
AcDbEntity
  8
AM_0 外形線1
100
AcDbLine
 10
0.0
 20
93.49999999999999
 30
0.0
 11
0.0
 21
0.0
 31
0.0
  0
ENDBLK
  5
5F2D
330
5F2B
100
AcDbEntity
  8
0
100
AcDbBlockEnd
  0
BLOCK
  5
611C
330
611B
100
AcDbEntity
  8
0
100
AcDbBlockBegin
  2
リーマボルト SSM280 M12
 70
     0
 10
0.0
 20
0.0
 30
0.0
  3
リーマボルト SSM280 M12
  1

  0
LINE
  5
611E
330
611B
100
AcDbEntity
  8
AM_0 外形線1
100
AcDbLine
 10
36.0
 20
-7.0
 30
0.0
 11
2.0
 21
-7.0
 31
0.0
  0
LINE
  5
611F
330
611B
100
AcDbEntity
  8
AM_0 外形線1
100
AcDbLine
 10
2.0
 20
-7.0
 30
0.0
 11
2.0
 21
7.0
 31
0.0
  0
ARC
  5
6120
330
611B
100
AcDbEntity
  8
AM_0 外形線1
100
AcDbCircle
 10
10.38611700000001
 20
0.0
 30
0.0
 40
18.386117
100
AcDbArc
 50
162.6436620000026
 51
197.3563379999973
  0
LINE
  5
6121
330
611B
100
AcDbEntity
  8
AM_0 外形線1
100
AcDbLine
 10
-8.0
 20
9.5
 30
0.0
 11
-8.0
 21
-9.5
 31
0.0
  0
ARC
  5
6122
330
611B
100
AcDbEntity
  8
AM_0 外形線1
100
AcDbCircle
 10
1.0
 20
-7.0
 30
0.0
 40
1.0
100
AcDbArc
 50
0.0
 51
180.0
  0
ARC
  5
6123
330
611B
100
AcDbEntity
  8
AM_0 外形線1
100
AcDbCircle
 10
-3.121671999999761
 20
-8.217413999999962
 30
0.0
 40
4.878327999999998
100
AcDbArc
 50
145.9339550000069
 51
214.0660449999931
  0
LINE
  5
6124
330
611B
100
AcDbEntity
  8
AM_0 外形線1
100
AcDbLine
 10
0.0
 20
-5.484827999999993
 30
0.0
 11
-7.162842000000182
 21
-5.484827999999993
 31
0.0
  0
LINE
  5
6125
330
611B
100
AcDbEntity
  8
AM_0 外形線1
100
AcDbLine
 10
-7.162842000000182
 20
-10.95000000000004
 30
0.0
 11
0.0
 21
-10.95000000000004
 31
0.0
  0
LINE
  5
6126
330
611B
100
AcDbEntity
  8
AM_0 外形線1
100
AcDbLine
 10
-8.0
 20
-9.5
 30
0.0
 11
-7.162842000000182
 21
-10.95000000000004
 31
0.0
  0
ARC
  5
6127
330
611B
100
AcDbEntity
  8
AM_0 外形線1
100
AcDbCircle
 10
1.0
 20
7.0
 30
0.0
 40
1.0
100
AcDbArc
 50
180.0
 51
0.0
  0
ARC
  5
6128
330
611B
100
AcDbEntity
  8
AM_0 外形線1
100
AcDbCircle
 10
-3.121671999999761
 20
8.217413999999962
 30
0.0
 40
4.878327999999998
100
AcDbArc
 50
145.9339550000069
 51
214.0660449999931
  0
LINE
  5
6129
330
611B
100
AcDbEntity
  8
AM_0 外形線1
100
AcDbLine
 10
0.0
 20
5.484827999999993
 30
0.0
 11
-7.162842000000182
 21
5.484827999999993
 31
0.0
  0
LINE
  5
612A
330
611B
100
AcDbEntity
  8
AM_0 外形線1
100
AcDbLine
 10
-7.162842000000182
 20
10.95000000000004
 30
0.0
 11
-8.0
 21
9.5
 31
0.0
  0
LINE
  5
612B
330
611B
100
AcDbEntity
  8
AM_0 外形線1
100
AcDbLine
 10
0.0
 20
10.95000000000004
 30
0.0
 11
-7.162842000000182
 21
10.95000000000004
 31
0.0
  0
LINE
  5
612C
330
611B
100
AcDbEntity
  8
AM_0 外形線1
100
AcDbLine
 10
45.0
 20
-5.484827999999993
 30
0.0
 11
54.16284200000018
 21
-5.484827999999993
 31
0.0
  0
LINE
  5
612D
330
611B
100
AcDbEntity
  8
AM_0 外形線1
100
AcDbLine
 10
45.0
 20
5.484827999999993
 30
0.0
 11
54.16284200000018
 21
5.484827999999993
 31
0.0
  0
LINE
  5
612E
330
611B
100
AcDbEntity
  8
AM_0 外形線1
100
AcDbLine
 10
54.16284200000018
 20
-10.95000000000004
 30
0.0
 11
45.0
 21
-10.95000000000004
 31
0.0
  0
LINE
  5
612F
330
611B
100
AcDbEntity
  8
AM_0 外形線1
100
AcDbLine
 10
45.0
 20
10.95000000000004
 30
0.0
 11
54.16284200000018
 21
10.95000000000004
 31
0.0
  0
LINE
  5
6130
330
611B
100
AcDbEntity
  8
AM_0 外形線1
100
AcDbLine
 10
45.0
 20
-10.95000000000004
 30
0.0
 11
45.0
 21
10.95000000000004
 31
0.0
  0
LINE
  5
6131
330
611B
100
AcDbEntity
  8
AM_0 外形線1
100
AcDbLine
 10
36.0
 20
7.0
 30
0.0
 11
36.0
 21
-7.0
 31
0.0
  0
LINE
  5
6132
330
611B
100
AcDbEntity
  8
AM_0 外形線1
100
AcDbLine
 10
37.0
 20
6.422649999999975
 30
0.0
 11
37.0
 21
-6.422649999999975
 31
0.0
  0
LINE
  5
6133
330
611B
100
AcDbEntity
  8
AM_0 外形線1
100
AcDbLine
 10
37.0
 20
-6.422649999999975
 30
0.0
 11
42.0
 21
-6.422649999999975
 31
0.0
  0
LINE
  5
6134
330
611B
100
AcDbEntity
  8
AM_0 外形線1
100
AcDbLine
 10
37.0
 20
-6.422649999999975
 30
0.0
 11
36.0
 21
-7.0
 31
0.0
  0
LINE
  5
6135
330
611B
100
AcDbEntity
  8
AM_0 外形線1
100
AcDbLine
 10
45.0
 20
1.0
 30
0.0
 11
42.0
 21
-2.0
 31
0.0
  0
LINE
  5
6136
330
611B
100
AcDbEntity
  8
AM_0 外形線1
100
AcDbLine
 10
45.0
 20
2.0
 30
0.0
 11
42.0
 21
-1.0
 31
0.0
  0
LINE
  5
6137
330
611B
100
AcDbEntity
  8
AM_0 外形線1
100
AcDbLine
 10
42.0
 20
-10.75
 30
0.0
 11
45.0
 21
-10.75
 31
0.0
  0
LINE
  5
6138
330
611B
100
AcDbEntity
  8
AM_0 外形線1
100
AcDbLine
 10
37.0
 20
6.422649999999975
 30
0.0
 11
42.0
 21
6.422649999999975
 31
0.0
  0
LINE
  5
6139
330
611B
100
AcDbEntity
  8
AM_0 外形線1
100
AcDbLine
 10
36.0
 20
7.0
 30
0.0
 11
37.0
 21
6.422649999999975
 31
0.0
  0
LINE
  5
613A
330
611B
100
AcDbEntity
  8
AM_0 外形線1
100
AcDbLine
 10
45.0
 20
10.75
 30
0.0
 11
42.0
 21
10.75
 31
0.0
  0
LINE
  5
613B
330
611B
100
AcDbEntity
  8
AM_0 外形線1
100
AcDbLine
 10
58.0
 20
6.0
 30
0.0
 11
58.0
 21
-6.0
 31
0.0
  0
LINE
  5
613C
330
611B
100
AcDbEntity
  8
AM_0 外形線1
100
AcDbLine
 10
60.0
 20
4.0
 30
0.0
 11
60.0
 21
-4.0
 31
0.0
  0
ARC
  5
613D
330
611B
100
AcDbEntity
  8
AM_0 外形線1
100
AcDbCircle
 10
36.61388299999999
 20
0.0
 30
0.0
 40
18.386117
100
AcDbArc
 50
342.6436620000027
 51
17.35633799999734
  0
LINE
  5
613E
330
611B
100
AcDbEntity
  8
AM_0 外形線1
100
AcDbLine
 10
55.0
 20
9.5
 30
0.0
 11
55.0
 21
-9.5
 31
0.0
  0
LINE
  5
613F
330
611B
100
AcDbEntity
  8
AM_4 細線
100
AcDbLine
 10
55.0
 20
-5.125
 30
0.0
 11
58.875
 21
-5.125
 31
0.0
  0
LINE
  5
6140
330
611B
100
AcDbEntity
  8
AM_0 外形線1
100
AcDbLine
 10
58.0
 20
-6.0
 30
0.0
 11
55.0
 21
-6.0
 31
0.0
  0
LINE
  5
6141
330
611B
100
AcDbEntity
  8
AM_0 外形線1
100
AcDbLine
 10
60.0
 20
-4.0
 30
0.0
 11
58.0
 21
-6.0
 31
0.0
  0
ARC
  5
6142
330
611B
100
AcDbEntity
  8
AM_0 外形線1
100
AcDbCircle
 10
50.12167199999976
 20
-8.217413999999962
 30
0.0
 40
4.878327999999998
100
AcDbArc
 50
325.9339550000068
 51
34.06604499999309
  0
LINE
  5
6143
330
611B
100
AcDbEntity
  8
AM_0 外形線1
100
AcDbLine
 10
55.0
 20
-9.5
 30
0.0
 11
54.16284200000018
 21
-10.95000000000004
 31
0.0
  0
LINE
  5
6144
330
611B
100
AcDbEntity
  8
AM_4 細線
100
AcDbLine
 10
55.0
 20
5.125
 30
0.0
 11
58.875
 21
5.125
 31
0.0
  0
LINE
  5
6145
330
611B
100
AcDbEntity
  8
AM_0 外形線1
100
AcDbLine
 10
58.0
 20
6.0
 30
0.0
 11
60.0
 21
4.0
 31
0.0
  0
LINE
  5
6146
330
611B
100
AcDbEntity
  8
AM_0 外形線1
100
AcDbLine
 10
55.0
 20
6.0
 30
0.0
 11
58.0
 21
6.0
 31
0.0
  0
ARC
  5
6147
330
611B
100
AcDbEntity
  8
AM_0 外形線1
100
AcDbCircle
 10
50.12167199999976
 20
8.217413999999962
 30
0.0
 40
4.878327999999998
100
AcDbArc
 50
325.9339550000068
 51
34.06604499999309
  0
LINE
  5
61A6
330
611B
100
AcDbEntity
  8
AM_0 外形線1
100
AcDbLine
 10
42.0
 20
10.75
 30
0.0
 11
42.0
 21
-10.75
 31
0.0
  0
LINE
  5
61A7
330
611B
100
AcDbEntity
  8
AM_0 外形線1
100
AcDbLine
 10
36.0
 20
7.0
 30
0.0
 11
2.0
 21
7.0
 31
0.0
  0
LINE
  5
61A8
330
611B
100
AcDbEntity
  8
AM_0 外形線1
100
AcDbLine
 10
0.0
 20
10.95000000000004
 30
0.0
 11
0.0
 21
-10.95000000000004
 31
0.0
  0
LINE
  5
7639
330
611B
100
AcDbEntity
  8
AM_0 外形線1
100
AcDbLine
 10
54.16284200000018
 20
10.95000000000004
 30
0.0
 11
55.0
 21
9.5
 31
0.0
  0
ENDBLK
  5
611D
330
611B
100
AcDbEntity
  8
0
100
AcDbBlockEnd
  0
BLOCK
  5
6B1D
330
6B1C
100
AcDbEntity
  8
0
100
AcDbBlockBegin
  2
*D12
 70
     1
 10
0.0
 20
0.0
 30
0.0
  3
*D12
  1

  0
LINE
  5
6B42
330
6B1C
100
AcDbEntity
  8
AM_5 寸法線
 62
     3
100
AcDbLine
 10
534.709387819729
 20
743.7910624101448
 30
0.0
 11
534.709387819729
 21
721.6031110213727
 31
0.0
  0
LINE
  5
6B43
330
6B1C
100
AcDbEntity
  8
AM_5 寸法線
 62
     3
100
AcDbLine
 10
539.209387819729
 20
744.2910624101448
 30
0.0
 11
539.209387819729
 21
721.6031110213727
 31
0.0
  0
LINE
  5
6B44
330
6B1C
100
AcDbEntity
  8
AM_5 寸法線
 62
     3
100
AcDbLine
 10
546.709387819729
 20
724.6031110213725
 30
0.0
 11
554.209387819729
 21
724.6031110213725
 31
0.0
  0
LINE
  5
6B45
330
6B1C
100
AcDbEntity
  8
AM_5 寸法線
 62
     3
100
AcDbLine
 10
527.209387819729
 20
724.6031110213725
 30
0.0
 11
490.9093878197289
 21
724.6031110213725
 31
0.0
  0
LINE
  5
6B46
330
6B1C
100
AcDbEntity
  8
AM_5 寸法線
 62
     3
100
AcDbLine
 10
539.209387819729
 20
724.6031110213725
 30
0.0
 11
534.709387819729
 21
724.6031110213725
 31
0.0
  0
INSERT
  5
6B47
330
6B1C
100
AcDbEntity
  8
AM_5 寸法線
 62
     3
100
AcDbBlockReference
  2
_Open30
 10
539.209387819729
 20
724.6031110213725
 30
0.0
 41
7.5
 42
7.5
 43
7.5
 50
180.0
  0
INSERT
  5
6B48
330
6B1C
100
AcDbEntity
  8
AM_5 寸法線
 62
     3
100
AcDbBlockReference
  2
_Open30
 10
534.709387819729
 20
724.6031110213725
 30
0.0
 41
7.5
 42
7.5
 43
7.5
  0
MTEXT
  5
6B49
330
6B1C
100
AcDbEntity
  8
AM_5 寸法線
 62
     3
100
AcDbMText
 10
505.309387819729
 20
734.3531110213725
 30
0.0
 40
10.5
 41
0.0
 46
0.0
 71
     5
 72
     1
  1
4.5
  7
SEISA
 73
     1
 44
1.0
  0
POINT
  5
6B4A
330
6B1C
100
AcDbEntity
  8
Defpoints
 62
     0
100
AcDbPoint
 10
534.709387819729
 20
746.7910624101448
 30
0.0
  0
POINT
  5
6B4B
102
{ACAD_REACTORS
330
8490
102
}
330
6B1C
100
AcDbEntity
  8
Defpoints
 62
     0
100
AcDbPoint
 10
539.209387819729
 20
747.2910624101448
 30
0.0
  0
POINT
  5
6B4C
330
6B1C
100
AcDbEntity
  8
Defpoints
 62
     0
100
AcDbPoint
 10
539.209387819729
 20
724.6031110213725
 30
0.0
  0
ENDBLK
  5
6B1E
330
6B1C
100
AcDbEntity
  8
0
100
AcDbBlockEnd
  0
BLOCK
  5
6B7D
330
6B7C
100
AcDbEntity
  8
0
100
AcDbBlockBegin
  2
*D13
 70
     1
 10
0.0
 20
0.0
 30
0.0
  3
*D13
  1

  0
LINE
  5
86AF
330
6B7C
100
AcDbEntity
  8
AM_5 寸法線
 62
     3
100
AcDbLine
 10
453.7093878197289
 20
654.7910624101447
 30
0.0
 11
453.7093878197289
 21
675.2675473160487
 31
0.0
  0
LINE
  5
86B0
330
6B7C
100
AcDbEntity
  8
AM_5 寸法線
 62
     3
100
AcDbLine
 10
593.709387819729
 20
679.450372638141
 30
0.0
 11
593.709387819729
 21
669.2675473160488
 31
0.0
  0
LINE
  5
86B1
330
6B7C
100
AcDbEntity
  8
AM_5 寸法線
 62
     3
100
AcDbLine
 10
461.2093878197289
 20
672.2675473160489
 30
0.0
 11
586.209387819729
 21
672.2675473160489
 31
0.0
  0
INSERT
  5
86B2
330
6B7C
100
AcDbEntity
  8
AM_5 寸法線
 62
     3
100
AcDbBlockReference
  2
_Open30
 10
453.7093878197289
 20
672.2675473160489
 30
0.0
 41
7.5
 42
7.5
 43
7.5
 50
180.0
  0
INSERT
  5
86B3
330
6B7C
100
AcDbEntity
  8
AM_5 寸法線
 62
     3
100
AcDbBlockReference
  2
_Open30
 10
593.709387819729
 20
672.2675473160489
 30
0.0
 41
7.5
 42
7.5
 43
7.5
  0
MTEXT
  5
86B4
330
6B7C
100
AcDbEntity
  8
AM_5 寸法線
 62
     3
100
AcDbMText
 10
523.709387819729
 20
682.0175473160489
 30
0.0
 40
10.5
 41
0.0
 46
0.0
 71
     5
 72
     1
  1
140
  7
SEISA
 73
     1
 44
1.0
  0
POINT
  5
86B5
330
6B7C
100
AcDbEntity
  8
Defpoints
 62
     0
100
AcDbPoint
 10
453.7093878197289
 20
651.7910624101447
 30
0.0
  0
POINT
  5
86B6
330
6B7C
100
AcDbEntity
  8
Defpoints
 62
     0
100
AcDbPoint
 10
593.709387819729
 20
682.4503726381411
 30
0.0
  0
POINT
  5
86B7
330
6B7C
100
AcDbEntity
  8
Defpoints
 62
     0
100
AcDbPoint
 10
593.709387819729
 20
672.2675473160489
 30
0.0
  0
ENDBLK
  5
6B7E
330
6B7C
100
AcDbEntity
  8
0
100
AcDbBlockEnd
  0
BLOCK
  5
6B95
330
6B94
100
AcDbEntity
  8
0
100
AcDbBlockBegin
  2
*D14
 70
     1
 10
0.0
 20
0.0
 30
0.0
  3
*D14
  1

  0
LINE
  5
871D
330
6B94
100
AcDbEntity
  8
AM_5 寸法線
 62
     3
100
AcDbLine
 10
593.709387819729
 20
687.4009849164349
 30
0.0
 11
593.709387819729
 21
669.2675473160488
 31
0.0
  0
LINE
  5
871E
330
6B94
100
AcDbEntity
  8
AM_5 寸法線
 62
     3
100
AcDbLine
 10
607.709387819729
 20
654.7910624101447
 30
0.0
 11
607.709387819729
 21
675.2675473160487
 31
0.0
  0
LINE
  5
871F
330
6B94
100
AcDbEntity
  8
AM_5 寸法線
 62
     3
100
AcDbLine
 10
586.209387819729
 20
672.2675473160489
 30
0.0
 11
578.709387819729
 21
672.2675473160489
 31
0.0
  0
LINE
  5
8720
330
6B94
100
AcDbEntity
  8
AM_5 寸法線
 62
     3
100
AcDbLine
 10
615.209387819729
 20
672.2675473160489
 30
0.0
 11
622.709387819729
 21
672.2675473160489
 31
0.0
  0
MTEXT
  5
8721
330
6B94
100
AcDbEntity
  8
AM_5 寸法線
 62
     3
100
AcDbMText
 10
616.8977237612972
 20
682.9085719487417
 30
0.0
 40
10.5
 41
0.0
 46
0.0
 71
     5
 72
     1
  1
14
  7
SEISA
 73
     1
 44
1.0
  0
LINE
  5
8722
330
6B94
100
AcDbEntity
  8
AM_5 寸法線
 62
     3
100
AcDbLine
 10
593.709387819729
 20
672.2675473160489
 30
0.0
 11
607.709387819729
 21
672.2675473160489
 31
0.0
  0
INSERT
  5
8723
330
6B94
100
AcDbEntity
  8
AM_5 寸法線
 62
     3
100
AcDbBlockReference
  2
_Open30
 10
593.709387819729
 20
672.2675473160489
 30
0.0
 41
7.5
 42
7.5
 43
7.5
  0
INSERT
  5
8724
330
6B94
100
AcDbEntity
  8
AM_5 寸法線
 62
     3
100
AcDbBlockReference
  2
_Open30
 10
607.709387819729
 20
672.2675473160489
 30
0.0
 41
7.5
 42
7.5
 43
7.5
 50
180.0
  0
POINT
  5
8725
330
6B94
100
AcDbEntity
  8
Defpoints
 62
     0
100
AcDbPoint
 10
593.709387819729
 20
690.4009849164349
 30
0.0
  0
POINT
  5
8726
330
6B94
100
AcDbEntity
  8
Defpoints
 62
     0
100
AcDbPoint
 10
607.709387819729
 20
651.7910624101447
 30
0.0
  0
POINT
  5
8727
330
6B94
100
AcDbEntity
  8
Defpoints
 62
     0
100
AcDbPoint
 10
607.709387819729
 20
672.2675473160489
 30
0.0
  0
ENDBLK
  5
6B96
330
6B94
100
AcDbEntity
  8
0
100
AcDbBlockEnd
  0
BLOCK
  5
6BB1
330
6BB0
100
AcDbEntity
  8
0
100
AcDbBlockBegin
  2
*D15
 70
     1
 10
0.0
 20
0.0
 30
0.0
  3
*D15
  1

  0
LINE
  5
6BBD
330
6BB0
100
AcDbEntity
  8
AM_5 寸法線
 62
     3
100
AcDbLine
 10
607.709387819729
 20
654.7910624101447
 30
0.0
 11
607.709387819729
 21
675.2675473160487
 31
0.0
  0
LINE
  5
6BBE
330
6BB0
100
AcDbEntity
  8
AM_5 寸法線
 62
     3
100
AcDbLine
 10
747.709387819729
 20
654.7910624101447
 30
0.0
 11
747.709387819729
 21
675.2675473160487
 31
0.0
  0
LINE
  5
6BBF
330
6BB0
100
AcDbEntity
  8
AM_5 寸法線
 62
     3
100
AcDbLine
 10
615.209387819729
 20
672.2675473160489
 30
0.0
 11
740.209387819729
 21
672.2675473160489
 31
0.0
  0
INSERT
  5
6BC0
330
6BB0
100
AcDbEntity
  8
AM_5 寸法線
 62
     3
100
AcDbBlockReference
  2
_Open30
 10
607.709387819729
 20
672.2675473160489
 30
0.0
 41
7.5
 42
7.5
 43
7.5
 50
180.0
  0
INSERT
  5
6BC1
330
6BB0
100
AcDbEntity
  8
AM_5 寸法線
 62
     3
100
AcDbBlockReference
  2
_Open30
 10
747.709387819729
 20
672.2675473160489
 30
0.0
 41
7.5
 42
7.5
 43
7.5
  0
MTEXT
  5
6BC2
330
6BB0
100
AcDbEntity
  8
AM_5 寸法線
 62
     3
100
AcDbMText
 10
677.709387819729
 20
682.0175473160489
 30
0.0
 40
10.5
 41
0.0
 46
0.0
 71
     5
 72
     1
  1
140
  7
SEISA
 73
     1
 44
1.0
  0
POINT
  5
6BC3
330
6BB0
100
AcDbEntity
  8
Defpoints
 62
     0
100
AcDbPoint
 10
607.709387819729
 20
651.7910624101447
 30
0.0
  0
POINT
  5
6BC4
330
6BB0
100
AcDbEntity
  8
Defpoints
 62
     0
100
AcDbPoint
 10
747.709387819729
 20
651.7910624101447
 30
0.0
  0
POINT
  5
6BC5
330
6BB0
100
AcDbEntity
  8
Defpoints
 62
     0
100
AcDbPoint
 10
747.709387819729
 20
672.2675473160489
 30
0.0
  0
ENDBLK
  5
6BB2
330
6BB0
100
AcDbEntity
  8
0
100
AcDbBlockEnd
  0
BLOCK
  5
6C10
330
6C0F
100
AcDbEntity
  8
0
100
AcDbBlockBegin
  2
*D16
 70
     1
 10
0.0
 20
0.0
 30
0.0
  3
*D16
  1

  0
LINE
  5
7BA2
330
6C0F
100
AcDbEntity
  8
AM_5 寸法線
 62
     3
100
AcDbLine
 10
600.709387819729
 20
509.7910624101448
 30
0.0
 11
600.709387819729
 21
478.7910624101448
 31
0.0
  0
LINE
  5
7BA3
330
6C0F
100
AcDbEntity
  8
AM_5 寸法線
 62
     3
100
AcDbLine
 10
579.709387819729
 20
509.7910624101448
 30
0.0
 11
579.709387819729
 21
478.7910624101448
 31
0.0
  0
LINE
  5
7BA4
330
6C0F
100
AcDbEntity
  8
AM_5 寸法線
 62
     3
100
AcDbLine
 10
608.209387819729
 20
481.7910624101448
 30
0.0
 11
615.709387819729
 21
481.7910624101448
 31
0.0
  0
LINE
  5
7BA5
330
6C0F
100
AcDbEntity
  8
AM_5 寸法線
 62
     3
100
AcDbLine
 10
572.209387819729
 20
481.7910624101448
 30
0.0
 11
564.709387819729
 21
481.7910624101448
 31
0.0
  0
MTEXT
  5
7BA6
330
6C0F
100
AcDbEntity
  8
AM_5 寸法線
 62
     3
100
AcDbMText
 10
566.8647941666104
 20
491.5088988615116
 30
0.0
 40
10.5
 41
0.0
 46
0.0
 71
     5
 72
     1
  1
21
  7
SEISA
 73
     1
 44
1.0
  0
LINE
  5
7BA7
330
6C0F
100
AcDbEntity
  8
AM_5 寸法線
 62
     3
100
AcDbLine
 10
600.709387819729
 20
481.7910624101448
 30
0.0
 11
579.709387819729
 21
481.7910624101448
 31
0.0
  0
INSERT
  5
7BA8
330
6C0F
100
AcDbEntity
  8
AM_5 寸法線
 62
     3
100
AcDbBlockReference
  2
GENDOT
 10
600.709387819729
 20
481.7910624101448
 30
0.0
 41
7.5
 42
7.5
 43
7.5
 50
180.0
  0
INSERT
  5
7BA9
330
6C0F
100
AcDbEntity
  8
AM_5 寸法線
 62
     3
100
AcDbBlockReference
  2
_Open30
 10
579.709387819729
 20
481.7910624101448
 30
0.0
 41
7.5
 42
7.5
 43
7.5
  0
POINT
  5
7BAA
330
6C0F
100
AcDbEntity
  8
Defpoints
 62
     0
100
AcDbPoint
 10
600.709387819729
 20
512.7910624101448
 30
0.0
  0
POINT
  5
7BAB
330
6C0F
100
AcDbEntity
  8
Defpoints
 62
     0
100
AcDbPoint
 10
579.709387819729
 20
512.7910624101448
 30
0.0
  0
POINT
  5
7BAC
330
6C0F
100
AcDbEntity
  8
Defpoints
 62
     0
100
AcDbPoint
 10
579.709387819729
 20
481.7910624101448
 30
0.0
  0
ENDBLK
  5
6C11
330
6C0F
100
AcDbEntity
  8
0
100
AcDbBlockEnd
  0
BLOCK
  5
6C2C
330
6C2B
100
AcDbEntity
  8
0
100
AcDbBlockBegin
  2
*D17
 70
     1
 10
0.0
 20
0.0
 30
0.0
  3
*D17
  1

  0
LINE
  5
7BB8
330
6C2B
100
AcDbEntity
  8
AM_5 寸法線
 62
     3
100
AcDbLine
 10
600.709387819729
 20
509.7910624101448
 30
0.0
 11
600.709387819729
 21
478.7910624101448
 31
0.0
  0
LINE
  5
7BB9
330
6C2B
100
AcDbEntity
  8
AM_5 寸法線
 62
     3
100
AcDbLine
 10
621.709387819729
 20
509.7910624101448
 30
0.0
 11
621.709387819729
 21
478.7910624101448
 31
0.0
  0
LINE
  5
7BBA
330
6C2B
100
AcDbEntity
  8
AM_5 寸法線
 62
     3
100
AcDbLine
 10
593.209387819729
 20
481.7910624101448
 30
0.0
 11
585.709387819729
 21
481.7910624101448
 31
0.0
  0
LINE
  5
7BBB
330
6C2B
100
AcDbEntity
  8
AM_5 寸法線
 62
     3
100
AcDbLine
 10
629.209387819729
 20
481.7910624101448
 30
0.0
 11
636.709387819729
 21
481.7910624101448
 31
0.0
  0
MTEXT
  5
7BBC
330
6C2B
100
AcDbEntity
  8
AM_5 寸法線
 62
     3
100
AcDbMText
 10
631.6597384606088
 20
491.6539573965401
 30
0.0
 40
10.5
 41
0.0
 46
0.0
 71
     5
 72
     1
  1
21
  7
SEISA
 73
     1
 44
1.0
  0
LINE
  5
7BBD
330
6C2B
100
AcDbEntity
  8
AM_5 寸法線
 62
     3
100
AcDbLine
 10
600.709387819729
 20
481.7910624101448
 30
0.0
 11
621.709387819729
 21
481.7910624101448
 31
0.0
  0
INSERT
  5
7BBE
330
6C2B
100
AcDbEntity
  8
AM_5 寸法線
 62
     3
100
AcDbBlockReference
  2
GENDOT
 10
600.709387819729
 20
481.7910624101448
 30
0.0
 41
7.5
 42
7.5
 43
7.5
  0
INSERT
  5
7BBF
330
6C2B
100
AcDbEntity
  8
AM_5 寸法線
 62
     3
100
AcDbBlockReference
  2
_Open30
 10
621.709387819729
 20
481.7910624101448
 30
0.0
 41
7.5
 42
7.5
 43
7.5
 50
180.0
  0
POINT
  5
7BC0
330
6C2B
100
AcDbEntity
  8
Defpoints
 62
     0
100
AcDbPoint
 10
600.709387819729
 20
512.7910624101448
 30
0.0
  0
POINT
  5
7BC1
330
6C2B
100
AcDbEntity
  8
Defpoints
 62
     0
100
AcDbPoint
 10
621.709387819729
 20
512.7910624101448
 30
0.0
  0
POINT
  5
7BC2
330
6C2B
100
AcDbEntity
  8
Defpoints
 62
     0
100
AcDbPoint
 10
621.709387819729
 20
481.7910624101448
 30
0.0
  0
ENDBLK
  5
6C2D
330
6C2B
100
AcDbEntity
  8
0
100
AcDbBlockEnd
  0
BLOCK
  5
6D8C
330
6D8B
100
AcDbEntity
  8
0
100
AcDbBlockBegin
  2
*D18
 70
     1
 10
0.0
 20
0.0
 30
0.0
  3
*D18
  1

  0
LINE
  5
8340
330
6D8B
100
AcDbEntity
  8
AM_5 寸法線
 62
     3
100
AcDbLine
 10
518.709387819729
 20
540.7910624101448
 30
0.0
 11
518.709387819729
 21
448.7910624101448
 31
0.0
  0
LINE
  5
8341
330
6D8B
100
AcDbEntity
  8
AM_5 寸法線
 62
     3
100
AcDbLine
 10
682.709387819729
 20
540.7910624101448
 30
0.0
 11
682.709387819729
 21
448.7910624101448
 31
0.0
  0
LINE
  5
8342
330
6D8B
100
AcDbEntity
  8
AM_5 寸法線
 62
     3
100
AcDbLine
 10
526.209387819729
 20
451.7910624101448
 30
0.0
 11
675.209387819729
 21
451.7910624101448
 31
0.0
  0
INSERT
  5
8343
330
6D8B
100
AcDbEntity
  8
AM_5 寸法線
 62
     3
100
AcDbBlockReference
  2
_Open30
 10
518.709387819729
 20
451.7910624101448
 30
0.0
 41
7.5
 42
7.5
 43
7.5
 50
180.0
  0
INSERT
  5
8344
330
6D8B
100
AcDbEntity
  8
AM_5 寸法線
 62
     3
100
AcDbBlockReference
  2
_Open30
 10
682.709387819729
 20
451.7910624101448
 30
0.0
 41
7.5
 42
7.5
 43
7.5
  0
MTEXT
  5
8345
330
6D8B
100
AcDbEntity
  8
AM_5 寸法線
 62
     3
100
AcDbMText
 10
600.709387819729
 20
461.5410624101448
 30
0.0
 40
10.5
 41
0.0
 46
0.0
 71
     5
 72
     1
  1
164
  7
SEISA
 73
     1
 44
1.0
  0
POINT
  5
8346
330
6D8B
100
AcDbEntity
  8
Defpoints
 62
     0
100
AcDbPoint
 10
518.709387819729
 20
543.7910624101448
 30
0.0
  0
POINT
  5
8347
330
6D8B
100
AcDbEntity
  8
Defpoints
 62
     0
100
AcDbPoint
 10
682.709387819729
 20
543.7910624101448
 30
0.0
  0
POINT
  5
8348
330
6D8B
100
AcDbEntity
  8
Defpoints
 62
     0
100
AcDbPoint
 10
682.709387819729
 20
451.7910624101448
 30
0.0
  0
ENDBLK
  5
6D8D
330
6D8B
100
AcDbEntity
  8
0
100
AcDbBlockEnd
  0
BLOCK
  5
6EF3
330
6EF2
100
AcDbEntity
  8
0
100
AcDbBlockBegin
  2
*D19
 70
     1
 10
0.0
 20
0.0
 30
0.0
  3
*D19
  1

  0
LINE
  5
6F42
330
6EF2
100
AcDbEntity
  8
AM_5 寸法線
 62
     3
100
AcDbLine
 10
704.209387819729
 20
746.7910624101448
 30
0.0
 11
811.315448819729
 21
746.7910624101448
 31
0.0
  0
LINE
  5
6F43
330
6EF2
100
AcDbEntity
  8
AM_5 寸法線
 62
     3
100
AcDbLine
 10
704.209387819729
 20
556.7910624101448
 30
0.0
 11
811.315448819729
 21
556.7910624101446
 31
0.0
  0
LINE
  5
6F44
330
6EF2
100
AcDbEntity
  8
AM_5 寸法線
 62
     3
100
AcDbLine
 10
808.315448819729
 20
739.2910624101448
 30
0.0
 11
808.315448819729
 21
564.2910624101447
 31
0.0
  0
INSERT
  5
6F45
330
6EF2
100
AcDbEntity
  8
AM_5 寸法線
 62
     3
100
AcDbBlockReference
  2
_Open30
 10
808.315448819729
 20
746.7910624101448
 30
0.0
 41
7.5
 42
7.5
 43
7.5
 50
90.0
  0
INSERT
  5
6F46
330
6EF2
100
AcDbEntity
  8
AM_5 寸法線
 62
     3
100
AcDbBlockReference
  2
_Open30
 10
808.315448819729
 20
556.7910624101446
 30
0.0
 41
7.5
 42
7.5
 43
7.5
 50
270.0
  0
MTEXT
  5
6F47
330
6EF2
100
AcDbEntity
  8
AM_5 寸法線
 62
     3
100
AcDbMText
 10
798.5654488197289
 20
651.7910624101448
 30
0.0
 40
10.5
 41
0.0
 46
0.0
 71
     5
 72
     1
  1
%%c190
  7
SEISA
 11
0.0000000000000001
 21
1.0
 31
0.0
 73
     1
 44
1.0
  0
POINT
  5
6F48
330
6EF2
100
AcDbEntity
  8
Defpoints
 62
     0
100
AcDbPoint
 10
701.2093878197291
 20
746.7910624101448
 30
0.0
  0
POINT
  5
6F49
330
6EF2
100
AcDbEntity
  8
Defpoints
 62
     0
100
AcDbPoint
 10
701.2093878197291
 20
556.7910624101448
 30
0.0
  0
POINT
  5
6F4A
330
6EF2
100
AcDbEntity
  8
Defpoints
 62
     0
100
AcDbPoint
 10
808.315448819729
 20
556.7910624101446
 30
0.0
  0
ENDBLK
  5
6EF4
330
6EF2
100
AcDbEntity
  8
0
100
AcDbBlockEnd
  0
BLOCK
  5
6F0B
330
6F0A
100
AcDbEntity
  8
0
100
AcDbBlockBegin
  2
*D20
 70
     1
 10
0.0
 20
0.0
 30
0.0
  3
*D20
  1

  0
LINE
  5
6F54
330
6F0A
100
AcDbEntity
  8
AM_5 寸法線
 62
     3
100
AcDbLine
 10
681.709387819729
 20
763.7910624101448
 30
0.0
 11
841.3154488197291
 21
763.7910624101448
 31
0.0
  0
LINE
  5
6F55
330
6F0A
100
AcDbEntity
  8
AM_5 寸法線
 62
     3
100
AcDbLine
 10
681.709387819729
 20
539.7910624101448
 30
0.0
 11
841.3154488197291
 21
539.7910624101446
 31
0.0
  0
LINE
  5
6F56
330
6F0A
100
AcDbEntity
  8
AM_5 寸法線
 62
     3
100
AcDbLine
 10
838.3154488197291
 20
756.2910624101448
 30
0.0
 11
838.3154488197291
 21
547.2910624101445
 31
0.0
  0
INSERT
  5
6F57
330
6F0A
100
AcDbEntity
  8
AM_5 寸法線
 62
     3
100
AcDbBlockReference
  2
_Open30
 10
838.3154488197291
 20
763.7910624101448
 30
0.0
 41
7.5
 42
7.5
 43
7.5
 50
90.0
  0
INSERT
  5
6F58
330
6F0A
100
AcDbEntity
  8
AM_5 寸法線
 62
     3
100
AcDbBlockReference
  2
_Open30
 10
838.3154488197291
 20
539.7910624101446
 30
0.0
 41
7.5
 42
7.5
 43
7.5
 50
270.0
  0
MTEXT
  5
6F59
330
6F0A
100
AcDbEntity
  8
AM_5 寸法線
 62
     3
100
AcDbMText
 10
828.5654488197289
 20
651.7910624101448
 30
0.0
 40
10.5
 41
0.0
 46
0.0
 71
     5
 72
     1
  1
%%c224
  7
SEISA
 11
0.0000000000000001
 21
1.0
 31
0.0
 73
     1
 44
1.0
  0
POINT
  5
6F5A
330
6F0A
100
AcDbEntity
  8
Defpoints
 62
     0
100
AcDbPoint
 10
678.709387819729
 20
763.7910624101448
 30
0.0
  0
POINT
  5
6F5B
330
6F0A
100
AcDbEntity
  8
Defpoints
 62
     0
100
AcDbPoint
 10
678.709387819729
 20
539.7910624101448
 30
0.0
  0
POINT
  5
6F5C
330
6F0A
100
AcDbEntity
  8
Defpoints
 62
     0
100
AcDbPoint
 10
838.3154488197291
 20
539.7910624101446
 30
0.0
  0
ENDBLK
  5
6F0C
330
6F0A
100
AcDbEntity
  8
0
100
AcDbBlockEnd
  0
BLOCK
  5
6F23
330
6F22
100
AcDbEntity
  8
0
100
AcDbBlockBegin
  2
*D21
 70
     1
 10
0.0
 20
0.0
 30
0.0
  3
*D21
  1

  0
LINE
  5
6F66
330
6F22
100
AcDbEntity
  8
AM_5 寸法線
 62
     3
100
AcDbLine
 10
623.709387819729
 20
791.7910624101448
 30
0.0
 11
871.3154488197293
 21
791.7910624101446
 31
0.0
  0
LINE
  5
6F67
330
6F22
100
AcDbEntity
  8
AM_5 寸法線
 62
     3
100
AcDbLine
 10
623.709387819729
 20
511.7910624101448
 30
0.0
 11
871.3154488197291
 21
511.7910624101448
 31
0.0
  0
LINE
  5
6F68
330
6F22
100
AcDbEntity
  8
AM_5 寸法線
 62
     3
100
AcDbLine
 10
868.3154488197294
 20
784.2910624101448
 30
0.0
 11
868.3154488197294
 21
519.2910624101446
 31
0.0
  0
INSERT
  5
6F69
330
6F22
100
AcDbEntity
  8
AM_5 寸法線
 62
     3
100
AcDbBlockReference
  2
_Open30
 10
868.3154488197294
 20
791.7910624101446
 30
0.0
 41
7.5
 42
7.5
 43
7.5
 50
90.0
  0
INSERT
  5
6F6A
330
6F22
100
AcDbEntity
  8
AM_5 寸法線
 62
     3
100
AcDbBlockReference
  2
_Open30
 10
868.3154488197294
 20
511.7910624101448
 30
0.0
 41
7.5
 42
7.5
 43
7.5
 50
270.0
  0
MTEXT
  5
6F6B
330
6F22
100
AcDbEntity
  8
AM_5 寸法線
 62
     3
100
AcDbMText
 10
858.565448819729
 20
651.7910624101448
 30
0.0
 40
10.5
 41
0.0
 46
0.0
 71
     5
 72
     1
  1
%%c280
  7
SEISA
 11
0.0000000000000001
 21
1.0
 31
0.0
 73
     1
 44
1.0
  0
POINT
  5
6F6C
330
6F22
100
AcDbEntity
  8
Defpoints
 62
     0
100
AcDbPoint
 10
620.709387819729
 20
791.7910624101448
 30
0.0
  0
POINT
  5
6F6D
330
6F22
100
AcDbEntity
  8
Defpoints
 62
     0
100
AcDbPoint
 10
620.709387819729
 20
511.7910624101448
 30
0.0
  0
POINT
  5
6F6E
330
6F22
100
AcDbEntity
  8
Defpoints
 62
     0
100
AcDbPoint
 10
868.3154488197294
 20
511.7910624101448
 30
0.0
  0
ENDBLK
  5
6F24
330
6F22
100
AcDbEntity
  8
0
100
AcDbBlockEnd
  0
BLOCK
  5
71A8
330
71A7
100
AcDbEntity
  8
0
100
AcDbBlockBegin
  2
*D22
 70
     1
 10
0.0
 20
0.0
 30
0.0
  3
*D22
  1

  0
LINE
  5
71B4
330
71A7
100
AcDbEntity
  8
AM_5 寸法線
 62
     3
100
AcDbLine
 10
453.7093878197289
 20
558.5910624101448
 30
0.0
 11
453.7093878197289
 21
418.7910624101448
 31
0.0
  0
LINE
  5
71B5
330
71A7
100
AcDbEntity
  8
AM_5 寸法線
 62
     3
100
AcDbLine
 10
747.709387819729
 20
558.5910624101448
 30
0.0
 11
747.709387819729
 21
418.7910624101448
 31
0.0
  0
LINE
  5
71B6
330
71A7
100
AcDbEntity
  8
AM_5 寸法線
 62
     3
100
AcDbLine
 10
461.2093878197289
 20
421.7910624101448
 30
0.0
 11
740.209387819729
 21
421.7910624101448
 31
0.0
  0
INSERT
  5
71B7
330
71A7
100
AcDbEntity
  8
AM_5 寸法線
 62
     3
100
AcDbBlockReference
  2
_Open30
 10
453.7093878197289
 20
421.7910624101448
 30
0.0
 41
7.5
 42
7.5
 43
7.5
 50
180.0
  0
INSERT
  5
71B8
330
71A7
100
AcDbEntity
  8
AM_5 寸法線
 62
     3
100
AcDbBlockReference
  2
_Open30
 10
747.709387819729
 20
421.7910624101448
 30
0.0
 41
7.5
 42
7.5
 43
7.5
  0
MTEXT
  5
71B9
330
71A7
100
AcDbEntity
  8
AM_5 寸法線
 62
     3
100
AcDbMText
 10
600.709387819729
 20
431.5410624101448
 30
0.0
 40
10.5
 41
0.0
 46
0.0
 71
     5
 72
     1
  1
294
  7
SEISA
 73
     1
 44
1.0
  0
POINT
  5
71BA
330
71A7
100
AcDbEntity
  8
Defpoints
 62
     0
100
AcDbPoint
 10
453.7093878197289
 20
561.5910624101448
 30
0.0
  0
POINT
  5
71BB
330
71A7
100
AcDbEntity
  8
Defpoints
 62
     0
100
AcDbPoint
 10
747.709387819729
 20
561.5910624101448
 30
0.0
  0
POINT
  5
71BC
330
71A7
100
AcDbEntity
  8
Defpoints
 62
     0
100
AcDbPoint
 10
747.709387819729
 20
421.7910624101448
 30
0.0
  0
ENDBLK
  5
71A9
330
71A7
100
AcDbEntity
  8
0
100
AcDbBlockEnd
  0
BLOCK
  5
7AF2
330
7AEF
100
AcDbEntity
  8
0
100
AcDbBlockBegin
  2
GENDOT
 70
     0
 10
0.0
 20
0.0
 30
0.0
  3
GENDOT
  1

  0
LINE
  5
7AF0
330
7AEF
100
AcDbEntity
  8
0
100
AcDbLine
 10
0.0
 20
0.0
 30
0.0
 11
-1.0
 21
0.0
 31
0.0
  0
LWPOLYLINE
  5
7AF1
330
7AEF
100
AcDbEntity
  8
0
100
AcDbPolyline
 90
        2
 70
     1
 43
0.25
 10
-0.125
 20
0.0
 42
1.0
 10
0.125
 20
0.0
 42
1.0
  0
ENDBLK
  5
7AF3
330
7AEF
100
AcDbEntity
  8
0
100
AcDbBlockEnd
  0
BLOCK
  5
8387
330
8386
100
AcDbEntity
  8
0
100
AcDbBlockBegin
  2
*D24
 70
     1
 10
0.0
 20
0.0
 30
0.0
  3
*D24
  1

  0
LINE
  5
83AF
330
8386
100
AcDbEntity
  8
AM_5 寸法線
 62
     3
100
AcDbLine
 10
497.209387819729
 20
746.7910624101448
 30
0.0
 11
377.5086446351888
 21
746.7910624101448
 31
0.0
  0
LINE
  5
83B0
330
8386
100
AcDbEntity
  8
AM_5 寸法線
 62
     3
100
AcDbLine
 10
497.209387819729
 20
556.7910624101448
 30
0.0
 11
377.5086446351888
 21
556.7910624101448
 31
0.0
  0
LINE
  5
83B1
330
8386
100
AcDbEntity
  8
AM_5 寸法線
 62
     3
100
AcDbLine
 10
380.5086446351888
 20
739.2910624101448
 30
0.0
 11
380.5086446351888
 21
564.2910624101447
 31
0.0
  0
INSERT
  5
83B2
330
8386
100
AcDbEntity
  8
AM_5 寸法線
 62
     3
100
AcDbBlockReference
  2
_Open30
 10
380.5086446351888
 20
746.7910624101448
 30
0.0
 41
7.5
 42
7.5
 43
7.5
 50
90.0
  0
INSERT
  5
83B3
330
8386
100
AcDbEntity
  8
AM_5 寸法線
 62
     3
100
AcDbBlockReference
  2
_Open30
 10
380.5086446351888
 20
556.7910624101448
 30
0.0
 41
7.5
 42
7.5
 43
7.5
 50
270.0
  0
MTEXT
  5
83B4
330
8386
100
AcDbEntity
  8
AM_5 寸法線
 62
     3
100
AcDbMText
 10
370.7586446351887
 20
651.7910624101448
 30
0.0
 40
10.5
 41
0.0
 46
0.0
 71
     5
 72
     1
  1
%%c190
  7
SEISA
 11
0.0000000000000001
 21
1.0
 31
0.0
 73
     1
 44
1.0
  0
POINT
  5
83B5
330
8386
100
AcDbEntity
  8
Defpoints
 62
     0
100
AcDbPoint
 10
500.209387819729
 20
746.7910624101448
 30
0.0
  0
POINT
  5
83B6
330
8386
100
AcDbEntity
  8
Defpoints
 62
     0
100
AcDbPoint
 10
500.209387819729
 20
556.7910624101448
 30
0.0
  0
POINT
  5
83B7
330
8386
100
AcDbEntity
  8
Defpoints
 62
     0
100
AcDbPoint
 10
380.5086446351888
 20
556.7910624101448
 30
0.0
  0
ENDBLK
  5
8388
330
8386
100
AcDbEntity
  8
0
100
AcDbBlockEnd
  0
BLOCK
  5
83BA
330
83B9
100
AcDbEntity
  8
0
100
AcDbBlockBegin
  2
*D25
 70
     1
 10
0.0
 20
0.0
 30
0.0
  3
*D25
  1

  0
LINE
  5
861D
330
83B9
100
AcDbEntity
  8
AM_5 寸法線
 62
     3
100
AcDbLine
 10
452.7093878197289
 20
762.7910624101448
 30
0.0
 11
452.7093878197289
 21
794.7910624101448
 31
0.0
  0
LINE
  5
861E
330
83B9
100
AcDbEntity
  8
AM_5 寸法線
 62
     3
100
AcDbLine
 10
453.7093878197289
 20
744.9910624101447
 30
0.0
 11
453.7093878197289
 21
794.7910624101448
 31
0.0
  0
LINE
  5
861F
330
83B9
100
AcDbEntity
  8
AM_5 寸法線
 62
     3
100
AcDbLine
 10
445.2093878197289
 20
791.7910624101448
 30
0.0
 11
437.709387819729
 21
791.7910624101448
 31
0.0
  0
LINE
  5
8620
330
83B9
100
AcDbEntity
  8
AM_5 寸法線
 62
     3
100
AcDbLine
 10
461.2093878197289
 20
791.7910624101448
 30
0.0
 11
479.9593878197289
 21
791.7910624101448
 31
0.0
  0
LINE
  5
8621
330
83B9
100
AcDbEntity
  8
AM_5 寸法線
 62
     3
100
AcDbLine
 10
452.7093878197289
 20
791.7910624101448
 30
0.0
 11
453.7093878197289
 21
791.7910624101448
 31
0.0
  0
INSERT
  5
8622
330
83B9
100
AcDbEntity
  8
AM_5 寸法線
 62
     3
100
AcDbBlockReference
  2
_Open30
 10
452.7093878197289
 20
791.7910624101448
 30
0.0
 41
7.5
 42
7.5
 43
7.5
  0
INSERT
  5
8623
330
83B9
100
AcDbEntity
  8
AM_5 寸法線
 62
     3
100
AcDbBlockReference
  2
_Open30
 10
453.7093878197289
 20
791.7910624101448
 30
0.0
 41
7.5
 42
7.5
 43
7.5
 50
180.0
  0
MTEXT
  5
8624
330
83B9
100
AcDbEntity
  8
AM_5 寸法線
 62
     3
100
AcDbMText
 10
474.334387819729
 20
801.5410624101448
 30
0.0
 40
10.5
 41
0.0
 46
0.0
 71
     5
 72
     1
  1
1
  7
SEISA
 73
     1
 44
1.0
  0
POINT
  5
8625
330
83B9
100
AcDbEntity
  8
Defpoints
 62
     0
100
AcDbPoint
 10
452.7093878197289
 20
759.7910624101448
 30
0.0
  0
POINT
  5
8626
330
83B9
100
AcDbEntity
  8
Defpoints
 62
     0
100
AcDbPoint
 10
453.7093878197289
 20
741.9910624101447
 30
0.0
  0
POINT
  5
8627
330
83B9
100
AcDbEntity
  8
Defpoints
 62
     0
100
AcDbPoint
 10
453.7093878197289
 20
791.7910624101448
 30
0.0
  0
ENDBLK
  5
83BB
330
83B9
100
AcDbEntity
  8
0
100
AcDbBlockEnd
  0
BLOCK
  5
8484
330
8483
100
AcDbEntity
  8
0
100
AcDbBlockBegin
  2
*D26
 70
     1
 10
0.0
 20
0.0
 30
0.0
  3
*D26
  1

  0
LINE
  5
84A3
330
8483
100
AcDbEntity
  8
AM_5 寸法線
 62
     3
100
AcDbLine
 10
539.209387819729
 20
744.2910624101448
 30
0.0
 11
539.209387819729
 21
721.6031110213732
 31
0.0
  0
LINE
  5
84A4
330
8483
100
AcDbEntity
  8
AM_5 寸法線
 62
     3
100
AcDbLine
 10
572.209387819729
 20
744.2910624101448
 30
0.0
 11
572.209387819729
 21
721.6031110213732
 31
0.0
  0
LINE
  5
84A5
330
8483
100
AcDbEntity
  8
AM_5 寸法線
 62
     3
100
AcDbLine
 10
546.709387819729
 20
724.6031110213732
 30
0.0
 11
564.709387819729
 21
724.6031110213732
 31
0.0
  0
INSERT
  5
84A6
330
8483
100
AcDbEntity
  8
AM_5 寸法線
 62
     3
100
AcDbBlockReference
  2
_Open30
 10
539.209387819729
 20
724.6031110213732
 30
0.0
 41
7.5
 42
7.5
 43
7.5
 50
180.0
  0
INSERT
  5
84A7
330
8483
100
AcDbEntity
  8
AM_5 寸法線
 62
     3
100
AcDbBlockReference
  2
_Open30
 10
572.209387819729
 20
724.6031110213732
 30
0.0
 41
7.5
 42
7.5
 43
7.5
  0
MTEXT
  5
84A8
330
8483
100
AcDbEntity
  8
AM_5 寸法線
 62
     3
100
AcDbMText
 10
555.709387819729
 20
734.3531110213732
 30
0.0
 40
10.5
 41
0.0
 46
0.0
 71
     5
 72
     1
  1
33
  7
SEISA
 73
     1
 44
1.0
  0
POINT
  5
84A9
330
8483
100
AcDbEntity
  8
Defpoints
 62
     0
100
AcDbPoint
 10
539.209387819729
 20
747.2910624101448
 30
0.0
  0
POINT
  5
84AA
102
{ACAD_REACTORS
330
84BC
102
}
330
8483
100
AcDbEntity
  8
Defpoints
 62
     0
100
AcDbPoint
 10
572.209387819729
 20
747.2910624101448
 30
0.0
  0
POINT
  5
84AB
330
8483
100
AcDbEntity
  8
Defpoints
 62
     0
100
AcDbPoint
 10
572.209387819729
 20
724.6031110213732
 30
0.0
  0
ENDBLK
  5
8485
330
8483
100
AcDbEntity
  8
0
100
AcDbBlockEnd
  0
BLOCK
  5
84AE
330
84AD
100
AcDbEntity
  8
0
100
AcDbBlockBegin
  2
*D27
 70
     1
 10
0.0
 20
0.0
 30
0.0
  3
*D27
  1

  0
LINE
  5
87A1
330
84AD
100
AcDbEntity
  8
AM_5 寸法線
 62
     3
100
AcDbLine
 10
572.209387819729
 20
744.2910624101448
 30
0.0
 11
572.209387819729
 21
721.6031110213732
 31
0.0
  0
LINE
  5
87A2
330
84AD
100
AcDbEntity
  8
AM_5 寸法線
 62
     3
100
AcDbLine
 10
564.709387819729
 20
724.6031110213732
 30
0.0
 11
557.209387819729
 21
724.6031110213732
 31
0.0
  0
LINE
  5
87A3
330
84AD
100
AcDbEntity
  8
AM_5 寸法線
 62
     3
100
AcDbLine
 10
601.2093878197291
 20
724.6031110213732
 30
0.0
 11
608.709387819729
 21
724.6031110213732
 31
0.0
  0
LINE
  5
87A4
330
84AD
100
AcDbEntity
  8
AM_5 寸法線
 62
     3
100
AcDbLine
 10
650.6046524343194
 20
724.6031110213732
 30
0.0
 11
593.709387819729
 21
724.6031110213732
 31
0.0
  0
MTEXT
  5
87A5
330
84AD
100
AcDbEntity
  8
AM_5 寸法線
 62
     3
100
AcDbMText
 10
631.7046524343194
 20
734.3531110213732
 30
0.0
 40
10.5
 41
0.0
 46
0.0
 71
     5
 72
     1
  1
21.5
  7
SEISA
 73
     1
 44
1.0
  0
LINE
  5
87A6
330
84AD
100
AcDbEntity
  8
AM_5 寸法線
 62
     3
100
AcDbLine
 10
572.209387819729
 20
724.6031110213732
 30
0.0
 11
593.709387819729
 21
724.6031110213732
 31
0.0
  0
LINE
  5
87A7
330
84AD
100
AcDbEntity
  8
AM_5 寸法線
 62
     3
100
AcDbLine
 10
572.209387819729
 20
724.6031110213732
 30
0.0
 11
593.709387819729
 21
724.6031110213732
 31
0.0
  0
INSERT
  5
87A8
330
84AD
100
AcDbEntity
  8
AM_5 寸法線
 62
     3
100
AcDbBlockReference
  2
_Open30
 10
572.209387819729
 20
724.6031110213732
 30
0.0
 41
7.5
 42
7.5
 43
7.5
  0
INSERT
  5
87A9
330
84AD
100
AcDbEntity
  8
AM_5 寸法線
 62
     3
100
AcDbBlockReference
  2
_Open30
 10
593.709387819729
 20
724.6031110213732
 30
0.0
 41
7.5
 42
7.5
 43
7.5
 50
180.0
  0
POINT
  5
87AA
330
84AD
100
AcDbEntity
  8
Defpoints
 62
     0
100
AcDbPoint
 10
572.209387819729
 20
747.2910624101448
 30
0.0
  0
POINT
  5
87AB
330
84AD
100
AcDbEntity
  8
Defpoints
 62
     0
100
AcDbPoint
 10
593.709387819729
 20
724.6031110213732
 30
0.0
  0
POINT
  5
87AC
330
84AD
100
AcDbEntity
  8
Defpoints
 62
     0
100
AcDbPoint
 10
593.709387819729
 20
724.6031110213732
 30
0.0
  0
ENDBLK
  5
84AF
330
84AD
100
AcDbEntity
  8
0
100
AcDbBlockEnd
  0
BLOCK
  5
881E
330
881D
100
AcDbEntity
  8
0
100
AcDbBlockBegin
  2
ケース
 70
     0
 10
0.0
 20
0.0
 30
0.0
  3
ケース
  1

  0
LINE
  5
8820
330
881D
100
AcDbEntity
  8
AM_11 想像線
 48
0.2
100
AcDbLine
 10
-7.286606149344606
 20
-12.39999999999997
 30
0.0
 11
0.0
 21
-12.39999999999997
 31
0.0
  0
LINE
  5
8821
330
881D
100
AcDbEntity
  8
AM_11 想像線
 48
0.2
100
AcDbLine
 10
0.0
 20
0.0
 30
0.0
 11
-26.28660614934461
 21
0.0
 31
0.0
  0
LINE
  5
8822
330
881D
100
AcDbEntity
  8
AM_11 想像線
 48
0.2
100
AcDbLine
 10
0.0
 20
-7.0
 30
0.0
 11
-8.286606149344606
 21
-7.0
 31
0.0
  0
LINE
  5
8823
330
881D
100
AcDbEntity
  8
AM_11 想像線
 48
0.2
100
AcDbLine
 10
0.0
 20
-10.0
 30
0.0
 11
-10.28660614934461
 21
-10.0
 31
0.0
  0
LINE
  5
8824
330
881D
100
AcDbEntity
  8
AM_11 想像線
 48
0.2
100
AcDbLine
 10
-16.6866061493447
 20
-15.5
 30
0.0
 11
-14.2866061493446
 21
-15.5
 31
0.0
  0
LINE
  5
8825
330
881D
100
AcDbEntity
  8
AM_11 想像線
 48
0.2
100
AcDbLine
 10
-16.6866061493447
 20
-10.60000000000002
 30
0.0
 11
-16.6866061493447
 21
-15.5
 31
0.0
  0
LINE
  5
8826
330
881D
100
AcDbEntity
  8
AM_11 想像線
 48
0.2
100
AcDbLine
 10
-27.88660614934452
 20
-15.5
 30
0.0
 11
-27.88660614934452
 21
-10.60000000000002
 31
0.0
  0
LINE
  5
8827
330
881D
100
AcDbEntity
  8
AM_11 想像線
 48
0.2
100
AcDbLine
 10
-30.28660614934461
 20
-4.0
 30
0.0
 11
-30.28660614934461
 21
-15.5
 31
0.0
  0
LINE
  5
8828
330
881D
100
AcDbEntity
  8
AM_11 想像線
 48
0.2
100
AcDbLine
 10
-30.28660614934461
 20
-15.5
 30
0.0
 11
-27.88660614934452
 21
-15.5
 31
0.0
  0
LINE
  5
8829
330
881D
100
AcDbEntity
  8
AM_11 想像線
 48
0.2
100
AcDbLine
 10
-27.88660614934452
 20
-15.5
 30
0.0
 11
-27.88660614934452
 21
-17.0
 31
0.0
  0
LINE
  5
882A
330
881D
100
AcDbEntity
  8
AM_11 想像線
 48
0.2
100
AcDbLine
 10
-30.28660614934461
 20
-15.5
 30
0.0
 11
-30.28660614934461
 21
-17.0
 31
0.0
  0
LINE
  5
882B
330
881D
100
AcDbEntity
  8
AM_11 想像線
 48
0.2
100
AcDbLine
 10
-16.6866061493447
 20
-15.5
 30
0.0
 11
-16.6866061493447
 21
-17.0
 31
0.0
  0
LINE
  5
882C
330
881D
100
AcDbEntity
  8
AM_11 想像線
 48
0.2
100
AcDbLine
 10
-27.38660614934452
 20
-10.10000000000002
 30
0.0
 11
-17.1866061493447
 21
-10.10000000000002
 31
0.0
  0
ARC
  5
882D
102
{ACAD_REACTORS
330
83C6
102
}
330
881D
100
AcDbEntity
  8
AM_11 想像線
 48
0.2
100
AcDbCircle
 10
-26.28660614934461
 20
-4.0
 30
0.0
 40
4.0
100
AcDbArc
 50
90.0
 51
180.0
  0
ARC
  5
882E
330
881D
100
AcDbEntity
  8
AM_11 想像線
 48
0.2
100
AcDbCircle
 10
-27.38660614934452
 20
-10.60000000000002
 30
0.0
 40
0.5
100
AcDbArc
 50
90.0
 51
180.0
  0
ARC
  5
882F
330
881D
100
AcDbEntity
  8
AM_11 想像線
 48
0.2
100
AcDbCircle
 10
-17.1866061493447
 20
-10.60000000000002
 30
0.0
 40
0.5
100
AcDbArc
 50
0.0
 51
90.0
  0
LINE
  5
8830
330
881D
100
AcDbEntity
  8
AM_11 想像線
 48
0.2
100
AcDbLine
 10
-14.2866061493446
 20
-15.5
 30
0.0
 11
-14.2866061493446
 21
-7.5
 31
0.0
  0
LINE
  5
8831
330
881D
100
AcDbEntity
  8
AM_11 想像線
 48
0.2
100
AcDbLine
 10
-14.2866061493446
 20
-15.5
 30
0.0
 11
-14.2866061493446
 21
-17.0
 31
0.0
  0
LINE
  5
8832
330
881D
100
AcDbEntity
  8
AM_11 想像線
 48
0.2
100
AcDbLine
 10
-8.286606149344606
 20
-11.39999999999997
 30
0.0
 11
-7.286606149344606
 21
-12.39999999999997
 31
0.0
  0
LINE
  5
8833
330
881D
100
AcDbEntity
  8
AM_11 想像線
 48
0.2
100
AcDbLine
 10
-8.286606149344606
 20
-8.527203999999981
 30
0.0
 11
-8.286606149344606
 21
-11.39999999999997
 31
0.0
  0
LINE
  5
8834
330
881D
100
AcDbEntity
  8
AM_11 想像線
 48
0.2
100
AcDbLine
 10
-8.286606149344606
 20
-8.527203999999981
 30
0.0
 11
-8.286606149344606
 21
-7.5
 31
0.0
  0
ARC
  5
8835
330
881D
100
AcDbEntity
  8
AM_11 想像線
 48
0.2
100
AcDbCircle
 10
-9.286606149344605
 20
-7.5
 30
0.0
 40
1.0
100
AcDbArc
 50
0.0
 51
90.0
  0
LINE
  5
8836
330
881D
100
AcDbEntity
  8
AM_11 想像線
 48
0.2
100
AcDbLine
 10
-13.28660614934461
 20
-6.5
 30
0.0
 11
-9.286606149344605
 21
-6.5
 31
0.0
  0
ARC
  5
8837
330
881D
100
AcDbEntity
  8
AM_11 想像線
 48
0.2
100
AcDbCircle
 10
-13.28660614934461
 20
-7.5
 30
0.0
 40
1.0
100
AcDbArc
 50
90.0
 51
180.0
  0
ENDBLK
  5
881F
330
881D
100
AcDbEntity
  8
0
100
AcDbBlockEnd
  0
ENDSEC
  0
SECTION
  2
ENTITIES
  0
LINE
  5
4019
330
1F
100
AcDbEntity
  8
AM_7 中心線
100
AcDbLine
 10
763.7804102121167
 20
651.7910624101447
 30
0.0
 11
439.6383654273413
 21
651.7910624101447
 31
0.0
  0
LINE
  5
40E7
330
1F
100
AcDbEntity
  8
AM_0 外形線1
100
AcDbLine
 10
581.709387819729
 20
786.7910624101448
 30
0.0
 11
615.709387819729
 21
786.7910624101448
 31
0.0
  0
LINE
  5
40F0
330
1F
100
AcDbEntity
  8
AM_0 外形線1
100
AcDbLine
 10
579.709387819729
 20
768.8410624101448
 30
0.0
 11
579.709387819729
 21
790.7410624101447
 31
0.0
  0
LINE
  5
4103
330
1F
100
AcDbEntity
  8
AM_0 外形線1
100
AcDbLine
 10
600.709387819729
 20
786.7910624101448
 30
0.0
 11
600.709387819729
 21
790.7910624101448
 31
0.0
  0
ARC
  5
413F
330
1F
100
AcDbEntity
  8
AM_0 外形線1
100
AcDbCircle
 10
679.8093878197288
 20
753.1910624101448
 30
0.0
 40
0.5
100
AcDbArc
 50
0.0
 51
90.0
  0
LINE
  5
419F
330
1F
100
AcDbEntity
  8
AM_5 寸法線
100
AcDbLine
 10
564.709387819729
 20
481.7910624101448
 30
0.0
 11
559.222550185058
 21
481.7910624101448
 31
0.0
  0
LINE
  5
41A0
330
1F
100
AcDbEntity
  8
AM_5 寸法線
100
AcDbLine
 10
636.709387819729
 20
481.7910624101448
 30
0.0
 11
642.4191543314123
 21
481.7910624101448
 31
0.0
  0
INSERT
  5
5DA0
102
{ACAD_REACTORS
330
6B36
330
6C29
330
6DA1
102
}
330
1F
100
AcDbEntity
  8
AM_0 外形線1
100
AcDbBlockReference
  2
ケースＢ SSM280
 10
600.709387819729
 20
651.7910624101447
 30
0.0
  0
INSERT
  5
5ECD
102
{ACAD_REACTORS
330
6BAE
330
6BC6
330
6F08
330
71BD
102
}
330
1F
100
AcDbEntity
  8
AM_0 外形線1
100
AcDbBlockReference
  2
センタＡ SSM280
 10
607.709387819729
 20
651.7910624101447
 30
0.0
  0
INSERT
  5
5F85
102
{ACAD_REACTORS
330
6B36
330
71BD
330
8393
330
83C6
330
8490
330
6B92
102
}
330
1F
100
AcDbEntity
  8
AM_0 外形線1
100
AcDbBlockReference
  2
センタＢ SSM280
 10
593.709387819729
 20
651.7910624101447
 30
0.0
  0
INSERT
  5
6149
330
1F
100
AcDbEntity
  8
AM_0 外形線1
100
AcDbBlockReference
  2
リーマボルト SSM280 M12
 10
579.709387819729
 20
779.7910624101448
 30
0.0
  0
INSERT
  5
6175
102
{ACAD_REACTORS
330
6C29
330
6C45
330
6F20
330
6F38
102
}
330
1F
100
AcDbEntity
  8
AM_0 外形線1
100
AcDbBlockReference
  2
ケースＡ SSM280
 10
600.709387819729
 20
651.7910624101447
 30
0.0
  0
DIMENSION
  5
6B1B
102
{ACAD_XDICTIONARY
360
6B2A
102
}
102
{ACAD_REACTORS
330
6B36
330
8490
102
}
330
1F
100
AcDbEntity
  8
AM_5 寸法線
100
AcDbDimension
  2
*D12
 10
539.209387819729
 20
724.6031110213725
 30
0.0
 11
505.309387819729
 21
724.6031110213725
 31
0.0
 70
   160
 71
     5
 42
4.5
 73
     0
 74
     0
 75
     0
  3
SEISA$0
100
AcDbAlignedDimension
 13
534.709387819729
 23
746.7910624101448
 33
0.0
 14
539.209387819729
 24
747.2910624101448
 34
0.0
100
AcDbRotatedDimension
  0
DIMENSION
  5
6B7B
102
{ACAD_XDICTIONARY
360
6B88
102
}
102
{ACAD_REACTORS
330
6B92
102
}
330
1F
100
AcDbEntity
  8
AM_5 寸法線
100
AcDbDimension
  2
*D13
 10
593.709387819729
 20
672.2675473160489
 30
0.0
 11
523.709387819729
 21
682.0175473160489
 31
0.0
 70
    32
 71
     5
 42
140.0
 73
     0
 74
     0
 75
     0
  3
SEISA$0
100
AcDbAlignedDimension
 13
453.7093878197289
 23
651.7910624101447
 33
0.0
 14
593.709387819729
 24
682.4503726381411
 34
0.0
100
AcDbRotatedDimension
  0
DIMENSION
  5
6B93
102
{ACAD_XDICTIONARY
360
6BA2
102
}
102
{ACAD_REACTORS
330
6BAE
102
}
330
1F
100
AcDbEntity
  8
AM_5 寸法線
100
AcDbDimension
  2
*D14
 10
607.709387819729
 20
672.2675473160489
 30
0.0
 11
616.8977237612972
 21
682.9085719487417
 31
0.0
 70
   160
 71
     5
 42
14.0
 73
     0
 74
     0
 75
     0
  3
SEISA$0
100
AcDbAlignedDimension
 13
593.709387819729
 23
690.4009849164349
 33
0.0
 14
607.709387819729
 24
651.7910624101447
 34
0.0
100
AcDbRotatedDimension
1001
ACAD
1000
DSTYLE
1002
{
1070
   279
1070
     2
1002
}
  0
DIMENSION
  5
6BAF
102
{ACAD_XDICTIONARY
360
6BBC
102
}
102
{ACAD_REACTORS
330
6BC6
102
}
330
1F
100
AcDbEntity
  8
AM_5 寸法線
100
AcDbDimension
  2
*D15
 10
747.709387819729
 20
672.2675473160489
 30
0.0
 11
677.709387819729
 21
682.0175473160489
 31
0.0
 70
    32
 71
     5
 42
140.0
 73
     0
 74
     0
 75
     0
  3
SEISA$0
100
AcDbAlignedDimension
 13
607.709387819729
 23
651.7910624101447
 33
0.0
 14
747.709387819729
 24
651.7910624101447
 34
0.0
100
AcDbRotatedDimension
  0
DIMENSION
  5
6C0E
102
{ACAD_XDICTIONARY
360
6C1D
102
}
102
{ACAD_REACTORS
330
6C29
102
}
330
1F
100
AcDbEntity
  8
AM_5 寸法線
100
AcDbDimension
  2
*D16
 10
579.709387819729
 20
481.7910624101448
 30
0.0
 11
566.8647941666104
 21
491.5088988615116
 31
0.0
 70
   160
 71
     5
 42
21.0
 73
     0
 74
     0
 75
     0
  3
SEISA$0
100
AcDbAlignedDimension
 13
600.709387819729
 23
512.7910624101448
 33
0.0
 14
579.709387819729
 24
512.7910624101448
 34
0.0
100
AcDbRotatedDimension
1001
ACAD_DSTYLE_DIMINSPECT
1070
   396
1000
100%
1070
   395
1000

1070
   394
1070
    33
1070
   393
1070
     0
1001
ACAD
1000
DSTYLE
1002
{
1070
   173
1070
     1
1070
   279
1070
     2
1070
   342
1005
0
1070
   343
1005
7AEF
1070
   344
1005
69
1002
}
  0
DIMENSION
  5
6C2A
102
{ACAD_XDICTIONARY
360
6C39
102
}
102
{ACAD_REACTORS
330
6C45
102
}
330
1F
100
AcDbEntity
  8
AM_5 寸法線
100
AcDbDimension
  2
*D17
 10
621.709387819729
 20
481.7910624101448
 30
0.0
 11
631.6597384606088
 21
491.6539573965401
 31
0.0
 70
   160
 71
     5
 42
21.0
 73
     0
 74
     0
 75
     0
  3
SEISA$0
100
AcDbAlignedDimension
 13
600.709387819729
 23
512.7910624101448
 33
0.0
 14
621.709387819729
 24
512.7910624101448
 34
0.0
100
AcDbRotatedDimension
1001
ACAD_DSTYLE_DIMINSPECT
1070
   396
1000
100%
1070
   395
1000

1070
   394
1070
    33
1070
   393
1070
     0
1001
ACAD
1000
DSTYLE
1002
{
1070
   173
1070
     1
1070
   279
1070
     2
1070
   342
1005
0
1070
   343
1005
7AEF
1070
   344
1005
69
1002
}
  0
DIMENSION
  5
6D8A
102
{ACAD_XDICTIONARY
360
6D97
102
}
102
{ACAD_REACTORS
330
6DA1
102
}
330
1F
100
AcDbEntity
  8
AM_5 寸法線
100
AcDbDimension
  2
*D18
 10
682.709387819729
 20
451.7910624101448
 30
0.0
 11
600.709387819729
 21
461.5410624101448
 31
0.0
 70
    32
 71
     5
 42
164.0
 73
     0
 74
     0
 75
     0
  3
SEISA$0
100
AcDbAlignedDimension
 13
518.709387819729
 23
543.7910624101448
 33
0.0
 14
682.709387819729
 24
543.7910624101448
 34
0.0
100
AcDbRotatedDimension
  0
DIMENSION
  5
6EF1
102
{ACAD_XDICTIONARY
360
6EFE
102
}
102
{ACAD_REACTORS
330
6F08
102
}
330
1F
100
AcDbEntity
  8
AM_5 寸法線
100
AcDbDimension
  2
*D19
 10
808.315448819729
 20
556.7910624101446
 30
0.0
 11
798.5654488197289
 21
651.7910624101448
 31
0.0
 70
    32
  1
%%c<>
 71
     5
 42
190.0
 73
     0
 74
     0
 75
     0
  3
SEISA$0
100
AcDbAlignedDimension
 13
701.2093878197291
 23
746.7910624101448
 33
0.0
 14
701.2093878197291
 24
556.7910624101448
 34
0.0
 50
90.0
100
AcDbRotatedDimension
1001
ACAD_DSTYLE_DIMINSPECT
1070
   396
1000
100%
1070
   395
1000

1070
   394
1070
    33
1070
   393
1070
     0
  0
DIMENSION
  5
6F09
102
{ACAD_XDICTIONARY
360
6F16
102
}
102
{ACAD_REACTORS
330
6F20
102
}
330
1F
100
AcDbEntity
  8
AM_5 寸法線
100
AcDbDimension
  2
*D20
 10
838.3154488197291
 20
539.7910624101446
 30
0.0
 11
828.5654488197289
 21
651.7910624101448
 31
0.0
 70
    32
  1
%%c<>
 71
     5
 42
224.0
 73
     0
 74
     0
 75
     0
  3
SEISA$0
100
AcDbAlignedDimension
 13
678.709387819729
 23
763.7910624101448
 33
0.0
 14
678.709387819729
 24
539.7910624101448
 34
0.0
 50
90.0
100
AcDbRotatedDimension
1001
ACAD_DSTYLE_DIMINSPECT
1070
   396
1000
100%
1070
   395
1000

1070
   394
1070
    33
1070
   393
1070
     0
  0
DIMENSION
  5
6F21
102
{ACAD_XDICTIONARY
360
6F2E
102
}
102
{ACAD_REACTORS
330
6F38
102
}
330
1F
100
AcDbEntity
  8
AM_5 寸法線
100
AcDbDimension
  2
*D21
 10
868.3154488197294
 20
511.7910624101448
 30
0.0
 11
858.565448819729
 21
651.7910624101448
 31
0.0
 70
    32
  1
%%c<>
 71
     5
 42
280.0
 73
     0
 74
     0
 75
     0
  3
SEISA$0
100
AcDbAlignedDimension
 13
620.709387819729
 23
791.7910624101448
 33
0.0
 14
620.709387819729
 24
511.7910624101448
 34
0.0
 50
90.0
100
AcDbRotatedDimension
1001
ACAD_DSTYLE_DIMINSPECT
1070
   396
1000
100%
1070
   395
1000

1070
   394
1070
    33
1070
   393
1070
     0
  0
DIMENSION
  5
71A6
102
{ACAD_XDICTIONARY
360
71B3
102
}
102
{ACAD_REACTORS
330
71BD
102
}
330
1F
100
AcDbEntity
  8
AM_5 寸法線
100
AcDbDimension
  2
*D22
 10
747.709387819729
 20
421.7910624101448
 30
0.0
 11
600.709387819729
 21
431.5410624101448
 31
0.0
 70
    32
 71
     5
 42
294.0
 73
     0
 74
     0
 75
     0
  3
SEISA$0
100
AcDbAlignedDimension
 13
453.7093878197289
 23
561.5910624101448
 33
0.0
 14
747.709387819729
 24
561.5910624101448
 34
0.0
100
AcDbRotatedDimension
  0
MTEXT
  5
833F
330
1F
100
AcDbEntity
  8
AM_6 文字
100
AcDbMText
 10
771.0355404003363
 20
486.9078353502533
 30
0.0
 40
10.5
 41
200.7824179728727
 46
24.39230497740728
 71
     1
 72
     5
  1
{\W0.6;TYPE:SSM280/SSMH280\PSHAFT DIA:MAX/MIN φ135/φ42}
  7
SEISA
 73
     1
 44
1.0
  0
DIMENSION
  5
8385
102
{ACAD_XDICTIONARY
360
8392
102
}
102
{ACAD_REACTORS
330
8393
102
}
330
1F
100
AcDbEntity
  8
AM_5 寸法線
100
AcDbDimension
  2
*D24
 10
380.5086446351888
 20
556.7910624101448
 30
0.0
 11
370.7586446351887
 21
651.7910624101448
 31
0.0
 70
    32
  1
%%c<>
 71
     5
 42
190.0
 73
     0
 74
     0
 75
     0
  3
SEISA$0
100
AcDbAlignedDimension
 13
500.209387819729
 23
746.7910624101448
 33
0.0
 14
500.209387819729
 24
556.7910624101448
 34
0.0
 50
90.00000000000005
100
AcDbRotatedDimension
1001
ACAD_DSTYLE_DIMINSPECT
1070
   396
1000
100%
1070
   395
1000

1070
   394
1070
    33
1070
   393
1070
     0
  0
DIMENSION
  5
83B8
102
{ACAD_XDICTIONARY
360
83C5
102
}
102
{ACAD_REACTORS
330
83C6
102
}
330
1F
100
AcDbEntity
  8
AM_5 寸法線
100
AcDbDimension
  2
*D25
 10
453.7093878197289
 20
791.7910624101448
 30
0.0
 11
474.334387819729
 21
801.5410624101448
 31
0.0
 70
    32
 71
     5
 42
-1.0
 73
     0
 74
     0
 75
     0
  3
SEISA$0
100
AcDbAlignedDimension
 13
452.7093878197289
 23
759.7910624101448
 33
0.0
 14
453.7093878197289
 24
741.9910624101447
 34
0.0
100
AcDbRotatedDimension
1001
ACAD_DSTYLE_DIMINSPECT
1070
   396
1000
100%
1070
   395
1000

1070
   394
1070
    33
1070
   393
1070
     0
  0
DIMENSION
  5
8482
102
{ACAD_XDICTIONARY
360
848F
102
}
102
{ACAD_REACTORS
330
8490
330
84BC
102
}
330
1F
100
AcDbEntity
  8
AM_5 寸法線
100
AcDbDimension
  2
*D26
 10
572.209387819729
 20
724.6031110213732
 30
0.0
 11
555.709387819729
 21
734.3531110213732
 31
0.0
 70
    32
 71
     5
 42
33.0
 73
     0
 74
     0
 75
     0
  3
SEISA$0
100
AcDbAlignedDimension
 13
539.209387819729
 23
747.2910624101448
 33
0.0
 14
572.209387819729
 24
747.2910624101448
 34
0.0
 50
0.0000000000001132
100
AcDbRotatedDimension
1001
ACAD_DSTYLE_DIMINSPECT
1070
   396
1000
100%
1070
   395
1000

1070
   394
1070
    33
1070
   393
1070
     0
  0
DIMENSION
  5
84AC
102
{ACAD_XDICTIONARY
360
84BB
102
}
102
{ACAD_REACTORS
330
84BC
102
}
330
1F
100
AcDbEntity
  8
AM_5 寸法線
100
AcDbDimension
  2
*D27
 10
593.709387819729
 20
724.6031110213732
 30
0.0
 11
631.7046524343194
 21
725.7556574119917
 31
0.0
 70
   160
 71
     5
 42
21.5
 73
     0
 74
     0
 75
     0
  3
SEISA$0
100
AcDbAlignedDimension
 13
572.209387819729
 23
747.2910624101448
 33
0.0
 14
593.709387819729
 24
724.6031110213732
 34
0.0
 50
0.0000000000001132
100
AcDbRotatedDimension
1001
ACAD_DSTYLE_DIMINSPECT
1070
   396
1000
100%
1070
   395
1000

1070
   394
1070
    33
1070
   393
1070
     0
1001
ACAD
1000
DSTYLE
1002
{
1070
   279
1070
     1
1002
}
  0
INSERT
  5
8838
330
1F
100
AcDbEntity
  8
AM_11 想像線
100
AcDbBlockReference
  2
ケース
 10
482.9959939690736
 20
763.7910624101448
 30
0.0
  0
ENDSEC
  0
SECTION
  2
OBJECTS
  0
DICTIONARY
  5
C
330
0
100
AcDbDictionary
281
     1
  3
ACAD_COLOR
350
C5
  3
ACAD_GROUP
350
D
  3
ACAD_LAYOUT
350
1A
  3
ACAD_MATERIAL
350
C4
  3
ACAD_MLEADERSTYLE
350
2D5
  3
ACAD_MLINESTYLE
350
17
  3
ACAD_PLOTSETTINGS
350
19
  3
ACAD_PLOTSTYLENAME
350
E
  3
ACAD_SCALELIST
350
2B3
  3
ACAD_TABLESTYLE
350
121
  3
ACAD_VISUALSTYLE
350
27F
  3
ACDB_RECOMPOSE_DATA
350
2F7
  3
AcDbVariableDictionary
350
34
  3
AcmDictionary
350
49
  3
AMG
350
2B
  3
AMGSNAPSETTINGS
350
1DE
  0
DICTIONARY
  5
BF
330
2
100
AcDbDictionary
280
     1
281
     1
  3
ACAD_LAYERSTATES
360
8336
  3
AMLAYER_GROUPCOLORS
360
C0
  0
DICTIONARY
  5
29D8
330
10
100
AcDbDictionary
280
     1
281
     1
  3
ADSK_XREC_LAYER_RECONCILED
360
29D9
  0
DICTIONARY
  5
29DA
330
81
100
AcDbDictionary
280
     1
281
     1
  3
ADSK_XREC_LAYER_RECONCILED
360
29DB
  0
DICTIONARY
  5
29E1
330
25C9
100
AcDbDictionary
280
     1
281
     1
  3
ADSK_XREC_LAYER_RECONCILED
360
29E2
  0
DICTIONARY
  5
29E3
330
25CA
100
AcDbDictionary
280
     1
281
     1
  3
ADSK_XREC_LAYER_RECONCILED
360
29E4
  0
DICTIONARY
  5
29E9
330
26B3
100
AcDbDictionary
280
     1
281
     1
  3
ADSK_XREC_LAYER_RECONCILED
360
29EA
  0
DICTIONARY
  5
82
330
1F
100
AcDbDictionary
280
     1
281
     1
  3
ACAD_SORTENTS
360
A41
  0
DICTIONARY
  5
378F
330
378E
100
AcDbDictionary
280
     1
281
     1
  3
ACAD_SORTENTS
360
65D4
  0
DICTIONARY
  5
5CE8
330
5BF2
100
AcDbDictionary
280
     1
281
     1
  3
ACAD_SORTENTS
360
7F82
  0
DICTIONARY
  5
5E1A
330
5D5F
100
AcDbDictionary
280
     1
281
     1
  3
ACAD_SORTENTS
360
7EC0
  0
DICTIONARY
  5
64FD
330
5E81
100
AcDbDictionary
280
     1
281
     1
  3
ACAD_SORTENTS
360
85FB
  0
DICTIONARY
  5
654A
330
5F2B
100
AcDbDictionary
280
     1
281
     1
  3
ACAD_SORTENTS
360
8796
  0
DICTIONARY
  5
61A9
330
611B
100
AcDbDictionary
280
     1
281
     1
  3
ACAD_SORTENTS
360
8014
  0
DICTIONARY
  5
6B2A
330
6B1B
100
AcDbDictionary
280
     1
281
     1
  3
ACAD_DIMASSOC
360
6B36
  0
DICTIONARY
  5
6B88
330
6B7B
100
AcDbDictionary
280
     1
281
     1
  3
ACAD_DIMASSOC
360
6B92
  0
DICTIONARY
  5
6BA2
330
6B93
100
AcDbDictionary
280
     1
281
     1
  3
ACAD_DIMASSOC
360
6BAE
  0
DICTIONARY
  5
6BBC
330
6BAF
100
AcDbDictionary
280
     1
281
     1
  3
ACAD_DIMASSOC
360
6BC6
  0
DICTIONARY
  5
6C1D
330
6C0E
100
AcDbDictionary
280
     1
281
     1
  3
ACAD_DIMASSOC
360
6C29
  0
DICTIONARY
  5
6C39
330
6C2A
100
AcDbDictionary
280
     1
281
     1
  3
ACAD_DIMASSOC
360
6C45
  0
DICTIONARY
  5
6D97
330
6D8A
100
AcDbDictionary
280
     1
281
     1
  3
ACAD_DIMASSOC
360
6DA1
  0
DICTIONARY
  5
6EFE
330
6EF1
100
AcDbDictionary
280
     1
281
     1
  3
ACAD_DIMASSOC
360
6F08
  0
DICTIONARY
  5
6F16
330
6F09
100
AcDbDictionary
280
     1
281
     1
  3
ACAD_DIMASSOC
360
6F20
  0
DICTIONARY
  5
6F2E
330
6F21
100
AcDbDictionary
280
     1
281
     1
  3
ACAD_DIMASSOC
360
6F38
  0
DICTIONARY
  5
71B3
330
71A6
100
AcDbDictionary
280
     1
281
     1
  3
ACAD_DIMASSOC
360
71BD
  0
DICTIONARY
  5
8392
330
8385
100
AcDbDictionary
280
     1
281
     1
  3
ACAD_DIMASSOC
360
8393
  0
DICTIONARY
  5
83C5
330
83B8
100
AcDbDictionary
280
     1
281
     1
  3
ACAD_DIMASSOC
360
83C6
  0
DICTIONARY
  5
848F
330
8482
100
AcDbDictionary
280
     1
281
     1
  3
ACAD_DIMASSOC
360
8490
  0
DICTIONARY
  5
84BB
330
84AC
100
AcDbDictionary
280
     1
281
     1
  3
ACAD_DIMASSOC
360
84BC
  0
DICTIONARY
  5
C5
102
{ACAD_REACTORS
330
C
102
}
330
C
100
AcDbDictionary
281
     1
  0
DICTIONARY
  5
D
102
{ACAD_REACTORS
330
C
102
}
330
C
100
AcDbDictionary
281
     1
  0
DICTIONARY
  5
1A
102
{ACAD_REACTORS
330
C
102
}
330
C
100
AcDbDictionary
281
     1
  3
Model
350
22
  3
レイアウト1
350
1E
  3
レイアウト2
350
26
  0
DICTIONARY
  5
C4
102
{ACAD_REACTORS
330
C
102
}
330
C
100
AcDbDictionary
281
     1
  3
ByBlock
350
27D
  3
ByLayer
350
27C
  3
Global
350
27E
  0
DICTIONARY
  5
2D5
102
{ACAD_REACTORS
330
C
102
}
330
C
100
AcDbDictionary
281
     1
  3
Standard
350
2D6
  0
DICTIONARY
  5
17
102
{ACAD_REACTORS
330
C
102
}
330
C
100
AcDbDictionary
281
     1
  3
Standard
350
18
  0
DICTIONARY
  5
19
102
{ACAD_REACTORS
330
C
102
}
330
C
100
AcDbDictionary
281
     1
  3
SEISA基本
350
1C7E
  0
ACDBDICTIONARYWDFLT
  5
E
102
{ACAD_REACTORS
330
C
102
}
330
C
100
AcDbDictionary
281
     1
  3
Normal
350
F
100
AcDbDictionaryWithDefault
340
F
  0
DICTIONARY
  5
2B3
102
{ACAD_REACTORS
330
C
102
}
330
C
100
AcDbDictionary
281
     1
  3
*A1
350
29F3
  3
*A2
350
8334
  3
*A3
350
8335
  3
A0
350
2B4
  3
A1
350
2B5
  3
A2
350
2B6
  3
A3
350
2B7
  3
A4
350
2B8
  3
A5
350
2B9
  3
A6
350
2BA
  3
A7
350
2BB
  3
A8
350
2BC
  3
A9
350
2BD
  3
B0
350
2BE
  3
B1
350
2BF
  3
B2
350
2C0
  3
B3
350
2C1
  3
B4
350
2C2
  3
B5
350
2C3
  3
B6
350
2C4
  3
B7
350
2C5
  3
B8
350
2C6
  3
B9
350
2C7
  3
C0
350
2C8
  3
C1
350
2C9
  3
C2
350
2CA
  3
C3
350
2CB
  3
C4
350
2CC
  3
C5
350
2CD
  3
C6
350
2CE
  3
C7
350
2CF
  3
C8
350
2D0
  3
C9
350
2D1
  3
D0
350
2D2
  3
D1
350
2D3
  3
D2
350
2D4
  0
DICTIONARY
  5
121
102
{ACAD_REACTORS
330
C
102
}
330
C
100
AcDbDictionary
281
     1
  3
Standard
350
122
  0
DICTIONARY
  5
27F
102
{ACAD_REACTORS
330
C
102
}
330
C
100
AcDbDictionary
281
     1
  3
2dWireframe
350
285
  3
3D Hidden
350
287
  3
3dWireframe
350
286
  3
Basic
350
284
  3
Brighten
350
28B
  3
ColorChange
350
28F
  3
Conceptual
350
288
  3
Dim
350
28A
  3
Facepattern
350
28E
  3
Flat
350
280
  3
FlatWithEdges
350
281
  3
Gouraud
350
282
  3
GouraudWithEdges
350
283
  3
Linepattern
350
28D
  3
Realistic
350
289
  3
Thicken
350
28C
  0
XRECORD
  5
2F7
102
{ACAD_REACTORS
330
C
102
}
330
C
100
AcDbXrecord
280
     1
 90
        1
330
122
  0
DICTIONARY
  5
34
102
{ACAD_REACTORS
330
C
102
}
330
C
100
AcDbDictionary
281
     1
  3
CANNOSCALE
350
2FA
  3
CMLEADERSTYLE
350
2F8
  3
CTABLESTYLE
350
140
  3
DIMASSOC
350
AC
  3
INDEXCTL
350
35
  3
LAYEREVAL
350
51EA
  3
LAYERNOTIFY
350
51EB
  3
LIGHTINGUNITS
350
2FB
  3
MSLTSCALE
350
2F9
  0
DICTIONARY
  5
49
102
{ACAD_REACTORS
330
C
102
}
330
C
100
AcDbDictionary
281
     1
  3
AcmBOM
350
161B
  3
AcmStdDictionary
350
4A
  3
AMDTSECTSYM_ARROWCOLOR
350
12B
  0
DICTIONARY
  5
2B
102
{ACAD_REACTORS
330
C
102
}
330
C
100
AcDbDictionary
281
     1
  0
DICTIONARY
  5
1DE
102
{ACAD_REACTORS
330
C
102
}
330
C
100
AcDbDictionary
281
     1
  0
DICTIONARY
  5
8336
102
{ACAD_REACTORS
330
BF
102
}
330
BF
100
AcDbDictionary
281
     1
  0
DICTIONARY
  5
C0
102
{ACAD_REACTORS
330
BF
102
}
330
BF
100
AcDbDictionary
280
     1
281
     1
  0
XRECORD
  5
29D9
102
{ACAD_REACTORS
330
29D8
102
}
330
29D8
100
AcDbXrecord
280
     1
290
     1
  0
XRECORD
  5
29DB
102
{ACAD_REACTORS
330
29DA
102
}
330
29DA
100
AcDbXrecord
280
     1
290
     1
  0
XRECORD
  5
29E2
102
{ACAD_REACTORS
330
29E1
102
}
330
29E1
100
AcDbXrecord
280
     1
290
     1
  0
XRECORD
  5
29E4
102
{ACAD_REACTORS
330
29E3
102
}
330
29E3
100
AcDbXrecord
280
     1
290
     1
  0
XRECORD
  5
29EA
102
{ACAD_REACTORS
330
29E9
102
}
330
29E9
100
AcDbXrecord
280
     1
290
     1
  0
SORTENTSTABLE
  5
A41
102
{ACAD_REACTORS
330
82
102
}
330
82
100
AcDbSortentsTable
330
1F
331
6B1B
  5
6B4D
331
413F
  5
413F
331
6C2A
  5
6CD1
331
6149
  5
6175
331
41A0
  5
41A2
331
4103
  5
4103
331
6EF1
  5
6F09
331
833F
  5
833F
331
40E7
  5
40E7
331
6F21
  5
6FA4
331
5F85
  5
6149
331
4019
  5
4019
331
40F0
  5
40F0
331
6B93
  5
6BAF
331
5ECD
  5
5F85
331
6BAF
  5
6C0E
331
6B7B
  5
6B93
331
6C0E
  5
6C2A
331
6175
  5
6ACF
331
5DA0
  5
5ECD
331
419F
  5
41A0
331
6F09
  5
6F21
331
71A6
  5
72CB
331
6D8A
  5
6DA2
  0
SORTENTSTABLE
  5
65D4
102
{ACAD_REACTORS
330
378F
102
}
330
378F
100
AcDbSortentsTable
330
378E
  0
SORTENTSTABLE
  5
7F82
102
{ACAD_REACTORS
330
5CE8
102
}
330
5CE8
100
AcDbSortentsTable
330
5BF2
331
5C04
  5
5C05
331
5C14
  5
5C15
331
5C2B
  5
5C2C
331
5C15
  5
5C16
331
5C05
  5
5C06
331
5C2C
  5
5C2D
331
5BF5
  5
5BF6
331
5C06
  5
5C07
331
5C16
  5
5C17
331
5C2D
  5
5C2E
331
5C17
  5
5C18
331
5BF6
  5
5BF7
331
5C07
  5
5C08
331
5C08
  5
5C09
331
5C2E
  5
5C2F
331
5BF8
  5
5BF9
331
5BF7
  5
5BF8
331
5C18
  5
5C19
331
5C2F
  5
5C30
331
5BF9
  5
5BFA
331
5C30
  5
5C31
331
5C09
  5
5C0A
331
5C20
  5
5C21
331
5C19
  5
5C1A
331
5BFA
  5
5BFB
331
5C31
  5
61F4
331
5C0A
  5
5C0B
331
5C21
  5
5C22
331
5C1A
  5
5C1B
331
5C0B
  5
5C0C
331
5BFB
  5
5BFC
331
5C22
  5
5C23
331
5C1B
  5
5C1C
331
5BFC
  5
5BFD
331
5C0C
  5
5C0D
331
5C1C
  5
5C1D
331
5C23
  5
5C24
331
5C0D
  5
5C0E
331
5BFD
  5
5BFE
331
5C24
  5
5C25
331
5C1D
  5
5C1E
331
5C0E
  5
5C0F
331
5BFE
  5
5BFF
331
61F4
  5
5BF5
331
5C1E
  5
5C1F
331
5C25
  5
5C26
331
5C0F
  5
5C10
331
5BFF
  5
5C00
331
5C26
  5
5C27
331
5C1F
  5
5C20
331
5C00
  5
5C01
331
5C10
  5
5C11
331
5C27
  5
5C28
331
5C11
  5
5C12
331
5C01
  5
5C02
331
5C28
  5
5C29
331
5C02
  5
5C03
331
5C12
  5
5C13
331
5C29
  5
5C2A
331
5C13
  5
5C14
331
5C03
  5
5C04
331
5C2A
  5
5C2B
  0
SORTENTSTABLE
  5
7EC0
102
{ACAD_REACTORS
330
5E1A
102
}
330
5E1A
100
AcDbSortentsTable
330
5D5F
  0
SORTENTSTABLE
  5
85FB
102
{ACAD_REACTORS
330
64FD
102
}
330
64FD
100
AcDbSortentsTable
330
5E81
331
5E98
  5
5E9A
331
5E9A
  5
5E9C
331
5E99
  5
5E9B
331
5E9C
  5
5E9E
331
5E9B
  5
5E9D
331
5E9E
  5
5EA0
331
5E9D
  5
5E9F
331
5EA0
  5
5EA2
331
5E9F
  5
5EA1
331
5EA2
  5
845E
331
5EA4
  5
845F
331
5E89
  5
5E8B
331
5E88
  5
5E8A
331
5E8B
  5
5E8D
331
5E8A
  5
5E8C
331
5E84
  5
5E86
331
5E8D
  5
5E8F
331
5E8C
  5
5E8E
331
5E85
  5
5E87
331
5E86
  5
5E88
331
845F
  5
5E85
331
5E8F
  5
5E91
331
845E
  5
5E84
331
5E8E
  5
5E90
331
5E87
  5
5E89
331
5E91
  5
5E94
331
5E90
  5
5E92
331
5EA1
  5
5EA4
331
5E94
  5
5E97
331
5E96
  5
5E98
331
5E97
  5
5E99
331
5E92
  5
5E96
  0
SORTENTSTABLE
  5
8796
102
{ACAD_REACTORS
330
654A
102
}
330
654A
100
AcDbSortentsTable
330
5F2B
331
5F39
  5
5F45
331
5F30
  5
5F3C
331
5F38
  5
5F44
331
868F
  5
6547
331
5F37
  5
5F43
331
5F3F
  5
6546
331
5F47
  5
868F
331
6547
  5
5F37
331
5F3E
  5
6545
331
5F46
  5
8435
331
6549
  5
5F39
331
8435
  5
5F30
331
6546
  5
5F34
331
5F3D
  5
6544
331
5F45
  5
8434
331
6548
  5
5F38
331
8434
  5
5F2E
331
6545
  5
5F33
331
5F2F
  5
5F3B
331
5F34
  5
5F42
331
5F3C
  5
6543
331
5F44
  5
8412
331
5F2E
  5
5F3A
331
6544
  5
5F32
331
5F33
  5
5F3F
331
5F3B
  5
5F47
331
8412
  5
5F2F
331
5F43
  5
6549
331
6543
  5
5F31
331
5F32
  5
5F3E
331
5F3A
  5
5F46
331
5F42
  5
6548
331
5F31
  5
5F3D
  0
SORTENTSTABLE
  5
8014
102
{ACAD_REACTORS
330
61A9
102
}
330
61A9
100
AcDbSortentsTable
330
611B
331
613A
  5
613B
331
6130
  5
6131
331
6147
  5
61A6
331
61A7
  5
61A8
331
613D
  5
613E
331
6133
  5
6134
331
6129
  5
612A
331
6121
  5
6122
331
6140
  5
6141
331
6136
  5
6137
331
612C
  5
612D
331
6143
  5
6144
331
611E
  5
611F
331
6124
  5
6125
331
6139
  5
613A
331
61A6
  5
61A7
331
612F
  5
6130
331
6127
  5
6128
331
6146
  5
6147
331
613C
  5
613D
331
6132
  5
6133
331
7639
  5
611E
331
613F
  5
6140
331
6120
  5
6121
331
6128
  5
6129
331
6135
  5
6136
331
612B
  5
612C
331
6123
  5
6124
331
6142
  5
6143
331
6138
  5
6139
331
61A8
  5
7639
331
612E
  5
612F
331
6145
  5
6146
331
6126
  5
6127
331
613B
  5
613C
331
6131
  5
6132
331
613E
  5
613F
331
6134
  5
6135
331
612A
  5
612B
331
6141
  5
6142
331
6122
  5
6123
331
6137
  5
6138
331
611F
  5
6120
331
612D
  5
612E
331
6125
  5
6126
331
6144
  5
6145
  0
DIMASSOC
  5
6B36
102
{ACAD_REACTORS
330
6B2A
102
}
330
6B2A
100
AcDbDimAssoc
330
6B1B
 90
        3
 70
     0
 71
     0
  1
AcDbOsnapPointRef
 72
     1
331
5DA0
331
5D7D
 73
     2
 91
        0
 40
1.0
 10
0.0
 20
0.0
 30
2.000000000000000E+50
 75
     0
  1
AcDbOsnapPointRef
 72
    13
331
5F85
331
5F3C
 73
     2
 91
        0
 40
0.0
 10
0.0
 20
0.0
 30
2.000000000000000E+50
 75
     0
  0
DIMASSOC
  5
6B92
102
{ACAD_REACTORS
330
6B88
102
}
330
6B88
100
AcDbDimAssoc
330
6B7B
 90
        1
 70
     0
 71
     0
  1
AcDbOsnapPointRef
 72
     2
331
5F85
331
5F37
 73
     2
 91
        0
 40
0.5
 10
0.0
 20
0.0
 30
0.0
 75
     0
  0
DIMASSOC
  5
6BAE
102
{ACAD_REACTORS
330
6BA2
102
}
330
6BA2
100
AcDbDimAssoc
330
6B93
 90
        2
 70
     0
 71
     0
  1
AcDbOsnapPointRef
 72
     1
331
5ECD
331
5E8A
 73
     2
 91
        0
 40
1.0
 10
0.0
 20
0.0
 30
2.000000000000000E+50
 75
     0
  0
DIMASSOC
  5
6BC6
102
{ACAD_REACTORS
330
6BBC
102
}
330
6BBC
100
AcDbDimAssoc
330
6BAF
 90
        3
 70
     0
 71
     0
  1
AcDbOsnapPointRef
 72
     1
331
5ECD
331
5E8A
 73
     2
 91
        0
 40
1.0
 10
0.0
 20
0.0
 30
2.000000000000000E+50
 75
     0
  1
AcDbOsnapPointRef
 72
     2
331
5ECD
331
5E8B
 73
     2
 91
        0
 40
0.5
 10
0.0
 20
0.0
 30
0.0
 75
     0
  0
DIMASSOC
  5
6C29
102
{ACAD_REACTORS
330
6C1D
102
}
330
6C1D
100
AcDbDimAssoc
330
6C0E
 90
        3
 70
     0
 71
     0
  1
AcDbOsnapPointRef
 72
     1
331
6175
331
5BF5
 73
     2
 91
        0
 40
1.0
 10
0.0
 20
0.0
 30
2.000000000000000E+50
 75
     0
  1
AcDbOsnapPointRef
 72
    13
331
5DA0
331
5D62
 73
     2
 91
        0
 40
0.0
 10
0.0
 20
0.0
 30
2.000000000000000E+50
 75
     0
  0
DIMASSOC
  5
6C45
102
{ACAD_REACTORS
330
6C39
102
}
330
6C39
100
AcDbDimAssoc
330
6C2A
 90
        3
 70
     0
 71
     0
  1
AcDbOsnapPointRef
 72
     1
331
6175
331
5BF5
 73
     2
 91
        0
 40
1.0
 10
0.0
 20
0.0
 30
2.000000000000000E+50
 75
     0
  1
AcDbOsnapPointRef
 72
    13
331
6175
331
5BF7
 73
     2
 91
        0
 40
0.0
 10
0.0
 20
0.0
 30
2.000000000000000E+50
 75
     0
  0
DIMASSOC
  5
6DA1
102
{ACAD_REACTORS
330
6D97
102
}
330
6D97
100
AcDbDimAssoc
330
6D8A
 90
        1
 70
     0
 71
     0
  1
AcDbOsnapPointRef
 72
    13
331
5DA0
331
5D63
 73
     2
 91
        0
 40
0.0
 10
0.0
 20
0.0
 30
2.000000000000000E+50
 75
     0
  0
DIMASSOC
  5
6F08
102
{ACAD_REACTORS
330
6EFE
102
}
330
6EFE
100
AcDbDimAssoc
330
6EF1
 90
        3
 70
     0
 71
     0
  1
AcDbOsnapPointRef
 72
    13
331
5ECD
331
5E9D
 73
     2
 91
        0
 40
0.0
 10
0.0
 20
0.0
 30
2.000000000000000E+50
 75
     0
  1
AcDbOsnapPointRef
 72
    13
331
5ECD
331
5E85
 73
     2
 91
        0
 40
0.0
 10
0.0
 20
0.0
 30
2.000000000000000E+50
 75
     0
  0
DIMASSOC
  5
6F20
102
{ACAD_REACTORS
330
6F16
102
}
330
6F16
100
AcDbDimAssoc
330
6F09
 90
        3
 70
     0
 71
     0
  1
AcDbOsnapPointRef
 72
     1
331
6175
331
5C00
 73
     2
 91
        0
 40
1.0
 10
0.0
 20
0.0
 30
2.000000000000000E+50
 75
     0
  1
AcDbOsnapPointRef
 72
     1
331
6175
331
5BF8
 73
     2
 91
        0
 40
1.0
 10
0.0
 20
0.0
 30
2.000000000000000E+50
 75
     0
  0
DIMASSOC
  5
6F38
102
{ACAD_REACTORS
330
6F2E
102
}
330
6F2E
100
AcDbDimAssoc
330
6F21
 90
        3
 70
     0
 71
     0
  1
AcDbOsnapPointRef
 72
     1
331
6175
331
5C12
 73
     2
 91
        0
 40
1.0
 10
0.0
 20
0.0
 30
2.000000000000000E+50
 75
     0
  1
AcDbOsnapPointRef
 72
     1
331
6175
331
5BF9
 73
     2
 91
        0
 40
1.0
 10
0.0
 20
0.0
 30
2.000000000000000E+50
 75
     0
  0
DIMASSOC
  5
71BD
102
{ACAD_REACTORS
330
71B3
102
}
330
71B3
100
AcDbDimAssoc
330
71A6
 90
        3
 70
     0
 71
     0
  1
AcDbOsnapPointRef
 72
    13
331
5F85
331
5F2E
 73
     2
 91
        0
 40
3.141592653589792
 10
0.0
 20
0.0
 30
2.000000000000000E+50
 75
     0
  1
AcDbOsnapPointRef
 72
     1
331
5ECD
331
5E86
 73
     2
 91
        0
 40
6.283185307179585
 10
0.0
 20
0.0
 30
2.000000000000000E+50
 75
     0
  0
DIMASSOC
  5
8393
102
{ACAD_REACTORS
330
8392
102
}
330
8392
100
AcDbDimAssoc
330
8385
 90
        3
 70
     0
 71
     0
  1
AcDbOsnapPointRef
 72
    13
331
5F85
331
5F3A
 73
     0
 91
        0
 40
0.0
 10
0.0
 20
0.0
 30
2.000000000000000E+50
 75
     0
  1
AcDbOsnapPointRef
 72
    13
331
5F85
331
5F30
 73
     0
 91
        0
 40
0.0
 10
0.0
 20
0.0
 30
2.000000000000000E+50
 75
     0
  0
DIMASSOC
  5
83C6
102
{ACAD_REACTORS
330
83C5
102
}
330
83C5
100
AcDbDimAssoc
330
83B8
 90
        2
 70
     0
 71
     0
  1
AcDbOsnapPointRef
 72
     1
331
5F85
331
5F37
 73
     0
 91
        0
 40
0.0
 10
0.0
 20
0.0
 30
2.000000000000000E+50
 75
     0
  0
DIMASSOC
  5
8490
102
{ACAD_REACTORS
330
848F
102
}
330
848F
100
AcDbDimAssoc
330
8482
 90
        3
 70
     0
 71
     0
  1
AcDbOsnapPointRef
 72
     4
331
6B1B
331
6B4B
 73
     0
 91
        0
 40
0.0
 10
0.0
 20
0.0
 30
0.0
 75
     0
  1
AcDbOsnapPointRef
 72
     8
331
5F85
331
5F43
 73
     0
 91
        0
 40
0.9363270973790449
 10
0.0
 20
0.0
 30
0.0
 75
     1
  1
AcDbOsnapPointRef
 72
     4
331
6B1B
331
6B4B
 73
     0
 91
        0
 40
0.0
 10
0.0
 20
0.0
 30
0.0
 75
     0
  0
DIMASSOC
  5
84BC
102
{ACAD_REACTORS
330
84BB
102
}
330
84BB
100
AcDbDimAssoc
330
84AC
 90
        1
 70
     0
 71
     0
  1
AcDbOsnapPointRef
 72
     4
331
8482
331
84AA
 73
     0
 91
        0
 40
0.0
 10
0.0
 20
0.0
 30
0.0
 75
     0
  0
LAYOUT
  5
22
102
{ACAD_REACTORS
330
1A
102
}
330
1A
100
AcDbPlotSettings
  1

  2
KONICA MINOLTA 501 PCL
  4
A4
  6

 40
5.027082920074462
 41
5.027085781097412
 42
5.027069091796875
 43
5.027069091796875
 44
209.9733276367186
 45
296.9259948730469
 46
0.0
 47
0.4939853737541
 48
0.0
 49
0.0
140
0.0
141
0.0
142
1.0
143
1.940873763121935
 70
 11956
 72
     1
 73
     1
 74
     1
  7
SEISA.ctb
 75
     0
147
0.5152318605159975
 76
     0
 77
     2
 78
   300
148
-365.4492226834063
149
-418.7846868977358
100
AcDbLayout
  1
Model
 70
     1
 71
     0
 10
0.0
 20
0.0
 11
12.0
 21
9.0
 12
0.0
 22
0.0
 32
0.0
 14
0.0
 24
0.0
 34
0.0
 15
0.0
 25
0.0
 35
0.0
146
0.0
 13
0.0
 23
0.0
 33
0.0
 16
1.0
 26
0.0
 36
0.0
 17
0.0
 27
1.0
 37
0.0
 76
     0
330
1F
331
27A
1001
ACAD_PSEXT
1000
KONICA MINOLTA 501 PCL
1000
KONICA MINOLTA 501/421/361PCL
1000
IP_192.168.20.231_(1)
1000

1070
     0
  0
LAYOUT
  5
1E
102
{ACAD_REACTORS
330
1A
102
}
330
1A
100
AcDbPlotSettings
  1

  2
none_device
  4
Letter_(8.50_x_11.00_Inches)
  6

 40
6.349999904632567
 41
6.349999904632567
 42
6.350006103515625
 43
6.350006103515625
 44
215.8999938964844
 45
279.3999938964844
 46
0.0
 47
0.0
 48
0.0
 49
0.0
140
0.0
141
0.0
142
1.0
143
1.0
 70
 15024
 72
     1
 73
     1
 74
     5
  7
SEISA.ctb
 75
    16
147
1.0
 76
     0
 77
     2
 78
   300
148
0.0
149
0.0
100
AcDbLayout
  1
レイアウト1
 70
     1
 71
     1
 10
0.0
 20
0.0
 11
420.0
 21
297.0
 12
0.0
 22
0.0
 32
0.0
 14
1.000000000000000E+20
 24
1.000000000000000E+20
 34
1.000000000000000E+20
 15
-1.000000000000000E+20
 25
-1.000000000000000E+20
 35
-1.000000000000000E+20
146
0.0
 13
0.0
 23
0.0
 33
0.0
 16
1.0
 26
0.0
 36
0.0
 17
0.0
 27
1.0
 37
0.0
 76
     0
330
1B
  0
LAYOUT
  5
26
102
{ACAD_REACTORS
330
1A
102
}
330
1A
100
AcDbPlotSettings
  1

  2
none_device
  4
Letter_(8.50_x_11.00_Inches)
  6

 40
6.349999904632567
 41
6.349999904632567
 42
6.350006103515625
 43
6.350006103515625
 44
215.8999938964844
 45
279.3999938964844
 46
0.0
 47
0.0
 48
0.0
 49
0.0
140
0.0
141
0.0
142
1.0
143
1.0
 70
 15024
 72
     1
 73
     1
 74
     5
  7
SEISA.ctb
 75
    16
147
1.0
 76
     0
 77
     2
 78
   300
148
0.0
149
0.0
100
AcDbLayout
  1
レイアウト2
 70
     1
 71
     2
 10
0.0
 20
0.0
 11
12.0
 21
9.0
 12
0.0
 22
0.0
 32
0.0
 14
0.0
 24
0.0
 34
0.0
 15
0.0
 25
0.0
 35
0.0
146
0.0
 13
0.0
 23
0.0
 33
0.0
 16
1.0
 26
0.0
 36
0.0
 17
0.0
 27
1.0
 37
0.0
 76
     0
330
23
  0
MATERIAL
  5
27D
102
{ACAD_REACTORS
330
C4
102
}
330
C4
100
AcDbMaterial
  1
ByBlock
 73
     1
 78
     1
172
     1
176
     1
270
     1
274
     1
 94
       63
  0
MATERIAL
  5
27C
102
{ACAD_REACTORS
330
C4
102
}
330
C4
100
AcDbMaterial
  1
ByLayer
 73
     1
 78
     1
172
     1
176
     1
270
     1
274
     1
 94
       63
  0
MATERIAL
  5
27E
102
{ACAD_REACTORS
330
C4
102
}
330
C4
100
AcDbMaterial
  1
Global
 73
     1
 78
     1
172
     1
176
     1
270
     1
274
     1
 94
       63
  0
MLEADERSTYLE
  5
2D6
102
{ACAD_REACTORS
330
2D5
102
}
330
2D5
100
AcDbMLeaderStyle
170
     2
171
     1
172
     0
 90
        2
 40
0.0
 41
0.0
173
     1
 91
-1056964608
340
14
 92
       -2
290
     1
 42
2.0
291
     1
 43
0.36
  3
Standard
 44
4.0
300

342
11
174
     1
178
     6
175
     1
176
     0
 93
-1056964608
 45
4.0
292
     0
297
     0
 46
4.0
 94
-1056964608
 47
1.0
 49
1.0
140
1.0
293
     1
141
0.0
294
     1
177
     0
142
1.0
295
     0
296
     0
143
0.125
1001
ACAD_MLEADERVER
1070
     2
  0
MLINESTYLE
  5
18
102
{ACAD_REACTORS
330
17
102
}
330
17
100
AcDbMlineStyle
  2
STANDARD
 70
     0
  3

 62
   256
 51
90.0
 52
90.0
 71
     2
 49
0.5
 62
   256
  6
BYLAYER
 49
-0.5
 62
   256
  6
BYLAYER
  0
PLOTSETTINGS
  5
1C7E
102
{ACAD_REACTORS
330
19
102
}
330
19
100
AcDbPlotSettings
  1
SEISA基本
  2
none_device
  4
Letter_(8.50_x_11.00_Inches)
  6

 40
6.349999904632567
 41
6.349999904632567
 42
6.350006103515625
 43
6.350006103515625
 44
215.8999938964844
 45
279.3999938964844
 46
7.302498226506357
 47
0.0
 48
0.0
 49
0.0
140
0.0
141
0.0
142
1.0
143
1.574803221122935
 70
 11956
 72
     1
 73
     1
 74
     2
  7
SEISA.ctb
 75
     0
147
0.6349999711627054
 76
     0
 77
     2
 78
   300
148
0.0
149
0.0
1001
ACAD_PSEXT
1000
なし
1000
なし
1000
適切ではありません
1000
新しいプロッタ環境設定名を選択しない限り、レイアウトは印刷されません。
1070
     0
  0
ACDBPLACEHOLDER
  5
F
102
{ACAD_REACTORS
330
E
102
}
330
E
  0
SCALE
  5
29F3
102
{ACAD_REACTORS
330
2B3
102
}
330
2B3
100
AcDbScale
 70
     0
300
1:3
140
1.0
141
3.0
290
     0
  0
SCALE
  5
8334
102
{ACAD_REACTORS
330
2B3
102
}
330
2B3
100
AcDbScale
 70
     0
300
1:2.5
140
1.0
141
2.5
290
     0
  0
SCALE
  5
8335
102
{ACAD_REACTORS
330
2B3
102
}
330
2B3
100
AcDbScale
 70
     0
300
1:1.5
140
1.0
141
1.5
290
     0
  0
SCALE
  5
2B4
102
{ACAD_REACTORS
330
2B3
102
}
330
2B3
100
AcDbScale
 70
     0
300
1:1
140
1.0
141
1.0
290
     1
  0
SCALE
  5
2B5
102
{ACAD_REACTORS
330
2B3
102
}
330
2B3
100
AcDbScale
 70
     0
300
1:2
140
1.0
141
2.0
290
     0
  0
SCALE
  5
2B6
102
{ACAD_REACTORS
330
2B3
102
}
330
2B3
100
AcDbScale
 70
     0
300
1:4
140
1.0
141
4.0
290
     0
  0
SCALE
  5
2B7
102
{ACAD_REACTORS
330
2B3
102
}
330
2B3
100
AcDbScale
 70
     0
300
1:5
140
1.0
141
5.0
290
     0
  0
SCALE
  5
2B8
102
{ACAD_REACTORS
330
2B3
102
}
330
2B3
100
AcDbScale
 70
     0
300
1:8
140
1.0
141
8.0
290
     0
  0
SCALE
  5
2B9
102
{ACAD_REACTORS
330
2B3
102
}
330
2B3
100
AcDbScale
 70
     0
300
1:10
140
1.0
141
10.0
290
     0
  0
SCALE
  5
2BA
102
{ACAD_REACTORS
330
2B3
102
}
330
2B3
100
AcDbScale
 70
     0
300
1:16
140
1.0
141
16.0
290
     0
  0
SCALE
  5
2BB
102
{ACAD_REACTORS
330
2B3
102
}
330
2B3
100
AcDbScale
 70
     0
300
1:20
140
1.0
141
20.0
290
     0
  0
SCALE
  5
2BC
102
{ACAD_REACTORS
330
2B3
102
}
330
2B3
100
AcDbScale
 70
     0
300
1:30
140
1.0
141
30.0
290
     0
  0
SCALE
  5
2BD
102
{ACAD_REACTORS
330
2B3
102
}
330
2B3
100
AcDbScale
 70
     0
300
1:40
140
1.0
141
40.0
290
     0
  0
SCALE
  5
2BE
102
{ACAD_REACTORS
330
2B3
102
}
330
2B3
100
AcDbScale
 70
     0
300
1:50
140
1.0
141
50.0
290
     0
  0
SCALE
  5
2BF
102
{ACAD_REACTORS
330
2B3
102
}
330
2B3
100
AcDbScale
 70
     0
300
1:100
140
1.0
141
100.0
290
     0
  0
SCALE
  5
2C0
102
{ACAD_REACTORS
330
2B3
102
}
330
2B3
100
AcDbScale
 70
     0
300
2:1
140
2.0
141
1.0
290
     0
  0
SCALE
  5
2C1
102
{ACAD_REACTORS
330
2B3
102
}
330
2B3
100
AcDbScale
 70
     0
300
4:1
140
4.0
141
1.0
290
     0
  0
SCALE
  5
2C2
102
{ACAD_REACTORS
330
2B3
102
}
330
2B3
100
AcDbScale
 70
     0
300
8:1
140
8.0
141
1.0
290
     0
  0
SCALE
  5
2C3
102
{ACAD_REACTORS
330
2B3
102
}
330
2B3
100
AcDbScale
 70
     0
300
10:1
140
10.0
141
1.0
290
     0
  0
SCALE
  5
2C4
102
{ACAD_REACTORS
330
2B3
102
}
330
2B3
100
AcDbScale
 70
     0
300
100:1
140
100.0
141
1.0
290
     0
  0
SCALE
  5
2C5
102
{ACAD_REACTORS
330
2B3
102
}
330
2B3
100
AcDbScale
 70
     0
300
1/128" = 1'-0"
140
0.0078125
141
12.0
290
     0
  0
SCALE
  5
2C6
102
{ACAD_REACTORS
330
2B3
102
}
330
2B3
100
AcDbScale
 70
     0
300
1/64" = 1'-0"
140
0.015625
141
12.0
290
     0
  0
SCALE
  5
2C7
102
{ACAD_REACTORS
330
2B3
102
}
330
2B3
100
AcDbScale
 70
     0
300
1/32" = 1'-0"
140
0.03125
141
12.0
290
     0
  0
SCALE
  5
2C8
102
{ACAD_REACTORS
330
2B3
102
}
330
2B3
100
AcDbScale
 70
     0
300
1/16" = 1'-0"
140
0.0625
141
12.0
290
     0
  0
SCALE
  5
2C9
102
{ACAD_REACTORS
330
2B3
102
}
330
2B3
100
AcDbScale
 70
     0
300
3/32" = 1'-0"
140
0.09375
141
12.0
290
     0
  0
SCALE
  5
2CA
102
{ACAD_REACTORS
330
2B3
102
}
330
2B3
100
AcDbScale
 70
     0
300
1/8" = 1'-0"
140
0.125
141
12.0
290
     0
  0
SCALE
  5
2CB
102
{ACAD_REACTORS
330
2B3
102
}
330
2B3
100
AcDbScale
 70
     0
300
3/16" = 1'-0"
140
0.1875
141
12.0
290
     0
  0
SCALE
  5
2CC
102
{ACAD_REACTORS
330
2B3
102
}
330
2B3
100
AcDbScale
 70
     0
300
1/4" = 1'-0"
140
0.25
141
12.0
290
     0
  0
SCALE
  5
2CD
102
{ACAD_REACTORS
330
2B3
102
}
330
2B3
100
AcDbScale
 70
     0
300
3/8" = 1'-0"
140
0.375
141
12.0
290
     0
  0
SCALE
  5
2CE
102
{ACAD_REACTORS
330
2B3
102
}
330
2B3
100
AcDbScale
 70
     0
300
1/2" = 1'-0"
140
0.5
141
12.0
290
     0
  0
SCALE
  5
2CF
102
{ACAD_REACTORS
330
2B3
102
}
330
2B3
100
AcDbScale
 70
     0
300
3/4" = 1'-0"
140
0.75
141
12.0
290
     0
  0
SCALE
  5
2D0
102
{ACAD_REACTORS
330
2B3
102
}
330
2B3
100
AcDbScale
 70
     0
300
1" = 1'-0"
140
1.0
141
12.0
290
     0
  0
SCALE
  5
2D1
102
{ACAD_REACTORS
330
2B3
102
}
330
2B3
100
AcDbScale
 70
     0
300
1-1/2" = 1'-0"
140
1.5
141
12.0
290
     0
  0
SCALE
  5
2D2
102
{ACAD_REACTORS
330
2B3
102
}
330
2B3
100
AcDbScale
 70
     0
300
3" = 1'-0"
140
3.0
141
12.0
290
     0
  0
SCALE
  5
2D3
102
{ACAD_REACTORS
330
2B3
102
}
330
2B3
100
AcDbScale
 70
     0
300
6" = 1'-0"
140
6.0
141
12.0
290
     0
  0
SCALE
  5
2D4
102
{ACAD_REACTORS
330
2B3
102
}
330
2B3
100
AcDbScale
 70
     0
300
1'-0" = 1'-0"
140
12.0
141
12.0
290
     0
  0
TABLESTYLE
  5
122
102
{ACAD_XDICTIONARY
360
2F5
102
}
102
{ACAD_REACTORS
330
121
102
}
330
121
100
AcDbTableStyle
  3
Standard
 70
     0
 71
     0
 40
1.5
 41
1.5
280
     0
281
     0
  7
STANDARD
140
4.5
170
     2
 62
     0
 63
     7
283
     0
 90
      512
 91
        0
  1

274
    -2
284
     1
 64
     0
275
    -2
285
     1
 65
     0
276
    -2
286
     1
 66
     0
277
    -2
287
     1
 67
     0
278
    -2
288
     1
 68
     0
279
    -2
289
     1
 69
     0
  7
STANDARD
140
6.0
170
     5
 62
     0
 63
     7
283
     0
 90
      512
 91
        0
  1

274
    -2
284
     1
 64
     0
275
    -2
285
     1
 65
     0
276
    -2
286
     1
 66
     0
277
    -2
287
     1
 67
     0
278
    -2
288
     1
 68
     0
279
    -2
289
     1
 69
     0
  7
STANDARD
140
4.5
170
     5
 62
     0
 63
     7
283
     0
 90
      512
 91
        0
  1

274
    -2
284
     1
 64
     0
275
    -2
285
     1
 65
     0
276
    -2
286
     1
 66
     0
277
    -2
287
     1
 67
     0
278
    -2
288
     1
 68
     0
279
    -2
289
     1
 69
     0
  0
VISUALSTYLE
  5
285
102
{ACAD_REACTORS
330
27F
102
}
330
27F
100
AcDbVisualStyle
  2
2dWireframe
 70
     4
 71
     0
 72
     2
 73
     0
 90
        0
 40
-0.6
 41
-30.0
 62
     5
 63
     7
421
 16777215
 74
     1
 91
        4
 64
     7
 65
   257
 75
     1
175
     1
 42
1.0
 92
        0
 66
   257
 43
1.0
 76
     1
 77
     6
 78
     2
 67
     7
 79
     5
170
     0
171
     0
290
     0
174
     0
 93
        1
 44
0.0
173
     0
291
     0
 45
0.0
  0
VISUALSTYLE
  5
287
102
{ACAD_REACTORS
330
27F
102
}
330
27F
100
AcDbVisualStyle
  2
3D Hidden
 70
     6
 71
     1
 72
     2
 73
     2
 90
        0
 40
-0.6
 41
-30.0
 62
     5
 63
     7
421
 16777215
 74
     2
 91
        2
 64
     7
 65
   257
 75
     2
175
     1
 42
40.0
 92
        0
 66
   257
 43
1.0
 76
     1
 77
     6
 78
     2
 67
     7
 79
     3
170
     0
171
     0
290
     0
174
     0
 93
        1
 44
0.0
173
     0
291
     0
 45
0.0
  0
VISUALSTYLE
  5
286
102
{ACAD_REACTORS
330
27F
102
}
330
27F
100
AcDbVisualStyle
  2
3dWireframe
 70
     5
 71
     0
 72
     2
 73
     0
 90
        0
 40
-0.6
 41
-30.0
 62
     5
 63
     7
421
 16777215
 74
     1
 91
        4
 64
     7
 65
   257
 75
     1
175
     1
 42
1.0
 92
        0
 66
   257
 43
1.0
 76
     1
 77
     6
 78
     2
 67
     7
 79
     5
170
     0
171
     0
290
     0
174
     0
 93
        1
 44
0.0
173
     0
291
     0
 45
0.0
  0
VISUALSTYLE
  5
284
102
{ACAD_REACTORS
330
27F
102
}
330
27F
100
AcDbVisualStyle
  2
Basic
 70
     7
 71
     1
 72
     0
 73
     1
 90
        0
 40
-0.6
 41
-30.0
 62
     5
 63
     7
421
 16777215
 74
     0
 91
        4
 64
     7
 65
   257
 75
     1
175
     1
 42
1.0
 92
        8
 66
     7
 43
1.0
 76
     1
 77
     6
 78
     2
 67
     7
 79
     5
170
     0
171
     0
290
     0
174
     0
 93
        1
 44
0.0
173
     0
291
     1
 45
0.0
  0
VISUALSTYLE
  5
28B
102
{ACAD_REACTORS
330
27F
102
}
330
27F
100
AcDbVisualStyle
  2
Brighten
 70
    12
 71
     2
 72
     2
 73
     0
 90
        0
 40
-0.6
 41
-30.0
 62
     5
 63
     7
421
 16777215
 74
     1
 91
        4
 64
     7
 65
   257
 75
     1
175
     1
 42
1.0
 92
        8
 66
     7
 43
1.0
 76
     1
 77
     6
 78
     2
 67
     7
 79
     5
170
     0
171
     0
290
     0
174
     0
 93
        1
 44
50.0
173
     0
291
     1
 45
0.0
  0
VISUALSTYLE
  5
28F
102
{ACAD_REACTORS
330
27F
102
}
330
27F
100
AcDbVisualStyle
  2
ColorChange
 70
    16
 71
     2
 72
     2
 73
     3
 90
        0
 40
-0.6
 41
-30.0
 62
     5
 63
     8
421
  8421504
 74
     1
 91
        4
 64
     7
 65
   257
 75
     1
175
     1
 42
1.0
 92
        8
 66
     8
424
  8421504
 43
1.0
 76
     1
 77
     6
 78
     2
 67
     7
 79
     5
170
     0
171
     0
290
     0
174
     0
 93
        1
 44
0.0
173
     0
291
     1
 45
0.0
  0
VISUALSTYLE
  5
288
102
{ACAD_REACTORS
330
27F
102
}
330
27F
100
AcDbVisualStyle
  2
Conceptual
 70
     9
 71
     3
 72
     2
 73
     0
 90
        0
 40
-0.6
 41
-30.0
 62
     5
 63
     7
421
 16777215
 74
     2
 91
        2
 64
     7
 65
   257
 75
     1
175
     1
 42
40.0
 92
        8
 66
     7
 43
1.0
 76
     1
 77
     6
 78
     2
 67
     7
 79
     3
170
     0
171
     0
290
     0
174
     0
 93
        1
 44
0.0
173
     0
291
     0
 45
0.0
  0
VISUALSTYLE
  5
28A
102
{ACAD_REACTORS
330
27F
102
}
330
27F
100
AcDbVisualStyle
  2
Dim
 70
    11
 71
     2
 72
     2
 73
     0
 90
        0
 40
-0.6
 41
-30.0
 62
     5
 63
     7
421
 16777215
 74
     1
 91
        4
 64
     7
 65
   257
 75
     1
175
     1
 42
1.0
 92
        8
 66
     7
 43
1.0
 76
     1
 77
     6
 78
     2
 67
     7
 79
     5
170
     0
171
     0
290
     0
174
     0
 93
        1
 44
-50.0
173
     0
291
     1
 45
0.0
  0
VISUALSTYLE
  5
28E
102
{ACAD_REACTORS
330
27F
102
}
330
27F
100
AcDbVisualStyle
  2
Facepattern
 70
    15
 71
     2
 72
     2
 73
     0
 90
        0
 40
-0.6
 41
-30.0
 62
     5
 63
     7
421
 16777215
 74
     1
 91
        4
 64
     7
 65
   257
 75
     1
175
     1
 42
1.0
 92
        8
 66
     7
 43
1.0
 76
     1
 77
     6
 78
     2
 67
     7
 79
     5
170
     0
171
     0
290
     0
174
     0
 93
        1
 44
0.0
173
     0
291
     1
 45
0.0
  0
VISUALSTYLE
  5
280
102
{ACAD_REACTORS
330
27F
102
}
330
27F
100
AcDbVisualStyle
  2
Flat
 70
     0
 71
     2
 72
     1
 73
     1
 90
        2
 40
-0.6
 41
30.0
 62
     5
 63
     7
421
 16777215
 74
     0
 91
        4
 64
     7
 65
   257
 75
     1
175
     1
 42
1.0
 92
        8
 66
     7
 43
1.0
 76
     1
 77
     6
 78
     2
 67
     7
 79
     5
170
     0
171
     0
290
     0
174
     0
 93
       13
 44
0.0
173
     0
291
     1
 45
0.0
  0
VISUALSTYLE
  5
281
102
{ACAD_REACTORS
330
27F
102
}
330
27F
100
AcDbVisualStyle
  2
FlatWithEdges
 70
     1
 71
     2
 72
     1
 73
     1
 90
        2
 40
-0.6
 41
30.0
 62
     5
 63
     7
421
 16777215
 74
     1
 91
        4
 64
     7
 65
   257
 75
     1
175
     1
 42
1.0
 92
        0
 66
   257
 43
1.0
 76
     1
 77
     6
 78
     2
 67
     7
 79
     5
170
     0
171
     0
290
     0
174
     0
 93
       13
 44
0.0
173
     0
291
     1
 45
0.0
  0
VISUALSTYLE
  5
282
102
{ACAD_REACTORS
330
27F
102
}
330
27F
100
AcDbVisualStyle
  2
Gouraud
 70
     2
 71
     2
 72
     2
 73
     1
 90
        2
 40
-0.6
 41
30.0
 62
     5
 63
     7
421
 16777215
 74
     0
 91
        4
 64
     7
 65
   257
 75
     1
175
     1
 42
1.0
 92
        0
 66
     7
 43
1.0
 76
     1
 77
     6
 78
     2
 67
     7
 79
     5
170
     0
171
     0
290
     0
174
     0
 93
       13
 44
0.0
173
     0
291
     1
 45
0.0
  0
VISUALSTYLE
  5
283
102
{ACAD_REACTORS
330
27F
102
}
330
27F
100
AcDbVisualStyle
  2
GouraudWithEdges
 70
     3
 71
     2
 72
     2
 73
     1
 90
        2
 40
-0.6
 41
30.0
 62
     5
 63
     7
421
 16777215
 74
     1
 91
        4
 64
     7
 65
   257
 75
     1
175
     1
 42
1.0
 92
        0
 66
   257
 43
1.0
 76
     1
 77
     6
 78
     2
 67
     7
 79
     5
170
     0
171
     0
290
     0
174
     0
 93
       13
 44
0.0
173
     0
291
     1
 45
0.0
  0
VISUALSTYLE
  5
28D
102
{ACAD_REACTORS
330
27F
102
}
330
27F
100
AcDbVisualStyle
  2
Linepattern
 70
    14
 71
     2
 72
     2
 73
     0
 90
        0
 40
-0.6
 41
-30.0
 62
     5
 63
     7
421
 16777215
 74
     1
 91
        4
 64
     7
 65
   257
 75
     7
175
     7
 42
1.0
 92
        8
 66
     7
 43
1.0
 76
     1
 77
     6
 78
     2
 67
     7
 79
     5
170
     0
171
     0
290
     0
174
     0
 93
        1
 44
0.0
173
     0
291
     1
 45
0.0
  0
VISUALSTYLE
  5
289
102
{ACAD_REACTORS
330
27F
102
}
330
27F
100
AcDbVisualStyle
  2
Realistic
 70
     8
 71
     2
 72
     2
 73
     0
 90
        0
 40
-0.6
 41
-30.0
 62
     5
 63
     7
421
 16777215
 74
     1
 91
        0
 64
     7
 65
   257
 75
     1
175
     1
 42
1.0
 92
        8
 66
     8
424
  7895160
 43
1.0
 76
     1
 77
     6
 78
     2
 67
     7
 79
     5
170
     0
171
     0
290
     0
174
     0
 93
       13
 44
0.0
173
     0
291
     0
 45
0.0
  0
VISUALSTYLE
  5
28C
102
{ACAD_REACTORS
330
27F
102
}
330
27F
100
AcDbVisualStyle
  2
Thicken
 70
    13
 71
     2
 72
     2
 73
     0
 90
        0
 40
-0.6
 41
-30.0
 62
     5
 63
     7
421
 16777215
 74
     1
 91
        4
 64
     7
 65
   257
 75
     1
175
     1
 42
1.0
 92
       12
 66
     7
 43
1.0
 76
     1
 77
     6
 78
     2
 67
     7
 79
     5
170
     0
171
     0
290
     0
174
     0
 93
        1
 44
0.0
173
     0
291
     1
 45
0.0
  0
DICTIONARYVAR
  5
2FA
102
{ACAD_REACTORS
330
34
102
}
330
34
100
DictionaryVariables
280
     0
  1
1:3
  0
DICTIONARYVAR
  5
2F8
102
{ACAD_REACTORS
330
34
102
}
330
34
100
DictionaryVariables
280
     0
  1
STANDARD
  0
DICTIONARYVAR
  5
140
102
{ACAD_REACTORS
330
34
102
}
330
34
100
DictionaryVariables
280
     0
  1
STANDARD
  0
DICTIONARYVAR
  5
AC
102
{ACAD_REACTORS
330
34
102
}
330
34
100
DictionaryVariables
280
     0
  1
1
  0
DICTIONARYVAR
  5
35
102
{ACAD_REACTORS
330
34
102
}
330
34
100
DictionaryVariables
280
     0
  1
1
  0
DICTIONARYVAR
  5
51EA
102
{ACAD_REACTORS
330
34
102
}
330
34
100
DictionaryVariables
280
     0
  1
1
  0
DICTIONARYVAR
  5
51EB
102
{ACAD_REACTORS
330
34
102
}
330
34
100
DictionaryVariables
280
     0
  1
15
  0
DICTIONARYVAR
  5
2FB
102
{ACAD_REACTORS
330
34
102
}
330
34
100
DictionaryVariables
280
     0
  1
0
  0
DICTIONARYVAR
  5
2F9
102
{ACAD_REACTORS
330
34
102
}
330
34
100
DictionaryVariables
280
     0
  1
0
  0
DICTIONARY
  5
161B
102
{ACAD_REACTORS
330
49
102
}
330
49
100
AcDbDictionary
281
     1
  0
DICTIONARY
  5
4A
102
{ACAD_REACTORS
330
49
102
}
330
49
100
AcDbDictionary
281
     1
  0
XRECORD
  5
12B
102
{ACAD_REACTORS
330
49
102
}
330
49
100
AcDbXrecord
280
     1
 90
-1023410169
  0
DICTIONARY
  5
2F5
330
122
100
AcDbDictionary
280
     1
281
     1
  3
ACAD_ROUNDTRIP_2008_TABLESTYLE_CELLSTYLEMAP
360
88E6
  0
CELLSTYLEMAP
  5
88E6
102
{ACAD_REACTORS
330
2F5
102
}
330
2F5
100
AcDbCellStyleMap
 90
        3
300
CELLSTYLE
  1
TABLEFORMAT_BEGIN
 90
        5
170
     1
 91
        0
 92
    32768
 62
   257
 93
        1
300
CONTENTFORMAT
  1
CONTENTFORMAT_BEGIN
 90
        0
 91
        0
 92
      512
 93
        0
300

 40
0.0
140
1.0
 94
        5
 62
     0
340
11
144
6.0
309
CONTENTFORMAT_END
171
     1
301
MARGIN
  1
CELLMARGIN_BEGIN
 40
1.5
 40
1.5
 40
1.5
 40
1.5
 40
0.18
 40
0.18
309
CELLMARGIN_END
 94
        6
 95
        1
302
GRIDFORMAT
  1
GRIDFORMAT_BEGIN
 90
        0
 91
        1
 62
     0
 92
       -2
340
0
 93
        0
 40
0.045
309
GRIDFORMAT_END
 95
        2
302
GRIDFORMAT
  1
GRIDFORMAT_BEGIN
 90
        0
 91
        1
 62
     0
 92
       -2
340
0
 93
        0
 40
0.045
309
GRIDFORMAT_END
 95
        4
302
GRIDFORMAT
  1
GRIDFORMAT_BEGIN
 90
        0
 91
        1
 62
     0
 92
       -2
340
0
 93
        0
 40
0.045
309
GRIDFORMAT_END
 95
        8
302
GRIDFORMAT
  1
GRIDFORMAT_BEGIN
 90
        0
 91
        1
 62
     0
 92
       -2
340
0
 93
        0
 40
0.045
309
GRIDFORMAT_END
 95
       16
302
GRIDFORMAT
  1
GRIDFORMAT_BEGIN
 90
        0
 91
        1
 62
     0
 92
       -2
340
0
 93
        0
 40
0.045
309
GRIDFORMAT_END
 95
       32
302
GRIDFORMAT
  1
GRIDFORMAT_BEGIN
 90
        0
 91
        1
 62
     0
 92
       -2
340
0
 93
        0
 40
0.045
309
GRIDFORMAT_END
309
TABLEFORMAT_END
  1
CELLSTYLE_BEGIN
 90
        1
 91
        1
300
_TITLE
309
CELLSTYLE_END
300
CELLSTYLE
  1
TABLEFORMAT_BEGIN
 90
        5
170
     1
 91
        0
 92
        0
 62
   257
 93
        1
300
CONTENTFORMAT
  1
CONTENTFORMAT_BEGIN
 90
        0
 91
        0
 92
      512
 93
        0
300

 40
0.0
140
1.0
 94
        5
 62
     0
340
11
144
4.5
309
CONTENTFORMAT_END
171
     1
301
MARGIN
  1
CELLMARGIN_BEGIN
 40
1.5
 40
1.5
 40
1.5
 40
1.5
 40
0.18
 40
0.18
309
CELLMARGIN_END
 94
        6
 95
        1
302
GRIDFORMAT
  1
GRIDFORMAT_BEGIN
 90
        0
 91
        1
 62
     0
 92
       -2
340
0
 93
        0
 40
0.045
309
GRIDFORMAT_END
 95
        2
302
GRIDFORMAT
  1
GRIDFORMAT_BEGIN
 90
        0
 91
        1
 62
     0
 92
       -2
340
0
 93
        0
 40
0.045
309
GRIDFORMAT_END
 95
        4
302
GRIDFORMAT
  1
GRIDFORMAT_BEGIN
 90
        0
 91
        1
 62
     0
 92
       -2
340
0
 93
        0
 40
0.045
309
GRIDFORMAT_END
 95
        8
302
GRIDFORMAT
  1
GRIDFORMAT_BEGIN
 90
        0
 91
        1
 62
     0
 92
       -2
340
0
 93
        0
 40
0.045
309
GRIDFORMAT_END
 95
       16
302
GRIDFORMAT
  1
GRIDFORMAT_BEGIN
 90
        0
 91
        1
 62
     0
 92
       -2
340
0
 93
        0
 40
0.045
309
GRIDFORMAT_END
 95
       32
302
GRIDFORMAT
  1
GRIDFORMAT_BEGIN
 90
        0
 91
        1
 62
     0
 92
       -2
340
0
 93
        0
 40
0.045
309
GRIDFORMAT_END
309
TABLEFORMAT_END
  1
CELLSTYLE_BEGIN
 90
        2
 91
        1
300
_HEADER
309
CELLSTYLE_END
300
CELLSTYLE
  1
TABLEFORMAT_BEGIN
 90
        5
170
     1
 91
        0
 92
        0
 62
   257
 93
        1
300
CONTENTFORMAT
  1
CONTENTFORMAT_BEGIN
 90
        0
 91
        0
 92
      512
 93
        0
300

 40
0.0
140
1.0
 94
        2
 62
     0
340
11
144
4.5
309
CONTENTFORMAT_END
171
     1
301
MARGIN
  1
CELLMARGIN_BEGIN
 40
1.5
 40
1.5
 40
1.5
 40
1.5
 40
0.18
 40
0.18
309
CELLMARGIN_END
 94
        6
 95
        1
302
GRIDFORMAT
  1
GRIDFORMAT_BEGIN
 90
        0
 91
        1
 62
     0
 92
       -2
340
0
 93
        0
 40
0.045
309
GRIDFORMAT_END
 95
        2
302
GRIDFORMAT
  1
GRIDFORMAT_BEGIN
 90
        0
 91
        1
 62
     0
 92
       -2
340
0
 93
        0
 40
0.045
309
GRIDFORMAT_END
 95
        4
302
GRIDFORMAT
  1
GRIDFORMAT_BEGIN
 90
        0
 91
        1
 62
     0
 92
       -2
340
0
 93
        0
 40
0.045
309
GRIDFORMAT_END
 95
        8
302
GRIDFORMAT
  1
GRIDFORMAT_BEGIN
 90
        0
 91
        1
 62
     0
 92
       -2
340
0
 93
        0
 40
0.045
309
GRIDFORMAT_END
 95
       16
302
GRIDFORMAT
  1
GRIDFORMAT_BEGIN
 90
        0
 91
        1
 62
     0
 92
       -2
340
0
 93
        0
 40
0.045
309
GRIDFORMAT_END
 95
       32
302
GRIDFORMAT
  1
GRIDFORMAT_BEGIN
 90
        0
 91
        1
 62
     0
 92
       -2
340
0
 93
        0
 40
0.045
309
GRIDFORMAT_END
309
TABLEFORMAT_END
  1
CELLSTYLE_BEGIN
 90
        3
 91
        2
300
_DATA
309
CELLSTYLE_END
  0
ENDSEC
  0
EOF
