  0
SECTION
  2
HEADER
  9
$ACADVER
  1
AC1021
  9
$ACADMAINTVER
 70
    26
  9
$DWGCODEPAGE
  3
ANSI_932
  9
$LASTSAVEDBY
  1
Htm_Terada
  9
$CUSTOMPROPERTYTAG
  1
AmdtFileType
  9
$CUSTOMPROPERTY
  1
84
  9
$INSBASE
 10
0.0
 20
0.0
 30
0.0
  9
$EXTMIN
 10
396.5761111103548
 20
431.1326513168461
 30
0.0
  9
$EXTMAX
 10
913.3871119794992
 20
788.1422702418462
 30
0.0
  9
$LIMMIN
 10
0.0000005743015663
 20
0.0000011081461935
  9
$LIMMAX
 10
1260.000000574301
 20
891.0000011081463
  9
$ORTHOMODE
 70
     1
  9
$REGENMODE
 70
     1
  9
$FILLMODE
 70
     1
  9
$QTEXTMODE
 70
     0
  9
$MIRRTEXT
 70
     1
  9
$LTSCALE
 40
3.0
  9
$ATTMODE
 70
     1
  9
$TEXTSIZE
 40
25.0
  9
$TRACEWID
 40
1.0
  9
$TEXTSTYLE
  7
SEISA
  9
$CLAYER
  8
AM_0 外形線1
  9
$CELTYPE
  6
ByLayer
  9
$CECOLOR
 62
   256
  9
$CELTSCALE
 40
1.0
  9
$DISPSILH
 70
     0
  9
$DIMSCALE
 40
3.0
  9
$DIMASZ
 40
2.5
  9
$DIMEXO
 40
0.625
  9
$DIMDLI
 40
10.0
  9
$DIMRND
 40
0.0
  9
$DIMDLE
 40
0.0
  9
$DIMEXE
 40
0.625
  9
$DIMTP
 40
0.1
  9
$DIMTM
 40
0.1
  9
$DIMTXT
 40
3.5
  9
$DIMCEN
 40
0.0
  9
$DIMTSZ
 40
0.0
  9
$DIMTOL
 70
     0
  9
$DIMLIM
 70
     0
  9
$DIMTIH
 70
     0
  9
$DIMTOH
 70
     0
  9
$DIMSE1
 70
     0
  9
$DIMSE2
 70
     0
  9
$DIMTAD
 70
     3
  9
$DIMZIN
 70
     8
  9
$DIMBLK
  1
Open30
  9
$DIMASO
 70
     1
  9
$DIMSHO
 70
     1
  9
$DIMPOST
  1

  9
$DIMAPOST
  1
"
  9
$DIMALT
 70
     0
  9
$DIMALTD
 70
     2
  9
$DIMALTF
 40
0.0393701
  9
$DIMLFAC
 40
1.0
  9
$DIMTOFL
 70
     1
  9
$DIMTVP
 40
0.0
  9
$DIMTIX
 70
     0
  9
$DIMSOXD
 70
     0
  9
$DIMSAH
 70
     0
  9
$DIMBLK1
  1

  9
$DIMBLK2
  1

  9
$DIMSTYLE
  2
SEISA
  9
$DIMCLRD
 70
     3
  9
$DIMCLRE
 70
     3
  9
$DIMCLRT
 70
     3
  9
$DIMTFAC
 40
0.71
  9
$DIMGAP
 40
1.5
  9
$DIMJUST
 70
     0
  9
$DIMSD1
 70
     0
  9
$DIMSD2
 70
     0
  9
$DIMTOLJ
 70
     0
  9
$DIMTZIN
 70
     0
  9
$DIMALTZ
 70
     0
  9
$DIMALTTZ
 70
     8
  9
$DIMUPT
 70
     0
  9
$DIMDEC
 70
     2
  9
$DIMTDEC
 70
     2
  9
$DIMALTU
 70
     2
  9
$DIMALTTD
 70
     2
  9
$DIMTXSTY
  7
SEISA
  9
$DIMAUNIT
 70
     0
  9
$DIMADEC
 70
     0
  9
$DIMALTRND
 40
0.0
  9
$DIMAZIN
 70
     2
  9
$DIMDSEP
 70
    46
  9
$DIMATFIT
 70
     3
  9
$DIMFRAC
 70
     0
  9
$DIMLDRBLK
  1
Open30
  9
$DIMLUNIT
 70
     2
  9
$DIMLWD
 70
    -1
  9
$DIMLWE
 70
    -1
  9
$DIMTMOVE
 70
     0
  9
$DIMFXL
 40
1.0
  9
$DIMFXLON
 70
     0
  9
$DIMJOGANG
 40
0.7853981633974483
  9
$DIMTFILL
 70
     0
  9
$DIMTFILLCLR
 70
     0
  9
$DIMARCSYM
 70
     1
  9
$DIMLTYPE
  6

  9
$DIMLTEX1
  6

  9
$DIMLTEX2
  6

  9
$LUNITS
 70
     2
  9
$LUPREC
 70
     2
  9
$SKETCHINC
 40
1.0
  9
$FILLETRAD
 40
7.5
  9
$AUNITS
 70
     0
  9
$AUPREC
 70
     0
  9
$MENU
  1
.
  9
$ELEVATION
 40
0.0
  9
$PELEVATION
 40
0.0
  9
$THICKNESS
 40
0.0
  9
$LIMCHECK
 70
     0
  9
$CHAMFERA
 40
2.0
  9
$CHAMFERB
 40
2.0
  9
$CHAMFERC
 40
2.0
  9
$CHAMFERD
 40
0.7853981633974483
  9
$SKPOLY
 70
     0
  9
$TDCREATE
 40
2454901.773184468
  9
$TDUCREATE
 40
2454901.398184468
  9
$TDUPDATE
 40
2456478.693168576
  9
$TDUUPDATE
 40
2456478.318168576
  9
$TDINDWG
 40
0.4000143171
  9
$TDUSRTIMER
 40
0.4000115972
  9
$USRTIMER
 70
     1
  9
$ANGBASE
 50
0.0
  9
$ANGDIR
 70
     0
  9
$PDMODE
 70
     0
  9
$PDSIZE
 40
0.0
  9
$PLINEWID
 40
0.0
  9
$SPLFRAME
 70
     0
  9
$SPLINETYPE
 70
     6
  9
$SPLINESEGS
 70
     8
  9
$HANDSEED
  5
8A34
  9
$SURFTAB1
 70
     6
  9
$SURFTAB2
 70
     6
  9
$SURFTYPE
 70
     6
  9
$SURFU
 70
     6
  9
$SURFV
 70
     6
  9
$UCSBASE
  2

  9
$UCSNAME
  2

  9
$UCSORG
 10
0.0
 20
0.0
 30
0.0
  9
$UCSXDIR
 10
1.0
 20
0.0
 30
0.0
  9
$UCSYDIR
 10
0.0
 20
1.0
 30
0.0
  9
$UCSORTHOREF
  2

  9
$UCSORTHOVIEW
 70
     0
  9
$UCSORGTOP
 10
0.0
 20
0.0
 30
0.0
  9
$UCSORGBOTTOM
 10
0.0
 20
0.0
 30
0.0
  9
$UCSORGLEFT
 10
0.0
 20
0.0
 30
0.0
  9
$UCSORGRIGHT
 10
0.0
 20
0.0
 30
0.0
  9
$UCSORGFRONT
 10
0.0
 20
0.0
 30
0.0
  9
$UCSORGBACK
 10
0.0
 20
0.0
 30
0.0
  9
$PUCSBASE
  2

  9
$PUCSNAME
  2

  9
$PUCSORG
 10
0.0
 20
0.0
 30
0.0
  9
$PUCSXDIR
 10
1.0
 20
0.0
 30
0.0
  9
$PUCSYDIR
 10
0.0
 20
1.0
 30
0.0
  9
$PUCSORTHOREF
  2

  9
$PUCSORTHOVIEW
 70
     0
  9
$PUCSORGTOP
 10
0.0
 20
0.0
 30
0.0
  9
$PUCSORGBOTTOM
 10
0.0
 20
0.0
 30
0.0
  9
$PUCSORGLEFT
 10
0.0
 20
0.0
 30
0.0
  9
$PUCSORGRIGHT
 10
0.0
 20
0.0
 30
0.0
  9
$PUCSORGFRONT
 10
0.0
 20
0.0
 30
0.0
  9
$PUCSORGBACK
 10
0.0
 20
0.0
 30
0.0
  9
$USERI1
 70
     0
  9
$USERI2
 70
     0
  9
$USERI3
 70
     0
  9
$USERI4
 70
     0
  9
$USERI5
 70
     0
  9
$USERR1
 40
0.0
  9
$USERR2
 40
0.0
  9
$USERR3
 40
0.0
  9
$USERR4
 40
0.0
  9
$USERR5
 40
0.0
  9
$WORLDVIEW
 70
     1
  9
$SHADEDGE
 70
     3
  9
$SHADEDIF
 70
    70
  9
$TILEMODE
 70
     1
  9
$MAXACTVP
 70
    64
  9
$PINSBASE
 10
0.0
 20
0.0
 30
0.0
  9
$PLIMCHECK
 70
     0
  9
$PEXTMIN
 10
1.000000000000000E+20
 20
1.000000000000000E+20
 30
1.000000000000000E+20
  9
$PEXTMAX
 10
-1.000000000000000E+20
 20
-1.000000000000000E+20
 30
-1.000000000000000E+20
  9
$PLIMMIN
 10
0.0
 20
0.0
  9
$PLIMMAX
 10
420.0
 20
297.0
  9
$UNITMODE
 70
     0
  9
$VISRETAIN
 70
     1
  9
$PLINEGEN
 70
     0
  9
$PSLTSCALE
 70
     1
  9
$TREEDEPTH
 70
  3020
  9
$CMLSTYLE
  2
Standard
  9
$CMLJUST
 70
     0
  9
$CMLSCALE
 40
20.0
  9
$PROXYGRAPHICS
 70
     1
  9
$MEASUREMENT
 70
     1
  9
$CELWEIGHT
370
    -1
  9
$ENDCAPS
280
     0
  9
$JOINSTYLE
280
     0
  9
$LWDISPLAY
290
     0
  9
$INSUNITS
 70
     4
  9
$HYPERLINKBASE
  1

  9
$STYLESHEET
  1
SEISA.CTB
  9
$XEDIT
290
     1
  9
$CEPSNTYPE
380
     0
  9
$PSTYLEMODE
290
     1
  9
$FINGERPRINTGUID
  2
{036C898B-FD2E-48B3-A16E-B004EE5B7FE1}
  9
$VERSIONGUID
  2
{F1B3105A-8E24-4586-987C-071F7B21A716}
  9
$EXTNAMES
290
     1
  9
$PSVPSCALE
 40
0.0
  9
$OLESTARTUP
290
     0
  9
$SORTENTS
280
   127
  9
$INDEXCTL
280
     0
  9
$HIDETEXT
280
     0
  9
$XCLIPFRAME
290
     0
  9
$HALOGAP
280
     0
  9
$OBSCOLOR
 70
   257
  9
$OBSLTYPE
280
     0
  9
$INTERSECTIONDISPLAY
280
     0
  9
$INTERSECTIONCOLOR
 70
   257
  9
$DIMASSOC
280
     2
  9
$PROJECTNAME
  1

  9
$CAMERADISPLAY
290
     0
  9
$LENSLENGTH
 40
50.0
  9
$CAMERAHEIGHT
 40
0.0
  9
$STEPSPERSEC
 40
2.0
  9
$STEPSIZE
 40
6.0
  9
$3DDWFPREC
 40
2.0
  9
$PSOLWIDTH
 40
0.25
  9
$PSOLHEIGHT
 40
4.0
  9
$LOFTANG1
 40
1.570796326794896
  9
$LOFTANG2
 40
1.570796326794896
  9
$LOFTMAG1
 40
0.0
  9
$LOFTMAG2
 40
0.0
  9
$LOFTPARAM
 70
     7
  9
$LOFTNORMALS
280
     1
  9
$LATITUDE
 40
37.795
  9
$LONGITUDE
 40
-122.394
  9
$NORTHDIRECTION
 40
0.0
  9
$TIMEZONE
 70
 -8000
  9
$LIGHTGLYPHDISPLAY
280
     1
  9
$TILEMODELIGHTSYNCH
280
     1
  9
$CMATERIAL
347
27C
  9
$SOLIDHIST
280
     1
  9
$SHOWHIST
280
     1
  9
$DWFFRAME
280
     2
  9
$DGNFRAME
280
     0
  9
$REALWORLDSCALE
290
     1
  9
$INTERFERECOLOR
 62
     1
  9
$INTERFEREOBJVS
345
289
  9
$INTERFEREVPVS
346
286
  9
$CSHADOW
280
     0
  9
$SHADOWPLANELOCATION
 40
0.0
  0
ENDSEC
  0
SECTION
  2
CLASSES
  0
CLASS
  1
ACDBDICTIONARYWDFLT
  2
AcDbDictionaryWithDefault
  3
ObjectDBX Classes
 90
        0
 91
        1
280
     0
281
     0
  0
CLASS
  1
AMGSETTINGSOBJ
  2
AmgSettingsObj
  3
"AcadM|Product Description: AutoCAD Mechanical|Company: Autodesk, Inc."
 90
     1024
 91
        2
280
     0
281
     0
  0
CLASS
  1
ACME_DOCUMENT
  2
AcMeDbDoc
  3
AcMeServices
 90
     1024
 91
        1
280
     0
281
     0
  0
CLASS
  1
ACMESCOPE
  2
AcMeScope
  3
AcMeServices
 90
     1024
 91
        1
280
     0
281
     0
  0
CLASS
  1
ACMECOMMANDHISTORY
  2
AcMeCommandHistory
  3
AcMeServices
 90
     1024
 91
        1
280
     0
281
     0
  0
CLASS
  1
DICTIONARYVAR
  2
AcDbDictionaryVar
  3
ObjectDBX Classes
 90
        0
 91
        9
280
     0
281
     0
  0
CLASS
  1
ACIMSYSVARMAN
  2
AcImSysVarManager
  3
AcMeServices
 90
     1024
 91
        5
280
     0
281
     0
  0
CLASS
  1
ACIMREALSYSVAR
  2
AcImRealSysVar
  3
AcMeServices
 90
     1024
 91
        1
280
     0
281
     0
  0
CLASS
  1
ACIMINTSYSVAR
  2
AcImIntSysVar
  3
AcMeServices
 90
     1024
 91
       27
280
     0
281
     0
  0
CLASS
  1
ACMEDRAWINGMAN
  2
AcMeDrawingMan
  3
AcMeServices
 90
     1024
 91
        1
280
     0
281
     0
  0
CLASS
  1
ACMEVIEW
  2
AcMeView
  3
AcMeServices
 90
     1024
 91
        1
280
     0
281
     0
  0
CLASS
  1
ACDBENTITYCACHE
  2
AcMeEntityCache
  3
AcMeServices
 90
     1024
 91
        1
280
     0
281
     0
  0
CLASS
  1
GSMANAGER
  2
AcMeGSManager
  3
AcMeServices
 90
     1024
 91
        1
280
     0
281
     0
  0
CLASS
  1
AMDTINTERNALREACTOR
  2
AmdtInternalReactor
  3
AcMeServices
 90
     1024
 91
        2
280
     0
281
     0
  0
CLASS
  1
ACMESTATEMGR
  2
AcMeStateMgr
  3
AcMeServices
 90
     1024
 91
        1
280
     0
281
     0
  0
CLASS
  1
ACGREFMASTER
  2
AcGrefMaster
  3
AcAttribServices
 90
     1024
 91
        1
280
     0
281
     0
  0
CLASS
  1
ACME_DATABASE
  2
AcMeDbDatabase
  3
AcMeServices
 90
     1024
 91
        1
280
     0
281
     0
  0
CLASS
  1
ACRFINSADJUSTERMGR
  2
AcRfInsAdjusterMgr
  3
AcMeServices
 90
     1024
 91
        1
280
     0
281
     0
  0
CLASS
  1
ACGREFACADMASTER
  2
AcGrefacadMaster
  3
AcGrefServices
 90
     1024
 91
        1
280
     0
281
     0
  0
CLASS
  1
AMIMASTER
  2
AmiMaster
  3
AmiServices
 90
     1024
 91
        1
280
     0
281
     0
  0
CLASS
  1
ACIMSTRSYSVAR
  2
AcImStrSysVar
  3
AcMeServices
 90
     1024
 91
        5
280
     0
281
     0
  0
CLASS
  1
ACMSTANDARDJIS
  2
AcmStandardJIS
  3
"Amdt_StdImp|Product Description: AutoCAD Mechanical|Company: Autodesk, Inc."
 90
     1024
 91
        0
280
     0
281
     0
  0
CLASS
  1
AMGOBJPROPCFG
  2
AmgObjPropCfg
  3
"AmgLay|Product Description: AutoCAD Mechanical|Company: Autodesk, Inc."
 90
     1025
 91
        1
280
     0
281
     0
  0
CLASS
  1
ACMSURFSTANDARDJIS
  2
AcmSurfTextStdJIS
  3
"Amdt_StdImp|Product Description: AutoCAD Mechanical|Company: Autodesk, Inc."
 90
     1024
 91
        0
280
     0
281
     0
  0
CLASS
  1
ACMFCFSTANDARDJIS
  2
AcmFCFStdJIS
  3
"Amdt_StdImp|Product Description: AutoCAD Mechanical|Company: Autodesk, Inc."
 90
     1024
 91
        0
280
     0
281
     0
  0
CLASS
  1
ACMWELDSTANDARDJIS
  2
AcmWeldingStdJIS
  3
"Amdt_StdImp|Product Description: AutoCAD Mechanical|Company: Autodesk, Inc."
 90
     1024
 91
        0
280
     0
281
     0
  0
CLASS
  1
ACMIDSTANDARDJIS
  2
AcmIdStdJIS
  3
"Amdt_StdImp|Product Description: AutoCAD Mechanical|Company: Autodesk, Inc."
 90
     1024
 91
        0
280
     0
281
     0
  0
CLASS
  1
ACMDATUMSTANDARDJIS
  2
AcmDatumStdJIS
  3
"Amdt_StdImp|Product Description: AutoCAD Mechanical|Company: Autodesk, Inc."
 90
     1024
 91
        0
280
     0
281
     0
  0
CLASS
  1
ACMBOMSTANDARDJIS
  2
AcmBOMStdJIS
  3
"Amdt_StdImp|Product Description: AutoCAD Mechanical|Company: Autodesk, Inc."
 90
     1024
 91
        0
280
     0
281
     0
  0
CLASS
  1
ACMDETAILSTANDARDJIS
  2
AmdtDetailSymStdJIS
  3
"Amdt_StdImp|Product Description: AutoCAD Mechanical|Company: Autodesk, Inc."
 90
     1024
 91
        0
280
     0
281
     0
  0
CLASS
  1
ACMSECTIONSTANDARDJIS
  2
AmdtSectionSymStdJIS
  3
"Amdt_StdImp|Product Description: AutoCAD Mechanical|Company: Autodesk, Inc."
 90
     1024
 91
        0
280
     0
281
     0
  0
CLASS
  1
ACMCENTERLINESTANDARDJIS
  2
AmdtCenterLineStdJIS
  3
"Amdt_StdImp|Product Description: AutoCAD Mechanical|Company: Autodesk, Inc."
 90
     1024
 91
        0
280
     0
281
     0
  0
CLASS
  1
ACMTHREADLINESTANDARDJIS
  2
AmdtThreadLineStdJIS
  3
"Amdt_StdImp|Product Description: AutoCAD Mechanical|Company: Autodesk, Inc."
 90
     1024
 91
        0
280
     0
281
     0
  0
CLASS
  1
ACAMGLAYSTD
  2
AcAmgLayStd
  3
"AmgLay|Product Description: AutoCAD Mechanical|Company: Autodesk, Inc."
 90
     1024
 91
        1
280
     0
281
     0
  0
CLASS
  1
ACAMGDIMSTD
  2
AcAmgDimStd
  3
"AmgDim|Product Description: AutoCAD Mechanical|Company: Autodesk, Inc."
 90
     1024
 91
        1
280
     0
281
     0
  0
CLASS
  1
ACAMGTITLESTD
  2
AcAmgTitleStd
  3
"AmgTitle|Product Description: AutoCAD Mechanical|Company: Autodesk, Inc."
 90
     4095
 91
        1
280
     0
281
     0
  0
CLASS
  1
ACMDATADICTIONARY
  2
AcmDataDictionary
  3
"AcmSymBB|Product Description: AutoCAD Mechanical|Company: Autodesk, Inc."
 90
     1024
 91
        1
280
     0
281
     0
  0
CLASS
  1
ACMDATAENTRYBLOCK
  2
AcmDataEntryBlock
  3
AcmSymBB|Product Description: AutoCAD Mechanical|Company: Autodesk, Inc.
 90
     1024
 91
        0
280
     0
281
     0
  0
CLASS
  1
LAYER_INDEX
  2
AcDbLayerIndex
  3
ObjectDBX Classes
 90
        0
 91
        0
280
     0
281
     0
  0
CLASS
  1
IDBUFFER
  2
AcDbIdBuffer
  3
ObjectDBX Classes
 90
        0
 91
        0
280
     0
281
     0
  0
CLASS
  1
ACMNOTESTANDARDJIS
  2
AmdtNoteStdJIS
  3
"Amdt_StdImp|Product Description: AutoCAD Mechanical|Company: Autodesk, Inc."
 90
     1024
 91
        0
280
     0
281
     0
  0
CLASS
  1
ACAMGHOLECHARTSTDJIS
  2
AcAmgHoleChartStdJIS
  3
AmgDim|Product Description: AutoCAD Mechanical|Company: Autodesk, Inc.
 90
     1024
 91
        0
280
     0
281
     0
  0
CLASS
  1
AM_DRAWING_MGR
  2
AcDmDwgMgr
  3
AcMechDwgViewMgmt
 90
     1024
 91
        1
280
     0
281
     0
  0
CLASS
  1
AM_DWG_DOCUMENT
  2
AcDmDwgDocument
  3
AcMechDwgViewMgmt
 90
     1024
 91
        1
280
     0
281
     0
  0
CLASS
  1
AM_DWG_SHEET
  2
AcDmSheet
  3
AcMechDwgViewMgmt
 90
     1024
 91
        2
280
     0
281
     0
  0
CLASS
  1
AM_VIEWDIMPARMAP
  2
AcDmViewDimParMap
  3
AcMechDwgViewMgmt
 90
     1024
 91
        2
280
     0
281
     0
  0
CLASS
  1
AM_DWGMGR_NAME
  2
AcDmDwgMgrName
  3
AcMechDwgViewMgmt
 90
     1024
 91
        1
280
     0
281
     0
  0
CLASS
  1
AMDTMENUSTATEMGR
  2
AmdtMenuStateMgr
  3
McadcomServices
 90
     1024
 91
        1
280
     0
281
     0
  0
CLASS
  1
AMDTMCOMMENUSTATE
  2
AmdtMcomMenuState
  3
McadcomServices
 90
     1024
 91
        1
280
     0
281
     0
  0
CLASS
  1
MAPIAMMOUDLE
  2
MApiAmModule
  3
MApiAmServices
 90
     1024
 91
        1
280
     0
281
     0
  0
CLASS
  1
AMDTADMENUSTATE
  2
AmdtAdMenuState
  3
DesignerServices
 90
     1024
 91
        1
280
     0
281
     0
  0
CLASS
  1
ADAPPL
  2
AcAdAppl
  3
DesignerServices
 90
     1024
 91
        1
280
     0
281
     0
  0
CLASS
  1
DEPMGR
  2
AcAdDepMgr
  3
DesignerServices
 90
     1024
 91
        1
280
     0
281
     0
  0
CLASS
  1
PARAMMGR
  2
AcAdParamMgr
  3
DesignerServices
 90
     1024
 91
        1
280
     0
281
     0
  0
CLASS
  1
PARAMSCOPE
  2
AcAdParamScope
  3
DesignerServices
 90
     1024
 91
        1
280
     0
281
     0
  0
CLASS
  1
NAMEDAPPL
  2
AcAdNamedAppl
  3
DesignerServices
 90
     1024
 91
        1
280
     0
281
     0
  0
CLASS
  1
AMDTDMMENUSTATE
  2
AmdtDmMenuState
  3
AcMechDwgViewMgmt
 90
     1024
 91
        1
280
     0
281
     0
  0
CLASS
  1
AMDTAMMENUSTATE
  2
AmdtAmMenuState
  3
DesignerAssemblies
 90
     1024
 91
        1
280
     0
281
     0
  0
CLASS
  1
ACAMPROJECT
  2
AcAmProject
  3
DesignerAssemblies
 90
     1024
 91
        1
280
     0
281
     0
  0
CLASS
  1
ACAMGRCOMPDEF
  2
AcAmGrCompDef
  3
DesignerAssemblies
 90
     1024
 91
        1
280
     0
281
     0
  0
CLASS
  1
ACCMCONTEXT
  2
AcCmContext
  3
DesignerAssemblies
 90
     1024
 91
        1
280
     0
281
     0
  0
CLASS
  1
ACAMCOMPDEF
  2
AcAmCompDef
  3
DesignerAssemblies
 90
     1024
 91
        1
280
     0
281
     0
  0
CLASS
  1
ACAMCOMPDEFMGR
  2
AcAmCompDefMgr
  3
DesignerAssemblies
 90
     1024
 91
        1
280
     0
281
     0
  0
CLASS
  1
AMCONTEXTMGR
  2
AcAmContextMgr
  3
DesignerAssemblies
 90
     1024
 91
        1
280
     0
281
     0
  0
CLASS
  1
ACAMCONTEXTMODELER
  2
AcAmContextModeler
  3
DesignerAssemblies
 90
     1024
 91
        1
280
     0
281
     0
  0
CLASS
  1
CATALOGSTATE
  2
AcAmCatalogState
  3
DesignerAssemblies
 90
     1024
 91
        1
280
     0
281
     0
  0
CLASS
  1
ACAMGRCOMPDEFSET
  2
AcAmGrCompDefSet
  3
DesignerAssemblies
 90
     1024
 91
        1
280
     0
281
     0
  0
CLASS
  1
AMDTBROWSERDBTAB
  2
AmdtBrowserDbTab
  3
McadcomServices
 90
     1024
 91
        1
280
     0
281
     0
  0
CLASS
  1
CBROWSERAPPOBJECT
  2
CBrowserAppObject
  3
McadcomServices
 90
     1024
 91
        3
280
     0
281
     0
  0
CLASS
  1
DM_PLACEHOLDER
  2
AcDmSelsetPlaceholder
  3
AcMechDwgViewMgmt
 90
     1024
 91
        1
280
     0
281
     0
  0
CLASS
  1
TABLESTYLE
  2
AcDbTableStyle
  3
ObjectDBX Classes
 90
     4095
 91
        1
280
     0
281
     0
  0
CLASS
  1
VAACXREFPANELOBJECT
  2
VaAcXREFPanelObject
  3
VAAC_ADDIN
 90
        0
 91
        0
280
     0
281
     0
  0
CLASS
  1
VAACIMAGEINVENTORY
  2
VaAcImageInventory
  3
VAAC_ADDIN
 90
        0
 91
        0
280
     0
281
     0
  0
CLASS
  1
AMDTNOTETEMPLATEDB
  2
AmdtNoteTemplateDB
  3
AcmSymBB|Product Description: AutoCAD Mechanical|Company: Autodesk, Inc.
 90
     1024
 91
        6
280
     0
281
     0
  0
CLASS
  1
ACAMGFILTERDAT
  2
AcAmgFilterDat
  3
"AcadM|Product Description: AutoCAD Mechanical|Company: Autodesk, Inc."
 90
     1024
 91
        0
280
     0
281
     0
  0
CLASS
  1
MATERIAL
  2
AcDbMaterial
  3
ObjectDBX Classes
 90
     1153
 91
        3
280
     0
281
     0
  0
CLASS
  1
VISUALSTYLE
  2
AcDbVisualStyle
  3
ObjectDBX Classes
 90
     4095
 91
       16
280
     0
281
     0
  0
CLASS
  1
ACRFATTGENMGR
  2
AcRfAttGeneralMgr
  3
AcAttribServices
 90
     1024
 91
        0
280
     0
281
     0
  0
CLASS
  1
ACRFOBJATTMGR
  2
AcRfObjAttGroupMgr
  3
AcAttribServices
 90
     1024
 91
        0
280
     0
281
     0
  0
CLASS
  1
ACRFMCADAPIATTHOLDER
  2
AcRfMCADAPIAttHolder
  3
AcAttribServices
 90
     1024
 91
        0
280
     0
281
     0
  0
CLASS
  1
AMDTSYSATTR
  2
AmdtSystemAttribute
  3
AcAttribServices
 90
     1024
 91
        0
280
     0
281
     0
  0
CLASS
  1
ACMTAPERSTANDARDJIS
  2
AcmTaperStdJIS
  3
"Amdt_StdImp|Product Description: AutoCAD Mechanical|Company: Autodesk, Inc."
 90
     1024
 91
        0
280
     0
281
     0
  0
CLASS
  1
CAMSSTRUCTBTNSTATE
  2
StructBtnState
  3
DesignerAssemblies
 90
     1024
 91
        0
280
     0
281
     0
  0
CLASS
  1
SCALE
  2
AcDbScale
  3
ObjectDBX Classes
 90
     1153
 91
       36
280
     0
281
     0
  0
CLASS
  1
MLEADERSTYLE
  2
AcDbMLeaderStyle
  3
ACDB_MLEADERSTYLE_CLASS
 90
     4095
 91
        1
280
     0
281
     0
  0
CLASS
  1
ACMANOOTATIONVIEWSTANDARDJIS
  2
AmdtAnViewStdJIS
  3
"Amdt_StdImp|Product Description: AutoCAD Mechanical|Company: Autodesk, Inc."
 90
     1024
 91
        0
280
     0
281
     0
  0
CLASS
  1
ACMSURFSTANDARDJIS2003
  2
AcmSurfTextStdJIS2003
  3
"Amdt_StdImp|Product Description: AutoCAD Mechanical|Company: Autodesk, Inc."
 90
     1024
 91
        0
280
     0
281
     0
  0
CLASS
  1
CELLSTYLEMAP
  2
AcDbCellStyleMap
  3
ObjectDBX Classes
 90
     1152
 91
        2
280
     0
281
     0
  0
CLASS
  1
ACMFCFSTANDARDJIS98
  2
AcmFCFStdJIS98
  3
"Amdt_StdImp|Product Description: AutoCAD Mechanical|Company: Autodesk, Inc."
 90
     1024
 91
        0
280
     0
281
     0
  0
CLASS
  1
SORTENTSTABLE
  2
AcDbSortentsTable
  3
ObjectDBX Classes
 90
        0
 91
       10
280
     0
281
     0
  0
CLASS
  1
DIMASSOC
  2
AcDbDimAssoc
  3
"AcDbDimAssoc|Product Desc:     AcDim ARX App For Dimension|Company:          Autodesk, Inc.|WEB Address:      www.autodesk.com"
 90
        0
 91
       15
280
     0
281
     0
  0
CLASS
  1
STDPART2D
  2
AmgStdPart
  3
AmgStdPart|Product Description: AutoCAD Mechanical|Company: Autodesk, Inc.
 90
     4095
 91
        0
280
     0
281
     1
  0
CLASS
  1
ACMDATAENTRYPART
  2
AcmDataEntryPart
  3
AcmSymBB|Product Description: AutoCAD Mechanical|Company: Autodesk, Inc.
 90
     1024
 91
        0
280
     0
281
     0
  0
CLASS
  1
ACMPARTREF
  2
AcmPartRef
  3
"AcmSymBB|Product Description: AutoCAD Mechanical|Company: Autodesk, Inc."
 90
     4095
 91
        0
280
     0
281
     1
  0
CLASS
  1
ACDBSTDPARTRES_LINE
  2
AcDbStdPartRes_Line
  3
AmgStdPart|Product Description: AutoCAD Mechanical|Company: Autodesk, Inc.
 90
     1024
 91
        0
280
     0
281
     0
  0
CLASS
  1
ACMBOM
  2
AcmBom
  3
"AcmSymBB|Product Description: AutoCAD Mechanical|Company: Autodesk, Inc."
 90
     1024
 91
        0
280
     0
281
     0
  0
CLASS
  1
AMDTFORMULAUPDATEDISPATCHER
  2
AmdtFormulaUpdateDispatcher
  3
AcMeServices
 90
     1024
 91
        0
280
     0
281
     0
  0
CLASS
  1
ACMBOMROW
  2
AcmBomRow
  3
"AcmSymBB|Product Description: AutoCAD Mechanical|Company: Autodesk, Inc."
 90
     1024
 91
        0
280
     0
281
     0
  0
CLASS
  1
ACMPARTLIST
  2
AcmPartList
  3
"AcmSymBB|Product Description: AutoCAD Mechanical|Company: Autodesk, Inc."
 90
     4095
 91
        0
280
     0
281
     1
  0
CLASS
  1
ACDBLINERES
  2
AcDbLineRes
  3
AcGrefServices
 90
     1024
 91
        0
280
     0
281
     0
  0
CLASS
  1
ACRFINSADJ
  2
AcRfInsAdjuster
  3
AcMeServices
 90
     1024
 91
        0
280
     0
281
     0
  0
CLASS
  1
ACMSTANDARDISO
  2
AcmStandardISO
  3
"Amdt_StdImp|Product Description: AutoCAD Mechanical|Company: Autodesk, Inc."
 90
     1024
 91
        1
280
     0
281
     0
  0
CLASS
  1
AMDTEDGESTANDARDISO13715
  2
AmdtEdgeStdISO13715
  3
"Amdt_StdImp|Product Description: AutoCAD Mechanical|Company: Autodesk, Inc."
 90
     1024
 91
        1
280
     0
281
     0
  0
CLASS
  1
ACMSURFSTANDARDISO2002
  2
AcmSurfTextStdISO2002
  3
"Amdt_StdImp|Product Description: AutoCAD Mechanical|Company: Autodesk, Inc."
 90
     1024
 91
        1
280
     0
281
     0
  0
CLASS
  1
ACMFCFSTANDARDISO
  2
AcmFCFStdISO
  3
"Amdt_StdImp|Product Description: AutoCAD Mechanical|Company: Autodesk, Inc."
 90
     1024
 91
        1
280
     0
281
     0
  0
CLASS
  1
ACMWELDSTANDARDISO
  2
AcmWeldingStdISO
  3
"Amdt_StdImp|Product Description: AutoCAD Mechanical|Company: Autodesk, Inc."
 90
     1024
 91
        1
280
     0
281
     0
  0
CLASS
  1
ACMIDSTANDARDISO
  2
AcmIdStdISO
  3
"Amdt_StdImp|Product Description: AutoCAD Mechanical|Company: Autodesk, Inc."
 90
     1024
 91
        1
280
     0
281
     0
  0
CLASS
  1
ACMDATUMSTANDARDISO
  2
AcmDatumStdISO
  3
"Amdt_StdImp|Product Description: AutoCAD Mechanical|Company: Autodesk, Inc."
 90
     1024
 91
        1
280
     0
281
     0
  0
CLASS
  1
ACMBOMSTANDARDISO
  2
AcmBOMStdISO
  3
"Amdt_StdImp|Product Description: AutoCAD Mechanical|Company: Autodesk, Inc."
 90
     1024
 91
        1
280
     0
281
     0
  0
CLASS
  1
ACMDETAILSTANDARDISO
  2
AmdtDetailSymStdISO
  3
"Amdt_StdImp|Product Description: AutoCAD Mechanical|Company: Autodesk, Inc."
 90
     1024
 91
        1
280
     0
281
     0
  0
CLASS
  1
ACMSECTIONSTANDARDISO2001
  2
AmdtSectionSymStdISO2001
  3
"Amdt_StdImp|Product Description: AutoCAD Mechanical|Company: Autodesk, Inc."
 90
     1024
 91
        1
280
     0
281
     0
  0
CLASS
  1
ACMCENTERLINESTANDARDISO
  2
AmdtCenterLineStdISO
  3
"Amdt_StdImp|Product Description: AutoCAD Mechanical|Company: Autodesk, Inc."
 90
     1024
 91
        1
280
     0
281
     0
  0
CLASS
  1
ACMTHREADLINESTANDARDISO
  2
AmdtThreadLineStdISO
  3
"Amdt_StdImp|Product Description: AutoCAD Mechanical|Company: Autodesk, Inc."
 90
     1024
 91
        1
280
     0
281
     0
  0
CLASS
  1
ACMNOTESTANDARDISO
  2
AmdtNoteStdISO
  3
"Amdt_StdImp|Product Description: AutoCAD Mechanical|Company: Autodesk, Inc."
 90
     1024
 91
        1
280
     0
281
     0
  0
CLASS
  1
ACMTAPERSTANDARDISO
  2
AcmTaperStdISO
  3
"Amdt_StdImp|Product Description: AutoCAD Mechanical|Company: Autodesk, Inc."
 90
     1024
 91
        1
280
     0
281
     0
  0
CLASS
  1
ACMANOOTATIONVIEWSTANDARDISO
  2
AmdtAnViewStdISO
  3
"Amdt_StdImp|Product Description: AutoCAD Mechanical|Company: Autodesk, Inc."
 90
     1024
 91
        1
280
     0
281
     0
  0
CLASS
  1
ACAMGHOLECHARTSTDISO
  2
AcAmgHoleChartStdISO
  3
AmgDim|Product Description: AutoCAD Mechanical|Company: Autodesk, Inc.
 90
     1024
 91
        1
280
     0
281
     0
  0
CLASS
  1
EXACXREFPANELOBJECT
  2
ExAcXREFPanelObject
  3
EXAC_ESW
 90
     1025
 91
        0
280
     0
281
     0
  0
CLASS
  1
NPOCOLLECTION
  2
AcDbImpNonPersistentObjectsCollection
  3
ObjectDBX Classes
 90
     1153
 91
        0
280
     0
281
     0
  0
CLASS
  1
ACDBSTDPARTRES_ARC
  2
AcDbStdPartRes_Arc
  3
AmgStdPart|Product Description: AutoCAD Mechanical|Company: Autodesk, Inc.
 90
     1024
 91
        0
280
     0
281
     0
  0
CLASS
  1
AMDTNOTE
  2
AmdtNote
  3
"AcmSymBB|Product Description: AutoCAD Mechanical|Company: Autodesk, Inc."
 90
     4095
 91
        0
280
     0
281
     1
  0
CLASS
  1
PLOTSETTINGS
  2
AcDbPlotSettings
  3
ObjectDBX Classes
 90
        0
 91
        1
280
     0
281
     0
  0
CLASS
  1
ACMSTANDARDANSI
  2
AcmStandardANSI
  3
"Amdt_StdImp|Product Description: AutoCAD Mechanical|Company: Autodesk, Inc."
 90
     1024
 91
        0
280
     0
281
     0
  0
CLASS
  1
ACMSURFSTANDARDANSI
  2
AcmSurfTextStdANSI
  3
"Amdt_StdImp|Product Description: AutoCAD Mechanical|Company: Autodesk, Inc."
 90
     1024
 91
        0
280
     0
281
     0
  0
CLASS
  1
ACMFCFSTANDARDANSI
  2
AcmFCFStdANSI
  3
"Amdt_StdImp|Product Description: AutoCAD Mechanical|Company: Autodesk, Inc."
 90
     1024
 91
        0
280
     0
281
     0
  0
CLASS
  1
ACMWELDSTANDARDANSI
  2
AcmWeldingStdANSI
  3
"Amdt_StdImp|Product Description: AutoCAD Mechanical|Company: Autodesk, Inc."
 90
     1024
 91
        0
280
     0
281
     0
  0
CLASS
  1
ACMIDSTANDARDANSI
  2
AcmIdStdANSI
  3
"Amdt_StdImp|Product Description: AutoCAD Mechanical|Company: Autodesk, Inc."
 90
     1024
 91
        0
280
     0
281
     0
  0
CLASS
  1
ACMDATUMSTANDARDANSI
  2
AcmDatumStdANSI
  3
"Amdt_StdImp|Product Description: AutoCAD Mechanical|Company: Autodesk, Inc."
 90
     1024
 91
        0
280
     0
281
     0
  0
CLASS
  1
ACMBOMSTANDARDANSI
  2
AcmBOMStdANSI
  3
"Amdt_StdImp|Product Description: AutoCAD Mechanical|Company: Autodesk, Inc."
 90
     1024
 91
        0
280
     0
281
     0
  0
CLASS
  1
ACMDETAILSTANDARDANSI
  2
AmdtDetailSymStdANSI
  3
"Amdt_StdImp|Product Description: AutoCAD Mechanical|Company: Autodesk, Inc."
 90
     1024
 91
        0
280
     0
281
     0
  0
CLASS
  1
ACMSECTIONSTANDARDANSI
  2
AmdtSectionSymStdANSI
  3
"Amdt_StdImp|Product Description: AutoCAD Mechanical|Company: Autodesk, Inc."
 90
     1024
 91
        0
280
     0
281
     0
  0
CLASS
  1
ACMCENTERLINESTANDARDANSI
  2
AmdtCenterLineStdANSI
  3
"Amdt_StdImp|Product Description: AutoCAD Mechanical|Company: Autodesk, Inc."
 90
     1024
 91
        0
280
     0
281
     0
  0
CLASS
  1
ACMTHREADLINESTANDARDANSI
  2
AmdtThreadLineStdANSI
  3
"Amdt_StdImp|Product Description: AutoCAD Mechanical|Company: Autodesk, Inc."
 90
     1024
 91
        0
280
     0
281
     0
  0
CLASS
  1
ACMNOTESTANDARDANSI
  2
AmdtNoteStdANSI
  3
"Amdt_StdImp|Product Description: AutoCAD Mechanical|Company: Autodesk, Inc."
 90
     1024
 91
        0
280
     0
281
     0
  0
CLASS
  1
ACMTAPERSTANDARDANSI
  2
AcmTaperStdANSI
  3
"Amdt_StdImp|Product Description: AutoCAD Mechanical|Company: Autodesk, Inc."
 90
     1024
 91
        0
280
     0
281
     0
  0
CLASS
  1
ACMANOOTATIONVIEWSTANDARDANSI
  2
AmdtAnViewStdANSI
  3
"Amdt_StdImp|Product Description: AutoCAD Mechanical|Company: Autodesk, Inc."
 90
     1024
 91
        0
280
     0
281
     0
  0
CLASS
  1
ACAMGHOLECHARTSTDANSI
  2
AcAmgHoleChartStdANSI
  3
AmgDim|Product Description: AutoCAD Mechanical|Company: Autodesk, Inc.
 90
     1024
 91
        0
280
     0
281
     0
  0
CLASS
  1
ACMSTANDARDBSI
  2
AcmStandardBSI
  3
"Amdt_StdImp|Product Description: AutoCAD Mechanical|Company: Autodesk, Inc."
 90
     1024
 91
        0
280
     0
281
     0
  0
CLASS
  1
ACMSURFSTANDARDBSI2002
  2
AcmSurfTextStdBSI2002
  3
"Amdt_StdImp|Product Description: AutoCAD Mechanical|Company: Autodesk, Inc."
 90
     1024
 91
        0
280
     0
281
     0
  0
CLASS
  1
ACMFCFSTANDARDBSI
  2
AcmFCFStdBSI
  3
"Amdt_StdImp|Product Description: AutoCAD Mechanical|Company: Autodesk, Inc."
 90
     1024
 91
        0
280
     0
281
     0
  0
CLASS
  1
ACMWELDSTANDARDBSI
  2
AcmWeldingStdBSI
  3
"Amdt_StdImp|Product Description: AutoCAD Mechanical|Company: Autodesk, Inc."
 90
     1024
 91
        0
280
     0
281
     0
  0
CLASS
  1
ACMIDSTANDARDBSI
  2
AcmIdStdBSI
  3
"Amdt_StdImp|Product Description: AutoCAD Mechanical|Company: Autodesk, Inc."
 90
     1024
 91
        0
280
     0
281
     0
  0
CLASS
  1
ACMDATUMSTANDARDBSI
  2
AcmDatumStdBSI
  3
"Amdt_StdImp|Product Description: AutoCAD Mechanical|Company: Autodesk, Inc."
 90
     1024
 91
        0
280
     0
281
     0
  0
CLASS
  1
ACMBOMSTANDARDBSI
  2
AcmBOMStdBSI
  3
"Amdt_StdImp|Product Description: AutoCAD Mechanical|Company: Autodesk, Inc."
 90
     1024
 91
        0
280
     0
281
     0
  0
CLASS
  1
ACMDETAILSTANDARDBSI
  2
AmdtDetailSymStdBSI
  3
"Amdt_StdImp|Product Description: AutoCAD Mechanical|Company: Autodesk, Inc."
 90
     1024
 91
        0
280
     0
281
     0
  0
CLASS
  1
ACMSECTIONSTANDARDBSI2001
  2
AmdtSectionSymStdBSI2001
  3
"Amdt_StdImp|Product Description: AutoCAD Mechanical|Company: Autodesk, Inc."
 90
     1024
 91
        0
280
     0
281
     0
  0
CLASS
  1
ACMCENTERLINESTANDARDBSI
  2
AmdtCenterLineStdBSI
  3
"Amdt_StdImp|Product Description: AutoCAD Mechanical|Company: Autodesk, Inc."
 90
     1024
 91
        0
280
     0
281
     0
  0
CLASS
  1
ACMTHREADLINESTANDARDBSI
  2
AmdtThreadLineStdBSI
  3
"Amdt_StdImp|Product Description: AutoCAD Mechanical|Company: Autodesk, Inc."
 90
     1024
 91
        0
280
     0
281
     0
  0
CLASS
  1
ACMNOTESTANDARDBSI
  2
AmdtNoteStdBSI
  3
"Amdt_StdImp|Product Description: AutoCAD Mechanical|Company: Autodesk, Inc."
 90
     1024
 91
        0
280
     0
281
     0
  0
CLASS
  1
ACMTAPERSTANDARDBSI
  2
AcmTaperStdBSI
  3
"Amdt_StdImp|Product Description: AutoCAD Mechanical|Company: Autodesk, Inc."
 90
     1024
 91
        0
280
     0
281
     0
  0
CLASS
  1
ACMANOOTATIONVIEWSTANDARDBSI
  2
AmdtAnViewStdBSI
  3
"Amdt_StdImp|Product Description: AutoCAD Mechanical|Company: Autodesk, Inc."
 90
     1024
 91
        0
280
     0
281
     0
  0
CLASS
  1
ACAMGHOLECHARTSTDBSI
  2
AcAmgHoleChartStdBSI
  3
AmgDim|Product Description: AutoCAD Mechanical|Company: Autodesk, Inc.
 90
     1024
 91
        0
280
     0
281
     0
  0
CLASS
  1
AMDTEDGESTANDARDJIS
  2
AmdtEdgeStdJIS
  3
"Amdt_StdImp|Product Description: AutoCAD Mechanical|Company: Autodesk, Inc."
 90
     1024
 91
        0
280
     0
281
     0
  0
CLASS
  1
ACMSURFSYM
  2
AcmSurfaceTexture
  3
"AcmSymBB|Product Description: AutoCAD Mechanical|Company: Autodesk, Inc."
 90
     4095
 91
        0
280
     0
281
     1
  0
CLASS
  1
ACDBDIMENSIONRES
  2
AcDbDimensionRes
  3
AcmSymBB|Product Description: AutoCAD Mechanical|Company: Autodesk, Inc.
 90
     1024
 91
        0
280
     0
281
     0
  0
CLASS
  1
ACDBCIRCARCRES
  2
AcDbCircArcRes
  3
AcGrefServices
 90
     1024
 91
        0
280
     0
281
     0
  0
CLASS
  1
AMDTACMWBLOCKBOMENTITY
  2
AmdtAcmWblockBomEntity
  3
"AcmSymBB|Product Description: AutoCAD Mechanical|Company: Autodesk, Inc."
 90
     4095
 91
        0
280
     0
281
     1
  0
CLASS
  1
ACDBOPPOLYLINERES
  2
AcDbOpPolylineRes
  3
AcGrefServices
 90
     1024
 91
        0
280
     0
281
     0
  0
CLASS
  1
ACDB_BLKREFOBJECTCONTEXTDATA_CLASS
  2
AcDbBlkRefObjectContextData
  3
ObjectDBX Classes
 90
     1153
 91
        0
280
     0
281
     0
  0
CLASS
  1
ACMPICKOBJ
  2
AcmPickEnt
  3
"AcmSymBB|Product Description: AutoCAD Mechanical|Company: Autodesk, Inc."
 90
     1024
 91
        0
280
     0
281
     1
  0
CLASS
  1
ACMBALLOON
  2
AcmBalloon
  3
"AcmSymBB|Product Description: AutoCAD Mechanical|Company: Autodesk, Inc."
 90
     4095
 91
        0
280
     0
281
     1
  0
ENDSEC
  0
SECTION
  2
TABLES
  0
TABLE
  2
VPORT
  5
8
330
0
100
AcDbSymbolTable
 70
     1
  0
VPORT
  5
27A
330
8
100
AcDbSymbolTableRecord
100
AcDbViewportTableRecord
  2
*Active
 70
     0
 10
0.0
 20
0.0
 11
1.0
 21
1.0
 12
712.7198158537521
 22
609.6326556564575
 13
0.0
 23
0.0
 14
7.5
 24
7.5
 15
30.0
 25
30.0
 16
0.0
 26
0.0
 36
1.0
 17
0.0
 27
0.0
 37
0.0
 40
404.490754908977
 41
1.285714285714285
 42
50.0
 43
0.0
 44
0.0
 50
0.0
 51
0.0
 71
     0
 72
 20000
 73
     1
 74
     3
 75
     0
 76
     0
 77
     0
 78
     0
281
     0
 65
     0
110
0.0
120
0.0
130
0.0
111
1.0
121
0.0
131
0.0
112
0.0
122
1.0
132
0.0
 79
     0
146
0.0
348
285
 60
     3
 61
     5
292
     1
282
     0
141
0.0
142
0.0
 63
   250
421
  3355443
  0
ENDTAB
  0
TABLE
  2
LTYPE
  5
5
330
0
100
AcDbSymbolTable
 70
    22
  0
LTYPE
  5
14
330
5
100
AcDbSymbolTableRecord
100
AcDbLinetypeTableRecord
  2
ByBlock
 70
     0
  3

 72
    65
 73
     0
 40
0.0
  0
LTYPE
  5
15
330
5
100
AcDbSymbolTableRecord
100
AcDbLinetypeTableRecord
  2
ByLayer
 70
     0
  3

 72
    65
 73
     0
 40
0.0
  0
LTYPE
  5
16
330
5
100
AcDbSymbolTableRecord
100
AcDbLinetypeTableRecord
  2
Continuous
 70
     0
  3
Solid line
 72
    65
 73
     0
 40
0.0
  0
LTYPE
  5
4D
330
5
100
AcDbSymbolTableRecord
100
AcDbLinetypeTableRecord
  2
AM_ISO02W050
 70
     0
  3
__ __ __ __ __ __ __ __ __ __ __ __ __ __ __
 72
    65
 73
     2
 40
7.5
 49
6.0
 74
     0
 49
-1.5
 74
     0
  0
LTYPE
  5
4E
330
5
100
AcDbSymbolTableRecord
100
AcDbLinetypeTableRecord
  2
AM_ISO08W050
 70
     0
  3
____ . ____ . ____ . ____ . ____ . ____ . ____
 72
    65
 73
     4
 40
18.0
 49
12.0
 74
     0
 49
-1.5
 74
     0
 49
3.0
 74
     0
 49
-1.5
 74
     0
  0
LTYPE
  5
4F
330
5
100
AcDbSymbolTableRecord
100
AcDbLinetypeTableRecord
  2
AM_ISO09W050
 70
     0
  3
_____ . . _____ . . _____ . . ____ .. ____
 72
    65
 73
     6
 40
22.5
 49
12.0
 74
     0
 49
-1.5
 74
     0
 49
3.0
 74
     0
 49
-1.5
 74
     0
 49
3.0
 74
     0
 49
-1.5
 74
     0
  0
LTYPE
  5
50
330
5
100
AcDbSymbolTableRecord
100
AcDbLinetypeTableRecord
  2
Amconstr
 70
     0
  3
_______________________
 72
    65
 73
     2
 40
9999.0
 49
9999.0
 74
     0
 49
0.0
 74
     0
  0
LTYPE
  5
51
330
5
100
AcDbSymbolTableRecord
100
AcDbLinetypeTableRecord
  2
AM_ISO08W050x2
 70
     0
  3
__ . __ . __ . __ . __ . __
 72
    65
 73
     4
 40
9.0
 49
6.0
 74
     0
 49
-0.75
 74
     0
 49
1.5
 74
     0
 49
-0.75
 74
     0
  0
LTYPE
  5
52
330
5
100
AcDbSymbolTableRecord
100
AcDbLinetypeTableRecord
  2
AM_ISO02W050x2
 70
     0
  3
 _ _ _ _ _ _ _ _ _ _ _ _
 72
    65
 73
     2
 40
3.75
 49
3.0
 74
     0
 49
-0.75
 74
     0
  0
LTYPE
  5
55
330
5
100
AcDbSymbolTableRecord
100
AcDbLinetypeTableRecord
  2
Amzigzag
 70
     0
  3
/\/-/\/-/\/-/\/-/\/-/\/
 72
    65
 73
     2
 40
11.0001
 49
0.0001
 74
     4
 75
   136
340
23D
 46
0.04
 50
0.0
 44
0.0
 45
0.0
 49
-11.0
 74
     0
  0
LTYPE
  5
65
330
5
100
AcDbSymbolTableRecord
100
AcDbLinetypeTableRecord
  2
CENTER
 70
     0
  3
__ . __
 72
    65
 73
     4
 40
7.0
 49
4.0
 74
     0
 49
-1.0
 74
     0
 49
1.0
 74
     0
 49
-1.0
 74
     0
  0
LTYPE
  5
E0
330
5
100
AcDbSymbolTableRecord
100
AcDbLinetypeTableRecord
  2
HIDDEN
 70
     0
  3
Hidden __ __ __ __ __ __ __ __ __ __ __ __ __ _
 72
    65
 73
     2
 40
9.524999999999996
 49
6.349999999999998
 74
     0
 49
-3.174999999999998
 74
     0
  0
LTYPE
  5
E1
330
5
100
AcDbSymbolTableRecord
100
AcDbLinetypeTableRecord
  2
PHANTOM2
 70
     0
  3
Phantom (.5x) ___ _ _ ___ _ _ ___ _ _ ___ _ _
 72
    65
 73
     6
 40
31.75
 49
15.875
 74
     0
 49
-3.174999999999998
 74
     0
 49
3.174999999999998
 74
     0
 49
-3.174999999999998
 74
     0
 49
3.174999999999998
 74
     0
 49
-3.174999999999998
 74
     0
  0
LTYPE
  5
5A2
330
5
100
AcDbSymbolTableRecord
100
AcDbLinetypeTableRecord
  2
ACJISWELD
 70
     0
  3
_ _ _ _ _
 72
    65
 73
     2
 40
2.0
 49
2.0
 74
     0
 49
-1.0
 74
     0
  0
LTYPE
  5
8A1F
330
5
100
AcDbSymbolTableRecord
100
AcDbLinetypeTableRecord
  2
ACISOWELD
 70
     0
  3
_ _ _ _ _
 72
    65
 73
     2
 40
2.0
 49
2.0
 74
     0
 49
-1.0
 74
     0
  0
LTYPE
  5
8A20
330
5
100
AcDbSymbolTableRecord
100
AcDbLinetypeTableRecord
  2
ACISOTGB
 70
     0
  3
__ . . __ . .
 72
    65
 73
     6
 40
9.0
 49
4.0
 74
     0
 49
-1.0
 74
     0
 49
1.0
 74
     0
 49
-1.0
 74
     0
 49
1.0
 74
     0
 49
-1.0
 74
     0
  0
LTYPE
  5
8A21
330
5
100
AcDbSymbolTableRecord
100
AcDbLinetypeTableRecord
  2
ACISOTGL
 70
     0
  3
_ _ _ _ _
 72
    65
 73
     2
 40
3.0
 49
2.0
 74
     0
 49
-1.0
 74
     0
  0
ENDTAB
  0
TABLE
  2
LAYER
  5
2
102
{ACAD_XDICTIONARY
360
BF
102
}
330
0
100
AcDbSymbolTable
 70
    10
  0
LAYER
  5
10
102
{ACAD_XDICTIONARY
360
29D8
102
}
330
2
100
AcDbSymbolTableRecord
100
AcDbLayerTableRecord
  2
0
 70
     0
 62
     7
  6
Continuous
370
    -3
390
F
347
27E
  0
LAYER
  5
81
102
{ACAD_XDICTIONARY
360
29DA
102
}
330
2
100
AcDbSymbolTableRecord
100
AcDbLayerTableRecord
  2
AM_0 外形線1
 70
     0
 62
     7
  6
Continuous
370
    25
390
F
347
27E
  0
LAYER
  5
427
330
2
100
AcDbSymbolTableRecord
100
AcDbLayerTableRecord
  2
Defpoints
 70
     0
 62
     7
  6
Continuous
290
     0
370
    -3
390
F
347
27E
  0
LAYER
  5
25C9
102
{ACAD_XDICTIONARY
360
29E1
102
}
330
2
100
AcDbSymbolTableRecord
100
AcDbLayerTableRecord
  2
AM_3 隠れ線
 70
     0
 62
     8
  6
ACJISWELD
370
    13
390
F
347
27E
1001
AcAecLayerStandard
1000

1000

  0
LAYER
  5
25CA
102
{ACAD_XDICTIONARY
360
29E3
102
}
330
2
100
AcDbSymbolTableRecord
100
AcDbLayerTableRecord
  2
AM_4 細線
 70
     0
 62
     4
  6
Continuous
370
    13
390
F
347
27E
1001
AcAecLayerStandard
1000

1000

  0
LAYER
  5
26B3
102
{ACAD_XDICTIONARY
360
29E9
102
}
330
2
100
AcDbSymbolTableRecord
100
AcDbLayerTableRecord
  2
AM_5 寸法線
 70
     0
 62
     3
  6
Continuous
370
    13
390
F
347
27E
1001
AcAecLayerStandard
1000

1000

  0
LAYER
  5
37C3
330
2
100
AcDbSymbolTableRecord
100
AcDbLayerTableRecord
  2
AM_7 中心線
 70
     0
 62
     1
  6
AM_ISO08W050
370
    13
390
F
347
27E
1001
AcAecLayerStandard
1000

1000

  0
LAYER
  5
37C6
330
2
100
AcDbSymbolTableRecord
100
AcDbLayerTableRecord
  2
AM_6 文字
 70
     0
 62
     2
  6
Continuous
370
    13
390
F
347
27E
1001
AcAecLayerStandard
1000

1000

  0
LAYER
  5
85EC
330
2
100
AcDbSymbolTableRecord
100
AcDbLayerTableRecord
  2
AM_11 想像線
 70
     0
 62
     5
  6
AM_ISO09W050
370
    13
390
F
347
27E
1001
AcAecLayerStandard
1000

1000

  0
ENDTAB
  0
TABLE
  2
STYLE
  5
3
330
0
100
AcDbSymbolTable
 70
    10
  0
STYLE
  5
11
330
3
100
AcDbSymbolTableRecord
100
AcDbTextStyleTableRecord
  2
STANDARD
 70
     0
 40
0.0
 41
1.0
 50
0.0
 71
     0
 42
25.0
  3
ISOCP.SHX
  4
EXTFONT.SHX
  0
STYLE
  5
23D
330
3
100
AcDbSymbolTableRecord
100
AcDbTextStyleTableRecord
  2

 70
     1
 40
0.0
 41
1.0
 50
0.0
 71
     0
 42
2.5
  3
genltshp.shx
  4

  0
STYLE
  5
5D5
330
3
100
AcDbSymbolTableRecord
100
AcDbTextStyleTableRecord
  2
SEISA
 70
     0
 40
0.0
 41
0.9
 50
0.0
 71
     0
 42
25.0
  3
romans.shx
  4
extfont2.shx
  0
STYLE
  5
8A0F
330
3
100
AcDbSymbolTableRecord
100
AcDbTextStyleTableRecord
  2
ACISOTS
 70
     0
 40
1.0
 41
1.0
 50
0.0
 71
     0
 42
25.0
  3
isocp.shx
  4
extfont.shx
  0
STYLE
  5
8A1E
330
3
100
AcDbSymbolTableRecord
100
AcDbTextStyleTableRecord
  2
ACISOGDT
 70
     0
 40
0.0
 41
1.0
 50
0.0
 71
     0
 42
25.0
  3
amgdt.shx
  4

  0
ENDTAB
  0
TABLE
  2
VIEW
  5
6
330
0
100
AcDbSymbolTable
 70
     6
  0
VIEW
  5
91B
330
6
100
AcDbSymbolTableRecord
100
AcDbViewTableRecord
  2
AM_VIEW1
 70
     0
 40
445.5
 10
438.3676114117401
 20
668.2500011081462
 41
876.735221674877
 11
0.0
 21
0.0
 31
1.0
 12
0.0
 22
0.0
 32
0.0
 42
50.0
 43
0.0
 44
0.0
 50
0.0
 71
     0
281
     0
 72
     0
 73
     0
  0
VIEW
  5
91C
330
6
100
AcDbSymbolTableRecord
100
AcDbViewTableRecord
  2
AM_VIEW2
 70
     0
 40
445.5
 10
821.632389736863
 20
668.2500011081462
 41
876.735221674877
 11
0.0
 21
0.0
 31
1.0
 12
0.0
 22
0.0
 32
0.0
 42
50.0
 43
0.0
 44
0.0
 50
0.0
 71
     0
281
     0
 72
     0
 73
     0
  0
VIEW
  5
91D
330
6
100
AcDbSymbolTableRecord
100
AcDbViewTableRecord
  2
AM_VIEW3
 70
     0
 40
445.5
 10
438.3676114117401
 20
222.7500011081462
 41
876.735221674877
 11
0.0
 21
0.0
 31
1.0
 12
0.0
 22
0.0
 32
0.0
 42
50.0
 43
0.0
 44
0.0
 50
0.0
 71
     0
281
     0
 72
     0
 73
     0
  0
VIEW
  5
91E
330
6
100
AcDbSymbolTableRecord
100
AcDbViewTableRecord
  2
AM_VIEW4
 70
     0
 40
445.5
 10
821.632389736863
 20
222.7500011081462
 41
876.735221674877
 11
0.0
 21
0.0
 31
1.0
 12
0.0
 22
0.0
 32
0.0
 42
50.0
 43
0.0
 44
0.0
 50
0.0
 71
     0
281
     0
 72
     0
 73
     0
  0
VIEW
  5
91F
330
6
100
AcDbSymbolTableRecord
100
AcDbViewTableRecord
  2
AM_VIEW5
 70
     0
 40
445.5
 10
630.0000005743015
 20
445.5000011081462
 41
876.7352216748772
 11
0.0
 21
0.0
 31
1.0
 12
0.0
 22
0.0
 32
0.0
 42
50.0
 43
0.0
 44
0.0
 50
0.0
 71
     0
281
     0
 72
     0
 73
     0
  0
VIEW
  5
920
330
6
100
AcDbSymbolTableRecord
100
AcDbViewTableRecord
  2
AM_VIEW6
 70
     0
 40
890.9910900000001
 10
630.0000005743015
 20
445.5000011081462
 41
1753.452908645321
 11
0.0
 21
0.0
 31
1.0
 12
0.0
 22
0.0
 32
0.0
 42
50.0
 43
0.0
 44
0.0
 50
0.0
 71
     0
281
     0
 72
     0
 73
     0
  0
ENDTAB
  0
TABLE
  2
UCS
  5
7
330
0
100
AcDbSymbolTable
 70
     0
  0
ENDTAB
  0
TABLE
  2
APPID
  5
9
330
0
100
AcDbSymbolTable
 70
   394
  0
APPID
  5
12
330
9
100
AcDbSymbolTableRecord
100
AcDbRegAppTableRecord
  2
ACAD
 70
     0
  0
APPID
  5
30
330
9
100
AcDbSymbolTableRecord
100
AcDbRegAppTableRecord
  2
MCAD_NO_VIS
 70
     0
  0
APPID
  5
31
330
9
100
AcDbSymbolTableRecord
100
AcDbRegAppTableRecord
  2
ACAD_TEMP_GRAPHIC
 70
     0
  0
APPID
  5
44
330
9
100
AcDbSymbolTableRecord
100
AcDbRegAppTableRecord
  2
ACATTRIBSERVICES
 70
     0
  0
APPID
  5
F6
330
9
100
AcDbSymbolTableRecord
100
AcDbRegAppTableRecord
  2
AD_DRAW
 70
     0
  0
APPID
  5
114
330
9
100
AcDbSymbolTableRecord
100
AcDbRegAppTableRecord
  2
DESIGNERASSEMBLIES
 70
     0
  0
APPID
  5
118
330
9
100
AcDbSymbolTableRecord
100
AcDbRegAppTableRecord
  2
ACADM_DIM_EDIT
 70
     0
  0
APPID
  5
119
330
9
100
AcDbSymbolTableRecord
100
AcDbRegAppTableRecord
  2
AMDT_DM_ADJ
 70
     0
  0
APPID
  5
1AF
330
9
100
AcDbSymbolTableRecord
100
AcDbRegAppTableRecord
  2
ACAD_DSTYLE_DIMARC_LENGTH_SYMBOL
 70
     0
  0
APPID
  5
1B0
330
9
100
AcDbSymbolTableRecord
100
AcDbRegAppTableRecord
  2
ACAD_DSTYLE_DIMJOGGED_JOGANGLE_SYMBOL
 70
     0
  0
APPID
  5
2D7
330
9
100
AcDbSymbolTableRecord
100
AcDbRegAppTableRecord
  2
ACAD_MLEADERVER
 70
     0
  0
APPID
  5
355
330
9
100
AcDbSymbolTableRecord
100
AcDbRegAppTableRecord
  2
AcadAnnoPO
 70
     0
  0
APPID
  5
428
330
9
100
AcDbSymbolTableRecord
100
AcDbRegAppTableRecord
  2
ACAD_DSTYLE_DIMTEXT_FILL
 70
     0
  0
APPID
  5
429
330
9
100
AcDbSymbolTableRecord
100
AcDbRegAppTableRecord
  2
GENIUS_GENSCREG_15
 70
     0
  0
APPID
  5
42A
330
9
100
AcDbSymbolTableRecord
100
AcDbRegAppTableRecord
  2
GENIUS_GENOBJ-N-SDF_13
 70
     0
  0
APPID
  5
42B
330
9
100
AcDbSymbolTableRecord
100
AcDbRegAppTableRecord
  2
GENIUS_GENODEF_13
 70
     0
  0
APPID
  5
42C
330
9
100
AcDbSymbolTableRecord
100
AcDbRegAppTableRecord
  2
ACAD_EXEMPT_FROM_CAD_STANDARDS
 70
     0
  0
APPID
  5
42D
330
9
100
AcDbSymbolTableRecord
100
AcDbRegAppTableRecord
  2
AcAecLayerStandard
 70
     0
  0
APPID
  5
42E
330
9
100
AcDbSymbolTableRecord
100
AcDbRegAppTableRecord
  2
GENIUS_GENOBJ-N-CEN_13
 70
     0
  0
APPID
  5
42F
330
9
100
AcDbSymbolTableRecord
100
AcDbRegAppTableRecord
  2
GENIUS_GENCEN_19
 70
     0
  0
APPID
  5
430
330
9
100
AcDbSymbolTableRecord
100
AcDbRegAppTableRecord
  2
ACAD_DSTYLE_DIMINSPECT
 70
     0
  0
APPID
  5
431
330
9
100
AcDbSymbolTableRecord
100
AcDbRegAppTableRecord
  2
GENIUS_AMGTXT_16
 70
     0
  0
APPID
  5
432
330
9
100
AcDbSymbolTableRecord
100
AcDbRegAppTableRecord
  2
GENIUS_GENFIL_13
 70
     0
  0
APPID
  5
433
330
9
100
AcDbSymbolTableRecord
100
AcDbRegAppTableRecord
  2
GENIUS_GENOLIS_13
 70
     0
  0
APPID
  5
434
330
9
100
AcDbSymbolTableRecord
100
AcDbRegAppTableRecord
  2
GENIUS_GENOBJ-N-CHA_13
 70
     0
  0
APPID
  5
435
330
9
100
AcDbSymbolTableRecord
100
AcDbRegAppTableRecord
  2
GENIUS_GENOENT_13
 70
     0
  0
APPID
  5
436
330
9
100
AcDbSymbolTableRecord
100
AcDbRegAppTableRecord
  2
GENIUS_GENOREF_13
 70
     0
  0
APPID
  5
437
330
9
100
AcDbSymbolTableRecord
100
AcDbRegAppTableRecord
  2
GENIUS_GENOBJ-N-FIL_13
 70
     0
  0
APPID
  5
438
330
9
100
AcDbSymbolTableRecord
100
AcDbRegAppTableRecord
  2
GEVID1208829536
 70
     0
  0
APPID
  5
439
330
9
100
AcDbSymbolTableRecord
100
AcDbRegAppTableRecord
  2
GEVDC
 70
     0
  0
APPID
  5
43A
330
9
100
AcDbSymbolTableRecord
100
AcDbRegAppTableRecord
  2
GEVRADREF
 70
     0
  0
APPID
  5
43B
330
9
100
AcDbSymbolTableRecord
100
AcDbRegAppTableRecord
  2
GENIUS_GENBH_13
 70
     0
  0
APPID
  5
43C
330
9
100
AcDbSymbolTableRecord
100
AcDbRegAppTableRecord
  2
GENIUS_GENOBJ-NBEHI-BHF_13
 70
     0
  0
APPID
  5
43D
330
9
100
AcDbSymbolTableRecord
100
AcDbRegAppTableRecord
  2
GENIUS_GENOBJ-NBEHI-BHB_13
 70
     0
  0
APPID
  5
43E
330
9
100
AcDbSymbolTableRecord
100
AcDbRegAppTableRecord
  2
GEVID1208829537
 70
     0
  0
APPID
  5
43F
330
9
100
AcDbSymbolTableRecord
100
AcDbRegAppTableRecord
  2
ACAD_DSTYLE_DIMJAG
 70
     0
  0
APPID
  5
440
330
9
100
AcDbSymbolTableRecord
100
AcDbRegAppTableRecord
  2
ACAD_DSTYLE_DIMTALN
 70
     0
  0
APPID
  5
441
330
9
100
AcDbSymbolTableRecord
100
AcDbRegAppTableRecord
  2
AMG_2DHIDE
 70
     0
  0
APPID
  5
442
330
9
100
AcDbSymbolTableRecord
100
AcDbRegAppTableRecord
  2
AMG_2DSTRUCT_BTR
 70
     0
  0
APPID
  5
443
330
9
100
AcDbSymbolTableRecord
100
AcDbRegAppTableRecord
  2
GEVID1208845772
 70
     0
  0
APPID
  5
444
330
9
100
AcDbSymbolTableRecord
100
AcDbRegAppTableRecord
  2
GEVID1208845773
 70
     0
  0
APPID
  5
445
330
9
100
AcDbSymbolTableRecord
100
AcDbRegAppTableRecord
  2
ACADM_2DVIEW_IGN_NOTIFY
 70
     0
  0
APPID
  5
446
330
9
100
AcDbSymbolTableRecord
100
AcDbRegAppTableRecord
  2
GEVID1208845774
 70
     0
  0
APPID
  5
447
330
9
100
AcDbSymbolTableRecord
100
AcDbRegAppTableRecord
  2
GEVID1208845775
 70
     0
  0
APPID
  5
448
330
9
100
AcDbSymbolTableRecord
100
AcDbRegAppTableRecord
  2
GEVID1208845776
 70
     0
  0
APPID
  5
449
330
9
100
AcDbSymbolTableRecord
100
AcDbRegAppTableRecord
  2
GEVID1208845777
 70
     0
  0
APPID
  5
44A
330
9
100
AcDbSymbolTableRecord
100
AcDbRegAppTableRecord
  2
GEVCON
 70
     0
  0
APPID
  5
44B
330
9
100
AcDbSymbolTableRecord
100
AcDbRegAppTableRecord
  2
GENIUS_GENOBJ-F-SCPASSM_13
 70
     0
  0
APPID
  5
44C
330
9
100
AcDbSymbolTableRecord
100
AcDbRegAppTableRecord
  2
GEVID1208845778
 70
     0
  0
APPID
  5
44D
330
9
100
AcDbSymbolTableRecord
100
AcDbRegAppTableRecord
  2
GEVID1208845779
 70
     0
  0
APPID
  5
44E
330
9
100
AcDbSymbolTableRecord
100
AcDbRegAppTableRecord
  2
GEVID1208845780
 70
     0
  0
APPID
  5
44F
330
9
100
AcDbSymbolTableRecord
100
AcDbRegAppTableRecord
  2
GEVID1208845781
 70
     0
  0
APPID
  5
450
330
9
100
AcDbSymbolTableRecord
100
AcDbRegAppTableRecord
  2
GEVID1208845782
 70
     0
  0
APPID
  5
451
330
9
100
AcDbSymbolTableRecord
100
AcDbRegAppTableRecord
  2
GEVID1208845783
 70
     0
  0
APPID
  5
452
330
9
100
AcDbSymbolTableRecord
100
AcDbRegAppTableRecord
  2
GEVID1208845784
 70
     0
  0
APPID
  5
453
330
9
100
AcDbSymbolTableRecord
100
AcDbRegAppTableRecord
  2
GEVID1208845785
 70
     0
  0
APPID
  5
454
330
9
100
AcDbSymbolTableRecord
100
AcDbRegAppTableRecord
  2
GEVID1208845787
 70
     0
  0
APPID
  5
455
330
9
100
AcDbSymbolTableRecord
100
AcDbRegAppTableRecord
  2
GEVID1208845788
 70
     0
  0
APPID
  5
456
330
9
100
AcDbSymbolTableRecord
100
AcDbRegAppTableRecord
  2
GEVID1208845789
 70
     0
  0
APPID
  5
457
330
9
100
AcDbSymbolTableRecord
100
AcDbRegAppTableRecord
  2
GEVID1208845790
 70
     0
  0
APPID
  5
458
330
9
100
AcDbSymbolTableRecord
100
AcDbRegAppTableRecord
  2
GEVID1208845791
 70
     0
  0
APPID
  5
459
330
9
100
AcDbSymbolTableRecord
100
AcDbRegAppTableRecord
  2
GEVID1208845792
 70
     0
  0
APPID
  5
45A
330
9
100
AcDbSymbolTableRecord
100
AcDbRegAppTableRecord
  2
GEVID1208845793
 70
     0
  0
APPID
  5
45B
330
9
100
AcDbSymbolTableRecord
100
AcDbRegAppTableRecord
  2
GEVID1208845794
 70
     0
  0
APPID
  5
45C
330
9
100
AcDbSymbolTableRecord
100
AcDbRegAppTableRecord
  2
GEVID1208845795
 70
     0
  0
APPID
  5
45D
330
9
100
AcDbSymbolTableRecord
100
AcDbRegAppTableRecord
  2
GEVID1208845796
 70
     0
  0
APPID
  5
45E
330
9
100
AcDbSymbolTableRecord
100
AcDbRegAppTableRecord
  2
GEVID1208845797
 70
     0
  0
APPID
  5
45F
330
9
100
AcDbSymbolTableRecord
100
AcDbRegAppTableRecord
  2
GEVID1208845798
 70
     0
  0
APPID
  5
460
330
9
100
AcDbSymbolTableRecord
100
AcDbRegAppTableRecord
  2
GEVID1208845799
 70
     0
  0
APPID
  5
461
330
9
100
AcDbSymbolTableRecord
100
AcDbRegAppTableRecord
  2
GEVID1208845800
 70
     0
  0
APPID
  5
462
330
9
100
AcDbSymbolTableRecord
100
AcDbRegAppTableRecord
  2
GEVID1208845801
 70
     0
  0
APPID
  5
463
330
9
100
AcDbSymbolTableRecord
100
AcDbRegAppTableRecord
  2
GEVID1208845802
 70
     0
  0
APPID
  5
464
330
9
100
AcDbSymbolTableRecord
100
AcDbRegAppTableRecord
  2
GENIUS_GENOBJ-N-DIM_13
 70
     0
  0
APPID
  5
465
330
9
100
AcDbSymbolTableRecord
100
AcDbRegAppTableRecord
  2
GENIUS_GENDIM_13
 70
     0
  0
APPID
  5
466
330
9
100
AcDbSymbolTableRecord
100
AcDbRegAppTableRecord
  2
GENIUS_GENDIMSH_14
 70
     0
  0
APPID
  5
467
330
9
100
AcDbSymbolTableRecord
100
AcDbRegAppTableRecord
  2
GEVID1208845803
 70
     0
  0
APPID
  5
468
330
9
100
AcDbSymbolTableRecord
100
AcDbRegAppTableRecord
  2
GEVID1208845804
 70
     0
  0
APPID
  5
469
330
9
100
AcDbSymbolTableRecord
100
AcDbRegAppTableRecord
  2
GEVID1208845805
 70
     0
  0
APPID
  5
46A
330
9
100
AcDbSymbolTableRecord
100
AcDbRegAppTableRecord
  2
GEVID1208845806
 70
     0
  0
APPID
  5
46B
330
9
100
AcDbSymbolTableRecord
100
AcDbRegAppTableRecord
  2
GEVID1208845807
 70
     0
  0
APPID
  5
46C
330
9
100
AcDbSymbolTableRecord
100
AcDbRegAppTableRecord
  2
GEVID1208845808
 70
     0
  0
APPID
  5
46D
330
9
100
AcDbSymbolTableRecord
100
AcDbRegAppTableRecord
  2
GEVID1208845809
 70
     0
  0
APPID
  5
46E
330
9
100
AcDbSymbolTableRecord
100
AcDbRegAppTableRecord
  2
GEVID1208845810
 70
     0
  0
APPID
  5
46F
330
9
100
AcDbSymbolTableRecord
100
AcDbRegAppTableRecord
  2
GEVID1208845811
 70
     0
  0
APPID
  5
470
330
9
100
AcDbSymbolTableRecord
100
AcDbRegAppTableRecord
  2
GEVID1208845813
 70
     0
  0
APPID
  5
471
330
9
100
AcDbSymbolTableRecord
100
AcDbRegAppTableRecord
  2
GEVID1208845814
 70
     0
  0
APPID
  5
472
330
9
100
AcDbSymbolTableRecord
100
AcDbRegAppTableRecord
  2
GEVID1208845815
 70
     0
  0
APPID
  5
473
330
9
100
AcDbSymbolTableRecord
100
AcDbRegAppTableRecord
  2
GEVID1208845816
 70
     0
  0
APPID
  5
474
330
9
100
AcDbSymbolTableRecord
100
AcDbRegAppTableRecord
  2
GEVID1208845817
 70
     0
  0
APPID
  5
475
330
9
100
AcDbSymbolTableRecord
100
AcDbRegAppTableRecord
  2
GEVID1208845818
 70
     0
  0
APPID
  5
476
330
9
100
AcDbSymbolTableRecord
100
AcDbRegAppTableRecord
  2
GEVID1208845819
 70
     0
  0
APPID
  5
477
330
9
100
AcDbSymbolTableRecord
100
AcDbRegAppTableRecord
  2
GEVID1208845820
 70
     0
  0
APPID
  5
478
330
9
100
AcDbSymbolTableRecord
100
AcDbRegAppTableRecord
  2
GENIUS_GENOBJ-F-SHCL_13
 70
     0
  0
APPID
  5
479
330
9
100
AcDbSymbolTableRecord
100
AcDbRegAppTableRecord
  2
GENIUS_GEFMSH_13
 70
     0
  0
APPID
  5
47A
330
9
100
AcDbSymbolTableRecord
100
AcDbRegAppTableRecord
  2
GENIUS_GENOBJ-F-SHCA_13
 70
     0
  0
APPID
  5
47B
330
9
100
AcDbSymbolTableRecord
100
AcDbRegAppTableRecord
  2
GENIUS_GEFSH_13
 70
     0
  0
APPID
  5
47C
330
9
100
AcDbSymbolTableRecord
100
AcDbRegAppTableRecord
  2
GENIUS_GEFSHP_13
 70
     0
  0
APPID
  5
47D
330
9
100
AcDbSymbolTableRecord
100
AcDbRegAppTableRecord
  2
GENIUS_GEFSHP0_13
 70
     0
  0
APPID
  5
47E
330
9
100
AcDbSymbolTableRecord
100
AcDbRegAppTableRecord
  2
GENIUS_GEFSH0_13
 70
     0
  0
APPID
  5
47F
330
9
100
AcDbSymbolTableRecord
100
AcDbRegAppTableRecord
  2
GENIUS_GEFSHP1_13
 70
     0
  0
APPID
  5
480
330
9
100
AcDbSymbolTableRecord
100
AcDbRegAppTableRecord
  2
GENIUS_GEFSH1_13
 70
     0
  0
APPID
  5
481
330
9
100
AcDbSymbolTableRecord
100
AcDbRegAppTableRecord
  2
GEVID1208866337
 70
     0
  0
APPID
  5
482
330
9
100
AcDbSymbolTableRecord
100
AcDbRegAppTableRecord
  2
GEVID1208866338
 70
     0
  0
APPID
  5
483
330
9
100
AcDbSymbolTableRecord
100
AcDbRegAppTableRecord
  2
GEVID1208866339
 70
     0
  0
APPID
  5
484
330
9
100
AcDbSymbolTableRecord
100
AcDbRegAppTableRecord
  2
GEVID1208866340
 70
     0
  0
APPID
  5
485
330
9
100
AcDbSymbolTableRecord
100
AcDbRegAppTableRecord
  2
GEVID1208866341
 70
     0
  0
APPID
  5
486
330
9
100
AcDbSymbolTableRecord
100
AcDbRegAppTableRecord
  2
ACAD_PSEXT
 70
     0
  0
APPID
  5
487
330
9
100
AcDbSymbolTableRecord
100
AcDbRegAppTableRecord
  2
GEVID1208866342
 70
     0
  0
APPID
  5
488
330
9
100
AcDbSymbolTableRecord
100
AcDbRegAppTableRecord
  2
GEVID1208913836
 70
     0
  0
APPID
  5
489
330
9
100
AcDbSymbolTableRecord
100
AcDbRegAppTableRecord
  2
GEVID1208913837
 70
     0
  0
APPID
  5
48A
330
9
100
AcDbSymbolTableRecord
100
AcDbRegAppTableRecord
  2
GEVID1208913838
 70
     0
  0
APPID
  5
48B
330
9
100
AcDbSymbolTableRecord
100
AcDbRegAppTableRecord
  2
GEVID1208913839
 70
     0
  0
APPID
  5
48C
330
9
100
AcDbSymbolTableRecord
100
AcDbRegAppTableRecord
  2
GENIUS_GENDTOL_13
 70
     0
  0
APPID
  5
48D
330
9
100
AcDbSymbolTableRecord
100
AcDbRegAppTableRecord
  2
GEVID1208928889
 70
     0
  0
APPID
  5
48E
330
9
100
AcDbSymbolTableRecord
100
AcDbRegAppTableRecord
  2
GEVID1208928890
 70
     0
  0
APPID
  5
48F
330
9
100
AcDbSymbolTableRecord
100
AcDbRegAppTableRecord
  2
GEVID1208928891
 70
     0
  0
APPID
  5
490
330
9
100
AcDbSymbolTableRecord
100
AcDbRegAppTableRecord
  2
GEVID1208928892
 70
     0
  0
APPID
  5
491
330
9
100
AcDbSymbolTableRecord
100
AcDbRegAppTableRecord
  2
GEVID1208933827
 70
     0
  0
APPID
  5
492
330
9
100
AcDbSymbolTableRecord
100
AcDbRegAppTableRecord
  2
GEVID1208933829
 70
     0
  0
APPID
  5
493
330
9
100
AcDbSymbolTableRecord
100
AcDbRegAppTableRecord
  2
GEVID1208933830
 70
     0
  0
APPID
  5
494
330
9
100
AcDbSymbolTableRecord
100
AcDbRegAppTableRecord
  2
GEVID1208933831
 70
     0
  0
APPID
  5
495
330
9
100
AcDbSymbolTableRecord
100
AcDbRegAppTableRecord
  2
GEVID1208933832
 70
     0
  0
APPID
  5
496
330
9
100
AcDbSymbolTableRecord
100
AcDbRegAppTableRecord
  2
GEVID1208933833
 70
     0
  0
APPID
  5
497
330
9
100
AcDbSymbolTableRecord
100
AcDbRegAppTableRecord
  2
GEVID1208933834
 70
     0
  0
APPID
  5
498
330
9
100
AcDbSymbolTableRecord
100
AcDbRegAppTableRecord
  2
GEVID1208933835
 70
     0
  0
APPID
  5
499
330
9
100
AcDbSymbolTableRecord
100
AcDbRegAppTableRecord
  2
GEVID1208933836
 70
     0
  0
APPID
  5
49A
330
9
100
AcDbSymbolTableRecord
100
AcDbRegAppTableRecord
  2
GEVID1208933837
 70
     0
  0
APPID
  5
49B
330
9
100
AcDbSymbolTableRecord
100
AcDbRegAppTableRecord
  2
GEVID1208933838
 70
     0
  0
APPID
  5
49C
330
9
100
AcDbSymbolTableRecord
100
AcDbRegAppTableRecord
  2
GEVID1208933840
 70
     0
  0
APPID
  5
49D
330
9
100
AcDbSymbolTableRecord
100
AcDbRegAppTableRecord
  2
GEVID1208933842
 70
     0
  0
APPID
  5
49E
330
9
100
AcDbSymbolTableRecord
100
AcDbRegAppTableRecord
  2
GEVID1208933843
 70
     0
  0
APPID
  5
49F
330
9
100
AcDbSymbolTableRecord
100
AcDbRegAppTableRecord
  2
GEVID1208933844
 70
     0
  0
APPID
  5
4A0
330
9
100
AcDbSymbolTableRecord
100
AcDbRegAppTableRecord
  2
GEVID1208933845
 70
     0
  0
APPID
  5
4A1
330
9
100
AcDbSymbolTableRecord
100
AcDbRegAppTableRecord
  2
GEVID1208933846
 70
     0
  0
APPID
  5
4A2
330
9
100
AcDbSymbolTableRecord
100
AcDbRegAppTableRecord
  2
GEVID1208933847
 70
     0
  0
APPID
  5
4A3
330
9
100
AcDbSymbolTableRecord
100
AcDbRegAppTableRecord
  2
GEVID1208933848
 70
     0
  0
APPID
  5
4A4
330
9
100
AcDbSymbolTableRecord
100
AcDbRegAppTableRecord
  2
GEVID1208933849
 70
     0
  0
APPID
  5
4A5
330
9
100
AcDbSymbolTableRecord
100
AcDbRegAppTableRecord
  2
GEVID1208933850
 70
     0
  0
APPID
  5
4A6
330
9
100
AcDbSymbolTableRecord
100
AcDbRegAppTableRecord
  2
GEVID1208933851
 70
     0
  0
APPID
  5
4A7
330
9
100
AcDbSymbolTableRecord
100
AcDbRegAppTableRecord
  2
GEVID1208933852
 70
     0
  0
APPID
  5
4A8
330
9
100
AcDbSymbolTableRecord
100
AcDbRegAppTableRecord
  2
GEVID1208933853
 70
     0
  0
APPID
  5
4A9
330
9
100
AcDbSymbolTableRecord
100
AcDbRegAppTableRecord
  2
GEVID1208933854
 70
     0
  0
APPID
  5
4AA
330
9
100
AcDbSymbolTableRecord
100
AcDbRegAppTableRecord
  2
GEVID1208933855
 70
     0
  0
APPID
  5
4AB
330
9
100
AcDbSymbolTableRecord
100
AcDbRegAppTableRecord
  2
GEVID1208933856
 70
     0
  0
APPID
  5
4AC
330
9
100
AcDbSymbolTableRecord
100
AcDbRegAppTableRecord
  2
GEVID1208933857
 70
     0
  0
APPID
  5
4AD
330
9
100
AcDbSymbolTableRecord
100
AcDbRegAppTableRecord
  2
GEVID1208933858
 70
     0
  0
APPID
  5
4AE
330
9
100
AcDbSymbolTableRecord
100
AcDbRegAppTableRecord
  2
GEVID1208933859
 70
     0
  0
APPID
  5
4AF
330
9
100
AcDbSymbolTableRecord
100
AcDbRegAppTableRecord
  2
GEVID1208933860
 70
     0
  0
APPID
  5
4B0
330
9
100
AcDbSymbolTableRecord
100
AcDbRegAppTableRecord
  2
GEVID1208933861
 70
     0
  0
APPID
  5
4B1
330
9
100
AcDbSymbolTableRecord
100
AcDbRegAppTableRecord
  2
GEVID1208933862
 70
     0
  0
APPID
  5
4B2
330
9
100
AcDbSymbolTableRecord
100
AcDbRegAppTableRecord
  2
GEVID1208933863
 70
     0
  0
APPID
  5
4B3
330
9
100
AcDbSymbolTableRecord
100
AcDbRegAppTableRecord
  2
GEVID1208933864
 70
     0
  0
APPID
  5
4B4
330
9
100
AcDbSymbolTableRecord
100
AcDbRegAppTableRecord
  2
GEVID1208933865
 70
     0
  0
APPID
  5
4B5
330
9
100
AcDbSymbolTableRecord
100
AcDbRegAppTableRecord
  2
GEVID1208933866
 70
     0
  0
APPID
  5
4B6
330
9
100
AcDbSymbolTableRecord
100
AcDbRegAppTableRecord
  2
GEVID1208933867
 70
     0
  0
APPID
  5
4B7
330
9
100
AcDbSymbolTableRecord
100
AcDbRegAppTableRecord
  2
GEVID1208933868
 70
     0
  0
APPID
  5
4B8
330
9
100
AcDbSymbolTableRecord
100
AcDbRegAppTableRecord
  2
GEVID1208933869
 70
     0
  0
APPID
  5
4B9
330
9
100
AcDbSymbolTableRecord
100
AcDbRegAppTableRecord
  2
GEVID1208933870
 70
     0
  0
APPID
  5
4BA
330
9
100
AcDbSymbolTableRecord
100
AcDbRegAppTableRecord
  2
GEVID1208933871
 70
     0
  0
APPID
  5
4BB
330
9
100
AcDbSymbolTableRecord
100
AcDbRegAppTableRecord
  2
GEVID1208933872
 70
     0
  0
APPID
  5
4BC
330
9
100
AcDbSymbolTableRecord
100
AcDbRegAppTableRecord
  2
GEVID1208933873
 70
     0
  0
APPID
  5
4BD
330
9
100
AcDbSymbolTableRecord
100
AcDbRegAppTableRecord
  2
GEVID1208933874
 70
     0
  0
APPID
  5
4BE
330
9
100
AcDbSymbolTableRecord
100
AcDbRegAppTableRecord
  2
GEVID1208933875
 70
     0
  0
APPID
  5
4BF
330
9
100
AcDbSymbolTableRecord
100
AcDbRegAppTableRecord
  2
GEVID1208933876
 70
     0
  0
APPID
  5
4C0
330
9
100
AcDbSymbolTableRecord
100
AcDbRegAppTableRecord
  2
ACAD_DSTYLE_DIMRADIAL_EXTENSION
 70
     0
  0
APPID
  5
4C1
330
9
100
AcDbSymbolTableRecord
100
AcDbRegAppTableRecord
  2
GEVID1208999100
 70
     0
  0
APPID
  5
4C2
330
9
100
AcDbSymbolTableRecord
100
AcDbRegAppTableRecord
  2
GEVID1208999101
 70
     0
  0
APPID
  5
4C3
330
9
100
AcDbSymbolTableRecord
100
AcDbRegAppTableRecord
  2
GEVID1208999102
 70
     0
  0
APPID
  5
4C4
330
9
100
AcDbSymbolTableRecord
100
AcDbRegAppTableRecord
  2
GEVID1208999103
 70
     0
  0
APPID
  5
4C5
330
9
100
AcDbSymbolTableRecord
100
AcDbRegAppTableRecord
  2
GEVID1208999105
 70
     0
  0
APPID
  5
4C6
330
9
100
AcDbSymbolTableRecord
100
AcDbRegAppTableRecord
  2
GEVID1208999106
 70
     0
  0
APPID
  5
4C7
330
9
100
AcDbSymbolTableRecord
100
AcDbRegAppTableRecord
  2
GEVID1208999108
 70
     0
  0
APPID
  5
4C8
330
9
100
AcDbSymbolTableRecord
100
AcDbRegAppTableRecord
  2
GEVID1208999109
 70
     0
  0
APPID
  5
4C9
330
9
100
AcDbSymbolTableRecord
100
AcDbRegAppTableRecord
  2
GEVID1208999110
 70
     0
  0
APPID
  5
4CA
330
9
100
AcDbSymbolTableRecord
100
AcDbRegAppTableRecord
  2
GEVID1208999111
 70
     0
  0
APPID
  5
4CB
330
9
100
AcDbSymbolTableRecord
100
AcDbRegAppTableRecord
  2
GEVID1208999112
 70
     0
  0
APPID
  5
4CC
330
9
100
AcDbSymbolTableRecord
100
AcDbRegAppTableRecord
  2
GEVID1208999113
 70
     0
  0
APPID
  5
4CD
330
9
100
AcDbSymbolTableRecord
100
AcDbRegAppTableRecord
  2
GEVID1208999114
 70
     0
  0
APPID
  5
4CE
330
9
100
AcDbSymbolTableRecord
100
AcDbRegAppTableRecord
  2
GEVID1210218799
 70
     0
  0
APPID
  5
4CF
330
9
100
AcDbSymbolTableRecord
100
AcDbRegAppTableRecord
  2
GEVID1210218800
 70
     0
  0
APPID
  5
4D0
330
9
100
AcDbSymbolTableRecord
100
AcDbRegAppTableRecord
  2
GENIUS_GEFWELD_13
 70
     0
  0
APPID
  5
4D1
330
9
100
AcDbSymbolTableRecord
100
AcDbRegAppTableRecord
  2
GENIUS_GENOBJ-F-WELS_13
 70
     0
  0
APPID
  5
4D2
330
9
100
AcDbSymbolTableRecord
100
AcDbRegAppTableRecord
  2
AcadAnnotative
 70
     0
  0
APPID
  5
4D3
330
9
100
AcDbSymbolTableRecord
100
AcDbRegAppTableRecord
  2
GEVID1210145339
 70
     0
  0
APPID
  5
4D4
330
9
100
AcDbSymbolTableRecord
100
AcDbRegAppTableRecord
  2
ACAD_DSTYLE_DIMBREAK
 70
     0
  0
APPID
  5
4D5
330
9
100
AcDbSymbolTableRecord
100
AcDbRegAppTableRecord
  2
GEVID1210145340
 70
     0
  0
APPID
  5
4D6
330
9
100
AcDbSymbolTableRecord
100
AcDbRegAppTableRecord
  2
GEVID1210145341
 70
     0
  0
APPID
  5
4D7
330
9
100
AcDbSymbolTableRecord
100
AcDbRegAppTableRecord
  2
GEVID1210145342
 70
     0
  0
APPID
  5
4D8
330
9
100
AcDbSymbolTableRecord
100
AcDbRegAppTableRecord
  2
GEVID1210145343
 70
     0
  0
APPID
  5
4D9
330
9
100
AcDbSymbolTableRecord
100
AcDbRegAppTableRecord
  2
GEVID1210145344
 70
     0
  0
APPID
  5
4DA
330
9
100
AcDbSymbolTableRecord
100
AcDbRegAppTableRecord
  2
GEVID1210145345
 70
     0
  0
APPID
  5
4DB
330
9
100
AcDbSymbolTableRecord
100
AcDbRegAppTableRecord
  2
GEVID1210152816
 70
     0
  0
APPID
  5
4DC
330
9
100
AcDbSymbolTableRecord
100
AcDbRegAppTableRecord
  2
GEVID1210153850
 70
     0
  0
APPID
  5
4DD
330
9
100
AcDbSymbolTableRecord
100
AcDbRegAppTableRecord
  2
GEVID1210153851
 70
     0
  0
APPID
  5
4DE
330
9
100
AcDbSymbolTableRecord
100
AcDbRegAppTableRecord
  2
GEVID1210153852
 70
     0
  0
APPID
  5
4DF
330
9
100
AcDbSymbolTableRecord
100
AcDbRegAppTableRecord
  2
GEVID1210549898
 70
     0
  0
APPID
  5
4E0
330
9
100
AcDbSymbolTableRecord
100
AcDbRegAppTableRecord
  2
GEVID1210549899
 70
     0
  0
APPID
  5
4E1
330
9
100
AcDbSymbolTableRecord
100
AcDbRegAppTableRecord
  2
GEVID1210549900
 70
     0
  0
APPID
  5
4E2
330
9
100
AcDbSymbolTableRecord
100
AcDbRegAppTableRecord
  2
GEVID1210549901
 70
     0
  0
APPID
  5
4E3
330
9
100
AcDbSymbolTableRecord
100
AcDbRegAppTableRecord
  2
GEVID1210549902
 70
     0
  0
APPID
  5
4E4
330
9
100
AcDbSymbolTableRecord
100
AcDbRegAppTableRecord
  2
GEVID1210549903
 70
     0
  0
APPID
  5
4E5
330
9
100
AcDbSymbolTableRecord
100
AcDbRegAppTableRecord
  2
GEVID1210549904
 70
     0
  0
APPID
  5
4E6
330
9
100
AcDbSymbolTableRecord
100
AcDbRegAppTableRecord
  2
GEVID1210549905
 70
     0
  0
APPID
  5
4E7
330
9
100
AcDbSymbolTableRecord
100
AcDbRegAppTableRecord
  2
GEVID1210549906
 70
     0
  0
APPID
  5
4E8
330
9
100
AcDbSymbolTableRecord
100
AcDbRegAppTableRecord
  2
GEVID1210549907
 70
     0
  0
APPID
  5
4E9
330
9
100
AcDbSymbolTableRecord
100
AcDbRegAppTableRecord
  2
GEVID1210549908
 70
     0
  0
APPID
  5
4EA
330
9
100
AcDbSymbolTableRecord
100
AcDbRegAppTableRecord
  2
GEVID1210549909
 70
     0
  0
APPID
  5
4EB
330
9
100
AcDbSymbolTableRecord
100
AcDbRegAppTableRecord
  2
GEVID1210549910
 70
     0
  0
APPID
  5
4EC
330
9
100
AcDbSymbolTableRecord
100
AcDbRegAppTableRecord
  2
GEVID1210549911
 70
     0
  0
APPID
  5
4ED
330
9
100
AcDbSymbolTableRecord
100
AcDbRegAppTableRecord
  2
GEVID1210549912
 70
     0
  0
APPID
  5
4EE
330
9
100
AcDbSymbolTableRecord
100
AcDbRegAppTableRecord
  2
GEVID1210549913
 70
     0
  0
APPID
  5
4EF
330
9
100
AcDbSymbolTableRecord
100
AcDbRegAppTableRecord
  2
GEVID1210549914
 70
     0
  0
APPID
  5
4F0
330
9
100
AcDbSymbolTableRecord
100
AcDbRegAppTableRecord
  2
GEVID1210549915
 70
     0
  0
APPID
  5
4F1
330
9
100
AcDbSymbolTableRecord
100
AcDbRegAppTableRecord
  2
GEVID1210549916
 70
     0
  0
APPID
  5
4F2
330
9
100
AcDbSymbolTableRecord
100
AcDbRegAppTableRecord
  2
GEVID1210549917
 70
     0
  0
APPID
  5
4F3
330
9
100
AcDbSymbolTableRecord
100
AcDbRegAppTableRecord
  2
GENIUS_GENOBJ-N-CRS_13
 70
     0
  0
APPID
  5
4F4
330
9
100
AcDbSymbolTableRecord
100
AcDbRegAppTableRecord
  2
GEVID1210549918
 70
     0
  0
APPID
  5
4F5
330
9
100
AcDbSymbolTableRecord
100
AcDbRegAppTableRecord
  2
GENIUS_GENOBJ-N-CRC_13
 70
     0
  0
APPID
  5
4F6
330
9
100
AcDbSymbolTableRecord
100
AcDbRegAppTableRecord
  2
GENIUS_GENCRC_14
 70
     0
  0
APPID
  5
4F7
330
9
100
AcDbSymbolTableRecord
100
AcDbRegAppTableRecord
  2
GEVID1210549919
 70
     0
  0
APPID
  5
4F8
330
9
100
AcDbSymbolTableRecord
100
AcDbRegAppTableRecord
  2
GEVID1210549921
 70
     0
  0
APPID
  5
4F9
330
9
100
AcDbSymbolTableRecord
100
AcDbRegAppTableRecord
  2
GEVID1210549922
 70
     0
  0
APPID
  5
4FA
330
9
100
AcDbSymbolTableRecord
100
AcDbRegAppTableRecord
  2
GEVID1210635173
 70
     0
  0
APPID
  5
4FB
330
9
100
AcDbSymbolTableRecord
100
AcDbRegAppTableRecord
  2
GEVID1210635174
 70
     0
  0
APPID
  5
4FC
330
9
100
AcDbSymbolTableRecord
100
AcDbRegAppTableRecord
  2
GEVID1210635175
 70
     0
  0
APPID
  5
4FD
330
9
100
AcDbSymbolTableRecord
100
AcDbRegAppTableRecord
  2
GEVID1210635176
 70
     0
  0
APPID
  5
4FE
330
9
100
AcDbSymbolTableRecord
100
AcDbRegAppTableRecord
  2
GEVID1210635177
 70
     0
  0
APPID
  5
4FF
330
9
100
AcDbSymbolTableRecord
100
AcDbRegAppTableRecord
  2
GEVID1210635178
 70
     0
  0
APPID
  5
500
330
9
100
AcDbSymbolTableRecord
100
AcDbRegAppTableRecord
  2
GENIUS_GENIUS_GENBHEDTMP_13
 70
     0
  0
APPID
  5
501
330
9
100
AcDbSymbolTableRecord
100
AcDbRegAppTableRecord
  2
GEVID1210635179
 70
     0
  0
APPID
  5
502
330
9
100
AcDbSymbolTableRecord
100
AcDbRegAppTableRecord
  2
GEVID1210635180
 70
     0
  0
APPID
  5
503
330
9
100
AcDbSymbolTableRecord
100
AcDbRegAppTableRecord
  2
GEVID1210635181
 70
     0
  0
APPID
  5
504
330
9
100
AcDbSymbolTableRecord
100
AcDbRegAppTableRecord
  2
GEVID1210635182
 70
     0
  0
APPID
  5
505
330
9
100
AcDbSymbolTableRecord
100
AcDbRegAppTableRecord
  2
GEVID1210635184
 70
     0
  0
APPID
  5
506
330
9
100
AcDbSymbolTableRecord
100
AcDbRegAppTableRecord
  2
GEVID1210635185
 70
     0
  0
APPID
  5
507
330
9
100
AcDbSymbolTableRecord
100
AcDbRegAppTableRecord
  2
GEVID1210635186
 70
     0
  0
APPID
  5
508
330
9
100
AcDbSymbolTableRecord
100
AcDbRegAppTableRecord
  2
GEVID1210635187
 70
     0
  0
APPID
  5
509
330
9
100
AcDbSymbolTableRecord
100
AcDbRegAppTableRecord
  2
GEVID1210635188
 70
     0
  0
APPID
  5
50A
330
9
100
AcDbSymbolTableRecord
100
AcDbRegAppTableRecord
  2
GEVID1210635189
 70
     0
  0
APPID
  5
50B
330
9
100
AcDbSymbolTableRecord
100
AcDbRegAppTableRecord
  2
GEVID1210635190
 70
     0
  0
APPID
  5
50C
330
9
100
AcDbSymbolTableRecord
100
AcDbRegAppTableRecord
  2
GENIUS_GENREC_14
 70
     0
  0
APPID
  5
50D
330
9
100
AcDbSymbolTableRecord
100
AcDbRegAppTableRecord
  2
GENIUS_GENOBJ-N-REC_13
 70
     0
  0
APPID
  5
50E
330
9
100
AcDbSymbolTableRecord
100
AcDbRegAppTableRecord
  2
GEVID1210676655
 70
     0
  0
APPID
  5
50F
330
9
100
AcDbSymbolTableRecord
100
AcDbRegAppTableRecord
  2
GEVID1210676656
 70
     0
  0
APPID
  5
510
330
9
100
AcDbSymbolTableRecord
100
AcDbRegAppTableRecord
  2
GEVID1210676657
 70
     0
  0
APPID
  5
511
330
9
100
AcDbSymbolTableRecord
100
AcDbRegAppTableRecord
  2
GEVID1210676659
 70
     0
  0
APPID
  5
512
330
9
100
AcDbSymbolTableRecord
100
AcDbRegAppTableRecord
  2
GEVID1210676660
 70
     0
  0
APPID
  5
513
330
9
100
AcDbSymbolTableRecord
100
AcDbRegAppTableRecord
  2
GEVID1210676661
 70
     0
  0
APPID
  5
514
330
9
100
AcDbSymbolTableRecord
100
AcDbRegAppTableRecord
  2
GEVID1210676662
 70
     0
  0
APPID
  5
515
330
9
100
AcDbSymbolTableRecord
100
AcDbRegAppTableRecord
  2
GEVID1210721646
 70
     0
  0
APPID
  5
516
330
9
100
AcDbSymbolTableRecord
100
AcDbRegAppTableRecord
  2
GEVID1210721647
 70
     0
  0
APPID
  5
517
330
9
100
AcDbSymbolTableRecord
100
AcDbRegAppTableRecord
  2
GEVID1210721648
 70
     0
  0
APPID
  5
518
330
9
100
AcDbSymbolTableRecord
100
AcDbRegAppTableRecord
  2
GEVID1210721649
 70
     0
  0
APPID
  5
519
330
9
100
AcDbSymbolTableRecord
100
AcDbRegAppTableRecord
  2
GEVID1210721650
 70
     0
  0
APPID
  5
51A
330
9
100
AcDbSymbolTableRecord
100
AcDbRegAppTableRecord
  2
GEVID1210721651
 70
     0
  0
APPID
  5
51B
330
9
100
AcDbSymbolTableRecord
100
AcDbRegAppTableRecord
  2
GEVID1210721652
 70
     0
  0
APPID
  5
51C
330
9
100
AcDbSymbolTableRecord
100
AcDbRegAppTableRecord
  2
GEVID1210721653
 70
     0
  0
APPID
  5
51D
330
9
100
AcDbSymbolTableRecord
100
AcDbRegAppTableRecord
  2
PE_URL
 70
     0
  0
APPID
  5
51E
330
9
100
AcDbSymbolTableRecord
100
AcDbRegAppTableRecord
  2
GEVID1210825555
 70
     0
  0
APPID
  5
51F
330
9
100
AcDbSymbolTableRecord
100
AcDbRegAppTableRecord
  2
GEVID1210825556
 70
     0
  0
APPID
  5
520
330
9
100
AcDbSymbolTableRecord
100
AcDbRegAppTableRecord
  2
GEVID1210825557
 70
     0
  0
APPID
  5
521
330
9
100
AcDbSymbolTableRecord
100
AcDbRegAppTableRecord
  2
GEVID1210825558
 70
     0
  0
APPID
  5
522
330
9
100
AcDbSymbolTableRecord
100
AcDbRegAppTableRecord
  2
GEVID1210825559
 70
     0
  0
APPID
  5
523
330
9
100
AcDbSymbolTableRecord
100
AcDbRegAppTableRecord
  2
GEVID1210825560
 70
     0
  0
APPID
  5
524
330
9
100
AcDbSymbolTableRecord
100
AcDbRegAppTableRecord
  2
GEVID1210825561
 70
     0
  0
APPID
  5
525
330
9
100
AcDbSymbolTableRecord
100
AcDbRegAppTableRecord
  2
GEVID1210825562
 70
     0
  0
APPID
  5
526
330
9
100
AcDbSymbolTableRecord
100
AcDbRegAppTableRecord
  2
GEVID1210825563
 70
     0
  0
APPID
  5
527
330
9
100
AcDbSymbolTableRecord
100
AcDbRegAppTableRecord
  2
GEVID1210825564
 70
     0
  0
APPID
  5
528
330
9
100
AcDbSymbolTableRecord
100
AcDbRegAppTableRecord
  2
GEVID1210825565
 70
     0
  0
APPID
  5
529
330
9
100
AcDbSymbolTableRecord
100
AcDbRegAppTableRecord
  2
GEVID1210825566
 70
     0
  0
APPID
  5
52A
330
9
100
AcDbSymbolTableRecord
100
AcDbRegAppTableRecord
  2
GEVID1210825567
 70
     0
  0
APPID
  5
52B
330
9
100
AcDbSymbolTableRecord
100
AcDbRegAppTableRecord
  2
GENIUS_GENOBJ-N-ZOO_13
 70
     0
  0
APPID
  5
52C
330
9
100
AcDbSymbolTableRecord
100
AcDbRegAppTableRecord
  2
GENIUS_GENZOO_17
 70
     0
  0
APPID
  5
52D
330
9
100
AcDbSymbolTableRecord
100
AcDbRegAppTableRecord
  2
ACADANNOTATIVEDECOMPOSITION
 70
     0
  0
APPID
  5
52E
330
9
100
AcDbSymbolTableRecord
100
AcDbRegAppTableRecord
  2
GENIUS_GENOBJ-N-HTC_13
 70
     0
  0
APPID
  5
52F
330
9
100
AcDbSymbolTableRecord
100
AcDbRegAppTableRecord
  2
GENIUS_GENHATCH_13
 70
     0
  0
APPID
  5
530
330
9
100
AcDbSymbolTableRecord
100
AcDbRegAppTableRecord
  2
GEVID1210896020
 70
     0
  0
APPID
  5
531
330
9
100
AcDbSymbolTableRecord
100
AcDbRegAppTableRecord
  2
GEVID1210896021
 70
     0
  0
APPID
  5
532
330
9
100
AcDbSymbolTableRecord
100
AcDbRegAppTableRecord
  2
GEVID1209083540
 70
     0
  0
APPID
  5
533
330
9
100
AcDbSymbolTableRecord
100
AcDbRegAppTableRecord
  2
GEVMK
 70
     0
  0
APPID
  5
534
330
9
100
AcDbSymbolTableRecord
100
AcDbRegAppTableRecord
  2
GEVID1209083542
 70
     0
  0
APPID
  5
535
330
9
100
AcDbSymbolTableRecord
100
AcDbRegAppTableRecord
  2
GEVID1209083543
 70
     0
  0
APPID
  5
536
330
9
100
AcDbSymbolTableRecord
100
AcDbRegAppTableRecord
  2
GEVID1209083544
 70
     0
  0
APPID
  5
537
330
9
100
AcDbSymbolTableRecord
100
AcDbRegAppTableRecord
  2
GEVID1209083545
 70
     0
  0
APPID
  5
538
330
9
100
AcDbSymbolTableRecord
100
AcDbRegAppTableRecord
  2
GEVID1209083546
 70
     0
  0
APPID
  5
539
330
9
100
AcDbSymbolTableRecord
100
AcDbRegAppTableRecord
  2
GEVID1209083547
 70
     0
  0
APPID
  5
53A
330
9
100
AcDbSymbolTableRecord
100
AcDbRegAppTableRecord
  2
GEVID1209083548
 70
     0
  0
APPID
  5
53B
330
9
100
AcDbSymbolTableRecord
100
AcDbRegAppTableRecord
  2
GEVID1209083549
 70
     0
  0
APPID
  5
53C
330
9
100
AcDbSymbolTableRecord
100
AcDbRegAppTableRecord
  2
GEVID1209083550
 70
     0
  0
APPID
  5
53D
330
9
100
AcDbSymbolTableRecord
100
AcDbRegAppTableRecord
  2
GEVID1209083551
 70
     0
  0
APPID
  5
53E
330
9
100
AcDbSymbolTableRecord
100
AcDbRegAppTableRecord
  2
GEVID1209083552
 70
     0
  0
APPID
  5
53F
330
9
100
AcDbSymbolTableRecord
100
AcDbRegAppTableRecord
  2
GEVID1209083553
 70
     0
  0
APPID
  5
540
330
9
100
AcDbSymbolTableRecord
100
AcDbRegAppTableRecord
  2
GEVID1210896022
 70
     0
  0
APPID
  5
541
330
9
100
AcDbSymbolTableRecord
100
AcDbRegAppTableRecord
  2
GEVID1211508364
 70
     0
  0
APPID
  5
542
330
9
100
AcDbSymbolTableRecord
100
AcDbRegAppTableRecord
  2
GEVID1211414908
 70
     0
  0
APPID
  5
543
330
9
100
AcDbSymbolTableRecord
100
AcDbRegAppTableRecord
  2
GEVID1211414909
 70
     0
  0
APPID
  5
544
330
9
100
AcDbSymbolTableRecord
100
AcDbRegAppTableRecord
  2
GEVID1211508359
 70
     0
  0
APPID
  5
545
330
9
100
AcDbSymbolTableRecord
100
AcDbRegAppTableRecord
  2
GEVID1211508360
 70
     0
  0
APPID
  5
546
330
9
100
AcDbSymbolTableRecord
100
AcDbRegAppTableRecord
  2
GEVID1211508361
 70
     0
  0
APPID
  5
547
330
9
100
AcDbSymbolTableRecord
100
AcDbRegAppTableRecord
  2
GEVID1211508362
 70
     0
  0
APPID
  5
548
330
9
100
AcDbSymbolTableRecord
100
AcDbRegAppTableRecord
  2
GEVID1211508363
 70
     0
  0
APPID
  5
549
330
9
100
AcDbSymbolTableRecord
100
AcDbRegAppTableRecord
  2
GEVID1211878469
 70
     0
  0
APPID
  5
54A
330
9
100
AcDbSymbolTableRecord
100
AcDbRegAppTableRecord
  2
GEVID1212642819
 70
     0
  0
APPID
  5
54B
330
9
100
AcDbSymbolTableRecord
100
AcDbRegAppTableRecord
  2
GEVID1212642820
 70
     0
  0
APPID
  5
54C
330
9
100
AcDbSymbolTableRecord
100
AcDbRegAppTableRecord
  2
GEVID1212642821
 70
     0
  0
APPID
  5
54D
330
9
100
AcDbSymbolTableRecord
100
AcDbRegAppTableRecord
  2
GEVID1212642822
 70
     0
  0
APPID
  5
54E
330
9
100
AcDbSymbolTableRecord
100
AcDbRegAppTableRecord
  2
GEVID1212642823
 70
     0
  0
APPID
  5
54F
330
9
100
AcDbSymbolTableRecord
100
AcDbRegAppTableRecord
  2
GEVID1212642825
 70
     0
  0
APPID
  5
550
330
9
100
AcDbSymbolTableRecord
100
AcDbRegAppTableRecord
  2
GEVID1212642826
 70
     0
  0
APPID
  5
551
330
9
100
AcDbSymbolTableRecord
100
AcDbRegAppTableRecord
  2
GEVID1212642827
 70
     0
  0
APPID
  5
552
330
9
100
AcDbSymbolTableRecord
100
AcDbRegAppTableRecord
  2
GEVID1212642828
 70
     0
  0
APPID
  5
553
330
9
100
AcDbSymbolTableRecord
100
AcDbRegAppTableRecord
  2
GEVID1212642831
 70
     0
  0
APPID
  5
554
330
9
100
AcDbSymbolTableRecord
100
AcDbRegAppTableRecord
  2
GEVID1212642834
 70
     0
  0
APPID
  5
555
330
9
100
AcDbSymbolTableRecord
100
AcDbRegAppTableRecord
  2
GEVID1212642835
 70
     0
  0
APPID
  5
556
330
9
100
AcDbSymbolTableRecord
100
AcDbRegAppTableRecord
  2
GEVID1212642836
 70
     0
  0
APPID
  5
557
330
9
100
AcDbSymbolTableRecord
100
AcDbRegAppTableRecord
  2
GEVID1212642837
 70
     0
  0
APPID
  5
558
330
9
100
AcDbSymbolTableRecord
100
AcDbRegAppTableRecord
  2
GEVID1212642839
 70
     0
  0
APPID
  5
559
330
9
100
AcDbSymbolTableRecord
100
AcDbRegAppTableRecord
  2
GEVID1212642840
 70
     0
  0
APPID
  5
55A
330
9
100
AcDbSymbolTableRecord
100
AcDbRegAppTableRecord
  2
GEVID1212642841
 70
     0
  0
APPID
  5
55B
330
9
100
AcDbSymbolTableRecord
100
AcDbRegAppTableRecord
  2
GEVID1212655312
 70
     0
  0
APPID
  5
55C
330
9
100
AcDbSymbolTableRecord
100
AcDbRegAppTableRecord
  2
GEVID1212655313
 70
     0
  0
APPID
  5
55D
330
9
100
AcDbSymbolTableRecord
100
AcDbRegAppTableRecord
  2
GEVID1212656533
 70
     0
  0
APPID
  5
55E
330
9
100
AcDbSymbolTableRecord
100
AcDbRegAppTableRecord
  2
GEVID1212656534
 70
     0
  0
APPID
  5
55F
330
9
100
AcDbSymbolTableRecord
100
AcDbRegAppTableRecord
  2
GEVID1212656535
 70
     0
  0
APPID
  5
560
330
9
100
AcDbSymbolTableRecord
100
AcDbRegAppTableRecord
  2
GEVID1212656536
 70
     0
  0
APPID
  5
561
330
9
100
AcDbSymbolTableRecord
100
AcDbRegAppTableRecord
  2
GEVID1212656538
 70
     0
  0
APPID
  5
562
330
9
100
AcDbSymbolTableRecord
100
AcDbRegAppTableRecord
  2
GEVID1212656541
 70
     0
  0
APPID
  5
563
330
9
100
AcDbSymbolTableRecord
100
AcDbRegAppTableRecord
  2
GEVID1212656543
 70
     0
  0
APPID
  5
564
330
9
100
AcDbSymbolTableRecord
100
AcDbRegAppTableRecord
  2
GENIUS_GENOBJ-F-PFASSM_13
 70
     0
  0
APPID
  5
565
330
9
100
AcDbSymbolTableRecord
100
AcDbRegAppTableRecord
  2
GEVID1212656544
 70
     0
  0
APPID
  5
566
330
9
100
AcDbSymbolTableRecord
100
AcDbRegAppTableRecord
  2
GEVID1212656545
 70
     0
  0
APPID
  5
567
330
9
100
AcDbSymbolTableRecord
100
AcDbRegAppTableRecord
  2
GEVID1212656546
 70
     0
  0
APPID
  5
568
330
9
100
AcDbSymbolTableRecord
100
AcDbRegAppTableRecord
  2
GEVID1212656547
 70
     0
  0
APPID
  5
569
330
9
100
AcDbSymbolTableRecord
100
AcDbRegAppTableRecord
  2
GEVID1212656548
 70
     0
  0
APPID
  5
56A
330
9
100
AcDbSymbolTableRecord
100
AcDbRegAppTableRecord
  2
GEVID1212656549
 70
     0
  0
APPID
  5
56B
330
9
100
AcDbSymbolTableRecord
100
AcDbRegAppTableRecord
  2
GEVID1212656550
 70
     0
  0
APPID
  5
56C
330
9
100
AcDbSymbolTableRecord
100
AcDbRegAppTableRecord
  2
GEVID1212656552
 70
     0
  0
APPID
  5
56D
330
9
100
AcDbSymbolTableRecord
100
AcDbRegAppTableRecord
  2
GEVID1212656553
 70
     0
  0
APPID
  5
56E
330
9
100
AcDbSymbolTableRecord
100
AcDbRegAppTableRecord
  2
GEVID1212656554
 70
     0
  0
APPID
  5
56F
330
9
100
AcDbSymbolTableRecord
100
AcDbRegAppTableRecord
  2
GEVID1212656555
 70
     0
  0
APPID
  5
570
330
9
100
AcDbSymbolTableRecord
100
AcDbRegAppTableRecord
  2
GEVID1212656556
 70
     0
  0
APPID
  5
571
330
9
100
AcDbSymbolTableRecord
100
AcDbRegAppTableRecord
  2
GEVID1212656557
 70
     0
  0
APPID
  5
572
330
9
100
AcDbSymbolTableRecord
100
AcDbRegAppTableRecord
  2
GEVID1212656559
 70
     0
  0
APPID
  5
573
330
9
100
AcDbSymbolTableRecord
100
AcDbRegAppTableRecord
  2
GEVID1212656560
 70
     0
  0
APPID
  5
574
330
9
100
AcDbSymbolTableRecord
100
AcDbRegAppTableRecord
  2
GEVID1212656561
 70
     0
  0
APPID
  5
575
330
9
100
AcDbSymbolTableRecord
100
AcDbRegAppTableRecord
  2
GEVID1212656562
 70
     0
  0
APPID
  5
576
330
9
100
AcDbSymbolTableRecord
100
AcDbRegAppTableRecord
  2
GEVID1212656563
 70
     0
  0
APPID
  5
577
330
9
100
AcDbSymbolTableRecord
100
AcDbRegAppTableRecord
  2
GEVID1212711781
 70
     0
  0
APPID
  5
578
330
9
100
AcDbSymbolTableRecord
100
AcDbRegAppTableRecord
  2
GEVID1212711782
 70
     0
  0
APPID
  5
579
330
9
100
AcDbSymbolTableRecord
100
AcDbRegAppTableRecord
  2
GEVID1212711783
 70
     0
  0
APPID
  5
57A
330
9
100
AcDbSymbolTableRecord
100
AcDbRegAppTableRecord
  2
GEVID1212711784
 70
     0
  0
APPID
  5
57B
330
9
100
AcDbSymbolTableRecord
100
AcDbRegAppTableRecord
  2
GEVID1212711788
 70
     0
  0
APPID
  5
57C
330
9
100
AcDbSymbolTableRecord
100
AcDbRegAppTableRecord
  2
GEVID1212711789
 70
     0
  0
APPID
  5
57D
330
9
100
AcDbSymbolTableRecord
100
AcDbRegAppTableRecord
  2
GEVID1212711790
 70
     0
  0
APPID
  5
57E
330
9
100
AcDbSymbolTableRecord
100
AcDbRegAppTableRecord
  2
GEVID1212711791
 70
     0
  0
APPID
  5
57F
330
9
100
AcDbSymbolTableRecord
100
AcDbRegAppTableRecord
  2
GEVID1212711792
 70
     0
  0
APPID
  5
580
330
9
100
AcDbSymbolTableRecord
100
AcDbRegAppTableRecord
  2
GEVID1212711793
 70
     0
  0
APPID
  5
581
330
9
100
AcDbSymbolTableRecord
100
AcDbRegAppTableRecord
  2
GEVID1212711794
 70
     0
  0
APPID
  5
582
330
9
100
AcDbSymbolTableRecord
100
AcDbRegAppTableRecord
  2
GEVID1212711795
 70
     0
  0
APPID
  5
583
330
9
100
AcDbSymbolTableRecord
100
AcDbRegAppTableRecord
  2
GEVID1212711797
 70
     0
  0
APPID
  5
584
330
9
100
AcDbSymbolTableRecord
100
AcDbRegAppTableRecord
  2
GEVID1212711798
 70
     0
  0
APPID
  5
585
330
9
100
AcDbSymbolTableRecord
100
AcDbRegAppTableRecord
  2
GEVID1212711799
 70
     0
  0
APPID
  5
586
330
9
100
AcDbSymbolTableRecord
100
AcDbRegAppTableRecord
  2
GEVID1212711800
 70
     0
  0
APPID
  5
587
330
9
100
AcDbSymbolTableRecord
100
AcDbRegAppTableRecord
  2
GEVID1212711801
 70
     0
  0
APPID
  5
588
330
9
100
AcDbSymbolTableRecord
100
AcDbRegAppTableRecord
  2
GEVID1212711802
 70
     0
  0
APPID
  5
589
330
9
100
AcDbSymbolTableRecord
100
AcDbRegAppTableRecord
  2
GEVID1212711803
 70
     0
  0
APPID
  5
58A
330
9
100
AcDbSymbolTableRecord
100
AcDbRegAppTableRecord
  2
GEVID1212711804
 70
     0
  0
APPID
  5
58B
330
9
100
AcDbSymbolTableRecord
100
AcDbRegAppTableRecord
  2
GEVID1212711805
 70
     0
  0
APPID
  5
58C
330
9
100
AcDbSymbolTableRecord
100
AcDbRegAppTableRecord
  2
GEVID1212711806
 70
     0
  0
APPID
  5
58D
330
9
100
AcDbSymbolTableRecord
100
AcDbRegAppTableRecord
  2
GEVID1212711807
 70
     0
  0
APPID
  5
58E
330
9
100
AcDbSymbolTableRecord
100
AcDbRegAppTableRecord
  2
GEVID1212711808
 70
     0
  0
APPID
  5
58F
330
9
100
AcDbSymbolTableRecord
100
AcDbRegAppTableRecord
  2
GEVID1212711809
 70
     0
  0
APPID
  5
590
330
9
100
AcDbSymbolTableRecord
100
AcDbRegAppTableRecord
  2
GEVID1212711810
 70
     0
  0
APPID
  5
591
330
9
100
AcDbSymbolTableRecord
100
AcDbRegAppTableRecord
  2
GEVID1212711811
 70
     0
  0
APPID
  5
90A
330
9
100
AcDbSymbolTableRecord
100
AcDbRegAppTableRecord
  2
GENIUS_GENTRA_14
 70
     0
  0
APPID
  5
919
330
9
100
AcDbSymbolTableRecord
100
AcDbRegAppTableRecord
  2
GENIUS_GENOBJ-N-TIT_13
 70
     0
  0
APPID
  5
91A
330
9
100
AcDbSymbolTableRecord
100
AcDbRegAppTableRecord
  2
GENIUS_GENTITLE_13
 70
     0
  0
APPID
  5
949
330
9
100
AcDbSymbolTableRecord
100
AcDbRegAppTableRecord
  2
GENIUS_GENBLLY_14
 70
     0
  0
APPID
  5
DDD
330
9
100
AcDbSymbolTableRecord
100
AcDbRegAppTableRecord
  2
GEVID1213165152
 70
     0
  0
APPID
  5
12F9
330
9
100
AcDbSymbolTableRecord
100
AcDbRegAppTableRecord
  2
AcDbDynamicBlockTrueName
 70
     0
  0
APPID
  5
12FA
330
9
100
AcDbSymbolTableRecord
100
AcDbRegAppTableRecord
  2
ACDBBLOCKREPETAG
 70
     0
  0
APPID
  5
1C15
330
9
100
AcDbSymbolTableRecord
100
AcDbRegAppTableRecord
  2
GEVID1214872427
 70
     0
  0
APPID
  5
1C2A
330
9
100
AcDbSymbolTableRecord
100
AcDbRegAppTableRecord
  2
GEVID1214872428
 70
     0
  0
APPID
  5
1C2F
330
9
100
AcDbSymbolTableRecord
100
AcDbRegAppTableRecord
  2
GEVID1214872429
 70
     0
  0
APPID
  5
1C33
330
9
100
AcDbSymbolTableRecord
100
AcDbRegAppTableRecord
  2
GEVID1214872430
 70
     0
  0
APPID
  5
1C3F
330
9
100
AcDbSymbolTableRecord
100
AcDbRegAppTableRecord
  2
GEVID1214872432
 70
     0
  0
APPID
  5
1C4E
330
9
100
AcDbSymbolTableRecord
100
AcDbRegAppTableRecord
  2
GEVID1214872433
 70
     0
  0
APPID
  5
20DC
330
9
100
AcDbSymbolTableRecord
100
AcDbRegAppTableRecord
  2
AcDbDynamicBlockGUID
 70
     0
  0
APPID
  5
20FD
330
9
100
AcDbSymbolTableRecord
100
AcDbRegAppTableRecord
  2
GENIUS_GENOBJ-N-REV_13
 70
     0
  0
APPID
  5
20FE
330
9
100
AcDbSymbolTableRecord
100
AcDbRegAppTableRecord
  2
GENIUS_GENOBJ-N-RSSYM_13
 70
     0
  0
APPID
  5
20FF
330
9
100
AcDbSymbolTableRecord
100
AcDbRegAppTableRecord
  2
GENIUS_GENSYMENT_13
 70
     0
  0
APPID
  5
2100
330
9
100
AcDbSymbolTableRecord
100
AcDbRegAppTableRecord
  2
GENIUS_GENSCSYM_13
 70
     0
  0
APPID
  5
4AF9
330
9
100
AcDbSymbolTableRecord
100
AcDbRegAppTableRecord
  2
GEVID1236732269
 70
     0
  0
APPID
  5
77A9
330
9
100
AcDbSymbolTableRecord
100
AcDbRegAppTableRecord
  2
GEVID1236841481
 70
     0
  0
ENDTAB
  0
TABLE
  2
DIMSTYLE
  5
A
330
0
100
AcDbSymbolTable
 70
    29
100
AcDbDimStyleTable
 71
     1
340
5AB
  0
DIMSTYLE
105
5AB
330
A
100
AcDbSymbolTableRecord
100
AcDbDimStyleTableRecord
  2
SEISA
 70
     0
  4
"
 40
2.5
 41
2.5
 42
0.625
 43
10.0
 44
0.625
 47
0.1
 48
0.1
 73
     0
 74
     0
 77
     3
 78
     8
 79
     2
 90
     1
140
3.5
141
0.0
143
0.0393701
146
0.71
147
1.5
172
     1
176
     3
177
     3
178
     3
271
     2
272
     2
283
     0
286
     8
340
5D5
341
69
342
69
371
    -1
372
    -1
1001
ACAD_DSTYLE_DIMJAG
1070
   388
1040
1.5
1001
ACAD_DSTYLE_DIMTALN
1070
   392
1070
     1
  0
DIMSTYLE
105
5E9
102
{ACAD_REACTORS
330
6D91
330
6DDD
330
6E19
330
6E43
330
6E88
330
6EFA
330
6F37
330
70F6
330
71B3
330
71D1
330
71E9
330
7945
330
863C
330
8706
330
8730
102
}
330
A
100
AcDbSymbolTableRecord
100
AcDbDimStyleTableRecord
  2
SEISA$0
 70
     0
  4
"
 40
2.5
 41
2.5
 42
0.625
 43
10.0
 44
0.625
 47
0.1
 48
0.1
 73
     0
 74
     0
 77
     3
 78
     8
 79
     2
 90
     1
140
3.5
141
0.0
143
0.0393701
146
0.71
147
1.5
172
     1
176
     3
177
     3
178
     3
271
     2
272
     2
283
     0
286
     8
340
5D5
341
69
342
69
371
    -1
372
    -1
  0
DIMSTYLE
105
8A2A
330
A
100
AcDbSymbolTableRecord
100
AcDbDimStyleTableRecord
  2
AM_ISO
 70
     0
  4
"
 41
2.5
 42
1.0
 43
10.0
 44
1.0
 47
0.1
 48
0.1
 73
     0
 74
     0
 77
     1
 78
     8
 79
     2
 90
     1
140
3.5
141
0.0
143
0.0393701
146
0.71
147
1.5
172
     1
176
   256
177
   256
178
     2
271
     2
272
     3
274
     4
283
     0
284
     8
340
11
371
    -1
372
    -1
  0
DIMSTYLE
105
8A2B
330
A
100
AcDbSymbolTableRecord
100
AcDbDimStyleTableRecord
  2
AM_ISO$3
 70
     0
  4
"
 41
2.5
 42
1.0
 43
10.0
 44
1.0
 47
0.1
 48
0.1
 73
     0
 77
     1
 78
     8
 79
     2
 90
     1
140
3.5
141
0.0
143
0.0393701
146
0.71
147
1.5
176
   256
177
   256
178
     2
271
     2
272
     3
274
     4
283
     0
284
     8
288
     1
289
     0
340
11
371
    -1
372
    -1
  0
DIMSTYLE
105
8A2C
330
A
100
AcDbSymbolTableRecord
100
AcDbDimStyleTableRecord
  2
AM_ISO$4
 70
     0
  4
"
 41
2.5
 42
1.0
 43
10.0
 44
1.0
 47
0.1
 48
0.1
 73
     0
 77
     1
 78
     8
 79
     2
 90
     1
140
3.5
141
0.0
143
0.0393701
146
0.71
147
1.5
176
   256
177
   256
178
     2
271
     2
272
     3
274
     4
283
     0
284
     8
288
     1
289
     0
340
11
371
    -1
372
    -1
  0
DIMSTYLE
105
8A2D
330
A
100
AcDbSymbolTableRecord
100
AcDbDimStyleTableRecord
  2
AM_ISO$6
 70
     0
  4
"
 41
2.5
 42
1.0
 43
10.0
 44
1.0
 47
0.1
 48
0.1
 73
     0
 74
     0
 78
     8
 79
     2
 90
     1
140
3.5
141
0.0
143
0.0393701
146
0.71
147
1.5
172
     1
176
   256
177
   256
178
     2
271
     2
272
     3
274
     4
283
     0
284
     8
340
11
371
    -1
372
    -1
  0
DIMSTYLE
105
8A2E
330
A
100
AcDbSymbolTableRecord
100
AcDbDimStyleTableRecord
  2
AM_ISO$7
 70
     0
  4
"
 41
2.5
 42
1.0
 43
10.0
 44
1.0
 47
0.1
 48
0.1
 73
     0
 74
     0
 77
     1
 78
     8
 79
     2
 90
     1
140
5.0
141
0.0
143
0.0393701
146
0.71
147
1.5
172
     1
176
   256
177
   256
178
     2
271
     2
272
     3
274
     4
283
     0
284
     8
340
11
371
    -1
372
    -1
  0
DIMSTYLE
105
8A2F
330
A
100
AcDbSymbolTableRecord
100
AcDbDimStyleTableRecord
  2
AM_ISO$SF
 70
     0
  4
"
 41
2.5
 42
1.0
 43
10.0
 44
1.0
 47
0.1
 48
0.1
 73
     0
 74
     0
 75
     1
 76
     1
 77
     1
 78
     8
 79
     2
 90
     1
140
3.5
141
0.0
143
0.0393701
146
0.71
147
1.5
172
     1
176
   256
177
   256
178
     2
271
     2
272
     3
274
     4
283
     0
284
     8
340
11
371
    -1
372
    -1
  0
DIMSTYLE
105
8A30
330
A
100
AcDbSymbolTableRecord
100
AcDbDimStyleTableRecord
  2
AM_ISO$SH
 70
     0
  4
"
 41
2.5
 42
1.0
 43
10.0
 44
1.0
 47
0.1
 48
0.1
 73
     0
 74
     0
 75
     1
 76
     1
 77
     1
 78
     8
 79
     2
 90
     1
140
3.5
141
0.0
143
0.0393701
144
2.0
146
0.71
147
1.5
172
     1
173
     1
176
   256
177
   256
178
     2
271
     2
272
     3
274
     4
283
     0
284
     8
340
11
343
74
371
    -1
372
    -1
  0
ENDTAB
  0
TABLE
  2
BLOCK_RECORD
  5
1
330
0
100
AcDbSymbolTable
 70
    30
  0
BLOCK_RECORD
  5
1F
102
{ACAD_XDICTIONARY
360
82
102
}
330
1
100
AcDbSymbolTableRecord
100
AcDbBlockTableRecord
  2
*Model_Space
340
22
 70
     0
280
     1
281
     0
  0
BLOCK_RECORD
  5
1B
330
1
100
AcDbSymbolTableRecord
100
AcDbBlockTableRecord
  2
*Paper_Space
340
1E
 70
     0
280
     1
281
     0
  0
BLOCK_RECORD
  5
23
330
1
100
AcDbSymbolTableRecord
100
AcDbBlockTableRecord
  2
*Paper_Space0
340
26
 70
     0
280
     1
281
     0
  0
BLOCK_RECORD
  5
69
330
1
100
AcDbSymbolTableRecord
100
AcDbBlockTableRecord
  2
_Open30
340
0
102
{BLKREFS
331
6DBE
331
6DBF
331
6EB4
331
6EB5
331
7219
331
721A
331
722B
331
722C
331
723D
331
723E
331
7956
331
7957
331
8078
331
808F
331
8235
331
8236
331
823E
331
823F
331
8260
331
8261
331
85FB
331
85FC
331
872A
331
872B
331
877E
331
877F
331
888F
331
8890
102
}
 70
     0
280
     1
281
     0
  0
BLOCK_RECORD
  5
74
330
1
100
AcDbSymbolTableRecord
100
AcDbBlockTableRecord
  2
GENAXEH
340
0
 70
     0
280
     1
281
     0
  0
BLOCK_RECORD
  5
57B8
102
{ACAD_XDICTIONARY
360
6479
102
}
330
1
100
AcDbSymbolTableRecord
100
AcDbBlockTableRecord
  2
ロッカクアナツキプラグ R1／8
340
0
310
2800000020000000200000000100080000000000000400000000000000000000000000000000000000000000000080000080000000808000800000008000800080800000C0C0C000C0DCC000F0CAA6000020400000206000002080000020A0000020C0000020E00000400000004020000040400000406000004080000040A0
310
000040C0000040E00000600000006020000060400000606000006080000060A0000060C0000060E00000800000008020000080400000806000008080000080A0000080C0000080E00000A0000000A0200000A0400000A0600000A0800000A0A00000A0C00000A0E00000C0000000C0200000C0400000C0600000C0800000C0
310
A00000C0C00000C0E00000E0000000E0200000E0400000E0600000E0800000E0A00000E0C00000E0E00040000000400020004000400040006000400080004000A0004000C0004000E00040200000402020004020400040206000402080004020A0004020C0004020E000404000004040200040404000404060004040800040
310
40A0004040C0004040E00040600000406020004060400040606000406080004060A0004060C0004060E00040800000408020004080400040806000408080004080A0004080C0004080E00040A0000040A0200040A0400040A0600040A0800040A0A00040A0C00040A0E00040C0000040C0200040C0400040C0600040C08000
310
40C0A00040C0C00040C0E00040E0000040E0200040E0400040E0600040E0800040E0A00040E0C00040E0E00080000000800020008000400080006000800080008000A0008000C0008000E00080200000802020008020400080206000802080008020A0008020C0008020E00080400000804020008040400080406000804080
310
008040A0008040C0008040E00080600000806020008060400080606000806080008060A0008060C0008060E00080800000808020008080400080806000808080008080A0008080C0008080E00080A0000080A0200080A0400080A0600080A0800080A0A00080A0C00080A0E00080C0000080C0200080C0400080C0600080C0
310
800080C0A00080C0C00080C0E00080E0000080E0200080E0400080E0600080E0800080E0A00080E0C00080E0E000C0000000C0002000C0004000C0006000C0008000C000A000C000C000C000E000C0200000C0202000C0204000C0206000C0208000C020A000C020C000C020E000C0400000C0402000C0404000C0406000C0
310
408000C040A000C040C000C040E000C0600000C0602000C0604000C0606000C0608000C060A000C060C000C060E000C0800000C0802000C0804000C0806000C0808000C080A000C080C000C080E000C0A00000C0A02000C0A04000C0A06000C0A08000C0A0A000C0A0C000C0A0E000C0C00000C0C02000C0C04000C0C06000
310
C0C08000C0C0A000F0FBFF00A4A0A000808080000000FF0000FF000000FFFF00FF000000FF00FF00FFFF0000FFFFFF0000000000000000000000000000000000000000000000000000000000000000000000000000000000000000000000000000000000000000000000000000000000000000000000000000000000000000
310
000000000000000000000000000000000000000000000000000000000000000000F900000000000000000000000000000000000000000000000000000000000000F900000000000000000000000000000000000000000000000000000000000000F900000000000000000000000000000000000000000000000000000000FF
310
FFFEFEFFFFFF0000000000000000000000000000000000000000000000FFFFFEFE00F9FEFE00FFFF00000000000000000000000000000000000000FFFFFEFE000000F90000FEFE00FF0000000000000000000000000000000000FFFEFE0000000000F900000000FEFEFF000000000000000000000000000000FF00FE000000
310
000000F9000000000000FEFF0000000000000000000000000000FFFE000000000000FFFF000000000000FEFF00000000000000000000000000FF00FE00000000FFFF00F9FFFF0000000000FEFF000000000000000000000000FFFE000000FFFF000000F90000FFFF000000FEFF000000000000000000000000FFFE000000FF
310
00000000F9000000FF000000FEFF000000000000000000000000FE00000000FF00000000F9000000FF00000000FE00000000000000F9F9F9F9F9FEF9F9F9F9FFF9F9F9F9F9F9F9F9FFF9F9F9F9FEF9F9F9F9F900000000000000FFFE000000FF00000000F9000000FF00000000FE000000000000000000000000FFFE000000
310
FFFF000000F9000000FF000000FEFF000000000000000000000000FF00FE00000000FFFF00F900FFFF00000000FEFF00000000000000000000000000FFFE000000000000FFFFFF0000000000FEFF0000000000000000000000000000FF00FE000000000000F9000000000000FEFF000000000000000000000000000000FFFE
310
000000000000F90000000000FEFF0000000000000000000000000000000000FFFEFE00000000F9000000FEFEFF00000000000000000000000000000000000000FFFFFEFEFE00F900FEFE00FF0000000000000000000000000000000000000000000000FFFFFEFEFEFFFFFF0000000000000000000000000000000000000000
310
00000000000000F900000000000000000000000000000000000000000000000000000000000000F900000000000000000000000000000000000000000000000000000000000000F900000000000000000000000000000000000000000000000000000000000000000000000000000000000000000000000000000000000000
310
0000000000000000000000000000000000000000000000000000000000000000000000000000000000000000000000000000000000000000
102
{BLKREFS
331
593F
102
}
 70
     4
280
     1
281
     0
  0
BLOCK_RECORD
  5
5903
102
{ACAD_XDICTIONARY
360
59FD
102
}
330
1
100
AcDbSymbolTableRecord
100
AcDbBlockTableRecord
  2
ケースＡ SSMH250
340
0
310
2800000020000000200000000100080000000000000400000000000000000000000000000000000000000000000080000080000000808000800000008000800080800000C0C0C000C0DCC000F0CAA6000020400000206000002080000020A0000020C0000020E00000400000004020000040400000406000004080000040A0
310
000040C0000040E00000600000006020000060400000606000006080000060A0000060C0000060E00000800000008020000080400000806000008080000080A0000080C0000080E00000A0000000A0200000A0400000A0600000A0800000A0A00000A0C00000A0E00000C0000000C0200000C0400000C0600000C0800000C0
310
A00000C0C00000C0E00000E0000000E0200000E0400000E0600000E0800000E0A00000E0C00000E0E00040000000400020004000400040006000400080004000A0004000C0004000E00040200000402020004020400040206000402080004020A0004020C0004020E000404000004040200040404000404060004040800040
310
40A0004040C0004040E00040600000406020004060400040606000406080004060A0004060C0004060E00040800000408020004080400040806000408080004080A0004080C0004080E00040A0000040A0200040A0400040A0600040A0800040A0A00040A0C00040A0E00040C0000040C0200040C0400040C0600040C08000
310
40C0A00040C0C00040C0E00040E0000040E0200040E0400040E0600040E0800040E0A00040E0C00040E0E00080000000800020008000400080006000800080008000A0008000C0008000E00080200000802020008020400080206000802080008020A0008020C0008020E00080400000804020008040400080406000804080
310
008040A0008040C0008040E00080600000806020008060400080606000806080008060A0008060C0008060E00080800000808020008080400080806000808080008080A0008080C0008080E00080A0000080A0200080A0400080A0600080A0800080A0A00080A0C00080A0E00080C0000080C0200080C0400080C0600080C0
310
800080C0A00080C0C00080C0E00080E0000080E0200080E0400080E0600080E0800080E0A00080E0C00080E0E000C0000000C0002000C0004000C0006000C0008000C000A000C000C000C000E000C0200000C0202000C0204000C0206000C0208000C020A000C020C000C020E000C0400000C0402000C0404000C0406000C0
310
408000C040A000C040C000C040E000C0600000C0602000C0604000C0606000C0608000C060A000C060C000C060E000C0800000C0802000C0804000C0806000C0808000C080A000C080C000C080E000C0A00000C0A02000C0A04000C0A06000C0A08000C0A0A000C0A0C000C0A0E000C0C00000C0C02000C0C04000C0C06000
310
C0C08000C0C0A000F0FBFF00A4A0A000808080000000FF0000FF000000FFFF00FF000000FF00FF00FFFF0000FFFFFF00000000000000000000000000000000000000000000000000000000000000000000000000000000000000000000FFFF000000000000000000000000000000000000000000000000000000000000FF00
310
FF0000000000000000000000000000000000000000000000000000000000FF00FF0000000000000000000000000000000000000000000000000000000000FF00FFFFFFFFFFFFFF0000000000000000000000000000000000000000000000FF00FF0000000000FF0000000000000000000000000000000000000000000000FF
310
00FF0000000000FF0000000000000000000000000000000000000000000000FF00FF0000000000FF0000000000000000000000000000000000000000000000FF00FF0000000000FF0000000000000000000000000000000000000000000000FF00FF0000000000FF0000000000000000000000000000000000000000000000
310
FF00FF0000000000FF0000000000000000000000000000000000000000000000FFF9FF0000000000FF0000000000000000000000000000000000000000000000FFFFF90000000000FF0000000000000000000000000000000000000000000000FEFEFF0000000000FF00000000000000000000000000000000000000000000
310
00FF00FF0000000000FF0000000000000000000000000000000000000000000000FF00FF0000000000FF0000000000000000000000000000000000000000000000FF00FF0000000000FF0000000000000000000000000000000000000000000000000000000000000000000000000000000000000000000000000000000000
310
00000000000000000000000000000000000000000000000000000000000000000000000000000000000000000000000000000000000000000000000000000000000000000000000000000000000000000000000000000000000000000000000000000000000000000000000000000000000000000000000000000000000000
310
000000000000000000000000000000000000000000000000000000000000000000000000000000000000000000000000000000000000000000000000000000000000000000000000000000000000000000000000000000000000000000000000000000000000FFA4A4FFFFFF00000000000000000000000000000000000000
310
000000FFFFFFFFFFFFFFFFFFFF00000000000000000000000000000000000000000000FFFF00FFFFFFFFFFFFFF0000000000000000000000000000000000000000F9F9F9FFF9F9F9F9000000000000000000000000000000000000000000000000000000FF00FF000000000000000000000000000000000000000000000000
310
0000000000FFFF00000000000000000000000000000000000000000000000000000000000000000000000000000000000000000000000000
102
{BLKREFS
331
5940
102
}
 70
     4
280
     1
281
     0
  0
BLOCK_RECORD
  5
5A7A
102
{ACAD_XDICTIONARY
360
5B1E
102
}
330
1
100
AcDbSymbolTableRecord
100
AcDbBlockTableRecord
  2
ケースＢ SSMH250
340
0
310
2800000020000000200000000100080000000000000400000000000000000000000000000000000000000000000080000080000000808000800000008000800080800000C0C0C000C0DCC000F0CAA6000020400000206000002080000020A0000020C0000020E00000400000004020000040400000406000004080000040A0
310
000040C0000040E00000600000006020000060400000606000006080000060A0000060C0000060E00000800000008020000080400000806000008080000080A0000080C0000080E00000A0000000A0200000A0400000A0600000A0800000A0A00000A0C00000A0E00000C0000000C0200000C0400000C0600000C0800000C0
310
A00000C0C00000C0E00000E0000000E0200000E0400000E0600000E0800000E0A00000E0C00000E0E00040000000400020004000400040006000400080004000A0004000C0004000E00040200000402020004020400040206000402080004020A0004020C0004020E000404000004040200040404000404060004040800040
310
40A0004040C0004040E00040600000406020004060400040606000406080004060A0004060C0004060E00040800000408020004080400040806000408080004080A0004080C0004080E00040A0000040A0200040A0400040A0600040A0800040A0A00040A0C00040A0E00040C0000040C0200040C0400040C0600040C08000
310
40C0A00040C0C00040C0E00040E0000040E0200040E0400040E0600040E0800040E0A00040E0C00040E0E00080000000800020008000400080006000800080008000A0008000C0008000E00080200000802020008020400080206000802080008020A0008020C0008020E00080400000804020008040400080406000804080
310
008040A0008040C0008040E00080600000806020008060400080606000806080008060A0008060C0008060E00080800000808020008080400080806000808080008080A0008080C0008080E00080A0000080A0200080A0400080A0600080A0800080A0A00080A0C00080A0E00080C0000080C0200080C0400080C0600080C0
310
800080C0A00080C0C00080C0E00080E0000080E0200080E0400080E0600080E0800080E0A00080E0C00080E0E000C0000000C0002000C0004000C0006000C0008000C000A000C000C000C000E000C0200000C0202000C0204000C0206000C0208000C020A000C020C000C020E000C0400000C0402000C0404000C0406000C0
310
408000C040A000C040C000C040E000C0600000C0602000C0604000C0606000C0608000C060A000C060C000C060E000C0800000C0802000C0804000C0806000C0808000C080A000C080C000C080E000C0A00000C0A02000C0A04000C0A06000C0A08000C0A0A000C0A0C000C0A0E000C0C00000C0C02000C0C04000C0C06000
310
C0C08000C0C0A000F0FBFF00A4A0A000808080000000FF0000FF000000FFFF00FF000000FF00FF00FFFF0000FFFFFF0000000000000000000000000000000000000000000000000000000000000000000000000000000000000000000000000000FFFF00000000000000000000000000000000000000000000000000000000
310
0000FF00FF00000000000000000000000000000000000000000000000000000000F9F9F9F9F9F9000000000000000000000000000000000000000000FFFFFFFFFFFFFF000000000000000000000000000000000000000000000000FF000000000000FF000000000000000000000000000000000000000000000000FF000000
310
000000FF000000000000000000000000000000000000000000000000FF000000000000FF000000000000000000000000000000000000000000000000FF000000000000FF000000000000000000000000000000000000000000000000FF000000000000FF000000000000000000000000000000000000000000000000FF0000
310
00000000FF000000000000000000000000000000000000000000000000FF000000000000FF000000000000000000000000000000000000000000000000FF000000000000FF000000000000000000000000000000000000000000000000FF000000000000FF000000000000000000000000000000000000000000000000FF00
310
0000000000FF000000000000000000000000000000000000000000000000FF000000000000FF000000000000000000000000000000000000000000000000FF000000000000FF000000000000000000000000000000000000000000000000000000000000000000000000000000000000000000000000000000000000000000
310
00000000000000000000000000000000000000000000000000000000000000000000000000000000000000000000000000000000000000000000000000000000000000000000000000000000000000000000000000000000000000000000000000000000000000000000000000000000000000000000000000000000000000
310
000000000000000000000000000000000000000000000000000000000000000000000000000000000000000000000000000000000000000000000000000000000000000000000000000000000000000000000000000000000000000000000000FFFFFFA4A4FFFF000000000000000000000000000000000000000000000000
310
00FFFFFFFFFFFFFFFFFF000000000000000000000000000000000000000000000000FFFFFFFFFFFFFFFFFF0000000000000000000000000000000000000000000000000000000000FF00000000000000000000000000000000000000000000000000000000000000FFFFFFFF00000000000000000000000000000000000000
310
000000000000000000FFFF000000000000000000000000000000000000000000000000000000000000000000000000000000000000000000
102
{BLKREFS
331
5AAE
102
}
 70
     4
280
     1
281
     0
  0
BLOCK_RECORD
  5
5C0C
102
{ACAD_XDICTIONARY
360
65CE
102
}
330
1
100
AcDbSymbolTableRecord
100
AcDbBlockTableRecord
  2
センタＡ SSMH250
340
0
310
2800000020000000200000000100080000000000000400000000000000000000000000000000000000000000000080000080000000808000800000008000800080800000C0C0C000C0DCC000F0CAA6000020400000206000002080000020A0000020C0000020E00000400000004020000040400000406000004080000040A0
310
000040C0000040E00000600000006020000060400000606000006080000060A0000060C0000060E00000800000008020000080400000806000008080000080A0000080C0000080E00000A0000000A0200000A0400000A0600000A0800000A0A00000A0C00000A0E00000C0000000C0200000C0400000C0600000C0800000C0
310
A00000C0C00000C0E00000E0000000E0200000E0400000E0600000E0800000E0A00000E0C00000E0E00040000000400020004000400040006000400080004000A0004000C0004000E00040200000402020004020400040206000402080004020A0004020C0004020E000404000004040200040404000404060004040800040
310
40A0004040C0004040E00040600000406020004060400040606000406080004060A0004060C0004060E00040800000408020004080400040806000408080004080A0004080C0004080E00040A0000040A0200040A0400040A0600040A0800040A0A00040A0C00040A0E00040C0000040C0200040C0400040C0600040C08000
310
40C0A00040C0C00040C0E00040E0000040E0200040E0400040E0600040E0800040E0A00040E0C00040E0E00080000000800020008000400080006000800080008000A0008000C0008000E00080200000802020008020400080206000802080008020A0008020C0008020E00080400000804020008040400080406000804080
310
008040A0008040C0008040E00080600000806020008060400080606000806080008060A0008060C0008060E00080800000808020008080400080806000808080008080A0008080C0008080E00080A0000080A0200080A0400080A0600080A0800080A0A00080A0C00080A0E00080C0000080C0200080C0400080C0600080C0
310
800080C0A00080C0C00080C0E00080E0000080E0200080E0400080E0600080E0800080E0A00080E0C00080E0E000C0000000C0002000C0004000C0006000C0008000C000A000C000C000C000E000C0200000C0202000C0204000C0206000C0208000C020A000C020C000C020E000C0400000C0402000C0404000C0406000C0
310
408000C040A000C040C000C040E000C0600000C0602000C0604000C0606000C0608000C060A000C060C000C060E000C0800000C0802000C0804000C0806000C0808000C080A000C080C000C080E000C0A00000C0A02000C0A04000C0A06000C0A08000C0A0A000C0A0C000C0A0E000C0C00000C0C02000C0C04000C0C06000
310
C0C08000C0C0A000F0FBFF00A4A0A000808080000000FF0000FF000000FFFF00FF000000FF00FF00FFFF0000FFFFFF00000000000000000000000000000000000000000000000000000000000000000000000000000000000000000000000000FFFFFF00000000000000000000000000000000000000000000000000000000
310
000000FFFFFFFFFFFFFFFF000000000000000000000000000000000000000000000000FF000000000000FF000000000000000000000000000000000000000000000000FF000000000000FF000000000000000000000000000000000000000000000000FF000000000000FF0000000000000000000000000000000000000000
310
00000000FF000000000000FF000000000000000000000000000000000000000000000000FF000000000000FF000000000000000000000000000000000000000000000000FF000000000000FF000000000000000000000000000000000000000000000000FF000000000000FF00000000000000000000000000000000000000
310
0000000000FF000000000000FF000000000000000000000000000000000000000000000000FF000000000000FF000000000000000000000000000000000000000000000000FF000000000000FF000000000000000000000000000000000000000000000000FF000000000000FF000000000000000000000000FF0000A4A4A4
310
000000000000FF000000000000FF000000000000000000000000A4A4A4A4A40000000000000000000000000000FF000000000000000000000000FF000000000000000000000000000000000000FF000000000000000000000000FF000000000000000000000000000000000000FF000000000000000000000000FF00000000
310
0000000000000000000000000000FF000000000000000000000000FF000000000000000000000000000000000000FF000000000000000000000000FF000000000000000000000000000000000000FF000000000000000000000000FFFFFFFFFFFFFFFFFFFFFFFFFFFFFFFFFFFFFFFF000000000000000000000000FF000000
310
000000000000000000000000000000FF000000000000000000000000FF000000000000000000000000000000000000FF000000000000000000000000FF000000000000000000000000000000000000FF000000000000000000000000FF000000000000000000000000000000000000FF000000000000000000000000FF0000
310
00000000000000000000000000000000FF000000000000000000000000FFFFFFFF00F900FFFFFFFFFFFFFFFFFFFFFFFFFF000000000000000000000000000000FFFFF9FFFFF90000000000000000000000000000000000000000000000000000FFFFF9FFFF0000000000000000000000000000000000000000000000000000
310
000000F900000000000000000000000000000000000000000000000000000000000000000000000000000000000000000000000000000000
102
{BLKREFS
331
5C33
102
}
 70
     4
280
     1
281
     0
  0
BLOCK_RECORD
  5
5C81
102
{ACAD_XDICTIONARY
360
5D13
102
}
330
1
100
AcDbSymbolTableRecord
100
AcDbBlockTableRecord
  2
センタＢ SSM250
340
0
310
2800000020000000200000000100080000000000000400000000000000000000000000000000000000000000000080000080000000808000800000008000800080800000C0C0C000C0DCC000F0CAA6000020400000206000002080000020A0000020C0000020E00000400000004020000040400000406000004080000040A0
310
000040C0000040E00000600000006020000060400000606000006080000060A0000060C0000060E00000800000008020000080400000806000008080000080A0000080C0000080E00000A0000000A0200000A0400000A0600000A0800000A0A00000A0C00000A0E00000C0000000C0200000C0400000C0600000C0800000C0
310
A00000C0C00000C0E00000E0000000E0200000E0400000E0600000E0800000E0A00000E0C00000E0E00040000000400020004000400040006000400080004000A0004000C0004000E00040200000402020004020400040206000402080004020A0004020C0004020E000404000004040200040404000404060004040800040
310
40A0004040C0004040E00040600000406020004060400040606000406080004060A0004060C0004060E00040800000408020004080400040806000408080004080A0004080C0004080E00040A0000040A0200040A0400040A0600040A0800040A0A00040A0C00040A0E00040C0000040C0200040C0400040C0600040C08000
310
40C0A00040C0C00040C0E00040E0000040E0200040E0400040E0600040E0800040E0A00040E0C00040E0E00080000000800020008000400080006000800080008000A0008000C0008000E00080200000802020008020400080206000802080008020A0008020C0008020E00080400000804020008040400080406000804080
310
008040A0008040C0008040E00080600000806020008060400080606000806080008060A0008060C0008060E00080800000808020008080400080806000808080008080A0008080C0008080E00080A0000080A0200080A0400080A0600080A0800080A0A00080A0C00080A0E00080C0000080C0200080C0400080C0600080C0
310
800080C0A00080C0C00080C0E00080E0000080E0200080E0400080E0600080E0800080E0A00080E0C00080E0E000C0000000C0002000C0004000C0006000C0008000C000A000C000C000C000E000C0200000C0202000C0204000C0206000C0208000C020A000C020C000C020E000C0400000C0402000C0404000C0406000C0
310
408000C040A000C040C000C040E000C0600000C0602000C0604000C0606000C0608000C060A000C060C000C060E000C0800000C0802000C0804000C0806000C0808000C080A000C080C000C080E000C0A00000C0A02000C0A04000C0A06000C0A08000C0A0A000C0A0C000C0A0E000C0C00000C0C02000C0C04000C0C06000
310
C0C08000C0C0A000F0FBFF00A4A0A000808080000000FF0000FF000000FFFF00FF000000FF00FF00FFFF0000FFFFFF00000000000000000000000000000000000000000000000000000000000000000000000000000000000000000000FFFFFF00000000000000000000000000000000000000000000FFFFFFFFFFFFFFFF00
310
0000000000000000000000000000000000000000000000FF000000000000FF000000000000000000000000000000000000000000000000FF000000000000FF000000000000000000000000000000000000000000000000FF000000000000FF000000000000000000000000000000000000000000000000FF000000000000FF
310
000000000000000000000000000000000000000000000000FF000000000000FF000000000000000000000000000000000000000000000000FF000000000000FF000000000000000000000000000000000000000000000000FF000000000000FF000000000000000000000000000000000000000000000000FF000000000000
310
FF000000000000000000000000000000000000000000000000FF000000000000FF000000000000000000000000000000000000000000000000FF000000000000FF000000000000000000000000000000000000000000000000FF000000000000FF000000000000000000000000000000000000000000000000FF0000000000
310
00FF000000000000A4A4A40000FF000000000000000000000000FF0000000000000000000000000000A4A4A4A4A4000000000000000000000000FF000000000000000000000000000000000000FF000000000000000000000000FF000000000000000000000000000000000000FF000000000000000000000000FF00000000
310
0000000000000000000000000000FF000000000000000000000000FF000000000000000000000000000000000000FF000000000000000000000000FF000000000000000000000000000000000000FF000000000000000000000000FFFFFFFFFFFFFFFFFFFFFFFFFFFFFFFFFFFFFFFF000000000000000000000000FF000000
310
000000000000000000000000000000FF000000000000000000000000FF000000000000000000000000000000000000FF000000000000000000000000FF000000000000FAFAFAFAFAFAFAFA00000000FF000000000000000000000000FF000000000000FAFA0000FAFA000000000000FF000000000000000000000000FF0000
310
0000000000FA0000FAFA000000000000FF000000000000000000000000FFFFFFFFFFFFFFFFFFFFFFFAFA00F900FFFFFFFF0000000000000000000000000000000000000000000000F9FAFFF9FFFF000000000000000000000000000000000000000000000000000000FFFFF9FFFF0000000000000000000000000000000000
310
000000000000000000000000F900000000000000000000000000000000000000000000000000000000000000000000000000000000000000
102
{BLKREFS
331
5CA8
102
}
 70
     4
280
     1
281
     0
  0
BLOCK_RECORD
  5
6134
102
{ACAD_XDICTIONARY
360
61D4
102
}
330
1
100
AcDbSymbolTableRecord
100
AcDbBlockTableRecord
  2
リーマボルト SSMH250 M10
340
0
310
2800000020000000200000000100080000000000000400000000000000000000000000000000000000000000000080000080000000808000800000008000800080800000C0C0C000C0DCC000F0CAA6000020400000206000002080000020A0000020C0000020E00000400000004020000040400000406000004080000040A0
310
000040C0000040E00000600000006020000060400000606000006080000060A0000060C0000060E00000800000008020000080400000806000008080000080A0000080C0000080E00000A0000000A0200000A0400000A0600000A0800000A0A00000A0C00000A0E00000C0000000C0200000C0400000C0600000C0800000C0
310
A00000C0C00000C0E00000E0000000E0200000E0400000E0600000E0800000E0A00000E0C00000E0E00040000000400020004000400040006000400080004000A0004000C0004000E00040200000402020004020400040206000402080004020A0004020C0004020E000404000004040200040404000404060004040800040
310
40A0004040C0004040E00040600000406020004060400040606000406080004060A0004060C0004060E00040800000408020004080400040806000408080004080A0004080C0004080E00040A0000040A0200040A0400040A0600040A0800040A0A00040A0C00040A0E00040C0000040C0200040C0400040C0600040C08000
310
40C0A00040C0C00040C0E00040E0000040E0200040E0400040E0600040E0800040E0A00040E0C00040E0E00080000000800020008000400080006000800080008000A0008000C0008000E00080200000802020008020400080206000802080008020A0008020C0008020E00080400000804020008040400080406000804080
310
008040A0008040C0008040E00080600000806020008060400080606000806080008060A0008060C0008060E00080800000808020008080400080806000808080008080A0008080C0008080E00080A0000080A0200080A0400080A0600080A0800080A0A00080A0C00080A0E00080C0000080C0200080C0400080C0600080C0
310
800080C0A00080C0C00080C0E00080E0000080E0200080E0400080E0600080E0800080E0A00080E0C00080E0E000C0000000C0002000C0004000C0006000C0008000C000A000C000C000C000E000C0200000C0202000C0204000C0206000C0208000C020A000C020C000C020E000C0400000C0402000C0404000C0406000C0
310
408000C040A000C040C000C040E000C0600000C0602000C0604000C0606000C0608000C060A000C060C000C060E000C0800000C0802000C0804000C0806000C0808000C080A000C080C000C080E000C0A00000C0A02000C0A04000C0A06000C0A08000C0A0A000C0A0C000C0A0E000C0C00000C0C02000C0C04000C0C06000
310
C0C08000C0C0A000F0FBFF00A4A0A000808080000000FF0000FF000000FFFF00FF000000FF00FF00FFFF0000FFFFFF0000000000000000000000000000000000000000000000000000000000000000000000000000000000000000000000000000000000000000000000000000000000000000000000000000000000000000
310
00000000000000000000000000000000000000000000000000000000000000000000000000000000000000000000000000000000000000000000000000000000000000000000000000000000000000000000000000000000000000000000000000000000000000000000000000000000000000000000000000000000000000
310
0000000000000000000000000000000000000000000000000000000000000000000000000000000000000000000000000000000000000000000000000000000000000000000000000000000000000000000000000000000000000000000000000000000000000000000000000000000000000000FFFFFFFF00000000000000
310
00000000000000000000FFFFFFFFFF0000000000FFFF000000000000000000000000000000000000FFFFFF000000FF0000000000FFFF0000000000000000000000000000000000000000FF000000FF0000000000FFFFFFFFFFFF00000000000000000000000000FFFF00FFFFFFFFFFFFFFFF0000FFFF000000FF0000000000
310
0000000000000000FF0000FF000000FF00FFFF0000FFFF000000FF00000000000000000000000000FFFF00FF000000FF00FFFF0000FFFF000000FF00000000000000000000000000FF00FFFF000000FF00FFFF0000FFFF000000FF00000000000000000000000000FF0000FF000000FF00FFFF0000FFFFFFFFFFFF00000000
310
000000000000000000FFFF00FFFFFFFFFFFFFFFF0000FFFF0000000000000000000000000000000000000000FF000000FF0000000000FFFF000000000000000000000000000000000000FFFFFF000000FF000000000000FFFFFFFF0000000000000000000000000000000000FFFFFFFFFF0000000000000000000000000000
310
00000000000000000000000000000000000000000000000000000000000000000000000000000000000000000000000000000000000000000000000000000000000000000000000000000000000000000000000000000000000000000000000000000000000000000000000000000000000000000000000000000000000000
310
00000000000000000000000000000000000000000000000000000000000000000000000000000000000000000000000000000000000000000000000000000000000000000000000000000000000000000000000000000000000000000000000000000000000000000000000000000000000000000000000000000000000000
310
0000000000000000000000000000000000000000000000000000000000000000000000000000000000000000000000000000000000000000
102
{BLKREFS
331
6165
102
}
 70
     4
280
     1
281
     0
  0
BLOCK_RECORD
  5
6D92
330
1
100
AcDbSymbolTableRecord
100
AcDbBlockTableRecord
  2
*D12
340
0
 70
     0
280
     1
281
     0
  0
BLOCK_RECORD
  5
6DDE
330
1
100
AcDbSymbolTableRecord
100
AcDbBlockTableRecord
  2
*D13
340
0
 70
     0
280
     1
281
     0
  0
BLOCK_RECORD
  5
6E1A
330
1
100
AcDbSymbolTableRecord
100
AcDbBlockTableRecord
  2
*D14
340
0
 70
     0
280
     1
281
     0
  0
BLOCK_RECORD
  5
6E44
330
1
100
AcDbSymbolTableRecord
100
AcDbBlockTableRecord
  2
*D15
340
0
 70
     0
280
     1
281
     0
  0
BLOCK_RECORD
  5
6E89
330
1
100
AcDbSymbolTableRecord
100
AcDbBlockTableRecord
  2
*D16
340
0
 70
     0
280
     1
281
     0
  0
BLOCK_RECORD
  5
6EFB
330
1
100
AcDbSymbolTableRecord
100
AcDbBlockTableRecord
  2
*D17
340
0
 70
     0
280
     1
281
     0
  0
BLOCK_RECORD
  5
6F38
330
1
100
AcDbSymbolTableRecord
100
AcDbBlockTableRecord
  2
*D18
340
0
 70
     0
280
     1
281
     0
  0
BLOCK_RECORD
  5
70F7
330
1
100
AcDbSymbolTableRecord
100
AcDbBlockTableRecord
  2
*D19
340
0
 70
     0
280
     1
281
     0
  0
BLOCK_RECORD
  5
71B4
330
1
100
AcDbSymbolTableRecord
100
AcDbBlockTableRecord
  2
*D20
340
0
 70
     0
280
     1
281
     0
  0
BLOCK_RECORD
  5
71D2
330
1
100
AcDbSymbolTableRecord
100
AcDbBlockTableRecord
  2
*D21
340
0
 70
     0
280
     1
281
     0
  0
BLOCK_RECORD
  5
71EA
330
1
100
AcDbSymbolTableRecord
100
AcDbBlockTableRecord
  2
*D22
340
0
 70
     0
280
     1
281
     0
  0
BLOCK_RECORD
  5
7946
330
1
100
AcDbSymbolTableRecord
100
AcDbBlockTableRecord
  2
*D23
340
0
 70
     0
280
     1
281
     0
  0
BLOCK_RECORD
  5
7F73
330
1
100
AcDbSymbolTableRecord
100
AcDbBlockTableRecord
  2
GENDOT
340
0
102
{BLKREFS
331
8079
331
808E
102
}
 70
     0
280
     1
281
     0
  0
BLOCK_RECORD
  5
863D
330
1
100
AcDbSymbolTableRecord
100
AcDbBlockTableRecord
  2
*D25
340
0
 70
     0
280
     1
281
     0
  0
BLOCK_RECORD
  5
8707
330
1
100
AcDbSymbolTableRecord
100
AcDbBlockTableRecord
  2
*D26
340
0
 70
     0
280
     1
281
     0
  0
BLOCK_RECORD
  5
8731
330
1
100
AcDbSymbolTableRecord
100
AcDbBlockTableRecord
  2
*D27
340
0
 70
     0
280
     1
281
     0
  0
BLOCK_RECORD
  5
896A
330
1
100
AcDbSymbolTableRecord
100
AcDbBlockTableRecord
  2
ケース
340
0
310
2800000020000000200000000100080000000000000400000000000000000000000000000000000000000000000080000080000000808000800000008000800080800000C0C0C000C0DCC000F0CAA6000020400000206000002080000020A0000020C0000020E00000400000004020000040400000406000004080000040A0
310
000040C0000040E00000600000006020000060400000606000006080000060A0000060C0000060E00000800000008020000080400000806000008080000080A0000080C0000080E00000A0000000A0200000A0400000A0600000A0800000A0A00000A0C00000A0E00000C0000000C0200000C0400000C0600000C0800000C0
310
A00000C0C00000C0E00000E0000000E0200000E0400000E0600000E0800000E0A00000E0C00000E0E00040000000400020004000400040006000400080004000A0004000C0004000E00040200000402020004020400040206000402080004020A0004020C0004020E000404000004040200040404000404060004040800040
310
40A0004040C0004040E00040600000406020004060400040606000406080004060A0004060C0004060E00040800000408020004080400040806000408080004080A0004080C0004080E00040A0000040A0200040A0400040A0600040A0800040A0A00040A0C00040A0E00040C0000040C0200040C0400040C0600040C08000
310
40C0A00040C0C00040C0E00040E0000040E0200040E0400040E0600040E0800040E0A00040E0C00040E0E00080000000800020008000400080006000800080008000A0008000C0008000E00080200000802020008020400080206000802080008020A0008020C0008020E00080400000804020008040400080406000804080
310
008040A0008040C0008040E00080600000806020008060400080606000806080008060A0008060C0008060E00080800000808020008080400080806000808080008080A0008080C0008080E00080A0000080A0200080A0400080A0600080A0800080A0A00080A0C00080A0E00080C0000080C0200080C0400080C0600080C0
310
800080C0A00080C0C00080C0E00080E0000080E0200080E0400080E0600080E0800080E0A00080E0C00080E0E000C0000000C0002000C0004000C0006000C0008000C000A000C000C000C000E000C0200000C0202000C0204000C0206000C0208000C020A000C020C000C020E000C0400000C0402000C0404000C0406000C0
310
408000C040A000C040C000C040E000C0600000C0602000C0604000C0606000C0608000C060A000C060C000C060E000C0800000C0802000C0804000C0806000C0808000C080A000C080C000C080E000C0A00000C0A02000C0A04000C0A06000C0A08000C0A0A000C0A0C000C0A0E000C0C00000C0C02000C0C04000C0C06000
310
C0C08000C0C0A000F0FBFF00A4A0A000808080000000FF0000FF000000FFFF00FF000000FF00FF00FFFF0000FFFFFF0000000000000000000000000000000000000000000000000000000000000000000000000000000000000000000000000000000000000000000000000000000000000000000000000000000000000000
310
00000000000000000000000000000000000000000000000000000000000000000000000000000000000000000000000000000000000000000000000000000000000000000000000000000000000000000000000000000000000000000000000000000000000000000000000000000000000000000000000000000000000000
310
000000000000000000000000000000000000000000000000000000000000000000000000000000000000000000000000000000FC0000FC000000000000000000FC00FC00000000000000000000000000000000FCFCFCFC000000000000000000FCFCFC00000000000000000000000000000000FC0000FC0000000000000000
310
00FC00FC00000000000000000000000000000000FC0000FC000000000000000000FC00FC00000000000000000000000000000000FC0000FC000000000000000000FC00FC0000000000FCFCFCFCFCFCFCFCFC0000FC0000FC000000000000000000FC00FC00000000FC0000000000000000000000FC0000FCFCFCFCFCFCFCFC
310
FCFC0000FC000000FCFCFCFCFCFCFCFCFCFCFC0000FC0000000000000000000000000000FC00000000FC0000000000000000000000FC0000000000000000000000000000FC00000000FC0000000000000000000000FC0000000000000000000000000000FC00000000FCFCFCFCFCFCFCFCFCFC0000FC000000000000000000
310
000000000000FCFCFCFC000000000000000000000000FC00000000000000000000000000000000000000000000000000000000000000FC0000000000000000000000000000000000000000000000000000000000000000FCFC0000000000000000000000000000000000000000000000000000000000000000FC0000000000
310
000000000000000000000000000000000000000000000000000000FCFCFCFCFCFCFCFCFCFCFCFCFCFCFCFCFCFCFCFCFCFCFCFCFCFC0000000000000000000000000000000000000000000000000000000000000000000000000000000000000000000000000000000000000000000000000000000000000000000000000000
310
00000000000000000000000000000000000000000000000000000000000000000000000000000000000000000000000000000000000000000000000000000000000000000000000000000000000000000000000000000000000000000000000000000000000000000000000000000000000000000000000000000000000000
310
0000000000000000000000000000000000000000000000000000000000000000000000000000000000000000000000000000000000000000
102
{BLKREFS
331
8985
102
}
 70
     4
280
     1
281
     1
  0
ENDTAB
  0
ENDSEC
  0
SECTION
  2
BLOCKS
  0
BLOCK
  5
20
330
1F
100
AcDbEntity
  8
0
100
AcDbBlockBegin
  2
*Model_Space
 70
     0
 10
0.0
 20
0.0
 30
0.0
  3
*Model_Space
  1

  0
ENDBLK
  5
21
330
1F
100
AcDbEntity
  8
0
100
AcDbBlockEnd
  0
BLOCK
  5
1C
330
1B
100
AcDbEntity
 67
     1
  8
0
100
AcDbBlockBegin
  2
*Paper_Space
 70
     0
 10
0.0
 20
0.0
 30
0.0
  3
*Paper_Space
  1

  0
ENDBLK
  5
1D
330
1B
100
AcDbEntity
 67
     1
  8
0
100
AcDbBlockEnd
  0
BLOCK
  5
24
330
23
100
AcDbEntity
 67
     1
  8
0
100
AcDbBlockBegin
  2
*Paper_Space0
 70
     0
 10
0.0
 20
0.0
 30
0.0
  3
*Paper_Space0
  1

  0
ENDBLK
  5
25
330
23
100
AcDbEntity
 67
     1
  8
0
100
AcDbBlockEnd
  0
BLOCK
  5
6D
330
69
100
AcDbEntity
  8
0
100
AcDbBlockBegin
  2
_Open30
 70
     0
 10
0.0
 20
0.0
 30
0.0
  3
_Open30
  1

  0
LINE
  5
6A
330
69
100
AcDbEntity
  8
0
  6
ByBlock
 62
     0
370
    -2
100
AcDbLine
 10
-1.0
 20
0.26794919
 30
0.0
 11
0.0
 21
0.0
 31
0.0
  0
LINE
  5
6B
330
69
100
AcDbEntity
  8
0
  6
ByBlock
 62
     0
370
    -2
100
AcDbLine
 10
0.0
 20
0.0
 30
0.0
 11
-1.0
 21
-0.26794919
 31
0.0
  0
LINE
  5
6C
330
69
100
AcDbEntity
  8
0
  6
ByBlock
 62
     0
370
    -2
100
AcDbLine
 10
0.0
 20
0.0
 30
0.0
 11
-1.0
 21
0.0
 31
0.0
  0
ENDBLK
  5
6E
330
69
100
AcDbEntity
  8
0
100
AcDbBlockEnd
  0
BLOCK
  5
76
330
74
100
AcDbEntity
  8
0
100
AcDbBlockBegin
  2
GENAXEH
 70
     0
 10
0.0
 20
0.0
 30
0.0
  3
GENAXEH
  1

  0
LINE
  5
75
330
74
100
AcDbEntity
  8
0
100
AcDbLine
 10
-1.0
 20
0.0
 30
0.0
 11
1.0
 21
0.0
 31
0.0
  0
ENDBLK
  5
77
330
74
100
AcDbEntity
  8
0
100
AcDbBlockEnd
  0
BLOCK
  5
57B9
330
57B8
100
AcDbEntity
  8
0
100
AcDbBlockBegin
  2
ロッカクアナツキプラグ R1／8
 70
     0
 10
0.0
 20
0.0
 30
0.0
  3
ロッカクアナツキプラグ R1／8
  1

  0
LINE
  5
57BB
330
57B8
100
AcDbEntity
  8
AM_7 中心線
100
AcDbLine
 10
0.0
 20
-6.842466000000056
 30
0.0
 11
0.0
 21
6.842466000000056
 31
0.0
  0
CIRCLE
  5
57BC
330
57B8
100
AcDbEntity
  8
AM_0 外形線1
100
AcDbCircle
 10
0.0
 20
0.0
 30
0.0
 40
5.271232
  0
LINE
  5
57BD
330
57B8
100
AcDbEntity
  8
AM_7 中心線
100
AcDbLine
 10
7.5
 20
0.0
 30
0.0
 11
-7.5
 21
0.0
 31
0.0
  0
LINE
  5
57BE
330
57B8
100
AcDbEntity
  8
AM_0 外形線1
100
AcDbLine
 10
0.0
 20
-2.5150000000001
 30
0.0
 11
2.178053999999974
 21
-1.25750000000005
 31
0.0
  0
LINE
  5
57BF
330
57B8
100
AcDbEntity
  8
AM_0 外形線1
100
AcDbLine
 10
2.178053999999974
 20
1.257499999999936
 30
0.0
 11
0.0
 21
2.514999999999985
 31
0.0
  0
CIRCLE
  5
57C0
330
57B8
100
AcDbEntity
  8
AM_4 細線
100
AcDbCircle
 10
0.0
 20
0.0
 30
0.0
 40
4.816232
  0
LINE
  5
57C1
330
57B8
100
AcDbEntity
  8
AM_0 外形線1
100
AcDbLine
 10
-2.178053999999974
 20
-1.25750000000005
 30
0.0
 11
0.0
 21
-2.5150000000001
 31
0.0
  0
LINE
  5
57C2
330
57B8
100
AcDbEntity
  8
AM_0 外形線1
100
AcDbLine
 10
-2.178053999999974
 20
1.257499999999936
 30
0.0
 11
-2.178053999999974
 21
-1.25750000000005
 31
0.0
  0
LINE
  5
57C3
330
57B8
100
AcDbEntity
  8
AM_0 外形線1
100
AcDbLine
 10
0.0
 20
2.514999999999985
 30
0.0
 11
-2.178053999999974
 21
1.257499999999936
 31
0.0
  0
LINE
  5
57C4
330
57B8
100
AcDbEntity
  8
AM_0 外形線1
100
AcDbLine
 10
2.178053999999974
 20
-1.25750000000005
 30
0.0
 11
2.178053999999974
 21
1.257499999999936
 31
0.0
  0
ENDBLK
  5
57BA
330
57B8
100
AcDbEntity
  8
0
100
AcDbBlockEnd
  0
BLOCK
  5
5904
330
5903
100
AcDbEntity
  8
0
100
AcDbBlockBegin
  2
ケースＡ SSMH250
 70
     0
 10
0.0
 20
0.0
 30
0.0
  3
ケースＡ SSMH250
  1

  0
LINE
  5
5906
330
5903
100
AcDbEntity
  8
AM_0 外形線1
100
AcDbLine
 10
0.0
 20
0.0
 30
0.0
 11
0.0
 21
-124.0
 31
0.0
  0
LINE
  5
5907
330
5903
100
AcDbEntity
  8
AM_0 外形線1
100
AcDbLine
 10
15.0
 20
-124.0
 30
0.0
 11
15.0
 21
0.0
 31
0.0
  0
LINE
  5
5908
330
5903
100
AcDbEntity
  8
AM_0 外形線1
100
AcDbLine
 10
19.0
 20
-100.0
 30
0.0
 11
70.0
 21
-100.0
 31
0.0
  0
LINE
  5
5909
330
5903
100
AcDbEntity
  8
AM_0 外形線1
100
AcDbLine
 10
1.0
 20
-125.0
 30
0.0
 11
14.0
 21
-125.0
 31
0.0
  0
LINE
  5
590A
330
5903
100
AcDbEntity
  8
AM_0 外形線1
100
AcDbLine
 10
0.0
 20
-124.0
 30
0.0
 11
1.0
 21
-125.0
 31
0.0
  0
LINE
  5
590B
330
5903
100
AcDbEntity
  8
AM_0 外形線1
100
AcDbLine
 10
14.0
 20
-125.0
 30
0.0
 11
15.0
 21
-124.0
 31
0.0
  0
ARC
  5
590C
330
5903
100
AcDbEntity
  8
AM_0 外形線1
100
AcDbCircle
 10
19.0
 20
-104.0
 30
0.0
 40
4.0
100
AcDbArc
 50
90.0
 51
180.0
  0
ARC
  5
590D
330
5903
100
AcDbEntity
  8
AM_0 外形線1
100
AcDbCircle
 10
70.0
 20
-96.0
 30
0.0
 40
4.0
100
AcDbArc
 50
270.0
 51
0.0
  0
LINE
  5
590E
330
5903
100
AcDbEntity
  8
AM_0 外形線1
100
AcDbLine
 10
74.0
 20
-96.0
 30
0.0
 11
74.0
 21
0.0
 31
0.0
  0
LINE
  5
590F
330
5903
100
AcDbEntity
  8
AM_7 中心線
100
AcDbLine
 10
23.0
 20
90.0
 30
0.0
 11
54.0
 21
90.0
 31
0.0
  0
LINE
  5
5910
330
5903
100
AcDbEntity
  8
AM_3 隠れ線
100
AcDbLine
 10
51.0
 20
87.60000000000003
 30
0.0
 11
28.0
 21
87.60000000000003
 31
0.0
  0
LINE
  5
5911
330
5903
100
AcDbEntity
  8
AM_0 外形線1
100
AcDbLine
 10
19.0
 20
100.0
 30
0.0
 11
70.0
 21
100.0
 31
0.0
  0
LINE
  5
5912
330
5903
100
AcDbEntity
  8
AM_0 外形線1
100
AcDbLine
 10
25.0
 20
93.0
 30
0.0
 11
52.0
 21
93.0
 31
0.0
  0
LINE
  5
5913
330
5903
100
AcDbEntity
  8
AM_0 外形線1
100
AcDbLine
 10
15.0
 20
104.0
 30
0.0
 11
15.0
 21
124.0
 31
0.0
  0
LINE
  5
5914
330
5903
100
AcDbEntity
  8
AM_7 中心線
100
AcDbLine
 10
-27.0
 20
114.0
 30
0.0
 11
35.0
 21
114.0
 31
0.0
  0
LINE
  5
5915
330
5903
100
AcDbEntity
  8
AM_0 外形線1
100
AcDbLine
 10
-3.5
 20
98.0
 30
0.0
 11
2.200000000000045
 21
98.0
 31
0.0
  0
LINE
  5
5916
330
5903
100
AcDbEntity
  8
AM_0 外形線1
100
AcDbLine
 10
24.0
 20
93.49999999999999
 30
0.0
 11
-4.0
 21
93.49999999999999
 31
0.0
  0
LINE
  5
5917
330
5903
100
AcDbEntity
  8
AM_0 外形線1
100
AcDbLine
 10
-4.0
 20
93.49999999999999
 30
0.0
 11
-4.0
 21
97.5
 31
0.0
  0
LINE
  5
5918
330
5903
100
AcDbEntity
  8
AM_0 外形線1
100
AcDbLine
 10
-4.0
 20
93.49999999999999
 30
0.0
 11
-4.0
 21
89.50000000000001
 31
0.0
  0
LINE
  5
5919
330
5903
100
AcDbEntity
  8
AM_0 外形線1
100
AcDbLine
 10
-4.0
 20
97.5
 30
0.0
 11
-3.5
 21
98.0
 31
0.0
  0
LWPOLYLINE
  5
591A
330
5903
100
AcDbEntity
  8
AM_0 外形線1
100
AcDbPolyline
 90
       73
 70
     0
 43
0.0
 10
1.350000000000022
 20
98.0
 10
1.467659999999909
 20
98.008372
 10
1.58442500000001
 20
98.03342300000007
 10
1.699405999999953
 20
98.07496300000003
 10
1.811726999999904
 20
98.13267599999996
 10
1.920534999999971
 20
98.20612300000004
 10
2.024999999999976
 20
98.29474400000004
 10
2.12432799999999
 20
98.39786600000003
 10
2.21776299999999
 20
98.51470199999994
 10
2.304594000000065
 20
98.64436500000001
 10
2.384159999999951
 20
98.78586699999994
 10
2.455854999999928
 20
98.938132
 10
2.519134000000008
 20
99.10000000000003
 10
2.57351600000004
 20
99.27024000000006
 10
2.618584999999939
 20
99.44755599999997
 10
2.653999999999995
 20
99.63059800000008
 10
2.679489999999987
 20
99.81797400000004
 10
2.694862999999941
 20
100.008257
 10
2.700000000000044
 20
100.2
 10
2.694862999999941
 20
100.391743
 10
2.679489999999987
 20
100.5820259999999
 10
2.653999999999995
 20
100.7694019999999
 10
2.618584999999939
 20
100.952444
 10
2.57351600000004
 20
101.1297599999999
 10
2.519134000000008
 20
101.2999999999999
 10
2.455854999999928
 20
101.461868
 10
2.384159999999951
 20
101.614133
 10
2.304594000000065
 20
101.7556349999999
 10
2.21776299999999
 20
101.885298
 10
2.12432799999999
 20
102.0021339999999
 10
2.024999999999976
 20
102.1052559999999
 10
1.920534999999971
 20
102.1938769999999
 10
1.811726999999904
 20
102.267324
 10
1.699405999999953
 20
102.325037
 10
1.58442500000001
 20
102.366577
 10
1.467659999999909
 20
102.3916280000001
 10
1.350000000000022
 20
102.4
 10
1.232340000000021
 20
102.3916280000001
 10
1.115575000000034
 20
102.366577
 10
1.00059400000009
 20
102.325037
 10
0.8882730000000265
 20
102.267324
 10
0.7794650000000729
 20
102.1938769999999
 10
0.6749999999999547
 20
102.1052559999999
 10
0.5756719999999405
 20
102.0021339999999
 10
0.4822370000000548
 20
101.885298
 10
0.3954059999999799
 20
101.7556349999999
 10
0.3158400000000938
 20
101.614133
 10
0.2441450000000032
 20
101.461868
 10
0.1808660000000373
 20
101.2999999999999
 10
0.1264840000000049
 20
101.1297599999999
 10
0.0814149999999927
 20
100.952444
 10
0.0460000000000491
 20
100.7694019999999
 10
0.0205099999999448
 20
100.5820259999999
 10
0.0051369999999906
 20
100.391743
 10
0.0
 20
100.2
 10
0.0051369999999906
 20
100.008257
 10
0.0205099999999448
 20
99.81797400000004
 10
0.0460000000000491
 20
99.63059800000008
 10
0.0814149999999927
 20
99.44755599999997
 10
0.1264840000000049
 20
99.27024000000006
 10
0.1808660000000373
 20
99.10000000000003
 10
0.2441450000000032
 20
98.938132
 10
0.3158400000000938
 20
98.78586699999994
 10
0.3954059999999799
 20
98.64436500000001
 10
0.4822370000000548
 20
98.51470199999994
 10
0.5756719999999405
 20
98.39786600000003
 10
0.6749999999999547
 20
98.29474400000004
 10
0.7794650000000729
 20
98.20612300000004
 10
0.8882730000000265
 20
98.13267599999996
 10
1.00059400000009
 20
98.07496300000003
 10
1.115575000000034
 20
98.03342300000007
 10
1.232340000000021
 20
98.008372
 10
1.350000000000022
 20
98.0
  0
LINE
  5
591B
330
5903
100
AcDbEntity
  8
AM_0 外形線1
100
AcDbLine
 10
0.0
 20
102.4000000000001
 30
0.0
 11
0.0
 21
108.5
 31
0.0
  0
LINE
  5
591C
330
5903
100
AcDbEntity
  8
AM_0 外形線1
100
AcDbLine
 10
2.200000000000045
 20
102.4
 30
0.0
 11
0.0
 21
102.4
 31
0.0
  0
ARC
  5
591D
330
5903
100
AcDbEntity
  8
AM_0 外形線1
100
AcDbCircle
 10
2.200000000000045
 20
101.8999999999999
 30
0.0
 40
0.5
100
AcDbArc
 50
0.0
 51
90.0
  0
LINE
  5
591E
330
5903
100
AcDbEntity
  8
AM_0 外形線1
100
AcDbLine
 10
2.700000000000044
 20
98.50000000000001
 30
0.0
 11
2.700000000000044
 21
101.8999999999999
 31
0.0
  0
ARC
  5
591F
330
5903
100
AcDbEntity
  8
AM_0 外形線1
100
AcDbCircle
 10
2.200000000000045
 20
98.50000000000001
 30
0.0
 40
0.5
100
AcDbArc
 50
270.0
 51
0.0
  0
ARC
  5
5920
330
5903
100
AcDbEntity
  8
AM_0 外形線1
100
AcDbCircle
 10
19.0
 20
104.0
 30
0.0
 40
4.0
100
AcDbArc
 50
180.0
 51
270.0
  0
ARC
  5
5921
330
5903
100
AcDbEntity
  8
AM_0 外形線1
100
AcDbCircle
 10
24.0
 20
92.5
 30
0.0
 40
1.0
100
AcDbArc
 50
0.0
 51
90.0
  0
LINE
  5
5922
330
5903
100
AcDbEntity
  8
AM_0 外形線1
100
AcDbLine
 10
25.0
 20
88.60000000000002
 30
0.0
 11
25.0
 21
92.5
 31
0.0
  0
LINE
  5
5923
330
5903
100
AcDbEntity
  8
AM_0 外形線1
100
AcDbLine
 10
26.0
 20
87.60000000000003
 30
0.0
 11
25.0
 21
88.60000000000002
 31
0.0
  0
LINE
  5
5924
330
5903
100
AcDbEntity
  8
AM_0 外形線1
100
AcDbLine
 10
25.0
 20
88.60000000000002
 30
0.0
 11
25.0
 21
84.04842800000007
 31
0.0
  0
LINE
  5
5925
330
5903
100
AcDbEntity
  8
AM_0 外形線1
100
AcDbLine
 10
1.0
 20
125.0
 30
0.0
 11
14.0
 21
125.0
 31
0.0
  0
LINE
  5
5926
330
5903
100
AcDbEntity
  8
AM_0 外形線1
100
AcDbLine
 10
0.0
 20
119.5
 30
0.0
 11
0.0
 21
124.0
 31
0.0
  0
LINE
  5
5927
330
5903
100
AcDbEntity
  8
AM_0 外形線1
100
AcDbLine
 10
0.0
 20
124.0
 30
0.0
 11
1.0
 21
125.0
 31
0.0
  0
LINE
  5
5928
330
5903
100
AcDbEntity
  8
AM_0 外形線1
100
AcDbLine
 10
14.0
 20
125.0
 30
0.0
 11
15.0
 21
124.0
 31
0.0
  0
LWPOLYLINE
  5
5929
330
5903
100
AcDbEntity
  8
AM_0 外形線1
100
AcDbPolyline
 90
       73
 70
     0
 43
0.0
 10
60.39999999999999
 20
85.97500000000001
 10
60.42130999999995
 20
85.67213400000003
 10
60.48507699999993
 20
85.37157300000002
 10
60.59081500000002
 20
85.075604
 10
60.73772099999996
 20
84.78647999999997
 10
60.92467599999999
 20
84.50640199999998
 10
61.15025800000001
 20
84.23749999999996
 10
61.41274900000007
 20
83.98182199999997
 10
61.71015099999999
 20
83.741313
 10
62.0402019999999
 20
83.51780399999995
 10
62.40038900000001
 20
83.31299599999999
 10
62.78797199999996
 20
83.12844699999994
 10
63.20000000000003
 20
82.96556199999997
 10
63.63333799999998
 20
82.82557999999992
 10
64.08468700000003
 20
82.70956799999998
 10
64.550613
 20
82.61840800000005
 10
65.02756999999997
 20
82.55279299999996
 10
65.51192800000001
 20
82.51322300000003
 10
66.0
 20
82.5
 10
66.48807199999999
 20
82.51322300000003
 10
66.97243000000003
 20
82.55279299999996
 10
67.449387
 20
82.61840800000005
 10
67.91531299999997
 20
82.70956799999998
 10
68.36666200000002
 20
82.82557999999992
 10
68.79999999999995
 20
82.96556199999997
 10
69.21202800000003
 20
83.12844699999994
 10
69.59961099999998
 20
83.31299599999999
 10
69.95979800000009
 20
83.51780399999995
 10
70.28984900000001
 20
83.741313
 10
70.58725099999993
 20
83.98182199999997
 10
70.84974199999997
 20
84.23749999999996
 10
71.07532400000002
 20
84.50640199999998
 10
71.26227900000003
 20
84.78647999999997
 10
71.40918499999997
 20
85.075604
 10
71.51492300000007
 20
85.37157300000002
 10
71.57869000000005
 20
85.67213400000003
 10
71.60000000000002
 20
85.97500000000001
 10
71.57869000000005
 20
86.27786600000002
 10
71.51492300000007
 20
86.57842699999992
 10
71.40918499999997
 20
86.87439600000002
 10
71.26227900000003
 20
87.16352000000004
 10
71.07532400000002
 20
87.44359800000005
 10
70.84974199999997
 20
87.71249999999998
 10
70.58725099999993
 20
87.96817800000008
 10
70.28984900000001
 20
88.20868700000003
 10
69.95979800000009
 20
88.43219599999995
 10
69.59961099999998
 20
88.63700400000004
 10
69.21202800000003
 20
88.82155299999999
 10
68.79999999999995
 20
88.98443799999997
 10
68.36666200000002
 20
89.12441999999998
 10
67.91531299999997
 20
89.24043200000005
 10
67.449387
 20
89.331592
 10
66.97243000000003
 20
89.39720699999998
 10
66.48807199999999
 20
89.436777
 10
66.0
 20
89.45000000000003
 10
65.51192800000001
 20
89.436777
 10
65.02756999999997
 20
89.39720699999998
 10
64.550613
 20
89.331592
 10
64.08468700000003
 20
89.24043200000005
 10
63.63333799999998
 20
89.12441999999998
 10
63.20000000000003
 20
88.98443799999997
 10
62.78797199999996
 20
88.82155299999999
 10
62.40038900000001
 20
88.63700400000004
 10
62.0402019999999
 20
88.43219599999995
 10
61.71015099999999
 20
88.20868700000003
 10
61.41274900000007
 20
87.96817800000008
 10
61.15025800000001
 20
87.71249999999998
 10
60.92467599999999
 20
87.44359800000005
 10
60.73772099999996
 20
87.16352000000004
 10
60.59081500000002
 20
86.87439600000002
 10
60.48507699999993
 20
86.57842699999992
 10
60.42130999999995
 20
86.27786600000002
 10
60.39999999999999
 20
85.97500000000001
  0
ARC
  5
592A
330
5903
100
AcDbEntity
  8
AM_0 外形線1
100
AcDbCircle
 10
71.10000000000002
 20
88.95000000000003
 30
0.0
 40
0.5
100
AcDbArc
 50
0.0
 51
90.0
  0
ARC
  5
592B
330
5903
100
AcDbEntity
  8
AM_0 外形線1
100
AcDbCircle
 10
70.0
 20
96.0
 30
0.0
 40
4.0
100
AcDbArc
 50
0.0
 51
90.0
  0
LINE
  5
592C
330
5903
100
AcDbEntity
  8
AM_0 外形線1
100
AcDbLine
 10
60.39999999999999
 20
84.0
 30
0.0
 11
58.0
 21
84.0
 31
0.0
  0
LINE
  5
592D
330
5903
100
AcDbEntity
  8
AM_3 隠れ線
100
AcDbLine
 10
52.0
 20
88.60000000000002
 30
0.0
 11
51.0
 21
87.60000000000003
 31
0.0
  0
LINE
  5
592E
330
5903
100
AcDbEntity
  8
AM_3 隠れ線
100
AcDbLine
 10
52.0
 20
91.96067433963277
 30
0.0
 11
52.0
 21
88.60000000000002
 31
0.0
  0
ARC
  5
592F
330
5903
100
AcDbEntity
  8
AM_0 外形線1
100
AcDbCircle
 10
53.0
 20
92.5
 30
0.0
 40
1.0
100
AcDbArc
 50
90.0
 51
180.0
  0
LINE
  5
5930
330
5903
100
AcDbEntity
  8
AM_0 外形線1
100
AcDbLine
 10
57.0
 20
93.49999999999999
 30
0.0
 11
53.0
 21
93.49999999999999
 31
0.0
  0
ARC
  5
5931
330
5903
100
AcDbEntity
  8
AM_0 外形線1
100
AcDbCircle
 10
57.0
 20
92.5
 30
0.0
 40
1.0
100
AcDbArc
 50
0.0
 51
90.0
  0
LINE
  5
5932
330
5903
100
AcDbEntity
  8
AM_0 外形線1
100
AcDbLine
 10
58.0
 20
84.0
 30
0.0
 11
58.0
 21
92.5
 31
0.0
  0
LINE
  5
5933
330
5903
100
AcDbEntity
  8
AM_0 外形線1
100
AcDbLine
 10
58.0
 20
84.0
 30
0.0
 11
58.0
 21
82.5
 31
0.0
  0
LINE
  5
5934
330
5903
100
AcDbEntity
  8
AM_0 外形線1
100
AcDbLine
 10
60.39999999999999
 20
88.95000000000003
 30
0.0
 11
60.39999999999999
 21
84.0
 31
0.0
  0
ARC
  5
5935
330
5903
100
AcDbEntity
  8
AM_0 外形線1
100
AcDbCircle
 10
60.89999999999998
 20
88.95000000000003
 30
0.0
 40
0.5
100
AcDbArc
 50
90.0
 51
180.0
  0
LINE
  5
5936
330
5903
100
AcDbEntity
  8
AM_0 外形線1
100
AcDbLine
 10
71.10000000000002
 20
89.45000000000003
 30
0.0
 11
60.89999999999998
 21
89.45000000000003
 31
0.0
  0
LINE
  5
5937
330
5903
100
AcDbEntity
  8
AM_0 外形線1
100
AcDbLine
 10
60.39999999999999
 20
84.0
 30
0.0
 11
60.39999999999999
 21
82.5
 31
0.0
  0
LINE
  5
5938
330
5903
100
AcDbEntity
  8
AM_0 外形線1
100
AcDbLine
 10
71.60000000000002
 20
84.0
 30
0.0
 11
71.60000000000002
 21
88.95000000000003
 31
0.0
  0
LINE
  5
5939
330
5903
100
AcDbEntity
  8
AM_0 外形線1
100
AcDbLine
 10
74.0
 20
84.0
 30
0.0
 11
71.60000000000002
 21
84.0
 31
0.0
  0
LINE
  5
593A
330
5903
100
AcDbEntity
  8
AM_0 外形線1
100
AcDbLine
 10
74.0
 20
96.0
 30
0.0
 11
74.0
 21
84.0
 31
0.0
  0
LINE
  5
593B
330
5903
100
AcDbEntity
  8
AM_0 外形線1
100
AcDbLine
 10
74.0
 20
84.0
 30
0.0
 11
74.0
 21
82.5
 31
0.0
  0
LINE
  5
593C
330
5903
100
AcDbEntity
  8
AM_0 外形線1
100
AcDbLine
 10
71.60000000000002
 20
84.0
 30
0.0
 11
71.60000000000002
 21
82.5
 31
0.0
  0
LINE
  5
593D
330
5903
100
AcDbEntity
  8
AM_0 外形線1
100
AcDbLine
 10
26.0
 20
87.60000000000003
 30
0.0
 11
28.21256167679974
 21
87.60000000000003
 31
0.0
  0
LINE
  5
593E
330
5903
100
AcDbEntity
  8
AM_0 外形線1
100
AcDbLine
 10
52.0
 20
92.5
 30
0.0
 11
52.0
 21
91.96067433963277
 31
0.0
  0
INSERT
  5
593F
330
5903
100
AcDbEntity
  8
AM_5 寸法線
100
AcDbBlockReference
  2
ロッカクアナツキプラグ R1／8
 10
7.5
 20
-29.50537099999997
 30
0.0
  0
LINE
  5
5BA0
330
5903
100
AcDbEntity
  8
AM_0 外形線1
100
AcDbLine
 10
0.0
 20
119.5000000000001
 30
0.0
 11
15.0
 21
119.5000000000001
 31
0.0
  0
LINE
  5
5BA1
330
5903
100
AcDbEntity
  8
AM_0 外形線1
100
AcDbLine
 10
0.0
 20
108.5000000000001
 30
0.0
 11
15.0
 21
108.5000000000001
 31
0.0
  0
ENDBLK
  5
5905
330
5903
100
AcDbEntity
  8
0
100
AcDbBlockEnd
  0
BLOCK
  5
5A7B
330
5A7A
100
AcDbEntity
  8
0
100
AcDbBlockBegin
  2
ケースＢ SSMH250
 70
     0
 10
0.0
 20
0.0
 30
0.0
  3
ケースＢ SSMH250
  1

  0
LINE
  5
5A7D
330
5A7A
100
AcDbEntity
  8
AM_0 外形線1
100
AcDbLine
 10
-74.0
 20
-96.0
 30
0.0
 11
-74.0
 21
0.0
 31
0.0
  0
LINE
  5
5A7E
330
5A7A
100
AcDbEntity
  8
AM_0 外形線1
100
AcDbLine
 10
-15.0
 20
-124.0
 30
0.0
 11
-15.0
 21
0.0
 31
0.0
  0
LINE
  5
5A7F
330
5A7A
100
AcDbEntity
  8
AM_0 外形線1
100
AcDbLine
 10
-19.0
 20
-100.0
 30
0.0
 11
-70.0
 21
-100.0
 31
0.0
  0
ARC
  5
5A80
330
5A7A
100
AcDbEntity
  8
AM_0 外形線1
100
AcDbCircle
 10
-70.0
 20
-96.0
 30
0.0
 40
4.0
100
AcDbArc
 50
180.0
 51
270.0
  0
LINE
  5
5A81
330
5A7A
100
AcDbEntity
  8
AM_7 中心線
100
AcDbLine
 10
20.68281347782977
 20
-114.0
 30
0.0
 11
-20.0
 21
-114.0
 31
0.0
  0
LINE
  5
5A82
330
5A7A
100
AcDbEntity
  8
AM_0 外形線1
100
AcDbLine
 10
-1.0
 20
-125.0
 30
0.0
 11
-14.0
 21
-125.0
 31
0.0
  0
LINE
  5
5A83
330
5A7A
100
AcDbEntity
  8
AM_0 外形線1
100
AcDbLine
 10
-14.0
 20
-125.0
 30
0.0
 11
-15.0
 21
-124.0
 31
0.0
  0
ARC
  5
5A84
330
5A7A
100
AcDbEntity
  8
AM_0 外形線1
100
AcDbCircle
 10
-19.0
 20
-104.0
 30
0.0
 40
4.0
100
AcDbArc
 50
0.0
 51
90.0
  0
LINE
  5
5A85
330
5A7A
100
AcDbEntity
  8
AM_0 外形線1
100
AcDbLine
 10
0.0
 20
-124.0
 30
0.0
 11
-1.0
 21
-125.0
 31
0.0
  0
LINE
  5
5A86
330
5A7A
100
AcDbEntity
  8
AM_7 中心線
100
AcDbLine
 10
-23.0
 20
90.0
 30
0.0
 11
-54.0
 21
90.0
 31
0.0
  0
LINE
  5
5A87
330
5A7A
100
AcDbEntity
  8
AM_3 隠れ線
100
AcDbLine
 10
-52.0
 20
88.60000000000002
 30
0.0
 11
-51.0
 21
87.60000000000003
 31
0.0
  0
ARC
  5
5A88
330
5A7A
100
AcDbEntity
  8
AM_0 外形線1
100
AcDbCircle
 10
-53.0
 20
92.5
 30
0.0
 40
1.0
100
AcDbArc
 50
0.0
 51
90.0
  0
LINE
  5
5A89
330
5A7A
100
AcDbEntity
  8
AM_0 外形線1
100
AcDbLine
 10
-19.0
 20
100.0
 30
0.0
 11
-70.0
 21
100.0
 31
0.0
  0
LINE
  5
5A8A
330
5A7A
100
AcDbEntity
  8
AM_0 外形線1
100
AcDbLine
 10
-25.0
 20
93.0
 30
0.0
 11
-52.0
 21
93.0
 31
0.0
  0
ARC
  5
5A8B
330
5A7A
100
AcDbEntity
  8
AM_0 外形線1
100
AcDbCircle
 10
-70.0
 20
96.0
 30
0.0
 40
4.0
100
AcDbArc
 50
90.0
 51
180.0
  0
LWPOLYLINE
  5
5A8C
330
5A7A
100
AcDbEntity
  8
AM_0 外形線1
100
AcDbPolyline
 90
       73
 70
     0
 43
0.0
 10
-60.39999999999999
 20
85.97500000000001
 10
-60.42130999999995
 20
86.27786600000002
 10
-60.48507699999993
 20
86.57842699999992
 10
-60.59081500000002
 20
86.87439600000002
 10
-60.73772099999996
 20
87.16352000000004
 10
-60.92467599999999
 20
87.44359800000005
 10
-61.15025800000001
 20
87.71249999999998
 10
-61.41274900000007
 20
87.96817800000008
 10
-61.71015099999999
 20
88.20868700000003
 10
-62.0402019999999
 20
88.43219599999995
 10
-62.40038900000001
 20
88.63700400000004
 10
-62.78797199999996
 20
88.82155299999999
 10
-63.20000000000003
 20
88.98443799999997
 10
-63.63333799999998
 20
89.12441999999998
 10
-64.08468700000003
 20
89.24043200000005
 10
-64.550613
 20
89.331592
 10
-65.02756999999997
 20
89.39720699999998
 10
-65.51192800000001
 20
89.436777
 10
-66.0
 20
89.45000000000003
 10
-66.48807199999999
 20
89.436777
 10
-66.97243000000003
 20
89.39720699999998
 10
-67.449387
 20
89.331592
 10
-67.91531299999997
 20
89.24043200000005
 10
-68.36666200000002
 20
89.12441999999998
 10
-68.79999999999995
 20
88.98443799999997
 10
-69.21202800000003
 20
88.82155299999999
 10
-69.59961099999998
 20
88.63700400000004
 10
-69.95979800000009
 20
88.43219599999995
 10
-70.28984900000001
 20
88.20868700000003
 10
-70.58725099999993
 20
87.96817800000008
 10
-70.84974199999997
 20
87.71249999999998
 10
-71.07532400000002
 20
87.44359800000005
 10
-71.26227900000003
 20
87.16352000000004
 10
-71.40918499999997
 20
86.87439600000002
 10
-71.51492300000007
 20
86.57842699999992
 10
-71.57869000000005
 20
86.27786600000002
 10
-71.60000000000002
 20
85.97500000000001
 10
-71.57869000000005
 20
85.67213400000003
 10
-71.51492300000007
 20
85.37157300000002
 10
-71.40918499999997
 20
85.075604
 10
-71.26227900000003
 20
84.78647999999997
 10
-71.07532400000002
 20
84.50640199999998
 10
-70.84974199999997
 20
84.23749999999996
 10
-70.58725099999993
 20
83.98182199999997
 10
-70.28984900000001
 20
83.741313
 10
-69.95979800000009
 20
83.51780399999995
 10
-69.59961099999998
 20
83.31299599999999
 10
-69.21202800000003
 20
83.12844699999994
 10
-68.79999999999995
 20
82.96556199999997
 10
-68.36666200000002
 20
82.82557999999992
 10
-67.91531299999997
 20
82.70956799999998
 10
-67.449387
 20
82.61840800000005
 10
-66.97243000000003
 20
82.55279299999996
 10
-66.48807199999999
 20
82.51322300000003
 10
-66.0
 20
82.5
 10
-65.51192800000001
 20
82.51322300000003
 10
-65.02756999999997
 20
82.55279299999996
 10
-64.550613
 20
82.61840800000005
 10
-64.08468700000003
 20
82.70956799999998
 10
-63.63333799999998
 20
82.82557999999992
 10
-63.20000000000003
 20
82.96556199999997
 10
-62.78797199999996
 20
83.12844699999994
 10
-62.40038900000001
 20
83.31299599999999
 10
-62.0402019999999
 20
83.51780399999995
 10
-61.71015099999999
 20
83.741313
 10
-61.41274900000007
 20
83.98182199999997
 10
-61.15025800000001
 20
84.23749999999996
 10
-60.92467599999999
 20
84.50640199999998
 10
-60.73772099999996
 20
84.78647999999997
 10
-60.59081500000002
 20
85.075604
 10
-60.48507699999993
 20
85.37157300000002
 10
-60.42130999999995
 20
85.67213400000003
 10
-60.39999999999999
 20
85.97500000000001
  0
LINE
  5
5A8D
330
5A7A
100
AcDbEntity
  8
AM_0 外形線1
100
AcDbLine
 10
-71.10000000000002
 20
89.45000000000003
 30
0.0
 11
-60.89999999999998
 21
89.45000000000003
 31
0.0
  0
ARC
  5
5A8E
330
5A7A
100
AcDbEntity
  8
AM_0 外形線1
100
AcDbCircle
 10
-71.10000000000002
 20
88.95000000000003
 30
0.0
 40
0.5
100
AcDbArc
 50
90.0
 51
180.0
  0
LINE
  5
5A8F
330
5A7A
100
AcDbEntity
  8
AM_0 外形線1
100
AcDbLine
 10
-71.60000000000002
 20
84.0
 30
0.0
 11
-71.60000000000002
 21
88.95000000000003
 31
0.0
  0
LINE
  5
5A90
330
5A7A
100
AcDbEntity
  8
AM_0 外形線1
100
AcDbLine
 10
-74.0
 20
84.0
 30
0.0
 11
-71.60000000000002
 21
84.0
 31
0.0
  0
LINE
  5
5A91
330
5A7A
100
AcDbEntity
  8
AM_0 外形線1
100
AcDbLine
 10
-74.0
 20
96.0
 30
0.0
 11
-74.0
 21
84.0
 31
0.0
  0
LINE
  5
5A92
330
5A7A
100
AcDbEntity
  8
AM_0 外形線1
100
AcDbLine
 10
-71.60000000000002
 20
84.0
 30
0.0
 11
-71.60000000000002
 21
82.5
 31
0.0
  0
LINE
  5
5A93
330
5A7A
100
AcDbEntity
  8
AM_0 外形線1
100
AcDbLine
 10
-74.0
 20
84.0
 30
0.0
 11
-74.0
 21
82.5
 31
0.0
  0
LINE
  5
5A94
330
5A7A
100
AcDbEntity
  8
AM_3 隠れ線
100
AcDbLine
 10
-52.0
 20
91.96067433963277
 30
0.0
 11
-52.0
 21
88.60000000000002
 31
0.0
  0
LINE
  5
5A95
330
5A7A
100
AcDbEntity
  8
AM_0 外形線1
100
AcDbLine
 10
-57.0
 20
93.49999999999999
 30
0.0
 11
-53.0
 21
93.49999999999999
 31
0.0
  0
ARC
  5
5A96
330
5A7A
100
AcDbEntity
  8
AM_0 外形線1
100
AcDbCircle
 10
-57.0
 20
92.5
 30
0.0
 40
1.0
100
AcDbArc
 50
90.0
 51
180.0
  0
LINE
  5
5A97
330
5A7A
100
AcDbEntity
  8
AM_0 外形線1
100
AcDbLine
 10
-58.0
 20
84.0
 30
0.0
 11
-58.0
 21
92.5
 31
0.0
  0
LINE
  5
5A98
330
5A7A
100
AcDbEntity
  8
AM_0 外形線1
100
AcDbLine
 10
-60.39999999999999
 20
84.0
 30
0.0
 11
-58.0
 21
84.0
 31
0.0
  0
LINE
  5
5A99
330
5A7A
100
AcDbEntity
  8
AM_0 外形線1
100
AcDbLine
 10
-60.39999999999999
 20
88.95000000000003
 30
0.0
 11
-60.39999999999999
 21
84.0
 31
0.0
  0
ARC
  5
5A9A
330
5A7A
100
AcDbEntity
  8
AM_0 外形線1
100
AcDbCircle
 10
-60.89999999999998
 20
88.95000000000003
 30
0.0
 40
0.5
100
AcDbArc
 50
0.0
 51
90.0
  0
LINE
  5
5A9B
330
5A7A
100
AcDbEntity
  8
AM_0 外形線1
100
AcDbLine
 10
-58.0
 20
84.0
 30
0.0
 11
-58.0
 21
82.5
 31
0.0
  0
LINE
  5
5A9C
330
5A7A
100
AcDbEntity
  8
AM_0 外形線1
100
AcDbLine
 10
-60.39999999999999
 20
84.0
 30
0.0
 11
-60.39999999999999
 21
82.5
 31
0.0
  0
LINE
  5
5A9D
330
5A7A
100
AcDbEntity
  8
AM_0 外形線1
100
AcDbLine
 10
-15.0
 20
104.0
 30
0.0
 11
-15.0
 21
124.0
 31
0.0
  0
LINE
  5
5A9E
330
5A7A
100
AcDbEntity
  8
AM_3 隠れ線
100
AcDbLine
 10
-51.0
 20
87.60000000000003
 30
0.0
 11
-28.0
 21
87.60000000000003
 31
0.0
  0
LINE
  5
5A9F
330
5A7A
100
AcDbEntity
  8
AM_0 外形線1
100
AcDbLine
 10
-5.0
 20
93.49999999999999
 30
0.0
 11
-5.0
 21
98.0
 31
0.0
  0
LINE
  5
5AA0
330
5A7A
100
AcDbEntity
  8
AM_0 外形線1
100
AcDbLine
 10
-24.0
 20
93.49999999999999
 30
0.0
 11
-5.0
 21
93.49999999999999
 31
0.0
  0
ARC
  5
5AA1
330
5A7A
100
AcDbEntity
  8
AM_0 外形線1
100
AcDbCircle
 10
-24.0
 20
92.5
 30
0.0
 40
1.0
100
AcDbArc
 50
90.0
 51
180.0
  0
LINE
  5
5AA2
330
5A7A
100
AcDbEntity
  8
AM_0 外形線1
100
AcDbLine
 10
-25.0
 20
88.60000000000002
 30
0.0
 11
-25.0
 21
92.5
 31
0.0
  0
LINE
  5
5AA3
330
5A7A
100
AcDbEntity
  8
AM_0 外形線1
100
AcDbLine
 10
-26.0
 20
87.60000000000003
 30
0.0
 11
-25.0
 21
88.60000000000002
 31
0.0
  0
LINE
  5
5AA4
330
5A7A
100
AcDbEntity
  8
AM_0 外形線1
100
AcDbLine
 10
-25.0
 20
88.60000000000002
 30
0.0
 11
-25.0
 21
84.04842800000007
 31
0.0
  0
LINE
  5
5AA5
330
5A7A
100
AcDbEntity
  8
AM_0 外形線1
100
AcDbLine
 10
-5.0
 20
93.49999999999999
 30
0.0
 11
-5.0
 21
89.0
 31
0.0
  0
ARC
  5
5AA6
330
5A7A
100
AcDbEntity
  8
AM_0 外形線1
100
AcDbCircle
 10
-19.0
 20
104.0
 30
0.0
 40
4.0
100
AcDbArc
 50
270.0
 51
0.0
  0
LINE
  5
5AA7
330
5A7A
100
AcDbEntity
  8
AM_0 外形線1
100
AcDbLine
 10
-0.5
 20
98.0
 30
0.0
 11
0.0
 21
98.50000000000001
 31
0.0
  0
LINE
  5
5AA8
330
5A7A
100
AcDbEntity
  8
AM_0 外形線1
100
AcDbLine
 10
-15.0
 20
119.5
 30
0.0
 11
-0.0000000000001137
 21
119.5000000000001
 31
0.0
  0
LINE
  5
5AA9
330
5A7A
100
AcDbEntity
  8
AM_0 外形線1
100
AcDbLine
 10
-1.0
 20
125.0
 30
0.0
 11
-14.0
 21
125.0
 31
0.0
  0
LINE
  5
5AAA
330
5A7A
100
AcDbEntity
  8
AM_0 外形線1
100
AcDbLine
 10
-14.0
 20
125.0
 30
0.0
 11
-15.0
 21
124.0
 31
0.0
  0
LINE
  5
5AAB
330
5A7A
100
AcDbEntity
  8
AM_0 外形線1
100
AcDbLine
 10
0.0
 20
124.0
 30
0.0
 11
-1.0
 21
125.0
 31
0.0
  0
LINE
  5
5AAC
330
5A7A
100
AcDbEntity
  8
AM_0 外形線1
100
AcDbLine
 10
-28.0
 20
87.60000000000003
 30
0.0
 11
-26.0
 21
87.60000000000003
 31
0.0
  0
LINE
  5
5AAD
330
5A7A
100
AcDbEntity
  8
AM_0 外形線1
100
AcDbLine
 10
-52.0
 20
92.5
 30
0.0
 11
-52.0
 21
91.96067433963277
 31
0.0
  0
LINE
  5
5B19
330
5A7A
100
AcDbEntity
  8
AM_0 外形線1
100
AcDbLine
 10
-5.0
 20
98.0
 30
0.0
 11
-0.5
 21
98.0
 31
0.0
  0
LINE
  5
5B1A
330
5A7A
100
AcDbEntity
  8
AM_0 外形線1
100
AcDbLine
 10
0.0
 20
98.50000000000001
 30
0.0
 11
0.0
 21
108.5
 31
0.0
  0
LINE
  5
5B1B
330
5A7A
100
AcDbEntity
  8
AM_0 外形線1
100
AcDbLine
 10
0.0
 20
119.5
 30
0.0
 11
0.0
 21
124.0
 31
0.0
  0
LINE
  5
5B1C
330
5A7A
100
AcDbEntity
  8
AM_0 外形線1
100
AcDbLine
 10
0.0
 20
-124.0
 30
0.0
 11
0.0
 21
0.0
 31
0.0
  0
LINE
  5
5B1D
330
5A7A
100
AcDbEntity
  8
AM_0 外形線1
100
AcDbLine
 10
-15.0
 20
108.5
 30
0.0
 11
0.0
 21
108.5000000000001
 31
0.0
  0
ENDBLK
  5
5A7C
330
5A7A
100
AcDbEntity
  8
0
100
AcDbBlockEnd
  0
BLOCK
  5
5C0D
330
5C0C
100
AcDbEntity
  8
0
100
AcDbBlockBegin
  2
センタＡ SSMH250
 70
     0
 10
0.0
 20
0.0
 30
0.0
  3
センタＡ SSMH250
  1

  0
LINE
  5
5C0F
330
5C0C
100
AcDbEntity
  8
AM_0 外形線1
100
AcDbLine
 10
0.0
 20
81.0
 30
0.0
 11
0.0
 21
0.0
 31
0.0
  0
LINE
  5
5C10
330
5C0C
100
AcDbEntity
  8
AM_0 外形線1
100
AcDbLine
 10
125.0
 20
-77.70000000000004
 30
0.0
 11
125.0
 21
77.70000000000004
 31
0.0
  0
LINE
  5
5C11
330
5C0C
100
AcDbEntity
  8
AM_3 隠れ線
100
AcDbLine
 10
0.0
 20
4.25
 30
0.0
 11
29.0
 21
4.25
 31
0.0
  0
LINE
  5
5C12
330
5C0C
100
AcDbEntity
  8
AM_3 隠れ線
100
AcDbLine
 10
0.0
 20
5.0
 30
0.0
 11
24.0
 21
5.0
 31
0.0
  0
LINE
  5
5C13
330
5C0C
100
AcDbEntity
  8
AM_3 隠れ線
100
AcDbLine
 10
24.0
 20
5.0
 30
0.0
 11
24.0
 21
4.25
 31
0.0
  0
LINE
  5
5C14
330
5C0C
100
AcDbEntity
  8
AM_3 隠れ線
100
AcDbLine
 10
24.0
 20
5.0
 30
0.0
 11
24.43301299999996
 21
4.25
 31
0.0
  0
LINE
  5
5C15
330
5C0C
100
AcDbEntity
  8
AM_3 隠れ線
100
AcDbLine
 10
24.43301299999996
 20
4.25
 30
0.0
 11
24.43301299999996
 21
0.0
 31
0.0
  0
LINE
  5
5C16
330
5C0C
100
AcDbEntity
  8
AM_3 隠れ線
100
AcDbLine
 10
24.0
 20
4.25
 30
0.0
 11
24.0
 21
0.0
 31
0.0
  0
LINE
  5
5C17
330
5C0C
100
AcDbEntity
  8
AM_3 隠れ線
100
AcDbLine
 10
29.0
 20
4.25
 30
0.0
 11
31.45373899999993
 21
0.0
 31
0.0
  0
LINE
  5
5C18
330
5C0C
100
AcDbEntity
  8
AM_3 隠れ線
100
AcDbLine
 10
29.0
 20
4.25
 30
0.0
 11
29.0
 21
0.0
 31
0.0
  0
LINE
  5
5C19
330
5C0C
100
AcDbEntity
  8
AM_0 外形線1
100
AcDbLine
 10
79.0
 20
-82.5
 30
0.0
 11
79.0
 21
0.0
 31
0.0
  0
LINE
  5
5C1A
330
5C0C
100
AcDbEntity
  8
AM_0 外形線1
100
AcDbLine
 10
81.0
 20
-81.70000000000005
 30
0.0
 11
81.0
 21
0.0
 31
0.0
  0
LINE
  5
5C1B
330
5C0C
100
AcDbEntity
  8
AM_0 外形線1
100
AcDbLine
 10
81.0
 20
-81.70000000000005
 30
0.0
 11
121.0
 21
-81.70000000000005
 31
0.0
  0
LINE
  5
5C1C
330
5C0C
100
AcDbEntity
  8
AM_0 外形線1
100
AcDbLine
 10
68.0
 20
-82.5
 30
0.0
 11
79.0
 21
-82.5
 31
0.0
  0
LINE
  5
5C1D
330
5C0C
100
AcDbEntity
  8
AM_0 外形線1
100
AcDbLine
 10
79.0
 20
-82.5
 30
0.0
 11
81.0
 21
-81.70000000000005
 31
0.0
  0
ARC
  5
5C1E
330
5C0C
100
AcDbEntity
  8
AM_0 外形線1
100
AcDbCircle
 10
121.0
 20
-77.70000000000004
 30
0.0
 40
4.0
100
AcDbArc
 50
270.0
 51
0.0
  0
ARC
  5
5C20
330
5C0C
100
AcDbEntity
  8
AM_0 外形線1
100
AcDbCircle
 10
33.0
 20
0.0
 30
0.0
 40
92.87499999999999
100
AcDbArc
 50
81.33017300000679
 51
96.18111099999694
  0
LINE
  5
5C22
330
5C0C
100
AcDbEntity
  8
AM_0 外形線1
100
AcDbLine
 10
21.5
 20
82.0
 30
0.0
 11
1.0
 21
82.0
 31
0.0
  0
LINE
  5
5C23
330
5C0C
100
AcDbEntity
  8
AM_0 外形線1
100
AcDbLine
 10
1.0
 20
82.0
 30
0.0
 11
0.0
 21
81.0
 31
0.0
  0
LINE
  5
5C24
330
5C0C
100
AcDbEntity
  8
AM_7 中心線
100
AcDbLine
 10
33.0
 20
97.87500000000001
 30
0.0
 11
33.0
 21
81.70000000000005
 31
0.0
  0
ARC
  5
5C25
330
5C0C
100
AcDbEntity
  8
AM_0 外形線1
100
AcDbCircle
 10
21.5
 20
82.5
 30
0.0
 40
0.5
100
AcDbArc
 50
270.0
 51
0.0
  0
LINE
  5
5C26
330
5C0C
100
AcDbEntity
  8
AM_0 外形線1
100
AcDbLine
 10
22.0
 20
91.22128600000008
 30
0.0
 11
22.0
 21
82.5
 31
0.0
  0
LINE
  5
5C27
330
5C0C
100
AcDbEntity
  8
AM_0 外形線1
100
AcDbLine
 10
23.0
 20
92.33507300000008
 30
0.0
 11
22.0
 21
91.22128600000008
 31
0.0
  0
LINE
  5
5C28
330
5C0C
100
AcDbEntity
  8
AM_0 外形線1
100
AcDbLine
 10
121.0
 20
81.70000000000005
 30
0.0
 11
81.0
 21
81.70000000000005
 31
0.0
  0
LINE
  5
5C29
330
5C0C
100
AcDbEntity
  8
AM_0 外形線1
100
AcDbLine
 10
79.0
 20
82.5
 30
0.0
 11
48.5
 21
82.5
 31
0.0
  0
LINE
  5
5C2A
330
5C0C
100
AcDbEntity
  8
AM_0 外形線1
100
AcDbLine
 10
48.0
 20
90.65569100000002
 30
0.0
 11
47.0
 21
91.81375499999999
 31
0.0
  0
LINE
  5
5C2B
330
5C0C
100
AcDbEntity
  8
AM_0 外形線1
100
AcDbLine
 10
48.0
 20
83.0
 30
0.0
 11
48.0
 21
90.65569100000002
 31
0.0
  0
ARC
  5
5C2C
330
5C0C
100
AcDbEntity
  8
AM_0 外形線1
100
AcDbCircle
 10
48.5
 20
83.0
 30
0.0
 40
0.5
100
AcDbArc
 50
180.0
 51
270.0
  0
LINE
  5
5C2D
330
5C0C
100
AcDbEntity
  8
AM_0 外形線1
100
AcDbLine
 10
81.0
 20
81.70000000000005
 30
0.0
 11
79.0
 21
82.5
 31
0.0
  0
ARC
  5
5C2E
330
5C0C
100
AcDbEntity
  8
AM_0 外形線1
100
AcDbCircle
 10
121.0
 20
77.70000000000004
 30
0.0
 40
4.0
100
AcDbArc
 50
0.0
 51
90.0
  0
LINE
  5
5C2F
330
5C0C
100
AcDbEntity
  8
AM_0 外形線1
100
AcDbLine
 10
0.0
 20
40.0
 30
0.0
 11
125.0
 21
40.0
 31
0.0
  0
ARC
  5
86E1
330
5C0C
100
AcDbEntity
  8
AM_0 外形線1
100
AcDbCircle
 10
33.0
 20
0.0
 30
0.0
 40
86.70000000000003
100
AcDbArc
 50
80.03710469882227
 51
97.28900594521931
  0
ARC
  5
86E2
330
5C0C
100
AcDbEntity
  8
AM_7 中心線
100
AcDbCircle
 10
33.0
 20
0.0
 30
0.0
 40
90.00000000000012
100
AcDbArc
 50
77.81252586456862
 51
98.94901806533006
  0
ENDBLK
  5
5C0E
330
5C0C
100
AcDbEntity
  8
0
100
AcDbBlockEnd
  0
BLOCK
  5
5C82
330
5C81
100
AcDbEntity
  8
0
100
AcDbBlockBegin
  2
センタＢ SSM250
 70
     0
 10
0.0
 20
0.0
 30
0.0
  3
センタＢ SSM250
  1

  0
ARC
  5
5C85
330
5C81
100
AcDbEntity
  8
AM_0 外形線1
100
AcDbCircle
 10
-33.0
 20
0.0
 30
0.0
 40
92.87499999999999
100
AcDbArc
 50
83.81888900000303
 51
98.6698269999932
  0
LINE
  5
5C87
330
5C81
100
AcDbEntity
  8
AM_0 外形線1
100
AcDbLine
 10
-125.0
 20
-77.70000000000004
 30
0.0
 11
-125.0
 21
77.70000000000004
 31
0.0
  0
LINE
  5
5C88
330
5C81
100
AcDbEntity
  8
AM_0 外形線1
100
AcDbLine
 10
-79.0
 20
-82.5
 30
0.0
 11
-79.0
 21
0.0
 31
0.0
  0
LINE
  5
5C89
330
5C81
100
AcDbEntity
  8
AM_0 外形線1
100
AcDbLine
 10
-81.0
 20
-81.70000000000005
 30
0.0
 11
-81.0
 21
0.0
 31
0.0
  0
LINE
  5
5C8A
330
5C81
100
AcDbEntity
  8
AM_0 外形線1
100
AcDbLine
 10
-81.0
 20
-81.70000000000005
 30
0.0
 11
-121.0
 21
-81.70000000000005
 31
0.0
  0
ARC
  5
5C8B
330
5C81
100
AcDbEntity
  8
AM_0 外形線1
100
AcDbCircle
 10
-121.0
 20
-77.70000000000004
 30
0.0
 40
4.0
100
AcDbArc
 50
180.0
 51
270.0
  0
LINE
  5
5C8C
330
5C81
100
AcDbEntity
  8
AM_0 外形線1
100
AcDbLine
 10
-68.0
 20
-82.5
 30
0.0
 11
-79.0
 21
-82.5
 31
0.0
  0
LINE
  5
5C8D
330
5C81
100
AcDbEntity
  8
AM_0 外形線1
100
AcDbLine
 10
-79.0
 20
-82.5
 30
0.0
 11
-81.0
 21
-81.70000000000005
 31
0.0
  0
LINE
  5
5C8E
330
5C81
100
AcDbEntity
  8
AM_0 外形線1
100
AcDbLine
 10
-121.0
 20
81.70000000000005
 30
0.0
 11
-81.0
 21
81.70000000000005
 31
0.0
  0
ARC
  5
5C8F
330
5C81
100
AcDbEntity
  8
AM_0 外形線1
100
AcDbCircle
 10
-121.0
 20
77.70000000000004
 30
0.0
 40
4.0
100
AcDbArc
 50
90.0
 51
180.0
  0
LINE
  5
5C90
330
5C81
100
AcDbEntity
  8
AM_0 外形線1
100
AcDbLine
 10
-79.0
 20
82.5
 30
0.0
 11
-48.5
 21
82.5
 31
0.0
  0
LINE
  5
5C91
330
5C81
100
AcDbEntity
  8
AM_0 外形線1
100
AcDbLine
 10
-81.0
 20
81.70000000000005
 30
0.0
 11
-79.0
 21
82.5
 31
0.0
  0
LINE
  5
5C92
330
5C81
100
AcDbEntity
  8
AM_0 外形線1
100
AcDbLine
 10
-48.0
 20
90.65569100000002
 30
0.0
 11
-47.0
 21
91.81375499999999
 31
0.0
  0
LINE
  5
5C93
330
5C81
100
AcDbEntity
  8
AM_0 外形線1
100
AcDbLine
 10
-48.0
 20
83.0
 30
0.0
 11
-48.0
 21
90.65569100000002
 31
0.0
  0
ARC
  5
5C94
330
5C81
100
AcDbEntity
  8
AM_0 外形線1
100
AcDbCircle
 10
-48.5
 20
83.0
 30
0.0
 40
0.5
100
AcDbArc
 50
270.0
 51
0.0
  0
LINE
  5
5C96
330
5C81
100
AcDbEntity
  8
AM_3 隠れ線
100
AcDbLine
 10
0.0
 20
4.25
 30
0.0
 11
-29.0
 21
4.25
 31
0.0
  0
LINE
  5
5C97
330
5C81
100
AcDbEntity
  8
AM_3 隠れ線
100
AcDbLine
 10
0.0
 20
5.0
 30
0.0
 11
-24.0
 21
5.0
 31
0.0
  0
LINE
  5
5C98
330
5C81
100
AcDbEntity
  8
AM_3 隠れ線
100
AcDbLine
 10
-29.0
 20
4.25
 30
0.0
 11
-31.45373899999993
 21
0.0
 31
0.0
  0
LINE
  5
5C99
330
5C81
100
AcDbEntity
  8
AM_3 隠れ線
100
AcDbLine
 10
-29.0
 20
4.25
 30
0.0
 11
-29.0
 21
0.0
 31
0.0
  0
LINE
  5
5C9A
330
5C81
100
AcDbEntity
  8
AM_3 隠れ線
100
AcDbLine
 10
-24.0
 20
5.0
 30
0.0
 11
-24.43301299999996
 21
4.25
 31
0.0
  0
LINE
  5
5C9B
330
5C81
100
AcDbEntity
  8
AM_3 隠れ線
100
AcDbLine
 10
-24.0
 20
5.0
 30
0.0
 11
-24.0
 21
0.0
 31
0.0
  0
LINE
  5
5C9C
330
5C81
100
AcDbEntity
  8
AM_3 隠れ線
100
AcDbLine
 10
-24.43301299999996
 20
4.25
 30
0.0
 11
-24.43301299999996
 21
0.0
 31
0.0
  0
LINE
  5
5C9D
330
5C81
100
AcDbEntity
  8
AM_0 外形線1
100
AcDbLine
 10
-21.5
 20
82.0
 30
0.0
 11
-1.0
 21
82.0
 31
0.0
  0
LINE
  5
5C9E
330
5C81
100
AcDbEntity
  8
AM_7 中心線
100
AcDbLine
 10
-33.0
 20
97.87500000000001
 30
0.0
 11
-33.0
 21
81.70000000000005
 31
0.0
  0
ARC
  5
5C9F
330
5C81
100
AcDbEntity
  8
AM_0 外形線1
100
AcDbCircle
 10
-21.5
 20
82.5
 30
0.0
 40
0.5
100
AcDbArc
 50
180.0
 51
270.0
  0
LINE
  5
5CA0
330
5C81
100
AcDbEntity
  8
AM_0 外形線1
100
AcDbLine
 10
-22.0
 20
91.22128600000008
 30
0.0
 11
-22.0
 21
82.5
 31
0.0
  0
LINE
  5
5CA1
330
5C81
100
AcDbEntity
  8
AM_0 外形線1
100
AcDbLine
 10
-23.0
 20
92.33507300000008
 30
0.0
 11
-22.0
 21
91.22128600000008
 31
0.0
  0
LINE
  5
5CA2
330
5C81
100
AcDbEntity
  8
AM_0 外形線1
100
AcDbLine
 10
-1.0
 20
82.0
 30
0.0
 11
0.0
 21
81.0
 31
0.0
  0
LINE
  5
5CA4
330
5C81
100
AcDbEntity
  8
AM_0 外形線1
100
AcDbLine
 10
0.0
 20
40.0
 30
0.0
 11
-125.0
 21
40.0
 31
0.0
  0
LINE
  5
661B
330
5C81
100
AcDbEntity
  8
AM_0 外形線1
100
AcDbLine
 10
0.0
 20
81.0
 30
0.0
 11
0.0
 21
0.0
 31
0.0
  0
ARC
  5
8695
330
5C81
100
AcDbEntity
  8
AM_0 外形線1
100
AcDbCircle
 10
-33.0
 20
0.0
 30
0.0
 40
86.70000000000003
100
AcDbArc
 50
82.71099405478716
 51
99.9628953011777
  0
ARC
  5
8696
330
5C81
100
AcDbEntity
  8
AM_7 中心線
100
AcDbCircle
 10
-33.0
 20
0.0
 30
0.0
 40
90.00000000000012
100
AcDbArc
 50
81.05098193466995
 51
102.187474135425
  0
ENDBLK
  5
5C83
330
5C81
100
AcDbEntity
  8
0
100
AcDbBlockEnd
  0
BLOCK
  5
6135
330
6134
100
AcDbEntity
  8
0
100
AcDbBlockBegin
  2
リーマボルト SSMH250 M10
 70
     0
 10
0.0
 20
0.0
 30
0.0
  3
リーマボルト SSMH250 M10
  1

  0
LINE
  5
6137
330
6134
100
AcDbEntity
  8
AM_0 外形線1
100
AcDbLine
 10
32.5
 20
0.8333330000000387
 30
0.0
 11
30.0
 21
-1.666666999999961
 31
0.0
  0
LINE
  5
6138
330
6134
100
AcDbEntity
  8
AM_0 外形線1
100
AcDbLine
 10
32.5
 20
1.666666999999961
 30
0.0
 11
30.0
 21
-0.8333330000000387
 31
0.0
  0
LINE
  5
6139
330
6134
100
AcDbEntity
  8
AM_0 外形線1
100
AcDbLine
 10
44.0
 20
5.0
 30
0.0
 11
44.0
 21
-5.0
 31
0.0
  0
LINE
  5
613A
330
6134
100
AcDbEntity
  8
AM_0 外形線1
100
AcDbLine
 10
45.0
 20
4.0
 30
0.0
 11
45.0
 21
-4.0
 31
0.0
  0
ARC
  5
613B
330
6134
100
AcDbEntity
  8
AM_0 外形線1
100
AcDbCircle
 10
24.08104700000001
 20
0.0
 30
0.0
 40
16.418953
100
AcDbArc
 50
342.6089940000023
 51
17.3910059999977
  0
LINE
  5
613C
330
6134
100
AcDbEntity
  8
AM_0 外形線1
100
AcDbLine
 10
32.5
 20
-9.799999999999952
 30
0.0
 11
32.5
 21
9.799999999999952
 31
0.0
  0
LINE
  5
613D
330
6134
100
AcDbEntity
  8
AM_0 外形線1
100
AcDbLine
 10
40.49999999999999
 20
8.5
 30
0.0
 11
40.49999999999999
 21
-8.5
 31
0.0
  0
LINE
  5
613E
330
6134
100
AcDbEntity
  8
AM_0 外形線1
100
AcDbLine
 10
27.0
 20
5.5
 30
0.0
 11
27.0
 21
-5.5
 31
0.0
  0
LINE
  5
613F
330
6134
100
AcDbEntity
  8
AM_0 外形線1
100
AcDbLine
 10
1.5
 20
-5.5
 30
0.0
 11
1.5
 21
5.5
 31
0.0
  0
LINE
  5
6140
330
6134
100
AcDbEntity
  8
AM_0 外形線1
100
AcDbLine
 10
28.0
 20
4.922649999999974
 30
0.0
 11
28.0
 21
-4.922649999999974
 31
0.0
  0
ARC
  5
6141
330
6134
100
AcDbEntity
  8
AM_0 外形線1
100
AcDbCircle
 10
9.418952999999987
 20
0.0
 30
0.0
 40
16.418953
100
AcDbArc
 50
162.6089940000023
 51
197.3910059999976
  0
LINE
  5
6142
330
6134
100
AcDbEntity
  8
AM_0 外形線1
100
AcDbLine
 10
-7.0
 20
8.5
 30
0.0
 11
-7.0
 21
-8.5
 31
0.0
  0
ARC
  5
6143
330
6134
100
AcDbEntity
  8
AM_0 外形線1
100
AcDbCircle
 10
0.5
 20
-5.5
 30
0.0
 40
0.5
100
AcDbArc
 50
90.0
 51
180.0
  0
ARC
  5
6144
330
6134
100
AcDbEntity
  8
AM_0 外形線1
100
AcDbCircle
 10
-2.638211000000068
 20
-7.353739000000017
 30
0.0
 40
4.361788999999999
100
AcDbArc
 50
145.8861589999971
 51
214.1138410000028
  0
LINE
  5
6145
330
6134
100
AcDbEntity
  8
AM_0 外形線1
100
AcDbLine
 10
0.0
 20
-4.907476999999971
 30
0.0
 11
-6.249445000000036
 21
-4.907476999999971
 31
0.0
  0
LINE
  5
6146
330
6134
100
AcDbEntity
  8
AM_0 外形線1
100
AcDbLine
 10
-6.249445000000036
 20
-9.799999999999952
 30
0.0
 11
0.0
 21
-9.799999999999952
 31
0.0
  0
LINE
  5
6147
330
6134
100
AcDbEntity
  8
AM_0 外形線1
100
AcDbLine
 10
-7.0
 20
-8.5
 30
0.0
 11
-6.249445000000036
 21
-9.799999999999952
 31
0.0
  0
ARC
  5
6148
330
6134
100
AcDbEntity
  8
AM_0 外形線1
100
AcDbCircle
 10
1.0
 20
-5.5
 30
0.0
 40
0.5
100
AcDbArc
 50
0.0
 51
90.0
  0
LINE
  5
6149
330
6134
100
AcDbEntity
  8
AM_0 外形線1
100
AcDbLine
 10
0.5
 20
-5.0
 30
0.0
 11
1.0
 21
-5.0
 31
0.0
  0
LINE
  5
614A
330
6134
100
AcDbEntity
  8
AM_0 外形線1
100
AcDbLine
 10
32.5
 20
-4.907476999999971
 30
0.0
 11
39.74944500000004
 21
-4.907476999999971
 31
0.0
  0
LINE
  5
614B
330
6134
100
AcDbEntity
  8
AM_0 外形線1
100
AcDbLine
 10
39.74944500000004
 20
-9.799999999999952
 30
0.0
 11
32.5
 21
-9.799999999999952
 31
0.0
  0
LINE
  5
614C
330
6134
100
AcDbEntity
  8
AM_0 外形線1
100
AcDbLine
 10
28.0
 20
-4.922649999999974
 30
0.0
 11
30.0
 21
-4.922649999999974
 31
0.0
  0
LINE
  5
614D
330
6134
100
AcDbEntity
  8
AM_0 外形線1
100
AcDbLine
 10
30.0
 20
-9.200000000000043
 30
0.0
 11
32.5
 21
-9.200000000000043
 31
0.0
  0
LINE
  5
614E
330
6134
100
AcDbEntity
  8
AM_0 外形線1
100
AcDbLine
 10
28.0
 20
-4.922649999999974
 30
0.0
 11
27.0
 21
-5.5
 31
0.0
  0
LINE
  5
614F
330
6134
100
AcDbEntity
  8
AM_4 細線
100
AcDbLine
 10
40.49999999999999
 20
-4.25
 30
0.0
 11
44.75
 21
-4.25
 31
0.0
  0
LINE
  5
6150
330
6134
100
AcDbEntity
  8
AM_0 外形線1
100
AcDbLine
 10
44.0
 20
-5.0
 30
0.0
 11
40.49999999999999
 21
-5.0
 31
0.0
  0
LINE
  5
6151
330
6134
100
AcDbEntity
  8
AM_0 外形線1
100
AcDbLine
 10
45.0
 20
-4.0
 30
0.0
 11
44.0
 21
-5.0
 31
0.0
  0
ARC
  5
6152
330
6134
100
AcDbEntity
  8
AM_0 外形線1
100
AcDbCircle
 10
36.13821100000007
 20
-7.353739000000017
 30
0.0
 40
4.361788999999999
100
AcDbArc
 50
325.8861589999972
 51
34.11384100000282
  0
LINE
  5
6153
330
6134
100
AcDbEntity
  8
AM_0 外形線1
100
AcDbLine
 10
40.49999999999999
 20
-8.5
 30
0.0
 11
39.74944500000004
 21
-9.799999999999952
 31
0.0
  0
ARC
  5
6154
330
6134
100
AcDbEntity
  8
AM_0 外形線1
100
AcDbCircle
 10
0.5
 20
5.5
 30
0.0
 40
0.5
100
AcDbArc
 50
180.0
 51
270.0
  0
ARC
  5
6155
330
6134
100
AcDbEntity
  8
AM_0 外形線1
100
AcDbCircle
 10
-2.638211000000068
 20
7.353739000000017
 30
0.0
 40
4.361788999999999
100
AcDbArc
 50
145.8861589999971
 51
214.1138410000028
  0
LINE
  5
6156
330
6134
100
AcDbEntity
  8
AM_0 外形線1
100
AcDbLine
 10
0.0
 20
4.907476999999971
 30
0.0
 11
-6.249445000000036
 21
4.907476999999971
 31
0.0
  0
LINE
  5
6157
330
6134
100
AcDbEntity
  8
AM_0 外形線1
100
AcDbLine
 10
-6.249445000000036
 20
9.799999999999952
 30
0.0
 11
-7.0
 21
8.5
 31
0.0
  0
LINE
  5
6158
330
6134
100
AcDbEntity
  8
AM_0 外形線1
100
AcDbLine
 10
0.0
 20
9.799999999999952
 30
0.0
 11
-6.249445000000036
 21
9.799999999999952
 31
0.0
  0
ARC
  5
6159
330
6134
100
AcDbEntity
  8
AM_0 外形線1
100
AcDbCircle
 10
1.0
 20
5.5
 30
0.0
 40
0.5
100
AcDbArc
 50
270.0
 51
0.0
  0
LINE
  5
615A
330
6134
100
AcDbEntity
  8
AM_0 外形線1
100
AcDbLine
 10
0.5
 20
5.0
 30
0.0
 11
1.0
 21
5.0
 31
0.0
  0
LINE
  5
615B
330
6134
100
AcDbEntity
  8
AM_0 外形線1
100
AcDbLine
 10
32.5
 20
4.907476999999971
 30
0.0
 11
39.74944500000004
 21
4.907476999999971
 31
0.0
  0
LINE
  5
615C
330
6134
100
AcDbEntity
  8
AM_0 外形線1
100
AcDbLine
 10
32.5
 20
9.799999999999952
 30
0.0
 11
39.74944500000004
 21
9.799999999999952
 31
0.0
  0
LINE
  5
615D
330
6134
100
AcDbEntity
  8
AM_0 外形線1
100
AcDbLine
 10
28.0
 20
4.922649999999974
 30
0.0
 11
30.0
 21
4.922649999999974
 31
0.0
  0
LINE
  5
615E
330
6134
100
AcDbEntity
  8
AM_0 外形線1
100
AcDbLine
 10
32.5
 20
9.200000000000043
 30
0.0
 11
30.0
 21
9.200000000000043
 31
0.0
  0
LINE
  5
615F
330
6134
100
AcDbEntity
  8
AM_0 外形線1
100
AcDbLine
 10
27.0
 20
5.5
 30
0.0
 11
28.0
 21
4.922649999999974
 31
0.0
  0
LINE
  5
6160
330
6134
100
AcDbEntity
  8
AM_4 細線
100
AcDbLine
 10
40.49999999999999
 20
4.25
 30
0.0
 11
44.75
 21
4.25
 31
0.0
  0
LINE
  5
6161
330
6134
100
AcDbEntity
  8
AM_0 外形線1
100
AcDbLine
 10
44.0
 20
5.0
 30
0.0
 11
45.0
 21
4.0
 31
0.0
  0
LINE
  5
6162
330
6134
100
AcDbEntity
  8
AM_0 外形線1
100
AcDbLine
 10
40.49999999999999
 20
5.0
 30
0.0
 11
44.0
 21
5.0
 31
0.0
  0
ARC
  5
6163
330
6134
100
AcDbEntity
  8
AM_0 外形線1
100
AcDbCircle
 10
36.13821100000007
 20
7.353739000000017
 30
0.0
 40
4.361788999999999
100
AcDbArc
 50
325.8861589999972
 51
34.11384100000282
  0
LINE
  5
6164
330
6134
100
AcDbEntity
  8
AM_0 外形線1
100
AcDbLine
 10
39.74944500000004
 20
9.799999999999952
 30
0.0
 11
40.49999999999999
 21
8.5
 31
0.0
  0
LINE
  5
61D0
330
6134
100
AcDbEntity
  8
AM_0 外形線1
100
AcDbLine
 10
0.0
 20
9.799999999999952
 30
0.0
 11
0.0
 21
-9.799999999999952
 31
0.0
  0
LINE
  5
61D1
330
6134
100
AcDbEntity
  8
AM_0 外形線1
100
AcDbLine
 10
1.5
 20
5.5
 30
0.0
 11
26.99999999999977
 21
5.500000000000113
 31
0.0
  0
LINE
  5
61D2
330
6134
100
AcDbEntity
  8
AM_0 外形線1
100
AcDbLine
 10
1.499999999998293
 20
-5.499999999997839
 30
0.0
 11
26.99999999999807
 21
-5.500000000005911
 31
0.0
  0
LINE
  5
61D3
330
6134
100
AcDbEntity
  8
AM_0 外形線1
100
AcDbLine
 10
30.0
 20
9.200000000000043
 30
0.0
 11
30.0
 21
-9.200000000000043
 31
0.0
  0
ENDBLK
  5
6136
330
6134
100
AcDbEntity
  8
0
100
AcDbBlockEnd
  0
BLOCK
  5
6D93
330
6D92
100
AcDbEntity
  8
0
100
AcDbBlockBegin
  2
*D12
 70
     1
 10
0.0
 20
0.0
 30
0.0
  3
*D12
  1

  0
LINE
  5
6DBB
330
6D92
100
AcDbEntity
  8
AM_5 寸法線
 62
     3
100
AcDbLine
 10
519.4280638294663
 20
730.6422702418463
 30
0.0
 11
409.7011111103547
 21
730.6422702418463
 31
0.0
  0
LINE
  5
6DBC
330
6D92
100
AcDbEntity
  8
AM_5 寸法線
 62
     3
100
AcDbLine
 10
519.4280638294663
 20
565.6422702418463
 30
0.0
 11
409.7011111103547
 21
565.6422702418463
 31
0.0
  0
LINE
  5
6DBD
330
6D92
100
AcDbEntity
  8
AM_5 寸法線
 62
     3
100
AcDbLine
 10
411.5761111103548
 20
723.1422702418463
 30
0.0
 11
411.5761111103548
 21
573.1422702418463
 31
0.0
  0
INSERT
  5
6DBE
330
6D92
100
AcDbEntity
  8
AM_5 寸法線
 62
     3
100
AcDbBlockReference
  2
_Open30
 10
411.5761111103548
 20
730.6422702418463
 30
0.0
 41
7.5
 42
7.5
 43
7.5
 50
90.0
  0
INSERT
  5
6DBF
330
6D92
100
AcDbEntity
  8
AM_5 寸法線
 62
     3
100
AcDbBlockReference
  2
_Open30
 10
411.5761111103548
 20
565.6422702418463
 30
0.0
 41
7.5
 42
7.5
 43
7.5
 50
270.0
  0
MTEXT
  5
6DC0
330
6D92
100
AcDbEntity
  8
AM_5 寸法線
 62
     3
100
AcDbMText
 10
401.8261111103548
 20
653.336618308397
 30
0.0
 40
10.5
 41
0.0
 46
0.0
 71
     5
 72
     1
  1
%%c165
  7
SEISA
 11
0.0000000000000001
 21
1.0
 31
0.0
 73
     1
 44
1.0
  0
POINT
  5
6DC1
330
6D92
100
AcDbEntity
  8
Defpoints
 62
     0
100
AcDbPoint
 10
521.3030638294663
 20
730.6422702418463
 30
0.0
  0
POINT
  5
6DC2
330
6D92
100
AcDbEntity
  8
Defpoints
 62
     0
100
AcDbPoint
 10
521.3030638294663
 20
565.6422702418463
 30
0.0
  0
POINT
  5
6DC3
330
6D92
100
AcDbEntity
  8
Defpoints
 62
     0
100
AcDbPoint
 10
411.5761111103548
 20
565.6422702418463
 30
0.0
  0
ENDBLK
  5
6D94
330
6D92
100
AcDbEntity
  8
0
100
AcDbBlockEnd
  0
BLOCK
  5
6DDF
330
6DDE
100
AcDbEntity
  8
0
100
AcDbBlockBegin
  2
*D13
 70
     1
 10
0.0
 20
0.0
 30
0.0
  3
*D13
  1

  0
LINE
  5
823B
330
6DDE
100
AcDbEntity
  8
AM_5 寸法線
 62
     3
100
AcDbLine
 10
475.3030638294663
 20
661.5131253234587
 30
0.0
 11
475.3030638294663
 21
670.0357299323813
 31
0.0
  0
LINE
  5
823C
330
6DDE
100
AcDbEntity
  8
AM_5 寸法線
 62
     3
100
AcDbLine
 10
600.3030638294663
 20
669.9623182455381
 30
0.0
 11
600.3030638294663
 21
670.0357299323813
 31
0.0
  0
LINE
  5
823D
330
6DDE
100
AcDbEntity
  8
AM_5 寸法線
 62
     3
100
AcDbLine
 10
482.8030638294661
 20
668.1607299323811
 30
0.0
 11
592.8030638294663
 21
668.1607299323811
 31
0.0
  0
INSERT
  5
823E
330
6DDE
100
AcDbEntity
  8
AM_5 寸法線
 62
     3
100
AcDbBlockReference
  2
_Open30
 10
475.3030638294663
 20
668.1607299323811
 30
0.0
 41
7.5
 42
7.5
 43
7.5
 50
180.0
  0
INSERT
  5
823F
330
6DDE
100
AcDbEntity
  8
AM_5 寸法線
 62
     3
100
AcDbBlockReference
  2
_Open30
 10
600.3030638294663
 20
668.1607299323811
 30
0.0
 41
7.5
 42
7.5
 43
7.5
  0
MTEXT
  5
8240
330
6DDE
100
AcDbEntity
  8
AM_5 寸法線
 62
     3
100
AcDbMText
 10
537.8030638294663
 20
677.9107299323811
 30
0.0
 40
10.5
 41
0.0
 46
0.0
 71
     5
 72
     1
  1
125
  7
SEISA
 73
     1
 44
1.0
  0
POINT
  5
8241
330
6DDE
100
AcDbEntity
  8
Defpoints
 62
     0
100
AcDbPoint
 10
475.3030638294663
 20
659.6381253234588
 30
0.0
  0
POINT
  5
8242
330
6DDE
100
AcDbEntity
  8
Defpoints
 62
     0
100
AcDbPoint
 10
600.3030638294663
 20
668.0873182455379
 30
0.0
  0
POINT
  5
8243
330
6DDE
100
AcDbEntity
  8
Defpoints
 62
     0
100
AcDbPoint
 10
600.3030638294663
 20
668.1607299323811
 30
0.0
  0
ENDBLK
  5
6DE0
330
6DDE
100
AcDbEntity
  8
0
100
AcDbBlockEnd
  0
BLOCK
  5
6E1B
330
6E1A
100
AcDbEntity
  8
0
100
AcDbBlockBegin
  2
*D14
 70
     1
 10
0.0
 20
0.0
 30
0.0
  3
*D14
  1

  0
LINE
  5
8232
330
6E1A
100
AcDbEntity
  8
AM_5 寸法線
 62
     3
100
AcDbLine
 10
612.3030638294663
 20
662.5410256029843
 30
0.0
 11
612.3030638294663
 21
670.0357299323813
 31
0.0
  0
LINE
  5
8233
330
6E1A
100
AcDbEntity
  8
AM_5 寸法線
 62
     3
100
AcDbLine
 10
737.3030638294663
 20
662.5410256029843
 30
0.0
 11
737.3030638294663
 21
670.0357299323813
 31
0.0
  0
LINE
  5
8234
330
6E1A
100
AcDbEntity
  8
AM_5 寸法線
 62
     3
100
AcDbLine
 10
619.8030638294662
 20
668.1607299323811
 30
0.0
 11
729.8030638294663
 21
668.1607299323811
 31
0.0
  0
INSERT
  5
8235
330
6E1A
100
AcDbEntity
  8
AM_5 寸法線
 62
     3
100
AcDbBlockReference
  2
_Open30
 10
612.3030638294663
 20
668.1607299323811
 30
0.0
 41
7.5
 42
7.5
 43
7.5
 50
180.0
  0
INSERT
  5
8236
330
6E1A
100
AcDbEntity
  8
AM_5 寸法線
 62
     3
100
AcDbBlockReference
  2
_Open30
 10
737.3030638294663
 20
668.1607299323811
 30
0.0
 41
7.5
 42
7.5
 43
7.5
  0
MTEXT
  5
8237
330
6E1A
100
AcDbEntity
  8
AM_5 寸法線
 62
     3
100
AcDbMText
 10
674.8030638294663
 20
677.9107299323811
 30
0.0
 40
10.5
 41
0.0
 46
0.0
 71
     5
 72
     1
  1
125
  7
SEISA
 73
     1
 44
1.0
  0
POINT
  5
8238
330
6E1A
100
AcDbEntity
  8
Defpoints
 62
     0
100
AcDbPoint
 10
612.3030638294663
 20
660.6660256029843
 30
0.0
  0
POINT
  5
8239
330
6E1A
100
AcDbEntity
  8
Defpoints
 62
     0
100
AcDbPoint
 10
737.3030638294663
 20
660.6660256029843
 30
0.0
  0
POINT
  5
823A
330
6E1A
100
AcDbEntity
  8
Defpoints
 62
     0
100
AcDbPoint
 10
737.3030638294663
 20
668.1607299323811
 30
0.0
  0
ENDBLK
  5
6E1C
330
6E1A
100
AcDbEntity
  8
0
100
AcDbBlockEnd
  0
BLOCK
  5
6E45
330
6E44
100
AcDbEntity
  8
0
100
AcDbBlockBegin
  2
*D15
 70
     1
 10
0.0
 20
0.0
 30
0.0
  3
*D15
  1

  0
LINE
  5
825A
330
6E44
100
AcDbEntity
  8
AM_5 寸法線
 62
     3
100
AcDbLine
 10
600.3030638294663
 20
666.9736578082215
 30
0.0
 11
600.3030638294663
 21
666.2857299323811
 31
0.0
  0
LINE
  5
825B
330
6E44
100
AcDbEntity
  8
AM_5 寸法線
 62
     3
100
AcDbLine
 10
612.3030638294663
 20
663.7446191436447
 30
0.0
 11
612.3030638294663
 21
670.0357299323813
 31
0.0
  0
LINE
  5
825C
330
6E44
100
AcDbEntity
  8
AM_5 寸法線
 62
     3
100
AcDbLine
 10
592.8030638294663
 20
668.1607299323811
 30
0.0
 11
585.3030638294662
 21
668.1607299323811
 31
0.0
  0
LINE
  5
825D
330
6E44
100
AcDbEntity
  8
AM_5 寸法線
 62
     3
100
AcDbLine
 10
619.8030638294662
 20
668.1607299323811
 30
0.0
 11
627.3030638294662
 21
668.1607299323811
 31
0.0
  0
MTEXT
  5
825E
330
6E44
100
AcDbEntity
  8
AM_5 寸法線
 62
     3
100
AcDbMText
 10
626.1877106479572
 20
677.2421498758298
 30
0.0
 40
10.5
 41
0.0
 46
0.0
 71
     5
 72
     1
  1
12
  7
SEISA
 73
     1
 44
1.0
  0
LINE
  5
825F
330
6E44
100
AcDbEntity
  8
AM_5 寸法線
 62
     3
100
AcDbLine
 10
600.3030638294663
 20
668.1607299323811
 30
0.0
 11
612.3030638294663
 21
668.1607299323811
 31
0.0
  0
INSERT
  5
8260
330
6E44
100
AcDbEntity
  8
AM_5 寸法線
 62
     3
100
AcDbBlockReference
  2
_Open30
 10
600.3030638294663
 20
668.1607299323811
 30
0.0
 41
7.5
 42
7.5
 43
7.5
  0
INSERT
  5
8261
330
6E44
100
AcDbEntity
  8
AM_5 寸法線
 62
     3
100
AcDbBlockReference
  2
_Open30
 10
612.3030638294663
 20
668.1607299323811
 30
0.0
 41
7.5
 42
7.5
 43
7.5
 50
180.0
  0
POINT
  5
8262
330
6E44
100
AcDbEntity
  8
Defpoints
 62
     0
100
AcDbPoint
 10
600.3030638294663
 20
668.8486578082216
 30
0.0
  0
POINT
  5
8263
330
6E44
100
AcDbEntity
  8
Defpoints
 62
     0
100
AcDbPoint
 10
612.3030638294663
 20
661.8696191436447
 30
0.0
  0
POINT
  5
8264
330
6E44
100
AcDbEntity
  8
Defpoints
 62
     0
100
AcDbPoint
 10
612.3030638294663
 20
668.1607299323811
 30
0.0
  0
ENDBLK
  5
6E46
330
6E44
100
AcDbEntity
  8
0
100
AcDbBlockEnd
  0
BLOCK
  5
6E8A
330
6E89
100
AcDbEntity
  8
0
100
AcDbBlockBegin
  2
*D16
 70
     1
 10
0.0
 20
0.0
 30
0.0
  3
*D16
  1

  0
LINE
  5
6EAF
330
6E89
100
AcDbEntity
  8
AM_5 寸法線
 62
     3
100
AcDbLine
 10
548.3030638294661
 20
728.7672702418462
 30
0.0
 11
548.3030638294661
 21
707.5979127774852
 31
0.0
  0
LINE
  5
6EB0
330
6E89
100
AcDbEntity
  8
AM_5 寸法線
 62
     3
100
AcDbLine
 10
552.3030638294661
 20
729.2672702418463
 30
0.0
 11
552.3030638294661
 21
707.5979127774852
 31
0.0
  0
LINE
  5
6EB1
330
6E89
100
AcDbEntity
  8
AM_5 寸法線
 62
     3
100
AcDbLine
 10
559.8030638294662
 20
709.4729127774852
 30
0.0
 11
567.3030638294663
 21
709.4729127774852
 31
0.0
  0
LINE
  5
6EB2
330
6E89
100
AcDbEntity
  8
AM_5 寸法線
 62
     3
100
AcDbLine
 10
540.8030638294661
 20
709.4729127774852
 30
0.0
 11
517.5530638294661
 21
709.4729127774852
 31
0.0
  0
LINE
  5
6EB3
330
6E89
100
AcDbEntity
  8
AM_5 寸法線
 62
     3
100
AcDbLine
 10
552.3030638294661
 20
709.4729127774852
 30
0.0
 11
548.3030638294661
 21
709.4729127774852
 31
0.0
  0
INSERT
  5
6EB4
330
6E89
100
AcDbEntity
  8
AM_5 寸法線
 62
     3
100
AcDbBlockReference
  2
_Open30
 10
552.3030638294661
 20
709.4729127774852
 30
0.0
 41
7.5
 42
7.5
 43
7.5
 50
180.0
  0
INSERT
  5
6EB5
330
6E89
100
AcDbEntity
  8
AM_5 寸法線
 62
     3
100
AcDbBlockReference
  2
_Open30
 10
548.3030638294661
 20
709.4729127774852
 30
0.0
 41
7.5
 42
7.5
 43
7.5
  0
MTEXT
  5
6EB6
330
6E89
100
AcDbEntity
  8
AM_5 寸法線
 62
     3
100
AcDbMText
 10
525.4280638294662
 20
719.2229127774852
 30
0.0
 40
10.5
 41
0.0
 46
0.0
 71
     5
 72
     1
  1
4
  7
SEISA
 73
     1
 44
1.0
  0
POINT
  5
6EB7
330
6E89
100
AcDbEntity
  8
Defpoints
 62
     0
100
AcDbPoint
 10
548.3030638294661
 20
730.6422702418463
 30
0.0
  0
POINT
  5
6EB8
102
{ACAD_REACTORS
330
8714
102
}
330
6E89
100
AcDbEntity
  8
Defpoints
 62
     0
100
AcDbPoint
 10
552.3030638294661
 20
731.1422702418463
 30
0.0
  0
POINT
  5
6EB9
330
6E89
100
AcDbEntity
  8
Defpoints
 62
     0
100
AcDbPoint
 10
552.3030638294661
 20
709.4729127774852
 30
0.0
  0
ENDBLK
  5
6E8B
330
6E89
100
AcDbEntity
  8
0
100
AcDbBlockEnd
  0
BLOCK
  5
6EFC
330
6EFB
100
AcDbEntity
  8
0
100
AcDbBlockBegin
  2
*D17
 70
     1
 10
0.0
 20
0.0
 30
0.0
  3
*D17
  1

  0
LINE
  5
8072
330
6EFB
100
AcDbEntity
  8
AM_5 寸法線
 62
     3
100
AcDbLine
 10
591.3030638294663
 20
522.2672702418463
 30
0.0
 11
591.3030638294663
 21
491.2672702418461
 31
0.0
  0
LINE
  5
8073
330
6EFB
100
AcDbEntity
  8
AM_5 寸法線
 62
     3
100
AcDbLine
 10
606.3030638294662
 20
522.2672702418463
 30
0.0
 11
606.3030638294662
 21
491.2672702418461
 31
0.0
  0
LINE
  5
8074
330
6EFB
100
AcDbEntity
  8
AM_5 寸法線
 62
     3
100
AcDbLine
 10
583.8030638294663
 20
493.1422702418463
 30
0.0
 11
576.3030638294662
 21
493.1422702418463
 31
0.0
  0
LINE
  5
8075
330
6EFB
100
AcDbEntity
  8
AM_5 寸法線
 62
     3
100
AcDbLine
 10
613.8030638294662
 20
493.1422702418463
 30
0.0
 11
621.3030638294663
 21
493.1422702418463
 31
0.0
  0
MTEXT
  5
8076
330
6EFB
100
AcDbEntity
  8
AM_5 寸法線
 62
     3
100
AcDbMText
 10
576.4655298859497
 20
502.6925817360933
 30
0.0
 40
10.5
 41
0.0
 46
0.0
 71
     5
 72
     1
  1
15
  7
SEISA
 73
     1
 44
1.0
  0
LINE
  5
8077
330
6EFB
100
AcDbEntity
  8
AM_5 寸法線
 62
     3
100
AcDbLine
 10
591.3030638294663
 20
493.1422702418463
 30
0.0
 11
606.3030638294662
 21
493.1422702418463
 31
0.0
  0
INSERT
  5
8078
330
6EFB
100
AcDbEntity
  8
AM_5 寸法線
 62
     3
100
AcDbBlockReference
  2
_Open30
 10
591.3030638294663
 20
493.1422702418463
 30
0.0
 41
7.5
 42
7.5
 43
7.5
  0
INSERT
  5
8079
330
6EFB
100
AcDbEntity
  8
AM_5 寸法線
 62
     3
100
AcDbBlockReference
  2
GENDOT
 10
606.3030638294662
 20
493.1422702418463
 30
0.0
 41
7.5
 42
7.5
 43
7.5
 50
180.0
  0
POINT
  5
807A
330
6EFB
100
AcDbEntity
  8
Defpoints
 62
     0
100
AcDbPoint
 10
591.3030638294663
 20
524.1422702418462
 30
0.0
  0
POINT
  5
807B
330
6EFB
100
AcDbEntity
  8
Defpoints
 62
     0
100
AcDbPoint
 10
606.3030638294662
 20
524.1422702418462
 30
0.0
  0
POINT
  5
807C
330
6EFB
100
AcDbEntity
  8
Defpoints
 62
     0
100
AcDbPoint
 10
606.3030638294662
 20
493.1422702418463
 30
0.0
  0
ENDBLK
  5
6EFD
330
6EFB
100
AcDbEntity
  8
0
100
AcDbBlockEnd
  0
BLOCK
  5
6F39
330
6F38
100
AcDbEntity
  8
0
100
AcDbBlockBegin
  2
*D18
 70
     1
 10
0.0
 20
0.0
 30
0.0
  3
*D18
  1

  0
LINE
  5
8088
330
6F38
100
AcDbEntity
  8
AM_5 寸法線
 62
     3
100
AcDbLine
 10
606.3030638294662
 20
522.2672702418463
 30
0.0
 11
606.3030638294662
 21
491.2672702418461
 31
0.0
  0
LINE
  5
8089
330
6F38
100
AcDbEntity
  8
AM_5 寸法線
 62
     3
100
AcDbLine
 10
621.3030638294663
 20
522.2672702418463
 30
0.0
 11
621.3030638294663
 21
491.2672702418461
 31
0.0
  0
LINE
  5
808A
330
6F38
100
AcDbEntity
  8
AM_5 寸法線
 62
     3
100
AcDbLine
 10
598.8030638294662
 20
493.1422702418463
 30
0.0
 11
591.3030638294663
 21
493.1422702418463
 31
0.0
  0
LINE
  5
808B
330
6F38
100
AcDbEntity
  8
AM_5 寸法線
 62
     3
100
AcDbLine
 10
628.8030638294663
 20
493.1422702418463
 30
0.0
 11
636.3030638294662
 21
493.1422702418463
 31
0.0
  0
MTEXT
  5
808C
330
6F38
100
AcDbEntity
  8
AM_5 寸法線
 62
     3
100
AcDbMText
 10
634.3057009412468
 20
502.8237124801993
 30
0.0
 40
10.5
 41
0.0
 46
0.0
 71
     5
 72
     1
  1
15
  7
SEISA
 73
     1
 44
1.0
  0
LINE
  5
808D
330
6F38
100
AcDbEntity
  8
AM_5 寸法線
 62
     3
100
AcDbLine
 10
606.3030638294662
 20
493.1422702418463
 30
0.0
 11
621.3030638294663
 21
493.1422702418463
 31
0.0
  0
INSERT
  5
808E
330
6F38
100
AcDbEntity
  8
AM_5 寸法線
 62
     3
100
AcDbBlockReference
  2
GENDOT
 10
606.3030638294662
 20
493.1422702418463
 30
0.0
 41
7.5
 42
7.5
 43
7.5
  0
INSERT
  5
808F
330
6F38
100
AcDbEntity
  8
AM_5 寸法線
 62
     3
100
AcDbBlockReference
  2
_Open30
 10
621.3030638294663
 20
493.1422702418463
 30
0.0
 41
7.5
 42
7.5
 43
7.5
 50
180.0
  0
POINT
  5
8090
330
6F38
100
AcDbEntity
  8
Defpoints
 62
     0
100
AcDbPoint
 10
606.3030638294662
 20
524.1422702418462
 30
0.0
  0
POINT
  5
8091
330
6F38
100
AcDbEntity
  8
Defpoints
 62
     0
100
AcDbPoint
 10
621.3030638294663
 20
524.1422702418462
 30
0.0
  0
POINT
  5
8092
330
6F38
100
AcDbEntity
  8
Defpoints
 62
     0
100
AcDbPoint
 10
621.3030638294663
 20
493.1422702418463
 30
0.0
  0
ENDBLK
  5
6F3A
330
6F38
100
AcDbEntity
  8
0
100
AcDbBlockEnd
  0
BLOCK
  5
70F8
330
70F7
100
AcDbEntity
  8
0
100
AcDbBlockBegin
  2
*D19
 70
     1
 10
0.0
 20
0.0
 30
0.0
  3
*D19
  1

  0
LINE
  5
85F8
330
70F7
100
AcDbEntity
  8
AM_5 寸法線
 62
     3
100
AcDbLine
 10
532.3030638294661
 20
550.2672702418463
 30
0.0
 11
532.3030638294661
 21
461.2672702418461
 31
0.0
  0
LINE
  5
85F9
330
70F7
100
AcDbEntity
  8
AM_5 寸法線
 62
     3
100
AcDbLine
 10
680.3030638294663
 20
550.2672702418463
 30
0.0
 11
680.3030638294663
 21
461.2672702418461
 31
0.0
  0
LINE
  5
85FA
330
70F7
100
AcDbEntity
  8
AM_5 寸法線
 62
     3
100
AcDbLine
 10
539.8030638294661
 20
463.1422702418461
 30
0.0
 11
672.8030638294662
 21
463.1422702418461
 31
0.0
  0
INSERT
  5
85FB
330
70F7
100
AcDbEntity
  8
AM_5 寸法線
 62
     3
100
AcDbBlockReference
  2
_Open30
 10
532.3030638294661
 20
463.1422702418461
 30
0.0
 41
7.5
 42
7.5
 43
7.5
 50
180.0
  0
INSERT
  5
85FC
330
70F7
100
AcDbEntity
  8
AM_5 寸法線
 62
     3
100
AcDbBlockReference
  2
_Open30
 10
680.3030638294663
 20
463.1422702418461
 30
0.0
 41
7.5
 42
7.5
 43
7.5
  0
MTEXT
  5
85FD
330
70F7
100
AcDbEntity
  8
AM_5 寸法線
 62
     3
100
AcDbMText
 10
606.3030638294662
 20
472.8922702418461
 30
0.0
 40
10.5
 41
0.0
 46
0.0
 71
     5
 72
     1
  1
148
  7
SEISA
 73
     1
 44
1.0
  0
POINT
  5
85FE
330
70F7
100
AcDbEntity
  8
Defpoints
 62
     0
100
AcDbPoint
 10
532.3030638294661
 20
552.1422702418463
 30
0.0
  0
POINT
  5
85FF
330
70F7
100
AcDbEntity
  8
Defpoints
 62
     0
100
AcDbPoint
 10
680.3030638294663
 20
552.1422702418463
 30
0.0
  0
POINT
  5
8600
330
70F7
100
AcDbEntity
  8
Defpoints
 62
     0
100
AcDbPoint
 10
680.3030638294663
 20
463.1422702418461
 30
0.0
  0
ENDBLK
  5
70F9
330
70F7
100
AcDbEntity
  8
0
100
AcDbBlockEnd
  0
BLOCK
  5
71B5
330
71B4
100
AcDbEntity
  8
0
100
AcDbBlockBegin
  2
*D20
 70
     1
 10
0.0
 20
0.0
 30
0.0
  3
*D20
  1

  0
LINE
  5
7216
330
71B4
100
AcDbEntity
  8
AM_5 寸法線
 62
     3
100
AcDbLine
 10
693.1780638294663
 20
730.6422702418463
 30
0.0
 11
814.9356398294662
 21
730.6422702418461
 31
0.0
  0
LINE
  5
7217
330
71B4
100
AcDbEntity
  8
AM_5 寸法線
 62
     3
100
AcDbLine
 10
693.1780638294663
 20
565.6422702418463
 30
0.0
 11
814.9356398294662
 21
565.6422702418463
 31
0.0
  0
LINE
  5
7218
330
71B4
100
AcDbEntity
  8
AM_5 寸法線
 62
     3
100
AcDbLine
 10
813.0606398294663
 20
723.1422702418463
 30
0.0
 11
813.0606398294663
 21
573.1422702418463
 31
0.0
  0
INSERT
  5
7219
330
71B4
100
AcDbEntity
  8
AM_5 寸法線
 62
     3
100
AcDbBlockReference
  2
_Open30
 10
813.0606398294663
 20
730.6422702418461
 30
0.0
 41
7.5
 42
7.5
 43
7.5
 50
90.0
  0
INSERT
  5
721A
330
71B4
100
AcDbEntity
  8
AM_5 寸法線
 62
     3
100
AcDbBlockReference
  2
_Open30
 10
813.0606398294663
 20
565.6422702418463
 30
0.0
 41
7.5
 42
7.5
 43
7.5
 50
270.0
  0
MTEXT
  5
721B
330
71B4
100
AcDbEntity
  8
AM_5 寸法線
 62
     3
100
AcDbMText
 10
803.3106398294661
 20
648.1422702418464
 30
0.0
 40
10.5
 41
0.0
 46
0.0
 71
     5
 72
     1
  1
%%c165
  7
SEISA
 11
0.0000000000000001
 21
1.0
 31
0.0
 73
     1
 44
1.0
  0
POINT
  5
721C
330
71B4
100
AcDbEntity
  8
Defpoints
 62
     0
100
AcDbPoint
 10
691.3030638294663
 20
730.6422702418463
 30
0.0
  0
POINT
  5
721D
330
71B4
100
AcDbEntity
  8
Defpoints
 62
     0
100
AcDbPoint
 10
691.3030638294663
 20
565.6422702418463
 30
0.0
  0
POINT
  5
721E
330
71B4
100
AcDbEntity
  8
Defpoints
 62
     0
100
AcDbPoint
 10
813.0606398294663
 20
565.6422702418463
 30
0.0
  0
ENDBLK
  5
71B6
330
71B4
100
AcDbEntity
  8
0
100
AcDbBlockEnd
  0
BLOCK
  5
71D3
330
71D2
100
AcDbEntity
  8
0
100
AcDbBlockBegin
  2
*D21
 70
     1
 10
0.0
 20
0.0
 30
0.0
  3
*D21
  1

  0
LINE
  5
7228
330
71D2
100
AcDbEntity
  8
AM_5 寸法線
 62
     3
100
AcDbLine
 10
678.1780638294662
 20
748.1422702418463
 30
0.0
 11
844.9356398294664
 21
748.1422702418463
 31
0.0
  0
LINE
  5
7229
330
71D2
100
AcDbEntity
  8
AM_5 寸法線
 62
     3
100
AcDbLine
 10
678.1780638294662
 20
548.1422702418463
 30
0.0
 11
844.9356398294664
 21
548.1422702418462
 31
0.0
  0
LINE
  5
722A
330
71D2
100
AcDbEntity
  8
AM_5 寸法線
 62
     3
100
AcDbLine
 10
843.0606398294662
 20
740.6422702418463
 30
0.0
 11
843.0606398294662
 21
555.6422702418461
 31
0.0
  0
INSERT
  5
722B
330
71D2
100
AcDbEntity
  8
AM_5 寸法線
 62
     3
100
AcDbBlockReference
  2
_Open30
 10
843.0606398294662
 20
748.1422702418463
 30
0.0
 41
7.5
 42
7.5
 43
7.5
 50
90.0
  0
INSERT
  5
722C
330
71D2
100
AcDbEntity
  8
AM_5 寸法線
 62
     3
100
AcDbBlockReference
  2
_Open30
 10
843.0606398294662
 20
548.1422702418462
 30
0.0
 41
7.5
 42
7.5
 43
7.5
 50
270.0
  0
MTEXT
  5
722D
330
71D2
100
AcDbEntity
  8
AM_5 寸法線
 62
     3
100
AcDbMText
 10
833.3106398294662
 20
648.1422702418464
 30
0.0
 40
10.5
 41
0.0
 46
0.0
 71
     5
 72
     1
  1
%%c200
  7
SEISA
 11
0.0000000000000001
 21
1.0
 31
0.0
 73
     1
 44
1.0
  0
POINT
  5
722E
330
71D2
100
AcDbEntity
  8
Defpoints
 62
     0
100
AcDbPoint
 10
676.3030638294662
 20
748.1422702418463
 30
0.0
  0
POINT
  5
722F
330
71D2
100
AcDbEntity
  8
Defpoints
 62
     0
100
AcDbPoint
 10
676.3030638294662
 20
548.1422702418463
 30
0.0
  0
POINT
  5
7230
330
71D2
100
AcDbEntity
  8
Defpoints
 62
     0
100
AcDbPoint
 10
843.0606398294662
 20
548.1422702418462
 30
0.0
  0
ENDBLK
  5
71D4
330
71D2
100
AcDbEntity
  8
0
100
AcDbBlockEnd
  0
BLOCK
  5
71EB
330
71EA
100
AcDbEntity
  8
0
100
AcDbBlockBegin
  2
*D22
 70
     1
 10
0.0
 20
0.0
 30
0.0
  3
*D22
  1

  0
LINE
  5
723A
330
71EA
100
AcDbEntity
  8
AM_5 寸法線
 62
     3
100
AcDbLine
 10
622.1780638294663
 20
773.1422702418463
 30
0.0
 11
874.9356398294665
 21
773.1422702418463
 31
0.0
  0
LINE
  5
723B
330
71EA
100
AcDbEntity
  8
AM_5 寸法線
 62
     3
100
AcDbLine
 10
622.1780638294663
 20
523.1422702418463
 30
0.0
 11
874.9356398294665
 21
523.1422702418462
 31
0.0
  0
LINE
  5
723C
330
71EA
100
AcDbEntity
  8
AM_5 寸法線
 62
     3
100
AcDbLine
 10
873.0606398294664
 20
765.6422702418463
 30
0.0
 11
873.0606398294664
 21
530.6422702418461
 31
0.0
  0
INSERT
  5
723D
330
71EA
100
AcDbEntity
  8
AM_5 寸法線
 62
     3
100
AcDbBlockReference
  2
_Open30
 10
873.0606398294666
 20
773.1422702418463
 30
0.0
 41
7.5
 42
7.5
 43
7.5
 50
90.0
  0
INSERT
  5
723E
330
71EA
100
AcDbEntity
  8
AM_5 寸法線
 62
     3
100
AcDbBlockReference
  2
_Open30
 10
873.0606398294664
 20
523.1422702418462
 30
0.0
 41
7.5
 42
7.5
 43
7.5
 50
270.0
  0
MTEXT
  5
723F
330
71EA
100
AcDbEntity
  8
AM_5 寸法線
 62
     3
100
AcDbMText
 10
863.3106398294664
 20
648.1422702418464
 30
0.0
 40
10.5
 41
0.0
 46
0.0
 71
     5
 72
     1
  1
%%c250
  7
SEISA
 11
0.0000000000000001
 21
1.0
 31
0.0
 73
     1
 44
1.0
  0
POINT
  5
7240
330
71EA
100
AcDbEntity
  8
Defpoints
 62
     0
100
AcDbPoint
 10
620.3030638294663
 20
773.1422702418463
 30
0.0
  0
POINT
  5
7241
330
71EA
100
AcDbEntity
  8
Defpoints
 62
     0
100
AcDbPoint
 10
620.3030638294663
 20
523.1422702418463
 30
0.0
  0
POINT
  5
7242
330
71EA
100
AcDbEntity
  8
Defpoints
 62
     0
100
AcDbPoint
 10
873.0606398294664
 20
523.1422702418462
 30
0.0
  0
ENDBLK
  5
71EC
330
71EA
100
AcDbEntity
  8
0
100
AcDbBlockEnd
  0
BLOCK
  5
7947
330
7946
100
AcDbEntity
  8
0
100
AcDbBlockBegin
  2
*D23
 70
     1
 10
0.0
 20
0.0
 30
0.0
  3
*D23
  1

  0
LINE
  5
7953
330
7946
100
AcDbEntity
  8
AM_5 寸法線
 62
     3
100
AcDbLine
 10
475.3030638294663
 20
569.1741788478635
 30
0.0
 11
475.3030638294663
 21
431.2672702418463
 31
0.0
  0
LINE
  5
7954
330
7946
100
AcDbEntity
  8
AM_5 寸法線
 62
     3
100
AcDbLine
 10
737.3030638294663
 20
569.1741788478635
 30
0.0
 11
737.3030638294663
 21
431.2672702418463
 31
0.0
  0
LINE
  5
7955
330
7946
100
AcDbEntity
  8
AM_5 寸法線
 62
     3
100
AcDbLine
 10
482.8030638294661
 20
433.1422702418461
 30
0.0
 11
729.8030638294663
 21
433.1422702418461
 31
0.0
  0
INSERT
  5
7956
330
7946
100
AcDbEntity
  8
AM_5 寸法線
 62
     3
100
AcDbBlockReference
  2
_Open30
 10
475.3030638294663
 20
433.1422702418461
 30
0.0
 41
7.5
 42
7.5
 43
7.5
 50
180.0
  0
INSERT
  5
7957
330
7946
100
AcDbEntity
  8
AM_5 寸法線
 62
     3
100
AcDbBlockReference
  2
_Open30
 10
737.3030638294663
 20
433.1422702418461
 30
0.0
 41
7.5
 42
7.5
 43
7.5
  0
MTEXT
  5
7958
330
7946
100
AcDbEntity
  8
AM_5 寸法線
 62
     3
100
AcDbMText
 10
606.3030638294662
 20
442.8922702418462
 30
0.0
 40
10.5
 41
0.0
 46
0.0
 71
     5
 72
     1
  1
262
  7
SEISA
 73
     1
 44
1.0
  0
POINT
  5
7959
330
7946
100
AcDbEntity
  8
Defpoints
 62
     0
100
AcDbPoint
 10
475.3030638294663
 20
571.0491788478638
 30
0.0
  0
POINT
  5
795A
330
7946
100
AcDbEntity
  8
Defpoints
 62
     0
100
AcDbPoint
 10
737.3030638294663
 20
571.0491788478638
 30
0.0
  0
POINT
  5
795B
330
7946
100
AcDbEntity
  8
Defpoints
 62
     0
100
AcDbPoint
 10
737.3030638294663
 20
433.1422702418461
 30
0.0
  0
ENDBLK
  5
7948
330
7946
100
AcDbEntity
  8
0
100
AcDbBlockEnd
  0
BLOCK
  5
7F76
330
7F73
100
AcDbEntity
  8
0
100
AcDbBlockBegin
  2
GENDOT
 70
     0
 10
0.0
 20
0.0
 30
0.0
  3
GENDOT
  1

  0
LINE
  5
7F74
330
7F73
100
AcDbEntity
  8
0
100
AcDbLine
 10
0.0
 20
0.0
 30
0.0
 11
-1.0
 21
0.0
 31
0.0
  0
LWPOLYLINE
  5
7F75
330
7F73
100
AcDbEntity
  8
0
100
AcDbPolyline
 90
        2
 70
     1
 43
0.25
 10
-0.125
 20
0.0
 42
1.0
 10
0.125
 20
0.0
 42
1.0
  0
ENDBLK
  5
7F77
330
7F73
100
AcDbEntity
  8
0
100
AcDbBlockEnd
  0
BLOCK
  5
863E
330
863D
100
AcDbEntity
  8
0
100
AcDbBlockBegin
  2
*D25
 70
     1
 10
0.0
 20
0.0
 30
0.0
  3
*D25
  1

  0
LINE
  5
888A
330
863D
100
AcDbEntity
  8
AM_5 寸法線
 62
     3
100
AcDbLine
 10
474.3030638294661
 20
746.0172702418462
 30
0.0
 11
474.3030638294661
 21
775.0172702418463
 31
0.0
  0
LINE
  5
888B
330
863D
100
AcDbEntity
  8
AM_5 寸法線
 62
     3
100
AcDbLine
 10
475.3030638294663
 20
727.7172702418463
 30
0.0
 11
475.3030638294663
 21
775.0172702418463
 31
0.0
  0
LINE
  5
888C
330
863D
100
AcDbEntity
  8
AM_5 寸法線
 62
     3
100
AcDbLine
 10
466.8030638294663
 20
773.1422702418463
 30
0.0
 11
459.3030638294663
 21
773.1422702418463
 31
0.0
  0
LINE
  5
888D
330
863D
100
AcDbEntity
  8
AM_5 寸法線
 62
     3
100
AcDbLine
 10
482.8030638294661
 20
773.1422702418463
 30
0.0
 11
501.5530638294661
 21
773.1422702418463
 31
0.0
  0
LINE
  5
888E
330
863D
100
AcDbEntity
  8
AM_5 寸法線
 62
     3
100
AcDbLine
 10
474.3030638294661
 20
773.1422702418463
 30
0.0
 11
475.3030638294663
 21
773.1422702418463
 31
0.0
  0
INSERT
  5
888F
330
863D
100
AcDbEntity
  8
AM_5 寸法線
 62
     3
100
AcDbBlockReference
  2
_Open30
 10
474.3030638294661
 20
773.1422702418463
 30
0.0
 41
7.5
 42
7.5
 43
7.5
  0
INSERT
  5
8890
330
863D
100
AcDbEntity
  8
AM_5 寸法線
 62
     3
100
AcDbBlockReference
  2
_Open30
 10
475.3030638294663
 20
773.1422702418463
 30
0.0
 41
7.5
 42
7.5
 43
7.5
 50
180.0
  0
MTEXT
  5
8891
330
863D
100
AcDbEntity
  8
AM_5 寸法線
 62
     3
100
AcDbMText
 10
495.9280638294663
 20
782.8922702418463
 30
0.0
 40
10.5
 41
0.0
 46
0.0
 71
     5
 72
     1
  1
1
  7
SEISA
 73
     1
 44
1.0
  0
POINT
  5
8892
330
863D
100
AcDbEntity
  8
Defpoints
 62
     0
100
AcDbPoint
 10
474.3030638294661
 20
744.1422702418463
 30
0.0
  0
POINT
  5
8893
330
863D
100
AcDbEntity
  8
Defpoints
 62
     0
100
AcDbPoint
 10
475.3030638294663
 20
725.8422702418463
 30
0.0
  0
POINT
  5
8894
330
863D
100
AcDbEntity
  8
Defpoints
 62
     0
100
AcDbPoint
 10
475.3030638294663
 20
773.1422702418463
 30
0.0
  0
ENDBLK
  5
863F
330
863D
100
AcDbEntity
  8
0
100
AcDbBlockEnd
  0
BLOCK
  5
8708
330
8707
100
AcDbEntity
  8
0
100
AcDbBlockBegin
  2
*D26
 70
     1
 10
0.0
 20
0.0
 30
0.0
  3
*D26
  1

  0
LINE
  5
8727
330
8707
100
AcDbEntity
  8
AM_5 寸法線
 62
     3
100
AcDbLine
 10
552.3030638294661
 20
729.2672702418463
 30
0.0
 11
552.3030638294661
 21
707.5979127774858
 31
0.0
  0
LINE
  5
8728
330
8707
100
AcDbEntity
  8
AM_5 寸法線
 62
     3
100
AcDbLine
 10
578.3030638294662
 20
729.2672702418463
 30
0.0
 11
578.3030638294662
 21
707.5979127774858
 31
0.0
  0
LINE
  5
8729
330
8707
100
AcDbEntity
  8
AM_5 寸法線
 62
     3
100
AcDbLine
 10
559.8030638294662
 20
709.4729127774858
 30
0.0
 11
570.8030638294663
 21
709.4729127774858
 31
0.0
  0
INSERT
  5
872A
330
8707
100
AcDbEntity
  8
AM_5 寸法線
 62
     3
100
AcDbBlockReference
  2
_Open30
 10
552.3030638294661
 20
709.4729127774858
 30
0.0
 41
7.5
 42
7.5
 43
7.5
 50
180.0
  0
INSERT
  5
872B
330
8707
100
AcDbEntity
  8
AM_5 寸法線
 62
     3
100
AcDbBlockReference
  2
_Open30
 10
578.3030638294662
 20
709.4729127774858
 30
0.0
 41
7.5
 42
7.5
 43
7.5
  0
MTEXT
  5
872C
330
8707
100
AcDbEntity
  8
AM_5 寸法線
 62
     3
100
AcDbMText
 10
565.3030638294662
 20
719.2229127774858
 30
0.0
 40
10.5
 41
0.0
 46
0.0
 71
     5
 72
     1
  1
26
  7
SEISA
 73
     1
 44
1.0
  0
POINT
  5
872D
330
8707
100
AcDbEntity
  8
Defpoints
 62
     0
100
AcDbPoint
 10
552.3030638294661
 20
731.1422702418463
 30
0.0
  0
POINT
  5
872E
102
{ACAD_REACTORS
330
8740
102
}
330
8707
100
AcDbEntity
  8
Defpoints
 62
     0
100
AcDbPoint
 10
578.3030638294662
 20
731.1422702418463
 30
0.0
  0
POINT
  5
872F
330
8707
100
AcDbEntity
  8
Defpoints
 62
     0
100
AcDbPoint
 10
578.3030638294662
 20
709.4729127774858
 30
0.0
  0
ENDBLK
  5
8709
330
8707
100
AcDbEntity
  8
0
100
AcDbBlockEnd
  0
BLOCK
  5
8732
330
8731
100
AcDbEntity
  8
0
100
AcDbBlockBegin
  2
*D27
 70
     1
 10
0.0
 20
0.0
 30
0.0
  3
*D27
  1

  0
LINE
  5
8778
330
8731
100
AcDbEntity
  8
AM_5 寸法線
 62
     3
100
AcDbLine
 10
578.3030638294662
 20
729.2672702418463
 30
0.0
 11
578.3030638294662
 21
707.619341793341
 31
0.0
  0
LINE
  5
8779
330
8731
100
AcDbEntity
  8
AM_5 寸法線
 62
     3
100
AcDbLine
 10
600.3030638294663
 20
727.2672702418462
 30
0.0
 11
600.3030638294663
 21
707.619341793341
 31
0.0
  0
LINE
  5
877A
330
8731
100
AcDbEntity
  8
AM_5 寸法線
 62
     3
100
AcDbLine
 10
570.8030638294663
 20
709.494341793341
 30
0.0
 11
563.3030638294663
 21
709.494341793341
 31
0.0
  0
LINE
  5
877B
330
8731
100
AcDbEntity
  8
AM_5 寸法線
 62
     3
100
AcDbLine
 10
607.8030638294663
 20
709.494341793341
 30
0.0
 11
615.3030638294662
 21
709.494341793341
 31
0.0
  0
MTEXT
  5
877C
330
8731
100
AcDbEntity
  8
AM_5 寸法線
 62
     3
100
AcDbMText
 10
588.3851297475975
 20
719.075487543532
 30
0.0
 40
10.5
 41
0.0
 46
0.0
 71
     5
 72
     1
  1
22
  7
SEISA
 73
     1
 44
1.0
  0
LINE
  5
877D
330
8731
100
AcDbEntity
  8
AM_5 寸法線
 62
     3
100
AcDbLine
 10
578.3030638294662
 20
709.494341793341
 30
0.0
 11
600.3030638294663
 21
709.494341793341
 31
0.0
  0
INSERT
  5
877E
330
8731
100
AcDbEntity
  8
AM_5 寸法線
 62
     3
100
AcDbBlockReference
  2
_Open30
 10
578.3030638294662
 20
709.494341793341
 30
0.0
 41
7.5
 42
7.5
 43
7.5
  0
INSERT
  5
877F
330
8731
100
AcDbEntity
  8
AM_5 寸法線
 62
     3
100
AcDbBlockReference
  2
_Open30
 10
600.3030638294663
 20
709.494341793341
 30
0.0
 41
7.5
 42
7.5
 43
7.5
 50
180.0
  0
POINT
  5
8780
330
8731
100
AcDbEntity
  8
Defpoints
 62
     0
100
AcDbPoint
 10
578.3030638294662
 20
731.1422702418463
 30
0.0
  0
POINT
  5
8781
330
8731
100
AcDbEntity
  8
Defpoints
 62
     0
100
AcDbPoint
 10
600.3030638294663
 20
729.1422702418462
 30
0.0
  0
POINT
  5
8782
330
8731
100
AcDbEntity
  8
Defpoints
 62
     0
100
AcDbPoint
 10
600.3030638294663
 20
709.494341793341
 30
0.0
  0
ENDBLK
  5
8733
330
8731
100
AcDbEntity
  8
0
100
AcDbBlockEnd
  0
BLOCK
  5
896B
330
896A
100
AcDbEntity
  8
0
100
AcDbBlockBegin
  2
ケース
 70
     0
 10
0.0
 20
0.0
 30
0.0
  3
ケース
  1

  0
LINE
  5
896D
330
896A
100
AcDbEntity
  8
AM_11 想像線
 48
0.2
100
AcDbLine
 10
0.0
 20
-10.0
 30
0.0
 11
-11.0114004355396
 21
-10.0
 31
0.0
  0
LINE
  5
896E
330
896A
100
AcDbEntity
  8
AM_11 想像線
 48
0.2
100
AcDbLine
 10
-9.011400435539599
 20
-11.39999999999997
 30
0.0
 11
-8.011400435539599
 21
-12.39999999999997
 31
0.0
  0
ARC
  5
896F
330
896A
100
AcDbEntity
  8
AM_11 想像線
 48
0.2
100
AcDbCircle
 10
-10.0114004355396
 20
-7.5
 30
0.0
 40
1.0
100
AcDbArc
 50
0.0
 51
90.0
  0
LINE
  5
8970
330
896A
100
AcDbEntity
  8
AM_11 想像線
 48
0.2
100
AcDbLine
 10
0.0
 20
0.0
 30
0.0
 11
-27.0114004355396
 21
0.0
 31
0.0
  0
LINE
  5
8971
330
896A
100
AcDbEntity
  8
AM_11 想像線
 48
0.2
100
AcDbLine
 10
0.0
 20
-7.0
 30
0.0
 11
-9.011400435539599
 21
-7.0
 31
0.0
  0
ARC
  5
8972
330
896A
100
AcDbEntity
  8
AM_11 想像線
 48
0.2
100
AcDbCircle
 10
-27.0114004355396
 20
-4.0
 30
0.0
 40
4.0
100
AcDbArc
 50
90.0
 51
180.0
  0
LINE
  5
8973
330
896A
100
AcDbEntity
  8
AM_11 想像線
 48
0.2
100
AcDbLine
 10
-28.11140043553962
 20
-10.54999999999995
 30
0.0
 11
-17.91140043553957
 21
-10.54999999999995
 31
0.0
  0
ARC
  5
8974
330
896A
100
AcDbEntity
  8
AM_11 想像線
 48
0.2
100
AcDbCircle
 10
-28.11140043553962
 20
-11.04999999999995
 30
0.0
 40
0.5
100
AcDbArc
 50
90.0
 51
180.0
  0
LINE
  5
8975
330
896A
100
AcDbEntity
  8
AM_11 想像線
 48
0.2
100
AcDbLine
 10
-28.61140043553962
 20
-16.0
 30
0.0
 11
-28.61140043553962
 21
-11.04999999999995
 31
0.0
  0
LINE
  5
8976
330
896A
100
AcDbEntity
  8
AM_11 想像線
 48
0.2
100
AcDbLine
 10
-31.0114004355396
 20
-16.0
 30
0.0
 11
-28.61140043553962
 21
-16.0
 31
0.0
  0
LINE
  5
8977
102
{ACAD_REACTORS
330
864A
102
}
330
896A
100
AcDbEntity
  8
AM_11 想像線
 48
0.2
100
AcDbLine
 10
-31.0114004355396
 20
-4.0
 30
0.0
 11
-31.0114004355396
 21
-16.0
 31
0.0
  0
LINE
  5
8978
330
896A
100
AcDbEntity
  8
AM_11 想像線
 48
0.2
100
AcDbLine
 10
-28.61140043553962
 20
-16.0
 30
0.0
 11
-28.61140043553962
 21
-17.5
 31
0.0
  0
LINE
  5
8979
330
896A
100
AcDbEntity
  8
AM_11 想像線
 48
0.2
100
AcDbLine
 10
-31.0114004355396
 20
-16.0
 30
0.0
 11
-31.0114004355396
 21
-17.5
 31
0.0
  0
LINE
  5
897A
330
896A
100
AcDbEntity
  8
AM_11 想像線
 48
0.2
100
AcDbLine
 10
-9.011400435539599
 20
-8.039325660367238
 30
0.0
 11
-9.011400435539599
 21
-11.39999999999997
 31
0.0
  0
LINE
  5
897B
330
896A
100
AcDbEntity
  8
AM_11 想像線
 48
0.2
100
AcDbLine
 10
-14.0114004355396
 20
-6.5
 30
0.0
 11
-10.0114004355396
 21
-6.5
 31
0.0
  0
ARC
  5
897C
330
896A
100
AcDbEntity
  8
AM_11 想像線
 48
0.2
100
AcDbCircle
 10
-14.0114004355396
 20
-7.5
 30
0.0
 40
1.0
100
AcDbArc
 50
90.0
 51
180.0
  0
LINE
  5
897D
330
896A
100
AcDbEntity
  8
AM_11 想像線
 48
0.2
100
AcDbLine
 10
-15.0114004355396
 20
-16.0
 30
0.0
 11
-15.0114004355396
 21
-7.5
 31
0.0
  0
LINE
  5
897E
330
896A
100
AcDbEntity
  8
AM_11 想像線
 48
0.2
100
AcDbLine
 10
-17.41140043553957
 20
-16.0
 30
0.0
 11
-15.0114004355396
 21
-16.0
 31
0.0
  0
LINE
  5
897F
330
896A
100
AcDbEntity
  8
AM_11 想像線
 48
0.2
100
AcDbLine
 10
-17.41140043553957
 20
-11.04999999999995
 30
0.0
 11
-17.41140043553957
 21
-16.0
 31
0.0
  0
ARC
  5
8980
330
896A
100
AcDbEntity
  8
AM_11 想像線
 48
0.2
100
AcDbCircle
 10
-17.91140043553957
 20
-11.04999999999995
 30
0.0
 40
0.5
100
AcDbArc
 50
0.0
 51
90.0
  0
LINE
  5
8981
330
896A
100
AcDbEntity
  8
AM_11 想像線
 48
0.2
100
AcDbLine
 10
-15.0114004355396
 20
-16.0
 30
0.0
 11
-15.0114004355396
 21
-17.5
 31
0.0
  0
LINE
  5
8982
330
896A
100
AcDbEntity
  8
AM_11 想像線
 48
0.2
100
AcDbLine
 10
-17.41140043553957
 20
-16.0
 30
0.0
 11
-17.41140043553957
 21
-17.5
 31
0.0
  0
LINE
  5
8983
330
896A
100
AcDbEntity
  8
AM_11 想像線
 48
0.2
100
AcDbLine
 10
-8.011400435539599
 20
-12.39999999999997
 30
0.0
 11
0.0
 21
-12.39999999999997
 31
0.0
  0
LINE
  5
8984
330
896A
100
AcDbEntity
  8
AM_11 想像線
 48
0.2
100
AcDbLine
 10
-9.011400435539599
 20
-7.5
 30
0.0
 11
-9.011400435539599
 21
-8.039325660367238
 31
0.0
  0
ENDBLK
  5
896C
330
896A
100
AcDbEntity
  8
0
100
AcDbBlockEnd
  0
ENDSEC
  0
SECTION
  2
ENTITIES
  0
LINE
  5
4154
330
1F
100
AcDbEntity
  8
AM_7 中心線
100
AcDbLine
 10
470.3030638294661
 20
648.1422702418463
 30
0.0
 11
742.3030638294663
 21
648.1422702418463
 31
0.0
  0
INSERT
  5
5940
102
{ACAD_REACTORS
330
6F52
330
71E8
330
7200
102
}
330
1F
100
AcDbEntity
  8
AM_0 外形線1
100
AcDbBlockReference
  2
ケースＡ SSMH250
 10
606.3030638294662
 20
648.1422702418463
 30
0.0
  0
INSERT
  5
5AAE
102
{ACAD_REACTORS
330
6EA3
330
6F15
330
6F52
330
710D
102
}
330
1F
100
AcDbEntity
  8
AM_0 外形線1
100
AcDbBlockReference
  2
ケースＢ SSMH250
 10
606.3030638294662
 20
648.1422702418463
 30
0.0
  0
INSERT
  5
5C33
102
{ACAD_REACTORS
330
6E30
330
6E5E
330
71CA
330
795C
102
}
330
1F
100
AcDbEntity
  8
AM_0 外形線1
100
AcDbBlockReference
  2
センタＡ SSMH250
 10
612.3030638294663
 20
648.1422702418463
 30
0.0
  0
INSERT
  5
5CA8
102
{ACAD_REACTORS
330
6DA8
330
6DF4
330
6E5E
330
6EA3
330
795C
330
864A
330
8714
330
8740
102
}
330
1F
100
AcDbEntity
  8
AM_0 外形線1
100
AcDbBlockReference
  2
センタＢ SSM250
 10
600.3030638294663
 20
648.1422702418463
 30
0.0
  0
INSERT
  5
6165
330
1F
100
AcDbEntity
  8
AM_0 外形線1
100
AcDbBlockReference
  2
リーマボルト SSMH250 M10
 10
591.3030638294663
 20
762.1422702418462
 30
0.0
  0
DIMENSION
  5
6D91
102
{ACAD_XDICTIONARY
360
6D9E
102
}
102
{ACAD_REACTORS
330
6DA8
102
}
330
1F
100
AcDbEntity
  8
AM_5 寸法線
100
AcDbDimension
  2
*D12
 10
411.5761111103548
 20
565.6422702418463
 30
0.0
 11
411.5761111103548
 21
653.336618308397
 31
0.0
 70
   160
  1
%%c<>
 71
     5
 42
165.0
 73
     0
 74
     0
 75
     0
  3
SEISA$0
100
AcDbAlignedDimension
 13
521.3030638294663
 23
730.6422702418463
 33
0.0
 14
521.3030638294663
 24
565.6422702418463
 34
0.0
 50
90.0
100
AcDbRotatedDimension
1001
ACAD
1000
DSTYLE
1002
{
1070
    40
1040
3.0
1002
}
1001
ACAD_DSTYLE_DIMINSPECT
1070
   396
1000
100%
1070
   395
1000

1070
   394
1070
    33
1070
   393
1070
     0
  0
DIMENSION
  5
6DDD
102
{ACAD_XDICTIONARY
360
6DEA
102
}
102
{ACAD_REACTORS
330
6DF4
102
}
330
1F
100
AcDbEntity
  8
AM_5 寸法線
100
AcDbDimension
  2
*D13
 10
600.3030638294663
 20
668.1607299323811
 30
0.0
 11
537.8030638294663
 21
668.1607299323811
 31
0.0
 70
   160
 71
     5
 42
125.0
 73
     0
 74
     0
 75
     0
  3
SEISA$0
100
AcDbAlignedDimension
 13
475.3030638294663
 23
659.6381253234588
 33
0.0
 14
600.3030638294663
 24
668.0873182455379
 34
0.0
100
AcDbRotatedDimension
1001
ACAD
1000
DSTYLE
1002
{
1070
   279
1070
     0
1070
    40
1040
3.0
1002
}
  0
DIMENSION
  5
6E19
102
{ACAD_XDICTIONARY
360
6E26
102
}
102
{ACAD_REACTORS
330
6E30
102
}
330
1F
100
AcDbEntity
  8
AM_5 寸法線
100
AcDbDimension
  2
*D14
 10
737.3030638294663
 20
668.1607299323811
 30
0.0
 11
674.8030638294663
 21
677.9107299323811
 31
0.0
 70
    32
 71
     5
 42
125.0
 73
     0
 74
     0
 75
     0
  3
SEISA$0
100
AcDbAlignedDimension
 13
612.3030638294663
 23
660.6660256029843
 33
0.0
 14
737.3030638294663
 24
660.6660256029843
 34
0.0
100
AcDbRotatedDimension
1001
ACAD
1000
DSTYLE
1002
{
1070
   279
1070
     0
1070
    40
1040
3.0
1002
}
  0
DIMENSION
  5
6E43
102
{ACAD_XDICTIONARY
360
6E52
102
}
102
{ACAD_REACTORS
330
6E5E
102
}
330
1F
100
AcDbEntity
  8
AM_5 寸法線
100
AcDbDimension
  2
*D15
 10
612.3030638294663
 20
668.1607299323811
 30
0.0
 11
626.1877106479572
 21
677.2421498758298
 31
0.0
 70
   160
 71
     5
 42
12.0
 73
     0
 74
     0
 75
     0
  3
SEISA$0
100
AcDbAlignedDimension
 13
600.3030638294663
 23
668.8486578082216
 33
0.0
 14
612.3030638294663
 24
661.8696191436447
 34
0.0
100
AcDbRotatedDimension
1001
ACAD
1000
DSTYLE
1002
{
1070
    40
1040
3.0
1070
   279
1070
     2
1002
}
  0
DIMENSION
  5
6E88
102
{ACAD_XDICTIONARY
360
6E97
102
}
102
{ACAD_REACTORS
330
6EA3
330
8714
102
}
330
1F
100
AcDbEntity
  8
AM_5 寸法線
100
AcDbDimension
  2
*D16
 10
552.3030638294661
 20
709.4729127774852
 30
0.0
 11
525.4280638294662
 21
709.4729127774852
 31
0.0
 70
   160
 71
     5
 42
4.0
 73
     0
 74
     0
 75
     0
  3
SEISA$0
100
AcDbAlignedDimension
 13
548.3030638294661
 23
730.6422702418463
 33
0.0
 14
552.3030638294661
 24
731.1422702418463
 34
0.0
100
AcDbRotatedDimension
1001
ACAD
1000
DSTYLE
1002
{
1070
    40
1040
3.0
1002
}
  0
DIMENSION
  5
6EFA
102
{ACAD_XDICTIONARY
360
6F09
102
}
102
{ACAD_REACTORS
330
6F15
102
}
330
1F
100
AcDbEntity
  8
AM_5 寸法線
100
AcDbDimension
  2
*D17
 10
606.3030638294662
 20
493.1422702418463
 30
0.0
 11
576.4655298859497
 21
502.6925817360933
 31
0.0
 70
   160
 71
     5
 42
15.0
 73
     0
 74
     0
 75
     0
  3
SEISA$0
100
AcDbAlignedDimension
 13
591.3030638294663
 23
524.1422702418462
 33
0.0
 14
606.3030638294662
 24
524.1422702418462
 34
0.0
100
AcDbRotatedDimension
1001
ACAD_DSTYLE_DIMINSPECT
1070
   396
1000
100%
1070
   395
1000

1070
   394
1070
    33
1070
   393
1070
     0
1001
ACAD
1000
DSTYLE
1002
{
1070
    40
1040
3.0
1070
   173
1070
     1
1070
   279
1070
     2
1070
   342
1005
0
1070
   343
1005
69
1070
   344
1005
7F73
1002
}
  0
DIMENSION
  5
6F37
102
{ACAD_XDICTIONARY
360
6F46
102
}
102
{ACAD_REACTORS
330
6F52
102
}
330
1F
100
AcDbEntity
  8
AM_5 寸法線
100
AcDbDimension
  2
*D18
 10
621.3030638294663
 20
493.1422702418463
 30
0.0
 11
634.3057009412468
 21
502.8237124801993
 31
0.0
 70
   160
 71
     5
 42
15.0
 73
     0
 74
     0
 75
     0
  3
SEISA$0
100
AcDbAlignedDimension
 13
606.3030638294662
 23
524.1422702418462
 33
0.0
 14
621.3030638294663
 24
524.1422702418462
 34
0.0
100
AcDbRotatedDimension
1001
ACAD_DSTYLE_DIMINSPECT
1070
   396
1000
100%
1070
   395
1000

1070
   394
1070
    33
1070
   393
1070
     0
1001
ACAD
1000
DSTYLE
1002
{
1070
    40
1040
3.0
1070
   173
1070
     1
1070
   279
1070
     2
1070
   342
1005
0
1070
   343
1005
7F73
1070
   344
1005
69
1002
}
  0
DIMENSION
  5
70F6
102
{ACAD_XDICTIONARY
360
7103
102
}
102
{ACAD_REACTORS
330
710D
102
}
330
1F
100
AcDbEntity
  8
AM_5 寸法線
100
AcDbDimension
  2
*D19
 10
680.3030638294663
 20
463.1422702418461
 30
0.0
 11
606.3030638294662
 21
472.8922702418461
 31
0.0
 70
    32
 71
     5
 42
148.0
 73
     0
 74
     0
 75
     0
  3
SEISA$0
100
AcDbAlignedDimension
 13
532.3030638294661
 23
552.1422702418463
 33
0.0
 14
680.3030638294663
 24
552.1422702418463
 34
0.0
100
AcDbRotatedDimension
1001
ACAD
1000
DSTYLE
1002
{
1070
    40
1040
3.0
1002
}
  0
DIMENSION
  5
71B3
102
{ACAD_XDICTIONARY
360
71C0
102
}
102
{ACAD_REACTORS
330
71CA
102
}
330
1F
100
AcDbEntity
  8
AM_5 寸法線
100
AcDbDimension
  2
*D20
 10
813.0606398294663
 20
565.6422702418463
 30
0.0
 11
803.3106398294661
 21
648.1422702418464
 31
0.0
 70
    32
  1
%%c<>
 71
     5
 42
165.0
 73
     0
 74
     0
 75
     0
  3
SEISA$0
100
AcDbAlignedDimension
 13
691.3030638294663
 23
730.6422702418463
 33
0.0
 14
691.3030638294663
 24
565.6422702418463
 34
0.0
 50
90.0
100
AcDbRotatedDimension
1001
ACAD
1000
DSTYLE
1002
{
1070
    40
1040
3.0
1002
}
1001
ACAD_DSTYLE_DIMINSPECT
1070
   396
1000
100%
1070
   395
1000

1070
   394
1070
    33
1070
   393
1070
     0
  0
DIMENSION
  5
71D1
102
{ACAD_XDICTIONARY
360
71DE
102
}
102
{ACAD_REACTORS
330
71E8
102
}
330
1F
100
AcDbEntity
  8
AM_5 寸法線
100
AcDbDimension
  2
*D21
 10
843.0606398294662
 20
548.1422702418462
 30
0.0
 11
833.3106398294662
 21
648.1422702418464
 31
0.0
 70
    32
  1
%%c<>
 71
     5
 42
200.0
 73
     0
 74
     0
 75
     0
  3
SEISA$0
100
AcDbAlignedDimension
 13
676.3030638294662
 23
748.1422702418463
 33
0.0
 14
676.3030638294662
 24
548.1422702418463
 34
0.0
 50
90.0
100
AcDbRotatedDimension
1001
ACAD
1000
DSTYLE
1002
{
1070
    40
1040
3.0
1002
}
1001
ACAD_DSTYLE_DIMINSPECT
1070
   396
1000
100%
1070
   395
1000

1070
   394
1070
    33
1070
   393
1070
     0
  0
DIMENSION
  5
71E9
102
{ACAD_XDICTIONARY
360
71F6
102
}
102
{ACAD_REACTORS
330
7200
102
}
330
1F
100
AcDbEntity
  8
AM_5 寸法線
100
AcDbDimension
  2
*D22
 10
873.0606398294664
 20
523.1422702418462
 30
0.0
 11
863.3106398294664
 21
648.1422702418464
 31
0.0
 70
    32
  1
%%c<>
 71
     5
 42
250.0
 73
     0
 74
     0
 75
     0
  3
SEISA$0
100
AcDbAlignedDimension
 13
620.3030638294663
 23
773.1422702418463
 33
0.0
 14
620.3030638294663
 24
523.1422702418463
 34
0.0
 50
90.0
100
AcDbRotatedDimension
1001
ACAD
1000
DSTYLE
1002
{
1070
    40
1040
3.0
1002
}
1001
ACAD_DSTYLE_DIMINSPECT
1070
   396
1000
100%
1070
   395
1000

1070
   394
1070
    33
1070
   393
1070
     0
  0
DIMENSION
  5
7945
102
{ACAD_XDICTIONARY
360
7952
102
}
102
{ACAD_REACTORS
330
795C
102
}
330
1F
100
AcDbEntity
  8
AM_5 寸法線
100
AcDbDimension
  2
*D23
 10
737.3030638294663
 20
433.1422702418461
 30
0.0
 11
606.3030638294662
 21
442.8922702418462
 31
0.0
 70
    32
 71
     5
 42
262.0
 73
     0
 74
     0
 75
     0
  3
SEISA$0
100
AcDbAlignedDimension
 13
475.3030638294663
 23
571.0491788478638
 33
0.0
 14
737.3030638294663
 24
571.0491788478638
 34
0.0
100
AcDbRotatedDimension
1001
ACAD
1000
DSTYLE
1002
{
1070
    40
1040
3.0
1002
}
  0
LINE
  5
80AB
330
1F
100
AcDbEntity
  8
AM_5 寸法線
100
AcDbLine
 10
636.3030638294662
 20
493.1422702418463
 30
0.0
 11
643.5966467287762
 21
493.1422702418463
 31
0.0
  0
LINE
  5
80AC
330
1F
100
AcDbEntity
  8
AM_5 寸法線
100
AcDbLine
 10
576.3030638294662
 20
493.1422702418463
 30
0.0
 11
569.7380106831392
 21
493.1422702418463
 31
0.0
  0
MTEXT
  5
85F7
330
1F
100
AcDbEntity
  8
AM_6 文字
100
AcDbMText
 10
764.1671119794985
 20
500.7221243992774
 30
0.0
 40
10.5
 41
183.9162535806999
 46
52.64961902755814
 71
     1
 72
     5
  1
{\W0.6;TYPE:SSM250/SSMH250\PSHAFT DIA:MAX/MIN φ115/φ42}
  7
SEISA
 73
     1
 44
1.0
  0
DIMENSION
  5
863C
102
{ACAD_XDICTIONARY
360
8649
102
}
102
{ACAD_REACTORS
330
864A
102
}
330
1F
100
AcDbEntity
  8
AM_5 寸法線
100
AcDbDimension
  2
*D25
 10
475.3030638294663
 20
773.1422702418463
 30
0.0
 11
495.9280638294663
 21
782.8922702418463
 31
0.0
 70
    32
 71
     5
 42
-1.0
 73
     0
 74
     0
 75
     0
  3
SEISA$0
100
AcDbAlignedDimension
 13
474.3030638294661
 23
744.1422702418463
 33
0.0
 14
475.3030638294663
 24
725.8422702418463
 34
0.0
100
AcDbRotatedDimension
1001
ACAD
1000
DSTYLE
1002
{
1070
    40
1040
3.0
1002
}
1001
ACAD_DSTYLE_DIMINSPECT
1070
   396
1000
100%
1070
   395
1000

1070
   394
1070
    33
1070
   393
1070
     0
  0
DIMENSION
  5
8706
102
{ACAD_XDICTIONARY
360
8713
102
}
102
{ACAD_REACTORS
330
8714
330
8740
102
}
330
1F
100
AcDbEntity
  8
AM_5 寸法線
100
AcDbDimension
  2
*D26
 10
578.3030638294662
 20
709.4729127774858
 30
0.0
 11
565.3030638294662
 21
719.2229127774858
 31
0.0
 70
    32
 71
     5
 42
26.0
 73
     0
 74
     0
 75
     0
  3
SEISA$0
100
AcDbAlignedDimension
 13
552.3030638294661
 23
731.1422702418463
 33
0.0
 14
578.3030638294662
 24
731.1422702418463
 34
0.0
 50
0.0000000000001132
100
AcDbRotatedDimension
1001
ACAD
1000
DSTYLE
1002
{
1070
    40
1040
3.0
1002
}
1001
ACAD_DSTYLE_DIMINSPECT
1070
   396
1000
100%
1070
   395
1000

1070
   394
1070
    33
1070
   393
1070
     0
  0
DIMENSION
  5
8730
102
{ACAD_XDICTIONARY
360
873F
102
}
102
{ACAD_REACTORS
330
8740
102
}
330
1F
100
AcDbEntity
  8
AM_5 寸法線
100
AcDbDimension
  2
*D27
 10
600.3030638294663
 20
709.494341793341
 30
0.0
 11
588.3851297475975
 21
719.075487543532
 31
0.0
 70
   160
 71
     5
 42
22.0
 73
     0
 74
     0
 75
     0
  3
SEISA$0
100
AcDbAlignedDimension
 13
578.3030638294662
 23
731.1422702418463
 33
0.0
 14
600.3030638294663
 24
729.1422702418462
 34
0.0
 50
0.0000000000001132
100
AcDbRotatedDimension
1001
ACAD_DSTYLE_DIMINSPECT
1070
   396
1000
100%
1070
   395
1000

1070
   394
1070
    33
1070
   393
1070
     0
1001
ACAD
1000
DSTYLE
1002
{
1070
    40
1040
3.0
1070
   279
1070
     2
1002
}
  0
INSERT
  5
8985
330
1F
100
AcDbEntity
  8
AM_0 外形線1
100
AcDbBlockReference
  2
ケース
 10
505.3144642650059
 20
748.1422702418463
 30
0.0
  0
ENDSEC
  0
SECTION
  2
OBJECTS
  0
DICTIONARY
  5
C
330
0
100
AcDbDictionary
281
     1
  3
ACAD_COLOR
350
C5
  3
ACAD_GROUP
350
D
  3
ACAD_LAYOUT
350
1A
  3
ACAD_MATERIAL
350
C4
  3
ACAD_MLEADERSTYLE
350
2D5
  3
ACAD_MLINESTYLE
350
17
  3
ACAD_PLOTSETTINGS
350
19
  3
ACAD_PLOTSTYLENAME
350
E
  3
ACAD_SCALELIST
350
2B3
  3
ACAD_TABLESTYLE
350
121
  3
ACAD_VISUALSTYLE
350
27F
  3
ACDB_RECOMPOSE_DATA
350
2F7
  3
AcDbVariableDictionary
350
34
  3
AcmDictionary
350
49
  3
AMG
350
2B
  3
AMGSNAPSETTINGS
350
1DE
  0
DICTIONARY
  5
BF
330
2
100
AcDbDictionary
280
     1
281
     1
  3
ACAD_LAYERSTATES
360
85EE
  3
AMLAYER_GROUPCOLORS
360
C0
  0
DICTIONARY
  5
29D8
330
10
100
AcDbDictionary
280
     1
281
     1
  3
ADSK_XREC_LAYER_RECONCILED
360
29D9
  0
DICTIONARY
  5
29DA
330
81
100
AcDbDictionary
280
     1
281
     1
  3
ADSK_XREC_LAYER_RECONCILED
360
29DB
  0
DICTIONARY
  5
29E1
330
25C9
100
AcDbDictionary
280
     1
281
     1
  3
ADSK_XREC_LAYER_RECONCILED
360
29E2
  0
DICTIONARY
  5
29E3
330
25CA
100
AcDbDictionary
280
     1
281
     1
  3
ADSK_XREC_LAYER_RECONCILED
360
29E4
  0
DICTIONARY
  5
29E9
330
26B3
100
AcDbDictionary
280
     1
281
     1
  3
ADSK_XREC_LAYER_RECONCILED
360
29EA
  0
DICTIONARY
  5
82
330
1F
100
AcDbDictionary
280
     1
281
     1
  3
ACAD_SORTENTS
360
A41
  0
DICTIONARY
  5
6479
330
57B8
100
AcDbDictionary
280
     1
281
     1
  3
ACAD_SORTENTS
360
6785
  0
DICTIONARY
  5
59FD
330
5903
100
AcDbDictionary
280
     1
281
     1
  3
ACAD_SORTENTS
360
6A1F
  0
DICTIONARY
  5
5B1E
330
5A7A
100
AcDbDictionary
280
     1
281
     1
  3
ACAD_SORTENTS
360
6A92
  0
DICTIONARY
  5
65CE
330
5C0C
100
AcDbDictionary
280
     1
281
     1
  3
ACAD_SORTENTS
360
8869
  0
DICTIONARY
  5
5D13
330
5C81
100
AcDbDictionary
280
     1
281
     1
  3
ACAD_SORTENTS
360
881F
  0
DICTIONARY
  5
61D4
330
6134
100
AcDbDictionary
280
     1
281
     1
  3
ACAD_SORTENTS
360
66E8
  0
DICTIONARY
  5
6D9E
330
6D91
100
AcDbDictionary
280
     1
281
     1
  3
ACAD_DIMASSOC
360
6DA8
  0
DICTIONARY
  5
6DEA
330
6DDD
100
AcDbDictionary
280
     1
281
     1
  3
ACAD_DIMASSOC
360
6DF4
  0
DICTIONARY
  5
6E26
330
6E19
100
AcDbDictionary
280
     1
281
     1
  3
ACAD_DIMASSOC
360
6E30
  0
DICTIONARY
  5
6E52
330
6E43
100
AcDbDictionary
280
     1
281
     1
  3
ACAD_DIMASSOC
360
6E5E
  0
DICTIONARY
  5
6E97
330
6E88
100
AcDbDictionary
280
     1
281
     1
  3
ACAD_DIMASSOC
360
6EA3
  0
DICTIONARY
  5
6F09
330
6EFA
100
AcDbDictionary
280
     1
281
     1
  3
ACAD_DIMASSOC
360
6F15
  0
DICTIONARY
  5
6F46
330
6F37
100
AcDbDictionary
280
     1
281
     1
  3
ACAD_DIMASSOC
360
6F52
  0
DICTIONARY
  5
7103
330
70F6
100
AcDbDictionary
280
     1
281
     1
  3
ACAD_DIMASSOC
360
710D
  0
DICTIONARY
  5
71C0
330
71B3
100
AcDbDictionary
280
     1
281
     1
  3
ACAD_DIMASSOC
360
71CA
  0
DICTIONARY
  5
71DE
330
71D1
100
AcDbDictionary
280
     1
281
     1
  3
ACAD_DIMASSOC
360
71E8
  0
DICTIONARY
  5
71F6
330
71E9
100
AcDbDictionary
280
     1
281
     1
  3
ACAD_DIMASSOC
360
7200
  0
DICTIONARY
  5
7952
330
7945
100
AcDbDictionary
280
     1
281
     1
  3
ACAD_DIMASSOC
360
795C
  0
DICTIONARY
  5
8649
330
863C
100
AcDbDictionary
280
     1
281
     1
  3
ACAD_DIMASSOC
360
864A
  0
DICTIONARY
  5
8713
330
8706
100
AcDbDictionary
280
     1
281
     1
  3
ACAD_DIMASSOC
360
8714
  0
DICTIONARY
  5
873F
330
8730
100
AcDbDictionary
280
     1
281
     1
  3
ACAD_DIMASSOC
360
8740
  0
DICTIONARY
  5
C5
102
{ACAD_REACTORS
330
C
102
}
330
C
100
AcDbDictionary
281
     1
  0
DICTIONARY
  5
D
102
{ACAD_REACTORS
330
C
102
}
330
C
100
AcDbDictionary
281
     1
  0
DICTIONARY
  5
1A
102
{ACAD_REACTORS
330
C
102
}
330
C
100
AcDbDictionary
281
     1
  3
Model
350
22
  3
レイアウト1
350
1E
  3
レイアウト2
350
26
  0
DICTIONARY
  5
C4
102
{ACAD_REACTORS
330
C
102
}
330
C
100
AcDbDictionary
281
     1
  3
ByBlock
350
27D
  3
ByLayer
350
27C
  3
Global
350
27E
  0
DICTIONARY
  5
2D5
102
{ACAD_REACTORS
330
C
102
}
330
C
100
AcDbDictionary
281
     1
  3
Standard
350
2D6
  0
DICTIONARY
  5
17
102
{ACAD_REACTORS
330
C
102
}
330
C
100
AcDbDictionary
281
     1
  3
Standard
350
18
  0
DICTIONARY
  5
19
102
{ACAD_REACTORS
330
C
102
}
330
C
100
AcDbDictionary
281
     1
  3
SEISA基本
350
1C7E
  0
ACDBDICTIONARYWDFLT
  5
E
102
{ACAD_REACTORS
330
C
102
}
330
C
100
AcDbDictionary
281
     1
  3
Normal
350
F
100
AcDbDictionaryWithDefault
340
F
  0
DICTIONARY
  5
2B3
102
{ACAD_REACTORS
330
C
102
}
330
C
100
AcDbDictionary
281
     1
  3
*A1
350
29F3
  3
*A2
350
34EC
  3
*A3
350
85ED
  3
A0
350
2B4
  3
A1
350
2B5
  3
A2
350
2B6
  3
A3
350
2B7
  3
A4
350
2B8
  3
A5
350
2B9
  3
A6
350
2BA
  3
A7
350
2BB
  3
A8
350
2BC
  3
A9
350
2BD
  3
B0
350
2BE
  3
B1
350
2BF
  3
B2
350
2C0
  3
B3
350
2C1
  3
B4
350
2C2
  3
B5
350
2C3
  3
B6
350
2C4
  3
B7
350
2C5
  3
B8
350
2C6
  3
B9
350
2C7
  3
C0
350
2C8
  3
C1
350
2C9
  3
C2
350
2CA
  3
C3
350
2CB
  3
C4
350
2CC
  3
C5
350
2CD
  3
C6
350
2CE
  3
C7
350
2CF
  3
C8
350
2D0
  3
C9
350
2D1
  3
D0
350
2D2
  3
D1
350
2D3
  3
D2
350
2D4
  0
DICTIONARY
  5
121
102
{ACAD_REACTORS
330
C
102
}
330
C
100
AcDbDictionary
281
     1
  3
Standard
350
122
  0
DICTIONARY
  5
27F
102
{ACAD_REACTORS
330
C
102
}
330
C
100
AcDbDictionary
281
     1
  3
2dWireframe
350
285
  3
3D Hidden
350
287
  3
3dWireframe
350
286
  3
Basic
350
284
  3
Brighten
350
28B
  3
ColorChange
350
28F
  3
Conceptual
350
288
  3
Dim
350
28A
  3
Facepattern
350
28E
  3
Flat
350
280
  3
FlatWithEdges
350
281
  3
Gouraud
350
282
  3
GouraudWithEdges
350
283
  3
Linepattern
350
28D
  3
Realistic
350
289
  3
Thicken
350
28C
  0
XRECORD
  5
2F7
102
{ACAD_REACTORS
330
C
102
}
330
C
100
AcDbXrecord
280
     1
 90
        1
330
122
  0
DICTIONARY
  5
34
102
{ACAD_REACTORS
330
C
102
}
330
C
100
AcDbDictionary
281
     1
  3
CANNOSCALE
350
2FA
  3
CMLEADERSTYLE
350
2F8
  3
CTABLESTYLE
350
140
  3
DIMASSOC
350
AC
  3
INDEXCTL
350
35
  3
LAYEREVAL
350
4897
  3
LAYERNOTIFY
350
4898
  3
LIGHTINGUNITS
350
2FB
  3
MSLTSCALE
350
2F9
  0
DICTIONARY
  5
49
102
{ACAD_REACTORS
330
C
102
}
330
C
100
AcDbDictionary
281
     1
  3
AcmBOM
350
161B
  3
AcmStdDictionary
350
4A
  3
AMDTSECTSYM_ARROWCOLOR
350
12B
  0
DICTIONARY
  5
2B
102
{ACAD_REACTORS
330
C
102
}
330
C
100
AcDbDictionary
281
     1
  0
DICTIONARY
  5
1DE
102
{ACAD_REACTORS
330
C
102
}
330
C
100
AcDbDictionary
281
     1
  0
DICTIONARY
  5
85EE
102
{ACAD_REACTORS
330
BF
102
}
330
BF
100
AcDbDictionary
281
     1
  0
DICTIONARY
  5
C0
102
{ACAD_REACTORS
330
BF
102
}
330
BF
100
AcDbDictionary
280
     1
281
     1
  0
XRECORD
  5
29D9
102
{ACAD_REACTORS
330
29D8
102
}
330
29D8
100
AcDbXrecord
280
     1
290
     1
  0
XRECORD
  5
29DB
102
{ACAD_REACTORS
330
29DA
102
}
330
29DA
100
AcDbXrecord
280
     1
290
     1
  0
XRECORD
  5
29E2
102
{ACAD_REACTORS
330
29E1
102
}
330
29E1
100
AcDbXrecord
280
     1
290
     1
  0
XRECORD
  5
29E4
102
{ACAD_REACTORS
330
29E3
102
}
330
29E3
100
AcDbXrecord
280
     1
290
     1
  0
XRECORD
  5
29EA
102
{ACAD_REACTORS
330
29E9
102
}
330
29E9
100
AcDbXrecord
280
     1
290
     1
  0
SORTENTSTABLE
  5
A41
102
{ACAD_REACTORS
330
82
102
}
330
82
100
AcDbSortentsTable
330
1F
331
6E88
  5
6EC0
331
85F7
  5
85F7
331
71D1
  5
71E9
331
6DDD
  5
6E19
331
5C33
  5
5CA8
331
5AAE
  5
5C33
331
5940
  5
5AAE
331
71E9
  5
7280
331
80AC
  5
80AD
331
4154
  5
4154
331
70F6
  5
710E
331
7945
  5
7970
331
6E43
  5
6E88
331
6D91
  5
6DDD
331
6E19
  5
6E43
331
6F37
  5
6F91
331
5CA8
  5
6165
331
6EFA
  5
6F37
331
71B3
  5
71D1
331
6165
  5
6CAB
331
80AB
  5
80AC
  0
SORTENTSTABLE
  5
6785
102
{ACAD_REACTORS
330
6479
102
}
330
6479
100
AcDbSortentsTable
330
57B8
  0
SORTENTSTABLE
  5
6A1F
102
{ACAD_REACTORS
330
59FD
102
}
330
59FD
100
AcDbSortentsTable
330
5903
  0
SORTENTSTABLE
  5
6A92
102
{ACAD_REACTORS
330
5B1E
102
}
330
5B1E
100
AcDbSortentsTable
330
5A7A
331
5AA9
  5
5AAA
331
5AA7
  5
5AA8
331
5A80
  5
5A81
331
5A8C
  5
5A8D
331
5A8A
  5
5A8B
331
5AA5
  5
5AA6
331
5A7E
  5
5A7F
331
5AA3
  5
5AA4
331
5B1D
  5
5A7D
331
5A88
  5
5A89
331
5B1B
  5
5B1C
331
5AA1
  5
5AA2
331
5B19
  5
5B1A
331
5A9F
  5
5AA0
331
5A9D
  5
5A9E
331
5A9B
  5
5A9C
331
5A99
  5
5A9A
331
5A97
  5
5A98
331
5A95
  5
5A96
331
5A87
  5
5A88
331
5A93
  5
5A94
331
5A85
  5
5A86
331
5A91
  5
5A92
331
5A8F
  5
5A90
331
5A83
  5
5A84
331
5AAC
  5
5AAD
331
5A8D
  5
5A8E
331
5A81
  5
5A82
331
5AAA
  5
5AAB
331
5A8B
  5
5A8C
331
5A7F
  5
5A80
331
5AA8
  5
5AA9
331
5AA6
  5
5AA7
331
5A89
  5
5A8A
331
5A7D
  5
5A7E
331
5AA4
  5
5AA5
331
5B1C
  5
5B1D
331
5AA2
  5
5AA3
331
5B1A
  5
5B1B
331
5AA0
  5
5AA1
331
5A9E
  5
5A9F
331
5A9C
  5
5A9D
331
5A9A
  5
5A9B
331
5A98
  5
5A99
331
5A96
  5
5A97
331
5A94
  5
5A95
331
5A92
  5
5A93
331
5A86
  5
5A87
331
5A90
  5
5A91
331
5AAD
  5
5B19
331
5A84
  5
5A85
331
5AAB
  5
5AAC
331
5A82
  5
5A83
331
5A8E
  5
5A8F
  0
SORTENTSTABLE
  5
8869
102
{ACAD_REACTORS
330
65CE
102
}
330
65CE
100
AcDbSortentsTable
330
5C0C
331
5C1B
  5
5C1D
331
86E2
  5
5C10
331
5C23
  5
5C25
331
5C2B
  5
5C2D
331
5C12
  5
5C14
331
5C1A
  5
5C1C
331
86E1
  5
5C0F
331
5C22
  5
5C24
331
5C2A
  5
5C2C
331
5C11
  5
5C13
331
5C19
  5
5C1B
331
5C29
  5
5C2B
331
5C10
  5
5C12
331
5C18
  5
5C1A
331
5C20
  5
5C23
331
5C28
  5
5C2A
331
5C17
  5
5C19
331
5C27
  5
5C29
331
5C2F
  5
86E2
331
5C16
  5
5C18
331
5C1E
  5
5C22
331
5C26
  5
5C28
331
5C2E
  5
86E1
331
5C15
  5
5C17
331
5C1D
  5
5C20
331
5C25
  5
5C27
331
5C2D
  5
5C2F
331
5C0F
  5
5C11
331
5C14
  5
5C16
331
5C1C
  5
5C1E
331
5C24
  5
5C26
331
5C2C
  5
5C2E
331
5C13
  5
5C15
  0
SORTENTSTABLE
  5
881F
102
{ACAD_REACTORS
330
5D13
102
}
330
5D13
100
AcDbSortentsTable
330
5C81
331
5C99
  5
5C9C
331
5C98
  5
5C9B
331
5C9B
  5
5C9E
331
5C9A
  5
5C9D
331
5C9D
  5
5CA0
331
5C9C
  5
5C9F
331
5C9F
  5
5CA2
331
5C9E
  5
5CA1
331
5CA1
  5
661B
331
5C89
  5
5C8B
331
5CA0
  5
5CA4
331
5C88
  5
5C8A
331
5C8C
  5
5C8E
331
5C8B
  5
5C8D
331
5CA2
  5
8695
331
5C8A
  5
5C8C
331
5C8E
  5
5C90
331
5C8D
  5
5C8F
331
5C90
  5
5C92
331
5C8F
  5
5C91
331
5C92
  5
5C94
331
5C91
  5
5C93
331
5C94
  5
5C97
331
661B
  5
5C98
331
5C93
  5
5C96
331
5C96
  5
5C99
331
5C85
  5
5C88
331
5C97
  5
5C9A
331
5C87
  5
5C89
331
5CA4
  5
8696
331
8696
  5
5C87
331
8695
  5
5C85
  0
SORTENTSTABLE
  5
66E8
102
{ACAD_REACTORS
330
61D4
102
}
330
61D4
100
AcDbSortentsTable
330
6134
  0
DIMASSOC
  5
6DA8
102
{ACAD_REACTORS
330
6D9E
102
}
330
6D9E
100
AcDbDimAssoc
330
6D91
 90
        3
 70
     0
 71
     0
  1
AcDbOsnapPointRef
 72
    13
331
5CA8
331
5C90
 73
     2
 91
        0
 40
0.0
 10
0.0
 20
0.0
 30
2.000000000000000E+50
 75
     0
  1
AcDbOsnapPointRef
 72
    13
331
5CA8
331
5C88
 73
     2
 91
        0
 40
0.0
 10
0.0
 20
0.0
 30
2.000000000000000E+50
 75
     0
  0
DIMASSOC
  5
6DF4
102
{ACAD_REACTORS
330
6DEA
102
}
330
6DEA
100
AcDbDimAssoc
330
6DDD
 90
        3
 70
     0
 71
     0
  1
AcDbOsnapPointRef
 72
    10
331
5CA8
331
5C87
 73
     2
 91
        0
 40
0.5739759014260778
 10
0.0
 20
0.0
 30
0.0
 75
     0
  1
AcDbOsnapPointRef
 72
    10
331
5CA8
331
661B
 73
     2
 91
        0
 40
0.7537648394605953
 10
0.0
 20
0.0
 30
0.0
 75
     0
  0
DIMASSOC
  5
6E30
102
{ACAD_REACTORS
330
6E26
102
}
330
6E26
100
AcDbDimAssoc
330
6E19
 90
        3
 70
     0
 71
     0
  1
AcDbOsnapPointRef
 72
    10
331
5C33
331
5C0F
 73
     2
 91
        0
 40
0.8453857362822468
 10
0.0
 20
0.0
 30
0.0
 75
     0
  1
AcDbOsnapPointRef
 72
     8
331
5C33
331
5C10
 73
     2
 91
        0
 40
0.5805904463393694
 10
0.0
 20
0.0
 30
0.0
 75
     1
  1
AcDbOsnapPointRef
 72
    10
331
5C33
331
5C0F
 73
     2
 91
        0
 40
0.8453857362822468
 10
0.0
 20
0.0
 30
0.0
 75
     0
  0
DIMASSOC
  5
6E5E
102
{ACAD_REACTORS
330
6E52
102
}
330
6E52
100
AcDbDimAssoc
330
6E43
 90
        3
 70
     0
 71
     0
  1
AcDbOsnapPointRef
 72
    10
331
5CA8
331
661B
 73
     2
 91
        0
 40
0.7443655856003059
 10
0.0
 20
0.0
 30
0.0
 75
     0
  1
AcDbOsnapPointRef
 72
    10
331
5C33
331
5C0F
 73
     2
 91
        0
 40
0.8305265567679189
 10
0.0
 20
0.0
 30
0.0
 75
     0
  0
DIMASSOC
  5
6EA3
102
{ACAD_REACTORS
330
6E97
102
}
330
6E97
100
AcDbDimAssoc
330
6E88
 90
        3
 70
     0
 71
     0
  1
AcDbOsnapPointRef
 72
     1
331
5AAE
331
5A9B
 73
     2
 91
        0
 40
1.0
 10
0.0
 20
0.0
 30
2.000000000000000E+50
 75
     0
  1
AcDbOsnapPointRef
 72
    13
331
5CA8
331
5C93
 73
     2
 91
        0
 40
0.0
 10
0.0
 20
0.0
 30
2.000000000000000E+50
 75
     0
  0
DIMASSOC
  5
6F15
102
{ACAD_REACTORS
330
6F09
102
}
330
6F09
100
AcDbDimAssoc
330
6EFA
 90
        3
 70
     0
 71
     0
  1
AcDbOsnapPointRef
 72
    13
331
5AAE
331
5A7E
 73
     2
 91
        0
 40
0.0
 10
0.0
 20
0.0
 30
2.000000000000000E+50
 75
     0
  1
AcDbOsnapPointRef
 72
    13
331
5AAE
331
5A85
 73
     2
 91
        0
 40
0.0
 10
0.0
 20
0.0
 30
2.000000000000000E+50
 75
     0
  0
DIMASSOC
  5
6F52
102
{ACAD_REACTORS
330
6F46
102
}
330
6F46
100
AcDbDimAssoc
330
6F37
 90
        3
 70
     0
 71
     0
  1
AcDbOsnapPointRef
 72
    13
331
5AAE
331
5A85
 73
     2
 91
        0
 40
0.0
 10
0.0
 20
0.0
 30
2.000000000000000E+50
 75
     0
  1
AcDbOsnapPointRef
 72
    13
331
5940
331
5907
 73
     2
 91
        0
 40
0.0
 10
0.0
 20
0.0
 30
2.000000000000000E+50
 75
     0
  0
DIMASSOC
  5
710D
102
{ACAD_REACTORS
330
7103
102
}
330
7103
100
AcDbDimAssoc
330
70F6
 90
        1
 70
     0
 71
     0
  1
AcDbOsnapPointRef
 72
    13
331
5AAE
331
5A7D
 73
     2
 91
        0
 40
0.0
 10
0.0
 20
0.0
 30
2.000000000000000E+50
 75
     0
  0
DIMASSOC
  5
71CA
102
{ACAD_REACTORS
330
71C0
102
}
330
71C0
100
AcDbDimAssoc
330
71B3
 90
        3
 70
     0
 71
     0
  1
AcDbOsnapPointRef
 72
    13
331
5C33
331
5C29
 73
     2
 91
        0
 40
0.0
 10
0.0
 20
0.0
 30
2.000000000000000E+50
 75
     0
  1
AcDbOsnapPointRef
 72
    13
331
5C33
331
5C19
 73
     2
 91
        0
 40
0.0
 10
0.0
 20
0.0
 30
2.000000000000000E+50
 75
     0
  0
DIMASSOC
  5
71E8
102
{ACAD_REACTORS
330
71DE
102
}
330
71DE
100
AcDbDimAssoc
330
71D1
 90
        3
 70
     0
 71
     0
  1
AcDbOsnapPointRef
 72
     1
331
5940
331
5911
 73
     2
 91
        0
 40
1.0
 10
0.0
 20
0.0
 30
2.000000000000000E+50
 75
     0
  1
AcDbOsnapPointRef
 72
     1
331
5940
331
5908
 73
     2
 91
        0
 40
1.0
 10
0.0
 20
0.0
 30
2.000000000000000E+50
 75
     0
  0
DIMASSOC
  5
7200
102
{ACAD_REACTORS
330
71F6
102
}
330
71F6
100
AcDbDimAssoc
330
71E9
 90
        3
 70
     0
 71
     0
  1
AcDbOsnapPointRef
 72
     1
331
5940
331
5925
 73
     2
 91
        0
 40
1.0
 10
0.0
 20
0.0
 30
2.000000000000000E+50
 75
     0
  1
AcDbOsnapPointRef
 72
     1
331
5940
331
5909
 73
     2
 91
        0
 40
1.0
 10
0.0
 20
0.0
 30
2.000000000000000E+50
 75
     0
  0
DIMASSOC
  5
795C
102
{ACAD_REACTORS
330
7952
102
}
330
7952
100
AcDbDimAssoc
330
7945
 90
        3
 70
     0
 71
     0
  1
AcDbOsnapPointRef
 72
    10
331
5CA8
331
5C87
 73
     2
 91
        0
 40
0.003905460785183
 10
0.0
 20
0.0
 30
0.0
 75
     0
  1
AcDbOsnapPointRef
 72
     8
331
5C33
331
5C10
 73
     2
 91
        0
 40
0.003905460785183
 10
0.0
 20
0.0
 30
0.0
 75
     1
  1
AcDbOsnapPointRef
 72
    10
331
5CA8
331
5C87
 73
     2
 91
        0
 40
0.003905460785183
 10
0.0
 20
0.0
 30
0.0
 75
     0
  0
DIMASSOC
  5
864A
102
{ACAD_REACTORS
330
8649
102
}
330
8649
100
AcDbDimAssoc
330
863C
 90
        2
 70
     0
 71
     0
  1
AcDbOsnapPointRef
 72
     1
331
5CA8
331
5C87
 73
     0
 91
        0
 40
0.0
 10
0.0
 20
0.0
 30
2.000000000000000E+50
 75
     0
  0
DIMASSOC
  5
8714
102
{ACAD_REACTORS
330
8713
102
}
330
8713
100
AcDbDimAssoc
330
8706
 90
        3
 70
     0
 71
     0
  1
AcDbOsnapPointRef
 72
     4
331
6E88
331
6EB8
 73
     0
 91
        0
 40
0.0
 10
0.0
 20
0.0
 30
0.0
 75
     0
  1
AcDbOsnapPointRef
 72
     8
331
5CA8
331
5CA0
 73
     0
 91
        0
 40
0.9426690054654788
 10
0.0
 20
0.0
 30
0.0
 75
     1
  1
AcDbOsnapPointRef
 72
     4
331
6E88
331
6EB8
 73
     0
 91
        0
 40
0.0
 10
0.0
 20
0.0
 30
0.0
 75
     0
  0
DIMASSOC
  5
8740
102
{ACAD_REACTORS
330
873F
102
}
330
873F
100
AcDbDimAssoc
330
8730
 90
        3
 70
     0
 71
     0
  1
AcDbOsnapPointRef
 72
     4
331
8706
331
872E
 73
     0
 91
        0
 40
0.0
 10
0.0
 20
0.0
 30
0.0
 75
     0
  1
AcDbOsnapPointRef
 72
    13
331
5CA8
331
661B
 73
     0
 91
        0
 40
0.0
 10
0.0
 20
0.0
 30
2.000000000000000E+50
 75
     0
  0
LAYOUT
  5
22
102
{ACAD_REACTORS
330
1A
102
}
330
1A
100
AcDbPlotSettings
  1

  2
KONICA MINOLTA 501 PCL
  4
A4
  6

 40
5.027082920074462
 41
5.027085781097412
 42
5.027069091796875
 43
5.027069091796875
 44
209.9733276367186
 45
296.9259948730469
 46
0.8689904489405646
 47
0.0
 48
0.0
 49
0.0
140
0.0
141
0.0
142
1.0
143
1.801825527753885
 70
 11956
 72
     1
 73
     1
 74
     1
  7
SEISA.ctb
 75
     0
147
0.5549926919098415
 76
     0
 77
     2
 78
   300
148
-396.4993325828345
149
-431.0886877665516
100
AcDbLayout
  1
Model
 70
     1
 71
     0
 10
0.0
 20
0.0
 11
12.0
 21
9.0
 12
0.0
 22
0.0
 32
0.0
 14
0.0
 24
0.0
 34
0.0
 15
0.0
 25
0.0
 35
0.0
146
0.0
 13
0.0
 23
0.0
 33
0.0
 16
1.0
 26
0.0
 36
0.0
 17
0.0
 27
1.0
 37
0.0
 76
     0
330
1F
331
27A
1001
ACAD_PSEXT
1000
KONICA MINOLTA 501 PCL
1000
KONICA MINOLTA 501/421/361PCL
1000
IP_192.168.20.231_(1)
1000

1070
     0
  0
LAYOUT
  5
1E
102
{ACAD_REACTORS
330
1A
102
}
330
1A
100
AcDbPlotSettings
  1

  2
none_device
  4
Letter_(8.50_x_11.00_Inches)
  6

 40
6.349999904632567
 41
6.349999904632567
 42
6.350006103515625
 43
6.350006103515625
 44
215.8999938964844
 45
279.3999938964844
 46
0.0
 47
0.0
 48
0.0
 49
0.0
140
0.0
141
0.0
142
1.0
143
1.0
 70
 15024
 72
     1
 73
     1
 74
     5
  7
SEISA.ctb
 75
    16
147
1.0
 76
     0
 77
     2
 78
   300
148
0.0
149
0.0
100
AcDbLayout
  1
レイアウト1
 70
     1
 71
     1
 10
0.0
 20
0.0
 11
420.0
 21
297.0
 12
0.0
 22
0.0
 32
0.0
 14
1.000000000000000E+20
 24
1.000000000000000E+20
 34
1.000000000000000E+20
 15
-1.000000000000000E+20
 25
-1.000000000000000E+20
 35
-1.000000000000000E+20
146
0.0
 13
0.0
 23
0.0
 33
0.0
 16
1.0
 26
0.0
 36
0.0
 17
0.0
 27
1.0
 37
0.0
 76
     0
330
1B
  0
LAYOUT
  5
26
102
{ACAD_REACTORS
330
1A
102
}
330
1A
100
AcDbPlotSettings
  1

  2
none_device
  4
Letter_(8.50_x_11.00_Inches)
  6

 40
6.349999904632567
 41
6.349999904632567
 42
6.350006103515625
 43
6.350006103515625
 44
215.8999938964844
 45
279.3999938964844
 46
0.0
 47
0.0
 48
0.0
 49
0.0
140
0.0
141
0.0
142
1.0
143
1.0
 70
 15024
 72
     1
 73
     1
 74
     5
  7
SEISA.ctb
 75
    16
147
1.0
 76
     0
 77
     2
 78
   300
148
0.0
149
0.0
100
AcDbLayout
  1
レイアウト2
 70
     1
 71
     2
 10
0.0
 20
0.0
 11
12.0
 21
9.0
 12
0.0
 22
0.0
 32
0.0
 14
0.0
 24
0.0
 34
0.0
 15
0.0
 25
0.0
 35
0.0
146
0.0
 13
0.0
 23
0.0
 33
0.0
 16
1.0
 26
0.0
 36
0.0
 17
0.0
 27
1.0
 37
0.0
 76
     0
330
23
  0
MATERIAL
  5
27D
102
{ACAD_REACTORS
330
C4
102
}
330
C4
100
AcDbMaterial
  1
ByBlock
 73
     1
 78
     1
172
     1
176
     1
270
     1
274
     1
 94
       63
  0
MATERIAL
  5
27C
102
{ACAD_REACTORS
330
C4
102
}
330
C4
100
AcDbMaterial
  1
ByLayer
 73
     1
 78
     1
172
     1
176
     1
270
     1
274
     1
 94
       63
  0
MATERIAL
  5
27E
102
{ACAD_REACTORS
330
C4
102
}
330
C4
100
AcDbMaterial
  1
Global
 73
     1
 78
     1
172
     1
176
     1
270
     1
274
     1
 94
       63
  0
MLEADERSTYLE
  5
2D6
102
{ACAD_REACTORS
330
2D5
102
}
330
2D5
100
AcDbMLeaderStyle
170
     2
171
     1
172
     0
 90
        2
 40
0.0
 41
0.0
173
     1
 91
-1056964608
340
14
 92
       -2
290
     1
 42
2.0
291
     1
 43
0.36
  3
Standard
 44
4.0
300

342
11
174
     1
178
     6
175
     1
176
     0
 93
-1056964608
 45
4.0
292
     0
297
     0
 46
4.0
 94
-1056964608
 47
1.0
 49
1.0
140
1.0
293
     1
141
0.0
294
     1
177
     0
142
1.0
295
     0
296
     0
143
0.125
1001
ACAD_MLEADERVER
1070
     2
  0
MLINESTYLE
  5
18
102
{ACAD_REACTORS
330
17
102
}
330
17
100
AcDbMlineStyle
  2
STANDARD
 70
     0
  3

 62
   256
 51
90.0
 52
90.0
 71
     2
 49
0.5
 62
   256
  6
BYLAYER
 49
-0.5
 62
   256
  6
BYLAYER
  0
PLOTSETTINGS
  5
1C7E
102
{ACAD_REACTORS
330
19
102
}
330
19
100
AcDbPlotSettings
  1
SEISA基本
  2
none_device
  4
Letter_(8.50_x_11.00_Inches)
  6

 40
6.349999904632567
 41
6.349999904632567
 42
6.350006103515625
 43
6.350006103515625
 44
215.8999938964844
 45
279.3999938964844
 46
7.302498226506357
 47
0.0
 48
0.0
 49
0.0
140
0.0
141
0.0
142
1.0
143
1.574803221122935
 70
 11956
 72
     1
 73
     1
 74
     2
  7
SEISA.ctb
 75
     0
147
0.6349999711627054
 76
     0
 77
     2
 78
   300
148
0.0
149
0.0
1001
ACAD_PSEXT
1000
なし
1000
なし
1000
適切ではありません
1000
新しいプロッタ環境設定名を選択しない限り、レイアウトは印刷されません。
1070
     0
  0
ACDBPLACEHOLDER
  5
F
102
{ACAD_REACTORS
330
E
102
}
330
E
  0
SCALE
  5
29F3
102
{ACAD_REACTORS
330
2B3
102
}
330
2B3
100
AcDbScale
 70
     0
300
1:2.5
140
1.0
141
2.5
290
     0
  0
SCALE
  5
34EC
102
{ACAD_REACTORS
330
2B3
102
}
330
2B3
100
AcDbScale
 70
     0
300
1:3
140
1.0
141
3.0
290
     0
  0
SCALE
  5
85ED
102
{ACAD_REACTORS
330
2B3
102
}
330
2B3
100
AcDbScale
 70
     0
300
1:1.5
140
1.0
141
1.5
290
     0
  0
SCALE
  5
2B4
102
{ACAD_REACTORS
330
2B3
102
}
330
2B3
100
AcDbScale
 70
     0
300
1:1
140
1.0
141
1.0
290
     1
  0
SCALE
  5
2B5
102
{ACAD_REACTORS
330
2B3
102
}
330
2B3
100
AcDbScale
 70
     0
300
1:2
140
1.0
141
2.0
290
     0
  0
SCALE
  5
2B6
102
{ACAD_REACTORS
330
2B3
102
}
330
2B3
100
AcDbScale
 70
     0
300
1:4
140
1.0
141
4.0
290
     0
  0
SCALE
  5
2B7
102
{ACAD_REACTORS
330
2B3
102
}
330
2B3
100
AcDbScale
 70
     0
300
1:5
140
1.0
141
5.0
290
     0
  0
SCALE
  5
2B8
102
{ACAD_REACTORS
330
2B3
102
}
330
2B3
100
AcDbScale
 70
     0
300
1:8
140
1.0
141
8.0
290
     0
  0
SCALE
  5
2B9
102
{ACAD_REACTORS
330
2B3
102
}
330
2B3
100
AcDbScale
 70
     0
300
1:10
140
1.0
141
10.0
290
     0
  0
SCALE
  5
2BA
102
{ACAD_REACTORS
330
2B3
102
}
330
2B3
100
AcDbScale
 70
     0
300
1:16
140
1.0
141
16.0
290
     0
  0
SCALE
  5
2BB
102
{ACAD_REACTORS
330
2B3
102
}
330
2B3
100
AcDbScale
 70
     0
300
1:20
140
1.0
141
20.0
290
     0
  0
SCALE
  5
2BC
102
{ACAD_REACTORS
330
2B3
102
}
330
2B3
100
AcDbScale
 70
     0
300
1:30
140
1.0
141
30.0
290
     0
  0
SCALE
  5
2BD
102
{ACAD_REACTORS
330
2B3
102
}
330
2B3
100
AcDbScale
 70
     0
300
1:40
140
1.0
141
40.0
290
     0
  0
SCALE
  5
2BE
102
{ACAD_REACTORS
330
2B3
102
}
330
2B3
100
AcDbScale
 70
     0
300
1:50
140
1.0
141
50.0
290
     0
  0
SCALE
  5
2BF
102
{ACAD_REACTORS
330
2B3
102
}
330
2B3
100
AcDbScale
 70
     0
300
1:100
140
1.0
141
100.0
290
     0
  0
SCALE
  5
2C0
102
{ACAD_REACTORS
330
2B3
102
}
330
2B3
100
AcDbScale
 70
     0
300
2:1
140
2.0
141
1.0
290
     0
  0
SCALE
  5
2C1
102
{ACAD_REACTORS
330
2B3
102
}
330
2B3
100
AcDbScale
 70
     0
300
4:1
140
4.0
141
1.0
290
     0
  0
SCALE
  5
2C2
102
{ACAD_REACTORS
330
2B3
102
}
330
2B3
100
AcDbScale
 70
     0
300
8:1
140
8.0
141
1.0
290
     0
  0
SCALE
  5
2C3
102
{ACAD_REACTORS
330
2B3
102
}
330
2B3
100
AcDbScale
 70
     0
300
10:1
140
10.0
141
1.0
290
     0
  0
SCALE
  5
2C4
102
{ACAD_REACTORS
330
2B3
102
}
330
2B3
100
AcDbScale
 70
     0
300
100:1
140
100.0
141
1.0
290
     0
  0
SCALE
  5
2C5
102
{ACAD_REACTORS
330
2B3
102
}
330
2B3
100
AcDbScale
 70
     0
300
1/128" = 1'-0"
140
0.0078125
141
12.0
290
     0
  0
SCALE
  5
2C6
102
{ACAD_REACTORS
330
2B3
102
}
330
2B3
100
AcDbScale
 70
     0
300
1/64" = 1'-0"
140
0.015625
141
12.0
290
     0
  0
SCALE
  5
2C7
102
{ACAD_REACTORS
330
2B3
102
}
330
2B3
100
AcDbScale
 70
     0
300
1/32" = 1'-0"
140
0.03125
141
12.0
290
     0
  0
SCALE
  5
2C8
102
{ACAD_REACTORS
330
2B3
102
}
330
2B3
100
AcDbScale
 70
     0
300
1/16" = 1'-0"
140
0.0625
141
12.0
290
     0
  0
SCALE
  5
2C9
102
{ACAD_REACTORS
330
2B3
102
}
330
2B3
100
AcDbScale
 70
     0
300
3/32" = 1'-0"
140
0.09375
141
12.0
290
     0
  0
SCALE
  5
2CA
102
{ACAD_REACTORS
330
2B3
102
}
330
2B3
100
AcDbScale
 70
     0
300
1/8" = 1'-0"
140
0.125
141
12.0
290
     0
  0
SCALE
  5
2CB
102
{ACAD_REACTORS
330
2B3
102
}
330
2B3
100
AcDbScale
 70
     0
300
3/16" = 1'-0"
140
0.1875
141
12.0
290
     0
  0
SCALE
  5
2CC
102
{ACAD_REACTORS
330
2B3
102
}
330
2B3
100
AcDbScale
 70
     0
300
1/4" = 1'-0"
140
0.25
141
12.0
290
     0
  0
SCALE
  5
2CD
102
{ACAD_REACTORS
330
2B3
102
}
330
2B3
100
AcDbScale
 70
     0
300
3/8" = 1'-0"
140
0.375
141
12.0
290
     0
  0
SCALE
  5
2CE
102
{ACAD_REACTORS
330
2B3
102
}
330
2B3
100
AcDbScale
 70
     0
300
1/2" = 1'-0"
140
0.5
141
12.0
290
     0
  0
SCALE
  5
2CF
102
{ACAD_REACTORS
330
2B3
102
}
330
2B3
100
AcDbScale
 70
     0
300
3/4" = 1'-0"
140
0.75
141
12.0
290
     0
  0
SCALE
  5
2D0
102
{ACAD_REACTORS
330
2B3
102
}
330
2B3
100
AcDbScale
 70
     0
300
1" = 1'-0"
140
1.0
141
12.0
290
     0
  0
SCALE
  5
2D1
102
{ACAD_REACTORS
330
2B3
102
}
330
2B3
100
AcDbScale
 70
     0
300
1-1/2" = 1'-0"
140
1.5
141
12.0
290
     0
  0
SCALE
  5
2D2
102
{ACAD_REACTORS
330
2B3
102
}
330
2B3
100
AcDbScale
 70
     0
300
3" = 1'-0"
140
3.0
141
12.0
290
     0
  0
SCALE
  5
2D3
102
{ACAD_REACTORS
330
2B3
102
}
330
2B3
100
AcDbScale
 70
     0
300
6" = 1'-0"
140
6.0
141
12.0
290
     0
  0
SCALE
  5
2D4
102
{ACAD_REACTORS
330
2B3
102
}
330
2B3
100
AcDbScale
 70
     0
300
1'-0" = 1'-0"
140
12.0
141
12.0
290
     0
  0
TABLESTYLE
  5
122
102
{ACAD_XDICTIONARY
360
2F5
102
}
102
{ACAD_REACTORS
330
121
102
}
330
121
100
AcDbTableStyle
  3
Standard
 70
     0
 71
     0
 40
1.5
 41
1.5
280
     0
281
     0
  7
STANDARD
140
4.5
170
     2
 62
     0
 63
     7
283
     0
 90
      512
 91
        0
  1

274
    -2
284
     1
 64
     0
275
    -2
285
     1
 65
     0
276
    -2
286
     1
 66
     0
277
    -2
287
     1
 67
     0
278
    -2
288
     1
 68
     0
279
    -2
289
     1
 69
     0
  7
STANDARD
140
6.0
170
     5
 62
     0
 63
     7
283
     0
 90
      512
 91
        0
  1

274
    -2
284
     1
 64
     0
275
    -2
285
     1
 65
     0
276
    -2
286
     1
 66
     0
277
    -2
287
     1
 67
     0
278
    -2
288
     1
 68
     0
279
    -2
289
     1
 69
     0
  7
STANDARD
140
4.5
170
     5
 62
     0
 63
     7
283
     0
 90
      512
 91
        0
  1

274
    -2
284
     1
 64
     0
275
    -2
285
     1
 65
     0
276
    -2
286
     1
 66
     0
277
    -2
287
     1
 67
     0
278
    -2
288
     1
 68
     0
279
    -2
289
     1
 69
     0
  0
VISUALSTYLE
  5
285
102
{ACAD_REACTORS
330
27F
102
}
330
27F
100
AcDbVisualStyle
  2
2dWireframe
 70
     4
 71
     0
 72
     2
 73
     0
 90
        0
 40
-0.6
 41
-30.0
 62
     5
 63
     7
421
 16777215
 74
     1
 91
        4
 64
     7
 65
   257
 75
     1
175
     1
 42
1.0
 92
        0
 66
   257
 43
1.0
 76
     1
 77
     6
 78
     2
 67
     7
 79
     5
170
     0
171
     0
290
     0
174
     0
 93
        1
 44
0.0
173
     0
291
     0
 45
0.0
  0
VISUALSTYLE
  5
287
102
{ACAD_REACTORS
330
27F
102
}
330
27F
100
AcDbVisualStyle
  2
3D Hidden
 70
     6
 71
     1
 72
     2
 73
     2
 90
        0
 40
-0.6
 41
-30.0
 62
     5
 63
     7
421
 16777215
 74
     2
 91
        2
 64
     7
 65
   257
 75
     2
175
     1
 42
40.0
 92
        0
 66
   257
 43
1.0
 76
     1
 77
     6
 78
     2
 67
     7
 79
     3
170
     0
171
     0
290
     0
174
     0
 93
        1
 44
0.0
173
     0
291
     0
 45
0.0
  0
VISUALSTYLE
  5
286
102
{ACAD_REACTORS
330
27F
102
}
330
27F
100
AcDbVisualStyle
  2
3dWireframe
 70
     5
 71
     0
 72
     2
 73
     0
 90
        0
 40
-0.6
 41
-30.0
 62
     5
 63
     7
421
 16777215
 74
     1
 91
        4
 64
     7
 65
   257
 75
     1
175
     1
 42
1.0
 92
        0
 66
   257
 43
1.0
 76
     1
 77
     6
 78
     2
 67
     7
 79
     5
170
     0
171
     0
290
     0
174
     0
 93
        1
 44
0.0
173
     0
291
     0
 45
0.0
  0
VISUALSTYLE
  5
284
102
{ACAD_REACTORS
330
27F
102
}
330
27F
100
AcDbVisualStyle
  2
Basic
 70
     7
 71
     1
 72
     0
 73
     1
 90
        0
 40
-0.6
 41
-30.0
 62
     5
 63
     7
421
 16777215
 74
     0
 91
        4
 64
     7
 65
   257
 75
     1
175
     1
 42
1.0
 92
        8
 66
     7
 43
1.0
 76
     1
 77
     6
 78
     2
 67
     7
 79
     5
170
     0
171
     0
290
     0
174
     0
 93
        1
 44
0.0
173
     0
291
     1
 45
0.0
  0
VISUALSTYLE
  5
28B
102
{ACAD_REACTORS
330
27F
102
}
330
27F
100
AcDbVisualStyle
  2
Brighten
 70
    12
 71
     2
 72
     2
 73
     0
 90
        0
 40
-0.6
 41
-30.0
 62
     5
 63
     7
421
 16777215
 74
     1
 91
        4
 64
     7
 65
   257
 75
     1
175
     1
 42
1.0
 92
        8
 66
     7
 43
1.0
 76
     1
 77
     6
 78
     2
 67
     7
 79
     5
170
     0
171
     0
290
     0
174
     0
 93
        1
 44
50.0
173
     0
291
     1
 45
0.0
  0
VISUALSTYLE
  5
28F
102
{ACAD_REACTORS
330
27F
102
}
330
27F
100
AcDbVisualStyle
  2
ColorChange
 70
    16
 71
     2
 72
     2
 73
     3
 90
        0
 40
-0.6
 41
-30.0
 62
     5
 63
     8
421
  8421504
 74
     1
 91
        4
 64
     7
 65
   257
 75
     1
175
     1
 42
1.0
 92
        8
 66
     8
424
  8421504
 43
1.0
 76
     1
 77
     6
 78
     2
 67
     7
 79
     5
170
     0
171
     0
290
     0
174
     0
 93
        1
 44
0.0
173
     0
291
     1
 45
0.0
  0
VISUALSTYLE
  5
288
102
{ACAD_REACTORS
330
27F
102
}
330
27F
100
AcDbVisualStyle
  2
Conceptual
 70
     9
 71
     3
 72
     2
 73
     0
 90
        0
 40
-0.6
 41
-30.0
 62
     5
 63
     7
421
 16777215
 74
     2
 91
        2
 64
     7
 65
   257
 75
     1
175
     1
 42
40.0
 92
        8
 66
     7
 43
1.0
 76
     1
 77
     6
 78
     2
 67
     7
 79
     3
170
     0
171
     0
290
     0
174
     0
 93
        1
 44
0.0
173
     0
291
     0
 45
0.0
  0
VISUALSTYLE
  5
28A
102
{ACAD_REACTORS
330
27F
102
}
330
27F
100
AcDbVisualStyle
  2
Dim
 70
    11
 71
     2
 72
     2
 73
     0
 90
        0
 40
-0.6
 41
-30.0
 62
     5
 63
     7
421
 16777215
 74
     1
 91
        4
 64
     7
 65
   257
 75
     1
175
     1
 42
1.0
 92
        8
 66
     7
 43
1.0
 76
     1
 77
     6
 78
     2
 67
     7
 79
     5
170
     0
171
     0
290
     0
174
     0
 93
        1
 44
-50.0
173
     0
291
     1
 45
0.0
  0
VISUALSTYLE
  5
28E
102
{ACAD_REACTORS
330
27F
102
}
330
27F
100
AcDbVisualStyle
  2
Facepattern
 70
    15
 71
     2
 72
     2
 73
     0
 90
        0
 40
-0.6
 41
-30.0
 62
     5
 63
     7
421
 16777215
 74
     1
 91
        4
 64
     7
 65
   257
 75
     1
175
     1
 42
1.0
 92
        8
 66
     7
 43
1.0
 76
     1
 77
     6
 78
     2
 67
     7
 79
     5
170
     0
171
     0
290
     0
174
     0
 93
        1
 44
0.0
173
     0
291
     1
 45
0.0
  0
VISUALSTYLE
  5
280
102
{ACAD_REACTORS
330
27F
102
}
330
27F
100
AcDbVisualStyle
  2
Flat
 70
     0
 71
     2
 72
     1
 73
     1
 90
        2
 40
-0.6
 41
30.0
 62
     5
 63
     7
421
 16777215
 74
     0
 91
        4
 64
     7
 65
   257
 75
     1
175
     1
 42
1.0
 92
        8
 66
     7
 43
1.0
 76
     1
 77
     6
 78
     2
 67
     7
 79
     5
170
     0
171
     0
290
     0
174
     0
 93
       13
 44
0.0
173
     0
291
     1
 45
0.0
  0
VISUALSTYLE
  5
281
102
{ACAD_REACTORS
330
27F
102
}
330
27F
100
AcDbVisualStyle
  2
FlatWithEdges
 70
     1
 71
     2
 72
     1
 73
     1
 90
        2
 40
-0.6
 41
30.0
 62
     5
 63
     7
421
 16777215
 74
     1
 91
        4
 64
     7
 65
   257
 75
     1
175
     1
 42
1.0
 92
        0
 66
   257
 43
1.0
 76
     1
 77
     6
 78
     2
 67
     7
 79
     5
170
     0
171
     0
290
     0
174
     0
 93
       13
 44
0.0
173
     0
291
     1
 45
0.0
  0
VISUALSTYLE
  5
282
102
{ACAD_REACTORS
330
27F
102
}
330
27F
100
AcDbVisualStyle
  2
Gouraud
 70
     2
 71
     2
 72
     2
 73
     1
 90
        2
 40
-0.6
 41
30.0
 62
     5
 63
     7
421
 16777215
 74
     0
 91
        4
 64
     7
 65
   257
 75
     1
175
     1
 42
1.0
 92
        0
 66
     7
 43
1.0
 76
     1
 77
     6
 78
     2
 67
     7
 79
     5
170
     0
171
     0
290
     0
174
     0
 93
       13
 44
0.0
173
     0
291
     1
 45
0.0
  0
VISUALSTYLE
  5
283
102
{ACAD_REACTORS
330
27F
102
}
330
27F
100
AcDbVisualStyle
  2
GouraudWithEdges
 70
     3
 71
     2
 72
     2
 73
     1
 90
        2
 40
-0.6
 41
30.0
 62
     5
 63
     7
421
 16777215
 74
     1
 91
        4
 64
     7
 65
   257
 75
     1
175
     1
 42
1.0
 92
        0
 66
   257
 43
1.0
 76
     1
 77
     6
 78
     2
 67
     7
 79
     5
170
     0
171
     0
290
     0
174
     0
 93
       13
 44
0.0
173
     0
291
     1
 45
0.0
  0
VISUALSTYLE
  5
28D
102
{ACAD_REACTORS
330
27F
102
}
330
27F
100
AcDbVisualStyle
  2
Linepattern
 70
    14
 71
     2
 72
     2
 73
     0
 90
        0
 40
-0.6
 41
-30.0
 62
     5
 63
     7
421
 16777215
 74
     1
 91
        4
 64
     7
 65
   257
 75
     7
175
     7
 42
1.0
 92
        8
 66
     7
 43
1.0
 76
     1
 77
     6
 78
     2
 67
     7
 79
     5
170
     0
171
     0
290
     0
174
     0
 93
        1
 44
0.0
173
     0
291
     1
 45
0.0
  0
VISUALSTYLE
  5
289
102
{ACAD_REACTORS
330
27F
102
}
330
27F
100
AcDbVisualStyle
  2
Realistic
 70
     8
 71
     2
 72
     2
 73
     0
 90
        0
 40
-0.6
 41
-30.0
 62
     5
 63
     7
421
 16777215
 74
     1
 91
        0
 64
     7
 65
   257
 75
     1
175
     1
 42
1.0
 92
        8
 66
     8
424
  7895160
 43
1.0
 76
     1
 77
     6
 78
     2
 67
     7
 79
     5
170
     0
171
     0
290
     0
174
     0
 93
       13
 44
0.0
173
     0
291
     0
 45
0.0
  0
VISUALSTYLE
  5
28C
102
{ACAD_REACTORS
330
27F
102
}
330
27F
100
AcDbVisualStyle
  2
Thicken
 70
    13
 71
     2
 72
     2
 73
     0
 90
        0
 40
-0.6
 41
-30.0
 62
     5
 63
     7
421
 16777215
 74
     1
 91
        4
 64
     7
 65
   257
 75
     1
175
     1
 42
1.0
 92
       12
 66
     7
 43
1.0
 76
     1
 77
     6
 78
     2
 67
     7
 79
     5
170
     0
171
     0
290
     0
174
     0
 93
        1
 44
0.0
173
     0
291
     1
 45
0.0
  0
DICTIONARYVAR
  5
2FA
102
{ACAD_REACTORS
330
34
102
}
330
34
100
DictionaryVariables
280
     0
  1
1:3
  0
DICTIONARYVAR
  5
2F8
102
{ACAD_REACTORS
330
34
102
}
330
34
100
DictionaryVariables
280
     0
  1
STANDARD
  0
DICTIONARYVAR
  5
140
102
{ACAD_REACTORS
330
34
102
}
330
34
100
DictionaryVariables
280
     0
  1
STANDARD
  0
DICTIONARYVAR
  5
AC
102
{ACAD_REACTORS
330
34
102
}
330
34
100
DictionaryVariables
280
     0
  1
1
  0
DICTIONARYVAR
  5
35
102
{ACAD_REACTORS
330
34
102
}
330
34
100
DictionaryVariables
280
     0
  1
1
  0
DICTIONARYVAR
  5
4897
102
{ACAD_REACTORS
330
34
102
}
330
34
100
DictionaryVariables
280
     0
  1
1
  0
DICTIONARYVAR
  5
4898
102
{ACAD_REACTORS
330
34
102
}
330
34
100
DictionaryVariables
280
     0
  1
15
  0
DICTIONARYVAR
  5
2FB
102
{ACAD_REACTORS
330
34
102
}
330
34
100
DictionaryVariables
280
     0
  1
0
  0
DICTIONARYVAR
  5
2F9
102
{ACAD_REACTORS
330
34
102
}
330
34
100
DictionaryVariables
280
     0
  1
0
  0
DICTIONARY
  5
161B
102
{ACAD_REACTORS
330
49
102
}
330
49
100
AcDbDictionary
281
     1
  0
DICTIONARY
  5
4A
102
{ACAD_REACTORS
330
49
102
}
330
49
100
AcDbDictionary
281
     1
  0
XRECORD
  5
12B
102
{ACAD_REACTORS
330
49
102
}
330
49
100
AcDbXrecord
280
     1
 90
-1023410169
  0
DICTIONARY
  5
2F5
330
122
100
AcDbDictionary
280
     1
281
     1
  3
ACAD_ROUNDTRIP_2008_TABLESTYLE_CELLSTYLEMAP
360
8A33
  0
CELLSTYLEMAP
  5
8A33
102
{ACAD_REACTORS
330
2F5
102
}
330
2F5
100
AcDbCellStyleMap
 90
        3
300
CELLSTYLE
  1
TABLEFORMAT_BEGIN
 90
        5
170
     1
 91
        0
 92
    32768
 62
   257
 93
        1
300
CONTENTFORMAT
  1
CONTENTFORMAT_BEGIN
 90
        0
 91
        0
 92
      512
 93
        0
300

 40
0.0
140
1.0
 94
        5
 62
     0
340
11
144
6.0
309
CONTENTFORMAT_END
171
     1
301
MARGIN
  1
CELLMARGIN_BEGIN
 40
1.5
 40
1.5
 40
1.5
 40
1.5
 40
0.18
 40
0.18
309
CELLMARGIN_END
 94
        6
 95
        1
302
GRIDFORMAT
  1
GRIDFORMAT_BEGIN
 90
        0
 91
        1
 62
     0
 92
       -2
340
0
 93
        0
 40
0.045
309
GRIDFORMAT_END
 95
        2
302
GRIDFORMAT
  1
GRIDFORMAT_BEGIN
 90
        0
 91
        1
 62
     0
 92
       -2
340
0
 93
        0
 40
0.045
309
GRIDFORMAT_END
 95
        4
302
GRIDFORMAT
  1
GRIDFORMAT_BEGIN
 90
        0
 91
        1
 62
     0
 92
       -2
340
0
 93
        0
 40
0.045
309
GRIDFORMAT_END
 95
        8
302
GRIDFORMAT
  1
GRIDFORMAT_BEGIN
 90
        0
 91
        1
 62
     0
 92
       -2
340
0
 93
        0
 40
0.045
309
GRIDFORMAT_END
 95
       16
302
GRIDFORMAT
  1
GRIDFORMAT_BEGIN
 90
        0
 91
        1
 62
     0
 92
       -2
340
0
 93
        0
 40
0.045
309
GRIDFORMAT_END
 95
       32
302
GRIDFORMAT
  1
GRIDFORMAT_BEGIN
 90
        0
 91
        1
 62
     0
 92
       -2
340
0
 93
        0
 40
0.045
309
GRIDFORMAT_END
309
TABLEFORMAT_END
  1
CELLSTYLE_BEGIN
 90
        1
 91
        1
300
_TITLE
309
CELLSTYLE_END
300
CELLSTYLE
  1
TABLEFORMAT_BEGIN
 90
        5
170
     1
 91
        0
 92
        0
 62
   257
 93
        1
300
CONTENTFORMAT
  1
CONTENTFORMAT_BEGIN
 90
        0
 91
        0
 92
      512
 93
        0
300

 40
0.0
140
1.0
 94
        5
 62
     0
340
11
144
4.5
309
CONTENTFORMAT_END
171
     1
301
MARGIN
  1
CELLMARGIN_BEGIN
 40
1.5
 40
1.5
 40
1.5
 40
1.5
 40
0.18
 40
0.18
309
CELLMARGIN_END
 94
        6
 95
        1
302
GRIDFORMAT
  1
GRIDFORMAT_BEGIN
 90
        0
 91
        1
 62
     0
 92
       -2
340
0
 93
        0
 40
0.045
309
GRIDFORMAT_END
 95
        2
302
GRIDFORMAT
  1
GRIDFORMAT_BEGIN
 90
        0
 91
        1
 62
     0
 92
       -2
340
0
 93
        0
 40
0.045
309
GRIDFORMAT_END
 95
        4
302
GRIDFORMAT
  1
GRIDFORMAT_BEGIN
 90
        0
 91
        1
 62
     0
 92
       -2
340
0
 93
        0
 40
0.045
309
GRIDFORMAT_END
 95
        8
302
GRIDFORMAT
  1
GRIDFORMAT_BEGIN
 90
        0
 91
        1
 62
     0
 92
       -2
340
0
 93
        0
 40
0.045
309
GRIDFORMAT_END
 95
       16
302
GRIDFORMAT
  1
GRIDFORMAT_BEGIN
 90
        0
 91
        1
 62
     0
 92
       -2
340
0
 93
        0
 40
0.045
309
GRIDFORMAT_END
 95
       32
302
GRIDFORMAT
  1
GRIDFORMAT_BEGIN
 90
        0
 91
        1
 62
     0
 92
       -2
340
0
 93
        0
 40
0.045
309
GRIDFORMAT_END
309
TABLEFORMAT_END
  1
CELLSTYLE_BEGIN
 90
        2
 91
        1
300
_HEADER
309
CELLSTYLE_END
300
CELLSTYLE
  1
TABLEFORMAT_BEGIN
 90
        5
170
     1
 91
        0
 92
        0
 62
   257
 93
        1
300
CONTENTFORMAT
  1
CONTENTFORMAT_BEGIN
 90
        0
 91
        0
 92
      512
 93
        0
300

 40
0.0
140
1.0
 94
        2
 62
     0
340
11
144
4.5
309
CONTENTFORMAT_END
171
     1
301
MARGIN
  1
CELLMARGIN_BEGIN
 40
1.5
 40
1.5
 40
1.5
 40
1.5
 40
0.18
 40
0.18
309
CELLMARGIN_END
 94
        6
 95
        1
302
GRIDFORMAT
  1
GRIDFORMAT_BEGIN
 90
        0
 91
        1
 62
     0
 92
       -2
340
0
 93
        0
 40
0.045
309
GRIDFORMAT_END
 95
        2
302
GRIDFORMAT
  1
GRIDFORMAT_BEGIN
 90
        0
 91
        1
 62
     0
 92
       -2
340
0
 93
        0
 40
0.045
309
GRIDFORMAT_END
 95
        4
302
GRIDFORMAT
  1
GRIDFORMAT_BEGIN
 90
        0
 91
        1
 62
     0
 92
       -2
340
0
 93
        0
 40
0.045
309
GRIDFORMAT_END
 95
        8
302
GRIDFORMAT
  1
GRIDFORMAT_BEGIN
 90
        0
 91
        1
 62
     0
 92
       -2
340
0
 93
        0
 40
0.045
309
GRIDFORMAT_END
 95
       16
302
GRIDFORMAT
  1
GRIDFORMAT_BEGIN
 90
        0
 91
        1
 62
     0
 92
       -2
340
0
 93
        0
 40
0.045
309
GRIDFORMAT_END
 95
       32
302
GRIDFORMAT
  1
GRIDFORMAT_BEGIN
 90
        0
 91
        1
 62
     0
 92
       -2
340
0
 93
        0
 40
0.045
309
GRIDFORMAT_END
309
TABLEFORMAT_END
  1
CELLSTYLE_BEGIN
 90
        3
 91
        2
300
_DATA
309
CELLSTYLE_END
  0
ENDSEC
  0
EOF
