  0
SECTION
  2
HEADER
  9
$ACADVER
  1
AC1021
  9
$ACADMAINTVER
 70
    26
  9
$DWGCODEPAGE
  3
ANSI_932
  9
$LASTSAVEDBY
  1
Htm_Terada
  9
$CUSTOMPROPERTYTAG
  1
AmdtFileType
  9
$CUSTOMPROPERTY
  1
84
  9
$INSBASE
 10
0.0
 20
0.0
 30
0.0
  9
$EXTMIN
 10
326.8913302081546
 20
352.4994308579962
 30
-0.0000000000000053
  9
$EXTMAX
 10
770.5329920999165
 20
665.7642771600585
 30
0.0000000000000099
  9
$LIMMIN
 10
0.0000004785846386
 20
0.0000009234551612
  9
$LIMMAX
 10
1050.000000478584
 20
742.5000009234552
  9
$ORTHOMODE
 70
     1
  9
$REGENMODE
 70
     1
  9
$FILLMODE
 70
     1
  9
$QTEXTMODE
 70
     0
  9
$MIRRTEXT
 70
     1
  9
$LTSCALE
 40
2.5
  9
$ATTMODE
 70
     1
  9
$TEXTSIZE
 40
25.0
  9
$TRACEWID
 40
1.0
  9
$TEXTSTYLE
  7
SEISA
  9
$CLAYER
  8
AM_11 想像線
  9
$CELTYPE
  6
ByLayer
  9
$CECOLOR
 62
   256
  9
$CELTSCALE
 40
1.0
  9
$DISPSILH
 70
     0
  9
$DIMSCALE
 40
2.5
  9
$DIMASZ
 40
2.5
  9
$DIMEXO
 40
0.625
  9
$DIMDLI
 40
10.0
  9
$DIMRND
 40
0.0
  9
$DIMDLE
 40
0.0
  9
$DIMEXE
 40
0.625
  9
$DIMTP
 40
0.1
  9
$DIMTM
 40
0.1
  9
$DIMTXT
 40
3.5
  9
$DIMCEN
 40
0.0
  9
$DIMTSZ
 40
0.0
  9
$DIMTOL
 70
     0
  9
$DIMLIM
 70
     0
  9
$DIMTIH
 70
     0
  9
$DIMTOH
 70
     0
  9
$DIMSE1
 70
     0
  9
$DIMSE2
 70
     0
  9
$DIMTAD
 70
     3
  9
$DIMZIN
 70
     8
  9
$DIMBLK
  1
Open30
  9
$DIMASO
 70
     1
  9
$DIMSHO
 70
     1
  9
$DIMPOST
  1

  9
$DIMAPOST
  1
"
  9
$DIMALT
 70
     0
  9
$DIMALTD
 70
     2
  9
$DIMALTF
 40
0.0393701
  9
$DIMLFAC
 40
1.0
  9
$DIMTOFL
 70
     1
  9
$DIMTVP
 40
0.0
  9
$DIMTIX
 70
     0
  9
$DIMSOXD
 70
     0
  9
$DIMSAH
 70
     0
  9
$DIMBLK1
  1

  9
$DIMBLK2
  1

  9
$DIMSTYLE
  2
SEISA
  9
$DIMCLRD
 70
     3
  9
$DIMCLRE
 70
     3
  9
$DIMCLRT
 70
     3
  9
$DIMTFAC
 40
0.71
  9
$DIMGAP
 40
1.5
  9
$DIMJUST
 70
     0
  9
$DIMSD1
 70
     0
  9
$DIMSD2
 70
     0
  9
$DIMTOLJ
 70
     0
  9
$DIMTZIN
 70
     0
  9
$DIMALTZ
 70
     0
  9
$DIMALTTZ
 70
     8
  9
$DIMUPT
 70
     0
  9
$DIMDEC
 70
     2
  9
$DIMTDEC
 70
     2
  9
$DIMALTU
 70
     2
  9
$DIMALTTD
 70
     2
  9
$DIMTXSTY
  7
SEISA
  9
$DIMAUNIT
 70
     0
  9
$DIMADEC
 70
     0
  9
$DIMALTRND
 40
0.0
  9
$DIMAZIN
 70
     2
  9
$DIMDSEP
 70
    46
  9
$DIMATFIT
 70
     3
  9
$DIMFRAC
 70
     0
  9
$DIMLDRBLK
  1
Open30
  9
$DIMLUNIT
 70
     2
  9
$DIMLWD
 70
    -1
  9
$DIMLWE
 70
    -1
  9
$DIMTMOVE
 70
     0
  9
$DIMFXL
 40
1.0
  9
$DIMFXLON
 70
     0
  9
$DIMJOGANG
 40
0.7853981633974483
  9
$DIMTFILL
 70
     0
  9
$DIMTFILLCLR
 70
     0
  9
$DIMARCSYM
 70
     1
  9
$DIMLTYPE
  6

  9
$DIMLTEX1
  6

  9
$DIMLTEX2
  6

  9
$LUNITS
 70
     2
  9
$LUPREC
 70
     2
  9
$SKETCHINC
 40
1.0
  9
$FILLETRAD
 40
6.25
  9
$AUNITS
 70
     0
  9
$AUPREC
 70
     0
  9
$MENU
  1
.
  9
$ELEVATION
 40
0.0
  9
$PELEVATION
 40
0.0
  9
$THICKNESS
 40
0.0
  9
$LIMCHECK
 70
     0
  9
$CHAMFERA
 40
2.000000000000112
  9
$CHAMFERB
 40
2.000000000000112
  9
$CHAMFERC
 40
2.000000000000112
  9
$CHAMFERD
 40
0.7853981633974767
  9
$SKPOLY
 70
     0
  9
$TDCREATE
 40
2454901.518733866
  9
$TDUCREATE
 40
2454901.143733866
  9
$TDUPDATE
 40
2456478.692688079
  9
$TDUUPDATE
 40
2456478.317688079
  9
$TDINDWG
 40
0.3794511111
  9
$TDUSRTIMER
 40
0.3794502083
  9
$USRTIMER
 70
     1
  9
$ANGBASE
 50
0.0
  9
$ANGDIR
 70
     0
  9
$PDMODE
 70
     0
  9
$PDSIZE
 40
0.0
  9
$PLINEWID
 40
0.0
  9
$SPLFRAME
 70
     0
  9
$SPLINETYPE
 70
     6
  9
$SPLINESEGS
 70
     8
  9
$HANDSEED
  5
80D2
  9
$SURFTAB1
 70
     6
  9
$SURFTAB2
 70
     6
  9
$SURFTYPE
 70
     6
  9
$SURFU
 70
     6
  9
$SURFV
 70
     6
  9
$UCSBASE
  2

  9
$UCSNAME
  2

  9
$UCSORG
 10
0.0
 20
0.0
 30
0.0
  9
$UCSXDIR
 10
1.0
 20
0.0
 30
0.0
  9
$UCSYDIR
 10
0.0
 20
1.0
 30
0.0
  9
$UCSORTHOREF
  2

  9
$UCSORTHOVIEW
 70
     0
  9
$UCSORGTOP
 10
0.0
 20
0.0
 30
0.0
  9
$UCSORGBOTTOM
 10
0.0
 20
0.0
 30
0.0
  9
$UCSORGLEFT
 10
0.0
 20
0.0
 30
0.0
  9
$UCSORGRIGHT
 10
0.0
 20
0.0
 30
0.0
  9
$UCSORGFRONT
 10
0.0
 20
0.0
 30
0.0
  9
$UCSORGBACK
 10
0.0
 20
0.0
 30
0.0
  9
$PUCSBASE
  2

  9
$PUCSNAME
  2

  9
$PUCSORG
 10
0.0
 20
0.0
 30
0.0
  9
$PUCSXDIR
 10
1.0
 20
0.0
 30
0.0
  9
$PUCSYDIR
 10
0.0
 20
1.0
 30
0.0
  9
$PUCSORTHOREF
  2

  9
$PUCSORTHOVIEW
 70
     0
  9
$PUCSORGTOP
 10
0.0
 20
0.0
 30
0.0
  9
$PUCSORGBOTTOM
 10
0.0
 20
0.0
 30
0.0
  9
$PUCSORGLEFT
 10
0.0
 20
0.0
 30
0.0
  9
$PUCSORGRIGHT
 10
0.0
 20
0.0
 30
0.0
  9
$PUCSORGFRONT
 10
0.0
 20
0.0
 30
0.0
  9
$PUCSORGBACK
 10
0.0
 20
0.0
 30
0.0
  9
$USERI1
 70
     0
  9
$USERI2
 70
     0
  9
$USERI3
 70
     0
  9
$USERI4
 70
     0
  9
$USERI5
 70
     0
  9
$USERR1
 40
0.0
  9
$USERR2
 40
0.0
  9
$USERR3
 40
0.0
  9
$USERR4
 40
0.0
  9
$USERR5
 40
0.0
  9
$WORLDVIEW
 70
     1
  9
$SHADEDGE
 70
     3
  9
$SHADEDIF
 70
    70
  9
$TILEMODE
 70
     1
  9
$MAXACTVP
 70
    64
  9
$PINSBASE
 10
0.0
 20
0.0
 30
0.0
  9
$PLIMCHECK
 70
     0
  9
$PEXTMIN
 10
1.000000000000000E+20
 20
1.000000000000000E+20
 30
1.000000000000000E+20
  9
$PEXTMAX
 10
-1.000000000000000E+20
 20
-1.000000000000000E+20
 30
-1.000000000000000E+20
  9
$PLIMMIN
 10
0.0
 20
0.0
  9
$PLIMMAX
 10
420.0
 20
297.0
  9
$UNITMODE
 70
     0
  9
$VISRETAIN
 70
     1
  9
$PLINEGEN
 70
     0
  9
$PSLTSCALE
 70
     1
  9
$TREEDEPTH
 70
  3020
  9
$CMLSTYLE
  2
Standard
  9
$CMLJUST
 70
     0
  9
$CMLSCALE
 40
20.0
  9
$PROXYGRAPHICS
 70
     1
  9
$MEASUREMENT
 70
     1
  9
$CELWEIGHT
370
    -1
  9
$ENDCAPS
280
     0
  9
$JOINSTYLE
280
     0
  9
$LWDISPLAY
290
     0
  9
$INSUNITS
 70
     4
  9
$HYPERLINKBASE
  1

  9
$STYLESHEET
  1
SEISA.CTB
  9
$XEDIT
290
     1
  9
$CEPSNTYPE
380
     0
  9
$PSTYLEMODE
290
     1
  9
$FINGERPRINTGUID
  2
{2D45C002-3EA4-4861-8171-E03248DD2BA3}
  9
$VERSIONGUID
  2
{A90AE773-7167-4B75-B411-FBD081164C2D}
  9
$EXTNAMES
290
     1
  9
$PSVPSCALE
 40
0.0
  9
$OLESTARTUP
290
     0
  9
$SORTENTS
280
   127
  9
$INDEXCTL
280
     0
  9
$HIDETEXT
280
     0
  9
$XCLIPFRAME
290
     0
  9
$HALOGAP
280
     0
  9
$OBSCOLOR
 70
   257
  9
$OBSLTYPE
280
     0
  9
$INTERSECTIONDISPLAY
280
     0
  9
$INTERSECTIONCOLOR
 70
   257
  9
$DIMASSOC
280
     2
  9
$PROJECTNAME
  1

  9
$CAMERADISPLAY
290
     0
  9
$LENSLENGTH
 40
50.0
  9
$CAMERAHEIGHT
 40
0.0
  9
$STEPSPERSEC
 40
2.0
  9
$STEPSIZE
 40
6.0
  9
$3DDWFPREC
 40
2.0
  9
$PSOLWIDTH
 40
0.25
  9
$PSOLHEIGHT
 40
4.0
  9
$LOFTANG1
 40
1.570796326794896
  9
$LOFTANG2
 40
1.570796326794896
  9
$LOFTMAG1
 40
0.0
  9
$LOFTMAG2
 40
0.0
  9
$LOFTPARAM
 70
     7
  9
$LOFTNORMALS
280
     1
  9
$LATITUDE
 40
37.795
  9
$LONGITUDE
 40
-122.394
  9
$NORTHDIRECTION
 40
0.0
  9
$TIMEZONE
 70
 -8000
  9
$LIGHTGLYPHDISPLAY
280
     1
  9
$TILEMODELIGHTSYNCH
280
     1
  9
$CMATERIAL
347
27C
  9
$SOLIDHIST
280
     1
  9
$SHOWHIST
280
     1
  9
$DWFFRAME
280
     2
  9
$DGNFRAME
280
     0
  9
$REALWORLDSCALE
290
     1
  9
$INTERFERECOLOR
 62
     1
  9
$INTERFEREOBJVS
345
289
  9
$INTERFEREVPVS
346
286
  9
$CSHADOW
280
     0
  9
$SHADOWPLANELOCATION
 40
0.0
  0
ENDSEC
  0
SECTION
  2
CLASSES
  0
CLASS
  1
ACDBDICTIONARYWDFLT
  2
AcDbDictionaryWithDefault
  3
ObjectDBX Classes
 90
        0
 91
        1
280
     0
281
     0
  0
CLASS
  1
AMGSETTINGSOBJ
  2
AmgSettingsObj
  3
"AcadM|Product Description: AutoCAD Mechanical|Company: Autodesk, Inc."
 90
     1024
 91
        2
280
     0
281
     0
  0
CLASS
  1
ACME_DOCUMENT
  2
AcMeDbDoc
  3
AcMeServices
 90
     1024
 91
        1
280
     0
281
     0
  0
CLASS
  1
ACMESCOPE
  2
AcMeScope
  3
AcMeServices
 90
     1024
 91
        1
280
     0
281
     0
  0
CLASS
  1
ACMECOMMANDHISTORY
  2
AcMeCommandHistory
  3
AcMeServices
 90
     1024
 91
        1
280
     0
281
     0
  0
CLASS
  1
DICTIONARYVAR
  2
AcDbDictionaryVar
  3
ObjectDBX Classes
 90
        0
 91
        9
280
     0
281
     0
  0
CLASS
  1
ACIMSYSVARMAN
  2
AcImSysVarManager
  3
AcMeServices
 90
     1024
 91
        5
280
     0
281
     0
  0
CLASS
  1
ACIMREALSYSVAR
  2
AcImRealSysVar
  3
AcMeServices
 90
     1024
 91
        1
280
     0
281
     0
  0
CLASS
  1
ACIMINTSYSVAR
  2
AcImIntSysVar
  3
AcMeServices
 90
     1024
 91
       27
280
     0
281
     0
  0
CLASS
  1
ACMEDRAWINGMAN
  2
AcMeDrawingMan
  3
AcMeServices
 90
     1024
 91
        1
280
     0
281
     0
  0
CLASS
  1
ACMEVIEW
  2
AcMeView
  3
AcMeServices
 90
     1024
 91
        1
280
     0
281
     0
  0
CLASS
  1
ACDBENTITYCACHE
  2
AcMeEntityCache
  3
AcMeServices
 90
     1024
 91
        1
280
     0
281
     0
  0
CLASS
  1
GSMANAGER
  2
AcMeGSManager
  3
AcMeServices
 90
     1024
 91
        1
280
     0
281
     0
  0
CLASS
  1
AMDTINTERNALREACTOR
  2
AmdtInternalReactor
  3
AcMeServices
 90
     1024
 91
        2
280
     0
281
     0
  0
CLASS
  1
ACMESTATEMGR
  2
AcMeStateMgr
  3
AcMeServices
 90
     1024
 91
        1
280
     0
281
     0
  0
CLASS
  1
ACGREFMASTER
  2
AcGrefMaster
  3
AcAttribServices
 90
     1024
 91
        1
280
     0
281
     0
  0
CLASS
  1
ACME_DATABASE
  2
AcMeDbDatabase
  3
AcMeServices
 90
     1024
 91
        1
280
     0
281
     0
  0
CLASS
  1
ACRFINSADJUSTERMGR
  2
AcRfInsAdjusterMgr
  3
AcMeServices
 90
     1024
 91
        1
280
     0
281
     0
  0
CLASS
  1
ACGREFACADMASTER
  2
AcGrefacadMaster
  3
AcGrefServices
 90
     1024
 91
        1
280
     0
281
     0
  0
CLASS
  1
AMIMASTER
  2
AmiMaster
  3
AmiServices
 90
     1024
 91
        1
280
     0
281
     0
  0
CLASS
  1
ACIMSTRSYSVAR
  2
AcImStrSysVar
  3
AcMeServices
 90
     1024
 91
        5
280
     0
281
     0
  0
CLASS
  1
ACMSTANDARDJIS
  2
AcmStandardJIS
  3
"Amdt_StdImp|Product Description: AutoCAD Mechanical|Company: Autodesk, Inc."
 90
     1024
 91
        0
280
     0
281
     0
  0
CLASS
  1
AMGOBJPROPCFG
  2
AmgObjPropCfg
  3
"AmgLay|Product Description: AutoCAD Mechanical|Company: Autodesk, Inc."
 90
     1025
 91
        1
280
     0
281
     0
  0
CLASS
  1
ACMSURFSTANDARDJIS
  2
AcmSurfTextStdJIS
  3
"Amdt_StdImp|Product Description: AutoCAD Mechanical|Company: Autodesk, Inc."
 90
     1024
 91
        0
280
     0
281
     0
  0
CLASS
  1
ACMFCFSTANDARDJIS
  2
AcmFCFStdJIS
  3
"Amdt_StdImp|Product Description: AutoCAD Mechanical|Company: Autodesk, Inc."
 90
     1024
 91
        0
280
     0
281
     0
  0
CLASS
  1
ACMWELDSTANDARDJIS
  2
AcmWeldingStdJIS
  3
"Amdt_StdImp|Product Description: AutoCAD Mechanical|Company: Autodesk, Inc."
 90
     1024
 91
        0
280
     0
281
     0
  0
CLASS
  1
ACMIDSTANDARDJIS
  2
AcmIdStdJIS
  3
"Amdt_StdImp|Product Description: AutoCAD Mechanical|Company: Autodesk, Inc."
 90
     1024
 91
        0
280
     0
281
     0
  0
CLASS
  1
ACMDATUMSTANDARDJIS
  2
AcmDatumStdJIS
  3
"Amdt_StdImp|Product Description: AutoCAD Mechanical|Company: Autodesk, Inc."
 90
     1024
 91
        0
280
     0
281
     0
  0
CLASS
  1
ACMBOMSTANDARDJIS
  2
AcmBOMStdJIS
  3
"Amdt_StdImp|Product Description: AutoCAD Mechanical|Company: Autodesk, Inc."
 90
     1024
 91
        0
280
     0
281
     0
  0
CLASS
  1
ACMDETAILSTANDARDJIS
  2
AmdtDetailSymStdJIS
  3
"Amdt_StdImp|Product Description: AutoCAD Mechanical|Company: Autodesk, Inc."
 90
     1024
 91
        0
280
     0
281
     0
  0
CLASS
  1
ACMSECTIONSTANDARDJIS
  2
AmdtSectionSymStdJIS
  3
"Amdt_StdImp|Product Description: AutoCAD Mechanical|Company: Autodesk, Inc."
 90
     1024
 91
        0
280
     0
281
     0
  0
CLASS
  1
ACMCENTERLINESTANDARDJIS
  2
AmdtCenterLineStdJIS
  3
"Amdt_StdImp|Product Description: AutoCAD Mechanical|Company: Autodesk, Inc."
 90
     1024
 91
        0
280
     0
281
     0
  0
CLASS
  1
ACMTHREADLINESTANDARDJIS
  2
AmdtThreadLineStdJIS
  3
"Amdt_StdImp|Product Description: AutoCAD Mechanical|Company: Autodesk, Inc."
 90
     1024
 91
        0
280
     0
281
     0
  0
CLASS
  1
ACAMGLAYSTD
  2
AcAmgLayStd
  3
"AmgLay|Product Description: AutoCAD Mechanical|Company: Autodesk, Inc."
 90
     1024
 91
        1
280
     0
281
     0
  0
CLASS
  1
ACAMGDIMSTD
  2
AcAmgDimStd
  3
"AmgDim|Product Description: AutoCAD Mechanical|Company: Autodesk, Inc."
 90
     1024
 91
        1
280
     0
281
     0
  0
CLASS
  1
ACAMGTITLESTD
  2
AcAmgTitleStd
  3
"AmgTitle|Product Description: AutoCAD Mechanical|Company: Autodesk, Inc."
 90
     4095
 91
        1
280
     0
281
     0
  0
CLASS
  1
ACMDATADICTIONARY
  2
AcmDataDictionary
  3
"AcmSymBB|Product Description: AutoCAD Mechanical|Company: Autodesk, Inc."
 90
     1024
 91
        1
280
     0
281
     0
  0
CLASS
  1
ACMDATAENTRYBLOCK
  2
AcmDataEntryBlock
  3
AcmSymBB|Product Description: AutoCAD Mechanical|Company: Autodesk, Inc.
 90
     1024
 91
        0
280
     0
281
     0
  0
CLASS
  1
LAYER_INDEX
  2
AcDbLayerIndex
  3
ObjectDBX Classes
 90
        0
 91
        0
280
     0
281
     0
  0
CLASS
  1
IDBUFFER
  2
AcDbIdBuffer
  3
ObjectDBX Classes
 90
        0
 91
        0
280
     0
281
     0
  0
CLASS
  1
ACMNOTESTANDARDJIS
  2
AmdtNoteStdJIS
  3
"Amdt_StdImp|Product Description: AutoCAD Mechanical|Company: Autodesk, Inc."
 90
     1024
 91
        0
280
     0
281
     0
  0
CLASS
  1
ACAMGHOLECHARTSTDJIS
  2
AcAmgHoleChartStdJIS
  3
AmgDim|Product Description: AutoCAD Mechanical|Company: Autodesk, Inc.
 90
     1024
 91
        0
280
     0
281
     0
  0
CLASS
  1
AM_DRAWING_MGR
  2
AcDmDwgMgr
  3
AcMechDwgViewMgmt
 90
     1024
 91
        1
280
     0
281
     0
  0
CLASS
  1
AM_DWG_DOCUMENT
  2
AcDmDwgDocument
  3
AcMechDwgViewMgmt
 90
     1024
 91
        1
280
     0
281
     0
  0
CLASS
  1
AM_DWG_SHEET
  2
AcDmSheet
  3
AcMechDwgViewMgmt
 90
     1024
 91
        2
280
     0
281
     0
  0
CLASS
  1
AM_VIEWDIMPARMAP
  2
AcDmViewDimParMap
  3
AcMechDwgViewMgmt
 90
     1024
 91
        2
280
     0
281
     0
  0
CLASS
  1
AM_DWGMGR_NAME
  2
AcDmDwgMgrName
  3
AcMechDwgViewMgmt
 90
     1024
 91
        1
280
     0
281
     0
  0
CLASS
  1
AMDTMENUSTATEMGR
  2
AmdtMenuStateMgr
  3
McadcomServices
 90
     1024
 91
        1
280
     0
281
     0
  0
CLASS
  1
AMDTMCOMMENUSTATE
  2
AmdtMcomMenuState
  3
McadcomServices
 90
     1024
 91
        1
280
     0
281
     0
  0
CLASS
  1
MAPIAMMOUDLE
  2
MApiAmModule
  3
MApiAmServices
 90
     1024
 91
        1
280
     0
281
     0
  0
CLASS
  1
AMDTADMENUSTATE
  2
AmdtAdMenuState
  3
DesignerServices
 90
     1024
 91
        1
280
     0
281
     0
  0
CLASS
  1
ADAPPL
  2
AcAdAppl
  3
DesignerServices
 90
     1024
 91
        1
280
     0
281
     0
  0
CLASS
  1
DEPMGR
  2
AcAdDepMgr
  3
DesignerServices
 90
     1024
 91
        1
280
     0
281
     0
  0
CLASS
  1
PARAMMGR
  2
AcAdParamMgr
  3
DesignerServices
 90
     1024
 91
        1
280
     0
281
     0
  0
CLASS
  1
PARAMSCOPE
  2
AcAdParamScope
  3
DesignerServices
 90
     1024
 91
        1
280
     0
281
     0
  0
CLASS
  1
NAMEDAPPL
  2
AcAdNamedAppl
  3
DesignerServices
 90
     1024
 91
        1
280
     0
281
     0
  0
CLASS
  1
AMDTDMMENUSTATE
  2
AmdtDmMenuState
  3
AcMechDwgViewMgmt
 90
     1024
 91
        1
280
     0
281
     0
  0
CLASS
  1
AMDTAMMENUSTATE
  2
AmdtAmMenuState
  3
DesignerAssemblies
 90
     1024
 91
        1
280
     0
281
     0
  0
CLASS
  1
ACAMPROJECT
  2
AcAmProject
  3
DesignerAssemblies
 90
     1024
 91
        1
280
     0
281
     0
  0
CLASS
  1
ACAMGRCOMPDEF
  2
AcAmGrCompDef
  3
DesignerAssemblies
 90
     1024
 91
        1
280
     0
281
     0
  0
CLASS
  1
ACCMCONTEXT
  2
AcCmContext
  3
DesignerAssemblies
 90
     1024
 91
        1
280
     0
281
     0
  0
CLASS
  1
ACAMCOMPDEF
  2
AcAmCompDef
  3
DesignerAssemblies
 90
     1024
 91
        1
280
     0
281
     0
  0
CLASS
  1
ACAMCOMPDEFMGR
  2
AcAmCompDefMgr
  3
DesignerAssemblies
 90
     1024
 91
        1
280
     0
281
     0
  0
CLASS
  1
AMCONTEXTMGR
  2
AcAmContextMgr
  3
DesignerAssemblies
 90
     1024
 91
        1
280
     0
281
     0
  0
CLASS
  1
ACAMCONTEXTMODELER
  2
AcAmContextModeler
  3
DesignerAssemblies
 90
     1024
 91
        1
280
     0
281
     0
  0
CLASS
  1
CATALOGSTATE
  2
AcAmCatalogState
  3
DesignerAssemblies
 90
     1024
 91
        1
280
     0
281
     0
  0
CLASS
  1
ACAMGRCOMPDEFSET
  2
AcAmGrCompDefSet
  3
DesignerAssemblies
 90
     1024
 91
        1
280
     0
281
     0
  0
CLASS
  1
AMDTBROWSERDBTAB
  2
AmdtBrowserDbTab
  3
McadcomServices
 90
     1024
 91
        1
280
     0
281
     0
  0
CLASS
  1
CBROWSERAPPOBJECT
  2
CBrowserAppObject
  3
McadcomServices
 90
     1024
 91
        3
280
     0
281
     0
  0
CLASS
  1
DM_PLACEHOLDER
  2
AcDmSelsetPlaceholder
  3
AcMechDwgViewMgmt
 90
     1024
 91
        1
280
     0
281
     0
  0
CLASS
  1
TABLESTYLE
  2
AcDbTableStyle
  3
ObjectDBX Classes
 90
     4095
 91
        1
280
     0
281
     0
  0
CLASS
  1
VAACXREFPANELOBJECT
  2
VaAcXREFPanelObject
  3
VAAC_ADDIN
 90
        0
 91
        0
280
     0
281
     0
  0
CLASS
  1
VAACIMAGEINVENTORY
  2
VaAcImageInventory
  3
VAAC_ADDIN
 90
        0
 91
        0
280
     0
281
     0
  0
CLASS
  1
AMDTNOTETEMPLATEDB
  2
AmdtNoteTemplateDB
  3
AcmSymBB|Product Description: AutoCAD Mechanical|Company: Autodesk, Inc.
 90
     1024
 91
        6
280
     0
281
     0
  0
CLASS
  1
ACAMGFILTERDAT
  2
AcAmgFilterDat
  3
"AcadM|Product Description: AutoCAD Mechanical|Company: Autodesk, Inc."
 90
     1024
 91
        0
280
     0
281
     0
  0
CLASS
  1
MATERIAL
  2
AcDbMaterial
  3
ObjectDBX Classes
 90
     1153
 91
        3
280
     0
281
     0
  0
CLASS
  1
VISUALSTYLE
  2
AcDbVisualStyle
  3
ObjectDBX Classes
 90
     4095
 91
       16
280
     0
281
     0
  0
CLASS
  1
ACRFATTGENMGR
  2
AcRfAttGeneralMgr
  3
AcAttribServices
 90
     1024
 91
        0
280
     0
281
     0
  0
CLASS
  1
ACRFOBJATTMGR
  2
AcRfObjAttGroupMgr
  3
AcAttribServices
 90
     1024
 91
        0
280
     0
281
     0
  0
CLASS
  1
ACRFMCADAPIATTHOLDER
  2
AcRfMCADAPIAttHolder
  3
AcAttribServices
 90
     1024
 91
        0
280
     0
281
     0
  0
CLASS
  1
AMDTSYSATTR
  2
AmdtSystemAttribute
  3
AcAttribServices
 90
     1024
 91
        0
280
     0
281
     0
  0
CLASS
  1
ACMTAPERSTANDARDJIS
  2
AcmTaperStdJIS
  3
"Amdt_StdImp|Product Description: AutoCAD Mechanical|Company: Autodesk, Inc."
 90
     1024
 91
        0
280
     0
281
     0
  0
CLASS
  1
CAMSSTRUCTBTNSTATE
  2
StructBtnState
  3
DesignerAssemblies
 90
     1024
 91
        0
280
     0
281
     0
  0
CLASS
  1
SCALE
  2
AcDbScale
  3
ObjectDBX Classes
 90
     1153
 91
       35
280
     0
281
     0
  0
CLASS
  1
MLEADERSTYLE
  2
AcDbMLeaderStyle
  3
ACDB_MLEADERSTYLE_CLASS
 90
     4095
 91
        1
280
     0
281
     0
  0
CLASS
  1
ACMANOOTATIONVIEWSTANDARDJIS
  2
AmdtAnViewStdJIS
  3
"Amdt_StdImp|Product Description: AutoCAD Mechanical|Company: Autodesk, Inc."
 90
     1024
 91
        0
280
     0
281
     0
  0
CLASS
  1
ACMSURFSTANDARDJIS2003
  2
AcmSurfTextStdJIS2003
  3
"Amdt_StdImp|Product Description: AutoCAD Mechanical|Company: Autodesk, Inc."
 90
     1024
 91
        0
280
     0
281
     0
  0
CLASS
  1
CELLSTYLEMAP
  2
AcDbCellStyleMap
  3
ObjectDBX Classes
 90
     1152
 91
        2
280
     0
281
     0
  0
CLASS
  1
ACMFCFSTANDARDJIS98
  2
AcmFCFStdJIS98
  3
"Amdt_StdImp|Product Description: AutoCAD Mechanical|Company: Autodesk, Inc."
 90
     1024
 91
        0
280
     0
281
     0
  0
CLASS
  1
SORTENTSTABLE
  2
AcDbSortentsTable
  3
ObjectDBX Classes
 90
        0
 91
       10
280
     0
281
     0
  0
CLASS
  1
DIMASSOC
  2
AcDbDimAssoc
  3
"AcDbDimAssoc|Product Desc:     AcDim ARX App For Dimension|Company:          Autodesk, Inc.|WEB Address:      www.autodesk.com"
 90
        0
 91
       15
280
     0
281
     0
  0
CLASS
  1
STDPART2D
  2
AmgStdPart
  3
AmgStdPart|Product Description: AutoCAD Mechanical|Company: Autodesk, Inc.
 90
     4095
 91
        0
280
     0
281
     1
  0
CLASS
  1
ACMDATAENTRYPART
  2
AcmDataEntryPart
  3
AcmSymBB|Product Description: AutoCAD Mechanical|Company: Autodesk, Inc.
 90
     1024
 91
        0
280
     0
281
     0
  0
CLASS
  1
ACMPARTREF
  2
AcmPartRef
  3
"AcmSymBB|Product Description: AutoCAD Mechanical|Company: Autodesk, Inc."
 90
     4095
 91
        0
280
     0
281
     1
  0
CLASS
  1
ACDBSTDPARTRES_LINE
  2
AcDbStdPartRes_Line
  3
AmgStdPart|Product Description: AutoCAD Mechanical|Company: Autodesk, Inc.
 90
     1024
 91
        0
280
     0
281
     0
  0
CLASS
  1
ACMBOM
  2
AcmBom
  3
"AcmSymBB|Product Description: AutoCAD Mechanical|Company: Autodesk, Inc."
 90
     1024
 91
        0
280
     0
281
     0
  0
CLASS
  1
AMDTFORMULAUPDATEDISPATCHER
  2
AmdtFormulaUpdateDispatcher
  3
AcMeServices
 90
     1024
 91
        0
280
     0
281
     0
  0
CLASS
  1
ACMBOMROW
  2
AcmBomRow
  3
"AcmSymBB|Product Description: AutoCAD Mechanical|Company: Autodesk, Inc."
 90
     1024
 91
        0
280
     0
281
     0
  0
CLASS
  1
ACMPARTLIST
  2
AcmPartList
  3
"AcmSymBB|Product Description: AutoCAD Mechanical|Company: Autodesk, Inc."
 90
     4095
 91
        0
280
     0
281
     1
  0
CLASS
  1
ACDBLINERES
  2
AcDbLineRes
  3
AcGrefServices
 90
     1024
 91
        0
280
     0
281
     0
  0
CLASS
  1
ACRFINSADJ
  2
AcRfInsAdjuster
  3
AcMeServices
 90
     1024
 91
        0
280
     0
281
     0
  0
CLASS
  1
ACMSTANDARDISO
  2
AcmStandardISO
  3
"Amdt_StdImp|Product Description: AutoCAD Mechanical|Company: Autodesk, Inc."
 90
     1024
 91
        1
280
     0
281
     0
  0
CLASS
  1
AMDTEDGESTANDARDISO13715
  2
AmdtEdgeStdISO13715
  3
"Amdt_StdImp|Product Description: AutoCAD Mechanical|Company: Autodesk, Inc."
 90
     1024
 91
        1
280
     0
281
     0
  0
CLASS
  1
ACMSURFSTANDARDISO2002
  2
AcmSurfTextStdISO2002
  3
"Amdt_StdImp|Product Description: AutoCAD Mechanical|Company: Autodesk, Inc."
 90
     1024
 91
        1
280
     0
281
     0
  0
CLASS
  1
ACMFCFSTANDARDISO
  2
AcmFCFStdISO
  3
"Amdt_StdImp|Product Description: AutoCAD Mechanical|Company: Autodesk, Inc."
 90
     1024
 91
        1
280
     0
281
     0
  0
CLASS
  1
ACMWELDSTANDARDISO
  2
AcmWeldingStdISO
  3
"Amdt_StdImp|Product Description: AutoCAD Mechanical|Company: Autodesk, Inc."
 90
     1024
 91
        1
280
     0
281
     0
  0
CLASS
  1
ACMIDSTANDARDISO
  2
AcmIdStdISO
  3
"Amdt_StdImp|Product Description: AutoCAD Mechanical|Company: Autodesk, Inc."
 90
     1024
 91
        1
280
     0
281
     0
  0
CLASS
  1
ACMDATUMSTANDARDISO
  2
AcmDatumStdISO
  3
"Amdt_StdImp|Product Description: AutoCAD Mechanical|Company: Autodesk, Inc."
 90
     1024
 91
        1
280
     0
281
     0
  0
CLASS
  1
ACMBOMSTANDARDISO
  2
AcmBOMStdISO
  3
"Amdt_StdImp|Product Description: AutoCAD Mechanical|Company: Autodesk, Inc."
 90
     1024
 91
        1
280
     0
281
     0
  0
CLASS
  1
ACMDETAILSTANDARDISO
  2
AmdtDetailSymStdISO
  3
"Amdt_StdImp|Product Description: AutoCAD Mechanical|Company: Autodesk, Inc."
 90
     1024
 91
        1
280
     0
281
     0
  0
CLASS
  1
ACMSECTIONSTANDARDISO2001
  2
AmdtSectionSymStdISO2001
  3
"Amdt_StdImp|Product Description: AutoCAD Mechanical|Company: Autodesk, Inc."
 90
     1024
 91
        1
280
     0
281
     0
  0
CLASS
  1
ACMCENTERLINESTANDARDISO
  2
AmdtCenterLineStdISO
  3
"Amdt_StdImp|Product Description: AutoCAD Mechanical|Company: Autodesk, Inc."
 90
     1024
 91
        1
280
     0
281
     0
  0
CLASS
  1
ACMTHREADLINESTANDARDISO
  2
AmdtThreadLineStdISO
  3
"Amdt_StdImp|Product Description: AutoCAD Mechanical|Company: Autodesk, Inc."
 90
     1024
 91
        1
280
     0
281
     0
  0
CLASS
  1
ACMNOTESTANDARDISO
  2
AmdtNoteStdISO
  3
"Amdt_StdImp|Product Description: AutoCAD Mechanical|Company: Autodesk, Inc."
 90
     1024
 91
        1
280
     0
281
     0
  0
CLASS
  1
ACMTAPERSTANDARDISO
  2
AcmTaperStdISO
  3
"Amdt_StdImp|Product Description: AutoCAD Mechanical|Company: Autodesk, Inc."
 90
     1024
 91
        1
280
     0
281
     0
  0
CLASS
  1
ACMANOOTATIONVIEWSTANDARDISO
  2
AmdtAnViewStdISO
  3
"Amdt_StdImp|Product Description: AutoCAD Mechanical|Company: Autodesk, Inc."
 90
     1024
 91
        1
280
     0
281
     0
  0
CLASS
  1
ACAMGHOLECHARTSTDISO
  2
AcAmgHoleChartStdISO
  3
AmgDim|Product Description: AutoCAD Mechanical|Company: Autodesk, Inc.
 90
     1024
 91
        1
280
     0
281
     0
  0
CLASS
  1
EXACXREFPANELOBJECT
  2
ExAcXREFPanelObject
  3
EXAC_ESW
 90
     1025
 91
        0
280
     0
281
     0
  0
CLASS
  1
NPOCOLLECTION
  2
AcDbImpNonPersistentObjectsCollection
  3
ObjectDBX Classes
 90
     1153
 91
        0
280
     0
281
     0
  0
CLASS
  1
ACDBSTDPARTRES_ARC
  2
AcDbStdPartRes_Arc
  3
AmgStdPart|Product Description: AutoCAD Mechanical|Company: Autodesk, Inc.
 90
     1024
 91
        0
280
     0
281
     0
  0
CLASS
  1
AMDTNOTE
  2
AmdtNote
  3
"AcmSymBB|Product Description: AutoCAD Mechanical|Company: Autodesk, Inc."
 90
     4095
 91
        0
280
     0
281
     1
  0
CLASS
  1
PLOTSETTINGS
  2
AcDbPlotSettings
  3
ObjectDBX Classes
 90
        0
 91
        1
280
     0
281
     0
  0
CLASS
  1
ACMSTANDARDANSI
  2
AcmStandardANSI
  3
"Amdt_StdImp|Product Description: AutoCAD Mechanical|Company: Autodesk, Inc."
 90
     1024
 91
        0
280
     0
281
     0
  0
CLASS
  1
ACMSURFSTANDARDANSI
  2
AcmSurfTextStdANSI
  3
"Amdt_StdImp|Product Description: AutoCAD Mechanical|Company: Autodesk, Inc."
 90
     1024
 91
        0
280
     0
281
     0
  0
CLASS
  1
ACMFCFSTANDARDANSI
  2
AcmFCFStdANSI
  3
"Amdt_StdImp|Product Description: AutoCAD Mechanical|Company: Autodesk, Inc."
 90
     1024
 91
        0
280
     0
281
     0
  0
CLASS
  1
ACMWELDSTANDARDANSI
  2
AcmWeldingStdANSI
  3
"Amdt_StdImp|Product Description: AutoCAD Mechanical|Company: Autodesk, Inc."
 90
     1024
 91
        0
280
     0
281
     0
  0
CLASS
  1
ACMIDSTANDARDANSI
  2
AcmIdStdANSI
  3
"Amdt_StdImp|Product Description: AutoCAD Mechanical|Company: Autodesk, Inc."
 90
     1024
 91
        0
280
     0
281
     0
  0
CLASS
  1
ACMDATUMSTANDARDANSI
  2
AcmDatumStdANSI
  3
"Amdt_StdImp|Product Description: AutoCAD Mechanical|Company: Autodesk, Inc."
 90
     1024
 91
        0
280
     0
281
     0
  0
CLASS
  1
ACMBOMSTANDARDANSI
  2
AcmBOMStdANSI
  3
"Amdt_StdImp|Product Description: AutoCAD Mechanical|Company: Autodesk, Inc."
 90
     1024
 91
        0
280
     0
281
     0
  0
CLASS
  1
ACMDETAILSTANDARDANSI
  2
AmdtDetailSymStdANSI
  3
"Amdt_StdImp|Product Description: AutoCAD Mechanical|Company: Autodesk, Inc."
 90
     1024
 91
        0
280
     0
281
     0
  0
CLASS
  1
ACMSECTIONSTANDARDANSI
  2
AmdtSectionSymStdANSI
  3
"Amdt_StdImp|Product Description: AutoCAD Mechanical|Company: Autodesk, Inc."
 90
     1024
 91
        0
280
     0
281
     0
  0
CLASS
  1
ACMCENTERLINESTANDARDANSI
  2
AmdtCenterLineStdANSI
  3
"Amdt_StdImp|Product Description: AutoCAD Mechanical|Company: Autodesk, Inc."
 90
     1024
 91
        0
280
     0
281
     0
  0
CLASS
  1
ACMTHREADLINESTANDARDANSI
  2
AmdtThreadLineStdANSI
  3
"Amdt_StdImp|Product Description: AutoCAD Mechanical|Company: Autodesk, Inc."
 90
     1024
 91
        0
280
     0
281
     0
  0
CLASS
  1
ACMNOTESTANDARDANSI
  2
AmdtNoteStdANSI
  3
"Amdt_StdImp|Product Description: AutoCAD Mechanical|Company: Autodesk, Inc."
 90
     1024
 91
        0
280
     0
281
     0
  0
CLASS
  1
ACMTAPERSTANDARDANSI
  2
AcmTaperStdANSI
  3
"Amdt_StdImp|Product Description: AutoCAD Mechanical|Company: Autodesk, Inc."
 90
     1024
 91
        0
280
     0
281
     0
  0
CLASS
  1
ACMANOOTATIONVIEWSTANDARDANSI
  2
AmdtAnViewStdANSI
  3
"Amdt_StdImp|Product Description: AutoCAD Mechanical|Company: Autodesk, Inc."
 90
     1024
 91
        0
280
     0
281
     0
  0
CLASS
  1
ACAMGHOLECHARTSTDANSI
  2
AcAmgHoleChartStdANSI
  3
AmgDim|Product Description: AutoCAD Mechanical|Company: Autodesk, Inc.
 90
     1024
 91
        0
280
     0
281
     0
  0
CLASS
  1
ACMSTANDARDBSI
  2
AcmStandardBSI
  3
"Amdt_StdImp|Product Description: AutoCAD Mechanical|Company: Autodesk, Inc."
 90
     1024
 91
        0
280
     0
281
     0
  0
CLASS
  1
ACMSURFSTANDARDBSI2002
  2
AcmSurfTextStdBSI2002
  3
"Amdt_StdImp|Product Description: AutoCAD Mechanical|Company: Autodesk, Inc."
 90
     1024
 91
        0
280
     0
281
     0
  0
CLASS
  1
ACMFCFSTANDARDBSI
  2
AcmFCFStdBSI
  3
"Amdt_StdImp|Product Description: AutoCAD Mechanical|Company: Autodesk, Inc."
 90
     1024
 91
        0
280
     0
281
     0
  0
CLASS
  1
ACMWELDSTANDARDBSI
  2
AcmWeldingStdBSI
  3
"Amdt_StdImp|Product Description: AutoCAD Mechanical|Company: Autodesk, Inc."
 90
     1024
 91
        0
280
     0
281
     0
  0
CLASS
  1
ACMIDSTANDARDBSI
  2
AcmIdStdBSI
  3
"Amdt_StdImp|Product Description: AutoCAD Mechanical|Company: Autodesk, Inc."
 90
     1024
 91
        0
280
     0
281
     0
  0
CLASS
  1
ACMDATUMSTANDARDBSI
  2
AcmDatumStdBSI
  3
"Amdt_StdImp|Product Description: AutoCAD Mechanical|Company: Autodesk, Inc."
 90
     1024
 91
        0
280
     0
281
     0
  0
CLASS
  1
ACMBOMSTANDARDBSI
  2
AcmBOMStdBSI
  3
"Amdt_StdImp|Product Description: AutoCAD Mechanical|Company: Autodesk, Inc."
 90
     1024
 91
        0
280
     0
281
     0
  0
CLASS
  1
ACMDETAILSTANDARDBSI
  2
AmdtDetailSymStdBSI
  3
"Amdt_StdImp|Product Description: AutoCAD Mechanical|Company: Autodesk, Inc."
 90
     1024
 91
        0
280
     0
281
     0
  0
CLASS
  1
ACMSECTIONSTANDARDBSI2001
  2
AmdtSectionSymStdBSI2001
  3
"Amdt_StdImp|Product Description: AutoCAD Mechanical|Company: Autodesk, Inc."
 90
     1024
 91
        0
280
     0
281
     0
  0
CLASS
  1
ACMCENTERLINESTANDARDBSI
  2
AmdtCenterLineStdBSI
  3
"Amdt_StdImp|Product Description: AutoCAD Mechanical|Company: Autodesk, Inc."
 90
     1024
 91
        0
280
     0
281
     0
  0
CLASS
  1
ACMTHREADLINESTANDARDBSI
  2
AmdtThreadLineStdBSI
  3
"Amdt_StdImp|Product Description: AutoCAD Mechanical|Company: Autodesk, Inc."
 90
     1024
 91
        0
280
     0
281
     0
  0
CLASS
  1
ACMNOTESTANDARDBSI
  2
AmdtNoteStdBSI
  3
"Amdt_StdImp|Product Description: AutoCAD Mechanical|Company: Autodesk, Inc."
 90
     1024
 91
        0
280
     0
281
     0
  0
CLASS
  1
ACMTAPERSTANDARDBSI
  2
AcmTaperStdBSI
  3
"Amdt_StdImp|Product Description: AutoCAD Mechanical|Company: Autodesk, Inc."
 90
     1024
 91
        0
280
     0
281
     0
  0
CLASS
  1
ACMANOOTATIONVIEWSTANDARDBSI
  2
AmdtAnViewStdBSI
  3
"Amdt_StdImp|Product Description: AutoCAD Mechanical|Company: Autodesk, Inc."
 90
     1024
 91
        0
280
     0
281
     0
  0
CLASS
  1
ACAMGHOLECHARTSTDBSI
  2
AcAmgHoleChartStdBSI
  3
AmgDim|Product Description: AutoCAD Mechanical|Company: Autodesk, Inc.
 90
     1024
 91
        0
280
     0
281
     0
  0
CLASS
  1
AMDTEDGESTANDARDJIS
  2
AmdtEdgeStdJIS
  3
"Amdt_StdImp|Product Description: AutoCAD Mechanical|Company: Autodesk, Inc."
 90
     1024
 91
        0
280
     0
281
     0
  0
CLASS
  1
ACMSURFSYM
  2
AcmSurfaceTexture
  3
"AcmSymBB|Product Description: AutoCAD Mechanical|Company: Autodesk, Inc."
 90
     4095
 91
        0
280
     0
281
     1
  0
CLASS
  1
ACDBDIMENSIONRES
  2
AcDbDimensionRes
  3
AcmSymBB|Product Description: AutoCAD Mechanical|Company: Autodesk, Inc.
 90
     1024
 91
        0
280
     0
281
     0
  0
CLASS
  1
ACDBCIRCARCRES
  2
AcDbCircArcRes
  3
AcGrefServices
 90
     1024
 91
        0
280
     0
281
     0
  0
CLASS
  1
AMDTACMWBLOCKBOMENTITY
  2
AmdtAcmWblockBomEntity
  3
"AcmSymBB|Product Description: AutoCAD Mechanical|Company: Autodesk, Inc."
 90
     4095
 91
        0
280
     0
281
     1
  0
CLASS
  1
ACDBOPPOLYLINERES
  2
AcDbOpPolylineRes
  3
AcGrefServices
 90
     1024
 91
        0
280
     0
281
     0
  0
CLASS
  1
ACDB_BLKREFOBJECTCONTEXTDATA_CLASS
  2
AcDbBlkRefObjectContextData
  3
ObjectDBX Classes
 90
     1153
 91
        0
280
     0
281
     0
  0
CLASS
  1
ACMPICKOBJ
  2
AcmPickEnt
  3
"AcmSymBB|Product Description: AutoCAD Mechanical|Company: Autodesk, Inc."
 90
     1024
 91
        0
280
     0
281
     1
  0
CLASS
  1
ACMBALLOON
  2
AcmBalloon
  3
"AcmSymBB|Product Description: AutoCAD Mechanical|Company: Autodesk, Inc."
 90
     4095
 91
        0
280
     0
281
     1
  0
ENDSEC
  0
SECTION
  2
TABLES
  0
TABLE
  2
VPORT
  5
8
330
0
100
AcDbSymbolTable
 70
     1
  0
VPORT
  5
27A
330
8
100
AcDbSymbolTableRecord
100
AcDbViewportTableRecord
  2
*Active
 70
     0
 10
0.0
 20
0.0
 11
1.0
 21
1.0
 12
548.7121611540356
 22
509.1318540090273
 13
0.0
 23
0.0
 14
6.25
 24
6.25
 15
25.0
 25
25.0
 16
0.0
 26
0.0
 36
1.0
 17
0.0
 27
0.0
 37
0.0
 40
347.1059060698791
 41
1.285714285714285
 42
50.0
 43
0.0
 44
0.0
 50
0.0
 51
0.0
 71
    16
 72
 20000
 73
     1
 74
     3
 75
     0
 76
     0
 77
     0
 78
     0
281
     0
 65
     0
110
0.0
120
0.0
130
0.0
111
1.0
121
0.0
131
0.0
112
0.0
122
1.0
132
0.0
 79
     0
146
0.0
348
285
 60
     3
 61
     5
292
     1
282
     0
141
0.0
142
0.0
 63
   250
421
  3355443
  0
ENDTAB
  0
TABLE
  2
LTYPE
  5
5
330
0
100
AcDbSymbolTable
 70
    22
  0
LTYPE
  5
14
330
5
100
AcDbSymbolTableRecord
100
AcDbLinetypeTableRecord
  2
ByBlock
 70
     0
  3

 72
    65
 73
     0
 40
0.0
  0
LTYPE
  5
15
330
5
100
AcDbSymbolTableRecord
100
AcDbLinetypeTableRecord
  2
ByLayer
 70
     0
  3

 72
    65
 73
     0
 40
0.0
  0
LTYPE
  5
16
330
5
100
AcDbSymbolTableRecord
100
AcDbLinetypeTableRecord
  2
Continuous
 70
     0
  3
Solid line
 72
    65
 73
     0
 40
0.0
  0
LTYPE
  5
4D
330
5
100
AcDbSymbolTableRecord
100
AcDbLinetypeTableRecord
  2
AM_ISO02W050
 70
     0
  3
__ __ __ __ __ __ __ __ __ __ __ __ __ __ __
 72
    65
 73
     2
 40
7.5
 49
6.0
 74
     0
 49
-1.5
 74
     0
  0
LTYPE
  5
4E
330
5
100
AcDbSymbolTableRecord
100
AcDbLinetypeTableRecord
  2
AM_ISO08W050
 70
     0
  3
____ . ____ . ____ . ____ . ____ . ____ . ____
 72
    65
 73
     4
 40
18.0
 49
12.0
 74
     0
 49
-1.5
 74
     0
 49
3.0
 74
     0
 49
-1.5
 74
     0
  0
LTYPE
  5
4F
330
5
100
AcDbSymbolTableRecord
100
AcDbLinetypeTableRecord
  2
AM_ISO09W050
 70
     0
  3
_____ . . _____ . . _____ . . ____ .. ____
 72
    65
 73
     6
 40
22.5
 49
12.0
 74
     0
 49
-1.5
 74
     0
 49
3.0
 74
     0
 49
-1.5
 74
     0
 49
3.0
 74
     0
 49
-1.5
 74
     0
  0
LTYPE
  5
50
330
5
100
AcDbSymbolTableRecord
100
AcDbLinetypeTableRecord
  2
Amconstr
 70
     0
  3
_______________________
 72
    65
 73
     2
 40
9999.0
 49
9999.0
 74
     0
 49
0.0
 74
     0
  0
LTYPE
  5
51
330
5
100
AcDbSymbolTableRecord
100
AcDbLinetypeTableRecord
  2
AM_ISO08W050x2
 70
     0
  3
__ . __ . __ . __ . __ . __
 72
    65
 73
     4
 40
9.0
 49
6.0
 74
     0
 49
-0.75
 74
     0
 49
1.5
 74
     0
 49
-0.75
 74
     0
  0
LTYPE
  5
52
330
5
100
AcDbSymbolTableRecord
100
AcDbLinetypeTableRecord
  2
AM_ISO02W050x2
 70
     0
  3
 _ _ _ _ _ _ _ _ _ _ _ _
 72
    65
 73
     2
 40
3.75
 49
3.0
 74
     0
 49
-0.75
 74
     0
  0
LTYPE
  5
55
330
5
100
AcDbSymbolTableRecord
100
AcDbLinetypeTableRecord
  2
Amzigzag
 70
     0
  3
/\/-/\/-/\/-/\/-/\/-/\/
 72
    65
 73
     2
 40
11.0001
 49
0.0001
 74
     4
 75
   136
340
23D
 46
0.04
 50
0.0
 44
0.0
 45
0.0
 49
-11.0
 74
     0
  0
LTYPE
  5
65
330
5
100
AcDbSymbolTableRecord
100
AcDbLinetypeTableRecord
  2
CENTER
 70
     0
  3
__ . __
 72
    65
 73
     4
 40
7.0
 49
4.0
 74
     0
 49
-1.0
 74
     0
 49
1.0
 74
     0
 49
-1.0
 74
     0
  0
LTYPE
  5
E0
330
5
100
AcDbSymbolTableRecord
100
AcDbLinetypeTableRecord
  2
HIDDEN
 70
     0
  3
Hidden __ __ __ __ __ __ __ __ __ __ __ __ __ _
 72
    65
 73
     2
 40
9.524999999999996
 49
6.349999999999998
 74
     0
 49
-3.174999999999998
 74
     0
  0
LTYPE
  5
E1
330
5
100
AcDbSymbolTableRecord
100
AcDbLinetypeTableRecord
  2
PHANTOM2
 70
     0
  3
Phantom (.5x) ___ _ _ ___ _ _ ___ _ _ ___ _ _
 72
    65
 73
     6
 40
31.75
 49
15.875
 74
     0
 49
-3.174999999999998
 74
     0
 49
3.174999999999998
 74
     0
 49
-3.174999999999998
 74
     0
 49
3.174999999999998
 74
     0
 49
-3.174999999999998
 74
     0
  0
LTYPE
  5
5A2
330
5
100
AcDbSymbolTableRecord
100
AcDbLinetypeTableRecord
  2
ACJISWELD
 70
     0
  3
_ _ _ _ _
 72
    65
 73
     2
 40
2.0
 49
2.0
 74
     0
 49
-1.0
 74
     0
  0
LTYPE
  5
80BD
330
5
100
AcDbSymbolTableRecord
100
AcDbLinetypeTableRecord
  2
ACISOWELD
 70
     0
  3
_ _ _ _ _
 72
    65
 73
     2
 40
2.0
 49
2.0
 74
     0
 49
-1.0
 74
     0
  0
LTYPE
  5
80BE
330
5
100
AcDbSymbolTableRecord
100
AcDbLinetypeTableRecord
  2
ACISOTGB
 70
     0
  3
__ . . __ . .
 72
    65
 73
     6
 40
9.0
 49
4.0
 74
     0
 49
-1.0
 74
     0
 49
1.0
 74
     0
 49
-1.0
 74
     0
 49
1.0
 74
     0
 49
-1.0
 74
     0
  0
LTYPE
  5
80BF
330
5
100
AcDbSymbolTableRecord
100
AcDbLinetypeTableRecord
  2
ACISOTGL
 70
     0
  3
_ _ _ _ _
 72
    65
 73
     2
 40
3.0
 49
2.0
 74
     0
 49
-1.0
 74
     0
  0
ENDTAB
  0
TABLE
  2
LAYER
  5
2
102
{ACAD_XDICTIONARY
360
BF
102
}
330
0
100
AcDbSymbolTable
 70
    10
  0
LAYER
  5
10
102
{ACAD_XDICTIONARY
360
29D8
102
}
330
2
100
AcDbSymbolTableRecord
100
AcDbLayerTableRecord
  2
0
 70
     0
 62
     7
  6
Continuous
370
    -3
390
F
347
27E
  0
LAYER
  5
81
102
{ACAD_XDICTIONARY
360
29DA
102
}
330
2
100
AcDbSymbolTableRecord
100
AcDbLayerTableRecord
  2
AM_0 外形線1
 70
     0
 62
     7
  6
Continuous
370
    25
390
F
347
27E
  0
LAYER
  5
427
330
2
100
AcDbSymbolTableRecord
100
AcDbLayerTableRecord
  2
Defpoints
 70
     0
 62
     7
  6
Continuous
290
     0
370
    -3
390
F
347
27E
  0
LAYER
  5
25C9
102
{ACAD_XDICTIONARY
360
29E1
102
}
330
2
100
AcDbSymbolTableRecord
100
AcDbLayerTableRecord
  2
AM_3 隠れ線
 70
     0
 62
     8
  6
ACJISWELD
370
    13
390
F
347
27E
1001
AcAecLayerStandard
1000

1000

  0
LAYER
  5
25CA
102
{ACAD_XDICTIONARY
360
29E3
102
}
330
2
100
AcDbSymbolTableRecord
100
AcDbLayerTableRecord
  2
AM_4 細線
 70
     0
 62
     4
  6
Continuous
370
    13
390
F
347
27E
1001
AcAecLayerStandard
1000

1000

  0
LAYER
  5
26B3
102
{ACAD_XDICTIONARY
360
29E9
102
}
330
2
100
AcDbSymbolTableRecord
100
AcDbLayerTableRecord
  2
AM_5 寸法線
 70
     0
 62
     3
  6
Continuous
370
    13
390
F
347
27E
1001
AcAecLayerStandard
1000

1000

  0
LAYER
  5
35CC
330
2
100
AcDbSymbolTableRecord
100
AcDbLayerTableRecord
  2
AM_7 中心線
 70
     0
 62
     1
  6
AM_ISO08W050
370
    13
390
F
347
27E
1001
AcAecLayerStandard
1000

1000

  0
LAYER
  5
3CB6
330
2
100
AcDbSymbolTableRecord
100
AcDbLayerTableRecord
  2
AM_6 文字
 70
     0
 62
     2
  6
Continuous
370
    13
390
F
347
27E
1001
AcAecLayerStandard
1000

1000

  0
LAYER
  5
7C54
330
2
100
AcDbSymbolTableRecord
100
AcDbLayerTableRecord
  2
AM_11 想像線
 70
     0
 62
     5
  6
AM_ISO09W050
370
    13
390
F
347
27E
1001
AcAecLayerStandard
1000

1000

  0
ENDTAB
  0
TABLE
  2
STYLE
  5
3
330
0
100
AcDbSymbolTable
 70
    10
  0
STYLE
  5
11
330
3
100
AcDbSymbolTableRecord
100
AcDbTextStyleTableRecord
  2
STANDARD
 70
     0
 40
0.0
 41
1.0
 50
0.0
 71
     0
 42
25.0
  3
ISOCP.SHX
  4
EXTFONT.SHX
  0
STYLE
  5
23D
330
3
100
AcDbSymbolTableRecord
100
AcDbTextStyleTableRecord
  2

 70
     1
 40
0.0
 41
1.0
 50
0.0
 71
     0
 42
2.5
  3
genltshp.shx
  4

  0
STYLE
  5
5D5
330
3
100
AcDbSymbolTableRecord
100
AcDbTextStyleTableRecord
  2
SEISA
 70
     0
 40
0.0
 41
0.9
 50
0.0
 71
     0
 42
25.0
  3
romans.shx
  4
extfont2.shx
  0
STYLE
  5
80AD
330
3
100
AcDbSymbolTableRecord
100
AcDbTextStyleTableRecord
  2
ACISOTS
 70
     0
 40
1.0
 41
1.0
 50
0.0
 71
     0
 42
25.0
  3
isocp.shx
  4
extfont.shx
  0
STYLE
  5
80BC
330
3
100
AcDbSymbolTableRecord
100
AcDbTextStyleTableRecord
  2
ACISOGDT
 70
     0
 40
0.0
 41
1.0
 50
0.0
 71
     0
 42
25.0
  3
amgdt.shx
  4

  0
ENDTAB
  0
TABLE
  2
VIEW
  5
6
330
0
100
AcDbSymbolTable
 70
     6
  0
VIEW
  5
91B
330
6
100
AcDbSymbolTableRecord
100
AcDbViewTableRecord
  2
AM_VIEW1
 70
     0
 40
371.25
 10
365.3063428431167
 20
556.8750009234552
 41
730.6126847290641
 11
0.0
 21
0.0
 31
1.0
 12
0.0
 22
0.0
 32
0.0
 42
50.0
 43
0.0
 44
0.0
 50
0.0
 71
    16
281
     0
 72
     0
 73
     0
  0
VIEW
  5
91C
330
6
100
AcDbSymbolTableRecord
100
AcDbViewTableRecord
  2
AM_VIEW2
 70
     0
 40
371.25
 10
684.6936581140527
 20
556.8750009234552
 41
730.6126847290641
 11
0.0
 21
0.0
 31
1.0
 12
0.0
 22
0.0
 32
0.0
 42
50.0
 43
0.0
 44
0.0
 50
0.0
 71
    16
281
     0
 72
     0
 73
     0
  0
VIEW
  5
91D
330
6
100
AcDbSymbolTableRecord
100
AcDbViewTableRecord
  2
AM_VIEW3
 70
     0
 40
371.25
 10
365.3063428431167
 20
185.6250009234551
 41
730.6126847290641
 11
0.0
 21
0.0
 31
1.0
 12
0.0
 22
0.0
 32
0.0
 42
50.0
 43
0.0
 44
0.0
 50
0.0
 71
    16
281
     0
 72
     0
 73
     0
  0
VIEW
  5
91E
330
6
100
AcDbSymbolTableRecord
100
AcDbViewTableRecord
  2
AM_VIEW4
 70
     0
 40
371.25
 10
684.6936581140527
 20
185.6250009234551
 41
730.6126847290641
 11
0.0
 21
0.0
 31
1.0
 12
0.0
 22
0.0
 32
0.0
 42
50.0
 43
0.0
 44
0.0
 50
0.0
 71
    16
281
     0
 72
     0
 73
     0
  0
VIEW
  5
91F
330
6
100
AcDbSymbolTableRecord
100
AcDbViewTableRecord
  2
AM_VIEW5
 70
     0
 40
371.2500000000002
 10
525.0000004785846
 20
371.2500009234552
 41
730.6126847290641
 11
0.0
 21
0.0
 31
1.0
 12
0.0
 22
0.0
 32
0.0
 42
50.0
 43
0.0
 44
0.0
 50
0.0
 71
    16
281
     0
 72
     0
 73
     0
  0
VIEW
  5
920
330
6
100
AcDbSymbolTableRecord
100
AcDbViewTableRecord
  2
AM_VIEW6
 70
     0
 40
742.4925749999998
 10
525.0000004785846
 20
371.2500009234551
 41
1461.210757204433
 11
0.0
 21
0.0
 31
1.0
 12
0.0
 22
0.0
 32
0.0
 42
50.0
 43
0.0
 44
0.0
 50
0.0
 71
    16
281
     0
 72
     0
 73
     0
  0
ENDTAB
  0
TABLE
  2
UCS
  5
7
330
0
100
AcDbSymbolTable
 70
     0
  0
ENDTAB
  0
TABLE
  2
APPID
  5
9
330
0
100
AcDbSymbolTable
 70
   394
  0
APPID
  5
12
330
9
100
AcDbSymbolTableRecord
100
AcDbRegAppTableRecord
  2
ACAD
 70
     0
  0
APPID
  5
30
330
9
100
AcDbSymbolTableRecord
100
AcDbRegAppTableRecord
  2
MCAD_NO_VIS
 70
     0
  0
APPID
  5
31
330
9
100
AcDbSymbolTableRecord
100
AcDbRegAppTableRecord
  2
ACAD_TEMP_GRAPHIC
 70
     0
  0
APPID
  5
44
330
9
100
AcDbSymbolTableRecord
100
AcDbRegAppTableRecord
  2
ACATTRIBSERVICES
 70
     0
  0
APPID
  5
F6
330
9
100
AcDbSymbolTableRecord
100
AcDbRegAppTableRecord
  2
AD_DRAW
 70
     0
  0
APPID
  5
114
330
9
100
AcDbSymbolTableRecord
100
AcDbRegAppTableRecord
  2
DESIGNERASSEMBLIES
 70
     0
  0
APPID
  5
118
330
9
100
AcDbSymbolTableRecord
100
AcDbRegAppTableRecord
  2
ACADM_DIM_EDIT
 70
     0
  0
APPID
  5
119
330
9
100
AcDbSymbolTableRecord
100
AcDbRegAppTableRecord
  2
AMDT_DM_ADJ
 70
     0
  0
APPID
  5
1AF
330
9
100
AcDbSymbolTableRecord
100
AcDbRegAppTableRecord
  2
ACAD_DSTYLE_DIMARC_LENGTH_SYMBOL
 70
     0
  0
APPID
  5
1B0
330
9
100
AcDbSymbolTableRecord
100
AcDbRegAppTableRecord
  2
ACAD_DSTYLE_DIMJOGGED_JOGANGLE_SYMBOL
 70
     0
  0
APPID
  5
2D7
330
9
100
AcDbSymbolTableRecord
100
AcDbRegAppTableRecord
  2
ACAD_MLEADERVER
 70
     0
  0
APPID
  5
355
330
9
100
AcDbSymbolTableRecord
100
AcDbRegAppTableRecord
  2
AcadAnnoPO
 70
     0
  0
APPID
  5
428
330
9
100
AcDbSymbolTableRecord
100
AcDbRegAppTableRecord
  2
ACAD_DSTYLE_DIMTEXT_FILL
 70
     0
  0
APPID
  5
429
330
9
100
AcDbSymbolTableRecord
100
AcDbRegAppTableRecord
  2
GENIUS_GENSCREG_15
 70
     0
  0
APPID
  5
42A
330
9
100
AcDbSymbolTableRecord
100
AcDbRegAppTableRecord
  2
GENIUS_GENOBJ-N-SDF_13
 70
     0
  0
APPID
  5
42B
330
9
100
AcDbSymbolTableRecord
100
AcDbRegAppTableRecord
  2
GENIUS_GENODEF_13
 70
     0
  0
APPID
  5
42C
330
9
100
AcDbSymbolTableRecord
100
AcDbRegAppTableRecord
  2
ACAD_EXEMPT_FROM_CAD_STANDARDS
 70
     0
  0
APPID
  5
42D
330
9
100
AcDbSymbolTableRecord
100
AcDbRegAppTableRecord
  2
AcAecLayerStandard
 70
     0
  0
APPID
  5
42E
330
9
100
AcDbSymbolTableRecord
100
AcDbRegAppTableRecord
  2
GENIUS_GENOBJ-N-CEN_13
 70
     0
  0
APPID
  5
42F
330
9
100
AcDbSymbolTableRecord
100
AcDbRegAppTableRecord
  2
GENIUS_GENCEN_19
 70
     0
  0
APPID
  5
430
330
9
100
AcDbSymbolTableRecord
100
AcDbRegAppTableRecord
  2
ACAD_DSTYLE_DIMINSPECT
 70
     0
  0
APPID
  5
431
330
9
100
AcDbSymbolTableRecord
100
AcDbRegAppTableRecord
  2
GENIUS_AMGTXT_16
 70
     0
  0
APPID
  5
432
330
9
100
AcDbSymbolTableRecord
100
AcDbRegAppTableRecord
  2
GENIUS_GENFIL_13
 70
     0
  0
APPID
  5
433
330
9
100
AcDbSymbolTableRecord
100
AcDbRegAppTableRecord
  2
GENIUS_GENOLIS_13
 70
     0
  0
APPID
  5
434
330
9
100
AcDbSymbolTableRecord
100
AcDbRegAppTableRecord
  2
GENIUS_GENOBJ-N-CHA_13
 70
     0
  0
APPID
  5
435
330
9
100
AcDbSymbolTableRecord
100
AcDbRegAppTableRecord
  2
GENIUS_GENOENT_13
 70
     0
  0
APPID
  5
436
330
9
100
AcDbSymbolTableRecord
100
AcDbRegAppTableRecord
  2
GENIUS_GENOREF_13
 70
     0
  0
APPID
  5
437
330
9
100
AcDbSymbolTableRecord
100
AcDbRegAppTableRecord
  2
GENIUS_GENOBJ-N-FIL_13
 70
     0
  0
APPID
  5
438
330
9
100
AcDbSymbolTableRecord
100
AcDbRegAppTableRecord
  2
GEVID1208829536
 70
     0
  0
APPID
  5
439
330
9
100
AcDbSymbolTableRecord
100
AcDbRegAppTableRecord
  2
GEVDC
 70
     0
  0
APPID
  5
43A
330
9
100
AcDbSymbolTableRecord
100
AcDbRegAppTableRecord
  2
GEVRADREF
 70
     0
  0
APPID
  5
43B
330
9
100
AcDbSymbolTableRecord
100
AcDbRegAppTableRecord
  2
GENIUS_GENBH_13
 70
     0
  0
APPID
  5
43C
330
9
100
AcDbSymbolTableRecord
100
AcDbRegAppTableRecord
  2
GENIUS_GENOBJ-NBEHI-BHF_13
 70
     0
  0
APPID
  5
43D
330
9
100
AcDbSymbolTableRecord
100
AcDbRegAppTableRecord
  2
GENIUS_GENOBJ-NBEHI-BHB_13
 70
     0
  0
APPID
  5
43E
330
9
100
AcDbSymbolTableRecord
100
AcDbRegAppTableRecord
  2
GEVID1208829537
 70
     0
  0
APPID
  5
43F
330
9
100
AcDbSymbolTableRecord
100
AcDbRegAppTableRecord
  2
ACAD_DSTYLE_DIMJAG
 70
     0
  0
APPID
  5
440
330
9
100
AcDbSymbolTableRecord
100
AcDbRegAppTableRecord
  2
ACAD_DSTYLE_DIMTALN
 70
     0
  0
APPID
  5
441
330
9
100
AcDbSymbolTableRecord
100
AcDbRegAppTableRecord
  2
AMG_2DHIDE
 70
     0
  0
APPID
  5
442
330
9
100
AcDbSymbolTableRecord
100
AcDbRegAppTableRecord
  2
AMG_2DSTRUCT_BTR
 70
     0
  0
APPID
  5
443
330
9
100
AcDbSymbolTableRecord
100
AcDbRegAppTableRecord
  2
GEVID1208845772
 70
     0
  0
APPID
  5
444
330
9
100
AcDbSymbolTableRecord
100
AcDbRegAppTableRecord
  2
GEVID1208845773
 70
     0
  0
APPID
  5
445
330
9
100
AcDbSymbolTableRecord
100
AcDbRegAppTableRecord
  2
ACADM_2DVIEW_IGN_NOTIFY
 70
     0
  0
APPID
  5
446
330
9
100
AcDbSymbolTableRecord
100
AcDbRegAppTableRecord
  2
GEVID1208845774
 70
     0
  0
APPID
  5
447
330
9
100
AcDbSymbolTableRecord
100
AcDbRegAppTableRecord
  2
GEVID1208845775
 70
     0
  0
APPID
  5
448
330
9
100
AcDbSymbolTableRecord
100
AcDbRegAppTableRecord
  2
GEVID1208845776
 70
     0
  0
APPID
  5
449
330
9
100
AcDbSymbolTableRecord
100
AcDbRegAppTableRecord
  2
GEVID1208845777
 70
     0
  0
APPID
  5
44A
330
9
100
AcDbSymbolTableRecord
100
AcDbRegAppTableRecord
  2
GEVCON
 70
     0
  0
APPID
  5
44B
330
9
100
AcDbSymbolTableRecord
100
AcDbRegAppTableRecord
  2
GENIUS_GENOBJ-F-SCPASSM_13
 70
     0
  0
APPID
  5
44C
330
9
100
AcDbSymbolTableRecord
100
AcDbRegAppTableRecord
  2
GEVID1208845778
 70
     0
  0
APPID
  5
44D
330
9
100
AcDbSymbolTableRecord
100
AcDbRegAppTableRecord
  2
GEVID1208845779
 70
     0
  0
APPID
  5
44E
330
9
100
AcDbSymbolTableRecord
100
AcDbRegAppTableRecord
  2
GEVID1208845780
 70
     0
  0
APPID
  5
44F
330
9
100
AcDbSymbolTableRecord
100
AcDbRegAppTableRecord
  2
GEVID1208845781
 70
     0
  0
APPID
  5
450
330
9
100
AcDbSymbolTableRecord
100
AcDbRegAppTableRecord
  2
GEVID1208845782
 70
     0
  0
APPID
  5
451
330
9
100
AcDbSymbolTableRecord
100
AcDbRegAppTableRecord
  2
GEVID1208845783
 70
     0
  0
APPID
  5
452
330
9
100
AcDbSymbolTableRecord
100
AcDbRegAppTableRecord
  2
GEVID1208845784
 70
     0
  0
APPID
  5
453
330
9
100
AcDbSymbolTableRecord
100
AcDbRegAppTableRecord
  2
GEVID1208845785
 70
     0
  0
APPID
  5
454
330
9
100
AcDbSymbolTableRecord
100
AcDbRegAppTableRecord
  2
GEVID1208845787
 70
     0
  0
APPID
  5
455
330
9
100
AcDbSymbolTableRecord
100
AcDbRegAppTableRecord
  2
GEVID1208845788
 70
     0
  0
APPID
  5
456
330
9
100
AcDbSymbolTableRecord
100
AcDbRegAppTableRecord
  2
GEVID1208845789
 70
     0
  0
APPID
  5
457
330
9
100
AcDbSymbolTableRecord
100
AcDbRegAppTableRecord
  2
GEVID1208845790
 70
     0
  0
APPID
  5
458
330
9
100
AcDbSymbolTableRecord
100
AcDbRegAppTableRecord
  2
GEVID1208845791
 70
     0
  0
APPID
  5
459
330
9
100
AcDbSymbolTableRecord
100
AcDbRegAppTableRecord
  2
GEVID1208845792
 70
     0
  0
APPID
  5
45A
330
9
100
AcDbSymbolTableRecord
100
AcDbRegAppTableRecord
  2
GEVID1208845793
 70
     0
  0
APPID
  5
45B
330
9
100
AcDbSymbolTableRecord
100
AcDbRegAppTableRecord
  2
GEVID1208845794
 70
     0
  0
APPID
  5
45C
330
9
100
AcDbSymbolTableRecord
100
AcDbRegAppTableRecord
  2
GEVID1208845795
 70
     0
  0
APPID
  5
45D
330
9
100
AcDbSymbolTableRecord
100
AcDbRegAppTableRecord
  2
GEVID1208845796
 70
     0
  0
APPID
  5
45E
330
9
100
AcDbSymbolTableRecord
100
AcDbRegAppTableRecord
  2
GEVID1208845797
 70
     0
  0
APPID
  5
45F
330
9
100
AcDbSymbolTableRecord
100
AcDbRegAppTableRecord
  2
GEVID1208845798
 70
     0
  0
APPID
  5
460
330
9
100
AcDbSymbolTableRecord
100
AcDbRegAppTableRecord
  2
GEVID1208845799
 70
     0
  0
APPID
  5
461
330
9
100
AcDbSymbolTableRecord
100
AcDbRegAppTableRecord
  2
GEVID1208845800
 70
     0
  0
APPID
  5
462
330
9
100
AcDbSymbolTableRecord
100
AcDbRegAppTableRecord
  2
GEVID1208845801
 70
     0
  0
APPID
  5
463
330
9
100
AcDbSymbolTableRecord
100
AcDbRegAppTableRecord
  2
GEVID1208845802
 70
     0
  0
APPID
  5
464
330
9
100
AcDbSymbolTableRecord
100
AcDbRegAppTableRecord
  2
GENIUS_GENOBJ-N-DIM_13
 70
     0
  0
APPID
  5
465
330
9
100
AcDbSymbolTableRecord
100
AcDbRegAppTableRecord
  2
GENIUS_GENDIM_13
 70
     0
  0
APPID
  5
466
330
9
100
AcDbSymbolTableRecord
100
AcDbRegAppTableRecord
  2
GENIUS_GENDIMSH_14
 70
     0
  0
APPID
  5
467
330
9
100
AcDbSymbolTableRecord
100
AcDbRegAppTableRecord
  2
GEVID1208845803
 70
     0
  0
APPID
  5
468
330
9
100
AcDbSymbolTableRecord
100
AcDbRegAppTableRecord
  2
GEVID1208845804
 70
     0
  0
APPID
  5
469
330
9
100
AcDbSymbolTableRecord
100
AcDbRegAppTableRecord
  2
GEVID1208845805
 70
     0
  0
APPID
  5
46A
330
9
100
AcDbSymbolTableRecord
100
AcDbRegAppTableRecord
  2
GEVID1208845806
 70
     0
  0
APPID
  5
46B
330
9
100
AcDbSymbolTableRecord
100
AcDbRegAppTableRecord
  2
GEVID1208845807
 70
     0
  0
APPID
  5
46C
330
9
100
AcDbSymbolTableRecord
100
AcDbRegAppTableRecord
  2
GEVID1208845808
 70
     0
  0
APPID
  5
46D
330
9
100
AcDbSymbolTableRecord
100
AcDbRegAppTableRecord
  2
GEVID1208845809
 70
     0
  0
APPID
  5
46E
330
9
100
AcDbSymbolTableRecord
100
AcDbRegAppTableRecord
  2
GEVID1208845810
 70
     0
  0
APPID
  5
46F
330
9
100
AcDbSymbolTableRecord
100
AcDbRegAppTableRecord
  2
GEVID1208845811
 70
     0
  0
APPID
  5
470
330
9
100
AcDbSymbolTableRecord
100
AcDbRegAppTableRecord
  2
GEVID1208845813
 70
     0
  0
APPID
  5
471
330
9
100
AcDbSymbolTableRecord
100
AcDbRegAppTableRecord
  2
GEVID1208845814
 70
     0
  0
APPID
  5
472
330
9
100
AcDbSymbolTableRecord
100
AcDbRegAppTableRecord
  2
GEVID1208845815
 70
     0
  0
APPID
  5
473
330
9
100
AcDbSymbolTableRecord
100
AcDbRegAppTableRecord
  2
GEVID1208845816
 70
     0
  0
APPID
  5
474
330
9
100
AcDbSymbolTableRecord
100
AcDbRegAppTableRecord
  2
GEVID1208845817
 70
     0
  0
APPID
  5
475
330
9
100
AcDbSymbolTableRecord
100
AcDbRegAppTableRecord
  2
GEVID1208845818
 70
     0
  0
APPID
  5
476
330
9
100
AcDbSymbolTableRecord
100
AcDbRegAppTableRecord
  2
GEVID1208845819
 70
     0
  0
APPID
  5
477
330
9
100
AcDbSymbolTableRecord
100
AcDbRegAppTableRecord
  2
GEVID1208845820
 70
     0
  0
APPID
  5
478
330
9
100
AcDbSymbolTableRecord
100
AcDbRegAppTableRecord
  2
GENIUS_GENOBJ-F-SHCL_13
 70
     0
  0
APPID
  5
479
330
9
100
AcDbSymbolTableRecord
100
AcDbRegAppTableRecord
  2
GENIUS_GEFMSH_13
 70
     0
  0
APPID
  5
47A
330
9
100
AcDbSymbolTableRecord
100
AcDbRegAppTableRecord
  2
GENIUS_GENOBJ-F-SHCA_13
 70
     0
  0
APPID
  5
47B
330
9
100
AcDbSymbolTableRecord
100
AcDbRegAppTableRecord
  2
GENIUS_GEFSH_13
 70
     0
  0
APPID
  5
47C
330
9
100
AcDbSymbolTableRecord
100
AcDbRegAppTableRecord
  2
GENIUS_GEFSHP_13
 70
     0
  0
APPID
  5
47D
330
9
100
AcDbSymbolTableRecord
100
AcDbRegAppTableRecord
  2
GENIUS_GEFSHP0_13
 70
     0
  0
APPID
  5
47E
330
9
100
AcDbSymbolTableRecord
100
AcDbRegAppTableRecord
  2
GENIUS_GEFSH0_13
 70
     0
  0
APPID
  5
47F
330
9
100
AcDbSymbolTableRecord
100
AcDbRegAppTableRecord
  2
GENIUS_GEFSHP1_13
 70
     0
  0
APPID
  5
480
330
9
100
AcDbSymbolTableRecord
100
AcDbRegAppTableRecord
  2
GENIUS_GEFSH1_13
 70
     0
  0
APPID
  5
481
330
9
100
AcDbSymbolTableRecord
100
AcDbRegAppTableRecord
  2
GEVID1208866337
 70
     0
  0
APPID
  5
482
330
9
100
AcDbSymbolTableRecord
100
AcDbRegAppTableRecord
  2
GEVID1208866338
 70
     0
  0
APPID
  5
483
330
9
100
AcDbSymbolTableRecord
100
AcDbRegAppTableRecord
  2
GEVID1208866339
 70
     0
  0
APPID
  5
484
330
9
100
AcDbSymbolTableRecord
100
AcDbRegAppTableRecord
  2
GEVID1208866340
 70
     0
  0
APPID
  5
485
330
9
100
AcDbSymbolTableRecord
100
AcDbRegAppTableRecord
  2
GEVID1208866341
 70
     0
  0
APPID
  5
486
330
9
100
AcDbSymbolTableRecord
100
AcDbRegAppTableRecord
  2
ACAD_PSEXT
 70
     0
  0
APPID
  5
487
330
9
100
AcDbSymbolTableRecord
100
AcDbRegAppTableRecord
  2
GEVID1208866342
 70
     0
  0
APPID
  5
488
330
9
100
AcDbSymbolTableRecord
100
AcDbRegAppTableRecord
  2
GEVID1208913836
 70
     0
  0
APPID
  5
489
330
9
100
AcDbSymbolTableRecord
100
AcDbRegAppTableRecord
  2
GEVID1208913837
 70
     0
  0
APPID
  5
48A
330
9
100
AcDbSymbolTableRecord
100
AcDbRegAppTableRecord
  2
GEVID1208913838
 70
     0
  0
APPID
  5
48B
330
9
100
AcDbSymbolTableRecord
100
AcDbRegAppTableRecord
  2
GEVID1208913839
 70
     0
  0
APPID
  5
48C
330
9
100
AcDbSymbolTableRecord
100
AcDbRegAppTableRecord
  2
GENIUS_GENDTOL_13
 70
     0
  0
APPID
  5
48D
330
9
100
AcDbSymbolTableRecord
100
AcDbRegAppTableRecord
  2
GEVID1208928889
 70
     0
  0
APPID
  5
48E
330
9
100
AcDbSymbolTableRecord
100
AcDbRegAppTableRecord
  2
GEVID1208928890
 70
     0
  0
APPID
  5
48F
330
9
100
AcDbSymbolTableRecord
100
AcDbRegAppTableRecord
  2
GEVID1208928891
 70
     0
  0
APPID
  5
490
330
9
100
AcDbSymbolTableRecord
100
AcDbRegAppTableRecord
  2
GEVID1208928892
 70
     0
  0
APPID
  5
491
330
9
100
AcDbSymbolTableRecord
100
AcDbRegAppTableRecord
  2
GEVID1208933827
 70
     0
  0
APPID
  5
492
330
9
100
AcDbSymbolTableRecord
100
AcDbRegAppTableRecord
  2
GEVID1208933829
 70
     0
  0
APPID
  5
493
330
9
100
AcDbSymbolTableRecord
100
AcDbRegAppTableRecord
  2
GEVID1208933830
 70
     0
  0
APPID
  5
494
330
9
100
AcDbSymbolTableRecord
100
AcDbRegAppTableRecord
  2
GEVID1208933831
 70
     0
  0
APPID
  5
495
330
9
100
AcDbSymbolTableRecord
100
AcDbRegAppTableRecord
  2
GEVID1208933832
 70
     0
  0
APPID
  5
496
330
9
100
AcDbSymbolTableRecord
100
AcDbRegAppTableRecord
  2
GEVID1208933833
 70
     0
  0
APPID
  5
497
330
9
100
AcDbSymbolTableRecord
100
AcDbRegAppTableRecord
  2
GEVID1208933834
 70
     0
  0
APPID
  5
498
330
9
100
AcDbSymbolTableRecord
100
AcDbRegAppTableRecord
  2
GEVID1208933835
 70
     0
  0
APPID
  5
499
330
9
100
AcDbSymbolTableRecord
100
AcDbRegAppTableRecord
  2
GEVID1208933836
 70
     0
  0
APPID
  5
49A
330
9
100
AcDbSymbolTableRecord
100
AcDbRegAppTableRecord
  2
GEVID1208933837
 70
     0
  0
APPID
  5
49B
330
9
100
AcDbSymbolTableRecord
100
AcDbRegAppTableRecord
  2
GEVID1208933838
 70
     0
  0
APPID
  5
49C
330
9
100
AcDbSymbolTableRecord
100
AcDbRegAppTableRecord
  2
GEVID1208933840
 70
     0
  0
APPID
  5
49D
330
9
100
AcDbSymbolTableRecord
100
AcDbRegAppTableRecord
  2
GEVID1208933842
 70
     0
  0
APPID
  5
49E
330
9
100
AcDbSymbolTableRecord
100
AcDbRegAppTableRecord
  2
GEVID1208933843
 70
     0
  0
APPID
  5
49F
330
9
100
AcDbSymbolTableRecord
100
AcDbRegAppTableRecord
  2
GEVID1208933844
 70
     0
  0
APPID
  5
4A0
330
9
100
AcDbSymbolTableRecord
100
AcDbRegAppTableRecord
  2
GEVID1208933845
 70
     0
  0
APPID
  5
4A1
330
9
100
AcDbSymbolTableRecord
100
AcDbRegAppTableRecord
  2
GEVID1208933846
 70
     0
  0
APPID
  5
4A2
330
9
100
AcDbSymbolTableRecord
100
AcDbRegAppTableRecord
  2
GEVID1208933847
 70
     0
  0
APPID
  5
4A3
330
9
100
AcDbSymbolTableRecord
100
AcDbRegAppTableRecord
  2
GEVID1208933848
 70
     0
  0
APPID
  5
4A4
330
9
100
AcDbSymbolTableRecord
100
AcDbRegAppTableRecord
  2
GEVID1208933849
 70
     0
  0
APPID
  5
4A5
330
9
100
AcDbSymbolTableRecord
100
AcDbRegAppTableRecord
  2
GEVID1208933850
 70
     0
  0
APPID
  5
4A6
330
9
100
AcDbSymbolTableRecord
100
AcDbRegAppTableRecord
  2
GEVID1208933851
 70
     0
  0
APPID
  5
4A7
330
9
100
AcDbSymbolTableRecord
100
AcDbRegAppTableRecord
  2
GEVID1208933852
 70
     0
  0
APPID
  5
4A8
330
9
100
AcDbSymbolTableRecord
100
AcDbRegAppTableRecord
  2
GEVID1208933853
 70
     0
  0
APPID
  5
4A9
330
9
100
AcDbSymbolTableRecord
100
AcDbRegAppTableRecord
  2
GEVID1208933854
 70
     0
  0
APPID
  5
4AA
330
9
100
AcDbSymbolTableRecord
100
AcDbRegAppTableRecord
  2
GEVID1208933855
 70
     0
  0
APPID
  5
4AB
330
9
100
AcDbSymbolTableRecord
100
AcDbRegAppTableRecord
  2
GEVID1208933856
 70
     0
  0
APPID
  5
4AC
330
9
100
AcDbSymbolTableRecord
100
AcDbRegAppTableRecord
  2
GEVID1208933857
 70
     0
  0
APPID
  5
4AD
330
9
100
AcDbSymbolTableRecord
100
AcDbRegAppTableRecord
  2
GEVID1208933858
 70
     0
  0
APPID
  5
4AE
330
9
100
AcDbSymbolTableRecord
100
AcDbRegAppTableRecord
  2
GEVID1208933859
 70
     0
  0
APPID
  5
4AF
330
9
100
AcDbSymbolTableRecord
100
AcDbRegAppTableRecord
  2
GEVID1208933860
 70
     0
  0
APPID
  5
4B0
330
9
100
AcDbSymbolTableRecord
100
AcDbRegAppTableRecord
  2
GEVID1208933861
 70
     0
  0
APPID
  5
4B1
330
9
100
AcDbSymbolTableRecord
100
AcDbRegAppTableRecord
  2
GEVID1208933862
 70
     0
  0
APPID
  5
4B2
330
9
100
AcDbSymbolTableRecord
100
AcDbRegAppTableRecord
  2
GEVID1208933863
 70
     0
  0
APPID
  5
4B3
330
9
100
AcDbSymbolTableRecord
100
AcDbRegAppTableRecord
  2
GEVID1208933864
 70
     0
  0
APPID
  5
4B4
330
9
100
AcDbSymbolTableRecord
100
AcDbRegAppTableRecord
  2
GEVID1208933865
 70
     0
  0
APPID
  5
4B5
330
9
100
AcDbSymbolTableRecord
100
AcDbRegAppTableRecord
  2
GEVID1208933866
 70
     0
  0
APPID
  5
4B6
330
9
100
AcDbSymbolTableRecord
100
AcDbRegAppTableRecord
  2
GEVID1208933867
 70
     0
  0
APPID
  5
4B7
330
9
100
AcDbSymbolTableRecord
100
AcDbRegAppTableRecord
  2
GEVID1208933868
 70
     0
  0
APPID
  5
4B8
330
9
100
AcDbSymbolTableRecord
100
AcDbRegAppTableRecord
  2
GEVID1208933869
 70
     0
  0
APPID
  5
4B9
330
9
100
AcDbSymbolTableRecord
100
AcDbRegAppTableRecord
  2
GEVID1208933870
 70
     0
  0
APPID
  5
4BA
330
9
100
AcDbSymbolTableRecord
100
AcDbRegAppTableRecord
  2
GEVID1208933871
 70
     0
  0
APPID
  5
4BB
330
9
100
AcDbSymbolTableRecord
100
AcDbRegAppTableRecord
  2
GEVID1208933872
 70
     0
  0
APPID
  5
4BC
330
9
100
AcDbSymbolTableRecord
100
AcDbRegAppTableRecord
  2
GEVID1208933873
 70
     0
  0
APPID
  5
4BD
330
9
100
AcDbSymbolTableRecord
100
AcDbRegAppTableRecord
  2
GEVID1208933874
 70
     0
  0
APPID
  5
4BE
330
9
100
AcDbSymbolTableRecord
100
AcDbRegAppTableRecord
  2
GEVID1208933875
 70
     0
  0
APPID
  5
4BF
330
9
100
AcDbSymbolTableRecord
100
AcDbRegAppTableRecord
  2
GEVID1208933876
 70
     0
  0
APPID
  5
4C0
330
9
100
AcDbSymbolTableRecord
100
AcDbRegAppTableRecord
  2
ACAD_DSTYLE_DIMRADIAL_EXTENSION
 70
     0
  0
APPID
  5
4C1
330
9
100
AcDbSymbolTableRecord
100
AcDbRegAppTableRecord
  2
GEVID1208999100
 70
     0
  0
APPID
  5
4C2
330
9
100
AcDbSymbolTableRecord
100
AcDbRegAppTableRecord
  2
GEVID1208999101
 70
     0
  0
APPID
  5
4C3
330
9
100
AcDbSymbolTableRecord
100
AcDbRegAppTableRecord
  2
GEVID1208999102
 70
     0
  0
APPID
  5
4C4
330
9
100
AcDbSymbolTableRecord
100
AcDbRegAppTableRecord
  2
GEVID1208999103
 70
     0
  0
APPID
  5
4C5
330
9
100
AcDbSymbolTableRecord
100
AcDbRegAppTableRecord
  2
GEVID1208999105
 70
     0
  0
APPID
  5
4C6
330
9
100
AcDbSymbolTableRecord
100
AcDbRegAppTableRecord
  2
GEVID1208999106
 70
     0
  0
APPID
  5
4C7
330
9
100
AcDbSymbolTableRecord
100
AcDbRegAppTableRecord
  2
GEVID1208999108
 70
     0
  0
APPID
  5
4C8
330
9
100
AcDbSymbolTableRecord
100
AcDbRegAppTableRecord
  2
GEVID1208999109
 70
     0
  0
APPID
  5
4C9
330
9
100
AcDbSymbolTableRecord
100
AcDbRegAppTableRecord
  2
GEVID1208999110
 70
     0
  0
APPID
  5
4CA
330
9
100
AcDbSymbolTableRecord
100
AcDbRegAppTableRecord
  2
GEVID1208999111
 70
     0
  0
APPID
  5
4CB
330
9
100
AcDbSymbolTableRecord
100
AcDbRegAppTableRecord
  2
GEVID1208999112
 70
     0
  0
APPID
  5
4CC
330
9
100
AcDbSymbolTableRecord
100
AcDbRegAppTableRecord
  2
GEVID1208999113
 70
     0
  0
APPID
  5
4CD
330
9
100
AcDbSymbolTableRecord
100
AcDbRegAppTableRecord
  2
GEVID1208999114
 70
     0
  0
APPID
  5
4CE
330
9
100
AcDbSymbolTableRecord
100
AcDbRegAppTableRecord
  2
GEVID1210218799
 70
     0
  0
APPID
  5
4CF
330
9
100
AcDbSymbolTableRecord
100
AcDbRegAppTableRecord
  2
GEVID1210218800
 70
     0
  0
APPID
  5
4D0
330
9
100
AcDbSymbolTableRecord
100
AcDbRegAppTableRecord
  2
GENIUS_GEFWELD_13
 70
     0
  0
APPID
  5
4D1
330
9
100
AcDbSymbolTableRecord
100
AcDbRegAppTableRecord
  2
GENIUS_GENOBJ-F-WELS_13
 70
     0
  0
APPID
  5
4D2
330
9
100
AcDbSymbolTableRecord
100
AcDbRegAppTableRecord
  2
AcadAnnotative
 70
     0
  0
APPID
  5
4D3
330
9
100
AcDbSymbolTableRecord
100
AcDbRegAppTableRecord
  2
GEVID1210145339
 70
     0
  0
APPID
  5
4D4
330
9
100
AcDbSymbolTableRecord
100
AcDbRegAppTableRecord
  2
ACAD_DSTYLE_DIMBREAK
 70
     0
  0
APPID
  5
4D5
330
9
100
AcDbSymbolTableRecord
100
AcDbRegAppTableRecord
  2
GEVID1210145340
 70
     0
  0
APPID
  5
4D6
330
9
100
AcDbSymbolTableRecord
100
AcDbRegAppTableRecord
  2
GEVID1210145341
 70
     0
  0
APPID
  5
4D7
330
9
100
AcDbSymbolTableRecord
100
AcDbRegAppTableRecord
  2
GEVID1210145342
 70
     0
  0
APPID
  5
4D8
330
9
100
AcDbSymbolTableRecord
100
AcDbRegAppTableRecord
  2
GEVID1210145343
 70
     0
  0
APPID
  5
4D9
330
9
100
AcDbSymbolTableRecord
100
AcDbRegAppTableRecord
  2
GEVID1210145344
 70
     0
  0
APPID
  5
4DA
330
9
100
AcDbSymbolTableRecord
100
AcDbRegAppTableRecord
  2
GEVID1210145345
 70
     0
  0
APPID
  5
4DB
330
9
100
AcDbSymbolTableRecord
100
AcDbRegAppTableRecord
  2
GEVID1210152816
 70
     0
  0
APPID
  5
4DC
330
9
100
AcDbSymbolTableRecord
100
AcDbRegAppTableRecord
  2
GEVID1210153850
 70
     0
  0
APPID
  5
4DD
330
9
100
AcDbSymbolTableRecord
100
AcDbRegAppTableRecord
  2
GEVID1210153851
 70
     0
  0
APPID
  5
4DE
330
9
100
AcDbSymbolTableRecord
100
AcDbRegAppTableRecord
  2
GEVID1210153852
 70
     0
  0
APPID
  5
4DF
330
9
100
AcDbSymbolTableRecord
100
AcDbRegAppTableRecord
  2
GEVID1210549898
 70
     0
  0
APPID
  5
4E0
330
9
100
AcDbSymbolTableRecord
100
AcDbRegAppTableRecord
  2
GEVID1210549899
 70
     0
  0
APPID
  5
4E1
330
9
100
AcDbSymbolTableRecord
100
AcDbRegAppTableRecord
  2
GEVID1210549900
 70
     0
  0
APPID
  5
4E2
330
9
100
AcDbSymbolTableRecord
100
AcDbRegAppTableRecord
  2
GEVID1210549901
 70
     0
  0
APPID
  5
4E3
330
9
100
AcDbSymbolTableRecord
100
AcDbRegAppTableRecord
  2
GEVID1210549902
 70
     0
  0
APPID
  5
4E4
330
9
100
AcDbSymbolTableRecord
100
AcDbRegAppTableRecord
  2
GEVID1210549903
 70
     0
  0
APPID
  5
4E5
330
9
100
AcDbSymbolTableRecord
100
AcDbRegAppTableRecord
  2
GEVID1210549904
 70
     0
  0
APPID
  5
4E6
330
9
100
AcDbSymbolTableRecord
100
AcDbRegAppTableRecord
  2
GEVID1210549905
 70
     0
  0
APPID
  5
4E7
330
9
100
AcDbSymbolTableRecord
100
AcDbRegAppTableRecord
  2
GEVID1210549906
 70
     0
  0
APPID
  5
4E8
330
9
100
AcDbSymbolTableRecord
100
AcDbRegAppTableRecord
  2
GEVID1210549907
 70
     0
  0
APPID
  5
4E9
330
9
100
AcDbSymbolTableRecord
100
AcDbRegAppTableRecord
  2
GEVID1210549908
 70
     0
  0
APPID
  5
4EA
330
9
100
AcDbSymbolTableRecord
100
AcDbRegAppTableRecord
  2
GEVID1210549909
 70
     0
  0
APPID
  5
4EB
330
9
100
AcDbSymbolTableRecord
100
AcDbRegAppTableRecord
  2
GEVID1210549910
 70
     0
  0
APPID
  5
4EC
330
9
100
AcDbSymbolTableRecord
100
AcDbRegAppTableRecord
  2
GEVID1210549911
 70
     0
  0
APPID
  5
4ED
330
9
100
AcDbSymbolTableRecord
100
AcDbRegAppTableRecord
  2
GEVID1210549912
 70
     0
  0
APPID
  5
4EE
330
9
100
AcDbSymbolTableRecord
100
AcDbRegAppTableRecord
  2
GEVID1210549913
 70
     0
  0
APPID
  5
4EF
330
9
100
AcDbSymbolTableRecord
100
AcDbRegAppTableRecord
  2
GEVID1210549914
 70
     0
  0
APPID
  5
4F0
330
9
100
AcDbSymbolTableRecord
100
AcDbRegAppTableRecord
  2
GEVID1210549915
 70
     0
  0
APPID
  5
4F1
330
9
100
AcDbSymbolTableRecord
100
AcDbRegAppTableRecord
  2
GEVID1210549916
 70
     0
  0
APPID
  5
4F2
330
9
100
AcDbSymbolTableRecord
100
AcDbRegAppTableRecord
  2
GEVID1210549917
 70
     0
  0
APPID
  5
4F3
330
9
100
AcDbSymbolTableRecord
100
AcDbRegAppTableRecord
  2
GENIUS_GENOBJ-N-CRS_13
 70
     0
  0
APPID
  5
4F4
330
9
100
AcDbSymbolTableRecord
100
AcDbRegAppTableRecord
  2
GEVID1210549918
 70
     0
  0
APPID
  5
4F5
330
9
100
AcDbSymbolTableRecord
100
AcDbRegAppTableRecord
  2
GENIUS_GENOBJ-N-CRC_13
 70
     0
  0
APPID
  5
4F6
330
9
100
AcDbSymbolTableRecord
100
AcDbRegAppTableRecord
  2
GENIUS_GENCRC_14
 70
     0
  0
APPID
  5
4F7
330
9
100
AcDbSymbolTableRecord
100
AcDbRegAppTableRecord
  2
GEVID1210549919
 70
     0
  0
APPID
  5
4F8
330
9
100
AcDbSymbolTableRecord
100
AcDbRegAppTableRecord
  2
GEVID1210549921
 70
     0
  0
APPID
  5
4F9
330
9
100
AcDbSymbolTableRecord
100
AcDbRegAppTableRecord
  2
GEVID1210549922
 70
     0
  0
APPID
  5
4FA
330
9
100
AcDbSymbolTableRecord
100
AcDbRegAppTableRecord
  2
GEVID1210635173
 70
     0
  0
APPID
  5
4FB
330
9
100
AcDbSymbolTableRecord
100
AcDbRegAppTableRecord
  2
GEVID1210635174
 70
     0
  0
APPID
  5
4FC
330
9
100
AcDbSymbolTableRecord
100
AcDbRegAppTableRecord
  2
GEVID1210635175
 70
     0
  0
APPID
  5
4FD
330
9
100
AcDbSymbolTableRecord
100
AcDbRegAppTableRecord
  2
GEVID1210635176
 70
     0
  0
APPID
  5
4FE
330
9
100
AcDbSymbolTableRecord
100
AcDbRegAppTableRecord
  2
GEVID1210635177
 70
     0
  0
APPID
  5
4FF
330
9
100
AcDbSymbolTableRecord
100
AcDbRegAppTableRecord
  2
GEVID1210635178
 70
     0
  0
APPID
  5
500
330
9
100
AcDbSymbolTableRecord
100
AcDbRegAppTableRecord
  2
GENIUS_GENIUS_GENBHEDTMP_13
 70
     0
  0
APPID
  5
501
330
9
100
AcDbSymbolTableRecord
100
AcDbRegAppTableRecord
  2
GEVID1210635179
 70
     0
  0
APPID
  5
502
330
9
100
AcDbSymbolTableRecord
100
AcDbRegAppTableRecord
  2
GEVID1210635180
 70
     0
  0
APPID
  5
503
330
9
100
AcDbSymbolTableRecord
100
AcDbRegAppTableRecord
  2
GEVID1210635181
 70
     0
  0
APPID
  5
504
330
9
100
AcDbSymbolTableRecord
100
AcDbRegAppTableRecord
  2
GEVID1210635182
 70
     0
  0
APPID
  5
505
330
9
100
AcDbSymbolTableRecord
100
AcDbRegAppTableRecord
  2
GEVID1210635184
 70
     0
  0
APPID
  5
506
330
9
100
AcDbSymbolTableRecord
100
AcDbRegAppTableRecord
  2
GEVID1210635185
 70
     0
  0
APPID
  5
507
330
9
100
AcDbSymbolTableRecord
100
AcDbRegAppTableRecord
  2
GEVID1210635186
 70
     0
  0
APPID
  5
508
330
9
100
AcDbSymbolTableRecord
100
AcDbRegAppTableRecord
  2
GEVID1210635187
 70
     0
  0
APPID
  5
509
330
9
100
AcDbSymbolTableRecord
100
AcDbRegAppTableRecord
  2
GEVID1210635188
 70
     0
  0
APPID
  5
50A
330
9
100
AcDbSymbolTableRecord
100
AcDbRegAppTableRecord
  2
GEVID1210635189
 70
     0
  0
APPID
  5
50B
330
9
100
AcDbSymbolTableRecord
100
AcDbRegAppTableRecord
  2
GEVID1210635190
 70
     0
  0
APPID
  5
50C
330
9
100
AcDbSymbolTableRecord
100
AcDbRegAppTableRecord
  2
GENIUS_GENREC_14
 70
     0
  0
APPID
  5
50D
330
9
100
AcDbSymbolTableRecord
100
AcDbRegAppTableRecord
  2
GENIUS_GENOBJ-N-REC_13
 70
     0
  0
APPID
  5
50E
330
9
100
AcDbSymbolTableRecord
100
AcDbRegAppTableRecord
  2
GEVID1210676655
 70
     0
  0
APPID
  5
50F
330
9
100
AcDbSymbolTableRecord
100
AcDbRegAppTableRecord
  2
GEVID1210676656
 70
     0
  0
APPID
  5
510
330
9
100
AcDbSymbolTableRecord
100
AcDbRegAppTableRecord
  2
GEVID1210676657
 70
     0
  0
APPID
  5
511
330
9
100
AcDbSymbolTableRecord
100
AcDbRegAppTableRecord
  2
GEVID1210676659
 70
     0
  0
APPID
  5
512
330
9
100
AcDbSymbolTableRecord
100
AcDbRegAppTableRecord
  2
GEVID1210676660
 70
     0
  0
APPID
  5
513
330
9
100
AcDbSymbolTableRecord
100
AcDbRegAppTableRecord
  2
GEVID1210676661
 70
     0
  0
APPID
  5
514
330
9
100
AcDbSymbolTableRecord
100
AcDbRegAppTableRecord
  2
GEVID1210676662
 70
     0
  0
APPID
  5
515
330
9
100
AcDbSymbolTableRecord
100
AcDbRegAppTableRecord
  2
GEVID1210721646
 70
     0
  0
APPID
  5
516
330
9
100
AcDbSymbolTableRecord
100
AcDbRegAppTableRecord
  2
GEVID1210721647
 70
     0
  0
APPID
  5
517
330
9
100
AcDbSymbolTableRecord
100
AcDbRegAppTableRecord
  2
GEVID1210721648
 70
     0
  0
APPID
  5
518
330
9
100
AcDbSymbolTableRecord
100
AcDbRegAppTableRecord
  2
GEVID1210721649
 70
     0
  0
APPID
  5
519
330
9
100
AcDbSymbolTableRecord
100
AcDbRegAppTableRecord
  2
GEVID1210721650
 70
     0
  0
APPID
  5
51A
330
9
100
AcDbSymbolTableRecord
100
AcDbRegAppTableRecord
  2
GEVID1210721651
 70
     0
  0
APPID
  5
51B
330
9
100
AcDbSymbolTableRecord
100
AcDbRegAppTableRecord
  2
GEVID1210721652
 70
     0
  0
APPID
  5
51C
330
9
100
AcDbSymbolTableRecord
100
AcDbRegAppTableRecord
  2
GEVID1210721653
 70
     0
  0
APPID
  5
51D
330
9
100
AcDbSymbolTableRecord
100
AcDbRegAppTableRecord
  2
PE_URL
 70
     0
  0
APPID
  5
51E
330
9
100
AcDbSymbolTableRecord
100
AcDbRegAppTableRecord
  2
GEVID1210825555
 70
     0
  0
APPID
  5
51F
330
9
100
AcDbSymbolTableRecord
100
AcDbRegAppTableRecord
  2
GEVID1210825556
 70
     0
  0
APPID
  5
520
330
9
100
AcDbSymbolTableRecord
100
AcDbRegAppTableRecord
  2
GEVID1210825557
 70
     0
  0
APPID
  5
521
330
9
100
AcDbSymbolTableRecord
100
AcDbRegAppTableRecord
  2
GEVID1210825558
 70
     0
  0
APPID
  5
522
330
9
100
AcDbSymbolTableRecord
100
AcDbRegAppTableRecord
  2
GEVID1210825559
 70
     0
  0
APPID
  5
523
330
9
100
AcDbSymbolTableRecord
100
AcDbRegAppTableRecord
  2
GEVID1210825560
 70
     0
  0
APPID
  5
524
330
9
100
AcDbSymbolTableRecord
100
AcDbRegAppTableRecord
  2
GEVID1210825561
 70
     0
  0
APPID
  5
525
330
9
100
AcDbSymbolTableRecord
100
AcDbRegAppTableRecord
  2
GEVID1210825562
 70
     0
  0
APPID
  5
526
330
9
100
AcDbSymbolTableRecord
100
AcDbRegAppTableRecord
  2
GEVID1210825563
 70
     0
  0
APPID
  5
527
330
9
100
AcDbSymbolTableRecord
100
AcDbRegAppTableRecord
  2
GEVID1210825564
 70
     0
  0
APPID
  5
528
330
9
100
AcDbSymbolTableRecord
100
AcDbRegAppTableRecord
  2
GEVID1210825565
 70
     0
  0
APPID
  5
529
330
9
100
AcDbSymbolTableRecord
100
AcDbRegAppTableRecord
  2
GEVID1210825566
 70
     0
  0
APPID
  5
52A
330
9
100
AcDbSymbolTableRecord
100
AcDbRegAppTableRecord
  2
GEVID1210825567
 70
     0
  0
APPID
  5
52B
330
9
100
AcDbSymbolTableRecord
100
AcDbRegAppTableRecord
  2
GENIUS_GENOBJ-N-ZOO_13
 70
     0
  0
APPID
  5
52C
330
9
100
AcDbSymbolTableRecord
100
AcDbRegAppTableRecord
  2
GENIUS_GENZOO_17
 70
     0
  0
APPID
  5
52D
330
9
100
AcDbSymbolTableRecord
100
AcDbRegAppTableRecord
  2
ACADANNOTATIVEDECOMPOSITION
 70
     0
  0
APPID
  5
52E
330
9
100
AcDbSymbolTableRecord
100
AcDbRegAppTableRecord
  2
GENIUS_GENOBJ-N-HTC_13
 70
     0
  0
APPID
  5
52F
330
9
100
AcDbSymbolTableRecord
100
AcDbRegAppTableRecord
  2
GENIUS_GENHATCH_13
 70
     0
  0
APPID
  5
530
330
9
100
AcDbSymbolTableRecord
100
AcDbRegAppTableRecord
  2
GEVID1210896020
 70
     0
  0
APPID
  5
531
330
9
100
AcDbSymbolTableRecord
100
AcDbRegAppTableRecord
  2
GEVID1210896021
 70
     0
  0
APPID
  5
532
330
9
100
AcDbSymbolTableRecord
100
AcDbRegAppTableRecord
  2
GEVID1209083540
 70
     0
  0
APPID
  5
533
330
9
100
AcDbSymbolTableRecord
100
AcDbRegAppTableRecord
  2
GEVMK
 70
     0
  0
APPID
  5
534
330
9
100
AcDbSymbolTableRecord
100
AcDbRegAppTableRecord
  2
GEVID1209083542
 70
     0
  0
APPID
  5
535
330
9
100
AcDbSymbolTableRecord
100
AcDbRegAppTableRecord
  2
GEVID1209083543
 70
     0
  0
APPID
  5
536
330
9
100
AcDbSymbolTableRecord
100
AcDbRegAppTableRecord
  2
GEVID1209083544
 70
     0
  0
APPID
  5
537
330
9
100
AcDbSymbolTableRecord
100
AcDbRegAppTableRecord
  2
GEVID1209083545
 70
     0
  0
APPID
  5
538
330
9
100
AcDbSymbolTableRecord
100
AcDbRegAppTableRecord
  2
GEVID1209083546
 70
     0
  0
APPID
  5
539
330
9
100
AcDbSymbolTableRecord
100
AcDbRegAppTableRecord
  2
GEVID1209083547
 70
     0
  0
APPID
  5
53A
330
9
100
AcDbSymbolTableRecord
100
AcDbRegAppTableRecord
  2
GEVID1209083548
 70
     0
  0
APPID
  5
53B
330
9
100
AcDbSymbolTableRecord
100
AcDbRegAppTableRecord
  2
GEVID1209083549
 70
     0
  0
APPID
  5
53C
330
9
100
AcDbSymbolTableRecord
100
AcDbRegAppTableRecord
  2
GEVID1209083550
 70
     0
  0
APPID
  5
53D
330
9
100
AcDbSymbolTableRecord
100
AcDbRegAppTableRecord
  2
GEVID1209083551
 70
     0
  0
APPID
  5
53E
330
9
100
AcDbSymbolTableRecord
100
AcDbRegAppTableRecord
  2
GEVID1209083552
 70
     0
  0
APPID
  5
53F
330
9
100
AcDbSymbolTableRecord
100
AcDbRegAppTableRecord
  2
GEVID1209083553
 70
     0
  0
APPID
  5
540
330
9
100
AcDbSymbolTableRecord
100
AcDbRegAppTableRecord
  2
GEVID1210896022
 70
     0
  0
APPID
  5
541
330
9
100
AcDbSymbolTableRecord
100
AcDbRegAppTableRecord
  2
GEVID1211508364
 70
     0
  0
APPID
  5
542
330
9
100
AcDbSymbolTableRecord
100
AcDbRegAppTableRecord
  2
GEVID1211414908
 70
     0
  0
APPID
  5
543
330
9
100
AcDbSymbolTableRecord
100
AcDbRegAppTableRecord
  2
GEVID1211414909
 70
     0
  0
APPID
  5
544
330
9
100
AcDbSymbolTableRecord
100
AcDbRegAppTableRecord
  2
GEVID1211508359
 70
     0
  0
APPID
  5
545
330
9
100
AcDbSymbolTableRecord
100
AcDbRegAppTableRecord
  2
GEVID1211508360
 70
     0
  0
APPID
  5
546
330
9
100
AcDbSymbolTableRecord
100
AcDbRegAppTableRecord
  2
GEVID1211508361
 70
     0
  0
APPID
  5
547
330
9
100
AcDbSymbolTableRecord
100
AcDbRegAppTableRecord
  2
GEVID1211508362
 70
     0
  0
APPID
  5
548
330
9
100
AcDbSymbolTableRecord
100
AcDbRegAppTableRecord
  2
GEVID1211508363
 70
     0
  0
APPID
  5
549
330
9
100
AcDbSymbolTableRecord
100
AcDbRegAppTableRecord
  2
GEVID1211878469
 70
     0
  0
APPID
  5
54A
330
9
100
AcDbSymbolTableRecord
100
AcDbRegAppTableRecord
  2
GEVID1212642819
 70
     0
  0
APPID
  5
54B
330
9
100
AcDbSymbolTableRecord
100
AcDbRegAppTableRecord
  2
GEVID1212642820
 70
     0
  0
APPID
  5
54C
330
9
100
AcDbSymbolTableRecord
100
AcDbRegAppTableRecord
  2
GEVID1212642821
 70
     0
  0
APPID
  5
54D
330
9
100
AcDbSymbolTableRecord
100
AcDbRegAppTableRecord
  2
GEVID1212642822
 70
     0
  0
APPID
  5
54E
330
9
100
AcDbSymbolTableRecord
100
AcDbRegAppTableRecord
  2
GEVID1212642823
 70
     0
  0
APPID
  5
54F
330
9
100
AcDbSymbolTableRecord
100
AcDbRegAppTableRecord
  2
GEVID1212642825
 70
     0
  0
APPID
  5
550
330
9
100
AcDbSymbolTableRecord
100
AcDbRegAppTableRecord
  2
GEVID1212642826
 70
     0
  0
APPID
  5
551
330
9
100
AcDbSymbolTableRecord
100
AcDbRegAppTableRecord
  2
GEVID1212642827
 70
     0
  0
APPID
  5
552
330
9
100
AcDbSymbolTableRecord
100
AcDbRegAppTableRecord
  2
GEVID1212642828
 70
     0
  0
APPID
  5
553
330
9
100
AcDbSymbolTableRecord
100
AcDbRegAppTableRecord
  2
GEVID1212642831
 70
     0
  0
APPID
  5
554
330
9
100
AcDbSymbolTableRecord
100
AcDbRegAppTableRecord
  2
GEVID1212642834
 70
     0
  0
APPID
  5
555
330
9
100
AcDbSymbolTableRecord
100
AcDbRegAppTableRecord
  2
GEVID1212642835
 70
     0
  0
APPID
  5
556
330
9
100
AcDbSymbolTableRecord
100
AcDbRegAppTableRecord
  2
GEVID1212642836
 70
     0
  0
APPID
  5
557
330
9
100
AcDbSymbolTableRecord
100
AcDbRegAppTableRecord
  2
GEVID1212642837
 70
     0
  0
APPID
  5
558
330
9
100
AcDbSymbolTableRecord
100
AcDbRegAppTableRecord
  2
GEVID1212642839
 70
     0
  0
APPID
  5
559
330
9
100
AcDbSymbolTableRecord
100
AcDbRegAppTableRecord
  2
GEVID1212642840
 70
     0
  0
APPID
  5
55A
330
9
100
AcDbSymbolTableRecord
100
AcDbRegAppTableRecord
  2
GEVID1212642841
 70
     0
  0
APPID
  5
55B
330
9
100
AcDbSymbolTableRecord
100
AcDbRegAppTableRecord
  2
GEVID1212655312
 70
     0
  0
APPID
  5
55C
330
9
100
AcDbSymbolTableRecord
100
AcDbRegAppTableRecord
  2
GEVID1212655313
 70
     0
  0
APPID
  5
55D
330
9
100
AcDbSymbolTableRecord
100
AcDbRegAppTableRecord
  2
GEVID1212656533
 70
     0
  0
APPID
  5
55E
330
9
100
AcDbSymbolTableRecord
100
AcDbRegAppTableRecord
  2
GEVID1212656534
 70
     0
  0
APPID
  5
55F
330
9
100
AcDbSymbolTableRecord
100
AcDbRegAppTableRecord
  2
GEVID1212656535
 70
     0
  0
APPID
  5
560
330
9
100
AcDbSymbolTableRecord
100
AcDbRegAppTableRecord
  2
GEVID1212656536
 70
     0
  0
APPID
  5
561
330
9
100
AcDbSymbolTableRecord
100
AcDbRegAppTableRecord
  2
GEVID1212656538
 70
     0
  0
APPID
  5
562
330
9
100
AcDbSymbolTableRecord
100
AcDbRegAppTableRecord
  2
GEVID1212656541
 70
     0
  0
APPID
  5
563
330
9
100
AcDbSymbolTableRecord
100
AcDbRegAppTableRecord
  2
GEVID1212656543
 70
     0
  0
APPID
  5
564
330
9
100
AcDbSymbolTableRecord
100
AcDbRegAppTableRecord
  2
GENIUS_GENOBJ-F-PFASSM_13
 70
     0
  0
APPID
  5
565
330
9
100
AcDbSymbolTableRecord
100
AcDbRegAppTableRecord
  2
GEVID1212656544
 70
     0
  0
APPID
  5
566
330
9
100
AcDbSymbolTableRecord
100
AcDbRegAppTableRecord
  2
GEVID1212656545
 70
     0
  0
APPID
  5
567
330
9
100
AcDbSymbolTableRecord
100
AcDbRegAppTableRecord
  2
GEVID1212656546
 70
     0
  0
APPID
  5
568
330
9
100
AcDbSymbolTableRecord
100
AcDbRegAppTableRecord
  2
GEVID1212656547
 70
     0
  0
APPID
  5
569
330
9
100
AcDbSymbolTableRecord
100
AcDbRegAppTableRecord
  2
GEVID1212656548
 70
     0
  0
APPID
  5
56A
330
9
100
AcDbSymbolTableRecord
100
AcDbRegAppTableRecord
  2
GEVID1212656549
 70
     0
  0
APPID
  5
56B
330
9
100
AcDbSymbolTableRecord
100
AcDbRegAppTableRecord
  2
GEVID1212656550
 70
     0
  0
APPID
  5
56C
330
9
100
AcDbSymbolTableRecord
100
AcDbRegAppTableRecord
  2
GEVID1212656552
 70
     0
  0
APPID
  5
56D
330
9
100
AcDbSymbolTableRecord
100
AcDbRegAppTableRecord
  2
GEVID1212656553
 70
     0
  0
APPID
  5
56E
330
9
100
AcDbSymbolTableRecord
100
AcDbRegAppTableRecord
  2
GEVID1212656554
 70
     0
  0
APPID
  5
56F
330
9
100
AcDbSymbolTableRecord
100
AcDbRegAppTableRecord
  2
GEVID1212656555
 70
     0
  0
APPID
  5
570
330
9
100
AcDbSymbolTableRecord
100
AcDbRegAppTableRecord
  2
GEVID1212656556
 70
     0
  0
APPID
  5
571
330
9
100
AcDbSymbolTableRecord
100
AcDbRegAppTableRecord
  2
GEVID1212656557
 70
     0
  0
APPID
  5
572
330
9
100
AcDbSymbolTableRecord
100
AcDbRegAppTableRecord
  2
GEVID1212656559
 70
     0
  0
APPID
  5
573
330
9
100
AcDbSymbolTableRecord
100
AcDbRegAppTableRecord
  2
GEVID1212656560
 70
     0
  0
APPID
  5
574
330
9
100
AcDbSymbolTableRecord
100
AcDbRegAppTableRecord
  2
GEVID1212656561
 70
     0
  0
APPID
  5
575
330
9
100
AcDbSymbolTableRecord
100
AcDbRegAppTableRecord
  2
GEVID1212656562
 70
     0
  0
APPID
  5
576
330
9
100
AcDbSymbolTableRecord
100
AcDbRegAppTableRecord
  2
GEVID1212656563
 70
     0
  0
APPID
  5
577
330
9
100
AcDbSymbolTableRecord
100
AcDbRegAppTableRecord
  2
GEVID1212711781
 70
     0
  0
APPID
  5
578
330
9
100
AcDbSymbolTableRecord
100
AcDbRegAppTableRecord
  2
GEVID1212711782
 70
     0
  0
APPID
  5
579
330
9
100
AcDbSymbolTableRecord
100
AcDbRegAppTableRecord
  2
GEVID1212711783
 70
     0
  0
APPID
  5
57A
330
9
100
AcDbSymbolTableRecord
100
AcDbRegAppTableRecord
  2
GEVID1212711784
 70
     0
  0
APPID
  5
57B
330
9
100
AcDbSymbolTableRecord
100
AcDbRegAppTableRecord
  2
GEVID1212711788
 70
     0
  0
APPID
  5
57C
330
9
100
AcDbSymbolTableRecord
100
AcDbRegAppTableRecord
  2
GEVID1212711789
 70
     0
  0
APPID
  5
57D
330
9
100
AcDbSymbolTableRecord
100
AcDbRegAppTableRecord
  2
GEVID1212711790
 70
     0
  0
APPID
  5
57E
330
9
100
AcDbSymbolTableRecord
100
AcDbRegAppTableRecord
  2
GEVID1212711791
 70
     0
  0
APPID
  5
57F
330
9
100
AcDbSymbolTableRecord
100
AcDbRegAppTableRecord
  2
GEVID1212711792
 70
     0
  0
APPID
  5
580
330
9
100
AcDbSymbolTableRecord
100
AcDbRegAppTableRecord
  2
GEVID1212711793
 70
     0
  0
APPID
  5
581
330
9
100
AcDbSymbolTableRecord
100
AcDbRegAppTableRecord
  2
GEVID1212711794
 70
     0
  0
APPID
  5
582
330
9
100
AcDbSymbolTableRecord
100
AcDbRegAppTableRecord
  2
GEVID1212711795
 70
     0
  0
APPID
  5
583
330
9
100
AcDbSymbolTableRecord
100
AcDbRegAppTableRecord
  2
GEVID1212711797
 70
     0
  0
APPID
  5
584
330
9
100
AcDbSymbolTableRecord
100
AcDbRegAppTableRecord
  2
GEVID1212711798
 70
     0
  0
APPID
  5
585
330
9
100
AcDbSymbolTableRecord
100
AcDbRegAppTableRecord
  2
GEVID1212711799
 70
     0
  0
APPID
  5
586
330
9
100
AcDbSymbolTableRecord
100
AcDbRegAppTableRecord
  2
GEVID1212711800
 70
     0
  0
APPID
  5
587
330
9
100
AcDbSymbolTableRecord
100
AcDbRegAppTableRecord
  2
GEVID1212711801
 70
     0
  0
APPID
  5
588
330
9
100
AcDbSymbolTableRecord
100
AcDbRegAppTableRecord
  2
GEVID1212711802
 70
     0
  0
APPID
  5
589
330
9
100
AcDbSymbolTableRecord
100
AcDbRegAppTableRecord
  2
GEVID1212711803
 70
     0
  0
APPID
  5
58A
330
9
100
AcDbSymbolTableRecord
100
AcDbRegAppTableRecord
  2
GEVID1212711804
 70
     0
  0
APPID
  5
58B
330
9
100
AcDbSymbolTableRecord
100
AcDbRegAppTableRecord
  2
GEVID1212711805
 70
     0
  0
APPID
  5
58C
330
9
100
AcDbSymbolTableRecord
100
AcDbRegAppTableRecord
  2
GEVID1212711806
 70
     0
  0
APPID
  5
58D
330
9
100
AcDbSymbolTableRecord
100
AcDbRegAppTableRecord
  2
GEVID1212711807
 70
     0
  0
APPID
  5
58E
330
9
100
AcDbSymbolTableRecord
100
AcDbRegAppTableRecord
  2
GEVID1212711808
 70
     0
  0
APPID
  5
58F
330
9
100
AcDbSymbolTableRecord
100
AcDbRegAppTableRecord
  2
GEVID1212711809
 70
     0
  0
APPID
  5
590
330
9
100
AcDbSymbolTableRecord
100
AcDbRegAppTableRecord
  2
GEVID1212711810
 70
     0
  0
APPID
  5
591
330
9
100
AcDbSymbolTableRecord
100
AcDbRegAppTableRecord
  2
GEVID1212711811
 70
     0
  0
APPID
  5
90A
330
9
100
AcDbSymbolTableRecord
100
AcDbRegAppTableRecord
  2
GENIUS_GENTRA_14
 70
     0
  0
APPID
  5
919
330
9
100
AcDbSymbolTableRecord
100
AcDbRegAppTableRecord
  2
GENIUS_GENOBJ-N-TIT_13
 70
     0
  0
APPID
  5
91A
330
9
100
AcDbSymbolTableRecord
100
AcDbRegAppTableRecord
  2
GENIUS_GENTITLE_13
 70
     0
  0
APPID
  5
949
330
9
100
AcDbSymbolTableRecord
100
AcDbRegAppTableRecord
  2
GENIUS_GENBLLY_14
 70
     0
  0
APPID
  5
DDD
330
9
100
AcDbSymbolTableRecord
100
AcDbRegAppTableRecord
  2
GEVID1213165152
 70
     0
  0
APPID
  5
12F9
330
9
100
AcDbSymbolTableRecord
100
AcDbRegAppTableRecord
  2
AcDbDynamicBlockTrueName
 70
     0
  0
APPID
  5
12FA
330
9
100
AcDbSymbolTableRecord
100
AcDbRegAppTableRecord
  2
ACDBBLOCKREPETAG
 70
     0
  0
APPID
  5
1C15
330
9
100
AcDbSymbolTableRecord
100
AcDbRegAppTableRecord
  2
GEVID1214872427
 70
     0
  0
APPID
  5
1C2A
330
9
100
AcDbSymbolTableRecord
100
AcDbRegAppTableRecord
  2
GEVID1214872428
 70
     0
  0
APPID
  5
1C2F
330
9
100
AcDbSymbolTableRecord
100
AcDbRegAppTableRecord
  2
GEVID1214872429
 70
     0
  0
APPID
  5
1C33
330
9
100
AcDbSymbolTableRecord
100
AcDbRegAppTableRecord
  2
GEVID1214872430
 70
     0
  0
APPID
  5
1C3F
330
9
100
AcDbSymbolTableRecord
100
AcDbRegAppTableRecord
  2
GEVID1214872432
 70
     0
  0
APPID
  5
1C4E
330
9
100
AcDbSymbolTableRecord
100
AcDbRegAppTableRecord
  2
GEVID1214872433
 70
     0
  0
APPID
  5
20DC
330
9
100
AcDbSymbolTableRecord
100
AcDbRegAppTableRecord
  2
AcDbDynamicBlockGUID
 70
     0
  0
APPID
  5
20FD
330
9
100
AcDbSymbolTableRecord
100
AcDbRegAppTableRecord
  2
GENIUS_GENOBJ-N-REV_13
 70
     0
  0
APPID
  5
20FE
330
9
100
AcDbSymbolTableRecord
100
AcDbRegAppTableRecord
  2
GENIUS_GENOBJ-N-RSSYM_13
 70
     0
  0
APPID
  5
20FF
330
9
100
AcDbSymbolTableRecord
100
AcDbRegAppTableRecord
  2
GENIUS_GENSYMENT_13
 70
     0
  0
APPID
  5
2100
330
9
100
AcDbSymbolTableRecord
100
AcDbRegAppTableRecord
  2
GENIUS_GENSCSYM_13
 70
     0
  0
APPID
  5
46E6
330
9
100
AcDbSymbolTableRecord
100
AcDbRegAppTableRecord
  2
GEVID1236657337
 70
     0
  0
APPID
  5
4916
330
9
100
AcDbSymbolTableRecord
100
AcDbRegAppTableRecord
  2
ACAUTHENVIRON
 70
     0
  0
ENDTAB
  0
TABLE
  2
DIMSTYLE
  5
A
330
0
100
AcDbSymbolTable
 70
    29
100
AcDbDimStyleTable
 71
     1
340
5AB
  0
DIMSTYLE
105
5AB
330
A
100
AcDbSymbolTableRecord
100
AcDbDimStyleTableRecord
  2
SEISA
 70
     0
  4
"
 40
2.5
 41
2.5
 42
0.625
 43
10.0
 44
0.625
 47
0.1
 48
0.1
 73
     0
 74
     0
 77
     3
 78
     8
 79
     2
 90
     1
140
3.5
141
0.0
143
0.0393701
146
0.71
147
1.5
172
     1
176
     3
177
     3
178
     3
271
     2
272
     2
283
     0
286
     8
340
5D5
341
69
342
69
371
    -1
372
    -1
1001
ACAD_DSTYLE_DIMJAG
1070
   388
1040
1.5
1001
ACAD_DSTYLE_DIMTALN
1070
   392
1070
     1
  0
DIMSTYLE
105
5E9
102
{ACAD_REACTORS
330
654B
330
658B
330
65E0
330
65F8
330
6614
330
666F
330
6687
330
669F
330
6770
330
67A2
330
680E
330
6CB3
330
7C99
330
7E0E
330
7E38
102
}
330
A
100
AcDbSymbolTableRecord
100
AcDbDimStyleTableRecord
  2
SEISA$0
 70
     0
  4
"
 40
2.5
 41
2.5
 42
0.625
 43
10.0
 44
0.625
 47
0.1
 48
0.1
 73
     0
 74
     0
 77
     3
 78
     8
 79
     2
 90
     1
140
3.5
141
0.0
143
0.0393701
146
0.71
147
1.5
172
     1
176
     3
177
     3
178
     3
271
     2
272
     2
283
     0
286
     8
340
5D5
341
69
342
69
371
    -1
372
    -1
  0
DIMSTYLE
105
80C8
330
A
100
AcDbSymbolTableRecord
100
AcDbDimStyleTableRecord
  2
AM_ISO
 70
     0
  4
"
 41
2.5
 42
1.0
 43
10.0
 44
1.0
 47
0.1
 48
0.1
 73
     0
 74
     0
 77
     1
 78
     8
 79
     2
 90
     1
140
3.5
141
0.0
143
0.0393701
146
0.71
147
1.5
172
     1
176
   256
177
   256
178
     2
271
     2
272
     3
274
     4
283
     0
284
     8
340
11
371
    -1
372
    -1
  0
DIMSTYLE
105
80C9
330
A
100
AcDbSymbolTableRecord
100
AcDbDimStyleTableRecord
  2
AM_ISO$3
 70
     0
  4
"
 41
2.5
 42
1.0
 43
10.0
 44
1.0
 47
0.1
 48
0.1
 73
     0
 77
     1
 78
     8
 79
     2
 90
     1
140
3.5
141
0.0
143
0.0393701
146
0.71
147
1.5
176
   256
177
   256
178
     2
271
     2
272
     3
274
     4
283
     0
284
     8
288
     1
289
     0
340
11
371
    -1
372
    -1
  0
DIMSTYLE
105
80CA
330
A
100
AcDbSymbolTableRecord
100
AcDbDimStyleTableRecord
  2
AM_ISO$4
 70
     0
  4
"
 41
2.5
 42
1.0
 43
10.0
 44
1.0
 47
0.1
 48
0.1
 73
     0
 77
     1
 78
     8
 79
     2
 90
     1
140
3.5
141
0.0
143
0.0393701
146
0.71
147
1.5
176
   256
177
   256
178
     2
271
     2
272
     3
274
     4
283
     0
284
     8
288
     1
289
     0
340
11
371
    -1
372
    -1
  0
DIMSTYLE
105
80CB
330
A
100
AcDbSymbolTableRecord
100
AcDbDimStyleTableRecord
  2
AM_ISO$6
 70
     0
  4
"
 41
2.5
 42
1.0
 43
10.0
 44
1.0
 47
0.1
 48
0.1
 73
     0
 74
     0
 78
     8
 79
     2
 90
     1
140
3.5
141
0.0
143
0.0393701
146
0.71
147
1.5
172
     1
176
   256
177
   256
178
     2
271
     2
272
     3
274
     4
283
     0
284
     8
340
11
371
    -1
372
    -1
  0
DIMSTYLE
105
80CC
330
A
100
AcDbSymbolTableRecord
100
AcDbDimStyleTableRecord
  2
AM_ISO$7
 70
     0
  4
"
 41
2.5
 42
1.0
 43
10.0
 44
1.0
 47
0.1
 48
0.1
 73
     0
 74
     0
 77
     1
 78
     8
 79
     2
 90
     1
140
5.0
141
0.0
143
0.0393701
146
0.71
147
1.5
172
     1
176
   256
177
   256
178
     2
271
     2
272
     3
274
     4
283
     0
284
     8
340
11
371
    -1
372
    -1
  0
DIMSTYLE
105
80CD
330
A
100
AcDbSymbolTableRecord
100
AcDbDimStyleTableRecord
  2
AM_ISO$SF
 70
     0
  4
"
 41
2.5
 42
1.0
 43
10.0
 44
1.0
 47
0.1
 48
0.1
 73
     0
 74
     0
 75
     1
 76
     1
 77
     1
 78
     8
 79
     2
 90
     1
140
3.5
141
0.0
143
0.0393701
146
0.71
147
1.5
172
     1
176
   256
177
   256
178
     2
271
     2
272
     3
274
     4
283
     0
284
     8
340
11
371
    -1
372
    -1
  0
DIMSTYLE
105
80CE
330
A
100
AcDbSymbolTableRecord
100
AcDbDimStyleTableRecord
  2
AM_ISO$SH
 70
     0
  4
"
 41
2.5
 42
1.0
 43
10.0
 44
1.0
 47
0.1
 48
0.1
 73
     0
 74
     0
 75
     1
 76
     1
 77
     1
 78
     8
 79
     2
 90
     1
140
3.5
141
0.0
143
0.0393701
144
2.0
146
0.71
147
1.5
172
     1
173
     1
176
   256
177
   256
178
     2
271
     2
272
     3
274
     4
283
     0
284
     8
340
11
343
74
371
    -1
372
    -1
  0
ENDTAB
  0
TABLE
  2
BLOCK_RECORD
  5
1
330
0
100
AcDbSymbolTable
 70
    30
  0
BLOCK_RECORD
  5
1F
102
{ACAD_XDICTIONARY
360
82
102
}
330
1
100
AcDbSymbolTableRecord
100
AcDbBlockTableRecord
  2
*Model_Space
340
22
 70
     0
280
     1
281
     0
  0
BLOCK_RECORD
  5
1B
330
1
100
AcDbSymbolTableRecord
100
AcDbBlockTableRecord
  2
*Paper_Space
340
1E
 70
     0
280
     1
281
     0
  0
BLOCK_RECORD
  5
23
330
1
100
AcDbSymbolTableRecord
100
AcDbBlockTableRecord
  2
*Paper_Space0
340
26
 70
     0
280
     1
281
     0
  0
BLOCK_RECORD
  5
69
330
1
100
AcDbSymbolTableRecord
100
AcDbBlockTableRecord
  2
_Open30
340
0
102
{BLKREFS
331
65D3
331
65D4
331
65F1
331
65F2
331
6625
331
6626
331
6643
331
6644
331
66C3
331
66C4
331
66D5
331
66D6
331
66E7
331
66E8
331
6CCE
331
6CCF
331
7268
331
727F
331
7C0B
331
7C0C
331
7C93
331
7C94
331
7E32
331
7E33
331
7E86
331
7E87
331
7F69
331
7F6A
102
}
 70
     0
280
     1
281
     0
  0
BLOCK_RECORD
  5
74
330
1
100
AcDbSymbolTableRecord
100
AcDbBlockTableRecord
  2
GENAXEH
340
0
 70
     0
280
     1
281
     0
  0
BLOCK_RECORD
  5
563D
102
{ACAD_XDICTIONARY
360
5EBC
102
}
330
1
100
AcDbSymbolTableRecord
100
AcDbBlockTableRecord
  2
ロッカクアナツキプラグ R1／8
340
0
310
2800000020000000200000000100080000000000000400000000000000000000000000000000000000000000000080000080000000808000800000008000800080800000C0C0C000C0DCC000F0CAA6000020400000206000002080000020A0000020C0000020E00000400000004020000040400000406000004080000040A0
310
000040C0000040E00000600000006020000060400000606000006080000060A0000060C0000060E00000800000008020000080400000806000008080000080A0000080C0000080E00000A0000000A0200000A0400000A0600000A0800000A0A00000A0C00000A0E00000C0000000C0200000C0400000C0600000C0800000C0
310
A00000C0C00000C0E00000E0000000E0200000E0400000E0600000E0800000E0A00000E0C00000E0E00040000000400020004000400040006000400080004000A0004000C0004000E00040200000402020004020400040206000402080004020A0004020C0004020E000404000004040200040404000404060004040800040
310
40A0004040C0004040E00040600000406020004060400040606000406080004060A0004060C0004060E00040800000408020004080400040806000408080004080A0004080C0004080E00040A0000040A0200040A0400040A0600040A0800040A0A00040A0C00040A0E00040C0000040C0200040C0400040C0600040C08000
310
40C0A00040C0C00040C0E00040E0000040E0200040E0400040E0600040E0800040E0A00040E0C00040E0E00080000000800020008000400080006000800080008000A0008000C0008000E00080200000802020008020400080206000802080008020A0008020C0008020E00080400000804020008040400080406000804080
310
008040A0008040C0008040E00080600000806020008060400080606000806080008060A0008060C0008060E00080800000808020008080400080806000808080008080A0008080C0008080E00080A0000080A0200080A0400080A0600080A0800080A0A00080A0C00080A0E00080C0000080C0200080C0400080C0600080C0
310
800080C0A00080C0C00080C0E00080E0000080E0200080E0400080E0600080E0800080E0A00080E0C00080E0E000C0000000C0002000C0004000C0006000C0008000C000A000C000C000C000E000C0200000C0202000C0204000C0206000C0208000C020A000C020C000C020E000C0400000C0402000C0404000C0406000C0
310
408000C040A000C040C000C040E000C0600000C0602000C0604000C0606000C0608000C060A000C060C000C060E000C0800000C0802000C0804000C0806000C0808000C080A000C080C000C080E000C0A00000C0A02000C0A04000C0A06000C0A08000C0A0A000C0A0C000C0A0E000C0C00000C0C02000C0C04000C0C06000
310
C0C08000C0C0A000F0FBFF00A4A0A000808080000000FF0000FF000000FFFF00FF000000FF00FF00FFFF0000FFFFFF00000000000000000000000000000000000000000000000000000000000000000000000000000000000000000000000000F9000000000000000000000000000000000000000000000000000000000000
310
00F900000000000000000000000000000000000000000000000000000000000000F900000000000000000000000000000000000000000000000000000000000000F90000000000000000000000000000000000000000000000000000000000FFFFFFFF0000000000000000000000000000000000000000000000000000FFFE
310
FEFEFEFEFEFE00000000000000000000000000000000000000000000FFFEFE000000F9000000FEFE00000000000000000000000000000000000000FEFE0000000000F90000000000FE0000000000000000000000000000000000FFFE000000000000F90000000000FEFF000000000000000000000000000000FFFE00000000
310
000000FF000000000000FEFF00000000000000000000000000FF00FE0000000000FFFFF9FF000000000000FEFF000000000000000000000000FFFE00000000FFFF0000F900FFFF0000000000FEFF00000000000000000000FF00FE000000FF00000000F9000000FF00000000FEFF00000000000000000000FFFE00000000FF
310
00000000F9000000FF00000000FEFF00000000000000F9F9F9F9F9F9F9F9F9FFF9F9F9F9F9F9F9F9FFF9F9F9F9F9F9F9F9F900000000000000FFFE00000000FF00000000F9000000FF00000000FEFF00000000000000000000FFFE00000000FF00000000F9000000FF00000000FEFF00000000000000000000FF00FE000000
310
FF00000000F9000000FF00000000FEFF0000000000000000000000FFFE00000000FFFF0000F90000FF0000000000FEFF0000000000000000000000FF00FE0000000000FFFFF9FFFF0000000000FEFF00000000000000000000000000FFFE00000000000000FF000000000000FEFF000000000000000000000000000000FFFE
310
000000000000F90000000000FEFF0000000000000000000000000000000000FE000000000000F90000000000FE00000000000000000000000000000000000000FEFEFE000000F9000000FEFE000000000000000000000000000000000000000000FFFFFEFEFEFEFEFEFEFF0000000000000000000000000000000000000000
310
00000000FFFFFFFFFFFF0000000000000000000000000000000000000000000000000000000000F900000000000000000000000000000000000000000000000000000000000000F900000000000000000000000000000000000000000000000000000000000000F90000000000000000000000000000000000000000000000
310
0000000000000000F90000000000000000000000000000000000000000000000000000000000000000000000000000000000000000000000
102
{BLKREFS
331
571E
102
}
 70
     4
280
     1
281
     0
  0
BLOCK_RECORD
  5
56DE
102
{ACAD_XDICTIONARY
360
57CD
102
}
330
1
100
AcDbSymbolTableRecord
100
AcDbBlockTableRecord
  2
ケースＡ SSM224
340
0
310
2800000020000000200000000100080000000000000400000000000000000000000000000000000000000000000080000080000000808000800000008000800080800000C0C0C000C0DCC000F0CAA6000020400000206000002080000020A0000020C0000020E00000400000004020000040400000406000004080000040A0
310
000040C0000040E00000600000006020000060400000606000006080000060A0000060C0000060E00000800000008020000080400000806000008080000080A0000080C0000080E00000A0000000A0200000A0400000A0600000A0800000A0A00000A0C00000A0E00000C0000000C0200000C0400000C0600000C0800000C0
310
A00000C0C00000C0E00000E0000000E0200000E0400000E0600000E0800000E0A00000E0C00000E0E00040000000400020004000400040006000400080004000A0004000C0004000E00040200000402020004020400040206000402080004020A0004020C0004020E000404000004040200040404000404060004040800040
310
40A0004040C0004040E00040600000406020004060400040606000406080004060A0004060C0004060E00040800000408020004080400040806000408080004080A0004080C0004080E00040A0000040A0200040A0400040A0600040A0800040A0A00040A0C00040A0E00040C0000040C0200040C0400040C0600040C08000
310
40C0A00040C0C00040C0E00040E0000040E0200040E0400040E0600040E0800040E0A00040E0C00040E0E00080000000800020008000400080006000800080008000A0008000C0008000E00080200000802020008020400080206000802080008020A0008020C0008020E00080400000804020008040400080406000804080
310
008040A0008040C0008040E00080600000806020008060400080606000806080008060A0008060C0008060E00080800000808020008080400080806000808080008080A0008080C0008080E00080A0000080A0200080A0400080A0600080A0800080A0A00080A0C00080A0E00080C0000080C0200080C0400080C0600080C0
310
800080C0A00080C0C00080C0E00080E0000080E0200080E0400080E0600080E0800080E0A00080E0C00080E0E000C0000000C0002000C0004000C0006000C0008000C000A000C000C000C000E000C0200000C0202000C0204000C0206000C0208000C020A000C020C000C020E000C0400000C0402000C0404000C0406000C0
310
408000C040A000C040C000C040E000C0600000C0602000C0604000C0606000C0608000C060A000C060C000C060E000C0800000C0802000C0804000C0806000C0808000C080A000C080C000C080E000C0A00000C0A02000C0A04000C0A06000C0A08000C0A0A000C0A0C000C0A0E000C0C00000C0C02000C0C04000C0C06000
310
C0C08000C0C0A000F0FBFF00A4A0A000808080000000FF0000FF000000FFFF00FF000000FF00FF00FFFF0000FFFFFF000000000000000000000000000000000000000000000000000000000000000000000000000000000000000000FFFFFF0000000000000000000000000000000000000000000000000000000000FF00FF
310
0000000000000000000000000000000000000000000000000000000000FF00FF0000000000000000000000000000000000000000000000000000000000FF00FF0000000000000000000000000000000000000000000000000000000000FF00FFFFFFFFFFFFFF0000000000000000000000000000000000000000000000FF00
310
FF0000000000FF0000000000000000000000000000000000000000000000FF00FF0000000000FF0000000000000000000000000000000000000000000000FF00FF0000000000FF0000000000000000000000000000000000000000000000FF00FF0000000000FF0000000000000000000000000000000000000000000000FF
310
00FF0000000000FF0000000000000000000000000000000000000000000000FFFFFF0000000000FF0000000000000000000000000000000000000000000000F9FFF90000000000FF0000000000000000000000000000000000000000000000FFFEFF0000000000FF0000000000000000000000000000000000000000000000
310
FF00FF0000000000FF0000000000000000000000000000000000000000000000FF00FF0000000000FF0000000000000000000000000000000000000000000000000000000000000000000000000000000000000000000000000000000000000000000000000000000000000000000000000000000000000000000000000000
310
00000000000000000000000000000000000000000000000000000000000000000000000000000000000000000000000000000000000000000000000000000000000000000000000000000000000000000000000000000000000000000000000000000000000000000000000000000000000000000000000000000000000000
310
00000000000000FAFAFA0000000000000000000000000000000000000000000000000000000000FAFAFAFAFAFA000000000000000000000000000000000000000000000000000000FAFA00FA00000000000000000000000000000000000000000000FF0000FFF9F9FFFFFF0000000000000000000000000000000000000000
310
000000FFFFFFFFFFFFFFFFFF0000000000000000000000000000000000000000000000FF00FF0000000000000000000000000000000000000000000000000000F9FFFFFFFFFFF9F900000000000000000000000000000000000000000000000000FFFFFFFFFF00000000000000000000000000000000000000000000000000
310
00000000FFFFFF00000000000000000000000000000000000000000000000000000000000000000000000000000000000000000000000000
102
{BLKREFS
331
571F
102
}
 70
     4
280
     1
281
     0
  0
BLOCK_RECORD
  5
5896
102
{ACAD_XDICTIONARY
360
5976
102
}
330
1
100
AcDbSymbolTableRecord
100
AcDbBlockTableRecord
  2
ケースＢ SSM224
340
0
310
2800000020000000200000000100080000000000000400000000000000000000000000000000000000000000000080000080000000808000800000008000800080800000C0C0C000C0DCC000F0CAA6000020400000206000002080000020A0000020C0000020E00000400000004020000040400000406000004080000040A0
310
000040C0000040E00000600000006020000060400000606000006080000060A0000060C0000060E00000800000008020000080400000806000008080000080A0000080C0000080E00000A0000000A0200000A0400000A0600000A0800000A0A00000A0C00000A0E00000C0000000C0200000C0400000C0600000C0800000C0
310
A00000C0C00000C0E00000E0000000E0200000E0400000E0600000E0800000E0A00000E0C00000E0E00040000000400020004000400040006000400080004000A0004000C0004000E00040200000402020004020400040206000402080004020A0004020C0004020E000404000004040200040404000404060004040800040
310
40A0004040C0004040E00040600000406020004060400040606000406080004060A0004060C0004060E00040800000408020004080400040806000408080004080A0004080C0004080E00040A0000040A0200040A0400040A0600040A0800040A0A00040A0C00040A0E00040C0000040C0200040C0400040C0600040C08000
310
40C0A00040C0C00040C0E00040E0000040E0200040E0400040E0600040E0800040E0A00040E0C00040E0E00080000000800020008000400080006000800080008000A0008000C0008000E00080200000802020008020400080206000802080008020A0008020C0008020E00080400000804020008040400080406000804080
310
008040A0008040C0008040E00080600000806020008060400080606000806080008060A0008060C0008060E00080800000808020008080400080806000808080008080A0008080C0008080E00080A0000080A0200080A0400080A0600080A0800080A0A00080A0C00080A0E00080C0000080C0200080C0400080C0600080C0
310
800080C0A00080C0C00080C0E00080E0000080E0200080E0400080E0600080E0800080E0A00080E0C00080E0E000C0000000C0002000C0004000C0006000C0008000C000A000C000C000C000E000C0200000C0202000C0204000C0206000C0208000C020A000C020C000C020E000C0400000C0402000C0404000C0406000C0
310
408000C040A000C040C000C040E000C0600000C0602000C0604000C0606000C0608000C060A000C060C000C060E000C0800000C0802000C0804000C0806000C0808000C080A000C080C000C080E000C0A00000C0A02000C0A04000C0A06000C0A08000C0A0A000C0A0C000C0A0E000C0C00000C0C02000C0C04000C0C06000
310
C0C08000C0C0A000F0FBFF00A4A0A000808080000000FF0000FF000000FFFF00FF000000FF00FF00FFFF0000FFFFFF00000000000000000000000000000000000000000000000000000000000000000000000000000000000000000000000000FFFFFF00000000000000000000000000000000000000000000000000000000
310
00FF00FF0000000000000000000000000000000000000000000000000000000000F9F9F9F9F9F90000000000000000000000000000000000000000000000000000FF00000000000000000000000000000000000000000000000000FFFFFFFFFFFFFF00000000000000000000000000000000000000000000000000FF000000
310
0000FF00000000000000000000000000000000000000000000000000FF0000000000FF00000000000000000000000000000000000000000000000000FF0000000000FF00000000000000000000000000000000000000000000000000FF0000000000FF00000000000000000000000000000000000000000000000000FF0000
310
000000FF00000000000000000000000000000000000000000000000000FF0000000000FF00000000000000000000000000000000000000000000000000FF0000000000FF00000000000000000000000000000000000000000000000000FF0000000000FF00000000000000000000000000000000000000000000000000FF00
310
00000000FF00000000000000000000000000000000000000000000000000FF0000000000FF000000000000000000000000000000000000000000000000000000000000000000000000000000000000000000000000000000000000000000000000000000000000000000000000000000000000000000000000000000000000
310
00000000000000000000000000000000000000000000000000000000000000000000000000000000000000000000000000000000000000000000000000000000000000000000000000000000000000000000000000000000000000000000000000000000000000000000000000000000000000000000000000000000000000
310
000000000000000000000000000000000000000000000000000000000000000000000000000000000000000000000000000000000000000000000000000000000000000000000000000000000000000000000000000000000000000000000000FFFFFFF9F9FFFF000000000000000000000000000000000000000000000000
310
00FFFFFFFFFFFFFFFFFF0000000000000000000000000000000000000000000000000000000000FF00000000000000000000000000000000000000000000000000000000000000FFFF000000000000000000000000000000000000000000000000000000000000FFFFFF000000000000000000000000000000000000000000
310
0000000000000000FFFFFF000000000000000000000000000000000000000000000000000000000000000000000000000000000000000000
102
{BLKREFS
331
5B10
102
}
 70
     4
280
     1
281
     0
  0
BLOCK_RECORD
  5
59EB
102
{ACAD_XDICTIONARY
360
5A5C
102
}
330
1
100
AcDbSymbolTableRecord
100
AcDbBlockTableRecord
  2
センタＡ SSM224
340
0
310
2800000020000000200000000100080000000000000400000000000000000000000000000000000000000000000080000080000000808000800000008000800080800000C0C0C000C0DCC000F0CAA6000020400000206000002080000020A0000020C0000020E00000400000004020000040400000406000004080000040A0
310
000040C0000040E00000600000006020000060400000606000006080000060A0000060C0000060E00000800000008020000080400000806000008080000080A0000080C0000080E00000A0000000A0200000A0400000A0600000A0800000A0A00000A0C00000A0E00000C0000000C0200000C0400000C0600000C0800000C0
310
A00000C0C00000C0E00000E0000000E0200000E0400000E0600000E0800000E0A00000E0C00000E0E00040000000400020004000400040006000400080004000A0004000C0004000E00040200000402020004020400040206000402080004020A0004020C0004020E000404000004040200040404000404060004040800040
310
40A0004040C0004040E00040600000406020004060400040606000406080004060A0004060C0004060E00040800000408020004080400040806000408080004080A0004080C0004080E00040A0000040A0200040A0400040A0600040A0800040A0A00040A0C00040A0E00040C0000040C0200040C0400040C0600040C08000
310
40C0A00040C0C00040C0E00040E0000040E0200040E0400040E0600040E0800040E0A00040E0C00040E0E00080000000800020008000400080006000800080008000A0008000C0008000E00080200000802020008020400080206000802080008020A0008020C0008020E00080400000804020008040400080406000804080
310
008040A0008040C0008040E00080600000806020008060400080606000806080008060A0008060C0008060E00080800000808020008080400080806000808080008080A0008080C0008080E00080A0000080A0200080A0400080A0600080A0800080A0A00080A0C00080A0E00080C0000080C0200080C0400080C0600080C0
310
800080C0A00080C0C00080C0E00080E0000080E0200080E0400080E0600080E0800080E0A00080E0C00080E0E000C0000000C0002000C0004000C0006000C0008000C000A000C000C000C000E000C0200000C0202000C0204000C0206000C0208000C020A000C020C000C020E000C0400000C0402000C0404000C0406000C0
310
408000C040A000C040C000C040E000C0600000C0602000C0604000C0606000C0608000C060A000C060C000C060E000C0800000C0802000C0804000C0806000C0808000C080A000C080C000C080E000C0A00000C0A02000C0A04000C0A06000C0A08000C0A0A000C0A0C000C0A0E000C0C00000C0C02000C0C04000C0C06000
310
C0C08000C0C0A000F0FBFF00A4A0A000808080000000FF0000FF000000FFFF00FF000000FF00FF00FFFF0000FFFFFF00000000000000000000000000000000000000000000000000000000000000000000000000000000000000000000000000FFFFFF00000000000000000000000000000000000000000000000000000000
310
000000FFFFFFFFFFFFFFFFFF0000000000000000000000000000000000000000000000FFFF000000000000FF0000000000000000000000000000000000000000000000FFFF000000000000FF0000000000000000000000000000000000000000000000FFFF000000000000FF00000000000000000000000000000000000000
310
00000000FFFF000000000000FF0000000000000000000000000000000000000000000000FFFF000000000000FF0000000000000000000000000000000000000000000000FFFF000000000000FF0000000000000000000000000000000000000000000000FFFF000000000000FF000000000000000000000000000000000000
310
0000000000FFFF000000000000FF0000000000000000000000000000000000000000000000FFFF000000000000FF0000000000000000000000000000000000000000000000FFFF000000000000FF0000000000000000000000000000000000000000000000FFFF000000000000FF00000000000000000000FF00000000A4A4
310
000000000000FFFF0000000000FFFF00000000000000000000A4A4A4A4A4A4A400000000000000000000000000FFFF00000000000000000000FF00000000000000000000000000000000000000FFFF00000000000000000000FF00000000000000000000000000000000000000FFFF00000000000000000000FF0000000000
310
0000000000000000000000000000FFFF00000000000000000000FF00000000000000000000000000000000000000FFFF00000000000000000000FF00000000000000000000000000000000000000FFFF00000000000000000000FFFFFFFFFFFFFFFFFFFFFFFFFFFFFFFFFFFFFFFFFFFF00000000000000000000FFFFFFFFFF
310
FFFFFFFFFFFFFFFFFFFFFFFFFFFFFFFFFF00000000000000000000FF0000000000000000000000000000000000000000FF00000000000000000000FF0000000000000000000000000000000000000000FF00000000000000000000FF0000000000000000000000000000000000000000FF00000000000000000000FF000000
310
0000000000000000000000000000000000FF00000000000000000000FFFFFFFFFF00F900FFFFFFFFFFFFFFFFFFFFFFFFFFFF00000000000000000000000000F9FFFFF9FFFF000000000000000000000000000000000000000000000000000000FFFFF9FFFF0000000000000000000000000000000000000000000000000000
310
000000F900000000000000000000000000000000000000000000000000000000000000000000000000000000000000000000000000000000
102
{BLKREFS
331
5A11
102
}
 70
     4
280
     1
281
     0
  0
BLOCK_RECORD
  5
5AC5
102
{ACAD_XDICTIONARY
360
5B31
102
}
330
1
100
AcDbSymbolTableRecord
100
AcDbBlockTableRecord
  2
センタＢ SSM224
340
0
310
2800000020000000200000000100080000000000000400000000000000000000000000000000000000000000000080000080000000808000800000008000800080800000C0C0C000C0DCC000F0CAA6000020400000206000002080000020A0000020C0000020E00000400000004020000040400000406000004080000040A0
310
000040C0000040E00000600000006020000060400000606000006080000060A0000060C0000060E00000800000008020000080400000806000008080000080A0000080C0000080E00000A0000000A0200000A0400000A0600000A0800000A0A00000A0C00000A0E00000C0000000C0200000C0400000C0600000C0800000C0
310
A00000C0C00000C0E00000E0000000E0200000E0400000E0600000E0800000E0A00000E0C00000E0E00040000000400020004000400040006000400080004000A0004000C0004000E00040200000402020004020400040206000402080004020A0004020C0004020E000404000004040200040404000404060004040800040
310
40A0004040C0004040E00040600000406020004060400040606000406080004060A0004060C0004060E00040800000408020004080400040806000408080004080A0004080C0004080E00040A0000040A0200040A0400040A0600040A0800040A0A00040A0C00040A0E00040C0000040C0200040C0400040C0600040C08000
310
40C0A00040C0C00040C0E00040E0000040E0200040E0400040E0600040E0800040E0A00040E0C00040E0E00080000000800020008000400080006000800080008000A0008000C0008000E00080200000802020008020400080206000802080008020A0008020C0008020E00080400000804020008040400080406000804080
310
008040A0008040C0008040E00080600000806020008060400080606000806080008060A0008060C0008060E00080800000808020008080400080806000808080008080A0008080C0008080E00080A0000080A0200080A0400080A0600080A0800080A0A00080A0C00080A0E00080C0000080C0200080C0400080C0600080C0
310
800080C0A00080C0C00080C0E00080E0000080E0200080E0400080E0600080E0800080E0A00080E0C00080E0E000C0000000C0002000C0004000C0006000C0008000C000A000C000C000C000E000C0200000C0202000C0204000C0206000C0208000C020A000C020C000C020E000C0400000C0402000C0404000C0406000C0
310
408000C040A000C040C000C040E000C0600000C0602000C0604000C0606000C0608000C060A000C060C000C060E000C0800000C0802000C0804000C0806000C0808000C080A000C080C000C080E000C0A00000C0A02000C0A04000C0A06000C0A08000C0A0A000C0A0C000C0A0E000C0C00000C0C02000C0C04000C0C06000
310
C0C08000C0C0A000F0FBFF00A4A0A000808080000000FF0000FF000000FFFF00FF000000FF00FF00FFFF0000FFFFFF0000000000000000000000000000000000000000000000000000000000000000000000000000000000000000000000000000000000FFFF00000000000000000000000000000000000000000000000000
310
0000000000FF00FF00000000000000000000000000000000000000000000000000000000F9F9F9FFF9F9000000000000000000000000000000000000000000000000000000FF00FF00000000000000000000000000000000000000000000FFFFFFFFFFFFFFFF00FF00000000000000000000000000000000FFFFFFFFFFFFFF
310
000000000000FF00FF00000000000000000000000000000000FF00000000FFFF000000000000FF00FF00000000000000000000000000000000FF00000000FFFF000000000000FF00FF00000000000000000000000000000000FF00000000FFFF000000000000FF00FF00000000000000000000000000000000FF00000000FF
310
FF000000000000FF00FF00000000000000000000000000000000FF00000000FFFF000000000000FF00FF00000000000000000000000000000000FF00000000FFFF000000000000FF00FF00000000000000000000000000000000FF00000000FFFF000000000000FF00FF00000000000000000000000000000000FF00000000
310
FFFF000000000000FF00FF00000000000000000000000000000000FF00000000FFFF000000000000FFFFFF00000000000000000000000000000000FF00000000000000000000000000FF0000000000000000000000000000000000FF00000000000000000000000000FF0000000000000000000000000000000000FF000000
310
00000000000000000000FF0000000000000000000000000000000000FF00000000000000000000000000FF0000000000000000000000000000000000FFFFFFFFFFFFFFFFFFFFFFFFFFFFFF0000000000000000000000000000000000FFFFFFFFFFFFFFFFFFFFFFFFFFFFFF0000000000000000000000000000000000FF0000
310
0000000000000000000000FF0000000000000000000000000000000000FF00000000000000000000000000FF0000000000000000000000000000000000FF000000000000000000F900FFFFFF0000000000000000000000000000000000FFFFFFFFFFFFFFFFF9FFF9F9FF00FF00000000000000000000000000000000000000
310
00000000FFFFFFFFFFFFFFFFFFFF0000000000000000000000000000000000000000000000000000000000FF00FF0000000000000000000000000000000000000000000000000000000000FFFFFF0000000000000000000000000000000000000000000000000000000000FFFFFF0000000000000000000000000000000000
310
000000000000000000000000FFFF000000000000000000000000000000000000000000000000000000000000000000000000000000000000
102
{BLKREFS
331
5AF1
102
}
 70
     4
280
     1
281
     0
  0
BLOCK_RECORD
  5
5CA6
102
{ACAD_XDICTIONARY
360
5D48
102
}
330
1
100
AcDbSymbolTableRecord
100
AcDbBlockTableRecord
  2
リーマボルト SSM224 M10
340
0
310
2800000020000000200000000100080000000000000400000000000000000000000000000000000000000000000080000080000000808000800000008000800080800000C0C0C000C0DCC000F0CAA6000020400000206000002080000020A0000020C0000020E00000400000004020000040400000406000004080000040A0
310
000040C0000040E00000600000006020000060400000606000006080000060A0000060C0000060E00000800000008020000080400000806000008080000080A0000080C0000080E00000A0000000A0200000A0400000A0600000A0800000A0A00000A0C00000A0E00000C0000000C0200000C0400000C0600000C0800000C0
310
A00000C0C00000C0E00000E0000000E0200000E0400000E0600000E0800000E0A00000E0C00000E0E00040000000400020004000400040006000400080004000A0004000C0004000E00040200000402020004020400040206000402080004020A0004020C0004020E000404000004040200040404000404060004040800040
310
40A0004040C0004040E00040600000406020004060400040606000406080004060A0004060C0004060E00040800000408020004080400040806000408080004080A0004080C0004080E00040A0000040A0200040A0400040A0600040A0800040A0A00040A0C00040A0E00040C0000040C0200040C0400040C0600040C08000
310
40C0A00040C0C00040C0E00040E0000040E0200040E0400040E0600040E0800040E0A00040E0C00040E0E00080000000800020008000400080006000800080008000A0008000C0008000E00080200000802020008020400080206000802080008020A0008020C0008020E00080400000804020008040400080406000804080
310
008040A0008040C0008040E00080600000806020008060400080606000806080008060A0008060C0008060E00080800000808020008080400080806000808080008080A0008080C0008080E00080A0000080A0200080A0400080A0600080A0800080A0A00080A0C00080A0E00080C0000080C0200080C0400080C0600080C0
310
800080C0A00080C0C00080C0E00080E0000080E0200080E0400080E0600080E0800080E0A00080E0C00080E0E000C0000000C0002000C0004000C0006000C0008000C000A000C000C000C000E000C0200000C0202000C0204000C0206000C0208000C020A000C020C000C020E000C0400000C0402000C0404000C0406000C0
310
408000C040A000C040C000C040E000C0600000C0602000C0604000C0606000C0608000C060A000C060C000C060E000C0800000C0802000C0804000C0806000C0808000C080A000C080C000C080E000C0A00000C0A02000C0A04000C0A06000C0A08000C0A0A000C0A0C000C0A0E000C0C00000C0C02000C0C04000C0C06000
310
C0C08000C0C0A000F0FBFF00A4A0A000808080000000FF0000FF000000FFFF00FF000000FF00FF00FFFF0000FFFFFF0000000000000000000000000000000000000000000000000000000000000000000000000000000000000000000000000000000000000000000000000000000000000000000000000000000000000000
310
00000000000000000000000000000000000000000000000000000000000000000000000000000000000000000000000000000000000000000000000000000000000000000000000000000000000000000000000000000000000000000000000000000000000000000000000000000000000000000000000000000000000000
310
0000000000000000000000000000000000000000000000000000000000000000000000000000000000000000000000000000000000000000000000000000000000000000000000000000000000000000000000000000000000000000000000000000000000000000000000000000000000000000FFFFFFFF00000000000000
310
00000000000000000000FFFFFFFFFF0000000000FFFF000000000000000000000000000000000000FFFFFF000000FF0000000000FFFF0000000000000000000000000000000000000000FF000000FF0000000000FFFFFFFFFFFF00000000000000000000000000FFFF00FFFFFFFFFFFFFFFF0000FFFF000000FF0000000000
310
0000000000000000FF0000FF000000FF00FFFF0000FFFF000000FF00000000000000000000000000FFFF00FF000000FF00FFFF0000FFFF000000FF00000000000000000000000000FF00FFFF000000FF00FFFF0000FFFF000000FF00000000000000000000000000FF0000FF000000FF00FFFF0000FFFFFFFFFFFF00000000
310
000000000000000000FFFF00FFFFFFFFFFFFFFFF0000FFFF0000000000000000000000000000000000000000FF000000FF0000000000FFFF000000000000000000000000000000000000FFFFFF000000FF000000000000FFFFFFFF0000000000000000000000000000000000FFFFFFFFFF0000000000000000000000000000
310
00000000000000000000000000000000000000000000000000000000000000000000000000000000000000000000000000000000000000000000000000000000000000000000000000000000000000000000000000000000000000000000000000000000000000000000000000000000000000000000000000000000000000
310
00000000000000000000000000000000000000000000000000000000000000000000000000000000000000000000000000000000000000000000000000000000000000000000000000000000000000000000000000000000000000000000000000000000000000000000000000000000000000000000000000000000000000
310
0000000000000000000000000000000000000000000000000000000000000000000000000000000000000000000000000000000000000000
102
{BLKREFS
331
5CD7
102
}
 70
     4
280
     1
281
     0
  0
BLOCK_RECORD
  5
654C
330
1
100
AcDbSymbolTableRecord
100
AcDbBlockTableRecord
  2
*D12
340
0
 70
     0
280
     1
281
     0
  0
BLOCK_RECORD
  5
658C
330
1
100
AcDbSymbolTableRecord
100
AcDbBlockTableRecord
  2
*D13
340
0
 70
     0
280
     1
281
     0
  0
BLOCK_RECORD
  5
65E1
330
1
100
AcDbSymbolTableRecord
100
AcDbBlockTableRecord
  2
*D14
340
0
 70
     0
280
     1
281
     0
  0
BLOCK_RECORD
  5
65F9
330
1
100
AcDbSymbolTableRecord
100
AcDbBlockTableRecord
  2
*D15
340
0
 70
     0
280
     1
281
     0
  0
BLOCK_RECORD
  5
6615
330
1
100
AcDbSymbolTableRecord
100
AcDbBlockTableRecord
  2
*D16
340
0
 70
     0
280
     1
281
     0
  0
BLOCK_RECORD
  5
6670
330
1
100
AcDbSymbolTableRecord
100
AcDbBlockTableRecord
  2
*D17
340
0
 70
     0
280
     1
281
     0
  0
BLOCK_RECORD
  5
6688
330
1
100
AcDbSymbolTableRecord
100
AcDbBlockTableRecord
  2
*D18
340
0
 70
     0
280
     1
281
     0
  0
BLOCK_RECORD
  5
66A0
330
1
100
AcDbSymbolTableRecord
100
AcDbBlockTableRecord
  2
*D19
340
0
 70
     0
280
     1
281
     0
  0
BLOCK_RECORD
  5
6771
330
1
100
AcDbSymbolTableRecord
100
AcDbBlockTableRecord
  2
*D20
340
0
 70
     0
280
     1
281
     0
  0
BLOCK_RECORD
  5
67A3
330
1
100
AcDbSymbolTableRecord
100
AcDbBlockTableRecord
  2
*D21
340
0
 70
     0
280
     1
281
     0
  0
BLOCK_RECORD
  5
680F
330
1
100
AcDbSymbolTableRecord
100
AcDbBlockTableRecord
  2
*D22
340
0
 70
     0
280
     1
281
     0
  0
BLOCK_RECORD
  5
6CB4
330
1
100
AcDbSymbolTableRecord
100
AcDbBlockTableRecord
  2
*D23
340
0
 70
     0
280
     1
281
     0
  0
BLOCK_RECORD
  5
7178
330
1
100
AcDbSymbolTableRecord
100
AcDbBlockTableRecord
  2
GENDOT
340
0
102
{BLKREFS
331
7269
331
727E
102
}
 70
     0
280
     1
281
     0
  0
BLOCK_RECORD
  5
7C9A
330
1
100
AcDbSymbolTableRecord
100
AcDbBlockTableRecord
  2
*D25
340
0
 70
     0
280
     1
281
     0
  0
BLOCK_RECORD
  5
7E0F
330
1
100
AcDbSymbolTableRecord
100
AcDbBlockTableRecord
  2
*D26
340
0
 70
     0
280
     1
281
     0
  0
BLOCK_RECORD
  5
7E39
330
1
100
AcDbSymbolTableRecord
100
AcDbBlockTableRecord
  2
*D27
340
0
 70
     0
280
     1
281
     0
  0
BLOCK_RECORD
  5
7FFE
330
1
100
AcDbSymbolTableRecord
100
AcDbBlockTableRecord
  2
ケース
340
0
310
2800000020000000200000000100080000000000000400000000000000000000000000000000000000000000000080000080000000808000800000008000800080800000C0C0C000C0DCC000F0CAA6000020400000206000002080000020A0000020C0000020E00000400000004020000040400000406000004080000040A0
310
000040C0000040E00000600000006020000060400000606000006080000060A0000060C0000060E00000800000008020000080400000806000008080000080A0000080C0000080E00000A0000000A0200000A0400000A0600000A0800000A0A00000A0C00000A0E00000C0000000C0200000C0400000C0600000C0800000C0
310
A00000C0C00000C0E00000E0000000E0200000E0400000E0600000E0800000E0A00000E0C00000E0E00040000000400020004000400040006000400080004000A0004000C0004000E00040200000402020004020400040206000402080004020A0004020C0004020E000404000004040200040404000404060004040800040
310
40A0004040C0004040E00040600000406020004060400040606000406080004060A0004060C0004060E00040800000408020004080400040806000408080004080A0004080C0004080E00040A0000040A0200040A0400040A0600040A0800040A0A00040A0C00040A0E00040C0000040C0200040C0400040C0600040C08000
310
40C0A00040C0C00040C0E00040E0000040E0200040E0400040E0600040E0800040E0A00040E0C00040E0E00080000000800020008000400080006000800080008000A0008000C0008000E00080200000802020008020400080206000802080008020A0008020C0008020E00080400000804020008040400080406000804080
310
008040A0008040C0008040E00080600000806020008060400080606000806080008060A0008060C0008060E00080800000808020008080400080806000808080008080A0008080C0008080E00080A0000080A0200080A0400080A0600080A0800080A0A00080A0C00080A0E00080C0000080C0200080C0400080C0600080C0
310
800080C0A00080C0C00080C0E00080E0000080E0200080E0400080E0600080E0800080E0A00080E0C00080E0E000C0000000C0002000C0004000C0006000C0008000C000A000C000C000C000E000C0200000C0202000C0204000C0206000C0208000C020A000C020C000C020E000C0400000C0402000C0404000C0406000C0
310
408000C040A000C040C000C040E000C0600000C0602000C0604000C0606000C0608000C060A000C060C000C060E000C0800000C0802000C0804000C0806000C0808000C080A000C080C000C080E000C0A00000C0A02000C0A04000C0A06000C0A08000C0A0A000C0A0C000C0A0E000C0C00000C0C02000C0C04000C0C06000
310
C0C08000C0C0A000F0FBFF00A4A0A000808080000000FF0000FF000000FFFF00FF000000FF00FF00FFFF0000FFFFFF0000000000000000000000000000000000000000000000000000000000000000000000000000000000000000000000000000000000000000000000000000000000000000000000000000000000000000
310
00000000000000000000000000000000000000000000000000000000000000000000000000000000000000000000000000000000000000000000000000000000000000000000000000000000000000000000000000000000000000000000000000000000000000000000000000000000000000000000000000000000000000
310
0000000000000000000000000000000000000000000000000000000000000000000000000000000000000000000000000000000000000000000000000000000000000000000000000000000000000000000000FC0000FC0000000000FC0000FC00000000000000000000000000000000000000FCFCFCFC0000000000FCFCFC
310
FC00000000000000000000000000000000000000FC0000FC0000000000FC0000FC00000000000000000000000000000000000000FC0000FC0000000000FC0000FC00000000FCFCFCFCFCFCFCFCFCFCFCFCFC0000FC0000FCFCFCFCFCFCFC0000FC000000FC000000000000000000000000000000FC00000000000000000000
310
00FC00FCFCFCFCFCFCFCFCFCFCFCFCFCFCFCFC0000FC0000000000000000000000FC000000FC000000000000000000000000000000FC0000000000000000000000FCFCFCFCFCFCFCFCFCFCFCFCFCFCFCFCFCFC0000FC00000000000000000000000000000000000000000000000000000000000000FC000000000000000000
310
0000000000000000000000000000000000000000000000FC0000000000000000000000000000000000000000000000000000000000000000FC0000000000000000000000000000000000000000000000000000000000000000FC0000000000000000000000000000000000000000000000000000000000000000FCFCFCFCFC
310
FCFCFCFCFCFCFCFCFCFCFCFCFCFCFCFCFCFCFCFCFC00000000000000000000000000000000000000000000000000000000000000000000000000000000000000000000000000000000000000000000000000000000000000000000000000000000000000000000000000000000000000000000000000000000000000000000
310
00000000000000000000000000000000000000000000000000000000000000000000000000000000000000000000000000000000000000000000000000000000000000000000000000000000000000000000000000000000000000000000000000000000000000000000000000000000000000000000000000000000000000
310
0000000000000000000000000000000000000000000000000000000000000000000000000000000000000000000000000000000000000000
102
{BLKREFS
331
8019
102
}
 70
     4
280
     1
281
     1
  0
ENDTAB
  0
ENDSEC
  0
SECTION
  2
BLOCKS
  0
BLOCK
  5
20
330
1F
100
AcDbEntity
  8
0
100
AcDbBlockBegin
  2
*Model_Space
 70
     0
 10
0.0
 20
0.0
 30
0.0
  3
*Model_Space
  1

  0
ENDBLK
  5
21
330
1F
100
AcDbEntity
  8
0
100
AcDbBlockEnd
  0
BLOCK
  5
1C
330
1B
100
AcDbEntity
 67
     1
  8
0
100
AcDbBlockBegin
  2
*Paper_Space
 70
     0
 10
0.0
 20
0.0
 30
0.0
  3
*Paper_Space
  1

  0
ENDBLK
  5
1D
330
1B
100
AcDbEntity
 67
     1
  8
0
100
AcDbBlockEnd
  0
BLOCK
  5
24
330
23
100
AcDbEntity
 67
     1
  8
0
100
AcDbBlockBegin
  2
*Paper_Space0
 70
     0
 10
0.0
 20
0.0
 30
0.0
  3
*Paper_Space0
  1

  0
ENDBLK
  5
25
330
23
100
AcDbEntity
 67
     1
  8
0
100
AcDbBlockEnd
  0
BLOCK
  5
6D
330
69
100
AcDbEntity
  8
0
100
AcDbBlockBegin
  2
_Open30
 70
     0
 10
0.0
 20
0.0
 30
0.0
  3
_Open30
  1

  0
LINE
  5
6A
330
69
100
AcDbEntity
  8
0
  6
ByBlock
 62
     0
370
    -2
100
AcDbLine
 10
-1.0
 20
0.26794919
 30
0.0
 11
0.0
 21
0.0
 31
0.0
  0
LINE
  5
6B
330
69
100
AcDbEntity
  8
0
  6
ByBlock
 62
     0
370
    -2
100
AcDbLine
 10
0.0
 20
0.0
 30
0.0
 11
-1.0
 21
-0.26794919
 31
0.0
  0
LINE
  5
6C
330
69
100
AcDbEntity
  8
0
  6
ByBlock
 62
     0
370
    -2
100
AcDbLine
 10
0.0
 20
0.0
 30
0.0
 11
-1.0
 21
0.0
 31
0.0
  0
ENDBLK
  5
6E
330
69
100
AcDbEntity
  8
0
100
AcDbBlockEnd
  0
BLOCK
  5
76
330
74
100
AcDbEntity
  8
0
100
AcDbBlockBegin
  2
GENAXEH
 70
     0
 10
0.0
 20
0.0
 30
0.0
  3
GENAXEH
  1

  0
LINE
  5
75
330
74
100
AcDbEntity
  8
0
100
AcDbLine
 10
-1.0
 20
0.0
 30
0.0
 11
1.0
 21
0.0
 31
0.0
  0
ENDBLK
  5
77
330
74
100
AcDbEntity
  8
0
100
AcDbBlockEnd
  0
BLOCK
  5
563E
330
563D
100
AcDbEntity
  8
0
100
AcDbBlockBegin
  2
ロッカクアナツキプラグ R1／8
 70
     0
 10
0.0
 20
0.0
 30
0.0
  3
ロッカクアナツキプラグ R1／8
  1

  0
LINE
  5
5640
330
563D
100
AcDbEntity
  8
AM_7 中心線
100
AcDbLine
 10
0.0
 20
-7.080355999999937
 30
0.0
 11
0.0
 21
7.080357000000049
 31
0.0
  0
CIRCLE
  5
5641
330
563D
100
AcDbEntity
  8
AM_0 外形線1
100
AcDbCircle
 10
0.0
 20
0.0
 30
0.0
 40
5.271232
  0
CIRCLE
  5
5642
330
563D
100
AcDbEntity
  8
AM_4 細線
100
AcDbCircle
 10
0.0
 20
0.0
 30
0.0
 40
4.816232
  0
LINE
  5
5643
330
563D
100
AcDbEntity
  8
AM_7 中心線
100
AcDbLine
 10
-6.654649999999945
 20
0.0
 30
0.0
 11
6.654649999999945
 21
0.0
 31
0.0
  0
LINE
  5
5644
330
563D
100
AcDbEntity
  8
AM_0 外形線1
100
AcDbLine
 10
2.178053999999974
 20
-1.257499999999936
 30
0.0
 11
2.178053999999974
 21
1.25750000000005
 31
0.0
  0
LINE
  5
5645
330
563D
100
AcDbEntity
  8
AM_0 外形線1
100
AcDbLine
 10
0.0
 20
-2.514999999999929
 30
0.0
 11
2.178053999999974
 21
-1.257499999999936
 31
0.0
  0
LINE
  5
5646
330
563D
100
AcDbEntity
  8
AM_0 外形線1
100
AcDbLine
 10
-2.178053999999974
 20
-1.257499999999936
 30
0.0
 11
0.0
 21
-2.514999999999929
 31
0.0
  0
LINE
  5
5647
330
563D
100
AcDbEntity
  8
AM_0 外形線1
100
AcDbLine
 10
-2.178053999999974
 20
1.25750000000005
 30
0.0
 11
-2.178053999999974
 21
-1.257499999999936
 31
0.0
  0
LINE
  5
5648
330
563D
100
AcDbEntity
  8
AM_0 外形線1
100
AcDbLine
 10
0.0
 20
2.5150000000001
 30
0.0
 11
-2.178053999999974
 21
1.25750000000005
 31
0.0
  0
LINE
  5
5649
330
563D
100
AcDbEntity
  8
AM_0 外形線1
100
AcDbLine
 10
2.178053999999974
 20
1.25750000000005
 30
0.0
 11
0.0
 21
2.5150000000001
 31
0.0
  0
ENDBLK
  5
563F
330
563D
100
AcDbEntity
  8
0
100
AcDbBlockEnd
  0
BLOCK
  5
56DF
330
56DE
100
AcDbEntity
  8
0
100
AcDbBlockBegin
  2
ケースＡ SSM224
 70
     0
 10
0.0
 20
0.0
 30
0.0
  3
ケースＡ SSM224
  1

  0
LINE
  5
56E1
330
56DE
100
AcDbEntity
  8
AM_0 外形線1
100
AcDbLine
 10
0.0
 20
0.0
 30
0.0
 11
0.0
 21
-111.0
 31
0.0
  0
LINE
  5
56E2
330
56DE
100
AcDbEntity
  8
AM_0 外形線1
100
AcDbLine
 10
15.0
 20
-111.0
 30
0.0
 11
15.0
 21
0.0
 31
0.0
  0
LINE
  5
56E3
330
56DE
100
AcDbEntity
  8
AM_0 外形線1
100
AcDbLine
 10
65.0
 20
-83.0
 30
0.0
 11
65.0
 21
-78.03953299999999
 31
0.0
  0
LINE
  5
56E4
330
56DE
100
AcDbEntity
  8
AM_0 外形線1
100
AcDbLine
 10
18.0
 20
-87.0
 30
0.0
 11
61.0
 21
-87.0
 31
0.0
  0
LINE
  5
56E5
330
56DE
100
AcDbEntity
  8
AM_0 外形線1
100
AcDbLine
 10
1.0
 20
-112.0
 30
0.0
 11
14.0
 21
-112.0
 31
0.0
  0
LINE
  5
56E6
330
56DE
100
AcDbEntity
  8
AM_0 外形線1
100
AcDbLine
 10
0.0
 20
-111.0
 30
0.0
 11
1.0
 21
-112.0
 31
0.0
  0
LINE
  5
56E7
330
56DE
100
AcDbEntity
  8
AM_0 外形線1
100
AcDbLine
 10
14.0
 20
-112.0
 30
0.0
 11
15.0
 21
-111.0
 31
0.0
  0
ARC
  5
56E8
330
56DE
100
AcDbEntity
  8
AM_0 外形線1
100
AcDbCircle
 10
18.0
 20
-90.0
 30
0.0
 40
3.0
100
AcDbArc
 50
90.0
 51
180.0
  0
ARC
  5
56E9
330
56DE
100
AcDbEntity
  8
AM_0 外形線1
100
AcDbCircle
 10
61.0
 20
-83.0
 30
0.0
 40
4.0
100
AcDbArc
 50
270.0
 51
0.0
  0
LINE
  5
56EA
330
56DE
100
AcDbEntity
  8
AM_0 外形線1
100
AcDbLine
 10
65.0
 20
-78.03953299999999
 30
0.0
 11
65.0
 21
0.0
 31
0.0
  0
LINE
  5
56EB
330
56DE
100
AcDbEntity
  8
AM_3 隠れ線
100
AcDbLine
 10
24.0
 20
75.5
 30
0.0
 11
46.0
 21
75.5
 31
0.0
  0
LINE
  5
56EC
330
56DE
100
AcDbEntity
  8
AM_7 中心線
100
AcDbLine
 10
19.0
 20
77.5
 30
0.0
 11
49.0
 21
77.5
 31
0.0
  0
LINE
  5
56ED
330
56DE
100
AcDbEntity
  8
AM_0 外形線1
100
AcDbLine
 10
18.0
 20
87.0
 30
0.0
 11
61.0
 21
87.0
 31
0.0
  0
LINE
  5
56EE
330
56DE
100
AcDbEntity
  8
AM_0 外形線1
100
AcDbLine
 10
21.0
 20
80.0
 30
0.0
 11
47.0
 21
80.0
 31
0.0
  0
LINE
  5
56EF
330
56DE
100
AcDbEntity
  8
AM_0 外形線1
100
AcDbLine
 10
0.0
 20
89.39999999999995
 30
0.0
 11
0.0
 21
95.5
 31
0.0
  0
LINE
  5
56F0
330
56DE
100
AcDbEntity
  8
AM_0 外形線1
100
AcDbLine
 10
15.0
 20
90.0
 30
0.0
 11
15.0
 21
111.0
 31
0.0
  0
LINE
  5
56F1
330
56DE
100
AcDbEntity
  8
AM_0 外形線1
100
AcDbLine
 10
20.0
 20
80.5
 30
0.0
 11
-4.0
 21
80.5
 31
0.0
  0
LINE
  5
56F2
330
56DE
100
AcDbEntity
  8
AM_0 外形線1
100
AcDbLine
 10
-4.0
 20
80.5
 30
0.0
 11
-4.0
 21
76.5
 31
0.0
  0
LWPOLYLINE
  5
56F3
330
56DE
100
AcDbEntity
  8
AM_0 外形線1
100
AcDbPolyline
 90
       73
 70
     0
 43
0.0
 10
1.350000000000022
 20
85.0
 10
1.467659999999909
 20
85.0083719999999
 10
1.58442500000001
 20
85.03342299999998
 10
1.699405999999953
 20
85.0749629999999
 10
1.811726999999904
 20
85.13267600000006
 10
1.920534999999971
 20
85.20612300000005
 10
2.024999999999976
 20
85.29474400000003
 10
2.12432799999999
 20
85.39786600000002
 10
2.21776299999999
 20
85.51470199999995
 10
2.304594000000065
 20
85.64436499999997
 10
2.384159999999951
 20
85.78586699999993
 10
2.455854999999928
 20
85.93813200000013
 10
2.519134000000008
 20
86.10000000000002
 10
2.57351600000004
 20
86.27024000000004
 10
2.618584999999939
 20
86.44755599999996
 10
2.653999999999995
 20
86.63059800000008
 10
2.679489999999987
 20
86.81797400000004
 10
2.694862999999941
 20
87.00825700000008
 10
2.700000000000044
 20
87.19999999999995
 10
2.694862999999941
 20
87.39174300000001
 10
2.679489999999987
 20
87.58202599999995
 10
2.653999999999995
 20
87.76940200000002
 10
2.618584999999939
 20
87.95244400000001
 10
2.57351600000004
 20
88.1297599999999
 10
2.519134000000008
 20
88.30000000000005
 10
2.455854999999928
 20
88.46186799999998
 10
2.384159999999951
 20
88.61413299999993
 10
2.304594000000065
 20
88.75563499999998
 10
2.21776299999999
 20
88.88529800000004
 10
2.12432799999999
 20
89.00213399999996
 10
2.024999999999976
 20
89.10525599999994
 10
1.920534999999971
 20
89.19387699999992
 10
1.811726999999904
 20
89.26732400000004
 10
1.699405999999953
 20
89.32503699999996
 10
1.58442500000001
 20
89.36657699999987
 10
1.467659999999909
 20
89.39162799999996
 10
1.350000000000022
 20
89.39999999999995
 10
1.232340000000021
 20
89.39162799999996
 10
1.115575000000034
 20
89.36657699999987
 10
1.00059400000009
 20
89.32503699999996
 10
0.8882730000000265
 20
89.26732400000004
 10
0.7794650000000729
 20
89.19387699999992
 10
0.6749999999999547
 20
89.10525599999994
 10
0.5756719999999405
 20
89.00213399999996
 10
0.4822370000000548
 20
88.88529800000004
 10
0.3954059999999799
 20
88.75563499999998
 10
0.3158400000000938
 20
88.61413299999993
 10
0.2441450000000032
 20
88.46186799999998
 10
0.1808660000000373
 20
88.30000000000005
 10
0.1264840000000049
 20
88.1297599999999
 10
0.0814149999999927
 20
87.95244400000001
 10
0.0460000000000491
 20
87.76940200000002
 10
0.0205099999999448
 20
87.58202599999995
 10
0.0051369999999906
 20
87.39174300000001
 10
0.0
 20
87.19999999999995
 10
0.0051369999999906
 20
87.00825700000008
 10
0.0205099999999448
 20
86.81797400000004
 10
0.0460000000000491
 20
86.63059800000008
 10
0.0814149999999927
 20
86.44755599999996
 10
0.1264840000000049
 20
86.27024000000004
 10
0.1808660000000373
 20
86.10000000000002
 10
0.2441450000000032
 20
85.93813200000013
 10
0.3158400000000938
 20
85.78586699999993
 10
0.3954059999999799
 20
85.64436499999997
 10
0.4822370000000548
 20
85.51470199999995
 10
0.5756719999999405
 20
85.39786600000002
 10
0.6749999999999547
 20
85.29474400000003
 10
0.7794650000000729
 20
85.20612300000005
 10
0.8882730000000265
 20
85.13267600000006
 10
1.00059400000009
 20
85.0749629999999
 10
1.115575000000034
 20
85.03342299999998
 10
1.232340000000021
 20
85.0083719999999
 10
1.350000000000022
 20
85.0
  0
ARC
  5
56F4
330
56DE
100
AcDbEntity
  8
AM_0 外形線1
100
AcDbCircle
 10
2.200000000000045
 20
88.89999999999998
 30
0.0
 40
0.5
100
AcDbArc
 50
0.0
 51
90.0
  0
ARC
  5
56F5
330
56DE
100
AcDbEntity
  8
AM_0 外形線1
100
AcDbCircle
 10
2.200000000000045
 20
85.5
 30
0.0
 40
0.5
100
AcDbArc
 50
270.0
 51
0.0
  0
LINE
  5
56F6
330
56DE
100
AcDbEntity
  8
AM_0 外形線1
100
AcDbLine
 10
2.200000000000045
 20
89.39999999999995
 30
0.0
 11
0.0
 21
89.39999999999995
 31
0.0
  0
LINE
  5
56F7
330
56DE
100
AcDbEntity
  8
AM_0 外形線1
100
AcDbLine
 10
-3.5
 20
85.0
 30
0.0
 11
2.200000000000045
 21
85.0
 31
0.0
  0
LINE
  5
56F8
330
56DE
100
AcDbEntity
  8
AM_0 外形線1
100
AcDbLine
 10
-4.0
 20
84.50000000000001
 30
0.0
 11
-3.5
 21
85.0
 31
0.0
  0
LINE
  5
56F9
330
56DE
100
AcDbEntity
  8
AM_0 外形線1
100
AcDbLine
 10
-4.0
 20
80.5
 30
0.0
 11
-4.0
 21
84.50000000000001
 31
0.0
  0
LINE
  5
56FA
330
56DE
100
AcDbEntity
  8
AM_0 外形線1
100
AcDbLine
 10
2.700000000000044
 20
85.5
 30
0.0
 11
2.700000000000044
 21
88.89999999999998
 31
0.0
  0
LINE
  5
56FB
330
56DE
100
AcDbEntity
  8
AM_0 外形線1
100
AcDbLine
 10
21.0
 20
76.5
 30
0.0
 11
21.0
 21
79.5
 31
0.0
  0
LINE
  5
56FC
330
56DE
100
AcDbEntity
  8
AM_0 外形線1
100
AcDbLine
 10
24.0
 20
75.5
 30
0.0
 11
22.0
 21
75.5
 31
0.0
  0
LINE
  5
56FD
330
56DE
100
AcDbEntity
  8
AM_0 外形線1
100
AcDbLine
 10
22.0
 20
75.5
 30
0.0
 11
21.0
 21
76.5
 31
0.0
  0
LINE
  5
56FE
330
56DE
100
AcDbEntity
  8
AM_0 外形線1
100
AcDbLine
 10
21.0
 20
76.5
 30
0.0
 11
21.0
 21
73.25861900000006
 31
0.0
  0
ARC
  5
56FF
330
56DE
100
AcDbEntity
  8
AM_0 外形線1
100
AcDbCircle
 10
20.0
 20
79.5
 30
0.0
 40
1.0
100
AcDbArc
 50
0.0
 51
90.0
  0
ARC
  5
5700
330
56DE
100
AcDbEntity
  8
AM_0 外形線1
100
AcDbCircle
 10
18.0
 20
90.0
 30
0.0
 40
3.0
100
AcDbArc
 50
180.0
 51
270.0
  0
LINE
  5
5701
330
56DE
100
AcDbEntity
  8
AM_7 中心線
100
AcDbLine
 10
-24.5
 20
101.0
 30
0.0
 11
32.5
 21
101.0
 31
0.0
  0
LINE
  5
5702
330
56DE
100
AcDbEntity
  8
AM_0 外形線1
100
AcDbLine
 10
0.0
 20
95.5
 30
0.0
 11
15.0
 21
95.5
 31
0.0
  0
LINE
  5
5703
330
56DE
100
AcDbEntity
  8
AM_0 外形線1
100
AcDbLine
 10
0.0
 20
106.5
 30
0.0
 11
15.0
 21
106.5
 31
0.0
  0
LINE
  5
5704
330
56DE
100
AcDbEntity
  8
AM_0 外形線1
100
AcDbLine
 10
1.0
 20
112.0
 30
0.0
 11
14.0
 21
112.0
 31
0.0
  0
LINE
  5
5705
330
56DE
100
AcDbEntity
  8
AM_0 外形線1
100
AcDbLine
 10
0.0
 20
106.5
 30
0.0
 11
0.0
 21
111.0
 31
0.0
  0
LINE
  5
5706
330
56DE
100
AcDbEntity
  8
AM_0 外形線1
100
AcDbLine
 10
0.0
 20
111.0
 30
0.0
 11
1.0
 21
112.0
 31
0.0
  0
LINE
  5
5707
330
56DE
100
AcDbEntity
  8
AM_0 外形線1
100
AcDbLine
 10
14.0
 20
112.0
 30
0.0
 11
15.0
 21
111.0
 31
0.0
  0
LINE
  5
5709
330
56DE
100
AcDbEntity
  8
AM_0 外形線1
100
AcDbLine
 10
54.70000000000005
 20
73.75
 30
0.0
 11
52.0
 21
73.75
 31
0.0
  0
LINE
  5
570A
330
56DE
100
AcDbEntity
  8
AM_3 隠れ線
100
AcDbLine
 10
47.0
 20
78.9009709999999
 30
0.0
 11
47.0
 21
76.5
 31
0.0
  0
LINE
  5
570B
330
56DE
100
AcDbEntity
  8
AM_0 外形線1
100
AcDbLine
 10
52.0
 20
73.75
 30
0.0
 11
52.0
 21
79.5
 31
0.0
  0
LINE
  5
570C
330
56DE
100
AcDbEntity
  8
AM_3 隠れ線
100
AcDbLine
 10
47.0
 20
76.5
 30
0.0
 11
46.0
 21
75.5
 31
0.0
  0
LINE
  5
570D
330
56DE
100
AcDbEntity
  8
AM_0 外形線1
100
AcDbLine
 10
52.0
 20
73.75
 30
0.0
 11
52.0
 21
72.5
 31
0.0
  0
LINE
  5
570E
330
56DE
100
AcDbEntity
  8
AM_0 外形線1
100
AcDbLine
 10
47.0
 20
78.9009709999999
 30
0.0
 11
47.0
 21
79.5
 31
0.0
  0
ARC
  5
570F
330
56DE
100
AcDbEntity
  8
AM_0 外形線1
100
AcDbCircle
 10
48.0
 20
79.5
 30
0.0
 40
1.0
100
AcDbArc
 50
90.0
 51
180.0
  0
LINE
  5
5710
330
56DE
100
AcDbEntity
  8
AM_0 外形線1
100
AcDbLine
 10
51.0
 20
80.5
 30
0.0
 11
48.0
 21
80.5
 31
0.0
  0
ARC
  5
5711
330
56DE
100
AcDbEntity
  8
AM_0 外形線1
100
AcDbCircle
 10
51.0
 20
79.5
 30
0.0
 40
1.0
100
AcDbArc
 50
0.0
 51
90.0
  0
LINE
  5
5712
330
56DE
100
AcDbEntity
  8
AM_0 外形線1
100
AcDbLine
 10
65.0
 20
83.0
 30
0.0
 11
65.0
 21
73.75
 31
0.0
  0
LINE
  5
5713
330
56DE
100
AcDbEntity
  8
AM_0 外形線1
100
AcDbLine
 10
65.0
 20
73.75
 30
0.0
 11
62.29999999999995
 21
73.75
 31
0.0
  0
LWPOLYLINE
  5
5714
330
56DE
100
AcDbEntity
  8
AM_0 外形線1
100
AcDbPolyline
 90
       73
 70
     0
 43
0.0
 10
62.29999999999995
 20
74.85000000000002
 10
62.28554000000007
 20
75.05481599999995
 10
62.24226900000008
 20
75.25807300000008
 10
62.17051800000001
 20
75.45822499999997
 10
62.07083199999999
 20
75.65374699999996
 10
61.94397000000003
 20
75.84315300000003
 10
61.79089699999997
 20
76.02499999999998
 10
61.61277800000005
 20
76.19790499999997
 10
61.41096900000001
 20
76.36055099999999
 10
61.187006
 20
76.51170100000001
 10
60.94259299999999
 20
76.65020400000003
 10
60.67959000000008
 20
76.77500700000007
 10
60.39999999999999
 20
76.88515999999992
 10
60.105949
 20
76.97982300000003
 10
59.79967699999997
 20
77.05827800000007
 10
59.48351200000002
 20
77.11992599999994
 10
59.15986299999997
 20
77.16429800000003
 10
58.83119199999999
 20
77.191058
 10
58.5
 20
77.19999999999993
 10
58.16880800000001
 20
77.191058
 10
57.84013700000002
 20
77.16429800000003
 10
57.51648799999998
 20
77.11992599999994
 10
57.20032300000003
 20
77.05827800000007
 10
56.89405099999999
 20
76.97982300000003
 10
56.60000000000001
 20
76.88515999999992
 10
56.32040999999992
 20
76.77500700000007
 10
56.05740700000001
 20
76.65020400000003
 10
55.81299399999999
 20
76.51170100000001
 10
55.58903099999998
 20
76.36055099999999
 10
55.38722199999995
 20
76.19790499999997
 10
55.20910300000003
 20
76.02499999999998
 10
55.05602999999997
 20
75.84315300000003
 10
54.929168
 20
75.65374699999996
 10
54.82948199999999
 20
75.45822499999997
 10
54.75773099999992
 20
75.25807300000008
 10
54.71445999999993
 20
75.05481599999995
 10
54.70000000000005
 20
74.85000000000002
 10
54.71445999999993
 20
74.64518399999997
 10
54.75773099999992
 20
74.44192699999994
 10
54.82948199999999
 20
74.24177500000006
 10
54.929168
 20
74.04625300000009
 10
55.05602999999997
 20
73.8568469999999
 10
55.20910300000003
 20
73.67500000000006
 10
55.38722199999995
 20
73.50209499999994
 10
55.58903099999998
 20
73.33944899999996
 10
55.81299399999999
 20
73.18829900000003
 10
56.05740700000001
 20
73.04979600000002
 10
56.32040999999992
 20
72.92499299999997
 10
56.60000000000001
 20
72.81484000000012
 10
56.89405099999999
 20
72.72017700000003
 10
57.20032300000003
 20
72.64172199999996
 10
57.51648799999998
 20
72.58007400000008
 10
57.84013700000002
 20
72.53570200000002
 10
58.16880800000001
 20
72.50894200000004
 10
58.5
 20
72.5
 10
58.83119199999999
 20
72.50894200000004
 10
59.15986299999997
 20
72.53570200000002
 10
59.48351200000002
 20
72.58007400000008
 10
59.79967699999997
 20
72.64172199999996
 10
60.105949
 20
72.72017700000003
 10
60.39999999999999
 20
72.81484000000012
 10
60.67959000000008
 20
72.92499299999997
 10
60.94259299999999
 20
73.04979600000002
 10
61.187006
 20
73.18829900000003
 10
61.41096900000001
 20
73.33944899999996
 10
61.61277800000005
 20
73.50209499999994
 10
61.79089699999997
 20
73.67500000000006
 10
61.94397000000003
 20
73.8568469999999
 10
62.07083199999999
 20
74.04625300000009
 10
62.17051800000001
 20
74.24177500000006
 10
62.24226900000008
 20
74.44192699999994
 10
62.28554000000007
 20
74.64518399999997
 10
62.29999999999995
 20
74.85000000000002
  0
LINE
  5
5715
330
56DE
100
AcDbEntity
  8
AM_0 外形線1
100
AcDbLine
 10
54.70000000000005
 20
76.69999999999993
 30
0.0
 11
54.70000000000005
 21
73.75
 31
0.0
  0
ARC
  5
5716
330
56DE
100
AcDbEntity
  8
AM_0 外形線1
100
AcDbCircle
 10
55.20000000000004
 20
76.69999999999993
 30
0.0
 40
0.5
100
AcDbArc
 50
90.0
 51
180.0
  0
LINE
  5
5717
330
56DE
100
AcDbEntity
  8
AM_0 外形線1
100
AcDbLine
 10
61.79999999999996
 20
77.19999999999993
 30
0.0
 11
55.20000000000004
 21
77.19999999999993
 31
0.0
  0
ARC
  5
5718
330
56DE
100
AcDbEntity
  8
AM_0 外形線1
100
AcDbCircle
 10
61.79999999999996
 20
76.69999999999993
 30
0.0
 40
0.5
100
AcDbArc
 50
0.0
 51
90.0
  0
LINE
  5
5719
330
56DE
100
AcDbEntity
  8
AM_0 外形線1
100
AcDbLine
 10
62.29999999999995
 20
73.75
 30
0.0
 11
62.29999999999995
 21
76.69999999999993
 31
0.0
  0
LINE
  5
571A
330
56DE
100
AcDbEntity
  8
AM_0 外形線1
100
AcDbLine
 10
62.29999999999995
 20
73.75
 30
0.0
 11
62.29999999999995
 21
72.5
 31
0.0
  0
LINE
  5
571B
330
56DE
100
AcDbEntity
  8
AM_0 外形線1
100
AcDbLine
 10
54.70000000000005
 20
73.75
 30
0.0
 11
54.70000000000005
 21
72.5
 31
0.0
  0
LINE
  5
571C
330
56DE
100
AcDbEntity
  8
AM_0 外形線1
100
AcDbLine
 10
65.0
 20
73.75
 30
0.0
 11
65.0
 21
72.5
 31
0.0
  0
ARC
  5
571D
330
56DE
100
AcDbEntity
  8
AM_0 外形線1
100
AcDbCircle
 10
61.0
 20
83.0
 30
0.0
 40
4.0
100
AcDbArc
 50
0.0
 51
90.0
  0
INSERT
  5
571E
330
56DE
100
AcDbEntity
  8
AM_5 寸法線
100
AcDbBlockReference
  2
ロッカクアナツキプラグ R1／8
 10
7.5
 20
-27.30656800000009
 30
0.0
  0
ENDBLK
  5
56E0
330
56DE
100
AcDbEntity
  8
0
100
AcDbBlockEnd
  0
BLOCK
  5
5897
330
5896
100
AcDbEntity
  8
0
100
AcDbBlockBegin
  2
ケースＢ SSM224
 70
     0
 10
0.0
 20
0.0
 30
0.0
  3
ケースＢ SSM224
  1

  0
LINE
  5
5899
330
5896
100
AcDbEntity
  8
AM_0 外形線1
100
AcDbLine
 10
-15.0
 20
-111.0
 30
0.0
 11
-15.0
 21
0.0
 31
0.0
  0
LINE
  5
589A
330
5896
100
AcDbEntity
  8
AM_0 外形線1
100
AcDbLine
 10
-65.0
 20
-83.0
 30
0.0
 11
-65.0
 21
0.0
 31
0.0
  0
LINE
  5
589B
330
5896
100
AcDbEntity
  8
AM_0 外形線1
100
AcDbLine
 10
-18.0
 20
-87.0
 30
0.0
 11
-61.0
 21
-87.0
 31
0.0
  0
ARC
  5
589C
330
5896
100
AcDbEntity
  8
AM_0 外形線1
100
AcDbCircle
 10
-61.0
 20
-83.0
 30
0.0
 40
4.0
100
AcDbArc
 50
180.0
 51
270.0
  0
LINE
  5
589D
330
5896
100
AcDbEntity
  8
AM_7 中心線
100
AcDbLine
 10
21.41330363795487
 20
-101.0
 30
0.0
 11
-21.41330363795487
 21
-101.0
 31
0.0
  0
LINE
  5
589E
330
5896
100
AcDbEntity
  8
AM_0 外形線1
100
AcDbLine
 10
-1.0
 20
-112.0
 30
0.0
 11
-14.0
 21
-112.0
 31
0.0
  0
LINE
  5
589F
330
5896
100
AcDbEntity
  8
AM_0 外形線1
100
AcDbLine
 10
-14.0
 20
-112.0
 30
0.0
 11
-15.0
 21
-111.0
 31
0.0
  0
ARC
  5
58A0
330
5896
100
AcDbEntity
  8
AM_0 外形線1
100
AcDbCircle
 10
-18.0
 20
-90.0
 30
0.0
 40
3.0
100
AcDbArc
 50
0.0
 51
90.0
  0
LINE
  5
58A1
330
5896
100
AcDbEntity
  8
AM_0 外形線1
100
AcDbLine
 10
0.0
 20
-111.0
 30
0.0
 11
-1.0
 21
-112.0
 31
0.0
  0
LINE
  5
58A2
330
5896
100
AcDbEntity
  8
AM_0 外形線1
100
AcDbLine
 10
-51.0
 20
80.5
 30
0.0
 11
-48.0
 21
80.5
 31
0.0
  0
LINE
  5
58A3
330
5896
100
AcDbEntity
  8
AM_0 外形線1
100
AcDbLine
 10
-18.0
 20
87.0
 30
0.0
 11
-61.0
 21
87.0
 31
0.0
  0
LINE
  5
58A4
330
5896
100
AcDbEntity
  8
AM_0 外形線1
100
AcDbLine
 10
-52.0
 20
73.75
 30
0.0
 11
-52.0
 21
79.5
 31
0.0
  0
LINE
  5
58A5
330
5896
100
AcDbEntity
  8
AM_0 外形線1
100
AcDbLine
 10
-65.0
 20
83.0
 30
0.0
 11
-65.0
 21
73.75
 31
0.0
  0
LWPOLYLINE
  5
58A6
330
5896
100
AcDbEntity
  8
AM_0 外形線1
100
AcDbPolyline
 90
       73
 70
     0
 43
0.0
 10
-62.29999999999995
 20
74.85000000000002
 10
-62.28554000000007
 20
74.64518399999997
 10
-62.24226900000008
 20
74.44192699999994
 10
-62.17051800000001
 20
74.24177500000006
 10
-62.07083199999999
 20
74.04625300000009
 10
-61.94397000000003
 20
73.8568469999999
 10
-61.79089699999997
 20
73.67500000000006
 10
-61.61277800000005
 20
73.50209499999994
 10
-61.41096900000001
 20
73.33944899999996
 10
-61.187006
 20
73.18829900000003
 10
-60.94259299999999
 20
73.04979600000002
 10
-60.67959000000008
 20
72.92499299999997
 10
-60.39999999999999
 20
72.81484000000012
 10
-60.105949
 20
72.72017700000003
 10
-59.79967699999997
 20
72.64172199999996
 10
-59.48351200000002
 20
72.58007400000008
 10
-59.15986299999997
 20
72.53570200000002
 10
-58.83119199999999
 20
72.50894200000004
 10
-58.5
 20
72.5
 10
-58.16880800000001
 20
72.50894200000004
 10
-57.84013700000002
 20
72.53570200000002
 10
-57.51648799999998
 20
72.58007400000008
 10
-57.20032300000003
 20
72.64172199999996
 10
-56.89405099999999
 20
72.72017700000003
 10
-56.60000000000001
 20
72.81484000000012
 10
-56.32040999999992
 20
72.92499299999997
 10
-56.05740700000001
 20
73.04979600000002
 10
-55.81299399999999
 20
73.18829900000003
 10
-55.58903099999998
 20
73.33944899999996
 10
-55.38722199999995
 20
73.50209499999994
 10
-55.20910300000003
 20
73.67500000000006
 10
-55.05602999999997
 20
73.8568469999999
 10
-54.929168
 20
74.04625300000009
 10
-54.82948199999999
 20
74.24177500000006
 10
-54.75773099999992
 20
74.44192699999994
 10
-54.71445999999993
 20
74.64518399999997
 10
-54.70000000000005
 20
74.85000000000002
 10
-54.71445999999993
 20
75.05481599999995
 10
-54.75773099999992
 20
75.25807300000008
 10
-54.82948199999999
 20
75.45822499999997
 10
-54.929168
 20
75.65374699999996
 10
-55.05602999999997
 20
75.84315300000003
 10
-55.20910300000003
 20
76.02499999999998
 10
-55.38722199999995
 20
76.19790499999997
 10
-55.58903099999998
 20
76.36055099999999
 10
-55.81299399999999
 20
76.51170100000001
 10
-56.05740700000001
 20
76.65020400000003
 10
-56.32040999999992
 20
76.77500700000007
 10
-56.60000000000001
 20
76.88515999999992
 10
-56.89405099999999
 20
76.97982300000003
 10
-57.20032300000003
 20
77.05827800000007
 10
-57.51648799999998
 20
77.11992599999994
 10
-57.84013700000002
 20
77.16429800000003
 10
-58.16880800000001
 20
77.191058
 10
-58.5
 20
77.19999999999993
 10
-58.83119199999999
 20
77.191058
 10
-59.15986299999997
 20
77.16429800000003
 10
-59.48351200000002
 20
77.11992599999994
 10
-59.79967699999997
 20
77.05827800000007
 10
-60.105949
 20
76.97982300000003
 10
-60.39999999999999
 20
76.88515999999992
 10
-60.67959000000008
 20
76.77500700000007
 10
-60.94259299999999
 20
76.65020400000003
 10
-61.187006
 20
76.51170100000001
 10
-61.41096900000001
 20
76.36055099999999
 10
-61.61277800000005
 20
76.19790499999997
 10
-61.79089699999997
 20
76.02499999999998
 10
-61.94397000000003
 20
75.84315300000003
 10
-62.07083199999999
 20
75.65374699999996
 10
-62.17051800000001
 20
75.45822499999997
 10
-62.24226900000008
 20
75.25807300000008
 10
-62.28554000000007
 20
75.05481599999995
 10
-62.29999999999995
 20
74.85000000000002
  0
LINE
  5
58A7
330
5896
100
AcDbEntity
  8
AM_0 外形線1
100
AcDbLine
 10
-61.79999999999996
 20
77.19999999999993
 30
0.0
 11
-55.20000000000004
 21
77.19999999999993
 31
0.0
  0
ARC
  5
58A8
330
5896
100
AcDbEntity
  8
AM_0 外形線1
100
AcDbCircle
 10
-61.79999999999996
 20
76.69999999999993
 30
0.0
 40
0.5
100
AcDbArc
 50
90.0
 51
180.0
  0
LINE
  5
58A9
330
5896
100
AcDbEntity
  8
AM_0 外形線1
100
AcDbLine
 10
-62.29999999999995
 20
73.75
 30
0.0
 11
-62.29999999999995
 21
76.69999999999993
 31
0.0
  0
LINE
  5
58AA
330
5896
100
AcDbEntity
  8
AM_0 外形線1
100
AcDbLine
 10
-65.0
 20
73.75
 30
0.0
 11
-62.29999999999995
 21
73.75
 31
0.0
  0
LINE
  5
58AB
330
5896
100
AcDbEntity
  8
AM_0 外形線1
100
AcDbLine
 10
-62.29999999999995
 20
73.75
 30
0.0
 11
-62.29999999999995
 21
72.5
 31
0.0
  0
LINE
  5
58AC
330
5896
100
AcDbEntity
  8
AM_0 外形線1
100
AcDbLine
 10
-65.0
 20
73.75
 30
0.0
 11
-65.0
 21
72.5
 31
0.0
  0
LINE
  5
58AD
330
5896
100
AcDbEntity
  8
AM_0 外形線1
100
AcDbLine
 10
-54.70000000000005
 20
73.75
 30
0.0
 11
-52.0
 21
73.75
 31
0.0
  0
LINE
  5
58AE
330
5896
100
AcDbEntity
  8
AM_0 外形線1
100
AcDbLine
 10
-54.70000000000005
 20
76.69999999999993
 30
0.0
 11
-54.70000000000005
 21
73.75
 31
0.0
  0
ARC
  5
58AF
330
5896
100
AcDbEntity
  8
AM_0 外形線1
100
AcDbCircle
 10
-55.20000000000004
 20
76.69999999999993
 30
0.0
 40
0.5
100
AcDbArc
 50
0.0
 51
90.0
  0
LINE
  5
58B0
330
5896
100
AcDbEntity
  8
AM_0 外形線1
100
AcDbLine
 10
-52.0
 20
73.75
 30
0.0
 11
-52.0
 21
72.5
 31
0.0
  0
LINE
  5
58B1
330
5896
100
AcDbEntity
  8
AM_0 外形線1
100
AcDbLine
 10
-54.70000000000005
 20
73.75
 30
0.0
 11
-54.70000000000005
 21
72.5
 31
0.0
  0
ARC
  5
58B2
330
5896
100
AcDbEntity
  8
AM_0 外形線1
100
AcDbCircle
 10
-61.0
 20
83.0
 30
0.0
 40
4.0
100
AcDbArc
 50
90.0
 51
180.0
  0
ARC
  5
58B3
330
5896
100
AcDbEntity
  8
AM_0 外形線1
100
AcDbCircle
 10
-51.0
 20
79.5
 30
0.0
 40
1.0
100
AcDbArc
 50
90.0
 51
180.0
  0
LINE
  5
58B4
330
5896
100
AcDbEntity
  8
AM_0 外形線1
100
AcDbLine
 10
-15.0
 20
90.0
 30
0.0
 11
-15.0
 21
111.0
 31
0.0
  0
LINE
  5
58B5
330
5896
100
AcDbEntity
  8
AM_0 外形線1
100
AcDbLine
 10
-20.0
 20
80.5
 30
0.0
 11
-5.0
 21
80.5
 31
0.0
  0
LINE
  5
58B6
330
5896
100
AcDbEntity
  8
AM_3 隠れ線
100
AcDbLine
 10
-24.0
 20
75.5
 30
0.0
 11
-46.0
 21
75.5
 31
0.0
  0
LINE
  5
58B7
330
5896
100
AcDbEntity
  8
AM_7 中心線
100
AcDbLine
 10
-19.0
 20
77.5
 30
0.0
 11
-49.0
 21
77.5
 31
0.0
  0
LINE
  5
58B8
330
5896
100
AcDbEntity
  8
AM_0 外形線1
100
AcDbLine
 10
-21.0
 20
80.0
 30
0.0
 11
-47.0
 21
80.0
 31
0.0
  0
LINE
  5
58B9
330
5896
100
AcDbEntity
  8
AM_3 隠れ線
100
AcDbLine
 10
-47.0
 20
78.9009709999999
 30
0.0
 11
-47.0
 21
76.5
 31
0.0
  0
LINE
  5
58BA
330
5896
100
AcDbEntity
  8
AM_3 隠れ線
100
AcDbLine
 10
-47.0
 20
76.5
 30
0.0
 11
-46.0
 21
75.5
 31
0.0
  0
LINE
  5
58BB
330
5896
100
AcDbEntity
  8
AM_0 外形線1
100
AcDbLine
 10
-47.0
 20
78.9009709999999
 30
0.0
 11
-47.0
 21
79.5
 31
0.0
  0
ARC
  5
58BC
330
5896
100
AcDbEntity
  8
AM_0 外形線1
100
AcDbCircle
 10
-48.0
 20
79.5
 30
0.0
 40
1.0
100
AcDbArc
 50
0.0
 51
90.0
  0
LINE
  5
58BD
330
5896
100
AcDbEntity
  8
AM_0 外形線1
100
AcDbLine
 10
-21.0
 20
76.5
 30
0.0
 11
-21.0
 21
79.5
 31
0.0
  0
LINE
  5
58BE
330
5896
100
AcDbEntity
  8
AM_0 外形線1
100
AcDbLine
 10
-24.0
 20
75.5
 30
0.0
 11
-22.0
 21
75.5
 31
0.0
  0
LINE
  5
58BF
330
5896
100
AcDbEntity
  8
AM_0 外形線1
100
AcDbLine
 10
-22.0
 20
75.5
 30
0.0
 11
-21.0
 21
76.5
 31
0.0
  0
LINE
  5
58C0
330
5896
100
AcDbEntity
  8
AM_0 外形線1
100
AcDbLine
 10
-21.0
 20
76.5
 30
0.0
 11
-21.0
 21
73.25861900000006
 31
0.0
  0
ARC
  5
58C1
330
5896
100
AcDbEntity
  8
AM_0 外形線1
100
AcDbCircle
 10
-20.0
 20
79.5
 30
0.0
 40
1.0
100
AcDbArc
 50
90.0
 51
180.0
  0
ARC
  5
58C2
330
5896
100
AcDbEntity
  8
AM_0 外形線1
100
AcDbCircle
 10
-18.0
 20
90.0
 30
0.0
 40
3.0
100
AcDbArc
 50
270.0
 51
0.0
  0
LINE
  5
58C3
330
5896
100
AcDbEntity
  8
AM_0 外形線1
100
AcDbLine
 10
-0.5
 20
85.0
 30
0.0
 11
0.0
 21
85.5
 31
0.0
  0
LINE
  5
58C4
330
5896
100
AcDbEntity
  8
AM_0 外形線1
100
AcDbLine
 10
-5.0
 20
80.5
 30
0.0
 11
-5.0
 21
85.0
 31
0.0
  0
LINE
  5
58C5
330
5896
100
AcDbEntity
  8
AM_0 外形線1
100
AcDbLine
 10
-1.0
 20
112.0
 30
0.0
 11
-14.0
 21
112.0
 31
0.0
  0
LINE
  5
58CD
330
5896
100
AcDbEntity
  8
AM_0 外形線1
100
AcDbLine
 10
-14.0
 20
112.0
 30
0.0
 11
-15.0
 21
111.0
 31
0.0
  0
LINE
  5
58CE
330
5896
100
AcDbEntity
  8
AM_0 外形線1
100
AcDbLine
 10
0.0
 20
111.0
 30
0.0
 11
-1.0
 21
112.0
 31
0.0
  0
LINE
  5
596F
330
5896
100
AcDbEntity
  8
AM_0 外形線1
100
AcDbLine
 10
0.0
 20
111.0
 30
0.0
 11
0.0
 21
106.5
 31
0.0
  0
LINE
  5
5970
330
5896
100
AcDbEntity
  8
AM_0 外形線1
100
AcDbLine
 10
-5.0
 20
85.0
 30
0.0
 11
-0.5
 21
85.0
 31
0.0
  0
LINE
  5
5971
330
5896
100
AcDbEntity
  8
AM_0 外形線1
100
AcDbLine
 10
0.0
 20
106.5
 30
0.0
 11
-15.0
 21
106.5
 31
0.0
  0
LINE
  5
5972
330
5896
100
AcDbEntity
  8
AM_0 外形線1
100
AcDbLine
 10
0.0
 20
95.5
 30
0.0
 11
-15.0
 21
95.5
 31
0.0
  0
LINE
  5
5973
330
5896
100
AcDbEntity
  8
AM_0 外形線1
100
AcDbLine
 10
0.0
 20
95.5
 30
0.0
 11
0.0
 21
85.5
 31
0.0
  0
LINE
  5
5974
330
5896
100
AcDbEntity
  8
AM_0 外形線1
100
AcDbLine
 10
0.0
 20
-111.0
 30
0.0
 11
0.0
 21
0.0
 31
0.0
  0
LINE
  5
5975
330
5896
100
AcDbEntity
  8
AM_0 外形線1
100
AcDbLine
 10
-5.0
 20
80.5
 30
0.0
 11
-5.0
 21
76.0
 31
0.0
  0
ENDBLK
  5
5898
330
5896
100
AcDbEntity
  8
0
100
AcDbBlockEnd
  0
BLOCK
  5
59EC
330
59EB
100
AcDbEntity
  8
0
100
AcDbBlockBegin
  2
センタＡ SSM224
 70
     0
 10
0.0
 20
0.0
 30
0.0
  3
センタＡ SSM224
  1

  0
ARC
  5
59EE
330
59EB
100
AcDbEntity
  8
AM_0 外形線1
100
AcDbCircle
 10
108.0
 20
67.89999999999998
 30
0.0
 40
4.0
100
AcDbArc
 50
0.0
 51
90.0
  0
ARC
  5
59EF
330
59EB
100
AcDbEntity
  8
AM_0 外形線1
100
AcDbCircle
 10
108.0
 20
-67.89999999999998
 30
0.0
 40
4.0
100
AcDbArc
 50
270.0
 51
0.0
  0
LINE
  5
59F0
330
59EB
100
AcDbEntity
  8
AM_0 外形線1
100
AcDbLine
 10
0.0
 20
70.5
 30
0.0
 11
0.0
 21
0.0
 31
0.0
  0
LINE
  5
59F1
330
59EB
100
AcDbEntity
  8
AM_3 隠れ線
100
AcDbLine
 10
29.0
 20
4.25
 30
0.0
 11
0.0
 21
4.25
 31
0.0
  0
LINE
  5
59F2
330
59EB
100
AcDbEntity
  8
AM_3 隠れ線
100
AcDbLine
 10
0.0
 20
5.0
 30
0.0
 11
24.0
 21
5.0
 31
0.0
  0
LINE
  5
59F3
330
59EB
100
AcDbEntity
  8
AM_3 隠れ線
100
AcDbLine
 10
24.0
 20
5.0
 30
0.0
 11
24.43301299999996
 21
4.25
 31
0.0
  0
LINE
  5
59F4
330
59EB
100
AcDbEntity
  8
AM_3 隠れ線
100
AcDbLine
 10
24.43301299999996
 20
4.25
 30
0.0
 11
24.43301299999996
 21
0.0
 31
0.0
  0
LINE
  5
59F5
330
59EB
100
AcDbEntity
  8
AM_3 隠れ線
100
AcDbLine
 10
24.0
 20
5.0
 30
0.0
 11
24.0
 21
0.0
 31
0.0
  0
LINE
  5
59F6
330
59EB
100
AcDbEntity
  8
AM_0 外形線1
100
AcDbLine
 10
73.0
 20
-71.89999999999997
 30
0.0
 11
73.0
 21
0.0
 31
0.0
  0
LINE
  5
59F7
330
59EB
100
AcDbEntity
  8
AM_0 外形線1
100
AcDbLine
 10
71.0
 20
-72.5
 30
0.0
 11
71.0
 21
0.0
 31
0.0
  0
LINE
  5
59F8
330
59EB
100
AcDbEntity
  8
AM_0 外形線1
100
AcDbLine
 10
59.0
 20
-72.5
 30
0.0
 11
71.0
 21
-72.5
 31
0.0
  0
LINE
  5
59F9
330
59EB
100
AcDbEntity
  8
AM_0 外形線1
100
AcDbLine
 10
73.0
 20
-71.89999999999997
 30
0.0
 11
108.0
 21
-71.89999999999997
 31
0.0
  0
LINE
  5
59FA
330
59EB
100
AcDbEntity
  8
AM_0 外形線1
100
AcDbLine
 10
71.0
 20
-72.5
 30
0.0
 11
73.0
 21
-71.89999999999997
 31
0.0
  0
LINE
  5
59FB
330
59EB
100
AcDbEntity
  8
AM_3 隠れ線
100
AcDbLine
 10
29.0
 20
4.25
 30
0.0
 11
31.45373899999993
 21
0.0
 31
0.0
  0
LINE
  5
59FC
330
59EB
100
AcDbEntity
  8
AM_3 隠れ線
100
AcDbLine
 10
29.0
 20
4.25
 30
0.0
 11
29.0
 21
0.0
 31
0.0
  0
ARC
  5
59FF
330
59EB
100
AcDbEntity
  8
AM_0 外形線1
100
AcDbCircle
 10
28.5
 20
0.0
 30
0.0
 40
79.88500000000001
100
AcDbArc
 50
80.99765199999593
 51
96.82983200000395
  0
LINE
  5
5A00
330
59EB
100
AcDbEntity
  8
AM_0 外形線1
100
AcDbLine
 10
17.5
 20
71.0
 30
0.0
 11
0.5
 21
71.0
 31
0.0
  0
LINE
  5
5A01
330
59EB
100
AcDbEntity
  8
AM_0 外形線1
100
AcDbLine
 10
0.5
 20
71.0
 30
0.0
 11
0.0
 21
70.5
 31
0.0
  0
LINE
  5
5A02
330
59EB
100
AcDbEntity
  8
AM_0 外形線1
100
AcDbLine
 10
19.0
 20
79.31811400000005
 30
0.0
 11
18.0
 21
78.19193899999993
 31
0.0
  0
ARC
  5
5A03
330
59EB
100
AcDbEntity
  8
AM_0 外形線1
100
AcDbCircle
 10
17.5
 20
71.5
 30
0.0
 40
0.5
100
AcDbArc
 50
270.0
 51
0.0
  0
LINE
  5
5A04
330
59EB
100
AcDbEntity
  8
AM_0 外形線1
100
AcDbLine
 10
18.0
 20
78.19193899999993
 30
0.0
 11
18.0
 21
71.5
 31
0.0
  0
LINE
  5
5A05
330
59EB
100
AcDbEntity
  8
AM_0 外形線1
100
AcDbLine
 10
71.0
 20
72.5
 30
0.0
 11
42.5
 21
72.5
 31
0.0
  0
LINE
  5
5A06
330
59EB
100
AcDbEntity
  8
AM_7 中心線
100
AcDbLine
 10
28.5
 20
84.885
 30
0.0
 11
28.5
 21
69.75
 31
0.0
  0
LINE
  5
5A07
330
59EB
100
AcDbEntity
  8
AM_0 外形線1
100
AcDbLine
 10
42.0
 20
77.73603500000001
 30
0.0
 11
41.0
 21
78.9009709999999
 31
0.0
  0
LINE
  5
5A08
330
59EB
100
AcDbEntity
  8
AM_0 外形線1
100
AcDbLine
 10
42.0
 20
73.0
 30
0.0
 11
42.0
 21
77.73603500000001
 31
0.0
  0
ARC
  5
5A09
330
59EB
100
AcDbEntity
  8
AM_0 外形線1
100
AcDbCircle
 10
42.5
 20
73.0
 30
0.0
 40
0.5
100
AcDbArc
 50
180.0
 51
270.0
  0
LINE
  5
5A0A
330
59EB
100
AcDbEntity
  8
AM_0 外形線1
100
AcDbLine
 10
108.0
 20
71.89999999999997
 30
0.0
 11
73.0
 21
71.89999999999997
 31
0.0
  0
LINE
  5
5A0B
330
59EB
100
AcDbEntity
  8
AM_0 外形線1
100
AcDbLine
 10
73.0
 20
71.89999999999997
 30
0.0
 11
71.0
 21
72.5
 31
0.0
  0
LINE
  5
5A0C
330
59EB
100
AcDbEntity
  8
AM_0 外形線1
100
AcDbLine
 10
112.0
 20
-67.89999999999998
 30
0.0
 11
112.0
 21
67.89999999999998
 31
0.0
  0
LINE
  5
5A0F
330
59EB
100
AcDbEntity
  8
AM_0 外形線1
100
AcDbLine
 10
0.0
 20
35.0
 30
0.0
 11
112.0
 21
35.00000000000023
 31
0.0
  0
ARC
  5
7DEA
330
59EB
100
AcDbEntity
  8
AM_7 中心線
100
AcDbCircle
 10
28.5
 20
0.0
 30
0.0
 40
77.5
100
AcDbArc
 50
76.94969506031937
 51
100.0317310335959
  0
ARC
  5
7DEB
330
59EB
100
AcDbEntity
  8
AM_0 外形線1
100
AcDbCircle
 10
28.5
 20
0.0
 30
0.0
 40
74.75
100
AcDbArc
 50
79.59517305294156
 51
98.07494144752613
  0
ENDBLK
  5
59ED
330
59EB
100
AcDbEntity
  8
0
100
AcDbBlockEnd
  0
BLOCK
  5
5AC6
330
5AC5
100
AcDbEntity
  8
0
100
AcDbBlockBegin
  2
センタＢ SSM224
 70
     0
 10
0.0
 20
0.0
 30
0.0
  3
センタＢ SSM224
  1

  0
LINE
  5
5AC9
330
5AC5
100
AcDbEntity
  8
AM_0 外形線1
100
AcDbLine
 10
-71.0
 20
72.5
 30
0.0
 11
-42.5
 21
72.5
 31
0.0
  0
LINE
  5
5ACA
330
5AC5
100
AcDbEntity
  8
AM_0 外形線1
100
AcDbLine
 10
-112.0
 20
-67.89999999999998
 30
0.0
 11
-112.0
 21
67.89999999999998
 31
0.0
  0
LINE
  5
5ACB
330
5AC5
100
AcDbEntity
  8
AM_0 外形線1
100
AcDbLine
 10
-73.0
 20
-71.89999999999997
 30
0.0
 11
-73.0
 21
0.0
 31
0.0
  0
LINE
  5
5ACC
330
5AC5
100
AcDbEntity
  8
AM_0 外形線1
100
AcDbLine
 10
-71.0
 20
-72.5
 30
0.0
 11
-71.0
 21
0.0
 31
0.0
  0
LINE
  5
5ACD
330
5AC5
100
AcDbEntity
  8
AM_0 外形線1
100
AcDbLine
 10
-73.0
 20
-71.89999999999997
 30
0.0
 11
-108.0
 21
-71.89999999999997
 31
0.0
  0
ARC
  5
5ACE
330
5AC5
100
AcDbEntity
  8
AM_0 外形線1
100
AcDbCircle
 10
-108.0
 20
-67.89999999999998
 30
0.0
 40
4.0
100
AcDbArc
 50
180.0
 51
270.0
  0
LINE
  5
5ACF
330
5AC5
100
AcDbEntity
  8
AM_0 外形線1
100
AcDbLine
 10
-59.0
 20
-72.5
 30
0.0
 11
-71.0
 21
-72.5
 31
0.0
  0
LINE
  5
5AD0
330
5AC5
100
AcDbEntity
  8
AM_0 外形線1
100
AcDbLine
 10
-71.0
 20
-72.5
 30
0.0
 11
-73.0
 21
-71.89999999999997
 31
0.0
  0
LINE
  5
5AD1
330
5AC5
100
AcDbEntity
  8
AM_0 外形線1
100
AcDbLine
 10
-108.0
 20
71.89999999999997
 30
0.0
 11
-73.0
 21
71.89999999999997
 31
0.0
  0
ARC
  5
5AD2
330
5AC5
100
AcDbEntity
  8
AM_0 外形線1
100
AcDbCircle
 10
-108.0
 20
67.89999999999998
 30
0.0
 40
4.0
100
AcDbArc
 50
90.0
 51
180.0
  0
LINE
  5
5AD3
330
5AC5
100
AcDbEntity
  8
AM_0 外形線1
100
AcDbLine
 10
-73.0
 20
71.89999999999997
 30
0.0
 11
-71.0
 21
72.5
 31
0.0
  0
LINE
  5
5AD4
330
5AC5
100
AcDbEntity
  8
AM_0 外形線1
100
AcDbLine
 10
0.0
 20
70.5
 30
0.0
 11
0.0
 21
0.0
 31
0.0
  0
LINE
  5
5AD5
330
5AC5
100
AcDbEntity
  8
AM_0 外形線1
100
AcDbLine
 10
-17.5
 20
71.0
 30
0.0
 11
-0.5
 21
71.0
 31
0.0
  0
ARC
  5
5AD6
330
5AC5
100
AcDbEntity
  8
AM_0 外形線1
100
AcDbCircle
 10
-28.5
 20
0.0
 30
0.0
 40
79.88500000000001
100
AcDbArc
 50
83.17016799999604
 51
99.00234800000404
  0
LINE
  5
5AD8
330
5AC5
100
AcDbEntity
  8
AM_7 中心線
100
AcDbLine
 10
-28.5
 20
84.885
 30
0.0
 11
-28.5
 21
69.75
 31
0.0
  0
LINE
  5
5AD9
330
5AC5
100
AcDbEntity
  8
AM_0 外形線1
100
AcDbLine
 10
-42.0
 20
77.73603500000001
 30
0.0
 11
-41.0
 21
78.9009709999999
 31
0.0
  0
LINE
  5
5ADA
330
5AC5
100
AcDbEntity
  8
AM_0 外形線1
100
AcDbLine
 10
-42.0
 20
73.0
 30
0.0
 11
-42.0
 21
77.73603500000001
 31
0.0
  0
ARC
  5
5ADB
330
5AC5
100
AcDbEntity
  8
AM_0 外形線1
100
AcDbCircle
 10
-42.5
 20
73.0
 30
0.0
 40
0.5
100
AcDbArc
 50
270.0
 51
0.0
  0
LINE
  5
5ADC
330
5AC5
100
AcDbEntity
  8
AM_0 外形線1
100
AcDbLine
 10
-19.0
 20
79.31811400000005
 30
0.0
 11
-18.0
 21
78.19193899999993
 31
0.0
  0
ARC
  5
5ADD
330
5AC5
100
AcDbEntity
  8
AM_0 外形線1
100
AcDbCircle
 10
-17.5
 20
71.5
 30
0.0
 40
0.5
100
AcDbArc
 50
180.0
 51
270.0
  0
LINE
  5
5ADE
330
5AC5
100
AcDbEntity
  8
AM_0 外形線1
100
AcDbLine
 10
-18.0
 20
78.19193899999993
 30
0.0
 11
-18.0
 21
71.5
 31
0.0
  0
LINE
  5
5AE0
330
5AC5
100
AcDbEntity
  8
AM_0 外形線1
100
AcDbLine
 10
-0.5
 20
71.0
 30
0.0
 11
0.0
 21
70.5
 31
0.0
  0
LINE
  5
5AE1
330
5AC5
100
AcDbEntity
  8
AM_0 外形線1
100
AcDbLine
 10
-112.0
 20
35.00000000000011
 30
0.0
 11
0.0
 21
35.00000000000011
 31
0.0
  0
ARC
  5
7D05
330
5AC5
100
AcDbEntity
  8
AM_0 外形線1
100
AcDbCircle
 10
-28.5
 20
0.0
 30
0.0
 40
74.75
100
AcDbArc
 50
81.92505855248034
 51
100.4048269470552
  0
ARC
  5
7D82
330
5AC5
100
AcDbEntity
  8
AM_7 中心線
100
AcDbCircle
 10
-28.5
 20
0.0
 30
0.0
 40
77.5
100
AcDbArc
 50
79.9682689664073
 51
103.0503049396806
  0
ENDBLK
  5
5AC7
330
5AC5
100
AcDbEntity
  8
0
100
AcDbBlockEnd
  0
BLOCK
  5
5CA7
330
5CA6
100
AcDbEntity
  8
0
100
AcDbBlockBegin
  2
リーマボルト SSM224 M10
 70
     0
 10
0.0
 20
0.0
 30
0.0
  3
リーマボルト SSM224 M10
  1

  0
ARC
  5
5CA9
330
5CA6
100
AcDbEntity
  8
AM_0 外形線1
100
AcDbCircle
 10
36.13821100000007
 20
-7.353739000000017
 30
0.0
 40
4.361788999999999
100
AcDbArc
 50
325.8861589999972
 51
34.11384100000282
  0
LINE
  5
5CAA
330
5CA6
100
AcDbEntity
  8
AM_0 外形線1
100
AcDbLine
 10
32.5
 20
-9.800000000000068
 30
0.0
 11
32.5
 21
9.799999999999952
 31
0.0
  0
LINE
  5
5CAB
330
5CA6
100
AcDbEntity
  8
AM_0 外形線1
100
AcDbLine
 10
40.49999999999999
 20
8.5
 30
0.0
 11
40.49999999999999
 21
-8.5
 31
0.0
  0
ARC
  5
5CAC
330
5CA6
100
AcDbEntity
  8
AM_0 外形線1
100
AcDbCircle
 10
-2.638211000000068
 20
-7.353739000000017
 30
0.0
 40
4.361788999999999
100
AcDbArc
 50
145.8861589999971
 51
214.1138410000028
  0
LINE
  5
5CAD
330
5CA6
100
AcDbEntity
  8
AM_0 外形線1
100
AcDbLine
 10
-7.0
 20
8.5
 30
0.0
 11
-7.0
 21
-8.5
 31
0.0
  0
LINE
  5
5CAE
330
5CA6
100
AcDbEntity
  8
AM_0 外形線1
100
AcDbLine
 10
-6.249445000000036
 20
-9.800000000000068
 30
0.0
 11
0.0
 21
-9.800000000000068
 31
0.0
  0
LINE
  5
5CAF
330
5CA6
100
AcDbEntity
  8
AM_0 外形線1
100
AcDbLine
 10
-7.0
 20
-8.5
 30
0.0
 11
-6.249445000000036
 21
-9.800000000000068
 31
0.0
  0
LINE
  5
5CB0
330
5CA6
100
AcDbEntity
  8
AM_0 外形線1
100
AcDbLine
 10
39.74944500000004
 20
-9.800000000000068
 30
0.0
 11
32.5
 21
-9.800000000000068
 31
0.0
  0
LINE
  5
5CB1
330
5CA6
100
AcDbEntity
  8
AM_0 外形線1
100
AcDbLine
 10
30.0
 20
-9.199999999999931
 30
0.0
 11
32.5
 21
-9.199999999999931
 31
0.0
  0
LINE
  5
5CB2
330
5CA6
100
AcDbEntity
  8
AM_0 外形線1
100
AcDbLine
 10
40.49999999999999
 20
-8.5
 30
0.0
 11
39.74944500000004
 21
-9.800000000000068
 31
0.0
  0
ARC
  5
5CB3
330
5CA6
100
AcDbEntity
  8
AM_0 外形線1
100
AcDbCircle
 10
-2.638211000000068
 20
7.353739000000017
 30
0.0
 40
4.361788999999999
100
AcDbArc
 50
145.8861589999971
 51
214.1138410000028
  0
LINE
  5
5CB4
330
5CA6
100
AcDbEntity
  8
AM_0 外形線1
100
AcDbLine
 10
0.0
 20
-4.907476999999971
 30
0.0
 11
-6.249445000000036
 21
-4.907476999999971
 31
0.0
  0
LINE
  5
5CB5
330
5CA6
100
AcDbEntity
  8
AM_0 外形線1
100
AcDbLine
 10
0.0
 20
4.907476999999971
 30
0.0
 11
-6.249445000000036
 21
4.907476999999971
 31
0.0
  0
ARC
  5
5CB6
330
5CA6
100
AcDbEntity
  8
AM_0 外形線1
100
AcDbCircle
 10
9.418952999999987
 20
0.0
 30
0.0
 40
16.418953
100
AcDbArc
 50
162.6089940000013
 51
197.3910059999987
  0
LINE
  5
5CB7
330
5CA6
100
AcDbEntity
  8
AM_0 外形線1
100
AcDbLine
 10
0.0
 20
9.799999999999952
 30
0.0
 11
-6.249445000000036
 21
9.799999999999952
 31
0.0
  0
LINE
  5
5CB8
330
5CA6
100
AcDbEntity
  8
AM_0 外形線1
100
AcDbLine
 10
-6.249445000000036
 20
9.799999999999952
 30
0.0
 11
-7.0
 21
8.5
 31
0.0
  0
LINE
  5
5CB9
330
5CA6
100
AcDbEntity
  8
AM_0 外形線1
100
AcDbLine
 10
28.0
 20
-4.922649999999974
 30
0.0
 11
27.0
 21
-5.5
 31
0.0
  0
LINE
  5
5CBA
330
5CA6
100
AcDbEntity
  8
AM_0 外形線1
100
AcDbLine
 10
27.0
 20
5.5
 30
0.0
 11
28.0
 21
4.922649999999974
 31
0.0
  0
LINE
  5
5CBB
330
5CA6
100
AcDbEntity
  8
AM_0 外形線1
100
AcDbLine
 10
27.0
 20
5.5
 30
0.0
 11
27.0
 21
-5.5
 31
0.0
  0
ARC
  5
5CBC
330
5CA6
100
AcDbEntity
  8
AM_0 外形線1
100
AcDbCircle
 10
36.13821100000007
 20
7.353739000000017
 30
0.0
 40
4.361788999999999
100
AcDbArc
 50
325.8861589999972
 51
34.11384100000282
  0
LINE
  5
5CBD
330
5CA6
100
AcDbEntity
  8
AM_0 外形線1
100
AcDbLine
 10
32.5
 20
-4.907476999999971
 30
0.0
 11
39.74944500000004
 21
-4.907476999999971
 31
0.0
  0
LINE
  5
5CBE
330
5CA6
100
AcDbEntity
  8
AM_0 外形線1
100
AcDbLine
 10
32.5
 20
4.907476999999971
 30
0.0
 11
39.74944500000004
 21
4.907476999999971
 31
0.0
  0
LINE
  5
5CBF
330
5CA6
100
AcDbEntity
  8
AM_0 外形線1
100
AcDbLine
 10
28.0
 20
-4.922649999999974
 30
0.0
 11
30.0
 21
-4.922649999999974
 31
0.0
  0
LINE
  5
5CC0
330
5CA6
100
AcDbEntity
  8
AM_0 外形線1
100
AcDbLine
 10
28.0
 20
4.922649999999974
 30
0.0
 11
30.0
 21
4.922649999999974
 31
0.0
  0
LINE
  5
5CC1
330
5CA6
100
AcDbEntity
  8
AM_0 外形線1
100
AcDbLine
 10
32.5
 20
0.8333330000000387
 30
0.0
 11
30.0
 21
-1.666666999999961
 31
0.0
  0
LINE
  5
5CC2
330
5CA6
100
AcDbEntity
  8
AM_0 外形線1
100
AcDbLine
 10
32.5
 20
1.666666999999961
 30
0.0
 11
30.0
 21
-0.8333330000000387
 31
0.0
  0
LINE
  5
5CC3
330
5CA6
100
AcDbEntity
  8
AM_0 外形線1
100
AcDbLine
 10
28.0
 20
4.922649999999974
 30
0.0
 11
28.0
 21
-4.922649999999974
 31
0.0
  0
LINE
  5
5CC4
330
5CA6
100
AcDbEntity
  8
AM_4 細線
100
AcDbLine
 10
40.49999999999999
 20
-4.25
 30
0.0
 11
44.75
 21
-4.25
 31
0.0
  0
LINE
  5
5CC5
330
5CA6
100
AcDbEntity
  8
AM_4 細線
100
AcDbLine
 10
40.49999999999999
 20
4.25
 30
0.0
 11
44.75
 21
4.25
 31
0.0
  0
LINE
  5
5CC6
330
5CA6
100
AcDbEntity
  8
AM_0 外形線1
100
AcDbLine
 10
44.0
 20
5.0
 30
0.0
 11
44.0
 21
-5.0
 31
0.0
  0
LINE
  5
5CC7
330
5CA6
100
AcDbEntity
  8
AM_0 外形線1
100
AcDbLine
 10
44.0
 20
-5.0
 30
0.0
 11
40.49999999999999
 21
-5.0
 31
0.0
  0
LINE
  5
5CC8
330
5CA6
100
AcDbEntity
  8
AM_0 外形線1
100
AcDbLine
 10
45.0
 20
-4.0
 30
0.0
 11
44.0
 21
-5.0
 31
0.0
  0
LINE
  5
5CC9
330
5CA6
100
AcDbEntity
  8
AM_0 外形線1
100
AcDbLine
 10
45.0
 20
4.0
 30
0.0
 11
45.0
 21
-4.0
 31
0.0
  0
LINE
  5
5CCA
330
5CA6
100
AcDbEntity
  8
AM_0 外形線1
100
AcDbLine
 10
44.0
 20
5.0
 30
0.0
 11
45.0
 21
4.0
 31
0.0
  0
LINE
  5
5CCB
330
5CA6
100
AcDbEntity
  8
AM_0 外形線1
100
AcDbLine
 10
40.49999999999999
 20
5.0
 30
0.0
 11
44.0
 21
5.0
 31
0.0
  0
ARC
  5
5CCC
330
5CA6
100
AcDbEntity
  8
AM_0 外形線1
100
AcDbCircle
 10
24.08104700000001
 20
0.0
 30
0.0
 40
16.418953
100
AcDbArc
 50
342.6089940000013
 51
17.39100599999868
  0
LINE
  5
5CCD
330
5CA6
100
AcDbEntity
  8
AM_0 外形線1
100
AcDbLine
 10
32.5
 20
9.799999999999952
 30
0.0
 11
39.74944500000004
 21
9.799999999999952
 31
0.0
  0
LINE
  5
5CCE
330
5CA6
100
AcDbEntity
  8
AM_0 外形線1
100
AcDbLine
 10
32.5
 20
9.200000000000043
 30
0.0
 11
30.0
 21
9.200000000000043
 31
0.0
  0
LINE
  5
5CCF
330
5CA6
100
AcDbEntity
  8
AM_0 外形線1
100
AcDbLine
 10
39.74944500000004
 20
9.799999999999952
 30
0.0
 11
40.49999999999999
 21
8.5
 31
0.0
  0
LINE
  5
5CD0
330
5CA6
100
AcDbEntity
  8
AM_0 外形線1
100
AcDbLine
 10
1.5
 20
-5.5
 30
0.0
 11
1.5
 21
5.5
 31
0.0
  0
ARC
  5
5CD1
330
5CA6
100
AcDbEntity
  8
AM_0 外形線1
100
AcDbCircle
 10
1.0
 20
-5.5
 30
0.0
 40
0.5
100
AcDbArc
 50
0.0
 51
90.0
  0
LINE
  5
5CD2
330
5CA6
100
AcDbEntity
  8
AM_0 外形線1
100
AcDbLine
 10
0.5
 20
-5.0
 30
0.0
 11
1.0
 21
-5.0
 31
0.0
  0
ARC
  5
5CD3
330
5CA6
100
AcDbEntity
  8
AM_0 外形線1
100
AcDbCircle
 10
0.5
 20
-5.5
 30
0.0
 40
0.5
100
AcDbArc
 50
90.0
 51
180.0
  0
ARC
  5
5CD4
330
5CA6
100
AcDbEntity
  8
AM_0 外形線1
100
AcDbCircle
 10
1.0
 20
5.5
 30
0.0
 40
0.5
100
AcDbArc
 50
270.0
 51
0.0
  0
LINE
  5
5CD5
330
5CA6
100
AcDbEntity
  8
AM_0 外形線1
100
AcDbLine
 10
0.5
 20
5.0
 30
0.0
 11
1.0
 21
5.0
 31
0.0
  0
ARC
  5
5CD6
330
5CA6
100
AcDbEntity
  8
AM_0 外形線1
100
AcDbCircle
 10
0.5
 20
5.5
 30
0.0
 40
0.5
100
AcDbArc
 50
180.0
 51
270.0
  0
LINE
  5
5D44
330
5CA6
100
AcDbEntity
  8
AM_0 外形線1
100
AcDbLine
 10
1.5
 20
5.5
 30
0.0
 11
27.0
 21
5.5
 31
0.0
  0
LINE
  5
5D45
330
5CA6
100
AcDbEntity
  8
AM_0 外形線1
100
AcDbLine
 10
1.499999999999771
 20
-5.499999999999544
 30
0.0
 11
26.99999999999977
 21
-5.500000000000682
 31
0.0
  0
LINE
  5
5D46
330
5CA6
100
AcDbEntity
  8
AM_0 外形線1
100
AcDbLine
 10
0.0
 20
9.799999999999952
 30
0.0
 11
0.0
 21
-9.800000000000068
 31
0.0
  0
LINE
  5
5D47
330
5CA6
100
AcDbEntity
  8
AM_0 外形線1
100
AcDbLine
 10
30.0
 20
9.200000000000043
 30
0.0
 11
30.0
 21
-9.199999999999931
 31
0.0
  0
ENDBLK
  5
5CA8
330
5CA6
100
AcDbEntity
  8
0
100
AcDbBlockEnd
  0
BLOCK
  5
654D
330
654C
100
AcDbEntity
  8
0
100
AcDbBlockBegin
  2
*D12
 70
     1
 10
0.0
 20
0.0
 30
0.0
  3
*D12
  1

  0
LINE
  5
7C90
330
654C
100
AcDbEntity
  8
AM_5 寸法線
 62
     3
100
AcDbLine
 10
434.0744148820558
 20
613.7187788714704
 30
0.0
 11
337.8838125138077
 21
613.7187788714704
 31
0.0
  0
LINE
  5
7C91
330
654C
100
AcDbEntity
  8
AM_5 寸法線
 62
     3
100
AcDbLine
 10
434.0744148820558
 20
468.7187788714703
 30
0.0
 11
337.8838125138077
 21
468.7187788714703
 31
0.0
  0
LINE
  5
7C92
330
654C
100
AcDbEntity
  8
AM_5 寸法線
 62
     3
100
AcDbLine
 10
339.4463125138077
 20
607.4687788714704
 30
0.0
 11
339.4463125138077
 21
474.9687788714703
 31
0.0
  0
INSERT
  5
7C93
330
654C
100
AcDbEntity
  8
AM_5 寸法線
 62
     3
100
AcDbBlockReference
  2
_Open30
 10
339.4463125138077
 20
613.7187788714704
 30
0.0
 41
6.25
 42
6.25
 43
6.25
 50
90.0
  0
INSERT
  5
7C94
330
654C
100
AcDbEntity
  8
AM_5 寸法線
 62
     3
100
AcDbBlockReference
  2
_Open30
 10
339.4463125138077
 20
468.7187788714703
 30
0.0
 41
6.25
 42
6.25
 43
6.25
 50
270.0
  0
MTEXT
  5
7C95
330
654C
100
AcDbEntity
  8
AM_5 寸法線
 62
     3
100
AcDbMText
 10
331.3213125138076
 20
544.4794073906296
 30
0.0
 40
8.75
 41
0.0
 46
0.0
 71
     5
 72
     1
  1
%%c145
  7
SEISA
 11
0.0000000000000001
 21
1.0
 31
0.0
 73
     1
 44
1.0
  0
POINT
  5
7C96
330
654C
100
AcDbEntity
  8
Defpoints
 62
     0
100
AcDbPoint
 10
435.6369148820558
 20
613.7187788714704
 30
0.0
  0
POINT
  5
7C97
330
654C
100
AcDbEntity
  8
Defpoints
 62
     0
100
AcDbPoint
 10
435.6369148820558
 20
468.7187788714703
 30
0.0
  0
POINT
  5
7C98
330
654C
100
AcDbEntity
  8
Defpoints
 62
     0
100
AcDbPoint
 10
339.4463125138077
 20
468.7187788714703
 30
0.0
  0
ENDBLK
  5
654E
330
654C
100
AcDbEntity
  8
0
100
AcDbBlockEnd
  0
BLOCK
  5
658D
330
658C
100
AcDbEntity
  8
0
100
AcDbBlockBegin
  2
*D13
 70
     1
 10
0.0
 20
0.0
 30
0.0
  3
*D13
  1

  0
LINE
  5
65CE
330
658C
100
AcDbEntity
  8
AM_5 寸法線
 62
     3
100
AcDbLine
 10
460.6369148820558
 20
612.1562788714704
 30
0.0
 11
460.6369148820558
 21
596.2117008714702
 31
0.0
  0
LINE
  5
65CF
330
658C
100
AcDbEntity
  8
AM_5 寸法線
 62
     3
100
AcDbLine
 10
464.6369148820558
 20
612.6562788714704
 30
0.0
 11
464.6369148820558
 21
596.2117008714702
 31
0.0
  0
LINE
  5
65D0
330
658C
100
AcDbEntity
  8
AM_5 寸法線
 62
     3
100
AcDbLine
 10
470.8869148820558
 20
597.7742008714702
 30
0.0
 11
477.1369148820558
 21
597.7742008714702
 31
0.0
  0
LINE
  5
65D1
330
658C
100
AcDbEntity
  8
AM_5 寸法線
 62
     3
100
AcDbLine
 10
454.3869148820558
 20
597.7742008714702
 30
0.0
 11
435.0119148820557
 21
597.7742008714702
 31
0.0
  0
LINE
  5
65D2
330
658C
100
AcDbEntity
  8
AM_5 寸法線
 62
     3
100
AcDbLine
 10
464.6369148820558
 20
597.7742008714702
 30
0.0
 11
460.6369148820558
 21
597.7742008714702
 31
0.0
  0
INSERT
  5
65D3
330
658C
100
AcDbEntity
  8
AM_5 寸法線
 62
     3
100
AcDbBlockReference
  2
_Open30
 10
464.6369148820558
 20
597.7742008714702
 30
0.0
 41
6.25
 42
6.25
 43
6.25
 50
180.0
  0
INSERT
  5
65D4
330
658C
100
AcDbEntity
  8
AM_5 寸法線
 62
     3
100
AcDbBlockReference
  2
_Open30
 10
460.6369148820558
 20
597.7742008714702
 30
0.0
 41
6.25
 42
6.25
 43
6.25
  0
MTEXT
  5
65D5
330
658C
100
AcDbEntity
  8
AM_5 寸法線
 62
     3
100
AcDbMText
 10
441.5744148820557
 20
605.8992008714702
 30
0.0
 40
8.75
 41
0.0
 46
0.0
 71
     5
 72
     1
  1
4
  7
SEISA
 73
     1
 44
1.0
  0
POINT
  5
65D6
330
658C
100
AcDbEntity
  8
Defpoints
 62
     0
100
AcDbPoint
 10
460.6369148820558
 20
613.7187788714704
 30
0.0
  0
POINT
  5
65D7
102
{ACAD_REACTORS
330
7E1C
102
}
330
658C
100
AcDbEntity
  8
Defpoints
 62
     0
100
AcDbPoint
 10
464.6369148820558
 20
614.2187788714704
 30
0.0
  0
POINT
  5
65D8
330
658C
100
AcDbEntity
  8
Defpoints
 62
     0
100
AcDbPoint
 10
464.6369148820558
 20
597.7742008714702
 30
0.0
  0
ENDBLK
  5
658E
330
658C
100
AcDbEntity
  8
0
100
AcDbBlockEnd
  0
BLOCK
  5
65E2
330
65E1
100
AcDbEntity
  8
0
100
AcDbBlockBegin
  2
*D14
 70
     1
 10
0.0
 20
0.0
 30
0.0
  3
*D14
  1

  0
LINE
  5
65EE
330
65E1
100
AcDbEntity
  8
AM_5 寸法線
 62
     3
100
AcDbLine
 10
394.6369148820559
 20
542.7812788714703
 30
0.0
 11
394.6369148820559
 21
559.0835674623323
 31
0.0
  0
LINE
  5
65EF
330
65E1
100
AcDbEntity
  8
AM_5 寸法線
 62
     3
100
AcDbLine
 10
506.6369148820558
 20
542.7812788714703
 30
0.0
 11
506.6369148820558
 21
559.0835674623323
 31
0.0
  0
LINE
  5
65F0
330
65E1
100
AcDbEntity
  8
AM_5 寸法線
 62
     3
100
AcDbLine
 10
400.8869148820558
 20
557.5210674623323
 30
0.0
 11
500.3869148820558
 21
557.5210674623323
 31
0.0
  0
INSERT
  5
65F1
330
65E1
100
AcDbEntity
  8
AM_5 寸法線
 62
     3
100
AcDbBlockReference
  2
_Open30
 10
394.6369148820559
 20
557.5210674623323
 30
0.0
 41
6.25
 42
6.25
 43
6.25
 50
180.0
  0
INSERT
  5
65F2
330
65E1
100
AcDbEntity
  8
AM_5 寸法線
 62
     3
100
AcDbBlockReference
  2
_Open30
 10
506.6369148820558
 20
557.5210674623323
 30
0.0
 41
6.25
 42
6.25
 43
6.25
  0
MTEXT
  5
65F3
330
65E1
100
AcDbEntity
  8
AM_5 寸法線
 62
     3
100
AcDbMText
 10
450.6369148820557
 20
565.6460674623323
 30
0.0
 40
8.75
 41
0.0
 46
0.0
 71
     5
 72
     1
  1
112
  7
SEISA
 73
     1
 44
1.0
  0
POINT
  5
65F4
330
65E1
100
AcDbEntity
  8
Defpoints
 62
     0
100
AcDbPoint
 10
394.6369148820559
 20
541.2187788714703
 30
0.0
  0
POINT
  5
65F5
330
65E1
100
AcDbEntity
  8
Defpoints
 62
     0
100
AcDbPoint
 10
506.6369148820558
 20
541.2187788714703
 30
0.0
  0
POINT
  5
65F6
330
65E1
100
AcDbEntity
  8
Defpoints
 62
     0
100
AcDbPoint
 10
506.6369148820558
 20
557.5210674623323
 30
0.0
  0
ENDBLK
  5
65E3
330
65E1
100
AcDbEntity
  8
0
100
AcDbBlockEnd
  0
BLOCK
  5
65FA
330
65F9
100
AcDbEntity
  8
0
100
AcDbBlockBegin
  2
*D15
 70
     1
 10
0.0
 20
0.0
 30
0.0
  3
*D15
  1

  0
LINE
  5
663D
330
65F9
100
AcDbEntity
  8
AM_5 寸法線
 62
     3
100
AcDbLine
 10
506.6369148820558
 20
542.7812788714703
 30
0.0
 11
506.6369148820558
 21
559.0835674623323
 31
0.0
  0
LINE
  5
663E
330
65F9
100
AcDbEntity
  8
AM_5 寸法線
 62
     3
100
AcDbLine
 10
518.6369148820558
 20
542.7812788714703
 30
0.0
 11
518.6369148820558
 21
559.0835674623323
 31
0.0
  0
LINE
  5
663F
330
65F9
100
AcDbEntity
  8
AM_5 寸法線
 62
     3
100
AcDbLine
 10
500.3869148820558
 20
557.5210674623323
 30
0.0
 11
494.1369148820558
 21
557.5210674623323
 31
0.0
  0
LINE
  5
6640
330
65F9
100
AcDbEntity
  8
AM_5 寸法線
 62
     3
100
AcDbLine
 10
524.8869148820558
 20
557.5210674623323
 30
0.0
 11
531.1369148820558
 21
557.5210674623323
 31
0.0
  0
MTEXT
  5
6641
330
65F9
100
AcDbEntity
  8
AM_5 寸法線
 62
     3
100
AcDbMText
 10
529.0056082844056
 20
565.6775534829205
 30
0.0
 40
8.75
 41
0.0
 46
0.0
 71
     5
 72
     1
  1
12
  7
SEISA
 73
     1
 44
1.0
  0
LINE
  5
6642
330
65F9
100
AcDbEntity
  8
AM_5 寸法線
 62
     3
100
AcDbLine
 10
506.6369148820558
 20
557.5210674623323
 30
0.0
 11
518.6369148820558
 21
557.5210674623323
 31
0.0
  0
INSERT
  5
6643
330
65F9
100
AcDbEntity
  8
AM_5 寸法線
 62
     3
100
AcDbBlockReference
  2
_Open30
 10
506.6369148820558
 20
557.5210674623323
 30
0.0
 41
6.25
 42
6.25
 43
6.25
  0
INSERT
  5
6644
330
65F9
100
AcDbEntity
  8
AM_5 寸法線
 62
     3
100
AcDbBlockReference
  2
_Open30
 10
518.6369148820558
 20
557.5210674623323
 30
0.0
 41
6.25
 42
6.25
 43
6.25
 50
180.0
  0
POINT
  5
6645
330
65F9
100
AcDbEntity
  8
Defpoints
 62
     0
100
AcDbPoint
 10
506.6369148820558
 20
541.2187788714703
 30
0.0
  0
POINT
  5
6646
330
65F9
100
AcDbEntity
  8
Defpoints
 62
     0
100
AcDbPoint
 10
518.6369148820558
 20
541.2187788714703
 30
0.0
  0
POINT
  5
6647
330
65F9
100
AcDbEntity
  8
Defpoints
 62
     0
100
AcDbPoint
 10
518.6369148820558
 20
557.5210674623323
 30
0.0
  0
ENDBLK
  5
65FB
330
65F9
100
AcDbEntity
  8
0
100
AcDbBlockEnd
  0
BLOCK
  5
6616
330
6615
100
AcDbEntity
  8
0
100
AcDbBlockBegin
  2
*D16
 70
     1
 10
0.0
 20
0.0
 30
0.0
  3
*D16
  1

  0
LINE
  5
6622
330
6615
100
AcDbEntity
  8
AM_5 寸法線
 62
     3
100
AcDbLine
 10
518.6369148820558
 20
542.7812788714703
 30
0.0
 11
518.6369148820558
 21
559.0835674623323
 31
0.0
  0
LINE
  5
6623
330
6615
100
AcDbEntity
  8
AM_5 寸法線
 62
     3
100
AcDbLine
 10
630.6369148820557
 20
542.7812788714703
 30
0.0
 11
630.6369148820557
 21
559.0835674623323
 31
0.0
  0
LINE
  5
6624
330
6615
100
AcDbEntity
  8
AM_5 寸法線
 62
     3
100
AcDbLine
 10
524.8869148820558
 20
557.5210674623323
 30
0.0
 11
624.3869148820557
 21
557.5210674623323
 31
0.0
  0
INSERT
  5
6625
330
6615
100
AcDbEntity
  8
AM_5 寸法線
 62
     3
100
AcDbBlockReference
  2
_Open30
 10
518.6369148820558
 20
557.5210674623323
 30
0.0
 41
6.25
 42
6.25
 43
6.25
 50
180.0
  0
INSERT
  5
6626
330
6615
100
AcDbEntity
  8
AM_5 寸法線
 62
     3
100
AcDbBlockReference
  2
_Open30
 10
630.6369148820557
 20
557.5210674623323
 30
0.0
 41
6.25
 42
6.25
 43
6.25
  0
MTEXT
  5
6627
330
6615
100
AcDbEntity
  8
AM_5 寸法線
 62
     3
100
AcDbMText
 10
574.6369148820559
 20
565.6460674623323
 30
0.0
 40
8.75
 41
0.0
 46
0.0
 71
     5
 72
     1
  1
112
  7
SEISA
 73
     1
 44
1.0
  0
POINT
  5
6628
330
6615
100
AcDbEntity
  8
Defpoints
 62
     0
100
AcDbPoint
 10
518.6369148820558
 20
541.2187788714703
 30
0.0
  0
POINT
  5
6629
330
6615
100
AcDbEntity
  8
Defpoints
 62
     0
100
AcDbPoint
 10
630.6369148820557
 20
541.2187788714703
 30
0.0
  0
POINT
  5
662A
330
6615
100
AcDbEntity
  8
Defpoints
 62
     0
100
AcDbPoint
 10
630.6369148820557
 20
557.5210674623323
 30
0.0
  0
ENDBLK
  5
6617
330
6615
100
AcDbEntity
  8
0
100
AcDbBlockEnd
  0
BLOCK
  5
6671
330
6670
100
AcDbEntity
  8
0
100
AcDbBlockBegin
  2
*D17
 70
     1
 10
0.0
 20
0.0
 30
0.0
  3
*D17
  1

  0
LINE
  5
66C0
330
6670
100
AcDbEntity
  8
AM_5 寸法線
 62
     3
100
AcDbLine
 10
591.1994148820557
 20
613.7187788714704
 30
0.0
 11
687.1994148820558
 21
613.7187788714704
 31
0.0
  0
LINE
  5
66C1
330
6670
100
AcDbEntity
  8
AM_5 寸法線
 62
     3
100
AcDbLine
 10
591.1994148820557
 20
468.7187788714703
 30
0.0
 11
687.1994148820558
 21
468.7187788714702
 31
0.0
  0
LINE
  5
66C2
330
6670
100
AcDbEntity
  8
AM_5 寸法線
 62
     3
100
AcDbLine
 10
685.6369148820557
 20
607.4687788714704
 30
0.0
 11
685.6369148820557
 21
474.9687788714702
 31
0.0
  0
INSERT
  5
66C3
330
6670
100
AcDbEntity
  8
AM_5 寸法線
 62
     3
100
AcDbBlockReference
  2
_Open30
 10
685.6369148820557
 20
613.7187788714704
 30
0.0
 41
6.25
 42
6.25
 43
6.25
 50
90.0
  0
INSERT
  5
66C4
330
6670
100
AcDbEntity
  8
AM_5 寸法線
 62
     3
100
AcDbBlockReference
  2
_Open30
 10
685.6369148820557
 20
468.7187788714702
 30
0.0
 41
6.25
 42
6.25
 43
6.25
 50
270.0
  0
MTEXT
  5
66C5
330
6670
100
AcDbEntity
  8
AM_5 寸法線
 62
     3
100
AcDbMText
 10
677.5119148820557
 20
541.2187788714703
 30
0.0
 40
8.75
 41
0.0
 46
0.0
 71
     5
 72
     1
  1
%%c145
  7
SEISA
 11
0.0000000000000001
 21
1.0
 31
0.0
 73
     1
 44
1.0
  0
POINT
  5
66C6
330
6670
100
AcDbEntity
  8
Defpoints
 62
     0
100
AcDbPoint
 10
589.6369148820557
 20
613.7187788714704
 30
0.0
  0
POINT
  5
66C7
330
6670
100
AcDbEntity
  8
Defpoints
 62
     0
100
AcDbPoint
 10
589.6369148820557
 20
468.7187788714703
 30
0.0
  0
POINT
  5
66C8
330
6670
100
AcDbEntity
  8
Defpoints
 62
     0
100
AcDbPoint
 10
685.6369148820557
 20
468.7187788714702
 30
0.0
  0
ENDBLK
  5
6672
330
6670
100
AcDbEntity
  8
0
100
AcDbBlockEnd
  0
BLOCK
  5
6689
330
6688
100
AcDbEntity
  8
0
100
AcDbBlockBegin
  2
*D18
 70
     1
 10
0.0
 20
0.0
 30
0.0
  3
*D18
  1

  0
LINE
  5
66D2
330
6688
100
AcDbEntity
  8
AM_5 寸法線
 62
     3
100
AcDbLine
 10
575.1994148820557
 20
628.2187788714702
 30
0.0
 11
712.199414882056
 21
628.2187788714702
 31
0.0
  0
LINE
  5
66D3
330
6688
100
AcDbEntity
  8
AM_5 寸法線
 62
     3
100
AcDbLine
 10
575.1994148820557
 20
454.2187788714703
 30
0.0
 11
712.199414882056
 21
454.2187788714703
 31
0.0
  0
LINE
  5
66D4
330
6688
100
AcDbEntity
  8
AM_5 寸法線
 62
     3
100
AcDbLine
 10
710.636914882056
 20
621.9687788714702
 30
0.0
 11
710.636914882056
 21
460.4687788714703
 31
0.0
  0
INSERT
  5
66D5
330
6688
100
AcDbEntity
  8
AM_5 寸法線
 62
     3
100
AcDbBlockReference
  2
_Open30
 10
710.636914882056
 20
628.2187788714702
 30
0.0
 41
6.25
 42
6.25
 43
6.25
 50
90.0
  0
INSERT
  5
66D6
330
6688
100
AcDbEntity
  8
AM_5 寸法線
 62
     3
100
AcDbBlockReference
  2
_Open30
 10
710.636914882056
 20
454.2187788714703
 30
0.0
 41
6.25
 42
6.25
 43
6.25
 50
270.0
  0
MTEXT
  5
66D7
330
6688
100
AcDbEntity
  8
AM_5 寸法線
 62
     3
100
AcDbMText
 10
702.5119148820558
 20
541.2187788714703
 30
0.0
 40
8.75
 41
0.0
 46
0.0
 71
     5
 72
     1
  1
%%c174
  7
SEISA
 11
0.0000000000000001
 21
1.0
 31
0.0
 73
     1
 44
1.0
  0
POINT
  5
66D8
330
6688
100
AcDbEntity
  8
Defpoints
 62
     0
100
AcDbPoint
 10
573.6369148820557
 20
628.2187788714702
 30
0.0
  0
POINT
  5
66D9
330
6688
100
AcDbEntity
  8
Defpoints
 62
     0
100
AcDbPoint
 10
573.6369148820557
 20
454.2187788714703
 30
0.0
  0
POINT
  5
66DA
330
6688
100
AcDbEntity
  8
Defpoints
 62
     0
100
AcDbPoint
 10
710.636914882056
 20
454.2187788714703
 30
0.0
  0
ENDBLK
  5
668A
330
6688
100
AcDbEntity
  8
0
100
AcDbBlockEnd
  0
BLOCK
  5
66A1
330
66A0
100
AcDbEntity
  8
0
100
AcDbBlockBegin
  2
*D19
 70
     1
 10
0.0
 20
0.0
 30
0.0
  3
*D19
  1

  0
LINE
  5
66E4
330
66A0
100
AcDbEntity
  8
AM_5 寸法線
 62
     3
100
AcDbLine
 10
528.1994148820558
 20
653.2187788714702
 30
0.0
 11
737.1994148820561
 21
653.2187788714702
 31
0.0
  0
LINE
  5
66E5
330
66A0
100
AcDbEntity
  8
AM_5 寸法線
 62
     3
100
AcDbLine
 10
528.1994148820558
 20
429.2187788714703
 30
0.0
 11
737.1994148820561
 21
429.2187788714703
 31
0.0
  0
LINE
  5
66E6
330
66A0
100
AcDbEntity
  8
AM_5 寸法線
 62
     3
100
AcDbLine
 10
735.6369148820561
 20
646.9687788714702
 30
0.0
 11
735.6369148820561
 21
435.4687788714703
 31
0.0
  0
INSERT
  5
66E7
330
66A0
100
AcDbEntity
  8
AM_5 寸法線
 62
     3
100
AcDbBlockReference
  2
_Open30
 10
735.6369148820561
 20
653.2187788714702
 30
0.0
 41
6.25
 42
6.25
 43
6.25
 50
90.0
  0
INSERT
  5
66E8
330
66A0
100
AcDbEntity
  8
AM_5 寸法線
 62
     3
100
AcDbBlockReference
  2
_Open30
 10
735.6369148820561
 20
429.2187788714703
 30
0.0
 41
6.25
 42
6.25
 43
6.25
 50
270.0
  0
MTEXT
  5
66E9
330
66A0
100
AcDbEntity
  8
AM_5 寸法線
 62
     3
100
AcDbMText
 10
727.5119148820558
 20
541.2187788714703
 30
0.0
 40
8.75
 41
0.0
 46
0.0
 71
     5
 72
     1
  1
%%c224
  7
SEISA
 11
0.0000000000000001
 21
1.0
 31
0.0
 73
     1
 44
1.0
  0
POINT
  5
66EA
330
66A0
100
AcDbEntity
  8
Defpoints
 62
     0
100
AcDbPoint
 10
526.6369148820558
 20
653.2187788714702
 30
0.0
  0
POINT
  5
66EB
330
66A0
100
AcDbEntity
  8
Defpoints
 62
     0
100
AcDbPoint
 10
526.6369148820558
 20
429.2187788714703
 30
0.0
  0
POINT
  5
66EC
330
66A0
100
AcDbEntity
  8
Defpoints
 62
     0
100
AcDbPoint
 10
735.6369148820561
 20
429.2187788714703
 30
0.0
  0
ENDBLK
  5
66A2
330
66A0
100
AcDbEntity
  8
0
100
AcDbBlockEnd
  0
BLOCK
  5
6772
330
6771
100
AcDbEntity
  8
0
100
AcDbBlockBegin
  2
*D20
 70
     1
 10
0.0
 20
0.0
 30
0.0
  3
*D20
  1

  0
LINE
  5
7262
330
6771
100
AcDbEntity
  8
AM_5 寸法線
 62
     3
100
AcDbLine
 10
497.6369148820558
 20
428.6562788714703
 30
0.0
 11
497.6369148820558
 21
402.6562788714703
 31
0.0
  0
LINE
  5
7263
330
6771
100
AcDbEntity
  8
AM_5 寸法線
 62
     3
100
AcDbLine
 10
512.6369148820558
 20
428.6562788714703
 30
0.0
 11
512.6369148820558
 21
402.6562788714703
 31
0.0
  0
LINE
  5
7264
330
6771
100
AcDbEntity
  8
AM_5 寸法線
 62
     3
100
AcDbLine
 10
491.3869148820558
 20
404.2187788714703
 30
0.0
 11
485.1369148820558
 21
404.2187788714703
 31
0.0
  0
LINE
  5
7265
330
6771
100
AcDbEntity
  8
AM_5 寸法線
 62
     3
100
AcDbLine
 10
518.8869148820558
 20
404.2187788714703
 30
0.0
 11
525.1369148820558
 21
404.2187788714703
 31
0.0
  0
MTEXT
  5
7266
330
6771
100
AcDbEntity
  8
AM_5 寸法線
 62
     3
100
AcDbMText
 10
485.8038327623729
 20
412.4103612802645
 30
0.0
 40
8.75
 41
0.0
 46
0.0
 71
     5
 72
     1
  1
15
  7
SEISA
 73
     1
 44
1.0
  0
LINE
  5
7267
330
6771
100
AcDbEntity
  8
AM_5 寸法線
 62
     3
100
AcDbLine
 10
497.6369148820558
 20
404.2187788714703
 30
0.0
 11
512.6369148820558
 21
404.2187788714703
 31
0.0
  0
INSERT
  5
7268
330
6771
100
AcDbEntity
  8
AM_5 寸法線
 62
     3
100
AcDbBlockReference
  2
_Open30
 10
497.6369148820558
 20
404.2187788714703
 30
0.0
 41
6.25
 42
6.25
 43
6.25
  0
INSERT
  5
7269
330
6771
100
AcDbEntity
  8
AM_5 寸法線
 62
     3
100
AcDbBlockReference
  2
GENDOT
 10
512.6369148820558
 20
404.2187788714703
 30
0.0
 41
6.25
 42
6.25
 43
6.25
 50
180.0
  0
POINT
  5
726A
330
6771
100
AcDbEntity
  8
Defpoints
 62
     0
100
AcDbPoint
 10
497.6369148820558
 20
430.2187788714703
 30
0.0
  0
POINT
  5
726B
330
6771
100
AcDbEntity
  8
Defpoints
 62
     0
100
AcDbPoint
 10
512.6369148820558
 20
430.2187788714703
 30
0.0
  0
POINT
  5
726C
330
6771
100
AcDbEntity
  8
Defpoints
 62
     0
100
AcDbPoint
 10
512.6369148820558
 20
404.2187788714703
 30
0.0
  0
ENDBLK
  5
6773
330
6771
100
AcDbEntity
  8
0
100
AcDbBlockEnd
  0
BLOCK
  5
67A4
330
67A3
100
AcDbEntity
  8
0
100
AcDbBlockBegin
  2
*D21
 70
     1
 10
0.0
 20
0.0
 30
0.0
  3
*D21
  1

  0
LINE
  5
7278
330
67A3
100
AcDbEntity
  8
AM_5 寸法線
 62
     3
100
AcDbLine
 10
512.6369148820558
 20
428.6562788714703
 30
0.0
 11
512.6369148820558
 21
402.6562788714703
 31
0.0
  0
LINE
  5
7279
330
67A3
100
AcDbEntity
  8
AM_5 寸法線
 62
     3
100
AcDbLine
 10
527.6369148820558
 20
428.6562788714703
 30
0.0
 11
527.6369148820558
 21
402.6562788714703
 31
0.0
  0
LINE
  5
727A
330
67A3
100
AcDbEntity
  8
AM_5 寸法線
 62
     3
100
AcDbLine
 10
506.3869148820558
 20
404.2187788714703
 30
0.0
 11
500.1369148820558
 21
404.2187788714703
 31
0.0
  0
LINE
  5
727B
330
67A3
100
AcDbEntity
  8
AM_5 寸法線
 62
     3
100
AcDbLine
 10
533.8869148820558
 20
404.2187788714703
 30
0.0
 11
540.1369148820558
 21
404.2187788714703
 31
0.0
  0
MTEXT
  5
727C
330
67A3
100
AcDbEntity
  8
AM_5 寸法線
 62
     3
100
AcDbMText
 10
536.2074347449492
 20
412.3916847682166
 30
0.0
 40
8.75
 41
0.0
 46
0.0
 71
     5
 72
     1
  1
15
  7
SEISA
 73
     1
 44
1.0
  0
LINE
  5
727D
330
67A3
100
AcDbEntity
  8
AM_5 寸法線
 62
     3
100
AcDbLine
 10
512.6369148820558
 20
404.2187788714703
 30
0.0
 11
527.6369148820558
 21
404.2187788714703
 31
0.0
  0
INSERT
  5
727E
330
67A3
100
AcDbEntity
  8
AM_5 寸法線
 62
     3
100
AcDbBlockReference
  2
GENDOT
 10
512.6369148820558
 20
404.2187788714703
 30
0.0
 41
6.25
 42
6.25
 43
6.25
  0
INSERT
  5
727F
330
67A3
100
AcDbEntity
  8
AM_5 寸法線
 62
     3
100
AcDbBlockReference
  2
_Open30
 10
527.6369148820558
 20
404.2187788714703
 30
0.0
 41
6.25
 42
6.25
 43
6.25
 50
180.0
  0
POINT
  5
7280
330
67A3
100
AcDbEntity
  8
Defpoints
 62
     0
100
AcDbPoint
 10
512.6369148820558
 20
430.2187788714703
 30
0.0
  0
POINT
  5
7281
330
67A3
100
AcDbEntity
  8
Defpoints
 62
     0
100
AcDbPoint
 10
527.6369148820558
 20
430.2187788714703
 30
0.0
  0
POINT
  5
7282
330
67A3
100
AcDbEntity
  8
Defpoints
 62
     0
100
AcDbPoint
 10
527.6369148820558
 20
404.2187788714703
 30
0.0
  0
ENDBLK
  5
67A5
330
67A3
100
AcDbEntity
  8
0
100
AcDbBlockEnd
  0
BLOCK
  5
6810
330
680F
100
AcDbEntity
  8
0
100
AcDbBlockBegin
  2
*D22
 70
     1
 10
0.0
 20
0.0
 30
0.0
  3
*D22
  1

  0
LINE
  5
7C08
330
680F
100
AcDbEntity
  8
AM_5 寸法線
 62
     3
100
AcDbLine
 10
447.6369148820558
 20
456.6562788714703
 30
0.0
 11
447.6369148820558
 21
377.6562788714703
 31
0.0
  0
LINE
  5
7C09
330
680F
100
AcDbEntity
  8
AM_5 寸法線
 62
     3
100
AcDbLine
 10
577.6369148820557
 20
456.6562788714703
 30
0.0
 11
577.6369148820557
 21
377.6562788714703
 31
0.0
  0
LINE
  5
7C0A
330
680F
100
AcDbEntity
  8
AM_5 寸法線
 62
     3
100
AcDbLine
 10
453.8869148820558
 20
379.2187788714703
 30
0.0
 11
571.3869148820557
 21
379.2187788714703
 31
0.0
  0
INSERT
  5
7C0B
330
680F
100
AcDbEntity
  8
AM_5 寸法線
 62
     3
100
AcDbBlockReference
  2
_Open30
 10
447.6369148820558
 20
379.2187788714703
 30
0.0
 41
6.25
 42
6.25
 43
6.25
 50
180.0
  0
INSERT
  5
7C0C
330
680F
100
AcDbEntity
  8
AM_5 寸法線
 62
     3
100
AcDbBlockReference
  2
_Open30
 10
577.6369148820557
 20
379.2187788714703
 30
0.0
 41
6.25
 42
6.25
 43
6.25
  0
MTEXT
  5
7C0D
330
680F
100
AcDbEntity
  8
AM_5 寸法線
 62
     3
100
AcDbMText
 10
512.6369148820558
 20
387.3437788714704
 30
0.0
 40
8.75
 41
0.0
 46
0.0
 71
     5
 72
     1
  1
130
  7
SEISA
 73
     1
 44
1.0
  0
POINT
  5
7C0E
330
680F
100
AcDbEntity
  8
Defpoints
 62
     0
100
AcDbPoint
 10
447.6369148820558
 20
458.2187788714703
 30
0.0
  0
POINT
  5
7C0F
330
680F
100
AcDbEntity
  8
Defpoints
 62
     0
100
AcDbPoint
 10
577.6369148820557
 20
458.2187788714703
 30
0.0
  0
POINT
  5
7C10
330
680F
100
AcDbEntity
  8
Defpoints
 62
     0
100
AcDbPoint
 10
577.6369148820557
 20
379.2187788714703
 30
0.0
  0
ENDBLK
  5
6811
330
680F
100
AcDbEntity
  8
0
100
AcDbBlockEnd
  0
BLOCK
  5
6CB5
330
6CB4
100
AcDbEntity
  8
0
100
AcDbBlockBegin
  2
*D23
 70
     1
 10
0.0
 20
0.0
 30
0.0
  3
*D23
  1

  0
LINE
  5
6CCB
330
6CB4
100
AcDbEntity
  8
AM_5 寸法線
 62
     3
100
AcDbLine
 10
394.6369148820559
 20
472.6246277020599
 30
0.0
 11
394.6369148820559
 21
352.6562788714703
 31
0.0
  0
LINE
  5
6CCC
330
6CB4
100
AcDbEntity
  8
AM_5 寸法線
 62
     3
100
AcDbLine
 10
630.6369148820557
 20
472.6246277020599
 30
0.0
 11
630.6369148820557
 21
352.6562788714703
 31
0.0
  0
LINE
  5
6CCD
330
6CB4
100
AcDbEntity
  8
AM_5 寸法線
 62
     3
100
AcDbLine
 10
400.8869148820558
 20
354.2187788714703
 30
0.0
 11
624.3869148820557
 21
354.2187788714703
 31
0.0
  0
INSERT
  5
6CCE
330
6CB4
100
AcDbEntity
  8
AM_5 寸法線
 62
     3
100
AcDbBlockReference
  2
_Open30
 10
394.6369148820559
 20
354.2187788714703
 30
0.0
 41
6.25
 42
6.25
 43
6.25
 50
180.0
  0
INSERT
  5
6CCF
330
6CB4
100
AcDbEntity
  8
AM_5 寸法線
 62
     3
100
AcDbBlockReference
  2
_Open30
 10
630.6369148820557
 20
354.2187788714703
 30
0.0
 41
6.25
 42
6.25
 43
6.25
  0
MTEXT
  5
6CD0
330
6CB4
100
AcDbEntity
  8
AM_5 寸法線
 62
     3
100
AcDbMText
 10
512.6369148820558
 20
362.3437788714704
 30
0.0
 40
8.75
 41
0.0
 46
0.0
 71
     5
 72
     1
  1
236
  7
SEISA
 73
     1
 44
1.0
  0
POINT
  5
6CD1
330
6CB4
100
AcDbEntity
  8
Defpoints
 62
     0
100
AcDbPoint
 10
394.6369148820559
 20
474.1871277020599
 30
0.0
  0
POINT
  5
6CD2
330
6CB4
100
AcDbEntity
  8
Defpoints
 62
     0
100
AcDbPoint
 10
630.6369148820557
 20
474.1871277020599
 30
0.0
  0
POINT
  5
6CD3
330
6CB4
100
AcDbEntity
  8
Defpoints
 62
     0
100
AcDbPoint
 10
630.6369148820557
 20
354.2187788714703
 30
0.0
  0
ENDBLK
  5
6CB6
330
6CB4
100
AcDbEntity
  8
0
100
AcDbBlockEnd
  0
BLOCK
  5
717B
330
7178
100
AcDbEntity
  8
0
100
AcDbBlockBegin
  2
GENDOT
 70
     0
 10
0.0
 20
0.0
 30
0.0
  3
GENDOT
  1

  0
LINE
  5
7179
330
7178
100
AcDbEntity
  8
0
100
AcDbLine
 10
0.0
 20
0.0
 30
0.0
 11
-1.0
 21
0.0
 31
0.0
  0
LWPOLYLINE
  5
717A
330
7178
100
AcDbEntity
  8
0
100
AcDbPolyline
 90
        2
 70
     1
 43
0.25
 10
-0.125
 20
0.0
 42
1.0
 10
0.125
 20
0.0
 42
1.0
  0
ENDBLK
  5
717C
330
7178
100
AcDbEntity
  8
0
100
AcDbBlockEnd
  0
BLOCK
  5
7C9B
330
7C9A
100
AcDbEntity
  8
0
100
AcDbBlockBegin
  2
*D25
 70
     1
 10
0.0
 20
0.0
 30
0.0
  3
*D25
  1

  0
LINE
  5
7F64
330
7C9A
100
AcDbEntity
  8
AM_5 寸法線
 62
     3
100
AcDbLine
 10
393.6369148820558
 20
625.7812788714702
 30
0.0
 11
393.6369148820558
 21
654.7812788714702
 31
0.0
  0
LINE
  5
7F65
330
7C9A
100
AcDbEntity
  8
AM_5 寸法線
 62
     3
100
AcDbLine
 10
394.6369148820559
 20
610.6812788714702
 30
0.0
 11
394.6369148820559
 21
654.7812788714702
 31
0.0
  0
LINE
  5
7F66
330
7C9A
100
AcDbEntity
  8
AM_5 寸法線
 62
     3
100
AcDbLine
 10
387.3869148820558
 20
653.2187788714702
 30
0.0
 11
381.1369148820558
 21
653.2187788714702
 31
0.0
  0
LINE
  5
7F67
330
7C9A
100
AcDbEntity
  8
AM_5 寸法線
 62
     3
100
AcDbLine
 10
400.8869148820558
 20
653.2187788714702
 30
0.0
 11
416.5119148820558
 21
653.2187788714702
 31
0.0
  0
LINE
  5
7F68
330
7C9A
100
AcDbEntity
  8
AM_5 寸法線
 62
     3
100
AcDbLine
 10
393.6369148820558
 20
653.2187788714702
 30
0.0
 11
394.6369148820559
 21
653.2187788714702
 31
0.0
  0
INSERT
  5
7F69
330
7C9A
100
AcDbEntity
  8
AM_5 寸法線
 62
     3
100
AcDbBlockReference
  2
_Open30
 10
393.6369148820558
 20
653.2187788714702
 30
0.0
 41
6.25
 42
6.25
 43
6.25
  0
INSERT
  5
7F6A
330
7C9A
100
AcDbEntity
  8
AM_5 寸法線
 62
     3
100
AcDbBlockReference
  2
_Open30
 10
394.6369148820559
 20
653.2187788714702
 30
0.0
 41
6.25
 42
6.25
 43
6.25
 50
180.0
  0
MTEXT
  5
7F6B
330
7C9A
100
AcDbEntity
  8
AM_5 寸法線
 62
     3
100
AcDbMText
 10
411.8244148820558
 20
661.3437788714702
 30
0.0
 40
8.75
 41
0.0
 46
0.0
 71
     5
 72
     1
  1
1
  7
SEISA
 73
     1
 44
1.0
  0
POINT
  5
7F6C
330
7C9A
100
AcDbEntity
  8
Defpoints
 62
     0
100
AcDbPoint
 10
393.6369148820558
 20
624.2187788714702
 30
0.0
  0
POINT
  5
7F6D
330
7C9A
100
AcDbEntity
  8
Defpoints
 62
     0
100
AcDbPoint
 10
394.6369148820559
 20
609.1187788714702
 30
0.0
  0
POINT
  5
7F6E
330
7C9A
100
AcDbEntity
  8
Defpoints
 62
     0
100
AcDbPoint
 10
394.6369148820559
 20
653.2187788714702
 30
0.0
  0
ENDBLK
  5
7C9C
330
7C9A
100
AcDbEntity
  8
0
100
AcDbBlockEnd
  0
BLOCK
  5
7E10
330
7E0F
100
AcDbEntity
  8
0
100
AcDbBlockBegin
  2
*D26
 70
     1
 10
0.0
 20
0.0
 30
0.0
  3
*D26
  1

  0
LINE
  5
7E2F
330
7E0F
100
AcDbEntity
  8
AM_5 寸法線
 62
     3
100
AcDbLine
 10
464.6369148820558
 20
612.6562788714704
 30
0.0
 11
464.6369148820558
 21
596.211700871471
 31
0.0
  0
LINE
  5
7E30
330
7E0F
100
AcDbEntity
  8
AM_5 寸法線
 62
     3
100
AcDbLine
 10
488.6369148820557
 20
611.1562788714702
 30
0.0
 11
488.6369148820557
 21
596.211700871471
 31
0.0
  0
LINE
  5
7E31
330
7E0F
100
AcDbEntity
  8
AM_5 寸法線
 62
     3
100
AcDbLine
 10
470.8869148820558
 20
597.774200871471
 30
0.0
 11
482.3869148820557
 21
597.774200871471
 31
0.0
  0
INSERT
  5
7E32
330
7E0F
100
AcDbEntity
  8
AM_5 寸法線
 62
     3
100
AcDbBlockReference
  2
_Open30
 10
464.6369148820558
 20
597.774200871471
 30
0.0
 41
6.25
 42
6.25
 43
6.25
 50
180.0
  0
INSERT
  5
7E33
330
7E0F
100
AcDbEntity
  8
AM_5 寸法線
 62
     3
100
AcDbBlockReference
  2
_Open30
 10
488.6369148820557
 20
597.774200871471
 30
0.0
 41
6.25
 42
6.25
 43
6.25
  0
MTEXT
  5
7E34
330
7E0F
100
AcDbEntity
  8
AM_5 寸法線
 62
     3
100
AcDbMText
 10
476.6369148820557
 20
605.899200871471
 30
0.0
 40
8.75
 41
0.0
 46
0.0
 71
     5
 72
     1
  1
24
  7
SEISA
 73
     1
 44
1.0
  0
POINT
  5
7E35
330
7E0F
100
AcDbEntity
  8
Defpoints
 62
     0
100
AcDbPoint
 10
464.6369148820558
 20
614.2187788714704
 30
0.0
  0
POINT
  5
7E36
102
{ACAD_REACTORS
330
7E48
102
}
330
7E0F
100
AcDbEntity
  8
Defpoints
 62
     0
100
AcDbPoint
 10
488.6369148820557
 20
612.7187788714702
 30
0.0
  0
POINT
  5
7E37
330
7E0F
100
AcDbEntity
  8
Defpoints
 62
     0
100
AcDbPoint
 10
488.6369148820557
 20
597.774200871471
 30
0.0
  0
ENDBLK
  5
7E11
330
7E0F
100
AcDbEntity
  8
0
100
AcDbBlockEnd
  0
BLOCK
  5
7E3A
330
7E39
100
AcDbEntity
  8
0
100
AcDbBlockBegin
  2
*D27
 70
     1
 10
0.0
 20
0.0
 30
0.0
  3
*D27
  1

  0
LINE
  5
7E80
330
7E39
100
AcDbEntity
  8
AM_5 寸法線
 62
     3
100
AcDbLine
 10
488.6369148820557
 20
611.1562788714702
 30
0.0
 11
488.6369148820557
 21
596.211700871471
 31
0.0
  0
LINE
  5
7E81
330
7E39
100
AcDbEntity
  8
AM_5 寸法線
 62
     3
100
AcDbLine
 10
506.6369148820558
 20
610.1562788714702
 30
0.0
 11
506.6369148820558
 21
596.211700871471
 31
0.0
  0
LINE
  5
7E82
330
7E39
100
AcDbEntity
  8
AM_5 寸法線
 62
     3
100
AcDbLine
 10
482.3869148820557
 20
597.774200871471
 30
0.0
 11
476.1369148820557
 21
597.774200871471
 31
0.0
  0
LINE
  5
7E83
330
7E39
100
AcDbEntity
  8
AM_5 寸法線
 62
     3
100
AcDbLine
 10
512.8869148820558
 20
597.774200871471
 30
0.0
 11
519.1369148820558
 21
597.774200871471
 31
0.0
  0
MTEXT
  5
7E84
330
7E39
100
AcDbEntity
  8
AM_5 寸法線
 62
     3
100
AcDbMText
 10
497.5898079545628
 20
605.4503076707057
 30
0.0
 40
8.75
 41
0.0
 46
0.0
 71
     5
 72
     1
  1
18
  7
SEISA
 73
     1
 44
1.0
  0
LINE
  5
7E85
330
7E39
100
AcDbEntity
  8
AM_5 寸法線
 62
     3
100
AcDbLine
 10
488.6369148820557
 20
597.774200871471
 30
0.0
 11
506.6369148820558
 21
597.774200871471
 31
0.0
  0
INSERT
  5
7E86
330
7E39
100
AcDbEntity
  8
AM_5 寸法線
 62
     3
100
AcDbBlockReference
  2
_Open30
 10
488.6369148820557
 20
597.774200871471
 30
0.0
 41
6.25
 42
6.25
 43
6.25
  0
INSERT
  5
7E87
330
7E39
100
AcDbEntity
  8
AM_5 寸法線
 62
     3
100
AcDbBlockReference
  2
_Open30
 10
506.6369148820558
 20
597.774200871471
 30
0.0
 41
6.25
 42
6.25
 43
6.25
 50
180.0
  0
POINT
  5
7E88
330
7E39
100
AcDbEntity
  8
Defpoints
 62
     0
100
AcDbPoint
 10
488.6369148820557
 20
612.7187788714702
 30
0.0
  0
POINT
  5
7E89
330
7E39
100
AcDbEntity
  8
Defpoints
 62
     0
100
AcDbPoint
 10
506.6369148820558
 20
611.7187788714702
 30
0.0
  0
POINT
  5
7E8A
330
7E39
100
AcDbEntity
  8
Defpoints
 62
     0
100
AcDbPoint
 10
506.6369148820558
 20
597.774200871471
 30
0.0
  0
ENDBLK
  5
7E3B
330
7E39
100
AcDbEntity
  8
0
100
AcDbBlockEnd
  0
BLOCK
  5
7FFF
330
7FFE
100
AcDbEntity
  8
0
100
AcDbBlockBegin
  2
ケース
 70
     0
 10
0.0
 20
0.0
 30
0.0
  3
ケース
  1

  0
LINE
  5
8001
330
7FFE
100
AcDbEntity
  8
AM_11 想像線
 48
0.2
100
AcDbLine
 10
-18.85639027640309
 20
-6.5
 30
0.0
 11
-15.85639027640309
 21
-6.5
 31
0.0
  0
LINE
  5
8002
330
7FFE
100
AcDbEntity
  8
AM_11 想像線
 48
0.2
100
AcDbLine
 10
0.0
 20
0.0
 30
0.0
 11
-28.85639027640309
 21
0.0
 31
0.0
  0
LINE
  5
8003
330
7FFE
100
AcDbEntity
  8
AM_11 想像線
 48
0.2
100
AcDbLine
 10
-19.85639027640309
 20
-13.25
 30
0.0
 11
-19.85639027640309
 21
-7.5
 31
0.0
  0
LINE
  5
8004
330
7FFE
100
AcDbEntity
  8
AM_11 想像線
 48
0.2
100
AcDbLine
 10
-32.85639027640309
 20
-4.0
 30
0.0
 11
-32.85639027640309
 21
-13.25
 31
0.0
  0
LINE
  5
8005
330
7FFE
100
AcDbEntity
  8
AM_11 想像線
 48
0.2
100
AcDbLine
 10
-29.65639027640305
 20
-9.800000000000068
 30
0.0
 11
-23.05639027640314
 21
-9.800000000000068
 31
0.0
  0
ARC
  5
8006
330
7FFE
100
AcDbEntity
  8
AM_11 想像線
 48
0.2
100
AcDbCircle
 10
-29.65639027640305
 20
-10.30000000000007
 30
0.0
 40
0.5
100
AcDbArc
 50
90.0
 51
180.0
  0
LINE
  5
8007
330
7FFE
100
AcDbEntity
  8
AM_11 想像線
 48
0.2
100
AcDbLine
 10
-30.15639027640304
 20
-13.25
 30
0.0
 11
-30.15639027640304
 21
-10.30000000000007
 31
0.0
  0
LINE
  5
8008
330
7FFE
100
AcDbEntity
  8
AM_11 想像線
 48
0.2
100
AcDbLine
 10
-32.85639027640309
 20
-13.25
 30
0.0
 11
-30.15639027640304
 21
-13.25
 31
0.0
  0
LINE
  5
8009
330
7FFE
100
AcDbEntity
  8
AM_11 想像線
 48
0.2
100
AcDbLine
 10
-30.15639027640304
 20
-13.25
 30
0.0
 11
-30.15639027640304
 21
-14.5
 31
0.0
  0
LINE
  5
800A
330
7FFE
100
AcDbEntity
  8
AM_11 想像線
 48
0.2
100
AcDbLine
 10
-32.85639027640309
 20
-13.25
 30
0.0
 11
-32.85639027640309
 21
-14.5
 31
0.0
  0
LINE
  5
800B
330
7FFE
100
AcDbEntity
  8
AM_11 想像線
 48
0.2
100
AcDbLine
 10
-22.55639027640313
 20
-13.25
 30
0.0
 11
-19.85639027640309
 21
-13.25
 31
0.0
  0
LINE
  5
800C
330
7FFE
100
AcDbEntity
  8
AM_11 想像線
 48
0.2
100
AcDbLine
 10
-22.55639027640313
 20
-10.30000000000007
 30
0.0
 11
-22.55639027640313
 21
-13.25
 31
0.0
  0
ARC
  5
800D
330
7FFE
100
AcDbEntity
  8
AM_11 想像線
 48
0.2
100
AcDbCircle
 10
-23.05639027640314
 20
-10.30000000000007
 30
0.0
 40
0.5
100
AcDbArc
 50
0.0
 51
90.0
  0
LINE
  5
800E
330
7FFE
100
AcDbEntity
  8
AM_11 想像線
 48
0.2
100
AcDbLine
 10
-19.85639027640309
 20
-13.25
 30
0.0
 11
-19.85639027640309
 21
-14.5
 31
0.0
  0
LINE
  5
800F
330
7FFE
100
AcDbEntity
  8
AM_11 想像線
 48
0.2
100
AcDbLine
 10
-22.55639027640313
 20
-13.25
 30
0.0
 11
-22.55639027640313
 21
-14.5
 31
0.0
  0
ARC
  5
8010
102
{ACAD_REACTORS
330
7CA7
102
}
330
7FFE
100
AcDbEntity
  8
AM_11 想像線
 48
0.2
100
AcDbCircle
 10
-28.85639027640309
 20
-4.0
 30
0.0
 40
4.0
100
AcDbArc
 50
90.0
 51
180.0
  0
ARC
  5
8011
330
7FFE
100
AcDbEntity
  8
AM_11 想像線
 48
0.2
100
AcDbCircle
 10
-18.85639027640309
 20
-7.5
 30
0.0
 40
1.0
100
AcDbArc
 50
90.0
 51
180.0
  0
LINE
  5
8012
330
7FFE
100
AcDbEntity
  8
AM_11 想像線
 48
0.2
100
AcDbLine
 10
0.0
 20
-11.5
 30
0.0
 11
-13.85639027640309
 21
-11.5
 31
0.0
  0
LINE
  5
8013
330
7FFE
100
AcDbEntity
  8
AM_11 想像線
 48
0.2
100
AcDbLine
 10
0.0
 20
-9.5
 30
0.0
 11
-16.85639027640309
 21
-9.5
 31
0.0
  0
LINE
  5
8014
330
7FFE
100
AcDbEntity
  8
AM_11 想像線
 48
0.2
100
AcDbLine
 10
0.0
 20
-7.0
 30
0.0
 11
-14.85639027640309
 21
-7.0
 31
0.0
  0
LINE
  5
8015
330
7FFE
100
AcDbEntity
  8
AM_11 想像線
 48
0.2
100
AcDbLine
 10
-14.85639027640309
 20
-8.099029000000085
 30
0.0
 11
-14.85639027640309
 21
-10.5
 31
0.0
  0
LINE
  5
8016
330
7FFE
100
AcDbEntity
  8
AM_11 想像線
 48
0.2
100
AcDbLine
 10
-14.85639027640309
 20
-10.5
 30
0.0
 11
-13.85639027640309
 21
-11.5
 31
0.0
  0
LINE
  5
8017
330
7FFE
100
AcDbEntity
  8
AM_11 想像線
 48
0.2
100
AcDbLine
 10
-14.85639027640309
 20
-8.099029000000085
 30
0.0
 11
-14.85639027640309
 21
-7.5
 31
0.0
  0
ARC
  5
8018
330
7FFE
100
AcDbEntity
  8
AM_11 想像線
 48
0.2
100
AcDbCircle
 10
-15.85639027640309
 20
-7.5
 30
0.0
 40
1.0
100
AcDbArc
 50
0.0
 51
90.0
  0
ENDBLK
  5
8000
330
7FFE
100
AcDbEntity
  8
0
100
AcDbBlockEnd
  0
ENDSEC
  0
SECTION
  2
ENTITIES
  0
LINE
  5
35F5
330
1F
100
AcDbEntity
  8
AM_7 中心線
100
AcDbLine
 10
389.6369148820559
 20
541.2187788714703
 30
0.0
 11
635.6369148820557
 21
541.2187788714703
 31
0.0
  0
LINE
  5
364A
330
1F
100
AcDbEntity
  8
AM_3 隠れ線
100
AcDbLine
 10
482.6369148820559
 20
546.2187788714703
 30
0.0
 11
506.6369148820558
 21
546.2187788714703
 31
0.0
  0
LINE
  5
364B
330
1F
100
AcDbEntity
  8
AM_3 隠れ線
100
AcDbLine
 10
506.6369148820558
 20
545.4687788714704
 30
0.0
 11
477.6369148820558
 21
545.4687788714704
 31
0.0
  0
LINE
  5
364C
330
1F
100
AcDbEntity
  8
AM_3 隠れ線
100
AcDbLine
 10
477.6369148820558
 20
545.4687788714704
 30
0.0
 11
475.1831758820558
 21
541.2187788714703
 31
0.0
  0
LINE
  5
364D
330
1F
100
AcDbEntity
  8
AM_3 隠れ線
100
AcDbLine
 10
477.6369148820558
 20
545.4687788714704
 30
0.0
 11
477.6369148820558
 21
541.2187788714703
 31
0.0
  0
LINE
  5
364E
330
1F
100
AcDbEntity
  8
AM_3 隠れ線
100
AcDbLine
 10
482.2039018820559
 20
545.4687788714704
 30
0.0
 11
482.2039018820559
 21
541.2187788714703
 31
0.0
  0
LINE
  5
364F
330
1F
100
AcDbEntity
  8
AM_3 隠れ線
100
AcDbLine
 10
482.6369148820559
 20
546.2187788714703
 30
0.0
 11
482.6369148820559
 21
541.2187788714703
 31
0.0
  0
LINE
  5
3650
330
1F
100
AcDbEntity
  8
AM_3 隠れ線
100
AcDbLine
 10
482.6369148820559
 20
546.2187788714703
 30
0.0
 11
482.2039018820559
 21
545.4687788714704
 31
0.0
  0
INSERT
  5
571F
102
{ACAD_REACTORS
330
669E
330
66B6
330
67BD
330
6825
102
}
330
1F
100
AcDbEntity
  8
AM_0 外形線1
100
AcDbBlockReference
  2
ケースＡ SSM224
 10
512.6369148820558
 20
541.2187788714703
 30
0.0
  0
INSERT
  5
5A11
102
{ACAD_REACTORS
330
6613
330
662B
330
6686
330
6CCA
102
}
330
1F
100
AcDbEntity
  8
AM_0 外形線1
100
AcDbBlockReference
  2
センタＡ SSM224
 10
518.6369148820558
 20
541.2187788714703
 30
0.0
  0
INSERT
  5
5AF1
102
{ACAD_REACTORS
330
6562
330
65A6
330
65F7
330
6613
330
6CCA
330
7CA7
330
7E1C
330
7E48
102
}
330
1F
100
AcDbEntity
  8
AM_0 外形線1
100
AcDbBlockReference
  2
センタＢ SSM224
 10
506.6369148820558
 20
541.2187788714703
 30
0.0
  0
INSERT
  5
5B10
102
{ACAD_REACTORS
330
65A6
330
678B
330
67BD
102
}
330
1F
100
AcDbEntity
  8
AM_0 外形線1
100
AcDbBlockReference
  2
ケースＢ SSM224
 10
512.6369148820558
 20
541.2187788714703
 30
0.0
  0
INSERT
  5
5CD7
330
1F
100
AcDbEntity
  8
AM_0 外形線1
100
AcDbBlockReference
  2
リーマボルト SSM224 M10
 10
497.6369148820558
 20
642.2187788714702
 30
0.0
  0
DIMENSION
  5
654B
102
{ACAD_XDICTIONARY
360
6558
102
}
102
{ACAD_REACTORS
330
6562
102
}
330
1F
100
AcDbEntity
  8
AM_5 寸法線
100
AcDbDimension
  2
*D12
 10
339.4463125138077
 20
468.7187788714703
 30
0.0
 11
339.4463125138076
 21
544.4794073906296
 31
0.0
 70
   160
  1
%%c<>
 71
     5
 42
145.0
 73
     0
 74
     0
 75
     0
  3
SEISA$0
100
AcDbAlignedDimension
 13
435.6369148820558
 23
613.7187788714704
 33
0.0
 14
435.6369148820558
 24
468.7187788714703
 34
0.0
 50
90.0
100
AcDbRotatedDimension
1001
ACAD_DSTYLE_DIMINSPECT
1070
   396
1000
100%
1070
   395
1000

1070
   394
1070
    33
1070
   393
1070
     0
  0
DIMENSION
  5
658B
102
{ACAD_XDICTIONARY
360
659A
102
}
102
{ACAD_REACTORS
330
65A6
330
7E1C
102
}
330
1F
100
AcDbEntity
  8
AM_5 寸法線
100
AcDbDimension
  2
*D13
 10
464.6369148820558
 20
597.7742008714702
 30
0.0
 11
441.5744148820557
 21
597.7742008714702
 31
0.0
 70
   160
 71
     5
 42
4.0
 73
     0
 74
     0
 75
     0
  3
SEISA$0
100
AcDbAlignedDimension
 13
460.6369148820558
 23
613.7187788714704
 33
0.0
 14
464.6369148820558
 24
614.2187788714704
 34
0.0
100
AcDbRotatedDimension
  0
DIMENSION
  5
65E0
102
{ACAD_XDICTIONARY
360
65ED
102
}
102
{ACAD_REACTORS
330
65F7
102
}
330
1F
100
AcDbEntity
  8
AM_5 寸法線
100
AcDbDimension
  2
*D14
 10
506.6369148820558
 20
557.5210674623323
 30
0.0
 11
450.6369148820557
 21
565.6460674623323
 31
0.0
 70
    32
 71
     5
 42
112.0
 73
     0
 74
     0
 75
     0
  3
SEISA$0
100
AcDbAlignedDimension
 13
394.6369148820559
 23
541.2187788714703
 33
0.0
 14
506.6369148820558
 24
541.2187788714703
 34
0.0
100
AcDbRotatedDimension
  0
DIMENSION
  5
65F8
102
{ACAD_XDICTIONARY
360
6607
102
}
102
{ACAD_REACTORS
330
6613
102
}
330
1F
100
AcDbEntity
  8
AM_5 寸法線
100
AcDbDimension
  2
*D15
 10
518.6369148820558
 20
557.5210674623323
 30
0.0
 11
529.0056082844056
 21
565.6775534829205
 31
0.0
 70
   160
 71
     5
 42
12.0
 73
     0
 74
     0
 75
     0
  3
SEISA$0
100
AcDbAlignedDimension
 13
506.6369148820558
 23
541.2187788714703
 33
0.0
 14
518.6369148820558
 24
541.2187788714703
 34
0.0
100
AcDbRotatedDimension
1001
ACAD
1000
DSTYLE
1002
{
1070
   279
1070
     2
1002
}
  0
DIMENSION
  5
6614
102
{ACAD_XDICTIONARY
360
6621
102
}
102
{ACAD_REACTORS
330
662B
102
}
330
1F
100
AcDbEntity
  8
AM_5 寸法線
100
AcDbDimension
  2
*D16
 10
630.6369148820557
 20
557.5210674623323
 30
0.0
 11
574.6369148820559
 21
565.6460674623323
 31
0.0
 70
    32
 71
     5
 42
112.0
 73
     0
 74
     0
 75
     0
  3
SEISA$0
100
AcDbAlignedDimension
 13
518.6369148820558
 23
541.2187788714703
 33
0.0
 14
630.6369148820557
 24
541.2187788714703
 34
0.0
100
AcDbRotatedDimension
  0
DIMENSION
  5
666F
102
{ACAD_XDICTIONARY
360
667C
102
}
102
{ACAD_REACTORS
330
6686
102
}
330
1F
100
AcDbEntity
  8
AM_5 寸法線
100
AcDbDimension
  2
*D17
 10
685.6369148820557
 20
468.7187788714702
 30
0.0
 11
677.5119148820557
 21
541.2187788714703
 31
0.0
 70
    32
  1
%%c<>
 71
     5
 42
145.0
 73
     0
 74
     0
 75
     0
  3
SEISA$0
100
AcDbAlignedDimension
 13
589.6369148820557
 23
613.7187788714704
 33
0.0
 14
589.6369148820557
 24
468.7187788714703
 34
0.0
 50
90.0
100
AcDbRotatedDimension
1001
ACAD_DSTYLE_DIMINSPECT
1070
   396
1000
100%
1070
   395
1000

1070
   394
1070
    33
1070
   393
1070
     0
  0
DIMENSION
  5
6687
102
{ACAD_XDICTIONARY
360
6694
102
}
102
{ACAD_REACTORS
330
669E
102
}
330
1F
100
AcDbEntity
  8
AM_5 寸法線
100
AcDbDimension
  2
*D18
 10
710.636914882056
 20
454.2187788714703
 30
0.0
 11
702.5119148820558
 21
541.2187788714703
 31
0.0
 70
    32
  1
%%c<>
 71
     5
 42
174.0
 73
     0
 74
     0
 75
     0
  3
SEISA$0
100
AcDbAlignedDimension
 13
573.6369148820557
 23
628.2187788714702
 33
0.0
 14
573.6369148820557
 24
454.2187788714703
 34
0.0
 50
90.0
100
AcDbRotatedDimension
1001
ACAD_DSTYLE_DIMINSPECT
1070
   396
1000
100%
1070
   395
1000

1070
   394
1070
    33
1070
   393
1070
     0
  0
DIMENSION
  5
669F
102
{ACAD_XDICTIONARY
360
66AC
102
}
102
{ACAD_REACTORS
330
66B6
102
}
330
1F
100
AcDbEntity
  8
AM_5 寸法線
100
AcDbDimension
  2
*D19
 10
735.6369148820561
 20
429.2187788714703
 30
0.0
 11
727.5119148820558
 21
541.2187788714703
 31
0.0
 70
    32
  1
%%c<>
 71
     5
 42
224.0
 73
     0
 74
     0
 75
     0
  3
SEISA$0
100
AcDbAlignedDimension
 13
526.6369148820558
 23
653.2187788714702
 33
0.0
 14
526.6369148820558
 24
429.2187788714703
 34
0.0
 50
90.0
100
AcDbRotatedDimension
1001
ACAD_DSTYLE_DIMINSPECT
1070
   396
1000
100%
1070
   395
1000

1070
   394
1070
    33
1070
   393
1070
     0
  0
DIMENSION
  5
6770
102
{ACAD_XDICTIONARY
360
677F
102
}
102
{ACAD_REACTORS
330
678B
102
}
330
1F
100
AcDbEntity
  8
AM_5 寸法線
100
AcDbDimension
  2
*D20
 10
512.6369148820558
 20
404.2187788714703
 30
0.0
 11
485.8038327623729
 21
412.4103612802645
 31
0.0
 70
   160
 71
     5
 42
15.0
 73
     0
 74
     0
 75
     0
  3
SEISA$0
100
AcDbAlignedDimension
 13
497.6369148820558
 23
430.2187788714703
 33
0.0
 14
512.6369148820558
 24
430.2187788714703
 34
0.0
100
AcDbRotatedDimension
1001
ACAD_DSTYLE_DIMINSPECT
1070
   396
1000
100%
1070
   395
1000

1070
   394
1070
    33
1070
   393
1070
     0
1001
ACAD
1000
DSTYLE
1002
{
1070
   173
1070
     1
1070
   279
1070
     2
1070
   342
1005
0
1070
   343
1005
69
1070
   344
1005
7178
1002
}
  0
DIMENSION
  5
67A2
102
{ACAD_XDICTIONARY
360
67B1
102
}
102
{ACAD_REACTORS
330
67BD
102
}
330
1F
100
AcDbEntity
  8
AM_5 寸法線
100
AcDbDimension
  2
*D21
 10
527.6369148820558
 20
404.2187788714703
 30
0.0
 11
536.2074347449492
 21
412.3916847682166
 31
0.0
 70
   160
 71
     5
 42
15.0
 73
     0
 74
     0
 75
     0
  3
SEISA$0
100
AcDbAlignedDimension
 13
512.6369148820558
 23
430.2187788714703
 33
0.0
 14
527.6369148820558
 24
430.2187788714703
 34
0.0
100
AcDbRotatedDimension
1001
ACAD_DSTYLE_DIMINSPECT
1070
   396
1000
100%
1070
   395
1000

1070
   394
1070
    33
1070
   393
1070
     0
1001
ACAD
1000
DSTYLE
1002
{
1070
   173
1070
     1
1070
   279
1070
     2
1070
   342
1005
0
1070
   343
1005
7178
1070
   344
1005
69
1002
}
  0
DIMENSION
  5
680E
102
{ACAD_XDICTIONARY
360
681B
102
}
102
{ACAD_REACTORS
330
6825
102
}
330
1F
100
AcDbEntity
  8
AM_5 寸法線
100
AcDbDimension
  2
*D22
 10
577.6369148820557
 20
379.2187788714703
 30
0.0
 11
512.6369148820558
 21
387.3437788714704
 31
0.0
 70
    32
 71
     5
 42
130.0
 73
     0
 74
     0
 75
     0
  3
SEISA$0
100
AcDbAlignedDimension
 13
447.6369148820558
 23
458.2187788714703
 33
0.0
 14
577.6369148820557
 24
458.2187788714703
 34
0.0
100
AcDbRotatedDimension
  0
DIMENSION
  5
6CB3
102
{ACAD_XDICTIONARY
360
6CC0
102
}
102
{ACAD_REACTORS
330
6CCA
102
}
330
1F
100
AcDbEntity
  8
AM_5 寸法線
100
AcDbDimension
  2
*D23
 10
630.6369148820557
 20
354.2187788714703
 30
0.0
 11
512.6369148820558
 21
362.3437788714704
 31
0.0
 70
    32
 71
     5
 42
236.0
 73
     0
 74
     0
 75
     0
  3
SEISA$0
100
AcDbAlignedDimension
 13
394.6369148820559
 23
474.1871277020599
 33
0.0
 14
630.6369148820557
 24
474.1871277020599
 34
0.0
100
AcDbRotatedDimension
  0
LINE
  5
72B0
330
1F
100
AcDbEntity
  8
AM_5 寸法線
100
AcDbLine
 10
540.1369148820558
 20
404.2187788714703
 30
0.0
 11
545.6233658093329
 21
404.2187788714703
 31
0.0
  0
LINE
  5
72B1
330
1F
100
AcDbEntity
  8
AM_5 寸法線
100
AcDbLine
 10
485.1369148820558
 20
404.2187788714703
 30
0.0
 11
478.3833199790191
 21
404.2187788714703
 31
0.0
  0
MTEXT
  5
7C07
330
1F
100
AcDbEntity
  8
AM_6 文字
100
AcDbMText
 10
646.1090025076154
 20
410.8946244755873
 30
0.0
 40
8.75
 41
196.4580697380888
 46
24.39230497740728
 71
     1
 72
     5
  1
{\W0.6;TYPE:SSM224/SSMH224\PSHAFT DIA:MAX/MIN φ100/φ42}
  7
SEISA
 73
     1
 44
1.0
  0
DIMENSION
  5
7C99
102
{ACAD_XDICTIONARY
360
7CA6
102
}
102
{ACAD_REACTORS
330
7CA7
102
}
330
1F
100
AcDbEntity
  8
AM_5 寸法線
100
AcDbDimension
  2
*D25
 10
394.6369148820559
 20
653.2187788714702
 30
0.0
 11
411.8244148820558
 21
661.3437788714702
 31
0.0
 70
    32
 71
     5
 42
-1.0
 73
     0
 74
     0
 75
     0
  3
SEISA$0
100
AcDbAlignedDimension
 13
393.6369148820558
 23
624.2187788714702
 33
0.0
 14
394.6369148820559
 24
609.1187788714702
 34
0.0
100
AcDbRotatedDimension
1001
ACAD_DSTYLE_DIMINSPECT
1070
   396
1000
100%
1070
   395
1000

1070
   394
1070
    33
1070
   393
1070
     0
  0
DIMENSION
  5
7E0E
102
{ACAD_XDICTIONARY
360
7E1B
102
}
102
{ACAD_REACTORS
330
7E1C
330
7E48
102
}
330
1F
100
AcDbEntity
  8
AM_5 寸法線
100
AcDbDimension
  2
*D26
 10
488.6369148820557
 20
597.774200871471
 30
0.0
 11
476.6369148820557
 21
605.899200871471
 31
0.0
 70
    32
 71
     5
 42
24.0
 73
     0
 74
     0
 75
     0
  3
SEISA$0
100
AcDbAlignedDimension
 13
464.6369148820558
 23
614.2187788714704
 33
0.0
 14
488.6369148820557
 24
612.7187788714702
 34
0.0
 50
0.0000000000001132
100
AcDbRotatedDimension
1001
ACAD_DSTYLE_DIMINSPECT
1070
   396
1000
100%
1070
   395
1000

1070
   394
1070
    33
1070
   393
1070
     0
  0
DIMENSION
  5
7E38
102
{ACAD_XDICTIONARY
360
7E47
102
}
102
{ACAD_REACTORS
330
7E48
102
}
330
1F
100
AcDbEntity
  8
AM_5 寸法線
100
AcDbDimension
  2
*D27
 10
506.6369148820558
 20
597.774200871471
 30
0.0
 11
497.5898079545628
 21
605.4503076707057
 31
0.0
 70
   160
 71
     5
 42
18.0
 73
     0
 74
     0
 75
     0
  3
SEISA$0
100
AcDbAlignedDimension
 13
488.6369148820557
 23
612.7187788714702
 33
0.0
 14
506.6369148820558
 24
611.7187788714702
 34
0.0
 50
0.0000000000001132
100
AcDbRotatedDimension
1001
ACAD_DSTYLE_DIMINSPECT
1070
   396
1000
100%
1070
   395
1000

1070
   394
1070
    33
1070
   393
1070
     0
1001
ACAD
1000
DSTYLE
1002
{
1070
   279
1070
     2
1002
}
  0
INSERT
  5
8019
330
1F
100
AcDbEntity
  8
AM_11 想像線
100
AcDbBlockReference
  2
ケース
 10
426.493305158459
 20
628.2187788714702
 30
0.0
  0
ENDSEC
  0
SECTION
  2
OBJECTS
  0
DICTIONARY
  5
C
330
0
100
AcDbDictionary
281
     1
  3
ACAD_COLOR
350
C5
  3
ACAD_GROUP
350
D
  3
ACAD_LAYOUT
350
1A
  3
ACAD_MATERIAL
350
C4
  3
ACAD_MLEADERSTYLE
350
2D5
  3
ACAD_MLINESTYLE
350
17
  3
ACAD_PLOTSETTINGS
350
19
  3
ACAD_PLOTSTYLENAME
350
E
  3
ACAD_SCALELIST
350
2B3
  3
ACAD_TABLESTYLE
350
121
  3
ACAD_VISUALSTYLE
350
27F
  3
ACDB_RECOMPOSE_DATA
350
2F7
  3
AcDbVariableDictionary
350
34
  3
AcmDictionary
350
49
  3
AMG
350
2B
  3
AMGSNAPSETTINGS
350
1DE
  0
DICTIONARY
  5
BF
330
2
100
AcDbDictionary
280
     1
281
     1
  3
ACAD_LAYERSTATES
360
7BFE
  3
AMLAYER_GROUPCOLORS
360
C0
  0
DICTIONARY
  5
29D8
330
10
100
AcDbDictionary
280
     1
281
     1
  3
ADSK_XREC_LAYER_RECONCILED
360
29D9
  0
DICTIONARY
  5
29DA
330
81
100
AcDbDictionary
280
     1
281
     1
  3
ADSK_XREC_LAYER_RECONCILED
360
29DB
  0
DICTIONARY
  5
29E1
330
25C9
100
AcDbDictionary
280
     1
281
     1
  3
ADSK_XREC_LAYER_RECONCILED
360
29E2
  0
DICTIONARY
  5
29E3
330
25CA
100
AcDbDictionary
280
     1
281
     1
  3
ADSK_XREC_LAYER_RECONCILED
360
29E4
  0
DICTIONARY
  5
29E9
330
26B3
100
AcDbDictionary
280
     1
281
     1
  3
ADSK_XREC_LAYER_RECONCILED
360
29EA
  0
DICTIONARY
  5
82
330
1F
100
AcDbDictionary
280
     1
281
     1
  3
ACAD_SORTENTS
360
A41
  0
DICTIONARY
  5
5EBC
330
563D
100
AcDbDictionary
280
     1
281
     1
  3
ACAD_SORTENTS
360
5EBD
  0
DICTIONARY
  5
57CD
330
56DE
100
AcDbDictionary
280
     1
281
     1
  3
ACAD_SORTENTS
360
7648
  0
DICTIONARY
  5
5976
330
5896
100
AcDbDictionary
280
     1
281
     1
  3
ACAD_SORTENTS
360
7589
  0
DICTIONARY
  5
5A5C
330
59EB
100
AcDbDictionary
280
     1
281
     1
  3
ACAD_SORTENTS
360
7F42
  0
DICTIONARY
  5
5B31
330
5AC5
100
AcDbDictionary
280
     1
281
     1
  3
ACAD_SORTENTS
360
7EFA
  0
DICTIONARY
  5
5D48
330
5CA6
100
AcDbDictionary
280
     1
281
     1
  3
ACAD_SORTENTS
360
76EC
  0
DICTIONARY
  5
6558
330
654B
100
AcDbDictionary
280
     1
281
     1
  3
ACAD_DIMASSOC
360
6562
  0
DICTIONARY
  5
659A
330
658B
100
AcDbDictionary
280
     1
281
     1
  3
ACAD_DIMASSOC
360
65A6
  0
DICTIONARY
  5
65ED
330
65E0
100
AcDbDictionary
280
     1
281
     1
  3
ACAD_DIMASSOC
360
65F7
  0
DICTIONARY
  5
6607
330
65F8
100
AcDbDictionary
280
     1
281
     1
  3
ACAD_DIMASSOC
360
6613
  0
DICTIONARY
  5
6621
330
6614
100
AcDbDictionary
280
     1
281
     1
  3
ACAD_DIMASSOC
360
662B
  0
DICTIONARY
  5
667C
330
666F
100
AcDbDictionary
280
     1
281
     1
  3
ACAD_DIMASSOC
360
6686
  0
DICTIONARY
  5
6694
330
6687
100
AcDbDictionary
280
     1
281
     1
  3
ACAD_DIMASSOC
360
669E
  0
DICTIONARY
  5
66AC
330
669F
100
AcDbDictionary
280
     1
281
     1
  3
ACAD_DIMASSOC
360
66B6
  0
DICTIONARY
  5
677F
330
6770
100
AcDbDictionary
280
     1
281
     1
  3
ACAD_DIMASSOC
360
678B
  0
DICTIONARY
  5
67B1
330
67A2
100
AcDbDictionary
280
     1
281
     1
  3
ACAD_DIMASSOC
360
67BD
  0
DICTIONARY
  5
681B
330
680E
100
AcDbDictionary
280
     1
281
     1
  3
ACAD_DIMASSOC
360
6825
  0
DICTIONARY
  5
6CC0
330
6CB3
100
AcDbDictionary
280
     1
281
     1
  3
ACAD_DIMASSOC
360
6CCA
  0
DICTIONARY
  5
7CA6
330
7C99
100
AcDbDictionary
280
     1
281
     1
  3
ACAD_DIMASSOC
360
7CA7
  0
DICTIONARY
  5
7E1B
330
7E0E
100
AcDbDictionary
280
     1
281
     1
  3
ACAD_DIMASSOC
360
7E1C
  0
DICTIONARY
  5
7E47
330
7E38
100
AcDbDictionary
280
     1
281
     1
  3
ACAD_DIMASSOC
360
7E48
  0
DICTIONARY
  5
C5
102
{ACAD_REACTORS
330
C
102
}
330
C
100
AcDbDictionary
281
     1
  0
DICTIONARY
  5
D
102
{ACAD_REACTORS
330
C
102
}
330
C
100
AcDbDictionary
281
     1
  0
DICTIONARY
  5
1A
102
{ACAD_REACTORS
330
C
102
}
330
C
100
AcDbDictionary
281
     1
  3
Model
350
22
  3
レイアウト1
350
1E
  3
レイアウト2
350
26
  0
DICTIONARY
  5
C4
102
{ACAD_REACTORS
330
C
102
}
330
C
100
AcDbDictionary
281
     1
  3
ByBlock
350
27D
  3
ByLayer
350
27C
  3
Global
350
27E
  0
DICTIONARY
  5
2D5
102
{ACAD_REACTORS
330
C
102
}
330
C
100
AcDbDictionary
281
     1
  3
Standard
350
2D6
  0
DICTIONARY
  5
17
102
{ACAD_REACTORS
330
C
102
}
330
C
100
AcDbDictionary
281
     1
  3
Standard
350
18
  0
DICTIONARY
  5
19
102
{ACAD_REACTORS
330
C
102
}
330
C
100
AcDbDictionary
281
     1
  3
SEISA基本
350
1C7E
  0
ACDBDICTIONARYWDFLT
  5
E
102
{ACAD_REACTORS
330
C
102
}
330
C
100
AcDbDictionary
281
     1
  3
Normal
350
F
100
AcDbDictionaryWithDefault
340
F
  0
DICTIONARY
  5
2B3
102
{ACAD_REACTORS
330
C
102
}
330
C
100
AcDbDictionary
281
     1
  3
*A1
350
29F3
  3
*A2
350
7BFD
  3
A0
350
2B4
  3
A1
350
2B5
  3
A2
350
2B6
  3
A3
350
2B7
  3
A4
350
2B8
  3
A5
350
2B9
  3
A6
350
2BA
  3
A7
350
2BB
  3
A8
350
2BC
  3
A9
350
2BD
  3
B0
350
2BE
  3
B1
350
2BF
  3
B2
350
2C0
  3
B3
350
2C1
  3
B4
350
2C2
  3
B5
350
2C3
  3
B6
350
2C4
  3
B7
350
2C5
  3
B8
350
2C6
  3
B9
350
2C7
  3
C0
350
2C8
  3
C1
350
2C9
  3
C2
350
2CA
  3
C3
350
2CB
  3
C4
350
2CC
  3
C5
350
2CD
  3
C6
350
2CE
  3
C7
350
2CF
  3
C8
350
2D0
  3
C9
350
2D1
  3
D0
350
2D2
  3
D1
350
2D3
  3
D2
350
2D4
  0
DICTIONARY
  5
121
102
{ACAD_REACTORS
330
C
102
}
330
C
100
AcDbDictionary
281
     1
  3
Standard
350
122
  0
DICTIONARY
  5
27F
102
{ACAD_REACTORS
330
C
102
}
330
C
100
AcDbDictionary
281
     1
  3
2dWireframe
350
285
  3
3D Hidden
350
287
  3
3dWireframe
350
286
  3
Basic
350
284
  3
Brighten
350
28B
  3
ColorChange
350
28F
  3
Conceptual
350
288
  3
Dim
350
28A
  3
Facepattern
350
28E
  3
Flat
350
280
  3
FlatWithEdges
350
281
  3
Gouraud
350
282
  3
GouraudWithEdges
350
283
  3
Linepattern
350
28D
  3
Realistic
350
289
  3
Thicken
350
28C
  0
XRECORD
  5
2F7
102
{ACAD_REACTORS
330
C
102
}
330
C
100
AcDbXrecord
280
     1
 90
        1
330
122
  0
DICTIONARY
  5
34
102
{ACAD_REACTORS
330
C
102
}
330
C
100
AcDbDictionary
281
     1
  3
CANNOSCALE
350
2FA
  3
CMLEADERSTYLE
350
2F8
  3
CTABLESTYLE
350
140
  3
DIMASSOC
350
AC
  3
INDEXCTL
350
35
  3
LAYEREVAL
350
6423
  3
LAYERNOTIFY
350
6424
  3
LIGHTINGUNITS
350
2FB
  3
MSLTSCALE
350
2F9
  0
DICTIONARY
  5
49
102
{ACAD_REACTORS
330
C
102
}
330
C
100
AcDbDictionary
281
     1
  3
AcmBOM
350
161B
  3
AcmStdDictionary
350
4A
  3
AMDTSECTSYM_ARROWCOLOR
350
12B
  0
DICTIONARY
  5
2B
102
{ACAD_REACTORS
330
C
102
}
330
C
100
AcDbDictionary
281
     1
  0
DICTIONARY
  5
1DE
102
{ACAD_REACTORS
330
C
102
}
330
C
100
AcDbDictionary
281
     1
  0
DICTIONARY
  5
7BFE
102
{ACAD_REACTORS
330
BF
102
}
330
BF
100
AcDbDictionary
281
     1
  0
DICTIONARY
  5
C0
102
{ACAD_REACTORS
330
BF
102
}
330
BF
100
AcDbDictionary
280
     1
281
     1
  0
XRECORD
  5
29D9
102
{ACAD_REACTORS
330
29D8
102
}
330
29D8
100
AcDbXrecord
280
     1
290
     1
  0
XRECORD
  5
29DB
102
{ACAD_REACTORS
330
29DA
102
}
330
29DA
100
AcDbXrecord
280
     1
290
     1
  0
XRECORD
  5
29E2
102
{ACAD_REACTORS
330
29E1
102
}
330
29E1
100
AcDbXrecord
280
     1
290
     1
  0
XRECORD
  5
29E4
102
{ACAD_REACTORS
330
29E3
102
}
330
29E3
100
AcDbXrecord
280
     1
290
     1
  0
XRECORD
  5
29EA
102
{ACAD_REACTORS
330
29E9
102
}
330
29E9
100
AcDbXrecord
280
     1
290
     1
  0
SORTENTSTABLE
  5
A41
102
{ACAD_REACTORS
330
82
102
}
330
82
100
AcDbSortentsTable
330
1F
331
5AF1
  5
5B10
331
364D
  5
364D
331
658B
  5
65A7
331
6770
  5
67A2
331
6687
  5
669F
331
72B0
  5
72B1
331
5CD7
  5
647A
331
364A
  5
364A
331
364E
  5
364E
331
669F
  5
66F0
331
680E
  5
6826
331
6CB3
  5
6D3A
331
65E0
  5
65F8
331
7C07
  5
7C07
331
364B
  5
364B
331
72B1
  5
72B2
331
364F
  5
364F
331
5B10
  5
5CD7
331
6614
  5
666F
331
571F
  5
5A11
331
35F5
  5
35F5
331
654B
  5
658B
331
364C
  5
364C
331
65F8
  5
6614
331
666F
  5
6687
331
5A11
  5
5AF1
331
3650
  5
3650
331
67A2
  5
67DE
  0
SORTENTSTABLE
  5
5EBD
102
{ACAD_REACTORS
330
5EBC
102
}
330
5EBC
100
AcDbSortentsTable
330
563D
  0
SORTENTSTABLE
  5
7648
102
{ACAD_REACTORS
330
57CD
102
}
330
57CD
100
AcDbSortentsTable
330
56DE
  0
SORTENTSTABLE
  5
7589
102
{ACAD_REACTORS
330
5976
102
}
330
5976
100
AcDbSortentsTable
330
5896
331
5970
  5
5972
331
58BD
  5
58BE
331
58BB
  5
58BC
331
58B9
  5
58BA
331
58B7
  5
58B8
331
58B5
  5
58B6
331
58A7
  5
58A8
331
58B3
  5
58B4
331
58A5
  5
58A6
331
58B1
  5
58B2
331
58A3
  5
58A4
331
58AF
  5
58B0
331
58A1
  5
58A2
331
58AD
  5
58AE
331
58AB
  5
58AC
331
589F
  5
58A0
331
58A9
  5
58AA
331
58C4
  5
58C5
331
589D
  5
589E
331
5975
  5
5899
331
58C2
  5
58C3
331
589B
  5
589C
331
58CE
  5
596F
331
5973
  5
5971
331
58C0
  5
58C1
331
5899
  5
589A
331
58BE
  5
58BF
331
5971
  5
5973
331
58BC
  5
58BD
331
58BA
  5
58BB
331
58B8
  5
58B9
331
58B6
  5
58B7
331
58B4
  5
58B5
331
58B2
  5
58B3
331
58A6
  5
58A7
331
596F
  5
5970
331
58A4
  5
58A5
331
58B0
  5
58B1
331
58A2
  5
58A3
331
58AE
  5
58AF
331
58A0
  5
58A1
331
58AC
  5
58AD
331
58C5
  5
58CD
331
589E
  5
589F
331
58AA
  5
58AB
331
58C3
  5
58C4
331
589C
  5
589D
331
58A8
  5
58A9
331
58CD
  5
58CE
331
589A
  5
589B
331
5974
  5
5975
331
58C1
  5
58C2
331
5972
  5
5974
331
58BF
  5
58C0
  0
SORTENTSTABLE
  5
7F42
102
{ACAD_REACTORS
330
5A5C
102
}
330
5A5C
100
AcDbSortentsTable
330
59EB
331
59F9
  5
59FB
331
59F8
  5
59FA
331
59FB
  5
59FF
331
59FA
  5
59FC
331
59FF
  5
5A01
331
59FC
  5
5A00
331
5A01
  5
5A03
331
5A00
  5
5A02
331
5A03
  5
5A05
331
5A02
  5
5A04
331
5A06
  5
5A08
331
5A05
  5
5A07
331
5A08
  5
5A0A
331
59F0
  5
59F2
331
5A07
  5
5A09
331
5A0A
  5
5A0C
331
59F2
  5
59F4
331
5A09
  5
5A0B
331
59F1
  5
59F3
331
5A0C
  5
7DEA
331
59F4
  5
59F6
331
5A0B
  5
5A0F
331
59F3
  5
59F5
331
59EF
  5
59F1
331
59F6
  5
59F8
331
59EE
  5
59F0
331
59F5
  5
59F7
331
7DEA
  5
59EE
331
5A0F
  5
7DEB
331
59F7
  5
59F9
331
7DEB
  5
59EF
331
5A04
  5
5A06
  0
SORTENTSTABLE
  5
7EFA
102
{ACAD_REACTORS
330
5B31
102
}
330
5B31
100
AcDbSortentsTable
330
5AC5
331
5ADE
  5
5AE1
331
7D82
  5
5AC9
331
5AD6
  5
5AD9
331
5ACE
  5
5AD0
331
5ACF
  5
5AD1
331
5AE0
  5
7D05
331
5AD8
  5
5ADA
331
5AD0
  5
5AD2
331
5AE1
  5
7D82
331
7D05
  5
5ACA
331
5AD9
  5
5ADB
331
5AD1
  5
5AD3
331
5AC9
  5
5ACB
331
5ADA
  5
5ADC
331
5AD2
  5
5AD4
331
5ACA
  5
5ACC
331
5ADB
  5
5ADD
331
5AD3
  5
5AD5
331
5ACB
  5
5ACD
331
5ADC
  5
5ADE
331
5AD4
  5
5AD6
331
5ACC
  5
5ACE
331
5ADD
  5
5AE0
331
5AD5
  5
5AD8
331
5ACD
  5
5ACF
  0
SORTENTSTABLE
  5
76EC
102
{ACAD_REACTORS
330
5D48
102
}
330
5D48
100
AcDbSortentsTable
330
5CA6
  0
DIMASSOC
  5
6562
102
{ACAD_REACTORS
330
6558
102
}
330
6558
100
AcDbDimAssoc
330
654B
 90
        3
 70
     0
 71
     0
  1
AcDbOsnapPointRef
 72
    13
331
5AF1
331
5AC9
 73
     2
 91
        0
 40
0.0
 10
0.0
 20
0.0
 30
2.000000000000000E+50
 75
     0
  1
AcDbOsnapPointRef
 72
     8
331
5AF1
331
5ACF
 73
     2
 91
        0
 40
1.0
 10
0.0
 20
0.0
 30
0.0
 75
     1
  1
AcDbOsnapPointRef
 72
    13
331
5AF1
331
5AC9
 73
     2
 91
        0
 40
0.0
 10
0.0
 20
0.0
 30
2.000000000000000E+50
 75
     0
  0
DIMASSOC
  5
65A6
102
{ACAD_REACTORS
330
659A
102
}
330
659A
100
AcDbDimAssoc
330
658B
 90
        3
 70
     0
 71
     0
  1
AcDbOsnapPointRef
 72
     1
331
5B10
331
58B0
 73
     2
 91
        0
 40
1.0
 10
0.0
 20
0.0
 30
2.000000000000000E+50
 75
     0
  1
AcDbOsnapPointRef
 72
    13
331
5AF1
331
5ADA
 73
     2
 91
        0
 40
0.0
 10
0.0
 20
0.0
 30
2.000000000000000E+50
 75
     0
  0
DIMASSOC
  5
65F7
102
{ACAD_REACTORS
330
65ED
102
}
330
65ED
100
AcDbDimAssoc
330
65E0
 90
        3
 70
     0
 71
     0
  1
AcDbOsnapPointRef
 72
     2
331
5AF1
331
5ACA
 73
     2
 91
        0
 40
0.5
 10
0.0
 20
0.0
 30
0.0
 75
     0
  1
AcDbOsnapPointRef
 72
     1
331
5AF1
331
5AD4
 73
     2
 91
        0
 40
1.0
 10
0.0
 20
0.0
 30
2.000000000000000E+50
 75
     0
  0
DIMASSOC
  5
6613
102
{ACAD_REACTORS
330
6607
102
}
330
6607
100
AcDbDimAssoc
330
65F8
 90
        3
 70
     0
 71
     0
  1
AcDbOsnapPointRef
 72
     1
331
5AF1
331
5AD4
 73
     2
 91
        0
 40
1.0
 10
0.0
 20
0.0
 30
2.000000000000000E+50
 75
     0
  1
AcDbOsnapPointRef
 72
     1
331
5A11
331
59F0
 73
     2
 91
        0
 40
1.0
 10
0.0
 20
0.0
 30
2.000000000000000E+50
 75
     0
  0
DIMASSOC
  5
662B
102
{ACAD_REACTORS
330
6621
102
}
330
6621
100
AcDbDimAssoc
330
6614
 90
        3
 70
     0
 71
     0
  1
AcDbOsnapPointRef
 72
     1
331
5A11
331
59F0
 73
     2
 91
        0
 40
1.0
 10
0.0
 20
0.0
 30
2.000000000000000E+50
 75
     0
  1
AcDbOsnapPointRef
 72
     2
331
5A11
331
5A0C
 73
     2
 91
        0
 40
0.5
 10
0.0
 20
0.0
 30
0.0
 75
     0
  0
DIMASSOC
  5
6686
102
{ACAD_REACTORS
330
667C
102
}
330
667C
100
AcDbDimAssoc
330
666F
 90
        3
 70
     0
 71
     0
  1
AcDbOsnapPointRef
 72
    13
331
5A11
331
5A05
 73
     2
 91
        0
 40
0.0
 10
0.0
 20
0.0
 30
2.000000000000000E+50
 75
     0
  1
AcDbOsnapPointRef
 72
     8
331
5A11
331
59F8
 73
     2
 91
        0
 40
1.0
 10
0.0
 20
0.0
 30
0.0
 75
     1
  1
AcDbOsnapPointRef
 72
    13
331
5A11
331
5A05
 73
     2
 91
        0
 40
0.0
 10
0.0
 20
0.0
 30
2.000000000000000E+50
 75
     0
  0
DIMASSOC
  5
669E
102
{ACAD_REACTORS
330
6694
102
}
330
6694
100
AcDbDimAssoc
330
6687
 90
        3
 70
     0
 71
     0
  1
AcDbOsnapPointRef
 72
     1
331
571F
331
56ED
 73
     2
 91
        0
 40
1.0
 10
0.0
 20
0.0
 30
2.000000000000000E+50
 75
     0
  1
AcDbOsnapPointRef
 72
     1
331
571F
331
56E4
 73
     2
 91
        0
 40
1.0
 10
0.0
 20
0.0
 30
2.000000000000000E+50
 75
     0
  0
DIMASSOC
  5
66B6
102
{ACAD_REACTORS
330
66AC
102
}
330
66AC
100
AcDbDimAssoc
330
669F
 90
        3
 70
     0
 71
     0
  1
AcDbOsnapPointRef
 72
     1
331
571F
331
5704
 73
     2
 91
        0
 40
1.0
 10
0.0
 20
0.0
 30
2.000000000000000E+50
 75
     0
  1
AcDbOsnapPointRef
 72
     1
331
571F
331
56E5
 73
     2
 91
        0
 40
1.0
 10
0.0
 20
0.0
 30
2.000000000000000E+50
 75
     0
  0
DIMASSOC
  5
678B
102
{ACAD_REACTORS
330
677F
102
}
330
677F
100
AcDbDimAssoc
330
6770
 90
        3
 70
     0
 71
     0
  1
AcDbOsnapPointRef
 72
    13
331
5B10
331
5899
 73
     2
 91
        0
 40
0.0
 10
0.0
 20
0.0
 30
2.000000000000000E+50
 75
     0
  1
AcDbOsnapPointRef
 72
    13
331
5B10
331
58A1
 73
     2
 91
        0
 40
0.0
 10
0.0
 20
0.0
 30
2.000000000000000E+50
 75
     0
  0
DIMASSOC
  5
67BD
102
{ACAD_REACTORS
330
67B1
102
}
330
67B1
100
AcDbDimAssoc
330
67A2
 90
        3
 70
     0
 71
     0
  1
AcDbOsnapPointRef
 72
    13
331
5B10
331
58A1
 73
     2
 91
        0
 40
0.0
 10
0.0
 20
0.0
 30
2.000000000000000E+50
 75
     0
  1
AcDbOsnapPointRef
 72
    13
331
571F
331
56E2
 73
     2
 91
        0
 40
0.0
 10
0.0
 20
0.0
 30
2.000000000000000E+50
 75
     0
  0
DIMASSOC
  5
6825
102
{ACAD_REACTORS
330
681B
102
}
330
681B
100
AcDbDimAssoc
330
680E
 90
        2
 70
     0
 71
     0
  1
AcDbOsnapPointRef
 72
    13
331
571F
331
56E3
 73
     2
 91
        0
 40
0.0
 10
0.0
 20
0.0
 30
2.000000000000000E+50
 75
     0
  0
DIMASSOC
  5
6CCA
102
{ACAD_REACTORS
330
6CC0
102
}
330
6CC0
100
AcDbDimAssoc
330
6CB3
 90
        3
 70
     0
 71
     0
  1
AcDbOsnapPointRef
 72
    10
331
5AF1
331
5ACA
 73
     2
 91
        0
 40
0.006394321285638
 10
0.0
 20
0.0
 30
0.0
 75
     0
  1
AcDbOsnapPointRef
 72
     8
331
5A11
331
5A0C
 73
     2
 91
        0
 40
0.006394321285638
 10
0.0
 20
0.0
 30
0.0
 75
     1
  1
AcDbOsnapPointRef
 72
    10
331
5AF1
331
5ACA
 73
     2
 91
        0
 40
0.006394321285638
 10
0.0
 20
0.0
 30
0.0
 75
     0
  0
DIMASSOC
  5
7CA7
102
{ACAD_REACTORS
330
7CA6
102
}
330
7CA6
100
AcDbDimAssoc
330
7C99
 90
        2
 70
     0
 71
     0
  1
AcDbOsnapPointRef
 72
     1
331
5AF1
331
5ACA
 73
     0
 91
        0
 40
0.0
 10
0.0
 20
0.0
 30
2.000000000000000E+50
 75
     0
  0
DIMASSOC
  5
7E1C
102
{ACAD_REACTORS
330
7E1B
102
}
330
7E1B
100
AcDbDimAssoc
330
7E0E
 90
        3
 70
     0
 71
     0
  1
AcDbOsnapPointRef
 72
     4
331
658B
331
65D7
 73
     0
 91
        0
 40
0.0
 10
0.0
 20
0.0
 30
0.0
 75
     0
  1
AcDbOsnapPointRef
 72
    13
331
5AF1
331
5ADD
 73
     0
 91
        0
 40
0.0
 10
0.0
 20
0.0
 30
2.000000000000000E+50
 75
     0
  0
DIMASSOC
  5
7E48
102
{ACAD_REACTORS
330
7E47
102
}
330
7E47
100
AcDbDimAssoc
330
7E38
 90
        3
 70
     0
 71
     0
  1
AcDbOsnapPointRef
 72
     4
331
7E0E
331
7E36
 73
     0
 91
        0
 40
0.0
 10
0.0
 20
0.0
 30
0.0
 75
     0
  1
AcDbOsnapPointRef
 72
    13
331
5AF1
331
5AD4
 73
     0
 91
        0
 40
0.0
 10
0.0
 20
0.0
 30
2.000000000000000E+50
 75
     0
  0
LAYOUT
  5
22
102
{ACAD_REACTORS
330
1A
102
}
330
1A
100
AcDbPlotSettings
  1

  2
KONICA MINOLTA 501 PCL
  4
A4
  6

 40
5.027082920074462
 41
5.027085781097412
 42
5.027069091796875
 43
5.027069091796875
 44
209.9733276367186
 45
296.9259948730469
 46
0.0
 47
1.87443238790172
 48
0.0
 49
0.0
140
0.0
141
0.0
142
1.0
143
1.566957473303663
 70
 11956
 72
     1
 73
     1
 74
     1
  7
SEISA.ctb
 75
     0
147
0.6381794126752335
 76
     0
 77
     2
 78
   300
148
-326.8913302081551
149
-352.499430857996
100
AcDbLayout
  1
Model
 70
     1
 71
     0
 10
0.0
 20
0.0
 11
12.0
 21
9.0
 12
0.0
 22
0.0
 32
0.0
 14
0.0
 24
0.0
 34
0.0
 15
0.0
 25
0.0
 35
0.0
146
0.0
 13
0.0
 23
0.0
 33
0.0
 16
1.0
 26
0.0
 36
0.0
 17
0.0
 27
1.0
 37
0.0
 76
     0
330
1F
331
27A
1001
ACAD_PSEXT
1000
KONICA MINOLTA 501 PCL
1000
KONICA MINOLTA 501/421/361PCL
1000
IP_192.168.20.231_(1)
1000

1070
     0
  0
LAYOUT
  5
1E
102
{ACAD_REACTORS
330
1A
102
}
330
1A
100
AcDbPlotSettings
  1

  2
none_device
  4
Letter_(8.50_x_11.00_Inches)
  6

 40
6.349999904632567
 41
6.349999904632567
 42
6.350006103515625
 43
6.350006103515625
 44
215.8999938964844
 45
279.3999938964844
 46
0.0
 47
0.0
 48
0.0
 49
0.0
140
0.0
141
0.0
142
1.0
143
1.0
 70
 15024
 72
     1
 73
     1
 74
     5
  7
SEISA.ctb
 75
    16
147
1.0
 76
     0
 77
     2
 78
   300
148
0.0
149
0.0
100
AcDbLayout
  1
レイアウト1
 70
     1
 71
     1
 10
0.0
 20
0.0
 11
420.0
 21
297.0
 12
0.0
 22
0.0
 32
0.0
 14
1.000000000000000E+20
 24
1.000000000000000E+20
 34
1.000000000000000E+20
 15
-1.000000000000000E+20
 25
-1.000000000000000E+20
 35
-1.000000000000000E+20
146
0.0
 13
0.0
 23
0.0
 33
0.0
 16
1.0
 26
0.0
 36
0.0
 17
0.0
 27
1.0
 37
0.0
 76
     0
330
1B
  0
LAYOUT
  5
26
102
{ACAD_REACTORS
330
1A
102
}
330
1A
100
AcDbPlotSettings
  1

  2
none_device
  4
Letter_(8.50_x_11.00_Inches)
  6

 40
6.349999904632567
 41
6.349999904632567
 42
6.350006103515625
 43
6.350006103515625
 44
215.8999938964844
 45
279.3999938964844
 46
0.0
 47
0.0
 48
0.0
 49
0.0
140
0.0
141
0.0
142
1.0
143
1.0
 70
 15024
 72
     1
 73
     1
 74
     5
  7
SEISA.ctb
 75
    16
147
1.0
 76
     0
 77
     2
 78
   300
148
0.0
149
0.0
100
AcDbLayout
  1
レイアウト2
 70
     1
 71
     2
 10
0.0
 20
0.0
 11
12.0
 21
9.0
 12
0.0
 22
0.0
 32
0.0
 14
0.0
 24
0.0
 34
0.0
 15
0.0
 25
0.0
 35
0.0
146
0.0
 13
0.0
 23
0.0
 33
0.0
 16
1.0
 26
0.0
 36
0.0
 17
0.0
 27
1.0
 37
0.0
 76
     0
330
23
  0
MATERIAL
  5
27D
102
{ACAD_REACTORS
330
C4
102
}
330
C4
100
AcDbMaterial
  1
ByBlock
 73
     1
 78
     1
172
     1
176
     1
270
     1
274
     1
 94
       63
  0
MATERIAL
  5
27C
102
{ACAD_REACTORS
330
C4
102
}
330
C4
100
AcDbMaterial
  1
ByLayer
 73
     1
 78
     1
172
     1
176
     1
270
     1
274
     1
 94
       63
  0
MATERIAL
  5
27E
102
{ACAD_REACTORS
330
C4
102
}
330
C4
100
AcDbMaterial
  1
Global
 73
     1
 78
     1
172
     1
176
     1
270
     1
274
     1
 94
       63
  0
MLEADERSTYLE
  5
2D6
102
{ACAD_REACTORS
330
2D5
102
}
330
2D5
100
AcDbMLeaderStyle
170
     2
171
     1
172
     0
 90
        2
 40
0.0
 41
0.0
173
     1
 91
-1056964608
340
14
 92
       -2
290
     1
 42
2.0
291
     1
 43
0.36
  3
Standard
 44
4.0
300

342
11
174
     1
178
     6
175
     1
176
     0
 93
-1056964608
 45
4.0
292
     0
297
     0
 46
4.0
 94
-1056964608
 47
1.0
 49
1.0
140
1.0
293
     1
141
0.0
294
     1
177
     0
142
1.0
295
     0
296
     0
143
0.125
1001
ACAD_MLEADERVER
1070
     2
  0
MLINESTYLE
  5
18
102
{ACAD_REACTORS
330
17
102
}
330
17
100
AcDbMlineStyle
  2
STANDARD
 70
     0
  3

 62
   256
 51
90.0
 52
90.0
 71
     2
 49
0.5
 62
   256
  6
BYLAYER
 49
-0.5
 62
   256
  6
BYLAYER
  0
PLOTSETTINGS
  5
1C7E
102
{ACAD_REACTORS
330
19
102
}
330
19
100
AcDbPlotSettings
  1
SEISA基本
  2
none_device
  4
Letter_(8.50_x_11.00_Inches)
  6

 40
6.349999904632567
 41
6.349999904632567
 42
6.350006103515625
 43
6.350006103515625
 44
215.8999938964844
 45
279.3999938964844
 46
7.302498226506357
 47
0.0
 48
0.0
 49
0.0
140
0.0
141
0.0
142
1.0
143
1.574803221122935
 70
 11956
 72
     1
 73
     1
 74
     2
  7
SEISA.ctb
 75
     0
147
0.6349999711627054
 76
     0
 77
     2
 78
   300
148
0.0
149
0.0
1001
ACAD_PSEXT
1000
なし
1000
なし
1000
適切ではありません
1000
新しいプロッタ環境設定名を選択しない限り、レイアウトは印刷されません。
1070
     0
  0
ACDBPLACEHOLDER
  5
F
102
{ACAD_REACTORS
330
E
102
}
330
E
  0
SCALE
  5
29F3
102
{ACAD_REACTORS
330
2B3
102
}
330
2B3
100
AcDbScale
 70
     0
300
1:2.5
140
1.0
141
2.5
290
     0
  0
SCALE
  5
7BFD
102
{ACAD_REACTORS
330
2B3
102
}
330
2B3
100
AcDbScale
 70
     0
300
1:1.5
140
1.0
141
1.5
290
     0
  0
SCALE
  5
2B4
102
{ACAD_REACTORS
330
2B3
102
}
330
2B3
100
AcDbScale
 70
     0
300
1:1
140
1.0
141
1.0
290
     1
  0
SCALE
  5
2B5
102
{ACAD_REACTORS
330
2B3
102
}
330
2B3
100
AcDbScale
 70
     0
300
1:2
140
1.0
141
2.0
290
     0
  0
SCALE
  5
2B6
102
{ACAD_REACTORS
330
2B3
102
}
330
2B3
100
AcDbScale
 70
     0
300
1:4
140
1.0
141
4.0
290
     0
  0
SCALE
  5
2B7
102
{ACAD_REACTORS
330
2B3
102
}
330
2B3
100
AcDbScale
 70
     0
300
1:5
140
1.0
141
5.0
290
     0
  0
SCALE
  5
2B8
102
{ACAD_REACTORS
330
2B3
102
}
330
2B3
100
AcDbScale
 70
     0
300
1:8
140
1.0
141
8.0
290
     0
  0
SCALE
  5
2B9
102
{ACAD_REACTORS
330
2B3
102
}
330
2B3
100
AcDbScale
 70
     0
300
1:10
140
1.0
141
10.0
290
     0
  0
SCALE
  5
2BA
102
{ACAD_REACTORS
330
2B3
102
}
330
2B3
100
AcDbScale
 70
     0
300
1:16
140
1.0
141
16.0
290
     0
  0
SCALE
  5
2BB
102
{ACAD_REACTORS
330
2B3
102
}
330
2B3
100
AcDbScale
 70
     0
300
1:20
140
1.0
141
20.0
290
     0
  0
SCALE
  5
2BC
102
{ACAD_REACTORS
330
2B3
102
}
330
2B3
100
AcDbScale
 70
     0
300
1:30
140
1.0
141
30.0
290
     0
  0
SCALE
  5
2BD
102
{ACAD_REACTORS
330
2B3
102
}
330
2B3
100
AcDbScale
 70
     0
300
1:40
140
1.0
141
40.0
290
     0
  0
SCALE
  5
2BE
102
{ACAD_REACTORS
330
2B3
102
}
330
2B3
100
AcDbScale
 70
     0
300
1:50
140
1.0
141
50.0
290
     0
  0
SCALE
  5
2BF
102
{ACAD_REACTORS
330
2B3
102
}
330
2B3
100
AcDbScale
 70
     0
300
1:100
140
1.0
141
100.0
290
     0
  0
SCALE
  5
2C0
102
{ACAD_REACTORS
330
2B3
102
}
330
2B3
100
AcDbScale
 70
     0
300
2:1
140
2.0
141
1.0
290
     0
  0
SCALE
  5
2C1
102
{ACAD_REACTORS
330
2B3
102
}
330
2B3
100
AcDbScale
 70
     0
300
4:1
140
4.0
141
1.0
290
     0
  0
SCALE
  5
2C2
102
{ACAD_REACTORS
330
2B3
102
}
330
2B3
100
AcDbScale
 70
     0
300
8:1
140
8.0
141
1.0
290
     0
  0
SCALE
  5
2C3
102
{ACAD_REACTORS
330
2B3
102
}
330
2B3
100
AcDbScale
 70
     0
300
10:1
140
10.0
141
1.0
290
     0
  0
SCALE
  5
2C4
102
{ACAD_REACTORS
330
2B3
102
}
330
2B3
100
AcDbScale
 70
     0
300
100:1
140
100.0
141
1.0
290
     0
  0
SCALE
  5
2C5
102
{ACAD_REACTORS
330
2B3
102
}
330
2B3
100
AcDbScale
 70
     0
300
1/128" = 1'-0"
140
0.0078125
141
12.0
290
     0
  0
SCALE
  5
2C6
102
{ACAD_REACTORS
330
2B3
102
}
330
2B3
100
AcDbScale
 70
     0
300
1/64" = 1'-0"
140
0.015625
141
12.0
290
     0
  0
SCALE
  5
2C7
102
{ACAD_REACTORS
330
2B3
102
}
330
2B3
100
AcDbScale
 70
     0
300
1/32" = 1'-0"
140
0.03125
141
12.0
290
     0
  0
SCALE
  5
2C8
102
{ACAD_REACTORS
330
2B3
102
}
330
2B3
100
AcDbScale
 70
     0
300
1/16" = 1'-0"
140
0.0625
141
12.0
290
     0
  0
SCALE
  5
2C9
102
{ACAD_REACTORS
330
2B3
102
}
330
2B3
100
AcDbScale
 70
     0
300
3/32" = 1'-0"
140
0.09375
141
12.0
290
     0
  0
SCALE
  5
2CA
102
{ACAD_REACTORS
330
2B3
102
}
330
2B3
100
AcDbScale
 70
     0
300
1/8" = 1'-0"
140
0.125
141
12.0
290
     0
  0
SCALE
  5
2CB
102
{ACAD_REACTORS
330
2B3
102
}
330
2B3
100
AcDbScale
 70
     0
300
3/16" = 1'-0"
140
0.1875
141
12.0
290
     0
  0
SCALE
  5
2CC
102
{ACAD_REACTORS
330
2B3
102
}
330
2B3
100
AcDbScale
 70
     0
300
1/4" = 1'-0"
140
0.25
141
12.0
290
     0
  0
SCALE
  5
2CD
102
{ACAD_REACTORS
330
2B3
102
}
330
2B3
100
AcDbScale
 70
     0
300
3/8" = 1'-0"
140
0.375
141
12.0
290
     0
  0
SCALE
  5
2CE
102
{ACAD_REACTORS
330
2B3
102
}
330
2B3
100
AcDbScale
 70
     0
300
1/2" = 1'-0"
140
0.5
141
12.0
290
     0
  0
SCALE
  5
2CF
102
{ACAD_REACTORS
330
2B3
102
}
330
2B3
100
AcDbScale
 70
     0
300
3/4" = 1'-0"
140
0.75
141
12.0
290
     0
  0
SCALE
  5
2D0
102
{ACAD_REACTORS
330
2B3
102
}
330
2B3
100
AcDbScale
 70
     0
300
1" = 1'-0"
140
1.0
141
12.0
290
     0
  0
SCALE
  5
2D1
102
{ACAD_REACTORS
330
2B3
102
}
330
2B3
100
AcDbScale
 70
     0
300
1-1/2" = 1'-0"
140
1.5
141
12.0
290
     0
  0
SCALE
  5
2D2
102
{ACAD_REACTORS
330
2B3
102
}
330
2B3
100
AcDbScale
 70
     0
300
3" = 1'-0"
140
3.0
141
12.0
290
     0
  0
SCALE
  5
2D3
102
{ACAD_REACTORS
330
2B3
102
}
330
2B3
100
AcDbScale
 70
     0
300
6" = 1'-0"
140
6.0
141
12.0
290
     0
  0
SCALE
  5
2D4
102
{ACAD_REACTORS
330
2B3
102
}
330
2B3
100
AcDbScale
 70
     0
300
1'-0" = 1'-0"
140
12.0
141
12.0
290
     0
  0
TABLESTYLE
  5
122
102
{ACAD_XDICTIONARY
360
2F5
102
}
102
{ACAD_REACTORS
330
121
102
}
330
121
100
AcDbTableStyle
  3
Standard
 70
     0
 71
     0
 40
1.5
 41
1.5
280
     0
281
     0
  7
STANDARD
140
4.5
170
     2
 62
     0
 63
     7
283
     0
 90
      512
 91
        0
  1

274
    -2
284
     1
 64
     0
275
    -2
285
     1
 65
     0
276
    -2
286
     1
 66
     0
277
    -2
287
     1
 67
     0
278
    -2
288
     1
 68
     0
279
    -2
289
     1
 69
     0
  7
STANDARD
140
6.0
170
     5
 62
     0
 63
     7
283
     0
 90
      512
 91
        0
  1

274
    -2
284
     1
 64
     0
275
    -2
285
     1
 65
     0
276
    -2
286
     1
 66
     0
277
    -2
287
     1
 67
     0
278
    -2
288
     1
 68
     0
279
    -2
289
     1
 69
     0
  7
STANDARD
140
4.5
170
     5
 62
     0
 63
     7
283
     0
 90
      512
 91
        0
  1

274
    -2
284
     1
 64
     0
275
    -2
285
     1
 65
     0
276
    -2
286
     1
 66
     0
277
    -2
287
     1
 67
     0
278
    -2
288
     1
 68
     0
279
    -2
289
     1
 69
     0
  0
VISUALSTYLE
  5
285
102
{ACAD_REACTORS
330
27F
102
}
330
27F
100
AcDbVisualStyle
  2
2dWireframe
 70
     4
 71
     0
 72
     2
 73
     0
 90
        0
 40
-0.6
 41
-30.0
 62
     5
 63
     7
421
 16777215
 74
     1
 91
        4
 64
     7
 65
   257
 75
     1
175
     1
 42
1.0
 92
        0
 66
   257
 43
1.0
 76
     1
 77
     6
 78
     2
 67
     7
 79
     5
170
     0
171
     0
290
     0
174
     0
 93
        1
 44
0.0
173
     0
291
     0
 45
0.0
  0
VISUALSTYLE
  5
287
102
{ACAD_REACTORS
330
27F
102
}
330
27F
100
AcDbVisualStyle
  2
3D Hidden
 70
     6
 71
     1
 72
     2
 73
     2
 90
        0
 40
-0.6
 41
-30.0
 62
     5
 63
     7
421
 16777215
 74
     2
 91
        2
 64
     7
 65
   257
 75
     2
175
     1
 42
40.0
 92
        0
 66
   257
 43
1.0
 76
     1
 77
     6
 78
     2
 67
     7
 79
     3
170
     0
171
     0
290
     0
174
     0
 93
        1
 44
0.0
173
     0
291
     0
 45
0.0
  0
VISUALSTYLE
  5
286
102
{ACAD_REACTORS
330
27F
102
}
330
27F
100
AcDbVisualStyle
  2
3dWireframe
 70
     5
 71
     0
 72
     2
 73
     0
 90
        0
 40
-0.6
 41
-30.0
 62
     5
 63
     7
421
 16777215
 74
     1
 91
        4
 64
     7
 65
   257
 75
     1
175
     1
 42
1.0
 92
        0
 66
   257
 43
1.0
 76
     1
 77
     6
 78
     2
 67
     7
 79
     5
170
     0
171
     0
290
     0
174
     0
 93
        1
 44
0.0
173
     0
291
     0
 45
0.0
  0
VISUALSTYLE
  5
284
102
{ACAD_REACTORS
330
27F
102
}
330
27F
100
AcDbVisualStyle
  2
Basic
 70
     7
 71
     1
 72
     0
 73
     1
 90
        0
 40
-0.6
 41
-30.0
 62
     5
 63
     7
421
 16777215
 74
     0
 91
        4
 64
     7
 65
   257
 75
     1
175
     1
 42
1.0
 92
        8
 66
     7
 43
1.0
 76
     1
 77
     6
 78
     2
 67
     7
 79
     5
170
     0
171
     0
290
     0
174
     0
 93
        1
 44
0.0
173
     0
291
     1
 45
0.0
  0
VISUALSTYLE
  5
28B
102
{ACAD_REACTORS
330
27F
102
}
330
27F
100
AcDbVisualStyle
  2
Brighten
 70
    12
 71
     2
 72
     2
 73
     0
 90
        0
 40
-0.6
 41
-30.0
 62
     5
 63
     7
421
 16777215
 74
     1
 91
        4
 64
     7
 65
   257
 75
     1
175
     1
 42
1.0
 92
        8
 66
     7
 43
1.0
 76
     1
 77
     6
 78
     2
 67
     7
 79
     5
170
     0
171
     0
290
     0
174
     0
 93
        1
 44
50.0
173
     0
291
     1
 45
0.0
  0
VISUALSTYLE
  5
28F
102
{ACAD_REACTORS
330
27F
102
}
330
27F
100
AcDbVisualStyle
  2
ColorChange
 70
    16
 71
     2
 72
     2
 73
     3
 90
        0
 40
-0.6
 41
-30.0
 62
     5
 63
     8
421
  8421504
 74
     1
 91
        4
 64
     7
 65
   257
 75
     1
175
     1
 42
1.0
 92
        8
 66
     8
424
  8421504
 43
1.0
 76
     1
 77
     6
 78
     2
 67
     7
 79
     5
170
     0
171
     0
290
     0
174
     0
 93
        1
 44
0.0
173
     0
291
     1
 45
0.0
  0
VISUALSTYLE
  5
288
102
{ACAD_REACTORS
330
27F
102
}
330
27F
100
AcDbVisualStyle
  2
Conceptual
 70
     9
 71
     3
 72
     2
 73
     0
 90
        0
 40
-0.6
 41
-30.0
 62
     5
 63
     7
421
 16777215
 74
     2
 91
        2
 64
     7
 65
   257
 75
     1
175
     1
 42
40.0
 92
        8
 66
     7
 43
1.0
 76
     1
 77
     6
 78
     2
 67
     7
 79
     3
170
     0
171
     0
290
     0
174
     0
 93
        1
 44
0.0
173
     0
291
     0
 45
0.0
  0
VISUALSTYLE
  5
28A
102
{ACAD_REACTORS
330
27F
102
}
330
27F
100
AcDbVisualStyle
  2
Dim
 70
    11
 71
     2
 72
     2
 73
     0
 90
        0
 40
-0.6
 41
-30.0
 62
     5
 63
     7
421
 16777215
 74
     1
 91
        4
 64
     7
 65
   257
 75
     1
175
     1
 42
1.0
 92
        8
 66
     7
 43
1.0
 76
     1
 77
     6
 78
     2
 67
     7
 79
     5
170
     0
171
     0
290
     0
174
     0
 93
        1
 44
-50.0
173
     0
291
     1
 45
0.0
  0
VISUALSTYLE
  5
28E
102
{ACAD_REACTORS
330
27F
102
}
330
27F
100
AcDbVisualStyle
  2
Facepattern
 70
    15
 71
     2
 72
     2
 73
     0
 90
        0
 40
-0.6
 41
-30.0
 62
     5
 63
     7
421
 16777215
 74
     1
 91
        4
 64
     7
 65
   257
 75
     1
175
     1
 42
1.0
 92
        8
 66
     7
 43
1.0
 76
     1
 77
     6
 78
     2
 67
     7
 79
     5
170
     0
171
     0
290
     0
174
     0
 93
        1
 44
0.0
173
     0
291
     1
 45
0.0
  0
VISUALSTYLE
  5
280
102
{ACAD_REACTORS
330
27F
102
}
330
27F
100
AcDbVisualStyle
  2
Flat
 70
     0
 71
     2
 72
     1
 73
     1
 90
        2
 40
-0.6
 41
30.0
 62
     5
 63
     7
421
 16777215
 74
     0
 91
        4
 64
     7
 65
   257
 75
     1
175
     1
 42
1.0
 92
        8
 66
     7
 43
1.0
 76
     1
 77
     6
 78
     2
 67
     7
 79
     5
170
     0
171
     0
290
     0
174
     0
 93
       13
 44
0.0
173
     0
291
     1
 45
0.0
  0
VISUALSTYLE
  5
281
102
{ACAD_REACTORS
330
27F
102
}
330
27F
100
AcDbVisualStyle
  2
FlatWithEdges
 70
     1
 71
     2
 72
     1
 73
     1
 90
        2
 40
-0.6
 41
30.0
 62
     5
 63
     7
421
 16777215
 74
     1
 91
        4
 64
     7
 65
   257
 75
     1
175
     1
 42
1.0
 92
        0
 66
   257
 43
1.0
 76
     1
 77
     6
 78
     2
 67
     7
 79
     5
170
     0
171
     0
290
     0
174
     0
 93
       13
 44
0.0
173
     0
291
     1
 45
0.0
  0
VISUALSTYLE
  5
282
102
{ACAD_REACTORS
330
27F
102
}
330
27F
100
AcDbVisualStyle
  2
Gouraud
 70
     2
 71
     2
 72
     2
 73
     1
 90
        2
 40
-0.6
 41
30.0
 62
     5
 63
     7
421
 16777215
 74
     0
 91
        4
 64
     7
 65
   257
 75
     1
175
     1
 42
1.0
 92
        0
 66
     7
 43
1.0
 76
     1
 77
     6
 78
     2
 67
     7
 79
     5
170
     0
171
     0
290
     0
174
     0
 93
       13
 44
0.0
173
     0
291
     1
 45
0.0
  0
VISUALSTYLE
  5
283
102
{ACAD_REACTORS
330
27F
102
}
330
27F
100
AcDbVisualStyle
  2
GouraudWithEdges
 70
     3
 71
     2
 72
     2
 73
     1
 90
        2
 40
-0.6
 41
30.0
 62
     5
 63
     7
421
 16777215
 74
     1
 91
        4
 64
     7
 65
   257
 75
     1
175
     1
 42
1.0
 92
        0
 66
   257
 43
1.0
 76
     1
 77
     6
 78
     2
 67
     7
 79
     5
170
     0
171
     0
290
     0
174
     0
 93
       13
 44
0.0
173
     0
291
     1
 45
0.0
  0
VISUALSTYLE
  5
28D
102
{ACAD_REACTORS
330
27F
102
}
330
27F
100
AcDbVisualStyle
  2
Linepattern
 70
    14
 71
     2
 72
     2
 73
     0
 90
        0
 40
-0.6
 41
-30.0
 62
     5
 63
     7
421
 16777215
 74
     1
 91
        4
 64
     7
 65
   257
 75
     7
175
     7
 42
1.0
 92
        8
 66
     7
 43
1.0
 76
     1
 77
     6
 78
     2
 67
     7
 79
     5
170
     0
171
     0
290
     0
174
     0
 93
        1
 44
0.0
173
     0
291
     1
 45
0.0
  0
VISUALSTYLE
  5
289
102
{ACAD_REACTORS
330
27F
102
}
330
27F
100
AcDbVisualStyle
  2
Realistic
 70
     8
 71
     2
 72
     2
 73
     0
 90
        0
 40
-0.6
 41
-30.0
 62
     5
 63
     7
421
 16777215
 74
     1
 91
        0
 64
     7
 65
   257
 75
     1
175
     1
 42
1.0
 92
        8
 66
     8
424
  7895160
 43
1.0
 76
     1
 77
     6
 78
     2
 67
     7
 79
     5
170
     0
171
     0
290
     0
174
     0
 93
       13
 44
0.0
173
     0
291
     0
 45
0.0
  0
VISUALSTYLE
  5
28C
102
{ACAD_REACTORS
330
27F
102
}
330
27F
100
AcDbVisualStyle
  2
Thicken
 70
    13
 71
     2
 72
     2
 73
     0
 90
        0
 40
-0.6
 41
-30.0
 62
     5
 63
     7
421
 16777215
 74
     1
 91
        4
 64
     7
 65
   257
 75
     1
175
     1
 42
1.0
 92
       12
 66
     7
 43
1.0
 76
     1
 77
     6
 78
     2
 67
     7
 79
     5
170
     0
171
     0
290
     0
174
     0
 93
        1
 44
0.0
173
     0
291
     1
 45
0.0
  0
DICTIONARYVAR
  5
2FA
102
{ACAD_REACTORS
330
34
102
}
330
34
100
DictionaryVariables
280
     0
  1
1:2.5
  0
DICTIONARYVAR
  5
2F8
102
{ACAD_REACTORS
330
34
102
}
330
34
100
DictionaryVariables
280
     0
  1
STANDARD
  0
DICTIONARYVAR
  5
140
102
{ACAD_REACTORS
330
34
102
}
330
34
100
DictionaryVariables
280
     0
  1
STANDARD
  0
DICTIONARYVAR
  5
AC
102
{ACAD_REACTORS
330
34
102
}
330
34
100
DictionaryVariables
280
     0
  1
1
  0
DICTIONARYVAR
  5
35
102
{ACAD_REACTORS
330
34
102
}
330
34
100
DictionaryVariables
280
     0
  1
1
  0
DICTIONARYVAR
  5
6423
102
{ACAD_REACTORS
330
34
102
}
330
34
100
DictionaryVariables
280
     0
  1
1
  0
DICTIONARYVAR
  5
6424
102
{ACAD_REACTORS
330
34
102
}
330
34
100
DictionaryVariables
280
     0
  1
15
  0
DICTIONARYVAR
  5
2FB
102
{ACAD_REACTORS
330
34
102
}
330
34
100
DictionaryVariables
280
     0
  1
0
  0
DICTIONARYVAR
  5
2F9
102
{ACAD_REACTORS
330
34
102
}
330
34
100
DictionaryVariables
280
     0
  1
0
  0
DICTIONARY
  5
161B
102
{ACAD_REACTORS
330
49
102
}
330
49
100
AcDbDictionary
281
     1
  0
DICTIONARY
  5
4A
102
{ACAD_REACTORS
330
49
102
}
330
49
100
AcDbDictionary
281
     1
  0
XRECORD
  5
12B
102
{ACAD_REACTORS
330
49
102
}
330
49
100
AcDbXrecord
280
     1
 90
-1023410169
  0
DICTIONARY
  5
2F5
330
122
100
AcDbDictionary
280
     1
281
     1
  3
ACAD_ROUNDTRIP_2008_TABLESTYLE_CELLSTYLEMAP
360
80D1
  0
CELLSTYLEMAP
  5
80D1
102
{ACAD_REACTORS
330
2F5
102
}
330
2F5
100
AcDbCellStyleMap
 90
        3
300
CELLSTYLE
  1
TABLEFORMAT_BEGIN
 90
        5
170
     1
 91
        0
 92
    32768
 62
   257
 93
        1
300
CONTENTFORMAT
  1
CONTENTFORMAT_BEGIN
 90
        0
 91
        0
 92
      512
 93
        0
300

 40
0.0
140
1.0
 94
        5
 62
     0
340
11
144
6.0
309
CONTENTFORMAT_END
171
     1
301
MARGIN
  1
CELLMARGIN_BEGIN
 40
1.5
 40
1.5
 40
1.5
 40
1.5
 40
0.18
 40
0.18
309
CELLMARGIN_END
 94
        6
 95
        1
302
GRIDFORMAT
  1
GRIDFORMAT_BEGIN
 90
        0
 91
        1
 62
     0
 92
       -2
340
0
 93
        0
 40
0.045
309
GRIDFORMAT_END
 95
        2
302
GRIDFORMAT
  1
GRIDFORMAT_BEGIN
 90
        0
 91
        1
 62
     0
 92
       -2
340
0
 93
        0
 40
0.045
309
GRIDFORMAT_END
 95
        4
302
GRIDFORMAT
  1
GRIDFORMAT_BEGIN
 90
        0
 91
        1
 62
     0
 92
       -2
340
0
 93
        0
 40
0.045
309
GRIDFORMAT_END
 95
        8
302
GRIDFORMAT
  1
GRIDFORMAT_BEGIN
 90
        0
 91
        1
 62
     0
 92
       -2
340
0
 93
        0
 40
0.045
309
GRIDFORMAT_END
 95
       16
302
GRIDFORMAT
  1
GRIDFORMAT_BEGIN
 90
        0
 91
        1
 62
     0
 92
       -2
340
0
 93
        0
 40
0.045
309
GRIDFORMAT_END
 95
       32
302
GRIDFORMAT
  1
GRIDFORMAT_BEGIN
 90
        0
 91
        1
 62
     0
 92
       -2
340
0
 93
        0
 40
0.045
309
GRIDFORMAT_END
309
TABLEFORMAT_END
  1
CELLSTYLE_BEGIN
 90
        1
 91
        1
300
_TITLE
309
CELLSTYLE_END
300
CELLSTYLE
  1
TABLEFORMAT_BEGIN
 90
        5
170
     1
 91
        0
 92
        0
 62
   257
 93
        1
300
CONTENTFORMAT
  1
CONTENTFORMAT_BEGIN
 90
        0
 91
        0
 92
      512
 93
        0
300

 40
0.0
140
1.0
 94
        5
 62
     0
340
11
144
4.5
309
CONTENTFORMAT_END
171
     1
301
MARGIN
  1
CELLMARGIN_BEGIN
 40
1.5
 40
1.5
 40
1.5
 40
1.5
 40
0.18
 40
0.18
309
CELLMARGIN_END
 94
        6
 95
        1
302
GRIDFORMAT
  1
GRIDFORMAT_BEGIN
 90
        0
 91
        1
 62
     0
 92
       -2
340
0
 93
        0
 40
0.045
309
GRIDFORMAT_END
 95
        2
302
GRIDFORMAT
  1
GRIDFORMAT_BEGIN
 90
        0
 91
        1
 62
     0
 92
       -2
340
0
 93
        0
 40
0.045
309
GRIDFORMAT_END
 95
        4
302
GRIDFORMAT
  1
GRIDFORMAT_BEGIN
 90
        0
 91
        1
 62
     0
 92
       -2
340
0
 93
        0
 40
0.045
309
GRIDFORMAT_END
 95
        8
302
GRIDFORMAT
  1
GRIDFORMAT_BEGIN
 90
        0
 91
        1
 62
     0
 92
       -2
340
0
 93
        0
 40
0.045
309
GRIDFORMAT_END
 95
       16
302
GRIDFORMAT
  1
GRIDFORMAT_BEGIN
 90
        0
 91
        1
 62
     0
 92
       -2
340
0
 93
        0
 40
0.045
309
GRIDFORMAT_END
 95
       32
302
GRIDFORMAT
  1
GRIDFORMAT_BEGIN
 90
        0
 91
        1
 62
     0
 92
       -2
340
0
 93
        0
 40
0.045
309
GRIDFORMAT_END
309
TABLEFORMAT_END
  1
CELLSTYLE_BEGIN
 90
        2
 91
        1
300
_HEADER
309
CELLSTYLE_END
300
CELLSTYLE
  1
TABLEFORMAT_BEGIN
 90
        5
170
     1
 91
        0
 92
        0
 62
   257
 93
        1
300
CONTENTFORMAT
  1
CONTENTFORMAT_BEGIN
 90
        0
 91
        0
 92
      512
 93
        0
300

 40
0.0
140
1.0
 94
        2
 62
     0
340
11
144
4.5
309
CONTENTFORMAT_END
171
     1
301
MARGIN
  1
CELLMARGIN_BEGIN
 40
1.5
 40
1.5
 40
1.5
 40
1.5
 40
0.18
 40
0.18
309
CELLMARGIN_END
 94
        6
 95
        1
302
GRIDFORMAT
  1
GRIDFORMAT_BEGIN
 90
        0
 91
        1
 62
     0
 92
       -2
340
0
 93
        0
 40
0.045
309
GRIDFORMAT_END
 95
        2
302
GRIDFORMAT
  1
GRIDFORMAT_BEGIN
 90
        0
 91
        1
 62
     0
 92
       -2
340
0
 93
        0
 40
0.045
309
GRIDFORMAT_END
 95
        4
302
GRIDFORMAT
  1
GRIDFORMAT_BEGIN
 90
        0
 91
        1
 62
     0
 92
       -2
340
0
 93
        0
 40
0.045
309
GRIDFORMAT_END
 95
        8
302
GRIDFORMAT
  1
GRIDFORMAT_BEGIN
 90
        0
 91
        1
 62
     0
 92
       -2
340
0
 93
        0
 40
0.045
309
GRIDFORMAT_END
 95
       16
302
GRIDFORMAT
  1
GRIDFORMAT_BEGIN
 90
        0
 91
        1
 62
     0
 92
       -2
340
0
 93
        0
 40
0.045
309
GRIDFORMAT_END
 95
       32
302
GRIDFORMAT
  1
GRIDFORMAT_BEGIN
 90
        0
 91
        1
 62
     0
 92
       -2
340
0
 93
        0
 40
0.045
309
GRIDFORMAT_END
309
TABLEFORMAT_END
  1
CELLSTYLE_BEGIN
 90
        3
 91
        2
300
_DATA
309
CELLSTYLE_END
  0
ENDSEC
  0
EOF
