  0
SECTION
  2
HEADER
  9
$ACADVER
  1
AC1021
  9
$ACADMAINTVER
 70
    26
  9
$DWGCODEPAGE
  3
ANSI_932
  9
$LASTSAVEDBY
  1
Htm_Terada
  9
$CUSTOMPROPERTYTAG
  1
AmdtFileType
  9
$CUSTOMPROPERTY
  1
84
  9
$INSBASE
 10
0.0
 20
0.0
 30
0.0
  9
$EXTMIN
 10
325.3207661036776
 20
350.4686663254175
 30
0.0
  9
$EXTMAX
 10
725.00453465385
 20
639.6433487629175
 30
0.0
  9
$LIMMIN
 10
0.0000004785846386
 20
0.0000009234551612
  9
$LIMMAX
 10
1050.000000478584
 20
742.5000009234552
  9
$ORTHOMODE
 70
     0
  9
$REGENMODE
 70
     1
  9
$FILLMODE
 70
     1
  9
$QTEXTMODE
 70
     0
  9
$MIRRTEXT
 70
     1
  9
$LTSCALE
 40
2.5
  9
$ATTMODE
 70
     1
  9
$TEXTSIZE
 40
25.0
  9
$TRACEWID
 40
1.0
  9
$TEXTSTYLE
  7
SEISA
  9
$CLAYER
  8
AM_0 外形線1
  9
$CELTYPE
  6
ByLayer
  9
$CECOLOR
 62
   256
  9
$CELTSCALE
 40
1.0
  9
$DISPSILH
 70
     0
  9
$DIMSCALE
 40
2.5
  9
$DIMASZ
 40
2.5
  9
$DIMEXO
 40
0.625
  9
$DIMDLI
 40
10.0
  9
$DIMRND
 40
0.0
  9
$DIMDLE
 40
0.0
  9
$DIMEXE
 40
0.625
  9
$DIMTP
 40
0.1
  9
$DIMTM
 40
0.1
  9
$DIMTXT
 40
3.5
  9
$DIMCEN
 40
0.0
  9
$DIMTSZ
 40
0.0
  9
$DIMTOL
 70
     0
  9
$DIMLIM
 70
     0
  9
$DIMTIH
 70
     0
  9
$DIMTOH
 70
     0
  9
$DIMSE1
 70
     0
  9
$DIMSE2
 70
     0
  9
$DIMTAD
 70
     3
  9
$DIMZIN
 70
     8
  9
$DIMBLK
  1
Open30
  9
$DIMASO
 70
     1
  9
$DIMSHO
 70
     1
  9
$DIMPOST
  1

  9
$DIMAPOST
  1
"
  9
$DIMALT
 70
     0
  9
$DIMALTD
 70
     2
  9
$DIMALTF
 40
0.0393701
  9
$DIMLFAC
 40
1.0
  9
$DIMTOFL
 70
     1
  9
$DIMTVP
 40
0.0
  9
$DIMTIX
 70
     0
  9
$DIMSOXD
 70
     0
  9
$DIMSAH
 70
     0
  9
$DIMBLK1
  1

  9
$DIMBLK2
  1

  9
$DIMSTYLE
  2
SEISA
  9
$DIMCLRD
 70
     3
  9
$DIMCLRE
 70
     3
  9
$DIMCLRT
 70
     3
  9
$DIMTFAC
 40
0.71
  9
$DIMGAP
 40
1.5
  9
$DIMJUST
 70
     0
  9
$DIMSD1
 70
     0
  9
$DIMSD2
 70
     0
  9
$DIMTOLJ
 70
     0
  9
$DIMTZIN
 70
     0
  9
$DIMALTZ
 70
     0
  9
$DIMALTTZ
 70
     8
  9
$DIMUPT
 70
     0
  9
$DIMDEC
 70
     2
  9
$DIMTDEC
 70
     2
  9
$DIMALTU
 70
     2
  9
$DIMALTTD
 70
     2
  9
$DIMTXSTY
  7
SEISA
  9
$DIMAUNIT
 70
     0
  9
$DIMADEC
 70
     0
  9
$DIMALTRND
 40
0.0
  9
$DIMAZIN
 70
     2
  9
$DIMDSEP
 70
    46
  9
$DIMATFIT
 70
     3
  9
$DIMFRAC
 70
     0
  9
$DIMLDRBLK
  1
Open30
  9
$DIMLUNIT
 70
     2
  9
$DIMLWD
 70
    -1
  9
$DIMLWE
 70
    -1
  9
$DIMTMOVE
 70
     0
  9
$DIMFXL
 40
1.0
  9
$DIMFXLON
 70
     0
  9
$DIMJOGANG
 40
0.7853981633974483
  9
$DIMTFILL
 70
     0
  9
$DIMTFILLCLR
 70
     0
  9
$DIMARCSYM
 70
     1
  9
$DIMLTYPE
  6

  9
$DIMLTEX1
  6

  9
$DIMLTEX2
  6

  9
$LUNITS
 70
     2
  9
$LUPREC
 70
     2
  9
$SKETCHINC
 40
1.0
  9
$FILLETRAD
 40
6.25
  9
$AUNITS
 70
     0
  9
$AUPREC
 70
     0
  9
$MENU
  1
.
  9
$ELEVATION
 40
0.0
  9
$PELEVATION
 40
0.0
  9
$THICKNESS
 40
0.0
  9
$LIMCHECK
 70
     0
  9
$CHAMFERA
 40
1.0
  9
$CHAMFERB
 40
0.9999999999999431
  9
$CHAMFERC
 40
1.0
  9
$CHAMFERD
 40
0.7853981633974483
  9
$SKPOLY
 70
     0
  9
$TDCREATE
 40
2454900.693609479
  9
$TDUCREATE
 40
2454900.318609479
  9
$TDUPDATE
 40
2456478.692257847
  9
$TDUUPDATE
 40
2456478.317257847
  9
$TDINDWG
 40
0.3349797685
  9
$TDUSRTIMER
 40
0.3349772338
  9
$USRTIMER
 70
     1
  9
$ANGBASE
 50
0.0
  9
$ANGDIR
 70
     0
  9
$PDMODE
 70
     0
  9
$PDSIZE
 40
0.0
  9
$PLINEWID
 40
0.0
  9
$SPLFRAME
 70
     0
  9
$SPLINETYPE
 70
     6
  9
$SPLINESEGS
 70
     8
  9
$HANDSEED
  5
8242
  9
$SURFTAB1
 70
     6
  9
$SURFTAB2
 70
     6
  9
$SURFTYPE
 70
     6
  9
$SURFU
 70
     6
  9
$SURFV
 70
     6
  9
$UCSBASE
  2

  9
$UCSNAME
  2

  9
$UCSORG
 10
0.0
 20
0.0
 30
0.0
  9
$UCSXDIR
 10
1.0
 20
0.0
 30
0.0
  9
$UCSYDIR
 10
0.0
 20
1.0
 30
0.0
  9
$UCSORTHOREF
  2

  9
$UCSORTHOVIEW
 70
     0
  9
$UCSORGTOP
 10
0.0
 20
0.0
 30
0.0
  9
$UCSORGBOTTOM
 10
0.0
 20
0.0
 30
0.0
  9
$UCSORGLEFT
 10
0.0
 20
0.0
 30
0.0
  9
$UCSORGRIGHT
 10
0.0
 20
0.0
 30
0.0
  9
$UCSORGFRONT
 10
0.0
 20
0.0
 30
0.0
  9
$UCSORGBACK
 10
0.0
 20
0.0
 30
0.0
  9
$PUCSBASE
  2

  9
$PUCSNAME
  2

  9
$PUCSORG
 10
0.0
 20
0.0
 30
0.0
  9
$PUCSXDIR
 10
1.0
 20
0.0
 30
0.0
  9
$PUCSYDIR
 10
0.0
 20
1.0
 30
0.0
  9
$PUCSORTHOREF
  2

  9
$PUCSORTHOVIEW
 70
     0
  9
$PUCSORGTOP
 10
0.0
 20
0.0
 30
0.0
  9
$PUCSORGBOTTOM
 10
0.0
 20
0.0
 30
0.0
  9
$PUCSORGLEFT
 10
0.0
 20
0.0
 30
0.0
  9
$PUCSORGRIGHT
 10
0.0
 20
0.0
 30
0.0
  9
$PUCSORGFRONT
 10
0.0
 20
0.0
 30
0.0
  9
$PUCSORGBACK
 10
0.0
 20
0.0
 30
0.0
  9
$USERI1
 70
     0
  9
$USERI2
 70
     0
  9
$USERI3
 70
     0
  9
$USERI4
 70
     0
  9
$USERI5
 70
     0
  9
$USERR1
 40
0.0
  9
$USERR2
 40
0.0
  9
$USERR3
 40
0.0
  9
$USERR4
 40
0.0
  9
$USERR5
 40
0.0
  9
$WORLDVIEW
 70
     1
  9
$SHADEDGE
 70
     3
  9
$SHADEDIF
 70
    70
  9
$TILEMODE
 70
     1
  9
$MAXACTVP
 70
    64
  9
$PINSBASE
 10
0.0
 20
0.0
 30
0.0
  9
$PLIMCHECK
 70
     0
  9
$PEXTMIN
 10
1.000000000000000E+20
 20
1.000000000000000E+20
 30
1.000000000000000E+20
  9
$PEXTMAX
 10
-1.000000000000000E+20
 20
-1.000000000000000E+20
 30
-1.000000000000000E+20
  9
$PLIMMIN
 10
0.0
 20
0.0
  9
$PLIMMAX
 10
420.0
 20
297.0
  9
$UNITMODE
 70
     0
  9
$VISRETAIN
 70
     1
  9
$PLINEGEN
 70
     0
  9
$PSLTSCALE
 70
     1
  9
$TREEDEPTH
 70
  3020
  9
$CMLSTYLE
  2
Standard
  9
$CMLJUST
 70
     0
  9
$CMLSCALE
 40
20.0
  9
$PROXYGRAPHICS
 70
     1
  9
$MEASUREMENT
 70
     1
  9
$CELWEIGHT
370
    -1
  9
$ENDCAPS
280
     0
  9
$JOINSTYLE
280
     0
  9
$LWDISPLAY
290
     0
  9
$INSUNITS
 70
     4
  9
$HYPERLINKBASE
  1

  9
$STYLESHEET
  1
SEISA.CTB
  9
$XEDIT
290
     1
  9
$CEPSNTYPE
380
     0
  9
$PSTYLEMODE
290
     1
  9
$FINGERPRINTGUID
  2
{E59739BB-934C-4101-A105-18B44765E698}
  9
$VERSIONGUID
  2
{9AA6114D-9284-4D7B-9B16-26B012A19059}
  9
$EXTNAMES
290
     1
  9
$PSVPSCALE
 40
0.0
  9
$OLESTARTUP
290
     0
  9
$SORTENTS
280
   127
  9
$INDEXCTL
280
     0
  9
$HIDETEXT
280
     0
  9
$XCLIPFRAME
290
     0
  9
$HALOGAP
280
     0
  9
$OBSCOLOR
 70
   257
  9
$OBSLTYPE
280
     0
  9
$INTERSECTIONDISPLAY
280
     0
  9
$INTERSECTIONCOLOR
 70
   257
  9
$DIMASSOC
280
     2
  9
$PROJECTNAME
  1

  9
$CAMERADISPLAY
290
     0
  9
$LENSLENGTH
 40
50.0
  9
$CAMERAHEIGHT
 40
0.0
  9
$STEPSPERSEC
 40
2.0
  9
$STEPSIZE
 40
6.0
  9
$3DDWFPREC
 40
2.0
  9
$PSOLWIDTH
 40
0.25
  9
$PSOLHEIGHT
 40
4.0
  9
$LOFTANG1
 40
1.570796326794896
  9
$LOFTANG2
 40
1.570796326794896
  9
$LOFTMAG1
 40
0.0
  9
$LOFTMAG2
 40
0.0
  9
$LOFTPARAM
 70
     7
  9
$LOFTNORMALS
280
     1
  9
$LATITUDE
 40
37.795
  9
$LONGITUDE
 40
-122.394
  9
$NORTHDIRECTION
 40
0.0
  9
$TIMEZONE
 70
 -8000
  9
$LIGHTGLYPHDISPLAY
280
     1
  9
$TILEMODELIGHTSYNCH
280
     1
  9
$CMATERIAL
347
27C
  9
$SOLIDHIST
280
     1
  9
$SHOWHIST
280
     1
  9
$DWFFRAME
280
     2
  9
$DGNFRAME
280
     0
  9
$REALWORLDSCALE
290
     1
  9
$INTERFERECOLOR
 62
     1
  9
$INTERFEREOBJVS
345
289
  9
$INTERFEREVPVS
346
286
  9
$CSHADOW
280
     0
  9
$SHADOWPLANELOCATION
 40
0.0
  0
ENDSEC
  0
SECTION
  2
CLASSES
  0
CLASS
  1
ACDBDICTIONARYWDFLT
  2
AcDbDictionaryWithDefault
  3
ObjectDBX Classes
 90
        0
 91
        1
280
     0
281
     0
  0
CLASS
  1
AMGSETTINGSOBJ
  2
AmgSettingsObj
  3
"AcadM|Product Description: AutoCAD Mechanical|Company: Autodesk, Inc."
 90
     1024
 91
        2
280
     0
281
     0
  0
CLASS
  1
ACME_DOCUMENT
  2
AcMeDbDoc
  3
AcMeServices
 90
     1024
 91
        1
280
     0
281
     0
  0
CLASS
  1
ACMESCOPE
  2
AcMeScope
  3
AcMeServices
 90
     1024
 91
        1
280
     0
281
     0
  0
CLASS
  1
ACMECOMMANDHISTORY
  2
AcMeCommandHistory
  3
AcMeServices
 90
     1024
 91
        1
280
     0
281
     0
  0
CLASS
  1
DICTIONARYVAR
  2
AcDbDictionaryVar
  3
ObjectDBX Classes
 90
        0
 91
        9
280
     0
281
     0
  0
CLASS
  1
ACIMSYSVARMAN
  2
AcImSysVarManager
  3
AcMeServices
 90
     1024
 91
        5
280
     0
281
     0
  0
CLASS
  1
ACIMREALSYSVAR
  2
AcImRealSysVar
  3
AcMeServices
 90
     1024
 91
        1
280
     0
281
     0
  0
CLASS
  1
ACIMINTSYSVAR
  2
AcImIntSysVar
  3
AcMeServices
 90
     1024
 91
       27
280
     0
281
     0
  0
CLASS
  1
ACMEDRAWINGMAN
  2
AcMeDrawingMan
  3
AcMeServices
 90
     1024
 91
        1
280
     0
281
     0
  0
CLASS
  1
ACMEVIEW
  2
AcMeView
  3
AcMeServices
 90
     1024
 91
        1
280
     0
281
     0
  0
CLASS
  1
ACDBENTITYCACHE
  2
AcMeEntityCache
  3
AcMeServices
 90
     1024
 91
        1
280
     0
281
     0
  0
CLASS
  1
GSMANAGER
  2
AcMeGSManager
  3
AcMeServices
 90
     1024
 91
        1
280
     0
281
     0
  0
CLASS
  1
AMDTINTERNALREACTOR
  2
AmdtInternalReactor
  3
AcMeServices
 90
     1024
 91
        2
280
     0
281
     0
  0
CLASS
  1
ACMESTATEMGR
  2
AcMeStateMgr
  3
AcMeServices
 90
     1024
 91
        1
280
     0
281
     0
  0
CLASS
  1
ACGREFMASTER
  2
AcGrefMaster
  3
AcAttribServices
 90
     1024
 91
        1
280
     0
281
     0
  0
CLASS
  1
ACME_DATABASE
  2
AcMeDbDatabase
  3
AcMeServices
 90
     1024
 91
        1
280
     0
281
     0
  0
CLASS
  1
ACRFINSADJUSTERMGR
  2
AcRfInsAdjusterMgr
  3
AcMeServices
 90
     1024
 91
        1
280
     0
281
     0
  0
CLASS
  1
ACGREFACADMASTER
  2
AcGrefacadMaster
  3
AcGrefServices
 90
     1024
 91
        1
280
     0
281
     0
  0
CLASS
  1
AMIMASTER
  2
AmiMaster
  3
AmiServices
 90
     1024
 91
        1
280
     0
281
     0
  0
CLASS
  1
ACIMSTRSYSVAR
  2
AcImStrSysVar
  3
AcMeServices
 90
     1024
 91
        5
280
     0
281
     0
  0
CLASS
  1
ACMSTANDARDJIS
  2
AcmStandardJIS
  3
"Amdt_StdImp|Product Description: AutoCAD Mechanical|Company: Autodesk, Inc."
 90
     1024
 91
        0
280
     0
281
     0
  0
CLASS
  1
AMGOBJPROPCFG
  2
AmgObjPropCfg
  3
"AmgLay|Product Description: AutoCAD Mechanical|Company: Autodesk, Inc."
 90
     1025
 91
        1
280
     0
281
     0
  0
CLASS
  1
ACMSURFSTANDARDJIS
  2
AcmSurfTextStdJIS
  3
"Amdt_StdImp|Product Description: AutoCAD Mechanical|Company: Autodesk, Inc."
 90
     1024
 91
        0
280
     0
281
     0
  0
CLASS
  1
ACMFCFSTANDARDJIS
  2
AcmFCFStdJIS
  3
"Amdt_StdImp|Product Description: AutoCAD Mechanical|Company: Autodesk, Inc."
 90
     1024
 91
        0
280
     0
281
     0
  0
CLASS
  1
ACMWELDSTANDARDJIS
  2
AcmWeldingStdJIS
  3
"Amdt_StdImp|Product Description: AutoCAD Mechanical|Company: Autodesk, Inc."
 90
     1024
 91
        0
280
     0
281
     0
  0
CLASS
  1
ACMIDSTANDARDJIS
  2
AcmIdStdJIS
  3
"Amdt_StdImp|Product Description: AutoCAD Mechanical|Company: Autodesk, Inc."
 90
     1024
 91
        0
280
     0
281
     0
  0
CLASS
  1
ACMDATUMSTANDARDJIS
  2
AcmDatumStdJIS
  3
"Amdt_StdImp|Product Description: AutoCAD Mechanical|Company: Autodesk, Inc."
 90
     1024
 91
        0
280
     0
281
     0
  0
CLASS
  1
ACMBOMSTANDARDJIS
  2
AcmBOMStdJIS
  3
"Amdt_StdImp|Product Description: AutoCAD Mechanical|Company: Autodesk, Inc."
 90
     1024
 91
        0
280
     0
281
     0
  0
CLASS
  1
ACMDETAILSTANDARDJIS
  2
AmdtDetailSymStdJIS
  3
"Amdt_StdImp|Product Description: AutoCAD Mechanical|Company: Autodesk, Inc."
 90
     1024
 91
        0
280
     0
281
     0
  0
CLASS
  1
ACMSECTIONSTANDARDJIS
  2
AmdtSectionSymStdJIS
  3
"Amdt_StdImp|Product Description: AutoCAD Mechanical|Company: Autodesk, Inc."
 90
     1024
 91
        0
280
     0
281
     0
  0
CLASS
  1
ACMCENTERLINESTANDARDJIS
  2
AmdtCenterLineStdJIS
  3
"Amdt_StdImp|Product Description: AutoCAD Mechanical|Company: Autodesk, Inc."
 90
     1024
 91
        0
280
     0
281
     0
  0
CLASS
  1
ACMTHREADLINESTANDARDJIS
  2
AmdtThreadLineStdJIS
  3
"Amdt_StdImp|Product Description: AutoCAD Mechanical|Company: Autodesk, Inc."
 90
     1024
 91
        0
280
     0
281
     0
  0
CLASS
  1
ACAMGLAYSTD
  2
AcAmgLayStd
  3
"AmgLay|Product Description: AutoCAD Mechanical|Company: Autodesk, Inc."
 90
     1024
 91
        1
280
     0
281
     0
  0
CLASS
  1
ACAMGDIMSTD
  2
AcAmgDimStd
  3
"AmgDim|Product Description: AutoCAD Mechanical|Company: Autodesk, Inc."
 90
     1024
 91
        1
280
     0
281
     0
  0
CLASS
  1
ACAMGTITLESTD
  2
AcAmgTitleStd
  3
"AmgTitle|Product Description: AutoCAD Mechanical|Company: Autodesk, Inc."
 90
     4095
 91
        1
280
     0
281
     0
  0
CLASS
  1
ACMDATADICTIONARY
  2
AcmDataDictionary
  3
"AcmSymBB|Product Description: AutoCAD Mechanical|Company: Autodesk, Inc."
 90
     1024
 91
        1
280
     0
281
     0
  0
CLASS
  1
ACMDATAENTRYBLOCK
  2
AcmDataEntryBlock
  3
AcmSymBB|Product Description: AutoCAD Mechanical|Company: Autodesk, Inc.
 90
     1024
 91
        0
280
     0
281
     0
  0
CLASS
  1
LAYER_INDEX
  2
AcDbLayerIndex
  3
ObjectDBX Classes
 90
        0
 91
        0
280
     0
281
     0
  0
CLASS
  1
IDBUFFER
  2
AcDbIdBuffer
  3
ObjectDBX Classes
 90
        0
 91
        0
280
     0
281
     0
  0
CLASS
  1
ACMNOTESTANDARDJIS
  2
AmdtNoteStdJIS
  3
"Amdt_StdImp|Product Description: AutoCAD Mechanical|Company: Autodesk, Inc."
 90
     1024
 91
        0
280
     0
281
     0
  0
CLASS
  1
ACAMGHOLECHARTSTDJIS
  2
AcAmgHoleChartStdJIS
  3
AmgDim|Product Description: AutoCAD Mechanical|Company: Autodesk, Inc.
 90
     1024
 91
        0
280
     0
281
     0
  0
CLASS
  1
AM_DRAWING_MGR
  2
AcDmDwgMgr
  3
AcMechDwgViewMgmt
 90
     1024
 91
        1
280
     0
281
     0
  0
CLASS
  1
AM_DWG_DOCUMENT
  2
AcDmDwgDocument
  3
AcMechDwgViewMgmt
 90
     1024
 91
        1
280
     0
281
     0
  0
CLASS
  1
AM_DWG_SHEET
  2
AcDmSheet
  3
AcMechDwgViewMgmt
 90
     1024
 91
        2
280
     0
281
     0
  0
CLASS
  1
AM_VIEWDIMPARMAP
  2
AcDmViewDimParMap
  3
AcMechDwgViewMgmt
 90
     1024
 91
        2
280
     0
281
     0
  0
CLASS
  1
AM_DWGMGR_NAME
  2
AcDmDwgMgrName
  3
AcMechDwgViewMgmt
 90
     1024
 91
        1
280
     0
281
     0
  0
CLASS
  1
AMDTMENUSTATEMGR
  2
AmdtMenuStateMgr
  3
McadcomServices
 90
     1024
 91
        1
280
     0
281
     0
  0
CLASS
  1
AMDTMCOMMENUSTATE
  2
AmdtMcomMenuState
  3
McadcomServices
 90
     1024
 91
        1
280
     0
281
     0
  0
CLASS
  1
MAPIAMMOUDLE
  2
MApiAmModule
  3
MApiAmServices
 90
     1024
 91
        1
280
     0
281
     0
  0
CLASS
  1
AMDTADMENUSTATE
  2
AmdtAdMenuState
  3
DesignerServices
 90
     1024
 91
        1
280
     0
281
     0
  0
CLASS
  1
ADAPPL
  2
AcAdAppl
  3
DesignerServices
 90
     1024
 91
        1
280
     0
281
     0
  0
CLASS
  1
DEPMGR
  2
AcAdDepMgr
  3
DesignerServices
 90
     1024
 91
        1
280
     0
281
     0
  0
CLASS
  1
PARAMMGR
  2
AcAdParamMgr
  3
DesignerServices
 90
     1024
 91
        1
280
     0
281
     0
  0
CLASS
  1
PARAMSCOPE
  2
AcAdParamScope
  3
DesignerServices
 90
     1024
 91
        1
280
     0
281
     0
  0
CLASS
  1
NAMEDAPPL
  2
AcAdNamedAppl
  3
DesignerServices
 90
     1024
 91
        1
280
     0
281
     0
  0
CLASS
  1
AMDTDMMENUSTATE
  2
AmdtDmMenuState
  3
AcMechDwgViewMgmt
 90
     1024
 91
        1
280
     0
281
     0
  0
CLASS
  1
AMDTAMMENUSTATE
  2
AmdtAmMenuState
  3
DesignerAssemblies
 90
     1024
 91
        1
280
     0
281
     0
  0
CLASS
  1
ACAMPROJECT
  2
AcAmProject
  3
DesignerAssemblies
 90
     1024
 91
        1
280
     0
281
     0
  0
CLASS
  1
ACAMGRCOMPDEF
  2
AcAmGrCompDef
  3
DesignerAssemblies
 90
     1024
 91
        1
280
     0
281
     0
  0
CLASS
  1
ACCMCONTEXT
  2
AcCmContext
  3
DesignerAssemblies
 90
     1024
 91
        1
280
     0
281
     0
  0
CLASS
  1
ACAMCOMPDEF
  2
AcAmCompDef
  3
DesignerAssemblies
 90
     1024
 91
        1
280
     0
281
     0
  0
CLASS
  1
ACAMCOMPDEFMGR
  2
AcAmCompDefMgr
  3
DesignerAssemblies
 90
     1024
 91
        1
280
     0
281
     0
  0
CLASS
  1
AMCONTEXTMGR
  2
AcAmContextMgr
  3
DesignerAssemblies
 90
     1024
 91
        1
280
     0
281
     0
  0
CLASS
  1
ACAMCONTEXTMODELER
  2
AcAmContextModeler
  3
DesignerAssemblies
 90
     1024
 91
        1
280
     0
281
     0
  0
CLASS
  1
CATALOGSTATE
  2
AcAmCatalogState
  3
DesignerAssemblies
 90
     1024
 91
        1
280
     0
281
     0
  0
CLASS
  1
ACAMGRCOMPDEFSET
  2
AcAmGrCompDefSet
  3
DesignerAssemblies
 90
     1024
 91
        1
280
     0
281
     0
  0
CLASS
  1
AMDTBROWSERDBTAB
  2
AmdtBrowserDbTab
  3
McadcomServices
 90
     1024
 91
        1
280
     0
281
     0
  0
CLASS
  1
CBROWSERAPPOBJECT
  2
CBrowserAppObject
  3
McadcomServices
 90
     1024
 91
        3
280
     0
281
     0
  0
CLASS
  1
DM_PLACEHOLDER
  2
AcDmSelsetPlaceholder
  3
AcMechDwgViewMgmt
 90
     1024
 91
        1
280
     0
281
     0
  0
CLASS
  1
TABLESTYLE
  2
AcDbTableStyle
  3
ObjectDBX Classes
 90
     4095
 91
        1
280
     0
281
     0
  0
CLASS
  1
VAACXREFPANELOBJECT
  2
VaAcXREFPanelObject
  3
VAAC_ADDIN
 90
        0
 91
        0
280
     0
281
     0
  0
CLASS
  1
VAACIMAGEINVENTORY
  2
VaAcImageInventory
  3
VAAC_ADDIN
 90
        0
 91
        0
280
     0
281
     0
  0
CLASS
  1
AMDTNOTETEMPLATEDB
  2
AmdtNoteTemplateDB
  3
AcmSymBB|Product Description: AutoCAD Mechanical|Company: Autodesk, Inc.
 90
     1024
 91
        6
280
     0
281
     0
  0
CLASS
  1
ACAMGFILTERDAT
  2
AcAmgFilterDat
  3
"AcadM|Product Description: AutoCAD Mechanical|Company: Autodesk, Inc."
 90
     1024
 91
        0
280
     0
281
     0
  0
CLASS
  1
MATERIAL
  2
AcDbMaterial
  3
ObjectDBX Classes
 90
     1153
 91
        3
280
     0
281
     0
  0
CLASS
  1
VISUALSTYLE
  2
AcDbVisualStyle
  3
ObjectDBX Classes
 90
     4095
 91
       16
280
     0
281
     0
  0
CLASS
  1
ACRFATTGENMGR
  2
AcRfAttGeneralMgr
  3
AcAttribServices
 90
     1024
 91
        0
280
     0
281
     0
  0
CLASS
  1
ACRFOBJATTMGR
  2
AcRfObjAttGroupMgr
  3
AcAttribServices
 90
     1024
 91
        0
280
     0
281
     0
  0
CLASS
  1
ACRFMCADAPIATTHOLDER
  2
AcRfMCADAPIAttHolder
  3
AcAttribServices
 90
     1024
 91
        0
280
     0
281
     0
  0
CLASS
  1
AMDTSYSATTR
  2
AmdtSystemAttribute
  3
AcAttribServices
 90
     1024
 91
        0
280
     0
281
     0
  0
CLASS
  1
ACMTAPERSTANDARDJIS
  2
AcmTaperStdJIS
  3
"Amdt_StdImp|Product Description: AutoCAD Mechanical|Company: Autodesk, Inc."
 90
     1024
 91
        0
280
     0
281
     0
  0
CLASS
  1
CAMSSTRUCTBTNSTATE
  2
StructBtnState
  3
DesignerAssemblies
 90
     1024
 91
        0
280
     0
281
     0
  0
CLASS
  1
SCALE
  2
AcDbScale
  3
ObjectDBX Classes
 90
     1153
 91
       35
280
     0
281
     0
  0
CLASS
  1
MLEADERSTYLE
  2
AcDbMLeaderStyle
  3
ACDB_MLEADERSTYLE_CLASS
 90
     4095
 91
        1
280
     0
281
     0
  0
CLASS
  1
ACMANOOTATIONVIEWSTANDARDJIS
  2
AmdtAnViewStdJIS
  3
"Amdt_StdImp|Product Description: AutoCAD Mechanical|Company: Autodesk, Inc."
 90
     1024
 91
        0
280
     0
281
     0
  0
CLASS
  1
ACMSURFSTANDARDJIS2003
  2
AcmSurfTextStdJIS2003
  3
"Amdt_StdImp|Product Description: AutoCAD Mechanical|Company: Autodesk, Inc."
 90
     1024
 91
        0
280
     0
281
     0
  0
CLASS
  1
CELLSTYLEMAP
  2
AcDbCellStyleMap
  3
ObjectDBX Classes
 90
     1152
 91
        2
280
     0
281
     0
  0
CLASS
  1
ACMFCFSTANDARDJIS98
  2
AcmFCFStdJIS98
  3
"Amdt_StdImp|Product Description: AutoCAD Mechanical|Company: Autodesk, Inc."
 90
     1024
 91
        0
280
     0
281
     0
  0
CLASS
  1
SORTENTSTABLE
  2
AcDbSortentsTable
  3
ObjectDBX Classes
 90
        0
 91
       10
280
     0
281
     0
  0
CLASS
  1
DIMASSOC
  2
AcDbDimAssoc
  3
"AcDbDimAssoc|Product Desc:     AcDim ARX App For Dimension|Company:          Autodesk, Inc.|WEB Address:      www.autodesk.com"
 90
        0
 91
       13
280
     0
281
     0
  0
CLASS
  1
STDPART2D
  2
AmgStdPart
  3
AmgStdPart|Product Description: AutoCAD Mechanical|Company: Autodesk, Inc.
 90
     4095
 91
        0
280
     0
281
     1
  0
CLASS
  1
ACMDATAENTRYPART
  2
AcmDataEntryPart
  3
AcmSymBB|Product Description: AutoCAD Mechanical|Company: Autodesk, Inc.
 90
     1024
 91
        0
280
     0
281
     0
  0
CLASS
  1
ACMPARTREF
  2
AcmPartRef
  3
"AcmSymBB|Product Description: AutoCAD Mechanical|Company: Autodesk, Inc."
 90
     4095
 91
        0
280
     0
281
     1
  0
CLASS
  1
ACDBSTDPARTRES_LINE
  2
AcDbStdPartRes_Line
  3
AmgStdPart|Product Description: AutoCAD Mechanical|Company: Autodesk, Inc.
 90
     1024
 91
        0
280
     0
281
     0
  0
CLASS
  1
ACMBOM
  2
AcmBom
  3
"AcmSymBB|Product Description: AutoCAD Mechanical|Company: Autodesk, Inc."
 90
     1024
 91
        0
280
     0
281
     0
  0
CLASS
  1
AMDTFORMULAUPDATEDISPATCHER
  2
AmdtFormulaUpdateDispatcher
  3
AcMeServices
 90
     1024
 91
        0
280
     0
281
     0
  0
CLASS
  1
ACMBOMROW
  2
AcmBomRow
  3
"AcmSymBB|Product Description: AutoCAD Mechanical|Company: Autodesk, Inc."
 90
     1024
 91
        0
280
     0
281
     0
  0
CLASS
  1
ACMPARTLIST
  2
AcmPartList
  3
"AcmSymBB|Product Description: AutoCAD Mechanical|Company: Autodesk, Inc."
 90
     4095
 91
        0
280
     0
281
     1
  0
CLASS
  1
ACDBLINERES
  2
AcDbLineRes
  3
AcGrefServices
 90
     1024
 91
        0
280
     0
281
     0
  0
CLASS
  1
ACRFINSADJ
  2
AcRfInsAdjuster
  3
AcMeServices
 90
     1024
 91
        0
280
     0
281
     0
  0
CLASS
  1
ACMSTANDARDISO
  2
AcmStandardISO
  3
"Amdt_StdImp|Product Description: AutoCAD Mechanical|Company: Autodesk, Inc."
 90
     1024
 91
        1
280
     0
281
     0
  0
CLASS
  1
AMDTEDGESTANDARDISO13715
  2
AmdtEdgeStdISO13715
  3
"Amdt_StdImp|Product Description: AutoCAD Mechanical|Company: Autodesk, Inc."
 90
     1024
 91
        1
280
     0
281
     0
  0
CLASS
  1
ACMSURFSTANDARDISO2002
  2
AcmSurfTextStdISO2002
  3
"Amdt_StdImp|Product Description: AutoCAD Mechanical|Company: Autodesk, Inc."
 90
     1024
 91
        1
280
     0
281
     0
  0
CLASS
  1
ACMFCFSTANDARDISO
  2
AcmFCFStdISO
  3
"Amdt_StdImp|Product Description: AutoCAD Mechanical|Company: Autodesk, Inc."
 90
     1024
 91
        1
280
     0
281
     0
  0
CLASS
  1
ACMWELDSTANDARDISO
  2
AcmWeldingStdISO
  3
"Amdt_StdImp|Product Description: AutoCAD Mechanical|Company: Autodesk, Inc."
 90
     1024
 91
        1
280
     0
281
     0
  0
CLASS
  1
ACMIDSTANDARDISO
  2
AcmIdStdISO
  3
"Amdt_StdImp|Product Description: AutoCAD Mechanical|Company: Autodesk, Inc."
 90
     1024
 91
        1
280
     0
281
     0
  0
CLASS
  1
ACMDATUMSTANDARDISO
  2
AcmDatumStdISO
  3
"Amdt_StdImp|Product Description: AutoCAD Mechanical|Company: Autodesk, Inc."
 90
     1024
 91
        1
280
     0
281
     0
  0
CLASS
  1
ACMBOMSTANDARDISO
  2
AcmBOMStdISO
  3
"Amdt_StdImp|Product Description: AutoCAD Mechanical|Company: Autodesk, Inc."
 90
     1024
 91
        1
280
     0
281
     0
  0
CLASS
  1
ACMDETAILSTANDARDISO
  2
AmdtDetailSymStdISO
  3
"Amdt_StdImp|Product Description: AutoCAD Mechanical|Company: Autodesk, Inc."
 90
     1024
 91
        1
280
     0
281
     0
  0
CLASS
  1
ACMSECTIONSTANDARDISO2001
  2
AmdtSectionSymStdISO2001
  3
"Amdt_StdImp|Product Description: AutoCAD Mechanical|Company: Autodesk, Inc."
 90
     1024
 91
        1
280
     0
281
     0
  0
CLASS
  1
ACMCENTERLINESTANDARDISO
  2
AmdtCenterLineStdISO
  3
"Amdt_StdImp|Product Description: AutoCAD Mechanical|Company: Autodesk, Inc."
 90
     1024
 91
        1
280
     0
281
     0
  0
CLASS
  1
ACMTHREADLINESTANDARDISO
  2
AmdtThreadLineStdISO
  3
"Amdt_StdImp|Product Description: AutoCAD Mechanical|Company: Autodesk, Inc."
 90
     1024
 91
        1
280
     0
281
     0
  0
CLASS
  1
ACMNOTESTANDARDISO
  2
AmdtNoteStdISO
  3
"Amdt_StdImp|Product Description: AutoCAD Mechanical|Company: Autodesk, Inc."
 90
     1024
 91
        1
280
     0
281
     0
  0
CLASS
  1
ACMTAPERSTANDARDISO
  2
AcmTaperStdISO
  3
"Amdt_StdImp|Product Description: AutoCAD Mechanical|Company: Autodesk, Inc."
 90
     1024
 91
        1
280
     0
281
     0
  0
CLASS
  1
ACMANOOTATIONVIEWSTANDARDISO
  2
AmdtAnViewStdISO
  3
"Amdt_StdImp|Product Description: AutoCAD Mechanical|Company: Autodesk, Inc."
 90
     1024
 91
        1
280
     0
281
     0
  0
CLASS
  1
ACAMGHOLECHARTSTDISO
  2
AcAmgHoleChartStdISO
  3
AmgDim|Product Description: AutoCAD Mechanical|Company: Autodesk, Inc.
 90
     1024
 91
        1
280
     0
281
     0
  0
CLASS
  1
EXACXREFPANELOBJECT
  2
ExAcXREFPanelObject
  3
EXAC_ESW
 90
     1025
 91
        0
280
     0
281
     0
  0
CLASS
  1
NPOCOLLECTION
  2
AcDbImpNonPersistentObjectsCollection
  3
ObjectDBX Classes
 90
     1153
 91
        0
280
     0
281
     0
  0
CLASS
  1
ACDBSTDPARTRES_ARC
  2
AcDbStdPartRes_Arc
  3
AmgStdPart|Product Description: AutoCAD Mechanical|Company: Autodesk, Inc.
 90
     1024
 91
        0
280
     0
281
     0
  0
CLASS
  1
AMDTNOTE
  2
AmdtNote
  3
"AcmSymBB|Product Description: AutoCAD Mechanical|Company: Autodesk, Inc."
 90
     4095
 91
        0
280
     0
281
     1
  0
CLASS
  1
PLOTSETTINGS
  2
AcDbPlotSettings
  3
ObjectDBX Classes
 90
        0
 91
        1
280
     0
281
     0
  0
CLASS
  1
ACMSTANDARDANSI
  2
AcmStandardANSI
  3
"Amdt_StdImp|Product Description: AutoCAD Mechanical|Company: Autodesk, Inc."
 90
     1024
 91
        0
280
     0
281
     0
  0
CLASS
  1
ACMSURFSTANDARDANSI
  2
AcmSurfTextStdANSI
  3
"Amdt_StdImp|Product Description: AutoCAD Mechanical|Company: Autodesk, Inc."
 90
     1024
 91
        0
280
     0
281
     0
  0
CLASS
  1
ACMFCFSTANDARDANSI
  2
AcmFCFStdANSI
  3
"Amdt_StdImp|Product Description: AutoCAD Mechanical|Company: Autodesk, Inc."
 90
     1024
 91
        0
280
     0
281
     0
  0
CLASS
  1
ACMWELDSTANDARDANSI
  2
AcmWeldingStdANSI
  3
"Amdt_StdImp|Product Description: AutoCAD Mechanical|Company: Autodesk, Inc."
 90
     1024
 91
        0
280
     0
281
     0
  0
CLASS
  1
ACMIDSTANDARDANSI
  2
AcmIdStdANSI
  3
"Amdt_StdImp|Product Description: AutoCAD Mechanical|Company: Autodesk, Inc."
 90
     1024
 91
        0
280
     0
281
     0
  0
CLASS
  1
ACMDATUMSTANDARDANSI
  2
AcmDatumStdANSI
  3
"Amdt_StdImp|Product Description: AutoCAD Mechanical|Company: Autodesk, Inc."
 90
     1024
 91
        0
280
     0
281
     0
  0
CLASS
  1
ACMBOMSTANDARDANSI
  2
AcmBOMStdANSI
  3
"Amdt_StdImp|Product Description: AutoCAD Mechanical|Company: Autodesk, Inc."
 90
     1024
 91
        0
280
     0
281
     0
  0
CLASS
  1
ACMDETAILSTANDARDANSI
  2
AmdtDetailSymStdANSI
  3
"Amdt_StdImp|Product Description: AutoCAD Mechanical|Company: Autodesk, Inc."
 90
     1024
 91
        0
280
     0
281
     0
  0
CLASS
  1
ACMSECTIONSTANDARDANSI
  2
AmdtSectionSymStdANSI
  3
"Amdt_StdImp|Product Description: AutoCAD Mechanical|Company: Autodesk, Inc."
 90
     1024
 91
        0
280
     0
281
     0
  0
CLASS
  1
ACMCENTERLINESTANDARDANSI
  2
AmdtCenterLineStdANSI
  3
"Amdt_StdImp|Product Description: AutoCAD Mechanical|Company: Autodesk, Inc."
 90
     1024
 91
        0
280
     0
281
     0
  0
CLASS
  1
ACMTHREADLINESTANDARDANSI
  2
AmdtThreadLineStdANSI
  3
"Amdt_StdImp|Product Description: AutoCAD Mechanical|Company: Autodesk, Inc."
 90
     1024
 91
        0
280
     0
281
     0
  0
CLASS
  1
ACMNOTESTANDARDANSI
  2
AmdtNoteStdANSI
  3
"Amdt_StdImp|Product Description: AutoCAD Mechanical|Company: Autodesk, Inc."
 90
     1024
 91
        0
280
     0
281
     0
  0
CLASS
  1
ACMTAPERSTANDARDANSI
  2
AcmTaperStdANSI
  3
"Amdt_StdImp|Product Description: AutoCAD Mechanical|Company: Autodesk, Inc."
 90
     1024
 91
        0
280
     0
281
     0
  0
CLASS
  1
ACMANOOTATIONVIEWSTANDARDANSI
  2
AmdtAnViewStdANSI
  3
"Amdt_StdImp|Product Description: AutoCAD Mechanical|Company: Autodesk, Inc."
 90
     1024
 91
        0
280
     0
281
     0
  0
CLASS
  1
ACAMGHOLECHARTSTDANSI
  2
AcAmgHoleChartStdANSI
  3
AmgDim|Product Description: AutoCAD Mechanical|Company: Autodesk, Inc.
 90
     1024
 91
        0
280
     0
281
     0
  0
CLASS
  1
ACMSTANDARDBSI
  2
AcmStandardBSI
  3
"Amdt_StdImp|Product Description: AutoCAD Mechanical|Company: Autodesk, Inc."
 90
     1024
 91
        0
280
     0
281
     0
  0
CLASS
  1
ACMSURFSTANDARDBSI2002
  2
AcmSurfTextStdBSI2002
  3
"Amdt_StdImp|Product Description: AutoCAD Mechanical|Company: Autodesk, Inc."
 90
     1024
 91
        0
280
     0
281
     0
  0
CLASS
  1
ACMFCFSTANDARDBSI
  2
AcmFCFStdBSI
  3
"Amdt_StdImp|Product Description: AutoCAD Mechanical|Company: Autodesk, Inc."
 90
     1024
 91
        0
280
     0
281
     0
  0
CLASS
  1
ACMWELDSTANDARDBSI
  2
AcmWeldingStdBSI
  3
"Amdt_StdImp|Product Description: AutoCAD Mechanical|Company: Autodesk, Inc."
 90
     1024
 91
        0
280
     0
281
     0
  0
CLASS
  1
ACMIDSTANDARDBSI
  2
AcmIdStdBSI
  3
"Amdt_StdImp|Product Description: AutoCAD Mechanical|Company: Autodesk, Inc."
 90
     1024
 91
        0
280
     0
281
     0
  0
CLASS
  1
ACMDATUMSTANDARDBSI
  2
AcmDatumStdBSI
  3
"Amdt_StdImp|Product Description: AutoCAD Mechanical|Company: Autodesk, Inc."
 90
     1024
 91
        0
280
     0
281
     0
  0
CLASS
  1
ACMBOMSTANDARDBSI
  2
AcmBOMStdBSI
  3
"Amdt_StdImp|Product Description: AutoCAD Mechanical|Company: Autodesk, Inc."
 90
     1024
 91
        0
280
     0
281
     0
  0
CLASS
  1
ACMDETAILSTANDARDBSI
  2
AmdtDetailSymStdBSI
  3
"Amdt_StdImp|Product Description: AutoCAD Mechanical|Company: Autodesk, Inc."
 90
     1024
 91
        0
280
     0
281
     0
  0
CLASS
  1
ACMSECTIONSTANDARDBSI2001
  2
AmdtSectionSymStdBSI2001
  3
"Amdt_StdImp|Product Description: AutoCAD Mechanical|Company: Autodesk, Inc."
 90
     1024
 91
        0
280
     0
281
     0
  0
CLASS
  1
ACMCENTERLINESTANDARDBSI
  2
AmdtCenterLineStdBSI
  3
"Amdt_StdImp|Product Description: AutoCAD Mechanical|Company: Autodesk, Inc."
 90
     1024
 91
        0
280
     0
281
     0
  0
CLASS
  1
ACMTHREADLINESTANDARDBSI
  2
AmdtThreadLineStdBSI
  3
"Amdt_StdImp|Product Description: AutoCAD Mechanical|Company: Autodesk, Inc."
 90
     1024
 91
        0
280
     0
281
     0
  0
CLASS
  1
ACMNOTESTANDARDBSI
  2
AmdtNoteStdBSI
  3
"Amdt_StdImp|Product Description: AutoCAD Mechanical|Company: Autodesk, Inc."
 90
     1024
 91
        0
280
     0
281
     0
  0
CLASS
  1
ACMTAPERSTANDARDBSI
  2
AcmTaperStdBSI
  3
"Amdt_StdImp|Product Description: AutoCAD Mechanical|Company: Autodesk, Inc."
 90
     1024
 91
        0
280
     0
281
     0
  0
CLASS
  1
ACMANOOTATIONVIEWSTANDARDBSI
  2
AmdtAnViewStdBSI
  3
"Amdt_StdImp|Product Description: AutoCAD Mechanical|Company: Autodesk, Inc."
 90
     1024
 91
        0
280
     0
281
     0
  0
CLASS
  1
ACAMGHOLECHARTSTDBSI
  2
AcAmgHoleChartStdBSI
  3
AmgDim|Product Description: AutoCAD Mechanical|Company: Autodesk, Inc.
 90
     1024
 91
        0
280
     0
281
     0
  0
CLASS
  1
AMDTEDGESTANDARDJIS
  2
AmdtEdgeStdJIS
  3
"Amdt_StdImp|Product Description: AutoCAD Mechanical|Company: Autodesk, Inc."
 90
     1024
 91
        0
280
     0
281
     0
  0
CLASS
  1
ACMSURFSYM
  2
AcmSurfaceTexture
  3
"AcmSymBB|Product Description: AutoCAD Mechanical|Company: Autodesk, Inc."
 90
     4095
 91
        0
280
     0
281
     1
  0
CLASS
  1
ACDBDIMENSIONRES
  2
AcDbDimensionRes
  3
AcmSymBB|Product Description: AutoCAD Mechanical|Company: Autodesk, Inc.
 90
     1024
 91
        0
280
     0
281
     0
  0
CLASS
  1
ACDBCIRCARCRES
  2
AcDbCircArcRes
  3
AcGrefServices
 90
     1024
 91
        0
280
     0
281
     0
  0
CLASS
  1
AMDTACMWBLOCKBOMENTITY
  2
AmdtAcmWblockBomEntity
  3
"AcmSymBB|Product Description: AutoCAD Mechanical|Company: Autodesk, Inc."
 90
     4095
 91
        0
280
     0
281
     1
  0
CLASS
  1
ACDBOPPOLYLINERES
  2
AcDbOpPolylineRes
  3
AcGrefServices
 90
     1024
 91
        0
280
     0
281
     0
  0
CLASS
  1
ACDB_BLKREFOBJECTCONTEXTDATA_CLASS
  2
AcDbBlkRefObjectContextData
  3
ObjectDBX Classes
 90
     1153
 91
        0
280
     0
281
     0
  0
CLASS
  1
ACMPICKOBJ
  2
AcmPickEnt
  3
"AcmSymBB|Product Description: AutoCAD Mechanical|Company: Autodesk, Inc."
 90
     1024
 91
        0
280
     0
281
     1
  0
CLASS
  1
ACMBALLOON
  2
AcmBalloon
  3
"AcmSymBB|Product Description: AutoCAD Mechanical|Company: Autodesk, Inc."
 90
     4095
 91
        0
280
     0
281
     1
  0
ENDSEC
  0
SECTION
  2
TABLES
  0
TABLE
  2
VPORT
  5
8
330
0
100
AcDbSymbolTable
 70
     1
  0
VPORT
  5
27A
330
8
100
AcDbSymbolTableRecord
100
AcDbViewportTableRecord
  2
*Active
 70
     0
 10
0.0
 20
0.0
 11
1.0
 21
1.0
 12
569.8549719209887
 22
495.0547627755983
 13
0.0
 23
0.0
 14
6.25
 24
6.25
 15
25.0
 25
25.0
 16
0.0
 26
0.0
 36
1.0
 17
0.0
 27
0.0
 37
0.0
 40
312.9196489850217
 41
1.285714285714285
 42
50.0
 43
0.0
 44
0.0
 50
0.0
 51
0.0
 71
    16
 72
 20000
 73
     1
 74
     3
 75
     0
 76
     0
 77
     0
 78
     0
281
     0
 65
     0
110
0.0
120
0.0
130
0.0
111
1.0
121
0.0
131
0.0
112
0.0
122
1.0
132
0.0
 79
     0
146
0.0
348
285
 60
     3
 61
     5
292
     1
282
     0
141
0.0
142
0.0
 63
   250
421
  3355443
  0
ENDTAB
  0
TABLE
  2
LTYPE
  5
5
330
0
100
AcDbSymbolTable
 70
    22
  0
LTYPE
  5
14
330
5
100
AcDbSymbolTableRecord
100
AcDbLinetypeTableRecord
  2
ByBlock
 70
     0
  3

 72
    65
 73
     0
 40
0.0
  0
LTYPE
  5
15
330
5
100
AcDbSymbolTableRecord
100
AcDbLinetypeTableRecord
  2
ByLayer
 70
     0
  3

 72
    65
 73
     0
 40
0.0
  0
LTYPE
  5
16
330
5
100
AcDbSymbolTableRecord
100
AcDbLinetypeTableRecord
  2
Continuous
 70
     0
  3
Solid line
 72
    65
 73
     0
 40
0.0
  0
LTYPE
  5
4D
330
5
100
AcDbSymbolTableRecord
100
AcDbLinetypeTableRecord
  2
AM_ISO02W050
 70
     0
  3
__ __ __ __ __ __ __ __ __ __ __ __ __ __ __
 72
    65
 73
     2
 40
7.5
 49
6.0
 74
     0
 49
-1.5
 74
     0
  0
LTYPE
  5
4E
330
5
100
AcDbSymbolTableRecord
100
AcDbLinetypeTableRecord
  2
AM_ISO08W050
 70
     0
  3
____ . ____ . ____ . ____ . ____ . ____ . ____
 72
    65
 73
     4
 40
18.0
 49
12.0
 74
     0
 49
-1.5
 74
     0
 49
3.0
 74
     0
 49
-1.5
 74
     0
  0
LTYPE
  5
4F
330
5
100
AcDbSymbolTableRecord
100
AcDbLinetypeTableRecord
  2
AM_ISO09W050
 70
     0
  3
_____ . . _____ . . _____ . . ____ .. ____
 72
    65
 73
     6
 40
22.5
 49
12.0
 74
     0
 49
-1.5
 74
     0
 49
3.0
 74
     0
 49
-1.5
 74
     0
 49
3.0
 74
     0
 49
-1.5
 74
     0
  0
LTYPE
  5
50
330
5
100
AcDbSymbolTableRecord
100
AcDbLinetypeTableRecord
  2
Amconstr
 70
     0
  3
_______________________
 72
    65
 73
     2
 40
9999.0
 49
9999.0
 74
     0
 49
0.0
 74
     0
  0
LTYPE
  5
51
330
5
100
AcDbSymbolTableRecord
100
AcDbLinetypeTableRecord
  2
AM_ISO08W050x2
 70
     0
  3
__ . __ . __ . __ . __ . __
 72
    65
 73
     4
 40
9.0
 49
6.0
 74
     0
 49
-0.75
 74
     0
 49
1.5
 74
     0
 49
-0.75
 74
     0
  0
LTYPE
  5
52
330
5
100
AcDbSymbolTableRecord
100
AcDbLinetypeTableRecord
  2
AM_ISO02W050x2
 70
     0
  3
 _ _ _ _ _ _ _ _ _ _ _ _
 72
    65
 73
     2
 40
3.75
 49
3.0
 74
     0
 49
-0.75
 74
     0
  0
LTYPE
  5
55
330
5
100
AcDbSymbolTableRecord
100
AcDbLinetypeTableRecord
  2
Amzigzag
 70
     0
  3
/\/-/\/-/\/-/\/-/\/-/\/
 72
    65
 73
     2
 40
11.0001
 49
0.0001
 74
     4
 75
   136
340
23D
 46
0.04
 50
0.0
 44
0.0
 45
0.0
 49
-11.0
 74
     0
  0
LTYPE
  5
65
330
5
100
AcDbSymbolTableRecord
100
AcDbLinetypeTableRecord
  2
CENTER
 70
     0
  3
__ . __
 72
    65
 73
     4
 40
7.0
 49
4.0
 74
     0
 49
-1.0
 74
     0
 49
1.0
 74
     0
 49
-1.0
 74
     0
  0
LTYPE
  5
E0
330
5
100
AcDbSymbolTableRecord
100
AcDbLinetypeTableRecord
  2
HIDDEN
 70
     0
  3
Hidden __ __ __ __ __ __ __ __ __ __ __ __ __ _
 72
    65
 73
     2
 40
9.524999999999996
 49
6.349999999999998
 74
     0
 49
-3.174999999999998
 74
     0
  0
LTYPE
  5
E1
330
5
100
AcDbSymbolTableRecord
100
AcDbLinetypeTableRecord
  2
PHANTOM2
 70
     0
  3
Phantom (.5x) ___ _ _ ___ _ _ ___ _ _ ___ _ _
 72
    65
 73
     6
 40
31.75
 49
15.875
 74
     0
 49
-3.174999999999998
 74
     0
 49
3.174999999999998
 74
     0
 49
-3.174999999999998
 74
     0
 49
3.174999999999998
 74
     0
 49
-3.174999999999998
 74
     0
  0
LTYPE
  5
5A2
330
5
100
AcDbSymbolTableRecord
100
AcDbLinetypeTableRecord
  2
ACJISWELD
 70
     0
  3
_ _ _ _ _
 72
    65
 73
     2
 40
2.0
 49
2.0
 74
     0
 49
-1.0
 74
     0
  0
LTYPE
  5
822D
330
5
100
AcDbSymbolTableRecord
100
AcDbLinetypeTableRecord
  2
ACISOWELD
 70
     0
  3
_ _ _ _ _
 72
    65
 73
     2
 40
2.0
 49
2.0
 74
     0
 49
-1.0
 74
     0
  0
LTYPE
  5
822E
330
5
100
AcDbSymbolTableRecord
100
AcDbLinetypeTableRecord
  2
ACISOTGB
 70
     0
  3
__ . . __ . .
 72
    65
 73
     6
 40
9.0
 49
4.0
 74
     0
 49
-1.0
 74
     0
 49
1.0
 74
     0
 49
-1.0
 74
     0
 49
1.0
 74
     0
 49
-1.0
 74
     0
  0
LTYPE
  5
822F
330
5
100
AcDbSymbolTableRecord
100
AcDbLinetypeTableRecord
  2
ACISOTGL
 70
     0
  3
_ _ _ _ _
 72
    65
 73
     2
 40
3.0
 49
2.0
 74
     0
 49
-1.0
 74
     0
  0
ENDTAB
  0
TABLE
  2
LAYER
  5
2
102
{ACAD_XDICTIONARY
360
BF
102
}
330
0
100
AcDbSymbolTable
 70
    10
  0
LAYER
  5
10
102
{ACAD_XDICTIONARY
360
29D8
102
}
330
2
100
AcDbSymbolTableRecord
100
AcDbLayerTableRecord
  2
0
 70
     0
 62
     7
  6
Continuous
370
    -3
390
F
347
27E
  0
LAYER
  5
81
102
{ACAD_XDICTIONARY
360
29DA
102
}
330
2
100
AcDbSymbolTableRecord
100
AcDbLayerTableRecord
  2
AM_0 外形線1
 70
     0
 62
     7
  6
Continuous
370
    25
390
F
347
27E
  0
LAYER
  5
427
330
2
100
AcDbSymbolTableRecord
100
AcDbLayerTableRecord
  2
Defpoints
 70
     0
 62
     7
  6
Continuous
290
     0
370
    -3
390
F
347
27E
  0
LAYER
  5
25C9
102
{ACAD_XDICTIONARY
360
29E1
102
}
330
2
100
AcDbSymbolTableRecord
100
AcDbLayerTableRecord
  2
AM_3 隠れ線
 70
     0
 62
     8
  6
ACJISWELD
370
    13
390
F
347
27E
1001
AcAecLayerStandard
1000

1000

  0
LAYER
  5
25CA
102
{ACAD_XDICTIONARY
360
29E3
102
}
330
2
100
AcDbSymbolTableRecord
100
AcDbLayerTableRecord
  2
AM_4 細線
 70
     0
 62
     4
  6
Continuous
370
    13
390
F
347
27E
1001
AcAecLayerStandard
1000

1000

  0
LAYER
  5
26B3
102
{ACAD_XDICTIONARY
360
29E9
102
}
330
2
100
AcDbSymbolTableRecord
100
AcDbLayerTableRecord
  2
AM_5 寸法線
 70
     0
 62
     3
  6
Continuous
370
    13
390
F
347
27E
1001
AcAecLayerStandard
1000

1000

  0
LAYER
  5
376C
330
2
100
AcDbSymbolTableRecord
100
AcDbLayerTableRecord
  2
AM_7 中心線
 70
     0
 62
     1
  6
AM_ISO08W050
370
    13
390
F
347
27E
1001
AcAecLayerStandard
1000

1000

  0
LAYER
  5
376F
330
2
100
AcDbSymbolTableRecord
100
AcDbLayerTableRecord
  2
AM_6 文字
 70
     0
 62
     2
  6
Continuous
370
    13
390
F
347
27E
1001
AcAecLayerStandard
1000

1000

  0
LAYER
  5
7C10
330
2
100
AcDbSymbolTableRecord
100
AcDbLayerTableRecord
  2
AM_11 想像線
 70
     0
 62
     5
  6
AM_ISO09W050
370
    13
390
F
347
27E
1001
AcAecLayerStandard
1000

1000

  0
ENDTAB
  0
TABLE
  2
STYLE
  5
3
330
0
100
AcDbSymbolTable
 70
    10
  0
STYLE
  5
11
330
3
100
AcDbSymbolTableRecord
100
AcDbTextStyleTableRecord
  2
STANDARD
 70
     0
 40
0.0
 41
1.0
 50
0.0
 71
     0
 42
25.0
  3
ISOCP.SHX
  4
EXTFONT.SHX
  0
STYLE
  5
23D
330
3
100
AcDbSymbolTableRecord
100
AcDbTextStyleTableRecord
  2

 70
     1
 40
0.0
 41
1.0
 50
0.0
 71
     0
 42
2.5
  3
genltshp.shx
  4

  0
STYLE
  5
5D5
330
3
100
AcDbSymbolTableRecord
100
AcDbTextStyleTableRecord
  2
SEISA
 70
     0
 40
0.0
 41
0.9
 50
0.0
 71
     0
 42
25.0
  3
romans.shx
  4
extfont2.shx
  0
STYLE
  5
821D
330
3
100
AcDbSymbolTableRecord
100
AcDbTextStyleTableRecord
  2
ACISOTS
 70
     0
 40
1.0
 41
1.0
 50
0.0
 71
     0
 42
25.0
  3
isocp.shx
  4
extfont.shx
  0
STYLE
  5
822C
330
3
100
AcDbSymbolTableRecord
100
AcDbTextStyleTableRecord
  2
ACISOGDT
 70
     0
 40
0.0
 41
1.0
 50
0.0
 71
     0
 42
25.0
  3
amgdt.shx
  4

  0
ENDTAB
  0
TABLE
  2
VIEW
  5
6
330
0
100
AcDbSymbolTable
 70
     6
  0
VIEW
  5
91B
330
6
100
AcDbSymbolTableRecord
100
AcDbViewTableRecord
  2
AM_VIEW1
 70
     0
 40
371.25
 10
365.3063428431167
 20
556.8750009234552
 41
730.6126847290641
 11
0.0
 21
0.0
 31
1.0
 12
0.0
 22
0.0
 32
0.0
 42
50.0
 43
0.0
 44
0.0
 50
0.0
 71
    16
281
     0
 72
     0
 73
     0
  0
VIEW
  5
91C
330
6
100
AcDbSymbolTableRecord
100
AcDbViewTableRecord
  2
AM_VIEW2
 70
     0
 40
371.25
 10
684.6936581140527
 20
556.8750009234552
 41
730.6126847290641
 11
0.0
 21
0.0
 31
1.0
 12
0.0
 22
0.0
 32
0.0
 42
50.0
 43
0.0
 44
0.0
 50
0.0
 71
    16
281
     0
 72
     0
 73
     0
  0
VIEW
  5
91D
330
6
100
AcDbSymbolTableRecord
100
AcDbViewTableRecord
  2
AM_VIEW3
 70
     0
 40
371.25
 10
365.3063428431167
 20
185.6250009234551
 41
730.6126847290641
 11
0.0
 21
0.0
 31
1.0
 12
0.0
 22
0.0
 32
0.0
 42
50.0
 43
0.0
 44
0.0
 50
0.0
 71
    16
281
     0
 72
     0
 73
     0
  0
VIEW
  5
91E
330
6
100
AcDbSymbolTableRecord
100
AcDbViewTableRecord
  2
AM_VIEW4
 70
     0
 40
371.25
 10
684.6936581140527
 20
185.6250009234551
 41
730.6126847290641
 11
0.0
 21
0.0
 31
1.0
 12
0.0
 22
0.0
 32
0.0
 42
50.0
 43
0.0
 44
0.0
 50
0.0
 71
    16
281
     0
 72
     0
 73
     0
  0
VIEW
  5
91F
330
6
100
AcDbSymbolTableRecord
100
AcDbViewTableRecord
  2
AM_VIEW5
 70
     0
 40
371.2500000000002
 10
525.0000004785846
 20
371.2500009234552
 41
730.6126847290641
 11
0.0
 21
0.0
 31
1.0
 12
0.0
 22
0.0
 32
0.0
 42
50.0
 43
0.0
 44
0.0
 50
0.0
 71
    16
281
     0
 72
     0
 73
     0
  0
VIEW
  5
920
330
6
100
AcDbSymbolTableRecord
100
AcDbViewTableRecord
  2
AM_VIEW6
 70
     0
 40
742.4925749999998
 10
525.0000004785846
 20
371.2500009234551
 41
1461.210757204433
 11
0.0
 21
0.0
 31
1.0
 12
0.0
 22
0.0
 32
0.0
 42
50.0
 43
0.0
 44
0.0
 50
0.0
 71
    16
281
     0
 72
     0
 73
     0
  0
ENDTAB
  0
TABLE
  2
UCS
  5
7
330
0
100
AcDbSymbolTable
 70
     0
  0
ENDTAB
  0
TABLE
  2
APPID
  5
9
330
0
100
AcDbSymbolTable
 70
   393
  0
APPID
  5
12
330
9
100
AcDbSymbolTableRecord
100
AcDbRegAppTableRecord
  2
ACAD
 70
     0
  0
APPID
  5
30
330
9
100
AcDbSymbolTableRecord
100
AcDbRegAppTableRecord
  2
MCAD_NO_VIS
 70
     0
  0
APPID
  5
31
330
9
100
AcDbSymbolTableRecord
100
AcDbRegAppTableRecord
  2
ACAD_TEMP_GRAPHIC
 70
     0
  0
APPID
  5
44
330
9
100
AcDbSymbolTableRecord
100
AcDbRegAppTableRecord
  2
ACATTRIBSERVICES
 70
     0
  0
APPID
  5
F6
330
9
100
AcDbSymbolTableRecord
100
AcDbRegAppTableRecord
  2
AD_DRAW
 70
     0
  0
APPID
  5
114
330
9
100
AcDbSymbolTableRecord
100
AcDbRegAppTableRecord
  2
DESIGNERASSEMBLIES
 70
     0
  0
APPID
  5
118
330
9
100
AcDbSymbolTableRecord
100
AcDbRegAppTableRecord
  2
ACADM_DIM_EDIT
 70
     0
  0
APPID
  5
119
330
9
100
AcDbSymbolTableRecord
100
AcDbRegAppTableRecord
  2
AMDT_DM_ADJ
 70
     0
  0
APPID
  5
1AF
330
9
100
AcDbSymbolTableRecord
100
AcDbRegAppTableRecord
  2
ACAD_DSTYLE_DIMARC_LENGTH_SYMBOL
 70
     0
  0
APPID
  5
1B0
330
9
100
AcDbSymbolTableRecord
100
AcDbRegAppTableRecord
  2
ACAD_DSTYLE_DIMJOGGED_JOGANGLE_SYMBOL
 70
     0
  0
APPID
  5
2D7
330
9
100
AcDbSymbolTableRecord
100
AcDbRegAppTableRecord
  2
ACAD_MLEADERVER
 70
     0
  0
APPID
  5
355
330
9
100
AcDbSymbolTableRecord
100
AcDbRegAppTableRecord
  2
AcadAnnoPO
 70
     0
  0
APPID
  5
428
330
9
100
AcDbSymbolTableRecord
100
AcDbRegAppTableRecord
  2
ACAD_DSTYLE_DIMTEXT_FILL
 70
     0
  0
APPID
  5
429
330
9
100
AcDbSymbolTableRecord
100
AcDbRegAppTableRecord
  2
GENIUS_GENSCREG_15
 70
     0
  0
APPID
  5
42A
330
9
100
AcDbSymbolTableRecord
100
AcDbRegAppTableRecord
  2
GENIUS_GENOBJ-N-SDF_13
 70
     0
  0
APPID
  5
42B
330
9
100
AcDbSymbolTableRecord
100
AcDbRegAppTableRecord
  2
GENIUS_GENODEF_13
 70
     0
  0
APPID
  5
42C
330
9
100
AcDbSymbolTableRecord
100
AcDbRegAppTableRecord
  2
ACAD_EXEMPT_FROM_CAD_STANDARDS
 70
     0
  0
APPID
  5
42D
330
9
100
AcDbSymbolTableRecord
100
AcDbRegAppTableRecord
  2
AcAecLayerStandard
 70
     0
  0
APPID
  5
42E
330
9
100
AcDbSymbolTableRecord
100
AcDbRegAppTableRecord
  2
GENIUS_GENOBJ-N-CEN_13
 70
     0
  0
APPID
  5
42F
330
9
100
AcDbSymbolTableRecord
100
AcDbRegAppTableRecord
  2
GENIUS_GENCEN_19
 70
     0
  0
APPID
  5
430
330
9
100
AcDbSymbolTableRecord
100
AcDbRegAppTableRecord
  2
ACAD_DSTYLE_DIMINSPECT
 70
     0
  0
APPID
  5
431
330
9
100
AcDbSymbolTableRecord
100
AcDbRegAppTableRecord
  2
GENIUS_AMGTXT_16
 70
     0
  0
APPID
  5
432
330
9
100
AcDbSymbolTableRecord
100
AcDbRegAppTableRecord
  2
GENIUS_GENFIL_13
 70
     0
  0
APPID
  5
433
330
9
100
AcDbSymbolTableRecord
100
AcDbRegAppTableRecord
  2
GENIUS_GENOLIS_13
 70
     0
  0
APPID
  5
434
330
9
100
AcDbSymbolTableRecord
100
AcDbRegAppTableRecord
  2
GENIUS_GENOBJ-N-CHA_13
 70
     0
  0
APPID
  5
435
330
9
100
AcDbSymbolTableRecord
100
AcDbRegAppTableRecord
  2
GENIUS_GENOENT_13
 70
     0
  0
APPID
  5
436
330
9
100
AcDbSymbolTableRecord
100
AcDbRegAppTableRecord
  2
GENIUS_GENOREF_13
 70
     0
  0
APPID
  5
437
330
9
100
AcDbSymbolTableRecord
100
AcDbRegAppTableRecord
  2
GENIUS_GENOBJ-N-FIL_13
 70
     0
  0
APPID
  5
438
330
9
100
AcDbSymbolTableRecord
100
AcDbRegAppTableRecord
  2
GEVID1208829536
 70
     0
  0
APPID
  5
439
330
9
100
AcDbSymbolTableRecord
100
AcDbRegAppTableRecord
  2
GEVDC
 70
     0
  0
APPID
  5
43A
330
9
100
AcDbSymbolTableRecord
100
AcDbRegAppTableRecord
  2
GEVRADREF
 70
     0
  0
APPID
  5
43B
330
9
100
AcDbSymbolTableRecord
100
AcDbRegAppTableRecord
  2
GENIUS_GENBH_13
 70
     0
  0
APPID
  5
43C
330
9
100
AcDbSymbolTableRecord
100
AcDbRegAppTableRecord
  2
GENIUS_GENOBJ-NBEHI-BHF_13
 70
     0
  0
APPID
  5
43D
330
9
100
AcDbSymbolTableRecord
100
AcDbRegAppTableRecord
  2
GENIUS_GENOBJ-NBEHI-BHB_13
 70
     0
  0
APPID
  5
43E
330
9
100
AcDbSymbolTableRecord
100
AcDbRegAppTableRecord
  2
GEVID1208829537
 70
     0
  0
APPID
  5
43F
330
9
100
AcDbSymbolTableRecord
100
AcDbRegAppTableRecord
  2
ACAD_DSTYLE_DIMJAG
 70
     0
  0
APPID
  5
440
330
9
100
AcDbSymbolTableRecord
100
AcDbRegAppTableRecord
  2
ACAD_DSTYLE_DIMTALN
 70
     0
  0
APPID
  5
441
330
9
100
AcDbSymbolTableRecord
100
AcDbRegAppTableRecord
  2
AMG_2DHIDE
 70
     0
  0
APPID
  5
442
330
9
100
AcDbSymbolTableRecord
100
AcDbRegAppTableRecord
  2
AMG_2DSTRUCT_BTR
 70
     0
  0
APPID
  5
443
330
9
100
AcDbSymbolTableRecord
100
AcDbRegAppTableRecord
  2
GEVID1208845772
 70
     0
  0
APPID
  5
444
330
9
100
AcDbSymbolTableRecord
100
AcDbRegAppTableRecord
  2
GEVID1208845773
 70
     0
  0
APPID
  5
445
330
9
100
AcDbSymbolTableRecord
100
AcDbRegAppTableRecord
  2
ACADM_2DVIEW_IGN_NOTIFY
 70
     0
  0
APPID
  5
446
330
9
100
AcDbSymbolTableRecord
100
AcDbRegAppTableRecord
  2
GEVID1208845774
 70
     0
  0
APPID
  5
447
330
9
100
AcDbSymbolTableRecord
100
AcDbRegAppTableRecord
  2
GEVID1208845775
 70
     0
  0
APPID
  5
448
330
9
100
AcDbSymbolTableRecord
100
AcDbRegAppTableRecord
  2
GEVID1208845776
 70
     0
  0
APPID
  5
449
330
9
100
AcDbSymbolTableRecord
100
AcDbRegAppTableRecord
  2
GEVID1208845777
 70
     0
  0
APPID
  5
44A
330
9
100
AcDbSymbolTableRecord
100
AcDbRegAppTableRecord
  2
GEVCON
 70
     0
  0
APPID
  5
44B
330
9
100
AcDbSymbolTableRecord
100
AcDbRegAppTableRecord
  2
GENIUS_GENOBJ-F-SCPASSM_13
 70
     0
  0
APPID
  5
44C
330
9
100
AcDbSymbolTableRecord
100
AcDbRegAppTableRecord
  2
GEVID1208845778
 70
     0
  0
APPID
  5
44D
330
9
100
AcDbSymbolTableRecord
100
AcDbRegAppTableRecord
  2
GEVID1208845779
 70
     0
  0
APPID
  5
44E
330
9
100
AcDbSymbolTableRecord
100
AcDbRegAppTableRecord
  2
GEVID1208845780
 70
     0
  0
APPID
  5
44F
330
9
100
AcDbSymbolTableRecord
100
AcDbRegAppTableRecord
  2
GEVID1208845781
 70
     0
  0
APPID
  5
450
330
9
100
AcDbSymbolTableRecord
100
AcDbRegAppTableRecord
  2
GEVID1208845782
 70
     0
  0
APPID
  5
451
330
9
100
AcDbSymbolTableRecord
100
AcDbRegAppTableRecord
  2
GEVID1208845783
 70
     0
  0
APPID
  5
452
330
9
100
AcDbSymbolTableRecord
100
AcDbRegAppTableRecord
  2
GEVID1208845784
 70
     0
  0
APPID
  5
453
330
9
100
AcDbSymbolTableRecord
100
AcDbRegAppTableRecord
  2
GEVID1208845785
 70
     0
  0
APPID
  5
454
330
9
100
AcDbSymbolTableRecord
100
AcDbRegAppTableRecord
  2
GEVID1208845787
 70
     0
  0
APPID
  5
455
330
9
100
AcDbSymbolTableRecord
100
AcDbRegAppTableRecord
  2
GEVID1208845788
 70
     0
  0
APPID
  5
456
330
9
100
AcDbSymbolTableRecord
100
AcDbRegAppTableRecord
  2
GEVID1208845789
 70
     0
  0
APPID
  5
457
330
9
100
AcDbSymbolTableRecord
100
AcDbRegAppTableRecord
  2
GEVID1208845790
 70
     0
  0
APPID
  5
458
330
9
100
AcDbSymbolTableRecord
100
AcDbRegAppTableRecord
  2
GEVID1208845791
 70
     0
  0
APPID
  5
459
330
9
100
AcDbSymbolTableRecord
100
AcDbRegAppTableRecord
  2
GEVID1208845792
 70
     0
  0
APPID
  5
45A
330
9
100
AcDbSymbolTableRecord
100
AcDbRegAppTableRecord
  2
GEVID1208845793
 70
     0
  0
APPID
  5
45B
330
9
100
AcDbSymbolTableRecord
100
AcDbRegAppTableRecord
  2
GEVID1208845794
 70
     0
  0
APPID
  5
45C
330
9
100
AcDbSymbolTableRecord
100
AcDbRegAppTableRecord
  2
GEVID1208845795
 70
     0
  0
APPID
  5
45D
330
9
100
AcDbSymbolTableRecord
100
AcDbRegAppTableRecord
  2
GEVID1208845796
 70
     0
  0
APPID
  5
45E
330
9
100
AcDbSymbolTableRecord
100
AcDbRegAppTableRecord
  2
GEVID1208845797
 70
     0
  0
APPID
  5
45F
330
9
100
AcDbSymbolTableRecord
100
AcDbRegAppTableRecord
  2
GEVID1208845798
 70
     0
  0
APPID
  5
460
330
9
100
AcDbSymbolTableRecord
100
AcDbRegAppTableRecord
  2
GEVID1208845799
 70
     0
  0
APPID
  5
461
330
9
100
AcDbSymbolTableRecord
100
AcDbRegAppTableRecord
  2
GEVID1208845800
 70
     0
  0
APPID
  5
462
330
9
100
AcDbSymbolTableRecord
100
AcDbRegAppTableRecord
  2
GEVID1208845801
 70
     0
  0
APPID
  5
463
330
9
100
AcDbSymbolTableRecord
100
AcDbRegAppTableRecord
  2
GEVID1208845802
 70
     0
  0
APPID
  5
464
330
9
100
AcDbSymbolTableRecord
100
AcDbRegAppTableRecord
  2
GENIUS_GENOBJ-N-DIM_13
 70
     0
  0
APPID
  5
465
330
9
100
AcDbSymbolTableRecord
100
AcDbRegAppTableRecord
  2
GENIUS_GENDIM_13
 70
     0
  0
APPID
  5
466
330
9
100
AcDbSymbolTableRecord
100
AcDbRegAppTableRecord
  2
GENIUS_GENDIMSH_14
 70
     0
  0
APPID
  5
467
330
9
100
AcDbSymbolTableRecord
100
AcDbRegAppTableRecord
  2
GEVID1208845803
 70
     0
  0
APPID
  5
468
330
9
100
AcDbSymbolTableRecord
100
AcDbRegAppTableRecord
  2
GEVID1208845804
 70
     0
  0
APPID
  5
469
330
9
100
AcDbSymbolTableRecord
100
AcDbRegAppTableRecord
  2
GEVID1208845805
 70
     0
  0
APPID
  5
46A
330
9
100
AcDbSymbolTableRecord
100
AcDbRegAppTableRecord
  2
GEVID1208845806
 70
     0
  0
APPID
  5
46B
330
9
100
AcDbSymbolTableRecord
100
AcDbRegAppTableRecord
  2
GEVID1208845807
 70
     0
  0
APPID
  5
46C
330
9
100
AcDbSymbolTableRecord
100
AcDbRegAppTableRecord
  2
GEVID1208845808
 70
     0
  0
APPID
  5
46D
330
9
100
AcDbSymbolTableRecord
100
AcDbRegAppTableRecord
  2
GEVID1208845809
 70
     0
  0
APPID
  5
46E
330
9
100
AcDbSymbolTableRecord
100
AcDbRegAppTableRecord
  2
GEVID1208845810
 70
     0
  0
APPID
  5
46F
330
9
100
AcDbSymbolTableRecord
100
AcDbRegAppTableRecord
  2
GEVID1208845811
 70
     0
  0
APPID
  5
470
330
9
100
AcDbSymbolTableRecord
100
AcDbRegAppTableRecord
  2
GEVID1208845813
 70
     0
  0
APPID
  5
471
330
9
100
AcDbSymbolTableRecord
100
AcDbRegAppTableRecord
  2
GEVID1208845814
 70
     0
  0
APPID
  5
472
330
9
100
AcDbSymbolTableRecord
100
AcDbRegAppTableRecord
  2
GEVID1208845815
 70
     0
  0
APPID
  5
473
330
9
100
AcDbSymbolTableRecord
100
AcDbRegAppTableRecord
  2
GEVID1208845816
 70
     0
  0
APPID
  5
474
330
9
100
AcDbSymbolTableRecord
100
AcDbRegAppTableRecord
  2
GEVID1208845817
 70
     0
  0
APPID
  5
475
330
9
100
AcDbSymbolTableRecord
100
AcDbRegAppTableRecord
  2
GEVID1208845818
 70
     0
  0
APPID
  5
476
330
9
100
AcDbSymbolTableRecord
100
AcDbRegAppTableRecord
  2
GEVID1208845819
 70
     0
  0
APPID
  5
477
330
9
100
AcDbSymbolTableRecord
100
AcDbRegAppTableRecord
  2
GEVID1208845820
 70
     0
  0
APPID
  5
478
330
9
100
AcDbSymbolTableRecord
100
AcDbRegAppTableRecord
  2
GENIUS_GENOBJ-F-SHCL_13
 70
     0
  0
APPID
  5
479
330
9
100
AcDbSymbolTableRecord
100
AcDbRegAppTableRecord
  2
GENIUS_GEFMSH_13
 70
     0
  0
APPID
  5
47A
330
9
100
AcDbSymbolTableRecord
100
AcDbRegAppTableRecord
  2
GENIUS_GENOBJ-F-SHCA_13
 70
     0
  0
APPID
  5
47B
330
9
100
AcDbSymbolTableRecord
100
AcDbRegAppTableRecord
  2
GENIUS_GEFSH_13
 70
     0
  0
APPID
  5
47C
330
9
100
AcDbSymbolTableRecord
100
AcDbRegAppTableRecord
  2
GENIUS_GEFSHP_13
 70
     0
  0
APPID
  5
47D
330
9
100
AcDbSymbolTableRecord
100
AcDbRegAppTableRecord
  2
GENIUS_GEFSHP0_13
 70
     0
  0
APPID
  5
47E
330
9
100
AcDbSymbolTableRecord
100
AcDbRegAppTableRecord
  2
GENIUS_GEFSH0_13
 70
     0
  0
APPID
  5
47F
330
9
100
AcDbSymbolTableRecord
100
AcDbRegAppTableRecord
  2
GENIUS_GEFSHP1_13
 70
     0
  0
APPID
  5
480
330
9
100
AcDbSymbolTableRecord
100
AcDbRegAppTableRecord
  2
GENIUS_GEFSH1_13
 70
     0
  0
APPID
  5
481
330
9
100
AcDbSymbolTableRecord
100
AcDbRegAppTableRecord
  2
GEVID1208866337
 70
     0
  0
APPID
  5
482
330
9
100
AcDbSymbolTableRecord
100
AcDbRegAppTableRecord
  2
GEVID1208866338
 70
     0
  0
APPID
  5
483
330
9
100
AcDbSymbolTableRecord
100
AcDbRegAppTableRecord
  2
GEVID1208866339
 70
     0
  0
APPID
  5
484
330
9
100
AcDbSymbolTableRecord
100
AcDbRegAppTableRecord
  2
GEVID1208866340
 70
     0
  0
APPID
  5
485
330
9
100
AcDbSymbolTableRecord
100
AcDbRegAppTableRecord
  2
GEVID1208866341
 70
     0
  0
APPID
  5
486
330
9
100
AcDbSymbolTableRecord
100
AcDbRegAppTableRecord
  2
ACAD_PSEXT
 70
     0
  0
APPID
  5
487
330
9
100
AcDbSymbolTableRecord
100
AcDbRegAppTableRecord
  2
GEVID1208866342
 70
     0
  0
APPID
  5
488
330
9
100
AcDbSymbolTableRecord
100
AcDbRegAppTableRecord
  2
GEVID1208913836
 70
     0
  0
APPID
  5
489
330
9
100
AcDbSymbolTableRecord
100
AcDbRegAppTableRecord
  2
GEVID1208913837
 70
     0
  0
APPID
  5
48A
330
9
100
AcDbSymbolTableRecord
100
AcDbRegAppTableRecord
  2
GEVID1208913838
 70
     0
  0
APPID
  5
48B
330
9
100
AcDbSymbolTableRecord
100
AcDbRegAppTableRecord
  2
GEVID1208913839
 70
     0
  0
APPID
  5
48C
330
9
100
AcDbSymbolTableRecord
100
AcDbRegAppTableRecord
  2
GENIUS_GENDTOL_13
 70
     0
  0
APPID
  5
48D
330
9
100
AcDbSymbolTableRecord
100
AcDbRegAppTableRecord
  2
GEVID1208928889
 70
     0
  0
APPID
  5
48E
330
9
100
AcDbSymbolTableRecord
100
AcDbRegAppTableRecord
  2
GEVID1208928890
 70
     0
  0
APPID
  5
48F
330
9
100
AcDbSymbolTableRecord
100
AcDbRegAppTableRecord
  2
GEVID1208928891
 70
     0
  0
APPID
  5
490
330
9
100
AcDbSymbolTableRecord
100
AcDbRegAppTableRecord
  2
GEVID1208928892
 70
     0
  0
APPID
  5
491
330
9
100
AcDbSymbolTableRecord
100
AcDbRegAppTableRecord
  2
GEVID1208933827
 70
     0
  0
APPID
  5
492
330
9
100
AcDbSymbolTableRecord
100
AcDbRegAppTableRecord
  2
GEVID1208933829
 70
     0
  0
APPID
  5
493
330
9
100
AcDbSymbolTableRecord
100
AcDbRegAppTableRecord
  2
GEVID1208933830
 70
     0
  0
APPID
  5
494
330
9
100
AcDbSymbolTableRecord
100
AcDbRegAppTableRecord
  2
GEVID1208933831
 70
     0
  0
APPID
  5
495
330
9
100
AcDbSymbolTableRecord
100
AcDbRegAppTableRecord
  2
GEVID1208933832
 70
     0
  0
APPID
  5
496
330
9
100
AcDbSymbolTableRecord
100
AcDbRegAppTableRecord
  2
GEVID1208933833
 70
     0
  0
APPID
  5
497
330
9
100
AcDbSymbolTableRecord
100
AcDbRegAppTableRecord
  2
GEVID1208933834
 70
     0
  0
APPID
  5
498
330
9
100
AcDbSymbolTableRecord
100
AcDbRegAppTableRecord
  2
GEVID1208933835
 70
     0
  0
APPID
  5
499
330
9
100
AcDbSymbolTableRecord
100
AcDbRegAppTableRecord
  2
GEVID1208933836
 70
     0
  0
APPID
  5
49A
330
9
100
AcDbSymbolTableRecord
100
AcDbRegAppTableRecord
  2
GEVID1208933837
 70
     0
  0
APPID
  5
49B
330
9
100
AcDbSymbolTableRecord
100
AcDbRegAppTableRecord
  2
GEVID1208933838
 70
     0
  0
APPID
  5
49C
330
9
100
AcDbSymbolTableRecord
100
AcDbRegAppTableRecord
  2
GEVID1208933840
 70
     0
  0
APPID
  5
49D
330
9
100
AcDbSymbolTableRecord
100
AcDbRegAppTableRecord
  2
GEVID1208933842
 70
     0
  0
APPID
  5
49E
330
9
100
AcDbSymbolTableRecord
100
AcDbRegAppTableRecord
  2
GEVID1208933843
 70
     0
  0
APPID
  5
49F
330
9
100
AcDbSymbolTableRecord
100
AcDbRegAppTableRecord
  2
GEVID1208933844
 70
     0
  0
APPID
  5
4A0
330
9
100
AcDbSymbolTableRecord
100
AcDbRegAppTableRecord
  2
GEVID1208933845
 70
     0
  0
APPID
  5
4A1
330
9
100
AcDbSymbolTableRecord
100
AcDbRegAppTableRecord
  2
GEVID1208933846
 70
     0
  0
APPID
  5
4A2
330
9
100
AcDbSymbolTableRecord
100
AcDbRegAppTableRecord
  2
GEVID1208933847
 70
     0
  0
APPID
  5
4A3
330
9
100
AcDbSymbolTableRecord
100
AcDbRegAppTableRecord
  2
GEVID1208933848
 70
     0
  0
APPID
  5
4A4
330
9
100
AcDbSymbolTableRecord
100
AcDbRegAppTableRecord
  2
GEVID1208933849
 70
     0
  0
APPID
  5
4A5
330
9
100
AcDbSymbolTableRecord
100
AcDbRegAppTableRecord
  2
GEVID1208933850
 70
     0
  0
APPID
  5
4A6
330
9
100
AcDbSymbolTableRecord
100
AcDbRegAppTableRecord
  2
GEVID1208933851
 70
     0
  0
APPID
  5
4A7
330
9
100
AcDbSymbolTableRecord
100
AcDbRegAppTableRecord
  2
GEVID1208933852
 70
     0
  0
APPID
  5
4A8
330
9
100
AcDbSymbolTableRecord
100
AcDbRegAppTableRecord
  2
GEVID1208933853
 70
     0
  0
APPID
  5
4A9
330
9
100
AcDbSymbolTableRecord
100
AcDbRegAppTableRecord
  2
GEVID1208933854
 70
     0
  0
APPID
  5
4AA
330
9
100
AcDbSymbolTableRecord
100
AcDbRegAppTableRecord
  2
GEVID1208933855
 70
     0
  0
APPID
  5
4AB
330
9
100
AcDbSymbolTableRecord
100
AcDbRegAppTableRecord
  2
GEVID1208933856
 70
     0
  0
APPID
  5
4AC
330
9
100
AcDbSymbolTableRecord
100
AcDbRegAppTableRecord
  2
GEVID1208933857
 70
     0
  0
APPID
  5
4AD
330
9
100
AcDbSymbolTableRecord
100
AcDbRegAppTableRecord
  2
GEVID1208933858
 70
     0
  0
APPID
  5
4AE
330
9
100
AcDbSymbolTableRecord
100
AcDbRegAppTableRecord
  2
GEVID1208933859
 70
     0
  0
APPID
  5
4AF
330
9
100
AcDbSymbolTableRecord
100
AcDbRegAppTableRecord
  2
GEVID1208933860
 70
     0
  0
APPID
  5
4B0
330
9
100
AcDbSymbolTableRecord
100
AcDbRegAppTableRecord
  2
GEVID1208933861
 70
     0
  0
APPID
  5
4B1
330
9
100
AcDbSymbolTableRecord
100
AcDbRegAppTableRecord
  2
GEVID1208933862
 70
     0
  0
APPID
  5
4B2
330
9
100
AcDbSymbolTableRecord
100
AcDbRegAppTableRecord
  2
GEVID1208933863
 70
     0
  0
APPID
  5
4B3
330
9
100
AcDbSymbolTableRecord
100
AcDbRegAppTableRecord
  2
GEVID1208933864
 70
     0
  0
APPID
  5
4B4
330
9
100
AcDbSymbolTableRecord
100
AcDbRegAppTableRecord
  2
GEVID1208933865
 70
     0
  0
APPID
  5
4B5
330
9
100
AcDbSymbolTableRecord
100
AcDbRegAppTableRecord
  2
GEVID1208933866
 70
     0
  0
APPID
  5
4B6
330
9
100
AcDbSymbolTableRecord
100
AcDbRegAppTableRecord
  2
GEVID1208933867
 70
     0
  0
APPID
  5
4B7
330
9
100
AcDbSymbolTableRecord
100
AcDbRegAppTableRecord
  2
GEVID1208933868
 70
     0
  0
APPID
  5
4B8
330
9
100
AcDbSymbolTableRecord
100
AcDbRegAppTableRecord
  2
GEVID1208933869
 70
     0
  0
APPID
  5
4B9
330
9
100
AcDbSymbolTableRecord
100
AcDbRegAppTableRecord
  2
GEVID1208933870
 70
     0
  0
APPID
  5
4BA
330
9
100
AcDbSymbolTableRecord
100
AcDbRegAppTableRecord
  2
GEVID1208933871
 70
     0
  0
APPID
  5
4BB
330
9
100
AcDbSymbolTableRecord
100
AcDbRegAppTableRecord
  2
GEVID1208933872
 70
     0
  0
APPID
  5
4BC
330
9
100
AcDbSymbolTableRecord
100
AcDbRegAppTableRecord
  2
GEVID1208933873
 70
     0
  0
APPID
  5
4BD
330
9
100
AcDbSymbolTableRecord
100
AcDbRegAppTableRecord
  2
GEVID1208933874
 70
     0
  0
APPID
  5
4BE
330
9
100
AcDbSymbolTableRecord
100
AcDbRegAppTableRecord
  2
GEVID1208933875
 70
     0
  0
APPID
  5
4BF
330
9
100
AcDbSymbolTableRecord
100
AcDbRegAppTableRecord
  2
GEVID1208933876
 70
     0
  0
APPID
  5
4C0
330
9
100
AcDbSymbolTableRecord
100
AcDbRegAppTableRecord
  2
ACAD_DSTYLE_DIMRADIAL_EXTENSION
 70
     0
  0
APPID
  5
4C1
330
9
100
AcDbSymbolTableRecord
100
AcDbRegAppTableRecord
  2
GEVID1208999100
 70
     0
  0
APPID
  5
4C2
330
9
100
AcDbSymbolTableRecord
100
AcDbRegAppTableRecord
  2
GEVID1208999101
 70
     0
  0
APPID
  5
4C3
330
9
100
AcDbSymbolTableRecord
100
AcDbRegAppTableRecord
  2
GEVID1208999102
 70
     0
  0
APPID
  5
4C4
330
9
100
AcDbSymbolTableRecord
100
AcDbRegAppTableRecord
  2
GEVID1208999103
 70
     0
  0
APPID
  5
4C5
330
9
100
AcDbSymbolTableRecord
100
AcDbRegAppTableRecord
  2
GEVID1208999105
 70
     0
  0
APPID
  5
4C6
330
9
100
AcDbSymbolTableRecord
100
AcDbRegAppTableRecord
  2
GEVID1208999106
 70
     0
  0
APPID
  5
4C7
330
9
100
AcDbSymbolTableRecord
100
AcDbRegAppTableRecord
  2
GEVID1208999108
 70
     0
  0
APPID
  5
4C8
330
9
100
AcDbSymbolTableRecord
100
AcDbRegAppTableRecord
  2
GEVID1208999109
 70
     0
  0
APPID
  5
4C9
330
9
100
AcDbSymbolTableRecord
100
AcDbRegAppTableRecord
  2
GEVID1208999110
 70
     0
  0
APPID
  5
4CA
330
9
100
AcDbSymbolTableRecord
100
AcDbRegAppTableRecord
  2
GEVID1208999111
 70
     0
  0
APPID
  5
4CB
330
9
100
AcDbSymbolTableRecord
100
AcDbRegAppTableRecord
  2
GEVID1208999112
 70
     0
  0
APPID
  5
4CC
330
9
100
AcDbSymbolTableRecord
100
AcDbRegAppTableRecord
  2
GEVID1208999113
 70
     0
  0
APPID
  5
4CD
330
9
100
AcDbSymbolTableRecord
100
AcDbRegAppTableRecord
  2
GEVID1208999114
 70
     0
  0
APPID
  5
4CE
330
9
100
AcDbSymbolTableRecord
100
AcDbRegAppTableRecord
  2
GEVID1210218799
 70
     0
  0
APPID
  5
4CF
330
9
100
AcDbSymbolTableRecord
100
AcDbRegAppTableRecord
  2
GEVID1210218800
 70
     0
  0
APPID
  5
4D0
330
9
100
AcDbSymbolTableRecord
100
AcDbRegAppTableRecord
  2
GENIUS_GEFWELD_13
 70
     0
  0
APPID
  5
4D1
330
9
100
AcDbSymbolTableRecord
100
AcDbRegAppTableRecord
  2
GENIUS_GENOBJ-F-WELS_13
 70
     0
  0
APPID
  5
4D2
330
9
100
AcDbSymbolTableRecord
100
AcDbRegAppTableRecord
  2
AcadAnnotative
 70
     0
  0
APPID
  5
4D3
330
9
100
AcDbSymbolTableRecord
100
AcDbRegAppTableRecord
  2
GEVID1210145339
 70
     0
  0
APPID
  5
4D4
330
9
100
AcDbSymbolTableRecord
100
AcDbRegAppTableRecord
  2
ACAD_DSTYLE_DIMBREAK
 70
     0
  0
APPID
  5
4D5
330
9
100
AcDbSymbolTableRecord
100
AcDbRegAppTableRecord
  2
GEVID1210145340
 70
     0
  0
APPID
  5
4D6
330
9
100
AcDbSymbolTableRecord
100
AcDbRegAppTableRecord
  2
GEVID1210145341
 70
     0
  0
APPID
  5
4D7
330
9
100
AcDbSymbolTableRecord
100
AcDbRegAppTableRecord
  2
GEVID1210145342
 70
     0
  0
APPID
  5
4D8
330
9
100
AcDbSymbolTableRecord
100
AcDbRegAppTableRecord
  2
GEVID1210145343
 70
     0
  0
APPID
  5
4D9
330
9
100
AcDbSymbolTableRecord
100
AcDbRegAppTableRecord
  2
GEVID1210145344
 70
     0
  0
APPID
  5
4DA
330
9
100
AcDbSymbolTableRecord
100
AcDbRegAppTableRecord
  2
GEVID1210145345
 70
     0
  0
APPID
  5
4DB
330
9
100
AcDbSymbolTableRecord
100
AcDbRegAppTableRecord
  2
GEVID1210152816
 70
     0
  0
APPID
  5
4DC
330
9
100
AcDbSymbolTableRecord
100
AcDbRegAppTableRecord
  2
GEVID1210153850
 70
     0
  0
APPID
  5
4DD
330
9
100
AcDbSymbolTableRecord
100
AcDbRegAppTableRecord
  2
GEVID1210153851
 70
     0
  0
APPID
  5
4DE
330
9
100
AcDbSymbolTableRecord
100
AcDbRegAppTableRecord
  2
GEVID1210153852
 70
     0
  0
APPID
  5
4DF
330
9
100
AcDbSymbolTableRecord
100
AcDbRegAppTableRecord
  2
GEVID1210549898
 70
     0
  0
APPID
  5
4E0
330
9
100
AcDbSymbolTableRecord
100
AcDbRegAppTableRecord
  2
GEVID1210549899
 70
     0
  0
APPID
  5
4E1
330
9
100
AcDbSymbolTableRecord
100
AcDbRegAppTableRecord
  2
GEVID1210549900
 70
     0
  0
APPID
  5
4E2
330
9
100
AcDbSymbolTableRecord
100
AcDbRegAppTableRecord
  2
GEVID1210549901
 70
     0
  0
APPID
  5
4E3
330
9
100
AcDbSymbolTableRecord
100
AcDbRegAppTableRecord
  2
GEVID1210549902
 70
     0
  0
APPID
  5
4E4
330
9
100
AcDbSymbolTableRecord
100
AcDbRegAppTableRecord
  2
GEVID1210549903
 70
     0
  0
APPID
  5
4E5
330
9
100
AcDbSymbolTableRecord
100
AcDbRegAppTableRecord
  2
GEVID1210549904
 70
     0
  0
APPID
  5
4E6
330
9
100
AcDbSymbolTableRecord
100
AcDbRegAppTableRecord
  2
GEVID1210549905
 70
     0
  0
APPID
  5
4E7
330
9
100
AcDbSymbolTableRecord
100
AcDbRegAppTableRecord
  2
GEVID1210549906
 70
     0
  0
APPID
  5
4E8
330
9
100
AcDbSymbolTableRecord
100
AcDbRegAppTableRecord
  2
GEVID1210549907
 70
     0
  0
APPID
  5
4E9
330
9
100
AcDbSymbolTableRecord
100
AcDbRegAppTableRecord
  2
GEVID1210549908
 70
     0
  0
APPID
  5
4EA
330
9
100
AcDbSymbolTableRecord
100
AcDbRegAppTableRecord
  2
GEVID1210549909
 70
     0
  0
APPID
  5
4EB
330
9
100
AcDbSymbolTableRecord
100
AcDbRegAppTableRecord
  2
GEVID1210549910
 70
     0
  0
APPID
  5
4EC
330
9
100
AcDbSymbolTableRecord
100
AcDbRegAppTableRecord
  2
GEVID1210549911
 70
     0
  0
APPID
  5
4ED
330
9
100
AcDbSymbolTableRecord
100
AcDbRegAppTableRecord
  2
GEVID1210549912
 70
     0
  0
APPID
  5
4EE
330
9
100
AcDbSymbolTableRecord
100
AcDbRegAppTableRecord
  2
GEVID1210549913
 70
     0
  0
APPID
  5
4EF
330
9
100
AcDbSymbolTableRecord
100
AcDbRegAppTableRecord
  2
GEVID1210549914
 70
     0
  0
APPID
  5
4F0
330
9
100
AcDbSymbolTableRecord
100
AcDbRegAppTableRecord
  2
GEVID1210549915
 70
     0
  0
APPID
  5
4F1
330
9
100
AcDbSymbolTableRecord
100
AcDbRegAppTableRecord
  2
GEVID1210549916
 70
     0
  0
APPID
  5
4F2
330
9
100
AcDbSymbolTableRecord
100
AcDbRegAppTableRecord
  2
GEVID1210549917
 70
     0
  0
APPID
  5
4F3
330
9
100
AcDbSymbolTableRecord
100
AcDbRegAppTableRecord
  2
GENIUS_GENOBJ-N-CRS_13
 70
     0
  0
APPID
  5
4F4
330
9
100
AcDbSymbolTableRecord
100
AcDbRegAppTableRecord
  2
GEVID1210549918
 70
     0
  0
APPID
  5
4F5
330
9
100
AcDbSymbolTableRecord
100
AcDbRegAppTableRecord
  2
GENIUS_GENOBJ-N-CRC_13
 70
     0
  0
APPID
  5
4F6
330
9
100
AcDbSymbolTableRecord
100
AcDbRegAppTableRecord
  2
GENIUS_GENCRC_14
 70
     0
  0
APPID
  5
4F7
330
9
100
AcDbSymbolTableRecord
100
AcDbRegAppTableRecord
  2
GEVID1210549919
 70
     0
  0
APPID
  5
4F8
330
9
100
AcDbSymbolTableRecord
100
AcDbRegAppTableRecord
  2
GEVID1210549921
 70
     0
  0
APPID
  5
4F9
330
9
100
AcDbSymbolTableRecord
100
AcDbRegAppTableRecord
  2
GEVID1210549922
 70
     0
  0
APPID
  5
4FA
330
9
100
AcDbSymbolTableRecord
100
AcDbRegAppTableRecord
  2
GEVID1210635173
 70
     0
  0
APPID
  5
4FB
330
9
100
AcDbSymbolTableRecord
100
AcDbRegAppTableRecord
  2
GEVID1210635174
 70
     0
  0
APPID
  5
4FC
330
9
100
AcDbSymbolTableRecord
100
AcDbRegAppTableRecord
  2
GEVID1210635175
 70
     0
  0
APPID
  5
4FD
330
9
100
AcDbSymbolTableRecord
100
AcDbRegAppTableRecord
  2
GEVID1210635176
 70
     0
  0
APPID
  5
4FE
330
9
100
AcDbSymbolTableRecord
100
AcDbRegAppTableRecord
  2
GEVID1210635177
 70
     0
  0
APPID
  5
4FF
330
9
100
AcDbSymbolTableRecord
100
AcDbRegAppTableRecord
  2
GEVID1210635178
 70
     0
  0
APPID
  5
500
330
9
100
AcDbSymbolTableRecord
100
AcDbRegAppTableRecord
  2
GENIUS_GENIUS_GENBHEDTMP_13
 70
     0
  0
APPID
  5
501
330
9
100
AcDbSymbolTableRecord
100
AcDbRegAppTableRecord
  2
GEVID1210635179
 70
     0
  0
APPID
  5
502
330
9
100
AcDbSymbolTableRecord
100
AcDbRegAppTableRecord
  2
GEVID1210635180
 70
     0
  0
APPID
  5
503
330
9
100
AcDbSymbolTableRecord
100
AcDbRegAppTableRecord
  2
GEVID1210635181
 70
     0
  0
APPID
  5
504
330
9
100
AcDbSymbolTableRecord
100
AcDbRegAppTableRecord
  2
GEVID1210635182
 70
     0
  0
APPID
  5
505
330
9
100
AcDbSymbolTableRecord
100
AcDbRegAppTableRecord
  2
GEVID1210635184
 70
     0
  0
APPID
  5
506
330
9
100
AcDbSymbolTableRecord
100
AcDbRegAppTableRecord
  2
GEVID1210635185
 70
     0
  0
APPID
  5
507
330
9
100
AcDbSymbolTableRecord
100
AcDbRegAppTableRecord
  2
GEVID1210635186
 70
     0
  0
APPID
  5
508
330
9
100
AcDbSymbolTableRecord
100
AcDbRegAppTableRecord
  2
GEVID1210635187
 70
     0
  0
APPID
  5
509
330
9
100
AcDbSymbolTableRecord
100
AcDbRegAppTableRecord
  2
GEVID1210635188
 70
     0
  0
APPID
  5
50A
330
9
100
AcDbSymbolTableRecord
100
AcDbRegAppTableRecord
  2
GEVID1210635189
 70
     0
  0
APPID
  5
50B
330
9
100
AcDbSymbolTableRecord
100
AcDbRegAppTableRecord
  2
GEVID1210635190
 70
     0
  0
APPID
  5
50C
330
9
100
AcDbSymbolTableRecord
100
AcDbRegAppTableRecord
  2
GENIUS_GENREC_14
 70
     0
  0
APPID
  5
50D
330
9
100
AcDbSymbolTableRecord
100
AcDbRegAppTableRecord
  2
GENIUS_GENOBJ-N-REC_13
 70
     0
  0
APPID
  5
50E
330
9
100
AcDbSymbolTableRecord
100
AcDbRegAppTableRecord
  2
GEVID1210676655
 70
     0
  0
APPID
  5
50F
330
9
100
AcDbSymbolTableRecord
100
AcDbRegAppTableRecord
  2
GEVID1210676656
 70
     0
  0
APPID
  5
510
330
9
100
AcDbSymbolTableRecord
100
AcDbRegAppTableRecord
  2
GEVID1210676657
 70
     0
  0
APPID
  5
511
330
9
100
AcDbSymbolTableRecord
100
AcDbRegAppTableRecord
  2
GEVID1210676659
 70
     0
  0
APPID
  5
512
330
9
100
AcDbSymbolTableRecord
100
AcDbRegAppTableRecord
  2
GEVID1210676660
 70
     0
  0
APPID
  5
513
330
9
100
AcDbSymbolTableRecord
100
AcDbRegAppTableRecord
  2
GEVID1210676661
 70
     0
  0
APPID
  5
514
330
9
100
AcDbSymbolTableRecord
100
AcDbRegAppTableRecord
  2
GEVID1210676662
 70
     0
  0
APPID
  5
515
330
9
100
AcDbSymbolTableRecord
100
AcDbRegAppTableRecord
  2
GEVID1210721646
 70
     0
  0
APPID
  5
516
330
9
100
AcDbSymbolTableRecord
100
AcDbRegAppTableRecord
  2
GEVID1210721647
 70
     0
  0
APPID
  5
517
330
9
100
AcDbSymbolTableRecord
100
AcDbRegAppTableRecord
  2
GEVID1210721648
 70
     0
  0
APPID
  5
518
330
9
100
AcDbSymbolTableRecord
100
AcDbRegAppTableRecord
  2
GEVID1210721649
 70
     0
  0
APPID
  5
519
330
9
100
AcDbSymbolTableRecord
100
AcDbRegAppTableRecord
  2
GEVID1210721650
 70
     0
  0
APPID
  5
51A
330
9
100
AcDbSymbolTableRecord
100
AcDbRegAppTableRecord
  2
GEVID1210721651
 70
     0
  0
APPID
  5
51B
330
9
100
AcDbSymbolTableRecord
100
AcDbRegAppTableRecord
  2
GEVID1210721652
 70
     0
  0
APPID
  5
51C
330
9
100
AcDbSymbolTableRecord
100
AcDbRegAppTableRecord
  2
GEVID1210721653
 70
     0
  0
APPID
  5
51D
330
9
100
AcDbSymbolTableRecord
100
AcDbRegAppTableRecord
  2
PE_URL
 70
     0
  0
APPID
  5
51E
330
9
100
AcDbSymbolTableRecord
100
AcDbRegAppTableRecord
  2
GEVID1210825555
 70
     0
  0
APPID
  5
51F
330
9
100
AcDbSymbolTableRecord
100
AcDbRegAppTableRecord
  2
GEVID1210825556
 70
     0
  0
APPID
  5
520
330
9
100
AcDbSymbolTableRecord
100
AcDbRegAppTableRecord
  2
GEVID1210825557
 70
     0
  0
APPID
  5
521
330
9
100
AcDbSymbolTableRecord
100
AcDbRegAppTableRecord
  2
GEVID1210825558
 70
     0
  0
APPID
  5
522
330
9
100
AcDbSymbolTableRecord
100
AcDbRegAppTableRecord
  2
GEVID1210825559
 70
     0
  0
APPID
  5
523
330
9
100
AcDbSymbolTableRecord
100
AcDbRegAppTableRecord
  2
GEVID1210825560
 70
     0
  0
APPID
  5
524
330
9
100
AcDbSymbolTableRecord
100
AcDbRegAppTableRecord
  2
GEVID1210825561
 70
     0
  0
APPID
  5
525
330
9
100
AcDbSymbolTableRecord
100
AcDbRegAppTableRecord
  2
GEVID1210825562
 70
     0
  0
APPID
  5
526
330
9
100
AcDbSymbolTableRecord
100
AcDbRegAppTableRecord
  2
GEVID1210825563
 70
     0
  0
APPID
  5
527
330
9
100
AcDbSymbolTableRecord
100
AcDbRegAppTableRecord
  2
GEVID1210825564
 70
     0
  0
APPID
  5
528
330
9
100
AcDbSymbolTableRecord
100
AcDbRegAppTableRecord
  2
GEVID1210825565
 70
     0
  0
APPID
  5
529
330
9
100
AcDbSymbolTableRecord
100
AcDbRegAppTableRecord
  2
GEVID1210825566
 70
     0
  0
APPID
  5
52A
330
9
100
AcDbSymbolTableRecord
100
AcDbRegAppTableRecord
  2
GEVID1210825567
 70
     0
  0
APPID
  5
52B
330
9
100
AcDbSymbolTableRecord
100
AcDbRegAppTableRecord
  2
GENIUS_GENOBJ-N-ZOO_13
 70
     0
  0
APPID
  5
52C
330
9
100
AcDbSymbolTableRecord
100
AcDbRegAppTableRecord
  2
GENIUS_GENZOO_17
 70
     0
  0
APPID
  5
52D
330
9
100
AcDbSymbolTableRecord
100
AcDbRegAppTableRecord
  2
ACADANNOTATIVEDECOMPOSITION
 70
     0
  0
APPID
  5
52E
330
9
100
AcDbSymbolTableRecord
100
AcDbRegAppTableRecord
  2
GENIUS_GENOBJ-N-HTC_13
 70
     0
  0
APPID
  5
52F
330
9
100
AcDbSymbolTableRecord
100
AcDbRegAppTableRecord
  2
GENIUS_GENHATCH_13
 70
     0
  0
APPID
  5
530
330
9
100
AcDbSymbolTableRecord
100
AcDbRegAppTableRecord
  2
GEVID1210896020
 70
     0
  0
APPID
  5
531
330
9
100
AcDbSymbolTableRecord
100
AcDbRegAppTableRecord
  2
GEVID1210896021
 70
     0
  0
APPID
  5
532
330
9
100
AcDbSymbolTableRecord
100
AcDbRegAppTableRecord
  2
GEVID1209083540
 70
     0
  0
APPID
  5
533
330
9
100
AcDbSymbolTableRecord
100
AcDbRegAppTableRecord
  2
GEVMK
 70
     0
  0
APPID
  5
534
330
9
100
AcDbSymbolTableRecord
100
AcDbRegAppTableRecord
  2
GEVID1209083542
 70
     0
  0
APPID
  5
535
330
9
100
AcDbSymbolTableRecord
100
AcDbRegAppTableRecord
  2
GEVID1209083543
 70
     0
  0
APPID
  5
536
330
9
100
AcDbSymbolTableRecord
100
AcDbRegAppTableRecord
  2
GEVID1209083544
 70
     0
  0
APPID
  5
537
330
9
100
AcDbSymbolTableRecord
100
AcDbRegAppTableRecord
  2
GEVID1209083545
 70
     0
  0
APPID
  5
538
330
9
100
AcDbSymbolTableRecord
100
AcDbRegAppTableRecord
  2
GEVID1209083546
 70
     0
  0
APPID
  5
539
330
9
100
AcDbSymbolTableRecord
100
AcDbRegAppTableRecord
  2
GEVID1209083547
 70
     0
  0
APPID
  5
53A
330
9
100
AcDbSymbolTableRecord
100
AcDbRegAppTableRecord
  2
GEVID1209083548
 70
     0
  0
APPID
  5
53B
330
9
100
AcDbSymbolTableRecord
100
AcDbRegAppTableRecord
  2
GEVID1209083549
 70
     0
  0
APPID
  5
53C
330
9
100
AcDbSymbolTableRecord
100
AcDbRegAppTableRecord
  2
GEVID1209083550
 70
     0
  0
APPID
  5
53D
330
9
100
AcDbSymbolTableRecord
100
AcDbRegAppTableRecord
  2
GEVID1209083551
 70
     0
  0
APPID
  5
53E
330
9
100
AcDbSymbolTableRecord
100
AcDbRegAppTableRecord
  2
GEVID1209083552
 70
     0
  0
APPID
  5
53F
330
9
100
AcDbSymbolTableRecord
100
AcDbRegAppTableRecord
  2
GEVID1209083553
 70
     0
  0
APPID
  5
540
330
9
100
AcDbSymbolTableRecord
100
AcDbRegAppTableRecord
  2
GEVID1210896022
 70
     0
  0
APPID
  5
541
330
9
100
AcDbSymbolTableRecord
100
AcDbRegAppTableRecord
  2
GEVID1211508364
 70
     0
  0
APPID
  5
542
330
9
100
AcDbSymbolTableRecord
100
AcDbRegAppTableRecord
  2
GEVID1211414908
 70
     0
  0
APPID
  5
543
330
9
100
AcDbSymbolTableRecord
100
AcDbRegAppTableRecord
  2
GEVID1211414909
 70
     0
  0
APPID
  5
544
330
9
100
AcDbSymbolTableRecord
100
AcDbRegAppTableRecord
  2
GEVID1211508359
 70
     0
  0
APPID
  5
545
330
9
100
AcDbSymbolTableRecord
100
AcDbRegAppTableRecord
  2
GEVID1211508360
 70
     0
  0
APPID
  5
546
330
9
100
AcDbSymbolTableRecord
100
AcDbRegAppTableRecord
  2
GEVID1211508361
 70
     0
  0
APPID
  5
547
330
9
100
AcDbSymbolTableRecord
100
AcDbRegAppTableRecord
  2
GEVID1211508362
 70
     0
  0
APPID
  5
548
330
9
100
AcDbSymbolTableRecord
100
AcDbRegAppTableRecord
  2
GEVID1211508363
 70
     0
  0
APPID
  5
549
330
9
100
AcDbSymbolTableRecord
100
AcDbRegAppTableRecord
  2
GEVID1211878469
 70
     0
  0
APPID
  5
54A
330
9
100
AcDbSymbolTableRecord
100
AcDbRegAppTableRecord
  2
GEVID1212642819
 70
     0
  0
APPID
  5
54B
330
9
100
AcDbSymbolTableRecord
100
AcDbRegAppTableRecord
  2
GEVID1212642820
 70
     0
  0
APPID
  5
54C
330
9
100
AcDbSymbolTableRecord
100
AcDbRegAppTableRecord
  2
GEVID1212642821
 70
     0
  0
APPID
  5
54D
330
9
100
AcDbSymbolTableRecord
100
AcDbRegAppTableRecord
  2
GEVID1212642822
 70
     0
  0
APPID
  5
54E
330
9
100
AcDbSymbolTableRecord
100
AcDbRegAppTableRecord
  2
GEVID1212642823
 70
     0
  0
APPID
  5
54F
330
9
100
AcDbSymbolTableRecord
100
AcDbRegAppTableRecord
  2
GEVID1212642825
 70
     0
  0
APPID
  5
550
330
9
100
AcDbSymbolTableRecord
100
AcDbRegAppTableRecord
  2
GEVID1212642826
 70
     0
  0
APPID
  5
551
330
9
100
AcDbSymbolTableRecord
100
AcDbRegAppTableRecord
  2
GEVID1212642827
 70
     0
  0
APPID
  5
552
330
9
100
AcDbSymbolTableRecord
100
AcDbRegAppTableRecord
  2
GEVID1212642828
 70
     0
  0
APPID
  5
553
330
9
100
AcDbSymbolTableRecord
100
AcDbRegAppTableRecord
  2
GEVID1212642831
 70
     0
  0
APPID
  5
554
330
9
100
AcDbSymbolTableRecord
100
AcDbRegAppTableRecord
  2
GEVID1212642834
 70
     0
  0
APPID
  5
555
330
9
100
AcDbSymbolTableRecord
100
AcDbRegAppTableRecord
  2
GEVID1212642835
 70
     0
  0
APPID
  5
556
330
9
100
AcDbSymbolTableRecord
100
AcDbRegAppTableRecord
  2
GEVID1212642836
 70
     0
  0
APPID
  5
557
330
9
100
AcDbSymbolTableRecord
100
AcDbRegAppTableRecord
  2
GEVID1212642837
 70
     0
  0
APPID
  5
558
330
9
100
AcDbSymbolTableRecord
100
AcDbRegAppTableRecord
  2
GEVID1212642839
 70
     0
  0
APPID
  5
559
330
9
100
AcDbSymbolTableRecord
100
AcDbRegAppTableRecord
  2
GEVID1212642840
 70
     0
  0
APPID
  5
55A
330
9
100
AcDbSymbolTableRecord
100
AcDbRegAppTableRecord
  2
GEVID1212642841
 70
     0
  0
APPID
  5
55B
330
9
100
AcDbSymbolTableRecord
100
AcDbRegAppTableRecord
  2
GEVID1212655312
 70
     0
  0
APPID
  5
55C
330
9
100
AcDbSymbolTableRecord
100
AcDbRegAppTableRecord
  2
GEVID1212655313
 70
     0
  0
APPID
  5
55D
330
9
100
AcDbSymbolTableRecord
100
AcDbRegAppTableRecord
  2
GEVID1212656533
 70
     0
  0
APPID
  5
55E
330
9
100
AcDbSymbolTableRecord
100
AcDbRegAppTableRecord
  2
GEVID1212656534
 70
     0
  0
APPID
  5
55F
330
9
100
AcDbSymbolTableRecord
100
AcDbRegAppTableRecord
  2
GEVID1212656535
 70
     0
  0
APPID
  5
560
330
9
100
AcDbSymbolTableRecord
100
AcDbRegAppTableRecord
  2
GEVID1212656536
 70
     0
  0
APPID
  5
561
330
9
100
AcDbSymbolTableRecord
100
AcDbRegAppTableRecord
  2
GEVID1212656538
 70
     0
  0
APPID
  5
562
330
9
100
AcDbSymbolTableRecord
100
AcDbRegAppTableRecord
  2
GEVID1212656541
 70
     0
  0
APPID
  5
563
330
9
100
AcDbSymbolTableRecord
100
AcDbRegAppTableRecord
  2
GEVID1212656543
 70
     0
  0
APPID
  5
564
330
9
100
AcDbSymbolTableRecord
100
AcDbRegAppTableRecord
  2
GENIUS_GENOBJ-F-PFASSM_13
 70
     0
  0
APPID
  5
565
330
9
100
AcDbSymbolTableRecord
100
AcDbRegAppTableRecord
  2
GEVID1212656544
 70
     0
  0
APPID
  5
566
330
9
100
AcDbSymbolTableRecord
100
AcDbRegAppTableRecord
  2
GEVID1212656545
 70
     0
  0
APPID
  5
567
330
9
100
AcDbSymbolTableRecord
100
AcDbRegAppTableRecord
  2
GEVID1212656546
 70
     0
  0
APPID
  5
568
330
9
100
AcDbSymbolTableRecord
100
AcDbRegAppTableRecord
  2
GEVID1212656547
 70
     0
  0
APPID
  5
569
330
9
100
AcDbSymbolTableRecord
100
AcDbRegAppTableRecord
  2
GEVID1212656548
 70
     0
  0
APPID
  5
56A
330
9
100
AcDbSymbolTableRecord
100
AcDbRegAppTableRecord
  2
GEVID1212656549
 70
     0
  0
APPID
  5
56B
330
9
100
AcDbSymbolTableRecord
100
AcDbRegAppTableRecord
  2
GEVID1212656550
 70
     0
  0
APPID
  5
56C
330
9
100
AcDbSymbolTableRecord
100
AcDbRegAppTableRecord
  2
GEVID1212656552
 70
     0
  0
APPID
  5
56D
330
9
100
AcDbSymbolTableRecord
100
AcDbRegAppTableRecord
  2
GEVID1212656553
 70
     0
  0
APPID
  5
56E
330
9
100
AcDbSymbolTableRecord
100
AcDbRegAppTableRecord
  2
GEVID1212656554
 70
     0
  0
APPID
  5
56F
330
9
100
AcDbSymbolTableRecord
100
AcDbRegAppTableRecord
  2
GEVID1212656555
 70
     0
  0
APPID
  5
570
330
9
100
AcDbSymbolTableRecord
100
AcDbRegAppTableRecord
  2
GEVID1212656556
 70
     0
  0
APPID
  5
571
330
9
100
AcDbSymbolTableRecord
100
AcDbRegAppTableRecord
  2
GEVID1212656557
 70
     0
  0
APPID
  5
572
330
9
100
AcDbSymbolTableRecord
100
AcDbRegAppTableRecord
  2
GEVID1212656559
 70
     0
  0
APPID
  5
573
330
9
100
AcDbSymbolTableRecord
100
AcDbRegAppTableRecord
  2
GEVID1212656560
 70
     0
  0
APPID
  5
574
330
9
100
AcDbSymbolTableRecord
100
AcDbRegAppTableRecord
  2
GEVID1212656561
 70
     0
  0
APPID
  5
575
330
9
100
AcDbSymbolTableRecord
100
AcDbRegAppTableRecord
  2
GEVID1212656562
 70
     0
  0
APPID
  5
576
330
9
100
AcDbSymbolTableRecord
100
AcDbRegAppTableRecord
  2
GEVID1212656563
 70
     0
  0
APPID
  5
577
330
9
100
AcDbSymbolTableRecord
100
AcDbRegAppTableRecord
  2
GEVID1212711781
 70
     0
  0
APPID
  5
578
330
9
100
AcDbSymbolTableRecord
100
AcDbRegAppTableRecord
  2
GEVID1212711782
 70
     0
  0
APPID
  5
579
330
9
100
AcDbSymbolTableRecord
100
AcDbRegAppTableRecord
  2
GEVID1212711783
 70
     0
  0
APPID
  5
57A
330
9
100
AcDbSymbolTableRecord
100
AcDbRegAppTableRecord
  2
GEVID1212711784
 70
     0
  0
APPID
  5
57B
330
9
100
AcDbSymbolTableRecord
100
AcDbRegAppTableRecord
  2
GEVID1212711788
 70
     0
  0
APPID
  5
57C
330
9
100
AcDbSymbolTableRecord
100
AcDbRegAppTableRecord
  2
GEVID1212711789
 70
     0
  0
APPID
  5
57D
330
9
100
AcDbSymbolTableRecord
100
AcDbRegAppTableRecord
  2
GEVID1212711790
 70
     0
  0
APPID
  5
57E
330
9
100
AcDbSymbolTableRecord
100
AcDbRegAppTableRecord
  2
GEVID1212711791
 70
     0
  0
APPID
  5
57F
330
9
100
AcDbSymbolTableRecord
100
AcDbRegAppTableRecord
  2
GEVID1212711792
 70
     0
  0
APPID
  5
580
330
9
100
AcDbSymbolTableRecord
100
AcDbRegAppTableRecord
  2
GEVID1212711793
 70
     0
  0
APPID
  5
581
330
9
100
AcDbSymbolTableRecord
100
AcDbRegAppTableRecord
  2
GEVID1212711794
 70
     0
  0
APPID
  5
582
330
9
100
AcDbSymbolTableRecord
100
AcDbRegAppTableRecord
  2
GEVID1212711795
 70
     0
  0
APPID
  5
583
330
9
100
AcDbSymbolTableRecord
100
AcDbRegAppTableRecord
  2
GEVID1212711797
 70
     0
  0
APPID
  5
584
330
9
100
AcDbSymbolTableRecord
100
AcDbRegAppTableRecord
  2
GEVID1212711798
 70
     0
  0
APPID
  5
585
330
9
100
AcDbSymbolTableRecord
100
AcDbRegAppTableRecord
  2
GEVID1212711799
 70
     0
  0
APPID
  5
586
330
9
100
AcDbSymbolTableRecord
100
AcDbRegAppTableRecord
  2
GEVID1212711800
 70
     0
  0
APPID
  5
587
330
9
100
AcDbSymbolTableRecord
100
AcDbRegAppTableRecord
  2
GEVID1212711801
 70
     0
  0
APPID
  5
588
330
9
100
AcDbSymbolTableRecord
100
AcDbRegAppTableRecord
  2
GEVID1212711802
 70
     0
  0
APPID
  5
589
330
9
100
AcDbSymbolTableRecord
100
AcDbRegAppTableRecord
  2
GEVID1212711803
 70
     0
  0
APPID
  5
58A
330
9
100
AcDbSymbolTableRecord
100
AcDbRegAppTableRecord
  2
GEVID1212711804
 70
     0
  0
APPID
  5
58B
330
9
100
AcDbSymbolTableRecord
100
AcDbRegAppTableRecord
  2
GEVID1212711805
 70
     0
  0
APPID
  5
58C
330
9
100
AcDbSymbolTableRecord
100
AcDbRegAppTableRecord
  2
GEVID1212711806
 70
     0
  0
APPID
  5
58D
330
9
100
AcDbSymbolTableRecord
100
AcDbRegAppTableRecord
  2
GEVID1212711807
 70
     0
  0
APPID
  5
58E
330
9
100
AcDbSymbolTableRecord
100
AcDbRegAppTableRecord
  2
GEVID1212711808
 70
     0
  0
APPID
  5
58F
330
9
100
AcDbSymbolTableRecord
100
AcDbRegAppTableRecord
  2
GEVID1212711809
 70
     0
  0
APPID
  5
590
330
9
100
AcDbSymbolTableRecord
100
AcDbRegAppTableRecord
  2
GEVID1212711810
 70
     0
  0
APPID
  5
591
330
9
100
AcDbSymbolTableRecord
100
AcDbRegAppTableRecord
  2
GEVID1212711811
 70
     0
  0
APPID
  5
90A
330
9
100
AcDbSymbolTableRecord
100
AcDbRegAppTableRecord
  2
GENIUS_GENTRA_14
 70
     0
  0
APPID
  5
919
330
9
100
AcDbSymbolTableRecord
100
AcDbRegAppTableRecord
  2
GENIUS_GENOBJ-N-TIT_13
 70
     0
  0
APPID
  5
91A
330
9
100
AcDbSymbolTableRecord
100
AcDbRegAppTableRecord
  2
GENIUS_GENTITLE_13
 70
     0
  0
APPID
  5
949
330
9
100
AcDbSymbolTableRecord
100
AcDbRegAppTableRecord
  2
GENIUS_GENBLLY_14
 70
     0
  0
APPID
  5
DDD
330
9
100
AcDbSymbolTableRecord
100
AcDbRegAppTableRecord
  2
GEVID1213165152
 70
     0
  0
APPID
  5
12F9
330
9
100
AcDbSymbolTableRecord
100
AcDbRegAppTableRecord
  2
AcDbDynamicBlockTrueName
 70
     0
  0
APPID
  5
12FA
330
9
100
AcDbSymbolTableRecord
100
AcDbRegAppTableRecord
  2
ACDBBLOCKREPETAG
 70
     0
  0
APPID
  5
1C15
330
9
100
AcDbSymbolTableRecord
100
AcDbRegAppTableRecord
  2
GEVID1214872427
 70
     0
  0
APPID
  5
1C2A
330
9
100
AcDbSymbolTableRecord
100
AcDbRegAppTableRecord
  2
GEVID1214872428
 70
     0
  0
APPID
  5
1C2F
330
9
100
AcDbSymbolTableRecord
100
AcDbRegAppTableRecord
  2
GEVID1214872429
 70
     0
  0
APPID
  5
1C33
330
9
100
AcDbSymbolTableRecord
100
AcDbRegAppTableRecord
  2
GEVID1214872430
 70
     0
  0
APPID
  5
1C3F
330
9
100
AcDbSymbolTableRecord
100
AcDbRegAppTableRecord
  2
GEVID1214872432
 70
     0
  0
APPID
  5
1C4E
330
9
100
AcDbSymbolTableRecord
100
AcDbRegAppTableRecord
  2
GEVID1214872433
 70
     0
  0
APPID
  5
20DC
330
9
100
AcDbSymbolTableRecord
100
AcDbRegAppTableRecord
  2
AcDbDynamicBlockGUID
 70
     0
  0
APPID
  5
20FD
330
9
100
AcDbSymbolTableRecord
100
AcDbRegAppTableRecord
  2
GENIUS_GENOBJ-N-REV_13
 70
     0
  0
APPID
  5
20FE
330
9
100
AcDbSymbolTableRecord
100
AcDbRegAppTableRecord
  2
GENIUS_GENOBJ-N-RSSYM_13
 70
     0
  0
APPID
  5
20FF
330
9
100
AcDbSymbolTableRecord
100
AcDbRegAppTableRecord
  2
GENIUS_GENSYMENT_13
 70
     0
  0
APPID
  5
2100
330
9
100
AcDbSymbolTableRecord
100
AcDbRegAppTableRecord
  2
GENIUS_GENSCSYM_13
 70
     0
  0
APPID
  5
4564
330
9
100
AcDbSymbolTableRecord
100
AcDbRegAppTableRecord
  2
ACLAYERTOOLS
 70
     0
  0
ENDTAB
  0
TABLE
  2
DIMSTYLE
  5
A
330
0
100
AcDbSymbolTable
 70
    29
100
AcDbDimStyleTable
 71
     1
340
5AB
  0
DIMSTYLE
105
5AB
330
A
100
AcDbSymbolTableRecord
100
AcDbDimStyleTableRecord
  2
SEISA
 70
     0
  4
"
 40
2.5
 41
2.5
 42
0.625
 43
10.0
 44
0.625
 47
0.1
 48
0.1
 73
     0
 74
     0
 77
     3
 78
     8
 79
     2
 90
     1
140
3.5
141
0.0
143
0.0393701
146
0.71
147
1.5
172
     1
176
     3
177
     3
178
     3
271
     2
272
     2
283
     0
286
     8
340
5D5
341
69
342
69
371
    -1
372
    -1
1001
ACAD_DSTYLE_DIMJAG
1070
   388
1040
1.5
1001
ACAD_DSTYLE_DIMTALN
1070
   392
1070
     1
  0
DIMSTYLE
105
5E9
102
{ACAD_REACTORS
330
6515
330
654F
330
6567
330
6583
330
65C4
330
6618
330
6630
330
6660
330
679A
330
67CC
330
6854
330
6DCE
330
7C57
330
7F03
330
7F3B
102
}
330
A
100
AcDbSymbolTableRecord
100
AcDbDimStyleTableRecord
  2
SEISA$0
 70
     0
  4
"
 40
2.5
 41
2.5
 42
0.625
 43
10.0
 44
0.625
 47
0.1
 48
0.1
 73
     0
 74
     0
 77
     3
 78
     8
 79
     2
 90
     1
140
3.5
141
0.0
143
0.0393701
146
0.71
147
1.5
172
     1
176
     3
177
     3
178
     3
271
     2
272
     2
283
     0
286
     8
340
5D5
341
69
342
69
371
    -1
372
    -1
  0
DIMSTYLE
105
8238
330
A
100
AcDbSymbolTableRecord
100
AcDbDimStyleTableRecord
  2
AM_ISO
 70
     0
  4
"
 41
2.5
 42
1.0
 43
10.0
 44
1.0
 47
0.1
 48
0.1
 73
     0
 74
     0
 77
     1
 78
     8
 79
     2
 90
     1
140
3.5
141
0.0
143
0.0393701
146
0.71
147
1.5
172
     1
176
   256
177
   256
178
     2
271
     2
272
     3
274
     4
283
     0
284
     8
340
11
371
    -1
372
    -1
  0
DIMSTYLE
105
8239
330
A
100
AcDbSymbolTableRecord
100
AcDbDimStyleTableRecord
  2
AM_ISO$3
 70
     0
  4
"
 41
2.5
 42
1.0
 43
10.0
 44
1.0
 47
0.1
 48
0.1
 73
     0
 77
     1
 78
     8
 79
     2
 90
     1
140
3.5
141
0.0
143
0.0393701
146
0.71
147
1.5
176
   256
177
   256
178
     2
271
     2
272
     3
274
     4
283
     0
284
     8
288
     1
289
     0
340
11
371
    -1
372
    -1
  0
DIMSTYLE
105
823A
330
A
100
AcDbSymbolTableRecord
100
AcDbDimStyleTableRecord
  2
AM_ISO$4
 70
     0
  4
"
 41
2.5
 42
1.0
 43
10.0
 44
1.0
 47
0.1
 48
0.1
 73
     0
 77
     1
 78
     8
 79
     2
 90
     1
140
3.5
141
0.0
143
0.0393701
146
0.71
147
1.5
176
   256
177
   256
178
     2
271
     2
272
     3
274
     4
283
     0
284
     8
288
     1
289
     0
340
11
371
    -1
372
    -1
  0
DIMSTYLE
105
823B
330
A
100
AcDbSymbolTableRecord
100
AcDbDimStyleTableRecord
  2
AM_ISO$6
 70
     0
  4
"
 41
2.5
 42
1.0
 43
10.0
 44
1.0
 47
0.1
 48
0.1
 73
     0
 74
     0
 78
     8
 79
     2
 90
     1
140
3.5
141
0.0
143
0.0393701
146
0.71
147
1.5
172
     1
176
   256
177
   256
178
     2
271
     2
272
     3
274
     4
283
     0
284
     8
340
11
371
    -1
372
    -1
  0
DIMSTYLE
105
823C
330
A
100
AcDbSymbolTableRecord
100
AcDbDimStyleTableRecord
  2
AM_ISO$7
 70
     0
  4
"
 41
2.5
 42
1.0
 43
10.0
 44
1.0
 47
0.1
 48
0.1
 73
     0
 74
     0
 77
     1
 78
     8
 79
     2
 90
     1
140
5.0
141
0.0
143
0.0393701
146
0.71
147
1.5
172
     1
176
   256
177
   256
178
     2
271
     2
272
     3
274
     4
283
     0
284
     8
340
11
371
    -1
372
    -1
  0
DIMSTYLE
105
823D
330
A
100
AcDbSymbolTableRecord
100
AcDbDimStyleTableRecord
  2
AM_ISO$SF
 70
     0
  4
"
 41
2.5
 42
1.0
 43
10.0
 44
1.0
 47
0.1
 48
0.1
 73
     0
 74
     0
 75
     1
 76
     1
 77
     1
 78
     8
 79
     2
 90
     1
140
3.5
141
0.0
143
0.0393701
146
0.71
147
1.5
172
     1
176
   256
177
   256
178
     2
271
     2
272
     3
274
     4
283
     0
284
     8
340
11
371
    -1
372
    -1
  0
DIMSTYLE
105
823E
330
A
100
AcDbSymbolTableRecord
100
AcDbDimStyleTableRecord
  2
AM_ISO$SH
 70
     0
  4
"
 41
2.5
 42
1.0
 43
10.0
 44
1.0
 47
0.1
 48
0.1
 73
     0
 74
     0
 75
     1
 76
     1
 77
     1
 78
     8
 79
     2
 90
     1
140
3.5
141
0.0
143
0.0393701
144
2.0
146
0.71
147
1.5
172
     1
173
     1
176
   256
177
   256
178
     2
271
     2
272
     3
274
     4
283
     0
284
     8
340
11
343
74
371
    -1
372
    -1
  0
ENDTAB
  0
TABLE
  2
BLOCK_RECORD
  5
1
330
0
100
AcDbSymbolTable
 70
    30
  0
BLOCK_RECORD
  5
1F
102
{ACAD_XDICTIONARY
360
82
102
}
330
1
100
AcDbSymbolTableRecord
100
AcDbBlockTableRecord
  2
*Model_Space
340
22
 70
     0
280
     1
281
     0
  0
BLOCK_RECORD
  5
1B
330
1
100
AcDbSymbolTableRecord
100
AcDbBlockTableRecord
  2
*Paper_Space
340
1E
 70
     0
280
     1
281
     0
  0
BLOCK_RECORD
  5
23
330
1
100
AcDbSymbolTableRecord
100
AcDbBlockTableRecord
  2
*Paper_Space0
340
26
 70
     0
280
     1
281
     0
  0
BLOCK_RECORD
  5
69
330
1
100
AcDbSymbolTableRecord
100
AcDbBlockTableRecord
  2
_Open30
340
0
102
{BLKREFS
331
6542
331
6543
331
6594
331
6595
331
65B2
331
65B3
331
65F0
331
65F1
331
6684
331
6685
331
6696
331
6697
331
66A8
331
66A9
331
6DDF
331
6DE0
331
7306
331
731D
331
7C8C
331
7C8D
331
7FA3
331
7FA4
331
7FB7
331
7FB8
331
8117
331
8118
331
818D
331
818E
102
}
 70
     0
280
     1
281
     0
  0
BLOCK_RECORD
  5
74
330
1
100
AcDbSymbolTableRecord
100
AcDbBlockTableRecord
  2
GENAXEH
340
0
 70
     0
280
     1
281
     0
  0
BLOCK_RECORD
  5
573C
102
{ACAD_XDICTIONARY
360
57EC
102
}
330
1
100
AcDbSymbolTableRecord
100
AcDbBlockTableRecord
  2
ロッカクアナツキプラグ R1／8
340
0
310
2800000020000000200000000100080000000000000400000000000000000000000000000000000000000000000080000080000000808000800000008000800080800000C0C0C000C0DCC000F0CAA6000020400000206000002080000020A0000020C0000020E00000400000004020000040400000406000004080000040A0
310
000040C0000040E00000600000006020000060400000606000006080000060A0000060C0000060E00000800000008020000080400000806000008080000080A0000080C0000080E00000A0000000A0200000A0400000A0600000A0800000A0A00000A0C00000A0E00000C0000000C0200000C0400000C0600000C0800000C0
310
A00000C0C00000C0E00000E0000000E0200000E0400000E0600000E0800000E0A00000E0C00000E0E00040000000400020004000400040006000400080004000A0004000C0004000E00040200000402020004020400040206000402080004020A0004020C0004020E000404000004040200040404000404060004040800040
310
40A0004040C0004040E00040600000406020004060400040606000406080004060A0004060C0004060E00040800000408020004080400040806000408080004080A0004080C0004080E00040A0000040A0200040A0400040A0600040A0800040A0A00040A0C00040A0E00040C0000040C0200040C0400040C0600040C08000
310
40C0A00040C0C00040C0E00040E0000040E0200040E0400040E0600040E0800040E0A00040E0C00040E0E00080000000800020008000400080006000800080008000A0008000C0008000E00080200000802020008020400080206000802080008020A0008020C0008020E00080400000804020008040400080406000804080
310
008040A0008040C0008040E00080600000806020008060400080606000806080008060A0008060C0008060E00080800000808020008080400080806000808080008080A0008080C0008080E00080A0000080A0200080A0400080A0600080A0800080A0A00080A0C00080A0E00080C0000080C0200080C0400080C0600080C0
310
800080C0A00080C0C00080C0E00080E0000080E0200080E0400080E0600080E0800080E0A00080E0C00080E0E000C0000000C0002000C0004000C0006000C0008000C000A000C000C000C000E000C0200000C0202000C0204000C0206000C0208000C020A000C020C000C020E000C0400000C0402000C0404000C0406000C0
310
408000C040A000C040C000C040E000C0600000C0602000C0604000C0606000C0608000C060A000C060C000C060E000C0800000C0802000C0804000C0806000C0808000C080A000C080C000C080E000C0A00000C0A02000C0A04000C0A06000C0A08000C0A0A000C0A0C000C0A0E000C0C00000C0C02000C0C04000C0C06000
310
C0C08000C0C0A000F0FBFF00A4A0A000808080000000FF0000FF000000FFFF00FF000000FF00FF00FFFF0000FFFFFF0000000000000000000000000000000000000000000000000000000000000000000000000000000000000000000000000000000000000000000000000000000000000000000000000000000000000000
310
00000000000000000000000000000000000000000000000000000000000000000000000000000000000000000000000000000000000000000000000000000000000000000000000000000000000000000000000000000000000000000000000000000000000000000000000000000000000000000000000000000000000000
310
000000000000000000000000000000000000000000000000000000000000000000000000000000000000000000000000000000000000000000000000000000FFFFFFFFFF00000000000000000000000000000000000000000000000000FFFFFEFEFEFEFEFFFF0000000000000000000000000000000000000000000000FFFE
310
000000000000FEFFFF0000000000000000000000000000000000000000FFFE000000000000000000FEFF0000000000000000000000000000000000FFFFFE0000000000FF00000000FEFF0000000000000000000000000000000000FF00FE000000FFFF00FFFF000000FEFF00000000000000000000000000000000FFFE0000
310
FFFF0000000000FF0000FEFF00000000000000000000000000000000FFFE0000FF000000000000FF000000FF000000000000000000F9F9F9F9F9F9F9F9F9F9F9FFF9F9F9F9F9F9FFF9F9F9F9F9F9F9F9F9F9F9000000000000000000FFFE0000FF000000000000FF0000FEFF00000000000000000000000000000000FF00FE
310
0000FFFF0000FFFF000000FEFF00000000000000000000000000000000FF00FE00000000FFFF00000000FEFF000000000000000000000000000000000000FFFFFE000000000000000000FEFF0000000000000000000000000000000000000000FF0000000000000000FEFF0000000000000000000000000000000000000000
310
00FFFEFEFEFEFEFEFEFFFF0000000000000000000000000000000000000000000000FFFFFFFFFFFFFF0000000000000000000000000000000000000000000000000000000000000000000000000000000000000000000000000000000000000000000000000000000000000000000000000000000000000000000000000000
310
00000000000000000000000000000000000000000000000000000000000000000000000000000000000000000000000000000000000000000000000000000000000000000000000000000000000000000000000000000000000000000000000000000000000000000000000000000000000000000000000000000000000000
310
0000000000000000000000000000000000000000000000000000000000000000000000000000000000000000000000000000000000000000
102
{BLKREFS
331
5831
102
}
 70
     4
280
     1
281
     0
  0
BLOCK_RECORD
  5
57EE
102
{ACAD_XDICTIONARY
360
58FB
102
}
330
1
100
AcDbSymbolTableRecord
100
AcDbBlockTableRecord
  2
ケースＡ SSM200
340
0
310
2800000020000000200000000100080000000000000400000000000000000000000000000000000000000000000080000080000000808000800000008000800080800000C0C0C000C0DCC000F0CAA6000020400000206000002080000020A0000020C0000020E00000400000004020000040400000406000004080000040A0
310
000040C0000040E00000600000006020000060400000606000006080000060A0000060C0000060E00000800000008020000080400000806000008080000080A0000080C0000080E00000A0000000A0200000A0400000A0600000A0800000A0A00000A0C00000A0E00000C0000000C0200000C0400000C0600000C0800000C0
310
A00000C0C00000C0E00000E0000000E0200000E0400000E0600000E0800000E0A00000E0C00000E0E00040000000400020004000400040006000400080004000A0004000C0004000E00040200000402020004020400040206000402080004020A0004020C0004020E000404000004040200040404000404060004040800040
310
40A0004040C0004040E00040600000406020004060400040606000406080004060A0004060C0004060E00040800000408020004080400040806000408080004080A0004080C0004080E00040A0000040A0200040A0400040A0600040A0800040A0A00040A0C00040A0E00040C0000040C0200040C0400040C0600040C08000
310
40C0A00040C0C00040C0E00040E0000040E0200040E0400040E0600040E0800040E0A00040E0C00040E0E00080000000800020008000400080006000800080008000A0008000C0008000E00080200000802020008020400080206000802080008020A0008020C0008020E00080400000804020008040400080406000804080
310
008040A0008040C0008040E00080600000806020008060400080606000806080008060A0008060C0008060E00080800000808020008080400080806000808080008080A0008080C0008080E00080A0000080A0200080A0400080A0600080A0800080A0A00080A0C00080A0E00080C0000080C0200080C0400080C0600080C0
310
800080C0A00080C0C00080C0E00080E0000080E0200080E0400080E0600080E0800080E0A00080E0C00080E0E000C0000000C0002000C0004000C0006000C0008000C000A000C000C000C000E000C0200000C0202000C0204000C0206000C0208000C020A000C020C000C020E000C0400000C0402000C0404000C0406000C0
310
408000C040A000C040C000C040E000C0600000C0602000C0604000C0606000C0608000C060A000C060C000C060E000C0800000C0802000C0804000C0806000C0808000C080A000C080C000C080E000C0A00000C0A02000C0A04000C0A06000C0A08000C0A0A000C0A0C000C0A0E000C0C00000C0C02000C0C04000C0C06000
310
C0C08000C0C0A000F0FBFF00A4A0A000808080000000FF0000FF000000FFFF00FF000000FF00FF00FFFF0000FFFFFF00000000000000000000000000000000000000000000000000000000000000000000000000000000000000000000FFFFFF0000000000000000000000000000000000000000000000000000000000FF00
310
FF0000000000000000000000000000000000000000000000000000000000FF00FF0000000000000000000000000000000000000000000000000000000000FF00FF0000000000000000000000000000000000000000000000000000000000FF00FFFFFFFFFFFFFFFF00000000000000000000000000000000000000000000FF
310
00FF000000000000FF00000000000000000000000000000000000000000000FF00FF000000000000FF00000000000000000000000000000000000000000000FF00FF000000000000FF00000000000000000000000000000000000000000000FF00FF000000000000FF00000000000000000000000000000000000000000000
310
FF00FF000000000000FF00000000000000000000000000000000000000000000FFF9FF000000000000FF00000000000000000000000000000000000000000000F9F9F9F90000000000FF00000000000000000000000000000000000000000000FFF9FF000000000000FF000000000000000000000000000000000000000000
310
00FFF9FF000000000000FF00000000000000000000000000000000000000000000FF00FF000000000000FF00000000000000000000000000000000000000000000FF00FF000000000000FF00000000000000000000000000000000000000000000000000000000000000000000000000000000000000000000000000000000
310
00000000000000000000000000000000000000000000000000000000000000000000000000000000000000000000000000000000000000000000000000000000000000000000000000000000000000000000000000000000000000000000000000000000000000000000000000000000000000000000000000000000000000
310
00000000000000000000000000000000000000000000000000000000000000000000000000000000000000000000000000000000000000000000000000000000000000FF0000FFA4A4A4FFFFFF00000000000000000000000000000000000000000000FFFFF9FFFFFFFFFFFFFF000000000000000000000000000000000000
310
00000000FF00FFFFFFFFFFFFFFFF00000000000000000000000000000000000000000000FFFFFF00000000000000000000000000000000000000000000000000F9F9F9F9F9F9F9F9F9F90000000000000000000000000000000000000000000000000000FFFFFF000000000000000000000000000000000000000000000000
310
0000000000FFFFFF000000000000000000000000000000000000000000000000000000000000000000000000000000000000000000000000
102
{BLKREFS
331
583C
102
}
 70
     4
280
     1
281
     0
  0
BLOCK_RECORD
  5
599B
102
{ACAD_XDICTIONARY
360
5A57
102
}
330
1
100
AcDbSymbolTableRecord
100
AcDbBlockTableRecord
  2
ケースＢ SSM200
340
0
310
2800000020000000200000000100080000000000000400000000000000000000000000000000000000000000000080000080000000808000800000008000800080800000C0C0C000C0DCC000F0CAA6000020400000206000002080000020A0000020C0000020E00000400000004020000040400000406000004080000040A0
310
000040C0000040E00000600000006020000060400000606000006080000060A0000060C0000060E00000800000008020000080400000806000008080000080A0000080C0000080E00000A0000000A0200000A0400000A0600000A0800000A0A00000A0C00000A0E00000C0000000C0200000C0400000C0600000C0800000C0
310
A00000C0C00000C0E00000E0000000E0200000E0400000E0600000E0800000E0A00000E0C00000E0E00040000000400020004000400040006000400080004000A0004000C0004000E00040200000402020004020400040206000402080004020A0004020C0004020E000404000004040200040404000404060004040800040
310
40A0004040C0004040E00040600000406020004060400040606000406080004060A0004060C0004060E00040800000408020004080400040806000408080004080A0004080C0004080E00040A0000040A0200040A0400040A0600040A0800040A0A00040A0C00040A0E00040C0000040C0200040C0400040C0600040C08000
310
40C0A00040C0C00040C0E00040E0000040E0200040E0400040E0600040E0800040E0A00040E0C00040E0E00080000000800020008000400080006000800080008000A0008000C0008000E00080200000802020008020400080206000802080008020A0008020C0008020E00080400000804020008040400080406000804080
310
008040A0008040C0008040E00080600000806020008060400080606000806080008060A0008060C0008060E00080800000808020008080400080806000808080008080A0008080C0008080E00080A0000080A0200080A0400080A0600080A0800080A0A00080A0C00080A0E00080C0000080C0200080C0400080C0600080C0
310
800080C0A00080C0C00080C0E00080E0000080E0200080E0400080E0600080E0800080E0A00080E0C00080E0E000C0000000C0002000C0004000C0006000C0008000C000A000C000C000C000E000C0200000C0202000C0204000C0206000C0208000C020A000C020C000C020E000C0400000C0402000C0404000C0406000C0
310
408000C040A000C040C000C040E000C0600000C0602000C0604000C0606000C0608000C060A000C060C000C060E000C0800000C0802000C0804000C0806000C0808000C080A000C080C000C080E000C0A00000C0A02000C0A04000C0A06000C0A08000C0A0A000C0A0C000C0A0E000C0C00000C0C02000C0C04000C0C06000
310
C0C08000C0C0A000F0FBFF00A4A0A000808080000000FF0000FF000000FFFF00FF000000FF00FF00FFFF0000FFFFFF00000000000000000000000000000000000000000000000000000000000000000000000000000000000000000000000000FFFFFF00000000000000000000000000000000000000000000000000000000
310
00FF00FF0000000000000000000000000000000000000000000000000000000000F9F9F9F9F9F90000000000000000000000000000000000000000000000000000FF00000000000000000000000000000000000000000000000000FFFFFFFFFFFFFF00000000000000000000000000000000000000000000000000FF000000
310
0000FF00000000000000000000000000000000000000000000000000FF0000000000FF00000000000000000000000000000000000000000000000000FF0000000000FF00000000000000000000000000000000000000000000000000FF0000000000FF00000000000000000000000000000000000000000000000000FF0000
310
000000FF00000000000000000000000000000000000000000000000000FF0000000000FF00000000000000000000000000000000000000000000000000FF0000000000FF00000000000000000000000000000000000000000000000000FF0000000000FF00000000000000000000000000000000000000000000000000FF00
310
00000000FF00000000000000000000000000000000000000000000000000FF0000000000FF00000000000000000000000000000000000000000000000000FF0000000000FF00000000000000000000000000000000000000000000000000000000000000000000000000000000000000000000000000000000000000000000
310
00000000000000000000000000000000000000000000000000000000000000000000000000000000000000000000000000000000000000000000000000000000000000000000000000000000000000000000000000000000000000000000000000000000000000000000000000000000000000000000000000000000000000
310
00000000000000000000000000000000000000000000000000000000000000000000000000000000000000000000000000000000000000000000000000000000FFFFA4A4A4FFFF00FF0000000000000000000000000000000000000000000000FFFFFFFFFFFFFFFFFF00000000000000000000000000000000000000000000
310
00FFFFFFFFFFFFFF00FF0000000000000000000000000000000000000000000000000000000000FFFFFF00000000000000000000000000000000000000000000000000000000000000000000000000000000000000000000000000000000000000000000000000FFFFFF000000000000000000000000000000000000000000
310
0000000000000000FFFFFF000000000000000000000000000000000000000000000000000000000000000000000000000000000000000000
102
{BLKREFS
331
59DD
102
}
 70
     4
280
     1
281
     0
  0
BLOCK_RECORD
  5
5AF7
102
{ACAD_XDICTIONARY
360
5B63
102
}
330
1
100
AcDbSymbolTableRecord
100
AcDbBlockTableRecord
  2
センタＡ SSM200
340
0
310
2800000020000000200000000100080000000000000400000000000000000000000000000000000000000000000080000080000000808000800000008000800080800000C0C0C000C0DCC000F0CAA6000020400000206000002080000020A0000020C0000020E00000400000004020000040400000406000004080000040A0
310
000040C0000040E00000600000006020000060400000606000006080000060A0000060C0000060E00000800000008020000080400000806000008080000080A0000080C0000080E00000A0000000A0200000A0400000A0600000A0800000A0A00000A0C00000A0E00000C0000000C0200000C0400000C0600000C0800000C0
310
A00000C0C00000C0E00000E0000000E0200000E0400000E0600000E0800000E0A00000E0C00000E0E00040000000400020004000400040006000400080004000A0004000C0004000E00040200000402020004020400040206000402080004020A0004020C0004020E000404000004040200040404000404060004040800040
310
40A0004040C0004040E00040600000406020004060400040606000406080004060A0004060C0004060E00040800000408020004080400040806000408080004080A0004080C0004080E00040A0000040A0200040A0400040A0600040A0800040A0A00040A0C00040A0E00040C0000040C0200040C0400040C0600040C08000
310
40C0A00040C0C00040C0E00040E0000040E0200040E0400040E0600040E0800040E0A00040E0C00040E0E00080000000800020008000400080006000800080008000A0008000C0008000E00080200000802020008020400080206000802080008020A0008020C0008020E00080400000804020008040400080406000804080
310
008040A0008040C0008040E00080600000806020008060400080606000806080008060A0008060C0008060E00080800000808020008080400080806000808080008080A0008080C0008080E00080A0000080A0200080A0400080A0600080A0800080A0A00080A0C00080A0E00080C0000080C0200080C0400080C0600080C0
310
800080C0A00080C0C00080C0E00080E0000080E0200080E0400080E0600080E0800080E0A00080E0C00080E0E000C0000000C0002000C0004000C0006000C0008000C000A000C000C000C000E000C0200000C0202000C0204000C0206000C0208000C020A000C020C000C020E000C0400000C0402000C0404000C0406000C0
310
408000C040A000C040C000C040E000C0600000C0602000C0604000C0606000C0608000C060A000C060C000C060E000C0800000C0802000C0804000C0806000C0808000C080A000C080C000C080E000C0A00000C0A02000C0A04000C0A06000C0A08000C0A0A000C0A0C000C0A0E000C0C00000C0C02000C0C04000C0C06000
310
C0C08000C0C0A000F0FBFF00A4A0A000808080000000FF0000FF000000FFFF00FF000000FF00FF00FFFF0000FFFFFF0000000000000000000000000000000000000000000000000000000000000000000000000000000000000000000000000000000000000000000000FF0000000000000000000000000000000000000000
310
0000000000000000000000FF00000000000000000000000000000000000000000000000000000000000000FF00000000000000000000000000000000000000000000000000000000000000FF00000000000000000000000000000000000000000000000000000000000000FF00000000000000000000000000000000000000
310
000000000000000000000000FF00000000000000000000000000000000000000000000000000000000000000FF00000000000000000000000000000000000000000000000000000000000000FF00000000000000000000000000000000000000000000000000000000000000FF000000000000000000000000000000000000
310
00000000000000000000000000FF00000000000000000000000000000000000000000000000000000000000000FF00000000000000000000000000000000000000000000000000000000000000FF00000000000000000000000000000000000000000000000000000000000000FF00000000000000000000FF000000000000
310
0000000000000000000000000000FF00000000000000000000FF0000000000000000000000000000000000000000FF00000000000000000000FF0000000000000000000000000000000000000000FF00000000000000000000FF0000000000000000000000000000000000000000FF00000000000000000000FF0000000000
310
000000000000000000000000000000FF00000000000000000000FF0000000000000000000000000000000000000000FF00000000000000000000FFFFFFFFFFFFFFFFFFFFFFFFFFFFFFFFFFFFFFFFFFFF00000000000000000000FFFFFFFFFFFFFFFFFFFFFFFFFFFFFFFFFFFFFFFFFFFF00000000000000000000FF00000000
310
00000000000000000000000000000000FF00000000000000000000FF0000000000000000000000000000000000000000FF00000000000000000000FF0000000000000000000000000000000000000000FF00000000000000000000FF0000000000000000000000000000000000000000FF00000000000000000000FF000000
310
00F9000000000000000000000000000000FF00000000000000000000FFFFFFFFFFFFFFFFFFFFFFFFFFFFFFFFFFFFFFFFFFFF00000000000000000000000000FFF9F9F9F9FFF9000000000000000000000000000000000000000000000000000000F90000000000000000000000000000000000000000000000000000000000
310
0000F90000000000000000000000000000000000000000000000000000000000000000000000000000000000000000000000000000000000
102
{BLKREFS
331
5B10
102
}
 70
     4
280
     1
281
     0
  0
BLOCK_RECORD
  5
5BDC
102
{ACAD_XDICTIONARY
360
619D
102
}
330
1
100
AcDbSymbolTableRecord
100
AcDbBlockTableRecord
  2
センタＢ SSM200
340
0
310
2800000020000000200000000100080000000000000400000000000000000000000000000000000000000000000080000080000000808000800000008000800080800000C0C0C000C0DCC000F0CAA6000020400000206000002080000020A0000020C0000020E00000400000004020000040400000406000004080000040A0
310
000040C0000040E00000600000006020000060400000606000006080000060A0000060C0000060E00000800000008020000080400000806000008080000080A0000080C0000080E00000A0000000A0200000A0400000A0600000A0800000A0A00000A0C00000A0E00000C0000000C0200000C0400000C0600000C0800000C0
310
A00000C0C00000C0E00000E0000000E0200000E0400000E0600000E0800000E0A00000E0C00000E0E00040000000400020004000400040006000400080004000A0004000C0004000E00040200000402020004020400040206000402080004020A0004020C0004020E000404000004040200040404000404060004040800040
310
40A0004040C0004040E00040600000406020004060400040606000406080004060A0004060C0004060E00040800000408020004080400040806000408080004080A0004080C0004080E00040A0000040A0200040A0400040A0600040A0800040A0A00040A0C00040A0E00040C0000040C0200040C0400040C0600040C08000
310
40C0A00040C0C00040C0E00040E0000040E0200040E0400040E0600040E0800040E0A00040E0C00040E0E00080000000800020008000400080006000800080008000A0008000C0008000E00080200000802020008020400080206000802080008020A0008020C0008020E00080400000804020008040400080406000804080
310
008040A0008040C0008040E00080600000806020008060400080606000806080008060A0008060C0008060E00080800000808020008080400080806000808080008080A0008080C0008080E00080A0000080A0200080A0400080A0600080A0800080A0A00080A0C00080A0E00080C0000080C0200080C0400080C0600080C0
310
800080C0A00080C0C00080C0E00080E0000080E0200080E0400080E0600080E0800080E0A00080E0C00080E0E000C0000000C0002000C0004000C0006000C0008000C000A000C000C000C000E000C0200000C0202000C0204000C0206000C0208000C020A000C020C000C020E000C0400000C0402000C0404000C0406000C0
310
408000C040A000C040C000C040E000C0600000C0602000C0604000C0606000C0608000C060A000C060C000C060E000C0800000C0802000C0804000C0806000C0808000C080A000C080C000C080E000C0A00000C0A02000C0A04000C0A06000C0A08000C0A0A000C0A0C000C0A0E000C0C00000C0C02000C0C04000C0C06000
310
C0C08000C0C0A000F0FBFF00A4A0A000808080000000FF0000FF000000FFFF00FF000000FF00FF00FFFF0000FFFFFF000000000000000000000000000000000000000000000000000000000000000000000000000000000000000000FFFFFF00000000000000000000000000000000000000000000FFFFFFFFFFFFFFFF0000
310
00000000000000000000000000000000000000000000FF0000000000FFFF000000000000000000000000000000000000000000000000FF0000000000FFFF000000000000000000000000000000000000000000000000FF0000000000FFFF000000000000000000000000000000000000000000000000FF0000000000FFFF00
310
0000000000000000000000000000000000000000000000FF0000000000FFFF000000000000000000000000000000000000000000000000FF0000000000FFFF000000000000000000000000000000000000000000000000FF0000000000FFFF000000000000000000000000000000000000000000000000FF0000000000FFFF
310
000000000000000000000000000000000000000000000000FF0000000000FFFF000000000000000000000000000000000000000000000000FF0000000000FFFF000000000000000000000000000000000000000000000000FF0000000000FFFF000000000000000000000000000000000000000000000000FF0000000000FF
310
FF00000000000000000000000000FF00000000000000000000FF0000000000000000000000000000000000000000FF00000000000000000000FF0000000000000000000000000000000000000000FF00000000000000000000FF0000000000000000000000000000000000000000FF00000000000000000000FF0000000000
310
000000000000000000000000000000FF00000000000000000000FF0000000000000000000000000000000000000000FF00000000000000000000FF0000000000000000000000000000000000000000FF00000000000000000000FFFFFFFFFFFFFFFFFFFFFFFFFFFFFFFFFFFFFFFFFFFF00000000000000000000FFFFFFFFFF
310
FFFFFFFFFFFFFFFFFFFFFFFFFFFFFFFFFF00000000000000000000FF0000000000000000000000000000000000000000FF00000000000000000000FF0000000000000000000000000000000000000000FF00000000000000000000FF0000000000000000000000000000000000000000FF00000000000000000000FF000000
310
000000000000000000000000F900000000FF00000000000000000000FFFFFFFFFFFFFFFFFFFFFFFFFFFFFFFFF9FFFFFFFFFF00000000000000000000000000000000000000000000F9FFF9F9F9FFFF0000000000000000000000000000000000000000000000000000000000F9000000000000000000000000000000000000
310
00000000000000000000000000F9000000000000000000000000000000000000000000000000000000000000000000000000000000000000
102
{BLKREFS
331
5C07
102
}
 70
     4
280
     1
281
     0
  0
BLOCK_RECORD
  5
5D45
102
{ACAD_XDICTIONARY
360
5DDA
102
}
330
1
100
AcDbSymbolTableRecord
100
AcDbBlockTableRecord
  2
リーマボルト SSM200 M10
340
0
310
2800000020000000200000000100080000000000000400000000000000000000000000000000000000000000000080000080000000808000800000008000800080800000C0C0C000C0DCC000F0CAA6000020400000206000002080000020A0000020C0000020E00000400000004020000040400000406000004080000040A0
310
000040C0000040E00000600000006020000060400000606000006080000060A0000060C0000060E00000800000008020000080400000806000008080000080A0000080C0000080E00000A0000000A0200000A0400000A0600000A0800000A0A00000A0C00000A0E00000C0000000C0200000C0400000C0600000C0800000C0
310
A00000C0C00000C0E00000E0000000E0200000E0400000E0600000E0800000E0A00000E0C00000E0E00040000000400020004000400040006000400080004000A0004000C0004000E00040200000402020004020400040206000402080004020A0004020C0004020E000404000004040200040404000404060004040800040
310
40A0004040C0004040E00040600000406020004060400040606000406080004060A0004060C0004060E00040800000408020004080400040806000408080004080A0004080C0004080E00040A0000040A0200040A0400040A0600040A0800040A0A00040A0C00040A0E00040C0000040C0200040C0400040C0600040C08000
310
40C0A00040C0C00040C0E00040E0000040E0200040E0400040E0600040E0800040E0A00040E0C00040E0E00080000000800020008000400080006000800080008000A0008000C0008000E00080200000802020008020400080206000802080008020A0008020C0008020E00080400000804020008040400080406000804080
310
008040A0008040C0008040E00080600000806020008060400080606000806080008060A0008060C0008060E00080800000808020008080400080806000808080008080A0008080C0008080E00080A0000080A0200080A0400080A0600080A0800080A0A00080A0C00080A0E00080C0000080C0200080C0400080C0600080C0
310
800080C0A00080C0C00080C0E00080E0000080E0200080E0400080E0600080E0800080E0A00080E0C00080E0E000C0000000C0002000C0004000C0006000C0008000C000A000C000C000C000E000C0200000C0202000C0204000C0206000C0208000C020A000C020C000C020E000C0400000C0402000C0404000C0406000C0
310
408000C040A000C040C000C040E000C0600000C0602000C0604000C0606000C0608000C060A000C060C000C060E000C0800000C0802000C0804000C0806000C0808000C080A000C080C000C080E000C0A00000C0A02000C0A04000C0A06000C0A08000C0A0A000C0A0C000C0A0E000C0C00000C0C02000C0C04000C0C06000
310
C0C08000C0C0A000F0FBFF00A4A0A000808080000000FF0000FF000000FFFF00FF000000FF00FF00FFFF0000FFFFFF0000000000000000000000000000000000000000000000000000000000000000000000000000000000000000000000000000000000000000000000000000000000000000000000000000000000000000
310
00000000000000000000000000000000000000000000000000000000000000000000000000000000000000000000000000000000000000000000000000000000000000000000000000000000000000000000000000000000000000000000000000000000000000000000000000000000000000000000000000000000000000
310
0000000000000000000000000000000000000000000000000000000000000000000000000000000000000000000000000000000000000000000000000000000000000000000000000000000000000000000000000000000000000000000000000000000000000000000000000000000000000000FFFFFFFF00000000000000
310
00000000000000000000FFFFFFFFFF0000000000FFFF000000000000000000000000000000000000FFFFFF000000FF0000000000FFFF0000000000000000000000000000000000000000FF000000FF0000000000FFFFFFFFFFFF00000000000000000000000000FFFF00FFFFFFFFFFFFFFFF0000FFFF000000FF0000000000
310
0000000000000000FF0000FF000000FF00FFFF0000FFFF000000FF00000000000000000000000000FFFF00FF000000FF00FFFF0000FFFF000000FF00000000000000000000000000FF00FFFF000000FF00FFFF0000FFFF000000FF00000000000000000000000000FF0000FF000000FF00FFFF0000FFFFFFFFFFFF00000000
310
000000000000000000FFFF00FFFFFFFFFFFFFFFF0000FFFF0000000000000000000000000000000000000000FF000000FF0000000000FFFF000000000000000000000000000000000000FFFFFF000000FF000000000000FFFFFFFF0000000000000000000000000000000000FFFFFFFFFF0000000000000000000000000000
310
00000000000000000000000000000000000000000000000000000000000000000000000000000000000000000000000000000000000000000000000000000000000000000000000000000000000000000000000000000000000000000000000000000000000000000000000000000000000000000000000000000000000000
310
00000000000000000000000000000000000000000000000000000000000000000000000000000000000000000000000000000000000000000000000000000000000000000000000000000000000000000000000000000000000000000000000000000000000000000000000000000000000000000000000000000000000000
310
0000000000000000000000000000000000000000000000000000000000000000000000000000000000000000000000000000000000000000
102
{BLKREFS
331
5D74
102
}
 70
     4
280
     1
281
     0
  0
BLOCK_RECORD
  5
6516
330
1
100
AcDbSymbolTableRecord
100
AcDbBlockTableRecord
  2
*D12
340
0
 70
     0
280
     1
281
     0
  0
BLOCK_RECORD
  5
6550
330
1
100
AcDbSymbolTableRecord
100
AcDbBlockTableRecord
  2
*D13
340
0
 70
     0
280
     1
281
     0
  0
BLOCK_RECORD
  5
6568
330
1
100
AcDbSymbolTableRecord
100
AcDbBlockTableRecord
  2
*D14
340
0
 70
     0
280
     1
281
     0
  0
BLOCK_RECORD
  5
6584
330
1
100
AcDbSymbolTableRecord
100
AcDbBlockTableRecord
  2
*D15
340
0
 70
     0
280
     1
281
     0
  0
BLOCK_RECORD
  5
65C5
330
1
100
AcDbSymbolTableRecord
100
AcDbBlockTableRecord
  2
*D16
340
0
 70
     0
280
     1
281
     0
  0
BLOCK_RECORD
  5
6619
330
1
100
AcDbSymbolTableRecord
100
AcDbBlockTableRecord
  2
*D17
340
0
 70
     0
280
     1
281
     0
  0
BLOCK_RECORD
  5
6631
330
1
100
AcDbSymbolTableRecord
100
AcDbBlockTableRecord
  2
*D18
340
0
 70
     0
280
     1
281
     0
  0
BLOCK_RECORD
  5
6661
330
1
100
AcDbSymbolTableRecord
100
AcDbBlockTableRecord
  2
*D19
340
0
 70
     0
280
     1
281
     0
  0
BLOCK_RECORD
  5
679B
330
1
100
AcDbSymbolTableRecord
100
AcDbBlockTableRecord
  2
*D20
340
0
 70
     0
280
     1
281
     0
  0
BLOCK_RECORD
  5
67CD
330
1
100
AcDbSymbolTableRecord
100
AcDbBlockTableRecord
  2
*D21
340
0
 70
     0
280
     1
281
     0
  0
BLOCK_RECORD
  5
6855
330
1
100
AcDbSymbolTableRecord
100
AcDbBlockTableRecord
  2
*D22
340
0
 70
     0
280
     1
281
     0
  0
BLOCK_RECORD
  5
6DCF
330
1
100
AcDbSymbolTableRecord
100
AcDbBlockTableRecord
  2
*D23
340
0
 70
     0
280
     1
281
     0
  0
BLOCK_RECORD
  5
7266
330
1
100
AcDbSymbolTableRecord
100
AcDbBlockTableRecord
  2
GENDOT
340
0
102
{BLKREFS
331
7307
331
731C
102
}
 70
     0
280
     1
281
     0
  0
BLOCK_RECORD
  5
7C58
330
1
100
AcDbSymbolTableRecord
100
AcDbBlockTableRecord
  2
*D25
340
0
 70
     0
280
     1
281
     0
  0
BLOCK_RECORD
  5
7F04
330
1
100
AcDbSymbolTableRecord
100
AcDbBlockTableRecord
  2
*D26
340
0
 70
     0
280
     1
281
     0
  0
BLOCK_RECORD
  5
7F3C
330
1
100
AcDbSymbolTableRecord
100
AcDbBlockTableRecord
  2
*D27
340
0
 70
     0
280
     1
281
     0
  0
BLOCK_RECORD
  5
816D
330
1
100
AcDbSymbolTableRecord
100
AcDbBlockTableRecord
  2
ケース
340
0
310
2800000020000000200000000100080000000000000400000000000000000000000000000000000000000000000080000080000000808000800000008000800080800000C0C0C000C0DCC000F0CAA6000020400000206000002080000020A0000020C0000020E00000400000004020000040400000406000004080000040A0
310
000040C0000040E00000600000006020000060400000606000006080000060A0000060C0000060E00000800000008020000080400000806000008080000080A0000080C0000080E00000A0000000A0200000A0400000A0600000A0800000A0A00000A0C00000A0E00000C0000000C0200000C0400000C0600000C0800000C0
310
A00000C0C00000C0E00000E0000000E0200000E0400000E0600000E0800000E0A00000E0C00000E0E00040000000400020004000400040006000400080004000A0004000C0004000E00040200000402020004020400040206000402080004020A0004020C0004020E000404000004040200040404000404060004040800040
310
40A0004040C0004040E00040600000406020004060400040606000406080004060A0004060C0004060E00040800000408020004080400040806000408080004080A0004080C0004080E00040A0000040A0200040A0400040A0600040A0800040A0A00040A0C00040A0E00040C0000040C0200040C0400040C0600040C08000
310
40C0A00040C0C00040C0E00040E0000040E0200040E0400040E0600040E0800040E0A00040E0C00040E0E00080000000800020008000400080006000800080008000A0008000C0008000E00080200000802020008020400080206000802080008020A0008020C0008020E00080400000804020008040400080406000804080
310
008040A0008040C0008040E00080600000806020008060400080606000806080008060A0008060C0008060E00080800000808020008080400080806000808080008080A0008080C0008080E00080A0000080A0200080A0400080A0600080A0800080A0A00080A0C00080A0E00080C0000080C0200080C0400080C0600080C0
310
800080C0A00080C0C00080C0E00080E0000080E0200080E0400080E0600080E0800080E0A00080E0C00080E0E000C0000000C0002000C0004000C0006000C0008000C000A000C000C000C000E000C0200000C0202000C0204000C0206000C0208000C020A000C020C000C020E000C0400000C0402000C0404000C0406000C0
310
408000C040A000C040C000C040E000C0600000C0602000C0604000C0606000C0608000C060A000C060C000C060E000C0800000C0802000C0804000C0806000C0808000C080A000C080C000C080E000C0A00000C0A02000C0A04000C0A06000C0A08000C0A0A000C0A0C000C0A0E000C0C00000C0C02000C0C04000C0C06000
310
C0C08000C0C0A000F0FBFF00A4A0A000808080000000FF0000FF000000FFFF00FF000000FF00FF00FFFF0000FFFFFF0000000000000000000000000000000000000000000000000000000000000000000000000000000000000000000000000000000000000000000000000000000000000000000000000000000000000000
310
00000000000000000000000000000000000000000000000000000000000000000000000000000000000000000000000000000000000000000000000000000000000000000000000000000000000000000000FC000000FC00000000000000000000FC000000FC000000000000000000000000FC000000FC0000000000000000
310
0000FC000000FC000000000000000000000000FCFCFCFCFC00000000000000000000FCFCFCFCFC000000000000000000000000FC000000FC00000000000000000000FC000000FC000000000000000000000000FC000000FC00000000000000000000FC000000FC00000000000000FCFCFC0000FC000000FC00000000000000
310
000000FC000000FC00000000000000FC00000000FC000000FC00000000000000000000FC000000FC000000000000FC0000000000FC00000000FCFCFCFCFCFCFCFCFCFCFC000000FC000000FCFCFCFCFCFCFC0000FC000000000000000000000000000000000000FC000000000000FC0000000000FC00000000000000000000
310
0000000000000000FC000000000000FC0000000000FC000000000000000000000000000000000000FC000000000000FC0000000000FC00000000000000000000000000000000000000FC00000000FCFCFCFCFC0000FC0000000000000000000000000000000000000000FCFCFCFC00000000000000FC000000000000000000
310
00000000000000000000000000000000000000000000FC00000000000000000000000000000000000000000000000000000000000000FC00000000000000000000000000000000000000000000000000000000000000FC00000000000000000000000000000000000000000000000000000000000000FC0000000000000000
310
000000000000000000000000000000000000000000000000FC0000000000000000000000000000000000000000000000000000000000000000FCFC0000000000000000000000000000000000000000000000000000000000000000FC0000000000000000000000000000000000000000000000000000000000000000FCFCFC
310
FCFCFCFCFCFCFCFCFCFCFCFCFCFCFCFCFCFCFCFCFCFC000000000000000000000000000000000000000000000000000000000000000000000000000000000000000000000000000000000000000000000000000000000000000000000000000000000000000000000000000000000000000000000000000000000000000000
310
0000000000000000000000000000000000000000000000000000000000000000000000000000000000000000000000000000000000000000
102
{BLKREFS
331
8193
102
}
 70
     4
280
     1
281
     1
  0
ENDTAB
  0
ENDSEC
  0
SECTION
  2
BLOCKS
  0
BLOCK
  5
20
330
1F
100
AcDbEntity
  8
0
100
AcDbBlockBegin
  2
*Model_Space
 70
     0
 10
0.0
 20
0.0
 30
0.0
  3
*Model_Space
  1

  0
ENDBLK
  5
21
330
1F
100
AcDbEntity
  8
0
100
AcDbBlockEnd
  0
BLOCK
  5
1C
330
1B
100
AcDbEntity
 67
     1
  8
0
100
AcDbBlockBegin
  2
*Paper_Space
 70
     0
 10
0.0
 20
0.0
 30
0.0
  3
*Paper_Space
  1

  0
ENDBLK
  5
1D
330
1B
100
AcDbEntity
 67
     1
  8
0
100
AcDbBlockEnd
  0
BLOCK
  5
24
330
23
100
AcDbEntity
 67
     1
  8
0
100
AcDbBlockBegin
  2
*Paper_Space0
 70
     0
 10
0.0
 20
0.0
 30
0.0
  3
*Paper_Space0
  1

  0
ENDBLK
  5
25
330
23
100
AcDbEntity
 67
     1
  8
0
100
AcDbBlockEnd
  0
BLOCK
  5
6D
330
69
100
AcDbEntity
  8
0
100
AcDbBlockBegin
  2
_Open30
 70
     0
 10
0.0
 20
0.0
 30
0.0
  3
_Open30
  1

  0
LINE
  5
6A
330
69
100
AcDbEntity
  8
0
  6
ByBlock
 62
     0
370
    -2
100
AcDbLine
 10
-1.0
 20
0.26794919
 30
0.0
 11
0.0
 21
0.0
 31
0.0
  0
LINE
  5
6B
330
69
100
AcDbEntity
  8
0
  6
ByBlock
 62
     0
370
    -2
100
AcDbLine
 10
0.0
 20
0.0
 30
0.0
 11
-1.0
 21
-0.26794919
 31
0.0
  0
LINE
  5
6C
330
69
100
AcDbEntity
  8
0
  6
ByBlock
 62
     0
370
    -2
100
AcDbLine
 10
0.0
 20
0.0
 30
0.0
 11
-1.0
 21
0.0
 31
0.0
  0
ENDBLK
  5
6E
330
69
100
AcDbEntity
  8
0
100
AcDbBlockEnd
  0
BLOCK
  5
76
330
74
100
AcDbEntity
  8
0
100
AcDbBlockBegin
  2
GENAXEH
 70
     0
 10
0.0
 20
0.0
 30
0.0
  3
GENAXEH
  1

  0
LINE
  5
75
330
74
100
AcDbEntity
  8
0
100
AcDbLine
 10
-1.0
 20
0.0
 30
0.0
 11
1.0
 21
0.0
 31
0.0
  0
ENDBLK
  5
77
330
74
100
AcDbEntity
  8
0
100
AcDbBlockEnd
  0
BLOCK
  5
573D
330
573C
100
AcDbEntity
  8
0
100
AcDbBlockBegin
  2
ロッカクアナツキプラグ R1／8
 70
     0
 10
0.0
 20
0.0
 30
0.0
  3
ロッカクアナツキプラグ R1／8
  1

  0
CIRCLE
  5
573F
330
573C
100
AcDbEntity
  8
AM_4 細線
100
AcDbCircle
 10
0.0
 20
0.0
 30
0.0
 40
4.816232499999999
  0
CIRCLE
  5
5740
330
573C
100
AcDbEntity
  8
AM_0 外形線1
100
AcDbCircle
 10
0.0
 20
0.0
 30
0.0
 40
5.271232499999999
  0
LINE
  5
5741
330
573C
100
AcDbEntity
  8
AM_7 中心線
100
AcDbLine
 10
9.651532500000143
 20
0.0
 30
0.0
 11
-9.651532500000143
 21
0.0
 31
0.0
  0
LINE
  5
5742
330
573C
100
AcDbEntity
  8
AM_0 外形線1
100
AcDbLine
 10
-2.178054999999972
 20
-1.257499999999821
 30
0.0
 11
0.0
 21
-2.514999999999985
 31
0.0
  0
LINE
  5
5743
330
573C
100
AcDbEntity
  8
AM_0 外形線1
100
AcDbLine
 10
0.0
 20
2.515000000000212
 30
0.0
 11
-2.178054999999972
 21
1.25750000000005
 31
0.0
  0
LINE
  5
5744
330
573C
100
AcDbEntity
  8
AM_0 外形線1
100
AcDbLine
 10
-2.178054999999972
 20
1.25750000000005
 30
0.0
 11
-2.178054999999972
 21
-1.257499999999821
 31
0.0
  0
LINE
  5
5745
330
573C
100
AcDbEntity
  8
AM_0 外形線1
100
AcDbLine
 10
2.178054999999972
 20
-1.257499999999821
 30
0.0
 11
2.178054999999972
 21
1.25750000000005
 31
0.0
  0
LINE
  5
5746
330
573C
100
AcDbEntity
  8
AM_0 外形線1
100
AcDbLine
 10
0.0
 20
-2.514999999999985
 30
0.0
 11
2.178054999999972
 21
-1.257499999999821
 31
0.0
  0
LINE
  5
5747
330
573C
100
AcDbEntity
  8
AM_0 外形線1
100
AcDbLine
 10
2.178054999999972
 20
1.25750000000005
 30
0.0
 11
0.0
 21
2.515000000000212
 31
0.0
  0
LINE
  5
57EB
330
573C
100
AcDbEntity
  8
AM_7 中心線
100
AcDbLine
 10
0.0
 20
9.651325000000156
 30
0.0
 11
0.0
 21
-9.651324999999816
 31
0.0
  0
ENDBLK
  5
573E
330
573C
100
AcDbEntity
  8
0
100
AcDbBlockEnd
  0
BLOCK
  5
57EF
330
57EE
100
AcDbEntity
  8
0
100
AcDbBlockBegin
  2
ケースＡ SSM200
 70
     0
 10
0.0
 20
0.0
 30
0.0
  3
ケースＡ SSM200
  1

  0
LINE
  5
57F1
330
57EE
100
AcDbEntity
  8
AM_0 外形線1
100
AcDbLine
 10
0.0
 20
0.0
 30
0.0
 11
0.0
 21
-99.0
 31
0.0
  0
LINE
  5
57F2
330
57EE
100
AcDbEntity
  8
AM_0 外形線1
100
AcDbLine
 10
15.0
 20
-99.0
 30
0.0
 11
15.0
 21
0.0
 31
0.0
  0
LINE
  5
57F3
330
57EE
100
AcDbEntity
  8
AM_0 外形線1
100
AcDbLine
 10
0.0
 20
0.0
 30
0.0
 11
0.0
 21
-99.0
 31
0.0
  0
LINE
  5
57F4
330
57EE
100
AcDbEntity
  8
AM_0 外形線1
100
AcDbLine
 10
1.0
 20
-100.0
 30
0.0
 11
14.0
 21
-100.0
 31
0.0
  0
LINE
  5
57F5
330
57EE
100
AcDbEntity
  8
AM_0 外形線1
100
AcDbLine
 10
0.0
 20
-99.0
 30
0.0
 11
1.0
 21
-100.0
 31
0.0
  0
LINE
  5
57F6
330
57EE
100
AcDbEntity
  8
AM_0 外形線1
100
AcDbLine
 10
14.0
 20
-100.0
 30
0.0
 11
15.0
 21
-99.0
 31
0.0
  0
LINE
  5
57F7
330
57EE
100
AcDbEntity
  8
AM_0 外形線1
100
AcDbLine
 10
18.00000000000011
 20
-74.49999999999987
 30
0.0
 11
55.56737499999996
 21
-74.49999999999987
 31
0.0
  0
ARC
  5
57F8
330
57EE
100
AcDbEntity
  8
AM_0 外形線1
100
AcDbCircle
 10
18.00000000000011
 20
-77.5
 30
0.0
 40
3.0
100
AcDbArc
 50
90.0
 51
180.0
  0
LINE
  5
57F9
330
57EE
100
AcDbEntity
  8
AM_0 外形線1
100
AcDbLine
 10
61.0
 20
-65.70921999999995
 30
0.0
 11
61.0
 21
0.0
 31
0.0
  0
ARC
  5
57FA
330
57EE
100
AcDbEntity
  8
AM_0 外形線1
100
AcDbCircle
 10
58.00000000000011
 20
-71.5
 30
0.0
 40
3.0
100
AcDbArc
 50
270.0
 51
0.0
  0
LINE
  5
57FB
330
57EE
100
AcDbEntity
  8
AM_0 外形線1
100
AcDbLine
 10
55.56737499999996
 20
-74.49999999999987
 30
0.0
 11
58.00000000000011
 21
-74.49999999999987
 31
0.0
  0
LINE
  5
57FC
330
57EE
100
AcDbEntity
  8
AM_0 外形線1
100
AcDbLine
 10
61.0
 20
-71.5
 30
0.0
 11
61.0
 21
-65.70921999999995
 31
0.0
  0
ARC
  5
57FD
330
57EE
100
AcDbEntity
  8
AM_0 外形線1
100
AcDbCircle
 10
46.99999999999988
 20
66.99999999999988
 30
0.0
 40
1.0
100
AcDbArc
 50
0.0
 51
90.0
  0
LINE
  5
57FE
330
57EE
100
AcDbEntity
  8
AM_0 外形線1
100
AcDbLine
 10
18.00000000000011
 20
74.49999999999987
 30
0.0
 11
58.00000000000011
 21
74.49999999999987
 31
0.0
  0
LINE
  5
57FF
330
57EE
100
AcDbEntity
  8
AM_0 外形線1
100
AcDbLine
 10
15.0
 20
98.19999999999993
 30
0.0
 11
15.0
 21
79.79999999999995
 31
0.0
  0
LINE
  5
5800
330
57EE
100
AcDbEntity
  8
AM_0 外形線1
100
AcDbLine
 10
15.0
 20
99.0
 30
0.0
 11
15.0
 21
94.49999999999986
 31
0.0
  0
LINE
  5
5801
330
57EE
100
AcDbEntity
  8
AM_0 外形線1
100
AcDbLine
 10
0.0
 20
94.49999999999986
 30
0.0
 11
0.0
 21
99.0
 31
0.0
  0
LINE
  5
5802
330
57EE
100
AcDbEntity
  8
AM_0 外形線1
100
AcDbLine
 10
17.5
 20
68.0000000000001
 30
0.0
 11
-3.000000000000113
 21
68.0000000000001
 31
0.0
  0
LINE
  5
5803
330
57EE
100
AcDbEntity
  8
AM_0 外形線1
100
AcDbLine
 10
0.0
 20
83.49999999999999
 30
0.0
 11
15.0
 21
83.49999999999999
 31
0.0
  0
LINE
  5
5804
330
57EE
100
AcDbEntity
  8
AM_0 外形線1
100
AcDbLine
 10
15.0
 20
94.49999999999986
 30
0.0
 11
0.0
 21
94.49999999999986
 31
0.0
  0
LINE
  5
5805
330
57EE
100
AcDbEntity
  8
AM_7 中心線
100
AcDbLine
 10
-26.99999999999989
 20
89.0
 30
0.0
 11
35.0
 21
89.0
 31
0.0
  0
LINE
  5
5806
330
57EE
100
AcDbEntity
  8
AM_0 外形線1
100
AcDbLine
 10
-3.000000000000113
 20
68.0000000000001
 30
0.0
 11
-3.000000000000113
 21
60.62292000000013
 31
0.0
  0
LINE
  5
5807
330
57EE
100
AcDbEntity
  8
AM_0 外形線1
100
AcDbLine
 10
0.0
 20
76.39999999999986
 30
0.0
 11
0.0
 21
83.49999999999999
 31
0.0
  0
LWPOLYLINE
  5
5808
330
57EE
100
AcDbEntity
  8
AM_0 外形線1
100
AcDbPolyline
 90
       49
 70
     0
 43
0.0
 10
1.200000000000044
 20
72.5
 10
1.30520750000005
 20
72.50755499999991
 10
1.408377499999915
 20
72.52962499999989
 10
1.512199999999892
 20
72.56714999999984
 10
1.610425000000076
 20
72.61759999999981
 10
1.709104999999908
 20
72.68426750000003
 10
1.800000000000181
 20
72.76125000000002
 10
2.060844999999972
 20
73.08992249999983
 10
2.239230000000134
 20
73.47499999999991
 10
2.329310000000076
 20
73.7898674999999
 10
2.381769999999959
 20
74.11138499999992
 10
2.395434999999905
 20
74.28039750000015
 10
2.400000000000089
 20
74.45000000000004
 10
2.395434999999905
 20
74.61960250000015
 10
2.381769999999959
 20
74.78861499999993
 10
2.329310000000076
 20
75.11013249999995
 10
2.239230000000134
 20
75.42499999999995
 10
2.060844999999972
 20
75.81007750000003
 10
1.800000000000181
 20
76.13875000000007
 10
1.709104999999908
 20
76.21573249999983
 10
1.610425000000076
 20
76.28240000000005
 10
1.512199999999892
 20
76.33284999999999
 10
1.408377499999915
 20
76.37037499999997
 10
1.30520750000005
 20
76.39244500000017
 10
1.200000000000044
 20
76.39999999999986
 10
1.094792500000039
 20
76.39244500000017
 10
0.9916225000001761
 20
76.37037499999997
 10
0.8878000000001975
 20
76.33284999999999
 10
0.7895750000000135
 20
76.28240000000005
 10
0.6908950000001825
 20
76.21573249999983
 10
0.5999999999999091
 20
76.13875000000007
 10
0.3391550000001189
 20
75.81007750000003
 10
0.1607699999999568
 20
75.42499999999995
 10
0.0706900000000133
 20
75.11013249999995
 10
0.0182300000001305
 20
74.78861499999993
 10
0.0045649999997295
 20
74.61960250000015
 10
0.0
 20
74.45000000000004
 10
0.0045649999997295
 20
74.28039750000015
 10
0.0182300000001305
 20
74.11138499999992
 10
0.0706900000000133
 20
73.7898674999999
 10
0.1607699999999568
 20
73.47499999999991
 10
0.3391550000001189
 20
73.08992249999983
 10
0.5999999999999091
 20
72.76125000000002
 10
0.6908950000001825
 20
72.68426750000003
 10
0.7895750000000135
 20
72.61759999999981
 10
0.8878000000001975
 20
72.56714999999984
 10
0.9916225000001761
 20
72.52962499999989
 10
1.094792500000039
 20
72.50755499999991
 10
1.200000000000044
 20
72.5
  0
LINE
  5
5809
330
57EE
100
AcDbEntity
  8
AM_0 外形線1
100
AcDbLine
 10
1.899999999999976
 20
76.39999999999986
 30
0.0
 11
0.0
 21
76.39999999999986
 31
0.0
  0
ARC
  5
580A
330
57EE
100
AcDbEntity
  8
AM_0 外形線1
100
AcDbCircle
 10
1.899999999999976
 20
75.90000000000009
 30
0.0
 40
0.5
100
AcDbArc
 50
0.0
 51
90.0
  0
LINE
  5
580B
330
57EE
100
AcDbEntity
  8
AM_0 外形線1
100
AcDbLine
 10
2.400000000000089
 20
73.0000000000001
 30
0.0
 11
2.400000000000089
 21
75.90000000000009
 31
0.0
  0
ARC
  5
580C
330
57EE
100
AcDbEntity
  8
AM_0 外形線1
100
AcDbCircle
 10
1.899999999999976
 20
73.0000000000001
 30
0.0
 40
0.5
100
AcDbArc
 50
270.0
 51
0.0
  0
LINE
  5
580D
330
57EE
100
AcDbEntity
  8
AM_0 外形線1
100
AcDbLine
 10
-2.5
 20
72.5
 30
0.0
 11
1.899999999999976
 21
72.5
 31
0.0
  0
LINE
  5
580E
330
57EE
100
AcDbEntity
  8
AM_0 外形線1
100
AcDbLine
 10
-3.000000000000113
 20
71.99999999999987
 30
0.0
 11
-2.5
 21
72.5
 31
0.0
  0
LINE
  5
580F
330
57EE
100
AcDbEntity
  8
AM_0 外形線1
100
AcDbLine
 10
-3.000000000000113
 20
68.0000000000001
 30
0.0
 11
-3.000000000000113
 21
71.99999999999987
 31
0.0
  0
LINE
  5
5810
330
57EE
100
AcDbEntity
  8
AM_0 外形線1
100
AcDbLine
 10
43.5
 20
66.31298500000013
 30
0.0
 11
43.5
 21
66.99999999999988
 31
0.0
  0
LINE
  5
5811
330
57EE
100
AcDbEntity
  8
AM_0 外形線1
100
AcDbLine
 10
18.5
 20
64.0
 30
0.0
 11
18.5
 21
66.99999999999988
 31
0.0
  0
LINE
  5
5812
330
57EE
100
AcDbEntity
  8
AM_7 中心線
100
AcDbLine
 10
16.5
 20
65.0
 30
0.0
 11
45.5000000000001
 21
65.0
 31
0.0
  0
LINE
  5
5813
330
57EE
100
AcDbEntity
  8
AM_3 隠れ線
100
AcDbLine
 10
21.5
 20
63.00000000000011
 30
0.0
 11
42.5
 21
63.00000000000011
 31
0.0
  0
LINE
  5
5814
330
57EE
100
AcDbEntity
  8
AM_0 外形線1
100
AcDbLine
 10
21.5
 20
63.00000000000011
 30
0.0
 11
19.49999999999988
 21
63.00000000000011
 31
0.0
  0
LINE
  5
5815
330
57EE
100
AcDbEntity
  8
AM_0 外形線1
100
AcDbLine
 10
19.49999999999988
 20
63.00000000000011
 30
0.0
 11
18.5
 21
64.0
 31
0.0
  0
LINE
  5
5816
330
57EE
100
AcDbEntity
  8
AM_0 外形線1
100
AcDbLine
 10
18.5
 20
64.0
 30
0.0
 11
18.5
 21
60.62292000000013
 31
0.0
  0
LINE
  5
5817
330
57EE
100
AcDbEntity
  8
AM_3 隠れ線
100
AcDbLine
 10
43.5
 20
64.0
 30
0.0
 11
42.5
 21
63.00000000000011
 31
0.0
  0
LINE
  5
5818
330
57EE
100
AcDbEntity
  8
AM_3 隠れ線
100
AcDbLine
 10
43.5
 20
66.31298500000013
 30
0.0
 11
43.5
 21
64.0
 31
0.0
  0
LINE
  5
5819
330
57EE
100
AcDbEntity
  8
AM_0 外形線1
100
AcDbLine
 10
18.5
 20
67.5
 30
0.0
 11
43.5
 21
67.5
 31
0.0
  0
LINE
  5
581A
330
57EE
100
AcDbEntity
  8
AM_0 外形線1
100
AcDbLine
 10
15.0
 20
83.49999999999999
 30
0.0
 11
15.0
 21
77.5
 31
0.0
  0
ARC
  5
581B
330
57EE
100
AcDbEntity
  8
AM_0 外形線1
100
AcDbCircle
 10
18.00000000000011
 20
77.5
 30
0.0
 40
3.0
100
AcDbArc
 50
180.0
 51
270.0
  0
ARC
  5
581C
330
57EE
100
AcDbEntity
  8
AM_0 外形線1
100
AcDbCircle
 10
17.5
 20
66.99999999999988
 30
0.0
 40
1.0
100
AcDbArc
 50
0.0
 51
90.0
  0
ARC
  5
581D
330
57EE
100
AcDbEntity
  8
AM_0 外形線1
100
AcDbCircle
 10
44.49999999999988
 20
66.99999999999988
 30
0.0
 40
1.0
100
AcDbArc
 50
90.0
 51
180.0
  0
LINE
  5
581E
330
57EE
100
AcDbEntity
  8
AM_0 外形線1
100
AcDbLine
 10
46.99999999999988
 20
68.0000000000001
 30
0.0
 11
44.49999999999988
 21
68.0000000000001
 31
0.0
  0
LINE
  5
581F
330
57EE
100
AcDbEntity
  8
AM_0 外形線1
100
AcDbLine
 10
1.0
 20
100.0
 30
0.0
 11
14.0
 21
100.0
 31
0.0
  0
LINE
  5
5820
330
57EE
100
AcDbEntity
  8
AM_0 外形線1
100
AcDbLine
 10
0.0
 20
99.0
 30
0.0
 11
1.0
 21
100.0
 31
0.0
  0
LINE
  5
5821
330
57EE
100
AcDbEntity
  8
AM_0 外形線1
100
AcDbLine
 10
14.0
 20
100.0
 30
0.0
 11
15.0
 21
99.0
 31
0.0
  0
LINE
  5
5822
330
57EE
100
AcDbEntity
  8
AM_0 外形線1
100
AcDbLine
 10
48.00000000000011
 20
61.25
 30
0.0
 11
48.00000000000011
 21
66.99999999999988
 31
0.0
  0
LINE
  5
5823
330
57EE
100
AcDbEntity
  8
AM_0 外形線1
100
AcDbLine
 10
61.0
 20
71.5
 30
0.0
 11
61.0
 21
61.25
 31
0.0
  0
LWPOLYLINE
  5
5824
330
57EE
100
AcDbEntity
  8
AM_0 外形線1
100
AcDbPolyline
 90
       49
 70
     0
 43
0.0
 10
50.69999999999982
 20
62.35000000000013
 10
50.71471999999993
 20
62.14398749999986
 10
50.75773000000004
 20
61.94192750000024
 10
50.83083499999975
 20
61.73865500000011
 10
50.92916749999996
 20
61.54625250000004
 10
51.05905000000007
 20
61.35304749999999
 10
51.20910249999997
 20
61.17499999999996
 10
51.84927249999986
 20
60.66444250000017
 10
52.5999999999999
 20
60.31484
 10
53.21350749999989
 20
60.13844500000004
 10
53.84013750000008
 20
60.03570250000006
 10
54.16948750000027
 20
60.0089375
 10
54.5
 20
60.0
 10
54.83051249999993
 20
60.0089375
 10
55.15986249999992
 20
60.03570250000006
 10
55.78649250000012
 20
60.13844500000004
 10
56.39999999999986
 20
60.31484
 10
57.1507274999999
 20
60.66444250000017
 10
57.79089750000003
 20
61.17499999999996
 10
57.94094999999993
 20
61.35304749999999
 10
58.07083250000005
 20
61.54625250000004
 10
58.1691649999998
 20
61.73865500000011
 10
58.24227000000019
 20
61.94192750000024
 10
58.28528000000005
 20
62.14398749999986
 10
58.29999999999972
 20
62.35000000000013
 10
58.28528000000005
 20
62.55601249999995
 10
58.24227000000019
 20
62.75807250000003
 10
58.1691649999998
 20
62.96134499999993
 10
58.07083250000005
 20
63.15374749999978
 10
57.94094999999993
 20
63.34695250000003
 10
57.79089750000003
 20
63.52499999999985
 10
57.1507274999999
 20
64.03555750000009
 10
56.39999999999986
 20
64.38516000000004
 10
55.78649250000012
 20
64.561555
 10
55.15986249999992
 20
64.66429749999997
 10
54.83051249999993
 20
64.69106250000004
 10
54.5
 20
64.70000000000005
 10
54.16948750000027
 20
64.69106250000004
 10
53.84013750000008
 20
64.66429749999997
 10
53.21350749999989
 20
64.561555
 10
52.5999999999999
 20
64.38516000000004
 10
51.84927249999986
 20
64.03555750000009
 10
51.20910249999997
 20
63.52499999999985
 10
51.05905000000007
 20
63.34695250000003
 10
50.92916749999996
 20
63.15374749999978
 10
50.83083499999975
 20
62.96134499999993
 10
50.75773000000004
 20
62.75807250000003
 10
50.71471999999993
 20
62.55601249999995
 10
50.69999999999982
 20
62.35000000000013
  0
ARC
  5
5825
330
57EE
100
AcDbEntity
  8
AM_0 外形線1
100
AcDbCircle
 10
57.79999999999995
 20
64.20000000000015
 30
0.0
 40
0.5
100
AcDbArc
 50
0.0
 51
90.0
  0
LINE
  5
5826
330
57EE
100
AcDbEntity
  8
AM_0 外形線1
100
AcDbLine
 10
50.69999999999993
 20
61.25
 30
0.0
 11
48.00000000000011
 21
61.25
 31
0.0
  0
LINE
  5
5827
330
57EE
100
AcDbEntity
  8
AM_0 外形線1
100
AcDbLine
 10
50.69999999999993
 20
64.20000000000015
 30
0.0
 11
50.69999999999993
 21
61.25
 31
0.0
  0
ARC
  5
5828
330
57EE
100
AcDbEntity
  8
AM_0 外形線1
100
AcDbCircle
 10
51.20000000000004
 20
64.20000000000015
 30
0.0
 40
0.5
100
AcDbArc
 50
90.0
 51
180.0
  0
LINE
  5
5829
330
57EE
100
AcDbEntity
  8
AM_0 外形線1
100
AcDbLine
 10
57.79999999999995
 20
64.70000000000005
 30
0.0
 11
51.20000000000004
 21
64.70000000000005
 31
0.0
  0
LINE
  5
582A
330
57EE
100
AcDbEntity
  8
AM_0 外形線1
100
AcDbLine
 10
50.69999999999993
 20
61.25
 30
0.0
 11
50.69999999999993
 21
60.0
 31
0.0
  0
LINE
  5
582B
330
57EE
100
AcDbEntity
  8
AM_0 外形線1
100
AcDbLine
 10
48.00000000000011
 20
61.25
 30
0.0
 11
48.00000000000011
 21
60.0
 31
0.0
  0
LINE
  5
582C
330
57EE
100
AcDbEntity
  8
AM_0 外形線1
100
AcDbLine
 10
58.29999999999984
 20
61.25
 30
0.0
 11
58.29999999999984
 21
64.20000000000015
 31
0.0
  0
LINE
  5
582D
330
57EE
100
AcDbEntity
  8
AM_0 外形線1
100
AcDbLine
 10
61.0
 20
61.25
 30
0.0
 11
58.29999999999984
 21
61.25
 31
0.0
  0
LINE
  5
582E
330
57EE
100
AcDbEntity
  8
AM_0 外形線1
100
AcDbLine
 10
61.0
 20
61.25
 30
0.0
 11
61.0
 21
60.0
 31
0.0
  0
LINE
  5
582F
330
57EE
100
AcDbEntity
  8
AM_0 外形線1
100
AcDbLine
 10
58.29999999999984
 20
61.25
 30
0.0
 11
58.29999999999984
 21
60.0
 31
0.0
  0
ARC
  5
5830
330
57EE
100
AcDbEntity
  8
AM_0 外形線1
100
AcDbCircle
 10
58.00000000000011
 20
71.5
 30
0.0
 40
3.0
100
AcDbArc
 50
0.0
 51
90.0
  0
INSERT
  5
5831
330
57EE
100
AcDbEntity
  8
AM_5 寸法線
100
AcDbBlockReference
  2
ロッカクアナツキプラグ R1／8
 10
7.5
 20
-23.03489500000012
 30
0.0
  0
ENDBLK
  5
57F0
330
57EE
100
AcDbEntity
  8
0
100
AcDbBlockEnd
  0
BLOCK
  5
599C
330
599B
100
AcDbEntity
  8
0
100
AcDbBlockBegin
  2
ケースＢ SSM200
 70
     0
 10
0.0
 20
0.0
 30
0.0
  3
ケースＢ SSM200
  1

  0
LINE
  5
599E
330
599B
100
AcDbEntity
  8
AM_0 外形線1
100
AcDbLine
 10
-15.0
 20
-99.0
 30
0.0
 11
-15.0
 21
0.0
 31
0.0
  0
LINE
  5
599F
330
599B
100
AcDbEntity
  8
AM_0 外形線1
100
AcDbLine
 10
-1.0
 20
-100.0
 30
0.0
 11
-14.0
 21
-100.0
 31
0.0
  0
LINE
  5
59A0
330
599B
100
AcDbEntity
  8
AM_7 中心線
100
AcDbLine
 10
20.22261221013434
 20
-89.0
 30
0.0
 11
-20.0
 21
-89.0
 31
0.0
  0
LINE
  5
59A1
330
599B
100
AcDbEntity
  8
AM_0 外形線1
100
AcDbLine
 10
-14.0
 20
-100.0
 30
0.0
 11
-15.0
 21
-99.0
 31
0.0
  0
LINE
  5
59A2
330
599B
100
AcDbEntity
  8
AM_0 外形線1
100
AcDbLine
 10
0.0
 20
-99.0
 30
0.0
 11
-1.0
 21
-100.0
 31
0.0
  0
LINE
  5
59A3
330
599B
100
AcDbEntity
  8
AM_3 隠れ線
100
AcDbLine
 10
-21.5
 20
63.00000000000011
 30
0.0
 11
-42.5
 21
63.00000000000011
 31
0.0
  0
LINE
  5
59A4
330
599B
100
AcDbEntity
  8
AM_7 中心線
100
AcDbLine
 10
-16.5
 20
65.0
 30
0.0
 11
-45.5000000000001
 21
65.0
 31
0.0
  0
LINE
  5
59A5
330
599B
100
AcDbEntity
  8
AM_0 外形線1
100
AcDbLine
 10
-18.00000000000011
 20
-74.49999999999987
 30
0.0
 11
-58.00000000000011
 21
-74.49999999999987
 31
0.0
  0
LINE
  5
59A6
330
599B
100
AcDbEntity
  8
AM_0 外形線1
100
AcDbLine
 10
-18.00000000000011
 20
74.49999999999987
 30
0.0
 11
-58.00000000000011
 21
74.49999999999987
 31
0.0
  0
LINE
  5
59A7
330
599B
100
AcDbEntity
  8
AM_0 外形線1
100
AcDbLine
 10
-18.5
 20
67.5
 30
0.0
 11
-43.5
 21
67.5
 31
0.0
  0
LINE
  5
59A8
330
599B
100
AcDbEntity
  8
AM_0 外形線1
100
AcDbLine
 10
-61.0
 20
-71.5
 30
0.0
 11
-61.0
 21
0.0
 31
0.0
  0
ARC
  5
59A9
330
599B
100
AcDbEntity
  8
AM_0 外形線1
100
AcDbCircle
 10
-58.00000000000011
 20
-71.5
 30
0.0
 40
3.0
100
AcDbArc
 50
180.0
 51
270.0
  0
LINE
  5
59AA
330
599B
100
AcDbEntity
  8
AM_0 外形線1
100
AcDbLine
 10
-43.5
 20
66.31298500000013
 30
0.0
 11
-43.5
 21
66.99999999999988
 31
0.0
  0
LINE
  5
59AB
330
599B
100
AcDbEntity
  8
AM_0 外形線1
100
AcDbLine
 10
-48.00000000000011
 20
61.25
 30
0.0
 11
-48.00000000000011
 21
66.99999999999988
 31
0.0
  0
LINE
  5
59AC
330
599B
100
AcDbEntity
  8
AM_0 外形線1
100
AcDbLine
 10
-61.0
 20
71.5
 30
0.0
 11
-61.0
 21
61.25
 31
0.0
  0
LWPOLYLINE
  5
59AD
330
599B
100
AcDbEntity
  8
AM_0 外形線1
100
AcDbPolyline
 90
       49
 70
     0
 43
0.0
 10
-50.69999999999982
 20
62.35000000000013
 10
-50.71471999999993
 20
62.55601249999995
 10
-50.75773000000004
 20
62.75807250000003
 10
-50.83083499999975
 20
62.96134499999993
 10
-50.92916749999996
 20
63.15374749999978
 10
-51.05905000000007
 20
63.34695250000003
 10
-51.20910249999997
 20
63.52499999999985
 10
-51.84927249999986
 20
64.03555750000009
 10
-52.5999999999999
 20
64.38516000000004
 10
-53.21350749999989
 20
64.561555
 10
-53.84013750000008
 20
64.66429749999997
 10
-54.16948750000027
 20
64.69106250000004
 10
-54.5
 20
64.70000000000005
 10
-54.83051249999993
 20
64.69106250000004
 10
-55.15986250000015
 20
64.66429749999997
 10
-55.78649250000012
 20
64.561555
 10
-56.39999999999986
 20
64.38516000000004
 10
-57.1507274999999
 20
64.03555750000009
 10
-57.79089750000003
 20
63.52499999999985
 10
-57.94094999999993
 20
63.34695250000003
 10
-58.07083250000005
 20
63.15374749999978
 10
-58.1691649999998
 20
62.96134499999993
 10
-58.24227000000019
 20
62.75807250000003
 10
-58.28528000000005
 20
62.55601249999995
 10
-58.29999999999972
 20
62.35000000000013
 10
-58.28528000000005
 20
62.14398749999986
 10
-58.24227000000019
 20
61.94192750000024
 10
-58.1691649999998
 20
61.73865500000011
 10
-58.07083250000005
 20
61.54625250000004
 10
-57.94094999999993
 20
61.35304749999999
 10
-57.79089750000003
 20
61.17499999999996
 10
-57.1507274999999
 20
60.66444250000017
 10
-56.39999999999986
 20
60.31484
 10
-55.78649250000012
 20
60.13844500000004
 10
-55.15986250000015
 20
60.03570250000006
 10
-54.83051249999993
 20
60.0089375
 10
-54.5
 20
60.0
 10
-54.16948750000027
 20
60.0089375
 10
-53.84013750000008
 20
60.03570250000006
 10
-53.21350749999989
 20
60.13844500000004
 10
-52.5999999999999
 20
60.31484
 10
-51.84927249999986
 20
60.66444250000017
 10
-51.20910249999997
 20
61.17499999999996
 10
-51.05905000000007
 20
61.35304749999999
 10
-50.92916749999996
 20
61.54625250000004
 10
-50.83083499999975
 20
61.73865500000011
 10
-50.75773000000004
 20
61.94192750000024
 10
-50.71471999999993
 20
62.14398749999986
 10
-50.69999999999982
 20
62.35000000000013
  0
LINE
  5
59AE
330
599B
100
AcDbEntity
  8
AM_0 外形線1
100
AcDbLine
 10
-57.79999999999995
 20
64.70000000000005
 30
0.0
 11
-51.20000000000004
 21
64.70000000000005
 31
0.0
  0
ARC
  5
59AF
330
599B
100
AcDbEntity
  8
AM_0 外形線1
100
AcDbCircle
 10
-57.79999999999995
 20
64.20000000000015
 30
0.0
 40
0.5
100
AcDbArc
 50
90.0
 51
180.0
  0
LINE
  5
59B0
330
599B
100
AcDbEntity
  8
AM_0 外形線1
100
AcDbLine
 10
-58.29999999999984
 20
61.25
 30
0.0
 11
-58.29999999999984
 21
64.20000000000015
 31
0.0
  0
LINE
  5
59B1
330
599B
100
AcDbEntity
  8
AM_0 外形線1
100
AcDbLine
 10
-58.29999999999984
 20
61.25
 30
0.0
 11
-58.29999999999984
 21
60.0
 31
0.0
  0
LINE
  5
59B2
330
599B
100
AcDbEntity
  8
AM_0 外形線1
100
AcDbLine
 10
-61.0
 20
61.25
 30
0.0
 11
-58.29999999999984
 21
61.25
 31
0.0
  0
LINE
  5
59B3
330
599B
100
AcDbEntity
  8
AM_0 外形線1
100
AcDbLine
 10
-61.0
 20
61.25
 30
0.0
 11
-61.0
 21
60.0
 31
0.0
  0
LINE
  5
59B4
330
599B
100
AcDbEntity
  8
AM_0 外形線1
100
AcDbLine
 10
-50.69999999999993
 20
61.25
 30
0.0
 11
-48.00000000000011
 21
61.25
 31
0.0
  0
LINE
  5
59B5
330
599B
100
AcDbEntity
  8
AM_0 外形線1
100
AcDbLine
 10
-50.69999999999993
 20
64.20000000000015
 30
0.0
 11
-50.69999999999993
 21
61.25
 31
0.0
  0
ARC
  5
59B6
330
599B
100
AcDbEntity
  8
AM_0 外形線1
100
AcDbCircle
 10
-51.20000000000004
 20
64.20000000000015
 30
0.0
 40
0.5
100
AcDbArc
 50
0.0
 51
90.0
  0
LINE
  5
59B7
330
599B
100
AcDbEntity
  8
AM_0 外形線1
100
AcDbLine
 10
-48.00000000000011
 20
61.25
 30
0.0
 11
-48.00000000000011
 21
60.0
 31
0.0
  0
LINE
  5
59B8
330
599B
100
AcDbEntity
  8
AM_0 外形線1
100
AcDbLine
 10
-50.69999999999993
 20
61.25
 30
0.0
 11
-50.69999999999993
 21
60.0
 31
0.0
  0
LINE
  5
59B9
330
599B
100
AcDbEntity
  8
AM_3 隠れ線
100
AcDbLine
 10
-43.5
 20
64.0
 30
0.0
 11
-42.5
 21
63.00000000000011
 31
0.0
  0
LINE
  5
59BA
330
599B
100
AcDbEntity
  8
AM_3 隠れ線
100
AcDbLine
 10
-43.5
 20
66.31298500000013
 30
0.0
 11
-43.5
 21
64.0
 31
0.0
  0
ARC
  5
59BB
330
599B
100
AcDbEntity
  8
AM_0 外形線1
100
AcDbCircle
 10
-58.00000000000011
 20
71.5
 30
0.0
 40
3.0
100
AcDbArc
 50
90.0
 51
180.0
  0
ARC
  5
59BC
330
599B
100
AcDbEntity
  8
AM_0 外形線1
100
AcDbCircle
 10
-44.49999999999988
 20
66.99999999999988
 30
0.0
 40
1.0
100
AcDbArc
 50
0.0
 51
90.0
  0
LINE
  5
59BD
330
599B
100
AcDbEntity
  8
AM_0 外形線1
100
AcDbLine
 10
-46.99999999999988
 20
68.0000000000001
 30
0.0
 11
-44.49999999999988
 21
68.0000000000001
 31
0.0
  0
ARC
  5
59BE
330
599B
100
AcDbEntity
  8
AM_0 外形線1
100
AcDbCircle
 10
-46.99999999999988
 20
66.99999999999988
 30
0.0
 40
1.0
100
AcDbArc
 50
90.0
 51
180.0
  0
ARC
  5
59BF
330
599B
100
AcDbEntity
  8
AM_0 外形線1
100
AcDbCircle
 10
-18.00000000000011
 20
-77.5
 30
0.0
 40
3.0
100
AcDbArc
 50
0.0
 51
90.0
  0
LINE
  5
59C1
330
599B
100
AcDbEntity
  8
AM_0 外形線1
100
AcDbLine
 10
-18.5
 20
64.0
 30
0.0
 11
-18.5
 21
66.99999999999988
 31
0.0
  0
LINE
  5
59C2
330
599B
100
AcDbEntity
  8
AM_0 外形線1
100
AcDbLine
 10
-4.0
 20
68.0000000000001
 30
0.0
 11
-4.0
 21
60.62292000000013
 31
0.0
  0
LINE
  5
59C3
330
599B
100
AcDbEntity
  8
AM_0 外形線1
100
AcDbLine
 10
-21.5
 20
63.00000000000011
 30
0.0
 11
-19.49999999999988
 21
63.00000000000011
 31
0.0
  0
LINE
  5
59C4
330
599B
100
AcDbEntity
  8
AM_0 外形線1
100
AcDbLine
 10
-19.49999999999988
 20
63.00000000000011
 30
0.0
 11
-18.5
 21
64.0
 31
0.0
  0
LINE
  5
59C5
330
599B
100
AcDbEntity
  8
AM_0 外形線1
100
AcDbLine
 10
-18.5
 20
64.0
 30
0.0
 11
-18.5
 21
60.62292000000013
 31
0.0
  0
LINE
  5
59C6
330
599B
100
AcDbEntity
  8
AM_0 外形線1
100
AcDbLine
 10
-17.5
 20
68.0000000000001
 30
0.0
 11
-4.0
 21
68.0000000000001
 31
0.0
  0
LINE
  5
59C7
330
599B
100
AcDbEntity
  8
AM_0 外形線1
100
AcDbLine
 10
0.0
 20
83.49999999999999
 30
0.0
 11
-15.0
 21
83.49999999999999
 31
0.0
  0
LINE
  5
59C8
330
599B
100
AcDbEntity
  8
AM_0 外形線1
100
AcDbLine
 10
-15.0
 20
94.49999999999986
 30
0.0
 11
0.0
 21
94.49999999999986
 31
0.0
  0
LINE
  5
59C9
330
599B
100
AcDbEntity
  8
AM_0 外形線1
100
AcDbLine
 10
-15.0
 20
99.0
 30
0.0
 11
-15.0
 21
77.5
 31
0.0
  0
ARC
  5
59CA
330
599B
100
AcDbEntity
  8
AM_0 外形線1
100
AcDbCircle
 10
-17.5
 20
66.99999999999988
 30
0.0
 40
1.0
100
AcDbArc
 50
90.0
 51
180.0
  0
ARC
  5
59CB
330
599B
100
AcDbEntity
  8
AM_0 外形線1
100
AcDbCircle
 10
-18.00000000000011
 20
77.5
 30
0.0
 40
3.0
100
AcDbArc
 50
270.0
 51
0.0
  0
LINE
  5
59CC
330
599B
100
AcDbEntity
  8
AM_0 外形線1
100
AcDbLine
 10
0.0
 20
73.0000000000001
 30
0.0
 11
0.0
 21
83.49999999999999
 31
0.0
  0
LINE
  5
59CD
330
599B
100
AcDbEntity
  8
AM_0 外形線1
100
AcDbLine
 10
-4.0
 20
72.5
 30
0.0
 11
-0.5000000000001137
 21
72.5
 31
0.0
  0
LINE
  5
59CE
330
599B
100
AcDbEntity
  8
AM_0 外形線1
100
AcDbLine
 10
-4.0
 20
68.0000000000001
 30
0.0
 11
-4.0
 21
72.5
 31
0.0
  0
LINE
  5
59CF
330
599B
100
AcDbEntity
  8
AM_0 外形線1
100
AcDbLine
 10
-0.5000000000001137
 20
72.5
 30
0.0
 11
0.0
 21
73.0000000000001
 31
0.0
  0
LINE
  5
59D0
330
599B
100
AcDbEntity
  8
AM_0 外形線1
100
AcDbLine
 10
-1.0
 20
100.0
 30
0.0
 11
-14.0
 21
100.0
 31
0.0
  0
LINE
  5
59D1
330
599B
100
AcDbEntity
  8
AM_0 外形線1
100
AcDbLine
 10
-14.0
 20
100.0
 30
0.0
 11
-15.0
 21
99.0
 31
0.0
  0
LINE
  5
59D2
330
599B
100
AcDbEntity
  8
AM_0 外形線1
100
AcDbLine
 10
0.0
 20
99.0
 30
0.0
 11
-1.0
 21
100.0
 31
0.0
  0
LINE
  5
5A55
330
599B
100
AcDbEntity
  8
AM_0 外形線1
100
AcDbLine
 10
0.0
 20
99.0
 30
0.0
 11
0.0
 21
94.49999999999986
 31
0.0
  0
LINE
  5
5A56
330
599B
100
AcDbEntity
  8
AM_0 外形線1
100
AcDbLine
 10
0.0
 20
-99.0
 30
0.0
 11
0.0
 21
0.0
 31
0.0
  0
ENDBLK
  5
599D
330
599B
100
AcDbEntity
  8
0
100
AcDbBlockEnd
  0
BLOCK
  5
5AF8
330
5AF7
100
AcDbEntity
  8
0
100
AcDbBlockBegin
  2
センタＡ SSM200
 70
     0
 10
0.0
 20
0.0
 30
0.0
  3
センタＡ SSM200
  1

  0
LINE
  5
5AFA
330
5AF7
100
AcDbEntity
  8
AM_0 外形線1
100
AcDbLine
 10
0.0
 20
58.5
 30
0.0
 11
0.0
 21
0.0
 31
0.0
  0
LINE
  5
5AFB
330
5AF7
100
AcDbEntity
  8
AM_0 外形線1
100
AcDbLine
 10
100.0
 20
-56.39999999999986
 30
0.0
 11
100.0
 21
56.39999999999986
 31
0.0
  0
LINE
  5
5AFC
330
5AF7
100
AcDbEntity
  8
AM_0 外形線1
100
AcDbLine
 10
66.99999999999988
 20
60.0
 30
0.0
 11
40.5000000000001
 21
60.0
 31
0.0
  0
LINE
  5
5AFD
330
5AF7
100
AcDbEntity
  8
AM_0 外形線1
100
AcDbLine
 10
16.0
 20
59.0
 30
0.0
 11
0.5000000000001137
 21
59.0
 31
0.0
  0
LINE
  5
5AFE
330
5AF7
100
AcDbEntity
  8
AM_0 外形線1
100
AcDbLine
 10
0.5000000000001137
 20
59.0
 30
0.0
 11
0.0
 21
58.5
 31
0.0
  0
LINE
  5
5AFF
330
5AF7
100
AcDbEntity
  8
AM_0 外形線1
100
AcDbLine
 10
17.5
 20
66.7863175
 30
0.0
 11
16.5
 21
65.64391999999998
 31
0.0
  0
ARC
  5
5B00
330
5AF7
100
AcDbEntity
  8
AM_0 外形線1
100
AcDbCircle
 10
26.5
 20
0.0
 30
0.0
 40
67.39
100
AcDbArc
 50
79.31044599999053
 51
97.67483799999347
  0
LINE
  5
5B01
330
5AF7
100
AcDbEntity
  8
AM_7 中心線
100
AcDbLine
 10
26.5
 20
72.3900000000001
 30
0.0
 11
26.5
 21
57.25
 31
0.0
  0
ARC
  5
5B04
330
5AF7
100
AcDbEntity
  8
AM_0 外形線1
100
AcDbCircle
 10
16.0
 20
59.49999999999988
 30
0.0
 40
0.5
100
AcDbArc
 50
270.0
 51
0.0
  0
LINE
  5
5B05
330
5AF7
100
AcDbEntity
  8
AM_0 外形線1
100
AcDbLine
 10
16.5
 20
65.64391999999998
 30
0.0
 11
16.5
 21
59.49999999999988
 31
0.0
  0
LINE
  5
5B06
330
5AF7
100
AcDbEntity
  8
AM_0 外形線1
100
AcDbLine
 10
40.0
 20
65.02395000000001
 30
0.0
 11
39.0
 21
66.22055750000015
 31
0.0
  0
LINE
  5
5B07
330
5AF7
100
AcDbEntity
  8
AM_0 外形線1
100
AcDbLine
 10
40.0
 20
60.50000000000011
 30
0.0
 11
40.0
 21
65.02395000000001
 31
0.0
  0
ARC
  5
5B08
330
5AF7
100
AcDbEntity
  8
AM_0 外形線1
100
AcDbCircle
 10
40.5000000000001
 20
60.50000000000011
 30
0.0
 40
0.5
100
AcDbArc
 50
180.0
 51
270.0
  0
LINE
  5
5B09
330
5AF7
100
AcDbEntity
  8
AM_0 外形線1
100
AcDbLine
 10
96.99999999999988
 20
59.39999999999997
 30
0.0
 11
69.0
 21
59.39999999999997
 31
0.0
  0
LINE
  5
5B0A
330
5AF7
100
AcDbEntity
  8
AM_0 外形線1
100
AcDbLine
 10
69.0
 20
59.39999999999997
 30
0.0
 11
66.99999999999988
 21
60.0
 31
0.0
  0
ARC
  5
5B0B
330
5AF7
100
AcDbEntity
  8
AM_0 外形線1
100
AcDbCircle
 10
96.99999999999988
 20
56.39999999999986
 30
0.0
 40
3.0
100
AcDbArc
 50
0.0
 51
90.0
  0
LINE
  5
5B0D
330
5AF7
100
AcDbEntity
  8
AM_0 外形線1
100
AcDbLine
 10
0.0
 20
30.0
 30
0.0
 11
100.0
 21
30.0
 31
0.0
  0
LINE
  5
5B47
330
5AF7
100
AcDbEntity
  8
AM_0 外形線1
100
AcDbLine
 10
69.0
 20
-59.39999999999997
 30
0.0
 11
69.0
 21
0.0
 31
0.0
  0
LINE
  5
5B48
330
5AF7
100
AcDbEntity
  8
AM_0 外形線1
100
AcDbLine
 10
66.99999999999988
 20
-60.0
 30
0.0
 11
66.99999999999988
 21
0.0
 31
0.0
  0
LINE
  5
5B49
330
5AF7
100
AcDbEntity
  8
AM_0 外形線1
100
AcDbLine
 10
69.0
 20
-59.39999999999997
 30
0.0
 11
96.99999999999988
 21
-59.39999999999997
 31
0.0
  0
LINE
  5
5B4A
330
5AF7
100
AcDbEntity
  8
AM_0 外形線1
100
AcDbLine
 10
56.0
 20
-60.0
 30
0.0
 11
66.99999999999988
 21
-60.0
 31
0.0
  0
LINE
  5
5B4B
330
5AF7
100
AcDbEntity
  8
AM_0 外形線1
100
AcDbLine
 10
66.99999999999988
 20
-60.0
 30
0.0
 11
69.0
 21
-59.39999999999997
 31
0.0
  0
ARC
  5
5B4C
330
5AF7
100
AcDbEntity
  8
AM_0 外形線1
100
AcDbCircle
 10
96.99999999999988
 20
-56.39999999999986
 30
0.0
 40
3.0
100
AcDbArc
 50
270.0
 51
0.0
  0
ARC
  5
7EE6
330
5AF7
100
AcDbEntity
  8
AM_0 外形線1
100
AcDbCircle
 10
26.5
 20
0.0
 30
0.0
 40
62.25000000000012
100
AcDbArc
 50
77.47488924335925
 51
99.24419525450858
  0
ARC
  5
7EE7
330
5AF7
100
AcDbEntity
  8
AM_7 中心線
100
AcDbCircle
 10
26.5
 20
0.0
 30
0.0
 40
65.0
100
AcDbArc
 50
75.29477489160176
 51
101.5369590328181
  0
ENDBLK
  5
5AF9
330
5AF7
100
AcDbEntity
  8
0
100
AcDbBlockEnd
  0
BLOCK
  5
5BDD
330
5BDC
100
AcDbEntity
  8
0
100
AcDbBlockBegin
  2
センタＢ SSM200
 70
     0
 10
0.0
 20
0.0
 30
0.0
  3
センタＢ SSM200
  1

  0
ARC
  5
5BE0
330
5BDC
100
AcDbEntity
  8
AM_0 外形線1
100
AcDbCircle
 10
-26.5
 20
0.0
 30
0.0
 40
67.39
100
AcDbArc
 50
82.32516200000654
 51
100.6895540000094
  0
LINE
  5
5BE2
330
5BDC
100
AcDbEntity
  8
AM_0 外形線1
100
AcDbLine
 10
-100.0
 20
-56.39999999999986
 30
0.0
 11
-100.0
 21
56.39999999999986
 31
0.0
  0
LINE
  5
5BE3
330
5BDC
100
AcDbEntity
  8
AM_0 外形線1
100
AcDbLine
 10
-69.0
 20
-59.39999999999997
 30
0.0
 11
-69.0
 21
0.0
 31
0.0
  0
LINE
  5
5BE4
330
5BDC
100
AcDbEntity
  8
AM_0 外形線1
100
AcDbLine
 10
-66.99999999999988
 20
-60.0
 30
0.0
 11
-66.99999999999988
 21
0.0
 31
0.0
  0
LINE
  5
5BE5
330
5BDC
100
AcDbEntity
  8
AM_0 外形線1
100
AcDbLine
 10
-69.0
 20
-59.39999999999997
 30
0.0
 11
-97.0
 21
-59.39999999999997
 31
0.0
  0
ARC
  5
5BE6
330
5BDC
100
AcDbEntity
  8
AM_0 外形線1
100
AcDbCircle
 10
-97.0
 20
-56.39999999999986
 30
0.0
 40
3.0
100
AcDbArc
 50
180.0
 51
270.0
  0
LINE
  5
5BE7
330
5BDC
100
AcDbEntity
  8
AM_0 外形線1
100
AcDbLine
 10
-56.0
 20
-60.0
 30
0.0
 11
-66.99999999999988
 21
-60.0
 31
0.0
  0
LINE
  5
5BE8
330
5BDC
100
AcDbEntity
  8
AM_0 外形線1
100
AcDbLine
 10
-66.99999999999988
 20
-60.0
 30
0.0
 11
-69.0
 21
-59.39999999999997
 31
0.0
  0
LINE
  5
5BE9
330
5BDC
100
AcDbEntity
  8
AM_0 外形線1
100
AcDbLine
 10
-97.0
 20
59.39999999999997
 30
0.0
 11
-69.0
 21
59.39999999999997
 31
0.0
  0
ARC
  5
5BEA
330
5BDC
100
AcDbEntity
  8
AM_0 外形線1
100
AcDbCircle
 10
-97.0
 20
56.39999999999986
 30
0.0
 40
3.0
100
AcDbArc
 50
90.0
 51
180.0
  0
LINE
  5
5BEB
330
5BDC
100
AcDbEntity
  8
AM_0 外形線1
100
AcDbLine
 10
-66.99999999999988
 20
60.0
 30
0.0
 11
-40.5000000000001
 21
60.0
 31
0.0
  0
LINE
  5
5BEC
330
5BDC
100
AcDbEntity
  8
AM_0 外形線1
100
AcDbLine
 10
-69.0
 20
59.39999999999997
 30
0.0
 11
-66.99999999999988
 21
60.0
 31
0.0
  0
LINE
  5
5BED
330
5BDC
100
AcDbEntity
  8
AM_0 外形線1
100
AcDbLine
 10
-40.0
 20
65.02395000000001
 30
0.0
 11
-39.0
 21
66.22055750000015
 31
0.0
  0
LINE
  5
5BEE
330
5BDC
100
AcDbEntity
  8
AM_0 外形線1
100
AcDbLine
 10
-40.0
 20
60.50000000000011
 30
0.0
 11
-40.0
 21
65.02395000000001
 31
0.0
  0
ARC
  5
5BEF
330
5BDC
100
AcDbEntity
  8
AM_0 外形線1
100
AcDbCircle
 10
-40.5000000000001
 20
60.50000000000011
 30
0.0
 40
0.5
100
AcDbArc
 50
270.0
 51
0.0
  0
LINE
  5
5BF0
330
5BDC
100
AcDbEntity
  8
AM_0 外形線1
100
AcDbLine
 10
0.0
 20
58.5
 30
0.0
 11
0.0
 21
0.0
 31
0.0
  0
LINE
  5
5BF1
330
5BDC
100
AcDbEntity
  8
AM_0 外形線1
100
AcDbLine
 10
-17.5
 20
66.7863175
 30
0.0
 11
-16.5
 21
65.64391999999998
 31
0.0
  0
LINE
  5
5BF2
330
5BDC
100
AcDbEntity
  8
AM_7 中心線
100
AcDbLine
 10
-26.5
 20
72.3900000000001
 30
0.0
 11
-26.5
 21
57.25
 31
0.0
  0
LINE
  5
5BF3
330
5BDC
100
AcDbEntity
  8
AM_0 外形線1
100
AcDbLine
 10
-16.0
 20
59.0
 30
0.0
 11
-0.5000000000001137
 21
59.0
 31
0.0
  0
ARC
  5
5BF4
330
5BDC
100
AcDbEntity
  8
AM_0 外形線1
100
AcDbCircle
 10
-16.0
 20
59.49999999999988
 30
0.0
 40
0.5
100
AcDbArc
 50
180.0
 51
270.0
  0
LINE
  5
5BF5
330
5BDC
100
AcDbEntity
  8
AM_0 外形線1
100
AcDbLine
 10
-16.5
 20
65.64391999999998
 30
0.0
 11
-16.5
 21
59.49999999999988
 31
0.0
  0
LINE
  5
5BF7
330
5BDC
100
AcDbEntity
  8
AM_0 外形線1
100
AcDbLine
 10
-0.5000000000001137
 20
59.0
 30
0.0
 11
0.0
 21
58.5
 31
0.0
  0
LINE
  5
5BF9
330
5BDC
100
AcDbEntity
  8
AM_0 外形線1
100
AcDbLine
 10
0.0
 20
30.0
 30
0.0
 11
-100.0
 21
30.0
 31
0.0
  0
ARC
  5
7E47
330
5BDC
100
AcDbEntity
  8
AM_0 外形線1
100
AcDbCircle
 10
-26.5
 20
0.0
 30
0.0
 40
62.25000000000012
100
AcDbArc
 50
80.7558047454882
 51
102.5251107566407
  0
ARC
  5
7E48
330
5BDC
100
AcDbEntity
  8
AM_7 中心線
100
AcDbCircle
 10
-26.5
 20
0.0
 30
0.0
 40
65.0
100
AcDbArc
 50
78.46304096718505
 51
104.705225108395
  0
ENDBLK
  5
5BDE
330
5BDC
100
AcDbEntity
  8
0
100
AcDbBlockEnd
  0
BLOCK
  5
5D46
330
5D45
100
AcDbEntity
  8
0
100
AcDbBlockBegin
  2
リーマボルト SSM200 M10
 70
     0
 10
0.0
 20
0.0
 30
0.0
  3
リーマボルト SSM200 M10
  1

  0
ARC
  5
5D48
330
5D45
100
AcDbEntity
  8
AM_0 外形線1
100
AcDbCircle
 10
36.13821000000007
 20
7.353737499999737
 30
0.0
 40
4.36179
100
AcDbArc
 50
325.8861589999972
 51
34.11384100000282
  0
LINE
  5
5D49
330
5D45
100
AcDbEntity
  8
AM_0 外形線1
100
AcDbLine
 10
32.5
 20
-9.799999999999952
 30
0.0
 11
32.5
 21
9.79999999999984
 31
0.0
  0
LINE
  5
5D4A
330
5D45
100
AcDbEntity
  8
AM_0 外形線1
100
AcDbLine
 10
40.5000000000001
 20
8.499999999999886
 30
0.0
 11
40.5000000000001
 21
-8.5
 31
0.0
  0
ARC
  5
5D4B
330
5D45
100
AcDbEntity
  8
AM_0 外形線1
100
AcDbCircle
 10
-2.63821000000007
 20
7.353737499999737
 30
0.0
 40
4.36179
100
AcDbArc
 50
145.8861589999971
 51
214.1138410000028
  0
LINE
  5
5D4C
330
5D45
100
AcDbEntity
  8
AM_0 外形線1
100
AcDbLine
 10
-6.999999999999886
 20
8.499999999999886
 30
0.0
 11
-6.999999999999886
 21
-8.5
 31
0.0
  0
ARC
  5
5D4D
330
5D45
100
AcDbEntity
  8
AM_0 外形線1
100
AcDbCircle
 10
1.0
 20
-5.500000000000113
 30
0.0
 40
0.5
100
AcDbArc
 50
0.0
 51
90.0
  0
ARC
  5
5D4E
330
5D45
100
AcDbEntity
  8
AM_0 外形線1
100
AcDbCircle
 10
1.0
 20
5.49999999999977
 30
0.0
 40
0.5
100
AcDbArc
 50
270.0
 51
0.0
  0
ARC
  5
5D4F
330
5D45
100
AcDbEntity
  8
AM_0 外形線1
100
AcDbCircle
 10
-2.63821000000007
 20
-7.353737500000192
 30
0.0
 40
4.36179
100
AcDbArc
 50
145.8861589999971
 51
214.1138410000028
  0
LINE
  5
5D50
330
5D45
100
AcDbEntity
  8
AM_0 外形線1
100
AcDbLine
 10
-6.249444999999922
 20
-9.799999999999952
 30
0.0
 11
0.0
 21
-9.799999999999952
 31
0.0
  0
LINE
  5
5D51
330
5D45
100
AcDbEntity
  8
AM_0 外形線1
100
AcDbLine
 10
0.5000000000001137
 20
-5.000000000000113
 30
0.0
 11
1.0
 21
-5.000000000000113
 31
0.0
  0
ARC
  5
5D52
330
5D45
100
AcDbEntity
  8
AM_0 外形線1
100
AcDbCircle
 10
0.5000000000001137
 20
-5.500000000000113
 30
0.0
 40
0.5
100
AcDbArc
 50
90.0
 51
180.0
  0
LINE
  5
5D53
330
5D45
100
AcDbEntity
  8
AM_0 外形線1
100
AcDbLine
 10
0.5000000000001137
 20
4.999999999999886
 30
0.0
 11
1.0
 21
4.999999999999886
 31
0.0
  0
ARC
  5
5D54
330
5D45
100
AcDbEntity
  8
AM_0 外形線1
100
AcDbCircle
 10
9.418952500000159
 20
-0.0000000000001137
 30
0.0
 40
16.4189525
100
AcDbArc
 50
162.6089940000013
 51
197.3910059999987
  0
LINE
  5
5D55
330
5D45
100
AcDbEntity
  8
AM_0 外形線1
100
AcDbLine
 10
0.0
 20
-4.907477500000027
 30
0.0
 11
-6.249444999999922
 21
-4.907477500000027
 31
0.0
  0
LINE
  5
5D56
330
5D45
100
AcDbEntity
  8
AM_0 外形線1
100
AcDbLine
 10
0.0
 20
4.907477499999912
 30
0.0
 11
-6.249444999999922
 21
4.907477499999912
 31
0.0
  0
LINE
  5
5D57
330
5D45
100
AcDbEntity
  8
AM_0 外形線1
100
AcDbLine
 10
1.5
 20
-5.500000000000113
 30
0.0
 11
1.5
 21
5.49999999999977
 31
0.0
  0
LINE
  5
5D58
330
5D45
100
AcDbEntity
  8
AM_4 細線
100
AcDbLine
 10
40.5000000000001
 20
-4.250000000000113
 30
0.0
 11
44.75
 21
-4.250000000000113
 31
0.0
  0
LINE
  5
5D59
330
5D45
100
AcDbEntity
  8
AM_4 細線
100
AcDbLine
 10
40.5000000000001
 20
4.249999999999771
 30
0.0
 11
44.75
 21
4.249999999999771
 31
0.0
  0
LINE
  5
5D5A
330
5D45
100
AcDbEntity
  8
AM_0 外形線1
100
AcDbLine
 10
44.0
 20
-5.000000000000113
 30
0.0
 11
40.5000000000001
 21
-5.000000000000113
 31
0.0
  0
LINE
  5
5D5B
330
5D45
100
AcDbEntity
  8
AM_0 外形線1
100
AcDbLine
 10
40.5000000000001
 20
4.999999999999886
 30
0.0
 11
44.0
 21
4.999999999999886
 31
0.0
  0
ARC
  5
5D5C
330
5D45
100
AcDbEntity
  8
AM_0 外形線1
100
AcDbCircle
 10
36.13821000000007
 20
-7.353737500000192
 30
0.0
 40
4.36179
100
AcDbArc
 50
325.8861589999972
 51
34.11384100000282
  0
LINE
  5
5D5D
330
5D45
100
AcDbEntity
  8
AM_0 外形線1
100
AcDbLine
 10
30.0
 20
-9.200000000000159
 30
0.0
 11
32.5
 21
-9.200000000000159
 31
0.0
  0
LINE
  5
5D5E
330
5D45
100
AcDbEntity
  8
AM_0 外形線1
100
AcDbLine
 10
39.74944499999992
 20
-9.799999999999952
 30
0.0
 11
32.5
 21
-9.799999999999952
 31
0.0
  0
LINE
  5
5D5F
330
5D45
100
AcDbEntity
  8
AM_0 外形線1
100
AcDbLine
 10
40.5000000000001
 20
-8.5
 30
0.0
 11
39.74944499999992
 21
-9.799999999999952
 31
0.0
  0
LINE
  5
5D60
330
5D45
100
AcDbEntity
  8
AM_0 外形線1
100
AcDbLine
 10
32.5
 20
0.8333324999997556
 30
0.0
 11
30.0
 21
-1.666667500000244
 31
0.0
  0
LINE
  5
5D61
330
5D45
100
AcDbEntity
  8
AM_0 外形線1
100
AcDbLine
 10
32.5
 20
1.666667499999789
 30
0.0
 11
30.0
 21
-0.8333325000002105
 31
0.0
  0
LINE
  5
5D62
330
5D45
100
AcDbEntity
  8
AM_0 外形線1
100
AcDbLine
 10
28.00000000000011
 20
-4.922650000000088
 30
0.0
 11
30.0
 21
-4.922650000000088
 31
0.0
  0
LINE
  5
5D63
330
5D45
100
AcDbEntity
  8
AM_0 外形線1
100
AcDbLine
 10
28.00000000000011
 20
4.922649999999974
 30
0.0
 11
30.0
 21
4.922649999999974
 31
0.0
  0
LINE
  5
5D64
330
5D45
100
AcDbEntity
  8
AM_0 外形線1
100
AcDbLine
 10
26.99999999999989
 20
5.49999999999977
 30
0.0
 11
26.99999999999989
 21
-5.500000000000113
 31
0.0
  0
LINE
  5
5D65
330
5D45
100
AcDbEntity
  8
AM_0 外形線1
100
AcDbLine
 10
28.00000000000011
 20
-4.922650000000088
 30
0.0
 11
26.99999999999989
 21
-5.500000000000113
 31
0.0
  0
LINE
  5
5D66
330
5D45
100
AcDbEntity
  8
AM_0 外形線1
100
AcDbLine
 10
28.00000000000011
 20
4.922649999999974
 30
0.0
 11
28.00000000000011
 21
-4.922650000000088
 31
0.0
  0
LINE
  5
5D67
330
5D45
100
AcDbEntity
  8
AM_0 外形線1
100
AcDbLine
 10
26.99999999999989
 20
5.49999999999977
 30
0.0
 11
28.00000000000011
 21
4.922649999999974
 31
0.0
  0
LINE
  5
5D68
330
5D45
100
AcDbEntity
  8
AM_0 外形線1
100
AcDbLine
 10
32.5
 20
-4.907477500000027
 30
0.0
 11
39.74944499999992
 21
-4.907477500000027
 31
0.0
  0
LINE
  5
5D69
330
5D45
100
AcDbEntity
  8
AM_0 外形線1
100
AcDbLine
 10
32.5
 20
4.907477499999912
 30
0.0
 11
39.74944499999992
 21
4.907477499999912
 31
0.0
  0
ARC
  5
5D6A
330
5D45
100
AcDbEntity
  8
AM_0 外形線1
100
AcDbCircle
 10
24.08104750000007
 20
-0.0000000000001137
 30
0.0
 40
16.4189525
100
AcDbArc
 50
342.6089940000013
 51
17.39100599999868
  0
LINE
  5
5D6B
330
5D45
100
AcDbEntity
  8
AM_0 外形線1
100
AcDbLine
 10
44.0
 20
4.999999999999886
 30
0.0
 11
44.0
 21
-5.000000000000113
 31
0.0
  0
LINE
  5
5D6C
330
5D45
100
AcDbEntity
  8
AM_0 外形線1
100
AcDbLine
 10
45.0
 20
-4.000000000000113
 30
0.0
 11
44.0
 21
-5.000000000000113
 31
0.0
  0
LINE
  5
5D6D
330
5D45
100
AcDbEntity
  8
AM_0 外形線1
100
AcDbLine
 10
45.0
 20
4.0
 30
0.0
 11
45.0
 21
-4.000000000000113
 31
0.0
  0
LINE
  5
5D6E
330
5D45
100
AcDbEntity
  8
AM_0 外形線1
100
AcDbLine
 10
44.0
 20
4.999999999999886
 30
0.0
 11
45.0
 21
4.0
 31
0.0
  0
LINE
  5
5D6F
330
5D45
100
AcDbEntity
  8
AM_0 外形線1
100
AcDbLine
 10
-6.249444999999922
 20
9.79999999999984
 30
0.0
 11
-6.999999999999886
 21
8.499999999999886
 31
0.0
  0
LINE
  5
5D70
330
5D45
100
AcDbEntity
  8
AM_0 外形線1
100
AcDbLine
 10
0.0
 20
9.79999999999984
 30
0.0
 11
-6.249444999999922
 21
9.79999999999984
 31
0.0
  0
LINE
  5
5D71
330
5D45
100
AcDbEntity
  8
AM_0 外形線1
100
AcDbLine
 10
32.5
 20
9.199999999999818
 30
0.0
 11
30.0
 21
9.199999999999818
 31
0.0
  0
LINE
  5
5D72
330
5D45
100
AcDbEntity
  8
AM_0 外形線1
100
AcDbLine
 10
39.74944499999992
 20
9.79999999999984
 30
0.0
 11
40.5000000000001
 21
8.499999999999886
 31
0.0
  0
LINE
  5
5D73
330
5D45
100
AcDbEntity
  8
AM_0 外形線1
100
AcDbLine
 10
32.5
 20
9.79999999999984
 30
0.0
 11
39.74944499999992
 21
9.79999999999984
 31
0.0
  0
ARC
  5
5DA9
330
5D45
100
AcDbEntity
  8
AM_0 外形線1
100
AcDbCircle
 10
0.5000000000001137
 20
5.49999999999977
 30
0.0
 40
0.5
100
AcDbArc
 50
180.0
 51
270.0
  0
LINE
  5
5DD6
330
5D45
100
AcDbEntity
  8
AM_0 外形線1
100
AcDbLine
 10
0.0
 20
9.79999999999984
 30
0.0
 11
0.0
 21
-9.799999999999952
 31
0.0
  0
LINE
  5
5DD7
330
5D45
100
AcDbEntity
  8
AM_0 外形線1
100
AcDbLine
 10
1.5
 20
5.49999999999977
 30
0.0
 11
26.99999999999989
 21
5.49999999999977
 31
0.0
  0
LINE
  5
5DD8
330
5D45
100
AcDbEntity
  8
AM_0 外形線1
100
AcDbLine
 10
1.5
 20
-5.5
 30
0.0
 11
26.99999999999989
 21
-5.5
 31
0.0
  0
LINE
  5
5DD9
330
5D45
100
AcDbEntity
  8
AM_0 外形線1
100
AcDbLine
 10
30.0
 20
9.199999999999818
 30
0.0
 11
30.0
 21
-9.200000000000159
 31
0.0
  0
ENDBLK
  5
5D47
330
5D45
100
AcDbEntity
  8
0
100
AcDbBlockEnd
  0
BLOCK
  5
6517
330
6516
100
AcDbEntity
  8
0
100
AcDbBlockBegin
  2
*D12
 70
     1
 10
0.0
 20
0.0
 30
0.0
  3
*D12
  1

  0
LINE
  5
653F
330
6516
100
AcDbEntity
  8
AM_5 寸法線
 62
     3
100
AcDbLine
 10
407.3732092740105
 20
587.1433487629174
 30
0.0
 11
336.2582661036778
 21
587.1433487629174
 31
0.0
  0
LINE
  5
6540
330
6516
100
AcDbEntity
  8
AM_5 寸法線
 62
     3
100
AcDbLine
 10
407.3732092740105
 20
467.1433487629174
 30
0.0
 11
336.2582661036778
 21
467.1433487629174
 31
0.0
  0
LINE
  5
6541
330
6516
100
AcDbEntity
  8
AM_5 寸法線
 62
     3
100
AcDbLine
 10
337.8207661036778
 20
580.8933487629174
 30
0.0
 11
337.8207661036778
 21
473.3933487629174
 31
0.0
  0
INSERT
  5
6542
330
6516
100
AcDbEntity
  8
AM_5 寸法線
 62
     3
100
AcDbBlockReference
  2
_Open30
 10
337.8207661036778
 20
587.1433487629174
 30
0.0
 41
6.25
 42
6.25
 43
6.25
 50
90.0
  0
INSERT
  5
6543
330
6516
100
AcDbEntity
  8
AM_5 寸法線
 62
     3
100
AcDbBlockReference
  2
_Open30
 10
337.8207661036778
 20
467.1433487629174
 30
0.0
 41
6.25
 42
6.25
 43
6.25
 50
270.0
  0
MTEXT
  5
6544
330
6516
100
AcDbEntity
  8
AM_5 寸法線
 62
     3
100
AcDbMText
 10
329.6957661036777
 20
534.6661295409186
 30
0.0
 40
8.75
 41
0.0
 46
0.0
 71
     5
 72
     1
  1
%%c120
  7
SEISA
 11
0.0000000000000001
 21
1.0
 31
0.0
 73
     1
 44
1.0
  0
POINT
  5
6545
330
6516
100
AcDbEntity
  8
Defpoints
 62
     0
100
AcDbPoint
 10
408.9357092740105
 20
587.1433487629174
 30
0.0
  0
POINT
  5
6546
330
6516
100
AcDbEntity
  8
Defpoints
 62
     0
100
AcDbPoint
 10
408.9357092740105
 20
467.1433487629174
 30
0.0
  0
POINT
  5
6547
330
6516
100
AcDbEntity
  8
Defpoints
 62
     0
100
AcDbPoint
 10
337.8207661036778
 20
467.1433487629174
 30
0.0
  0
ENDBLK
  5
6518
330
6516
100
AcDbEntity
  8
0
100
AcDbBlockEnd
  0
BLOCK
  5
6551
330
6550
100
AcDbEntity
  8
0
100
AcDbBlockBegin
  2
*D13
 70
     1
 10
0.0
 20
0.0
 30
0.0
  3
*D13
  1

  0
LINE
  5
7F9F
330
6550
100
AcDbEntity
  8
AM_5 寸法線
 62
     3
100
AcDbLine
 10
375.9357092740105
 20
528.7058487629175
 30
0.0
 11
375.9357092740105
 21
538.9576181591046
 31
0.0
  0
LINE
  5
7FA0
330
6550
100
AcDbEntity
  8
AM_5 寸法線
 62
     3
100
AcDbLine
 10
475.9357092740104
 20
528.7058487629175
 30
0.0
 11
475.9357092740104
 21
538.9576181591046
 31
0.0
  0
LINE
  5
7FA1
330
6550
100
AcDbEntity
  8
AM_5 寸法線
 62
     3
100
AcDbLine
 10
382.1857092740105
 20
537.3951181591046
 30
0.0
 11
469.6857092740104
 21
537.3951181591046
 31
0.0
  0
MTEXT
  5
7FA2
330
6550
100
AcDbEntity
  8
AM_5 寸法線
 62
     3
100
AcDbMText
 10
396.3254515579
 20
545.6780305730583
 30
0.0
 40
8.75
 41
0.0
 46
0.0
 71
     5
 72
     1
  1
100
  7
SEISA
 73
     1
 44
1.0
  0
INSERT
  5
7FA3
330
6550
100
AcDbEntity
  8
AM_5 寸法線
 62
     3
100
AcDbBlockReference
  2
_Open30
 10
375.9357092740105
 20
537.3951181591046
 30
0.0
 41
6.25
 42
6.25
 43
6.25
 50
180.0
  0
INSERT
  5
7FA4
330
6550
100
AcDbEntity
  8
AM_5 寸法線
 62
     3
100
AcDbBlockReference
  2
_Open30
 10
475.9357092740104
 20
537.3951181591046
 30
0.0
 41
6.25
 42
6.25
 43
6.25
  0
POINT
  5
7FA5
330
6550
100
AcDbEntity
  8
Defpoints
 62
     0
100
AcDbPoint
 10
375.9357092740105
 20
527.1433487629175
 30
0.0
  0
POINT
  5
7FA6
330
6550
100
AcDbEntity
  8
Defpoints
 62
     0
100
AcDbPoint
 10
475.9357092740104
 20
527.1433487629175
 30
0.0
  0
POINT
  5
7FA7
330
6550
100
AcDbEntity
  8
Defpoints
 62
     0
100
AcDbPoint
 10
475.9357092740104
 20
537.3951181591046
 30
0.0
  0
ENDBLK
  5
6552
330
6550
100
AcDbEntity
  8
0
100
AcDbBlockEnd
  0
BLOCK
  5
6569
330
6568
100
AcDbEntity
  8
0
100
AcDbBlockBegin
  2
*D14
 70
     1
 10
0.0
 20
0.0
 30
0.0
  3
*D14
  1

  0
LINE
  5
65AC
330
6568
100
AcDbEntity
  8
AM_5 寸法線
 62
     3
100
AcDbLine
 10
475.9357092740104
 20
528.7058487629175
 30
0.0
 11
475.9357092740104
 21
538.9576181591046
 31
0.0
  0
LINE
  5
65AD
330
6568
100
AcDbEntity
  8
AM_5 寸法線
 62
     3
100
AcDbLine
 10
485.9357092740103
 20
528.7058487629175
 30
0.0
 11
485.9357092740103
 21
538.9576181591046
 31
0.0
  0
LINE
  5
65AE
330
6568
100
AcDbEntity
  8
AM_5 寸法線
 62
     3
100
AcDbLine
 10
469.6857092740104
 20
537.3951181591046
 30
0.0
 11
463.4357092740104
 21
537.3951181591046
 31
0.0
  0
LINE
  5
65AF
330
6568
100
AcDbEntity
  8
AM_5 寸法線
 62
     3
100
AcDbLine
 10
492.1857092740103
 20
537.3951181591046
 30
0.0
 11
498.4357092740103
 21
537.3951181591046
 31
0.0
  0
MTEXT
  5
65B0
330
6568
100
AcDbEntity
  8
AM_5 寸法線
 62
     3
100
AcDbMText
 10
496.5948794127988
 20
544.8259650515342
 30
0.0
 40
8.75
 41
0.0
 46
0.0
 71
     5
 72
     1
  1
10
  7
SEISA
 73
     1
 44
1.0
  0
LINE
  5
65B1
330
6568
100
AcDbEntity
  8
AM_5 寸法線
 62
     3
100
AcDbLine
 10
475.9357092740104
 20
537.3951181591046
 30
0.0
 11
485.9357092740103
 21
537.3951181591046
 31
0.0
  0
INSERT
  5
65B2
330
6568
100
AcDbEntity
  8
AM_5 寸法線
 62
     3
100
AcDbBlockReference
  2
_Open30
 10
475.9357092740104
 20
537.3951181591046
 30
0.0
 41
6.25
 42
6.25
 43
6.25
  0
INSERT
  5
65B3
330
6568
100
AcDbEntity
  8
AM_5 寸法線
 62
     3
100
AcDbBlockReference
  2
_Open30
 10
485.9357092740103
 20
537.3951181591046
 30
0.0
 41
6.25
 42
6.25
 43
6.25
 50
180.0
  0
POINT
  5
65B4
330
6568
100
AcDbEntity
  8
Defpoints
 62
     0
100
AcDbPoint
 10
475.9357092740104
 20
527.1433487629175
 30
0.0
  0
POINT
  5
65B5
330
6568
100
AcDbEntity
  8
Defpoints
 62
     0
100
AcDbPoint
 10
485.9357092740103
 20
527.1433487629175
 30
0.0
  0
POINT
  5
65B6
330
6568
100
AcDbEntity
  8
Defpoints
 62
     0
100
AcDbPoint
 10
485.9357092740103
 20
537.3951181591046
 30
0.0
  0
ENDBLK
  5
656A
330
6568
100
AcDbEntity
  8
0
100
AcDbBlockEnd
  0
BLOCK
  5
6585
330
6584
100
AcDbEntity
  8
0
100
AcDbBlockBegin
  2
*D15
 70
     1
 10
0.0
 20
0.0
 30
0.0
  3
*D15
  1

  0
LINE
  5
6591
330
6584
100
AcDbEntity
  8
AM_5 寸法線
 62
     3
100
AcDbLine
 10
485.9357092740103
 20
528.7058487629175
 30
0.0
 11
485.9357092740103
 21
538.9576181591046
 31
0.0
  0
LINE
  5
6592
330
6584
100
AcDbEntity
  8
AM_5 寸法線
 62
     3
100
AcDbLine
 10
585.9357092740103
 20
528.7058487629175
 30
0.0
 11
585.9357092740103
 21
538.9576181591046
 31
0.0
  0
LINE
  5
6593
330
6584
100
AcDbEntity
  8
AM_5 寸法線
 62
     3
100
AcDbLine
 10
492.1857092740103
 20
537.3951181591046
 30
0.0
 11
579.6857092740103
 21
537.3951181591046
 31
0.0
  0
INSERT
  5
6594
330
6584
100
AcDbEntity
  8
AM_5 寸法線
 62
     3
100
AcDbBlockReference
  2
_Open30
 10
485.9357092740103
 20
537.3951181591046
 30
0.0
 41
6.25
 42
6.25
 43
6.25
 50
180.0
  0
INSERT
  5
6595
330
6584
100
AcDbEntity
  8
AM_5 寸法線
 62
     3
100
AcDbBlockReference
  2
_Open30
 10
585.9357092740103
 20
537.3951181591046
 30
0.0
 41
6.25
 42
6.25
 43
6.25
  0
MTEXT
  5
6596
330
6584
100
AcDbEntity
  8
AM_5 寸法線
 62
     3
100
AcDbMText
 10
535.9357092740103
 20
545.5201181591046
 30
0.0
 40
8.75
 41
0.0
 46
0.0
 71
     5
 72
     1
  1
100
  7
SEISA
 73
     1
 44
1.0
  0
POINT
  5
6597
330
6584
100
AcDbEntity
  8
Defpoints
 62
     0
100
AcDbPoint
 10
485.9357092740103
 20
527.1433487629175
 30
0.0
  0
POINT
  5
6598
330
6584
100
AcDbEntity
  8
Defpoints
 62
     0
100
AcDbPoint
 10
585.9357092740103
 20
527.1433487629175
 30
0.0
  0
POINT
  5
6599
330
6584
100
AcDbEntity
  8
Defpoints
 62
     0
100
AcDbPoint
 10
585.9357092740103
 20
537.3951181591046
 30
0.0
  0
ENDBLK
  5
6586
330
6584
100
AcDbEntity
  8
0
100
AcDbBlockEnd
  0
BLOCK
  5
65C6
330
65C5
100
AcDbEntity
  8
0
100
AcDbBlockBegin
  2
*D16
 70
     1
 10
0.0
 20
0.0
 30
0.0
  3
*D16
  1

  0
LINE
  5
65EB
330
65C5
100
AcDbEntity
  8
AM_5 寸法線
 62
     3
100
AcDbLine
 10
432.9357092740103
 20
585.5808487629174
 30
0.0
 11
432.9357092740103
 21
570.1631533451102
 31
0.0
  0
LINE
  5
65EC
330
65C5
100
AcDbEntity
  8
AM_5 寸法線
 62
     3
100
AcDbLine
 10
435.9357092740103
 20
586.0808487629176
 30
0.0
 11
435.9357092740103
 21
570.1631533451102
 31
0.0
  0
LINE
  5
65ED
330
65C5
100
AcDbEntity
  8
AM_5 寸法線
 62
     3
100
AcDbLine
 10
442.1857092740103
 20
571.7256533451102
 30
0.0
 11
448.4357092740103
 21
571.7256533451102
 31
0.0
  0
LINE
  5
65EE
330
65C5
100
AcDbEntity
  8
AM_5 寸法線
 62
     3
100
AcDbLine
 10
426.6857092740103
 20
571.7256533451102
 30
0.0
 11
407.6857092740103
 21
571.7256533451102
 31
0.0
  0
LINE
  5
65EF
330
65C5
100
AcDbEntity
  8
AM_5 寸法線
 62
     3
100
AcDbLine
 10
435.9357092740103
 20
571.7256533451102
 30
0.0
 11
432.9357092740103
 21
571.7256533451102
 31
0.0
  0
INSERT
  5
65F0
330
65C5
100
AcDbEntity
  8
AM_5 寸法線
 62
     3
100
AcDbBlockReference
  2
_Open30
 10
435.9357092740103
 20
571.7256533451102
 30
0.0
 41
6.25
 42
6.25
 43
6.25
 50
180.0
  0
INSERT
  5
65F1
330
65C5
100
AcDbEntity
  8
AM_5 寸法線
 62
     3
100
AcDbBlockReference
  2
_Open30
 10
432.9357092740103
 20
571.7256533451102
 30
0.0
 41
6.25
 42
6.25
 43
6.25
  0
MTEXT
  5
65F2
330
65C5
100
AcDbEntity
  8
AM_5 寸法線
 62
     3
100
AcDbMText
 10
414.0607092740102
 20
579.8506533451102
 30
0.0
 40
8.75
 41
0.0
 46
0.0
 71
     5
 72
     1
  1
3
  7
SEISA
 73
     1
 44
1.0
  0
POINT
  5
65F3
330
65C5
100
AcDbEntity
  8
Defpoints
 62
     0
100
AcDbPoint
 10
432.9357092740103
 20
587.1433487629174
 30
0.0
  0
POINT
  5
65F4
330
65C5
100
AcDbEntity
  8
Defpoints
 62
     0
100
AcDbPoint
 10
435.9357092740103
 20
587.6433487629176
 30
0.0
  0
POINT
  5
65F5
330
65C5
100
AcDbEntity
  8
Defpoints
 62
     0
100
AcDbPoint
 10
435.9357092740103
 20
571.7256533451102
 30
0.0
  0
ENDBLK
  5
65C7
330
65C5
100
AcDbEntity
  8
0
100
AcDbBlockEnd
  0
BLOCK
  5
661A
330
6619
100
AcDbEntity
  8
0
100
AcDbBlockBegin
  2
*D17
 70
     1
 10
0.0
 20
0.0
 30
0.0
  3
*D17
  1

  0
LINE
  5
6681
330
6619
100
AcDbEntity
  8
AM_5 寸法線
 62
     3
100
AcDbLine
 10
554.4982092740102
 20
587.1433487629174
 30
0.0
 11
636.2221067740104
 21
587.1433487629174
 31
0.0
  0
LINE
  5
6682
330
6619
100
AcDbEntity
  8
AM_5 寸法線
 62
     3
100
AcDbLine
 10
554.4982092740102
 20
467.1433487629174
 30
0.0
 11
636.2221067740104
 21
467.1433487629174
 31
0.0
  0
LINE
  5
6683
330
6619
100
AcDbEntity
  8
AM_5 寸法線
 62
     3
100
AcDbLine
 10
634.6596067740104
 20
580.8933487629174
 30
0.0
 11
634.6596067740104
 21
473.3933487629174
 31
0.0
  0
INSERT
  5
6684
330
6619
100
AcDbEntity
  8
AM_5 寸法線
 62
     3
100
AcDbBlockReference
  2
_Open30
 10
634.6596067740104
 20
587.1433487629174
 30
0.0
 41
6.25
 42
6.25
 43
6.25
 50
90.0
  0
INSERT
  5
6685
330
6619
100
AcDbEntity
  8
AM_5 寸法線
 62
     3
100
AcDbBlockReference
  2
_Open30
 10
634.6596067740104
 20
467.1433487629174
 30
0.0
 41
6.25
 42
6.25
 43
6.25
 50
270.0
  0
MTEXT
  5
6686
330
6619
100
AcDbEntity
  8
AM_5 寸法線
 62
     3
100
AcDbMText
 10
626.5346067740104
 20
527.1433487629176
 30
0.0
 40
8.75
 41
0.0
 46
0.0
 71
     5
 72
     1
  1
%%c120
  7
SEISA
 11
0.0000000000000001
 21
1.0
 31
0.0
 73
     1
 44
1.0
  0
POINT
  5
6687
330
6619
100
AcDbEntity
  8
Defpoints
 62
     0
100
AcDbPoint
 10
552.9357092740102
 20
587.1433487629174
 30
0.0
  0
POINT
  5
6688
330
6619
100
AcDbEntity
  8
Defpoints
 62
     0
100
AcDbPoint
 10
552.9357092740102
 20
467.1433487629174
 30
0.0
  0
POINT
  5
6689
330
6619
100
AcDbEntity
  8
Defpoints
 62
     0
100
AcDbPoint
 10
634.6596067740104
 20
467.1433487629174
 30
0.0
  0
ENDBLK
  5
661B
330
6619
100
AcDbEntity
  8
0
100
AcDbBlockEnd
  0
BLOCK
  5
6632
330
6631
100
AcDbEntity
  8
0
100
AcDbBlockBegin
  2
*D18
 70
     1
 10
0.0
 20
0.0
 30
0.0
  3
*D18
  1

  0
LINE
  5
6693
330
6631
100
AcDbEntity
  8
AM_5 寸法線
 62
     3
100
AcDbLine
 10
540.4982092740104
 20
601.6433487629175
 30
0.0
 11
661.2221067740106
 21
601.6433487629175
 31
0.0
  0
LINE
  5
6694
330
6631
100
AcDbEntity
  8
AM_5 寸法線
 62
     3
100
AcDbLine
 10
539.2818967740104
 20
452.6433487629176
 30
0.0
 11
661.2221067740106
 21
452.6433487629176
 31
0.0
  0
LINE
  5
6695
330
6631
100
AcDbEntity
  8
AM_5 寸法線
 62
     3
100
AcDbLine
 10
659.6596067740106
 20
595.3933487629175
 30
0.0
 11
659.6596067740106
 21
458.8933487629176
 31
0.0
  0
INSERT
  5
6696
330
6631
100
AcDbEntity
  8
AM_5 寸法線
 62
     3
100
AcDbBlockReference
  2
_Open30
 10
659.6596067740106
 20
601.6433487629175
 30
0.0
 41
6.25
 42
6.25
 43
6.25
 50
90.0
  0
INSERT
  5
6697
330
6631
100
AcDbEntity
  8
AM_5 寸法線
 62
     3
100
AcDbBlockReference
  2
_Open30
 10
659.6596067740106
 20
452.6433487629176
 30
0.0
 41
6.25
 42
6.25
 43
6.25
 50
270.0
  0
MTEXT
  5
6698
330
6631
100
AcDbEntity
  8
AM_5 寸法線
 62
     3
100
AcDbMText
 10
651.5346067740105
 20
527.1433487629176
 30
0.0
 40
8.75
 41
0.0
 46
0.0
 71
     5
 72
     1
  1
%%c149
  7
SEISA
 11
0.0000000000000001
 21
1.0
 31
0.0
 73
     1
 44
1.0
  0
POINT
  5
6699
330
6631
100
AcDbEntity
  8
Defpoints
 62
     0
100
AcDbPoint
 10
538.9357092740104
 20
601.6433487629175
 30
0.0
  0
POINT
  5
669A
330
6631
100
AcDbEntity
  8
Defpoints
 62
     0
100
AcDbPoint
 10
537.7193967740104
 20
452.6433487629176
 30
0.0
  0
POINT
  5
669B
330
6631
100
AcDbEntity
  8
Defpoints
 62
     0
100
AcDbPoint
 10
659.6596067740106
 20
452.6433487629176
 30
0.0
  0
ENDBLK
  5
6633
330
6631
100
AcDbEntity
  8
0
100
AcDbBlockEnd
  0
BLOCK
  5
6662
330
6661
100
AcDbEntity
  8
0
100
AcDbBlockBegin
  2
*D19
 70
     1
 10
0.0
 20
0.0
 30
0.0
  3
*D19
  1

  0
LINE
  5
66A5
330
6661
100
AcDbEntity
  8
AM_5 寸法線
 62
     3
100
AcDbLine
 10
496.4982092740105
 20
627.1433487629175
 30
0.0
 11
686.2221067740107
 21
627.1433487629175
 31
0.0
  0
LINE
  5
66A6
330
6661
100
AcDbEntity
  8
AM_5 寸法線
 62
     3
100
AcDbLine
 10
496.4982092740105
 20
427.1433487629174
 30
0.0
 11
686.2221067740107
 21
427.1433487629174
 31
0.0
  0
LINE
  5
66A7
330
6661
100
AcDbEntity
  8
AM_5 寸法線
 62
     3
100
AcDbLine
 10
684.6596067740107
 20
620.8933487629175
 30
0.0
 11
684.6596067740107
 21
433.3933487629174
 31
0.0
  0
INSERT
  5
66A8
330
6661
100
AcDbEntity
  8
AM_5 寸法線
 62
     3
100
AcDbBlockReference
  2
_Open30
 10
684.6596067740107
 20
627.1433487629175
 30
0.0
 41
6.25
 42
6.25
 43
6.25
 50
90.0
  0
INSERT
  5
66A9
330
6661
100
AcDbEntity
  8
AM_5 寸法線
 62
     3
100
AcDbBlockReference
  2
_Open30
 10
684.6596067740107
 20
427.1433487629174
 30
0.0
 41
6.25
 42
6.25
 43
6.25
 50
270.0
  0
MTEXT
  5
66AA
330
6661
100
AcDbEntity
  8
AM_5 寸法線
 62
     3
100
AcDbMText
 10
676.5346067740106
 20
527.1433487629176
 30
0.0
 40
8.75
 41
0.0
 46
0.0
 71
     5
 72
     1
  1
%%c200
  7
SEISA
 11
0.0000000000000001
 21
1.0
 31
0.0
 73
     1
 44
1.0
  0
POINT
  5
66AB
330
6661
100
AcDbEntity
  8
Defpoints
 62
     0
100
AcDbPoint
 10
494.9357092740105
 20
627.1433487629175
 30
0.0
  0
POINT
  5
66AC
330
6661
100
AcDbEntity
  8
Defpoints
 62
     0
100
AcDbPoint
 10
494.9357092740105
 20
427.1433487629174
 30
0.0
  0
POINT
  5
66AD
330
6661
100
AcDbEntity
  8
Defpoints
 62
     0
100
AcDbPoint
 10
684.6596067740107
 20
427.1433487629174
 30
0.0
  0
ENDBLK
  5
6663
330
6661
100
AcDbEntity
  8
0
100
AcDbBlockEnd
  0
BLOCK
  5
679C
330
679B
100
AcDbEntity
  8
0
100
AcDbBlockBegin
  2
*D20
 70
     1
 10
0.0
 20
0.0
 30
0.0
  3
*D20
  1

  0
LINE
  5
7300
330
679B
100
AcDbEntity
  8
AM_5 寸法線
 62
     3
100
AcDbLine
 10
465.9357092740105
 20
426.5808487629175
 30
0.0
 11
465.9357092740105
 21
400.5808487629174
 31
0.0
  0
LINE
  5
7301
330
679B
100
AcDbEntity
  8
AM_5 寸法線
 62
     3
100
AcDbLine
 10
480.9357092740103
 20
426.5808487629175
 30
0.0
 11
480.9357092740103
 21
400.5808487629174
 31
0.0
  0
LINE
  5
7302
330
679B
100
AcDbEntity
  8
AM_5 寸法線
 62
     3
100
AcDbLine
 10
459.6857092740105
 20
402.1433487629174
 30
0.0
 11
453.4357092740105
 21
402.1433487629174
 31
0.0
  0
LINE
  5
7303
330
679B
100
AcDbEntity
  8
AM_5 寸法線
 62
     3
100
AcDbLine
 10
487.1857092740103
 20
402.1433487629174
 30
0.0
 11
493.4357092740103
 21
402.1433487629174
 31
0.0
  0
MTEXT
  5
7304
330
679B
100
AcDbEntity
  8
AM_5 寸法線
 62
     3
100
AcDbMText
 10
454.38828148737
 20
410.4393303678943
 30
0.0
 40
8.75
 41
0.0
 46
0.0
 71
     5
 72
     1
  1
15
  7
SEISA
 73
     1
 44
1.0
  0
LINE
  5
7305
330
679B
100
AcDbEntity
  8
AM_5 寸法線
 62
     3
100
AcDbLine
 10
465.9357092740105
 20
402.1433487629174
 30
0.0
 11
480.9357092740103
 21
402.1433487629174
 31
0.0
  0
INSERT
  5
7306
330
679B
100
AcDbEntity
  8
AM_5 寸法線
 62
     3
100
AcDbBlockReference
  2
_Open30
 10
465.9357092740105
 20
402.1433487629174
 30
0.0
 41
6.25
 42
6.25
 43
6.25
  0
INSERT
  5
7307
330
679B
100
AcDbEntity
  8
AM_5 寸法線
 62
     3
100
AcDbBlockReference
  2
GENDOT
 10
480.9357092740103
 20
402.1433487629174
 30
0.0
 41
6.25
 42
6.25
 43
6.25
 50
180.0
  0
POINT
  5
7308
330
679B
100
AcDbEntity
  8
Defpoints
 62
     0
100
AcDbPoint
 10
465.9357092740105
 20
428.1433487629175
 30
0.0
  0
POINT
  5
7309
330
679B
100
AcDbEntity
  8
Defpoints
 62
     0
100
AcDbPoint
 10
480.9357092740103
 20
428.1433487629175
 30
0.0
  0
POINT
  5
730A
330
679B
100
AcDbEntity
  8
Defpoints
 62
     0
100
AcDbPoint
 10
480.9357092740103
 20
402.1433487629174
 30
0.0
  0
ENDBLK
  5
679D
330
679B
100
AcDbEntity
  8
0
100
AcDbBlockEnd
  0
BLOCK
  5
67CE
330
67CD
100
AcDbEntity
  8
0
100
AcDbBlockBegin
  2
*D21
 70
     1
 10
0.0
 20
0.0
 30
0.0
  3
*D21
  1

  0
LINE
  5
7316
330
67CD
100
AcDbEntity
  8
AM_5 寸法線
 62
     3
100
AcDbLine
 10
480.9357092740103
 20
426.5808487629175
 30
0.0
 11
480.9357092740103
 21
400.5808487629174
 31
0.0
  0
LINE
  5
7317
330
67CD
100
AcDbEntity
  8
AM_5 寸法線
 62
     3
100
AcDbLine
 10
495.9357092740105
 20
426.5808487629175
 30
0.0
 11
495.9357092740105
 21
400.5808487629174
 31
0.0
  0
LINE
  5
7318
330
67CD
100
AcDbEntity
  8
AM_5 寸法線
 62
     3
100
AcDbLine
 10
474.6857092740103
 20
402.1433487629174
 30
0.0
 11
468.4357092740103
 21
402.1433487629174
 31
0.0
  0
LINE
  5
7319
330
67CD
100
AcDbEntity
  8
AM_5 寸法線
 62
     3
100
AcDbLine
 10
502.1857092740105
 20
402.1433487629174
 30
0.0
 11
508.4357092740105
 21
402.1433487629174
 31
0.0
  0
MTEXT
  5
731A
330
67CD
100
AcDbEntity
  8
AM_5 寸法線
 62
     3
100
AcDbMText
 10
505.8202824105428
 20
410.3239467766366
 30
0.0
 40
8.75
 41
0.0
 46
0.0
 71
     5
 72
     1
  1
15
  7
SEISA
 73
     1
 44
1.0
  0
LINE
  5
731B
330
67CD
100
AcDbEntity
  8
AM_5 寸法線
 62
     3
100
AcDbLine
 10
480.9357092740103
 20
402.1433487629174
 30
0.0
 11
495.9357092740105
 21
402.1433487629174
 31
0.0
  0
INSERT
  5
731C
330
67CD
100
AcDbEntity
  8
AM_5 寸法線
 62
     3
100
AcDbBlockReference
  2
GENDOT
 10
480.9357092740103
 20
402.1433487629174
 30
0.0
 41
6.25
 42
6.25
 43
6.25
  0
INSERT
  5
731D
330
67CD
100
AcDbEntity
  8
AM_5 寸法線
 62
     3
100
AcDbBlockReference
  2
_Open30
 10
495.9357092740105
 20
402.1433487629174
 30
0.0
 41
6.25
 42
6.25
 43
6.25
 50
180.0
  0
POINT
  5
731E
330
67CD
100
AcDbEntity
  8
Defpoints
 62
     0
100
AcDbPoint
 10
480.9357092740103
 20
428.1433487629175
 30
0.0
  0
POINT
  5
731F
330
67CD
100
AcDbEntity
  8
Defpoints
 62
     0
100
AcDbPoint
 10
495.9357092740105
 20
428.1433487629175
 30
0.0
  0
POINT
  5
7320
330
67CD
100
AcDbEntity
  8
Defpoints
 62
     0
100
AcDbPoint
 10
495.9357092740105
 20
402.1433487629174
 30
0.0
  0
ENDBLK
  5
67CF
330
67CD
100
AcDbEntity
  8
0
100
AcDbBlockEnd
  0
BLOCK
  5
6856
330
6855
100
AcDbEntity
  8
0
100
AcDbBlockBegin
  2
*D22
 70
     1
 10
0.0
 20
0.0
 30
0.0
  3
*D22
  1

  0
LINE
  5
7C89
330
6855
100
AcDbEntity
  8
AM_5 寸法線
 62
     3
100
AcDbLine
 10
419.9357092740103
 20
454.0808487629174
 30
0.0
 11
419.9357092740103
 21
375.5808487629175
 31
0.0
  0
LINE
  5
7C8A
330
6855
100
AcDbEntity
  8
AM_5 寸法線
 62
     3
100
AcDbLine
 10
541.9357092740105
 20
454.0808487629174
 30
0.0
 11
541.9357092740105
 21
375.5808487629175
 31
0.0
  0
LINE
  5
7C8B
330
6855
100
AcDbEntity
  8
AM_5 寸法線
 62
     3
100
AcDbLine
 10
426.1857092740103
 20
377.1433487629175
 30
0.0
 11
535.6857092740105
 21
377.1433487629175
 31
0.0
  0
INSERT
  5
7C8C
330
6855
100
AcDbEntity
  8
AM_5 寸法線
 62
     3
100
AcDbBlockReference
  2
_Open30
 10
419.9357092740103
 20
377.1433487629175
 30
0.0
 41
6.25
 42
6.25
 43
6.25
 50
180.0
  0
INSERT
  5
7C8D
330
6855
100
AcDbEntity
  8
AM_5 寸法線
 62
     3
100
AcDbBlockReference
  2
_Open30
 10
541.9357092740105
 20
377.1433487629175
 30
0.0
 41
6.25
 42
6.25
 43
6.25
  0
MTEXT
  5
7C8E
330
6855
100
AcDbEntity
  8
AM_5 寸法線
 62
     3
100
AcDbMText
 10
480.9357092740103
 20
385.2683487629176
 30
0.0
 40
8.75
 41
0.0
 46
0.0
 71
     5
 72
     1
  1
122
  7
SEISA
 73
     1
 44
1.0
  0
POINT
  5
7C8F
330
6855
100
AcDbEntity
  8
Defpoints
 62
     0
100
AcDbPoint
 10
419.9357092740103
 20
455.6433487629174
 30
0.0
  0
POINT
  5
7C90
330
6855
100
AcDbEntity
  8
Defpoints
 62
     0
100
AcDbPoint
 10
541.9357092740105
 20
455.6433487629174
 30
0.0
  0
POINT
  5
7C91
330
6855
100
AcDbEntity
  8
Defpoints
 62
     0
100
AcDbPoint
 10
541.9357092740105
 20
377.1433487629175
 30
0.0
  0
ENDBLK
  5
6857
330
6855
100
AcDbEntity
  8
0
100
AcDbBlockEnd
  0
BLOCK
  5
6DD0
330
6DCF
100
AcDbEntity
  8
0
100
AcDbBlockBegin
  2
*D23
 70
     1
 10
0.0
 20
0.0
 30
0.0
  3
*D23
  1

  0
LINE
  5
6DDC
330
6DCF
100
AcDbEntity
  8
AM_5 寸法線
 62
     3
100
AcDbLine
 10
375.9357092740105
 20
469.7856622835957
 30
0.0
 11
375.9357092740105
 21
350.5808487629175
 31
0.0
  0
LINE
  5
6DDD
330
6DCF
100
AcDbEntity
  8
AM_5 寸法線
 62
     3
100
AcDbLine
 10
585.9357092740103
 20
469.7856622835957
 30
0.0
 11
585.9357092740103
 21
350.5808487629175
 31
0.0
  0
LINE
  5
6DDE
330
6DCF
100
AcDbEntity
  8
AM_5 寸法線
 62
     3
100
AcDbLine
 10
382.1857092740105
 20
352.1433487629175
 30
0.0
 11
579.6857092740103
 21
352.1433487629175
 31
0.0
  0
INSERT
  5
6DDF
330
6DCF
100
AcDbEntity
  8
AM_5 寸法線
 62
     3
100
AcDbBlockReference
  2
_Open30
 10
375.9357092740105
 20
352.1433487629175
 30
0.0
 41
6.25
 42
6.25
 43
6.25
 50
180.0
  0
INSERT
  5
6DE0
330
6DCF
100
AcDbEntity
  8
AM_5 寸法線
 62
     3
100
AcDbBlockReference
  2
_Open30
 10
585.9357092740103
 20
352.1433487629175
 30
0.0
 41
6.25
 42
6.25
 43
6.25
  0
MTEXT
  5
6DE1
330
6DCF
100
AcDbEntity
  8
AM_5 寸法線
 62
     3
100
AcDbMText
 10
480.9357092740103
 20
360.2683487629175
 30
0.0
 40
8.75
 41
0.0
 46
0.0
 71
     5
 72
     1
  1
210
  7
SEISA
 73
     1
 44
1.0
  0
POINT
  5
6DE2
330
6DCF
100
AcDbEntity
  8
Defpoints
 62
     0
100
AcDbPoint
 10
375.9357092740105
 20
471.3481622835957
 30
0.0
  0
POINT
  5
6DE3
330
6DCF
100
AcDbEntity
  8
Defpoints
 62
     0
100
AcDbPoint
 10
585.9357092740103
 20
471.3481622835957
 30
0.0
  0
POINT
  5
6DE4
330
6DCF
100
AcDbEntity
  8
Defpoints
 62
     0
100
AcDbPoint
 10
585.9357092740103
 20
352.1433487629175
 30
0.0
  0
ENDBLK
  5
6DD1
330
6DCF
100
AcDbEntity
  8
0
100
AcDbBlockEnd
  0
BLOCK
  5
7269
330
7266
100
AcDbEntity
  8
0
100
AcDbBlockBegin
  2
GENDOT
 70
     0
 10
0.0
 20
0.0
 30
0.0
  3
GENDOT
  1

  0
LINE
  5
7267
330
7266
100
AcDbEntity
  8
0
100
AcDbLine
 10
0.0
 20
0.0
 30
0.0
 11
-1.0
 21
0.0
 31
0.0
  0
LWPOLYLINE
  5
7268
330
7266
100
AcDbEntity
  8
0
100
AcDbPolyline
 90
        2
 70
     1
 43
0.25
 10
-0.125
 20
0.0
 42
1.0
 10
0.125
 20
0.0
 42
1.0
  0
ENDBLK
  5
726A
330
7266
100
AcDbEntity
  8
0
100
AcDbBlockEnd
  0
BLOCK
  5
7C59
330
7C58
100
AcDbEntity
  8
0
100
AcDbBlockBegin
  2
*D25
 70
     1
 10
0.0
 20
0.0
 30
0.0
  3
*D25
  1

  0
LINE
  5
8188
330
7C58
100
AcDbEntity
  8
AM_5 寸法線
 62
     3
100
AcDbLine
 10
370.9357092740103
 20
600.2058487629175
 30
0.0
 11
370.9357092740103
 21
628.7058487629175
 31
0.0
  0
LINE
  5
8189
330
7C58
100
AcDbEntity
  8
AM_5 寸法線
 62
     3
100
AcDbLine
 10
375.9357092740105
 20
585.1058487629172
 30
0.0
 11
375.9357092740105
 21
628.7058487629175
 31
0.0
  0
LINE
  5
818A
330
7C58
100
AcDbEntity
  8
AM_5 寸法線
 62
     3
100
AcDbLine
 10
364.6857092740103
 20
627.1433487629175
 30
0.0
 11
358.4357092740103
 21
627.1433487629175
 31
0.0
  0
LINE
  5
818B
330
7C58
100
AcDbEntity
  8
AM_5 寸法線
 62
     3
100
AcDbLine
 10
382.1857092740105
 20
627.1433487629175
 30
0.0
 11
401.1857092740105
 21
627.1433487629175
 31
0.0
  0
LINE
  5
818C
330
7C58
100
AcDbEntity
  8
AM_5 寸法線
 62
     3
100
AcDbLine
 10
370.9357092740103
 20
627.1433487629175
 30
0.0
 11
375.9357092740105
 21
627.1433487629175
 31
0.0
  0
INSERT
  5
818D
330
7C58
100
AcDbEntity
  8
AM_5 寸法線
 62
     3
100
AcDbBlockReference
  2
_Open30
 10
370.9357092740103
 20
627.1433487629175
 30
0.0
 41
6.25
 42
6.25
 43
6.25
  0
INSERT
  5
818E
330
7C58
100
AcDbEntity
  8
AM_5 寸法線
 62
     3
100
AcDbBlockReference
  2
_Open30
 10
375.9357092740105
 20
627.1433487629175
 30
0.0
 41
6.25
 42
6.25
 43
6.25
 50
180.0
  0
MTEXT
  5
818F
330
7C58
100
AcDbEntity
  8
AM_5 寸法線
 62
     3
100
AcDbMText
 10
394.8107092740105
 20
635.2683487629175
 30
0.0
 40
8.75
 41
0.0
 46
0.0
 71
     5
 72
     1
  1
5
  7
SEISA
 73
     1
 44
1.0
  0
POINT
  5
8190
330
7C58
100
AcDbEntity
  8
Defpoints
 62
     0
100
AcDbPoint
 10
370.9357092740103
 20
598.6433487629175
 30
0.0
  0
POINT
  5
8191
330
7C58
100
AcDbEntity
  8
Defpoints
 62
     0
100
AcDbPoint
 10
375.9357092740105
 20
583.5433487629172
 30
0.0
  0
POINT
  5
8192
330
7C58
100
AcDbEntity
  8
Defpoints
 62
     0
100
AcDbPoint
 10
375.9357092740105
 20
627.1433487629175
 30
0.0
  0
ENDBLK
  5
7C5A
330
7C58
100
AcDbEntity
  8
0
100
AcDbBlockEnd
  0
BLOCK
  5
7F05
330
7F04
100
AcDbEntity
  8
0
100
AcDbBlockBegin
  2
*D26
 70
     1
 10
0.0
 20
0.0
 30
0.0
  3
*D26
  1

  0
LINE
  5
7FB1
330
7F04
100
AcDbEntity
  8
AM_5 寸法線
 62
     3
100
AcDbLine
 10
435.9357092740103
 20
586.0808487629176
 30
0.0
 11
435.9357092740103
 21
570.1631533451102
 31
0.0
  0
LINE
  5
7FB2
330
7F04
100
AcDbEntity
  8
AM_5 寸法線
 62
     3
100
AcDbLine
 10
459.4357092740104
 20
585.0808487629174
 30
0.0
 11
459.4357092740104
 21
570.1631533451102
 31
0.0
  0
LINE
  5
7FB3
330
7F04
100
AcDbEntity
  8
AM_5 寸法線
 62
     3
100
AcDbLine
 10
442.1857092740103
 20
571.7256533451102
 30
0.0
 11
453.1857092740104
 21
571.7256533451102
 31
0.0
  0
LINE
  5
7FB4
330
7F04
100
AcDbEntity
  8
AM_5 寸法線
 62
     3
100
AcDbLine
 10
447.6857092740103
 20
571.7256533451102
 30
0.0
 11
450.3497270702487
 21
540.9237022778527
 31
0.0
  0
LINE
  5
7FB5
330
7F04
100
AcDbEntity
  8
AM_5 寸法線
 62
     3
100
AcDbLine
 10
450.3497270702487
 20
540.9237022778527
 30
0.0
 11
418.8497270702487
 21
540.9237022778527
 31
0.0
  0
MTEXT
  5
7FB6
330
7F04
100
AcDbEntity
  8
AM_5 寸法線
 62
     3
100
AcDbMText
 10
434.5997270702487
 20
549.0487022778527
 30
0.0
 40
8.75
 41
0.0
 46
0.0
 71
     5
 72
     1
  1
23.5
  7
SEISA
 73
     1
 44
1.0
  0
INSERT
  5
7FB7
330
7F04
100
AcDbEntity
  8
AM_5 寸法線
 62
     3
100
AcDbBlockReference
  2
_Open30
 10
435.9357092740103
 20
571.7256533451102
 30
0.0
 41
6.25
 42
6.25
 43
6.25
 50
180.0
  0
INSERT
  5
7FB8
330
7F04
100
AcDbEntity
  8
AM_5 寸法線
 62
     3
100
AcDbBlockReference
  2
_Open30
 10
459.4357092740104
 20
571.7256533451102
 30
0.0
 41
6.25
 42
6.25
 43
6.25
  0
POINT
  5
7FB9
330
7F04
100
AcDbEntity
  8
Defpoints
 62
     0
100
AcDbPoint
 10
435.9357092740103
 20
587.6433487629176
 30
0.0
  0
POINT
  5
7FBA
330
7F04
100
AcDbEntity
  8
Defpoints
 62
     0
100
AcDbPoint
 10
459.4357092740104
 20
586.6433487629174
 30
0.0
  0
POINT
  5
7FBB
330
7F04
100
AcDbEntity
  8
Defpoints
 62
     0
100
AcDbPoint
 10
459.4357092740104
 20
571.7256533451102
 30
0.0
  0
ENDBLK
  5
7F06
330
7F04
100
AcDbEntity
  8
0
100
AcDbBlockEnd
  0
BLOCK
  5
7F3D
330
7F3C
100
AcDbEntity
  8
0
100
AcDbBlockBegin
  2
*D27
 70
     1
 10
0.0
 20
0.0
 30
0.0
  3
*D27
  1

  0
LINE
  5
810F
330
7F3C
100
AcDbEntity
  8
AM_5 寸法線
 62
     3
100
AcDbLine
 10
459.4357092740104
 20
585.0808487629174
 30
0.0
 11
459.4357092740104
 21
570.1631533451099
 31
0.0
  0
LINE
  5
8110
330
7F3C
100
AcDbEntity
  8
AM_5 寸法線
 62
     3
100
AcDbLine
 10
475.9357092740104
 20
584.0808487629175
 30
0.0
 11
475.9357092740104
 21
570.1631533451099
 31
0.0
  0
LINE
  5
8111
330
7F3C
100
AcDbEntity
  8
AM_5 寸法線
 62
     3
100
AcDbLine
 10
453.1857092740104
 20
571.7256533451099
 30
0.0
 11
446.9357092740104
 21
571.7256533451099
 31
0.0
  0
LINE
  5
8112
330
7F3C
100
AcDbEntity
  8
AM_5 寸法線
 62
     3
100
AcDbLine
 10
482.1857092740104
 20
571.7256533451099
 30
0.0
 11
488.4357092740104
 21
571.7256533451099
 31
0.0
  0
LINE
  5
8113
330
7F3C
100
AcDbEntity
  8
AM_5 寸法線
 62
     3
100
AcDbLine
 10
522.7404816600315
 20
571.7256533451099
 30
0.0
 11
475.9357092740104
 21
571.7256533451099
 31
0.0
  0
MTEXT
  5
8114
330
7F3C
100
AcDbEntity
  8
AM_5 寸法線
 62
     3
100
AcDbMText
 10
507.5529816600313
 20
579.8506533451099
 30
0.0
 40
8.75
 41
0.0
 46
0.0
 71
     5
 72
     1
  1
16.5
  7
SEISA
 73
     1
 44
1.0
  0
LINE
  5
8115
330
7F3C
100
AcDbEntity
  8
AM_5 寸法線
 62
     3
100
AcDbLine
 10
459.4357092740104
 20
571.7256533451099
 30
0.0
 11
475.9357092740104
 21
571.7256533451099
 31
0.0
  0
LINE
  5
8116
330
7F3C
100
AcDbEntity
  8
AM_5 寸法線
 62
     3
100
AcDbLine
 10
459.4357092740104
 20
571.7256533451099
 30
0.0
 11
475.9357092740104
 21
571.7256533451099
 31
0.0
  0
INSERT
  5
8117
330
7F3C
100
AcDbEntity
  8
AM_5 寸法線
 62
     3
100
AcDbBlockReference
  2
_Open30
 10
459.4357092740104
 20
571.7256533451099
 30
0.0
 41
6.25
 42
6.25
 43
6.25
  0
INSERT
  5
8118
330
7F3C
100
AcDbEntity
  8
AM_5 寸法線
 62
     3
100
AcDbBlockReference
  2
_Open30
 10
475.9357092740104
 20
571.7256533451099
 30
0.0
 41
6.25
 42
6.25
 43
6.25
 50
180.0
  0
POINT
  5
8119
330
7F3C
100
AcDbEntity
  8
Defpoints
 62
     0
100
AcDbPoint
 10
459.4357092740104
 20
586.6433487629174
 30
0.0
  0
POINT
  5
811A
330
7F3C
100
AcDbEntity
  8
Defpoints
 62
     0
100
AcDbPoint
 10
475.9357092740104
 20
585.6433487629175
 30
0.0
  0
POINT
  5
811B
330
7F3C
100
AcDbEntity
  8
Defpoints
 62
     0
100
AcDbPoint
 10
475.9357092740104
 20
571.7256533451099
 30
0.0
  0
ENDBLK
  5
7F3E
330
7F3C
100
AcDbEntity
  8
0
100
AcDbBlockEnd
  0
BLOCK
  5
816E
330
816D
100
AcDbEntity
  8
0
100
AcDbBlockBegin
  2
ケース
 70
     0
 10
0.0
 20
0.0
 30
0.0
  3
ケース
  1

  0
LINE
  5
8170
330
816D
100
AcDbEntity
  8
AM_11 想像線
 48
0.2
100
AcDbLine
 10
0.0
 20
-11.49999999999977
 30
0.0
 11
-1.011700223928869
 21
-11.49999999999977
 31
0.0
  0
LINE
  5
8171
330
816D
100
AcDbEntity
  8
AM_11 想像線
 48
0.2
100
AcDbLine
 10
0.0
 20
-9.499999999999886
 30
0.0
 11
-4.011700223928982
 21
-9.499999999999886
 31
0.0
  0
LINE
  5
8172
330
816D
100
AcDbEntity
  8
AM_11 想像線
 48
0.2
100
AcDbLine
 10
0.0
 20
0.0
 30
0.0
 11
-16.51170022392898
 21
0.0
 31
0.0
  0
LINE
  5
8173
330
816D
100
AcDbEntity
  8
AM_11 想像線
 48
0.2
100
AcDbLine
 10
0.0
 20
-6.999999999999886
 30
0.0
 11
-2.011700223928869
 21
-6.999999999999886
 31
0.0
  0
LINE
  5
8174
330
816D
100
AcDbEntity
  8
AM_11 想像線
 48
0.2
100
AcDbLine
 10
-2.011700223928869
 20
-8.187014999999746
 30
0.0
 11
-2.011700223928869
 21
-7.5
 31
0.0
  0
LINE
  5
8175
330
816D
100
AcDbEntity
  8
AM_11 想像線
 48
0.2
100
AcDbLine
 10
-6.511700223928982
 20
-13.24999999999988
 30
0.0
 11
-6.511700223928982
 21
-7.5
 31
0.0
  0
LINE
  5
8176
330
816D
100
AcDbEntity
  8
AM_11 想像線
 48
0.2
100
AcDbLine
 10
-19.51170022392887
 20
-2.999999999999886
 30
0.0
 11
-19.51170022392887
 21
-13.24999999999988
 31
0.0
  0
LINE
  5
8177
330
816D
100
AcDbEntity
  8
AM_11 想像線
 48
0.2
100
AcDbLine
 10
-16.31170022392882
 20
-9.79999999999984
 30
0.0
 11
-9.711700223928913
 21
-9.79999999999984
 31
0.0
  0
ARC
  5
8178
330
816D
100
AcDbEntity
  8
AM_11 想像線
 48
0.2
100
AcDbCircle
 10
-16.31170022392882
 20
-10.29999999999972
 30
0.0
 40
0.5
100
AcDbArc
 50
90.0
 51
180.0
  0
LINE
  5
8179
330
816D
100
AcDbEntity
  8
AM_11 想像線
 48
0.2
100
AcDbLine
 10
-16.81170022392871
 20
-13.24999999999988
 30
0.0
 11
-16.81170022392871
 21
-10.29999999999972
 31
0.0
  0
LINE
  5
817A
330
816D
100
AcDbEntity
  8
AM_11 想像線
 48
0.2
100
AcDbLine
 10
-16.81170022392871
 20
-13.24999999999988
 30
0.0
 11
-16.81170022392871
 21
-14.49999999999988
 31
0.0
  0
LINE
  5
817B
330
816D
100
AcDbEntity
  8
AM_11 想像線
 48
0.2
100
AcDbLine
 10
-19.51170022392887
 20
-13.24999999999988
 30
0.0
 11
-16.81170022392871
 21
-13.24999999999988
 31
0.0
  0
LINE
  5
817C
330
816D
100
AcDbEntity
  8
AM_11 想像線
 48
0.2
100
AcDbLine
 10
-19.51170022392887
 20
-13.24999999999988
 30
0.0
 11
-19.51170022392887
 21
-14.49999999999988
 31
0.0
  0
LINE
  5
817D
330
816D
100
AcDbEntity
  8
AM_11 想像線
 48
0.2
100
AcDbLine
 10
-9.211700223928801
 20
-13.24999999999988
 30
0.0
 11
-6.511700223928982
 21
-13.24999999999988
 31
0.0
  0
LINE
  5
817E
330
816D
100
AcDbEntity
  8
AM_11 想像線
 48
0.2
100
AcDbLine
 10
-9.211700223928801
 20
-10.29999999999972
 30
0.0
 11
-9.211700223928801
 21
-13.24999999999988
 31
0.0
  0
ARC
  5
817F
330
816D
100
AcDbEntity
  8
AM_11 想像線
 48
0.2
100
AcDbCircle
 10
-9.711700223928913
 20
-10.29999999999972
 30
0.0
 40
0.5
100
AcDbArc
 50
0.0
 51
90.0
  0
LINE
  5
8180
330
816D
100
AcDbEntity
  8
AM_11 想像線
 48
0.2
100
AcDbLine
 10
-6.511700223928982
 20
-13.24999999999988
 30
0.0
 11
-6.511700223928982
 21
-14.49999999999988
 31
0.0
  0
LINE
  5
8181
330
816D
100
AcDbEntity
  8
AM_11 想像線
 48
0.2
100
AcDbLine
 10
-9.211700223928801
 20
-13.24999999999988
 30
0.0
 11
-9.211700223928801
 21
-14.49999999999988
 31
0.0
  0
LINE
  5
8182
330
816D
100
AcDbEntity
  8
AM_11 想像線
 48
0.2
100
AcDbLine
 10
-2.011700223928869
 20
-10.49999999999988
 30
0.0
 11
-1.011700223928869
 21
-11.49999999999977
 31
0.0
  0
LINE
  5
8183
330
816D
100
AcDbEntity
  8
AM_11 想像線
 48
0.2
100
AcDbLine
 10
-2.011700223928869
 20
-8.187014999999746
 30
0.0
 11
-2.011700223928869
 21
-10.49999999999988
 31
0.0
  0
ARC
  5
8184
330
816D
100
AcDbEntity
  8
AM_11 想像線
 48
0.2
100
AcDbCircle
 10
-16.51170022392898
 20
-2.999999999999886
 30
0.0
 40
3.0
100
AcDbArc
 50
90.0
 51
180.0
  0
ARC
  5
8185
330
816D
100
AcDbEntity
  8
AM_11 想像線
 48
0.2
100
AcDbCircle
 10
-3.011700223928754
 20
-7.5
 30
0.0
 40
1.0
100
AcDbArc
 50
0.0
 51
90.0
  0
LINE
  5
8186
330
816D
100
AcDbEntity
  8
AM_11 想像線
 48
0.2
100
AcDbLine
 10
-5.511700223928754
 20
-6.499999999999772
 30
0.0
 11
-3.011700223928754
 21
-6.499999999999772
 31
0.0
  0
ARC
  5
8187
330
816D
100
AcDbEntity
  8
AM_11 想像線
 48
0.2
100
AcDbCircle
 10
-5.511700223928754
 20
-7.5
 30
0.0
 40
1.0
100
AcDbArc
 50
90.0
 51
180.0
  0
ENDBLK
  5
816F
330
816D
100
AcDbEntity
  8
0
100
AcDbBlockEnd
  0
ENDSEC
  0
SECTION
  2
ENTITIES
  0
LINE
  5
40E4
330
1F
100
AcDbEntity
  8
AM_7 中心線
100
AcDbLine
 10
480.9357092740103
 20
527.1433487629175
 30
0.0
 11
370.9357092740105
 21
527.1433487629175
 31
0.0
  0
LINE
  5
4114
330
1F
100
AcDbEntity
  8
AM_7 中心線
100
AcDbLine
 10
480.9357092740103
 20
527.1433487629175
 30
0.0
 11
590.9357092740105
 21
527.1433487629175
 31
0.0
  0
LINE
  5
413A
330
1F
100
AcDbEntity
  8
AM_0 外形線1
100
AcDbLine
 10
465.9357092740105
 20
606.3433487629176
 30
0.0
 11
465.9357092740105
 21
625.9433487629173
 31
0.0
  0
LINE
  5
413D
330
1F
100
AcDbEntity
  8
AM_0 外形線1
100
AcDbLine
 10
480.9357092740103
 20
621.6433487629174
 30
0.0
 11
480.9357092740103
 21
626.1433487629175
 31
0.0
  0
LINE
  5
4144
330
1F
100
AcDbEntity
  8
AM_0 外形線1
100
AcDbLine
 10
492.9357092740104
 20
610.6433487629175
 30
0.0
 11
467.4357092740105
 21
610.6433487629175
 31
0.0
  0
LINE
  5
4145
330
1F
100
AcDbEntity
  8
AM_0 外形線1
100
AcDbLine
 10
467.4357092740105
 20
621.6433487629174
 30
0.0
 11
492.9357092740104
 21
621.6433487629174
 31
0.0
  0
LINE
  5
4186
330
1F
100
AcDbEntity
  8
AM_0 外形線1
100
AcDbLine
 10
458.9357092740105
 20
607.6433487629176
 30
0.0
 11
459.6862642740104
 21
606.3433487629176
 31
0.0
  0
INSERT
  5
583C
102
{ACAD_REACTORS
330
6647
330
6677
330
67E7
102
}
330
1F
100
AcDbEntity
  8
AM_0 外形線1
100
AcDbBlockReference
  2
ケースＡ SSM200
 10
480.9357092740103
 20
527.1433487629175
 30
0.0
  0
INSERT
  5
59DD
102
{ACAD_REACTORS
330
65DF
330
67B5
330
67E7
330
686B
102
}
330
1F
100
AcDbEntity
  8
AM_0 外形線1
100
AcDbBlockReference
  2
ケースＢ SSM200
 10
480.9357092740103
 20
527.1433487629175
 30
0.0
  0
INSERT
  5
5B10
102
{ACAD_REACTORS
330
6582
330
659A
330
662F
330
6DE5
102
}
330
1F
100
AcDbEntity
  8
AM_0 外形線1
100
AcDbBlockReference
  2
センタＡ SSM200
 10
485.9357092740103
 20
527.1433487629175
 30
0.0
  0
INSERT
  5
5C07
102
{ACAD_REACTORS
330
652C
330
6566
330
6582
330
65DF
330
6DE5
330
7F12
102
}
330
1F
100
AcDbEntity
  8
AM_0 外形線1
100
AcDbBlockReference
  2
センタＢ SSM200
 10
475.9357092740104
 20
527.1433487629175
 30
0.0
  0
INSERT
  5
5D74
330
1F
100
AcDbEntity
  8
AM_0 外形線1
100
AcDbBlockReference
  2
リーマボルト SSM200 M10
 10
465.9357092740105
 20
616.1433487629176
 30
0.0
  0
DIMENSION
  5
6515
102
{ACAD_XDICTIONARY
360
6522
102
}
102
{ACAD_REACTORS
330
652C
102
}
330
1F
100
AcDbEntity
  8
AM_5 寸法線
100
AcDbDimension
  2
*D12
 10
337.8207661036778
 20
467.1433487629174
 30
0.0
 11
337.8207661036777
 21
534.6661295409186
 31
0.0
 70
   160
  1
%%c<>
 71
     5
 42
120.0
 73
     0
 74
     0
 75
     0
  3
SEISA$0
100
AcDbAlignedDimension
 13
408.9357092740105
 23
587.1433487629174
 33
0.0
 14
408.9357092740105
 24
467.1433487629174
 34
0.0
 50
90.0
100
AcDbRotatedDimension
1001
ACAD_DSTYLE_DIMINSPECT
1070
   396
1000
100%
1070
   395
1000

1070
   394
1070
    33
1070
   393
1070
     0
  0
DIMENSION
  5
654F
102
{ACAD_XDICTIONARY
360
655C
102
}
102
{ACAD_REACTORS
330
6566
102
}
330
1F
100
AcDbEntity
  8
AM_5 寸法線
100
AcDbDimension
  2
*D13
 10
475.9357092740104
 20
537.3951181591046
 30
0.0
 11
396.3254515579
 21
545.6780305730583
 31
0.0
 70
   160
 71
     5
 42
100.0
 73
     0
 74
     0
 75
     0
  3
SEISA$0
100
AcDbAlignedDimension
 13
375.9357092740105
 23
527.1433487629175
 33
0.0
 14
475.9357092740104
 24
527.1433487629175
 34
0.0
100
AcDbRotatedDimension
1001
ACAD
1000
DSTYLE
1002
{
1070
   279
1070
     2
1002
}
  0
DIMENSION
  5
6567
102
{ACAD_XDICTIONARY
360
6576
102
}
102
{ACAD_REACTORS
330
6582
102
}
330
1F
100
AcDbEntity
  8
AM_5 寸法線
100
AcDbDimension
  2
*D14
 10
485.9357092740103
 20
537.3951181591046
 30
0.0
 11
496.5948794127988
 21
544.8259650515342
 31
0.0
 70
   160
 71
     5
 42
10.0
 73
     0
 74
     0
 75
     0
  3
SEISA$0
100
AcDbAlignedDimension
 13
475.9357092740104
 23
527.1433487629175
 33
0.0
 14
485.9357092740103
 24
527.1433487629175
 34
0.0
100
AcDbRotatedDimension
1001
ACAD
1000
DSTYLE
1002
{
1070
   279
1070
     2
1002
}
  0
DIMENSION
  5
6583
102
{ACAD_XDICTIONARY
360
6590
102
}
102
{ACAD_REACTORS
330
659A
102
}
330
1F
100
AcDbEntity
  8
AM_5 寸法線
100
AcDbDimension
  2
*D15
 10
585.9357092740103
 20
537.3951181591046
 30
0.0
 11
535.9357092740103
 21
545.5201181591046
 31
0.0
 70
    32
 71
     5
 42
100.0
 73
     0
 74
     0
 75
     0
  3
SEISA$0
100
AcDbAlignedDimension
 13
485.9357092740103
 23
527.1433487629175
 33
0.0
 14
585.9357092740103
 24
527.1433487629175
 34
0.0
100
AcDbRotatedDimension
  0
DIMENSION
  5
65C4
102
{ACAD_XDICTIONARY
360
65D3
102
}
102
{ACAD_REACTORS
330
65DF
102
}
330
1F
100
AcDbEntity
  8
AM_5 寸法線
100
AcDbDimension
  2
*D16
 10
435.9357092740103
 20
571.7256533451102
 30
0.0
 11
414.0607092740102
 21
571.7256533451102
 31
0.0
 70
   160
 71
     5
 42
3.000000000000113
 73
     0
 74
     0
 75
     0
  3
SEISA$0
100
AcDbAlignedDimension
 13
432.9357092740103
 23
587.1433487629174
 33
0.0
 14
435.9357092740103
 24
587.6433487629176
 34
0.0
100
AcDbRotatedDimension
  0
DIMENSION
  5
6618
102
{ACAD_XDICTIONARY
360
6625
102
}
102
{ACAD_REACTORS
330
662F
102
}
330
1F
100
AcDbEntity
  8
AM_5 寸法線
100
AcDbDimension
  2
*D17
 10
634.6596067740104
 20
467.1433487629174
 30
0.0
 11
626.5346067740104
 21
527.1433487629176
 31
0.0
 70
    32
  1
%%c<>
 71
     5
 42
120.0
 73
     0
 74
     0
 75
     0
  3
SEISA$0
100
AcDbAlignedDimension
 13
552.9357092740102
 23
587.1433487629174
 33
0.0
 14
552.9357092740102
 24
467.1433487629174
 34
0.0
 50
90.0
100
AcDbRotatedDimension
1001
ACAD_DSTYLE_DIMINSPECT
1070
   396
1000
100%
1070
   395
1000

1070
   394
1070
    33
1070
   393
1070
     0
  0
DIMENSION
  5
6630
102
{ACAD_XDICTIONARY
360
663D
102
}
102
{ACAD_REACTORS
330
6647
102
}
330
1F
100
AcDbEntity
  8
AM_5 寸法線
100
AcDbDimension
  2
*D18
 10
659.6596067740106
 20
452.6433487629176
 30
0.0
 11
651.5346067740105
 21
527.1433487629176
 31
0.0
 70
    32
  1
%%c<>
 71
     5
 42
148.9999999999999
 73
     0
 74
     0
 75
     0
  3
SEISA$0
100
AcDbAlignedDimension
 13
538.9357092740104
 23
601.6433487629175
 33
0.0
 14
537.7193967740104
 24
452.6433487629176
 34
0.0
 50
90.0
100
AcDbRotatedDimension
1001
ACAD_DSTYLE_DIMINSPECT
1070
   396
1000
100%
1070
   395
1000

1070
   394
1070
    33
1070
   393
1070
     0
  0
DIMENSION
  5
6660
102
{ACAD_XDICTIONARY
360
666D
102
}
102
{ACAD_REACTORS
330
6677
102
}
330
1F
100
AcDbEntity
  8
AM_5 寸法線
100
AcDbDimension
  2
*D19
 10
684.6596067740107
 20
427.1433487629174
 30
0.0
 11
676.5346067740106
 21
527.1433487629176
 31
0.0
 70
    32
  1
%%c<>
 71
     5
 42
200.0
 73
     0
 74
     0
 75
     0
  3
SEISA$0
100
AcDbAlignedDimension
 13
494.9357092740105
 23
627.1433487629175
 33
0.0
 14
494.9357092740105
 24
427.1433487629174
 34
0.0
 50
90.0
100
AcDbRotatedDimension
1001
ACAD_DSTYLE_DIMINSPECT
1070
   396
1000
100%
1070
   395
1000

1070
   394
1070
    33
1070
   393
1070
     0
  0
DIMENSION
  5
679A
102
{ACAD_XDICTIONARY
360
67A9
102
}
102
{ACAD_REACTORS
330
67B5
102
}
330
1F
100
AcDbEntity
  8
AM_5 寸法線
100
AcDbDimension
  2
*D20
 10
480.9357092740103
 20
402.1433487629174
 30
0.0
 11
454.38828148737
 21
410.4393303678943
 31
0.0
 70
   160
 71
     5
 42
15.0
 73
     0
 74
     0
 75
     0
  3
SEISA$0
100
AcDbAlignedDimension
 13
465.9357092740105
 23
428.1433487629175
 33
0.0
 14
480.9357092740103
 24
428.1433487629175
 34
0.0
100
AcDbRotatedDimension
1001
ACAD_DSTYLE_DIMINSPECT
1070
   396
1000
100%
1070
   395
1000

1070
   394
1070
    33
1070
   393
1070
     0
1001
ACAD
1000
DSTYLE
1002
{
1070
   173
1070
     1
1070
   279
1070
     2
1070
   342
1005
0
1070
   343
1005
69
1070
   344
1005
7266
1002
}
  0
DIMENSION
  5
67CC
102
{ACAD_XDICTIONARY
360
67DB
102
}
102
{ACAD_REACTORS
330
67E7
102
}
330
1F
100
AcDbEntity
  8
AM_5 寸法線
100
AcDbDimension
  2
*D21
 10
495.9357092740105
 20
402.1433487629174
 30
0.0
 11
505.8202824105428
 21
410.3239467766366
 31
0.0
 70
   160
 71
     5
 42
15.0
 73
     0
 74
     0
 75
     0
  3
SEISA$0
100
AcDbAlignedDimension
 13
480.9357092740103
 23
428.1433487629175
 33
0.0
 14
495.9357092740105
 24
428.1433487629175
 34
0.0
100
AcDbRotatedDimension
1001
ACAD_DSTYLE_DIMINSPECT
1070
   396
1000
100%
1070
   395
1000

1070
   394
1070
    33
1070
   393
1070
     0
1001
ACAD
1000
DSTYLE
1002
{
1070
   173
1070
     1
1070
   279
1070
     2
1070
   342
1005
0
1070
   343
1005
7266
1070
   344
1005
69
1002
}
  0
DIMENSION
  5
6854
102
{ACAD_XDICTIONARY
360
6861
102
}
102
{ACAD_REACTORS
330
686B
102
}
330
1F
100
AcDbEntity
  8
AM_5 寸法線
100
AcDbDimension
  2
*D22
 10
541.9357092740105
 20
377.1433487629175
 30
0.0
 11
480.9357092740103
 21
385.2683487629176
 31
0.0
 70
    32
 71
     5
 42
122.0000000000001
 73
     0
 74
     0
 75
     0
  3
SEISA$0
100
AcDbAlignedDimension
 13
419.9357092740103
 23
455.6433487629174
 33
0.0
 14
541.9357092740105
 24
455.6433487629174
 34
0.0
100
AcDbRotatedDimension
  0
DIMENSION
  5
6DCE
102
{ACAD_XDICTIONARY
360
6DDB
102
}
102
{ACAD_REACTORS
330
6DE5
102
}
330
1F
100
AcDbEntity
  8
AM_5 寸法線
100
AcDbDimension
  2
*D23
 10
585.9357092740103
 20
352.1433487629175
 30
0.0
 11
480.9357092740103
 21
360.2683487629175
 31
0.0
 70
    32
 71
     5
 42
210.0
 73
     0
 74
     0
 75
     0
  3
SEISA$0
100
AcDbAlignedDimension
 13
375.9357092740105
 23
471.3481622835957
 33
0.0
 14
585.9357092740103
 24
471.3481622835957
 34
0.0
100
AcDbRotatedDimension
  0
LINE
  5
737B
330
1F
100
AcDbEntity
  8
AM_5 寸法線
100
AcDbLine
 10
453.4357092740105
 20
402.1433487629174
 30
0.0
 11
446.2897365208053
 21
402.1433487629174
 31
0.0
  0
LINE
  5
737C
330
1F
100
AcDbEntity
  8
AM_5 寸法線
100
AcDbLine
 10
508.4357092740105
 20
402.1433487629174
 30
0.0
 11
512.4297489048716
 21
402.1433487629174
 31
0.0
  0
MTEXT
  5
7C1A
330
1F
100
AcDbEntity
  8
AM_6 文字
100
AcDbMText
 10
605.65453465385
 20
415.3777939204405
 30
0.0
 40
8.75
 41
174.749754589915
 46
24.39230497740728
 71
     1
 72
     5
  1
{\W0.6;TYPE:SSM200/SSMH200\PSHAFT DIA:MAX/MIN φ85/φ32}
  7
SEISA
 73
     1
 44
1.0
  0
DIMENSION
  5
7C57
330
1F
100
AcDbEntity
  8
AM_5 寸法線
100
AcDbDimension
  2
*D25
 10
375.9357092740105
 20
627.1433487629175
 30
0.0
 11
394.8107092740105
 21
635.2683487629175
 31
0.0
 70
    32
 71
     5
 42
5.000000000000169
 73
     0
 74
     0
 75
     0
  3
SEISA$0
100
AcDbAlignedDimension
 13
370.9357092740103
 23
598.6433487629175
 33
0.0
 14
375.9357092740105
 24
583.5433487629172
 34
0.0
100
AcDbRotatedDimension
1001
ACAD_DSTYLE_DIMINSPECT
1070
   396
1000
100%
1070
   395
1000

1070
   394
1070
    33
1070
   393
1070
     0
  0
DIMENSION
  5
7F03
102
{ACAD_XDICTIONARY
360
7F11
102
}
102
{ACAD_REACTORS
330
7F12
102
}
330
1F
100
AcDbEntity
  8
AM_5 寸法線
100
AcDbDimension
  2
*D26
 10
459.4357092740104
 20
571.7256533451102
 30
0.0
 11
446.5997270702486
 21
540.9237022778527
 31
0.0
 70
   160
 71
     5
 42
23.50000000000012
 73
     0
 74
     0
 75
     0
  3
SEISA$0
100
AcDbAlignedDimension
 13
435.9357092740103
 23
587.6433487629176
 33
0.0
 14
459.4357092740104
 24
586.6433487629174
 34
0.0
 50
0.0000000000001132
100
AcDbRotatedDimension
1001
ACAD_DSTYLE_DIMINSPECT
1070
   396
1000
100%
1070
   395
1000

1070
   394
1070
    33
1070
   393
1070
     0
1001
ACAD
1000
DSTYLE
1002
{
1070
   279
1070
     1
1002
}
  0
DIMENSION
  5
7F3B
330
1F
100
AcDbEntity
  8
AM_5 寸法線
100
AcDbDimension
  2
*D27
 10
475.9357092740104
 20
571.7256533451099
 30
0.0
 11
507.5529816600313
 21
570.2918801331925
 31
0.0
 70
   160
 71
     5
 42
16.5
 73
     0
 74
     0
 75
     0
  3
SEISA$0
100
AcDbAlignedDimension
 13
459.4357092740104
 23
586.6433487629174
 33
0.0
 14
475.9357092740104
 24
585.6433487629175
 34
0.0
 50
0.0000000000001132
100
AcDbRotatedDimension
1001
ACAD_DSTYLE_DIMINSPECT
1070
   396
1000
100%
1070
   395
1000

1070
   394
1070
    33
1070
   393
1070
     0
1001
ACAD
1000
DSTYLE
1002
{
1070
   279
1070
     1
1002
}
  0
INSERT
  5
8193
330
1F
100
AcDbEntity
  8
AM_0 外形線1
100
AcDbBlockReference
  2
ケース
 10
390.4474094979392
 20
601.6433487629174
 30
0.0
  0
ENDSEC
  0
SECTION
  2
OBJECTS
  0
DICTIONARY
  5
C
330
0
100
AcDbDictionary
281
     1
  3
ACAD_COLOR
350
C5
  3
ACAD_GROUP
350
D
  3
ACAD_LAYOUT
350
1A
  3
ACAD_MATERIAL
350
C4
  3
ACAD_MLEADERSTYLE
350
2D5
  3
ACAD_MLINESTYLE
350
17
  3
ACAD_PLOTSETTINGS
350
19
  3
ACAD_PLOTSTYLENAME
350
E
  3
ACAD_SCALELIST
350
2B3
  3
ACAD_TABLESTYLE
350
121
  3
ACAD_VISUALSTYLE
350
27F
  3
ACDB_RECOMPOSE_DATA
350
2F7
  3
AcDbVariableDictionary
350
34
  3
AcmDictionary
350
49
  3
AMG
350
2B
  3
AMGSNAPSETTINGS
350
1DE
  0
DICTIONARY
  5
BF
330
2
100
AcDbDictionary
280
     1
281
     1
  3
ACAD_LAYERSTATES
360
4560
  3
AMLAYER_GROUPCOLORS
360
C0
  0
DICTIONARY
  5
29D8
330
10
100
AcDbDictionary
280
     1
281
     1
  3
ADSK_XREC_LAYER_RECONCILED
360
29D9
  0
DICTIONARY
  5
29DA
330
81
100
AcDbDictionary
280
     1
281
     1
  3
ADSK_XREC_LAYER_RECONCILED
360
29DB
  0
DICTIONARY
  5
29E1
330
25C9
100
AcDbDictionary
280
     1
281
     1
  3
ADSK_XREC_LAYER_RECONCILED
360
29E2
  0
DICTIONARY
  5
29E3
330
25CA
100
AcDbDictionary
280
     1
281
     1
  3
ADSK_XREC_LAYER_RECONCILED
360
29E4
  0
DICTIONARY
  5
29E9
330
26B3
100
AcDbDictionary
280
     1
281
     1
  3
ADSK_XREC_LAYER_RECONCILED
360
29EA
  0
DICTIONARY
  5
82
330
1F
100
AcDbDictionary
280
     1
281
     1
  3
ACAD_SORTENTS
360
A41
  0
DICTIONARY
  5
57EC
330
573C
100
AcDbDictionary
280
     1
281
     1
  3
ACAD_SORTENTS
360
6010
  0
DICTIONARY
  5
58FB
330
57EE
100
AcDbDictionary
280
     1
281
     1
  3
ACAD_SORTENTS
360
76D3
  0
DICTIONARY
  5
5A57
330
599B
100
AcDbDictionary
280
     1
281
     1
  3
ACAD_SORTENTS
360
7608
  0
DICTIONARY
  5
5B63
330
5AF7
100
AcDbDictionary
280
     1
281
     1
  3
ACAD_SORTENTS
360
801E
  0
DICTIONARY
  5
619D
330
5BDC
100
AcDbDictionary
280
     1
281
     1
  3
ACAD_SORTENTS
360
8058
  0
DICTIONARY
  5
5DDA
330
5D45
100
AcDbDictionary
280
     1
281
     1
  3
ACAD_SORTENTS
360
776E
  0
DICTIONARY
  5
6522
330
6515
100
AcDbDictionary
280
     1
281
     1
  3
ACAD_DIMASSOC
360
652C
  0
DICTIONARY
  5
655C
330
654F
100
AcDbDictionary
280
     1
281
     1
  3
ACAD_DIMASSOC
360
6566
  0
DICTIONARY
  5
6576
330
6567
100
AcDbDictionary
280
     1
281
     1
  3
ACAD_DIMASSOC
360
6582
  0
DICTIONARY
  5
6590
330
6583
100
AcDbDictionary
280
     1
281
     1
  3
ACAD_DIMASSOC
360
659A
  0
DICTIONARY
  5
65D3
330
65C4
100
AcDbDictionary
280
     1
281
     1
  3
ACAD_DIMASSOC
360
65DF
  0
DICTIONARY
  5
6625
330
6618
100
AcDbDictionary
280
     1
281
     1
  3
ACAD_DIMASSOC
360
662F
  0
DICTIONARY
  5
663D
330
6630
100
AcDbDictionary
280
     1
281
     1
  3
ACAD_DIMASSOC
360
6647
  0
DICTIONARY
  5
666D
330
6660
100
AcDbDictionary
280
     1
281
     1
  3
ACAD_DIMASSOC
360
6677
  0
DICTIONARY
  5
67A9
330
679A
100
AcDbDictionary
280
     1
281
     1
  3
ACAD_DIMASSOC
360
67B5
  0
DICTIONARY
  5
67DB
330
67CC
100
AcDbDictionary
280
     1
281
     1
  3
ACAD_DIMASSOC
360
67E7
  0
DICTIONARY
  5
6861
330
6854
100
AcDbDictionary
280
     1
281
     1
  3
ACAD_DIMASSOC
360
686B
  0
DICTIONARY
  5
6DDB
330
6DCE
100
AcDbDictionary
280
     1
281
     1
  3
ACAD_DIMASSOC
360
6DE5
  0
DICTIONARY
  5
7F11
330
7F03
100
AcDbDictionary
280
     1
281
     1
  3
ACAD_DIMASSOC
360
7F12
  0
DICTIONARY
  5
C5
102
{ACAD_REACTORS
330
C
102
}
330
C
100
AcDbDictionary
281
     1
  0
DICTIONARY
  5
D
102
{ACAD_REACTORS
330
C
102
}
330
C
100
AcDbDictionary
281
     1
  0
DICTIONARY
  5
1A
102
{ACAD_REACTORS
330
C
102
}
330
C
100
AcDbDictionary
281
     1
  3
Model
350
22
  3
レイアウト1
350
1E
  3
レイアウト2
350
26
  0
DICTIONARY
  5
C4
102
{ACAD_REACTORS
330
C
102
}
330
C
100
AcDbDictionary
281
     1
  3
ByBlock
350
27D
  3
ByLayer
350
27C
  3
Global
350
27E
  0
DICTIONARY
  5
2D5
102
{ACAD_REACTORS
330
C
102
}
330
C
100
AcDbDictionary
281
     1
  3
Standard
350
2D6
  0
DICTIONARY
  5
17
102
{ACAD_REACTORS
330
C
102
}
330
C
100
AcDbDictionary
281
     1
  3
Standard
350
18
  0
DICTIONARY
  5
19
102
{ACAD_REACTORS
330
C
102
}
330
C
100
AcDbDictionary
281
     1
  3
SEISA基本
350
1C7E
  0
ACDBDICTIONARYWDFLT
  5
E
102
{ACAD_REACTORS
330
C
102
}
330
C
100
AcDbDictionary
281
     1
  3
Normal
350
F
100
AcDbDictionaryWithDefault
340
F
  0
DICTIONARY
  5
2B3
102
{ACAD_REACTORS
330
C
102
}
330
C
100
AcDbDictionary
281
     1
  3
*A1
350
29F3
  3
*A2
350
7C11
  3
A0
350
2B4
  3
A1
350
2B5
  3
A2
350
2B6
  3
A3
350
2B7
  3
A4
350
2B8
  3
A5
350
2B9
  3
A6
350
2BA
  3
A7
350
2BB
  3
A8
350
2BC
  3
A9
350
2BD
  3
B0
350
2BE
  3
B1
350
2BF
  3
B2
350
2C0
  3
B3
350
2C1
  3
B4
350
2C2
  3
B5
350
2C3
  3
B6
350
2C4
  3
B7
350
2C5
  3
B8
350
2C6
  3
B9
350
2C7
  3
C0
350
2C8
  3
C1
350
2C9
  3
C2
350
2CA
  3
C3
350
2CB
  3
C4
350
2CC
  3
C5
350
2CD
  3
C6
350
2CE
  3
C7
350
2CF
  3
C8
350
2D0
  3
C9
350
2D1
  3
D0
350
2D2
  3
D1
350
2D3
  3
D2
350
2D4
  0
DICTIONARY
  5
121
102
{ACAD_REACTORS
330
C
102
}
330
C
100
AcDbDictionary
281
     1
  3
Standard
350
122
  0
DICTIONARY
  5
27F
102
{ACAD_REACTORS
330
C
102
}
330
C
100
AcDbDictionary
281
     1
  3
2dWireframe
350
285
  3
3D Hidden
350
287
  3
3dWireframe
350
286
  3
Basic
350
284
  3
Brighten
350
28B
  3
ColorChange
350
28F
  3
Conceptual
350
288
  3
Dim
350
28A
  3
Facepattern
350
28E
  3
Flat
350
280
  3
FlatWithEdges
350
281
  3
Gouraud
350
282
  3
GouraudWithEdges
350
283
  3
Linepattern
350
28D
  3
Realistic
350
289
  3
Thicken
350
28C
  0
XRECORD
  5
2F7
102
{ACAD_REACTORS
330
C
102
}
330
C
100
AcDbXrecord
280
     1
 90
        1
330
122
  0
DICTIONARY
  5
34
102
{ACAD_REACTORS
330
C
102
}
330
C
100
AcDbDictionary
281
     1
  3
CANNOSCALE
350
2FA
  3
CMLEADERSTYLE
350
2F8
  3
CTABLESTYLE
350
140
  3
DIMASSOC
350
AC
  3
INDEXCTL
350
35
  3
LAYEREVAL
350
5E8B
  3
LAYERNOTIFY
350
5E8C
  3
LIGHTINGUNITS
350
2FB
  3
MSLTSCALE
350
2F9
  0
DICTIONARY
  5
49
102
{ACAD_REACTORS
330
C
102
}
330
C
100
AcDbDictionary
281
     1
  3
AcmBOM
350
161B
  3
AcmStdDictionary
350
4A
  3
AMDTSECTSYM_ARROWCOLOR
350
12B
  0
DICTIONARY
  5
2B
102
{ACAD_REACTORS
330
C
102
}
330
C
100
AcDbDictionary
281
     1
  0
DICTIONARY
  5
1DE
102
{ACAD_REACTORS
330
C
102
}
330
C
100
AcDbDictionary
281
     1
  0
DICTIONARY
  5
4560
102
{ACAD_REACTORS
330
BF
102
}
330
BF
100
AcDbDictionary
281
     1
  0
DICTIONARY
  5
C0
102
{ACAD_REACTORS
330
BF
102
}
330
BF
100
AcDbDictionary
280
     1
281
     1
  0
XRECORD
  5
29D9
102
{ACAD_REACTORS
330
29D8
102
}
330
29D8
100
AcDbXrecord
280
     1
290
     1
  0
XRECORD
  5
29DB
102
{ACAD_REACTORS
330
29DA
102
}
330
29DA
100
AcDbXrecord
280
     1
290
     1
  0
XRECORD
  5
29E2
102
{ACAD_REACTORS
330
29E1
102
}
330
29E1
100
AcDbXrecord
280
     1
290
     1
  0
XRECORD
  5
29E4
102
{ACAD_REACTORS
330
29E3
102
}
330
29E3
100
AcDbXrecord
280
     1
290
     1
  0
XRECORD
  5
29EA
102
{ACAD_REACTORS
330
29E9
102
}
330
29E9
100
AcDbXrecord
280
     1
290
     1
  0
SORTENTSTABLE
  5
A41
102
{ACAD_REACTORS
330
82
102
}
330
82
100
AcDbSortentsTable
330
1F
331
6515
  5
654F
331
4186
  5
4187
331
6DCE
  5
6E09
331
6660
  5
66F9
331
4145
  5
4146
331
5C07
  5
5D74
331
4114
  5
4114
331
6567
  5
6583
331
67CC
  5
683C
331
679A
  5
67CC
331
59DD
  5
5B10
331
65C4
  5
65F6
331
7C1A
  5
7C1A
331
737B
  5
737C
331
5D74
  5
6415
331
6583
  5
65C4
331
6854
  5
686C
331
583C
  5
59DD
331
6618
  5
6630
331
737C
  5
737D
331
7C57
  5
7C57
331
6630
  5
6660
331
413D
  5
413D
331
4144
  5
4145
331
5B10
  5
5C07
331
40E4
  5
40E4
331
654F
  5
6567
331
413A
  5
413A
  0
SORTENTSTABLE
  5
6010
102
{ACAD_REACTORS
330
57EC
102
}
330
57EC
100
AcDbSortentsTable
330
573C
331
5747
  5
57EB
331
573F
  5
5740
331
5745
  5
5746
331
5743
  5
5744
331
5741
  5
5742
331
5746
  5
5747
331
5744
  5
5745
331
57EB
  5
573F
331
5742
  5
5743
331
5740
  5
5741
  0
SORTENTSTABLE
  5
76D3
102
{ACAD_REACTORS
330
58FB
102
}
330
58FB
100
AcDbSortentsTable
330
57EE
  0
SORTENTSTABLE
  5
7608
102
{ACAD_REACTORS
330
5A57
102
}
330
5A57
100
AcDbSortentsTable
330
599B
  0
SORTENTSTABLE
  5
801E
102
{ACAD_REACTORS
330
5B63
102
}
330
5B63
100
AcDbSortentsTable
330
5AF7
331
5B07
  5
5B49
331
5AFF
  5
5B09
331
5B4C
  5
5B01
331
5B08
  5
5B4A
331
5B00
  5
5B0A
331
5B09
  5
5B4B
331
5B01
  5
5B0B
331
7EE6
  5
5AFA
331
5B0A
  5
5B4C
331
7EE7
  5
5AFB
331
5AFA
  5
5B04
331
5B0B
  5
7EE6
331
5B47
  5
5AFC
331
5AFB
  5
5B05
331
5B48
  5
5AFD
331
5B04
  5
5B0D
331
5AFC
  5
5B06
331
5B49
  5
5AFE
331
5B0D
  5
7EE7
331
5B05
  5
5B47
331
5AFD
  5
5B07
331
5B4A
  5
5AFF
331
5B06
  5
5B48
331
5AFE
  5
5B08
331
5B4B
  5
5B00
  0
SORTENTSTABLE
  5
8058
102
{ACAD_REACTORS
330
619D
102
}
330
619D
100
AcDbSortentsTable
330
5BDC
331
5BE4
  5
5BE6
331
5BF0
  5
5BF2
331
5BE8
  5
5BEA
331
5BF9
  5
7E48
331
5BE5
  5
5BE7
331
5BF1
  5
5BF3
331
5BE9
  5
5BEB
331
5BE6
  5
5BE8
331
5BF2
  5
5BF4
331
5BEA
  5
5BEC
331
5BE7
  5
5BE9
331
5BF3
  5
5BF5
331
5BEB
  5
5BED
331
7E48
  5
5BE2
331
5BF4
  5
5BF7
331
5BE0
  5
5BE3
331
5BEC
  5
5BEE
331
5BF5
  5
5BF9
331
5BED
  5
5BEF
331
5BE2
  5
5BE4
331
5BEE
  5
5BF0
331
7E47
  5
5BE0
331
5BF7
  5
7E47
331
5BE3
  5
5BE5
331
5BEF
  5
5BF1
  0
SORTENTSTABLE
  5
776E
102
{ACAD_REACTORS
330
5DDA
102
}
330
5DDA
100
AcDbSortentsTable
330
5D45
331
5D67
  5
5D68
331
5D49
  5
5D4A
331
5D5A
  5
5D5B
331
5D4F
  5
5D50
331
5D6D
  5
5D6E
331
5D62
  5
5D63
331
5D55
  5
5D56
331
5D68
  5
5D69
331
5D4A
  5
5D4B
331
5D5B
  5
5D5C
331
5D6E
  5
5D6F
331
5D50
  5
5D51
331
5D63
  5
5D64
331
5D56
  5
5D57
331
5D69
  5
5D6A
331
5D4B
  5
5D4C
331
5D5C
  5
5D5D
331
5D6F
  5
5D70
331
5D51
  5
5D52
331
5D70
  5
5D71
331
5D64
  5
5D65
331
5D57
  5
5D58
331
5D6A
  5
5D6B
331
5D4C
  5
5D4D
331
5D5D
  5
5D5E
331
5D52
  5
5D53
331
5D71
  5
5D72
331
5D65
  5
5D66
331
5D58
  5
5D59
331
5D4D
  5
5D4E
331
5D6B
  5
5D6C
331
5D5E
  5
5D5F
331
5D60
  5
5D61
331
5DA9
  5
5D48
331
5D53
  5
5D54
331
5D72
  5
5D73
331
5D66
  5
5D67
331
5D48
  5
5D49
331
5D59
  5
5D5A
331
5D6C
  5
5D6D
331
5D4E
  5
5D4F
331
5D5F
  5
5D60
331
5D61
  5
5D62
331
5D54
  5
5D55
331
5D73
  5
5DA9
  0
DIMASSOC
  5
652C
102
{ACAD_REACTORS
330
6522
102
}
330
6522
100
AcDbDimAssoc
330
6515
 90
        3
 70
     0
 71
     0
  1
AcDbOsnapPointRef
 72
    13
331
5C07
331
5BEB
 73
     2
 91
        0
 40
0.0
 10
0.0
 20
0.0
 30
2.000000000000000E+50
 75
     0
  1
AcDbOsnapPointRef
 72
    13
331
5C07
331
5BE4
 73
     2
 91
        0
 40
0.0
 10
0.0
 20
0.0
 30
2.000000000000000E+50
 75
     0
  0
DIMASSOC
  5
6566
102
{ACAD_REACTORS
330
655C
102
}
330
655C
100
AcDbDimAssoc
330
654F
 90
        3
 70
     0
 71
     0
  1
AcDbOsnapPointRef
 72
     2
331
5C07
331
5BE2
 73
     2
 91
        0
 40
0.5
 10
0.0
 20
0.0
 30
0.0
 75
     0
  1
AcDbOsnapPointRef
 72
     1
331
5C07
331
5BF0
 73
     2
 91
        0
 40
1.0
 10
0.0
 20
0.0
 30
2.000000000000000E+50
 75
     0
  0
DIMASSOC
  5
6582
102
{ACAD_REACTORS
330
6576
102
}
330
6576
100
AcDbDimAssoc
330
6567
 90
        3
 70
     0
 71
     0
  1
AcDbOsnapPointRef
 72
     1
331
5C07
331
5BF0
 73
     2
 91
        0
 40
1.0
 10
0.0
 20
0.0
 30
2.000000000000000E+50
 75
     0
  1
AcDbOsnapPointRef
 72
     1
331
5B10
331
5AFA
 73
     2
 91
        0
 40
1.0
 10
0.0
 20
0.0
 30
2.000000000000000E+50
 75
     0
  0
DIMASSOC
  5
659A
102
{ACAD_REACTORS
330
6590
102
}
330
6590
100
AcDbDimAssoc
330
6583
 90
        3
 70
     0
 71
     0
  1
AcDbOsnapPointRef
 72
     1
331
5B10
331
5AFA
 73
     2
 91
        0
 40
1.0
 10
0.0
 20
0.0
 30
2.000000000000000E+50
 75
     0
  1
AcDbOsnapPointRef
 72
     2
331
5B10
331
5AFB
 73
     2
 91
        0
 40
0.5
 10
0.0
 20
0.0
 30
0.0
 75
     0
  0
DIMASSOC
  5
65DF
102
{ACAD_REACTORS
330
65D3
102
}
330
65D3
100
AcDbDimAssoc
330
65C4
 90
        3
 70
     0
 71
     0
  1
AcDbOsnapPointRef
 72
     1
331
59DD
331
59B7
 73
     2
 91
        0
 40
1.0
 10
0.0
 20
0.0
 30
2.000000000000000E+50
 75
     0
  1
AcDbOsnapPointRef
 72
    13
331
5C07
331
5BEE
 73
     2
 91
        0
 40
0.0
 10
0.0
 20
0.0
 30
2.000000000000000E+50
 75
     0
  0
DIMASSOC
  5
662F
102
{ACAD_REACTORS
330
6625
102
}
330
6625
100
AcDbDimAssoc
330
6618
 90
        3
 70
     0
 71
     0
  1
AcDbOsnapPointRef
 72
    13
331
5B10
331
5AFC
 73
     2
 91
        0
 40
0.0
 10
0.0
 20
0.0
 30
2.000000000000000E+50
 75
     0
  1
AcDbOsnapPointRef
 72
    13
331
5B10
331
5B48
 73
     2
 91
        0
 40
0.0
 10
0.0
 20
0.0
 30
2.000000000000000E+50
 75
     0
  0
DIMASSOC
  5
6647
102
{ACAD_REACTORS
330
663D
102
}
330
663D
100
AcDbDimAssoc
330
6630
 90
        3
 70
     0
 71
     0
  1
AcDbOsnapPointRef
 72
     1
331
583C
331
5830
 73
     2
 91
        0
 40
1.570796326794896
 10
0.0
 20
0.0
 30
2.000000000000000E+50
 75
     0
  1
AcDbOsnapPointRef
 72
     2
331
583C
331
57FB
 73
     2
 91
        0
 40
0.5
 10
0.0
 20
0.0
 30
0.0
 75
     0
  0
DIMASSOC
  5
6677
102
{ACAD_REACTORS
330
666D
102
}
330
666D
100
AcDbDimAssoc
330
6660
 90
        3
 70
     0
 71
     0
  1
AcDbOsnapPointRef
 72
     1
331
583C
331
581F
 73
     2
 91
        0
 40
1.0
 10
0.0
 20
0.0
 30
2.000000000000000E+50
 75
     0
  1
AcDbOsnapPointRef
 72
     1
331
583C
331
57F4
 73
     2
 91
        0
 40
1.0
 10
0.0
 20
0.0
 30
2.000000000000000E+50
 75
     0
  0
DIMASSOC
  5
67B5
102
{ACAD_REACTORS
330
67A9
102
}
330
67A9
100
AcDbDimAssoc
330
679A
 90
        3
 70
     0
 71
     0
  1
AcDbOsnapPointRef
 72
    13
331
59DD
331
599E
 73
     2
 91
        0
 40
0.0
 10
0.0
 20
0.0
 30
2.000000000000000E+50
 75
     0
  1
AcDbOsnapPointRef
 72
     8
331
59DD
331
5A56
 73
     2
 91
        0
 40
0.0
 10
0.0
 20
0.0
 30
0.0
 75
     1
  1
AcDbOsnapPointRef
 72
    13
331
59DD
331
599E
 73
     2
 91
        0
 40
0.0
 10
0.0
 20
0.0
 30
2.000000000000000E+50
 75
     0
  0
DIMASSOC
  5
67E7
102
{ACAD_REACTORS
330
67DB
102
}
330
67DB
100
AcDbDimAssoc
330
67CC
 90
        3
 70
     0
 71
     0
  1
AcDbOsnapPointRef
 72
    13
331
59DD
331
59A2
 73
     2
 91
        0
 40
0.0
 10
0.0
 20
0.0
 30
2.000000000000000E+50
 75
     0
  1
AcDbOsnapPointRef
 72
     8
331
583C
331
57F2
 73
     2
 91
        0
 40
0.0
 10
0.0
 20
0.0
 30
0.0
 75
     1
  1
AcDbOsnapPointRef
 72
    13
331
59DD
331
59A2
 73
     2
 91
        0
 40
0.0
 10
0.0
 20
0.0
 30
2.000000000000000E+50
 75
     0
  0
DIMASSOC
  5
686B
102
{ACAD_REACTORS
330
6861
102
}
330
6861
100
AcDbDimAssoc
330
6854
 90
        1
 70
     0
 71
     0
  1
AcDbOsnapPointRef
 72
    13
331
59DD
331
59A9
 73
     2
 91
        0
 40
3.141592653589792
 10
0.0
 20
0.0
 30
2.000000000000000E+50
 75
     0
  0
DIMASSOC
  5
6DE5
102
{ACAD_REACTORS
330
6DDB
102
}
330
6DDB
100
AcDbDimAssoc
330
6DCE
 90
        3
 70
     0
 71
     0
  1
AcDbOsnapPointRef
 72
    10
331
5C07
331
5BE2
 73
     2
 91
        0
 40
0.005361821991828
 10
0.0
 20
0.0
 30
0.0
 75
     0
  1
AcDbOsnapPointRef
 72
     8
331
5B10
331
5AFB
 73
     2
 91
        0
 40
0.005361821991828
 10
0.0
 20
0.0
 30
0.0
 75
     1
  1
AcDbOsnapPointRef
 72
    10
331
5C07
331
5BE2
 73
     2
 91
        0
 40
0.005361821991828
 10
0.0
 20
0.0
 30
0.0
 75
     0
  0
DIMASSOC
  5
7F12
102
{ACAD_REACTORS
330
7F11
102
}
330
7F11
100
AcDbDimAssoc
330
7F03
 90
        3
 70
     0
 71
     0
  1
AcDbOsnapPointRef
 72
     1
331
5C07
331
5BEF
 73
     0
 91
        0
 40
0.0
 10
0.0
 20
0.0
 30
2.000000000000000E+50
 75
     0
  1
AcDbOsnapPointRef
 72
    13
331
5C07
331
5BF4
 73
     0
 91
        0
 40
0.0
 10
0.0
 20
0.0
 30
2.000000000000000E+50
 75
     0
  0
LAYOUT
  5
22
102
{ACAD_REACTORS
330
1A
102
}
330
1A
100
AcDbPlotSettings
  1

  2
KONICA MINOLTA 501 PCL
  4
A4
  6

 40
5.027082920074462
 41
5.027085781097412
 42
5.027069091796875
 43
5.027069091796875
 44
209.9733276367186
 45
296.9259948730469
 46
0.0
 47
5.263266845714042
 48
0.0
 49
0.0
140
0.0
141
0.0
142
1.0
143
1.446531265710241
 70
 11956
 72
     1
 73
     1
 74
     1
  7
SEISA.ctb
 75
     0
147
0.6913089427825141
 76
     0
 77
     2
 78
   300
148
-325.2891573547272
149
-350.4600936974189
100
AcDbLayout
  1
Model
 70
     1
 71
     0
 10
0.0
 20
0.0
 11
12.0
 21
9.0
 12
0.0
 22
0.0
 32
0.0
 14
0.0
 24
0.0
 34
0.0
 15
0.0
 25
0.0
 35
0.0
146
0.0
 13
0.0
 23
0.0
 33
0.0
 16
1.0
 26
0.0
 36
0.0
 17
0.0
 27
1.0
 37
0.0
 76
     0
330
1F
331
27A
1001
ACAD_PSEXT
1000
KONICA MINOLTA 501 PCL
1000
KONICA MINOLTA 501/421/361PCL
1000
IP_192.168.20.231_(1)
1000

1070
     0
  0
LAYOUT
  5
1E
102
{ACAD_REACTORS
330
1A
102
}
330
1A
100
AcDbPlotSettings
  1

  2
none_device
  4
Letter_(8.50_x_11.00_Inches)
  6

 40
6.349999904632567
 41
6.349999904632567
 42
6.350006103515625
 43
6.350006103515625
 44
215.8999938964844
 45
279.3999938964844
 46
0.0
 47
0.0
 48
0.0
 49
0.0
140
0.0
141
0.0
142
1.0
143
1.0
 70
 15024
 72
     1
 73
     1
 74
     5
  7
SEISA.ctb
 75
    16
147
1.0
 76
     0
 77
     2
 78
   300
148
0.0
149
0.0
100
AcDbLayout
  1
レイアウト1
 70
     1
 71
     1
 10
0.0
 20
0.0
 11
420.0
 21
297.0
 12
0.0
 22
0.0
 32
0.0
 14
1.000000000000000E+20
 24
1.000000000000000E+20
 34
1.000000000000000E+20
 15
-1.000000000000000E+20
 25
-1.000000000000000E+20
 35
-1.000000000000000E+20
146
0.0
 13
0.0
 23
0.0
 33
0.0
 16
1.0
 26
0.0
 36
0.0
 17
0.0
 27
1.0
 37
0.0
 76
     0
330
1B
  0
LAYOUT
  5
26
102
{ACAD_REACTORS
330
1A
102
}
330
1A
100
AcDbPlotSettings
  1

  2
none_device
  4
Letter_(8.50_x_11.00_Inches)
  6

 40
6.349999904632567
 41
6.349999904632567
 42
6.350006103515625
 43
6.350006103515625
 44
215.8999938964844
 45
279.3999938964844
 46
0.0
 47
0.0
 48
0.0
 49
0.0
140
0.0
141
0.0
142
1.0
143
1.0
 70
 15024
 72
     1
 73
     1
 74
     5
  7
SEISA.ctb
 75
    16
147
1.0
 76
     0
 77
     2
 78
   300
148
0.0
149
0.0
100
AcDbLayout
  1
レイアウト2
 70
     1
 71
     2
 10
0.0
 20
0.0
 11
12.0
 21
9.0
 12
0.0
 22
0.0
 32
0.0
 14
0.0
 24
0.0
 34
0.0
 15
0.0
 25
0.0
 35
0.0
146
0.0
 13
0.0
 23
0.0
 33
0.0
 16
1.0
 26
0.0
 36
0.0
 17
0.0
 27
1.0
 37
0.0
 76
     0
330
23
  0
MATERIAL
  5
27D
102
{ACAD_REACTORS
330
C4
102
}
330
C4
100
AcDbMaterial
  1
ByBlock
 73
     1
 78
     1
172
     1
176
     1
270
     1
274
     1
 94
       63
  0
MATERIAL
  5
27C
102
{ACAD_REACTORS
330
C4
102
}
330
C4
100
AcDbMaterial
  1
ByLayer
 73
     1
 78
     1
172
     1
176
     1
270
     1
274
     1
 94
       63
  0
MATERIAL
  5
27E
102
{ACAD_REACTORS
330
C4
102
}
330
C4
100
AcDbMaterial
  1
Global
 73
     1
 78
     1
172
     1
176
     1
270
     1
274
     1
 94
       63
  0
MLEADERSTYLE
  5
2D6
102
{ACAD_REACTORS
330
2D5
102
}
330
2D5
100
AcDbMLeaderStyle
170
     2
171
     1
172
     0
 90
        2
 40
0.0
 41
0.0
173
     1
 91
-1056964608
340
14
 92
       -2
290
     1
 42
2.0
291
     1
 43
0.36
  3
Standard
 44
4.0
300

342
11
174
     1
178
     6
175
     1
176
     0
 93
-1056964608
 45
4.0
292
     0
297
     0
 46
4.0
 94
-1056964608
 47
1.0
 49
1.0
140
1.0
293
     1
141
0.0
294
     1
177
     0
142
1.0
295
     0
296
     0
143
0.125
1001
ACAD_MLEADERVER
1070
     2
  0
MLINESTYLE
  5
18
102
{ACAD_REACTORS
330
17
102
}
330
17
100
AcDbMlineStyle
  2
STANDARD
 70
     0
  3

 62
   256
 51
90.0
 52
90.0
 71
     2
 49
0.5
 62
   256
  6
BYLAYER
 49
-0.5
 62
   256
  6
BYLAYER
  0
PLOTSETTINGS
  5
1C7E
102
{ACAD_REACTORS
330
19
102
}
330
19
100
AcDbPlotSettings
  1
SEISA基本
  2
none_device
  4
Letter_(8.50_x_11.00_Inches)
  6

 40
6.349999904632567
 41
6.349999904632567
 42
6.350006103515625
 43
6.350006103515625
 44
215.8999938964844
 45
279.3999938964844
 46
7.302498226506357
 47
0.0
 48
0.0
 49
0.0
140
0.0
141
0.0
142
1.0
143
1.574803221122935
 70
 11956
 72
     1
 73
     1
 74
     2
  7
SEISA.ctb
 75
     0
147
0.6349999711627054
 76
     0
 77
     2
 78
   300
148
0.0
149
0.0
1001
ACAD_PSEXT
1000
なし
1000
なし
1000
適切ではありません
1000
新しいプロッタ環境設定名を選択しない限り、レイアウトは印刷されません。
1070
     0
  0
ACDBPLACEHOLDER
  5
F
102
{ACAD_REACTORS
330
E
102
}
330
E
  0
SCALE
  5
29F3
102
{ACAD_REACTORS
330
2B3
102
}
330
2B3
100
AcDbScale
 70
     0
300
1:2.5
140
1.0
141
2.5
290
     0
  0
SCALE
  5
7C11
102
{ACAD_REACTORS
330
2B3
102
}
330
2B3
100
AcDbScale
 70
     0
300
1:1.5
140
1.0
141
1.5
290
     0
  0
SCALE
  5
2B4
102
{ACAD_REACTORS
330
2B3
102
}
330
2B3
100
AcDbScale
 70
     0
300
1:1
140
1.0
141
1.0
290
     1
  0
SCALE
  5
2B5
102
{ACAD_REACTORS
330
2B3
102
}
330
2B3
100
AcDbScale
 70
     0
300
1:2
140
1.0
141
2.0
290
     0
  0
SCALE
  5
2B6
102
{ACAD_REACTORS
330
2B3
102
}
330
2B3
100
AcDbScale
 70
     0
300
1:4
140
1.0
141
4.0
290
     0
  0
SCALE
  5
2B7
102
{ACAD_REACTORS
330
2B3
102
}
330
2B3
100
AcDbScale
 70
     0
300
1:5
140
1.0
141
5.0
290
     0
  0
SCALE
  5
2B8
102
{ACAD_REACTORS
330
2B3
102
}
330
2B3
100
AcDbScale
 70
     0
300
1:8
140
1.0
141
8.0
290
     0
  0
SCALE
  5
2B9
102
{ACAD_REACTORS
330
2B3
102
}
330
2B3
100
AcDbScale
 70
     0
300
1:10
140
1.0
141
10.0
290
     0
  0
SCALE
  5
2BA
102
{ACAD_REACTORS
330
2B3
102
}
330
2B3
100
AcDbScale
 70
     0
300
1:16
140
1.0
141
16.0
290
     0
  0
SCALE
  5
2BB
102
{ACAD_REACTORS
330
2B3
102
}
330
2B3
100
AcDbScale
 70
     0
300
1:20
140
1.0
141
20.0
290
     0
  0
SCALE
  5
2BC
102
{ACAD_REACTORS
330
2B3
102
}
330
2B3
100
AcDbScale
 70
     0
300
1:30
140
1.0
141
30.0
290
     0
  0
SCALE
  5
2BD
102
{ACAD_REACTORS
330
2B3
102
}
330
2B3
100
AcDbScale
 70
     0
300
1:40
140
1.0
141
40.0
290
     0
  0
SCALE
  5
2BE
102
{ACAD_REACTORS
330
2B3
102
}
330
2B3
100
AcDbScale
 70
     0
300
1:50
140
1.0
141
50.0
290
     0
  0
SCALE
  5
2BF
102
{ACAD_REACTORS
330
2B3
102
}
330
2B3
100
AcDbScale
 70
     0
300
1:100
140
1.0
141
100.0
290
     0
  0
SCALE
  5
2C0
102
{ACAD_REACTORS
330
2B3
102
}
330
2B3
100
AcDbScale
 70
     0
300
2:1
140
2.0
141
1.0
290
     0
  0
SCALE
  5
2C1
102
{ACAD_REACTORS
330
2B3
102
}
330
2B3
100
AcDbScale
 70
     0
300
4:1
140
4.0
141
1.0
290
     0
  0
SCALE
  5
2C2
102
{ACAD_REACTORS
330
2B3
102
}
330
2B3
100
AcDbScale
 70
     0
300
8:1
140
8.0
141
1.0
290
     0
  0
SCALE
  5
2C3
102
{ACAD_REACTORS
330
2B3
102
}
330
2B3
100
AcDbScale
 70
     0
300
10:1
140
10.0
141
1.0
290
     0
  0
SCALE
  5
2C4
102
{ACAD_REACTORS
330
2B3
102
}
330
2B3
100
AcDbScale
 70
     0
300
100:1
140
100.0
141
1.0
290
     0
  0
SCALE
  5
2C5
102
{ACAD_REACTORS
330
2B3
102
}
330
2B3
100
AcDbScale
 70
     0
300
1/128" = 1'-0"
140
0.0078125
141
12.0
290
     0
  0
SCALE
  5
2C6
102
{ACAD_REACTORS
330
2B3
102
}
330
2B3
100
AcDbScale
 70
     0
300
1/64" = 1'-0"
140
0.015625
141
12.0
290
     0
  0
SCALE
  5
2C7
102
{ACAD_REACTORS
330
2B3
102
}
330
2B3
100
AcDbScale
 70
     0
300
1/32" = 1'-0"
140
0.03125
141
12.0
290
     0
  0
SCALE
  5
2C8
102
{ACAD_REACTORS
330
2B3
102
}
330
2B3
100
AcDbScale
 70
     0
300
1/16" = 1'-0"
140
0.0625
141
12.0
290
     0
  0
SCALE
  5
2C9
102
{ACAD_REACTORS
330
2B3
102
}
330
2B3
100
AcDbScale
 70
     0
300
3/32" = 1'-0"
140
0.09375
141
12.0
290
     0
  0
SCALE
  5
2CA
102
{ACAD_REACTORS
330
2B3
102
}
330
2B3
100
AcDbScale
 70
     0
300
1/8" = 1'-0"
140
0.125
141
12.0
290
     0
  0
SCALE
  5
2CB
102
{ACAD_REACTORS
330
2B3
102
}
330
2B3
100
AcDbScale
 70
     0
300
3/16" = 1'-0"
140
0.1875
141
12.0
290
     0
  0
SCALE
  5
2CC
102
{ACAD_REACTORS
330
2B3
102
}
330
2B3
100
AcDbScale
 70
     0
300
1/4" = 1'-0"
140
0.25
141
12.0
290
     0
  0
SCALE
  5
2CD
102
{ACAD_REACTORS
330
2B3
102
}
330
2B3
100
AcDbScale
 70
     0
300
3/8" = 1'-0"
140
0.375
141
12.0
290
     0
  0
SCALE
  5
2CE
102
{ACAD_REACTORS
330
2B3
102
}
330
2B3
100
AcDbScale
 70
     0
300
1/2" = 1'-0"
140
0.5
141
12.0
290
     0
  0
SCALE
  5
2CF
102
{ACAD_REACTORS
330
2B3
102
}
330
2B3
100
AcDbScale
 70
     0
300
3/4" = 1'-0"
140
0.75
141
12.0
290
     0
  0
SCALE
  5
2D0
102
{ACAD_REACTORS
330
2B3
102
}
330
2B3
100
AcDbScale
 70
     0
300
1" = 1'-0"
140
1.0
141
12.0
290
     0
  0
SCALE
  5
2D1
102
{ACAD_REACTORS
330
2B3
102
}
330
2B3
100
AcDbScale
 70
     0
300
1-1/2" = 1'-0"
140
1.5
141
12.0
290
     0
  0
SCALE
  5
2D2
102
{ACAD_REACTORS
330
2B3
102
}
330
2B3
100
AcDbScale
 70
     0
300
3" = 1'-0"
140
3.0
141
12.0
290
     0
  0
SCALE
  5
2D3
102
{ACAD_REACTORS
330
2B3
102
}
330
2B3
100
AcDbScale
 70
     0
300
6" = 1'-0"
140
6.0
141
12.0
290
     0
  0
SCALE
  5
2D4
102
{ACAD_REACTORS
330
2B3
102
}
330
2B3
100
AcDbScale
 70
     0
300
1'-0" = 1'-0"
140
12.0
141
12.0
290
     0
  0
TABLESTYLE
  5
122
102
{ACAD_XDICTIONARY
360
2F5
102
}
102
{ACAD_REACTORS
330
121
102
}
330
121
100
AcDbTableStyle
  3
Standard
 70
     0
 71
     0
 40
1.5
 41
1.5
280
     0
281
     0
  7
STANDARD
140
4.5
170
     2
 62
     0
 63
     7
283
     0
 90
      512
 91
        0
  1

274
    -2
284
     1
 64
     0
275
    -2
285
     1
 65
     0
276
    -2
286
     1
 66
     0
277
    -2
287
     1
 67
     0
278
    -2
288
     1
 68
     0
279
    -2
289
     1
 69
     0
  7
STANDARD
140
6.0
170
     5
 62
     0
 63
     7
283
     0
 90
      512
 91
        0
  1

274
    -2
284
     1
 64
     0
275
    -2
285
     1
 65
     0
276
    -2
286
     1
 66
     0
277
    -2
287
     1
 67
     0
278
    -2
288
     1
 68
     0
279
    -2
289
     1
 69
     0
  7
STANDARD
140
4.5
170
     5
 62
     0
 63
     7
283
     0
 90
      512
 91
        0
  1

274
    -2
284
     1
 64
     0
275
    -2
285
     1
 65
     0
276
    -2
286
     1
 66
     0
277
    -2
287
     1
 67
     0
278
    -2
288
     1
 68
     0
279
    -2
289
     1
 69
     0
  0
VISUALSTYLE
  5
285
102
{ACAD_REACTORS
330
27F
102
}
330
27F
100
AcDbVisualStyle
  2
2dWireframe
 70
     4
 71
     0
 72
     2
 73
     0
 90
        0
 40
-0.6
 41
-30.0
 62
     5
 63
     7
421
 16777215
 74
     1
 91
        4
 64
     7
 65
   257
 75
     1
175
     1
 42
1.0
 92
        0
 66
   257
 43
1.0
 76
     1
 77
     6
 78
     2
 67
     7
 79
     5
170
     0
171
     0
290
     0
174
     0
 93
        1
 44
0.0
173
     0
291
     0
 45
0.0
  0
VISUALSTYLE
  5
287
102
{ACAD_REACTORS
330
27F
102
}
330
27F
100
AcDbVisualStyle
  2
3D Hidden
 70
     6
 71
     1
 72
     2
 73
     2
 90
        0
 40
-0.6
 41
-30.0
 62
     5
 63
     7
421
 16777215
 74
     2
 91
        2
 64
     7
 65
   257
 75
     2
175
     1
 42
40.0
 92
        0
 66
   257
 43
1.0
 76
     1
 77
     6
 78
     2
 67
     7
 79
     3
170
     0
171
     0
290
     0
174
     0
 93
        1
 44
0.0
173
     0
291
     0
 45
0.0
  0
VISUALSTYLE
  5
286
102
{ACAD_REACTORS
330
27F
102
}
330
27F
100
AcDbVisualStyle
  2
3dWireframe
 70
     5
 71
     0
 72
     2
 73
     0
 90
        0
 40
-0.6
 41
-30.0
 62
     5
 63
     7
421
 16777215
 74
     1
 91
        4
 64
     7
 65
   257
 75
     1
175
     1
 42
1.0
 92
        0
 66
   257
 43
1.0
 76
     1
 77
     6
 78
     2
 67
     7
 79
     5
170
     0
171
     0
290
     0
174
     0
 93
        1
 44
0.0
173
     0
291
     0
 45
0.0
  0
VISUALSTYLE
  5
284
102
{ACAD_REACTORS
330
27F
102
}
330
27F
100
AcDbVisualStyle
  2
Basic
 70
     7
 71
     1
 72
     0
 73
     1
 90
        0
 40
-0.6
 41
-30.0
 62
     5
 63
     7
421
 16777215
 74
     0
 91
        4
 64
     7
 65
   257
 75
     1
175
     1
 42
1.0
 92
        8
 66
     7
 43
1.0
 76
     1
 77
     6
 78
     2
 67
     7
 79
     5
170
     0
171
     0
290
     0
174
     0
 93
        1
 44
0.0
173
     0
291
     1
 45
0.0
  0
VISUALSTYLE
  5
28B
102
{ACAD_REACTORS
330
27F
102
}
330
27F
100
AcDbVisualStyle
  2
Brighten
 70
    12
 71
     2
 72
     2
 73
     0
 90
        0
 40
-0.6
 41
-30.0
 62
     5
 63
     7
421
 16777215
 74
     1
 91
        4
 64
     7
 65
   257
 75
     1
175
     1
 42
1.0
 92
        8
 66
     7
 43
1.0
 76
     1
 77
     6
 78
     2
 67
     7
 79
     5
170
     0
171
     0
290
     0
174
     0
 93
        1
 44
50.0
173
     0
291
     1
 45
0.0
  0
VISUALSTYLE
  5
28F
102
{ACAD_REACTORS
330
27F
102
}
330
27F
100
AcDbVisualStyle
  2
ColorChange
 70
    16
 71
     2
 72
     2
 73
     3
 90
        0
 40
-0.6
 41
-30.0
 62
     5
 63
     8
421
  8421504
 74
     1
 91
        4
 64
     7
 65
   257
 75
     1
175
     1
 42
1.0
 92
        8
 66
     8
424
  8421504
 43
1.0
 76
     1
 77
     6
 78
     2
 67
     7
 79
     5
170
     0
171
     0
290
     0
174
     0
 93
        1
 44
0.0
173
     0
291
     1
 45
0.0
  0
VISUALSTYLE
  5
288
102
{ACAD_REACTORS
330
27F
102
}
330
27F
100
AcDbVisualStyle
  2
Conceptual
 70
     9
 71
     3
 72
     2
 73
     0
 90
        0
 40
-0.6
 41
-30.0
 62
     5
 63
     7
421
 16777215
 74
     2
 91
        2
 64
     7
 65
   257
 75
     1
175
     1
 42
40.0
 92
        8
 66
     7
 43
1.0
 76
     1
 77
     6
 78
     2
 67
     7
 79
     3
170
     0
171
     0
290
     0
174
     0
 93
        1
 44
0.0
173
     0
291
     0
 45
0.0
  0
VISUALSTYLE
  5
28A
102
{ACAD_REACTORS
330
27F
102
}
330
27F
100
AcDbVisualStyle
  2
Dim
 70
    11
 71
     2
 72
     2
 73
     0
 90
        0
 40
-0.6
 41
-30.0
 62
     5
 63
     7
421
 16777215
 74
     1
 91
        4
 64
     7
 65
   257
 75
     1
175
     1
 42
1.0
 92
        8
 66
     7
 43
1.0
 76
     1
 77
     6
 78
     2
 67
     7
 79
     5
170
     0
171
     0
290
     0
174
     0
 93
        1
 44
-50.0
173
     0
291
     1
 45
0.0
  0
VISUALSTYLE
  5
28E
102
{ACAD_REACTORS
330
27F
102
}
330
27F
100
AcDbVisualStyle
  2
Facepattern
 70
    15
 71
     2
 72
     2
 73
     0
 90
        0
 40
-0.6
 41
-30.0
 62
     5
 63
     7
421
 16777215
 74
     1
 91
        4
 64
     7
 65
   257
 75
     1
175
     1
 42
1.0
 92
        8
 66
     7
 43
1.0
 76
     1
 77
     6
 78
     2
 67
     7
 79
     5
170
     0
171
     0
290
     0
174
     0
 93
        1
 44
0.0
173
     0
291
     1
 45
0.0
  0
VISUALSTYLE
  5
280
102
{ACAD_REACTORS
330
27F
102
}
330
27F
100
AcDbVisualStyle
  2
Flat
 70
     0
 71
     2
 72
     1
 73
     1
 90
        2
 40
-0.6
 41
30.0
 62
     5
 63
     7
421
 16777215
 74
     0
 91
        4
 64
     7
 65
   257
 75
     1
175
     1
 42
1.0
 92
        8
 66
     7
 43
1.0
 76
     1
 77
     6
 78
     2
 67
     7
 79
     5
170
     0
171
     0
290
     0
174
     0
 93
       13
 44
0.0
173
     0
291
     1
 45
0.0
  0
VISUALSTYLE
  5
281
102
{ACAD_REACTORS
330
27F
102
}
330
27F
100
AcDbVisualStyle
  2
FlatWithEdges
 70
     1
 71
     2
 72
     1
 73
     1
 90
        2
 40
-0.6
 41
30.0
 62
     5
 63
     7
421
 16777215
 74
     1
 91
        4
 64
     7
 65
   257
 75
     1
175
     1
 42
1.0
 92
        0
 66
   257
 43
1.0
 76
     1
 77
     6
 78
     2
 67
     7
 79
     5
170
     0
171
     0
290
     0
174
     0
 93
       13
 44
0.0
173
     0
291
     1
 45
0.0
  0
VISUALSTYLE
  5
282
102
{ACAD_REACTORS
330
27F
102
}
330
27F
100
AcDbVisualStyle
  2
Gouraud
 70
     2
 71
     2
 72
     2
 73
     1
 90
        2
 40
-0.6
 41
30.0
 62
     5
 63
     7
421
 16777215
 74
     0
 91
        4
 64
     7
 65
   257
 75
     1
175
     1
 42
1.0
 92
        0
 66
     7
 43
1.0
 76
     1
 77
     6
 78
     2
 67
     7
 79
     5
170
     0
171
     0
290
     0
174
     0
 93
       13
 44
0.0
173
     0
291
     1
 45
0.0
  0
VISUALSTYLE
  5
283
102
{ACAD_REACTORS
330
27F
102
}
330
27F
100
AcDbVisualStyle
  2
GouraudWithEdges
 70
     3
 71
     2
 72
     2
 73
     1
 90
        2
 40
-0.6
 41
30.0
 62
     5
 63
     7
421
 16777215
 74
     1
 91
        4
 64
     7
 65
   257
 75
     1
175
     1
 42
1.0
 92
        0
 66
   257
 43
1.0
 76
     1
 77
     6
 78
     2
 67
     7
 79
     5
170
     0
171
     0
290
     0
174
     0
 93
       13
 44
0.0
173
     0
291
     1
 45
0.0
  0
VISUALSTYLE
  5
28D
102
{ACAD_REACTORS
330
27F
102
}
330
27F
100
AcDbVisualStyle
  2
Linepattern
 70
    14
 71
     2
 72
     2
 73
     0
 90
        0
 40
-0.6
 41
-30.0
 62
     5
 63
     7
421
 16777215
 74
     1
 91
        4
 64
     7
 65
   257
 75
     7
175
     7
 42
1.0
 92
        8
 66
     7
 43
1.0
 76
     1
 77
     6
 78
     2
 67
     7
 79
     5
170
     0
171
     0
290
     0
174
     0
 93
        1
 44
0.0
173
     0
291
     1
 45
0.0
  0
VISUALSTYLE
  5
289
102
{ACAD_REACTORS
330
27F
102
}
330
27F
100
AcDbVisualStyle
  2
Realistic
 70
     8
 71
     2
 72
     2
 73
     0
 90
        0
 40
-0.6
 41
-30.0
 62
     5
 63
     7
421
 16777215
 74
     1
 91
        0
 64
     7
 65
   257
 75
     1
175
     1
 42
1.0
 92
        8
 66
     8
424
  7895160
 43
1.0
 76
     1
 77
     6
 78
     2
 67
     7
 79
     5
170
     0
171
     0
290
     0
174
     0
 93
       13
 44
0.0
173
     0
291
     0
 45
0.0
  0
VISUALSTYLE
  5
28C
102
{ACAD_REACTORS
330
27F
102
}
330
27F
100
AcDbVisualStyle
  2
Thicken
 70
    13
 71
     2
 72
     2
 73
     0
 90
        0
 40
-0.6
 41
-30.0
 62
     5
 63
     7
421
 16777215
 74
     1
 91
        4
 64
     7
 65
   257
 75
     1
175
     1
 42
1.0
 92
       12
 66
     7
 43
1.0
 76
     1
 77
     6
 78
     2
 67
     7
 79
     5
170
     0
171
     0
290
     0
174
     0
 93
        1
 44
0.0
173
     0
291
     1
 45
0.0
  0
DICTIONARYVAR
  5
2FA
102
{ACAD_REACTORS
330
34
102
}
330
34
100
DictionaryVariables
280
     0
  1
1:2.5
  0
DICTIONARYVAR
  5
2F8
102
{ACAD_REACTORS
330
34
102
}
330
34
100
DictionaryVariables
280
     0
  1
STANDARD
  0
DICTIONARYVAR
  5
140
102
{ACAD_REACTORS
330
34
102
}
330
34
100
DictionaryVariables
280
     0
  1
STANDARD
  0
DICTIONARYVAR
  5
AC
102
{ACAD_REACTORS
330
34
102
}
330
34
100
DictionaryVariables
280
     0
  1
1
  0
DICTIONARYVAR
  5
35
102
{ACAD_REACTORS
330
34
102
}
330
34
100
DictionaryVariables
280
     0
  1
1
  0
DICTIONARYVAR
  5
5E8B
102
{ACAD_REACTORS
330
34
102
}
330
34
100
DictionaryVariables
280
     0
  1
1
  0
DICTIONARYVAR
  5
5E8C
102
{ACAD_REACTORS
330
34
102
}
330
34
100
DictionaryVariables
280
     0
  1
15
  0
DICTIONARYVAR
  5
2FB
102
{ACAD_REACTORS
330
34
102
}
330
34
100
DictionaryVariables
280
     0
  1
0
  0
DICTIONARYVAR
  5
2F9
102
{ACAD_REACTORS
330
34
102
}
330
34
100
DictionaryVariables
280
     0
  1
0
  0
DICTIONARY
  5
161B
102
{ACAD_REACTORS
330
49
102
}
330
49
100
AcDbDictionary
281
     1
  0
DICTIONARY
  5
4A
102
{ACAD_REACTORS
330
49
102
}
330
49
100
AcDbDictionary
281
     1
  0
XRECORD
  5
12B
102
{ACAD_REACTORS
330
49
102
}
330
49
100
AcDbXrecord
280
     1
 90
-1023410169
  0
DICTIONARY
  5
2F5
330
122
100
AcDbDictionary
280
     1
281
     1
  3
ACAD_ROUNDTRIP_2008_TABLESTYLE_CELLSTYLEMAP
360
8241
  0
CELLSTYLEMAP
  5
8241
102
{ACAD_REACTORS
330
2F5
102
}
330
2F5
100
AcDbCellStyleMap
 90
        3
300
CELLSTYLE
  1
TABLEFORMAT_BEGIN
 90
        5
170
     1
 91
        0
 92
    32768
 62
   257
 93
        1
300
CONTENTFORMAT
  1
CONTENTFORMAT_BEGIN
 90
        0
 91
        0
 92
      512
 93
        0
300

 40
0.0
140
1.0
 94
        5
 62
     0
340
11
144
6.0
309
CONTENTFORMAT_END
171
     1
301
MARGIN
  1
CELLMARGIN_BEGIN
 40
1.5
 40
1.5
 40
1.5
 40
1.5
 40
0.18
 40
0.18
309
CELLMARGIN_END
 94
        6
 95
        1
302
GRIDFORMAT
  1
GRIDFORMAT_BEGIN
 90
        0
 91
        1
 62
     0
 92
       -2
340
0
 93
        0
 40
0.045
309
GRIDFORMAT_END
 95
        2
302
GRIDFORMAT
  1
GRIDFORMAT_BEGIN
 90
        0
 91
        1
 62
     0
 92
       -2
340
0
 93
        0
 40
0.045
309
GRIDFORMAT_END
 95
        4
302
GRIDFORMAT
  1
GRIDFORMAT_BEGIN
 90
        0
 91
        1
 62
     0
 92
       -2
340
0
 93
        0
 40
0.045
309
GRIDFORMAT_END
 95
        8
302
GRIDFORMAT
  1
GRIDFORMAT_BEGIN
 90
        0
 91
        1
 62
     0
 92
       -2
340
0
 93
        0
 40
0.045
309
GRIDFORMAT_END
 95
       16
302
GRIDFORMAT
  1
GRIDFORMAT_BEGIN
 90
        0
 91
        1
 62
     0
 92
       -2
340
0
 93
        0
 40
0.045
309
GRIDFORMAT_END
 95
       32
302
GRIDFORMAT
  1
GRIDFORMAT_BEGIN
 90
        0
 91
        1
 62
     0
 92
       -2
340
0
 93
        0
 40
0.045
309
GRIDFORMAT_END
309
TABLEFORMAT_END
  1
CELLSTYLE_BEGIN
 90
        1
 91
        1
300
_TITLE
309
CELLSTYLE_END
300
CELLSTYLE
  1
TABLEFORMAT_BEGIN
 90
        5
170
     1
 91
        0
 92
        0
 62
   257
 93
        1
300
CONTENTFORMAT
  1
CONTENTFORMAT_BEGIN
 90
        0
 91
        0
 92
      512
 93
        0
300

 40
0.0
140
1.0
 94
        5
 62
     0
340
11
144
4.5
309
CONTENTFORMAT_END
171
     1
301
MARGIN
  1
CELLMARGIN_BEGIN
 40
1.5
 40
1.5
 40
1.5
 40
1.5
 40
0.18
 40
0.18
309
CELLMARGIN_END
 94
        6
 95
        1
302
GRIDFORMAT
  1
GRIDFORMAT_BEGIN
 90
        0
 91
        1
 62
     0
 92
       -2
340
0
 93
        0
 40
0.045
309
GRIDFORMAT_END
 95
        2
302
GRIDFORMAT
  1
GRIDFORMAT_BEGIN
 90
        0
 91
        1
 62
     0
 92
       -2
340
0
 93
        0
 40
0.045
309
GRIDFORMAT_END
 95
        4
302
GRIDFORMAT
  1
GRIDFORMAT_BEGIN
 90
        0
 91
        1
 62
     0
 92
       -2
340
0
 93
        0
 40
0.045
309
GRIDFORMAT_END
 95
        8
302
GRIDFORMAT
  1
GRIDFORMAT_BEGIN
 90
        0
 91
        1
 62
     0
 92
       -2
340
0
 93
        0
 40
0.045
309
GRIDFORMAT_END
 95
       16
302
GRIDFORMAT
  1
GRIDFORMAT_BEGIN
 90
        0
 91
        1
 62
     0
 92
       -2
340
0
 93
        0
 40
0.045
309
GRIDFORMAT_END
 95
       32
302
GRIDFORMAT
  1
GRIDFORMAT_BEGIN
 90
        0
 91
        1
 62
     0
 92
       -2
340
0
 93
        0
 40
0.045
309
GRIDFORMAT_END
309
TABLEFORMAT_END
  1
CELLSTYLE_BEGIN
 90
        2
 91
        1
300
_HEADER
309
CELLSTYLE_END
300
CELLSTYLE
  1
TABLEFORMAT_BEGIN
 90
        5
170
     1
 91
        0
 92
        0
 62
   257
 93
        1
300
CONTENTFORMAT
  1
CONTENTFORMAT_BEGIN
 90
        0
 91
        0
 92
      512
 93
        0
300

 40
0.0
140
1.0
 94
        2
 62
     0
340
11
144
4.5
309
CONTENTFORMAT_END
171
     1
301
MARGIN
  1
CELLMARGIN_BEGIN
 40
1.5
 40
1.5
 40
1.5
 40
1.5
 40
0.18
 40
0.18
309
CELLMARGIN_END
 94
        6
 95
        1
302
GRIDFORMAT
  1
GRIDFORMAT_BEGIN
 90
        0
 91
        1
 62
     0
 92
       -2
340
0
 93
        0
 40
0.045
309
GRIDFORMAT_END
 95
        2
302
GRIDFORMAT
  1
GRIDFORMAT_BEGIN
 90
        0
 91
        1
 62
     0
 92
       -2
340
0
 93
        0
 40
0.045
309
GRIDFORMAT_END
 95
        4
302
GRIDFORMAT
  1
GRIDFORMAT_BEGIN
 90
        0
 91
        1
 62
     0
 92
       -2
340
0
 93
        0
 40
0.045
309
GRIDFORMAT_END
 95
        8
302
GRIDFORMAT
  1
GRIDFORMAT_BEGIN
 90
        0
 91
        1
 62
     0
 92
       -2
340
0
 93
        0
 40
0.045
309
GRIDFORMAT_END
 95
       16
302
GRIDFORMAT
  1
GRIDFORMAT_BEGIN
 90
        0
 91
        1
 62
     0
 92
       -2
340
0
 93
        0
 40
0.045
309
GRIDFORMAT_END
 95
       32
302
GRIDFORMAT
  1
GRIDFORMAT_BEGIN
 90
        0
 91
        1
 62
     0
 92
       -2
340
0
 93
        0
 40
0.045
309
GRIDFORMAT_END
309
TABLEFORMAT_END
  1
CELLSTYLE_BEGIN
 90
        3
 91
        2
300
_DATA
309
CELLSTYLE_END
  0
ENDSEC
  0
EOF
