  0
SECTION
  2
HEADER
  9
$ACADVER
  1
AC1021
  9
$ACADMAINTVER
 70
    26
  9
$DWGCODEPAGE
  3
ANSI_932
  9
$LASTSAVEDBY
  1
Htm_Terada
  9
$CUSTOMPROPERTYTAG
  1
AmdtFileType
  9
$CUSTOMPROPERTY
  1
84
  9
$INSBASE
 10
0.0
 20
0.0
 30
0.0
  9
$EXTMIN
 10
243.5661988815806
 20
279.6941387273354
 30
0.0
  9
$EXTMAX
 10
593.1360101993569
 20
531.0338846773353
 30
0.0
  9
$LIMMIN
 10
0.0000003828677109
 20
0.000000738764129
  9
$LIMMAX
 10
840.0000003828676
 20
594.0000007387642
  9
$ORTHOMODE
 70
     1
  9
$REGENMODE
 70
     1
  9
$FILLMODE
 70
     1
  9
$QTEXTMODE
 70
     0
  9
$MIRRTEXT
 70
     1
  9
$LTSCALE
 40
2.0
  9
$ATTMODE
 70
     1
  9
$TEXTSIZE
 40
25.0
  9
$TRACEWID
 40
1.0
  9
$TEXTSTYLE
  7
SEISA
  9
$CLAYER
  8
AM_11 想像線
  9
$CELTYPE
  6
ByLayer
  9
$CECOLOR
 62
   256
  9
$CELTSCALE
 40
1.0
  9
$DISPSILH
 70
     0
  9
$DIMSCALE
 40
2.0
  9
$DIMASZ
 40
2.5
  9
$DIMEXO
 40
0.625
  9
$DIMDLI
 40
10.0
  9
$DIMRND
 40
0.0
  9
$DIMDLE
 40
0.0
  9
$DIMEXE
 40
0.625
  9
$DIMTP
 40
0.1
  9
$DIMTM
 40
0.1
  9
$DIMTXT
 40
3.5
  9
$DIMCEN
 40
0.0
  9
$DIMTSZ
 40
0.0
  9
$DIMTOL
 70
     0
  9
$DIMLIM
 70
     0
  9
$DIMTIH
 70
     0
  9
$DIMTOH
 70
     0
  9
$DIMSE1
 70
     0
  9
$DIMSE2
 70
     0
  9
$DIMTAD
 70
     3
  9
$DIMZIN
 70
     8
  9
$DIMBLK
  1
Open30
  9
$DIMASO
 70
     1
  9
$DIMSHO
 70
     1
  9
$DIMPOST
  1

  9
$DIMAPOST
  1
"
  9
$DIMALT
 70
     0
  9
$DIMALTD
 70
     2
  9
$DIMALTF
 40
0.0393701
  9
$DIMLFAC
 40
1.0
  9
$DIMTOFL
 70
     1
  9
$DIMTVP
 40
0.0
  9
$DIMTIX
 70
     0
  9
$DIMSOXD
 70
     0
  9
$DIMSAH
 70
     0
  9
$DIMBLK1
  1

  9
$DIMBLK2
  1

  9
$DIMSTYLE
  2
SEISA
  9
$DIMCLRD
 70
     3
  9
$DIMCLRE
 70
     3
  9
$DIMCLRT
 70
     3
  9
$DIMTFAC
 40
0.71
  9
$DIMGAP
 40
1.5
  9
$DIMJUST
 70
     0
  9
$DIMSD1
 70
     0
  9
$DIMSD2
 70
     0
  9
$DIMTOLJ
 70
     0
  9
$DIMTZIN
 70
     0
  9
$DIMALTZ
 70
     0
  9
$DIMALTTZ
 70
     8
  9
$DIMUPT
 70
     0
  9
$DIMDEC
 70
     2
  9
$DIMTDEC
 70
     2
  9
$DIMALTU
 70
     2
  9
$DIMALTTD
 70
     2
  9
$DIMTXSTY
  7
SEISA
  9
$DIMAUNIT
 70
     0
  9
$DIMADEC
 70
     0
  9
$DIMALTRND
 40
0.0
  9
$DIMAZIN
 70
     2
  9
$DIMDSEP
 70
    46
  9
$DIMATFIT
 70
     3
  9
$DIMFRAC
 70
     0
  9
$DIMLDRBLK
  1
Open30
  9
$DIMLUNIT
 70
     2
  9
$DIMLWD
 70
    -1
  9
$DIMLWE
 70
    -1
  9
$DIMTMOVE
 70
     0
  9
$DIMFXL
 40
1.0
  9
$DIMFXLON
 70
     0
  9
$DIMJOGANG
 40
0.7853981633974483
  9
$DIMTFILL
 70
     0
  9
$DIMTFILLCLR
 70
     0
  9
$DIMARCSYM
 70
     1
  9
$DIMLTYPE
  6

  9
$DIMLTEX1
  6

  9
$DIMLTEX2
  6

  9
$LUNITS
 70
     2
  9
$LUPREC
 70
     2
  9
$SKETCHINC
 40
1.0
  9
$FILLETRAD
 40
5.0
  9
$AUNITS
 70
     0
  9
$AUPREC
 70
     0
  9
$MENU
  1
.
  9
$ELEVATION
 40
0.0
  9
$PELEVATION
 40
0.0
  9
$THICKNESS
 40
0.0
  9
$LIMCHECK
 70
     0
  9
$CHAMFERA
 40
0.9999999999999431
  9
$CHAMFERB
 40
0.9999999999998864
  9
$CHAMFERC
 40
0.9999999999999431
  9
$CHAMFERD
 40
0.7853981633975053
  9
$SKPOLY
 70
     0
  9
$TDCREATE
 40
2454900.462296377
  9
$TDUCREATE
 40
2454900.087296377
  9
$TDUPDATE
 40
2456478.691748044
  9
$TDUUPDATE
 40
2456478.316748044
  9
$TDINDWG
 40
0.3402326736
  9
$TDUSRTIMER
 40
0.3402319560
  9
$USRTIMER
 70
     1
  9
$ANGBASE
 50
0.0
  9
$ANGDIR
 70
     0
  9
$PDMODE
 70
     0
  9
$PDSIZE
 40
0.0
  9
$PLINEWID
 40
0.0
  9
$SPLFRAME
 70
     0
  9
$SPLINETYPE
 70
     6
  9
$SPLINESEGS
 70
     8
  9
$HANDSEED
  5
8E34
  9
$SURFTAB1
 70
     6
  9
$SURFTAB2
 70
     6
  9
$SURFTYPE
 70
     6
  9
$SURFU
 70
     6
  9
$SURFV
 70
     6
  9
$UCSBASE
  2

  9
$UCSNAME
  2

  9
$UCSORG
 10
0.0
 20
0.0
 30
0.0
  9
$UCSXDIR
 10
1.0
 20
0.0
 30
0.0
  9
$UCSYDIR
 10
0.0
 20
1.0
 30
0.0
  9
$UCSORTHOREF
  2

  9
$UCSORTHOVIEW
 70
     0
  9
$UCSORGTOP
 10
0.0
 20
0.0
 30
0.0
  9
$UCSORGBOTTOM
 10
0.0
 20
0.0
 30
0.0
  9
$UCSORGLEFT
 10
0.0
 20
0.0
 30
0.0
  9
$UCSORGRIGHT
 10
0.0
 20
0.0
 30
0.0
  9
$UCSORGFRONT
 10
0.0
 20
0.0
 30
0.0
  9
$UCSORGBACK
 10
0.0
 20
0.0
 30
0.0
  9
$PUCSBASE
  2

  9
$PUCSNAME
  2

  9
$PUCSORG
 10
0.0
 20
0.0
 30
0.0
  9
$PUCSXDIR
 10
1.0
 20
0.0
 30
0.0
  9
$PUCSYDIR
 10
0.0
 20
1.0
 30
0.0
  9
$PUCSORTHOREF
  2

  9
$PUCSORTHOVIEW
 70
     0
  9
$PUCSORGTOP
 10
0.0
 20
0.0
 30
0.0
  9
$PUCSORGBOTTOM
 10
0.0
 20
0.0
 30
0.0
  9
$PUCSORGLEFT
 10
0.0
 20
0.0
 30
0.0
  9
$PUCSORGRIGHT
 10
0.0
 20
0.0
 30
0.0
  9
$PUCSORGFRONT
 10
0.0
 20
0.0
 30
0.0
  9
$PUCSORGBACK
 10
0.0
 20
0.0
 30
0.0
  9
$USERI1
 70
     0
  9
$USERI2
 70
     0
  9
$USERI3
 70
     0
  9
$USERI4
 70
     0
  9
$USERI5
 70
     0
  9
$USERR1
 40
0.0
  9
$USERR2
 40
0.0
  9
$USERR3
 40
0.0
  9
$USERR4
 40
0.0
  9
$USERR5
 40
0.0
  9
$WORLDVIEW
 70
     1
  9
$SHADEDGE
 70
     3
  9
$SHADEDIF
 70
    70
  9
$TILEMODE
 70
     1
  9
$MAXACTVP
 70
    64
  9
$PINSBASE
 10
0.0
 20
0.0
 30
0.0
  9
$PLIMCHECK
 70
     0
  9
$PEXTMIN
 10
1.000000000000000E+20
 20
1.000000000000000E+20
 30
1.000000000000000E+20
  9
$PEXTMAX
 10
-1.000000000000000E+20
 20
-1.000000000000000E+20
 30
-1.000000000000000E+20
  9
$PLIMMIN
 10
0.0
 20
0.0
  9
$PLIMMAX
 10
420.0
 20
297.0
  9
$UNITMODE
 70
     0
  9
$VISRETAIN
 70
     1
  9
$PLINEGEN
 70
     0
  9
$PSLTSCALE
 70
     1
  9
$TREEDEPTH
 70
  3020
  9
$CMLSTYLE
  2
Standard
  9
$CMLJUST
 70
     0
  9
$CMLSCALE
 40
20.0
  9
$PROXYGRAPHICS
 70
     1
  9
$MEASUREMENT
 70
     1
  9
$CELWEIGHT
370
    -1
  9
$ENDCAPS
280
     0
  9
$JOINSTYLE
280
     0
  9
$LWDISPLAY
290
     0
  9
$INSUNITS
 70
     4
  9
$HYPERLINKBASE
  1

  9
$STYLESHEET
  1
SEISA.CTB
  9
$XEDIT
290
     1
  9
$CEPSNTYPE
380
     0
  9
$PSTYLEMODE
290
     1
  9
$FINGERPRINTGUID
  2
{368BA4ED-A3E3-4919-90D4-EADA07711733}
  9
$VERSIONGUID
  2
{B478B6DE-C00A-467E-B004-AE7A0415D95E}
  9
$EXTNAMES
290
     1
  9
$PSVPSCALE
 40
0.0
  9
$OLESTARTUP
290
     0
  9
$SORTENTS
280
   127
  9
$INDEXCTL
280
     0
  9
$HIDETEXT
280
     0
  9
$XCLIPFRAME
290
     0
  9
$HALOGAP
280
     0
  9
$OBSCOLOR
 70
   257
  9
$OBSLTYPE
280
     0
  9
$INTERSECTIONDISPLAY
280
     0
  9
$INTERSECTIONCOLOR
 70
   257
  9
$DIMASSOC
280
     2
  9
$PROJECTNAME
  1

  9
$CAMERADISPLAY
290
     0
  9
$LENSLENGTH
 40
50.0
  9
$CAMERAHEIGHT
 40
0.0
  9
$STEPSPERSEC
 40
2.0
  9
$STEPSIZE
 40
6.0
  9
$3DDWFPREC
 40
2.0
  9
$PSOLWIDTH
 40
0.25
  9
$PSOLHEIGHT
 40
4.0
  9
$LOFTANG1
 40
1.570796326794896
  9
$LOFTANG2
 40
1.570796326794896
  9
$LOFTMAG1
 40
0.0
  9
$LOFTMAG2
 40
0.0
  9
$LOFTPARAM
 70
     7
  9
$LOFTNORMALS
280
     1
  9
$LATITUDE
 40
37.795
  9
$LONGITUDE
 40
-122.394
  9
$NORTHDIRECTION
 40
0.0
  9
$TIMEZONE
 70
 -8000
  9
$LIGHTGLYPHDISPLAY
280
     1
  9
$TILEMODELIGHTSYNCH
280
     1
  9
$CMATERIAL
347
27C
  9
$SOLIDHIST
280
     1
  9
$SHOWHIST
280
     1
  9
$DWFFRAME
280
     2
  9
$DGNFRAME
280
     0
  9
$REALWORLDSCALE
290
     1
  9
$INTERFERECOLOR
 62
     1
  9
$INTERFEREOBJVS
345
289
  9
$INTERFEREVPVS
346
286
  9
$CSHADOW
280
     0
  9
$SHADOWPLANELOCATION
 40
0.0
  0
ENDSEC
  0
SECTION
  2
CLASSES
  0
CLASS
  1
ACDBDICTIONARYWDFLT
  2
AcDbDictionaryWithDefault
  3
ObjectDBX Classes
 90
        0
 91
        1
280
     0
281
     0
  0
CLASS
  1
AMGSETTINGSOBJ
  2
AmgSettingsObj
  3
"AcadM|Product Description: AutoCAD Mechanical|Company: Autodesk, Inc."
 90
     1024
 91
        2
280
     0
281
     0
  0
CLASS
  1
ACME_DOCUMENT
  2
AcMeDbDoc
  3
AcMeServices
 90
     1024
 91
        1
280
     0
281
     0
  0
CLASS
  1
ACMESCOPE
  2
AcMeScope
  3
AcMeServices
 90
     1024
 91
        1
280
     0
281
     0
  0
CLASS
  1
ACMECOMMANDHISTORY
  2
AcMeCommandHistory
  3
AcMeServices
 90
     1024
 91
        1
280
     0
281
     0
  0
CLASS
  1
DICTIONARYVAR
  2
AcDbDictionaryVar
  3
ObjectDBX Classes
 90
        0
 91
        9
280
     0
281
     0
  0
CLASS
  1
ACIMSYSVARMAN
  2
AcImSysVarManager
  3
AcMeServices
 90
     1024
 91
        5
280
     0
281
     0
  0
CLASS
  1
ACIMREALSYSVAR
  2
AcImRealSysVar
  3
AcMeServices
 90
     1024
 91
        1
280
     0
281
     0
  0
CLASS
  1
ACIMINTSYSVAR
  2
AcImIntSysVar
  3
AcMeServices
 90
     1024
 91
       27
280
     0
281
     0
  0
CLASS
  1
ACMEDRAWINGMAN
  2
AcMeDrawingMan
  3
AcMeServices
 90
     1024
 91
        1
280
     0
281
     0
  0
CLASS
  1
ACMEVIEW
  2
AcMeView
  3
AcMeServices
 90
     1024
 91
        1
280
     0
281
     0
  0
CLASS
  1
ACDBENTITYCACHE
  2
AcMeEntityCache
  3
AcMeServices
 90
     1024
 91
        1
280
     0
281
     0
  0
CLASS
  1
GSMANAGER
  2
AcMeGSManager
  3
AcMeServices
 90
     1024
 91
        1
280
     0
281
     0
  0
CLASS
  1
AMDTINTERNALREACTOR
  2
AmdtInternalReactor
  3
AcMeServices
 90
     1024
 91
        2
280
     0
281
     0
  0
CLASS
  1
ACMESTATEMGR
  2
AcMeStateMgr
  3
AcMeServices
 90
     1024
 91
        1
280
     0
281
     0
  0
CLASS
  1
ACGREFMASTER
  2
AcGrefMaster
  3
AcAttribServices
 90
     1024
 91
        1
280
     0
281
     0
  0
CLASS
  1
ACME_DATABASE
  2
AcMeDbDatabase
  3
AcMeServices
 90
     1024
 91
        1
280
     0
281
     0
  0
CLASS
  1
ACRFINSADJUSTERMGR
  2
AcRfInsAdjusterMgr
  3
AcMeServices
 90
     1024
 91
        1
280
     0
281
     0
  0
CLASS
  1
ACGREFACADMASTER
  2
AcGrefacadMaster
  3
AcGrefServices
 90
     1024
 91
        1
280
     0
281
     0
  0
CLASS
  1
AMIMASTER
  2
AmiMaster
  3
AmiServices
 90
     1024
 91
        1
280
     0
281
     0
  0
CLASS
  1
ACIMSTRSYSVAR
  2
AcImStrSysVar
  3
AcMeServices
 90
     1024
 91
        5
280
     0
281
     0
  0
CLASS
  1
ACMSTANDARDJIS
  2
AcmStandardJIS
  3
"Amdt_StdImp|Product Description: AutoCAD Mechanical|Company: Autodesk, Inc."
 90
     1024
 91
        0
280
     0
281
     0
  0
CLASS
  1
AMGOBJPROPCFG
  2
AmgObjPropCfg
  3
"AmgLay|Product Description: AutoCAD Mechanical|Company: Autodesk, Inc."
 90
     1025
 91
        1
280
     0
281
     0
  0
CLASS
  1
ACMSURFSTANDARDJIS
  2
AcmSurfTextStdJIS
  3
"Amdt_StdImp|Product Description: AutoCAD Mechanical|Company: Autodesk, Inc."
 90
     1024
 91
        0
280
     0
281
     0
  0
CLASS
  1
ACMFCFSTANDARDJIS
  2
AcmFCFStdJIS
  3
"Amdt_StdImp|Product Description: AutoCAD Mechanical|Company: Autodesk, Inc."
 90
     1024
 91
        0
280
     0
281
     0
  0
CLASS
  1
ACMWELDSTANDARDJIS
  2
AcmWeldingStdJIS
  3
"Amdt_StdImp|Product Description: AutoCAD Mechanical|Company: Autodesk, Inc."
 90
     1024
 91
        0
280
     0
281
     0
  0
CLASS
  1
ACMIDSTANDARDJIS
  2
AcmIdStdJIS
  3
"Amdt_StdImp|Product Description: AutoCAD Mechanical|Company: Autodesk, Inc."
 90
     1024
 91
        0
280
     0
281
     0
  0
CLASS
  1
ACMDATUMSTANDARDJIS
  2
AcmDatumStdJIS
  3
"Amdt_StdImp|Product Description: AutoCAD Mechanical|Company: Autodesk, Inc."
 90
     1024
 91
        0
280
     0
281
     0
  0
CLASS
  1
ACMBOMSTANDARDJIS
  2
AcmBOMStdJIS
  3
"Amdt_StdImp|Product Description: AutoCAD Mechanical|Company: Autodesk, Inc."
 90
     1024
 91
        0
280
     0
281
     0
  0
CLASS
  1
ACMDETAILSTANDARDJIS
  2
AmdtDetailSymStdJIS
  3
"Amdt_StdImp|Product Description: AutoCAD Mechanical|Company: Autodesk, Inc."
 90
     1024
 91
        0
280
     0
281
     0
  0
CLASS
  1
ACMSECTIONSTANDARDJIS
  2
AmdtSectionSymStdJIS
  3
"Amdt_StdImp|Product Description: AutoCAD Mechanical|Company: Autodesk, Inc."
 90
     1024
 91
        0
280
     0
281
     0
  0
CLASS
  1
ACMCENTERLINESTANDARDJIS
  2
AmdtCenterLineStdJIS
  3
"Amdt_StdImp|Product Description: AutoCAD Mechanical|Company: Autodesk, Inc."
 90
     1024
 91
        0
280
     0
281
     0
  0
CLASS
  1
ACMTHREADLINESTANDARDJIS
  2
AmdtThreadLineStdJIS
  3
"Amdt_StdImp|Product Description: AutoCAD Mechanical|Company: Autodesk, Inc."
 90
     1024
 91
        0
280
     0
281
     0
  0
CLASS
  1
ACAMGLAYSTD
  2
AcAmgLayStd
  3
"AmgLay|Product Description: AutoCAD Mechanical|Company: Autodesk, Inc."
 90
     1024
 91
        1
280
     0
281
     0
  0
CLASS
  1
ACAMGDIMSTD
  2
AcAmgDimStd
  3
"AmgDim|Product Description: AutoCAD Mechanical|Company: Autodesk, Inc."
 90
     1024
 91
        1
280
     0
281
     0
  0
CLASS
  1
ACAMGTITLESTD
  2
AcAmgTitleStd
  3
"AmgTitle|Product Description: AutoCAD Mechanical|Company: Autodesk, Inc."
 90
     4095
 91
        1
280
     0
281
     0
  0
CLASS
  1
ACMDATADICTIONARY
  2
AcmDataDictionary
  3
"AcmSymBB|Product Description: AutoCAD Mechanical|Company: Autodesk, Inc."
 90
     1024
 91
        1
280
     0
281
     0
  0
CLASS
  1
ACMDATAENTRYBLOCK
  2
AcmDataEntryBlock
  3
AcmSymBB|Product Description: AutoCAD Mechanical|Company: Autodesk, Inc.
 90
     1024
 91
        0
280
     0
281
     0
  0
CLASS
  1
LAYER_INDEX
  2
AcDbLayerIndex
  3
ObjectDBX Classes
 90
        0
 91
        0
280
     0
281
     0
  0
CLASS
  1
IDBUFFER
  2
AcDbIdBuffer
  3
ObjectDBX Classes
 90
        0
 91
        0
280
     0
281
     0
  0
CLASS
  1
ACMNOTESTANDARDJIS
  2
AmdtNoteStdJIS
  3
"Amdt_StdImp|Product Description: AutoCAD Mechanical|Company: Autodesk, Inc."
 90
     1024
 91
        0
280
     0
281
     0
  0
CLASS
  1
ACAMGHOLECHARTSTDJIS
  2
AcAmgHoleChartStdJIS
  3
AmgDim|Product Description: AutoCAD Mechanical|Company: Autodesk, Inc.
 90
     1024
 91
        0
280
     0
281
     0
  0
CLASS
  1
AM_DRAWING_MGR
  2
AcDmDwgMgr
  3
AcMechDwgViewMgmt
 90
     1024
 91
        1
280
     0
281
     0
  0
CLASS
  1
AM_DWG_DOCUMENT
  2
AcDmDwgDocument
  3
AcMechDwgViewMgmt
 90
     1024
 91
        1
280
     0
281
     0
  0
CLASS
  1
AM_DWG_SHEET
  2
AcDmSheet
  3
AcMechDwgViewMgmt
 90
     1024
 91
        2
280
     0
281
     0
  0
CLASS
  1
AM_VIEWDIMPARMAP
  2
AcDmViewDimParMap
  3
AcMechDwgViewMgmt
 90
     1024
 91
        2
280
     0
281
     0
  0
CLASS
  1
AM_DWGMGR_NAME
  2
AcDmDwgMgrName
  3
AcMechDwgViewMgmt
 90
     1024
 91
        1
280
     0
281
     0
  0
CLASS
  1
AMDTMENUSTATEMGR
  2
AmdtMenuStateMgr
  3
McadcomServices
 90
     1024
 91
        1
280
     0
281
     0
  0
CLASS
  1
AMDTMCOMMENUSTATE
  2
AmdtMcomMenuState
  3
McadcomServices
 90
     1024
 91
        1
280
     0
281
     0
  0
CLASS
  1
MAPIAMMOUDLE
  2
MApiAmModule
  3
MApiAmServices
 90
     1024
 91
        1
280
     0
281
     0
  0
CLASS
  1
AMDTADMENUSTATE
  2
AmdtAdMenuState
  3
DesignerServices
 90
     1024
 91
        1
280
     0
281
     0
  0
CLASS
  1
ADAPPL
  2
AcAdAppl
  3
DesignerServices
 90
     1024
 91
        1
280
     0
281
     0
  0
CLASS
  1
DEPMGR
  2
AcAdDepMgr
  3
DesignerServices
 90
     1024
 91
        1
280
     0
281
     0
  0
CLASS
  1
PARAMMGR
  2
AcAdParamMgr
  3
DesignerServices
 90
     1024
 91
        1
280
     0
281
     0
  0
CLASS
  1
PARAMSCOPE
  2
AcAdParamScope
  3
DesignerServices
 90
     1024
 91
        1
280
     0
281
     0
  0
CLASS
  1
NAMEDAPPL
  2
AcAdNamedAppl
  3
DesignerServices
 90
     1024
 91
        1
280
     0
281
     0
  0
CLASS
  1
AMDTDMMENUSTATE
  2
AmdtDmMenuState
  3
AcMechDwgViewMgmt
 90
     1024
 91
        1
280
     0
281
     0
  0
CLASS
  1
AMDTAMMENUSTATE
  2
AmdtAmMenuState
  3
DesignerAssemblies
 90
     1024
 91
        1
280
     0
281
     0
  0
CLASS
  1
ACAMPROJECT
  2
AcAmProject
  3
DesignerAssemblies
 90
     1024
 91
        1
280
     0
281
     0
  0
CLASS
  1
ACAMGRCOMPDEF
  2
AcAmGrCompDef
  3
DesignerAssemblies
 90
     1024
 91
        1
280
     0
281
     0
  0
CLASS
  1
ACCMCONTEXT
  2
AcCmContext
  3
DesignerAssemblies
 90
     1024
 91
        1
280
     0
281
     0
  0
CLASS
  1
ACAMCOMPDEF
  2
AcAmCompDef
  3
DesignerAssemblies
 90
     1024
 91
        1
280
     0
281
     0
  0
CLASS
  1
ACAMCOMPDEFMGR
  2
AcAmCompDefMgr
  3
DesignerAssemblies
 90
     1024
 91
        1
280
     0
281
     0
  0
CLASS
  1
AMCONTEXTMGR
  2
AcAmContextMgr
  3
DesignerAssemblies
 90
     1024
 91
        1
280
     0
281
     0
  0
CLASS
  1
ACAMCONTEXTMODELER
  2
AcAmContextModeler
  3
DesignerAssemblies
 90
     1024
 91
        1
280
     0
281
     0
  0
CLASS
  1
CATALOGSTATE
  2
AcAmCatalogState
  3
DesignerAssemblies
 90
     1024
 91
        1
280
     0
281
     0
  0
CLASS
  1
ACAMGRCOMPDEFSET
  2
AcAmGrCompDefSet
  3
DesignerAssemblies
 90
     1024
 91
        1
280
     0
281
     0
  0
CLASS
  1
AMDTBROWSERDBTAB
  2
AmdtBrowserDbTab
  3
McadcomServices
 90
     1024
 91
        1
280
     0
281
     0
  0
CLASS
  1
CBROWSERAPPOBJECT
  2
CBrowserAppObject
  3
McadcomServices
 90
     1024
 91
        3
280
     0
281
     0
  0
CLASS
  1
DM_PLACEHOLDER
  2
AcDmSelsetPlaceholder
  3
AcMechDwgViewMgmt
 90
     1024
 91
        1
280
     0
281
     0
  0
CLASS
  1
TABLESTYLE
  2
AcDbTableStyle
  3
ObjectDBX Classes
 90
     4095
 91
        1
280
     0
281
     0
  0
CLASS
  1
VAACXREFPANELOBJECT
  2
VaAcXREFPanelObject
  3
VAAC_ADDIN
 90
        0
 91
        0
280
     0
281
     0
  0
CLASS
  1
VAACIMAGEINVENTORY
  2
VaAcImageInventory
  3
VAAC_ADDIN
 90
        0
 91
        0
280
     0
281
     0
  0
CLASS
  1
AMDTNOTETEMPLATEDB
  2
AmdtNoteTemplateDB
  3
AcmSymBB|Product Description: AutoCAD Mechanical|Company: Autodesk, Inc.
 90
     1024
 91
        6
280
     0
281
     0
  0
CLASS
  1
ACAMGFILTERDAT
  2
AcAmgFilterDat
  3
"AcadM|Product Description: AutoCAD Mechanical|Company: Autodesk, Inc."
 90
     1024
 91
        0
280
     0
281
     0
  0
CLASS
  1
MATERIAL
  2
AcDbMaterial
  3
ObjectDBX Classes
 90
     1153
 91
        3
280
     0
281
     0
  0
CLASS
  1
VISUALSTYLE
  2
AcDbVisualStyle
  3
ObjectDBX Classes
 90
     4095
 91
       16
280
     0
281
     0
  0
CLASS
  1
ACRFATTGENMGR
  2
AcRfAttGeneralMgr
  3
AcAttribServices
 90
     1024
 91
        0
280
     0
281
     0
  0
CLASS
  1
ACRFOBJATTMGR
  2
AcRfObjAttGroupMgr
  3
AcAttribServices
 90
     1024
 91
        0
280
     0
281
     0
  0
CLASS
  1
ACRFMCADAPIATTHOLDER
  2
AcRfMCADAPIAttHolder
  3
AcAttribServices
 90
     1024
 91
        0
280
     0
281
     0
  0
CLASS
  1
AMDTSYSATTR
  2
AmdtSystemAttribute
  3
AcAttribServices
 90
     1024
 91
        0
280
     0
281
     0
  0
CLASS
  1
ACMTAPERSTANDARDJIS
  2
AcmTaperStdJIS
  3
"Amdt_StdImp|Product Description: AutoCAD Mechanical|Company: Autodesk, Inc."
 90
     1024
 91
        0
280
     0
281
     0
  0
CLASS
  1
CAMSSTRUCTBTNSTATE
  2
StructBtnState
  3
DesignerAssemblies
 90
     1024
 91
        0
280
     0
281
     0
  0
CLASS
  1
SCALE
  2
AcDbScale
  3
ObjectDBX Classes
 90
     1153
 91
       34
280
     0
281
     0
  0
CLASS
  1
MLEADERSTYLE
  2
AcDbMLeaderStyle
  3
ACDB_MLEADERSTYLE_CLASS
 90
     4095
 91
        1
280
     0
281
     0
  0
CLASS
  1
ACMANOOTATIONVIEWSTANDARDJIS
  2
AmdtAnViewStdJIS
  3
"Amdt_StdImp|Product Description: AutoCAD Mechanical|Company: Autodesk, Inc."
 90
     1024
 91
        0
280
     0
281
     0
  0
CLASS
  1
ACMSURFSTANDARDJIS2003
  2
AcmSurfTextStdJIS2003
  3
"Amdt_StdImp|Product Description: AutoCAD Mechanical|Company: Autodesk, Inc."
 90
     1024
 91
        0
280
     0
281
     0
  0
CLASS
  1
CELLSTYLEMAP
  2
AcDbCellStyleMap
  3
ObjectDBX Classes
 90
     1152
 91
        2
280
     0
281
     0
  0
CLASS
  1
ACMFCFSTANDARDJIS98
  2
AcmFCFStdJIS98
  3
"Amdt_StdImp|Product Description: AutoCAD Mechanical|Company: Autodesk, Inc."
 90
     1024
 91
        0
280
     0
281
     0
  0
CLASS
  1
SORTENTSTABLE
  2
AcDbSortentsTable
  3
ObjectDBX Classes
 90
        0
 91
       10
280
     0
281
     0
  0
CLASS
  1
DIMASSOC
  2
AcDbDimAssoc
  3
"AcDbDimAssoc|Product Desc:     AcDim ARX App For Dimension|Company:          Autodesk, Inc.|WEB Address:      www.autodesk.com"
 90
        0
 91
       15
280
     0
281
     0
  0
CLASS
  1
STDPART2D
  2
AmgStdPart
  3
AmgStdPart|Product Description: AutoCAD Mechanical|Company: Autodesk, Inc.
 90
     4095
 91
        0
280
     0
281
     1
  0
CLASS
  1
ACMDATAENTRYPART
  2
AcmDataEntryPart
  3
AcmSymBB|Product Description: AutoCAD Mechanical|Company: Autodesk, Inc.
 90
     1024
 91
        0
280
     0
281
     0
  0
CLASS
  1
ACMPARTREF
  2
AcmPartRef
  3
"AcmSymBB|Product Description: AutoCAD Mechanical|Company: Autodesk, Inc."
 90
     4095
 91
        0
280
     0
281
     1
  0
CLASS
  1
ACDBSTDPARTRES_LINE
  2
AcDbStdPartRes_Line
  3
AmgStdPart|Product Description: AutoCAD Mechanical|Company: Autodesk, Inc.
 90
     1024
 91
        0
280
     0
281
     0
  0
CLASS
  1
ACMBOM
  2
AcmBom
  3
"AcmSymBB|Product Description: AutoCAD Mechanical|Company: Autodesk, Inc."
 90
     1024
 91
        0
280
     0
281
     0
  0
CLASS
  1
AMDTFORMULAUPDATEDISPATCHER
  2
AmdtFormulaUpdateDispatcher
  3
AcMeServices
 90
     1024
 91
        0
280
     0
281
     0
  0
CLASS
  1
ACMBOMROW
  2
AcmBomRow
  3
"AcmSymBB|Product Description: AutoCAD Mechanical|Company: Autodesk, Inc."
 90
     1024
 91
        0
280
     0
281
     0
  0
CLASS
  1
ACMPARTLIST
  2
AcmPartList
  3
"AcmSymBB|Product Description: AutoCAD Mechanical|Company: Autodesk, Inc."
 90
     4095
 91
        0
280
     0
281
     1
  0
CLASS
  1
ACDBLINERES
  2
AcDbLineRes
  3
AcGrefServices
 90
     1024
 91
        0
280
     0
281
     0
  0
CLASS
  1
ACRFINSADJ
  2
AcRfInsAdjuster
  3
AcMeServices
 90
     1024
 91
        0
280
     0
281
     0
  0
CLASS
  1
ACMSTANDARDISO
  2
AcmStandardISO
  3
"Amdt_StdImp|Product Description: AutoCAD Mechanical|Company: Autodesk, Inc."
 90
     1024
 91
        1
280
     0
281
     0
  0
CLASS
  1
AMDTEDGESTANDARDISO13715
  2
AmdtEdgeStdISO13715
  3
"Amdt_StdImp|Product Description: AutoCAD Mechanical|Company: Autodesk, Inc."
 90
     1024
 91
        1
280
     0
281
     0
  0
CLASS
  1
ACMSURFSTANDARDISO2002
  2
AcmSurfTextStdISO2002
  3
"Amdt_StdImp|Product Description: AutoCAD Mechanical|Company: Autodesk, Inc."
 90
     1024
 91
        1
280
     0
281
     0
  0
CLASS
  1
ACMFCFSTANDARDISO
  2
AcmFCFStdISO
  3
"Amdt_StdImp|Product Description: AutoCAD Mechanical|Company: Autodesk, Inc."
 90
     1024
 91
        1
280
     0
281
     0
  0
CLASS
  1
ACMWELDSTANDARDISO
  2
AcmWeldingStdISO
  3
"Amdt_StdImp|Product Description: AutoCAD Mechanical|Company: Autodesk, Inc."
 90
     1024
 91
        1
280
     0
281
     0
  0
CLASS
  1
ACMIDSTANDARDISO
  2
AcmIdStdISO
  3
"Amdt_StdImp|Product Description: AutoCAD Mechanical|Company: Autodesk, Inc."
 90
     1024
 91
        1
280
     0
281
     0
  0
CLASS
  1
ACMDATUMSTANDARDISO
  2
AcmDatumStdISO
  3
"Amdt_StdImp|Product Description: AutoCAD Mechanical|Company: Autodesk, Inc."
 90
     1024
 91
        1
280
     0
281
     0
  0
CLASS
  1
ACMBOMSTANDARDISO
  2
AcmBOMStdISO
  3
"Amdt_StdImp|Product Description: AutoCAD Mechanical|Company: Autodesk, Inc."
 90
     1024
 91
        1
280
     0
281
     0
  0
CLASS
  1
ACMDETAILSTANDARDISO
  2
AmdtDetailSymStdISO
  3
"Amdt_StdImp|Product Description: AutoCAD Mechanical|Company: Autodesk, Inc."
 90
     1024
 91
        1
280
     0
281
     0
  0
CLASS
  1
ACMSECTIONSTANDARDISO2001
  2
AmdtSectionSymStdISO2001
  3
"Amdt_StdImp|Product Description: AutoCAD Mechanical|Company: Autodesk, Inc."
 90
     1024
 91
        1
280
     0
281
     0
  0
CLASS
  1
ACMCENTERLINESTANDARDISO
  2
AmdtCenterLineStdISO
  3
"Amdt_StdImp|Product Description: AutoCAD Mechanical|Company: Autodesk, Inc."
 90
     1024
 91
        1
280
     0
281
     0
  0
CLASS
  1
ACMTHREADLINESTANDARDISO
  2
AmdtThreadLineStdISO
  3
"Amdt_StdImp|Product Description: AutoCAD Mechanical|Company: Autodesk, Inc."
 90
     1024
 91
        1
280
     0
281
     0
  0
CLASS
  1
ACMNOTESTANDARDISO
  2
AmdtNoteStdISO
  3
"Amdt_StdImp|Product Description: AutoCAD Mechanical|Company: Autodesk, Inc."
 90
     1024
 91
        1
280
     0
281
     0
  0
CLASS
  1
ACMTAPERSTANDARDISO
  2
AcmTaperStdISO
  3
"Amdt_StdImp|Product Description: AutoCAD Mechanical|Company: Autodesk, Inc."
 90
     1024
 91
        1
280
     0
281
     0
  0
CLASS
  1
ACMANOOTATIONVIEWSTANDARDISO
  2
AmdtAnViewStdISO
  3
"Amdt_StdImp|Product Description: AutoCAD Mechanical|Company: Autodesk, Inc."
 90
     1024
 91
        1
280
     0
281
     0
  0
CLASS
  1
ACAMGHOLECHARTSTDISO
  2
AcAmgHoleChartStdISO
  3
AmgDim|Product Description: AutoCAD Mechanical|Company: Autodesk, Inc.
 90
     1024
 91
        1
280
     0
281
     0
  0
CLASS
  1
EXACXREFPANELOBJECT
  2
ExAcXREFPanelObject
  3
EXAC_ESW
 90
     1025
 91
        0
280
     0
281
     0
  0
CLASS
  1
NPOCOLLECTION
  2
AcDbImpNonPersistentObjectsCollection
  3
ObjectDBX Classes
 90
     1153
 91
        0
280
     0
281
     0
  0
CLASS
  1
ACDBSTDPARTRES_ARC
  2
AcDbStdPartRes_Arc
  3
AmgStdPart|Product Description: AutoCAD Mechanical|Company: Autodesk, Inc.
 90
     1024
 91
        0
280
     0
281
     0
  0
CLASS
  1
AMDTNOTE
  2
AmdtNote
  3
"AcmSymBB|Product Description: AutoCAD Mechanical|Company: Autodesk, Inc."
 90
     4095
 91
        0
280
     0
281
     1
  0
CLASS
  1
PLOTSETTINGS
  2
AcDbPlotSettings
  3
ObjectDBX Classes
 90
        0
 91
        1
280
     0
281
     0
  0
CLASS
  1
ACMSTANDARDANSI
  2
AcmStandardANSI
  3
"Amdt_StdImp|Product Description: AutoCAD Mechanical|Company: Autodesk, Inc."
 90
     1024
 91
        0
280
     0
281
     0
  0
CLASS
  1
ACMSURFSTANDARDANSI
  2
AcmSurfTextStdANSI
  3
"Amdt_StdImp|Product Description: AutoCAD Mechanical|Company: Autodesk, Inc."
 90
     1024
 91
        0
280
     0
281
     0
  0
CLASS
  1
ACMFCFSTANDARDANSI
  2
AcmFCFStdANSI
  3
"Amdt_StdImp|Product Description: AutoCAD Mechanical|Company: Autodesk, Inc."
 90
     1024
 91
        0
280
     0
281
     0
  0
CLASS
  1
ACMWELDSTANDARDANSI
  2
AcmWeldingStdANSI
  3
"Amdt_StdImp|Product Description: AutoCAD Mechanical|Company: Autodesk, Inc."
 90
     1024
 91
        0
280
     0
281
     0
  0
CLASS
  1
ACMIDSTANDARDANSI
  2
AcmIdStdANSI
  3
"Amdt_StdImp|Product Description: AutoCAD Mechanical|Company: Autodesk, Inc."
 90
     1024
 91
        0
280
     0
281
     0
  0
CLASS
  1
ACMDATUMSTANDARDANSI
  2
AcmDatumStdANSI
  3
"Amdt_StdImp|Product Description: AutoCAD Mechanical|Company: Autodesk, Inc."
 90
     1024
 91
        0
280
     0
281
     0
  0
CLASS
  1
ACMBOMSTANDARDANSI
  2
AcmBOMStdANSI
  3
"Amdt_StdImp|Product Description: AutoCAD Mechanical|Company: Autodesk, Inc."
 90
     1024
 91
        0
280
     0
281
     0
  0
CLASS
  1
ACMDETAILSTANDARDANSI
  2
AmdtDetailSymStdANSI
  3
"Amdt_StdImp|Product Description: AutoCAD Mechanical|Company: Autodesk, Inc."
 90
     1024
 91
        0
280
     0
281
     0
  0
CLASS
  1
ACMSECTIONSTANDARDANSI
  2
AmdtSectionSymStdANSI
  3
"Amdt_StdImp|Product Description: AutoCAD Mechanical|Company: Autodesk, Inc."
 90
     1024
 91
        0
280
     0
281
     0
  0
CLASS
  1
ACMCENTERLINESTANDARDANSI
  2
AmdtCenterLineStdANSI
  3
"Amdt_StdImp|Product Description: AutoCAD Mechanical|Company: Autodesk, Inc."
 90
     1024
 91
        0
280
     0
281
     0
  0
CLASS
  1
ACMTHREADLINESTANDARDANSI
  2
AmdtThreadLineStdANSI
  3
"Amdt_StdImp|Product Description: AutoCAD Mechanical|Company: Autodesk, Inc."
 90
     1024
 91
        0
280
     0
281
     0
  0
CLASS
  1
ACMNOTESTANDARDANSI
  2
AmdtNoteStdANSI
  3
"Amdt_StdImp|Product Description: AutoCAD Mechanical|Company: Autodesk, Inc."
 90
     1024
 91
        0
280
     0
281
     0
  0
CLASS
  1
ACMTAPERSTANDARDANSI
  2
AcmTaperStdANSI
  3
"Amdt_StdImp|Product Description: AutoCAD Mechanical|Company: Autodesk, Inc."
 90
     1024
 91
        0
280
     0
281
     0
  0
CLASS
  1
ACMANOOTATIONVIEWSTANDARDANSI
  2
AmdtAnViewStdANSI
  3
"Amdt_StdImp|Product Description: AutoCAD Mechanical|Company: Autodesk, Inc."
 90
     1024
 91
        0
280
     0
281
     0
  0
CLASS
  1
ACAMGHOLECHARTSTDANSI
  2
AcAmgHoleChartStdANSI
  3
AmgDim|Product Description: AutoCAD Mechanical|Company: Autodesk, Inc.
 90
     1024
 91
        0
280
     0
281
     0
  0
CLASS
  1
ACMSTANDARDBSI
  2
AcmStandardBSI
  3
"Amdt_StdImp|Product Description: AutoCAD Mechanical|Company: Autodesk, Inc."
 90
     1024
 91
        0
280
     0
281
     0
  0
CLASS
  1
ACMSURFSTANDARDBSI2002
  2
AcmSurfTextStdBSI2002
  3
"Amdt_StdImp|Product Description: AutoCAD Mechanical|Company: Autodesk, Inc."
 90
     1024
 91
        0
280
     0
281
     0
  0
CLASS
  1
ACMFCFSTANDARDBSI
  2
AcmFCFStdBSI
  3
"Amdt_StdImp|Product Description: AutoCAD Mechanical|Company: Autodesk, Inc."
 90
     1024
 91
        0
280
     0
281
     0
  0
CLASS
  1
ACMWELDSTANDARDBSI
  2
AcmWeldingStdBSI
  3
"Amdt_StdImp|Product Description: AutoCAD Mechanical|Company: Autodesk, Inc."
 90
     1024
 91
        0
280
     0
281
     0
  0
CLASS
  1
ACMIDSTANDARDBSI
  2
AcmIdStdBSI
  3
"Amdt_StdImp|Product Description: AutoCAD Mechanical|Company: Autodesk, Inc."
 90
     1024
 91
        0
280
     0
281
     0
  0
CLASS
  1
ACMDATUMSTANDARDBSI
  2
AcmDatumStdBSI
  3
"Amdt_StdImp|Product Description: AutoCAD Mechanical|Company: Autodesk, Inc."
 90
     1024
 91
        0
280
     0
281
     0
  0
CLASS
  1
ACMBOMSTANDARDBSI
  2
AcmBOMStdBSI
  3
"Amdt_StdImp|Product Description: AutoCAD Mechanical|Company: Autodesk, Inc."
 90
     1024
 91
        0
280
     0
281
     0
  0
CLASS
  1
ACMDETAILSTANDARDBSI
  2
AmdtDetailSymStdBSI
  3
"Amdt_StdImp|Product Description: AutoCAD Mechanical|Company: Autodesk, Inc."
 90
     1024
 91
        0
280
     0
281
     0
  0
CLASS
  1
ACMSECTIONSTANDARDBSI2001
  2
AmdtSectionSymStdBSI2001
  3
"Amdt_StdImp|Product Description: AutoCAD Mechanical|Company: Autodesk, Inc."
 90
     1024
 91
        0
280
     0
281
     0
  0
CLASS
  1
ACMCENTERLINESTANDARDBSI
  2
AmdtCenterLineStdBSI
  3
"Amdt_StdImp|Product Description: AutoCAD Mechanical|Company: Autodesk, Inc."
 90
     1024
 91
        0
280
     0
281
     0
  0
CLASS
  1
ACMTHREADLINESTANDARDBSI
  2
AmdtThreadLineStdBSI
  3
"Amdt_StdImp|Product Description: AutoCAD Mechanical|Company: Autodesk, Inc."
 90
     1024
 91
        0
280
     0
281
     0
  0
CLASS
  1
ACMNOTESTANDARDBSI
  2
AmdtNoteStdBSI
  3
"Amdt_StdImp|Product Description: AutoCAD Mechanical|Company: Autodesk, Inc."
 90
     1024
 91
        0
280
     0
281
     0
  0
CLASS
  1
ACMTAPERSTANDARDBSI
  2
AcmTaperStdBSI
  3
"Amdt_StdImp|Product Description: AutoCAD Mechanical|Company: Autodesk, Inc."
 90
     1024
 91
        0
280
     0
281
     0
  0
CLASS
  1
ACMANOOTATIONVIEWSTANDARDBSI
  2
AmdtAnViewStdBSI
  3
"Amdt_StdImp|Product Description: AutoCAD Mechanical|Company: Autodesk, Inc."
 90
     1024
 91
        0
280
     0
281
     0
  0
CLASS
  1
ACAMGHOLECHARTSTDBSI
  2
AcAmgHoleChartStdBSI
  3
AmgDim|Product Description: AutoCAD Mechanical|Company: Autodesk, Inc.
 90
     1024
 91
        0
280
     0
281
     0
  0
CLASS
  1
AMDTEDGESTANDARDJIS
  2
AmdtEdgeStdJIS
  3
"Amdt_StdImp|Product Description: AutoCAD Mechanical|Company: Autodesk, Inc."
 90
     1024
 91
        0
280
     0
281
     0
  0
CLASS
  1
ACMSURFSYM
  2
AcmSurfaceTexture
  3
"AcmSymBB|Product Description: AutoCAD Mechanical|Company: Autodesk, Inc."
 90
     4095
 91
        0
280
     0
281
     1
  0
CLASS
  1
ACDBDIMENSIONRES
  2
AcDbDimensionRes
  3
AcmSymBB|Product Description: AutoCAD Mechanical|Company: Autodesk, Inc.
 90
     1024
 91
        0
280
     0
281
     0
  0
CLASS
  1
ACDBCIRCARCRES
  2
AcDbCircArcRes
  3
AcGrefServices
 90
     1024
 91
        0
280
     0
281
     0
  0
CLASS
  1
AMDTACMWBLOCKBOMENTITY
  2
AmdtAcmWblockBomEntity
  3
"AcmSymBB|Product Description: AutoCAD Mechanical|Company: Autodesk, Inc."
 90
     4095
 91
        0
280
     0
281
     1
  0
CLASS
  1
ACDBOPPOLYLINERES
  2
AcDbOpPolylineRes
  3
AcGrefServices
 90
     1024
 91
        0
280
     0
281
     0
  0
CLASS
  1
ACDB_BLKREFOBJECTCONTEXTDATA_CLASS
  2
AcDbBlkRefObjectContextData
  3
ObjectDBX Classes
 90
     1153
 91
        0
280
     0
281
     0
  0
CLASS
  1
ACMPICKOBJ
  2
AcmPickEnt
  3
"AcmSymBB|Product Description: AutoCAD Mechanical|Company: Autodesk, Inc."
 90
     1024
 91
        0
280
     0
281
     1
  0
CLASS
  1
ACMBALLOON
  2
AcmBalloon
  3
"AcmSymBB|Product Description: AutoCAD Mechanical|Company: Autodesk, Inc."
 90
     4095
 91
        0
280
     0
281
     1
  0
ENDSEC
  0
SECTION
  2
TABLES
  0
TABLE
  2
VPORT
  5
8
330
0
100
AcDbSymbolTable
 70
     1
  0
VPORT
  5
27A
330
8
100
AcDbSymbolTableRecord
100
AcDbViewportTableRecord
  2
*Active
 70
     0
 10
0.0
 20
0.0
 11
1.0
 21
1.0
 12
496.5045307075162
 22
405.3794425555656
 13
0.0
 23
0.0
 14
5.0
 24
5.0
 15
20.0
 25
20.0
 16
0.0
 26
0.0
 36
1.0
 17
0.0
 27
0.0
 37
0.0
 40
273.6717260298655
 41
1.285714285714285
 42
50.0
 43
0.0
 44
0.0
 50
0.0
 51
0.0
 71
    16
 72
 20000
 73
     1
 74
     3
 75
     0
 76
     0
 77
     0
 78
     0
281
     0
 65
     0
110
0.0
120
0.0
130
0.0
111
1.0
121
0.0
131
0.0
112
0.0
122
1.0
132
0.0
 79
     0
146
0.0
348
285
 60
     3
 61
     5
292
     1
282
     0
141
0.0
142
0.0
 63
   250
421
  3355443
  0
ENDTAB
  0
TABLE
  2
LTYPE
  5
5
330
0
100
AcDbSymbolTable
 70
    22
  0
LTYPE
  5
14
330
5
100
AcDbSymbolTableRecord
100
AcDbLinetypeTableRecord
  2
ByBlock
 70
     0
  3

 72
    65
 73
     0
 40
0.0
  0
LTYPE
  5
15
330
5
100
AcDbSymbolTableRecord
100
AcDbLinetypeTableRecord
  2
ByLayer
 70
     0
  3

 72
    65
 73
     0
 40
0.0
  0
LTYPE
  5
16
330
5
100
AcDbSymbolTableRecord
100
AcDbLinetypeTableRecord
  2
Continuous
 70
     0
  3
Solid line
 72
    65
 73
     0
 40
0.0
  0
LTYPE
  5
4D
330
5
100
AcDbSymbolTableRecord
100
AcDbLinetypeTableRecord
  2
AM_ISO02W050
 70
     0
  3
__ __ __ __ __ __ __ __ __ __ __ __ __ __ __
 72
    65
 73
     2
 40
7.5
 49
6.0
 74
     0
 49
-1.5
 74
     0
  0
LTYPE
  5
4E
330
5
100
AcDbSymbolTableRecord
100
AcDbLinetypeTableRecord
  2
AM_ISO08W050
 70
     0
  3
____ . ____ . ____ . ____ . ____ . ____ . ____
 72
    65
 73
     4
 40
18.0
 49
12.0
 74
     0
 49
-1.5
 74
     0
 49
3.0
 74
     0
 49
-1.5
 74
     0
  0
LTYPE
  5
4F
330
5
100
AcDbSymbolTableRecord
100
AcDbLinetypeTableRecord
  2
AM_ISO09W050
 70
     0
  3
_____ . . _____ . . _____ . . ____ .. ____
 72
    65
 73
     6
 40
22.5
 49
12.0
 74
     0
 49
-1.5
 74
     0
 49
3.0
 74
     0
 49
-1.5
 74
     0
 49
3.0
 74
     0
 49
-1.5
 74
     0
  0
LTYPE
  5
50
330
5
100
AcDbSymbolTableRecord
100
AcDbLinetypeTableRecord
  2
Amconstr
 70
     0
  3
_______________________
 72
    65
 73
     2
 40
9999.0
 49
9999.0
 74
     0
 49
0.0
 74
     0
  0
LTYPE
  5
51
330
5
100
AcDbSymbolTableRecord
100
AcDbLinetypeTableRecord
  2
AM_ISO08W050x2
 70
     0
  3
__ . __ . __ . __ . __ . __
 72
    65
 73
     4
 40
9.0
 49
6.0
 74
     0
 49
-0.75
 74
     0
 49
1.5
 74
     0
 49
-0.75
 74
     0
  0
LTYPE
  5
52
330
5
100
AcDbSymbolTableRecord
100
AcDbLinetypeTableRecord
  2
AM_ISO02W050x2
 70
     0
  3
 _ _ _ _ _ _ _ _ _ _ _ _
 72
    65
 73
     2
 40
3.75
 49
3.0
 74
     0
 49
-0.75
 74
     0
  0
LTYPE
  5
55
330
5
100
AcDbSymbolTableRecord
100
AcDbLinetypeTableRecord
  2
Amzigzag
 70
     0
  3
/\/-/\/-/\/-/\/-/\/-/\/
 72
    65
 73
     2
 40
11.0001
 49
0.0001
 74
     4
 75
   136
340
23D
 46
0.04
 50
0.0
 44
0.0
 45
0.0
 49
-11.0
 74
     0
  0
LTYPE
  5
65
330
5
100
AcDbSymbolTableRecord
100
AcDbLinetypeTableRecord
  2
CENTER
 70
     0
  3
__ . __
 72
    65
 73
     4
 40
7.0
 49
4.0
 74
     0
 49
-1.0
 74
     0
 49
1.0
 74
     0
 49
-1.0
 74
     0
  0
LTYPE
  5
E0
330
5
100
AcDbSymbolTableRecord
100
AcDbLinetypeTableRecord
  2
HIDDEN
 70
     0
  3
Hidden __ __ __ __ __ __ __ __ __ __ __ __ __ _
 72
    65
 73
     2
 40
9.524999999999996
 49
6.349999999999998
 74
     0
 49
-3.174999999999998
 74
     0
  0
LTYPE
  5
E1
330
5
100
AcDbSymbolTableRecord
100
AcDbLinetypeTableRecord
  2
PHANTOM2
 70
     0
  3
Phantom (.5x) ___ _ _ ___ _ _ ___ _ _ ___ _ _
 72
    65
 73
     6
 40
31.75
 49
15.875
 74
     0
 49
-3.174999999999998
 74
     0
 49
3.174999999999998
 74
     0
 49
-3.174999999999998
 74
     0
 49
3.174999999999998
 74
     0
 49
-3.174999999999998
 74
     0
  0
LTYPE
  5
5A2
330
5
100
AcDbSymbolTableRecord
100
AcDbLinetypeTableRecord
  2
ACJISWELD
 70
     0
  3
_ _ _ _ _
 72
    65
 73
     2
 40
2.0
 49
2.0
 74
     0
 49
-1.0
 74
     0
  0
LTYPE
  5
8E1F
330
5
100
AcDbSymbolTableRecord
100
AcDbLinetypeTableRecord
  2
ACISOWELD
 70
     0
  3
_ _ _ _ _
 72
    65
 73
     2
 40
2.0
 49
2.0
 74
     0
 49
-1.0
 74
     0
  0
LTYPE
  5
8E20
330
5
100
AcDbSymbolTableRecord
100
AcDbLinetypeTableRecord
  2
ACISOTGB
 70
     0
  3
__ . . __ . .
 72
    65
 73
     6
 40
9.0
 49
4.0
 74
     0
 49
-1.0
 74
     0
 49
1.0
 74
     0
 49
-1.0
 74
     0
 49
1.0
 74
     0
 49
-1.0
 74
     0
  0
LTYPE
  5
8E21
330
5
100
AcDbSymbolTableRecord
100
AcDbLinetypeTableRecord
  2
ACISOTGL
 70
     0
  3
_ _ _ _ _
 72
    65
 73
     2
 40
3.0
 49
2.0
 74
     0
 49
-1.0
 74
     0
  0
ENDTAB
  0
TABLE
  2
LAYER
  5
2
102
{ACAD_XDICTIONARY
360
BF
102
}
330
0
100
AcDbSymbolTable
 70
    10
  0
LAYER
  5
10
102
{ACAD_XDICTIONARY
360
29D8
102
}
330
2
100
AcDbSymbolTableRecord
100
AcDbLayerTableRecord
  2
0
 70
     0
 62
     7
  6
Continuous
370
    -3
390
F
347
27E
  0
LAYER
  5
81
102
{ACAD_XDICTIONARY
360
29DA
102
}
330
2
100
AcDbSymbolTableRecord
100
AcDbLayerTableRecord
  2
AM_0 外形線1
 70
     0
 62
     7
  6
Continuous
370
    25
390
F
347
27E
  0
LAYER
  5
427
330
2
100
AcDbSymbolTableRecord
100
AcDbLayerTableRecord
  2
Defpoints
 70
     0
 62
     7
  6
Continuous
290
     0
370
    -3
390
F
347
27E
  0
LAYER
  5
25C9
102
{ACAD_XDICTIONARY
360
29E1
102
}
330
2
100
AcDbSymbolTableRecord
100
AcDbLayerTableRecord
  2
AM_3 隠れ線
 70
     0
 62
     8
  6
ACJISWELD
370
    13
390
F
347
27E
1001
AcAecLayerStandard
1000

1000

  0
LAYER
  5
25CA
102
{ACAD_XDICTIONARY
360
29E3
102
}
330
2
100
AcDbSymbolTableRecord
100
AcDbLayerTableRecord
  2
AM_4 細線
 70
     0
 62
     4
  6
Continuous
370
    13
390
F
347
27E
1001
AcAecLayerStandard
1000

1000

  0
LAYER
  5
26B3
102
{ACAD_XDICTIONARY
360
29E9
102
}
330
2
100
AcDbSymbolTableRecord
100
AcDbLayerTableRecord
  2
AM_5 寸法線
 70
     0
 62
     3
  6
Continuous
370
    13
390
F
347
27E
1001
AcAecLayerStandard
1000

1000

  0
LAYER
  5
3B59
330
2
100
AcDbSymbolTableRecord
100
AcDbLayerTableRecord
  2
AM_7 中心線
 70
     0
 62
     1
  6
AM_ISO08W050
370
    13
390
F
347
27E
1001
AcAecLayerStandard
1000

1000

  0
LAYER
  5
3B5C
330
2
100
AcDbSymbolTableRecord
100
AcDbLayerTableRecord
  2
AM_6 文字
 70
     0
 62
     2
  6
Continuous
370
    13
390
F
347
27E
1001
AcAecLayerStandard
1000

1000

  0
LAYER
  5
8A05
330
2
100
AcDbSymbolTableRecord
100
AcDbLayerTableRecord
  2
AM_11 想像線
 70
     0
 62
     5
  6
AM_ISO09W050
370
    13
390
F
347
27E
1001
AcAecLayerStandard
1000

1000

  0
ENDTAB
  0
TABLE
  2
STYLE
  5
3
330
0
100
AcDbSymbolTable
 70
    10
  0
STYLE
  5
11
330
3
100
AcDbSymbolTableRecord
100
AcDbTextStyleTableRecord
  2
STANDARD
 70
     0
 40
0.0
 41
1.0
 50
0.0
 71
     0
 42
25.0
  3
ISOCP.SHX
  4
EXTFONT.SHX
  0
STYLE
  5
23D
330
3
100
AcDbSymbolTableRecord
100
AcDbTextStyleTableRecord
  2

 70
     1
 40
0.0
 41
1.0
 50
0.0
 71
     0
 42
2.5
  3
genltshp.shx
  4

  0
STYLE
  5
5D5
330
3
100
AcDbSymbolTableRecord
100
AcDbTextStyleTableRecord
  2
SEISA
 70
     0
 40
0.0
 41
0.9
 50
0.0
 71
     0
 42
25.0
  3
romans.shx
  4
extfont2.shx
  0
STYLE
  5
8E0F
330
3
100
AcDbSymbolTableRecord
100
AcDbTextStyleTableRecord
  2
ACISOTS
 70
     0
 40
1.0
 41
1.0
 50
0.0
 71
     0
 42
25.0
  3
isocp.shx
  4
extfont.shx
  0
STYLE
  5
8E1E
330
3
100
AcDbSymbolTableRecord
100
AcDbTextStyleTableRecord
  2
ACISOGDT
 70
     0
 40
0.0
 41
1.0
 50
0.0
 71
     0
 42
25.0
  3
amgdt.shx
  4

  0
ENDTAB
  0
TABLE
  2
VIEW
  5
6
330
0
100
AcDbSymbolTable
 70
     6
  0
VIEW
  5
91B
330
6
100
AcDbSymbolTableRecord
100
AcDbViewTableRecord
  2
AM_VIEW1
 70
     0
 40
297.0
 10
292.2450742744934
 20
445.5000007387641
 41
584.4901477832514
 11
0.0
 21
0.0
 31
1.0
 12
0.0
 22
0.0
 32
0.0
 42
50.0
 43
0.0
 44
0.0
 50
0.0
 71
    16
281
     0
 72
     0
 73
     0
  0
VIEW
  5
91C
330
6
100
AcDbSymbolTableRecord
100
AcDbViewTableRecord
  2
AM_VIEW2
 70
     0
 40
297.0
 10
547.754926491242
 20
445.5000007387641
 41
584.4901477832514
 11
0.0
 21
0.0
 31
1.0
 12
0.0
 22
0.0
 32
0.0
 42
50.0
 43
0.0
 44
0.0
 50
0.0
 71
    16
281
     0
 72
     0
 73
     0
  0
VIEW
  5
91D
330
6
100
AcDbSymbolTableRecord
100
AcDbViewTableRecord
  2
AM_VIEW3
 70
     0
 40
297.0
 10
292.2450742744934
 20
148.5000007387641
 41
584.4901477832514
 11
0.0
 21
0.0
 31
1.0
 12
0.0
 22
0.0
 32
0.0
 42
50.0
 43
0.0
 44
0.0
 50
0.0
 71
    16
281
     0
 72
     0
 73
     0
  0
VIEW
  5
91E
330
6
100
AcDbSymbolTableRecord
100
AcDbViewTableRecord
  2
AM_VIEW4
 70
     0
 40
297.0
 10
547.754926491242
 20
148.5000007387641
 41
584.4901477832514
 11
0.0
 21
0.0
 31
1.0
 12
0.0
 22
0.0
 32
0.0
 42
50.0
 43
0.0
 44
0.0
 50
0.0
 71
    16
281
     0
 72
     0
 73
     0
  0
VIEW
  5
91F
330
6
100
AcDbSymbolTableRecord
100
AcDbViewTableRecord
  2
AM_VIEW5
 70
     0
 40
297.0000000000001
 10
420.0000003828676
 20
297.0000007387642
 41
584.4901477832514
 11
0.0
 21
0.0
 31
1.0
 12
0.0
 22
0.0
 32
0.0
 42
50.0
 43
0.0
 44
0.0
 50
0.0
 71
    16
281
     0
 72
     0
 73
     0
  0
VIEW
  5
920
330
6
100
AcDbSymbolTableRecord
100
AcDbViewTableRecord
  2
AM_VIEW6
 70
     0
 40
593.9940599999999
 10
420.0000003828676
 20
297.0000007387642
 41
1168.968605763547
 11
0.0
 21
0.0
 31
1.0
 12
0.0
 22
0.0
 32
0.0
 42
50.0
 43
0.0
 44
0.0
 50
0.0
 71
    16
281
     0
 72
     0
 73
     0
  0
ENDTAB
  0
TABLE
  2
UCS
  5
7
330
0
100
AcDbSymbolTable
 70
     0
  0
ENDTAB
  0
TABLE
  2
APPID
  5
9
330
0
100
AcDbSymbolTable
 70
   393
  0
APPID
  5
12
330
9
100
AcDbSymbolTableRecord
100
AcDbRegAppTableRecord
  2
ACAD
 70
     0
  0
APPID
  5
30
330
9
100
AcDbSymbolTableRecord
100
AcDbRegAppTableRecord
  2
MCAD_NO_VIS
 70
     0
  0
APPID
  5
31
330
9
100
AcDbSymbolTableRecord
100
AcDbRegAppTableRecord
  2
ACAD_TEMP_GRAPHIC
 70
     0
  0
APPID
  5
44
330
9
100
AcDbSymbolTableRecord
100
AcDbRegAppTableRecord
  2
ACATTRIBSERVICES
 70
     0
  0
APPID
  5
F6
330
9
100
AcDbSymbolTableRecord
100
AcDbRegAppTableRecord
  2
AD_DRAW
 70
     0
  0
APPID
  5
114
330
9
100
AcDbSymbolTableRecord
100
AcDbRegAppTableRecord
  2
DESIGNERASSEMBLIES
 70
     0
  0
APPID
  5
118
330
9
100
AcDbSymbolTableRecord
100
AcDbRegAppTableRecord
  2
ACADM_DIM_EDIT
 70
     0
  0
APPID
  5
119
330
9
100
AcDbSymbolTableRecord
100
AcDbRegAppTableRecord
  2
AMDT_DM_ADJ
 70
     0
  0
APPID
  5
1AF
330
9
100
AcDbSymbolTableRecord
100
AcDbRegAppTableRecord
  2
ACAD_DSTYLE_DIMARC_LENGTH_SYMBOL
 70
     0
  0
APPID
  5
1B0
330
9
100
AcDbSymbolTableRecord
100
AcDbRegAppTableRecord
  2
ACAD_DSTYLE_DIMJOGGED_JOGANGLE_SYMBOL
 70
     0
  0
APPID
  5
2D7
330
9
100
AcDbSymbolTableRecord
100
AcDbRegAppTableRecord
  2
ACAD_MLEADERVER
 70
     0
  0
APPID
  5
355
330
9
100
AcDbSymbolTableRecord
100
AcDbRegAppTableRecord
  2
AcadAnnoPO
 70
     0
  0
APPID
  5
428
330
9
100
AcDbSymbolTableRecord
100
AcDbRegAppTableRecord
  2
ACAD_DSTYLE_DIMTEXT_FILL
 70
     0
  0
APPID
  5
429
330
9
100
AcDbSymbolTableRecord
100
AcDbRegAppTableRecord
  2
GENIUS_GENSCREG_15
 70
     0
  0
APPID
  5
42A
330
9
100
AcDbSymbolTableRecord
100
AcDbRegAppTableRecord
  2
GENIUS_GENOBJ-N-SDF_13
 70
     0
  0
APPID
  5
42B
330
9
100
AcDbSymbolTableRecord
100
AcDbRegAppTableRecord
  2
GENIUS_GENODEF_13
 70
     0
  0
APPID
  5
42C
330
9
100
AcDbSymbolTableRecord
100
AcDbRegAppTableRecord
  2
ACAD_EXEMPT_FROM_CAD_STANDARDS
 70
     0
  0
APPID
  5
42D
330
9
100
AcDbSymbolTableRecord
100
AcDbRegAppTableRecord
  2
AcAecLayerStandard
 70
     0
  0
APPID
  5
42E
330
9
100
AcDbSymbolTableRecord
100
AcDbRegAppTableRecord
  2
GENIUS_GENOBJ-N-CEN_13
 70
     0
  0
APPID
  5
42F
330
9
100
AcDbSymbolTableRecord
100
AcDbRegAppTableRecord
  2
GENIUS_GENCEN_19
 70
     0
  0
APPID
  5
430
330
9
100
AcDbSymbolTableRecord
100
AcDbRegAppTableRecord
  2
ACAD_DSTYLE_DIMINSPECT
 70
     0
  0
APPID
  5
431
330
9
100
AcDbSymbolTableRecord
100
AcDbRegAppTableRecord
  2
GENIUS_AMGTXT_16
 70
     0
  0
APPID
  5
432
330
9
100
AcDbSymbolTableRecord
100
AcDbRegAppTableRecord
  2
GENIUS_GENFIL_13
 70
     0
  0
APPID
  5
433
330
9
100
AcDbSymbolTableRecord
100
AcDbRegAppTableRecord
  2
GENIUS_GENOLIS_13
 70
     0
  0
APPID
  5
434
330
9
100
AcDbSymbolTableRecord
100
AcDbRegAppTableRecord
  2
GENIUS_GENOBJ-N-CHA_13
 70
     0
  0
APPID
  5
435
330
9
100
AcDbSymbolTableRecord
100
AcDbRegAppTableRecord
  2
GENIUS_GENOENT_13
 70
     0
  0
APPID
  5
436
330
9
100
AcDbSymbolTableRecord
100
AcDbRegAppTableRecord
  2
GENIUS_GENOREF_13
 70
     0
  0
APPID
  5
437
330
9
100
AcDbSymbolTableRecord
100
AcDbRegAppTableRecord
  2
GENIUS_GENOBJ-N-FIL_13
 70
     0
  0
APPID
  5
438
330
9
100
AcDbSymbolTableRecord
100
AcDbRegAppTableRecord
  2
GEVID1208829536
 70
     0
  0
APPID
  5
439
330
9
100
AcDbSymbolTableRecord
100
AcDbRegAppTableRecord
  2
GEVDC
 70
     0
  0
APPID
  5
43A
330
9
100
AcDbSymbolTableRecord
100
AcDbRegAppTableRecord
  2
GEVRADREF
 70
     0
  0
APPID
  5
43B
330
9
100
AcDbSymbolTableRecord
100
AcDbRegAppTableRecord
  2
GENIUS_GENBH_13
 70
     0
  0
APPID
  5
43C
330
9
100
AcDbSymbolTableRecord
100
AcDbRegAppTableRecord
  2
GENIUS_GENOBJ-NBEHI-BHF_13
 70
     0
  0
APPID
  5
43D
330
9
100
AcDbSymbolTableRecord
100
AcDbRegAppTableRecord
  2
GENIUS_GENOBJ-NBEHI-BHB_13
 70
     0
  0
APPID
  5
43E
330
9
100
AcDbSymbolTableRecord
100
AcDbRegAppTableRecord
  2
GEVID1208829537
 70
     0
  0
APPID
  5
43F
330
9
100
AcDbSymbolTableRecord
100
AcDbRegAppTableRecord
  2
ACAD_DSTYLE_DIMJAG
 70
     0
  0
APPID
  5
440
330
9
100
AcDbSymbolTableRecord
100
AcDbRegAppTableRecord
  2
ACAD_DSTYLE_DIMTALN
 70
     0
  0
APPID
  5
441
330
9
100
AcDbSymbolTableRecord
100
AcDbRegAppTableRecord
  2
AMG_2DHIDE
 70
     0
  0
APPID
  5
442
330
9
100
AcDbSymbolTableRecord
100
AcDbRegAppTableRecord
  2
AMG_2DSTRUCT_BTR
 70
     0
  0
APPID
  5
443
330
9
100
AcDbSymbolTableRecord
100
AcDbRegAppTableRecord
  2
GEVID1208845772
 70
     0
  0
APPID
  5
444
330
9
100
AcDbSymbolTableRecord
100
AcDbRegAppTableRecord
  2
GEVID1208845773
 70
     0
  0
APPID
  5
445
330
9
100
AcDbSymbolTableRecord
100
AcDbRegAppTableRecord
  2
ACADM_2DVIEW_IGN_NOTIFY
 70
     0
  0
APPID
  5
446
330
9
100
AcDbSymbolTableRecord
100
AcDbRegAppTableRecord
  2
GEVID1208845774
 70
     0
  0
APPID
  5
447
330
9
100
AcDbSymbolTableRecord
100
AcDbRegAppTableRecord
  2
GEVID1208845775
 70
     0
  0
APPID
  5
448
330
9
100
AcDbSymbolTableRecord
100
AcDbRegAppTableRecord
  2
GEVID1208845776
 70
     0
  0
APPID
  5
449
330
9
100
AcDbSymbolTableRecord
100
AcDbRegAppTableRecord
  2
GEVID1208845777
 70
     0
  0
APPID
  5
44A
330
9
100
AcDbSymbolTableRecord
100
AcDbRegAppTableRecord
  2
GEVCON
 70
     0
  0
APPID
  5
44B
330
9
100
AcDbSymbolTableRecord
100
AcDbRegAppTableRecord
  2
GENIUS_GENOBJ-F-SCPASSM_13
 70
     0
  0
APPID
  5
44C
330
9
100
AcDbSymbolTableRecord
100
AcDbRegAppTableRecord
  2
GEVID1208845778
 70
     0
  0
APPID
  5
44D
330
9
100
AcDbSymbolTableRecord
100
AcDbRegAppTableRecord
  2
GEVID1208845779
 70
     0
  0
APPID
  5
44E
330
9
100
AcDbSymbolTableRecord
100
AcDbRegAppTableRecord
  2
GEVID1208845780
 70
     0
  0
APPID
  5
44F
330
9
100
AcDbSymbolTableRecord
100
AcDbRegAppTableRecord
  2
GEVID1208845781
 70
     0
  0
APPID
  5
450
330
9
100
AcDbSymbolTableRecord
100
AcDbRegAppTableRecord
  2
GEVID1208845782
 70
     0
  0
APPID
  5
451
330
9
100
AcDbSymbolTableRecord
100
AcDbRegAppTableRecord
  2
GEVID1208845783
 70
     0
  0
APPID
  5
452
330
9
100
AcDbSymbolTableRecord
100
AcDbRegAppTableRecord
  2
GEVID1208845784
 70
     0
  0
APPID
  5
453
330
9
100
AcDbSymbolTableRecord
100
AcDbRegAppTableRecord
  2
GEVID1208845785
 70
     0
  0
APPID
  5
454
330
9
100
AcDbSymbolTableRecord
100
AcDbRegAppTableRecord
  2
GEVID1208845787
 70
     0
  0
APPID
  5
455
330
9
100
AcDbSymbolTableRecord
100
AcDbRegAppTableRecord
  2
GEVID1208845788
 70
     0
  0
APPID
  5
456
330
9
100
AcDbSymbolTableRecord
100
AcDbRegAppTableRecord
  2
GEVID1208845789
 70
     0
  0
APPID
  5
457
330
9
100
AcDbSymbolTableRecord
100
AcDbRegAppTableRecord
  2
GEVID1208845790
 70
     0
  0
APPID
  5
458
330
9
100
AcDbSymbolTableRecord
100
AcDbRegAppTableRecord
  2
GEVID1208845791
 70
     0
  0
APPID
  5
459
330
9
100
AcDbSymbolTableRecord
100
AcDbRegAppTableRecord
  2
GEVID1208845792
 70
     0
  0
APPID
  5
45A
330
9
100
AcDbSymbolTableRecord
100
AcDbRegAppTableRecord
  2
GEVID1208845793
 70
     0
  0
APPID
  5
45B
330
9
100
AcDbSymbolTableRecord
100
AcDbRegAppTableRecord
  2
GEVID1208845794
 70
     0
  0
APPID
  5
45C
330
9
100
AcDbSymbolTableRecord
100
AcDbRegAppTableRecord
  2
GEVID1208845795
 70
     0
  0
APPID
  5
45D
330
9
100
AcDbSymbolTableRecord
100
AcDbRegAppTableRecord
  2
GEVID1208845796
 70
     0
  0
APPID
  5
45E
330
9
100
AcDbSymbolTableRecord
100
AcDbRegAppTableRecord
  2
GEVID1208845797
 70
     0
  0
APPID
  5
45F
330
9
100
AcDbSymbolTableRecord
100
AcDbRegAppTableRecord
  2
GEVID1208845798
 70
     0
  0
APPID
  5
460
330
9
100
AcDbSymbolTableRecord
100
AcDbRegAppTableRecord
  2
GEVID1208845799
 70
     0
  0
APPID
  5
461
330
9
100
AcDbSymbolTableRecord
100
AcDbRegAppTableRecord
  2
GEVID1208845800
 70
     0
  0
APPID
  5
462
330
9
100
AcDbSymbolTableRecord
100
AcDbRegAppTableRecord
  2
GEVID1208845801
 70
     0
  0
APPID
  5
463
330
9
100
AcDbSymbolTableRecord
100
AcDbRegAppTableRecord
  2
GEVID1208845802
 70
     0
  0
APPID
  5
464
330
9
100
AcDbSymbolTableRecord
100
AcDbRegAppTableRecord
  2
GENIUS_GENOBJ-N-DIM_13
 70
     0
  0
APPID
  5
465
330
9
100
AcDbSymbolTableRecord
100
AcDbRegAppTableRecord
  2
GENIUS_GENDIM_13
 70
     0
  0
APPID
  5
466
330
9
100
AcDbSymbolTableRecord
100
AcDbRegAppTableRecord
  2
GENIUS_GENDIMSH_14
 70
     0
  0
APPID
  5
467
330
9
100
AcDbSymbolTableRecord
100
AcDbRegAppTableRecord
  2
GEVID1208845803
 70
     0
  0
APPID
  5
468
330
9
100
AcDbSymbolTableRecord
100
AcDbRegAppTableRecord
  2
GEVID1208845804
 70
     0
  0
APPID
  5
469
330
9
100
AcDbSymbolTableRecord
100
AcDbRegAppTableRecord
  2
GEVID1208845805
 70
     0
  0
APPID
  5
46A
330
9
100
AcDbSymbolTableRecord
100
AcDbRegAppTableRecord
  2
GEVID1208845806
 70
     0
  0
APPID
  5
46B
330
9
100
AcDbSymbolTableRecord
100
AcDbRegAppTableRecord
  2
GEVID1208845807
 70
     0
  0
APPID
  5
46C
330
9
100
AcDbSymbolTableRecord
100
AcDbRegAppTableRecord
  2
GEVID1208845808
 70
     0
  0
APPID
  5
46D
330
9
100
AcDbSymbolTableRecord
100
AcDbRegAppTableRecord
  2
GEVID1208845809
 70
     0
  0
APPID
  5
46E
330
9
100
AcDbSymbolTableRecord
100
AcDbRegAppTableRecord
  2
GEVID1208845810
 70
     0
  0
APPID
  5
46F
330
9
100
AcDbSymbolTableRecord
100
AcDbRegAppTableRecord
  2
GEVID1208845811
 70
     0
  0
APPID
  5
470
330
9
100
AcDbSymbolTableRecord
100
AcDbRegAppTableRecord
  2
GEVID1208845813
 70
     0
  0
APPID
  5
471
330
9
100
AcDbSymbolTableRecord
100
AcDbRegAppTableRecord
  2
GEVID1208845814
 70
     0
  0
APPID
  5
472
330
9
100
AcDbSymbolTableRecord
100
AcDbRegAppTableRecord
  2
GEVID1208845815
 70
     0
  0
APPID
  5
473
330
9
100
AcDbSymbolTableRecord
100
AcDbRegAppTableRecord
  2
GEVID1208845816
 70
     0
  0
APPID
  5
474
330
9
100
AcDbSymbolTableRecord
100
AcDbRegAppTableRecord
  2
GEVID1208845817
 70
     0
  0
APPID
  5
475
330
9
100
AcDbSymbolTableRecord
100
AcDbRegAppTableRecord
  2
GEVID1208845818
 70
     0
  0
APPID
  5
476
330
9
100
AcDbSymbolTableRecord
100
AcDbRegAppTableRecord
  2
GEVID1208845819
 70
     0
  0
APPID
  5
477
330
9
100
AcDbSymbolTableRecord
100
AcDbRegAppTableRecord
  2
GEVID1208845820
 70
     0
  0
APPID
  5
478
330
9
100
AcDbSymbolTableRecord
100
AcDbRegAppTableRecord
  2
GENIUS_GENOBJ-F-SHCL_13
 70
     0
  0
APPID
  5
479
330
9
100
AcDbSymbolTableRecord
100
AcDbRegAppTableRecord
  2
GENIUS_GEFMSH_13
 70
     0
  0
APPID
  5
47A
330
9
100
AcDbSymbolTableRecord
100
AcDbRegAppTableRecord
  2
GENIUS_GENOBJ-F-SHCA_13
 70
     0
  0
APPID
  5
47B
330
9
100
AcDbSymbolTableRecord
100
AcDbRegAppTableRecord
  2
GENIUS_GEFSH_13
 70
     0
  0
APPID
  5
47C
330
9
100
AcDbSymbolTableRecord
100
AcDbRegAppTableRecord
  2
GENIUS_GEFSHP_13
 70
     0
  0
APPID
  5
47D
330
9
100
AcDbSymbolTableRecord
100
AcDbRegAppTableRecord
  2
GENIUS_GEFSHP0_13
 70
     0
  0
APPID
  5
47E
330
9
100
AcDbSymbolTableRecord
100
AcDbRegAppTableRecord
  2
GENIUS_GEFSH0_13
 70
     0
  0
APPID
  5
47F
330
9
100
AcDbSymbolTableRecord
100
AcDbRegAppTableRecord
  2
GENIUS_GEFSHP1_13
 70
     0
  0
APPID
  5
480
330
9
100
AcDbSymbolTableRecord
100
AcDbRegAppTableRecord
  2
GENIUS_GEFSH1_13
 70
     0
  0
APPID
  5
481
330
9
100
AcDbSymbolTableRecord
100
AcDbRegAppTableRecord
  2
GEVID1208866337
 70
     0
  0
APPID
  5
482
330
9
100
AcDbSymbolTableRecord
100
AcDbRegAppTableRecord
  2
GEVID1208866338
 70
     0
  0
APPID
  5
483
330
9
100
AcDbSymbolTableRecord
100
AcDbRegAppTableRecord
  2
GEVID1208866339
 70
     0
  0
APPID
  5
484
330
9
100
AcDbSymbolTableRecord
100
AcDbRegAppTableRecord
  2
GEVID1208866340
 70
     0
  0
APPID
  5
485
330
9
100
AcDbSymbolTableRecord
100
AcDbRegAppTableRecord
  2
GEVID1208866341
 70
     0
  0
APPID
  5
486
330
9
100
AcDbSymbolTableRecord
100
AcDbRegAppTableRecord
  2
ACAD_PSEXT
 70
     0
  0
APPID
  5
487
330
9
100
AcDbSymbolTableRecord
100
AcDbRegAppTableRecord
  2
GEVID1208866342
 70
     0
  0
APPID
  5
488
330
9
100
AcDbSymbolTableRecord
100
AcDbRegAppTableRecord
  2
GEVID1208913836
 70
     0
  0
APPID
  5
489
330
9
100
AcDbSymbolTableRecord
100
AcDbRegAppTableRecord
  2
GEVID1208913837
 70
     0
  0
APPID
  5
48A
330
9
100
AcDbSymbolTableRecord
100
AcDbRegAppTableRecord
  2
GEVID1208913838
 70
     0
  0
APPID
  5
48B
330
9
100
AcDbSymbolTableRecord
100
AcDbRegAppTableRecord
  2
GEVID1208913839
 70
     0
  0
APPID
  5
48C
330
9
100
AcDbSymbolTableRecord
100
AcDbRegAppTableRecord
  2
GENIUS_GENDTOL_13
 70
     0
  0
APPID
  5
48D
330
9
100
AcDbSymbolTableRecord
100
AcDbRegAppTableRecord
  2
GEVID1208928889
 70
     0
  0
APPID
  5
48E
330
9
100
AcDbSymbolTableRecord
100
AcDbRegAppTableRecord
  2
GEVID1208928890
 70
     0
  0
APPID
  5
48F
330
9
100
AcDbSymbolTableRecord
100
AcDbRegAppTableRecord
  2
GEVID1208928891
 70
     0
  0
APPID
  5
490
330
9
100
AcDbSymbolTableRecord
100
AcDbRegAppTableRecord
  2
GEVID1208928892
 70
     0
  0
APPID
  5
491
330
9
100
AcDbSymbolTableRecord
100
AcDbRegAppTableRecord
  2
GEVID1208933827
 70
     0
  0
APPID
  5
492
330
9
100
AcDbSymbolTableRecord
100
AcDbRegAppTableRecord
  2
GEVID1208933829
 70
     0
  0
APPID
  5
493
330
9
100
AcDbSymbolTableRecord
100
AcDbRegAppTableRecord
  2
GEVID1208933830
 70
     0
  0
APPID
  5
494
330
9
100
AcDbSymbolTableRecord
100
AcDbRegAppTableRecord
  2
GEVID1208933831
 70
     0
  0
APPID
  5
495
330
9
100
AcDbSymbolTableRecord
100
AcDbRegAppTableRecord
  2
GEVID1208933832
 70
     0
  0
APPID
  5
496
330
9
100
AcDbSymbolTableRecord
100
AcDbRegAppTableRecord
  2
GEVID1208933833
 70
     0
  0
APPID
  5
497
330
9
100
AcDbSymbolTableRecord
100
AcDbRegAppTableRecord
  2
GEVID1208933834
 70
     0
  0
APPID
  5
498
330
9
100
AcDbSymbolTableRecord
100
AcDbRegAppTableRecord
  2
GEVID1208933835
 70
     0
  0
APPID
  5
499
330
9
100
AcDbSymbolTableRecord
100
AcDbRegAppTableRecord
  2
GEVID1208933836
 70
     0
  0
APPID
  5
49A
330
9
100
AcDbSymbolTableRecord
100
AcDbRegAppTableRecord
  2
GEVID1208933837
 70
     0
  0
APPID
  5
49B
330
9
100
AcDbSymbolTableRecord
100
AcDbRegAppTableRecord
  2
GEVID1208933838
 70
     0
  0
APPID
  5
49C
330
9
100
AcDbSymbolTableRecord
100
AcDbRegAppTableRecord
  2
GEVID1208933840
 70
     0
  0
APPID
  5
49D
330
9
100
AcDbSymbolTableRecord
100
AcDbRegAppTableRecord
  2
GEVID1208933842
 70
     0
  0
APPID
  5
49E
330
9
100
AcDbSymbolTableRecord
100
AcDbRegAppTableRecord
  2
GEVID1208933843
 70
     0
  0
APPID
  5
49F
330
9
100
AcDbSymbolTableRecord
100
AcDbRegAppTableRecord
  2
GEVID1208933844
 70
     0
  0
APPID
  5
4A0
330
9
100
AcDbSymbolTableRecord
100
AcDbRegAppTableRecord
  2
GEVID1208933845
 70
     0
  0
APPID
  5
4A1
330
9
100
AcDbSymbolTableRecord
100
AcDbRegAppTableRecord
  2
GEVID1208933846
 70
     0
  0
APPID
  5
4A2
330
9
100
AcDbSymbolTableRecord
100
AcDbRegAppTableRecord
  2
GEVID1208933847
 70
     0
  0
APPID
  5
4A3
330
9
100
AcDbSymbolTableRecord
100
AcDbRegAppTableRecord
  2
GEVID1208933848
 70
     0
  0
APPID
  5
4A4
330
9
100
AcDbSymbolTableRecord
100
AcDbRegAppTableRecord
  2
GEVID1208933849
 70
     0
  0
APPID
  5
4A5
330
9
100
AcDbSymbolTableRecord
100
AcDbRegAppTableRecord
  2
GEVID1208933850
 70
     0
  0
APPID
  5
4A6
330
9
100
AcDbSymbolTableRecord
100
AcDbRegAppTableRecord
  2
GEVID1208933851
 70
     0
  0
APPID
  5
4A7
330
9
100
AcDbSymbolTableRecord
100
AcDbRegAppTableRecord
  2
GEVID1208933852
 70
     0
  0
APPID
  5
4A8
330
9
100
AcDbSymbolTableRecord
100
AcDbRegAppTableRecord
  2
GEVID1208933853
 70
     0
  0
APPID
  5
4A9
330
9
100
AcDbSymbolTableRecord
100
AcDbRegAppTableRecord
  2
GEVID1208933854
 70
     0
  0
APPID
  5
4AA
330
9
100
AcDbSymbolTableRecord
100
AcDbRegAppTableRecord
  2
GEVID1208933855
 70
     0
  0
APPID
  5
4AB
330
9
100
AcDbSymbolTableRecord
100
AcDbRegAppTableRecord
  2
GEVID1208933856
 70
     0
  0
APPID
  5
4AC
330
9
100
AcDbSymbolTableRecord
100
AcDbRegAppTableRecord
  2
GEVID1208933857
 70
     0
  0
APPID
  5
4AD
330
9
100
AcDbSymbolTableRecord
100
AcDbRegAppTableRecord
  2
GEVID1208933858
 70
     0
  0
APPID
  5
4AE
330
9
100
AcDbSymbolTableRecord
100
AcDbRegAppTableRecord
  2
GEVID1208933859
 70
     0
  0
APPID
  5
4AF
330
9
100
AcDbSymbolTableRecord
100
AcDbRegAppTableRecord
  2
GEVID1208933860
 70
     0
  0
APPID
  5
4B0
330
9
100
AcDbSymbolTableRecord
100
AcDbRegAppTableRecord
  2
GEVID1208933861
 70
     0
  0
APPID
  5
4B1
330
9
100
AcDbSymbolTableRecord
100
AcDbRegAppTableRecord
  2
GEVID1208933862
 70
     0
  0
APPID
  5
4B2
330
9
100
AcDbSymbolTableRecord
100
AcDbRegAppTableRecord
  2
GEVID1208933863
 70
     0
  0
APPID
  5
4B3
330
9
100
AcDbSymbolTableRecord
100
AcDbRegAppTableRecord
  2
GEVID1208933864
 70
     0
  0
APPID
  5
4B4
330
9
100
AcDbSymbolTableRecord
100
AcDbRegAppTableRecord
  2
GEVID1208933865
 70
     0
  0
APPID
  5
4B5
330
9
100
AcDbSymbolTableRecord
100
AcDbRegAppTableRecord
  2
GEVID1208933866
 70
     0
  0
APPID
  5
4B6
330
9
100
AcDbSymbolTableRecord
100
AcDbRegAppTableRecord
  2
GEVID1208933867
 70
     0
  0
APPID
  5
4B7
330
9
100
AcDbSymbolTableRecord
100
AcDbRegAppTableRecord
  2
GEVID1208933868
 70
     0
  0
APPID
  5
4B8
330
9
100
AcDbSymbolTableRecord
100
AcDbRegAppTableRecord
  2
GEVID1208933869
 70
     0
  0
APPID
  5
4B9
330
9
100
AcDbSymbolTableRecord
100
AcDbRegAppTableRecord
  2
GEVID1208933870
 70
     0
  0
APPID
  5
4BA
330
9
100
AcDbSymbolTableRecord
100
AcDbRegAppTableRecord
  2
GEVID1208933871
 70
     0
  0
APPID
  5
4BB
330
9
100
AcDbSymbolTableRecord
100
AcDbRegAppTableRecord
  2
GEVID1208933872
 70
     0
  0
APPID
  5
4BC
330
9
100
AcDbSymbolTableRecord
100
AcDbRegAppTableRecord
  2
GEVID1208933873
 70
     0
  0
APPID
  5
4BD
330
9
100
AcDbSymbolTableRecord
100
AcDbRegAppTableRecord
  2
GEVID1208933874
 70
     0
  0
APPID
  5
4BE
330
9
100
AcDbSymbolTableRecord
100
AcDbRegAppTableRecord
  2
GEVID1208933875
 70
     0
  0
APPID
  5
4BF
330
9
100
AcDbSymbolTableRecord
100
AcDbRegAppTableRecord
  2
GEVID1208933876
 70
     0
  0
APPID
  5
4C0
330
9
100
AcDbSymbolTableRecord
100
AcDbRegAppTableRecord
  2
ACAD_DSTYLE_DIMRADIAL_EXTENSION
 70
     0
  0
APPID
  5
4C1
330
9
100
AcDbSymbolTableRecord
100
AcDbRegAppTableRecord
  2
GEVID1208999100
 70
     0
  0
APPID
  5
4C2
330
9
100
AcDbSymbolTableRecord
100
AcDbRegAppTableRecord
  2
GEVID1208999101
 70
     0
  0
APPID
  5
4C3
330
9
100
AcDbSymbolTableRecord
100
AcDbRegAppTableRecord
  2
GEVID1208999102
 70
     0
  0
APPID
  5
4C4
330
9
100
AcDbSymbolTableRecord
100
AcDbRegAppTableRecord
  2
GEVID1208999103
 70
     0
  0
APPID
  5
4C5
330
9
100
AcDbSymbolTableRecord
100
AcDbRegAppTableRecord
  2
GEVID1208999105
 70
     0
  0
APPID
  5
4C6
330
9
100
AcDbSymbolTableRecord
100
AcDbRegAppTableRecord
  2
GEVID1208999106
 70
     0
  0
APPID
  5
4C7
330
9
100
AcDbSymbolTableRecord
100
AcDbRegAppTableRecord
  2
GEVID1208999108
 70
     0
  0
APPID
  5
4C8
330
9
100
AcDbSymbolTableRecord
100
AcDbRegAppTableRecord
  2
GEVID1208999109
 70
     0
  0
APPID
  5
4C9
330
9
100
AcDbSymbolTableRecord
100
AcDbRegAppTableRecord
  2
GEVID1208999110
 70
     0
  0
APPID
  5
4CA
330
9
100
AcDbSymbolTableRecord
100
AcDbRegAppTableRecord
  2
GEVID1208999111
 70
     0
  0
APPID
  5
4CB
330
9
100
AcDbSymbolTableRecord
100
AcDbRegAppTableRecord
  2
GEVID1208999112
 70
     0
  0
APPID
  5
4CC
330
9
100
AcDbSymbolTableRecord
100
AcDbRegAppTableRecord
  2
GEVID1208999113
 70
     0
  0
APPID
  5
4CD
330
9
100
AcDbSymbolTableRecord
100
AcDbRegAppTableRecord
  2
GEVID1208999114
 70
     0
  0
APPID
  5
4CE
330
9
100
AcDbSymbolTableRecord
100
AcDbRegAppTableRecord
  2
GEVID1210218799
 70
     0
  0
APPID
  5
4CF
330
9
100
AcDbSymbolTableRecord
100
AcDbRegAppTableRecord
  2
GEVID1210218800
 70
     0
  0
APPID
  5
4D0
330
9
100
AcDbSymbolTableRecord
100
AcDbRegAppTableRecord
  2
GENIUS_GEFWELD_13
 70
     0
  0
APPID
  5
4D1
330
9
100
AcDbSymbolTableRecord
100
AcDbRegAppTableRecord
  2
GENIUS_GENOBJ-F-WELS_13
 70
     0
  0
APPID
  5
4D2
330
9
100
AcDbSymbolTableRecord
100
AcDbRegAppTableRecord
  2
AcadAnnotative
 70
     0
  0
APPID
  5
4D3
330
9
100
AcDbSymbolTableRecord
100
AcDbRegAppTableRecord
  2
GEVID1210145339
 70
     0
  0
APPID
  5
4D4
330
9
100
AcDbSymbolTableRecord
100
AcDbRegAppTableRecord
  2
ACAD_DSTYLE_DIMBREAK
 70
     0
  0
APPID
  5
4D5
330
9
100
AcDbSymbolTableRecord
100
AcDbRegAppTableRecord
  2
GEVID1210145340
 70
     0
  0
APPID
  5
4D6
330
9
100
AcDbSymbolTableRecord
100
AcDbRegAppTableRecord
  2
GEVID1210145341
 70
     0
  0
APPID
  5
4D7
330
9
100
AcDbSymbolTableRecord
100
AcDbRegAppTableRecord
  2
GEVID1210145342
 70
     0
  0
APPID
  5
4D8
330
9
100
AcDbSymbolTableRecord
100
AcDbRegAppTableRecord
  2
GEVID1210145343
 70
     0
  0
APPID
  5
4D9
330
9
100
AcDbSymbolTableRecord
100
AcDbRegAppTableRecord
  2
GEVID1210145344
 70
     0
  0
APPID
  5
4DA
330
9
100
AcDbSymbolTableRecord
100
AcDbRegAppTableRecord
  2
GEVID1210145345
 70
     0
  0
APPID
  5
4DB
330
9
100
AcDbSymbolTableRecord
100
AcDbRegAppTableRecord
  2
GEVID1210152816
 70
     0
  0
APPID
  5
4DC
330
9
100
AcDbSymbolTableRecord
100
AcDbRegAppTableRecord
  2
GEVID1210153850
 70
     0
  0
APPID
  5
4DD
330
9
100
AcDbSymbolTableRecord
100
AcDbRegAppTableRecord
  2
GEVID1210153851
 70
     0
  0
APPID
  5
4DE
330
9
100
AcDbSymbolTableRecord
100
AcDbRegAppTableRecord
  2
GEVID1210153852
 70
     0
  0
APPID
  5
4DF
330
9
100
AcDbSymbolTableRecord
100
AcDbRegAppTableRecord
  2
GEVID1210549898
 70
     0
  0
APPID
  5
4E0
330
9
100
AcDbSymbolTableRecord
100
AcDbRegAppTableRecord
  2
GEVID1210549899
 70
     0
  0
APPID
  5
4E1
330
9
100
AcDbSymbolTableRecord
100
AcDbRegAppTableRecord
  2
GEVID1210549900
 70
     0
  0
APPID
  5
4E2
330
9
100
AcDbSymbolTableRecord
100
AcDbRegAppTableRecord
  2
GEVID1210549901
 70
     0
  0
APPID
  5
4E3
330
9
100
AcDbSymbolTableRecord
100
AcDbRegAppTableRecord
  2
GEVID1210549902
 70
     0
  0
APPID
  5
4E4
330
9
100
AcDbSymbolTableRecord
100
AcDbRegAppTableRecord
  2
GEVID1210549903
 70
     0
  0
APPID
  5
4E5
330
9
100
AcDbSymbolTableRecord
100
AcDbRegAppTableRecord
  2
GEVID1210549904
 70
     0
  0
APPID
  5
4E6
330
9
100
AcDbSymbolTableRecord
100
AcDbRegAppTableRecord
  2
GEVID1210549905
 70
     0
  0
APPID
  5
4E7
330
9
100
AcDbSymbolTableRecord
100
AcDbRegAppTableRecord
  2
GEVID1210549906
 70
     0
  0
APPID
  5
4E8
330
9
100
AcDbSymbolTableRecord
100
AcDbRegAppTableRecord
  2
GEVID1210549907
 70
     0
  0
APPID
  5
4E9
330
9
100
AcDbSymbolTableRecord
100
AcDbRegAppTableRecord
  2
GEVID1210549908
 70
     0
  0
APPID
  5
4EA
330
9
100
AcDbSymbolTableRecord
100
AcDbRegAppTableRecord
  2
GEVID1210549909
 70
     0
  0
APPID
  5
4EB
330
9
100
AcDbSymbolTableRecord
100
AcDbRegAppTableRecord
  2
GEVID1210549910
 70
     0
  0
APPID
  5
4EC
330
9
100
AcDbSymbolTableRecord
100
AcDbRegAppTableRecord
  2
GEVID1210549911
 70
     0
  0
APPID
  5
4ED
330
9
100
AcDbSymbolTableRecord
100
AcDbRegAppTableRecord
  2
GEVID1210549912
 70
     0
  0
APPID
  5
4EE
330
9
100
AcDbSymbolTableRecord
100
AcDbRegAppTableRecord
  2
GEVID1210549913
 70
     0
  0
APPID
  5
4EF
330
9
100
AcDbSymbolTableRecord
100
AcDbRegAppTableRecord
  2
GEVID1210549914
 70
     0
  0
APPID
  5
4F0
330
9
100
AcDbSymbolTableRecord
100
AcDbRegAppTableRecord
  2
GEVID1210549915
 70
     0
  0
APPID
  5
4F1
330
9
100
AcDbSymbolTableRecord
100
AcDbRegAppTableRecord
  2
GEVID1210549916
 70
     0
  0
APPID
  5
4F2
330
9
100
AcDbSymbolTableRecord
100
AcDbRegAppTableRecord
  2
GEVID1210549917
 70
     0
  0
APPID
  5
4F3
330
9
100
AcDbSymbolTableRecord
100
AcDbRegAppTableRecord
  2
GENIUS_GENOBJ-N-CRS_13
 70
     0
  0
APPID
  5
4F4
330
9
100
AcDbSymbolTableRecord
100
AcDbRegAppTableRecord
  2
GEVID1210549918
 70
     0
  0
APPID
  5
4F5
330
9
100
AcDbSymbolTableRecord
100
AcDbRegAppTableRecord
  2
GENIUS_GENOBJ-N-CRC_13
 70
     0
  0
APPID
  5
4F6
330
9
100
AcDbSymbolTableRecord
100
AcDbRegAppTableRecord
  2
GENIUS_GENCRC_14
 70
     0
  0
APPID
  5
4F7
330
9
100
AcDbSymbolTableRecord
100
AcDbRegAppTableRecord
  2
GEVID1210549919
 70
     0
  0
APPID
  5
4F8
330
9
100
AcDbSymbolTableRecord
100
AcDbRegAppTableRecord
  2
GEVID1210549921
 70
     0
  0
APPID
  5
4F9
330
9
100
AcDbSymbolTableRecord
100
AcDbRegAppTableRecord
  2
GEVID1210549922
 70
     0
  0
APPID
  5
4FA
330
9
100
AcDbSymbolTableRecord
100
AcDbRegAppTableRecord
  2
GEVID1210635173
 70
     0
  0
APPID
  5
4FB
330
9
100
AcDbSymbolTableRecord
100
AcDbRegAppTableRecord
  2
GEVID1210635174
 70
     0
  0
APPID
  5
4FC
330
9
100
AcDbSymbolTableRecord
100
AcDbRegAppTableRecord
  2
GEVID1210635175
 70
     0
  0
APPID
  5
4FD
330
9
100
AcDbSymbolTableRecord
100
AcDbRegAppTableRecord
  2
GEVID1210635176
 70
     0
  0
APPID
  5
4FE
330
9
100
AcDbSymbolTableRecord
100
AcDbRegAppTableRecord
  2
GEVID1210635177
 70
     0
  0
APPID
  5
4FF
330
9
100
AcDbSymbolTableRecord
100
AcDbRegAppTableRecord
  2
GEVID1210635178
 70
     0
  0
APPID
  5
500
330
9
100
AcDbSymbolTableRecord
100
AcDbRegAppTableRecord
  2
GENIUS_GENIUS_GENBHEDTMP_13
 70
     0
  0
APPID
  5
501
330
9
100
AcDbSymbolTableRecord
100
AcDbRegAppTableRecord
  2
GEVID1210635179
 70
     0
  0
APPID
  5
502
330
9
100
AcDbSymbolTableRecord
100
AcDbRegAppTableRecord
  2
GEVID1210635180
 70
     0
  0
APPID
  5
503
330
9
100
AcDbSymbolTableRecord
100
AcDbRegAppTableRecord
  2
GEVID1210635181
 70
     0
  0
APPID
  5
504
330
9
100
AcDbSymbolTableRecord
100
AcDbRegAppTableRecord
  2
GEVID1210635182
 70
     0
  0
APPID
  5
505
330
9
100
AcDbSymbolTableRecord
100
AcDbRegAppTableRecord
  2
GEVID1210635184
 70
     0
  0
APPID
  5
506
330
9
100
AcDbSymbolTableRecord
100
AcDbRegAppTableRecord
  2
GEVID1210635185
 70
     0
  0
APPID
  5
507
330
9
100
AcDbSymbolTableRecord
100
AcDbRegAppTableRecord
  2
GEVID1210635186
 70
     0
  0
APPID
  5
508
330
9
100
AcDbSymbolTableRecord
100
AcDbRegAppTableRecord
  2
GEVID1210635187
 70
     0
  0
APPID
  5
509
330
9
100
AcDbSymbolTableRecord
100
AcDbRegAppTableRecord
  2
GEVID1210635188
 70
     0
  0
APPID
  5
50A
330
9
100
AcDbSymbolTableRecord
100
AcDbRegAppTableRecord
  2
GEVID1210635189
 70
     0
  0
APPID
  5
50B
330
9
100
AcDbSymbolTableRecord
100
AcDbRegAppTableRecord
  2
GEVID1210635190
 70
     0
  0
APPID
  5
50C
330
9
100
AcDbSymbolTableRecord
100
AcDbRegAppTableRecord
  2
GENIUS_GENREC_14
 70
     0
  0
APPID
  5
50D
330
9
100
AcDbSymbolTableRecord
100
AcDbRegAppTableRecord
  2
GENIUS_GENOBJ-N-REC_13
 70
     0
  0
APPID
  5
50E
330
9
100
AcDbSymbolTableRecord
100
AcDbRegAppTableRecord
  2
GEVID1210676655
 70
     0
  0
APPID
  5
50F
330
9
100
AcDbSymbolTableRecord
100
AcDbRegAppTableRecord
  2
GEVID1210676656
 70
     0
  0
APPID
  5
510
330
9
100
AcDbSymbolTableRecord
100
AcDbRegAppTableRecord
  2
GEVID1210676657
 70
     0
  0
APPID
  5
511
330
9
100
AcDbSymbolTableRecord
100
AcDbRegAppTableRecord
  2
GEVID1210676659
 70
     0
  0
APPID
  5
512
330
9
100
AcDbSymbolTableRecord
100
AcDbRegAppTableRecord
  2
GEVID1210676660
 70
     0
  0
APPID
  5
513
330
9
100
AcDbSymbolTableRecord
100
AcDbRegAppTableRecord
  2
GEVID1210676661
 70
     0
  0
APPID
  5
514
330
9
100
AcDbSymbolTableRecord
100
AcDbRegAppTableRecord
  2
GEVID1210676662
 70
     0
  0
APPID
  5
515
330
9
100
AcDbSymbolTableRecord
100
AcDbRegAppTableRecord
  2
GEVID1210721646
 70
     0
  0
APPID
  5
516
330
9
100
AcDbSymbolTableRecord
100
AcDbRegAppTableRecord
  2
GEVID1210721647
 70
     0
  0
APPID
  5
517
330
9
100
AcDbSymbolTableRecord
100
AcDbRegAppTableRecord
  2
GEVID1210721648
 70
     0
  0
APPID
  5
518
330
9
100
AcDbSymbolTableRecord
100
AcDbRegAppTableRecord
  2
GEVID1210721649
 70
     0
  0
APPID
  5
519
330
9
100
AcDbSymbolTableRecord
100
AcDbRegAppTableRecord
  2
GEVID1210721650
 70
     0
  0
APPID
  5
51A
330
9
100
AcDbSymbolTableRecord
100
AcDbRegAppTableRecord
  2
GEVID1210721651
 70
     0
  0
APPID
  5
51B
330
9
100
AcDbSymbolTableRecord
100
AcDbRegAppTableRecord
  2
GEVID1210721652
 70
     0
  0
APPID
  5
51C
330
9
100
AcDbSymbolTableRecord
100
AcDbRegAppTableRecord
  2
GEVID1210721653
 70
     0
  0
APPID
  5
51D
330
9
100
AcDbSymbolTableRecord
100
AcDbRegAppTableRecord
  2
PE_URL
 70
     0
  0
APPID
  5
51E
330
9
100
AcDbSymbolTableRecord
100
AcDbRegAppTableRecord
  2
GEVID1210825555
 70
     0
  0
APPID
  5
51F
330
9
100
AcDbSymbolTableRecord
100
AcDbRegAppTableRecord
  2
GEVID1210825556
 70
     0
  0
APPID
  5
520
330
9
100
AcDbSymbolTableRecord
100
AcDbRegAppTableRecord
  2
GEVID1210825557
 70
     0
  0
APPID
  5
521
330
9
100
AcDbSymbolTableRecord
100
AcDbRegAppTableRecord
  2
GEVID1210825558
 70
     0
  0
APPID
  5
522
330
9
100
AcDbSymbolTableRecord
100
AcDbRegAppTableRecord
  2
GEVID1210825559
 70
     0
  0
APPID
  5
523
330
9
100
AcDbSymbolTableRecord
100
AcDbRegAppTableRecord
  2
GEVID1210825560
 70
     0
  0
APPID
  5
524
330
9
100
AcDbSymbolTableRecord
100
AcDbRegAppTableRecord
  2
GEVID1210825561
 70
     0
  0
APPID
  5
525
330
9
100
AcDbSymbolTableRecord
100
AcDbRegAppTableRecord
  2
GEVID1210825562
 70
     0
  0
APPID
  5
526
330
9
100
AcDbSymbolTableRecord
100
AcDbRegAppTableRecord
  2
GEVID1210825563
 70
     0
  0
APPID
  5
527
330
9
100
AcDbSymbolTableRecord
100
AcDbRegAppTableRecord
  2
GEVID1210825564
 70
     0
  0
APPID
  5
528
330
9
100
AcDbSymbolTableRecord
100
AcDbRegAppTableRecord
  2
GEVID1210825565
 70
     0
  0
APPID
  5
529
330
9
100
AcDbSymbolTableRecord
100
AcDbRegAppTableRecord
  2
GEVID1210825566
 70
     0
  0
APPID
  5
52A
330
9
100
AcDbSymbolTableRecord
100
AcDbRegAppTableRecord
  2
GEVID1210825567
 70
     0
  0
APPID
  5
52B
330
9
100
AcDbSymbolTableRecord
100
AcDbRegAppTableRecord
  2
GENIUS_GENOBJ-N-ZOO_13
 70
     0
  0
APPID
  5
52C
330
9
100
AcDbSymbolTableRecord
100
AcDbRegAppTableRecord
  2
GENIUS_GENZOO_17
 70
     0
  0
APPID
  5
52D
330
9
100
AcDbSymbolTableRecord
100
AcDbRegAppTableRecord
  2
ACADANNOTATIVEDECOMPOSITION
 70
     0
  0
APPID
  5
52E
330
9
100
AcDbSymbolTableRecord
100
AcDbRegAppTableRecord
  2
GENIUS_GENOBJ-N-HTC_13
 70
     0
  0
APPID
  5
52F
330
9
100
AcDbSymbolTableRecord
100
AcDbRegAppTableRecord
  2
GENIUS_GENHATCH_13
 70
     0
  0
APPID
  5
530
330
9
100
AcDbSymbolTableRecord
100
AcDbRegAppTableRecord
  2
GEVID1210896020
 70
     0
  0
APPID
  5
531
330
9
100
AcDbSymbolTableRecord
100
AcDbRegAppTableRecord
  2
GEVID1210896021
 70
     0
  0
APPID
  5
532
330
9
100
AcDbSymbolTableRecord
100
AcDbRegAppTableRecord
  2
GEVID1209083540
 70
     0
  0
APPID
  5
533
330
9
100
AcDbSymbolTableRecord
100
AcDbRegAppTableRecord
  2
GEVMK
 70
     0
  0
APPID
  5
534
330
9
100
AcDbSymbolTableRecord
100
AcDbRegAppTableRecord
  2
GEVID1209083542
 70
     0
  0
APPID
  5
535
330
9
100
AcDbSymbolTableRecord
100
AcDbRegAppTableRecord
  2
GEVID1209083543
 70
     0
  0
APPID
  5
536
330
9
100
AcDbSymbolTableRecord
100
AcDbRegAppTableRecord
  2
GEVID1209083544
 70
     0
  0
APPID
  5
537
330
9
100
AcDbSymbolTableRecord
100
AcDbRegAppTableRecord
  2
GEVID1209083545
 70
     0
  0
APPID
  5
538
330
9
100
AcDbSymbolTableRecord
100
AcDbRegAppTableRecord
  2
GEVID1209083546
 70
     0
  0
APPID
  5
539
330
9
100
AcDbSymbolTableRecord
100
AcDbRegAppTableRecord
  2
GEVID1209083547
 70
     0
  0
APPID
  5
53A
330
9
100
AcDbSymbolTableRecord
100
AcDbRegAppTableRecord
  2
GEVID1209083548
 70
     0
  0
APPID
  5
53B
330
9
100
AcDbSymbolTableRecord
100
AcDbRegAppTableRecord
  2
GEVID1209083549
 70
     0
  0
APPID
  5
53C
330
9
100
AcDbSymbolTableRecord
100
AcDbRegAppTableRecord
  2
GEVID1209083550
 70
     0
  0
APPID
  5
53D
330
9
100
AcDbSymbolTableRecord
100
AcDbRegAppTableRecord
  2
GEVID1209083551
 70
     0
  0
APPID
  5
53E
330
9
100
AcDbSymbolTableRecord
100
AcDbRegAppTableRecord
  2
GEVID1209083552
 70
     0
  0
APPID
  5
53F
330
9
100
AcDbSymbolTableRecord
100
AcDbRegAppTableRecord
  2
GEVID1209083553
 70
     0
  0
APPID
  5
540
330
9
100
AcDbSymbolTableRecord
100
AcDbRegAppTableRecord
  2
GEVID1210896022
 70
     0
  0
APPID
  5
541
330
9
100
AcDbSymbolTableRecord
100
AcDbRegAppTableRecord
  2
GEVID1211508364
 70
     0
  0
APPID
  5
542
330
9
100
AcDbSymbolTableRecord
100
AcDbRegAppTableRecord
  2
GEVID1211414908
 70
     0
  0
APPID
  5
543
330
9
100
AcDbSymbolTableRecord
100
AcDbRegAppTableRecord
  2
GEVID1211414909
 70
     0
  0
APPID
  5
544
330
9
100
AcDbSymbolTableRecord
100
AcDbRegAppTableRecord
  2
GEVID1211508359
 70
     0
  0
APPID
  5
545
330
9
100
AcDbSymbolTableRecord
100
AcDbRegAppTableRecord
  2
GEVID1211508360
 70
     0
  0
APPID
  5
546
330
9
100
AcDbSymbolTableRecord
100
AcDbRegAppTableRecord
  2
GEVID1211508361
 70
     0
  0
APPID
  5
547
330
9
100
AcDbSymbolTableRecord
100
AcDbRegAppTableRecord
  2
GEVID1211508362
 70
     0
  0
APPID
  5
548
330
9
100
AcDbSymbolTableRecord
100
AcDbRegAppTableRecord
  2
GEVID1211508363
 70
     0
  0
APPID
  5
549
330
9
100
AcDbSymbolTableRecord
100
AcDbRegAppTableRecord
  2
GEVID1211878469
 70
     0
  0
APPID
  5
54A
330
9
100
AcDbSymbolTableRecord
100
AcDbRegAppTableRecord
  2
GEVID1212642819
 70
     0
  0
APPID
  5
54B
330
9
100
AcDbSymbolTableRecord
100
AcDbRegAppTableRecord
  2
GEVID1212642820
 70
     0
  0
APPID
  5
54C
330
9
100
AcDbSymbolTableRecord
100
AcDbRegAppTableRecord
  2
GEVID1212642821
 70
     0
  0
APPID
  5
54D
330
9
100
AcDbSymbolTableRecord
100
AcDbRegAppTableRecord
  2
GEVID1212642822
 70
     0
  0
APPID
  5
54E
330
9
100
AcDbSymbolTableRecord
100
AcDbRegAppTableRecord
  2
GEVID1212642823
 70
     0
  0
APPID
  5
54F
330
9
100
AcDbSymbolTableRecord
100
AcDbRegAppTableRecord
  2
GEVID1212642825
 70
     0
  0
APPID
  5
550
330
9
100
AcDbSymbolTableRecord
100
AcDbRegAppTableRecord
  2
GEVID1212642826
 70
     0
  0
APPID
  5
551
330
9
100
AcDbSymbolTableRecord
100
AcDbRegAppTableRecord
  2
GEVID1212642827
 70
     0
  0
APPID
  5
552
330
9
100
AcDbSymbolTableRecord
100
AcDbRegAppTableRecord
  2
GEVID1212642828
 70
     0
  0
APPID
  5
553
330
9
100
AcDbSymbolTableRecord
100
AcDbRegAppTableRecord
  2
GEVID1212642831
 70
     0
  0
APPID
  5
554
330
9
100
AcDbSymbolTableRecord
100
AcDbRegAppTableRecord
  2
GEVID1212642834
 70
     0
  0
APPID
  5
555
330
9
100
AcDbSymbolTableRecord
100
AcDbRegAppTableRecord
  2
GEVID1212642835
 70
     0
  0
APPID
  5
556
330
9
100
AcDbSymbolTableRecord
100
AcDbRegAppTableRecord
  2
GEVID1212642836
 70
     0
  0
APPID
  5
557
330
9
100
AcDbSymbolTableRecord
100
AcDbRegAppTableRecord
  2
GEVID1212642837
 70
     0
  0
APPID
  5
558
330
9
100
AcDbSymbolTableRecord
100
AcDbRegAppTableRecord
  2
GEVID1212642839
 70
     0
  0
APPID
  5
559
330
9
100
AcDbSymbolTableRecord
100
AcDbRegAppTableRecord
  2
GEVID1212642840
 70
     0
  0
APPID
  5
55A
330
9
100
AcDbSymbolTableRecord
100
AcDbRegAppTableRecord
  2
GEVID1212642841
 70
     0
  0
APPID
  5
55B
330
9
100
AcDbSymbolTableRecord
100
AcDbRegAppTableRecord
  2
GEVID1212655312
 70
     0
  0
APPID
  5
55C
330
9
100
AcDbSymbolTableRecord
100
AcDbRegAppTableRecord
  2
GEVID1212655313
 70
     0
  0
APPID
  5
55D
330
9
100
AcDbSymbolTableRecord
100
AcDbRegAppTableRecord
  2
GEVID1212656533
 70
     0
  0
APPID
  5
55E
330
9
100
AcDbSymbolTableRecord
100
AcDbRegAppTableRecord
  2
GEVID1212656534
 70
     0
  0
APPID
  5
55F
330
9
100
AcDbSymbolTableRecord
100
AcDbRegAppTableRecord
  2
GEVID1212656535
 70
     0
  0
APPID
  5
560
330
9
100
AcDbSymbolTableRecord
100
AcDbRegAppTableRecord
  2
GEVID1212656536
 70
     0
  0
APPID
  5
561
330
9
100
AcDbSymbolTableRecord
100
AcDbRegAppTableRecord
  2
GEVID1212656538
 70
     0
  0
APPID
  5
562
330
9
100
AcDbSymbolTableRecord
100
AcDbRegAppTableRecord
  2
GEVID1212656541
 70
     0
  0
APPID
  5
563
330
9
100
AcDbSymbolTableRecord
100
AcDbRegAppTableRecord
  2
GEVID1212656543
 70
     0
  0
APPID
  5
564
330
9
100
AcDbSymbolTableRecord
100
AcDbRegAppTableRecord
  2
GENIUS_GENOBJ-F-PFASSM_13
 70
     0
  0
APPID
  5
565
330
9
100
AcDbSymbolTableRecord
100
AcDbRegAppTableRecord
  2
GEVID1212656544
 70
     0
  0
APPID
  5
566
330
9
100
AcDbSymbolTableRecord
100
AcDbRegAppTableRecord
  2
GEVID1212656545
 70
     0
  0
APPID
  5
567
330
9
100
AcDbSymbolTableRecord
100
AcDbRegAppTableRecord
  2
GEVID1212656546
 70
     0
  0
APPID
  5
568
330
9
100
AcDbSymbolTableRecord
100
AcDbRegAppTableRecord
  2
GEVID1212656547
 70
     0
  0
APPID
  5
569
330
9
100
AcDbSymbolTableRecord
100
AcDbRegAppTableRecord
  2
GEVID1212656548
 70
     0
  0
APPID
  5
56A
330
9
100
AcDbSymbolTableRecord
100
AcDbRegAppTableRecord
  2
GEVID1212656549
 70
     0
  0
APPID
  5
56B
330
9
100
AcDbSymbolTableRecord
100
AcDbRegAppTableRecord
  2
GEVID1212656550
 70
     0
  0
APPID
  5
56C
330
9
100
AcDbSymbolTableRecord
100
AcDbRegAppTableRecord
  2
GEVID1212656552
 70
     0
  0
APPID
  5
56D
330
9
100
AcDbSymbolTableRecord
100
AcDbRegAppTableRecord
  2
GEVID1212656553
 70
     0
  0
APPID
  5
56E
330
9
100
AcDbSymbolTableRecord
100
AcDbRegAppTableRecord
  2
GEVID1212656554
 70
     0
  0
APPID
  5
56F
330
9
100
AcDbSymbolTableRecord
100
AcDbRegAppTableRecord
  2
GEVID1212656555
 70
     0
  0
APPID
  5
570
330
9
100
AcDbSymbolTableRecord
100
AcDbRegAppTableRecord
  2
GEVID1212656556
 70
     0
  0
APPID
  5
571
330
9
100
AcDbSymbolTableRecord
100
AcDbRegAppTableRecord
  2
GEVID1212656557
 70
     0
  0
APPID
  5
572
330
9
100
AcDbSymbolTableRecord
100
AcDbRegAppTableRecord
  2
GEVID1212656559
 70
     0
  0
APPID
  5
573
330
9
100
AcDbSymbolTableRecord
100
AcDbRegAppTableRecord
  2
GEVID1212656560
 70
     0
  0
APPID
  5
574
330
9
100
AcDbSymbolTableRecord
100
AcDbRegAppTableRecord
  2
GEVID1212656561
 70
     0
  0
APPID
  5
575
330
9
100
AcDbSymbolTableRecord
100
AcDbRegAppTableRecord
  2
GEVID1212656562
 70
     0
  0
APPID
  5
576
330
9
100
AcDbSymbolTableRecord
100
AcDbRegAppTableRecord
  2
GEVID1212656563
 70
     0
  0
APPID
  5
577
330
9
100
AcDbSymbolTableRecord
100
AcDbRegAppTableRecord
  2
GEVID1212711781
 70
     0
  0
APPID
  5
578
330
9
100
AcDbSymbolTableRecord
100
AcDbRegAppTableRecord
  2
GEVID1212711782
 70
     0
  0
APPID
  5
579
330
9
100
AcDbSymbolTableRecord
100
AcDbRegAppTableRecord
  2
GEVID1212711783
 70
     0
  0
APPID
  5
57A
330
9
100
AcDbSymbolTableRecord
100
AcDbRegAppTableRecord
  2
GEVID1212711784
 70
     0
  0
APPID
  5
57B
330
9
100
AcDbSymbolTableRecord
100
AcDbRegAppTableRecord
  2
GEVID1212711788
 70
     0
  0
APPID
  5
57C
330
9
100
AcDbSymbolTableRecord
100
AcDbRegAppTableRecord
  2
GEVID1212711789
 70
     0
  0
APPID
  5
57D
330
9
100
AcDbSymbolTableRecord
100
AcDbRegAppTableRecord
  2
GEVID1212711790
 70
     0
  0
APPID
  5
57E
330
9
100
AcDbSymbolTableRecord
100
AcDbRegAppTableRecord
  2
GEVID1212711791
 70
     0
  0
APPID
  5
57F
330
9
100
AcDbSymbolTableRecord
100
AcDbRegAppTableRecord
  2
GEVID1212711792
 70
     0
  0
APPID
  5
580
330
9
100
AcDbSymbolTableRecord
100
AcDbRegAppTableRecord
  2
GEVID1212711793
 70
     0
  0
APPID
  5
581
330
9
100
AcDbSymbolTableRecord
100
AcDbRegAppTableRecord
  2
GEVID1212711794
 70
     0
  0
APPID
  5
582
330
9
100
AcDbSymbolTableRecord
100
AcDbRegAppTableRecord
  2
GEVID1212711795
 70
     0
  0
APPID
  5
583
330
9
100
AcDbSymbolTableRecord
100
AcDbRegAppTableRecord
  2
GEVID1212711797
 70
     0
  0
APPID
  5
584
330
9
100
AcDbSymbolTableRecord
100
AcDbRegAppTableRecord
  2
GEVID1212711798
 70
     0
  0
APPID
  5
585
330
9
100
AcDbSymbolTableRecord
100
AcDbRegAppTableRecord
  2
GEVID1212711799
 70
     0
  0
APPID
  5
586
330
9
100
AcDbSymbolTableRecord
100
AcDbRegAppTableRecord
  2
GEVID1212711800
 70
     0
  0
APPID
  5
587
330
9
100
AcDbSymbolTableRecord
100
AcDbRegAppTableRecord
  2
GEVID1212711801
 70
     0
  0
APPID
  5
588
330
9
100
AcDbSymbolTableRecord
100
AcDbRegAppTableRecord
  2
GEVID1212711802
 70
     0
  0
APPID
  5
589
330
9
100
AcDbSymbolTableRecord
100
AcDbRegAppTableRecord
  2
GEVID1212711803
 70
     0
  0
APPID
  5
58A
330
9
100
AcDbSymbolTableRecord
100
AcDbRegAppTableRecord
  2
GEVID1212711804
 70
     0
  0
APPID
  5
58B
330
9
100
AcDbSymbolTableRecord
100
AcDbRegAppTableRecord
  2
GEVID1212711805
 70
     0
  0
APPID
  5
58C
330
9
100
AcDbSymbolTableRecord
100
AcDbRegAppTableRecord
  2
GEVID1212711806
 70
     0
  0
APPID
  5
58D
330
9
100
AcDbSymbolTableRecord
100
AcDbRegAppTableRecord
  2
GEVID1212711807
 70
     0
  0
APPID
  5
58E
330
9
100
AcDbSymbolTableRecord
100
AcDbRegAppTableRecord
  2
GEVID1212711808
 70
     0
  0
APPID
  5
58F
330
9
100
AcDbSymbolTableRecord
100
AcDbRegAppTableRecord
  2
GEVID1212711809
 70
     0
  0
APPID
  5
590
330
9
100
AcDbSymbolTableRecord
100
AcDbRegAppTableRecord
  2
GEVID1212711810
 70
     0
  0
APPID
  5
591
330
9
100
AcDbSymbolTableRecord
100
AcDbRegAppTableRecord
  2
GEVID1212711811
 70
     0
  0
APPID
  5
90A
330
9
100
AcDbSymbolTableRecord
100
AcDbRegAppTableRecord
  2
GENIUS_GENTRA_14
 70
     0
  0
APPID
  5
919
330
9
100
AcDbSymbolTableRecord
100
AcDbRegAppTableRecord
  2
GENIUS_GENOBJ-N-TIT_13
 70
     0
  0
APPID
  5
91A
330
9
100
AcDbSymbolTableRecord
100
AcDbRegAppTableRecord
  2
GENIUS_GENTITLE_13
 70
     0
  0
APPID
  5
949
330
9
100
AcDbSymbolTableRecord
100
AcDbRegAppTableRecord
  2
GENIUS_GENBLLY_14
 70
     0
  0
APPID
  5
DDD
330
9
100
AcDbSymbolTableRecord
100
AcDbRegAppTableRecord
  2
GEVID1213165152
 70
     0
  0
APPID
  5
12F9
330
9
100
AcDbSymbolTableRecord
100
AcDbRegAppTableRecord
  2
AcDbDynamicBlockTrueName
 70
     0
  0
APPID
  5
12FA
330
9
100
AcDbSymbolTableRecord
100
AcDbRegAppTableRecord
  2
ACDBBLOCKREPETAG
 70
     0
  0
APPID
  5
1C15
330
9
100
AcDbSymbolTableRecord
100
AcDbRegAppTableRecord
  2
GEVID1214872427
 70
     0
  0
APPID
  5
1C2A
330
9
100
AcDbSymbolTableRecord
100
AcDbRegAppTableRecord
  2
GEVID1214872428
 70
     0
  0
APPID
  5
1C2F
330
9
100
AcDbSymbolTableRecord
100
AcDbRegAppTableRecord
  2
GEVID1214872429
 70
     0
  0
APPID
  5
1C33
330
9
100
AcDbSymbolTableRecord
100
AcDbRegAppTableRecord
  2
GEVID1214872430
 70
     0
  0
APPID
  5
1C3F
330
9
100
AcDbSymbolTableRecord
100
AcDbRegAppTableRecord
  2
GEVID1214872432
 70
     0
  0
APPID
  5
1C4E
330
9
100
AcDbSymbolTableRecord
100
AcDbRegAppTableRecord
  2
GEVID1214872433
 70
     0
  0
APPID
  5
20DC
330
9
100
AcDbSymbolTableRecord
100
AcDbRegAppTableRecord
  2
AcDbDynamicBlockGUID
 70
     0
  0
APPID
  5
20FD
330
9
100
AcDbSymbolTableRecord
100
AcDbRegAppTableRecord
  2
GENIUS_GENOBJ-N-REV_13
 70
     0
  0
APPID
  5
20FE
330
9
100
AcDbSymbolTableRecord
100
AcDbRegAppTableRecord
  2
GENIUS_GENOBJ-N-RSSYM_13
 70
     0
  0
APPID
  5
20FF
330
9
100
AcDbSymbolTableRecord
100
AcDbRegAppTableRecord
  2
GENIUS_GENSYMENT_13
 70
     0
  0
APPID
  5
2100
330
9
100
AcDbSymbolTableRecord
100
AcDbRegAppTableRecord
  2
GENIUS_GENSCSYM_13
 70
     0
  0
APPID
  5
4356
330
9
100
AcDbSymbolTableRecord
100
AcDbRegAppTableRecord
  2
ACLAYERTOOLS
 70
     0
  0
ENDTAB
  0
TABLE
  2
DIMSTYLE
  5
A
330
0
100
AcDbSymbolTable
 70
    29
100
AcDbDimStyleTable
 71
     1
340
5AB
  0
DIMSTYLE
105
5AB
330
A
100
AcDbSymbolTableRecord
100
AcDbDimStyleTableRecord
  2
SEISA
 70
     0
  4
"
 40
2.0
 41
2.5
 42
0.625
 43
10.0
 44
0.625
 47
0.1
 48
0.1
 73
     0
 74
     0
 77
     3
 78
     8
 79
     2
 90
     1
140
3.5
141
0.0
143
0.0393701
146
0.71
147
1.5
172
     1
176
     3
177
     3
178
     3
271
     2
272
     2
283
     0
286
     8
340
5D5
341
69
342
69
371
    -1
372
    -1
1001
ACAD_DSTYLE_DIMJAG
1070
   388
1040
1.5
1001
ACAD_DSTYLE_DIMTALN
1070
   392
1070
     1
  0
DIMSTYLE
105
5E9
102
{ACAD_REACTORS
330
6EAD
330
6EF5
330
6F5A
330
6F72
330
6F8E
330
7093
330
70AB
330
70C3
330
7132
330
7159
330
730B
330
7B10
330
8A06
330
8AC5
330
8AEF
102
}
330
A
100
AcDbSymbolTableRecord
100
AcDbDimStyleTableRecord
  2
SEISA$0
 70
     0
  4
"
 40
2.0
 41
2.5
 42
0.625
 43
10.0
 44
0.625
 47
0.1
 48
0.1
 73
     0
 74
     0
 77
     3
 78
     8
 79
     2
 90
     1
140
3.5
141
0.0
143
0.0393701
146
0.71
147
1.5
172
     1
176
     3
177
     3
178
     3
271
     2
272
     2
283
     0
286
     8
340
5D5
341
69
342
69
371
    -1
372
    -1
  0
DIMSTYLE
105
8E2A
330
A
100
AcDbSymbolTableRecord
100
AcDbDimStyleTableRecord
  2
AM_ISO
 70
     0
  4
"
 41
2.5
 42
1.0
 43
10.0
 44
1.0
 47
0.1
 48
0.1
 73
     0
 74
     0
 77
     1
 78
     8
 79
     2
 90
     1
140
3.5
141
0.0
143
0.0393701
146
0.71
147
1.5
172
     1
176
   256
177
   256
178
     2
271
     2
272
     3
274
     4
283
     0
284
     8
340
11
371
    -1
372
    -1
  0
DIMSTYLE
105
8E2B
330
A
100
AcDbSymbolTableRecord
100
AcDbDimStyleTableRecord
  2
AM_ISO$3
 70
     0
  4
"
 41
2.5
 42
1.0
 43
10.0
 44
1.0
 47
0.1
 48
0.1
 73
     0
 77
     1
 78
     8
 79
     2
 90
     1
140
3.5
141
0.0
143
0.0393701
146
0.71
147
1.5
176
   256
177
   256
178
     2
271
     2
272
     3
274
     4
283
     0
284
     8
288
     1
289
     0
340
11
371
    -1
372
    -1
  0
DIMSTYLE
105
8E2C
330
A
100
AcDbSymbolTableRecord
100
AcDbDimStyleTableRecord
  2
AM_ISO$4
 70
     0
  4
"
 41
2.5
 42
1.0
 43
10.0
 44
1.0
 47
0.1
 48
0.1
 73
     0
 77
     1
 78
     8
 79
     2
 90
     1
140
3.5
141
0.0
143
0.0393701
146
0.71
147
1.5
176
   256
177
   256
178
     2
271
     2
272
     3
274
     4
283
     0
284
     8
288
     1
289
     0
340
11
371
    -1
372
    -1
  0
DIMSTYLE
105
8E2D
330
A
100
AcDbSymbolTableRecord
100
AcDbDimStyleTableRecord
  2
AM_ISO$6
 70
     0
  4
"
 41
2.5
 42
1.0
 43
10.0
 44
1.0
 47
0.1
 48
0.1
 73
     0
 74
     0
 78
     8
 79
     2
 90
     1
140
3.5
141
0.0
143
0.0393701
146
0.71
147
1.5
172
     1
176
   256
177
   256
178
     2
271
     2
272
     3
274
     4
283
     0
284
     8
340
11
371
    -1
372
    -1
  0
DIMSTYLE
105
8E2E
330
A
100
AcDbSymbolTableRecord
100
AcDbDimStyleTableRecord
  2
AM_ISO$7
 70
     0
  4
"
 41
2.5
 42
1.0
 43
10.0
 44
1.0
 47
0.1
 48
0.1
 73
     0
 74
     0
 77
     1
 78
     8
 79
     2
 90
     1
140
5.0
141
0.0
143
0.0393701
146
0.71
147
1.5
172
     1
176
   256
177
   256
178
     2
271
     2
272
     3
274
     4
283
     0
284
     8
340
11
371
    -1
372
    -1
  0
DIMSTYLE
105
8E2F
330
A
100
AcDbSymbolTableRecord
100
AcDbDimStyleTableRecord
  2
AM_ISO$SF
 70
     0
  4
"
 41
2.5
 42
1.0
 43
10.0
 44
1.0
 47
0.1
 48
0.1
 73
     0
 74
     0
 75
     1
 76
     1
 77
     1
 78
     8
 79
     2
 90
     1
140
3.5
141
0.0
143
0.0393701
146
0.71
147
1.5
172
     1
176
   256
177
   256
178
     2
271
     2
272
     3
274
     4
283
     0
284
     8
340
11
371
    -1
372
    -1
  0
DIMSTYLE
105
8E30
330
A
100
AcDbSymbolTableRecord
100
AcDbDimStyleTableRecord
  2
AM_ISO$SH
 70
     0
  4
"
 41
2.5
 42
1.0
 43
10.0
 44
1.0
 47
0.1
 48
0.1
 73
     0
 74
     0
 75
     1
 76
     1
 77
     1
 78
     8
 79
     2
 90
     1
140
3.5
141
0.0
143
0.0393701
144
2.0
146
0.71
147
1.5
172
     1
173
     1
176
   256
177
   256
178
     2
271
     2
272
     3
274
     4
283
     0
284
     8
340
11
343
74
371
    -1
372
    -1
  0
ENDTAB
  0
TABLE
  2
BLOCK_RECORD
  5
1
330
0
100
AcDbSymbolTable
 70
    30
  0
BLOCK_RECORD
  5
1F
102
{ACAD_XDICTIONARY
360
82
102
}
330
1
100
AcDbSymbolTableRecord
100
AcDbBlockTableRecord
  2
*Model_Space
340
22
 70
     0
280
     1
281
     0
  0
BLOCK_RECORD
  5
1B
330
1
100
AcDbSymbolTableRecord
100
AcDbBlockTableRecord
  2
*Paper_Space
340
1E
 70
     0
280
     1
281
     0
  0
BLOCK_RECORD
  5
23
330
1
100
AcDbSymbolTableRecord
100
AcDbBlockTableRecord
  2
*Paper_Space0
340
26
 70
     0
280
     1
281
     0
  0
BLOCK_RECORD
  5
69
330
1
100
AcDbSymbolTableRecord
100
AcDbBlockTableRecord
  2
_Open30
340
0
102
{BLKREFS
331
6EE0
331
6EE1
331
6F21
331
6F22
331
6F6B
331
6F6C
331
6F9F
331
6FA0
331
6FB7
331
6FB8
331
70E7
331
70E8
331
70F9
331
70FA
331
710B
331
710C
331
7B21
331
7B22
331
802B
331
8056
331
8A3B
331
8A3C
331
8AE9
331
8AEA
331
8B5E
331
8B5F
331
8C97
331
8C98
102
}
 70
     0
280
     1
281
     0
  0
BLOCK_RECORD
  5
74
330
1
100
AcDbSymbolTableRecord
100
AcDbBlockTableRecord
  2
GENAXEH
340
0
 70
     0
280
     1
281
     0
  0
BLOCK_RECORD
  5
5738
102
{ACAD_XDICTIONARY
360
61BD
102
}
330
1
100
AcDbSymbolTableRecord
100
AcDbBlockTableRecord
  2
ロッカクアナツキプラグ R1／8
340
0
310
2800000020000000200000000100080000000000000400000000000000000000000000000000000000000000000080000080000000808000800000008000800080800000C0C0C000C0DCC000F0CAA6000020400000206000002080000020A0000020C0000020E00000400000004020000040400000406000004080000040A0
310
000040C0000040E00000600000006020000060400000606000006080000060A0000060C0000060E00000800000008020000080400000806000008080000080A0000080C0000080E00000A0000000A0200000A0400000A0600000A0800000A0A00000A0C00000A0E00000C0000000C0200000C0400000C0600000C0800000C0
310
A00000C0C00000C0E00000E0000000E0200000E0400000E0600000E0800000E0A00000E0C00000E0E00040000000400020004000400040006000400080004000A0004000C0004000E00040200000402020004020400040206000402080004020A0004020C0004020E000404000004040200040404000404060004040800040
310
40A0004040C0004040E00040600000406020004060400040606000406080004060A0004060C0004060E00040800000408020004080400040806000408080004080A0004080C0004080E00040A0000040A0200040A0400040A0600040A0800040A0A00040A0C00040A0E00040C0000040C0200040C0400040C0600040C08000
310
40C0A00040C0C00040C0E00040E0000040E0200040E0400040E0600040E0800040E0A00040E0C00040E0E00080000000800020008000400080006000800080008000A0008000C0008000E00080200000802020008020400080206000802080008020A0008020C0008020E00080400000804020008040400080406000804080
310
008040A0008040C0008040E00080600000806020008060400080606000806080008060A0008060C0008060E00080800000808020008080400080806000808080008080A0008080C0008080E00080A0000080A0200080A0400080A0600080A0800080A0A00080A0C00080A0E00080C0000080C0200080C0400080C0600080C0
310
800080C0A00080C0C00080C0E00080E0000080E0200080E0400080E0600080E0800080E0A00080E0C00080E0E000C0000000C0002000C0004000C0006000C0008000C000A000C000C000C000E000C0200000C0202000C0204000C0206000C0208000C020A000C020C000C020E000C0400000C0402000C0404000C0406000C0
310
408000C040A000C040C000C040E000C0600000C0602000C0604000C0606000C0608000C060A000C060C000C060E000C0800000C0802000C0804000C0806000C0808000C080A000C080C000C080E000C0A00000C0A02000C0A04000C0A06000C0A08000C0A0A000C0A0C000C0A0E000C0C00000C0C02000C0C04000C0C06000
310
C0C08000C0C0A000F0FBFF00A4A0A000808080000000FF0000FF000000FFFF00FF000000FF00FF00FFFF0000FFFFFF00000000000000000000000000000000000000000000000000000000000000000000000000000000000000000000000000F9000000000000000000000000000000000000000000000000000000000000
310
00F900000000000000000000000000000000000000000000000000000000000000F900000000000000000000000000000000000000000000000000000000000000F900000000000000000000000000000000000000000000000000000000000000F90000000000000000000000000000000000000000000000000000000000
310
0000F900000000000000000000000000000000000000000000000000000000000000F900000000000000000000000000000000000000000000000000000000000000F900000000000000000000000000000000000000000000000000000000000000FF000000000000000000000000000000000000000000000000000000FF
310
FFFFFFF9FFFFFF0000000000000000000000000000000000000000000000FFFE000000F900FEFEFF000000000000000000000000000000000000000000FFFE00000000F9000000FEFF0000000000000000000000000000000000000000FF00000000FFFF00000000FF0000000000000000000000000000000000000000FF00
310
00FFFF00F9FFFF0000FF00000000000000000000000000000000000000FFFE0000FF0000F900FF0000FEFF00000000000000000000F9F9F9F9F9F9F9F9F9F9F9F9FFF9F9F9F9FFF9F9F9F9F9F9F9F9F9F9F9F90000000000000000000000FF0000FFFF00F900FF0000FF0000000000000000000000000000000000000000FF
310
00000000FFFFFF000000FF0000000000000000000000000000000000000000FFFE00000000F9000000FEFF000000000000000000000000000000000000000000FFFE000000F90000FEFF0000000000000000000000000000000000000000000000FFFFFFFEF9FFFFFF00000000000000000000000000000000000000000000
310
0000000000FFFF00000000000000000000000000000000000000000000000000000000000000F900000000000000000000000000000000000000000000000000000000000000F900000000000000000000000000000000000000000000000000000000000000F9000000000000000000000000000000000000000000000000
310
00000000000000F900000000000000000000000000000000000000000000000000000000000000F900000000000000000000000000000000000000000000000000000000000000F900000000000000000000000000000000000000000000000000000000000000F90000000000000000000000000000000000000000000000
310
0000000000000000F90000000000000000000000000000000000000000000000000000000000000000000000000000000000000000000000
102
{BLKREFS
331
6AF9
102
}
 70
     4
280
     1
281
     0
  0
BLOCK_RECORD
  5
57C9
102
{ACAD_XDICTIONARY
360
58BD
102
}
330
1
100
AcDbSymbolTableRecord
100
AcDbBlockTableRecord
  2
ケースＡ SSM180
340
0
310
2800000020000000200000000100080000000000000400000000000000000000000000000000000000000000000080000080000000808000800000008000800080800000C0C0C000C0DCC000F0CAA6000020400000206000002080000020A0000020C0000020E00000400000004020000040400000406000004080000040A0
310
000040C0000040E00000600000006020000060400000606000006080000060A0000060C0000060E00000800000008020000080400000806000008080000080A0000080C0000080E00000A0000000A0200000A0400000A0600000A0800000A0A00000A0C00000A0E00000C0000000C0200000C0400000C0600000C0800000C0
310
A00000C0C00000C0E00000E0000000E0200000E0400000E0600000E0800000E0A00000E0C00000E0E00040000000400020004000400040006000400080004000A0004000C0004000E00040200000402020004020400040206000402080004020A0004020C0004020E000404000004040200040404000404060004040800040
310
40A0004040C0004040E00040600000406020004060400040606000406080004060A0004060C0004060E00040800000408020004080400040806000408080004080A0004080C0004080E00040A0000040A0200040A0400040A0600040A0800040A0A00040A0C00040A0E00040C0000040C0200040C0400040C0600040C08000
310
40C0A00040C0C00040C0E00040E0000040E0200040E0400040E0600040E0800040E0A00040E0C00040E0E00080000000800020008000400080006000800080008000A0008000C0008000E00080200000802020008020400080206000802080008020A0008020C0008020E00080400000804020008040400080406000804080
310
008040A0008040C0008040E00080600000806020008060400080606000806080008060A0008060C0008060E00080800000808020008080400080806000808080008080A0008080C0008080E00080A0000080A0200080A0400080A0600080A0800080A0A00080A0C00080A0E00080C0000080C0200080C0400080C0600080C0
310
800080C0A00080C0C00080C0E00080E0000080E0200080E0400080E0600080E0800080E0A00080E0C00080E0E000C0000000C0002000C0004000C0006000C0008000C000A000C000C000C000E000C0200000C0202000C0204000C0206000C0208000C020A000C020C000C020E000C0400000C0402000C0404000C0406000C0
310
408000C040A000C040C000C040E000C0600000C0602000C0604000C0606000C0608000C060A000C060C000C060E000C0800000C0802000C0804000C0806000C0808000C080A000C080C000C080E000C0A00000C0A02000C0A04000C0A06000C0A08000C0A0A000C0A0C000C0A0E000C0C00000C0C02000C0C04000C0C06000
310
C0C08000C0C0A000F0FBFF00A4A0A000808080000000FF0000FF000000FFFF00FF000000FF00FF00FFFF0000FFFFFF00000000000000000000000000000000000000000000000000000000000000000000000000000000000000000000FFFFFFFFFF000000000000000000000000000000000000000000000000000000FF00
310
FF00FF0000000000000000000000000000000000000000000000000000F9F9F9FFF9FFF90000000000000000000000000000000000000000000000000000FF00FF00FF0000000000000000000000000000000000000000FFFFFFFFFFFFFFFF00FF00FFFFFFFFFFFFFFFF00000000000000000000000000FF000000000000FF
310
00FF00FF000000000000FF00000000000000000000000000FF000000000000FF00FF00FF000000000000FF00000000000000000000000000FF000000000000FF00FF00FF000000000000FF00000000000000000000000000FF000000000000FF00FF00FF000000000000FF00000000000000000000000000FF000000000000
310
FF00FFF9FF000000000000FF00000000000000000000000000FF000000000000FF00FFFFFF000000000000FF00000000000000000000000000FF000000000000FFF9F9FFF9F90000000000FF00000000000000000000000000FF000000000000FF00FFFFFF000000000000FF00000000000000000000000000FF0000000000
310
00FF00FFF9FF000000000000FF00000000000000000000000000FF000000000000FF00FF00FF000000000000FF00000000000000000000000000FF000000000000FF00FF00FF000000000000FF0000000000000000000000000000000000000000000000000000000000000000000000000000000000000000000000000000
310
000000000000000000000000000000000000000000000000000000000000000000000000000000000000000000000000000000000000000000000000000000000000000000000000000000000000000000000000000000000000000000000000000000000000000000FAFAFA00000000000000000000000000000000000000
310
00000000000000000000FAFAFAFAFAFA000000000000000000000000000000000000000000000000000000FAFA00FA00000000000000000000000000FFFFFFA4A4A4FF00FF0000FFFFA4A4FAFAFFFF00000000000000000000000000FF00FFFFF9F9FFFFFFFFFFFFF9F9F9FFFF00FF00000000000000000000000000FFFFFF
310
FFFFFFFFFFFFFF00FFFFFFFFFFFFFFFF00000000000000000000000000000000000000FFFF00FF00FFFFFF000000000000000000000000000000000000000000000000FFFFFFFFFFFFFFFF000000000000000000000000000000000000000000000000FFFFFFFFFFFFFFFF0000000000000000000000000000000000000000
310
0000000000FFFFFFFFFF00000000000000000000000000000000000000000000000000000000000000000000000000000000000000000000
102
{BLKREFS
331
6AFD
102
}
 70
     4
280
     1
281
     0
  0
BLOCK_RECORD
  5
593C
102
{ACAD_XDICTIONARY
360
5A12
102
}
330
1
100
AcDbSymbolTableRecord
100
AcDbBlockTableRecord
  2
ケースＢ SSM180
340
0
310
2800000020000000200000000100080000000000000400000000000000000000000000000000000000000000000080000080000000808000800000008000800080800000C0C0C000C0DCC000F0CAA6000020400000206000002080000020A0000020C0000020E00000400000004020000040400000406000004080000040A0
310
000040C0000040E00000600000006020000060400000606000006080000060A0000060C0000060E00000800000008020000080400000806000008080000080A0000080C0000080E00000A0000000A0200000A0400000A0600000A0800000A0A00000A0C00000A0E00000C0000000C0200000C0400000C0600000C0800000C0
310
A00000C0C00000C0E00000E0000000E0200000E0400000E0600000E0800000E0A00000E0C00000E0E00040000000400020004000400040006000400080004000A0004000C0004000E00040200000402020004020400040206000402080004020A0004020C0004020E000404000004040200040404000404060004040800040
310
40A0004040C0004040E00040600000406020004060400040606000406080004060A0004060C0004060E00040800000408020004080400040806000408080004080A0004080C0004080E00040A0000040A0200040A0400040A0600040A0800040A0A00040A0C00040A0E00040C0000040C0200040C0400040C0600040C08000
310
40C0A00040C0C00040C0E00040E0000040E0200040E0400040E0600040E0800040E0A00040E0C00040E0E00080000000800020008000400080006000800080008000A0008000C0008000E00080200000802020008020400080206000802080008020A0008020C0008020E00080400000804020008040400080406000804080
310
008040A0008040C0008040E00080600000806020008060400080606000806080008060A0008060C0008060E00080800000808020008080400080806000808080008080A0008080C0008080E00080A0000080A0200080A0400080A0600080A0800080A0A00080A0C00080A0E00080C0000080C0200080C0400080C0600080C0
310
800080C0A00080C0C00080C0E00080E0000080E0200080E0400080E0600080E0800080E0A00080E0C00080E0E000C0000000C0002000C0004000C0006000C0008000C000A000C000C000C000E000C0200000C0202000C0204000C0206000C0208000C020A000C020C000C020E000C0400000C0402000C0404000C0406000C0
310
408000C040A000C040C000C040E000C0600000C0602000C0604000C0606000C0608000C060A000C060C000C060E000C0800000C0802000C0804000C0806000C0808000C080A000C080C000C080E000C0A00000C0A02000C0A04000C0A06000C0A08000C0A0A000C0A0C000C0A0E000C0C00000C0C02000C0C04000C0C06000
310
C0C08000C0C0A000F0FBFF00A4A0A000808080000000FF0000FF000000FFFF00FF000000FF00FF00FFFF0000FFFFFF0000000000000000000000000000000000000000000000000000000000000000000000000000000000000000000000FFFFFFFF00000000000000000000000000000000000000000000000000000000FF
310
00FFFF000000000000000000000000000000000000000000000000000000F9F9F9FFFFF900000000000000000000000000000000000000000000FFFFFFFFFFFF00FFFFFFFFFFFFFF0000000000000000000000000000000000FF0000000000FF00FFFF0000000000FF00000000000000000000000000000000FF0000000000
310
FF00FFFF0000000000FF00000000000000000000000000000000FF0000000000FF00FFFF0000000000FF00000000000000000000000000000000FF0000000000FF00FFFF0000000000FF00000000000000000000000000000000FF0000000000FF00F9FF0000000000FF00000000000000000000000000000000FF00000000
310
00FFF9FFFFF900000000FF00000000000000000000000000000000FF0000000000FF00FFFF0000000000FF00000000000000000000000000000000FF0000000000FF00F9FF0000000000FF00000000000000000000000000000000FF0000000000FF00FFFF0000000000FF0000000000000000000000000000000000000000
310
000000000000000000000000000000000000000000000000000000000000000000000000000000000000000000000000000000000000000000000000000000000000000000000000000000000000000000000000000000000000000000000000000000000000000000000000000000000000000000000000000000FAFAFAFA
310
FAFA000000000000FAFAFAFAFAFA000000000000000000000000000000FA00FA00000000000000000000FA00FA00000000000000000000000000000000FFFFFF0000FF00FF0000FF0000FFFFFF00000000000000000000000000000000FFFFFFA4F9FFFFFFFFFFFFF9A4FFFFFF00000000000000000000000000000000FFFF
310
FFFFFFFFFFFAFAFFFFFFFFFFFFFF00000000000000000000000000000000000000000000FFFAFFFF0000000000000000000000000000000000000000000000000000F9F9FAF9FFF9F9F9F900000000000000000000000000000000000000000000000000FAFFFFFF0000000000000000000000000000000000000000000000
310
00000000FA000000000000000000000000000000000000000000000000000000000000FAFA0000000000000000000000000000000000000000000000000000000000FAFAFA0000000000000000000000000000000000000000000000000000000000FAFAFA0000000000000000000000000000000000000000000000000000
310
00000000FA000000000000000000000000000000000000000000000000000000000000000000000000000000000000000000000000000000
102
{BLKREFS
331
6B07
102
}
 70
     4
280
     1
281
     0
  0
BLOCK_RECORD
  5
5A7F
102
{ACAD_XDICTIONARY
360
63ED
102
}
330
1
100
AcDbSymbolTableRecord
100
AcDbBlockTableRecord
  2
センタＡ SSM180
340
0
310
2800000020000000200000000100080000000000000400000000000000000000000000000000000000000000000080000080000000808000800000008000800080800000C0C0C000C0DCC000F0CAA6000020400000206000002080000020A0000020C0000020E00000400000004020000040400000406000004080000040A0
310
000040C0000040E00000600000006020000060400000606000006080000060A0000060C0000060E00000800000008020000080400000806000008080000080A0000080C0000080E00000A0000000A0200000A0400000A0600000A0800000A0A00000A0C00000A0E00000C0000000C0200000C0400000C0600000C0800000C0
310
A00000C0C00000C0E00000E0000000E0200000E0400000E0600000E0800000E0A00000E0C00000E0E00040000000400020004000400040006000400080004000A0004000C0004000E00040200000402020004020400040206000402080004020A0004020C0004020E000404000004040200040404000404060004040800040
310
40A0004040C0004040E00040600000406020004060400040606000406080004060A0004060C0004060E00040800000408020004080400040806000408080004080A0004080C0004080E00040A0000040A0200040A0400040A0600040A0800040A0A00040A0C00040A0E00040C0000040C0200040C0400040C0600040C08000
310
40C0A00040C0C00040C0E00040E0000040E0200040E0400040E0600040E0800040E0A00040E0C00040E0E00080000000800020008000400080006000800080008000A0008000C0008000E00080200000802020008020400080206000802080008020A0008020C0008020E00080400000804020008040400080406000804080
310
008040A0008040C0008040E00080600000806020008060400080606000806080008060A0008060C0008060E00080800000808020008080400080806000808080008080A0008080C0008080E00080A0000080A0200080A0400080A0600080A0800080A0A00080A0C00080A0E00080C0000080C0200080C0400080C0600080C0
310
800080C0A00080C0C00080C0E00080E0000080E0200080E0400080E0600080E0800080E0A00080E0C00080E0E000C0000000C0002000C0004000C0006000C0008000C000A000C000C000C000E000C0200000C0202000C0204000C0206000C0208000C020A000C020C000C020E000C0400000C0402000C0404000C0406000C0
310
408000C040A000C040C000C040E000C0600000C0602000C0604000C0606000C0608000C060A000C060C000C060E000C0800000C0802000C0804000C0806000C0808000C080A000C080C000C080E000C0A00000C0A02000C0A04000C0A06000C0A08000C0A0A000C0A0C000C0A0E000C0C00000C0C02000C0C04000C0C06000
310
C0C08000C0C0A000F0FBFF00A4A0A000808080000000FF0000FF000000FFFF00FF000000FF00FF00FFFF0000FFFFFF0000000000000000000000000000000000000000000000000000000000000000000000000000000000000000000000000000FFFFFF000000000000000000000000000000000000000000000000000000
310
00000000FFFFFFFFFFFFFFFF000000000000000000000000000000000000000000000000FFFF0000000000FF000000000000000000000000000000000000000000000000FFFF0000000000FF000000000000000000000000000000000000000000000000FFFF0000000000FF00000000000000000000000000000000000000
310
0000000000FFFF0000000000FF000000000000000000000000000000000000000000000000FFFF0000000000FF000000000000000000000000000000000000000000000000FFFF0000000000FF000000000000000000000000000000000000000000000000FFFF0000000000FF000000000000000000000000000000000000
310
000000000000FFFF0000000000FF000000000000000000000000000000000000000000000000FFFF0000000000FF000000000000000000000000000000000000000000000000FFFF0000000000FF000000000000000000000000000000000000000000000000FFFF0000000000FF00000000000000000000FF000000000000
310
00000000000000FFFF0000000000FF00000000000000000000FF0000000000000000000000000000000000000000FF00000000000000000000FF0000000000000000000000000000000000000000FF00000000000000000000FF0000000000000000000000000000000000000000FF00000000000000000000FF0000000000
310
000000000000000000000000000000FF00000000000000000000FF0000000000000000000000000000000000000000FF00000000000000000000FF0000000000000000000000000000000000000000FF00000000000000000000FFFFFFFFFFFFFFFFFFFFFFFFFFFFFFFFFFFFFFFFFFFF00000000000000000000FFFFFFFFFF
310
FFFFFFFFFFFFFFFFFFFFFFFFFFFFFFFFFF00000000000000000000FF0000000000000000000000000000000000000000FF00000000000000000000FF0000000000000000000000000000000000000000FF00000000000000000000FF0000000000000000000000000000000000000000FF00000000000000000000FF000000
310
00F9000000000000000000FFFFFFFFFFFFFF00000000000000000000FFFFFFFFFFF9FFFFFFFFFFFFFFFFFF0000000000000000000000000000000000000000FFF9F9F9F9FFF9000000000000000000000000000000000000000000000000000000F90000000000000000000000000000000000000000000000000000000000
310
0000F90000000000000000000000000000000000000000000000000000000000000000000000000000000000000000000000000000000000
102
{BLKREFS
331
5AA7
102
}
 70
     4
280
     1
281
     0
  0
BLOCK_RECORD
  5
5B48
102
{ACAD_XDICTIONARY
360
6435
102
}
330
1
100
AcDbSymbolTableRecord
100
AcDbBlockTableRecord
  2
センタＢ SSM180
340
0
310
2800000020000000200000000100080000000000000400000000000000000000000000000000000000000000000080000080000000808000800000008000800080800000C0C0C000C0DCC000F0CAA6000020400000206000002080000020A0000020C0000020E00000400000004020000040400000406000004080000040A0
310
000040C0000040E00000600000006020000060400000606000006080000060A0000060C0000060E00000800000008020000080400000806000008080000080A0000080C0000080E00000A0000000A0200000A0400000A0600000A0800000A0A00000A0C00000A0E00000C0000000C0200000C0400000C0600000C0800000C0
310
A00000C0C00000C0E00000E0000000E0200000E0400000E0600000E0800000E0A00000E0C00000E0E00040000000400020004000400040006000400080004000A0004000C0004000E00040200000402020004020400040206000402080004020A0004020C0004020E000404000004040200040404000404060004040800040
310
40A0004040C0004040E00040600000406020004060400040606000406080004060A0004060C0004060E00040800000408020004080400040806000408080004080A0004080C0004080E00040A0000040A0200040A0400040A0600040A0800040A0A00040A0C00040A0E00040C0000040C0200040C0400040C0600040C08000
310
40C0A00040C0C00040C0E00040E0000040E0200040E0400040E0600040E0800040E0A00040E0C00040E0E00080000000800020008000400080006000800080008000A0008000C0008000E00080200000802020008020400080206000802080008020A0008020C0008020E00080400000804020008040400080406000804080
310
008040A0008040C0008040E00080600000806020008060400080606000806080008060A0008060C0008060E00080800000808020008080400080806000808080008080A0008080C0008080E00080A0000080A0200080A0400080A0600080A0800080A0A00080A0C00080A0E00080C0000080C0200080C0400080C0600080C0
310
800080C0A00080C0C00080C0E00080E0000080E0200080E0400080E0600080E0800080E0A00080E0C00080E0E000C0000000C0002000C0004000C0006000C0008000C000A000C000C000C000E000C0200000C0202000C0204000C0206000C0208000C020A000C020C000C020E000C0400000C0402000C0404000C0406000C0
310
408000C040A000C040C000C040E000C0600000C0602000C0604000C0606000C0608000C060A000C060C000C060E000C0800000C0802000C0804000C0806000C0808000C080A000C080C000C080E000C0A00000C0A02000C0A04000C0A06000C0A08000C0A0A000C0A0C000C0A0E000C0C00000C0C02000C0C04000C0C06000
310
C0C08000C0C0A000F0FBFF00A4A0A000808080000000FF0000FF000000FFFF00FF000000FF00FF00FFFF0000FFFFFF000000000000000000000000000000000000000000000000000000000000000000000000000000000000000000FFFFFF00000000000000000000000000000000000000000000FFFFFFFFFFFFFFFF0000
310
00000000000000000000000000000000000000000000FF0000000000FFFF000000000000000000000000000000000000000000000000FF0000000000FFFF000000000000000000000000000000000000000000000000FF0000000000FFFF000000000000000000000000000000000000000000000000FF0000000000FFFF00
310
0000000000000000000000000000000000000000000000FF0000000000FFFF000000000000000000000000000000000000000000000000FF0000000000FFFF000000000000000000000000000000000000000000000000FF0000000000FFFF000000000000000000000000000000000000000000000000FF0000000000FFFF
310
000000000000000000000000000000000000000000000000FF0000000000FFFF000000000000000000000000000000000000000000000000FF0000000000FFFF000000000000000000000000000000000000000000000000FF0000000000FFFF000000000000000000000000000000000000000000000000FF0000000000FF
310
FF00000000000000000000000000FF00000000000000000000FF0000000000000000000000000000000000000000FF00000000000000000000FF0000000000000000000000000000000000000000FF00000000000000000000FF0000000000000000000000000000000000000000FF00000000000000000000FF0000000000
310
000000000000000000000000000000FF00000000000000000000FF0000000000000000000000000000000000000000FF00000000000000000000FF0000000000000000000000000000000000000000FF00000000000000000000FFFFFFFFFFFFFFFFFFFFFFFFFFFFFFFFFFFFFFFFFFFF00000000000000000000FFFFFFFFFF
310
FFFFFFFFFFFFFFFFFFFFFFFFFFFFFFFFFF00000000000000000000FF0000000000000000000000000000000000000000FF00000000000000000000FF0000000000000000000000000000000000000000FF00000000000000000000FF0000000000000000000000000000000000000000FF00000000000000000000FFFFFFFF
310
FFFFFF000000000000000000F900000000FF0000000000000000000000000000000000FFFFFFFFFFFFFFFFFFF9FFFFFFFFFF00000000000000000000000000000000000000000000F9FFF9F9F9F9FF0000000000000000000000000000000000000000000000000000000000F9000000000000000000000000000000000000
310
00000000000000000000000000F9000000000000000000000000000000000000000000000000000000000000000000000000000000000000
102
{BLKREFS
331
5B73
102
}
 70
     4
280
     1
281
     0
  0
BLOCK_RECORD
  5
60F7
102
{ACAD_XDICTIONARY
360
619A
102
}
330
1
100
AcDbSymbolTableRecord
100
AcDbBlockTableRecord
  2
リーマボルト SSM180 M8
340
0
310
2800000020000000200000000100080000000000000400000000000000000000000000000000000000000000000080000080000000808000800000008000800080800000C0C0C000C0DCC000F0CAA6000020400000206000002080000020A0000020C0000020E00000400000004020000040400000406000004080000040A0
310
000040C0000040E00000600000006020000060400000606000006080000060A0000060C0000060E00000800000008020000080400000806000008080000080A0000080C0000080E00000A0000000A0200000A0400000A0600000A0800000A0A00000A0C00000A0E00000C0000000C0200000C0400000C0600000C0800000C0
310
A00000C0C00000C0E00000E0000000E0200000E0400000E0600000E0800000E0A00000E0C00000E0E00040000000400020004000400040006000400080004000A0004000C0004000E00040200000402020004020400040206000402080004020A0004020C0004020E000404000004040200040404000404060004040800040
310
40A0004040C0004040E00040600000406020004060400040606000406080004060A0004060C0004060E00040800000408020004080400040806000408080004080A0004080C0004080E00040A0000040A0200040A0400040A0600040A0800040A0A00040A0C00040A0E00040C0000040C0200040C0400040C0600040C08000
310
40C0A00040C0C00040C0E00040E0000040E0200040E0400040E0600040E0800040E0A00040E0C00040E0E00080000000800020008000400080006000800080008000A0008000C0008000E00080200000802020008020400080206000802080008020A0008020C0008020E00080400000804020008040400080406000804080
310
008040A0008040C0008040E00080600000806020008060400080606000806080008060A0008060C0008060E00080800000808020008080400080806000808080008080A0008080C0008080E00080A0000080A0200080A0400080A0600080A0800080A0A00080A0C00080A0E00080C0000080C0200080C0400080C0600080C0
310
800080C0A00080C0C00080C0E00080E0000080E0200080E0400080E0600080E0800080E0A00080E0C00080E0E000C0000000C0002000C0004000C0006000C0008000C000A000C000C000C000E000C0200000C0202000C0204000C0206000C0208000C020A000C020C000C020E000C0400000C0402000C0404000C0406000C0
310
408000C040A000C040C000C040E000C0600000C0602000C0604000C0606000C0608000C060A000C060C000C060E000C0800000C0802000C0804000C0806000C0808000C080A000C080C000C080E000C0A00000C0A02000C0A04000C0A06000C0A08000C0A0A000C0A0C000C0A0E000C0C00000C0C02000C0C04000C0C06000
310
C0C08000C0C0A000F0FBFF00A4A0A000808080000000FF0000FF000000FFFF00FF000000FF00FF00FFFF0000FFFFFF0000000000000000000000000000000000000000000000000000000000000000000000000000000000000000000000000000000000000000000000000000000000000000000000000000000000000000
310
00000000000000000000000000000000000000000000000000000000000000000000000000000000000000000000000000000000000000000000000000000000000000000000000000000000000000000000000000000000000000000000000000000000000000000000000000000000000000000000000000000000000000
310
00000000000000000000000000000000000000000000000000000000000000000000000000000000000000000000000000000000000000000000000000000000000000000000000000000000000000000000000000000000000000000000000000000000000000000000000000000000000000000000000000000000000000
310
000000000000000000000000000000000000000000FFFFFFFF00000000000000000000000000000000FFFFFFFFFFFF0000000000FFFF000000000000000000000000000000000000000000FF0000FFFF00000000FFFFFFFFFFFFFFFFFFFFFFFFFFFFFFFFFFFFFFFFFFFF00FFFFFFFFFFFF000000FFFF000000FF0000000000
310
00000000000000FFFF000000FF0000FFFEFFFF0000FFFF000000FF000000000000000000000000FFFF00FF00FF0000FFFFFFFF0000FFFF000000FF000000000000000000000000FFFF0000FFFF0000FFFFFFFF0000FFFF000000FF000000000000000000000000FFFF000000FF0000FFFFFFFF0000FFFFFFFFFFFF00000000
310
0000000000000000FFFFFFFF00FFFFFFFFFFFF000000FFFF000000000000000000000000000000000000000000FF0000FFFF0000000000FFFFFFFF000000000000000000000000000000000000FFFFFFFF00000000000000000000000000000000000000000000000000000000000000000000000000000000000000000000
310
00000000000000000000000000000000000000000000000000000000000000000000000000000000000000000000000000000000000000000000000000000000000000000000000000000000000000000000000000000000000000000000000000000000000000000000000000000000000000000000000000000000000000
310
00000000000000000000000000000000000000000000000000000000000000000000000000000000000000000000000000000000000000000000000000000000000000000000000000000000000000000000000000000000000000000000000000000000000000000000000000000000000000000000000000000000000000
310
0000000000000000000000000000000000000000000000000000000000000000000000000000000000000000000000000000000000000000
102
{BLKREFS
331
6B43
102
}
 70
     4
280
     1
281
     0
  0
BLOCK_RECORD
  5
6EAE
330
1
100
AcDbSymbolTableRecord
100
AcDbBlockTableRecord
  2
*D12
340
0
 70
     0
280
     1
281
     0
  0
BLOCK_RECORD
  5
6EF6
330
1
100
AcDbSymbolTableRecord
100
AcDbBlockTableRecord
  2
*D13
340
0
 70
     0
280
     1
281
     0
  0
BLOCK_RECORD
  5
6F5B
330
1
100
AcDbSymbolTableRecord
100
AcDbBlockTableRecord
  2
*D14
340
0
 70
     0
280
     1
281
     0
  0
BLOCK_RECORD
  5
6F73
330
1
100
AcDbSymbolTableRecord
100
AcDbBlockTableRecord
  2
*D15
340
0
 70
     0
280
     1
281
     0
  0
BLOCK_RECORD
  5
6F8F
330
1
100
AcDbSymbolTableRecord
100
AcDbBlockTableRecord
  2
*D16
340
0
 70
     0
280
     1
281
     0
  0
BLOCK_RECORD
  5
7094
330
1
100
AcDbSymbolTableRecord
100
AcDbBlockTableRecord
  2
*D17
340
0
 70
     0
280
     1
281
     0
  0
BLOCK_RECORD
  5
70AC
330
1
100
AcDbSymbolTableRecord
100
AcDbBlockTableRecord
  2
*D18
340
0
 70
     0
280
     1
281
     0
  0
BLOCK_RECORD
  5
70C4
330
1
100
AcDbSymbolTableRecord
100
AcDbBlockTableRecord
  2
*D19
340
0
 70
     0
280
     1
281
     0
  0
BLOCK_RECORD
  5
7133
330
1
100
AcDbSymbolTableRecord
100
AcDbBlockTableRecord
  2
*D20
340
0
 70
     0
280
     1
281
     0
  0
BLOCK_RECORD
  5
715A
330
1
100
AcDbSymbolTableRecord
100
AcDbBlockTableRecord
  2
*D21
340
0
 70
     0
280
     1
281
     0
  0
BLOCK_RECORD
  5
730C
330
1
100
AcDbSymbolTableRecord
100
AcDbBlockTableRecord
  2
*D22
340
0
 70
     0
280
     1
281
     0
  0
BLOCK_RECORD
  5
7B11
330
1
100
AcDbSymbolTableRecord
100
AcDbBlockTableRecord
  2
*D23
340
0
 70
     0
280
     1
281
     0
  0
BLOCK_RECORD
  5
7EDE
330
1
100
AcDbSymbolTableRecord
100
AcDbBlockTableRecord
  2
GENDOT
340
0
102
{BLKREFS
331
802A
331
8057
102
}
 70
     0
280
     1
281
     0
  0
BLOCK_RECORD
  5
8A07
330
1
100
AcDbSymbolTableRecord
100
AcDbBlockTableRecord
  2
*D25
340
0
 70
     0
280
     1
281
     0
  0
BLOCK_RECORD
  5
8AC6
330
1
100
AcDbSymbolTableRecord
100
AcDbBlockTableRecord
  2
*D26
340
0
 70
     0
280
     1
281
     0
  0
BLOCK_RECORD
  5
8AF0
330
1
100
AcDbSymbolTableRecord
100
AcDbBlockTableRecord
  2
*D27
340
0
 70
     0
280
     1
281
     0
  0
BLOCK_RECORD
  5
8D6A
330
1
100
AcDbSymbolTableRecord
100
AcDbBlockTableRecord
  2
ケース
340
0
310
2800000020000000200000000100080000000000000400000000000000000000000000000000000000000000000080000080000000808000800000008000800080800000C0C0C000C0DCC000F0CAA6000020400000206000002080000020A0000020C0000020E00000400000004020000040400000406000004080000040A0
310
000040C0000040E00000600000006020000060400000606000006080000060A0000060C0000060E00000800000008020000080400000806000008080000080A0000080C0000080E00000A0000000A0200000A0400000A0600000A0800000A0A00000A0C00000A0E00000C0000000C0200000C0400000C0600000C0800000C0
310
A00000C0C00000C0E00000E0000000E0200000E0400000E0600000E0800000E0A00000E0C00000E0E00040000000400020004000400040006000400080004000A0004000C0004000E00040200000402020004020400040206000402080004020A0004020C0004020E000404000004040200040404000404060004040800040
310
40A0004040C0004040E00040600000406020004060400040606000406080004060A0004060C0004060E00040800000408020004080400040806000408080004080A0004080C0004080E00040A0000040A0200040A0400040A0600040A0800040A0A00040A0C00040A0E00040C0000040C0200040C0400040C0600040C08000
310
40C0A00040C0C00040C0E00040E0000040E0200040E0400040E0600040E0800040E0A00040E0C00040E0E00080000000800020008000400080006000800080008000A0008000C0008000E00080200000802020008020400080206000802080008020A0008020C0008020E00080400000804020008040400080406000804080
310
008040A0008040C0008040E00080600000806020008060400080606000806080008060A0008060C0008060E00080800000808020008080400080806000808080008080A0008080C0008080E00080A0000080A0200080A0400080A0600080A0800080A0A00080A0C00080A0E00080C0000080C0200080C0400080C0600080C0
310
800080C0A00080C0C00080C0E00080E0000080E0200080E0400080E0600080E0800080E0A00080E0C00080E0E000C0000000C0002000C0004000C0006000C0008000C000A000C000C000C000E000C0200000C0202000C0204000C0206000C0208000C020A000C020C000C020E000C0400000C0402000C0404000C0406000C0
310
408000C040A000C040C000C040E000C0600000C0602000C0604000C0606000C0608000C060A000C060C000C060E000C0800000C0802000C0804000C0806000C0808000C080A000C080C000C080E000C0A00000C0A02000C0A04000C0A06000C0A08000C0A0A000C0A0C000C0A0E000C0C00000C0C02000C0C04000C0C06000
310
C0C08000C0C0A000F0FBFF00A4A0A000808080000000FF0000FF000000FFFF00FF000000FF00FF00FFFF0000FFFFFF0000000000000000000000000000000000000000000000000000000000000000000000000000000000000000000000000000000000000000000000000000000000000000000000000000000000000000
310
00000000000000000000000000000000000000000000000000000000000000000000000000000000000000000000000000000000000000000000000000000000000000000000000000000000000000000000FC000000FC00000000000000000000FC000000FC000000000000000000000000FC000000FC0000000000000000
310
0000FC000000FC000000000000000000000000FCFCFCFCFC00000000000000000000FCFCFCFCFC000000000000000000000000FC000000FC00000000000000000000FC000000FC000000000000000000000000FC000000FC00000000000000000000FC000000FC000000000000000000000000FC000000FC00000000000000
310
000000FC000000FC000000000000000000000000FC000000FC00000000000000000000FC000000FC000000000000FCFCFCFC0000FC00000000FCFCFCFCFCFCFCFCFCFCFC000000FC0000000000FC000000000000FC000000000000000000000000000000000000FC0000FCFCFCFCFCFCFCFC0000FC00000000000000000000
310
0000000000000000FC0000000000FC000000000000FC000000000000000000000000000000000000FC0000000000FC000000000000FC00000000000000000000000000000000000000FC00000000FCFCFCFCFC0000FC0000000000000000000000000000000000000000FCFCFCFC00000000000000FC000000000000000000
310
00000000000000000000000000000000000000000000FC00000000000000000000000000000000000000000000000000000000000000FC00000000000000000000000000000000000000000000000000000000000000FC00000000000000000000000000000000000000000000000000000000000000FC0000000000000000
310
000000000000000000000000000000000000000000000000FC0000000000000000000000000000000000000000000000000000000000000000FCFC0000000000000000000000000000000000000000000000000000000000000000FC0000000000000000000000000000000000000000000000000000000000000000FCFCFC
310
FCFCFCFCFCFCFCFCFCFCFCFCFCFCFCFCFCFCFCFCFCFC000000000000000000000000000000000000000000000000000000000000000000000000000000000000000000000000000000000000000000000000000000000000000000000000000000000000000000000000000000000000000000000000000000000000000000
310
0000000000000000000000000000000000000000000000000000000000000000000000000000000000000000000000000000000000000000
102
{BLKREFS
331
8D85
102
}
 70
     4
280
     1
281
     1
  0
ENDTAB
  0
ENDSEC
  0
SECTION
  2
BLOCKS
  0
BLOCK
  5
20
330
1F
100
AcDbEntity
  8
0
100
AcDbBlockBegin
  2
*Model_Space
 70
     0
 10
0.0
 20
0.0
 30
0.0
  3
*Model_Space
  1

  0
ENDBLK
  5
21
330
1F
100
AcDbEntity
  8
0
100
AcDbBlockEnd
  0
BLOCK
  5
1C
330
1B
100
AcDbEntity
 67
     1
  8
0
100
AcDbBlockBegin
  2
*Paper_Space
 70
     0
 10
0.0
 20
0.0
 30
0.0
  3
*Paper_Space
  1

  0
ENDBLK
  5
1D
330
1B
100
AcDbEntity
 67
     1
  8
0
100
AcDbBlockEnd
  0
BLOCK
  5
24
330
23
100
AcDbEntity
 67
     1
  8
0
100
AcDbBlockBegin
  2
*Paper_Space0
 70
     0
 10
0.0
 20
0.0
 30
0.0
  3
*Paper_Space0
  1

  0
ENDBLK
  5
25
330
23
100
AcDbEntity
 67
     1
  8
0
100
AcDbBlockEnd
  0
BLOCK
  5
6D
330
69
100
AcDbEntity
  8
0
100
AcDbBlockBegin
  2
_Open30
 70
     0
 10
0.0
 20
0.0
 30
0.0
  3
_Open30
  1

  0
LINE
  5
6A
330
69
100
AcDbEntity
  8
0
  6
ByBlock
 62
     0
370
    -2
100
AcDbLine
 10
-1.0
 20
0.26794919
 30
0.0
 11
0.0
 21
0.0
 31
0.0
  0
LINE
  5
6B
330
69
100
AcDbEntity
  8
0
  6
ByBlock
 62
     0
370
    -2
100
AcDbLine
 10
0.0
 20
0.0
 30
0.0
 11
-1.0
 21
-0.26794919
 31
0.0
  0
LINE
  5
6C
330
69
100
AcDbEntity
  8
0
  6
ByBlock
 62
     0
370
    -2
100
AcDbLine
 10
0.0
 20
0.0
 30
0.0
 11
-1.0
 21
0.0
 31
0.0
  0
ENDBLK
  5
6E
330
69
100
AcDbEntity
  8
0
100
AcDbBlockEnd
  0
BLOCK
  5
76
330
74
100
AcDbEntity
  8
0
100
AcDbBlockBegin
  2
GENAXEH
 70
     0
 10
0.0
 20
0.0
 30
0.0
  3
GENAXEH
  1

  0
LINE
  5
75
330
74
100
AcDbEntity
  8
0
100
AcDbLine
 10
-1.0
 20
0.0
 30
0.0
 11
1.0
 21
0.0
 31
0.0
  0
ENDBLK
  5
77
330
74
100
AcDbEntity
  8
0
100
AcDbBlockEnd
  0
BLOCK
  5
5739
330
5738
100
AcDbEntity
  8
0
100
AcDbBlockBegin
  2
ロッカクアナツキプラグ R1／8
 70
     0
 10
0.0
 20
0.0
 30
0.0
  3
ロッカクアナツキプラグ R1／8
  1

  0
CIRCLE
  5
573B
330
5738
100
AcDbEntity
  8
AM_4 細線
100
AcDbCircle
 10
0.0
 20
0.0
 30
0.0
 40
4.816232
  0
LINE
  5
573C
330
5738
100
AcDbEntity
  8
AM_7 中心線
100
AcDbLine
 10
0.0
 20
11.91090800000012
 30
0.0
 11
0.0
 21
-11.910908
 31
0.0
  0
CIRCLE
  5
573D
330
5738
100
AcDbEntity
  8
AM_0 外形線1
100
AcDbCircle
 10
0.0
 20
0.0
 30
0.0
 40
5.271232
  0
LINE
  5
573E
330
5738
100
AcDbEntity
  8
AM_7 中心線
100
AcDbLine
 10
11.91090499999996
 20
0.0076220000001399
 30
0.0
 11
-11.91090499999996
 21
0.0076220000001399
 31
0.0
  0
LINE
  5
573F
330
5738
100
AcDbEntity
  8
AM_0 外形線1
100
AcDbLine
 10
2.1780540000002
 20
-1.257499999999879
 30
0.0
 11
2.1780540000002
 21
1.257499999999992
 31
0.0
  0
LINE
  5
5740
330
5738
100
AcDbEntity
  8
AM_0 外形線1
100
AcDbLine
 10
0.0
 20
-2.514999999999872
 30
0.0
 11
2.1780540000002
 21
-1.257499999999879
 31
0.0
  0
LINE
  5
5741
330
5738
100
AcDbEntity
  8
AM_0 外形線1
100
AcDbLine
 10
-2.178053999999974
 20
-1.257499999999879
 30
0.0
 11
0.0
 21
-2.514999999999872
 31
0.0
  0
LINE
  5
5742
330
5738
100
AcDbEntity
  8
AM_0 外形線1
100
AcDbLine
 10
-2.178053999999974
 20
1.257499999999992
 30
0.0
 11
-2.178053999999974
 21
-1.257499999999879
 31
0.0
  0
LINE
  5
5743
330
5738
100
AcDbEntity
  8
AM_0 外形線1
100
AcDbLine
 10
0.0
 20
2.514999999999985
 30
0.0
 11
-2.178053999999974
 21
1.257499999999992
 31
0.0
  0
LINE
  5
5744
330
5738
100
AcDbEntity
  8
AM_0 外形線1
100
AcDbLine
 10
2.1780540000002
 20
1.257499999999992
 30
0.0
 11
0.0
 21
2.514999999999985
 31
0.0
  0
ENDBLK
  5
573A
330
5738
100
AcDbEntity
  8
0
100
AcDbBlockEnd
  0
BLOCK
  5
57CA
330
57C9
100
AcDbEntity
  8
0
100
AcDbBlockBegin
  2
ケースＡ SSM180
 70
     0
 10
0.0
 20
0.0
 30
0.0
  3
ケースＡ SSM180
  1

  0
LINE
  5
6AC0
330
57C9
100
AcDbEntity
  8
AM_0 外形線1
100
AcDbLine
 10
56.0
 20
-64.0
 30
0.0
 11
56.0
 21
-59.99363100000005
 31
0.0
  0
LINE
  5
6AC1
330
57C9
100
AcDbEntity
  8
AM_0 外形線1
100
AcDbLine
 10
15.0
 20
-89.50000000000001
 30
0.0
 11
15.0
 21
0.0
 31
0.0
  0
LINE
  5
6AC2
330
57C9
100
AcDbEntity
  8
AM_0 外形線1
100
AcDbLine
 10
18.0
 20
-67.0
 30
0.0
 11
53.0
 21
-67.0
 31
0.0
  0
LINE
  5
6AC3
330
57C9
100
AcDbEntity
  8
AM_0 外形線1
100
AcDbLine
 10
0.5000000000002274
 20
-90.0
 30
0.0
 11
14.5
 21
-90.0
 31
0.0
  0
LINE
  5
6AC4
330
57C9
100
AcDbEntity
  8
AM_0 外形線1
100
AcDbLine
 10
0.0
 20
-89.50000000000001
 30
0.0
 11
0.5000000000002274
 21
-90.0
 31
0.0
  0
LINE
  5
6AC5
330
57C9
100
AcDbEntity
  8
AM_0 外形線1
100
AcDbLine
 10
14.5
 20
-90.0
 30
0.0
 11
15.0
 21
-89.50000000000001
 31
0.0
  0
ARC
  5
6AC6
330
57C9
100
AcDbEntity
  8
AM_0 外形線1
100
AcDbCircle
 10
18.0
 20
-70.0
 30
0.0
 40
3.0
100
AcDbArc
 50
90.0
 51
180.0
  0
ARC
  5
6AC7
330
57C9
100
AcDbEntity
  8
AM_0 外形線1
100
AcDbCircle
 10
53.0
 20
-64.0
 30
0.0
 40
3.0
100
AcDbArc
 50
270.0
 51
0.0
  0
LINE
  5
6AC8
330
57C9
100
AcDbEntity
  8
AM_0 外形線1
100
AcDbLine
 10
56.0
 20
-59.99363100000005
 30
0.0
 11
56.0
 21
0.0
 31
0.0
  0
LINE
  5
6AC9
330
57C9
100
AcDbEntity
  8
AM_3 隠れ線
100
AcDbLine
 10
19.0
 20
56.39999999999986
 30
0.0
 11
38.0
 21
56.39999999999986
 31
0.0
  0
LINE
  5
6ACA
330
57C9
100
AcDbEntity
  8
AM_0 外形線1
100
AcDbLine
 10
18.0
 20
67.0
 30
0.0
 11
53.0
 21
67.0
 31
0.0
  0
LINE
  5
6ACB
330
57C9
100
AcDbEntity
  8
AM_0 外形線1
100
AcDbLine
 10
16.0
 20
60.0
 30
0.0
 11
39.0
 21
60.0
 31
0.0
  0
LINE
  5
6ACC
330
57C9
100
AcDbEntity
  8
AM_7 中心線
100
AcDbLine
 10
14.0
 20
58.0
 30
0.0
 11
41.0
 21
58.0
 31
0.0
  0
LINE
  5
6ACD
330
57C9
100
AcDbEntity
  8
AM_0 外形線1
100
AcDbLine
 10
0.0
 20
68.89999999999986
 30
0.0
 11
0.0
 21
77.0
 31
0.0
  0
LINE
  5
6ACE
330
57C9
100
AcDbEntity
  8
AM_0 外形線1
100
AcDbLine
 10
0.0
 20
68.89999999999986
 30
0.0
 11
0.0
 21
77.0
 31
0.0
  0
LINE
  5
6ACF
330
57C9
100
AcDbEntity
  8
AM_0 外形線1
100
AcDbLine
 10
15.0
 20
89.50000000000001
 30
0.0
 11
15.0
 21
70.0
 31
0.0
  0
LINE
  5
6AD0
330
57C9
100
AcDbEntity
  8
AM_0 外形線1
100
AcDbLine
 10
1.899999999999862
 20
68.89999999999986
 30
0.0
 11
0.0
 21
68.89999999999986
 31
0.0
  0
LINE
  5
6AD1
330
57C9
100
AcDbEntity
  8
AM_0 外形線1
100
AcDbLine
 10
-2.5
 20
65.0
 30
0.0
 11
1.899999999999862
 21
65.0
 31
0.0
  0
LINE
  5
6AD2
330
57C9
100
AcDbEntity
  8
AM_0 外形線1
100
AcDbLine
 10
15.0
 20
60.5
 30
0.0
 11
-3.0
 21
60.5
 31
0.0
  0
LINE
  5
6AD3
330
57C9
100
AcDbEntity
  8
AM_0 外形線1
100
AcDbLine
 10
-3.0
 20
64.5
 30
0.0
 11
-2.5
 21
65.0
 31
0.0
  0
LINE
  5
6AD4
330
57C9
100
AcDbEntity
  8
AM_0 外形線1
100
AcDbLine
 10
-3.0
 20
60.5
 30
0.0
 11
-3.0
 21
56.5
 31
0.0
  0
LINE
  5
6AD5
330
57C9
100
AcDbEntity
  8
AM_0 外形線1
100
AcDbLine
 10
-3.0
 20
60.5
 30
0.0
 11
-3.0
 21
64.5
 31
0.0
  0
LINE
  5
6AD6
330
57C9
100
AcDbEntity
  8
AM_0 外形線1
100
AcDbLine
 10
19.0
 20
56.39999999999986
 30
0.0
 11
17.0
 21
56.39999999999986
 31
0.0
  0
ARC
  5
6AD7
330
57C9
100
AcDbEntity
  8
AM_0 外形線1
100
AcDbCircle
 10
18.0
 20
70.0
 30
0.0
 40
3.0
100
AcDbArc
 50
180.0
 51
270.0
  0
ARC
  5
6AD8
330
57C9
100
AcDbEntity
  8
AM_0 外形線1
100
AcDbCircle
 10
15.0
 20
59.49999999999983
 30
0.0
 40
1.0
100
AcDbArc
 50
0.0
 51
90.0
  0
LINE
  5
6AD9
330
57C9
100
AcDbEntity
  8
AM_0 外形線1
100
AcDbLine
 10
16.0
 20
57.39999999999986
 30
0.0
 11
16.0
 21
59.49999999999983
 31
0.0
  0
LINE
  5
6ADA
330
57C9
100
AcDbEntity
  8
AM_0 外形線1
100
AcDbLine
 10
17.0
 20
56.39999999999986
 30
0.0
 11
16.0
 21
57.39999999999986
 31
0.0
  0
LINE
  5
6ADB
330
57C9
100
AcDbEntity
  8
AM_0 外形線1
100
AcDbLine
 10
16.0
 20
57.39999999999986
 30
0.0
 11
16.0
 21
54.31704200000002
 31
0.0
  0
ARC
  5
6ADC
330
57C9
100
AcDbEntity
  8
AM_0 外形線1
100
AcDbCircle
 10
1.899999999999862
 20
68.39999999999986
 30
0.0
 40
0.5
100
AcDbArc
 50
0.0
 51
90.0
  0
LINE
  5
6ADD
330
57C9
100
AcDbEntity
  8
AM_0 外形線1
100
AcDbLine
 10
2.399999999999863
 20
65.5
 30
0.0
 11
2.399999999999863
 21
68.39999999999986
 31
0.0
  0
ARC
  5
6ADE
330
57C9
100
AcDbEntity
  8
AM_0 外形線1
100
AcDbCircle
 10
1.899999999999862
 20
65.5
 30
0.0
 40
0.5
100
AcDbArc
 50
270.0
 51
0.0
  0
LINE
  5
6ADF
330
57C9
100
AcDbEntity
  8
AM_0 外形線1
100
AcDbLine
 10
15.0
 20
86.0
 30
0.0
 11
0.0
 21
86.0
 31
0.0
  0
LINE
  5
6AE0
330
57C9
100
AcDbEntity
  8
AM_0 外形線1
100
AcDbLine
 10
0.5000000000002274
 20
90.0
 30
0.0
 11
14.5
 21
90.0
 31
0.0
  0
LINE
  5
6AE1
330
57C9
100
AcDbEntity
  8
AM_0 外形線1
100
AcDbLine
 10
0.0
 20
86.0
 30
0.0
 11
0.0
 21
89.50000000000001
 31
0.0
  0
LINE
  5
6AE2
330
57C9
100
AcDbEntity
  8
AM_0 外形線1
100
AcDbLine
 10
0.0
 20
89.50000000000001
 30
0.0
 11
0.5000000000002274
 21
90.0
 31
0.0
  0
LINE
  5
6AE3
330
57C9
100
AcDbEntity
  8
AM_0 外形線1
100
AcDbLine
 10
14.5
 20
90.0
 30
0.0
 11
15.0
 21
89.50000000000001
 31
0.0
  0
LWPOLYLINE
  5
6AE4
330
57C9
100
AcDbEntity
  8
AM_0 外形線1
100
AcDbPolyline
 90
       73
 70
     0
 43
0.0
 10
53.29999999999995
 20
54.85000000000002
 10
53.28554000000007
 20
55.05481600000002
 10
53.24226900000008
 20
55.25807300000002
 10
53.1705179999999
 20
55.45822500000003
 10
53.0708320000001
 20
55.65374700000001
 10
52.94397000000015
 20
55.84315299999984
 10
52.79089699999997
 20
56.02499999999985
 10
52.61277800000016
 20
56.19790499999999
 10
52.41096900000002
 20
56.36055099999986
 10
52.18700599999988
 20
56.51170099999984
 10
51.94259299999998
 20
56.65020400000003
 10
51.67959000000019
 20
56.77500699999985
 10
51.39999999999997
 20
56.88515999999986
 10
51.10594900000023
 20
56.97982300000001
 10
50.79967699999997
 20
57.05827799999986
 10
50.48351200000013
 20
57.11992599999985
 10
50.15986299999998
 20
57.16429799999986
 10
49.83119200000011
 20
57.191058
 10
49.50000000000023
 20
57.19999999999988
 10
49.16880800000001
 20
57.191058
 10
48.84013700000014
 20
57.16429799999986
 10
48.51648799999998
 20
57.11992599999985
 10
48.20032300000015
 20
57.05827799999986
 10
47.89405099999998
 20
56.97982300000001
 10
47.60000000000013
 20
56.88515999999986
 10
47.32041000000004
 20
56.77500699999985
 10
47.05740700000001
 20
56.65020400000003
 10
46.8129940000001
 20
56.51170099999984
 10
46.58903099999998
 20
56.36055099999986
 10
46.38722199999995
 20
56.19790499999999
 10
46.20910300000014
 20
56.02499999999985
 10
46.05602999999996
 20
55.84315299999984
 10
45.92916799999989
 20
55.65374700000001
 10
45.8294820000001
 20
55.45822500000003
 10
45.75773099999992
 20
55.25807300000002
 10
45.7144599999999
 20
55.05481600000002
 10
45.70000000000015
 20
54.85000000000002
 10
45.7144599999999
 20
54.64518399999986
 10
45.75773099999992
 20
54.44192700000002
 10
45.8294820000001
 20
54.24177500000002
 10
45.92916799999989
 20
54.04625299999985
 10
46.05602999999996
 20
53.85684700000002
 10
46.20910300000014
 20
53.67500000000001
 10
46.38722199999995
 20
53.502095
 10
46.58903099999998
 20
53.33944899999983
 10
46.8129940000001
 20
53.18829900000003
 10
47.05740700000001
 20
53.04979600000002
 10
47.32041000000004
 20
52.92499300000002
 10
47.60000000000013
 20
52.81483999999982
 10
47.89405099999998
 20
52.72017699999985
 10
48.20032300000015
 20
52.641722
 10
48.51648799999998
 20
52.58007400000002
 10
48.84013700000014
 20
52.53570200000002
 10
49.16880800000001
 20
52.50894199999982
 10
49.50000000000023
 20
52.5
 10
49.83119200000011
 20
52.50894199999982
 10
50.15986299999998
 20
52.53570200000002
 10
50.48351200000013
 20
52.58007400000002
 10
50.79967699999997
 20
52.641722
 10
51.10594900000023
 20
52.72017699999985
 10
51.39999999999997
 20
52.81483999999982
 10
51.67959000000019
 20
52.92499300000002
 10
51.94259299999998
 20
53.04979600000002
 10
52.18700599999988
 20
53.18829900000003
 10
52.41096900000002
 20
53.33944899999983
 10
52.61277800000016
 20
53.502095
 10
52.79089699999997
 20
53.67500000000001
 10
52.94397000000015
 20
53.85684700000002
 10
53.0708320000001
 20
54.04625299999985
 10
53.1705179999999
 20
54.24177500000002
 10
53.24226900000008
 20
54.44192700000002
 10
53.28554000000007
 20
54.64518399999986
 10
53.29999999999995
 20
54.85000000000002
  0
LINE
  5
6AE5
330
57C9
100
AcDbEntity
  8
AM_0 外形線1
100
AcDbLine
 10
56.0
 20
53.75
 30
0.0
 11
56.0
 21
52.5
 31
0.0
  0
LINE
  5
6AE6
330
57C9
100
AcDbEntity
  8
AM_0 外形線1
100
AcDbLine
 10
53.29999999999995
 20
53.75
 30
0.0
 11
53.29999999999995
 21
52.5
 31
0.0
  0
LINE
  5
6AE7
330
57C9
100
AcDbEntity
  8
AM_0 外形線1
100
AcDbLine
 10
45.70000000000003
 20
53.75
 30
0.0
 11
45.70000000000003
 21
52.5
 31
0.0
  0
LINE
  5
6AE8
330
57C9
100
AcDbEntity
  8
AM_0 外形線1
100
AcDbLine
 10
43.0
 20
53.75
 30
0.0
 11
43.0
 21
52.5
 31
0.0
  0
LINE
  5
6AE9
330
57C9
100
AcDbEntity
  8
AM_0 外形線1
100
AcDbLine
 10
52.79999999999995
 20
57.19999999999988
 30
0.0
 11
46.20000000000003
 21
57.19999999999988
 31
0.0
  0
ARC
  5
6AEA
330
57C9
100
AcDbEntity
  8
AM_0 外形線1
100
AcDbCircle
 10
42.0
 20
59.49999999999983
 30
0.0
 40
1.0
100
AcDbArc
 50
0.0
 51
90.0
  0
LINE
  5
6AEB
330
57C9
100
AcDbEntity
  8
AM_3 隠れ線
100
AcDbLine
 10
39.0
 20
58.881321
 30
0.0
 11
39.0
 21
57.39999999999986
 31
0.0
  0
LINE
  5
6AEC
330
57C9
100
AcDbEntity
  8
AM_3 隠れ線
100
AcDbLine
 10
39.0
 20
57.39999999999986
 30
0.0
 11
38.0
 21
56.39999999999986
 31
0.0
  0
LINE
  5
6AED
330
57C9
100
AcDbEntity
  8
AM_0 外形線1
100
AcDbLine
 10
39.0
 20
58.881321
 30
0.0
 11
39.0
 21
59.49999999999983
 31
0.0
  0
ARC
  5
6AEE
330
57C9
100
AcDbEntity
  8
AM_0 外形線1
100
AcDbCircle
 10
40.0
 20
59.49999999999983
 30
0.0
 40
1.0
100
AcDbArc
 50
90.0
 51
180.0
  0
LINE
  5
6AEF
330
57C9
100
AcDbEntity
  8
AM_0 外形線1
100
AcDbLine
 10
42.0
 20
60.5
 30
0.0
 11
40.0
 21
60.5
 31
0.0
  0
LINE
  5
6AF0
330
57C9
100
AcDbEntity
  8
AM_0 外形線1
100
AcDbLine
 10
43.0
 20
53.75
 30
0.0
 11
43.0
 21
59.49999999999983
 31
0.0
  0
LINE
  5
6AF1
330
57C9
100
AcDbEntity
  8
AM_0 外形線1
100
AcDbLine
 10
45.70000000000003
 20
53.75
 30
0.0
 11
43.0
 21
53.75
 31
0.0
  0
LINE
  5
6AF2
330
57C9
100
AcDbEntity
  8
AM_0 外形線1
100
AcDbLine
 10
45.70000000000003
 20
56.69999999999987
 30
0.0
 11
45.70000000000003
 21
53.75
 31
0.0
  0
ARC
  5
6AF3
330
57C9
100
AcDbEntity
  8
AM_0 外形線1
100
AcDbCircle
 10
46.20000000000003
 20
56.69999999999987
 30
0.0
 40
0.5
100
AcDbArc
 50
90.0
 51
180.0
  0
ARC
  5
6AF4
330
57C9
100
AcDbEntity
  8
AM_0 外形線1
100
AcDbCircle
 10
53.0
 20
64.0
 30
0.0
 40
3.0
100
AcDbArc
 50
0.0
 51
90.0
  0
ARC
  5
6AF5
330
57C9
100
AcDbEntity
  8
AM_0 外形線1
100
AcDbCircle
 10
52.79999999999995
 20
56.69999999999987
 30
0.0
 40
0.5
100
AcDbArc
 50
0.0
 51
90.0
  0
LINE
  5
6AF6
330
57C9
100
AcDbEntity
  8
AM_0 外形線1
100
AcDbLine
 10
53.29999999999995
 20
53.75
 30
0.0
 11
53.29999999999995
 21
56.69999999999987
 31
0.0
  0
LINE
  5
6AF7
330
57C9
100
AcDbEntity
  8
AM_0 外形線1
100
AcDbLine
 10
56.0
 20
53.75
 30
0.0
 11
53.29999999999995
 21
53.75
 31
0.0
  0
LINE
  5
6AF8
330
57C9
100
AcDbEntity
  8
AM_0 外形線1
100
AcDbLine
 10
56.0
 20
64.0
 30
0.0
 11
56.0
 21
53.75
 31
0.0
  0
INSERT
  5
6AF9
330
57C9
100
AcDbEntity
  8
AM_5 寸法線
100
AcDbBlockReference
  2
ロッカクアナツキプラグ R1／8
 10
7.5
 20
-21.09375200000011
 30
0.0
  0
LINE
  5
6AFA
330
57C9
100
AcDbEntity
  8
AM_0 外形線1
100
AcDbLine
 10
0.0
 20
77.0
 30
0.0
 11
15.0
 21
77.0
 31
0.0
  0
LINE
  5
6B62
330
57C9
100
AcDbEntity
  8
AM_7 中心線
100
AcDbLine
 10
-25.49999999999978
 20
81.5
 30
0.0
 11
32.0
 21
81.5
 31
0.0
  0
LINE
  5
6B9E
330
57C9
100
AcDbEntity
  8
AM_0 外形線1
100
AcDbLine
 10
0.0
 20
-89.50000000000001
 30
0.0
 11
0.0
 21
0.0
 31
0.0
  0
LWPOLYLINE
  5
6BE9
330
57C9
100
AcDbEntity
  8
AM_0 外形線1
100
AcDbPolyline
 90
       73
 70
     0
 43
0.0
 10
1.200000000000044
 20
65.0
 10
1.304587000000082
 20
65.00742000000002
 10
1.408378000000084
 20
65.02962500000001
 10
1.510582999999995
 20
65.06644500000004
 10
1.610423999999965
 20
65.11759900000004
 10
1.707141999999976
 20
65.18270000000001
 10
1.799999999999954
 20
65.26125000000002
 10
1.888291999999977
 20
65.35265400000003
 10
1.971345000000154
 20
65.45621299999982
 10
2.048528000000146
 20
65.571142
 10
2.119253000000071
 20
65.69656400000003
 10
2.182982000000038
 20
65.831526
 10
2.239229999999905
 20
65.97500000000002
 10
2.287569000000075
 20
66.12589400000001
 10
2.327630999999882
 20
66.28306099999986
 10
2.35911100000021
 20
66.44530299999985
 10
2.381769000000076
 20
66.61138599999998
 10
2.395434000000022
 20
66.78004599999986
 10
2.399999999999977
 20
66.94999999999999
 10
2.395434000000022
 20
67.11995400000001
 10
2.381769000000076
 20
67.28861399999982
 10
2.35911100000021
 20
67.45469700000001
 10
2.327630999999882
 20
67.61693899999983
 10
2.287569000000075
 20
67.77410599999985
 10
2.239229999999905
 20
67.92500000000001
 10
2.182982000000038
 20
68.06847400000004
 10
2.119253000000071
 20
68.20343600000001
 10
2.048528000000146
 20
68.32885800000003
 10
1.971345000000154
 20
68.44378699999987
 10
1.888291999999977
 20
68.54734599999999
 10
1.799999999999954
 20
68.63875000000001
 10
1.707141999999976
 20
68.71730000000003
 10
1.610423999999965
 20
68.78240099999999
 10
1.510582999999995
 20
68.83355499999999
 10
1.408378000000084
 20
68.87037500000002
 10
1.304587000000082
 20
68.89258000000001
 10
1.200000000000044
 20
68.89999999999986
 10
1.095413000000234
 20
68.89258000000001
 10
0.9916220000000064
 20
68.87037500000002
 10
0.8894169999999801
 20
68.83355499999999
 10
0.7895759999998973
 20
68.78240099999999
 10
0.6928580000000011
 20
68.71730000000003
 10
0.6000000000001366
 20
68.63875000000001
 10
0.5117079999999988
 20
68.54734599999999
 10
0.4286549999999353
 20
68.44378699999987
 10
0.3514720000001716
 20
68.32885800000003
 10
0.2807470000000194
 20
68.20343600000001
 10
0.2170180000000528
 20
68.06847400000004
 10
0.1607700000001841
 20
67.92500000000001
 10
0.112431000000015
 20
67.77410599999985
 10
0.072369000000208
 20
67.61693899999983
 10
0.0408889999999929
 20
67.45469700000001
 10
0.0182310000000143
 20
67.28861399999982
 10
0.004566000000068
 20
67.11995400000001
 10
0.0
 20
66.94999999999999
 10
0.004566000000068
 20
66.78004599999986
 10
0.0182310000000143
 20
66.61138599999998
 10
0.0408889999999929
 20
66.44530299999985
 10
0.072369000000208
 20
66.28306099999986
 10
0.112431000000015
 20
66.12589400000001
 10
0.1607700000001841
 20
65.97500000000002
 10
0.2170180000000528
 20
65.831526
 10
0.2807470000000194
 20
65.69656400000003
 10
0.3514720000001716
 20
65.571142
 10
0.4286549999999353
 20
65.45621299999982
 10
0.5117079999999988
 20
65.35265400000003
 10
0.6000000000001366
 20
65.26125000000002
 10
0.6928580000000011
 20
65.18270000000001
 10
0.7895759999998973
 20
65.11759900000004
 10
0.8894169999999801
 20
65.06644500000004
 10
0.9916220000000064
 20
65.02962500000001
 10
1.095413000000234
 20
65.00742000000002
 10
1.200000000000044
 20
65.0
  0
ENDBLK
  5
57CB
330
57C9
100
AcDbEntity
  8
0
100
AcDbBlockEnd
  0
BLOCK
  5
593D
330
593C
100
AcDbEntity
  8
0
100
AcDbBlockBegin
  2
ケースＢ SSM180
 70
     0
 10
0.0
 20
0.0
 30
0.0
  3
ケースＢ SSM180
  1

  0
LINE
  5
593F
330
593C
100
AcDbEntity
  8
AM_0 外形線1
100
AcDbLine
 10
-56.0
 20
-64.0
 30
0.0
 11
-56.0
 21
0.0
 31
0.0
  0
LINE
  5
5940
330
593C
100
AcDbEntity
  8
AM_0 外形線1
100
AcDbLine
 10
-15.0
 20
-89.50000000000001
 30
0.0
 11
-15.0
 21
0.0
 31
0.0
  0
LINE
  5
5941
330
593C
100
AcDbEntity
  8
AM_0 外形線1
100
AcDbLine
 10
-18.0
 20
-67.0
 30
0.0
 11
-53.0
 21
-67.0
 31
0.0
  0
ARC
  5
5942
330
593C
100
AcDbEntity
  8
AM_0 外形線1
100
AcDbCircle
 10
-53.0
 20
-64.0
 30
0.0
 40
3.0
100
AcDbArc
 50
180.0
 51
270.0
  0
LINE
  5
5943
330
593C
100
AcDbEntity
  8
AM_0 外形線1
100
AcDbLine
 10
-14.5
 20
-90.0
 30
0.0
 11
-15.0
 21
-89.50000000000001
 31
0.0
  0
LINE
  5
5944
330
593C
100
AcDbEntity
  8
AM_0 外形線1
100
AcDbLine
 10
-0.4999999999997728
 20
-90.0
 30
0.0
 11
-14.5
 21
-90.0
 31
0.0
  0
LINE
  5
5945
330
593C
100
AcDbEntity
  8
AM_0 外形線1
100
AcDbLine
 10
0.0
 20
-89.50000000000001
 30
0.0
 11
-0.4999999999997728
 21
-90.0
 31
0.0
  0
ARC
  5
5946
330
593C
100
AcDbEntity
  8
AM_0 外形線1
100
AcDbCircle
 10
-18.0
 20
-70.0
 30
0.0
 40
3.0
100
AcDbArc
 50
0.0
 51
90.0
  0
LINE
  5
5947
330
593C
100
AcDbEntity
  8
AM_7 中心線
100
AcDbLine
 10
19.79304469113617
 20
-81.50000000000003
 30
0.0
 11
-20.0
 21
-81.50000000000011
 31
0.0
  0
LINE
  5
5948
330
593C
100
AcDbEntity
  8
AM_3 隠れ線
100
AcDbLine
 10
-19.0
 20
56.39999999999986
 30
0.0
 11
-38.0
 21
56.39999999999986
 31
0.0
  0
LINE
  5
5949
330
593C
100
AcDbEntity
  8
AM_0 外形線1
100
AcDbLine
 10
-18.0
 20
67.0
 30
0.0
 11
-53.0
 21
67.0
 31
0.0
  0
LINE
  5
594A
330
593C
100
AcDbEntity
  8
AM_0 外形線1
100
AcDbLine
 10
-16.0
 20
60.0
 30
0.0
 11
-39.0
 21
60.0
 31
0.0
  0
LINE
  5
594B
330
593C
100
AcDbEntity
  8
AM_7 中心線
100
AcDbLine
 10
-14.0
 20
58.0
 30
0.0
 11
-41.0
 21
58.0
 31
0.0
  0
LWPOLYLINE
  5
594C
330
593C
100
AcDbEntity
  8
AM_0 外形線1
100
AcDbPolyline
 90
       73
 70
     0
 43
0.0
 10
-53.29999999999984
 20
54.85000000000002
 10
-53.28554000000007
 20
54.64518399999986
 10
-53.24226900000008
 20
54.44192700000002
 10
-53.17051800000001
 20
54.24177500000002
 10
-53.070832
 20
54.04625299999985
 10
-52.94397000000003
 20
53.85684700000002
 10
-52.79089699999997
 20
53.67500000000001
 10
-52.61277800000005
 20
53.502095
 10
-52.41096900000002
 20
53.33944899999983
 10
-52.187006
 20
53.18829900000003
 10
-51.94259299999998
 20
53.04979600000002
 10
-51.67959000000006
 20
52.92499300000002
 10
-51.39999999999997
 20
52.81483999999982
 10
-51.10594899999989
 20
52.72017699999985
 10
-50.79967699999985
 20
52.641722
 10
-50.48351199999979
 20
52.58007400000002
 10
-50.15986299999986
 20
52.53570200000002
 10
-49.83119199999986
 20
52.50894199999982
 10
-49.49999999999988
 20
52.5
 10
-49.16880800000001
 20
52.50894199999982
 10
-48.84013700000003
 20
52.53570200000002
 10
-48.51648799999987
 20
52.58007400000002
 10
-48.20032299999979
 20
52.641722
 10
-47.89405099999988
 20
52.72017699999985
 10
-47.60000000000001
 20
52.81483999999982
 10
-47.32040999999981
 20
52.92499300000002
 10
-47.05740700000001
 20
53.04979600000002
 10
-46.812994
 20
53.18829900000003
 10
-46.58903099999985
 20
53.33944899999983
 10
-46.38722199999985
 20
53.502095
 10
-46.20910300000002
 20
53.67500000000001
 10
-46.05602999999985
 20
53.85684700000002
 10
-45.929168
 20
54.04625299999985
 10
-45.82948199999986
 20
54.24177500000002
 10
-45.7577309999998
 20
54.44192700000002
 10
-45.71445999999979
 20
54.64518399999986
 10
-45.70000000000003
 20
54.85000000000002
 10
-45.71445999999979
 20
55.05481600000002
 10
-45.7577309999998
 20
55.25807300000002
 10
-45.82948199999986
 20
55.45822500000003
 10
-45.929168
 20
55.65374700000001
 10
-46.05602999999985
 20
55.84315299999984
 10
-46.20910300000002
 20
56.02499999999985
 10
-46.38722199999985
 20
56.19790499999999
 10
-46.58903099999985
 20
56.36055099999986
 10
-46.812994
 20
56.51170099999984
 10
-47.05740700000001
 20
56.65020400000003
 10
-47.32040999999981
 20
56.77500699999985
 10
-47.60000000000001
 20
56.88515999999986
 10
-47.89405099999988
 20
56.97982300000001
 10
-48.20032299999979
 20
57.05827799999986
 10
-48.51648799999987
 20
57.11992599999985
 10
-48.84013700000003
 20
57.16429799999986
 10
-49.16880800000001
 20
57.191058
 10
-49.49999999999988
 20
57.19999999999988
 10
-49.83119199999986
 20
57.191058
 10
-50.15986299999986
 20
57.16429799999986
 10
-50.48351199999979
 20
57.11992599999985
 10
-50.79967699999985
 20
57.05827799999986
 10
-51.10594899999989
 20
56.97982300000001
 10
-51.39999999999997
 20
56.88515999999986
 10
-51.67959000000006
 20
56.77500699999985
 10
-51.94259299999998
 20
56.65020400000003
 10
-52.187006
 20
56.51170099999984
 10
-52.41096900000002
 20
56.36055099999986
 10
-52.61277800000005
 20
56.19790499999999
 10
-52.79089699999997
 20
56.02499999999985
 10
-52.94397000000003
 20
55.84315299999984
 10
-53.070832
 20
55.65374700000001
 10
-53.17051800000001
 20
55.45822500000003
 10
-53.24226900000008
 20
55.25807300000002
 10
-53.28554000000007
 20
55.05481600000002
 10
-53.29999999999984
 20
54.85000000000002
  0
LINE
  5
594D
330
593C
100
AcDbEntity
  8
AM_0 外形線1
100
AcDbLine
 10
-43.0
 20
53.75
 30
0.0
 11
-43.0
 21
52.5
 31
0.0
  0
LINE
  5
594E
330
593C
100
AcDbEntity
  8
AM_0 外形線1
100
AcDbLine
 10
-45.70000000000003
 20
53.75
 30
0.0
 11
-45.70000000000003
 21
52.5
 31
0.0
  0
LINE
  5
594F
330
593C
100
AcDbEntity
  8
AM_0 外形線1
100
AcDbLine
 10
-53.29999999999995
 20
53.75
 30
0.0
 11
-53.29999999999995
 21
52.5
 31
0.0
  0
LINE
  5
5950
330
593C
100
AcDbEntity
  8
AM_0 外形線1
100
AcDbLine
 10
-56.0
 20
53.75
 30
0.0
 11
-56.0
 21
52.5
 31
0.0
  0
LINE
  5
5952
330
593C
100
AcDbEntity
  8
AM_0 外形線1
100
AcDbLine
 10
-52.79999999999995
 20
57.19999999999988
 30
0.0
 11
-46.20000000000003
 21
57.19999999999988
 31
0.0
  0
ARC
  5
5953
330
593C
100
AcDbEntity
  8
AM_0 外形線1
100
AcDbCircle
 10
-53.0
 20
64.0
 30
0.0
 40
3.0
100
AcDbArc
 50
90.0
 51
180.0
  0
LINE
  5
5954
330
593C
100
AcDbEntity
  8
AM_0 外形線1
100
AcDbLine
 10
-56.0
 20
53.75
 30
0.0
 11
-53.29999999999995
 21
53.75
 31
0.0
  0
LINE
  5
5955
330
593C
100
AcDbEntity
  8
AM_0 外形線1
100
AcDbLine
 10
-56.0
 20
64.0
 30
0.0
 11
-56.0
 21
53.75
 31
0.0
  0
ARC
  5
5956
330
593C
100
AcDbEntity
  8
AM_0 外形線1
100
AcDbCircle
 10
-52.79999999999995
 20
56.69999999999987
 30
0.0
 40
0.5
100
AcDbArc
 50
90.0
 51
180.0
  0
LINE
  5
5957
330
593C
100
AcDbEntity
  8
AM_0 外形線1
100
AcDbLine
 10
-53.29999999999995
 20
53.75
 30
0.0
 11
-53.29999999999995
 21
56.69999999999987
 31
0.0
  0
ARC
  5
5958
330
593C
100
AcDbEntity
  8
AM_0 外形線1
100
AcDbCircle
 10
-40.0
 20
59.49999999999983
 30
0.0
 40
1.0
100
AcDbArc
 50
0.0
 51
90.0
  0
LINE
  5
5959
330
593C
100
AcDbEntity
  8
AM_0 外形線1
100
AcDbLine
 10
-42.0
 20
60.5
 30
0.0
 11
-40.0
 21
60.5
 31
0.0
  0
ARC
  5
595A
330
593C
100
AcDbEntity
  8
AM_0 外形線1
100
AcDbCircle
 10
-42.0
 20
59.49999999999983
 30
0.0
 40
1.0
100
AcDbArc
 50
90.0
 51
180.0
  0
LINE
  5
595B
330
593C
100
AcDbEntity
  8
AM_0 外形線1
100
AcDbLine
 10
-43.0
 20
53.75
 30
0.0
 11
-43.0
 21
59.49999999999983
 31
0.0
  0
LINE
  5
595C
330
593C
100
AcDbEntity
  8
AM_0 外形線1
100
AcDbLine
 10
-45.70000000000003
 20
53.75
 30
0.0
 11
-43.0
 21
53.75
 31
0.0
  0
LINE
  5
595D
330
593C
100
AcDbEntity
  8
AM_0 外形線1
100
AcDbLine
 10
-45.70000000000003
 20
56.69999999999987
 30
0.0
 11
-45.70000000000003
 21
53.75
 31
0.0
  0
ARC
  5
595E
330
593C
100
AcDbEntity
  8
AM_0 外形線1
100
AcDbCircle
 10
-46.20000000000003
 20
56.69999999999987
 30
0.0
 40
0.5
100
AcDbArc
 50
0.0
 51
90.0
  0
LINE
  5
595F
330
593C
100
AcDbEntity
  8
AM_3 隠れ線
100
AcDbLine
 10
-39.0
 20
58.881321
 30
0.0
 11
-39.0
 21
57.39999999999986
 31
0.0
  0
LINE
  5
5960
330
593C
100
AcDbEntity
  8
AM_3 隠れ線
100
AcDbLine
 10
-39.0
 20
57.39999999999986
 30
0.0
 11
-38.0
 21
56.39999999999986
 31
0.0
  0
LINE
  5
5961
330
593C
100
AcDbEntity
  8
AM_0 外形線1
100
AcDbLine
 10
-39.0
 20
58.881321
 30
0.0
 11
-39.0
 21
59.49999999999983
 31
0.0
  0
LINE
  5
5962
330
593C
100
AcDbEntity
  8
AM_0 外形線1
100
AcDbLine
 10
-15.0
 20
77.0
 30
0.0
 11
-15.0
 21
70.0
 31
0.0
  0
LINE
  5
5963
330
593C
100
AcDbEntity
  8
AM_0 外形線1
100
AcDbLine
 10
-15.0
 20
74.0
 30
0.0
 11
-15.0
 21
89.0
 31
0.0
  0
LINE
  5
5964
330
593C
100
AcDbEntity
  8
AM_0 外形線1
100
AcDbLine
 10
-15.0
 20
60.5
 30
0.0
 11
-4.0
 21
60.5
 31
0.0
  0
ARC
  5
5965
330
593C
100
AcDbEntity
  8
AM_0 外形線1
100
AcDbCircle
 10
-18.0
 20
70.0
 30
0.0
 40
3.0
100
AcDbArc
 50
270.0
 51
0.0
  0
LINE
  5
5966
330
593C
100
AcDbEntity
  8
AM_0 外形線1
100
AcDbLine
 10
-19.0
 20
56.39999999999986
 30
0.0
 11
-17.0
 21
56.39999999999986
 31
0.0
  0
ARC
  5
5967
330
593C
100
AcDbEntity
  8
AM_0 外形線1
100
AcDbCircle
 10
-15.0
 20
59.49999999999983
 30
0.0
 40
1.0
100
AcDbArc
 50
90.0
 51
180.0
  0
LINE
  5
5968
330
593C
100
AcDbEntity
  8
AM_0 外形線1
100
AcDbLine
 10
-16.0
 20
57.39999999999986
 30
0.0
 11
-16.0
 21
59.49999999999983
 31
0.0
  0
LINE
  5
5969
330
593C
100
AcDbEntity
  8
AM_0 外形線1
100
AcDbLine
 10
-17.0
 20
56.39999999999986
 30
0.0
 11
-16.0
 21
57.39999999999986
 31
0.0
  0
LINE
  5
596A
330
593C
100
AcDbEntity
  8
AM_0 外形線1
100
AcDbLine
 10
-16.0
 20
57.39999999999986
 30
0.0
 11
-16.0
 21
54.31704200000002
 31
0.0
  0
LINE
  5
596B
330
593C
100
AcDbEntity
  8
AM_0 外形線1
100
AcDbLine
 10
-4.0
 20
60.5
 30
0.0
 11
-4.0
 21
65.0
 31
0.0
  0
LINE
  5
596C
330
593C
100
AcDbEntity
  8
AM_0 外形線1
100
AcDbLine
 10
-4.0
 20
60.5
 30
0.0
 11
-4.0
 21
56.0
 31
0.0
  0
LINE
  5
596D
330
593C
100
AcDbEntity
  8
AM_0 外形線1
100
AcDbLine
 10
-0.4999999999997728
 20
65.0
 30
0.0
 11
0.0
 21
65.5
 31
0.0
  0
LINE
  5
596E
330
593C
100
AcDbEntity
  8
AM_0 外形線1
100
AcDbLine
 10
-4.0
 20
65.0
 30
0.0
 11
-0.4999999999997728
 21
65.0
 31
0.0
  0
LINE
  5
596F
330
593C
100
AcDbEntity
  8
AM_0 外形線1
100
AcDbLine
 10
0.0
 20
77.0
 30
0.0
 11
-15.0
 21
77.0
 31
0.0
  0
LINE
  5
5970
330
593C
100
AcDbEntity
  8
AM_0 外形線1
100
AcDbLine
 10
-14.5
 20
90.0
 30
0.0
 11
-15.0
 21
89.50000000000001
 31
0.0
  0
LINE
  5
5971
330
593C
100
AcDbEntity
  8
AM_0 外形線1
100
AcDbLine
 10
-15.0
 20
89.50000000000001
 30
0.0
 11
-15.0
 21
86.0
 31
0.0
  0
LINE
  5
5972
330
593C
100
AcDbEntity
  8
AM_0 外形線1
100
AcDbLine
 10
-0.4999999999997728
 20
90.0
 30
0.0
 11
-14.5
 21
90.0
 31
0.0
  0
LINE
  5
5973
330
593C
100
AcDbEntity
  8
AM_0 外形線1
100
AcDbLine
 10
0.0
 20
89.50000000000001
 30
0.0
 11
-0.4999999999997728
 21
90.0
 31
0.0
  0
LINE
  5
5A0E
330
593C
100
AcDbEntity
  8
AM_0 外形線1
100
AcDbLine
 10
0.0
 20
89.50000000000001
 30
0.0
 11
0.0
 21
86.0
 31
0.0
  0
LINE
  5
5A0F
330
593C
100
AcDbEntity
  8
AM_0 外形線1
100
AcDbLine
 10
0.0
 20
-89.50000000000001
 30
0.0
 11
0.0
 21
0.0
 31
0.0
  0
LINE
  5
5A10
330
593C
100
AcDbEntity
  8
AM_0 外形線1
100
AcDbLine
 10
0.0
 20
86.0
 30
0.0
 11
-15.0
 21
86.0
 31
0.0
  0
LINE
  5
5A11
330
593C
100
AcDbEntity
  8
AM_0 外形線1
100
AcDbLine
 10
0.0
 20
76.99999999999993
 30
0.0
 11
0.0
 21
65.5
 31
0.0
  0
ENDBLK
  5
593E
330
593C
100
AcDbEntity
  8
0
100
AcDbBlockEnd
  0
BLOCK
  5
5A80
330
5A7F
100
AcDbEntity
  8
0
100
AcDbBlockBegin
  2
センタＡ SSM180
 70
     0
 10
0.0
 20
0.0
 30
0.0
  3
センタＡ SSM180
  1

  0
LINE
  5
5A82
330
5A7F
100
AcDbEntity
  8
AM_0 外形線1
100
AcDbLine
 10
0.0
 20
52.0
 30
0.0
 11
0.0
 21
0.0
 31
0.0
  0
LINE
  5
5A83
330
5A7F
100
AcDbEntity
  8
AM_0 外形線1
100
AcDbLine
 10
90.0
 20
-48.89999999999997
 30
0.0
 11
90.0
 21
48.89999999999986
 31
0.0
  0
LINE
  5
5A84
330
5A7F
100
AcDbEntity
  8
AM_0 外形線1
100
AcDbLine
 10
62.0
 20
-51.89999999999997
 30
0.0
 11
62.0
 21
0.0
 31
0.0
  0
LINE
  5
5A85
330
5A7F
100
AcDbEntity
  8
AM_0 外形線1
100
AcDbLine
 10
60.0
 20
-52.50000000000007
 30
0.0
 11
60.0
 21
0.0
 31
0.0
  0
LINE
  5
5A86
330
5A7F
100
AcDbEntity
  8
AM_0 外形線1
100
AcDbLine
 10
62.0
 20
-51.89999999999997
 30
0.0
 11
87.0
 21
-51.89999999999997
 31
0.0
  0
LINE
  5
5A87
330
5A7F
100
AcDbEntity
  8
AM_0 外形線1
100
AcDbLine
 10
51.0
 20
-52.50000000000007
 30
0.0
 11
60.0
 21
-52.50000000000007
 31
0.0
  0
LINE
  5
5A88
330
5A7F
100
AcDbEntity
  8
AM_0 外形線1
100
AcDbLine
 10
60.0
 20
-52.50000000000007
 30
0.0
 11
62.0
 21
-51.89999999999997
 31
0.0
  0
ARC
  5
5A89
330
5A7F
100
AcDbEntity
  8
AM_0 外形線1
100
AcDbCircle
 10
87.0
 20
-48.89999999999997
 30
0.0
 40
3.0
100
AcDbArc
 50
270.0
 51
0.0
  0
ARC
  5
5A8B
330
5A7F
100
AcDbEntity
  8
AM_0 外形線1
100
AcDbCircle
 10
23.0
 20
0.0
 30
0.0
 40
59.9
100
AcDbArc
 50
79.41818299999567
 51
97.6751240000005
  0
LINE
  5
5A8D
330
5A7F
100
AcDbEntity
  8
AM_0 外形線1
100
AcDbLine
 10
14.0
 20
58.22001399999999
 30
0.0
 11
14.0
 21
53.0
 31
0.0
  0
LINE
  5
5A8E
330
5A7F
100
AcDbEntity
  8
AM_7 中心線
100
AcDbLine
 10
23.0
 20
64.89999999999986
 30
0.0
 11
23.0
 21
50.80000000000001
 31
0.0
  0
LINE
  5
5A8F
330
5A7F
100
AcDbEntity
  8
AM_0 外形線1
100
AcDbLine
 10
13.5
 20
52.5
 30
0.0
 11
0.5
 21
52.5
 31
0.0
  0
LINE
  5
5A90
330
5A7F
100
AcDbEntity
  8
AM_0 外形線1
100
AcDbLine
 10
0.5
 20
52.5
 30
0.0
 11
0.0
 21
52.0
 31
0.0
  0
ARC
  5
5A91
330
5A7F
100
AcDbEntity
  8
AM_0 外形線1
100
AcDbCircle
 10
13.5
 20
53.0
 30
0.0
 40
0.5
100
AcDbArc
 50
270.0
 51
0.0
  0
LINE
  5
5A92
330
5A7F
100
AcDbEntity
  8
AM_0 外形線1
100
AcDbLine
 10
15.0
 20
59.36337300000001
 30
0.0
 11
14.0
 21
58.22001399999999
 31
0.0
  0
LINE
  5
5A93
330
5A7F
100
AcDbEntity
  8
AM_0 外形線1
100
AcDbLine
 10
87.0
 20
51.89999999999987
 30
0.0
 11
62.0
 21
51.89999999999987
 31
0.0
  0
LINE
  5
5A94
330
5A7F
100
AcDbEntity
  8
AM_0 外形線1
100
AcDbLine
 10
35.0
 20
53.0
 30
0.0
 11
35.0
 21
57.68568799999986
 31
0.0
  0
LINE
  5
5A95
330
5A7F
100
AcDbEntity
  8
AM_0 外形線1
100
AcDbLine
 10
60.0
 20
52.5
 30
0.0
 11
35.5
 21
52.5
 31
0.0
  0
ARC
  5
5A96
330
5A7F
100
AcDbEntity
  8
AM_0 外形線1
100
AcDbCircle
 10
35.5
 20
53.0
 30
0.0
 40
0.5
100
AcDbArc
 50
180.0
 51
270.0
  0
LINE
  5
5A97
330
5A7F
100
AcDbEntity
  8
AM_0 外形線1
100
AcDbLine
 10
62.0
 20
51.89999999999987
 30
0.0
 11
60.0
 21
52.5
 31
0.0
  0
LINE
  5
5A98
330
5A7F
100
AcDbEntity
  8
AM_0 外形線1
100
AcDbLine
 10
35.0
 20
57.68568799999986
 30
0.0
 11
34.0
 21
58.881321
 31
0.0
  0
ARC
  5
5A99
330
5A7F
100
AcDbEntity
  8
AM_0 外形線1
100
AcDbCircle
 10
87.0
 20
48.89999999999986
 30
0.0
 40
3.0
100
AcDbArc
 50
0.0
 51
90.0
  0
LINE
  5
5A9B
330
5A7F
100
AcDbEntity
  8
AM_0 外形線1
100
AcDbLine
 10
0.0000000000000568
 20
27.49999999999995
 30
0.0
 11
90.0
 21
27.49999999999989
 31
0.0
  0
ARC
  5
8AA8
330
5A7F
100
AcDbEntity
  8
AM_7 中心線
100
AcDbCircle
 10
23.0
 20
0.0
 30
0.0
 40
58.0
100
AcDbArc
 50
75.01176551769827
 51
101.9405439606113
  0
ARC
  5
8C1B
330
5A7F
100
AcDbEntity
  8
AM_0 外形線1
100
AcDbCircle
 10
23.0
 20
0.0
 30
0.0
 40
55.80000000000001
100
AcDbArc
 50
77.58131849418262
 51
99.28179908667893
  0
ENDBLK
  5
5A81
330
5A7F
100
AcDbEntity
  8
0
100
AcDbBlockEnd
  0
BLOCK
  5
5B49
330
5B48
100
AcDbEntity
  8
0
100
AcDbBlockBegin
  2
センタＢ SSM180
 70
     0
 10
0.0
 20
0.0
 30
0.0
  3
センタＢ SSM180
  1

  0
ARC
  5
5B4C
330
5B48
100
AcDbEntity
  8
AM_0 外形線1
100
AcDbCircle
 10
-23.0
 20
0.0
 30
0.0
 40
59.9
100
AcDbArc
 50
82.32487599999949
 51
100.5818170000043
  0
LINE
  5
5B4E
330
5B48
100
AcDbEntity
  8
AM_0 外形線1
100
AcDbLine
 10
-90.0
 20
-48.89999999999997
 30
0.0
 11
-90.0
 21
48.89999999999986
 31
0.0
  0
LINE
  5
5B4F
330
5B48
100
AcDbEntity
  8
AM_0 外形線1
100
AcDbLine
 10
-62.0
 20
-51.89999999999997
 30
0.0
 11
-62.0
 21
0.0
 31
0.0
  0
LINE
  5
5B50
330
5B48
100
AcDbEntity
  8
AM_0 外形線1
100
AcDbLine
 10
-60.0
 20
-52.50000000000007
 30
0.0
 11
-60.0
 21
0.0
 31
0.0
  0
LINE
  5
5B51
330
5B48
100
AcDbEntity
  8
AM_0 外形線1
100
AcDbLine
 10
-51.0
 20
-52.50000000000007
 30
0.0
 11
-60.0
 21
-52.50000000000007
 31
0.0
  0
LINE
  5
5B52
330
5B48
100
AcDbEntity
  8
AM_0 外形線1
100
AcDbLine
 10
-62.0
 20
-51.89999999999997
 30
0.0
 11
-87.0
 21
-51.89999999999997
 31
0.0
  0
ARC
  5
5B53
330
5B48
100
AcDbEntity
  8
AM_0 外形線1
100
AcDbCircle
 10
-87.0
 20
-48.89999999999997
 30
0.0
 40
3.0
100
AcDbArc
 50
180.0
 51
270.0
  0
LINE
  5
5B54
330
5B48
100
AcDbEntity
  8
AM_0 外形線1
100
AcDbLine
 10
-60.0
 20
-52.50000000000007
 30
0.0
 11
-62.0
 21
-51.89999999999997
 31
0.0
  0
LINE
  5
5B55
330
5B48
100
AcDbEntity
  8
AM_0 外形線1
100
AcDbLine
 10
-60.0
 20
52.5
 30
0.0
 11
-35.5
 21
52.5
 31
0.0
  0
LINE
  5
5B56
330
5B48
100
AcDbEntity
  8
AM_0 外形線1
100
AcDbLine
 10
-87.0
 20
51.89999999999987
 30
0.0
 11
-62.0
 21
51.89999999999987
 31
0.0
  0
ARC
  5
5B57
330
5B48
100
AcDbEntity
  8
AM_0 外形線1
100
AcDbCircle
 10
-87.0
 20
48.89999999999986
 30
0.0
 40
3.0
100
AcDbArc
 50
90.0
 51
180.0
  0
LINE
  5
5B58
330
5B48
100
AcDbEntity
  8
AM_0 外形線1
100
AcDbLine
 10
-62.0
 20
51.89999999999987
 30
0.0
 11
-60.0
 21
52.5
 31
0.0
  0
LINE
  5
5B59
330
5B48
100
AcDbEntity
  8
AM_0 外形線1
100
AcDbLine
 10
-35.0
 20
53.0
 30
0.0
 11
-35.0
 21
57.68568799999986
 31
0.0
  0
ARC
  5
5B5A
330
5B48
100
AcDbEntity
  8
AM_0 外形線1
100
AcDbCircle
 10
-35.5
 20
53.0
 30
0.0
 40
0.5
100
AcDbArc
 50
270.0
 51
0.0
  0
LINE
  5
5B5B
330
5B48
100
AcDbEntity
  8
AM_0 外形線1
100
AcDbLine
 10
-35.0
 20
57.68568799999986
 30
0.0
 11
-34.0
 21
58.881321
 31
0.0
  0
LINE
  5
5B5C
330
5B48
100
AcDbEntity
  8
AM_0 外形線1
100
AcDbLine
 10
0.0
 20
52.0
 30
0.0
 11
0.0
 21
0.0
 31
0.0
  0
LINE
  5
5B5D
330
5B48
100
AcDbEntity
  8
AM_0 外形線1
100
AcDbLine
 10
-14.0
 20
58.22001399999999
 30
0.0
 11
-14.0
 21
53.0
 31
0.0
  0
LINE
  5
5B5E
330
5B48
100
AcDbEntity
  8
AM_7 中心線
100
AcDbLine
 10
-23.0
 20
64.89999999999986
 30
0.0
 11
-23.0
 21
50.80000000000001
 31
0.0
  0
LINE
  5
5B5F
330
5B48
100
AcDbEntity
  8
AM_0 外形線1
100
AcDbLine
 10
-13.5
 20
52.5
 30
0.0
 11
-0.5
 21
52.5
 31
0.0
  0
ARC
  5
5B60
330
5B48
100
AcDbEntity
  8
AM_0 外形線1
100
AcDbCircle
 10
-13.5
 20
53.0
 30
0.0
 40
0.5
100
AcDbArc
 50
180.0
 51
270.0
  0
LINE
  5
5B62
330
5B48
100
AcDbEntity
  8
AM_0 外形線1
100
AcDbLine
 10
-0.5
 20
52.5
 30
0.0
 11
0.0
 21
52.0
 31
0.0
  0
LINE
  5
5B63
330
5B48
100
AcDbEntity
  8
AM_0 外形線1
100
AcDbLine
 10
-15.0
 20
59.36337300000001
 30
0.0
 11
-14.0
 21
58.22001399999999
 31
0.0
  0
LINE
  5
5B64
330
5B48
100
AcDbEntity
  8
AM_0 外形線1
100
AcDbLine
 10
-90.0
 20
27.5
 30
0.0
 11
0.0
 21
27.49999999999995
 31
0.0
  0
ARC
  5
8A6A
330
5B48
100
AcDbEntity
  8
AM_0 外形線1
100
AcDbCircle
 10
-23.0
 20
0.0
 30
0.0
 40
55.80000000000001
100
AcDbArc
 50
80.71820091332106
 51
102.4186815058173
  0
ARC
  5
8A85
330
5B48
100
AcDbEntity
  8
AM_7 中心線
100
AcDbCircle
 10
-23.0
 20
0.0
 30
0.0
 40
58.0
100
AcDbArc
 50
107.7685370306608
 51
107.8194661399601
  0
ARC
  5
8A86
330
5B48
100
AcDbEntity
  8
AM_7 中心線
100
AcDbCircle
 10
-23.0
 20
0.0
 30
0.0
 40
58.0
100
AcDbArc
 50
78.05945603939189
 51
104.9882344823048
  0
ENDBLK
  5
5B4A
330
5B48
100
AcDbEntity
  8
0
100
AcDbBlockEnd
  0
BLOCK
  5
60F8
330
60F7
100
AcDbEntity
  8
0
100
AcDbBlockBegin
  2
リーマボルト SSM180 M8
 70
     0
 10
0.0
 20
0.0
 30
0.0
  3
リーマボルト SSM180 M8
  1

  0
ARC
  5
60FA
330
60F7
100
AcDbEntity
  8
AM_0 外形線1
100
AcDbCircle
 10
35.1712120000002
 20
-5.626387999999963
 30
0.0
 40
3.328787999999998
100
AcDbArc
 50
325.7468129999991
 51
34.25318700000094
  0
LINE
  5
60FB
330
60F7
100
AcDbEntity
  8
AM_0 外形線1
100
AcDbLine
 10
32.0
 20
-7.5
 30
0.0
 11
32.0
 21
7.700000000000045
 31
0.0
  0
LINE
  5
60FC
330
60F7
100
AcDbEntity
  8
AM_0 外形線1
100
AcDbLine
 10
38.5
 20
6.5
 30
0.0
 11
38.5
 21
-6.5
 31
0.0
  0
ARC
  5
60FD
330
60F7
100
AcDbEntity
  8
AM_0 外形線1
100
AcDbCircle
 10
-2.171211999999968
 20
-5.626387999999963
 30
0.0
 40
3.328787999999998
100
AcDbArc
 50
145.746812999999
 51
214.2531870000009
  0
LINE
  5
60FE
330
60F7
100
AcDbEntity
  8
AM_0 外形線1
100
AcDbLine
 10
-5.49999999999977
 20
6.5
 30
0.0
 11
-5.49999999999977
 21
-6.5
 31
0.0
  0
LINE
  5
60FF
330
60F7
100
AcDbEntity
  8
AM_0 外形線1
100
AcDbLine
 10
-4.922649999999747
 20
-7.5
 30
0.0
 11
0.0
 21
-7.5
 31
0.0
  0
LINE
  5
6100
330
60F7
100
AcDbEntity
  8
AM_0 外形線1
100
AcDbLine
 10
-5.49999999999977
 20
-6.5
 30
0.0
 11
-4.922649999999747
 21
-7.5
 31
0.0
  0
LINE
  5
6101
330
60F7
100
AcDbEntity
  8
AM_0 外形線1
100
AcDbLine
 10
37.92264999999998
 20
-7.5
 30
0.0
 11
32.0
 21
-7.5
 31
0.0
  0
LINE
  5
6102
330
60F7
100
AcDbEntity
  8
AM_0 外形線1
100
AcDbLine
 10
32.0
 20
-7.699999999999986
 30
0.0
 11
32.0
 21
-7.5
 31
0.0
  0
LINE
  5
6103
330
60F7
100
AcDbEntity
  8
AM_0 外形線1
100
AcDbLine
 10
30.0
 20
-7.699999999999986
 30
0.0
 11
32.0
 21
-7.699999999999986
 31
0.0
  0
LINE
  5
6104
330
60F7
100
AcDbEntity
  8
AM_0 外形線1
100
AcDbLine
 10
38.5
 20
-6.5
 30
0.0
 11
37.92264999999998
 21
-7.5
 31
0.0
  0
LINE
  5
6105
330
60F7
100
AcDbEntity
  8
AM_0 外形線1
100
AcDbLine
 10
24.0
 20
-4.5
 30
0.0
 11
1.5
 21
-4.5
 31
0.0
  0
ARC
  5
6106
330
60F7
100
AcDbEntity
  8
AM_0 外形線1
100
AcDbCircle
 10
0.5
 20
-4.5
 30
0.0
 40
0.5
100
AcDbArc
 50
90.0
 51
180.0
  0
ARC
  5
6107
330
60F7
100
AcDbEntity
  8
AM_0 外形線1
100
AcDbCircle
 10
0.5
 20
4.5
 30
0.0
 40
0.5
100
AcDbArc
 50
180.0
 51
270.0
  0
ARC
  5
6108
330
60F7
100
AcDbEntity
  8
AM_0 外形線1
100
AcDbCircle
 10
-2.171211999999968
 20
5.626387999999906
 30
0.0
 40
3.328787999999998
100
AcDbArc
 50
145.746812999999
 51
214.2531870000009
  0
ARC
  5
6109
330
60F7
100
AcDbEntity
  8
AM_0 外形線1
100
AcDbCircle
 10
6.985200000000077
 20
0.0
 30
0.0
 40
12.4852
100
AcDbArc
 50
162.5076750000006
 51
197.4923249999993
  0
LINE
  5
610A
330
60F7
100
AcDbEntity
  8
AM_0 外形線1
100
AcDbLine
 10
0.0
 20
-3.752776999999979
 30
0.0
 11
-4.922649999999747
 21
-3.752776999999979
 31
0.0
  0
LINE
  5
610B
330
60F7
100
AcDbEntity
  8
AM_0 外形線1
100
AcDbLine
 10
0.0
 20
3.752776999999923
 30
0.0
 11
-4.922649999999747
 21
3.752776999999923
 31
0.0
  0
LINE
  5
610C
330
60F7
100
AcDbEntity
  8
AM_0 外形線1
100
AcDbLine
 10
-4.922649999999747
 20
7.5
 30
0.0
 11
-5.49999999999977
 21
6.5
 31
0.0
  0
LINE
  5
610D
330
60F7
100
AcDbEntity
  8
AM_0 外形線1
100
AcDbLine
 10
0.0
 20
7.5
 30
0.0
 11
-4.922649999999747
 21
7.5
 31
0.0
  0
LINE
  5
610E
330
60F7
100
AcDbEntity
  8
AM_0 外形線1
100
AcDbLine
 10
1.5
 20
-4.5
 30
0.0
 11
1.5
 21
4.5
 31
0.0
  0
ARC
  5
610F
330
60F7
100
AcDbEntity
  8
AM_0 外形線1
100
AcDbCircle
 10
1.0
 20
-4.5
 30
0.0
 40
0.5
100
AcDbArc
 50
0.0
 51
90.0
  0
LINE
  5
6110
330
60F7
100
AcDbEntity
  8
AM_0 外形線1
100
AcDbLine
 10
0.5
 20
-4.0
 30
0.0
 11
1.0
 21
-4.0
 31
0.0
  0
ARC
  5
6111
330
60F7
100
AcDbEntity
  8
AM_0 外形線1
100
AcDbCircle
 10
1.0
 20
4.5
 30
0.0
 40
0.5
100
AcDbArc
 50
270.0
 51
0.0
  0
LINE
  5
6112
330
60F7
100
AcDbEntity
  8
AM_0 外形線1
100
AcDbLine
 10
0.5
 20
4.0
 30
0.0
 11
1.0
 21
4.0
 31
0.0
  0
LINE
  5
6113
330
60F7
100
AcDbEntity
  8
AM_0 外形線1
100
AcDbLine
 10
32.0
 20
-3.752776999999979
 30
0.0
 11
37.92264999999998
 21
-3.752776999999979
 31
0.0
  0
LINE
  5
6114
330
60F7
100
AcDbEntity
  8
AM_0 外形線1
100
AcDbLine
 10
32.0
 20
3.752776999999923
 30
0.0
 11
37.92264999999998
 21
3.752776999999923
 31
0.0
  0
LINE
  5
6115
330
60F7
100
AcDbEntity
  8
AM_0 外形線1
100
AcDbLine
 10
32.0
 20
7.5
 30
0.0
 11
37.92264999999998
 21
7.5
 31
0.0
  0
LINE
  5
6116
330
60F7
100
AcDbEntity
  8
AM_0 外形線1
100
AcDbLine
 10
25.0
 20
-3.922649999999975
 30
0.0
 11
24.0
 21
-4.5
 31
0.0
  0
LINE
  5
6117
330
60F7
100
AcDbEntity
  8
AM_0 外形線1
100
AcDbLine
 10
24.0
 20
4.5
 30
0.0
 11
25.0
 21
3.922649999999975
 31
0.0
  0
LINE
  5
6118
330
60F7
100
AcDbEntity
  8
AM_0 外形線1
100
AcDbLine
 10
24.0
 20
4.5
 30
0.0
 11
24.0
 21
-4.5
 31
0.0
  0
LINE
  5
6119
330
60F7
100
AcDbEntity
  8
AM_0 外形線1
100
AcDbLine
 10
25.0
 20
-3.922649999999975
 30
0.0
 11
30.0
 21
-3.922649999999975
 31
0.0
  0
LINE
  5
611A
330
60F7
100
AcDbEntity
  8
AM_0 外形線1
100
AcDbLine
 10
25.0
 20
3.922649999999975
 30
0.0
 11
30.0
 21
3.922649999999975
 31
0.0
  0
LINE
  5
611B
330
60F7
100
AcDbEntity
  8
AM_0 外形線1
100
AcDbLine
 10
32.0
 20
0.6666669999999613
 30
0.0
 11
30.0
 21
-1.333332999999981
 31
0.0
  0
LINE
  5
611C
330
60F7
100
AcDbEntity
  8
AM_0 外形線1
100
AcDbLine
 10
32.0
 20
1.333333000000038
 30
0.0
 11
30.0
 21
-0.6666670000001318
 31
0.0
  0
LINE
  5
611D
330
60F7
100
AcDbEntity
  8
AM_0 外形線1
100
AcDbLine
 10
25.0
 20
3.922649999999975
 30
0.0
 11
25.0
 21
-3.922649999999975
 31
0.0
  0
ARC
  5
611E
330
60F7
100
AcDbEntity
  8
AM_0 外形線1
100
AcDbCircle
 10
35.1712120000002
 20
5.626387999999906
 30
0.0
 40
3.328787999999998
100
AcDbArc
 50
325.7468129999991
 51
34.25318700000094
  0
LINE
  5
611F
330
60F7
100
AcDbEntity
  8
AM_4 細線
100
AcDbLine
 10
38.5
 20
-3.37500000000017
 30
0.0
 11
41.625
 21
-3.37500000000017
 31
0.0
  0
LINE
  5
6120
330
60F7
100
AcDbEntity
  8
AM_4 細線
100
AcDbLine
 10
38.5
 20
3.374999999999771
 30
0.0
 11
41.625
 21
3.374999999999771
 31
0.0
  0
LINE
  5
6121
330
60F7
100
AcDbEntity
  8
AM_0 外形線1
100
AcDbLine
 10
42.0
 20
-3.00000000000017
 30
0.0
 11
41.0
 21
-4.0
 31
0.0
  0
LINE
  5
6122
330
60F7
100
AcDbEntity
  8
AM_0 外形線1
100
AcDbLine
 10
41.0
 20
4.0
 30
0.0
 11
42.0
 21
3.0
 31
0.0
  0
LINE
  5
6123
330
60F7
100
AcDbEntity
  8
AM_0 外形線1
100
AcDbLine
 10
41.0
 20
4.0
 30
0.0
 11
41.0
 21
-4.0
 31
0.0
  0
LINE
  5
6124
330
60F7
100
AcDbEntity
  8
AM_0 外形線1
100
AcDbLine
 10
41.0
 20
-4.0
 30
0.0
 11
38.5
 21
-4.0
 31
0.0
  0
LINE
  5
6125
330
60F7
100
AcDbEntity
  8
AM_0 外形線1
100
AcDbLine
 10
38.5
 20
4.0
 30
0.0
 11
41.0
 21
4.0
 31
0.0
  0
ARC
  5
6126
330
60F7
100
AcDbEntity
  8
AM_0 外形線1
100
AcDbCircle
 10
26.01479999999992
 20
0.0
 30
0.0
 40
12.4852
100
AcDbArc
 50
342.5076750000007
 51
17.49232499999933
  0
LINE
  5
6127
330
60F7
100
AcDbEntity
  8
AM_0 外形線1
100
AcDbLine
 10
42.0
 20
3.0
 30
0.0
 11
42.0
 21
-3.00000000000017
 31
0.0
  0
LINE
  5
6195
330
60F7
100
AcDbEntity
  8
AM_0 外形線1
100
AcDbLine
 10
0.0
 20
7.5
 30
0.0
 11
0.0
 21
-7.500000000000056
 31
0.0
  0
LINE
  5
6196
330
60F7
100
AcDbEntity
  8
AM_0 外形線1
100
AcDbLine
 10
24.0
 20
4.5
 30
0.0
 11
1.5
 21
4.5
 31
0.0
  0
LINE
  5
6197
330
60F7
100
AcDbEntity
  8
AM_0 外形線1
100
AcDbLine
 10
30.0
 20
7.700000000000045
 30
0.0
 11
32.0
 21
7.700000000000045
 31
0.0
  0
LINE
  5
6198
330
60F7
100
AcDbEntity
  8
AM_0 外形線1
100
AcDbLine
 10
30.0
 20
-7.699999999999986
 30
0.0
 11
30.0
 21
7.700000000000045
 31
0.0
  0
LINE
  5
6199
330
60F7
100
AcDbEntity
  8
AM_0 外形線1
100
AcDbLine
 10
37.92264999999998
 20
7.5
 30
0.0
 11
38.5
 21
6.5
 31
0.0
  0
ENDBLK
  5
60F9
330
60F7
100
AcDbEntity
  8
0
100
AcDbBlockEnd
  0
BLOCK
  5
6EAF
330
6EAE
100
AcDbEntity
  8
0
100
AcDbBlockBegin
  2
*D12
 70
     1
 10
0.0
 20
0.0
 30
0.0
  3
*D12
  1

  0
LINE
  5
6EDD
330
6EAE
100
AcDbEntity
  8
AM_5 寸法線
 62
     3
100
AcDbLine
 10
321.7014955364155
 20
483.5338846773353
 30
0.0
 11
252.3161988815807
 21
483.5338846773353
 31
0.0
  0
LINE
  5
6EDE
330
6EAE
100
AcDbEntity
  8
AM_5 寸法線
 62
     3
100
AcDbLine
 10
321.7014955364155
 20
378.5338846773354
 30
0.0
 11
252.3161988815806
 21
378.5338846773354
 31
0.0
  0
LINE
  5
6EDF
330
6EAE
100
AcDbEntity
  8
AM_5 寸法線
 62
     3
100
AcDbLine
 10
253.5661988815807
 20
478.5338846773353
 30
0.0
 11
253.5661988815807
 21
383.5338846773354
 31
0.0
  0
INSERT
  5
6EE0
330
6EAE
100
AcDbEntity
  8
AM_5 寸法線
 62
     3
100
AcDbBlockReference
  2
_Open30
 10
253.5661988815807
 20
483.5338846773353
 30
0.0
 41
5.0
 42
5.0
 43
5.0
 50
90.0
  0
INSERT
  5
6EE1
330
6EAE
100
AcDbEntity
  8
AM_5 寸法線
 62
     3
100
AcDbBlockReference
  2
_Open30
 10
253.5661988815807
 20
378.5338846773354
 30
0.0
 41
5.0
 42
5.0
 43
5.0
 50
270.0
  0
MTEXT
  5
6EE2
330
6EAE
100
AcDbEntity
  8
AM_5 寸法線
 62
     3
100
AcDbMText
 10
247.0661988815806
 20
434.3685832157091
 30
0.0
 40
7.0
 41
0.0
 46
0.0
 71
     5
 72
     1
  1
%%c105
  7
SEISA
 11
0.0000000000000001
 21
1.0
 31
0.0
 73
     1
 44
1.0
  0
POINT
  5
6EE3
330
6EAE
100
AcDbEntity
  8
Defpoints
 62
     0
100
AcDbPoint
 10
322.9514955364154
 20
483.5338846773353
 30
0.0
  0
POINT
  5
6EE4
330
6EAE
100
AcDbEntity
  8
Defpoints
 62
     0
100
AcDbPoint
 10
322.9514955364154
 20
378.5338846773354
 30
0.0
  0
POINT
  5
6EE5
330
6EAE
100
AcDbEntity
  8
Defpoints
 62
     0
100
AcDbPoint
 10
253.5661988815807
 20
378.5338846773354
 30
0.0
  0
ENDBLK
  5
6EB0
330
6EAE
100
AcDbEntity
  8
0
100
AcDbBlockEnd
  0
BLOCK
  5
6EF7
330
6EF6
100
AcDbEntity
  8
0
100
AcDbBlockBegin
  2
*D13
 70
     1
 10
0.0
 20
0.0
 30
0.0
  3
*D13
  1

  0
LINE
  5
6F1C
330
6EF6
100
AcDbEntity
  8
AM_5 寸法線
 62
     3
100
AcDbLine
 10
344.9514955364155
 20
482.2838846773353
 30
0.0
 11
344.9514955364155
 21
467.4795010814466
 31
0.0
  0
LINE
  5
6F1D
330
6EF6
100
AcDbEntity
  8
AM_5 寸法線
 62
     3
100
AcDbLine
 10
347.9514955364154
 20
482.7838846773353
 30
0.0
 11
347.9514955364154
 21
467.4795010814466
 31
0.0
  0
LINE
  5
6F1E
330
6EF6
100
AcDbEntity
  8
AM_5 寸法線
 62
     3
100
AcDbLine
 10
352.9514955364155
 20
468.7295010814465
 30
0.0
 11
357.9514955364154
 21
468.7295010814465
 31
0.0
  0
LINE
  5
6F1F
330
6EF6
100
AcDbEntity
  8
AM_5 寸法線
 62
     3
100
AcDbLine
 10
339.9514955364154
 20
468.7295010814465
 30
0.0
 11
324.7514955364155
 21
468.7295010814465
 31
0.0
  0
LINE
  5
6F20
330
6EF6
100
AcDbEntity
  8
AM_5 寸法線
 62
     3
100
AcDbLine
 10
347.9514955364154
 20
468.7295010814465
 30
0.0
 11
344.9514955364155
 21
468.7295010814465
 31
0.0
  0
INSERT
  5
6F21
330
6EF6
100
AcDbEntity
  8
AM_5 寸法線
 62
     3
100
AcDbBlockReference
  2
_Open30
 10
347.9514955364154
 20
468.7295010814465
 30
0.0
 41
5.0
 42
5.0
 43
5.0
 50
180.0
  0
INSERT
  5
6F22
330
6EF6
100
AcDbEntity
  8
AM_5 寸法線
 62
     3
100
AcDbBlockReference
  2
_Open30
 10
344.9514955364155
 20
468.7295010814465
 30
0.0
 41
5.0
 42
5.0
 43
5.0
  0
MTEXT
  5
6F23
330
6EF6
100
AcDbEntity
  8
AM_5 寸法線
 62
     3
100
AcDbMText
 10
329.8514955364154
 20
475.2295010814465
 30
0.0
 40
7.0
 41
0.0
 46
0.0
 71
     5
 72
     1
  1
3
  7
SEISA
 73
     1
 44
1.0
  0
POINT
  5
6F24
330
6EF6
100
AcDbEntity
  8
Defpoints
 62
     0
100
AcDbPoint
 10
344.9514955364155
 20
483.5338846773353
 30
0.0
  0
POINT
  5
6F25
102
{ACAD_REACTORS
330
8AD3
102
}
330
6EF6
100
AcDbEntity
  8
Defpoints
 62
     0
100
AcDbPoint
 10
347.9514955364154
 20
484.0338846773353
 30
0.0
  0
POINT
  5
6F26
330
6EF6
100
AcDbEntity
  8
Defpoints
 62
     0
100
AcDbPoint
 10
347.9514955364154
 20
468.7295010814465
 30
0.0
  0
ENDBLK
  5
6EF8
330
6EF6
100
AcDbEntity
  8
0
100
AcDbBlockEnd
  0
BLOCK
  5
6F5C
330
6F5B
100
AcDbEntity
  8
0
100
AcDbBlockBegin
  2
*D14
 70
     1
 10
0.0
 20
0.0
 30
0.0
  3
*D14
  1

  0
LINE
  5
6F68
330
6F5B
100
AcDbEntity
  8
AM_5 寸法線
 62
     3
100
AcDbLine
 10
292.9514955364155
 20
432.2838846773352
 30
0.0
 11
292.9514955364155
 21
443.0402737352248
 31
0.0
  0
LINE
  5
6F69
330
6F5B
100
AcDbEntity
  8
AM_5 寸法線
 62
     3
100
AcDbLine
 10
382.9514955364155
 20
432.2838846773353
 30
0.0
 11
382.9514955364155
 21
443.0402737352248
 31
0.0
  0
LINE
  5
6F6A
330
6F5B
100
AcDbEntity
  8
AM_5 寸法線
 62
     3
100
AcDbLine
 10
297.9514955364154
 20
441.7902737352248
 30
0.0
 11
377.9514955364155
 21
441.7902737352248
 31
0.0
  0
INSERT
  5
6F6B
330
6F5B
100
AcDbEntity
  8
AM_5 寸法線
 62
     3
100
AcDbBlockReference
  2
_Open30
 10
292.9514955364155
 20
441.7902737352248
 30
0.0
 41
5.0
 42
5.0
 43
5.0
 50
180.0
  0
INSERT
  5
6F6C
330
6F5B
100
AcDbEntity
  8
AM_5 寸法線
 62
     3
100
AcDbBlockReference
  2
_Open30
 10
382.9514955364155
 20
441.7902737352248
 30
0.0
 41
5.0
 42
5.0
 43
5.0
  0
MTEXT
  5
6F6D
330
6F5B
100
AcDbEntity
  8
AM_5 寸法線
 62
     3
100
AcDbMText
 10
337.9514955364154
 20
448.2902737352248
 30
0.0
 40
7.0
 41
0.0
 46
0.0
 71
     5
 72
     1
  1
90
  7
SEISA
 73
     1
 44
1.0
  0
POINT
  5
6F6E
330
6F5B
100
AcDbEntity
  8
Defpoints
 62
     0
100
AcDbPoint
 10
292.9514955364155
 20
431.0338846773354
 30
0.0
  0
POINT
  5
6F6F
330
6F5B
100
AcDbEntity
  8
Defpoints
 62
     0
100
AcDbPoint
 10
382.9514955364155
 20
431.0338846773354
 30
0.0
  0
POINT
  5
6F70
330
6F5B
100
AcDbEntity
  8
Defpoints
 62
     0
100
AcDbPoint
 10
382.9514955364155
 20
441.7902737352248
 30
0.0
  0
ENDBLK
  5
6F5D
330
6F5B
100
AcDbEntity
  8
0
100
AcDbBlockEnd
  0
BLOCK
  5
6F74
330
6F73
100
AcDbEntity
  8
0
100
AcDbBlockBegin
  2
*D15
 70
     1
 10
0.0
 20
0.0
 30
0.0
  3
*D15
  1

  0
LINE
  5
6FB1
330
6F73
100
AcDbEntity
  8
AM_5 寸法線
 62
     3
100
AcDbLine
 10
382.9514955364155
 20
432.2838846773353
 30
0.0
 11
382.9514955364155
 21
443.0402737352248
 31
0.0
  0
LINE
  5
6FB2
330
6F73
100
AcDbEntity
  8
AM_5 寸法線
 62
     3
100
AcDbLine
 10
392.9514955364154
 20
432.2838846773353
 30
0.0
 11
392.9514955364154
 21
443.0402737352248
 31
0.0
  0
LINE
  5
6FB3
330
6F73
100
AcDbEntity
  8
AM_5 寸法線
 62
     3
100
AcDbLine
 10
377.9514955364155
 20
441.7902737352248
 30
0.0
 11
372.9514955364154
 21
441.7902737352248
 31
0.0
  0
LINE
  5
6FB4
330
6F73
100
AcDbEntity
  8
AM_5 寸法線
 62
     3
100
AcDbLine
 10
397.9514955364154
 20
441.7902737352248
 30
0.0
 11
402.9514955364153
 21
441.7902737352248
 31
0.0
  0
MTEXT
  5
6FB5
330
6F73
100
AcDbEntity
  8
AM_5 寸法線
 62
     3
100
AcDbMText
 10
402.0036166942118
 20
448.1279429410621
 30
0.0
 40
7.0
 41
0.0
 46
0.0
 71
     5
 72
     1
  1
10
  7
SEISA
 73
     1
 44
1.0
  0
LINE
  5
6FB6
330
6F73
100
AcDbEntity
  8
AM_5 寸法線
 62
     3
100
AcDbLine
 10
382.9514955364155
 20
441.7902737352248
 30
0.0
 11
392.9514955364154
 21
441.7902737352248
 31
0.0
  0
INSERT
  5
6FB7
330
6F73
100
AcDbEntity
  8
AM_5 寸法線
 62
     3
100
AcDbBlockReference
  2
_Open30
 10
382.9514955364155
 20
441.7902737352248
 30
0.0
 41
5.0
 42
5.0
 43
5.0
  0
INSERT
  5
6FB8
330
6F73
100
AcDbEntity
  8
AM_5 寸法線
 62
     3
100
AcDbBlockReference
  2
_Open30
 10
392.9514955364154
 20
441.7902737352248
 30
0.0
 41
5.0
 42
5.0
 43
5.0
 50
180.0
  0
POINT
  5
6FB9
330
6F73
100
AcDbEntity
  8
Defpoints
 62
     0
100
AcDbPoint
 10
382.9514955364155
 20
431.0338846773354
 30
0.0
  0
POINT
  5
6FBA
330
6F73
100
AcDbEntity
  8
Defpoints
 62
     0
100
AcDbPoint
 10
392.9514955364154
 20
431.0338846773354
 30
0.0
  0
POINT
  5
6FBB
330
6F73
100
AcDbEntity
  8
Defpoints
 62
     0
100
AcDbPoint
 10
392.9514955364154
 20
441.7902737352248
 30
0.0
  0
ENDBLK
  5
6F75
330
6F73
100
AcDbEntity
  8
0
100
AcDbBlockEnd
  0
BLOCK
  5
6F90
330
6F8F
100
AcDbEntity
  8
0
100
AcDbBlockBegin
  2
*D16
 70
     1
 10
0.0
 20
0.0
 30
0.0
  3
*D16
  1

  0
LINE
  5
6F9C
330
6F8F
100
AcDbEntity
  8
AM_5 寸法線
 62
     3
100
AcDbLine
 10
392.9514955364155
 20
432.2838846773353
 30
0.0
 11
392.9514955364155
 21
443.0402737352248
 31
0.0
  0
LINE
  5
6F9D
330
6F8F
100
AcDbEntity
  8
AM_5 寸法線
 62
     3
100
AcDbLine
 10
482.9514955364153
 20
432.2838846773352
 30
0.0
 11
482.9514955364153
 21
443.0402737352248
 31
0.0
  0
LINE
  5
6F9E
330
6F8F
100
AcDbEntity
  8
AM_5 寸法線
 62
     3
100
AcDbLine
 10
397.9514955364154
 20
441.7902737352248
 30
0.0
 11
477.9514955364153
 21
441.7902737352248
 31
0.0
  0
INSERT
  5
6F9F
330
6F8F
100
AcDbEntity
  8
AM_5 寸法線
 62
     3
100
AcDbBlockReference
  2
_Open30
 10
392.9514955364155
 20
441.7902737352248
 30
0.0
 41
5.0
 42
5.0
 43
5.0
 50
180.0
  0
INSERT
  5
6FA0
330
6F8F
100
AcDbEntity
  8
AM_5 寸法線
 62
     3
100
AcDbBlockReference
  2
_Open30
 10
482.9514955364153
 20
441.7902737352248
 30
0.0
 41
5.0
 42
5.0
 43
5.0
  0
MTEXT
  5
6FA1
330
6F8F
100
AcDbEntity
  8
AM_5 寸法線
 62
     3
100
AcDbMText
 10
437.9514955364154
 20
448.2902737352248
 30
0.0
 40
7.0
 41
0.0
 46
0.0
 71
     5
 72
     1
  1
90
  7
SEISA
 73
     1
 44
1.0
  0
POINT
  5
6FA2
330
6F8F
100
AcDbEntity
  8
Defpoints
 62
     0
100
AcDbPoint
 10
392.9514955364155
 20
431.0338846773354
 30
0.0
  0
POINT
  5
6FA3
330
6F8F
100
AcDbEntity
  8
Defpoints
 62
     0
100
AcDbPoint
 10
482.9514955364153
 20
431.0338846773354
 30
0.0
  0
POINT
  5
6FA4
330
6F8F
100
AcDbEntity
  8
Defpoints
 62
     0
100
AcDbPoint
 10
482.9514955364153
 20
441.7902737352248
 30
0.0
  0
ENDBLK
  5
6F91
330
6F8F
100
AcDbEntity
  8
0
100
AcDbBlockEnd
  0
BLOCK
  5
7095
330
7094
100
AcDbEntity
  8
0
100
AcDbBlockBegin
  2
*D17
 70
     1
 10
0.0
 20
0.0
 30
0.0
  3
*D17
  1

  0
LINE
  5
70E4
330
7094
100
AcDbEntity
  8
AM_5 寸法線
 62
     3
100
AcDbLine
 10
454.2014955364154
 20
483.5338846773353
 30
0.0
 11
534.2014955364154
 21
483.5338846773353
 31
0.0
  0
LINE
  5
70E5
330
7094
100
AcDbEntity
  8
AM_5 寸法線
 62
     3
100
AcDbLine
 10
454.2014955364154
 20
378.5338846773354
 30
0.0
 11
534.2014955364154
 21
378.5338846773354
 31
0.0
  0
LINE
  5
70E6
330
7094
100
AcDbEntity
  8
AM_5 寸法線
 62
     3
100
AcDbLine
 10
532.9514955364154
 20
478.5338846773353
 30
0.0
 11
532.9514955364154
 21
383.5338846773354
 31
0.0
  0
INSERT
  5
70E7
330
7094
100
AcDbEntity
  8
AM_5 寸法線
 62
     3
100
AcDbBlockReference
  2
_Open30
 10
532.9514955364154
 20
483.5338846773353
 30
0.0
 41
5.0
 42
5.0
 43
5.0
 50
90.0
  0
INSERT
  5
70E8
330
7094
100
AcDbEntity
  8
AM_5 寸法線
 62
     3
100
AcDbBlockReference
  2
_Open30
 10
532.9514955364154
 20
378.5338846773354
 30
0.0
 41
5.0
 42
5.0
 43
5.0
 50
270.0
  0
MTEXT
  5
70E9
330
7094
100
AcDbEntity
  8
AM_5 寸法線
 62
     3
100
AcDbMText
 10
526.4514955364153
 20
431.0338846773355
 30
0.0
 40
7.0
 41
0.0
 46
0.0
 71
     5
 72
     1
  1
%%c105
  7
SEISA
 11
0.0000000000000001
 21
1.0
 31
0.0
 73
     1
 44
1.0
  0
POINT
  5
70EA
330
7094
100
AcDbEntity
  8
Defpoints
 62
     0
100
AcDbPoint
 10
452.9514955364153
 20
483.5338846773353
 30
0.0
  0
POINT
  5
70EB
330
7094
100
AcDbEntity
  8
Defpoints
 62
     0
100
AcDbPoint
 10
452.9514955364153
 20
378.5338846773354
 30
0.0
  0
POINT
  5
70EC
330
7094
100
AcDbEntity
  8
Defpoints
 62
     0
100
AcDbPoint
 10
532.9514955364154
 20
378.5338846773354
 30
0.0
  0
ENDBLK
  5
7096
330
7094
100
AcDbEntity
  8
0
100
AcDbBlockEnd
  0
BLOCK
  5
70AD
330
70AC
100
AcDbEntity
  8
0
100
AcDbBlockBegin
  2
*D18
 70
     1
 10
0.0
 20
0.0
 30
0.0
  3
*D18
  1

  0
LINE
  5
70F6
330
70AC
100
AcDbEntity
  8
AM_5 寸法線
 62
     3
100
AcDbLine
 10
442.2014955364153
 20
498.0338846773354
 30
0.0
 11
554.2014955364154
 21
498.0338846773354
 31
0.0
  0
LINE
  5
70F7
330
70AC
100
AcDbEntity
  8
AM_5 寸法線
 62
     3
100
AcDbLine
 10
442.2014955364153
 20
364.0338846773354
 30
0.0
 11
554.2014955364154
 21
364.0338846773354
 31
0.0
  0
LINE
  5
70F8
330
70AC
100
AcDbEntity
  8
AM_5 寸法線
 62
     3
100
AcDbLine
 10
552.9514955364154
 20
493.0338846773353
 30
0.0
 11
552.9514955364154
 21
369.0338846773354
 31
0.0
  0
INSERT
  5
70F9
330
70AC
100
AcDbEntity
  8
AM_5 寸法線
 62
     3
100
AcDbBlockReference
  2
_Open30
 10
552.9514955364154
 20
498.0338846773354
 30
0.0
 41
5.0
 42
5.0
 43
5.0
 50
90.0
  0
INSERT
  5
70FA
330
70AC
100
AcDbEntity
  8
AM_5 寸法線
 62
     3
100
AcDbBlockReference
  2
_Open30
 10
552.9514955364154
 20
364.0338846773354
 30
0.0
 41
5.0
 42
5.0
 43
5.0
 50
270.0
  0
MTEXT
  5
70FB
330
70AC
100
AcDbEntity
  8
AM_5 寸法線
 62
     3
100
AcDbMText
 10
546.4514955364154
 20
431.0338846773355
 30
0.0
 40
7.0
 41
0.0
 46
0.0
 71
     5
 72
     1
  1
%%c134
  7
SEISA
 11
0.0000000000000001
 21
1.0
 31
0.0
 73
     1
 44
1.0
  0
POINT
  5
70FC
330
70AC
100
AcDbEntity
  8
Defpoints
 62
     0
100
AcDbPoint
 10
440.9514955364153
 20
498.0338846773354
 30
0.0
  0
POINT
  5
70FD
330
70AC
100
AcDbEntity
  8
Defpoints
 62
     0
100
AcDbPoint
 10
440.9514955364153
 20
364.0338846773354
 30
0.0
  0
POINT
  5
70FE
330
70AC
100
AcDbEntity
  8
Defpoints
 62
     0
100
AcDbPoint
 10
552.9514955364154
 20
364.0338846773354
 30
0.0
  0
ENDBLK
  5
70AE
330
70AC
100
AcDbEntity
  8
0
100
AcDbBlockEnd
  0
BLOCK
  5
70C5
330
70C4
100
AcDbEntity
  8
0
100
AcDbBlockBegin
  2
*D19
 70
     1
 10
0.0
 20
0.0
 30
0.0
  3
*D19
  1

  0
LINE
  5
7108
330
70C4
100
AcDbEntity
  8
AM_5 寸法線
 62
     3
100
AcDbLine
 10
403.7014955364154
 20
521.0338846773352
 30
0.0
 11
574.2014955364156
 21
521.0338846773352
 31
0.0
  0
LINE
  5
7109
330
70C4
100
AcDbEntity
  8
AM_5 寸法線
 62
     3
100
AcDbLine
 10
403.7014955364154
 20
341.0338846773354
 30
0.0
 11
574.2014955364156
 21
341.0338846773354
 31
0.0
  0
LINE
  5
710A
330
70C4
100
AcDbEntity
  8
AM_5 寸法線
 62
     3
100
AcDbLine
 10
572.9514955364156
 20
516.0338846773353
 30
0.0
 11
572.9514955364156
 21
346.0338846773354
 31
0.0
  0
INSERT
  5
710B
330
70C4
100
AcDbEntity
  8
AM_5 寸法線
 62
     3
100
AcDbBlockReference
  2
_Open30
 10
572.9514955364156
 20
521.0338846773352
 30
0.0
 41
5.0
 42
5.0
 43
5.0
 50
90.0
  0
INSERT
  5
710C
330
70C4
100
AcDbEntity
  8
AM_5 寸法線
 62
     3
100
AcDbBlockReference
  2
_Open30
 10
572.9514955364156
 20
341.0338846773354
 30
0.0
 41
5.0
 42
5.0
 43
5.0
 50
270.0
  0
MTEXT
  5
710D
330
70C4
100
AcDbEntity
  8
AM_5 寸法線
 62
     3
100
AcDbMText
 10
566.4514955364154
 20
431.0338846773355
 30
0.0
 40
7.0
 41
0.0
 46
0.0
 71
     5
 72
     1
  1
%%c180
  7
SEISA
 11
0.0000000000000001
 21
1.0
 31
0.0
 73
     1
 44
1.0
  0
POINT
  5
710E
330
70C4
100
AcDbEntity
  8
Defpoints
 62
     0
100
AcDbPoint
 10
402.4514955364153
 20
521.0338846773352
 30
0.0
  0
POINT
  5
710F
330
70C4
100
AcDbEntity
  8
Defpoints
 62
     0
100
AcDbPoint
 10
402.4514955364153
 20
341.0338846773354
 30
0.0
  0
POINT
  5
7110
330
70C4
100
AcDbEntity
  8
Defpoints
 62
     0
100
AcDbPoint
 10
572.9514955364156
 20
341.0338846773354
 30
0.0
  0
ENDBLK
  5
70C6
330
70C4
100
AcDbEntity
  8
0
100
AcDbBlockEnd
  0
BLOCK
  5
7134
330
7133
100
AcDbEntity
  8
0
100
AcDbBlockBegin
  2
*D20
 70
     1
 10
0.0
 20
0.0
 30
0.0
  3
*D20
  1

  0
LINE
  5
8050
330
7133
100
AcDbEntity
  8
AM_5 寸法線
 62
     3
100
AcDbLine
 10
372.9514955364154
 20
340.2838846773355
 30
0.0
 11
372.9514955364154
 21
319.7838846773354
 31
0.0
  0
LINE
  5
8051
330
7133
100
AcDbEntity
  8
AM_5 寸法線
 62
     3
100
AcDbLine
 10
387.9514955364155
 20
340.2838846773355
 30
0.0
 11
387.9514955364155
 21
319.7838846773354
 31
0.0
  0
LINE
  5
8052
330
7133
100
AcDbEntity
  8
AM_5 寸法線
 62
     3
100
AcDbLine
 10
367.9514955364155
 20
321.0338846773354
 30
0.0
 11
362.9514955364154
 21
321.0338846773354
 31
0.0
  0
LINE
  5
8053
330
7133
100
AcDbEntity
  8
AM_5 寸法線
 62
     3
100
AcDbLine
 10
392.9514955364155
 20
321.0338846773354
 30
0.0
 11
397.9514955364154
 21
321.0338846773354
 31
0.0
  0
MTEXT
  5
8054
330
7133
100
AcDbEntity
  8
AM_5 寸法線
 62
     3
100
AcDbMText
 10
362.6461186927163
 20
325.8141440720601
 30
0.0
 40
7.0
 41
0.0
 46
0.0
 71
     5
 72
     1
  1
15
  7
SEISA
 73
     1
 44
1.0
  0
LINE
  5
8055
330
7133
100
AcDbEntity
  8
AM_5 寸法線
 62
     3
100
AcDbLine
 10
372.9514955364154
 20
321.0338846773354
 30
0.0
 11
387.9514955364155
 21
321.0338846773354
 31
0.0
  0
INSERT
  5
8056
330
7133
100
AcDbEntity
  8
AM_5 寸法線
 62
     3
100
AcDbBlockReference
  2
_Open30
 10
372.9514955364154
 20
321.0338846773354
 30
0.0
 41
5.0
 42
5.0
 43
5.0
  0
INSERT
  5
8057
330
7133
100
AcDbEntity
  8
AM_5 寸法線
 62
     3
100
AcDbBlockReference
  2
GENDOT
 10
387.9514955364155
 20
321.0338846773354
 30
0.0
 41
5.0
 42
5.0
 43
5.0
 50
180.0
  0
POINT
  5
8058
330
7133
100
AcDbEntity
  8
Defpoints
 62
     0
100
AcDbPoint
 10
372.9514955364154
 20
341.5338846773354
 30
0.0
  0
POINT
  5
8059
330
7133
100
AcDbEntity
  8
Defpoints
 62
     0
100
AcDbPoint
 10
387.9514955364155
 20
341.5338846773354
 30
0.0
  0
POINT
  5
805A
330
7133
100
AcDbEntity
  8
Defpoints
 62
     0
100
AcDbPoint
 10
387.9514955364155
 20
321.0338846773354
 30
0.0
  0
ENDBLK
  5
7135
330
7133
100
AcDbEntity
  8
0
100
AcDbBlockEnd
  0
BLOCK
  5
715B
330
715A
100
AcDbEntity
  8
0
100
AcDbBlockBegin
  2
*D21
 70
     1
 10
0.0
 20
0.0
 30
0.0
  3
*D21
  1

  0
LINE
  5
8024
330
715A
100
AcDbEntity
  8
AM_5 寸法線
 62
     3
100
AcDbLine
 10
387.9514955364155
 20
340.2838846773355
 30
0.0
 11
387.9514955364155
 21
319.7838846773354
 31
0.0
  0
LINE
  5
8025
330
715A
100
AcDbEntity
  8
AM_5 寸法線
 62
     3
100
AcDbLine
 10
402.9514955364153
 20
340.2838846773355
 30
0.0
 11
402.9514955364153
 21
319.7838846773354
 31
0.0
  0
LINE
  5
8026
330
715A
100
AcDbEntity
  8
AM_5 寸法線
 62
     3
100
AcDbLine
 10
382.9514955364155
 20
321.0338846773354
 30
0.0
 11
377.9514955364155
 21
321.0338846773354
 31
0.0
  0
LINE
  5
8027
330
715A
100
AcDbEntity
  8
AM_5 寸法線
 62
     3
100
AcDbLine
 10
407.9514955364153
 20
321.0338846773354
 30
0.0
 11
412.9514955364154
 21
321.0338846773354
 31
0.0
  0
MTEXT
  5
8028
330
715A
100
AcDbEntity
  8
AM_5 寸法線
 62
     3
100
AcDbMText
 10
413.2088917365766
 20
325.4324437587247
 30
0.0
 40
7.0
 41
0.0
 46
0.0
 71
     5
 72
     1
  1
15
  7
SEISA
 73
     1
 44
1.0
  0
LINE
  5
8029
330
715A
100
AcDbEntity
  8
AM_5 寸法線
 62
     3
100
AcDbLine
 10
387.9514955364155
 20
321.0338846773354
 30
0.0
 11
402.9514955364153
 21
321.0338846773354
 31
0.0
  0
INSERT
  5
802A
330
715A
100
AcDbEntity
  8
AM_5 寸法線
 62
     3
100
AcDbBlockReference
  2
GENDOT
 10
387.9514955364155
 20
321.0338846773354
 30
0.0
 41
5.0
 42
5.0
 43
5.0
  0
INSERT
  5
802B
330
715A
100
AcDbEntity
  8
AM_5 寸法線
 62
     3
100
AcDbBlockReference
  2
_Open30
 10
402.9514955364153
 20
321.0338846773354
 30
0.0
 41
5.0
 42
5.0
 43
5.0
 50
180.0
  0
POINT
  5
802C
330
715A
100
AcDbEntity
  8
Defpoints
 62
     0
100
AcDbPoint
 10
387.9514955364155
 20
341.5338846773354
 30
0.0
  0
POINT
  5
802D
330
715A
100
AcDbEntity
  8
Defpoints
 62
     0
100
AcDbPoint
 10
402.9514955364153
 20
341.5338846773354
 30
0.0
  0
POINT
  5
802E
330
715A
100
AcDbEntity
  8
Defpoints
 62
     0
100
AcDbPoint
 10
402.9514955364153
 20
321.0338846773354
 30
0.0
  0
ENDBLK
  5
715C
330
715A
100
AcDbEntity
  8
0
100
AcDbBlockEnd
  0
BLOCK
  5
730D
330
730C
100
AcDbEntity
  8
0
100
AcDbBlockBegin
  2
*D22
 70
     1
 10
0.0
 20
0.0
 30
0.0
  3
*D22
  1

  0
LINE
  5
8A38
330
730C
100
AcDbEntity
  8
AM_5 寸法線
 62
     3
100
AcDbLine
 10
331.9514955364155
 20
365.7838846773354
 30
0.0
 11
331.9514955364155
 21
299.7838846773354
 31
0.0
  0
LINE
  5
8A39
330
730C
100
AcDbEntity
  8
AM_5 寸法線
 62
     3
100
AcDbLine
 10
443.9514955364153
 20
365.7838846773354
 30
0.0
 11
443.9514955364153
 21
299.7838846773354
 31
0.0
  0
LINE
  5
8A3A
330
730C
100
AcDbEntity
  8
AM_5 寸法線
 62
     3
100
AcDbLine
 10
336.9514955364155
 20
301.0338846773354
 30
0.0
 11
438.9514955364155
 21
301.0338846773354
 31
0.0
  0
INSERT
  5
8A3B
330
730C
100
AcDbEntity
  8
AM_5 寸法線
 62
     3
100
AcDbBlockReference
  2
_Open30
 10
331.9514955364155
 20
301.0338846773354
 30
0.0
 41
5.0
 42
5.0
 43
5.0
 50
180.0
  0
INSERT
  5
8A3C
330
730C
100
AcDbEntity
  8
AM_5 寸法線
 62
     3
100
AcDbBlockReference
  2
_Open30
 10
443.9514955364153
 20
301.0338846773354
 30
0.0
 41
5.0
 42
5.0
 43
5.0
  0
MTEXT
  5
8A3D
330
730C
100
AcDbEntity
  8
AM_5 寸法線
 62
     3
100
AcDbMText
 10
387.9514955364155
 20
307.5338846773354
 30
0.0
 40
7.0
 41
0.0
 46
0.0
 71
     5
 72
     1
  1
112
  7
SEISA
 73
     1
 44
1.0
  0
POINT
  5
8A3E
330
730C
100
AcDbEntity
  8
Defpoints
 62
     0
100
AcDbPoint
 10
331.9514955364155
 20
367.0338846773355
 30
0.0
  0
POINT
  5
8A3F
330
730C
100
AcDbEntity
  8
Defpoints
 62
     0
100
AcDbPoint
 10
443.9514955364153
 20
367.0338846773355
 30
0.0
  0
POINT
  5
8A40
330
730C
100
AcDbEntity
  8
Defpoints
 62
     0
100
AcDbPoint
 10
443.9514955364153
 20
301.0338846773354
 30
0.0
  0
ENDBLK
  5
730E
330
730C
100
AcDbEntity
  8
0
100
AcDbBlockEnd
  0
BLOCK
  5
7B12
330
7B11
100
AcDbEntity
  8
0
100
AcDbBlockBegin
  2
*D23
 70
     1
 10
0.0
 20
0.0
 30
0.0
  3
*D23
  1

  0
LINE
  5
7B1E
330
7B11
100
AcDbEntity
  8
AM_5 寸法線
 62
     3
100
AcDbLine
 10
292.9514955364155
 20
381.1792023146259
 30
0.0
 11
292.9514955364155
 21
279.7838846773355
 31
0.0
  0
LINE
  5
7B1F
330
7B11
100
AcDbEntity
  8
AM_5 寸法線
 62
     3
100
AcDbLine
 10
482.9514955364153
 20
381.1792023146259
 30
0.0
 11
482.9514955364153
 21
279.7838846773355
 31
0.0
  0
LINE
  5
7B20
330
7B11
100
AcDbEntity
  8
AM_5 寸法線
 62
     3
100
AcDbLine
 10
297.9514955364154
 20
281.0338846773354
 30
0.0
 11
477.9514955364153
 21
281.0338846773354
 31
0.0
  0
INSERT
  5
7B21
330
7B11
100
AcDbEntity
  8
AM_5 寸法線
 62
     3
100
AcDbBlockReference
  2
_Open30
 10
292.9514955364155
 20
281.0338846773354
 30
0.0
 41
5.0
 42
5.0
 43
5.0
 50
180.0
  0
INSERT
  5
7B22
330
7B11
100
AcDbEntity
  8
AM_5 寸法線
 62
     3
100
AcDbBlockReference
  2
_Open30
 10
482.9514955364153
 20
281.0338846773354
 30
0.0
 41
5.0
 42
5.0
 43
5.0
  0
MTEXT
  5
7B23
330
7B11
100
AcDbEntity
  8
AM_5 寸法線
 62
     3
100
AcDbMText
 10
387.9514955364155
 20
287.5338846773354
 30
0.0
 40
7.0
 41
0.0
 46
0.0
 71
     5
 72
     1
  1
190
  7
SEISA
 73
     1
 44
1.0
  0
POINT
  5
7B24
330
7B11
100
AcDbEntity
  8
Defpoints
 62
     0
100
AcDbPoint
 10
292.9514955364155
 20
382.4292023146258
 30
0.0
  0
POINT
  5
7B25
330
7B11
100
AcDbEntity
  8
Defpoints
 62
     0
100
AcDbPoint
 10
482.9514955364153
 20
382.4292023146258
 30
0.0
  0
POINT
  5
7B26
330
7B11
100
AcDbEntity
  8
Defpoints
 62
     0
100
AcDbPoint
 10
482.9514955364153
 20
281.0338846773354
 30
0.0
  0
ENDBLK
  5
7B13
330
7B11
100
AcDbEntity
  8
0
100
AcDbBlockEnd
  0
BLOCK
  5
7EE1
330
7EDE
100
AcDbEntity
  8
0
100
AcDbBlockBegin
  2
GENDOT
 70
     0
 10
0.0
 20
0.0
 30
0.0
  3
GENDOT
  1

  0
LINE
  5
7EDF
330
7EDE
100
AcDbEntity
  8
0
100
AcDbLine
 10
0.0
 20
0.0
 30
0.0
 11
-1.0
 21
0.0
 31
0.0
  0
LWPOLYLINE
  5
7EE0
330
7EDE
100
AcDbEntity
  8
0
100
AcDbPolyline
 90
        2
 70
     1
 43
0.25
 10
-0.125
 20
0.0
 42
1.0
 10
0.125
 20
0.0
 42
1.0
  0
ENDBLK
  5
7EE2
330
7EDE
100
AcDbEntity
  8
0
100
AcDbBlockEnd
  0
BLOCK
  5
8A08
330
8A07
100
AcDbEntity
  8
0
100
AcDbBlockBegin
  2
*D25
 70
     1
 10
0.0
 20
0.0
 30
0.0
  3
*D25
  1

  0
LINE
  5
8C92
330
8A07
100
AcDbEntity
  8
AM_5 寸法線
 62
     3
100
AcDbLine
 10
292.9514955364155
 20
481.1838846773353
 30
0.0
 11
292.9514955364155
 21
522.2838846773353
 31
0.0
  0
LINE
  5
8C93
330
8A07
100
AcDbEntity
  8
AM_5 寸法線
 62
     3
100
AcDbLine
 10
287.9514955364154
 20
496.2838846773354
 30
0.0
 11
287.9514955364154
 21
522.2838846773353
 31
0.0
  0
LINE
  5
8C94
330
8A07
100
AcDbEntity
  8
AM_5 寸法線
 62
     3
100
AcDbLine
 10
297.9514955364154
 20
521.0338846773352
 30
0.0
 11
302.9514955364155
 21
521.0338846773352
 31
0.0
  0
LINE
  5
8C95
330
8A07
100
AcDbEntity
  8
AM_5 寸法線
 62
     3
100
AcDbLine
 10
282.9514955364155
 20
521.0338846773352
 30
0.0
 11
267.7514955364155
 21
521.0338846773352
 31
0.0
  0
LINE
  5
8C96
330
8A07
100
AcDbEntity
  8
AM_5 寸法線
 62
     3
100
AcDbLine
 10
292.9514955364155
 20
521.0338846773352
 30
0.0
 11
287.9514955364154
 21
521.0338846773352
 31
0.0
  0
INSERT
  5
8C97
330
8A07
100
AcDbEntity
  8
AM_5 寸法線
 62
     3
100
AcDbBlockReference
  2
_Open30
 10
292.9514955364155
 20
521.0338846773352
 30
0.0
 41
5.0
 42
5.0
 43
5.0
 50
180.0
  0
INSERT
  5
8C98
330
8A07
100
AcDbEntity
  8
AM_5 寸法線
 62
     3
100
AcDbBlockReference
  2
_Open30
 10
287.9514955364154
 20
521.0338846773352
 30
0.0
 41
5.0
 42
5.0
 43
5.0
  0
MTEXT
  5
8C99
330
8A07
100
AcDbEntity
  8
AM_5 寸法線
 62
     3
100
AcDbMText
 10
272.8514955364154
 20
527.5338846773353
 30
0.0
 40
7.0
 41
0.0
 46
0.0
 71
     5
 72
     1
  1
5
  7
SEISA
 73
     1
 44
1.0
  0
POINT
  5
8C9A
330
8A07
100
AcDbEntity
  8
Defpoints
 62
     0
100
AcDbPoint
 10
292.9514955364155
 20
479.9338846773353
 30
0.0
  0
POINT
  5
8C9B
330
8A07
100
AcDbEntity
  8
Defpoints
 62
     0
100
AcDbPoint
 10
287.9514955364154
 20
495.0338846773354
 30
0.0
  0
POINT
  5
8C9C
330
8A07
100
AcDbEntity
  8
Defpoints
 62
     0
100
AcDbPoint
 10
287.9514955364154
 20
521.0338846773352
 30
0.0
  0
ENDBLK
  5
8A09
330
8A07
100
AcDbEntity
  8
0
100
AcDbBlockEnd
  0
BLOCK
  5
8AC7
330
8AC6
100
AcDbEntity
  8
0
100
AcDbBlockBegin
  2
*D26
 70
     1
 10
0.0
 20
0.0
 30
0.0
  3
*D26
  1

  0
LINE
  5
8AE6
330
8AC6
100
AcDbEntity
  8
AM_5 寸法線
 62
     3
100
AcDbLine
 10
347.9514955364154
 20
482.7838846773353
 30
0.0
 11
347.9514955364154
 21
467.4795010814469
 31
0.0
  0
LINE
  5
8AE7
330
8AC6
100
AcDbEntity
  8
AM_5 寸法線
 62
     3
100
AcDbLine
 10
368.9514955364154
 20
482.7838846773353
 30
0.0
 11
368.9514955364154
 21
467.4795010814469
 31
0.0
  0
LINE
  5
8AE8
330
8AC6
100
AcDbEntity
  8
AM_5 寸法線
 62
     3
100
AcDbLine
 10
352.9514955364155
 20
468.7295010814469
 30
0.0
 11
363.9514955364155
 21
468.7295010814469
 31
0.0
  0
INSERT
  5
8AE9
330
8AC6
100
AcDbEntity
  8
AM_5 寸法線
 62
     3
100
AcDbBlockReference
  2
_Open30
 10
347.9514955364154
 20
468.7295010814469
 30
0.0
 41
5.0
 42
5.0
 43
5.0
 50
180.0
  0
INSERT
  5
8AEA
330
8AC6
100
AcDbEntity
  8
AM_5 寸法線
 62
     3
100
AcDbBlockReference
  2
_Open30
 10
368.9514955364154
 20
468.7295010814469
 30
0.0
 41
5.0
 42
5.0
 43
5.0
  0
MTEXT
  5
8AEB
330
8AC6
100
AcDbEntity
  8
AM_5 寸法線
 62
     3
100
AcDbMText
 10
358.4514955364154
 20
475.2295010814471
 30
0.0
 40
7.0
 41
0.0
 46
0.0
 71
     5
 72
     1
  1
21
  7
SEISA
 73
     1
 44
1.0
  0
POINT
  5
8AEC
330
8AC6
100
AcDbEntity
  8
Defpoints
 62
     0
100
AcDbPoint
 10
347.9514955364154
 20
484.0338846773353
 30
0.0
  0
POINT
  5
8AED
102
{ACAD_REACTORS
330
8AFF
102
}
330
8AC6
100
AcDbEntity
  8
Defpoints
 62
     0
100
AcDbPoint
 10
368.9514955364154
 20
484.0338846773353
 30
0.0
  0
POINT
  5
8AEE
330
8AC6
100
AcDbEntity
  8
Defpoints
 62
     0
100
AcDbPoint
 10
368.9514955364154
 20
468.7295010814469
 30
0.0
  0
ENDBLK
  5
8AC8
330
8AC6
100
AcDbEntity
  8
0
100
AcDbBlockEnd
  0
BLOCK
  5
8AF1
330
8AF0
100
AcDbEntity
  8
0
100
AcDbBlockBegin
  2
*D27
 70
     1
 10
0.0
 20
0.0
 30
0.0
  3
*D27
  1

  0
LINE
  5
8B58
330
8AF0
100
AcDbEntity
  8
AM_5 寸法線
 62
     3
100
AcDbLine
 10
368.9514955364154
 20
482.7838846773353
 30
0.0
 11
368.9514955364154
 21
467.4799451086486
 31
0.0
  0
LINE
  5
8B59
330
8AF0
100
AcDbEntity
  8
AM_5 寸法線
 62
     3
100
AcDbLine
 10
382.9514955364155
 20
481.7838846773353
 30
0.0
 11
382.9514955364155
 21
467.4799451086486
 31
0.0
  0
LINE
  5
8B5A
330
8AF0
100
AcDbEntity
  8
AM_5 寸法線
 62
     3
100
AcDbLine
 10
363.9514955364155
 20
468.7299451086486
 30
0.0
 11
358.9514955364155
 21
468.7299451086486
 31
0.0
  0
LINE
  5
8B5B
330
8AF0
100
AcDbEntity
  8
AM_5 寸法線
 62
     3
100
AcDbLine
 10
387.9514955364155
 20
468.7299451086486
 30
0.0
 11
392.9514955364155
 21
468.7299451086486
 31
0.0
  0
MTEXT
  5
8B5C
330
8AF0
100
AcDbEntity
  8
AM_5 寸法線
 62
     3
100
AcDbMText
 10
375.6999407654553
 20
475.4707114887213
 30
0.0
 40
7.0
 41
0.0
 46
0.0
 71
     5
 72
     1
  1
14
  7
SEISA
 73
     1
 44
1.0
  0
LINE
  5
8B5D
330
8AF0
100
AcDbEntity
  8
AM_5 寸法線
 62
     3
100
AcDbLine
 10
368.9514955364154
 20
468.7299451086486
 30
0.0
 11
382.9514955364155
 21
468.7299451086486
 31
0.0
  0
INSERT
  5
8B5E
330
8AF0
100
AcDbEntity
  8
AM_5 寸法線
 62
     3
100
AcDbBlockReference
  2
_Open30
 10
368.9514955364154
 20
468.7299451086486
 30
0.0
 41
5.0
 42
5.0
 43
5.0
  0
INSERT
  5
8B5F
330
8AF0
100
AcDbEntity
  8
AM_5 寸法線
 62
     3
100
AcDbBlockReference
  2
_Open30
 10
382.9514955364155
 20
468.7299451086486
 30
0.0
 41
5.0
 42
5.0
 43
5.0
 50
180.0
  0
POINT
  5
8B60
330
8AF0
100
AcDbEntity
  8
Defpoints
 62
     0
100
AcDbPoint
 10
368.9514955364154
 20
484.0338846773353
 30
0.0
  0
POINT
  5
8B61
330
8AF0
100
AcDbEntity
  8
Defpoints
 62
     0
100
AcDbPoint
 10
382.9514955364155
 20
483.0338846773353
 30
0.0
  0
POINT
  5
8B62
330
8AF0
100
AcDbEntity
  8
Defpoints
 62
     0
100
AcDbPoint
 10
382.9514955364155
 20
468.7299451086486
 30
0.0
  0
ENDBLK
  5
8AF2
330
8AF0
100
AcDbEntity
  8
0
100
AcDbBlockEnd
  0
BLOCK
  5
8D6B
330
8D6A
100
AcDbEntity
  8
0
100
AcDbBlockBegin
  2
ケース
 70
     0
 10
0.0
 20
0.0
 30
0.0
  3
ケース
  1

  0
LINE
  5
8D6D
330
8D6A
100
AcDbEntity
  8
AM_11 想像線
 48
0.2
100
AcDbLine
 10
0.0
 20
-10.60000000000013
 30
0.0
 11
-1.498289073350405
 21
-10.60000000000013
 31
0.0
  0
LINE
  5
8D6E
330
8D6A
100
AcDbEntity
  8
AM_11 想像線
 48
0.2
100
AcDbLine
 10
0.0
 20
0.0
 30
0.0
 11
-16.4982890733504
 21
0.0
 31
0.0
  0
LINE
  5
8D6F
330
8D6A
100
AcDbEntity
  8
AM_11 想像線
 48
0.2
100
AcDbLine
 10
0.0
 20
-7.0
 30
0.0
 11
-2.498289073350405
 21
-7.0
 31
0.0
  0
LINE
  5
8D70
330
8D6A
100
AcDbEntity
  8
AM_11 想像線
 48
0.2
100
AcDbLine
 10
0.0
 20
-9.0
 30
0.0
 11
-4.498289073350406
 21
-9.0
 31
0.0
  0
LINE
  5
8D71
330
8D6A
100
AcDbEntity
  8
AM_11 想像線
 48
0.2
100
AcDbLine
 10
-6.498289073350405
 20
-13.25
 30
0.0
 11
-6.498289073350405
 21
-14.5
 31
0.0
  0
LINE
  5
8D72
330
8D6A
100
AcDbEntity
  8
AM_11 想像線
 48
0.2
100
AcDbLine
 10
-9.198289073350453
 20
-13.25
 30
0.0
 11
-9.198289073350453
 21
-14.5
 31
0.0
  0
LINE
  5
8D73
330
8D6A
100
AcDbEntity
  8
AM_11 想像線
 48
0.2
100
AcDbLine
 10
-16.79828907335036
 20
-13.25
 30
0.0
 11
-16.79828907335036
 21
-14.5
 31
0.0
  0
LINE
  5
8D74
330
8D6A
100
AcDbEntity
  8
AM_11 想像線
 48
0.2
100
AcDbLine
 10
-19.4982890733504
 20
-13.25
 30
0.0
 11
-19.4982890733504
 21
-14.5
 31
0.0
  0
LINE
  5
8D75
330
8D6A
100
AcDbEntity
  8
AM_11 想像線
 48
0.2
100
AcDbLine
 10
-16.29828907335036
 20
-9.800000000000123
 30
0.0
 11
-9.698289073350453
 21
-9.800000000000123
 31
0.0
  0
ARC
  5
8D76
330
8D6A
100
AcDbEntity
  8
AM_11 想像線
 48
0.2
100
AcDbCircle
 10
-16.4982890733504
 20
-3.0
 30
0.0
 40
3.0
100
AcDbArc
 50
90.0
 51
180.0
  0
LINE
  5
8D77
330
8D6A
100
AcDbEntity
  8
AM_11 想像線
 48
0.2
100
AcDbLine
 10
-19.4982890733504
 20
-13.25
 30
0.0
 11
-16.79828907335036
 21
-13.25
 31
0.0
  0
LINE
  5
8D78
102
{ACAD_REACTORS
330
8A16
102
}
330
8D6A
100
AcDbEntity
  8
AM_11 想像線
 48
0.2
100
AcDbLine
 10
-19.4982890733504
 20
-3.0
 30
0.0
 11
-19.4982890733504
 21
-13.25
 31
0.0
  0
ARC
  5
8D79
330
8D6A
100
AcDbEntity
  8
AM_11 想像線
 48
0.2
100
AcDbCircle
 10
-16.29828907335036
 20
-10.30000000000012
 30
0.0
 40
0.5
100
AcDbArc
 50
90.0
 51
180.0
  0
LINE
  5
8D7A
330
8D6A
100
AcDbEntity
  8
AM_11 想像線
 48
0.2
100
AcDbLine
 10
-16.79828907335036
 20
-13.25
 30
0.0
 11
-16.79828907335036
 21
-10.30000000000012
 31
0.0
  0
ARC
  5
8D7B
330
8D6A
100
AcDbEntity
  8
AM_11 想像線
 48
0.2
100
AcDbCircle
 10
-3.498289073350406
 20
-7.50000000000017
 30
0.0
 40
1.0
100
AcDbArc
 50
0.0
 51
90.0
  0
LINE
  5
8D7C
330
8D6A
100
AcDbEntity
  8
AM_11 想像線
 48
0.2
100
AcDbLine
 10
-5.498289073350405
 20
-6.5
 30
0.0
 11
-3.498289073350406
 21
-6.5
 31
0.0
  0
ARC
  5
8D7D
330
8D6A
100
AcDbEntity
  8
AM_11 想像線
 48
0.2
100
AcDbCircle
 10
-5.498289073350405
 20
-7.50000000000017
 30
0.0
 40
1.0
100
AcDbArc
 50
90.0
 51
180.0
  0
LINE
  5
8D7E
330
8D6A
100
AcDbEntity
  8
AM_11 想像線
 48
0.2
100
AcDbLine
 10
-6.498289073350405
 20
-13.25
 30
0.0
 11
-6.498289073350405
 21
-7.50000000000017
 31
0.0
  0
LINE
  5
8D7F
330
8D6A
100
AcDbEntity
  8
AM_11 想像線
 48
0.2
100
AcDbLine
 10
-9.198289073350453
 20
-13.25
 30
0.0
 11
-6.498289073350405
 21
-13.25
 31
0.0
  0
LINE
  5
8D80
330
8D6A
100
AcDbEntity
  8
AM_11 想像線
 48
0.2
100
AcDbLine
 10
-9.198289073350453
 20
-10.30000000000012
 30
0.0
 11
-9.198289073350453
 21
-13.25
 31
0.0
  0
ARC
  5
8D81
330
8D6A
100
AcDbEntity
  8
AM_11 想像線
 48
0.2
100
AcDbCircle
 10
-9.698289073350453
 20
-10.30000000000012
 30
0.0
 40
0.5
100
AcDbArc
 50
0.0
 51
90.0
  0
LINE
  5
8D82
330
8D6A
100
AcDbEntity
  8
AM_11 想像線
 48
0.2
100
AcDbLine
 10
-2.498289073350405
 20
-8.118678999999985
 30
0.0
 11
-2.498289073350405
 21
-9.600000000000136
 31
0.0
  0
LINE
  5
8D83
330
8D6A
100
AcDbEntity
  8
AM_11 想像線
 48
0.2
100
AcDbLine
 10
-2.498289073350405
 20
-9.600000000000136
 30
0.0
 11
-1.498289073350405
 21
-10.60000000000013
 31
0.0
  0
LINE
  5
8D84
330
8D6A
100
AcDbEntity
  8
AM_11 想像線
 48
0.2
100
AcDbLine
 10
-2.498289073350405
 20
-8.118678999999985
 30
0.0
 11
-2.498289073350405
 21
-7.50000000000017
 31
0.0
  0
ENDBLK
  5
8D6C
330
8D6A
100
AcDbEntity
  8
0
100
AcDbBlockEnd
  0
ENDSEC
  0
SECTION
  2
ENTITIES
  0
LINE
  5
34D1
330
1F
100
AcDbEntity
  8
AM_7 中心線
100
AcDbLine
 10
288.9514955364155
 20
431.0338846773354
 30
0.0
 11
486.9514955364153
 21
431.0338846773354
 31
0.0
  0
LINE
  5
357C
330
1F
100
AcDbEntity
  8
AM_0 外形線1
100
AcDbLine
 10
374.4514955364155
 20
517.0338846773353
 30
0.0
 11
396.9514955364155
 21
517.0338846773353
 31
0.0
  0
LINE
  5
3583
330
1F
100
AcDbEntity
  8
AM_0 外形線1
100
AcDbLine
 10
372.9514955364154
 20
517.0338846773353
 30
0.0
 11
387.9514955364155
 21
517.0338846773353
 31
0.0
  0
LINE
  5
358C
330
1F
100
AcDbEntity
  8
AM_0 外形線1
100
AcDbLine
 10
387.9514955364155
 20
517.0338846773353
 30
0.0
 11
387.9514955364155
 21
520.5338846773353
 31
0.0
  0
LINE
  5
35A2
330
1F
100
AcDbEntity
  8
AM_0 外形線1
100
AcDbLine
 10
404.9514955364154
 20
520.2338846773353
 30
0.0
 11
402.9514955364153
 21
520.2338846773353
 31
0.0
  0
LINE
  5
35A3
330
1F
100
AcDbEntity
  8
AM_0 外形線1
100
AcDbLine
 10
404.9514955364154
 20
520.0338846773353
 30
0.0
 11
404.9514955364154
 21
520.2338846773353
 31
0.0
  0
LINE
  5
360B
330
1F
100
AcDbEntity
  8
AM_5 寸法線
100
AcDbLine
 10
387.9697265364155
 20
465.1163363114035
 30
0.0
 11
387.9697265364155
 21
465.1163363114035
 31
0.0
  0
INSERT
  5
5AA7
102
{ACAD_REACTORS
330
6F8D
330
6FA5
330
70AA
330
7B27
102
}
330
1F
100
AcDbEntity
  8
AM_0 外形線1
100
AcDbBlockReference
  2
センタＡ SSM180
 10
392.9514955364155
 20
431.0338846773354
 30
0.0
  0
INSERT
  5
5B73
102
{ACAD_REACTORS
330
6EC4
330
6F10
330
6F71
330
6F8D
330
7B27
330
8A16
330
8AD3
330
8AFF
102
}
330
1F
100
AcDbEntity
  8
AM_0 外形線1
100
AcDbBlockReference
  2
センタＢ SSM180
 10
382.9514955364155
 20
431.0338846773354
 30
0.0
  0
LINE
  5
6A82
330
1F
100
AcDbEntity
  8
AM_0 外形線1
100
AcDbLine
 10
387.9514955364155
 20
431.0338846773354
 30
0.0
 11
387.9514955364155
 21
341.5338846773354
 31
0.0
  0
INSERT
  5
6AFD
102
{ACAD_REACTORS
330
70C2
330
70DA
330
7174
330
7322
102
}
330
1F
100
AcDbEntity
  8
AM_0 外形線1
100
AcDbBlockReference
  2
ケースＡ SSM180
 10
387.9514955364155
 20
431.0338846773354
 30
0.0
  0
INSERT
  5
6B07
102
{ACAD_REACTORS
330
6F10
330
714D
330
7174
102
}
330
1F
100
AcDbEntity
  8
AM_0 外形線1
100
AcDbBlockReference
  2
ケースＢ SSM180
 10
387.9514955364155
 20
431.0338846773354
 30
0.0
  0
INSERT
  5
6B43
330
1F
100
AcDbEntity
  8
AM_0 外形線1
100
AcDbBlockReference
  2
リーマボルト SSM180 M8
 10
372.9514955364154
 20
512.5338846773352
 30
0.0
  0
DIMENSION
  5
6EAD
102
{ACAD_XDICTIONARY
360
6EBA
102
}
102
{ACAD_REACTORS
330
6EC4
102
}
330
1F
100
AcDbEntity
  8
AM_5 寸法線
100
AcDbDimension
  2
*D12
 10
253.5661988815807
 20
378.5338846773354
 30
0.0
 11
253.5661988815806
 21
434.3685832157091
 31
0.0
 70
   160
  1
%%c<>
 71
     5
 42
105.0
 73
     0
 74
     0
 75
     0
  3
SEISA$0
100
AcDbAlignedDimension
 13
322.9514955364154
 23
483.5338846773353
 33
0.0
 14
322.9514955364154
 24
378.5338846773354
 34
0.0
 50
90.0
100
AcDbRotatedDimension
1001
ACAD_DSTYLE_DIMINSPECT
1070
   396
1000
100%
1070
   395
1000

1070
   394
1070
    33
1070
   393
1070
     0
  0
DIMENSION
  5
6EF5
102
{ACAD_XDICTIONARY
360
6F04
102
}
102
{ACAD_REACTORS
330
6F10
330
8AD3
102
}
330
1F
100
AcDbEntity
  8
AM_5 寸法線
100
AcDbDimension
  2
*D13
 10
347.9514955364154
 20
468.7295010814465
 30
0.0
 11
329.8514955364154
 21
468.7295010814465
 31
0.0
 70
   160
 71
     5
 42
3.0
 73
     0
 74
     0
 75
     0
  3
SEISA$0
100
AcDbAlignedDimension
 13
344.9514955364155
 23
483.5338846773353
 33
0.0
 14
347.9514955364154
 24
484.0338846773353
 34
0.0
100
AcDbRotatedDimension
  0
DIMENSION
  5
6F5A
102
{ACAD_XDICTIONARY
360
6F67
102
}
102
{ACAD_REACTORS
330
6F71
102
}
330
1F
100
AcDbEntity
  8
AM_5 寸法線
100
AcDbDimension
  2
*D14
 10
382.9514955364155
 20
441.7902737352248
 30
0.0
 11
337.9514955364154
 21
448.2902737352248
 31
0.0
 70
    32
 71
     5
 42
90.0
 73
     0
 74
     0
 75
     0
  3
SEISA$0
100
AcDbAlignedDimension
 13
292.9514955364155
 23
431.0338846773354
 33
0.0
 14
382.9514955364155
 24
431.0338846773354
 34
0.0
100
AcDbRotatedDimension
  0
DIMENSION
  5
6F72
102
{ACAD_XDICTIONARY
360
6F81
102
}
102
{ACAD_REACTORS
330
6F8D
102
}
330
1F
100
AcDbEntity
  8
AM_5 寸法線
100
AcDbDimension
  2
*D15
 10
392.9514955364154
 20
441.7902737352248
 30
0.0
 11
402.0036166942118
 21
448.1279429410621
 31
0.0
 70
   160
 71
     5
 42
9.999999999999943
 73
     0
 74
     0
 75
     0
  3
SEISA$0
100
AcDbAlignedDimension
 13
382.9514955364155
 23
431.0338846773354
 33
0.0
 14
392.9514955364154
 24
431.0338846773354
 34
0.0
100
AcDbRotatedDimension
1001
ACAD
1000
DSTYLE
1002
{
1070
   279
1070
     2
1002
}
  0
DIMENSION
  5
6F8E
102
{ACAD_XDICTIONARY
360
6F9B
102
}
102
{ACAD_REACTORS
330
6FA5
102
}
330
1F
100
AcDbEntity
  8
AM_5 寸法線
100
AcDbDimension
  2
*D16
 10
482.9514955364153
 20
441.7902737352248
 30
0.0
 11
437.9514955364154
 21
448.2902737352248
 31
0.0
 70
    32
 71
     5
 42
90.0
 73
     0
 74
     0
 75
     0
  3
SEISA$0
100
AcDbAlignedDimension
 13
392.9514955364155
 23
431.0338846773354
 33
0.0
 14
482.9514955364153
 24
431.0338846773354
 34
0.0
100
AcDbRotatedDimension
  0
DIMENSION
  5
7093
102
{ACAD_XDICTIONARY
360
70A0
102
}
102
{ACAD_REACTORS
330
70AA
102
}
330
1F
100
AcDbEntity
  8
AM_5 寸法線
100
AcDbDimension
  2
*D17
 10
532.9514955364154
 20
378.5338846773354
 30
0.0
 11
526.4514955364153
 21
431.0338846773355
 31
0.0
 70
    32
  1
%%c<>
 71
     5
 42
105.0
 73
     0
 74
     0
 75
     0
  3
SEISA$0
100
AcDbAlignedDimension
 13
452.9514955364153
 23
483.5338846773353
 33
0.0
 14
452.9514955364153
 24
378.5338846773354
 34
0.0
 50
90.0
100
AcDbRotatedDimension
1001
ACAD_DSTYLE_DIMINSPECT
1070
   396
1000
100%
1070
   395
1000

1070
   394
1070
    33
1070
   393
1070
     0
  0
DIMENSION
  5
70AB
102
{ACAD_XDICTIONARY
360
70B8
102
}
102
{ACAD_REACTORS
330
70C2
102
}
330
1F
100
AcDbEntity
  8
AM_5 寸法線
100
AcDbDimension
  2
*D18
 10
552.9514955364154
 20
364.0338846773354
 30
0.0
 11
546.4514955364154
 21
431.0338846773355
 31
0.0
 70
    32
  1
%%c<>
 71
     5
 42
134.0
 73
     0
 74
     0
 75
     0
  3
SEISA$0
100
AcDbAlignedDimension
 13
440.9514955364153
 23
498.0338846773354
 33
0.0
 14
440.9514955364153
 24
364.0338846773354
 34
0.0
 50
90.0
100
AcDbRotatedDimension
1001
ACAD_DSTYLE_DIMINSPECT
1070
   396
1000
100%
1070
   395
1000

1070
   394
1070
    33
1070
   393
1070
     0
  0
DIMENSION
  5
70C3
102
{ACAD_XDICTIONARY
360
70D0
102
}
102
{ACAD_REACTORS
330
70DA
102
}
330
1F
100
AcDbEntity
  8
AM_5 寸法線
100
AcDbDimension
  2
*D19
 10
572.9514955364156
 20
341.0338846773354
 30
0.0
 11
566.4514955364154
 21
431.0338846773355
 31
0.0
 70
    32
  1
%%c<>
 71
     5
 42
180.0
 73
     0
 74
     0
 75
     0
  3
SEISA$0
100
AcDbAlignedDimension
 13
402.4514955364153
 23
521.0338846773352
 33
0.0
 14
402.4514955364153
 24
341.0338846773354
 34
0.0
 50
90.0
100
AcDbRotatedDimension
1001
ACAD_DSTYLE_DIMINSPECT
1070
   396
1000
100%
1070
   395
1000

1070
   394
1070
    33
1070
   393
1070
     0
  0
DIMENSION
  5
7132
102
{ACAD_XDICTIONARY
360
7141
102
}
102
{ACAD_REACTORS
330
714D
102
}
330
1F
100
AcDbEntity
  8
AM_5 寸法線
100
AcDbDimension
  2
*D20
 10
387.9514955364155
 20
321.0338846773354
 30
0.0
 11
362.6461186927163
 21
325.8141440720601
 31
0.0
 70
   160
 71
     5
 42
15.0
 73
     0
 74
     0
 75
     0
  3
SEISA$0
100
AcDbAlignedDimension
 13
372.9514955364154
 23
341.5338846773354
 33
0.0
 14
387.9514955364155
 24
341.5338846773354
 34
0.0
100
AcDbRotatedDimension
1001
ACAD_DSTYLE_DIMINSPECT
1070
   396
1000
100%
1070
   395
1000

1070
   394
1070
    33
1070
   393
1070
     0
1001
ACAD
1000
DSTYLE
1002
{
1070
   173
1070
     1
1070
   279
1070
     2
1070
   342
1005
0
1070
   343
1005
69
1070
   344
1005
7EDE
1002
}
  0
DIMENSION
  5
7159
102
{ACAD_XDICTIONARY
360
7168
102
}
102
{ACAD_REACTORS
330
7174
102
}
330
1F
100
AcDbEntity
  8
AM_5 寸法線
100
AcDbDimension
  2
*D21
 10
402.9514955364153
 20
321.0338846773354
 30
0.0
 11
413.2088917365766
 21
325.4324437587247
 31
0.0
 70
   160
 71
     5
 42
15.0
 73
     0
 74
     0
 75
     0
  3
SEISA$0
100
AcDbAlignedDimension
 13
387.9514955364155
 23
341.5338846773354
 33
0.0
 14
402.9514955364153
 24
341.5338846773354
 34
0.0
100
AcDbRotatedDimension
1001
ACAD_DSTYLE_DIMINSPECT
1070
   396
1000
100%
1070
   395
1000

1070
   394
1070
    33
1070
   393
1070
     0
1001
ACAD
1000
DSTYLE
1002
{
1070
   173
1070
     1
1070
   279
1070
     2
1070
   342
1005
0
1070
   343
1005
7EDE
1070
   344
1005
69
1002
}
  0
DIMENSION
  5
730B
102
{ACAD_XDICTIONARY
360
7318
102
}
102
{ACAD_REACTORS
330
7322
102
}
330
1F
100
AcDbEntity
  8
AM_5 寸法線
100
AcDbDimension
  2
*D22
 10
443.9514955364153
 20
301.0338846773354
 30
0.0
 11
387.9514955364155
 21
307.5338846773354
 31
0.0
 70
    32
 71
     5
 42
112.0
 73
     0
 74
     0
 75
     0
  3
SEISA$0
100
AcDbAlignedDimension
 13
331.9514955364155
 23
367.0338846773355
 33
0.0
 14
443.9514955364153
 24
367.0338846773355
 34
0.0
100
AcDbRotatedDimension
  0
DIMENSION
  5
7B10
102
{ACAD_XDICTIONARY
360
7B1D
102
}
102
{ACAD_REACTORS
330
7B27
102
}
330
1F
100
AcDbEntity
  8
AM_5 寸法線
100
AcDbDimension
  2
*D23
 10
482.9514955364153
 20
281.0338846773354
 30
0.0
 11
387.9514955364155
 21
287.5338846773354
 31
0.0
 70
    32
 71
     5
 42
190.0
 73
     0
 74
     0
 75
     0
  3
SEISA$0
100
AcDbAlignedDimension
 13
292.9514955364155
 23
382.4292023146258
 33
0.0
 14
482.9514955364153
 24
382.4292023146258
 34
0.0
100
AcDbRotatedDimension
  0
LINE
  5
805B
330
1F
100
AcDbEntity
  8
AM_5 寸法線
100
AcDbLine
 10
362.9514955364154
 20
321.0338846773354
 30
0.0
 11
356.3799265334223
 21
321.0338846773354
 31
0.0
  0
LINE
  5
805C
330
1F
100
AcDbEntity
  8
AM_5 寸法線
100
AcDbLine
 10
412.9514955364154
 20
321.0338846773354
 30
0.0
 11
418.6361467820716
 21
321.0338846773354
 31
0.0
  0
MTEXT
  5
89C7
330
1F
100
AcDbEntity
  8
AM_6 文字
100
AcDbMText
 10
497.6560101993577
 20
330.5031476921554
 30
0.0
 40
7.0
 41
156.2607513769733
 46
0.0
 71
     1
 72
     5
  1
{\W0.6;TYPE:SSM180/SSMH180\PSHAFT DIA:MAX/MIN φ75/φ32}
  7
SEISA
 73
     1
 44
1.0
  0
DIMENSION
  5
8A06
102
{ACAD_XDICTIONARY
360
8A15
102
}
102
{ACAD_REACTORS
330
8A16
102
}
330
1F
100
AcDbEntity
  8
AM_5 寸法線
100
AcDbDimension
  2
*D25
 10
287.9514955364154
 20
521.0338846773352
 30
0.0
 11
272.8514955364154
 21
527.5338846773353
 31
0.0
 70
    32
 71
     5
 42
5.0
 73
     0
 74
     0
 75
     0
  3
SEISA$0
100
AcDbAlignedDimension
 13
292.9514955364155
 23
479.9338846773353
 33
0.0
 14
287.9514955364154
 24
495.0338846773354
 34
0.0
100
AcDbRotatedDimension
1001
ACAD_DSTYLE_DIMINSPECT
1070
   396
1000
100%
1070
   395
1000

1070
   394
1070
    33
1070
   393
1070
     0
  0
DIMENSION
  5
8AC5
102
{ACAD_XDICTIONARY
360
8AD2
102
}
102
{ACAD_REACTORS
330
8AD3
330
8AFF
102
}
330
1F
100
AcDbEntity
  8
AM_5 寸法線
100
AcDbDimension
  2
*D26
 10
368.9514955364154
 20
468.7295010814469
 30
0.0
 11
358.4514955364154
 21
475.2295010814471
 31
0.0
 70
    32
 71
     5
 42
21.0
 73
     0
 74
     0
 75
     0
  3
SEISA$0
100
AcDbAlignedDimension
 13
347.9514955364154
 23
484.0338846773353
 33
0.0
 14
368.9514955364154
 24
484.0338846773353
 34
0.0
 50
0.0000000000001132
100
AcDbRotatedDimension
1001
ACAD_DSTYLE_DIMINSPECT
1070
   396
1000
100%
1070
   395
1000

1070
   394
1070
    33
1070
   393
1070
     0
  0
DIMENSION
  5
8AEF
102
{ACAD_XDICTIONARY
360
8AFE
102
}
102
{ACAD_REACTORS
330
8AFF
102
}
330
1F
100
AcDbEntity
  8
AM_5 寸法線
100
AcDbDimension
  2
*D27
 10
382.9514955364155
 20
468.7299451086486
 30
0.0
 11
375.6999407654553
 21
475.4707114887213
 31
0.0
 70
   160
 71
     5
 42
14.0
 73
     0
 74
     0
 75
     0
  3
SEISA$0
100
AcDbAlignedDimension
 13
368.9514955364154
 23
484.0338846773353
 33
0.0
 14
382.9514955364155
 24
483.0338846773353
 34
0.0
 50
0.0000000000001132
100
AcDbRotatedDimension
1001
ACAD_DSTYLE_DIMINSPECT
1070
   396
1000
100%
1070
   395
1000

1070
   394
1070
    33
1070
   393
1070
     0
1001
ACAD
1000
DSTYLE
1002
{
1070
   279
1070
     2
1002
}
  0
INSERT
  5
8D85
330
1F
100
AcDbEntity
  8
AM_11 想像線
100
AcDbBlockReference
  2
ケース
 10
307.4497846097659
 20
498.0338846773354
 30
0.0
  0
ENDSEC
  0
SECTION
  2
OBJECTS
  0
DICTIONARY
  5
C
330
0
100
AcDbDictionary
281
     1
  3
ACAD_COLOR
350
C5
  3
ACAD_GROUP
350
D
  3
ACAD_LAYOUT
350
1A
  3
ACAD_MATERIAL
350
C4
  3
ACAD_MLEADERSTYLE
350
2D5
  3
ACAD_MLINESTYLE
350
17
  3
ACAD_PLOTSETTINGS
350
19
  3
ACAD_PLOTSTYLENAME
350
E
  3
ACAD_SCALELIST
350
2B3
  3
ACAD_TABLESTYLE
350
121
  3
ACAD_VISUALSTYLE
350
27F
  3
ACDB_RECOMPOSE_DATA
350
2F7
  3
AcDbVariableDictionary
350
34
  3
AcmDictionary
350
49
  3
AMG
350
2B
  3
AMGSNAPSETTINGS
350
1DE
  0
DICTIONARY
  5
BF
330
2
100
AcDbDictionary
280
     1
281
     1
  3
ACAD_LAYERSTATES
360
4352
  3
AMLAYER_GROUPCOLORS
360
C0
  0
DICTIONARY
  5
29D8
330
10
100
AcDbDictionary
280
     1
281
     1
  3
ADSK_XREC_LAYER_RECONCILED
360
29D9
  0
DICTIONARY
  5
29DA
330
81
100
AcDbDictionary
280
     1
281
     1
  3
ADSK_XREC_LAYER_RECONCILED
360
29DB
  0
DICTIONARY
  5
29E1
330
25C9
100
AcDbDictionary
280
     1
281
     1
  3
ADSK_XREC_LAYER_RECONCILED
360
29E2
  0
DICTIONARY
  5
29E3
330
25CA
100
AcDbDictionary
280
     1
281
     1
  3
ADSK_XREC_LAYER_RECONCILED
360
29E4
  0
DICTIONARY
  5
29E9
330
26B3
100
AcDbDictionary
280
     1
281
     1
  3
ADSK_XREC_LAYER_RECONCILED
360
29EA
  0
DICTIONARY
  5
82
330
1F
100
AcDbDictionary
280
     1
281
     1
  3
ACAD_SORTENTS
360
A41
  0
DICTIONARY
  5
61BD
330
5738
100
AcDbDictionary
280
     1
281
     1
  3
ACAD_SORTENTS
360
67EE
  0
DICTIONARY
  5
58BD
330
57C9
100
AcDbDictionary
280
     1
281
     1
  3
ACAD_SORTENTS
360
834B
  0
DICTIONARY
  5
5A12
330
593C
100
AcDbDictionary
280
     1
281
     1
  3
ACAD_SORTENTS
360
8289
  0
DICTIONARY
  5
63ED
330
5A7F
100
AcDbDictionary
280
     1
281
     1
  3
ACAD_SORTENTS
360
8C1C
  0
DICTIONARY
  5
6435
330
5B48
100
AcDbDictionary
280
     1
281
     1
  3
ACAD_SORTENTS
360
8C65
  0
DICTIONARY
  5
619A
330
60F7
100
AcDbDictionary
280
     1
281
     1
  3
ACAD_SORTENTS
360
83EC
  0
DICTIONARY
  5
6EBA
330
6EAD
100
AcDbDictionary
280
     1
281
     1
  3
ACAD_DIMASSOC
360
6EC4
  0
DICTIONARY
  5
6F04
330
6EF5
100
AcDbDictionary
280
     1
281
     1
  3
ACAD_DIMASSOC
360
6F10
  0
DICTIONARY
  5
6F67
330
6F5A
100
AcDbDictionary
280
     1
281
     1
  3
ACAD_DIMASSOC
360
6F71
  0
DICTIONARY
  5
6F81
330
6F72
100
AcDbDictionary
280
     1
281
     1
  3
ACAD_DIMASSOC
360
6F8D
  0
DICTIONARY
  5
6F9B
330
6F8E
100
AcDbDictionary
280
     1
281
     1
  3
ACAD_DIMASSOC
360
6FA5
  0
DICTIONARY
  5
70A0
330
7093
100
AcDbDictionary
280
     1
281
     1
  3
ACAD_DIMASSOC
360
70AA
  0
DICTIONARY
  5
70B8
330
70AB
100
AcDbDictionary
280
     1
281
     1
  3
ACAD_DIMASSOC
360
70C2
  0
DICTIONARY
  5
70D0
330
70C3
100
AcDbDictionary
280
     1
281
     1
  3
ACAD_DIMASSOC
360
70DA
  0
DICTIONARY
  5
7141
330
7132
100
AcDbDictionary
280
     1
281
     1
  3
ACAD_DIMASSOC
360
714D
  0
DICTIONARY
  5
7168
330
7159
100
AcDbDictionary
280
     1
281
     1
  3
ACAD_DIMASSOC
360
7174
  0
DICTIONARY
  5
7318
330
730B
100
AcDbDictionary
280
     1
281
     1
  3
ACAD_DIMASSOC
360
7322
  0
DICTIONARY
  5
7B1D
330
7B10
100
AcDbDictionary
280
     1
281
     1
  3
ACAD_DIMASSOC
360
7B27
  0
DICTIONARY
  5
8A15
330
8A06
100
AcDbDictionary
280
     1
281
     1
  3
ACAD_DIMASSOC
360
8A16
  0
DICTIONARY
  5
8AD2
330
8AC5
100
AcDbDictionary
280
     1
281
     1
  3
ACAD_DIMASSOC
360
8AD3
  0
DICTIONARY
  5
8AFE
330
8AEF
100
AcDbDictionary
280
     1
281
     1
  3
ACAD_DIMASSOC
360
8AFF
  0
DICTIONARY
  5
C5
102
{ACAD_REACTORS
330
C
102
}
330
C
100
AcDbDictionary
281
     1
  0
DICTIONARY
  5
D
102
{ACAD_REACTORS
330
C
102
}
330
C
100
AcDbDictionary
281
     1
  0
DICTIONARY
  5
1A
102
{ACAD_REACTORS
330
C
102
}
330
C
100
AcDbDictionary
281
     1
  3
Model
350
22
  3
レイアウト1
350
1E
  3
レイアウト2
350
26
  0
DICTIONARY
  5
C4
102
{ACAD_REACTORS
330
C
102
}
330
C
100
AcDbDictionary
281
     1
  3
ByBlock
350
27D
  3
ByLayer
350
27C
  3
Global
350
27E
  0
DICTIONARY
  5
2D5
102
{ACAD_REACTORS
330
C
102
}
330
C
100
AcDbDictionary
281
     1
  3
Standard
350
2D6
  0
DICTIONARY
  5
17
102
{ACAD_REACTORS
330
C
102
}
330
C
100
AcDbDictionary
281
     1
  3
Standard
350
18
  0
DICTIONARY
  5
19
102
{ACAD_REACTORS
330
C
102
}
330
C
100
AcDbDictionary
281
     1
  3
SEISA基本
350
1C7E
  0
ACDBDICTIONARYWDFLT
  5
E
102
{ACAD_REACTORS
330
C
102
}
330
C
100
AcDbDictionary
281
     1
  3
Normal
350
F
100
AcDbDictionaryWithDefault
340
F
  0
DICTIONARY
  5
2B3
102
{ACAD_REACTORS
330
C
102
}
330
C
100
AcDbDictionary
281
     1
  3
*A1
350
89BE
  3
A0
350
2B4
  3
A1
350
2B5
  3
A2
350
2B6
  3
A3
350
2B7
  3
A4
350
2B8
  3
A5
350
2B9
  3
A6
350
2BA
  3
A7
350
2BB
  3
A8
350
2BC
  3
A9
350
2BD
  3
B0
350
2BE
  3
B1
350
2BF
  3
B2
350
2C0
  3
B3
350
2C1
  3
B4
350
2C2
  3
B5
350
2C3
  3
B6
350
2C4
  3
B7
350
2C5
  3
B8
350
2C6
  3
B9
350
2C7
  3
C0
350
2C8
  3
C1
350
2C9
  3
C2
350
2CA
  3
C3
350
2CB
  3
C4
350
2CC
  3
C5
350
2CD
  3
C6
350
2CE
  3
C7
350
2CF
  3
C8
350
2D0
  3
C9
350
2D1
  3
D0
350
2D2
  3
D1
350
2D3
  3
D2
350
2D4
  0
DICTIONARY
  5
121
102
{ACAD_REACTORS
330
C
102
}
330
C
100
AcDbDictionary
281
     1
  3
Standard
350
122
  0
DICTIONARY
  5
27F
102
{ACAD_REACTORS
330
C
102
}
330
C
100
AcDbDictionary
281
     1
  3
2dWireframe
350
285
  3
3D Hidden
350
287
  3
3dWireframe
350
286
  3
Basic
350
284
  3
Brighten
350
28B
  3
ColorChange
350
28F
  3
Conceptual
350
288
  3
Dim
350
28A
  3
Facepattern
350
28E
  3
Flat
350
280
  3
FlatWithEdges
350
281
  3
Gouraud
350
282
  3
GouraudWithEdges
350
283
  3
Linepattern
350
28D
  3
Realistic
350
289
  3
Thicken
350
28C
  0
XRECORD
  5
2F7
102
{ACAD_REACTORS
330
C
102
}
330
C
100
AcDbXrecord
280
     1
 90
        1
330
122
  0
DICTIONARY
  5
34
102
{ACAD_REACTORS
330
C
102
}
330
C
100
AcDbDictionary
281
     1
  3
CANNOSCALE
350
2FA
  3
CMLEADERSTYLE
350
2F8
  3
CTABLESTYLE
350
140
  3
DIMASSOC
350
AC
  3
INDEXCTL
350
35
  3
LAYEREVAL
350
6D29
  3
LAYERNOTIFY
350
6D2A
  3
LIGHTINGUNITS
350
2FB
  3
MSLTSCALE
350
2F9
  0
DICTIONARY
  5
49
102
{ACAD_REACTORS
330
C
102
}
330
C
100
AcDbDictionary
281
     1
  3
AcmBOM
350
161B
  3
AcmStdDictionary
350
4A
  3
AMDTSECTSYM_ARROWCOLOR
350
12B
  0
DICTIONARY
  5
2B
102
{ACAD_REACTORS
330
C
102
}
330
C
100
AcDbDictionary
281
     1
  0
DICTIONARY
  5
1DE
102
{ACAD_REACTORS
330
C
102
}
330
C
100
AcDbDictionary
281
     1
  0
DICTIONARY
  5
4352
102
{ACAD_REACTORS
330
BF
102
}
330
BF
100
AcDbDictionary
281
     1
  0
DICTIONARY
  5
C0
102
{ACAD_REACTORS
330
BF
102
}
330
BF
100
AcDbDictionary
280
     1
281
     1
  0
XRECORD
  5
29D9
102
{ACAD_REACTORS
330
29D8
102
}
330
29D8
100
AcDbXrecord
280
     1
290
     1
  0
XRECORD
  5
29DB
102
{ACAD_REACTORS
330
29DA
102
}
330
29DA
100
AcDbXrecord
280
     1
290
     1
  0
XRECORD
  5
29E2
102
{ACAD_REACTORS
330
29E1
102
}
330
29E1
100
AcDbXrecord
280
     1
290
     1
  0
XRECORD
  5
29E4
102
{ACAD_REACTORS
330
29E3
102
}
330
29E3
100
AcDbXrecord
280
     1
290
     1
  0
XRECORD
  5
29EA
102
{ACAD_REACTORS
330
29E9
102
}
330
29E9
100
AcDbXrecord
280
     1
290
     1
  0
SORTENTSTABLE
  5
A41
102
{ACAD_REACTORS
330
82
102
}
330
82
100
AcDbSortentsTable
330
1F
331
7159
  5
71EF
331
805B
  5
805C
331
7093
  5
70AB
331
7B10
  5
7F9F
331
6EF5
  5
6F27
331
7132
  5
7159
331
358C
  5
358C
331
6AFD
  5
6B07
331
35A2
  5
35A2
331
5AA7
  5
6AB8
331
34D1
  5
34D1
331
5B73
  5
6ABD
331
6B43
  5
6C28
331
70AB
  5
70C3
331
805C
  5
805D
331
89C7
  5
89C7
331
357C
  5
357C
331
35A3
  5
35A3
331
3583
  5
3583
331
6F5A
  5
6F72
331
6F8E
  5
700B
331
70C3
  5
7132
331
6EAD
  5
6EF5
331
6F72
  5
6F8E
331
360B
  5
360C
331
6A82
  5
6AB4
331
6B07
  5
6B43
331
730B
  5
7323
  0
SORTENTSTABLE
  5
67EE
102
{ACAD_REACTORS
330
61BD
102
}
330
61BD
100
AcDbSortentsTable
330
5738
  0
SORTENTSTABLE
  5
834B
102
{ACAD_REACTORS
330
58BD
102
}
330
58BD
100
AcDbSortentsTable
330
57C9
331
6ACB
  5
6ACD
331
6ADB
  5
6ADD
331
6AEB
  5
6AED
331
6ACC
  5
6ACE
331
6ADC
  5
6ADE
331
6AEC
  5
6AEE
331
6ADD
  5
6ADF
331
6ACD
  5
6ACF
331
6AF0
  5
6AF2
331
6AED
  5
6AEF
331
6AF1
  5
6AF3
331
6ACE
  5
6AD0
331
6ADE
  5
6AE0
331
6AEE
  5
6AF0
331
6ADF
  5
6AE1
331
6ACF
  5
6AD1
331
6AF2
  5
6AF4
331
6AEF
  5
6AF1
331
6AC0
  5
6AC2
331
6AF3
  5
6AF5
331
6AD0
  5
6AD2
331
6AE0
  5
6AE2
331
6AC1
  5
6AC3
331
6AE1
  5
6AE3
331
6AD1
  5
6AD3
331
6AF4
  5
6AF6
331
6AC2
  5
6AC4
331
6AF5
  5
6AF7
331
6AD2
  5
6AD4
331
6AE2
  5
6AE4
331
6AC3
  5
6AC5
331
6AE3
  5
6AE5
331
6AD3
  5
6AD5
331
6AF6
  5
6AF8
331
6B9E
  5
6BE9
331
6AC4
  5
6AC6
331
6AF7
  5
6AF9
331
6AD4
  5
6AD6
331
6AE4
  5
6AE6
331
6AC5
  5
6AC7
331
6AE5
  5
6AE7
331
6AD5
  5
6AD7
331
6AF8
  5
6AFA
331
6AC6
  5
6AC8
331
6AD6
  5
6AD8
331
6AE6
  5
6AE8
331
6AF9
  5
6B62
331
6AC7
  5
6AC9
331
6BE9
  5
6AC0
331
6AE7
  5
6AE9
331
6AD7
  5
6AD9
331
6B62
  5
6AC1
331
6AD8
  5
6ADA
331
6AFA
  5
6B9E
331
6AC8
  5
6ACA
331
6AE8
  5
6AEA
331
6AC9
  5
6ACB
331
6AD9
  5
6ADB
331
6AE9
  5
6AEB
331
6ADA
  5
6ADC
331
6ACA
  5
6ACC
331
6AEA
  5
6AEC
  0
SORTENTSTABLE
  5
8289
102
{ACAD_REACTORS
330
5A12
102
}
330
5A12
100
AcDbSortentsTable
330
593C
331
5A0F
  5
5A10
331
5A10
  5
5A11
331
5A11
  5
5A0F
  0
SORTENTSTABLE
  5
8C1C
102
{ACAD_REACTORS
330
63ED
102
}
330
63ED
100
AcDbSortentsTable
330
5A7F
331
8C1B
  5
5A82
331
5A97
  5
5A99
331
5A8F
  5
5A91
331
5A87
  5
5A89
331
5A98
  5
5A9B
331
5A90
  5
5A92
331
5A88
  5
5A8B
331
5A99
  5
8AA8
331
5A91
  5
5A93
331
5A89
  5
5A8D
331
5A92
  5
5A94
331
5A82
  5
5A84
331
5A9B
  5
8C1B
331
5A93
  5
5A95
331
5A8B
  5
5A8E
331
5A83
  5
5A85
331
5A94
  5
5A96
331
8AA8
  5
5A83
331
5A84
  5
5A86
331
5A95
  5
5A97
331
5A8D
  5
5A8F
331
5A85
  5
5A87
331
5A96
  5
5A98
331
5A8E
  5
5A90
331
5A86
  5
5A88
  0
SORTENTSTABLE
  5
8C65
102
{ACAD_REACTORS
330
6435
102
}
330
6435
100
AcDbSortentsTable
330
5B48
331
5B58
  5
5B5B
331
5B4E
  5
5B51
331
5B62
  5
8A6A
331
5B5F
  5
5B63
331
5B56
  5
5B59
331
5B5C
  5
5B5F
331
8A86
  5
5B4E
331
5B53
  5
5B56
331
5B59
  5
5B5C
331
5B50
  5
5B53
331
5B63
  5
8A85
331
5B4F
  5
5B52
331
5B4C
  5
5B50
331
5B60
  5
5B64
331
5B57
  5
5B5A
331
8A6A
  5
5B4C
331
5B5D
  5
5B60
331
5B54
  5
5B57
331
5B51
  5
5B54
331
5B5A
  5
5B5D
331
5B64
  5
8A86
331
5B5E
  5
5B62
331
5B55
  5
5B58
331
5B5B
  5
5B5E
331
8A85
  5
5B4F
331
5B52
  5
5B55
  0
SORTENTSTABLE
  5
83EC
102
{ACAD_REACTORS
330
619A
102
}
330
619A
100
AcDbSortentsTable
330
60F7
331
6114
  5
6115
331
6101
  5
6102
331
6121
  5
6122
331
610E
  5
610F
331
6196
  5
6197
331
60FB
  5
60FC
331
611B
  5
611C
331
6108
  5
6109
331
6115
  5
6116
331
6102
  5
6103
331
6122
  5
6123
331
610F
  5
6110
331
60FC
  5
60FD
331
6197
  5
6198
331
611C
  5
611D
331
6109
  5
610A
331
6116
  5
6117
331
6103
  5
6104
331
6123
  5
6124
331
6110
  5
6111
331
60FD
  5
60FE
331
611D
  5
611E
331
610A
  5
610B
331
6117
  5
6118
331
6104
  5
6105
331
6124
  5
6125
331
6111
  5
6112
331
60FE
  5
60FF
331
6198
  5
6199
331
611E
  5
611F
331
610B
  5
610C
331
6118
  5
6119
331
6105
  5
6106
331
6125
  5
6126
331
6112
  5
6113
331
60FF
  5
6100
331
6199
  5
60FA
331
611F
  5
6120
331
610C
  5
610D
331
6119
  5
611A
331
6106
  5
6107
331
6126
  5
6127
331
6113
  5
6114
331
6100
  5
6101
331
6120
  5
6121
331
610D
  5
610E
331
6195
  5
6196
331
60FA
  5
60FB
331
611A
  5
611B
331
6107
  5
6108
331
6127
  5
6195
  0
DIMASSOC
  5
6EC4
102
{ACAD_REACTORS
330
6EBA
102
}
330
6EBA
100
AcDbDimAssoc
330
6EAD
 90
        3
 70
     0
 71
     0
  1
AcDbOsnapPointRef
 72
    13
331
5B73
331
5B55
 73
     2
 91
        0
 40
0.0
 10
0.0
 20
0.0
 30
2.000000000000000E+50
 75
     0
  1
AcDbOsnapPointRef
 72
    13
331
5B73
331
5B50
 73
     2
 91
        0
 40
0.0
 10
0.0
 20
0.0
 30
2.000000000000000E+50
 75
     0
  0
DIMASSOC
  5
6F10
102
{ACAD_REACTORS
330
6F04
102
}
330
6F04
100
AcDbDimAssoc
330
6EF5
 90
        3
 70
     0
 71
     0
  1
AcDbOsnapPointRef
 72
     1
331
6B07
331
594D
 73
     2
 91
        0
 40
1.0
 10
0.0
 20
0.0
 30
2.000000000000000E+50
 75
     0
  1
AcDbOsnapPointRef
 72
    13
331
5B73
331
5B59
 73
     2
 91
        0
 40
0.0
 10
0.0
 20
0.0
 30
2.000000000000000E+50
 75
     0
  0
DIMASSOC
  5
6F71
102
{ACAD_REACTORS
330
6F67
102
}
330
6F67
100
AcDbDimAssoc
330
6F5A
 90
        3
 70
     0
 71
     0
  1
AcDbOsnapPointRef
 72
     2
331
5B73
331
5B4E
 73
     2
 91
        0
 40
0.5
 10
0.0
 20
0.0
 30
0.0
 75
     0
  1
AcDbOsnapPointRef
 72
     1
331
5B73
331
5B5C
 73
     2
 91
        0
 40
1.0
 10
0.0
 20
0.0
 30
2.000000000000000E+50
 75
     0
  0
DIMASSOC
  5
6F8D
102
{ACAD_REACTORS
330
6F81
102
}
330
6F81
100
AcDbDimAssoc
330
6F72
 90
        3
 70
     0
 71
     0
  1
AcDbOsnapPointRef
 72
     1
331
5B73
331
5B5C
 73
     2
 91
        0
 40
1.0
 10
0.0
 20
0.0
 30
2.000000000000000E+50
 75
     0
  1
AcDbOsnapPointRef
 72
     8
331
5AA7
331
5A82
 73
     2
 91
        0
 40
1.0
 10
0.0
 20
0.0
 30
0.0
 75
     1
  1
AcDbOsnapPointRef
 72
     1
331
5B73
331
5B5C
 73
     2
 91
        0
 40
1.0
 10
0.0
 20
0.0
 30
2.000000000000000E+50
 75
     0
  0
DIMASSOC
  5
6FA5
102
{ACAD_REACTORS
330
6F9B
102
}
330
6F9B
100
AcDbDimAssoc
330
6F8E
 90
        3
 70
     0
 71
     0
  1
AcDbOsnapPointRef
 72
     1
331
5AA7
331
5A82
 73
     2
 91
        0
 40
1.0
 10
0.0
 20
0.0
 30
2.000000000000000E+50
 75
     0
  1
AcDbOsnapPointRef
 72
     2
331
5AA7
331
5A83
 73
     2
 91
        0
 40
0.5
 10
0.0
 20
0.0
 30
0.0
 75
     0
  0
DIMASSOC
  5
70AA
102
{ACAD_REACTORS
330
70A0
102
}
330
70A0
100
AcDbDimAssoc
330
7093
 90
        3
 70
     0
 71
     0
  1
AcDbOsnapPointRef
 72
    13
331
5AA7
331
5A95
 73
     2
 91
        0
 40
0.0
 10
0.0
 20
0.0
 30
2.000000000000000E+50
 75
     0
  1
AcDbOsnapPointRef
 72
    13
331
5AA7
331
5A85
 73
     2
 91
        0
 40
0.0
 10
0.0
 20
0.0
 30
2.000000000000000E+50
 75
     0
  0
DIMASSOC
  5
70C2
102
{ACAD_REACTORS
330
70B8
102
}
330
70B8
100
AcDbDimAssoc
330
70AB
 90
        3
 70
     0
 71
     0
  1
AcDbOsnapPointRef
 72
     1
331
6AFD
331
6ACA
 73
     2
 91
        0
 40
1.0
 10
0.0
 20
0.0
 30
2.000000000000000E+50
 75
     0
  1
AcDbOsnapPointRef
 72
     1
331
6AFD
331
6AC2
 73
     2
 91
        0
 40
1.0
 10
0.0
 20
0.0
 30
2.000000000000000E+50
 75
     0
  0
DIMASSOC
  5
70DA
102
{ACAD_REACTORS
330
70D0
102
}
330
70D0
100
AcDbDimAssoc
330
70C3
 90
        3
 70
     0
 71
     0
  1
AcDbOsnapPointRef
 72
     1
331
6AFD
331
6AE0
 73
     2
 91
        0
 40
1.0
 10
0.0
 20
0.0
 30
2.000000000000000E+50
 75
     0
  1
AcDbOsnapPointRef
 72
     1
331
6AFD
331
6AC3
 73
     2
 91
        0
 40
1.0
 10
0.0
 20
0.0
 30
2.000000000000000E+50
 75
     0
  0
DIMASSOC
  5
714D
102
{ACAD_REACTORS
330
7141
102
}
330
7141
100
AcDbDimAssoc
330
7132
 90
        3
 70
     0
 71
     0
  1
AcDbOsnapPointRef
 72
    13
331
6B07
331
5940
 73
     2
 91
        0
 40
0.0
 10
0.0
 20
0.0
 30
2.000000000000000E+50
 75
     0
  1
AcDbOsnapPointRef
 72
    13
331
6B07
331
5945
 73
     2
 91
        0
 40
0.0
 10
0.0
 20
0.0
 30
2.000000000000000E+50
 75
     0
  0
DIMASSOC
  5
7174
102
{ACAD_REACTORS
330
7168
102
}
330
7168
100
AcDbDimAssoc
330
7159
 90
        3
 70
     0
 71
     0
  1
AcDbOsnapPointRef
 72
    13
331
6B07
331
5945
 73
     2
 91
        0
 40
0.0
 10
0.0
 20
0.0
 30
2.000000000000000E+50
 75
     0
  1
AcDbOsnapPointRef
 72
    13
331
6AFD
331
6AC1
 73
     2
 91
        0
 40
0.0
 10
0.0
 20
0.0
 30
2.000000000000000E+50
 75
     0
  0
DIMASSOC
  5
7322
102
{ACAD_REACTORS
330
7318
102
}
330
7318
100
AcDbDimAssoc
330
730B
 90
        2
 70
     0
 71
     0
  1
AcDbOsnapPointRef
 72
    13
331
6AFD
331
6AC0
 73
     2
 91
        0
 40
0.0
 10
0.0
 20
0.0
 30
2.000000000000000E+50
 75
     0
  0
DIMASSOC
  5
7B27
102
{ACAD_REACTORS
330
7B1D
102
}
330
7B1D
100
AcDbDimAssoc
330
7B10
 90
        3
 70
     0
 71
     0
  1
AcDbOsnapPointRef
 72
    10
331
5B73
331
5B4E
 73
     2
 91
        0
 40
0.0030196077432556
 10
0.0
 20
0.0
 30
0.0
 75
     0
  1
AcDbOsnapPointRef
 72
     8
331
5AA7
331
5A83
 73
     2
 91
        0
 40
0.0030196077432556
 10
0.0
 20
0.0
 30
0.0
 75
     1
  1
AcDbOsnapPointRef
 72
    10
331
5B73
331
5B4E
 73
     2
 91
        0
 40
0.0030196077432556
 10
0.0
 20
0.0
 30
0.0
 75
     0
  0
DIMASSOC
  5
8A16
102
{ACAD_REACTORS
330
8A15
102
}
330
8A15
100
AcDbDimAssoc
330
8A06
 90
        1
 70
     0
 71
     0
  1
AcDbOsnapPointRef
 72
     1
331
5B73
331
5B4E
 73
     0
 91
        0
 40
0.0
 10
0.0
 20
0.0
 30
2.000000000000000E+50
 75
     0
  0
DIMASSOC
  5
8AD3
102
{ACAD_REACTORS
330
8AD2
102
}
330
8AD2
100
AcDbDimAssoc
330
8AC5
 90
        3
 70
     0
 71
     0
  1
AcDbOsnapPointRef
 72
     4
331
6EF5
331
6F25
 73
     0
 91
        0
 40
0.0
 10
0.0
 20
0.0
 30
0.0
 75
     0
  1
AcDbOsnapPointRef
 72
     1
331
5B73
331
5B5D
 73
     0
 91
        0
 40
0.0
 10
0.0
 20
0.0
 30
2.000000000000000E+50
 75
     0
  0
DIMASSOC
  5
8AFF
102
{ACAD_REACTORS
330
8AFE
102
}
330
8AFE
100
AcDbDimAssoc
330
8AEF
 90
        3
 70
     0
 71
     0
  1
AcDbOsnapPointRef
 72
     4
331
8AC5
331
8AED
 73
     0
 91
        0
 40
0.0
 10
0.0
 20
0.0
 30
0.0
 75
     0
  1
AcDbOsnapPointRef
 72
    13
331
5B73
331
5B5C
 73
     0
 91
        0
 40
0.0
 10
0.0
 20
0.0
 30
2.000000000000000E+50
 75
     0
  0
LAYOUT
  5
22
102
{ACAD_REACTORS
330
1A
102
}
330
1A
100
AcDbPlotSettings
  1

  2
KONICA MINOLTA 501 PCL
  4
A4
  6

 40
5.027082920074462
 41
5.027085781097412
 42
5.027069091796875
 43
5.027069091796875
 44
209.9733276367186
 45
296.9259948730469
 46
0.0
 47
4.397925941701743
 48
0.0
 49
0.0
140
0.0
141
0.0
142
1.0
143
1.25741961728592
 70
 11956
 72
     1
 73
     1
 74
     1
  7
SEISA.ctb
 75
     0
147
0.7952794645899124
 76
     0
 77
     2
 78
   300
148
-243.5046412939969
149
-279.6882959044094
100
AcDbLayout
  1
Model
 70
     1
 71
     0
 10
0.0
 20
0.0
 11
12.0
 21
9.0
 12
0.0
 22
0.0
 32
0.0
 14
0.0
 24
0.0
 34
0.0
 15
0.0
 25
0.0
 35
0.0
146
0.0
 13
0.0
 23
0.0
 33
0.0
 16
1.0
 26
0.0
 36
0.0
 17
0.0
 27
1.0
 37
0.0
 76
     0
330
1F
331
27A
1001
ACAD_PSEXT
1000
KONICA MINOLTA 501 PCL
1000
KONICA MINOLTA 501/421/361PCL
1000
IP_192.168.20.231_(1)
1000

1070
     0
  0
LAYOUT
  5
1E
102
{ACAD_REACTORS
330
1A
102
}
330
1A
100
AcDbPlotSettings
  1

  2
none_device
  4
Letter_(8.50_x_11.00_Inches)
  6

 40
6.349999904632567
 41
6.349999904632567
 42
6.350006103515625
 43
6.350006103515625
 44
215.8999938964844
 45
279.3999938964844
 46
0.0
 47
0.0
 48
0.0
 49
0.0
140
0.0
141
0.0
142
1.0
143
1.0
 70
 15024
 72
     1
 73
     1
 74
     5
  7
SEISA.ctb
 75
    16
147
1.0
 76
     0
 77
     2
 78
   300
148
0.0
149
0.0
100
AcDbLayout
  1
レイアウト1
 70
     1
 71
     1
 10
0.0
 20
0.0
 11
420.0
 21
297.0
 12
0.0
 22
0.0
 32
0.0
 14
1.000000000000000E+20
 24
1.000000000000000E+20
 34
1.000000000000000E+20
 15
-1.000000000000000E+20
 25
-1.000000000000000E+20
 35
-1.000000000000000E+20
146
0.0
 13
0.0
 23
0.0
 33
0.0
 16
1.0
 26
0.0
 36
0.0
 17
0.0
 27
1.0
 37
0.0
 76
     0
330
1B
  0
LAYOUT
  5
26
102
{ACAD_REACTORS
330
1A
102
}
330
1A
100
AcDbPlotSettings
  1

  2
none_device
  4
Letter_(8.50_x_11.00_Inches)
  6

 40
6.349999904632567
 41
6.349999904632567
 42
6.350006103515625
 43
6.350006103515625
 44
215.8999938964844
 45
279.3999938964844
 46
0.0
 47
0.0
 48
0.0
 49
0.0
140
0.0
141
0.0
142
1.0
143
1.0
 70
 15024
 72
     1
 73
     1
 74
     5
  7
SEISA.ctb
 75
    16
147
1.0
 76
     0
 77
     2
 78
   300
148
0.0
149
0.0
100
AcDbLayout
  1
レイアウト2
 70
     1
 71
     2
 10
0.0
 20
0.0
 11
12.0
 21
9.0
 12
0.0
 22
0.0
 32
0.0
 14
0.0
 24
0.0
 34
0.0
 15
0.0
 25
0.0
 35
0.0
146
0.0
 13
0.0
 23
0.0
 33
0.0
 16
1.0
 26
0.0
 36
0.0
 17
0.0
 27
1.0
 37
0.0
 76
     0
330
23
  0
MATERIAL
  5
27D
102
{ACAD_REACTORS
330
C4
102
}
330
C4
100
AcDbMaterial
  1
ByBlock
 73
     1
 78
     1
172
     1
176
     1
270
     1
274
     1
 94
       63
  0
MATERIAL
  5
27C
102
{ACAD_REACTORS
330
C4
102
}
330
C4
100
AcDbMaterial
  1
ByLayer
 73
     1
 78
     1
172
     1
176
     1
270
     1
274
     1
 94
       63
  0
MATERIAL
  5
27E
102
{ACAD_REACTORS
330
C4
102
}
330
C4
100
AcDbMaterial
  1
Global
 73
     1
 78
     1
172
     1
176
     1
270
     1
274
     1
 94
       63
  0
MLEADERSTYLE
  5
2D6
102
{ACAD_REACTORS
330
2D5
102
}
330
2D5
100
AcDbMLeaderStyle
170
     2
171
     1
172
     0
 90
        2
 40
0.0
 41
0.0
173
     1
 91
-1056964608
340
14
 92
       -2
290
     1
 42
2.0
291
     1
 43
0.36
  3
Standard
 44
4.0
300

342
11
174
     1
178
     6
175
     1
176
     0
 93
-1056964608
 45
4.0
292
     0
297
     0
 46
4.0
 94
-1056964608
 47
1.0
 49
1.0
140
1.0
293
     1
141
0.0
294
     1
177
     0
142
1.0
295
     0
296
     0
143
0.125
1001
ACAD_MLEADERVER
1070
     2
  0
MLINESTYLE
  5
18
102
{ACAD_REACTORS
330
17
102
}
330
17
100
AcDbMlineStyle
  2
STANDARD
 70
     0
  3

 62
   256
 51
90.0
 52
90.0
 71
     2
 49
0.5
 62
   256
  6
BYLAYER
 49
-0.5
 62
   256
  6
BYLAYER
  0
PLOTSETTINGS
  5
1C7E
102
{ACAD_REACTORS
330
19
102
}
330
19
100
AcDbPlotSettings
  1
SEISA基本
  2
none_device
  4
Letter_(8.50_x_11.00_Inches)
  6

 40
6.349999904632567
 41
6.349999904632567
 42
6.350006103515625
 43
6.350006103515625
 44
215.8999938964844
 45
279.3999938964844
 46
7.302498226506357
 47
0.0
 48
0.0
 49
0.0
140
0.0
141
0.0
142
1.0
143
1.574803221122935
 70
 11956
 72
     1
 73
     1
 74
     2
  7
SEISA.ctb
 75
     0
147
0.6349999711627054
 76
     0
 77
     2
 78
   300
148
0.0
149
0.0
1001
ACAD_PSEXT
1000
なし
1000
なし
1000
適切ではありません
1000
新しいプロッタ環境設定名を選択しない限り、レイアウトは印刷されません。
1070
     0
  0
ACDBPLACEHOLDER
  5
F
102
{ACAD_REACTORS
330
E
102
}
330
E
  0
SCALE
  5
89BE
102
{ACAD_REACTORS
330
2B3
102
}
330
2B3
100
AcDbScale
 70
     0
300
1:1.5
140
1.0
141
1.5
290
     0
  0
SCALE
  5
2B4
102
{ACAD_REACTORS
330
2B3
102
}
330
2B3
100
AcDbScale
 70
     0
300
1:1
140
1.0
141
1.0
290
     1
  0
SCALE
  5
2B5
102
{ACAD_REACTORS
330
2B3
102
}
330
2B3
100
AcDbScale
 70
     0
300
1:2
140
1.0
141
2.0
290
     0
  0
SCALE
  5
2B6
102
{ACAD_REACTORS
330
2B3
102
}
330
2B3
100
AcDbScale
 70
     0
300
1:4
140
1.0
141
4.0
290
     0
  0
SCALE
  5
2B7
102
{ACAD_REACTORS
330
2B3
102
}
330
2B3
100
AcDbScale
 70
     0
300
1:5
140
1.0
141
5.0
290
     0
  0
SCALE
  5
2B8
102
{ACAD_REACTORS
330
2B3
102
}
330
2B3
100
AcDbScale
 70
     0
300
1:8
140
1.0
141
8.0
290
     0
  0
SCALE
  5
2B9
102
{ACAD_REACTORS
330
2B3
102
}
330
2B3
100
AcDbScale
 70
     0
300
1:10
140
1.0
141
10.0
290
     0
  0
SCALE
  5
2BA
102
{ACAD_REACTORS
330
2B3
102
}
330
2B3
100
AcDbScale
 70
     0
300
1:16
140
1.0
141
16.0
290
     0
  0
SCALE
  5
2BB
102
{ACAD_REACTORS
330
2B3
102
}
330
2B3
100
AcDbScale
 70
     0
300
1:20
140
1.0
141
20.0
290
     0
  0
SCALE
  5
2BC
102
{ACAD_REACTORS
330
2B3
102
}
330
2B3
100
AcDbScale
 70
     0
300
1:30
140
1.0
141
30.0
290
     0
  0
SCALE
  5
2BD
102
{ACAD_REACTORS
330
2B3
102
}
330
2B3
100
AcDbScale
 70
     0
300
1:40
140
1.0
141
40.0
290
     0
  0
SCALE
  5
2BE
102
{ACAD_REACTORS
330
2B3
102
}
330
2B3
100
AcDbScale
 70
     0
300
1:50
140
1.0
141
50.0
290
     0
  0
SCALE
  5
2BF
102
{ACAD_REACTORS
330
2B3
102
}
330
2B3
100
AcDbScale
 70
     0
300
1:100
140
1.0
141
100.0
290
     0
  0
SCALE
  5
2C0
102
{ACAD_REACTORS
330
2B3
102
}
330
2B3
100
AcDbScale
 70
     0
300
2:1
140
2.0
141
1.0
290
     0
  0
SCALE
  5
2C1
102
{ACAD_REACTORS
330
2B3
102
}
330
2B3
100
AcDbScale
 70
     0
300
4:1
140
4.0
141
1.0
290
     0
  0
SCALE
  5
2C2
102
{ACAD_REACTORS
330
2B3
102
}
330
2B3
100
AcDbScale
 70
     0
300
8:1
140
8.0
141
1.0
290
     0
  0
SCALE
  5
2C3
102
{ACAD_REACTORS
330
2B3
102
}
330
2B3
100
AcDbScale
 70
     0
300
10:1
140
10.0
141
1.0
290
     0
  0
SCALE
  5
2C4
102
{ACAD_REACTORS
330
2B3
102
}
330
2B3
100
AcDbScale
 70
     0
300
100:1
140
100.0
141
1.0
290
     0
  0
SCALE
  5
2C5
102
{ACAD_REACTORS
330
2B3
102
}
330
2B3
100
AcDbScale
 70
     0
300
1/128" = 1'-0"
140
0.0078125
141
12.0
290
     0
  0
SCALE
  5
2C6
102
{ACAD_REACTORS
330
2B3
102
}
330
2B3
100
AcDbScale
 70
     0
300
1/64" = 1'-0"
140
0.015625
141
12.0
290
     0
  0
SCALE
  5
2C7
102
{ACAD_REACTORS
330
2B3
102
}
330
2B3
100
AcDbScale
 70
     0
300
1/32" = 1'-0"
140
0.03125
141
12.0
290
     0
  0
SCALE
  5
2C8
102
{ACAD_REACTORS
330
2B3
102
}
330
2B3
100
AcDbScale
 70
     0
300
1/16" = 1'-0"
140
0.0625
141
12.0
290
     0
  0
SCALE
  5
2C9
102
{ACAD_REACTORS
330
2B3
102
}
330
2B3
100
AcDbScale
 70
     0
300
3/32" = 1'-0"
140
0.09375
141
12.0
290
     0
  0
SCALE
  5
2CA
102
{ACAD_REACTORS
330
2B3
102
}
330
2B3
100
AcDbScale
 70
     0
300
1/8" = 1'-0"
140
0.125
141
12.0
290
     0
  0
SCALE
  5
2CB
102
{ACAD_REACTORS
330
2B3
102
}
330
2B3
100
AcDbScale
 70
     0
300
3/16" = 1'-0"
140
0.1875
141
12.0
290
     0
  0
SCALE
  5
2CC
102
{ACAD_REACTORS
330
2B3
102
}
330
2B3
100
AcDbScale
 70
     0
300
1/4" = 1'-0"
140
0.25
141
12.0
290
     0
  0
SCALE
  5
2CD
102
{ACAD_REACTORS
330
2B3
102
}
330
2B3
100
AcDbScale
 70
     0
300
3/8" = 1'-0"
140
0.375
141
12.0
290
     0
  0
SCALE
  5
2CE
102
{ACAD_REACTORS
330
2B3
102
}
330
2B3
100
AcDbScale
 70
     0
300
1/2" = 1'-0"
140
0.5
141
12.0
290
     0
  0
SCALE
  5
2CF
102
{ACAD_REACTORS
330
2B3
102
}
330
2B3
100
AcDbScale
 70
     0
300
3/4" = 1'-0"
140
0.75
141
12.0
290
     0
  0
SCALE
  5
2D0
102
{ACAD_REACTORS
330
2B3
102
}
330
2B3
100
AcDbScale
 70
     0
300
1" = 1'-0"
140
1.0
141
12.0
290
     0
  0
SCALE
  5
2D1
102
{ACAD_REACTORS
330
2B3
102
}
330
2B3
100
AcDbScale
 70
     0
300
1-1/2" = 1'-0"
140
1.5
141
12.0
290
     0
  0
SCALE
  5
2D2
102
{ACAD_REACTORS
330
2B3
102
}
330
2B3
100
AcDbScale
 70
     0
300
3" = 1'-0"
140
3.0
141
12.0
290
     0
  0
SCALE
  5
2D3
102
{ACAD_REACTORS
330
2B3
102
}
330
2B3
100
AcDbScale
 70
     0
300
6" = 1'-0"
140
6.0
141
12.0
290
     0
  0
SCALE
  5
2D4
102
{ACAD_REACTORS
330
2B3
102
}
330
2B3
100
AcDbScale
 70
     0
300
1'-0" = 1'-0"
140
12.0
141
12.0
290
     0
  0
TABLESTYLE
  5
122
102
{ACAD_XDICTIONARY
360
2F5
102
}
102
{ACAD_REACTORS
330
121
102
}
330
121
100
AcDbTableStyle
  3
Standard
 70
     0
 71
     0
 40
1.5
 41
1.5
280
     0
281
     0
  7
STANDARD
140
4.5
170
     2
 62
     0
 63
     7
283
     0
 90
      512
 91
        0
  1

274
    -2
284
     1
 64
     0
275
    -2
285
     1
 65
     0
276
    -2
286
     1
 66
     0
277
    -2
287
     1
 67
     0
278
    -2
288
     1
 68
     0
279
    -2
289
     1
 69
     0
  7
STANDARD
140
6.0
170
     5
 62
     0
 63
     7
283
     0
 90
      512
 91
        0
  1

274
    -2
284
     1
 64
     0
275
    -2
285
     1
 65
     0
276
    -2
286
     1
 66
     0
277
    -2
287
     1
 67
     0
278
    -2
288
     1
 68
     0
279
    -2
289
     1
 69
     0
  7
STANDARD
140
4.5
170
     5
 62
     0
 63
     7
283
     0
 90
      512
 91
        0
  1

274
    -2
284
     1
 64
     0
275
    -2
285
     1
 65
     0
276
    -2
286
     1
 66
     0
277
    -2
287
     1
 67
     0
278
    -2
288
     1
 68
     0
279
    -2
289
     1
 69
     0
  0
VISUALSTYLE
  5
285
102
{ACAD_REACTORS
330
27F
102
}
330
27F
100
AcDbVisualStyle
  2
2dWireframe
 70
     4
 71
     0
 72
     2
 73
     0
 90
        0
 40
-0.6
 41
-30.0
 62
     5
 63
     7
421
 16777215
 74
     1
 91
        4
 64
     7
 65
   257
 75
     1
175
     1
 42
1.0
 92
        0
 66
   257
 43
1.0
 76
     1
 77
     6
 78
     2
 67
     7
 79
     5
170
     0
171
     0
290
     0
174
     0
 93
        1
 44
0.0
173
     0
291
     0
 45
0.0
  0
VISUALSTYLE
  5
287
102
{ACAD_REACTORS
330
27F
102
}
330
27F
100
AcDbVisualStyle
  2
3D Hidden
 70
     6
 71
     1
 72
     2
 73
     2
 90
        0
 40
-0.6
 41
-30.0
 62
     5
 63
     7
421
 16777215
 74
     2
 91
        2
 64
     7
 65
   257
 75
     2
175
     1
 42
40.0
 92
        0
 66
   257
 43
1.0
 76
     1
 77
     6
 78
     2
 67
     7
 79
     3
170
     0
171
     0
290
     0
174
     0
 93
        1
 44
0.0
173
     0
291
     0
 45
0.0
  0
VISUALSTYLE
  5
286
102
{ACAD_REACTORS
330
27F
102
}
330
27F
100
AcDbVisualStyle
  2
3dWireframe
 70
     5
 71
     0
 72
     2
 73
     0
 90
        0
 40
-0.6
 41
-30.0
 62
     5
 63
     7
421
 16777215
 74
     1
 91
        4
 64
     7
 65
   257
 75
     1
175
     1
 42
1.0
 92
        0
 66
   257
 43
1.0
 76
     1
 77
     6
 78
     2
 67
     7
 79
     5
170
     0
171
     0
290
     0
174
     0
 93
        1
 44
0.0
173
     0
291
     0
 45
0.0
  0
VISUALSTYLE
  5
284
102
{ACAD_REACTORS
330
27F
102
}
330
27F
100
AcDbVisualStyle
  2
Basic
 70
     7
 71
     1
 72
     0
 73
     1
 90
        0
 40
-0.6
 41
-30.0
 62
     5
 63
     7
421
 16777215
 74
     0
 91
        4
 64
     7
 65
   257
 75
     1
175
     1
 42
1.0
 92
        8
 66
     7
 43
1.0
 76
     1
 77
     6
 78
     2
 67
     7
 79
     5
170
     0
171
     0
290
     0
174
     0
 93
        1
 44
0.0
173
     0
291
     1
 45
0.0
  0
VISUALSTYLE
  5
28B
102
{ACAD_REACTORS
330
27F
102
}
330
27F
100
AcDbVisualStyle
  2
Brighten
 70
    12
 71
     2
 72
     2
 73
     0
 90
        0
 40
-0.6
 41
-30.0
 62
     5
 63
     7
421
 16777215
 74
     1
 91
        4
 64
     7
 65
   257
 75
     1
175
     1
 42
1.0
 92
        8
 66
     7
 43
1.0
 76
     1
 77
     6
 78
     2
 67
     7
 79
     5
170
     0
171
     0
290
     0
174
     0
 93
        1
 44
50.0
173
     0
291
     1
 45
0.0
  0
VISUALSTYLE
  5
28F
102
{ACAD_REACTORS
330
27F
102
}
330
27F
100
AcDbVisualStyle
  2
ColorChange
 70
    16
 71
     2
 72
     2
 73
     3
 90
        0
 40
-0.6
 41
-30.0
 62
     5
 63
     8
421
  8421504
 74
     1
 91
        4
 64
     7
 65
   257
 75
     1
175
     1
 42
1.0
 92
        8
 66
     8
424
  8421504
 43
1.0
 76
     1
 77
     6
 78
     2
 67
     7
 79
     5
170
     0
171
     0
290
     0
174
     0
 93
        1
 44
0.0
173
     0
291
     1
 45
0.0
  0
VISUALSTYLE
  5
288
102
{ACAD_REACTORS
330
27F
102
}
330
27F
100
AcDbVisualStyle
  2
Conceptual
 70
     9
 71
     3
 72
     2
 73
     0
 90
        0
 40
-0.6
 41
-30.0
 62
     5
 63
     7
421
 16777215
 74
     2
 91
        2
 64
     7
 65
   257
 75
     1
175
     1
 42
40.0
 92
        8
 66
     7
 43
1.0
 76
     1
 77
     6
 78
     2
 67
     7
 79
     3
170
     0
171
     0
290
     0
174
     0
 93
        1
 44
0.0
173
     0
291
     0
 45
0.0
  0
VISUALSTYLE
  5
28A
102
{ACAD_REACTORS
330
27F
102
}
330
27F
100
AcDbVisualStyle
  2
Dim
 70
    11
 71
     2
 72
     2
 73
     0
 90
        0
 40
-0.6
 41
-30.0
 62
     5
 63
     7
421
 16777215
 74
     1
 91
        4
 64
     7
 65
   257
 75
     1
175
     1
 42
1.0
 92
        8
 66
     7
 43
1.0
 76
     1
 77
     6
 78
     2
 67
     7
 79
     5
170
     0
171
     0
290
     0
174
     0
 93
        1
 44
-50.0
173
     0
291
     1
 45
0.0
  0
VISUALSTYLE
  5
28E
102
{ACAD_REACTORS
330
27F
102
}
330
27F
100
AcDbVisualStyle
  2
Facepattern
 70
    15
 71
     2
 72
     2
 73
     0
 90
        0
 40
-0.6
 41
-30.0
 62
     5
 63
     7
421
 16777215
 74
     1
 91
        4
 64
     7
 65
   257
 75
     1
175
     1
 42
1.0
 92
        8
 66
     7
 43
1.0
 76
     1
 77
     6
 78
     2
 67
     7
 79
     5
170
     0
171
     0
290
     0
174
     0
 93
        1
 44
0.0
173
     0
291
     1
 45
0.0
  0
VISUALSTYLE
  5
280
102
{ACAD_REACTORS
330
27F
102
}
330
27F
100
AcDbVisualStyle
  2
Flat
 70
     0
 71
     2
 72
     1
 73
     1
 90
        2
 40
-0.6
 41
30.0
 62
     5
 63
     7
421
 16777215
 74
     0
 91
        4
 64
     7
 65
   257
 75
     1
175
     1
 42
1.0
 92
        8
 66
     7
 43
1.0
 76
     1
 77
     6
 78
     2
 67
     7
 79
     5
170
     0
171
     0
290
     0
174
     0
 93
       13
 44
0.0
173
     0
291
     1
 45
0.0
  0
VISUALSTYLE
  5
281
102
{ACAD_REACTORS
330
27F
102
}
330
27F
100
AcDbVisualStyle
  2
FlatWithEdges
 70
     1
 71
     2
 72
     1
 73
     1
 90
        2
 40
-0.6
 41
30.0
 62
     5
 63
     7
421
 16777215
 74
     1
 91
        4
 64
     7
 65
   257
 75
     1
175
     1
 42
1.0
 92
        0
 66
   257
 43
1.0
 76
     1
 77
     6
 78
     2
 67
     7
 79
     5
170
     0
171
     0
290
     0
174
     0
 93
       13
 44
0.0
173
     0
291
     1
 45
0.0
  0
VISUALSTYLE
  5
282
102
{ACAD_REACTORS
330
27F
102
}
330
27F
100
AcDbVisualStyle
  2
Gouraud
 70
     2
 71
     2
 72
     2
 73
     1
 90
        2
 40
-0.6
 41
30.0
 62
     5
 63
     7
421
 16777215
 74
     0
 91
        4
 64
     7
 65
   257
 75
     1
175
     1
 42
1.0
 92
        0
 66
     7
 43
1.0
 76
     1
 77
     6
 78
     2
 67
     7
 79
     5
170
     0
171
     0
290
     0
174
     0
 93
       13
 44
0.0
173
     0
291
     1
 45
0.0
  0
VISUALSTYLE
  5
283
102
{ACAD_REACTORS
330
27F
102
}
330
27F
100
AcDbVisualStyle
  2
GouraudWithEdges
 70
     3
 71
     2
 72
     2
 73
     1
 90
        2
 40
-0.6
 41
30.0
 62
     5
 63
     7
421
 16777215
 74
     1
 91
        4
 64
     7
 65
   257
 75
     1
175
     1
 42
1.0
 92
        0
 66
   257
 43
1.0
 76
     1
 77
     6
 78
     2
 67
     7
 79
     5
170
     0
171
     0
290
     0
174
     0
 93
       13
 44
0.0
173
     0
291
     1
 45
0.0
  0
VISUALSTYLE
  5
28D
102
{ACAD_REACTORS
330
27F
102
}
330
27F
100
AcDbVisualStyle
  2
Linepattern
 70
    14
 71
     2
 72
     2
 73
     0
 90
        0
 40
-0.6
 41
-30.0
 62
     5
 63
     7
421
 16777215
 74
     1
 91
        4
 64
     7
 65
   257
 75
     7
175
     7
 42
1.0
 92
        8
 66
     7
 43
1.0
 76
     1
 77
     6
 78
     2
 67
     7
 79
     5
170
     0
171
     0
290
     0
174
     0
 93
        1
 44
0.0
173
     0
291
     1
 45
0.0
  0
VISUALSTYLE
  5
289
102
{ACAD_REACTORS
330
27F
102
}
330
27F
100
AcDbVisualStyle
  2
Realistic
 70
     8
 71
     2
 72
     2
 73
     0
 90
        0
 40
-0.6
 41
-30.0
 62
     5
 63
     7
421
 16777215
 74
     1
 91
        0
 64
     7
 65
   257
 75
     1
175
     1
 42
1.0
 92
        8
 66
     8
424
  7895160
 43
1.0
 76
     1
 77
     6
 78
     2
 67
     7
 79
     5
170
     0
171
     0
290
     0
174
     0
 93
       13
 44
0.0
173
     0
291
     0
 45
0.0
  0
VISUALSTYLE
  5
28C
102
{ACAD_REACTORS
330
27F
102
}
330
27F
100
AcDbVisualStyle
  2
Thicken
 70
    13
 71
     2
 72
     2
 73
     0
 90
        0
 40
-0.6
 41
-30.0
 62
     5
 63
     7
421
 16777215
 74
     1
 91
        4
 64
     7
 65
   257
 75
     1
175
     1
 42
1.0
 92
       12
 66
     7
 43
1.0
 76
     1
 77
     6
 78
     2
 67
     7
 79
     5
170
     0
171
     0
290
     0
174
     0
 93
        1
 44
0.0
173
     0
291
     1
 45
0.0
  0
DICTIONARYVAR
  5
2FA
102
{ACAD_REACTORS
330
34
102
}
330
34
100
DictionaryVariables
280
     0
  1
1:2
  0
DICTIONARYVAR
  5
2F8
102
{ACAD_REACTORS
330
34
102
}
330
34
100
DictionaryVariables
280
     0
  1
STANDARD
  0
DICTIONARYVAR
  5
140
102
{ACAD_REACTORS
330
34
102
}
330
34
100
DictionaryVariables
280
     0
  1
STANDARD
  0
DICTIONARYVAR
  5
AC
102
{ACAD_REACTORS
330
34
102
}
330
34
100
DictionaryVariables
280
     0
  1
1
  0
DICTIONARYVAR
  5
35
102
{ACAD_REACTORS
330
34
102
}
330
34
100
DictionaryVariables
280
     0
  1
1
  0
DICTIONARYVAR
  5
6D29
102
{ACAD_REACTORS
330
34
102
}
330
34
100
DictionaryVariables
280
     0
  1
1
  0
DICTIONARYVAR
  5
6D2A
102
{ACAD_REACTORS
330
34
102
}
330
34
100
DictionaryVariables
280
     0
  1
15
  0
DICTIONARYVAR
  5
2FB
102
{ACAD_REACTORS
330
34
102
}
330
34
100
DictionaryVariables
280
     0
  1
0
  0
DICTIONARYVAR
  5
2F9
102
{ACAD_REACTORS
330
34
102
}
330
34
100
DictionaryVariables
280
     0
  1
0
  0
DICTIONARY
  5
161B
102
{ACAD_REACTORS
330
49
102
}
330
49
100
AcDbDictionary
281
     1
  0
DICTIONARY
  5
4A
102
{ACAD_REACTORS
330
49
102
}
330
49
100
AcDbDictionary
281
     1
  0
XRECORD
  5
12B
102
{ACAD_REACTORS
330
49
102
}
330
49
100
AcDbXrecord
280
     1
 90
-1023410169
  0
DICTIONARY
  5
2F5
330
122
100
AcDbDictionary
280
     1
281
     1
  3
ACAD_ROUNDTRIP_2008_TABLESTYLE_CELLSTYLEMAP
360
8E33
  0
CELLSTYLEMAP
  5
8E33
102
{ACAD_REACTORS
330
2F5
102
}
330
2F5
100
AcDbCellStyleMap
 90
        3
300
CELLSTYLE
  1
TABLEFORMAT_BEGIN
 90
        5
170
     1
 91
        0
 92
    32768
 62
   257
 93
        1
300
CONTENTFORMAT
  1
CONTENTFORMAT_BEGIN
 90
        0
 91
        0
 92
      512
 93
        0
300

 40
0.0
140
1.0
 94
        5
 62
     0
340
11
144
6.0
309
CONTENTFORMAT_END
171
     1
301
MARGIN
  1
CELLMARGIN_BEGIN
 40
1.5
 40
1.5
 40
1.5
 40
1.5
 40
0.18
 40
0.18
309
CELLMARGIN_END
 94
        6
 95
        1
302
GRIDFORMAT
  1
GRIDFORMAT_BEGIN
 90
        0
 91
        1
 62
     0
 92
       -2
340
0
 93
        0
 40
0.045
309
GRIDFORMAT_END
 95
        2
302
GRIDFORMAT
  1
GRIDFORMAT_BEGIN
 90
        0
 91
        1
 62
     0
 92
       -2
340
0
 93
        0
 40
0.045
309
GRIDFORMAT_END
 95
        4
302
GRIDFORMAT
  1
GRIDFORMAT_BEGIN
 90
        0
 91
        1
 62
     0
 92
       -2
340
0
 93
        0
 40
0.045
309
GRIDFORMAT_END
 95
        8
302
GRIDFORMAT
  1
GRIDFORMAT_BEGIN
 90
        0
 91
        1
 62
     0
 92
       -2
340
0
 93
        0
 40
0.045
309
GRIDFORMAT_END
 95
       16
302
GRIDFORMAT
  1
GRIDFORMAT_BEGIN
 90
        0
 91
        1
 62
     0
 92
       -2
340
0
 93
        0
 40
0.045
309
GRIDFORMAT_END
 95
       32
302
GRIDFORMAT
  1
GRIDFORMAT_BEGIN
 90
        0
 91
        1
 62
     0
 92
       -2
340
0
 93
        0
 40
0.045
309
GRIDFORMAT_END
309
TABLEFORMAT_END
  1
CELLSTYLE_BEGIN
 90
        1
 91
        1
300
_TITLE
309
CELLSTYLE_END
300
CELLSTYLE
  1
TABLEFORMAT_BEGIN
 90
        5
170
     1
 91
        0
 92
        0
 62
   257
 93
        1
300
CONTENTFORMAT
  1
CONTENTFORMAT_BEGIN
 90
        0
 91
        0
 92
      512
 93
        0
300

 40
0.0
140
1.0
 94
        5
 62
     0
340
11
144
4.5
309
CONTENTFORMAT_END
171
     1
301
MARGIN
  1
CELLMARGIN_BEGIN
 40
1.5
 40
1.5
 40
1.5
 40
1.5
 40
0.18
 40
0.18
309
CELLMARGIN_END
 94
        6
 95
        1
302
GRIDFORMAT
  1
GRIDFORMAT_BEGIN
 90
        0
 91
        1
 62
     0
 92
       -2
340
0
 93
        0
 40
0.045
309
GRIDFORMAT_END
 95
        2
302
GRIDFORMAT
  1
GRIDFORMAT_BEGIN
 90
        0
 91
        1
 62
     0
 92
       -2
340
0
 93
        0
 40
0.045
309
GRIDFORMAT_END
 95
        4
302
GRIDFORMAT
  1
GRIDFORMAT_BEGIN
 90
        0
 91
        1
 62
     0
 92
       -2
340
0
 93
        0
 40
0.045
309
GRIDFORMAT_END
 95
        8
302
GRIDFORMAT
  1
GRIDFORMAT_BEGIN
 90
        0
 91
        1
 62
     0
 92
       -2
340
0
 93
        0
 40
0.045
309
GRIDFORMAT_END
 95
       16
302
GRIDFORMAT
  1
GRIDFORMAT_BEGIN
 90
        0
 91
        1
 62
     0
 92
       -2
340
0
 93
        0
 40
0.045
309
GRIDFORMAT_END
 95
       32
302
GRIDFORMAT
  1
GRIDFORMAT_BEGIN
 90
        0
 91
        1
 62
     0
 92
       -2
340
0
 93
        0
 40
0.045
309
GRIDFORMAT_END
309
TABLEFORMAT_END
  1
CELLSTYLE_BEGIN
 90
        2
 91
        1
300
_HEADER
309
CELLSTYLE_END
300
CELLSTYLE
  1
TABLEFORMAT_BEGIN
 90
        5
170
     1
 91
        0
 92
        0
 62
   257
 93
        1
300
CONTENTFORMAT
  1
CONTENTFORMAT_BEGIN
 90
        0
 91
        0
 92
      512
 93
        0
300

 40
0.0
140
1.0
 94
        2
 62
     0
340
11
144
4.5
309
CONTENTFORMAT_END
171
     1
301
MARGIN
  1
CELLMARGIN_BEGIN
 40
1.5
 40
1.5
 40
1.5
 40
1.5
 40
0.18
 40
0.18
309
CELLMARGIN_END
 94
        6
 95
        1
302
GRIDFORMAT
  1
GRIDFORMAT_BEGIN
 90
        0
 91
        1
 62
     0
 92
       -2
340
0
 93
        0
 40
0.045
309
GRIDFORMAT_END
 95
        2
302
GRIDFORMAT
  1
GRIDFORMAT_BEGIN
 90
        0
 91
        1
 62
     0
 92
       -2
340
0
 93
        0
 40
0.045
309
GRIDFORMAT_END
 95
        4
302
GRIDFORMAT
  1
GRIDFORMAT_BEGIN
 90
        0
 91
        1
 62
     0
 92
       -2
340
0
 93
        0
 40
0.045
309
GRIDFORMAT_END
 95
        8
302
GRIDFORMAT
  1
GRIDFORMAT_BEGIN
 90
        0
 91
        1
 62
     0
 92
       -2
340
0
 93
        0
 40
0.045
309
GRIDFORMAT_END
 95
       16
302
GRIDFORMAT
  1
GRIDFORMAT_BEGIN
 90
        0
 91
        1
 62
     0
 92
       -2
340
0
 93
        0
 40
0.045
309
GRIDFORMAT_END
 95
       32
302
GRIDFORMAT
  1
GRIDFORMAT_BEGIN
 90
        0
 91
        1
 62
     0
 92
       -2
340
0
 93
        0
 40
0.045
309
GRIDFORMAT_END
309
TABLEFORMAT_END
  1
CELLSTYLE_BEGIN
 90
        3
 91
        2
300
_DATA
309
CELLSTYLE_END
  0
ENDSEC
  0
EOF
