  0
SECTION
  2
HEADER
  9
$ACADVER
  1
AC1021
  9
$ACADMAINTVER
 70
    26
  9
$DWGCODEPAGE
  3
ANSI_932
  9
$LASTSAVEDBY
  1
Htm_Terada
  9
$CUSTOMPROPERTYTAG
  1
AmdtFileType
  9
$CUSTOMPROPERTY
  1
84
  9
$INSBASE
 10
0.0
 20
0.0
 30
0.0
  9
$EXTMIN
 10
269.1866483750344
 20
272.6602540500005
 30
0.0
  9
$EXTMAX
 10
590.9385622570312
 20
514.0000000000005
 30
0.0
  9
$LIMMIN
 10
0.0000003828677109
 20
0.000000738764129
  9
$LIMMAX
 10
840.0000003828676
 20
594.0000007387642
  9
$ORTHOMODE
 70
     0
  9
$REGENMODE
 70
     1
  9
$FILLMODE
 70
     1
  9
$QTEXTMODE
 70
     0
  9
$MIRRTEXT
 70
     1
  9
$LTSCALE
 40
2.0
  9
$ATTMODE
 70
     1
  9
$TEXTSIZE
 40
25.0
  9
$TRACEWID
 40
1.0
  9
$TEXTSTYLE
  7
SEISA
  9
$CLAYER
  8
AM_0 外形線1
  9
$CELTYPE
  6
ByLayer
  9
$CECOLOR
 62
   256
  9
$CELTSCALE
 40
1.0
  9
$DISPSILH
 70
     0
  9
$DIMSCALE
 40
2.0
  9
$DIMASZ
 40
2.5
  9
$DIMEXO
 40
0.625
  9
$DIMDLI
 40
10.0
  9
$DIMRND
 40
0.0
  9
$DIMDLE
 40
0.0
  9
$DIMEXE
 40
0.625
  9
$DIMTP
 40
0.1
  9
$DIMTM
 40
0.1
  9
$DIMTXT
 40
3.5
  9
$DIMCEN
 40
0.0
  9
$DIMTSZ
 40
0.0
  9
$DIMTOL
 70
     0
  9
$DIMLIM
 70
     0
  9
$DIMTIH
 70
     0
  9
$DIMTOH
 70
     0
  9
$DIMSE1
 70
     0
  9
$DIMSE2
 70
     0
  9
$DIMTAD
 70
     3
  9
$DIMZIN
 70
     8
  9
$DIMBLK
  1
Open30
  9
$DIMASO
 70
     1
  9
$DIMSHO
 70
     1
  9
$DIMPOST
  1

  9
$DIMAPOST
  1
"
  9
$DIMALT
 70
     0
  9
$DIMALTD
 70
     2
  9
$DIMALTF
 40
0.0393701
  9
$DIMLFAC
 40
1.0
  9
$DIMTOFL
 70
     1
  9
$DIMTVP
 40
0.0
  9
$DIMTIX
 70
     0
  9
$DIMSOXD
 70
     0
  9
$DIMSAH
 70
     0
  9
$DIMBLK1
  1

  9
$DIMBLK2
  1

  9
$DIMSTYLE
  2
SEISA
  9
$DIMCLRD
 70
     3
  9
$DIMCLRE
 70
     3
  9
$DIMCLRT
 70
     3
  9
$DIMTFAC
 40
0.71
  9
$DIMGAP
 40
1.5
  9
$DIMJUST
 70
     0
  9
$DIMSD1
 70
     0
  9
$DIMSD2
 70
     0
  9
$DIMTOLJ
 70
     0
  9
$DIMTZIN
 70
     0
  9
$DIMALTZ
 70
     0
  9
$DIMALTTZ
 70
     8
  9
$DIMUPT
 70
     0
  9
$DIMDEC
 70
     2
  9
$DIMTDEC
 70
     2
  9
$DIMALTU
 70
     2
  9
$DIMALTTD
 70
     2
  9
$DIMTXSTY
  7
SEISA
  9
$DIMAUNIT
 70
     0
  9
$DIMADEC
 70
     0
  9
$DIMALTRND
 40
0.0
  9
$DIMAZIN
 70
     2
  9
$DIMDSEP
 70
    46
  9
$DIMATFIT
 70
     3
  9
$DIMFRAC
 70
     0
  9
$DIMLDRBLK
  1
Open30
  9
$DIMLUNIT
 70
     2
  9
$DIMLWD
 70
    -1
  9
$DIMLWE
 70
    -1
  9
$DIMTMOVE
 70
     0
  9
$DIMFXL
 40
1.0
  9
$DIMFXLON
 70
     0
  9
$DIMJOGANG
 40
0.7853981633974483
  9
$DIMTFILL
 70
     0
  9
$DIMTFILLCLR
 70
     0
  9
$DIMARCSYM
 70
     1
  9
$DIMLTYPE
  6

  9
$DIMLTEX1
  6

  9
$DIMLTEX2
  6

  9
$LUNITS
 70
     2
  9
$LUPREC
 70
     2
  9
$SKETCHINC
 40
1.0
  9
$FILLETRAD
 40
5.0
  9
$AUNITS
 70
     0
  9
$AUPREC
 70
     0
  9
$MENU
  1
.
  9
$ELEVATION
 40
0.0
  9
$PELEVATION
 40
0.0
  9
$THICKNESS
 40
0.0
  9
$LIMCHECK
 70
     0
  9
$CHAMFERA
 40
1.0
  9
$CHAMFERB
 40
0.9999999999999431
  9
$CHAMFERC
 40
1.0
  9
$CHAMFERD
 40
0.7853981633974199
  9
$SKPOLY
 70
     0
  9
$TDCREATE
 40
2454897.656977025
  9
$TDUCREATE
 40
2454897.281977025
  9
$TDUPDATE
 40
2456478.691353253
  9
$TDUUPDATE
 40
2456478.316353252
  9
$TDINDWG
 40
0.3350612731
  9
$TDUSRTIMER
 40
0.3350601852
  9
$USRTIMER
 70
     1
  9
$ANGBASE
 50
0.0
  9
$ANGDIR
 70
     0
  9
$PDMODE
 70
     0
  9
$PDSIZE
 40
0.0
  9
$PLINEWID
 40
0.0
  9
$SPLFRAME
 70
     0
  9
$SPLINETYPE
 70
     6
  9
$SPLINESEGS
 70
     8
  9
$HANDSEED
  5
7EEE
  9
$SURFTAB1
 70
     6
  9
$SURFTAB2
 70
     6
  9
$SURFTYPE
 70
     6
  9
$SURFU
 70
     6
  9
$SURFV
 70
     6
  9
$UCSBASE
  2

  9
$UCSNAME
  2

  9
$UCSORG
 10
0.0
 20
0.0
 30
0.0
  9
$UCSXDIR
 10
1.0
 20
0.0
 30
0.0
  9
$UCSYDIR
 10
0.0
 20
1.0
 30
0.0
  9
$UCSORTHOREF
  2

  9
$UCSORTHOVIEW
 70
     0
  9
$UCSORGTOP
 10
0.0
 20
0.0
 30
0.0
  9
$UCSORGBOTTOM
 10
0.0
 20
0.0
 30
0.0
  9
$UCSORGLEFT
 10
0.0
 20
0.0
 30
0.0
  9
$UCSORGRIGHT
 10
0.0
 20
0.0
 30
0.0
  9
$UCSORGFRONT
 10
0.0
 20
0.0
 30
0.0
  9
$UCSORGBACK
 10
0.0
 20
0.0
 30
0.0
  9
$PUCSBASE
  2

  9
$PUCSNAME
  2

  9
$PUCSORG
 10
0.0
 20
0.0
 30
0.0
  9
$PUCSXDIR
 10
1.0
 20
0.0
 30
0.0
  9
$PUCSYDIR
 10
0.0
 20
1.0
 30
0.0
  9
$PUCSORTHOREF
  2

  9
$PUCSORTHOVIEW
 70
     0
  9
$PUCSORGTOP
 10
0.0
 20
0.0
 30
0.0
  9
$PUCSORGBOTTOM
 10
0.0
 20
0.0
 30
0.0
  9
$PUCSORGLEFT
 10
0.0
 20
0.0
 30
0.0
  9
$PUCSORGRIGHT
 10
0.0
 20
0.0
 30
0.0
  9
$PUCSORGFRONT
 10
0.0
 20
0.0
 30
0.0
  9
$PUCSORGBACK
 10
0.0
 20
0.0
 30
0.0
  9
$USERI1
 70
     0
  9
$USERI2
 70
     0
  9
$USERI3
 70
     0
  9
$USERI4
 70
     0
  9
$USERI5
 70
     0
  9
$USERR1
 40
0.0
  9
$USERR2
 40
0.0
  9
$USERR3
 40
0.0
  9
$USERR4
 40
0.0
  9
$USERR5
 40
0.0
  9
$WORLDVIEW
 70
     1
  9
$SHADEDGE
 70
     3
  9
$SHADEDIF
 70
    70
  9
$TILEMODE
 70
     1
  9
$MAXACTVP
 70
    64
  9
$PINSBASE
 10
0.0
 20
0.0
 30
0.0
  9
$PLIMCHECK
 70
     0
  9
$PEXTMIN
 10
1.000000000000000E+20
 20
1.000000000000000E+20
 30
1.000000000000000E+20
  9
$PEXTMAX
 10
-1.000000000000000E+20
 20
-1.000000000000000E+20
 30
-1.000000000000000E+20
  9
$PLIMMIN
 10
0.0
 20
0.0
  9
$PLIMMAX
 10
420.0
 20
297.0
  9
$UNITMODE
 70
     0
  9
$VISRETAIN
 70
     1
  9
$PLINEGEN
 70
     0
  9
$PSLTSCALE
 70
     1
  9
$TREEDEPTH
 70
  3020
  9
$CMLSTYLE
  2
Standard
  9
$CMLJUST
 70
     0
  9
$CMLSCALE
 40
20.0
  9
$PROXYGRAPHICS
 70
     1
  9
$MEASUREMENT
 70
     1
  9
$CELWEIGHT
370
    -1
  9
$ENDCAPS
280
     0
  9
$JOINSTYLE
280
     0
  9
$LWDISPLAY
290
     0
  9
$INSUNITS
 70
     4
  9
$HYPERLINKBASE
  1

  9
$STYLESHEET
  1
SEISA.CTB
  9
$XEDIT
290
     1
  9
$CEPSNTYPE
380
     0
  9
$PSTYLEMODE
290
     1
  9
$FINGERPRINTGUID
  2
{BA4E8988-5762-4253-BABF-2D6ACCC4557B}
  9
$VERSIONGUID
  2
{DE5658A6-4AA0-47D2-99D4-9ACCC2007DBB}
  9
$EXTNAMES
290
     1
  9
$PSVPSCALE
 40
0.0
  9
$OLESTARTUP
290
     0
  9
$SORTENTS
280
   127
  9
$INDEXCTL
280
     0
  9
$HIDETEXT
280
     0
  9
$XCLIPFRAME
290
     0
  9
$HALOGAP
280
     0
  9
$OBSCOLOR
 70
   257
  9
$OBSLTYPE
280
     0
  9
$INTERSECTIONDISPLAY
280
     0
  9
$INTERSECTIONCOLOR
 70
   257
  9
$DIMASSOC
280
     2
  9
$PROJECTNAME
  1

  9
$CAMERADISPLAY
290
     0
  9
$LENSLENGTH
 40
50.0
  9
$CAMERAHEIGHT
 40
0.0
  9
$STEPSPERSEC
 40
2.0
  9
$STEPSIZE
 40
6.0
  9
$3DDWFPREC
 40
2.0
  9
$PSOLWIDTH
 40
0.25
  9
$PSOLHEIGHT
 40
4.0
  9
$LOFTANG1
 40
1.570796326794896
  9
$LOFTANG2
 40
1.570796326794896
  9
$LOFTMAG1
 40
0.0
  9
$LOFTMAG2
 40
0.0
  9
$LOFTPARAM
 70
     7
  9
$LOFTNORMALS
280
     1
  9
$LATITUDE
 40
37.795
  9
$LONGITUDE
 40
-122.394
  9
$NORTHDIRECTION
 40
0.0
  9
$TIMEZONE
 70
 -8000
  9
$LIGHTGLYPHDISPLAY
280
     1
  9
$TILEMODELIGHTSYNCH
280
     1
  9
$CMATERIAL
347
27C
  9
$SOLIDHIST
280
     1
  9
$SHOWHIST
280
     1
  9
$DWFFRAME
280
     2
  9
$DGNFRAME
280
     0
  9
$REALWORLDSCALE
290
     1
  9
$INTERFERECOLOR
 62
     1
  9
$INTERFEREOBJVS
345
289
  9
$INTERFEREVPVS
346
286
  9
$CSHADOW
280
     0
  9
$SHADOWPLANELOCATION
 40
0.0
  0
ENDSEC
  0
SECTION
  2
CLASSES
  0
CLASS
  1
ACDBDICTIONARYWDFLT
  2
AcDbDictionaryWithDefault
  3
ObjectDBX Classes
 90
        0
 91
        1
280
     0
281
     0
  0
CLASS
  1
AMGSETTINGSOBJ
  2
AmgSettingsObj
  3
"AcadM|Product Description: AutoCAD Mechanical|Company: Autodesk, Inc."
 90
     1024
 91
        2
280
     0
281
     0
  0
CLASS
  1
ACME_DOCUMENT
  2
AcMeDbDoc
  3
AcMeServices
 90
     1024
 91
        1
280
     0
281
     0
  0
CLASS
  1
ACMESCOPE
  2
AcMeScope
  3
AcMeServices
 90
     1024
 91
        1
280
     0
281
     0
  0
CLASS
  1
ACMECOMMANDHISTORY
  2
AcMeCommandHistory
  3
AcMeServices
 90
     1024
 91
        1
280
     0
281
     0
  0
CLASS
  1
DICTIONARYVAR
  2
AcDbDictionaryVar
  3
ObjectDBX Classes
 90
        0
 91
        9
280
     0
281
     0
  0
CLASS
  1
ACIMSYSVARMAN
  2
AcImSysVarManager
  3
AcMeServices
 90
     1024
 91
        5
280
     0
281
     0
  0
CLASS
  1
ACIMREALSYSVAR
  2
AcImRealSysVar
  3
AcMeServices
 90
     1024
 91
        1
280
     0
281
     0
  0
CLASS
  1
ACIMINTSYSVAR
  2
AcImIntSysVar
  3
AcMeServices
 90
     1024
 91
       27
280
     0
281
     0
  0
CLASS
  1
ACMEDRAWINGMAN
  2
AcMeDrawingMan
  3
AcMeServices
 90
     1024
 91
        1
280
     0
281
     0
  0
CLASS
  1
ACMEVIEW
  2
AcMeView
  3
AcMeServices
 90
     1024
 91
        1
280
     0
281
     0
  0
CLASS
  1
ACDBENTITYCACHE
  2
AcMeEntityCache
  3
AcMeServices
 90
     1024
 91
        1
280
     0
281
     0
  0
CLASS
  1
GSMANAGER
  2
AcMeGSManager
  3
AcMeServices
 90
     1024
 91
        1
280
     0
281
     0
  0
CLASS
  1
AMDTINTERNALREACTOR
  2
AmdtInternalReactor
  3
AcMeServices
 90
     1024
 91
        2
280
     0
281
     0
  0
CLASS
  1
ACMESTATEMGR
  2
AcMeStateMgr
  3
AcMeServices
 90
     1024
 91
        1
280
     0
281
     0
  0
CLASS
  1
ACGREFMASTER
  2
AcGrefMaster
  3
AcAttribServices
 90
     1024
 91
        1
280
     0
281
     0
  0
CLASS
  1
ACME_DATABASE
  2
AcMeDbDatabase
  3
AcMeServices
 90
     1024
 91
        1
280
     0
281
     0
  0
CLASS
  1
ACRFINSADJUSTERMGR
  2
AcRfInsAdjusterMgr
  3
AcMeServices
 90
     1024
 91
        1
280
     0
281
     0
  0
CLASS
  1
ACGREFACADMASTER
  2
AcGrefacadMaster
  3
AcGrefServices
 90
     1024
 91
        1
280
     0
281
     0
  0
CLASS
  1
AMIMASTER
  2
AmiMaster
  3
AmiServices
 90
     1024
 91
        1
280
     0
281
     0
  0
CLASS
  1
ACIMSTRSYSVAR
  2
AcImStrSysVar
  3
AcMeServices
 90
     1024
 91
        5
280
     0
281
     0
  0
CLASS
  1
ACMSTANDARDJIS
  2
AcmStandardJIS
  3
"Amdt_StdImp|Product Description: AutoCAD Mechanical|Company: Autodesk, Inc."
 90
     1024
 91
        0
280
     0
281
     0
  0
CLASS
  1
AMGOBJPROPCFG
  2
AmgObjPropCfg
  3
"AmgLay|Product Description: AutoCAD Mechanical|Company: Autodesk, Inc."
 90
     1025
 91
        1
280
     0
281
     0
  0
CLASS
  1
ACMSURFSTANDARDJIS
  2
AcmSurfTextStdJIS
  3
"Amdt_StdImp|Product Description: AutoCAD Mechanical|Company: Autodesk, Inc."
 90
     1024
 91
        0
280
     0
281
     0
  0
CLASS
  1
ACMFCFSTANDARDJIS
  2
AcmFCFStdJIS
  3
"Amdt_StdImp|Product Description: AutoCAD Mechanical|Company: Autodesk, Inc."
 90
     1024
 91
        0
280
     0
281
     0
  0
CLASS
  1
ACMWELDSTANDARDJIS
  2
AcmWeldingStdJIS
  3
"Amdt_StdImp|Product Description: AutoCAD Mechanical|Company: Autodesk, Inc."
 90
     1024
 91
        0
280
     0
281
     0
  0
CLASS
  1
ACMIDSTANDARDJIS
  2
AcmIdStdJIS
  3
"Amdt_StdImp|Product Description: AutoCAD Mechanical|Company: Autodesk, Inc."
 90
     1024
 91
        0
280
     0
281
     0
  0
CLASS
  1
ACMDATUMSTANDARDJIS
  2
AcmDatumStdJIS
  3
"Amdt_StdImp|Product Description: AutoCAD Mechanical|Company: Autodesk, Inc."
 90
     1024
 91
        0
280
     0
281
     0
  0
CLASS
  1
ACMBOMSTANDARDJIS
  2
AcmBOMStdJIS
  3
"Amdt_StdImp|Product Description: AutoCAD Mechanical|Company: Autodesk, Inc."
 90
     1024
 91
        0
280
     0
281
     0
  0
CLASS
  1
ACMDETAILSTANDARDJIS
  2
AmdtDetailSymStdJIS
  3
"Amdt_StdImp|Product Description: AutoCAD Mechanical|Company: Autodesk, Inc."
 90
     1024
 91
        0
280
     0
281
     0
  0
CLASS
  1
ACMSECTIONSTANDARDJIS
  2
AmdtSectionSymStdJIS
  3
"Amdt_StdImp|Product Description: AutoCAD Mechanical|Company: Autodesk, Inc."
 90
     1024
 91
        0
280
     0
281
     0
  0
CLASS
  1
ACMCENTERLINESTANDARDJIS
  2
AmdtCenterLineStdJIS
  3
"Amdt_StdImp|Product Description: AutoCAD Mechanical|Company: Autodesk, Inc."
 90
     1024
 91
        0
280
     0
281
     0
  0
CLASS
  1
ACMTHREADLINESTANDARDJIS
  2
AmdtThreadLineStdJIS
  3
"Amdt_StdImp|Product Description: AutoCAD Mechanical|Company: Autodesk, Inc."
 90
     1024
 91
        0
280
     0
281
     0
  0
CLASS
  1
ACAMGLAYSTD
  2
AcAmgLayStd
  3
"AmgLay|Product Description: AutoCAD Mechanical|Company: Autodesk, Inc."
 90
     1024
 91
        1
280
     0
281
     0
  0
CLASS
  1
ACAMGDIMSTD
  2
AcAmgDimStd
  3
"AmgDim|Product Description: AutoCAD Mechanical|Company: Autodesk, Inc."
 90
     1024
 91
        1
280
     0
281
     0
  0
CLASS
  1
ACAMGTITLESTD
  2
AcAmgTitleStd
  3
"AmgTitle|Product Description: AutoCAD Mechanical|Company: Autodesk, Inc."
 90
     4095
 91
        1
280
     0
281
     0
  0
CLASS
  1
ACMDATADICTIONARY
  2
AcmDataDictionary
  3
"AcmSymBB|Product Description: AutoCAD Mechanical|Company: Autodesk, Inc."
 90
     1024
 91
        1
280
     0
281
     0
  0
CLASS
  1
ACMDATAENTRYBLOCK
  2
AcmDataEntryBlock
  3
AcmSymBB|Product Description: AutoCAD Mechanical|Company: Autodesk, Inc.
 90
     1024
 91
        0
280
     0
281
     0
  0
CLASS
  1
LAYER_INDEX
  2
AcDbLayerIndex
  3
ObjectDBX Classes
 90
        0
 91
        0
280
     0
281
     0
  0
CLASS
  1
IDBUFFER
  2
AcDbIdBuffer
  3
ObjectDBX Classes
 90
        0
 91
        0
280
     0
281
     0
  0
CLASS
  1
ACMNOTESTANDARDJIS
  2
AmdtNoteStdJIS
  3
"Amdt_StdImp|Product Description: AutoCAD Mechanical|Company: Autodesk, Inc."
 90
     1024
 91
        0
280
     0
281
     0
  0
CLASS
  1
ACAMGHOLECHARTSTDJIS
  2
AcAmgHoleChartStdJIS
  3
AmgDim|Product Description: AutoCAD Mechanical|Company: Autodesk, Inc.
 90
     1024
 91
        0
280
     0
281
     0
  0
CLASS
  1
AM_DRAWING_MGR
  2
AcDmDwgMgr
  3
AcMechDwgViewMgmt
 90
     1024
 91
        1
280
     0
281
     0
  0
CLASS
  1
AM_DWG_DOCUMENT
  2
AcDmDwgDocument
  3
AcMechDwgViewMgmt
 90
     1024
 91
        1
280
     0
281
     0
  0
CLASS
  1
AM_DWG_SHEET
  2
AcDmSheet
  3
AcMechDwgViewMgmt
 90
     1024
 91
        2
280
     0
281
     0
  0
CLASS
  1
AM_VIEWDIMPARMAP
  2
AcDmViewDimParMap
  3
AcMechDwgViewMgmt
 90
     1024
 91
        2
280
     0
281
     0
  0
CLASS
  1
AM_DWGMGR_NAME
  2
AcDmDwgMgrName
  3
AcMechDwgViewMgmt
 90
     1024
 91
        1
280
     0
281
     0
  0
CLASS
  1
AMDTMENUSTATEMGR
  2
AmdtMenuStateMgr
  3
McadcomServices
 90
     1024
 91
        1
280
     0
281
     0
  0
CLASS
  1
AMDTMCOMMENUSTATE
  2
AmdtMcomMenuState
  3
McadcomServices
 90
     1024
 91
        1
280
     0
281
     0
  0
CLASS
  1
MAPIAMMOUDLE
  2
MApiAmModule
  3
MApiAmServices
 90
     1024
 91
        1
280
     0
281
     0
  0
CLASS
  1
AMDTADMENUSTATE
  2
AmdtAdMenuState
  3
DesignerServices
 90
     1024
 91
        1
280
     0
281
     0
  0
CLASS
  1
ADAPPL
  2
AcAdAppl
  3
DesignerServices
 90
     1024
 91
        1
280
     0
281
     0
  0
CLASS
  1
DEPMGR
  2
AcAdDepMgr
  3
DesignerServices
 90
     1024
 91
        1
280
     0
281
     0
  0
CLASS
  1
PARAMMGR
  2
AcAdParamMgr
  3
DesignerServices
 90
     1024
 91
        1
280
     0
281
     0
  0
CLASS
  1
PARAMSCOPE
  2
AcAdParamScope
  3
DesignerServices
 90
     1024
 91
        1
280
     0
281
     0
  0
CLASS
  1
NAMEDAPPL
  2
AcAdNamedAppl
  3
DesignerServices
 90
     1024
 91
        1
280
     0
281
     0
  0
CLASS
  1
AMDTDMMENUSTATE
  2
AmdtDmMenuState
  3
AcMechDwgViewMgmt
 90
     1024
 91
        1
280
     0
281
     0
  0
CLASS
  1
AMDTAMMENUSTATE
  2
AmdtAmMenuState
  3
DesignerAssemblies
 90
     1024
 91
        1
280
     0
281
     0
  0
CLASS
  1
ACAMPROJECT
  2
AcAmProject
  3
DesignerAssemblies
 90
     1024
 91
        1
280
     0
281
     0
  0
CLASS
  1
ACAMGRCOMPDEF
  2
AcAmGrCompDef
  3
DesignerAssemblies
 90
     1024
 91
        1
280
     0
281
     0
  0
CLASS
  1
ACCMCONTEXT
  2
AcCmContext
  3
DesignerAssemblies
 90
     1024
 91
        1
280
     0
281
     0
  0
CLASS
  1
ACAMCOMPDEF
  2
AcAmCompDef
  3
DesignerAssemblies
 90
     1024
 91
        1
280
     0
281
     0
  0
CLASS
  1
ACAMCOMPDEFMGR
  2
AcAmCompDefMgr
  3
DesignerAssemblies
 90
     1024
 91
        1
280
     0
281
     0
  0
CLASS
  1
AMCONTEXTMGR
  2
AcAmContextMgr
  3
DesignerAssemblies
 90
     1024
 91
        1
280
     0
281
     0
  0
CLASS
  1
ACAMCONTEXTMODELER
  2
AcAmContextModeler
  3
DesignerAssemblies
 90
     1024
 91
        1
280
     0
281
     0
  0
CLASS
  1
CATALOGSTATE
  2
AcAmCatalogState
  3
DesignerAssemblies
 90
     1024
 91
        1
280
     0
281
     0
  0
CLASS
  1
ACAMGRCOMPDEFSET
  2
AcAmGrCompDefSet
  3
DesignerAssemblies
 90
     1024
 91
        1
280
     0
281
     0
  0
CLASS
  1
AMDTBROWSERDBTAB
  2
AmdtBrowserDbTab
  3
McadcomServices
 90
     1024
 91
        1
280
     0
281
     0
  0
CLASS
  1
CBROWSERAPPOBJECT
  2
CBrowserAppObject
  3
McadcomServices
 90
     1024
 91
        3
280
     0
281
     0
  0
CLASS
  1
DM_PLACEHOLDER
  2
AcDmSelsetPlaceholder
  3
AcMechDwgViewMgmt
 90
     1024
 91
        1
280
     0
281
     0
  0
CLASS
  1
TABLESTYLE
  2
AcDbTableStyle
  3
ObjectDBX Classes
 90
     4095
 91
        1
280
     0
281
     0
  0
CLASS
  1
VAACXREFPANELOBJECT
  2
VaAcXREFPanelObject
  3
VAAC_ADDIN
 90
        0
 91
        0
280
     0
281
     0
  0
CLASS
  1
VAACIMAGEINVENTORY
  2
VaAcImageInventory
  3
VAAC_ADDIN
 90
        0
 91
        0
280
     0
281
     0
  0
CLASS
  1
AMDTNOTETEMPLATEDB
  2
AmdtNoteTemplateDB
  3
AcmSymBB|Product Description: AutoCAD Mechanical|Company: Autodesk, Inc.
 90
     1024
 91
        6
280
     0
281
     0
  0
CLASS
  1
ACAMGFILTERDAT
  2
AcAmgFilterDat
  3
"AcadM|Product Description: AutoCAD Mechanical|Company: Autodesk, Inc."
 90
     1024
 91
        0
280
     0
281
     0
  0
CLASS
  1
MATERIAL
  2
AcDbMaterial
  3
ObjectDBX Classes
 90
     1153
 91
        3
280
     0
281
     0
  0
CLASS
  1
VISUALSTYLE
  2
AcDbVisualStyle
  3
ObjectDBX Classes
 90
     4095
 91
       16
280
     0
281
     0
  0
CLASS
  1
ACRFATTGENMGR
  2
AcRfAttGeneralMgr
  3
AcAttribServices
 90
     1024
 91
        0
280
     0
281
     0
  0
CLASS
  1
ACRFOBJATTMGR
  2
AcRfObjAttGroupMgr
  3
AcAttribServices
 90
     1024
 91
        0
280
     0
281
     0
  0
CLASS
  1
ACRFMCADAPIATTHOLDER
  2
AcRfMCADAPIAttHolder
  3
AcAttribServices
 90
     1024
 91
        0
280
     0
281
     0
  0
CLASS
  1
AMDTSYSATTR
  2
AmdtSystemAttribute
  3
AcAttribServices
 90
     1024
 91
        0
280
     0
281
     0
  0
CLASS
  1
ACMTAPERSTANDARDJIS
  2
AcmTaperStdJIS
  3
"Amdt_StdImp|Product Description: AutoCAD Mechanical|Company: Autodesk, Inc."
 90
     1024
 91
        0
280
     0
281
     0
  0
CLASS
  1
CAMSSTRUCTBTNSTATE
  2
StructBtnState
  3
DesignerAssemblies
 90
     1024
 91
        0
280
     0
281
     0
  0
CLASS
  1
SCALE
  2
AcDbScale
  3
ObjectDBX Classes
 90
     1153
 91
       34
280
     0
281
     0
  0
CLASS
  1
MLEADERSTYLE
  2
AcDbMLeaderStyle
  3
ACDB_MLEADERSTYLE_CLASS
 90
     4095
 91
        1
280
     0
281
     0
  0
CLASS
  1
ACMANOOTATIONVIEWSTANDARDJIS
  2
AmdtAnViewStdJIS
  3
"Amdt_StdImp|Product Description: AutoCAD Mechanical|Company: Autodesk, Inc."
 90
     1024
 91
        0
280
     0
281
     0
  0
CLASS
  1
ACMSURFSTANDARDJIS2003
  2
AcmSurfTextStdJIS2003
  3
"Amdt_StdImp|Product Description: AutoCAD Mechanical|Company: Autodesk, Inc."
 90
     1024
 91
        0
280
     0
281
     0
  0
CLASS
  1
CELLSTYLEMAP
  2
AcDbCellStyleMap
  3
ObjectDBX Classes
 90
     1152
 91
        2
280
     0
281
     0
  0
CLASS
  1
ACMFCFSTANDARDJIS98
  2
AcmFCFStdJIS98
  3
"Amdt_StdImp|Product Description: AutoCAD Mechanical|Company: Autodesk, Inc."
 90
     1024
 91
        0
280
     0
281
     0
  0
CLASS
  1
SORTENTSTABLE
  2
AcDbSortentsTable
  3
ObjectDBX Classes
 90
        0
 91
       11
280
     0
281
     0
  0
CLASS
  1
DIMASSOC
  2
AcDbDimAssoc
  3
"AcDbDimAssoc|Product Desc:     AcDim ARX App For Dimension|Company:          Autodesk, Inc.|WEB Address:      www.autodesk.com"
 90
        0
 91
       15
280
     0
281
     0
  0
CLASS
  1
STDPART2D
  2
AmgStdPart
  3
AmgStdPart|Product Description: AutoCAD Mechanical|Company: Autodesk, Inc.
 90
     4095
 91
        0
280
     0
281
     1
  0
CLASS
  1
ACMDATAENTRYPART
  2
AcmDataEntryPart
  3
AcmSymBB|Product Description: AutoCAD Mechanical|Company: Autodesk, Inc.
 90
     1024
 91
        0
280
     0
281
     0
  0
CLASS
  1
ACMPARTREF
  2
AcmPartRef
  3
"AcmSymBB|Product Description: AutoCAD Mechanical|Company: Autodesk, Inc."
 90
     4095
 91
        0
280
     0
281
     1
  0
CLASS
  1
ACDBSTDPARTRES_LINE
  2
AcDbStdPartRes_Line
  3
AmgStdPart|Product Description: AutoCAD Mechanical|Company: Autodesk, Inc.
 90
     1024
 91
        0
280
     0
281
     0
  0
CLASS
  1
ACMBOM
  2
AcmBom
  3
"AcmSymBB|Product Description: AutoCAD Mechanical|Company: Autodesk, Inc."
 90
     1024
 91
        0
280
     0
281
     0
  0
CLASS
  1
AMDTFORMULAUPDATEDISPATCHER
  2
AmdtFormulaUpdateDispatcher
  3
AcMeServices
 90
     1024
 91
        0
280
     0
281
     0
  0
CLASS
  1
ACMBOMROW
  2
AcmBomRow
  3
"AcmSymBB|Product Description: AutoCAD Mechanical|Company: Autodesk, Inc."
 90
     1024
 91
        0
280
     0
281
     0
  0
CLASS
  1
ACMPARTLIST
  2
AcmPartList
  3
"AcmSymBB|Product Description: AutoCAD Mechanical|Company: Autodesk, Inc."
 90
     4095
 91
        0
280
     0
281
     1
  0
CLASS
  1
ACDBLINERES
  2
AcDbLineRes
  3
AcGrefServices
 90
     1024
 91
        0
280
     0
281
     0
  0
CLASS
  1
ACRFINSADJ
  2
AcRfInsAdjuster
  3
AcMeServices
 90
     1024
 91
        0
280
     0
281
     0
  0
CLASS
  1
ACMSTANDARDISO
  2
AcmStandardISO
  3
"Amdt_StdImp|Product Description: AutoCAD Mechanical|Company: Autodesk, Inc."
 90
     1024
 91
        1
280
     0
281
     0
  0
CLASS
  1
AMDTEDGESTANDARDISO13715
  2
AmdtEdgeStdISO13715
  3
"Amdt_StdImp|Product Description: AutoCAD Mechanical|Company: Autodesk, Inc."
 90
     1024
 91
        1
280
     0
281
     0
  0
CLASS
  1
ACMSURFSTANDARDISO2002
  2
AcmSurfTextStdISO2002
  3
"Amdt_StdImp|Product Description: AutoCAD Mechanical|Company: Autodesk, Inc."
 90
     1024
 91
        1
280
     0
281
     0
  0
CLASS
  1
ACMFCFSTANDARDISO
  2
AcmFCFStdISO
  3
"Amdt_StdImp|Product Description: AutoCAD Mechanical|Company: Autodesk, Inc."
 90
     1024
 91
        1
280
     0
281
     0
  0
CLASS
  1
ACMWELDSTANDARDISO
  2
AcmWeldingStdISO
  3
"Amdt_StdImp|Product Description: AutoCAD Mechanical|Company: Autodesk, Inc."
 90
     1024
 91
        1
280
     0
281
     0
  0
CLASS
  1
ACMIDSTANDARDISO
  2
AcmIdStdISO
  3
"Amdt_StdImp|Product Description: AutoCAD Mechanical|Company: Autodesk, Inc."
 90
     1024
 91
        1
280
     0
281
     0
  0
CLASS
  1
ACMDATUMSTANDARDISO
  2
AcmDatumStdISO
  3
"Amdt_StdImp|Product Description: AutoCAD Mechanical|Company: Autodesk, Inc."
 90
     1024
 91
        1
280
     0
281
     0
  0
CLASS
  1
ACMBOMSTANDARDISO
  2
AcmBOMStdISO
  3
"Amdt_StdImp|Product Description: AutoCAD Mechanical|Company: Autodesk, Inc."
 90
     1024
 91
        1
280
     0
281
     0
  0
CLASS
  1
ACMDETAILSTANDARDISO
  2
AmdtDetailSymStdISO
  3
"Amdt_StdImp|Product Description: AutoCAD Mechanical|Company: Autodesk, Inc."
 90
     1024
 91
        1
280
     0
281
     0
  0
CLASS
  1
ACMSECTIONSTANDARDISO2001
  2
AmdtSectionSymStdISO2001
  3
"Amdt_StdImp|Product Description: AutoCAD Mechanical|Company: Autodesk, Inc."
 90
     1024
 91
        1
280
     0
281
     0
  0
CLASS
  1
ACMCENTERLINESTANDARDISO
  2
AmdtCenterLineStdISO
  3
"Amdt_StdImp|Product Description: AutoCAD Mechanical|Company: Autodesk, Inc."
 90
     1024
 91
        1
280
     0
281
     0
  0
CLASS
  1
ACMTHREADLINESTANDARDISO
  2
AmdtThreadLineStdISO
  3
"Amdt_StdImp|Product Description: AutoCAD Mechanical|Company: Autodesk, Inc."
 90
     1024
 91
        1
280
     0
281
     0
  0
CLASS
  1
ACMNOTESTANDARDISO
  2
AmdtNoteStdISO
  3
"Amdt_StdImp|Product Description: AutoCAD Mechanical|Company: Autodesk, Inc."
 90
     1024
 91
        1
280
     0
281
     0
  0
CLASS
  1
ACMTAPERSTANDARDISO
  2
AcmTaperStdISO
  3
"Amdt_StdImp|Product Description: AutoCAD Mechanical|Company: Autodesk, Inc."
 90
     1024
 91
        1
280
     0
281
     0
  0
CLASS
  1
ACMANOOTATIONVIEWSTANDARDISO
  2
AmdtAnViewStdISO
  3
"Amdt_StdImp|Product Description: AutoCAD Mechanical|Company: Autodesk, Inc."
 90
     1024
 91
        1
280
     0
281
     0
  0
CLASS
  1
ACAMGHOLECHARTSTDISO
  2
AcAmgHoleChartStdISO
  3
AmgDim|Product Description: AutoCAD Mechanical|Company: Autodesk, Inc.
 90
     1024
 91
        1
280
     0
281
     0
  0
CLASS
  1
EXACXREFPANELOBJECT
  2
ExAcXREFPanelObject
  3
EXAC_ESW
 90
     1025
 91
        0
280
     0
281
     0
  0
CLASS
  1
NPOCOLLECTION
  2
AcDbImpNonPersistentObjectsCollection
  3
ObjectDBX Classes
 90
     1153
 91
        0
280
     0
281
     0
  0
CLASS
  1
ACDBSTDPARTRES_ARC
  2
AcDbStdPartRes_Arc
  3
AmgStdPart|Product Description: AutoCAD Mechanical|Company: Autodesk, Inc.
 90
     1024
 91
        0
280
     0
281
     0
  0
CLASS
  1
AMDTNOTE
  2
AmdtNote
  3
"AcmSymBB|Product Description: AutoCAD Mechanical|Company: Autodesk, Inc."
 90
     4095
 91
        0
280
     0
281
     1
  0
CLASS
  1
PLOTSETTINGS
  2
AcDbPlotSettings
  3
ObjectDBX Classes
 90
        0
 91
        1
280
     0
281
     0
  0
CLASS
  1
ACMSTANDARDANSI
  2
AcmStandardANSI
  3
"Amdt_StdImp|Product Description: AutoCAD Mechanical|Company: Autodesk, Inc."
 90
     1024
 91
        0
280
     0
281
     0
  0
CLASS
  1
ACMSURFSTANDARDANSI
  2
AcmSurfTextStdANSI
  3
"Amdt_StdImp|Product Description: AutoCAD Mechanical|Company: Autodesk, Inc."
 90
     1024
 91
        0
280
     0
281
     0
  0
CLASS
  1
ACMFCFSTANDARDANSI
  2
AcmFCFStdANSI
  3
"Amdt_StdImp|Product Description: AutoCAD Mechanical|Company: Autodesk, Inc."
 90
     1024
 91
        0
280
     0
281
     0
  0
CLASS
  1
ACMWELDSTANDARDANSI
  2
AcmWeldingStdANSI
  3
"Amdt_StdImp|Product Description: AutoCAD Mechanical|Company: Autodesk, Inc."
 90
     1024
 91
        0
280
     0
281
     0
  0
CLASS
  1
ACMIDSTANDARDANSI
  2
AcmIdStdANSI
  3
"Amdt_StdImp|Product Description: AutoCAD Mechanical|Company: Autodesk, Inc."
 90
     1024
 91
        0
280
     0
281
     0
  0
CLASS
  1
ACMDATUMSTANDARDANSI
  2
AcmDatumStdANSI
  3
"Amdt_StdImp|Product Description: AutoCAD Mechanical|Company: Autodesk, Inc."
 90
     1024
 91
        0
280
     0
281
     0
  0
CLASS
  1
ACMBOMSTANDARDANSI
  2
AcmBOMStdANSI
  3
"Amdt_StdImp|Product Description: AutoCAD Mechanical|Company: Autodesk, Inc."
 90
     1024
 91
        0
280
     0
281
     0
  0
CLASS
  1
ACMDETAILSTANDARDANSI
  2
AmdtDetailSymStdANSI
  3
"Amdt_StdImp|Product Description: AutoCAD Mechanical|Company: Autodesk, Inc."
 90
     1024
 91
        0
280
     0
281
     0
  0
CLASS
  1
ACMSECTIONSTANDARDANSI
  2
AmdtSectionSymStdANSI
  3
"Amdt_StdImp|Product Description: AutoCAD Mechanical|Company: Autodesk, Inc."
 90
     1024
 91
        0
280
     0
281
     0
  0
CLASS
  1
ACMCENTERLINESTANDARDANSI
  2
AmdtCenterLineStdANSI
  3
"Amdt_StdImp|Product Description: AutoCAD Mechanical|Company: Autodesk, Inc."
 90
     1024
 91
        0
280
     0
281
     0
  0
CLASS
  1
ACMTHREADLINESTANDARDANSI
  2
AmdtThreadLineStdANSI
  3
"Amdt_StdImp|Product Description: AutoCAD Mechanical|Company: Autodesk, Inc."
 90
     1024
 91
        0
280
     0
281
     0
  0
CLASS
  1
ACMNOTESTANDARDANSI
  2
AmdtNoteStdANSI
  3
"Amdt_StdImp|Product Description: AutoCAD Mechanical|Company: Autodesk, Inc."
 90
     1024
 91
        0
280
     0
281
     0
  0
CLASS
  1
ACMTAPERSTANDARDANSI
  2
AcmTaperStdANSI
  3
"Amdt_StdImp|Product Description: AutoCAD Mechanical|Company: Autodesk, Inc."
 90
     1024
 91
        0
280
     0
281
     0
  0
CLASS
  1
ACMANOOTATIONVIEWSTANDARDANSI
  2
AmdtAnViewStdANSI
  3
"Amdt_StdImp|Product Description: AutoCAD Mechanical|Company: Autodesk, Inc."
 90
     1024
 91
        0
280
     0
281
     0
  0
CLASS
  1
ACAMGHOLECHARTSTDANSI
  2
AcAmgHoleChartStdANSI
  3
AmgDim|Product Description: AutoCAD Mechanical|Company: Autodesk, Inc.
 90
     1024
 91
        0
280
     0
281
     0
  0
CLASS
  1
ACMSTANDARDBSI
  2
AcmStandardBSI
  3
"Amdt_StdImp|Product Description: AutoCAD Mechanical|Company: Autodesk, Inc."
 90
     1024
 91
        0
280
     0
281
     0
  0
CLASS
  1
ACMSURFSTANDARDBSI2002
  2
AcmSurfTextStdBSI2002
  3
"Amdt_StdImp|Product Description: AutoCAD Mechanical|Company: Autodesk, Inc."
 90
     1024
 91
        0
280
     0
281
     0
  0
CLASS
  1
ACMFCFSTANDARDBSI
  2
AcmFCFStdBSI
  3
"Amdt_StdImp|Product Description: AutoCAD Mechanical|Company: Autodesk, Inc."
 90
     1024
 91
        0
280
     0
281
     0
  0
CLASS
  1
ACMWELDSTANDARDBSI
  2
AcmWeldingStdBSI
  3
"Amdt_StdImp|Product Description: AutoCAD Mechanical|Company: Autodesk, Inc."
 90
     1024
 91
        0
280
     0
281
     0
  0
CLASS
  1
ACMIDSTANDARDBSI
  2
AcmIdStdBSI
  3
"Amdt_StdImp|Product Description: AutoCAD Mechanical|Company: Autodesk, Inc."
 90
     1024
 91
        0
280
     0
281
     0
  0
CLASS
  1
ACMDATUMSTANDARDBSI
  2
AcmDatumStdBSI
  3
"Amdt_StdImp|Product Description: AutoCAD Mechanical|Company: Autodesk, Inc."
 90
     1024
 91
        0
280
     0
281
     0
  0
CLASS
  1
ACMBOMSTANDARDBSI
  2
AcmBOMStdBSI
  3
"Amdt_StdImp|Product Description: AutoCAD Mechanical|Company: Autodesk, Inc."
 90
     1024
 91
        0
280
     0
281
     0
  0
CLASS
  1
ACMDETAILSTANDARDBSI
  2
AmdtDetailSymStdBSI
  3
"Amdt_StdImp|Product Description: AutoCAD Mechanical|Company: Autodesk, Inc."
 90
     1024
 91
        0
280
     0
281
     0
  0
CLASS
  1
ACMSECTIONSTANDARDBSI2001
  2
AmdtSectionSymStdBSI2001
  3
"Amdt_StdImp|Product Description: AutoCAD Mechanical|Company: Autodesk, Inc."
 90
     1024
 91
        0
280
     0
281
     0
  0
CLASS
  1
ACMCENTERLINESTANDARDBSI
  2
AmdtCenterLineStdBSI
  3
"Amdt_StdImp|Product Description: AutoCAD Mechanical|Company: Autodesk, Inc."
 90
     1024
 91
        0
280
     0
281
     0
  0
CLASS
  1
ACMTHREADLINESTANDARDBSI
  2
AmdtThreadLineStdBSI
  3
"Amdt_StdImp|Product Description: AutoCAD Mechanical|Company: Autodesk, Inc."
 90
     1024
 91
        0
280
     0
281
     0
  0
CLASS
  1
ACMNOTESTANDARDBSI
  2
AmdtNoteStdBSI
  3
"Amdt_StdImp|Product Description: AutoCAD Mechanical|Company: Autodesk, Inc."
 90
     1024
 91
        0
280
     0
281
     0
  0
CLASS
  1
ACMTAPERSTANDARDBSI
  2
AcmTaperStdBSI
  3
"Amdt_StdImp|Product Description: AutoCAD Mechanical|Company: Autodesk, Inc."
 90
     1024
 91
        0
280
     0
281
     0
  0
CLASS
  1
ACMANOOTATIONVIEWSTANDARDBSI
  2
AmdtAnViewStdBSI
  3
"Amdt_StdImp|Product Description: AutoCAD Mechanical|Company: Autodesk, Inc."
 90
     1024
 91
        0
280
     0
281
     0
  0
CLASS
  1
ACAMGHOLECHARTSTDBSI
  2
AcAmgHoleChartStdBSI
  3
AmgDim|Product Description: AutoCAD Mechanical|Company: Autodesk, Inc.
 90
     1024
 91
        0
280
     0
281
     0
  0
CLASS
  1
AMDTEDGESTANDARDJIS
  2
AmdtEdgeStdJIS
  3
"Amdt_StdImp|Product Description: AutoCAD Mechanical|Company: Autodesk, Inc."
 90
     1024
 91
        0
280
     0
281
     0
  0
CLASS
  1
ACMSURFSYM
  2
AcmSurfaceTexture
  3
"AcmSymBB|Product Description: AutoCAD Mechanical|Company: Autodesk, Inc."
 90
     4095
 91
        0
280
     0
281
     1
  0
CLASS
  1
ACDBDIMENSIONRES
  2
AcDbDimensionRes
  3
AcmSymBB|Product Description: AutoCAD Mechanical|Company: Autodesk, Inc.
 90
     1024
 91
        0
280
     0
281
     0
  0
CLASS
  1
ACDBCIRCARCRES
  2
AcDbCircArcRes
  3
AcGrefServices
 90
     1024
 91
        0
280
     0
281
     0
  0
CLASS
  1
AMDTACMWBLOCKBOMENTITY
  2
AmdtAcmWblockBomEntity
  3
"AcmSymBB|Product Description: AutoCAD Mechanical|Company: Autodesk, Inc."
 90
     4095
 91
        0
280
     0
281
     1
  0
CLASS
  1
ACDBOPPOLYLINERES
  2
AcDbOpPolylineRes
  3
AcGrefServices
 90
     1024
 91
        0
280
     0
281
     0
  0
CLASS
  1
ACDB_BLKREFOBJECTCONTEXTDATA_CLASS
  2
AcDbBlkRefObjectContextData
  3
ObjectDBX Classes
 90
     1153
 91
        0
280
     0
281
     0
  0
CLASS
  1
ACMPICKOBJ
  2
AcmPickEnt
  3
"AcmSymBB|Product Description: AutoCAD Mechanical|Company: Autodesk, Inc."
 90
     1024
 91
        0
280
     0
281
     1
  0
CLASS
  1
ACMBALLOON
  2
AcmBalloon
  3
"AcmSymBB|Product Description: AutoCAD Mechanical|Company: Autodesk, Inc."
 90
     4095
 91
        0
280
     0
281
     1
  0
ENDSEC
  0
SECTION
  2
TABLES
  0
TABLE
  2
VPORT
  5
8
330
0
100
AcDbSymbolTable
 70
     1
  0
VPORT
  5
27A
330
8
100
AcDbSymbolTableRecord
100
AcDbViewportTableRecord
  2
*Active
 70
     0
 10
0.0
 20
0.0
 11
1.0
 21
1.0
 12
466.0347347856734
 22
393.3246940063758
 13
0.0
 23
0.0
 14
5.0
 24
5.0
 15
20.0
 25
20.0
 16
0.0
 26
0.0
 36
1.0
 17
0.0
 27
0.0
 37
0.0
 40
251.8569922193781
 41
1.285714285714285
 42
50.0
 43
0.0
 44
0.0
 50
0.0
 51
0.0
 71
    16
 72
 20000
 73
     1
 74
     3
 75
     0
 76
     0
 77
     0
 78
     0
281
     0
 65
     0
110
0.0
120
0.0
130
0.0
111
1.0
121
0.0
131
0.0
112
0.0
122
1.0
132
0.0
 79
     0
146
0.0
348
285
 60
     3
 61
     5
292
     1
282
     0
141
0.0
142
0.0
 63
   250
421
  3355443
  0
ENDTAB
  0
TABLE
  2
LTYPE
  5
5
330
0
100
AcDbSymbolTable
 70
    22
  0
LTYPE
  5
14
330
5
100
AcDbSymbolTableRecord
100
AcDbLinetypeTableRecord
  2
ByBlock
 70
     0
  3

 72
    65
 73
     0
 40
0.0
  0
LTYPE
  5
15
330
5
100
AcDbSymbolTableRecord
100
AcDbLinetypeTableRecord
  2
ByLayer
 70
     0
  3

 72
    65
 73
     0
 40
0.0
  0
LTYPE
  5
16
330
5
100
AcDbSymbolTableRecord
100
AcDbLinetypeTableRecord
  2
Continuous
 70
     0
  3
Solid line
 72
    65
 73
     0
 40
0.0
  0
LTYPE
  5
4D
330
5
100
AcDbSymbolTableRecord
100
AcDbLinetypeTableRecord
  2
AM_ISO02W050
 70
     0
  3
__ __ __ __ __ __ __ __ __ __ __ __ __ __ __
 72
    65
 73
     2
 40
7.5
 49
6.0
 74
     0
 49
-1.5
 74
     0
  0
LTYPE
  5
4E
330
5
100
AcDbSymbolTableRecord
100
AcDbLinetypeTableRecord
  2
AM_ISO08W050
 70
     0
  3
____ . ____ . ____ . ____ . ____ . ____ . ____
 72
    65
 73
     4
 40
18.0
 49
12.0
 74
     0
 49
-1.5
 74
     0
 49
3.0
 74
     0
 49
-1.5
 74
     0
  0
LTYPE
  5
4F
330
5
100
AcDbSymbolTableRecord
100
AcDbLinetypeTableRecord
  2
AM_ISO09W050
 70
     0
  3
_____ . . _____ . . _____ . . ____ .. ____
 72
    65
 73
     6
 40
22.5
 49
12.0
 74
     0
 49
-1.5
 74
     0
 49
3.0
 74
     0
 49
-1.5
 74
     0
 49
3.0
 74
     0
 49
-1.5
 74
     0
  0
LTYPE
  5
50
330
5
100
AcDbSymbolTableRecord
100
AcDbLinetypeTableRecord
  2
Amconstr
 70
     0
  3
_______________________
 72
    65
 73
     2
 40
9999.0
 49
9999.0
 74
     0
 49
0.0
 74
     0
  0
LTYPE
  5
51
330
5
100
AcDbSymbolTableRecord
100
AcDbLinetypeTableRecord
  2
AM_ISO08W050x2
 70
     0
  3
__ . __ . __ . __ . __ . __
 72
    65
 73
     4
 40
9.0
 49
6.0
 74
     0
 49
-0.75
 74
     0
 49
1.5
 74
     0
 49
-0.75
 74
     0
  0
LTYPE
  5
52
330
5
100
AcDbSymbolTableRecord
100
AcDbLinetypeTableRecord
  2
AM_ISO02W050x2
 70
     0
  3
 _ _ _ _ _ _ _ _ _ _ _ _
 72
    65
 73
     2
 40
3.75
 49
3.0
 74
     0
 49
-0.75
 74
     0
  0
LTYPE
  5
55
330
5
100
AcDbSymbolTableRecord
100
AcDbLinetypeTableRecord
  2
Amzigzag
 70
     0
  3
/\/-/\/-/\/-/\/-/\/-/\/
 72
    65
 73
     2
 40
11.0001
 49
0.0001
 74
     4
 75
   136
340
23D
 46
0.04
 50
0.0
 44
0.0
 45
0.0
 49
-11.0
 74
     0
  0
LTYPE
  5
65
330
5
100
AcDbSymbolTableRecord
100
AcDbLinetypeTableRecord
  2
CENTER
 70
     0
  3
__ . __
 72
    65
 73
     4
 40
7.0
 49
4.0
 74
     0
 49
-1.0
 74
     0
 49
1.0
 74
     0
 49
-1.0
 74
     0
  0
LTYPE
  5
E0
330
5
100
AcDbSymbolTableRecord
100
AcDbLinetypeTableRecord
  2
HIDDEN
 70
     0
  3
Hidden __ __ __ __ __ __ __ __ __ __ __ __ __ _
 72
    65
 73
     2
 40
9.524999999999996
 49
6.349999999999998
 74
     0
 49
-3.174999999999998
 74
     0
  0
LTYPE
  5
E1
330
5
100
AcDbSymbolTableRecord
100
AcDbLinetypeTableRecord
  2
PHANTOM2
 70
     0
  3
Phantom (.5x) ___ _ _ ___ _ _ ___ _ _ ___ _ _
 72
    65
 73
     6
 40
31.75
 49
15.875
 74
     0
 49
-3.174999999999998
 74
     0
 49
3.174999999999998
 74
     0
 49
-3.174999999999998
 74
     0
 49
3.174999999999998
 74
     0
 49
-3.174999999999998
 74
     0
  0
LTYPE
  5
5A2
330
5
100
AcDbSymbolTableRecord
100
AcDbLinetypeTableRecord
  2
ACJISWELD
 70
     0
  3
_ _ _ _ _
 72
    65
 73
     2
 40
2.0
 49
2.0
 74
     0
 49
-1.0
 74
     0
  0
LTYPE
  5
7ED9
330
5
100
AcDbSymbolTableRecord
100
AcDbLinetypeTableRecord
  2
ACISOWELD
 70
     0
  3
_ _ _ _ _
 72
    65
 73
     2
 40
2.0
 49
2.0
 74
     0
 49
-1.0
 74
     0
  0
LTYPE
  5
7EDA
330
5
100
AcDbSymbolTableRecord
100
AcDbLinetypeTableRecord
  2
ACISOTGB
 70
     0
  3
__ . . __ . .
 72
    65
 73
     6
 40
9.0
 49
4.0
 74
     0
 49
-1.0
 74
     0
 49
1.0
 74
     0
 49
-1.0
 74
     0
 49
1.0
 74
     0
 49
-1.0
 74
     0
  0
LTYPE
  5
7EDB
330
5
100
AcDbSymbolTableRecord
100
AcDbLinetypeTableRecord
  2
ACISOTGL
 70
     0
  3
_ _ _ _ _
 72
    65
 73
     2
 40
3.0
 49
2.0
 74
     0
 49
-1.0
 74
     0
  0
ENDTAB
  0
TABLE
  2
LAYER
  5
2
102
{ACAD_XDICTIONARY
360
BF
102
}
330
0
100
AcDbSymbolTable
 70
    10
  0
LAYER
  5
10
102
{ACAD_XDICTIONARY
360
29D8
102
}
330
2
100
AcDbSymbolTableRecord
100
AcDbLayerTableRecord
  2
0
 70
     0
 62
     7
  6
Continuous
370
    -3
390
F
347
27E
  0
LAYER
  5
81
102
{ACAD_XDICTIONARY
360
29DA
102
}
330
2
100
AcDbSymbolTableRecord
100
AcDbLayerTableRecord
  2
AM_0 外形線1
 70
     0
 62
     7
  6
Continuous
370
    25
390
F
347
27E
  0
LAYER
  5
427
330
2
100
AcDbSymbolTableRecord
100
AcDbLayerTableRecord
  2
Defpoints
 70
     0
 62
     7
  6
Continuous
290
     0
370
    -3
390
F
347
27E
  0
LAYER
  5
25C9
102
{ACAD_XDICTIONARY
360
29E1
102
}
330
2
100
AcDbSymbolTableRecord
100
AcDbLayerTableRecord
  2
AM_3 隠れ線
 70
     0
 62
     8
  6
ACJISWELD
370
    13
390
F
347
27E
1001
AcAecLayerStandard
1000

1000

  0
LAYER
  5
25CA
102
{ACAD_XDICTIONARY
360
29E3
102
}
330
2
100
AcDbSymbolTableRecord
100
AcDbLayerTableRecord
  2
AM_4 細線
 70
     0
 62
     4
  6
Continuous
370
    13
390
F
347
27E
1001
AcAecLayerStandard
1000

1000

  0
LAYER
  5
26B3
102
{ACAD_XDICTIONARY
360
29E9
102
}
330
2
100
AcDbSymbolTableRecord
100
AcDbLayerTableRecord
  2
AM_5 寸法線
 70
     0
 62
     3
  6
Continuous
370
    13
390
F
347
27E
1001
AcAecLayerStandard
1000

1000

  0
LAYER
  5
372D
330
2
100
AcDbSymbolTableRecord
100
AcDbLayerTableRecord
  2
AM_7 中心線
 70
     0
 62
     1
  6
AM_ISO08W050
370
    13
390
F
347
27E
1001
AcAecLayerStandard
1000

1000

  0
LAYER
  5
3730
330
2
100
AcDbSymbolTableRecord
100
AcDbLayerTableRecord
  2
AM_6 文字
 70
     0
 62
     2
  6
Continuous
370
    13
390
F
347
27E
1001
AcAecLayerStandard
1000

1000

  0
LAYER
  5
78EC
330
2
100
AcDbSymbolTableRecord
100
AcDbLayerTableRecord
  2
AM_11 想像線
 70
     0
 62
     5
  6
AM_ISO09W050
370
    13
390
F
347
27E
1001
AcAecLayerStandard
1000

1000

  0
ENDTAB
  0
TABLE
  2
STYLE
  5
3
330
0
100
AcDbSymbolTable
 70
    10
  0
STYLE
  5
11
330
3
100
AcDbSymbolTableRecord
100
AcDbTextStyleTableRecord
  2
STANDARD
 70
     0
 40
0.0
 41
1.0
 50
0.0
 71
     0
 42
25.0
  3
ISOCP.SHX
  4
EXTFONT.SHX
  0
STYLE
  5
23D
330
3
100
AcDbSymbolTableRecord
100
AcDbTextStyleTableRecord
  2

 70
     1
 40
0.0
 41
1.0
 50
0.0
 71
     0
 42
2.5
  3
genltshp.shx
  4

  0
STYLE
  5
5D5
330
3
100
AcDbSymbolTableRecord
100
AcDbTextStyleTableRecord
  2
SEISA
 70
     0
 40
0.0
 41
0.9
 50
0.0
 71
     0
 42
25.0
  3
romans.shx
  4
extfont2.shx
  0
STYLE
  5
7EC9
330
3
100
AcDbSymbolTableRecord
100
AcDbTextStyleTableRecord
  2
ACISOTS
 70
     0
 40
1.0
 41
1.0
 50
0.0
 71
     0
 42
25.0
  3
isocp.shx
  4
extfont.shx
  0
STYLE
  5
7ED8
330
3
100
AcDbSymbolTableRecord
100
AcDbTextStyleTableRecord
  2
ACISOGDT
 70
     0
 40
0.0
 41
1.0
 50
0.0
 71
     0
 42
25.0
  3
amgdt.shx
  4

  0
ENDTAB
  0
TABLE
  2
VIEW
  5
6
330
0
100
AcDbSymbolTable
 70
     6
  0
VIEW
  5
91B
330
6
100
AcDbSymbolTableRecord
100
AcDbViewTableRecord
  2
AM_VIEW1
 70
     0
 40
297.0
 10
292.2450742744934
 20
445.5000007387641
 41
584.4901477832514
 11
0.0
 21
0.0
 31
1.0
 12
0.0
 22
0.0
 32
0.0
 42
50.0
 43
0.0
 44
0.0
 50
0.0
 71
    16
281
     0
 72
     0
 73
     0
  0
VIEW
  5
91C
330
6
100
AcDbSymbolTableRecord
100
AcDbViewTableRecord
  2
AM_VIEW2
 70
     0
 40
297.0
 10
547.754926491242
 20
445.5000007387641
 41
584.4901477832514
 11
0.0
 21
0.0
 31
1.0
 12
0.0
 22
0.0
 32
0.0
 42
50.0
 43
0.0
 44
0.0
 50
0.0
 71
    16
281
     0
 72
     0
 73
     0
  0
VIEW
  5
91D
330
6
100
AcDbSymbolTableRecord
100
AcDbViewTableRecord
  2
AM_VIEW3
 70
     0
 40
297.0
 10
292.2450742744934
 20
148.5000007387641
 41
584.4901477832514
 11
0.0
 21
0.0
 31
1.0
 12
0.0
 22
0.0
 32
0.0
 42
50.0
 43
0.0
 44
0.0
 50
0.0
 71
    16
281
     0
 72
     0
 73
     0
  0
VIEW
  5
91E
330
6
100
AcDbSymbolTableRecord
100
AcDbViewTableRecord
  2
AM_VIEW4
 70
     0
 40
297.0
 10
547.754926491242
 20
148.5000007387641
 41
584.4901477832514
 11
0.0
 21
0.0
 31
1.0
 12
0.0
 22
0.0
 32
0.0
 42
50.0
 43
0.0
 44
0.0
 50
0.0
 71
    16
281
     0
 72
     0
 73
     0
  0
VIEW
  5
91F
330
6
100
AcDbSymbolTableRecord
100
AcDbViewTableRecord
  2
AM_VIEW5
 70
     0
 40
297.0000000000001
 10
420.0000003828676
 20
297.0000007387642
 41
584.4901477832514
 11
0.0
 21
0.0
 31
1.0
 12
0.0
 22
0.0
 32
0.0
 42
50.0
 43
0.0
 44
0.0
 50
0.0
 71
    16
281
     0
 72
     0
 73
     0
  0
VIEW
  5
920
330
6
100
AcDbSymbolTableRecord
100
AcDbViewTableRecord
  2
AM_VIEW6
 70
     0
 40
593.9940599999999
 10
420.0000003828676
 20
297.0000007387642
 41
1168.968605763547
 11
0.0
 21
0.0
 31
1.0
 12
0.0
 22
0.0
 32
0.0
 42
50.0
 43
0.0
 44
0.0
 50
0.0
 71
    16
281
     0
 72
     0
 73
     0
  0
ENDTAB
  0
TABLE
  2
UCS
  5
7
330
0
100
AcDbSymbolTable
 70
     0
  0
ENDTAB
  0
TABLE
  2
APPID
  5
9
330
0
100
AcDbSymbolTable
 70
   393
  0
APPID
  5
12
330
9
100
AcDbSymbolTableRecord
100
AcDbRegAppTableRecord
  2
ACAD
 70
     0
  0
APPID
  5
30
330
9
100
AcDbSymbolTableRecord
100
AcDbRegAppTableRecord
  2
MCAD_NO_VIS
 70
     0
  0
APPID
  5
31
330
9
100
AcDbSymbolTableRecord
100
AcDbRegAppTableRecord
  2
ACAD_TEMP_GRAPHIC
 70
     0
  0
APPID
  5
44
330
9
100
AcDbSymbolTableRecord
100
AcDbRegAppTableRecord
  2
ACATTRIBSERVICES
 70
     0
  0
APPID
  5
F6
330
9
100
AcDbSymbolTableRecord
100
AcDbRegAppTableRecord
  2
AD_DRAW
 70
     0
  0
APPID
  5
114
330
9
100
AcDbSymbolTableRecord
100
AcDbRegAppTableRecord
  2
DESIGNERASSEMBLIES
 70
     0
  0
APPID
  5
118
330
9
100
AcDbSymbolTableRecord
100
AcDbRegAppTableRecord
  2
ACADM_DIM_EDIT
 70
     0
  0
APPID
  5
119
330
9
100
AcDbSymbolTableRecord
100
AcDbRegAppTableRecord
  2
AMDT_DM_ADJ
 70
     0
  0
APPID
  5
1AF
330
9
100
AcDbSymbolTableRecord
100
AcDbRegAppTableRecord
  2
ACAD_DSTYLE_DIMARC_LENGTH_SYMBOL
 70
     0
  0
APPID
  5
1B0
330
9
100
AcDbSymbolTableRecord
100
AcDbRegAppTableRecord
  2
ACAD_DSTYLE_DIMJOGGED_JOGANGLE_SYMBOL
 70
     0
  0
APPID
  5
2D7
330
9
100
AcDbSymbolTableRecord
100
AcDbRegAppTableRecord
  2
ACAD_MLEADERVER
 70
     0
  0
APPID
  5
355
330
9
100
AcDbSymbolTableRecord
100
AcDbRegAppTableRecord
  2
AcadAnnoPO
 70
     0
  0
APPID
  5
428
330
9
100
AcDbSymbolTableRecord
100
AcDbRegAppTableRecord
  2
ACAD_DSTYLE_DIMTEXT_FILL
 70
     0
  0
APPID
  5
429
330
9
100
AcDbSymbolTableRecord
100
AcDbRegAppTableRecord
  2
GENIUS_GENSCREG_15
 70
     0
  0
APPID
  5
42A
330
9
100
AcDbSymbolTableRecord
100
AcDbRegAppTableRecord
  2
GENIUS_GENOBJ-N-SDF_13
 70
     0
  0
APPID
  5
42B
330
9
100
AcDbSymbolTableRecord
100
AcDbRegAppTableRecord
  2
GENIUS_GENODEF_13
 70
     0
  0
APPID
  5
42C
330
9
100
AcDbSymbolTableRecord
100
AcDbRegAppTableRecord
  2
ACAD_EXEMPT_FROM_CAD_STANDARDS
 70
     0
  0
APPID
  5
42D
330
9
100
AcDbSymbolTableRecord
100
AcDbRegAppTableRecord
  2
AcAecLayerStandard
 70
     0
  0
APPID
  5
42E
330
9
100
AcDbSymbolTableRecord
100
AcDbRegAppTableRecord
  2
GENIUS_GENOBJ-N-CEN_13
 70
     0
  0
APPID
  5
42F
330
9
100
AcDbSymbolTableRecord
100
AcDbRegAppTableRecord
  2
GENIUS_GENCEN_19
 70
     0
  0
APPID
  5
430
330
9
100
AcDbSymbolTableRecord
100
AcDbRegAppTableRecord
  2
ACAD_DSTYLE_DIMINSPECT
 70
     0
  0
APPID
  5
431
330
9
100
AcDbSymbolTableRecord
100
AcDbRegAppTableRecord
  2
GENIUS_AMGTXT_16
 70
     0
  0
APPID
  5
432
330
9
100
AcDbSymbolTableRecord
100
AcDbRegAppTableRecord
  2
GENIUS_GENFIL_13
 70
     0
  0
APPID
  5
433
330
9
100
AcDbSymbolTableRecord
100
AcDbRegAppTableRecord
  2
GENIUS_GENOLIS_13
 70
     0
  0
APPID
  5
434
330
9
100
AcDbSymbolTableRecord
100
AcDbRegAppTableRecord
  2
GENIUS_GENOBJ-N-CHA_13
 70
     0
  0
APPID
  5
435
330
9
100
AcDbSymbolTableRecord
100
AcDbRegAppTableRecord
  2
GENIUS_GENOENT_13
 70
     0
  0
APPID
  5
436
330
9
100
AcDbSymbolTableRecord
100
AcDbRegAppTableRecord
  2
GENIUS_GENOREF_13
 70
     0
  0
APPID
  5
437
330
9
100
AcDbSymbolTableRecord
100
AcDbRegAppTableRecord
  2
GENIUS_GENOBJ-N-FIL_13
 70
     0
  0
APPID
  5
438
330
9
100
AcDbSymbolTableRecord
100
AcDbRegAppTableRecord
  2
GEVID1208829536
 70
     0
  0
APPID
  5
439
330
9
100
AcDbSymbolTableRecord
100
AcDbRegAppTableRecord
  2
GEVDC
 70
     0
  0
APPID
  5
43A
330
9
100
AcDbSymbolTableRecord
100
AcDbRegAppTableRecord
  2
GEVRADREF
 70
     0
  0
APPID
  5
43B
330
9
100
AcDbSymbolTableRecord
100
AcDbRegAppTableRecord
  2
GENIUS_GENBH_13
 70
     0
  0
APPID
  5
43C
330
9
100
AcDbSymbolTableRecord
100
AcDbRegAppTableRecord
  2
GENIUS_GENOBJ-NBEHI-BHF_13
 70
     0
  0
APPID
  5
43D
330
9
100
AcDbSymbolTableRecord
100
AcDbRegAppTableRecord
  2
GENIUS_GENOBJ-NBEHI-BHB_13
 70
     0
  0
APPID
  5
43E
330
9
100
AcDbSymbolTableRecord
100
AcDbRegAppTableRecord
  2
GEVID1208829537
 70
     0
  0
APPID
  5
43F
330
9
100
AcDbSymbolTableRecord
100
AcDbRegAppTableRecord
  2
ACAD_DSTYLE_DIMJAG
 70
     0
  0
APPID
  5
440
330
9
100
AcDbSymbolTableRecord
100
AcDbRegAppTableRecord
  2
ACAD_DSTYLE_DIMTALN
 70
     0
  0
APPID
  5
441
330
9
100
AcDbSymbolTableRecord
100
AcDbRegAppTableRecord
  2
AMG_2DHIDE
 70
     0
  0
APPID
  5
442
330
9
100
AcDbSymbolTableRecord
100
AcDbRegAppTableRecord
  2
AMG_2DSTRUCT_BTR
 70
     0
  0
APPID
  5
443
330
9
100
AcDbSymbolTableRecord
100
AcDbRegAppTableRecord
  2
GEVID1208845772
 70
     0
  0
APPID
  5
444
330
9
100
AcDbSymbolTableRecord
100
AcDbRegAppTableRecord
  2
GEVID1208845773
 70
     0
  0
APPID
  5
445
330
9
100
AcDbSymbolTableRecord
100
AcDbRegAppTableRecord
  2
ACADM_2DVIEW_IGN_NOTIFY
 70
     0
  0
APPID
  5
446
330
9
100
AcDbSymbolTableRecord
100
AcDbRegAppTableRecord
  2
GEVID1208845774
 70
     0
  0
APPID
  5
447
330
9
100
AcDbSymbolTableRecord
100
AcDbRegAppTableRecord
  2
GEVID1208845775
 70
     0
  0
APPID
  5
448
330
9
100
AcDbSymbolTableRecord
100
AcDbRegAppTableRecord
  2
GEVID1208845776
 70
     0
  0
APPID
  5
449
330
9
100
AcDbSymbolTableRecord
100
AcDbRegAppTableRecord
  2
GEVID1208845777
 70
     0
  0
APPID
  5
44A
330
9
100
AcDbSymbolTableRecord
100
AcDbRegAppTableRecord
  2
GEVCON
 70
     0
  0
APPID
  5
44B
330
9
100
AcDbSymbolTableRecord
100
AcDbRegAppTableRecord
  2
GENIUS_GENOBJ-F-SCPASSM_13
 70
     0
  0
APPID
  5
44C
330
9
100
AcDbSymbolTableRecord
100
AcDbRegAppTableRecord
  2
GEVID1208845778
 70
     0
  0
APPID
  5
44D
330
9
100
AcDbSymbolTableRecord
100
AcDbRegAppTableRecord
  2
GEVID1208845779
 70
     0
  0
APPID
  5
44E
330
9
100
AcDbSymbolTableRecord
100
AcDbRegAppTableRecord
  2
GEVID1208845780
 70
     0
  0
APPID
  5
44F
330
9
100
AcDbSymbolTableRecord
100
AcDbRegAppTableRecord
  2
GEVID1208845781
 70
     0
  0
APPID
  5
450
330
9
100
AcDbSymbolTableRecord
100
AcDbRegAppTableRecord
  2
GEVID1208845782
 70
     0
  0
APPID
  5
451
330
9
100
AcDbSymbolTableRecord
100
AcDbRegAppTableRecord
  2
GEVID1208845783
 70
     0
  0
APPID
  5
452
330
9
100
AcDbSymbolTableRecord
100
AcDbRegAppTableRecord
  2
GEVID1208845784
 70
     0
  0
APPID
  5
453
330
9
100
AcDbSymbolTableRecord
100
AcDbRegAppTableRecord
  2
GEVID1208845785
 70
     0
  0
APPID
  5
454
330
9
100
AcDbSymbolTableRecord
100
AcDbRegAppTableRecord
  2
GEVID1208845787
 70
     0
  0
APPID
  5
455
330
9
100
AcDbSymbolTableRecord
100
AcDbRegAppTableRecord
  2
GEVID1208845788
 70
     0
  0
APPID
  5
456
330
9
100
AcDbSymbolTableRecord
100
AcDbRegAppTableRecord
  2
GEVID1208845789
 70
     0
  0
APPID
  5
457
330
9
100
AcDbSymbolTableRecord
100
AcDbRegAppTableRecord
  2
GEVID1208845790
 70
     0
  0
APPID
  5
458
330
9
100
AcDbSymbolTableRecord
100
AcDbRegAppTableRecord
  2
GEVID1208845791
 70
     0
  0
APPID
  5
459
330
9
100
AcDbSymbolTableRecord
100
AcDbRegAppTableRecord
  2
GEVID1208845792
 70
     0
  0
APPID
  5
45A
330
9
100
AcDbSymbolTableRecord
100
AcDbRegAppTableRecord
  2
GEVID1208845793
 70
     0
  0
APPID
  5
45B
330
9
100
AcDbSymbolTableRecord
100
AcDbRegAppTableRecord
  2
GEVID1208845794
 70
     0
  0
APPID
  5
45C
330
9
100
AcDbSymbolTableRecord
100
AcDbRegAppTableRecord
  2
GEVID1208845795
 70
     0
  0
APPID
  5
45D
330
9
100
AcDbSymbolTableRecord
100
AcDbRegAppTableRecord
  2
GEVID1208845796
 70
     0
  0
APPID
  5
45E
330
9
100
AcDbSymbolTableRecord
100
AcDbRegAppTableRecord
  2
GEVID1208845797
 70
     0
  0
APPID
  5
45F
330
9
100
AcDbSymbolTableRecord
100
AcDbRegAppTableRecord
  2
GEVID1208845798
 70
     0
  0
APPID
  5
460
330
9
100
AcDbSymbolTableRecord
100
AcDbRegAppTableRecord
  2
GEVID1208845799
 70
     0
  0
APPID
  5
461
330
9
100
AcDbSymbolTableRecord
100
AcDbRegAppTableRecord
  2
GEVID1208845800
 70
     0
  0
APPID
  5
462
330
9
100
AcDbSymbolTableRecord
100
AcDbRegAppTableRecord
  2
GEVID1208845801
 70
     0
  0
APPID
  5
463
330
9
100
AcDbSymbolTableRecord
100
AcDbRegAppTableRecord
  2
GEVID1208845802
 70
     0
  0
APPID
  5
464
330
9
100
AcDbSymbolTableRecord
100
AcDbRegAppTableRecord
  2
GENIUS_GENOBJ-N-DIM_13
 70
     0
  0
APPID
  5
465
330
9
100
AcDbSymbolTableRecord
100
AcDbRegAppTableRecord
  2
GENIUS_GENDIM_13
 70
     0
  0
APPID
  5
466
330
9
100
AcDbSymbolTableRecord
100
AcDbRegAppTableRecord
  2
GENIUS_GENDIMSH_14
 70
     0
  0
APPID
  5
467
330
9
100
AcDbSymbolTableRecord
100
AcDbRegAppTableRecord
  2
GEVID1208845803
 70
     0
  0
APPID
  5
468
330
9
100
AcDbSymbolTableRecord
100
AcDbRegAppTableRecord
  2
GEVID1208845804
 70
     0
  0
APPID
  5
469
330
9
100
AcDbSymbolTableRecord
100
AcDbRegAppTableRecord
  2
GEVID1208845805
 70
     0
  0
APPID
  5
46A
330
9
100
AcDbSymbolTableRecord
100
AcDbRegAppTableRecord
  2
GEVID1208845806
 70
     0
  0
APPID
  5
46B
330
9
100
AcDbSymbolTableRecord
100
AcDbRegAppTableRecord
  2
GEVID1208845807
 70
     0
  0
APPID
  5
46C
330
9
100
AcDbSymbolTableRecord
100
AcDbRegAppTableRecord
  2
GEVID1208845808
 70
     0
  0
APPID
  5
46D
330
9
100
AcDbSymbolTableRecord
100
AcDbRegAppTableRecord
  2
GEVID1208845809
 70
     0
  0
APPID
  5
46E
330
9
100
AcDbSymbolTableRecord
100
AcDbRegAppTableRecord
  2
GEVID1208845810
 70
     0
  0
APPID
  5
46F
330
9
100
AcDbSymbolTableRecord
100
AcDbRegAppTableRecord
  2
GEVID1208845811
 70
     0
  0
APPID
  5
470
330
9
100
AcDbSymbolTableRecord
100
AcDbRegAppTableRecord
  2
GEVID1208845813
 70
     0
  0
APPID
  5
471
330
9
100
AcDbSymbolTableRecord
100
AcDbRegAppTableRecord
  2
GEVID1208845814
 70
     0
  0
APPID
  5
472
330
9
100
AcDbSymbolTableRecord
100
AcDbRegAppTableRecord
  2
GEVID1208845815
 70
     0
  0
APPID
  5
473
330
9
100
AcDbSymbolTableRecord
100
AcDbRegAppTableRecord
  2
GEVID1208845816
 70
     0
  0
APPID
  5
474
330
9
100
AcDbSymbolTableRecord
100
AcDbRegAppTableRecord
  2
GEVID1208845817
 70
     0
  0
APPID
  5
475
330
9
100
AcDbSymbolTableRecord
100
AcDbRegAppTableRecord
  2
GEVID1208845818
 70
     0
  0
APPID
  5
476
330
9
100
AcDbSymbolTableRecord
100
AcDbRegAppTableRecord
  2
GEVID1208845819
 70
     0
  0
APPID
  5
477
330
9
100
AcDbSymbolTableRecord
100
AcDbRegAppTableRecord
  2
GEVID1208845820
 70
     0
  0
APPID
  5
478
330
9
100
AcDbSymbolTableRecord
100
AcDbRegAppTableRecord
  2
GENIUS_GENOBJ-F-SHCL_13
 70
     0
  0
APPID
  5
479
330
9
100
AcDbSymbolTableRecord
100
AcDbRegAppTableRecord
  2
GENIUS_GEFMSH_13
 70
     0
  0
APPID
  5
47A
330
9
100
AcDbSymbolTableRecord
100
AcDbRegAppTableRecord
  2
GENIUS_GENOBJ-F-SHCA_13
 70
     0
  0
APPID
  5
47B
330
9
100
AcDbSymbolTableRecord
100
AcDbRegAppTableRecord
  2
GENIUS_GEFSH_13
 70
     0
  0
APPID
  5
47C
330
9
100
AcDbSymbolTableRecord
100
AcDbRegAppTableRecord
  2
GENIUS_GEFSHP_13
 70
     0
  0
APPID
  5
47D
330
9
100
AcDbSymbolTableRecord
100
AcDbRegAppTableRecord
  2
GENIUS_GEFSHP0_13
 70
     0
  0
APPID
  5
47E
330
9
100
AcDbSymbolTableRecord
100
AcDbRegAppTableRecord
  2
GENIUS_GEFSH0_13
 70
     0
  0
APPID
  5
47F
330
9
100
AcDbSymbolTableRecord
100
AcDbRegAppTableRecord
  2
GENIUS_GEFSHP1_13
 70
     0
  0
APPID
  5
480
330
9
100
AcDbSymbolTableRecord
100
AcDbRegAppTableRecord
  2
GENIUS_GEFSH1_13
 70
     0
  0
APPID
  5
481
330
9
100
AcDbSymbolTableRecord
100
AcDbRegAppTableRecord
  2
GEVID1208866337
 70
     0
  0
APPID
  5
482
330
9
100
AcDbSymbolTableRecord
100
AcDbRegAppTableRecord
  2
GEVID1208866338
 70
     0
  0
APPID
  5
483
330
9
100
AcDbSymbolTableRecord
100
AcDbRegAppTableRecord
  2
GEVID1208866339
 70
     0
  0
APPID
  5
484
330
9
100
AcDbSymbolTableRecord
100
AcDbRegAppTableRecord
  2
GEVID1208866340
 70
     0
  0
APPID
  5
485
330
9
100
AcDbSymbolTableRecord
100
AcDbRegAppTableRecord
  2
GEVID1208866341
 70
     0
  0
APPID
  5
486
330
9
100
AcDbSymbolTableRecord
100
AcDbRegAppTableRecord
  2
ACAD_PSEXT
 70
     0
  0
APPID
  5
487
330
9
100
AcDbSymbolTableRecord
100
AcDbRegAppTableRecord
  2
GEVID1208866342
 70
     0
  0
APPID
  5
488
330
9
100
AcDbSymbolTableRecord
100
AcDbRegAppTableRecord
  2
GEVID1208913836
 70
     0
  0
APPID
  5
489
330
9
100
AcDbSymbolTableRecord
100
AcDbRegAppTableRecord
  2
GEVID1208913837
 70
     0
  0
APPID
  5
48A
330
9
100
AcDbSymbolTableRecord
100
AcDbRegAppTableRecord
  2
GEVID1208913838
 70
     0
  0
APPID
  5
48B
330
9
100
AcDbSymbolTableRecord
100
AcDbRegAppTableRecord
  2
GEVID1208913839
 70
     0
  0
APPID
  5
48C
330
9
100
AcDbSymbolTableRecord
100
AcDbRegAppTableRecord
  2
GENIUS_GENDTOL_13
 70
     0
  0
APPID
  5
48D
330
9
100
AcDbSymbolTableRecord
100
AcDbRegAppTableRecord
  2
GEVID1208928889
 70
     0
  0
APPID
  5
48E
330
9
100
AcDbSymbolTableRecord
100
AcDbRegAppTableRecord
  2
GEVID1208928890
 70
     0
  0
APPID
  5
48F
330
9
100
AcDbSymbolTableRecord
100
AcDbRegAppTableRecord
  2
GEVID1208928891
 70
     0
  0
APPID
  5
490
330
9
100
AcDbSymbolTableRecord
100
AcDbRegAppTableRecord
  2
GEVID1208928892
 70
     0
  0
APPID
  5
491
330
9
100
AcDbSymbolTableRecord
100
AcDbRegAppTableRecord
  2
GEVID1208933827
 70
     0
  0
APPID
  5
492
330
9
100
AcDbSymbolTableRecord
100
AcDbRegAppTableRecord
  2
GEVID1208933829
 70
     0
  0
APPID
  5
493
330
9
100
AcDbSymbolTableRecord
100
AcDbRegAppTableRecord
  2
GEVID1208933830
 70
     0
  0
APPID
  5
494
330
9
100
AcDbSymbolTableRecord
100
AcDbRegAppTableRecord
  2
GEVID1208933831
 70
     0
  0
APPID
  5
495
330
9
100
AcDbSymbolTableRecord
100
AcDbRegAppTableRecord
  2
GEVID1208933832
 70
     0
  0
APPID
  5
496
330
9
100
AcDbSymbolTableRecord
100
AcDbRegAppTableRecord
  2
GEVID1208933833
 70
     0
  0
APPID
  5
497
330
9
100
AcDbSymbolTableRecord
100
AcDbRegAppTableRecord
  2
GEVID1208933834
 70
     0
  0
APPID
  5
498
330
9
100
AcDbSymbolTableRecord
100
AcDbRegAppTableRecord
  2
GEVID1208933835
 70
     0
  0
APPID
  5
499
330
9
100
AcDbSymbolTableRecord
100
AcDbRegAppTableRecord
  2
GEVID1208933836
 70
     0
  0
APPID
  5
49A
330
9
100
AcDbSymbolTableRecord
100
AcDbRegAppTableRecord
  2
GEVID1208933837
 70
     0
  0
APPID
  5
49B
330
9
100
AcDbSymbolTableRecord
100
AcDbRegAppTableRecord
  2
GEVID1208933838
 70
     0
  0
APPID
  5
49C
330
9
100
AcDbSymbolTableRecord
100
AcDbRegAppTableRecord
  2
GEVID1208933840
 70
     0
  0
APPID
  5
49D
330
9
100
AcDbSymbolTableRecord
100
AcDbRegAppTableRecord
  2
GEVID1208933842
 70
     0
  0
APPID
  5
49E
330
9
100
AcDbSymbolTableRecord
100
AcDbRegAppTableRecord
  2
GEVID1208933843
 70
     0
  0
APPID
  5
49F
330
9
100
AcDbSymbolTableRecord
100
AcDbRegAppTableRecord
  2
GEVID1208933844
 70
     0
  0
APPID
  5
4A0
330
9
100
AcDbSymbolTableRecord
100
AcDbRegAppTableRecord
  2
GEVID1208933845
 70
     0
  0
APPID
  5
4A1
330
9
100
AcDbSymbolTableRecord
100
AcDbRegAppTableRecord
  2
GEVID1208933846
 70
     0
  0
APPID
  5
4A2
330
9
100
AcDbSymbolTableRecord
100
AcDbRegAppTableRecord
  2
GEVID1208933847
 70
     0
  0
APPID
  5
4A3
330
9
100
AcDbSymbolTableRecord
100
AcDbRegAppTableRecord
  2
GEVID1208933848
 70
     0
  0
APPID
  5
4A4
330
9
100
AcDbSymbolTableRecord
100
AcDbRegAppTableRecord
  2
GEVID1208933849
 70
     0
  0
APPID
  5
4A5
330
9
100
AcDbSymbolTableRecord
100
AcDbRegAppTableRecord
  2
GEVID1208933850
 70
     0
  0
APPID
  5
4A6
330
9
100
AcDbSymbolTableRecord
100
AcDbRegAppTableRecord
  2
GEVID1208933851
 70
     0
  0
APPID
  5
4A7
330
9
100
AcDbSymbolTableRecord
100
AcDbRegAppTableRecord
  2
GEVID1208933852
 70
     0
  0
APPID
  5
4A8
330
9
100
AcDbSymbolTableRecord
100
AcDbRegAppTableRecord
  2
GEVID1208933853
 70
     0
  0
APPID
  5
4A9
330
9
100
AcDbSymbolTableRecord
100
AcDbRegAppTableRecord
  2
GEVID1208933854
 70
     0
  0
APPID
  5
4AA
330
9
100
AcDbSymbolTableRecord
100
AcDbRegAppTableRecord
  2
GEVID1208933855
 70
     0
  0
APPID
  5
4AB
330
9
100
AcDbSymbolTableRecord
100
AcDbRegAppTableRecord
  2
GEVID1208933856
 70
     0
  0
APPID
  5
4AC
330
9
100
AcDbSymbolTableRecord
100
AcDbRegAppTableRecord
  2
GEVID1208933857
 70
     0
  0
APPID
  5
4AD
330
9
100
AcDbSymbolTableRecord
100
AcDbRegAppTableRecord
  2
GEVID1208933858
 70
     0
  0
APPID
  5
4AE
330
9
100
AcDbSymbolTableRecord
100
AcDbRegAppTableRecord
  2
GEVID1208933859
 70
     0
  0
APPID
  5
4AF
330
9
100
AcDbSymbolTableRecord
100
AcDbRegAppTableRecord
  2
GEVID1208933860
 70
     0
  0
APPID
  5
4B0
330
9
100
AcDbSymbolTableRecord
100
AcDbRegAppTableRecord
  2
GEVID1208933861
 70
     0
  0
APPID
  5
4B1
330
9
100
AcDbSymbolTableRecord
100
AcDbRegAppTableRecord
  2
GEVID1208933862
 70
     0
  0
APPID
  5
4B2
330
9
100
AcDbSymbolTableRecord
100
AcDbRegAppTableRecord
  2
GEVID1208933863
 70
     0
  0
APPID
  5
4B3
330
9
100
AcDbSymbolTableRecord
100
AcDbRegAppTableRecord
  2
GEVID1208933864
 70
     0
  0
APPID
  5
4B4
330
9
100
AcDbSymbolTableRecord
100
AcDbRegAppTableRecord
  2
GEVID1208933865
 70
     0
  0
APPID
  5
4B5
330
9
100
AcDbSymbolTableRecord
100
AcDbRegAppTableRecord
  2
GEVID1208933866
 70
     0
  0
APPID
  5
4B6
330
9
100
AcDbSymbolTableRecord
100
AcDbRegAppTableRecord
  2
GEVID1208933867
 70
     0
  0
APPID
  5
4B7
330
9
100
AcDbSymbolTableRecord
100
AcDbRegAppTableRecord
  2
GEVID1208933868
 70
     0
  0
APPID
  5
4B8
330
9
100
AcDbSymbolTableRecord
100
AcDbRegAppTableRecord
  2
GEVID1208933869
 70
     0
  0
APPID
  5
4B9
330
9
100
AcDbSymbolTableRecord
100
AcDbRegAppTableRecord
  2
GEVID1208933870
 70
     0
  0
APPID
  5
4BA
330
9
100
AcDbSymbolTableRecord
100
AcDbRegAppTableRecord
  2
GEVID1208933871
 70
     0
  0
APPID
  5
4BB
330
9
100
AcDbSymbolTableRecord
100
AcDbRegAppTableRecord
  2
GEVID1208933872
 70
     0
  0
APPID
  5
4BC
330
9
100
AcDbSymbolTableRecord
100
AcDbRegAppTableRecord
  2
GEVID1208933873
 70
     0
  0
APPID
  5
4BD
330
9
100
AcDbSymbolTableRecord
100
AcDbRegAppTableRecord
  2
GEVID1208933874
 70
     0
  0
APPID
  5
4BE
330
9
100
AcDbSymbolTableRecord
100
AcDbRegAppTableRecord
  2
GEVID1208933875
 70
     0
  0
APPID
  5
4BF
330
9
100
AcDbSymbolTableRecord
100
AcDbRegAppTableRecord
  2
GEVID1208933876
 70
     0
  0
APPID
  5
4C0
330
9
100
AcDbSymbolTableRecord
100
AcDbRegAppTableRecord
  2
ACAD_DSTYLE_DIMRADIAL_EXTENSION
 70
     0
  0
APPID
  5
4C1
330
9
100
AcDbSymbolTableRecord
100
AcDbRegAppTableRecord
  2
GEVID1208999100
 70
     0
  0
APPID
  5
4C2
330
9
100
AcDbSymbolTableRecord
100
AcDbRegAppTableRecord
  2
GEVID1208999101
 70
     0
  0
APPID
  5
4C3
330
9
100
AcDbSymbolTableRecord
100
AcDbRegAppTableRecord
  2
GEVID1208999102
 70
     0
  0
APPID
  5
4C4
330
9
100
AcDbSymbolTableRecord
100
AcDbRegAppTableRecord
  2
GEVID1208999103
 70
     0
  0
APPID
  5
4C5
330
9
100
AcDbSymbolTableRecord
100
AcDbRegAppTableRecord
  2
GEVID1208999105
 70
     0
  0
APPID
  5
4C6
330
9
100
AcDbSymbolTableRecord
100
AcDbRegAppTableRecord
  2
GEVID1208999106
 70
     0
  0
APPID
  5
4C7
330
9
100
AcDbSymbolTableRecord
100
AcDbRegAppTableRecord
  2
GEVID1208999108
 70
     0
  0
APPID
  5
4C8
330
9
100
AcDbSymbolTableRecord
100
AcDbRegAppTableRecord
  2
GEVID1208999109
 70
     0
  0
APPID
  5
4C9
330
9
100
AcDbSymbolTableRecord
100
AcDbRegAppTableRecord
  2
GEVID1208999110
 70
     0
  0
APPID
  5
4CA
330
9
100
AcDbSymbolTableRecord
100
AcDbRegAppTableRecord
  2
GEVID1208999111
 70
     0
  0
APPID
  5
4CB
330
9
100
AcDbSymbolTableRecord
100
AcDbRegAppTableRecord
  2
GEVID1208999112
 70
     0
  0
APPID
  5
4CC
330
9
100
AcDbSymbolTableRecord
100
AcDbRegAppTableRecord
  2
GEVID1208999113
 70
     0
  0
APPID
  5
4CD
330
9
100
AcDbSymbolTableRecord
100
AcDbRegAppTableRecord
  2
GEVID1208999114
 70
     0
  0
APPID
  5
4CE
330
9
100
AcDbSymbolTableRecord
100
AcDbRegAppTableRecord
  2
GEVID1210218799
 70
     0
  0
APPID
  5
4CF
330
9
100
AcDbSymbolTableRecord
100
AcDbRegAppTableRecord
  2
GEVID1210218800
 70
     0
  0
APPID
  5
4D0
330
9
100
AcDbSymbolTableRecord
100
AcDbRegAppTableRecord
  2
GENIUS_GEFWELD_13
 70
     0
  0
APPID
  5
4D1
330
9
100
AcDbSymbolTableRecord
100
AcDbRegAppTableRecord
  2
GENIUS_GENOBJ-F-WELS_13
 70
     0
  0
APPID
  5
4D2
330
9
100
AcDbSymbolTableRecord
100
AcDbRegAppTableRecord
  2
AcadAnnotative
 70
     0
  0
APPID
  5
4D3
330
9
100
AcDbSymbolTableRecord
100
AcDbRegAppTableRecord
  2
GEVID1210145339
 70
     0
  0
APPID
  5
4D4
330
9
100
AcDbSymbolTableRecord
100
AcDbRegAppTableRecord
  2
ACAD_DSTYLE_DIMBREAK
 70
     0
  0
APPID
  5
4D5
330
9
100
AcDbSymbolTableRecord
100
AcDbRegAppTableRecord
  2
GEVID1210145340
 70
     0
  0
APPID
  5
4D6
330
9
100
AcDbSymbolTableRecord
100
AcDbRegAppTableRecord
  2
GEVID1210145341
 70
     0
  0
APPID
  5
4D7
330
9
100
AcDbSymbolTableRecord
100
AcDbRegAppTableRecord
  2
GEVID1210145342
 70
     0
  0
APPID
  5
4D8
330
9
100
AcDbSymbolTableRecord
100
AcDbRegAppTableRecord
  2
GEVID1210145343
 70
     0
  0
APPID
  5
4D9
330
9
100
AcDbSymbolTableRecord
100
AcDbRegAppTableRecord
  2
GEVID1210145344
 70
     0
  0
APPID
  5
4DA
330
9
100
AcDbSymbolTableRecord
100
AcDbRegAppTableRecord
  2
GEVID1210145345
 70
     0
  0
APPID
  5
4DB
330
9
100
AcDbSymbolTableRecord
100
AcDbRegAppTableRecord
  2
GEVID1210152816
 70
     0
  0
APPID
  5
4DC
330
9
100
AcDbSymbolTableRecord
100
AcDbRegAppTableRecord
  2
GEVID1210153850
 70
     0
  0
APPID
  5
4DD
330
9
100
AcDbSymbolTableRecord
100
AcDbRegAppTableRecord
  2
GEVID1210153851
 70
     0
  0
APPID
  5
4DE
330
9
100
AcDbSymbolTableRecord
100
AcDbRegAppTableRecord
  2
GEVID1210153852
 70
     0
  0
APPID
  5
4DF
330
9
100
AcDbSymbolTableRecord
100
AcDbRegAppTableRecord
  2
GEVID1210549898
 70
     0
  0
APPID
  5
4E0
330
9
100
AcDbSymbolTableRecord
100
AcDbRegAppTableRecord
  2
GEVID1210549899
 70
     0
  0
APPID
  5
4E1
330
9
100
AcDbSymbolTableRecord
100
AcDbRegAppTableRecord
  2
GEVID1210549900
 70
     0
  0
APPID
  5
4E2
330
9
100
AcDbSymbolTableRecord
100
AcDbRegAppTableRecord
  2
GEVID1210549901
 70
     0
  0
APPID
  5
4E3
330
9
100
AcDbSymbolTableRecord
100
AcDbRegAppTableRecord
  2
GEVID1210549902
 70
     0
  0
APPID
  5
4E4
330
9
100
AcDbSymbolTableRecord
100
AcDbRegAppTableRecord
  2
GEVID1210549903
 70
     0
  0
APPID
  5
4E5
330
9
100
AcDbSymbolTableRecord
100
AcDbRegAppTableRecord
  2
GEVID1210549904
 70
     0
  0
APPID
  5
4E6
330
9
100
AcDbSymbolTableRecord
100
AcDbRegAppTableRecord
  2
GEVID1210549905
 70
     0
  0
APPID
  5
4E7
330
9
100
AcDbSymbolTableRecord
100
AcDbRegAppTableRecord
  2
GEVID1210549906
 70
     0
  0
APPID
  5
4E8
330
9
100
AcDbSymbolTableRecord
100
AcDbRegAppTableRecord
  2
GEVID1210549907
 70
     0
  0
APPID
  5
4E9
330
9
100
AcDbSymbolTableRecord
100
AcDbRegAppTableRecord
  2
GEVID1210549908
 70
     0
  0
APPID
  5
4EA
330
9
100
AcDbSymbolTableRecord
100
AcDbRegAppTableRecord
  2
GEVID1210549909
 70
     0
  0
APPID
  5
4EB
330
9
100
AcDbSymbolTableRecord
100
AcDbRegAppTableRecord
  2
GEVID1210549910
 70
     0
  0
APPID
  5
4EC
330
9
100
AcDbSymbolTableRecord
100
AcDbRegAppTableRecord
  2
GEVID1210549911
 70
     0
  0
APPID
  5
4ED
330
9
100
AcDbSymbolTableRecord
100
AcDbRegAppTableRecord
  2
GEVID1210549912
 70
     0
  0
APPID
  5
4EE
330
9
100
AcDbSymbolTableRecord
100
AcDbRegAppTableRecord
  2
GEVID1210549913
 70
     0
  0
APPID
  5
4EF
330
9
100
AcDbSymbolTableRecord
100
AcDbRegAppTableRecord
  2
GEVID1210549914
 70
     0
  0
APPID
  5
4F0
330
9
100
AcDbSymbolTableRecord
100
AcDbRegAppTableRecord
  2
GEVID1210549915
 70
     0
  0
APPID
  5
4F1
330
9
100
AcDbSymbolTableRecord
100
AcDbRegAppTableRecord
  2
GEVID1210549916
 70
     0
  0
APPID
  5
4F2
330
9
100
AcDbSymbolTableRecord
100
AcDbRegAppTableRecord
  2
GEVID1210549917
 70
     0
  0
APPID
  5
4F3
330
9
100
AcDbSymbolTableRecord
100
AcDbRegAppTableRecord
  2
GENIUS_GENOBJ-N-CRS_13
 70
     0
  0
APPID
  5
4F4
330
9
100
AcDbSymbolTableRecord
100
AcDbRegAppTableRecord
  2
GEVID1210549918
 70
     0
  0
APPID
  5
4F5
330
9
100
AcDbSymbolTableRecord
100
AcDbRegAppTableRecord
  2
GENIUS_GENOBJ-N-CRC_13
 70
     0
  0
APPID
  5
4F6
330
9
100
AcDbSymbolTableRecord
100
AcDbRegAppTableRecord
  2
GENIUS_GENCRC_14
 70
     0
  0
APPID
  5
4F7
330
9
100
AcDbSymbolTableRecord
100
AcDbRegAppTableRecord
  2
GEVID1210549919
 70
     0
  0
APPID
  5
4F8
330
9
100
AcDbSymbolTableRecord
100
AcDbRegAppTableRecord
  2
GEVID1210549921
 70
     0
  0
APPID
  5
4F9
330
9
100
AcDbSymbolTableRecord
100
AcDbRegAppTableRecord
  2
GEVID1210549922
 70
     0
  0
APPID
  5
4FA
330
9
100
AcDbSymbolTableRecord
100
AcDbRegAppTableRecord
  2
GEVID1210635173
 70
     0
  0
APPID
  5
4FB
330
9
100
AcDbSymbolTableRecord
100
AcDbRegAppTableRecord
  2
GEVID1210635174
 70
     0
  0
APPID
  5
4FC
330
9
100
AcDbSymbolTableRecord
100
AcDbRegAppTableRecord
  2
GEVID1210635175
 70
     0
  0
APPID
  5
4FD
330
9
100
AcDbSymbolTableRecord
100
AcDbRegAppTableRecord
  2
GEVID1210635176
 70
     0
  0
APPID
  5
4FE
330
9
100
AcDbSymbolTableRecord
100
AcDbRegAppTableRecord
  2
GEVID1210635177
 70
     0
  0
APPID
  5
4FF
330
9
100
AcDbSymbolTableRecord
100
AcDbRegAppTableRecord
  2
GEVID1210635178
 70
     0
  0
APPID
  5
500
330
9
100
AcDbSymbolTableRecord
100
AcDbRegAppTableRecord
  2
GENIUS_GENIUS_GENBHEDTMP_13
 70
     0
  0
APPID
  5
501
330
9
100
AcDbSymbolTableRecord
100
AcDbRegAppTableRecord
  2
GEVID1210635179
 70
     0
  0
APPID
  5
502
330
9
100
AcDbSymbolTableRecord
100
AcDbRegAppTableRecord
  2
GEVID1210635180
 70
     0
  0
APPID
  5
503
330
9
100
AcDbSymbolTableRecord
100
AcDbRegAppTableRecord
  2
GEVID1210635181
 70
     0
  0
APPID
  5
504
330
9
100
AcDbSymbolTableRecord
100
AcDbRegAppTableRecord
  2
GEVID1210635182
 70
     0
  0
APPID
  5
505
330
9
100
AcDbSymbolTableRecord
100
AcDbRegAppTableRecord
  2
GEVID1210635184
 70
     0
  0
APPID
  5
506
330
9
100
AcDbSymbolTableRecord
100
AcDbRegAppTableRecord
  2
GEVID1210635185
 70
     0
  0
APPID
  5
507
330
9
100
AcDbSymbolTableRecord
100
AcDbRegAppTableRecord
  2
GEVID1210635186
 70
     0
  0
APPID
  5
508
330
9
100
AcDbSymbolTableRecord
100
AcDbRegAppTableRecord
  2
GEVID1210635187
 70
     0
  0
APPID
  5
509
330
9
100
AcDbSymbolTableRecord
100
AcDbRegAppTableRecord
  2
GEVID1210635188
 70
     0
  0
APPID
  5
50A
330
9
100
AcDbSymbolTableRecord
100
AcDbRegAppTableRecord
  2
GEVID1210635189
 70
     0
  0
APPID
  5
50B
330
9
100
AcDbSymbolTableRecord
100
AcDbRegAppTableRecord
  2
GEVID1210635190
 70
     0
  0
APPID
  5
50C
330
9
100
AcDbSymbolTableRecord
100
AcDbRegAppTableRecord
  2
GENIUS_GENREC_14
 70
     0
  0
APPID
  5
50D
330
9
100
AcDbSymbolTableRecord
100
AcDbRegAppTableRecord
  2
GENIUS_GENOBJ-N-REC_13
 70
     0
  0
APPID
  5
50E
330
9
100
AcDbSymbolTableRecord
100
AcDbRegAppTableRecord
  2
GEVID1210676655
 70
     0
  0
APPID
  5
50F
330
9
100
AcDbSymbolTableRecord
100
AcDbRegAppTableRecord
  2
GEVID1210676656
 70
     0
  0
APPID
  5
510
330
9
100
AcDbSymbolTableRecord
100
AcDbRegAppTableRecord
  2
GEVID1210676657
 70
     0
  0
APPID
  5
511
330
9
100
AcDbSymbolTableRecord
100
AcDbRegAppTableRecord
  2
GEVID1210676659
 70
     0
  0
APPID
  5
512
330
9
100
AcDbSymbolTableRecord
100
AcDbRegAppTableRecord
  2
GEVID1210676660
 70
     0
  0
APPID
  5
513
330
9
100
AcDbSymbolTableRecord
100
AcDbRegAppTableRecord
  2
GEVID1210676661
 70
     0
  0
APPID
  5
514
330
9
100
AcDbSymbolTableRecord
100
AcDbRegAppTableRecord
  2
GEVID1210676662
 70
     0
  0
APPID
  5
515
330
9
100
AcDbSymbolTableRecord
100
AcDbRegAppTableRecord
  2
GEVID1210721646
 70
     0
  0
APPID
  5
516
330
9
100
AcDbSymbolTableRecord
100
AcDbRegAppTableRecord
  2
GEVID1210721647
 70
     0
  0
APPID
  5
517
330
9
100
AcDbSymbolTableRecord
100
AcDbRegAppTableRecord
  2
GEVID1210721648
 70
     0
  0
APPID
  5
518
330
9
100
AcDbSymbolTableRecord
100
AcDbRegAppTableRecord
  2
GEVID1210721649
 70
     0
  0
APPID
  5
519
330
9
100
AcDbSymbolTableRecord
100
AcDbRegAppTableRecord
  2
GEVID1210721650
 70
     0
  0
APPID
  5
51A
330
9
100
AcDbSymbolTableRecord
100
AcDbRegAppTableRecord
  2
GEVID1210721651
 70
     0
  0
APPID
  5
51B
330
9
100
AcDbSymbolTableRecord
100
AcDbRegAppTableRecord
  2
GEVID1210721652
 70
     0
  0
APPID
  5
51C
330
9
100
AcDbSymbolTableRecord
100
AcDbRegAppTableRecord
  2
GEVID1210721653
 70
     0
  0
APPID
  5
51D
330
9
100
AcDbSymbolTableRecord
100
AcDbRegAppTableRecord
  2
PE_URL
 70
     0
  0
APPID
  5
51E
330
9
100
AcDbSymbolTableRecord
100
AcDbRegAppTableRecord
  2
GEVID1210825555
 70
     0
  0
APPID
  5
51F
330
9
100
AcDbSymbolTableRecord
100
AcDbRegAppTableRecord
  2
GEVID1210825556
 70
     0
  0
APPID
  5
520
330
9
100
AcDbSymbolTableRecord
100
AcDbRegAppTableRecord
  2
GEVID1210825557
 70
     0
  0
APPID
  5
521
330
9
100
AcDbSymbolTableRecord
100
AcDbRegAppTableRecord
  2
GEVID1210825558
 70
     0
  0
APPID
  5
522
330
9
100
AcDbSymbolTableRecord
100
AcDbRegAppTableRecord
  2
GEVID1210825559
 70
     0
  0
APPID
  5
523
330
9
100
AcDbSymbolTableRecord
100
AcDbRegAppTableRecord
  2
GEVID1210825560
 70
     0
  0
APPID
  5
524
330
9
100
AcDbSymbolTableRecord
100
AcDbRegAppTableRecord
  2
GEVID1210825561
 70
     0
  0
APPID
  5
525
330
9
100
AcDbSymbolTableRecord
100
AcDbRegAppTableRecord
  2
GEVID1210825562
 70
     0
  0
APPID
  5
526
330
9
100
AcDbSymbolTableRecord
100
AcDbRegAppTableRecord
  2
GEVID1210825563
 70
     0
  0
APPID
  5
527
330
9
100
AcDbSymbolTableRecord
100
AcDbRegAppTableRecord
  2
GEVID1210825564
 70
     0
  0
APPID
  5
528
330
9
100
AcDbSymbolTableRecord
100
AcDbRegAppTableRecord
  2
GEVID1210825565
 70
     0
  0
APPID
  5
529
330
9
100
AcDbSymbolTableRecord
100
AcDbRegAppTableRecord
  2
GEVID1210825566
 70
     0
  0
APPID
  5
52A
330
9
100
AcDbSymbolTableRecord
100
AcDbRegAppTableRecord
  2
GEVID1210825567
 70
     0
  0
APPID
  5
52B
330
9
100
AcDbSymbolTableRecord
100
AcDbRegAppTableRecord
  2
GENIUS_GENOBJ-N-ZOO_13
 70
     0
  0
APPID
  5
52C
330
9
100
AcDbSymbolTableRecord
100
AcDbRegAppTableRecord
  2
GENIUS_GENZOO_17
 70
     0
  0
APPID
  5
52D
330
9
100
AcDbSymbolTableRecord
100
AcDbRegAppTableRecord
  2
ACADANNOTATIVEDECOMPOSITION
 70
     0
  0
APPID
  5
52E
330
9
100
AcDbSymbolTableRecord
100
AcDbRegAppTableRecord
  2
GENIUS_GENOBJ-N-HTC_13
 70
     0
  0
APPID
  5
52F
330
9
100
AcDbSymbolTableRecord
100
AcDbRegAppTableRecord
  2
GENIUS_GENHATCH_13
 70
     0
  0
APPID
  5
530
330
9
100
AcDbSymbolTableRecord
100
AcDbRegAppTableRecord
  2
GEVID1210896020
 70
     0
  0
APPID
  5
531
330
9
100
AcDbSymbolTableRecord
100
AcDbRegAppTableRecord
  2
GEVID1210896021
 70
     0
  0
APPID
  5
532
330
9
100
AcDbSymbolTableRecord
100
AcDbRegAppTableRecord
  2
GEVID1209083540
 70
     0
  0
APPID
  5
533
330
9
100
AcDbSymbolTableRecord
100
AcDbRegAppTableRecord
  2
GEVMK
 70
     0
  0
APPID
  5
534
330
9
100
AcDbSymbolTableRecord
100
AcDbRegAppTableRecord
  2
GEVID1209083542
 70
     0
  0
APPID
  5
535
330
9
100
AcDbSymbolTableRecord
100
AcDbRegAppTableRecord
  2
GEVID1209083543
 70
     0
  0
APPID
  5
536
330
9
100
AcDbSymbolTableRecord
100
AcDbRegAppTableRecord
  2
GEVID1209083544
 70
     0
  0
APPID
  5
537
330
9
100
AcDbSymbolTableRecord
100
AcDbRegAppTableRecord
  2
GEVID1209083545
 70
     0
  0
APPID
  5
538
330
9
100
AcDbSymbolTableRecord
100
AcDbRegAppTableRecord
  2
GEVID1209083546
 70
     0
  0
APPID
  5
539
330
9
100
AcDbSymbolTableRecord
100
AcDbRegAppTableRecord
  2
GEVID1209083547
 70
     0
  0
APPID
  5
53A
330
9
100
AcDbSymbolTableRecord
100
AcDbRegAppTableRecord
  2
GEVID1209083548
 70
     0
  0
APPID
  5
53B
330
9
100
AcDbSymbolTableRecord
100
AcDbRegAppTableRecord
  2
GEVID1209083549
 70
     0
  0
APPID
  5
53C
330
9
100
AcDbSymbolTableRecord
100
AcDbRegAppTableRecord
  2
GEVID1209083550
 70
     0
  0
APPID
  5
53D
330
9
100
AcDbSymbolTableRecord
100
AcDbRegAppTableRecord
  2
GEVID1209083551
 70
     0
  0
APPID
  5
53E
330
9
100
AcDbSymbolTableRecord
100
AcDbRegAppTableRecord
  2
GEVID1209083552
 70
     0
  0
APPID
  5
53F
330
9
100
AcDbSymbolTableRecord
100
AcDbRegAppTableRecord
  2
GEVID1209083553
 70
     0
  0
APPID
  5
540
330
9
100
AcDbSymbolTableRecord
100
AcDbRegAppTableRecord
  2
GEVID1210896022
 70
     0
  0
APPID
  5
541
330
9
100
AcDbSymbolTableRecord
100
AcDbRegAppTableRecord
  2
GEVID1211508364
 70
     0
  0
APPID
  5
542
330
9
100
AcDbSymbolTableRecord
100
AcDbRegAppTableRecord
  2
GEVID1211414908
 70
     0
  0
APPID
  5
543
330
9
100
AcDbSymbolTableRecord
100
AcDbRegAppTableRecord
  2
GEVID1211414909
 70
     0
  0
APPID
  5
544
330
9
100
AcDbSymbolTableRecord
100
AcDbRegAppTableRecord
  2
GEVID1211508359
 70
     0
  0
APPID
  5
545
330
9
100
AcDbSymbolTableRecord
100
AcDbRegAppTableRecord
  2
GEVID1211508360
 70
     0
  0
APPID
  5
546
330
9
100
AcDbSymbolTableRecord
100
AcDbRegAppTableRecord
  2
GEVID1211508361
 70
     0
  0
APPID
  5
547
330
9
100
AcDbSymbolTableRecord
100
AcDbRegAppTableRecord
  2
GEVID1211508362
 70
     0
  0
APPID
  5
548
330
9
100
AcDbSymbolTableRecord
100
AcDbRegAppTableRecord
  2
GEVID1211508363
 70
     0
  0
APPID
  5
549
330
9
100
AcDbSymbolTableRecord
100
AcDbRegAppTableRecord
  2
GEVID1211878469
 70
     0
  0
APPID
  5
54A
330
9
100
AcDbSymbolTableRecord
100
AcDbRegAppTableRecord
  2
GEVID1212642819
 70
     0
  0
APPID
  5
54B
330
9
100
AcDbSymbolTableRecord
100
AcDbRegAppTableRecord
  2
GEVID1212642820
 70
     0
  0
APPID
  5
54C
330
9
100
AcDbSymbolTableRecord
100
AcDbRegAppTableRecord
  2
GEVID1212642821
 70
     0
  0
APPID
  5
54D
330
9
100
AcDbSymbolTableRecord
100
AcDbRegAppTableRecord
  2
GEVID1212642822
 70
     0
  0
APPID
  5
54E
330
9
100
AcDbSymbolTableRecord
100
AcDbRegAppTableRecord
  2
GEVID1212642823
 70
     0
  0
APPID
  5
54F
330
9
100
AcDbSymbolTableRecord
100
AcDbRegAppTableRecord
  2
GEVID1212642825
 70
     0
  0
APPID
  5
550
330
9
100
AcDbSymbolTableRecord
100
AcDbRegAppTableRecord
  2
GEVID1212642826
 70
     0
  0
APPID
  5
551
330
9
100
AcDbSymbolTableRecord
100
AcDbRegAppTableRecord
  2
GEVID1212642827
 70
     0
  0
APPID
  5
552
330
9
100
AcDbSymbolTableRecord
100
AcDbRegAppTableRecord
  2
GEVID1212642828
 70
     0
  0
APPID
  5
553
330
9
100
AcDbSymbolTableRecord
100
AcDbRegAppTableRecord
  2
GEVID1212642831
 70
     0
  0
APPID
  5
554
330
9
100
AcDbSymbolTableRecord
100
AcDbRegAppTableRecord
  2
GEVID1212642834
 70
     0
  0
APPID
  5
555
330
9
100
AcDbSymbolTableRecord
100
AcDbRegAppTableRecord
  2
GEVID1212642835
 70
     0
  0
APPID
  5
556
330
9
100
AcDbSymbolTableRecord
100
AcDbRegAppTableRecord
  2
GEVID1212642836
 70
     0
  0
APPID
  5
557
330
9
100
AcDbSymbolTableRecord
100
AcDbRegAppTableRecord
  2
GEVID1212642837
 70
     0
  0
APPID
  5
558
330
9
100
AcDbSymbolTableRecord
100
AcDbRegAppTableRecord
  2
GEVID1212642839
 70
     0
  0
APPID
  5
559
330
9
100
AcDbSymbolTableRecord
100
AcDbRegAppTableRecord
  2
GEVID1212642840
 70
     0
  0
APPID
  5
55A
330
9
100
AcDbSymbolTableRecord
100
AcDbRegAppTableRecord
  2
GEVID1212642841
 70
     0
  0
APPID
  5
55B
330
9
100
AcDbSymbolTableRecord
100
AcDbRegAppTableRecord
  2
GEVID1212655312
 70
     0
  0
APPID
  5
55C
330
9
100
AcDbSymbolTableRecord
100
AcDbRegAppTableRecord
  2
GEVID1212655313
 70
     0
  0
APPID
  5
55D
330
9
100
AcDbSymbolTableRecord
100
AcDbRegAppTableRecord
  2
GEVID1212656533
 70
     0
  0
APPID
  5
55E
330
9
100
AcDbSymbolTableRecord
100
AcDbRegAppTableRecord
  2
GEVID1212656534
 70
     0
  0
APPID
  5
55F
330
9
100
AcDbSymbolTableRecord
100
AcDbRegAppTableRecord
  2
GEVID1212656535
 70
     0
  0
APPID
  5
560
330
9
100
AcDbSymbolTableRecord
100
AcDbRegAppTableRecord
  2
GEVID1212656536
 70
     0
  0
APPID
  5
561
330
9
100
AcDbSymbolTableRecord
100
AcDbRegAppTableRecord
  2
GEVID1212656538
 70
     0
  0
APPID
  5
562
330
9
100
AcDbSymbolTableRecord
100
AcDbRegAppTableRecord
  2
GEVID1212656541
 70
     0
  0
APPID
  5
563
330
9
100
AcDbSymbolTableRecord
100
AcDbRegAppTableRecord
  2
GEVID1212656543
 70
     0
  0
APPID
  5
564
330
9
100
AcDbSymbolTableRecord
100
AcDbRegAppTableRecord
  2
GENIUS_GENOBJ-F-PFASSM_13
 70
     0
  0
APPID
  5
565
330
9
100
AcDbSymbolTableRecord
100
AcDbRegAppTableRecord
  2
GEVID1212656544
 70
     0
  0
APPID
  5
566
330
9
100
AcDbSymbolTableRecord
100
AcDbRegAppTableRecord
  2
GEVID1212656545
 70
     0
  0
APPID
  5
567
330
9
100
AcDbSymbolTableRecord
100
AcDbRegAppTableRecord
  2
GEVID1212656546
 70
     0
  0
APPID
  5
568
330
9
100
AcDbSymbolTableRecord
100
AcDbRegAppTableRecord
  2
GEVID1212656547
 70
     0
  0
APPID
  5
569
330
9
100
AcDbSymbolTableRecord
100
AcDbRegAppTableRecord
  2
GEVID1212656548
 70
     0
  0
APPID
  5
56A
330
9
100
AcDbSymbolTableRecord
100
AcDbRegAppTableRecord
  2
GEVID1212656549
 70
     0
  0
APPID
  5
56B
330
9
100
AcDbSymbolTableRecord
100
AcDbRegAppTableRecord
  2
GEVID1212656550
 70
     0
  0
APPID
  5
56C
330
9
100
AcDbSymbolTableRecord
100
AcDbRegAppTableRecord
  2
GEVID1212656552
 70
     0
  0
APPID
  5
56D
330
9
100
AcDbSymbolTableRecord
100
AcDbRegAppTableRecord
  2
GEVID1212656553
 70
     0
  0
APPID
  5
56E
330
9
100
AcDbSymbolTableRecord
100
AcDbRegAppTableRecord
  2
GEVID1212656554
 70
     0
  0
APPID
  5
56F
330
9
100
AcDbSymbolTableRecord
100
AcDbRegAppTableRecord
  2
GEVID1212656555
 70
     0
  0
APPID
  5
570
330
9
100
AcDbSymbolTableRecord
100
AcDbRegAppTableRecord
  2
GEVID1212656556
 70
     0
  0
APPID
  5
571
330
9
100
AcDbSymbolTableRecord
100
AcDbRegAppTableRecord
  2
GEVID1212656557
 70
     0
  0
APPID
  5
572
330
9
100
AcDbSymbolTableRecord
100
AcDbRegAppTableRecord
  2
GEVID1212656559
 70
     0
  0
APPID
  5
573
330
9
100
AcDbSymbolTableRecord
100
AcDbRegAppTableRecord
  2
GEVID1212656560
 70
     0
  0
APPID
  5
574
330
9
100
AcDbSymbolTableRecord
100
AcDbRegAppTableRecord
  2
GEVID1212656561
 70
     0
  0
APPID
  5
575
330
9
100
AcDbSymbolTableRecord
100
AcDbRegAppTableRecord
  2
GEVID1212656562
 70
     0
  0
APPID
  5
576
330
9
100
AcDbSymbolTableRecord
100
AcDbRegAppTableRecord
  2
GEVID1212656563
 70
     0
  0
APPID
  5
577
330
9
100
AcDbSymbolTableRecord
100
AcDbRegAppTableRecord
  2
GEVID1212711781
 70
     0
  0
APPID
  5
578
330
9
100
AcDbSymbolTableRecord
100
AcDbRegAppTableRecord
  2
GEVID1212711782
 70
     0
  0
APPID
  5
579
330
9
100
AcDbSymbolTableRecord
100
AcDbRegAppTableRecord
  2
GEVID1212711783
 70
     0
  0
APPID
  5
57A
330
9
100
AcDbSymbolTableRecord
100
AcDbRegAppTableRecord
  2
GEVID1212711784
 70
     0
  0
APPID
  5
57B
330
9
100
AcDbSymbolTableRecord
100
AcDbRegAppTableRecord
  2
GEVID1212711788
 70
     0
  0
APPID
  5
57C
330
9
100
AcDbSymbolTableRecord
100
AcDbRegAppTableRecord
  2
GEVID1212711789
 70
     0
  0
APPID
  5
57D
330
9
100
AcDbSymbolTableRecord
100
AcDbRegAppTableRecord
  2
GEVID1212711790
 70
     0
  0
APPID
  5
57E
330
9
100
AcDbSymbolTableRecord
100
AcDbRegAppTableRecord
  2
GEVID1212711791
 70
     0
  0
APPID
  5
57F
330
9
100
AcDbSymbolTableRecord
100
AcDbRegAppTableRecord
  2
GEVID1212711792
 70
     0
  0
APPID
  5
580
330
9
100
AcDbSymbolTableRecord
100
AcDbRegAppTableRecord
  2
GEVID1212711793
 70
     0
  0
APPID
  5
581
330
9
100
AcDbSymbolTableRecord
100
AcDbRegAppTableRecord
  2
GEVID1212711794
 70
     0
  0
APPID
  5
582
330
9
100
AcDbSymbolTableRecord
100
AcDbRegAppTableRecord
  2
GEVID1212711795
 70
     0
  0
APPID
  5
583
330
9
100
AcDbSymbolTableRecord
100
AcDbRegAppTableRecord
  2
GEVID1212711797
 70
     0
  0
APPID
  5
584
330
9
100
AcDbSymbolTableRecord
100
AcDbRegAppTableRecord
  2
GEVID1212711798
 70
     0
  0
APPID
  5
585
330
9
100
AcDbSymbolTableRecord
100
AcDbRegAppTableRecord
  2
GEVID1212711799
 70
     0
  0
APPID
  5
586
330
9
100
AcDbSymbolTableRecord
100
AcDbRegAppTableRecord
  2
GEVID1212711800
 70
     0
  0
APPID
  5
587
330
9
100
AcDbSymbolTableRecord
100
AcDbRegAppTableRecord
  2
GEVID1212711801
 70
     0
  0
APPID
  5
588
330
9
100
AcDbSymbolTableRecord
100
AcDbRegAppTableRecord
  2
GEVID1212711802
 70
     0
  0
APPID
  5
589
330
9
100
AcDbSymbolTableRecord
100
AcDbRegAppTableRecord
  2
GEVID1212711803
 70
     0
  0
APPID
  5
58A
330
9
100
AcDbSymbolTableRecord
100
AcDbRegAppTableRecord
  2
GEVID1212711804
 70
     0
  0
APPID
  5
58B
330
9
100
AcDbSymbolTableRecord
100
AcDbRegAppTableRecord
  2
GEVID1212711805
 70
     0
  0
APPID
  5
58C
330
9
100
AcDbSymbolTableRecord
100
AcDbRegAppTableRecord
  2
GEVID1212711806
 70
     0
  0
APPID
  5
58D
330
9
100
AcDbSymbolTableRecord
100
AcDbRegAppTableRecord
  2
GEVID1212711807
 70
     0
  0
APPID
  5
58E
330
9
100
AcDbSymbolTableRecord
100
AcDbRegAppTableRecord
  2
GEVID1212711808
 70
     0
  0
APPID
  5
58F
330
9
100
AcDbSymbolTableRecord
100
AcDbRegAppTableRecord
  2
GEVID1212711809
 70
     0
  0
APPID
  5
590
330
9
100
AcDbSymbolTableRecord
100
AcDbRegAppTableRecord
  2
GEVID1212711810
 70
     0
  0
APPID
  5
591
330
9
100
AcDbSymbolTableRecord
100
AcDbRegAppTableRecord
  2
GEVID1212711811
 70
     0
  0
APPID
  5
90A
330
9
100
AcDbSymbolTableRecord
100
AcDbRegAppTableRecord
  2
GENIUS_GENTRA_14
 70
     0
  0
APPID
  5
919
330
9
100
AcDbSymbolTableRecord
100
AcDbRegAppTableRecord
  2
GENIUS_GENOBJ-N-TIT_13
 70
     0
  0
APPID
  5
91A
330
9
100
AcDbSymbolTableRecord
100
AcDbRegAppTableRecord
  2
GENIUS_GENTITLE_13
 70
     0
  0
APPID
  5
949
330
9
100
AcDbSymbolTableRecord
100
AcDbRegAppTableRecord
  2
GENIUS_GENBLLY_14
 70
     0
  0
APPID
  5
DDD
330
9
100
AcDbSymbolTableRecord
100
AcDbRegAppTableRecord
  2
GEVID1213165152
 70
     0
  0
APPID
  5
12F9
330
9
100
AcDbSymbolTableRecord
100
AcDbRegAppTableRecord
  2
AcDbDynamicBlockTrueName
 70
     0
  0
APPID
  5
12FA
330
9
100
AcDbSymbolTableRecord
100
AcDbRegAppTableRecord
  2
ACDBBLOCKREPETAG
 70
     0
  0
APPID
  5
1C15
330
9
100
AcDbSymbolTableRecord
100
AcDbRegAppTableRecord
  2
GEVID1214872427
 70
     0
  0
APPID
  5
1C2A
330
9
100
AcDbSymbolTableRecord
100
AcDbRegAppTableRecord
  2
GEVID1214872428
 70
     0
  0
APPID
  5
1C2F
330
9
100
AcDbSymbolTableRecord
100
AcDbRegAppTableRecord
  2
GEVID1214872429
 70
     0
  0
APPID
  5
1C33
330
9
100
AcDbSymbolTableRecord
100
AcDbRegAppTableRecord
  2
GEVID1214872430
 70
     0
  0
APPID
  5
1C3F
330
9
100
AcDbSymbolTableRecord
100
AcDbRegAppTableRecord
  2
GEVID1214872432
 70
     0
  0
APPID
  5
1C4E
330
9
100
AcDbSymbolTableRecord
100
AcDbRegAppTableRecord
  2
GEVID1214872433
 70
     0
  0
APPID
  5
20DC
330
9
100
AcDbSymbolTableRecord
100
AcDbRegAppTableRecord
  2
AcDbDynamicBlockGUID
 70
     0
  0
APPID
  5
20FD
330
9
100
AcDbSymbolTableRecord
100
AcDbRegAppTableRecord
  2
GENIUS_GENOBJ-N-REV_13
 70
     0
  0
APPID
  5
20FE
330
9
100
AcDbSymbolTableRecord
100
AcDbRegAppTableRecord
  2
GENIUS_GENOBJ-N-RSSYM_13
 70
     0
  0
APPID
  5
20FF
330
9
100
AcDbSymbolTableRecord
100
AcDbRegAppTableRecord
  2
GENIUS_GENSYMENT_13
 70
     0
  0
APPID
  5
2100
330
9
100
AcDbSymbolTableRecord
100
AcDbRegAppTableRecord
  2
GENIUS_GENSCSYM_13
 70
     0
  0
APPID
  5
43DB
330
9
100
AcDbSymbolTableRecord
100
AcDbRegAppTableRecord
  2
ACLAYERTOOLS
 70
     0
  0
ENDTAB
  0
TABLE
  2
DIMSTYLE
  5
A
330
0
100
AcDbSymbolTable
 70
    29
100
AcDbDimStyleTable
 71
     1
340
5AB
  0
DIMSTYLE
105
5AB
330
A
100
AcDbSymbolTableRecord
100
AcDbDimStyleTableRecord
  2
SEISA
 70
     0
  4
"
 40
2.0
 41
2.5
 42
0.625
 43
10.0
 44
0.625
 47
0.1
 48
0.1
 73
     0
 74
     0
 77
     3
 78
     8
 79
     2
 90
     1
140
3.5
141
0.0
143
0.0393701
146
0.71
147
1.5
172
     1
176
     3
177
     3
178
     3
271
     2
272
     2
283
     0
286
     8
340
5D5
341
69
342
69
371
    -1
372
    -1
1001
ACAD_DSTYLE_DIMJAG
1070
   388
1040
1.5
1001
ACAD_DSTYLE_DIMTALN
1070
   392
1070
     1
  0
DIMSTYLE
105
5E9
102
{ACAD_REACTORS
330
6199
330
620B
330
6227
330
6380
330
6468
330
6480
330
64BD
330
6584
330
6605
330
661D
330
6635
330
6B1C
330
7934
330
79D3
330
79FD
102
}
330
A
100
AcDbSymbolTableRecord
100
AcDbDimStyleTableRecord
  2
SEISA$0
 70
     0
  4
"
 40
2.0
 41
2.5
 42
0.625
 43
10.0
 44
0.625
 47
0.1
 48
0.1
 73
     0
 74
     0
 77
     3
 78
     8
 79
     2
 90
     1
140
3.5
141
0.0
143
0.0393701
146
0.71
147
1.5
172
     1
176
     3
177
     3
178
     3
271
     2
272
     2
283
     0
286
     8
340
5D5
341
69
342
69
371
    -1
372
    -1
  0
DIMSTYLE
105
7EE4
330
A
100
AcDbSymbolTableRecord
100
AcDbDimStyleTableRecord
  2
AM_ISO
 70
     0
  4
"
 41
2.5
 42
1.0
 43
10.0
 44
1.0
 47
0.1
 48
0.1
 73
     0
 74
     0
 77
     1
 78
     8
 79
     2
 90
     1
140
3.5
141
0.0
143
0.0393701
146
0.71
147
1.5
172
     1
176
   256
177
   256
178
     2
271
     2
272
     3
274
     4
283
     0
284
     8
340
11
371
    -1
372
    -1
  0
DIMSTYLE
105
7EE5
330
A
100
AcDbSymbolTableRecord
100
AcDbDimStyleTableRecord
  2
AM_ISO$3
 70
     0
  4
"
 41
2.5
 42
1.0
 43
10.0
 44
1.0
 47
0.1
 48
0.1
 73
     0
 77
     1
 78
     8
 79
     2
 90
     1
140
3.5
141
0.0
143
0.0393701
146
0.71
147
1.5
176
   256
177
   256
178
     2
271
     2
272
     3
274
     4
283
     0
284
     8
288
     1
289
     0
340
11
371
    -1
372
    -1
  0
DIMSTYLE
105
7EE6
330
A
100
AcDbSymbolTableRecord
100
AcDbDimStyleTableRecord
  2
AM_ISO$4
 70
     0
  4
"
 41
2.5
 42
1.0
 43
10.0
 44
1.0
 47
0.1
 48
0.1
 73
     0
 77
     1
 78
     8
 79
     2
 90
     1
140
3.5
141
0.0
143
0.0393701
146
0.71
147
1.5
176
   256
177
   256
178
     2
271
     2
272
     3
274
     4
283
     0
284
     8
288
     1
289
     0
340
11
371
    -1
372
    -1
  0
DIMSTYLE
105
7EE7
330
A
100
AcDbSymbolTableRecord
100
AcDbDimStyleTableRecord
  2
AM_ISO$6
 70
     0
  4
"
 41
2.5
 42
1.0
 43
10.0
 44
1.0
 47
0.1
 48
0.1
 73
     0
 74
     0
 78
     8
 79
     2
 90
     1
140
3.5
141
0.0
143
0.0393701
146
0.71
147
1.5
172
     1
176
   256
177
   256
178
     2
271
     2
272
     3
274
     4
283
     0
284
     8
340
11
371
    -1
372
    -1
  0
DIMSTYLE
105
7EE8
330
A
100
AcDbSymbolTableRecord
100
AcDbDimStyleTableRecord
  2
AM_ISO$7
 70
     0
  4
"
 41
2.5
 42
1.0
 43
10.0
 44
1.0
 47
0.1
 48
0.1
 73
     0
 74
     0
 77
     1
 78
     8
 79
     2
 90
     1
140
5.0
141
0.0
143
0.0393701
146
0.71
147
1.5
172
     1
176
   256
177
   256
178
     2
271
     2
272
     3
274
     4
283
     0
284
     8
340
11
371
    -1
372
    -1
  0
DIMSTYLE
105
7EE9
330
A
100
AcDbSymbolTableRecord
100
AcDbDimStyleTableRecord
  2
AM_ISO$SF
 70
     0
  4
"
 41
2.5
 42
1.0
 43
10.0
 44
1.0
 47
0.1
 48
0.1
 73
     0
 74
     0
 75
     1
 76
     1
 77
     1
 78
     8
 79
     2
 90
     1
140
3.5
141
0.0
143
0.0393701
146
0.71
147
1.5
172
     1
176
   256
177
   256
178
     2
271
     2
272
     3
274
     4
283
     0
284
     8
340
11
371
    -1
372
    -1
  0
DIMSTYLE
105
7EEA
330
A
100
AcDbSymbolTableRecord
100
AcDbDimStyleTableRecord
  2
AM_ISO$SH
 70
     0
  4
"
 41
2.5
 42
1.0
 43
10.0
 44
1.0
 47
0.1
 48
0.1
 73
     0
 74
     0
 75
     1
 76
     1
 77
     1
 78
     8
 79
     2
 90
     1
140
3.5
141
0.0
143
0.0393701
144
2.0
146
0.71
147
1.5
172
     1
173
     1
176
   256
177
   256
178
     2
271
     2
272
     3
274
     4
283
     0
284
     8
340
11
343
74
371
    -1
372
    -1
  0
ENDTAB
  0
TABLE
  2
BLOCK_RECORD
  5
1
330
0
100
AcDbSymbolTable
 70
    30
  0
BLOCK_RECORD
  5
1F
102
{ACAD_XDICTIONARY
360
82
102
}
330
1
100
AcDbSymbolTableRecord
100
AcDbBlockTableRecord
  2
*Model_Space
340
22
 70
     0
280
     1
281
     0
  0
BLOCK_RECORD
  5
1B
330
1
100
AcDbSymbolTableRecord
100
AcDbBlockTableRecord
  2
*Paper_Space
340
1E
 70
     0
280
     1
281
     0
  0
BLOCK_RECORD
  5
23
330
1
100
AcDbSymbolTableRecord
100
AcDbBlockTableRecord
  2
*Paper_Space0
340
26
 70
     0
280
     1
281
     0
  0
BLOCK_RECORD
  5
69
330
1
100
AcDbSymbolTableRecord
100
AcDbBlockTableRecord
  2
_Open30
340
0
102
{BLKREFS
331
61CC
331
61CD
331
6479
331
647A
331
64B8
331
64B9
331
64CE
331
64CF
331
65B0
331
65B1
331
6659
331
665A
331
666B
331
666C
331
667D
331
667E
331
6B2D
331
6B2E
331
70F4
331
7109
331
7969
331
796A
331
79F7
331
79F8
331
7A40
331
7A41
331
7CA5
331
7CA6
102
}
 70
     0
280
     1
281
     0
  0
BLOCK_RECORD
  5
74
330
1
100
AcDbSymbolTableRecord
100
AcDbBlockTableRecord
  2
GENAXEH
340
0
 70
     0
280
     1
281
     0
  0
BLOCK_RECORD
  5
52C3
102
{ACAD_XDICTIONARY
360
5C59
102
}
330
1
100
AcDbSymbolTableRecord
100
AcDbBlockTableRecord
  2
ロッカクアナツキプラグ R1／8
340
0
310
2800000020000000200000000100080000000000000400000000000000000000000000000000000000000000000080000080000000808000800000008000800080800000C0C0C000C0DCC000F0CAA6000020400000206000002080000020A0000020C0000020E00000400000004020000040400000406000004080000040A0
310
000040C0000040E00000600000006020000060400000606000006080000060A0000060C0000060E00000800000008020000080400000806000008080000080A0000080C0000080E00000A0000000A0200000A0400000A0600000A0800000A0A00000A0C00000A0E00000C0000000C0200000C0400000C0600000C0800000C0
310
A00000C0C00000C0E00000E0000000E0200000E0400000E0600000E0800000E0A00000E0C00000E0E00040000000400020004000400040006000400080004000A0004000C0004000E00040200000402020004020400040206000402080004020A0004020C0004020E000404000004040200040404000404060004040800040
310
40A0004040C0004040E00040600000406020004060400040606000406080004060A0004060C0004060E00040800000408020004080400040806000408080004080A0004080C0004080E00040A0000040A0200040A0400040A0600040A0800040A0A00040A0C00040A0E00040C0000040C0200040C0400040C0600040C08000
310
40C0A00040C0C00040C0E00040E0000040E0200040E0400040E0600040E0800040E0A00040E0C00040E0E00080000000800020008000400080006000800080008000A0008000C0008000E00080200000802020008020400080206000802080008020A0008020C0008020E00080400000804020008040400080406000804080
310
008040A0008040C0008040E00080600000806020008060400080606000806080008060A0008060C0008060E00080800000808020008080400080806000808080008080A0008080C0008080E00080A0000080A0200080A0400080A0600080A0800080A0A00080A0C00080A0E00080C0000080C0200080C0400080C0600080C0
310
800080C0A00080C0C00080C0E00080E0000080E0200080E0400080E0600080E0800080E0A00080E0C00080E0E000C0000000C0002000C0004000C0006000C0008000C000A000C000C000C000E000C0200000C0202000C0204000C0206000C0208000C020A000C020C000C020E000C0400000C0402000C0404000C0406000C0
310
408000C040A000C040C000C040E000C0600000C0602000C0604000C0606000C0608000C060A000C060C000C060E000C0800000C0802000C0804000C0806000C0808000C080A000C080C000C080E000C0A00000C0A02000C0A04000C0A06000C0A08000C0A0A000C0A0C000C0A0E000C0C00000C0C02000C0C04000C0C06000
310
C0C08000C0C0A000F0FBFF00A4A0A000808080000000FF0000FF000000FFFF00FF000000FF00FF00FFFF0000FFFFFF000000000000000000000000000000000000000000000000000000000000000000000000000000000000000000000000F900000000000000000000000000000000000000000000000000000000000000
310
F900000000000000000000000000000000000000000000000000000000000000F900000000000000000000000000000000000000000000000000000000000000F900000000000000000000000000000000000000000000000000000000000000F9000000000000000000000000000000000000000000000000000000000000
310
00F900000000000000000000000000000000000000000000000000000000000000F900000000000000000000000000000000000000000000000000000000000000F9FF000000000000000000000000000000000000000000000000000000FFFFFFF9FEFFFF000000000000000000000000000000000000000000000000FFFE
310
0000F9000000FFFF000000000000000000000000000000000000000000FFFE000000F900000000FEFF00000000000000000000000000000000000000FFFE00000000F9FF00000000FEFF000000000000000000000000000000000000FF00000000FFFF00FF00000000FF0000000000000000000000000000000000FFFE0000
310
00FF00F90000FF000000FF0000000000000000000000000000000000FFFE000000FF00F90000FF000000FEFF000000000000000000F9F9F9F9F9F9F9FFF9F9F9F9FFF9F9F9F9FFF9F9F9F9FFF9F9F9F9F9F9F9000000000000000000FFFE000000FF00F90000FF000000FEFF0000000000000000000000000000000000FF00
310
000000FFFF00FF00000000FF000000000000000000000000000000000000FFFE00000000F9FF00000000FEFF00000000000000000000000000000000000000FFFE000000F900000000FEFF000000000000000000000000000000000000000000FFFE0000F9000000FEFF000000000000000000000000000000000000000000
310
0000FFFFFFF9FEFEFFFF000000000000000000000000000000000000000000000000000000F9FFFF0000000000000000000000000000000000000000000000000000000000F900000000000000000000000000000000000000000000000000000000000000F900000000000000000000000000000000000000000000000000
310
000000000000F900000000000000000000000000000000000000000000000000000000000000F900000000000000000000000000000000000000000000000000000000000000F900000000000000000000000000000000000000000000000000000000000000F9000000000000000000000000000000000000000000000000
310
00000000000000F9000000000000000000000000000000000000000000000000000000000000000000000000000000000000000000000000
102
{BLKREFS
331
5479
102
}
 70
     4
280
     1
281
     0
  0
BLOCK_RECORD
  5
53A4
102
{ACAD_XDICTIONARY
360
5494
102
}
330
1
100
AcDbSymbolTableRecord
100
AcDbBlockTableRecord
  2
ケースＡ SSM160
340
0
310
2800000020000000200000000100080000000000000400000000000000000000000000000000000000000000000080000080000000808000800000008000800080800000C0C0C000C0DCC000F0CAA6000020400000206000002080000020A0000020C0000020E00000400000004020000040400000406000004080000040A0
310
000040C0000040E00000600000006020000060400000606000006080000060A0000060C0000060E00000800000008020000080400000806000008080000080A0000080C0000080E00000A0000000A0200000A0400000A0600000A0800000A0A00000A0C00000A0E00000C0000000C0200000C0400000C0600000C0800000C0
310
A00000C0C00000C0E00000E0000000E0200000E0400000E0600000E0800000E0A00000E0C00000E0E00040000000400020004000400040006000400080004000A0004000C0004000E00040200000402020004020400040206000402080004020A0004020C0004020E000404000004040200040404000404060004040800040
310
40A0004040C0004040E00040600000406020004060400040606000406080004060A0004060C0004060E00040800000408020004080400040806000408080004080A0004080C0004080E00040A0000040A0200040A0400040A0600040A0800040A0A00040A0C00040A0E00040C0000040C0200040C0400040C0600040C08000
310
40C0A00040C0C00040C0E00040E0000040E0200040E0400040E0600040E0800040E0A00040E0C00040E0E00080000000800020008000400080006000800080008000A0008000C0008000E00080200000802020008020400080206000802080008020A0008020C0008020E00080400000804020008040400080406000804080
310
008040A0008040C0008040E00080600000806020008060400080606000806080008060A0008060C0008060E00080800000808020008080400080806000808080008080A0008080C0008080E00080A0000080A0200080A0400080A0600080A0800080A0A00080A0C00080A0E00080C0000080C0200080C0400080C0600080C0
310
800080C0A00080C0C00080C0E00080E0000080E0200080E0400080E0600080E0800080E0A00080E0C00080E0E000C0000000C0002000C0004000C0006000C0008000C000A000C000C000C000E000C0200000C0202000C0204000C0206000C0208000C020A000C020C000C020E000C0400000C0402000C0404000C0406000C0
310
408000C040A000C040C000C040E000C0600000C0602000C0604000C0606000C0608000C060A000C060C000C060E000C0800000C0802000C0804000C0806000C0808000C080A000C080C000C080E000C0A00000C0A02000C0A04000C0A06000C0A08000C0A0A000C0A0C000C0A0E000C0C00000C0C02000C0C04000C0C06000
310
C0C08000C0C0A000F0FBFF00A4A0A000808080000000FF0000FF000000FFFF00FF000000FF00FF00FFFF0000FFFFFF00000000000000000000000000000000000000000000000000000000000000000000000000000000000000FFFFFFFF00000000000000000000000000000000000000000000000000000000FF0000FF00
310
000000000000000000000000000000000000000000000000000000FF0000FF00000000000000000000000000000000000000000000000000000000FF0000FF00000000000000000000000000000000000000000000000000000000FF0000FFFFFFFFFFFFFFFF000000000000000000000000000000000000000000FF0000FF
310
000000000000FF000000000000000000000000000000000000000000FF0000FF000000000000FF000000000000000000000000000000000000000000FF0000FF000000000000FF000000000000000000000000000000000000000000FF0000FF000000000000FF000000000000000000000000000000000000000000FF0000
310
FF000000000000FF000000000000000000000000000000000000000000FF0000FF000000000000FF000000000000000000000000000000000000000000FF0000FF000000000000FF000000000000000000000000000000000000000000FF0000FF000000000000FF000000000000000000000000000000000000000000FF00
310
00FF000000000000FF000000000000000000000000000000000000000000FF0000FF000000000000FF000000000000000000000000000000000000000000FF0000FF000000000000FF000000000000000000000000000000000000000000000000000000000000000000000000000000000000000000000000000000000000
310
00000000000000000000000000000000000000000000000000000000000000000000000000000000000000000000000000000000000000000000000000000000000000000000000000000000000000000000000000000000000000000000000000000000FAFAFAFAFAFAFA0000000000000000000000000000000000000000
310
000000000000FAFAFA00FAFA000000000000000000000000000000000000000000000000000000FAFA00FA000000000000000000000000000000000000000000000000FFFFA4A4FAFAFFFF000000000000000000000000000000000000000000FFFFFFFFFFFFFFFFFFFFFF0000000000000000000000000000000000000000
310
00FFFF0000FFFFFFFFFFFFFF000000000000000000000000000000000000000000FFFFFFFF00000000000000000000000000000000000000000000000000000000000000FF00000000000000000000000000000000000000000000000000000000FFFFFFFF0000000000000000000000000000000000000000000000000000
310
0000FFFFFFFF0000000000000000000000000000000000000000000000000000000000000000000000000000000000000000000000000000
102
{BLKREFS
331
53E5
102
}
 70
     4
280
     1
281
     0
  0
BLOCK_RECORD
  5
5513
102
{ACAD_XDICTIONARY
360
55C2
102
}
330
1
100
AcDbSymbolTableRecord
100
AcDbBlockTableRecord
  2
ケースＢ SSM160
340
0
310
2800000020000000200000000100080000000000000400000000000000000000000000000000000000000000000080000080000000808000800000008000800080800000C0C0C000C0DCC000F0CAA6000020400000206000002080000020A0000020C0000020E00000400000004020000040400000406000004080000040A0
310
000040C0000040E00000600000006020000060400000606000006080000060A0000060C0000060E00000800000008020000080400000806000008080000080A0000080C0000080E00000A0000000A0200000A0400000A0600000A0800000A0A00000A0C00000A0E00000C0000000C0200000C0400000C0600000C0800000C0
310
A00000C0C00000C0E00000E0000000E0200000E0400000E0600000E0800000E0A00000E0C00000E0E00040000000400020004000400040006000400080004000A0004000C0004000E00040200000402020004020400040206000402080004020A0004020C0004020E000404000004040200040404000404060004040800040
310
40A0004040C0004040E00040600000406020004060400040606000406080004060A0004060C0004060E00040800000408020004080400040806000408080004080A0004080C0004080E00040A0000040A0200040A0400040A0600040A0800040A0A00040A0C00040A0E00040C0000040C0200040C0400040C0600040C08000
310
40C0A00040C0C00040C0E00040E0000040E0200040E0400040E0600040E0800040E0A00040E0C00040E0E00080000000800020008000400080006000800080008000A0008000C0008000E00080200000802020008020400080206000802080008020A0008020C0008020E00080400000804020008040400080406000804080
310
008040A0008040C0008040E00080600000806020008060400080606000806080008060A0008060C0008060E00080800000808020008080400080806000808080008080A0008080C0008080E00080A0000080A0200080A0400080A0600080A0800080A0A00080A0C00080A0E00080C0000080C0200080C0400080C0600080C0
310
800080C0A00080C0C00080C0E00080E0000080E0200080E0400080E0600080E0800080E0A00080E0C00080E0E000C0000000C0002000C0004000C0006000C0008000C000A000C000C000C000E000C0200000C0202000C0204000C0206000C0208000C020A000C020C000C020E000C0400000C0402000C0404000C0406000C0
310
408000C040A000C040C000C040E000C0600000C0602000C0604000C0606000C0608000C060A000C060C000C060E000C0800000C0802000C0804000C0806000C0808000C080A000C080C000C080E000C0A00000C0A02000C0A04000C0A06000C0A08000C0A0A000C0A0C000C0A0E000C0C00000C0C02000C0C04000C0C06000
310
C0C08000C0C0A000F0FBFF00A4A0A000808080000000FF0000FF000000FFFF00FF000000FF00FF00FFFF0000FFFFFF00000000000000000000000000000000000000000000000000000000000000000000000000000000000000000000000000FFFFFF00000000000000000000000000000000000000000000000000000000
310
00FF000000000000000000000000000000000000000000000000000000000000F9F9F9F9F9F9F9F900000000000000000000000000000000000000000000000000FF000000000000000000000000000000000000000000000000FFFFFFFFFFFFFFFF000000000000000000000000000000000000000000000000FF00000000
310
0000FF000000000000000000000000000000000000000000000000FF000000000000FF000000000000000000000000000000000000000000000000FF000000000000FF000000000000000000000000000000000000000000000000FF000000000000FF000000000000000000000000000000000000000000000000FF000000
310
000000FF000000000000000000000000000000000000000000000000FF000000000000FF000000000000000000000000000000000000000000000000FF000000000000FF000000000000000000000000000000000000000000000000FF000000000000FF000000000000000000000000000000000000000000000000FF0000
310
00000000FF000000000000000000000000000000000000000000000000FF000000000000FF000000000000000000000000000000000000000000000000FF000000000000FF00000000000000000000000000000000000000000000000000000000000000000000000000000000000000000000000000000000000000000000
310
00000000000000000000000000000000000000000000000000000000000000000000000000000000000000000000000000000000000000000000000000000000000000000000000000000000000000000000000000000000000000000000000000000000000000000000000000000000000000000000000000000000000000
310
000000000000000000000000000000000000000000000000000000000000000000000000000000000000000000000000000000000000000000000000000000FFFFFFA4A4A4FF00000000000000000000000000000000000000000000000000FFFFFFFFF9F9FFFFFFFF00000000000000000000000000000000000000000000
310
FFFFFFFFFFFFFF0000FF0000000000000000000000000000000000000000000000000000000000FFFFFF00000000000000000000000000000000000000000000000000000000000000000000000000000000000000000000000000000000000000000000000000FFFFFF000000000000000000000000000000000000000000
310
0000000000000000FFFFFF000000000000000000000000000000000000000000000000000000000000000000000000000000000000000000
102
{BLKREFS
331
5549
102
}
 70
     4
280
     1
281
     0
  0
BLOCK_RECORD
  5
5690
102
{ACAD_XDICTIONARY
360
5B48
102
}
330
1
100
AcDbSymbolTableRecord
100
AcDbBlockTableRecord
  2
センタＡ SSM160
340
0
310
2800000020000000200000000100080000000000000400000000000000000000000000000000000000000000000080000080000000808000800000008000800080800000C0C0C000C0DCC000F0CAA6000020400000206000002080000020A0000020C0000020E00000400000004020000040400000406000004080000040A0
310
000040C0000040E00000600000006020000060400000606000006080000060A0000060C0000060E00000800000008020000080400000806000008080000080A0000080C0000080E00000A0000000A0200000A0400000A0600000A0800000A0A00000A0C00000A0E00000C0000000C0200000C0400000C0600000C0800000C0
310
A00000C0C00000C0E00000E0000000E0200000E0400000E0600000E0800000E0A00000E0C00000E0E00040000000400020004000400040006000400080004000A0004000C0004000E00040200000402020004020400040206000402080004020A0004020C0004020E000404000004040200040404000404060004040800040
310
40A0004040C0004040E00040600000406020004060400040606000406080004060A0004060C0004060E00040800000408020004080400040806000408080004080A0004080C0004080E00040A0000040A0200040A0400040A0600040A0800040A0A00040A0C00040A0E00040C0000040C0200040C0400040C0600040C08000
310
40C0A00040C0C00040C0E00040E0000040E0200040E0400040E0600040E0800040E0A00040E0C00040E0E00080000000800020008000400080006000800080008000A0008000C0008000E00080200000802020008020400080206000802080008020A0008020C0008020E00080400000804020008040400080406000804080
310
008040A0008040C0008040E00080600000806020008060400080606000806080008060A0008060C0008060E00080800000808020008080400080806000808080008080A0008080C0008080E00080A0000080A0200080A0400080A0600080A0800080A0A00080A0C00080A0E00080C0000080C0200080C0400080C0600080C0
310
800080C0A00080C0C00080C0E00080E0000080E0200080E0400080E0600080E0800080E0A00080E0C00080E0E000C0000000C0002000C0004000C0006000C0008000C000A000C000C000C000E000C0200000C0202000C0204000C0206000C0208000C020A000C020C000C020E000C0400000C0402000C0404000C0406000C0
310
408000C040A000C040C000C040E000C0600000C0602000C0604000C0606000C0608000C060A000C060C000C060E000C0800000C0802000C0804000C0806000C0808000C080A000C080C000C080E000C0A00000C0A02000C0A04000C0A06000C0A08000C0A0A000C0A0C000C0A0E000C0C00000C0C02000C0C04000C0C06000
310
C0C08000C0C0A000F0FBFF00A4A0A000808080000000FF0000FF000000FFFF00FF000000FF00FF00FFFF0000FFFFFF0000000000000000000000000000000000000000000000000000000000000000000000000000000000000000000000000000FFFFFF000000000000000000000000000000000000000000000000000000
310
00000000FFFFFFFFFFFFFFFF000000000000000000000000000000000000000000000000FFFF0000000000FF000000000000000000000000000000000000000000000000FFFF0000000000FF000000000000000000000000000000000000000000000000FFFF0000000000FF00000000000000000000000000000000000000
310
0000000000FFFF0000000000FF000000000000000000000000000000000000000000000000FFFF0000000000FF000000000000000000000000000000000000000000000000FFFF0000000000FF000000000000000000000000000000000000000000000000FFFF0000000000FF000000000000000000000000000000000000
310
000000000000FFFF0000000000FF000000000000000000000000000000000000000000000000FFFF0000000000FF000000000000000000000000000000000000000000000000FFFF0000000000FF000000000000000000000000000000000000000000000000FFFF0000000000FF00000000000000000000FF000000000000
310
00000000000000FFFF0000000000FF00000000000000000000FF0000000000000000000000000000000000000000FF00000000000000000000FF0000000000000000000000000000000000000000FF00000000000000000000FF0000000000000000000000000000000000000000FF00000000000000000000FF0000000000
310
000000000000000000000000000000FF00000000000000000000FF0000000000000000000000000000000000000000FF00000000000000000000FFFFFFFFFFFFFFFFFFFFFFFFFFFFFFFFFFFFFFFFFFFF00000000000000000000FFFFFFFFFFFFFFFFFFFFFFFFFFFFFFFFFFFFFFFFFFFF00000000000000000000FF00000000
310
00000000000000000000000000000000FF00000000000000000000FF0000000000000000000000000000000000000000FF00000000000000000000FF0000000000000000000000000000000000000000FF00000000000000000000FF0000000000000000000000000000000000000000FF00000000000000000000FFFFFFFF
310
0000F90000000000000000FFFFFFFFFFFFFF0000000000000000000000000000FFFFFFFFFFFFFFFFFFFFFF0000000000000000000000000000000000000000F9FFF9F9F9FFF900000000000000000000000000000000000000000000000000000000F900000000000000000000000000000000000000000000000000000000
310
000000F900000000000000000000000000000000000000000000000000000000000000000000000000000000000000000000000000000000
102
{BLKREFS
331
56AF
102
}
 70
     4
280
     1
281
     0
  0
BLOCK_RECORD
  5
570D
102
{ACAD_XDICTIONARY
360
5DC3
102
}
330
1
100
AcDbSymbolTableRecord
100
AcDbBlockTableRecord
  2
センタＢ SSM160
340
0
310
2800000020000000200000000100080000000000000400000000000000000000000000000000000000000000000080000080000000808000800000008000800080800000C0C0C000C0DCC000F0CAA6000020400000206000002080000020A0000020C0000020E00000400000004020000040400000406000004080000040A0
310
000040C0000040E00000600000006020000060400000606000006080000060A0000060C0000060E00000800000008020000080400000806000008080000080A0000080C0000080E00000A0000000A0200000A0400000A0600000A0800000A0A00000A0C00000A0E00000C0000000C0200000C0400000C0600000C0800000C0
310
A00000C0C00000C0E00000E0000000E0200000E0400000E0600000E0800000E0A00000E0C00000E0E00040000000400020004000400040006000400080004000A0004000C0004000E00040200000402020004020400040206000402080004020A0004020C0004020E000404000004040200040404000404060004040800040
310
40A0004040C0004040E00040600000406020004060400040606000406080004060A0004060C0004060E00040800000408020004080400040806000408080004080A0004080C0004080E00040A0000040A0200040A0400040A0600040A0800040A0A00040A0C00040A0E00040C0000040C0200040C0400040C0600040C08000
310
40C0A00040C0C00040C0E00040E0000040E0200040E0400040E0600040E0800040E0A00040E0C00040E0E00080000000800020008000400080006000800080008000A0008000C0008000E00080200000802020008020400080206000802080008020A0008020C0008020E00080400000804020008040400080406000804080
310
008040A0008040C0008040E00080600000806020008060400080606000806080008060A0008060C0008060E00080800000808020008080400080806000808080008080A0008080C0008080E00080A0000080A0200080A0400080A0600080A0800080A0A00080A0C00080A0E00080C0000080C0200080C0400080C0600080C0
310
800080C0A00080C0C00080C0E00080E0000080E0200080E0400080E0600080E0800080E0A00080E0C00080E0E000C0000000C0002000C0004000C0006000C0008000C000A000C000C000C000E000C0200000C0202000C0204000C0206000C0208000C020A000C020C000C020E000C0400000C0402000C0404000C0406000C0
310
408000C040A000C040C000C040E000C0600000C0602000C0604000C0606000C0608000C060A000C060C000C060E000C0800000C0802000C0804000C0806000C0808000C080A000C080C000C080E000C0A00000C0A02000C0A04000C0A06000C0A08000C0A0A000C0A0C000C0A0E000C0C00000C0C02000C0C04000C0C06000
310
C0C08000C0C0A000F0FBFF00A4A0A000808080000000FF0000FF000000FFFF00FF000000FF00FF00FFFF0000FFFFFF000000000000000000000000000000000000000000000000000000000000000000000000000000000000000000FFFFFF00000000000000000000000000000000000000000000FFFFFFFFFFFFFFFF0000
310
00000000000000000000000000000000000000000000FF0000000000FFFF000000000000000000000000000000000000000000000000FF0000000000FFFF000000000000000000000000000000000000000000000000FF0000000000FFFF000000000000000000000000000000000000000000000000FF0000000000FFFF00
310
0000000000000000000000000000000000000000000000FF0000000000FFFF000000000000000000000000000000000000000000000000FF0000000000FFFF000000000000000000000000000000000000000000000000FF0000000000FFFF000000000000000000000000000000000000000000000000FF0000000000FFFF
310
000000000000000000000000000000000000000000000000FF0000000000FFFF000000000000000000000000000000000000000000000000FF0000000000FFFF000000000000000000000000000000000000000000000000FF0000000000FFFF000000000000000000000000000000000000000000000000FF0000000000FF
310
FF00000000000000000000000000FF00000000000000000000FF0000000000000000000000000000000000000000FF00000000000000000000FF0000000000000000000000000000000000000000FF00000000000000000000FF0000000000000000000000000000000000000000FF00000000000000000000FF0000000000
310
000000000000000000000000000000FF00000000000000000000FF0000000000000000000000000000000000000000FF00000000000000000000FFFFFFFFFFFFFFFFFFFFFFFFFFFFFFFFFFFFFFFFFFFF00000000000000000000FFFFFFFFFFFFFFFFFFFFFFFFFFFFFFFFFFFFFFFFFFFF00000000000000000000FF00000000
310
00000000000000000000000000000000FF00000000000000000000FF0000000000000000000000000000000000000000FF00000000000000000000FF0000000000000000000000000000000000000000FF00000000000000000000FF0000000000000000000000000000000000000000FF00000000000000000000FFFFFFFF
310
FFFFFF0000000000000000F90000FFFFFFFF0000000000000000000000000000000000FFFFFFFFFFFFFFFFF9FFFF0000000000000000000000000000000000000000000000000000F9FFF9F9F9FFF900000000000000000000000000000000000000000000000000000000F900000000000000000000000000000000000000
310
000000000000000000000000F900000000000000000000000000000000000000000000000000000000000000000000000000000000000000
102
{BLKREFS
331
5737
102
}
 70
     4
280
     1
281
     0
  0
BLOCK_RECORD
  5
5986
102
{ACAD_XDICTIONARY
360
5A26
102
}
330
1
100
AcDbSymbolTableRecord
100
AcDbBlockTableRecord
  2
リーマボルト SSM160 M8
340
0
310
2800000020000000200000000100080000000000000400000000000000000000000000000000000000000000000080000080000000808000800000008000800080800000C0C0C000C0DCC000F0CAA6000020400000206000002080000020A0000020C0000020E00000400000004020000040400000406000004080000040A0
310
000040C0000040E00000600000006020000060400000606000006080000060A0000060C0000060E00000800000008020000080400000806000008080000080A0000080C0000080E00000A0000000A0200000A0400000A0600000A0800000A0A00000A0C00000A0E00000C0000000C0200000C0400000C0600000C0800000C0
310
A00000C0C00000C0E00000E0000000E0200000E0400000E0600000E0800000E0A00000E0C00000E0E00040000000400020004000400040006000400080004000A0004000C0004000E00040200000402020004020400040206000402080004020A0004020C0004020E000404000004040200040404000404060004040800040
310
40A0004040C0004040E00040600000406020004060400040606000406080004060A0004060C0004060E00040800000408020004080400040806000408080004080A0004080C0004080E00040A0000040A0200040A0400040A0600040A0800040A0A00040A0C00040A0E00040C0000040C0200040C0400040C0600040C08000
310
40C0A00040C0C00040C0E00040E0000040E0200040E0400040E0600040E0800040E0A00040E0C00040E0E00080000000800020008000400080006000800080008000A0008000C0008000E00080200000802020008020400080206000802080008020A0008020C0008020E00080400000804020008040400080406000804080
310
008040A0008040C0008040E00080600000806020008060400080606000806080008060A0008060C0008060E00080800000808020008080400080806000808080008080A0008080C0008080E00080A0000080A0200080A0400080A0600080A0800080A0A00080A0C00080A0E00080C0000080C0200080C0400080C0600080C0
310
800080C0A00080C0C00080C0E00080E0000080E0200080E0400080E0600080E0800080E0A00080E0C00080E0E000C0000000C0002000C0004000C0006000C0008000C000A000C000C000C000E000C0200000C0202000C0204000C0206000C0208000C020A000C020C000C020E000C0400000C0402000C0404000C0406000C0
310
408000C040A000C040C000C040E000C0600000C0602000C0604000C0606000C0608000C060A000C060C000C060E000C0800000C0802000C0804000C0806000C0808000C080A000C080C000C080E000C0A00000C0A02000C0A04000C0A06000C0A08000C0A0A000C0A0C000C0A0E000C0C00000C0C02000C0C04000C0C06000
310
C0C08000C0C0A000F0FBFF00A4A0A000808080000000FF0000FF000000FFFF00FF000000FF00FF00FFFF0000FFFFFF0000000000000000000000000000000000000000000000000000000000000000000000000000000000000000000000000000000000000000000000000000000000000000000000000000000000000000
310
00000000000000000000000000000000000000000000000000000000000000000000000000000000000000000000000000000000000000000000000000000000000000000000000000000000000000000000000000000000000000000000000000000000000000000000000000000000000000000000000000000000000000
310
00000000000000000000000000000000000000000000000000000000000000000000000000000000000000000000000000000000000000000000000000000000000000000000000000000000000000000000000000000000000000000000000000000000000000000000000000000000000000000000000000000000000000
310
000000000000000000000000000000000000000000FFFFFFFF00000000000000000000000000000000FFFFFFFFFFFF0000000000FFFF000000000000000000000000000000000000000000FF0000FFFF00000000FFFFFFFFFFFF000000000000000000000000FFFFFFFF00FFFFFFFFFEFF000000FFFF000000FF0000000000
310
00000000000000FFFF000000FF0000FFFFFFFF0000FFFF000000FF000000000000000000000000FFFF00FF00FF0000FFFFFFFF0000FFFF000000FF000000000000000000000000FFFF0000FFFF0000FFFFFFFF0000FFFF000000FF000000000000000000000000FFFF000000FF0000FFFFFFFF0000FFFFFFFFFFFF00000000
310
0000000000000000FFFFFFFF00FFFFFFFFFEFF000000FFFF000000000000000000000000000000000000000000FF0000FFFF0000000000FFFFFFFF00000000000000000000000000000000FFFFFFFFFFFF00000000000000000000000000000000000000000000000000000000000000000000000000000000000000000000
310
00000000000000000000000000000000000000000000000000000000000000000000000000000000000000000000000000000000000000000000000000000000000000000000000000000000000000000000000000000000000000000000000000000000000000000000000000000000000000000000000000000000000000
310
00000000000000000000000000000000000000000000000000000000000000000000000000000000000000000000000000000000000000000000000000000000000000000000000000000000000000000000000000000000000000000000000000000000000000000000000000000000000000000000000000000000000000
310
0000000000000000000000000000000000000000000000000000000000000000000000000000000000000000000000000000000000000000
102
{BLKREFS
331
59B9
102
}
 70
     4
280
     1
281
     0
  0
BLOCK_RECORD
  5
619A
330
1
100
AcDbSymbolTableRecord
100
AcDbBlockTableRecord
  2
*D12
340
0
 70
     0
280
     1
281
     0
  0
BLOCK_RECORD
  5
620C
330
1
100
AcDbSymbolTableRecord
100
AcDbBlockTableRecord
  2
*D13
340
0
 70
     0
280
     1
281
     0
  0
BLOCK_RECORD
  5
6228
330
1
100
AcDbSymbolTableRecord
100
AcDbBlockTableRecord
  2
*D14
340
0
 70
     0
280
     1
281
     0
  0
BLOCK_RECORD
  5
6381
330
1
100
AcDbSymbolTableRecord
100
AcDbBlockTableRecord
  2
*D15
340
0
 70
     0
280
     1
281
     0
  0
BLOCK_RECORD
  5
6469
330
1
100
AcDbSymbolTableRecord
100
AcDbBlockTableRecord
  2
*D16
340
0
 70
     0
280
     1
281
     0
  0
BLOCK_RECORD
  5
6481
330
1
100
AcDbSymbolTableRecord
100
AcDbBlockTableRecord
  2
*D17
340
0
 70
     0
280
     1
281
     0
  0
BLOCK_RECORD
  5
64BE
330
1
100
AcDbSymbolTableRecord
100
AcDbBlockTableRecord
  2
*D18
340
0
 70
     0
280
     1
281
     0
  0
BLOCK_RECORD
  5
6585
330
1
100
AcDbSymbolTableRecord
100
AcDbBlockTableRecord
  2
*D19
340
0
 70
     0
280
     1
281
     0
  0
BLOCK_RECORD
  5
6606
330
1
100
AcDbSymbolTableRecord
100
AcDbBlockTableRecord
  2
*D20
340
0
 70
     0
280
     1
281
     0
  0
BLOCK_RECORD
  5
661E
330
1
100
AcDbSymbolTableRecord
100
AcDbBlockTableRecord
  2
*D21
340
0
 70
     0
280
     1
281
     0
  0
BLOCK_RECORD
  5
6636
330
1
100
AcDbSymbolTableRecord
100
AcDbBlockTableRecord
  2
*D22
340
0
 70
     0
280
     1
281
     0
  0
BLOCK_RECORD
  5
6B1D
330
1
100
AcDbSymbolTableRecord
100
AcDbBlockTableRecord
  2
*D23
340
0
 70
     0
280
     1
281
     0
  0
BLOCK_RECORD
  5
700C
330
1
100
AcDbSymbolTableRecord
100
AcDbBlockTableRecord
  2
GENDOT
340
0
102
{BLKREFS
331
70F5
331
7108
102
}
 70
     0
280
     1
281
     0
  0
BLOCK_RECORD
  5
7935
330
1
100
AcDbSymbolTableRecord
100
AcDbBlockTableRecord
  2
*D25
340
0
 70
     0
280
     1
281
     0
  0
BLOCK_RECORD
  5
79D4
330
1
100
AcDbSymbolTableRecord
100
AcDbBlockTableRecord
  2
*D26
340
0
 70
     0
280
     1
281
     0
  0
BLOCK_RECORD
  5
79FE
330
1
100
AcDbSymbolTableRecord
100
AcDbBlockTableRecord
  2
*D27
340
0
 70
     0
280
     1
281
     0
  0
BLOCK_RECORD
  5
7D98
102
{ACAD_XDICTIONARY
360
7DE9
102
}
330
1
100
AcDbSymbolTableRecord
100
AcDbBlockTableRecord
  2
ケース
340
0
310
2800000020000000200000000100080000000000000400000000000000000000000000000000000000000000000080000080000000808000800000008000800080800000C0C0C000C0DCC000F0CAA6000020400000206000002080000020A0000020C0000020E00000400000004020000040400000406000004080000040A0
310
000040C0000040E00000600000006020000060400000606000006080000060A0000060C0000060E00000800000008020000080400000806000008080000080A0000080C0000080E00000A0000000A0200000A0400000A0600000A0800000A0A00000A0C00000A0E00000C0000000C0200000C0400000C0600000C0800000C0
310
A00000C0C00000C0E00000E0000000E0200000E0400000E0600000E0800000E0A00000E0C00000E0E00040000000400020004000400040006000400080004000A0004000C0004000E00040200000402020004020400040206000402080004020A0004020C0004020E000404000004040200040404000404060004040800040
310
40A0004040C0004040E00040600000406020004060400040606000406080004060A0004060C0004060E00040800000408020004080400040806000408080004080A0004080C0004080E00040A0000040A0200040A0400040A0600040A0800040A0A00040A0C00040A0E00040C0000040C0200040C0400040C0600040C08000
310
40C0A00040C0C00040C0E00040E0000040E0200040E0400040E0600040E0800040E0A00040E0C00040E0E00080000000800020008000400080006000800080008000A0008000C0008000E00080200000802020008020400080206000802080008020A0008020C0008020E00080400000804020008040400080406000804080
310
008040A0008040C0008040E00080600000806020008060400080606000806080008060A0008060C0008060E00080800000808020008080400080806000808080008080A0008080C0008080E00080A0000080A0200080A0400080A0600080A0800080A0A00080A0C00080A0E00080C0000080C0200080C0400080C0600080C0
310
800080C0A00080C0C00080C0E00080E0000080E0200080E0400080E0600080E0800080E0A00080E0C00080E0E000C0000000C0002000C0004000C0006000C0008000C000A000C000C000C000E000C0200000C0202000C0204000C0206000C0208000C020A000C020C000C020E000C0400000C0402000C0404000C0406000C0
310
408000C040A000C040C000C040E000C0600000C0602000C0604000C0606000C0608000C060A000C060C000C060E000C0800000C0802000C0804000C0806000C0808000C080A000C080C000C080E000C0A00000C0A02000C0A04000C0A06000C0A08000C0A0A000C0A0C000C0A0E000C0C00000C0C02000C0C04000C0C06000
310
C0C08000C0C0A000F0FBFF00A4A0A000808080000000FF0000FF000000FFFF00FF000000FF00FF00FFFF0000FFFFFF0000000000000000000000000000000000000000000000000000000000000000000000000000000000000000000000000000000000000000000000000000000000000000000000000000000000000000
310
000000000000000000000000000000000000000000000000000000000000000000000000000000000000000000000000000000000000000000000000000000000000000000000000000000000000000000000000000000000000000000000000000000000000000000000000000000000000FC000000FC0000000000000000
310
0000FC0000FC00000000000000000000000000FC000000FC00000000000000000000FC0000FC00000000000000000000000000FCFCFCFCFC00000000000000000000FCFCFCFC00000000000000000000000000FC000000FC00000000000000000000FC0000FC00000000000000000000000000FC000000FC00000000000000
310
000000FC0000FC00000000000000000000000000FC000000FC00000000000000000000FC0000FC000000000000FCFCFCFCFC0000FC000000FC00000000000000000000FC0000FC0000000000FC00000000000000FC000000FCFCFCFCFCFCFCFCFCFCFCFC0000FC0000FCFCFCFCFCFCFCFCFC0000FC00000000000000000000
310
00000000000000FC0000000000FC00000000000000FC0000000000000000000000000000000000FC0000000000FC00000000000000FC000000000000000000000000000000000000FC000000FCFCFCFCFCFCFC0000FC000000000000000000000000000000000000FCFCFCFC000000000000000000FC000000000000000000
310
00000000000000000000000000000000000000000000FC00000000000000000000000000000000000000000000000000000000000000FC0000000000000000000000000000000000000000000000000000000000000000FC0000000000000000000000000000000000000000000000000000000000000000FC000000000000
310
0000000000000000000000000000000000000000000000000000FC0000000000000000000000000000000000000000000000000000000000000000FC0000000000000000000000000000000000000000000000000000000000000000FCFCFCFCFCFCFCFCFCFCFCFCFCFCFCFCFCFCFCFCFCFCFCFCFC00000000000000000000
310
00000000000000000000000000000000000000000000000000000000000000000000000000000000000000000000000000000000000000000000000000000000000000000000000000000000000000000000000000000000000000000000000000000000000000000000000000000000000000000000000000000000000000
310
0000000000000000000000000000000000000000000000000000000000000000000000000000000000000000000000000000000000000000
102
{BLKREFS
331
7DB3
102
}
 70
     4
280
     1
281
     1
  0
ENDTAB
  0
ENDSEC
  0
SECTION
  2
BLOCKS
  0
BLOCK
  5
20
330
1F
100
AcDbEntity
  8
0
100
AcDbBlockBegin
  2
*Model_Space
 70
     0
 10
0.0
 20
0.0
 30
0.0
  3
*Model_Space
  1

  0
ENDBLK
  5
21
330
1F
100
AcDbEntity
  8
0
100
AcDbBlockEnd
  0
BLOCK
  5
1C
330
1B
100
AcDbEntity
 67
     1
  8
0
100
AcDbBlockBegin
  2
*Paper_Space
 70
     0
 10
0.0
 20
0.0
 30
0.0
  3
*Paper_Space
  1

  0
ENDBLK
  5
1D
330
1B
100
AcDbEntity
 67
     1
  8
0
100
AcDbBlockEnd
  0
BLOCK
  5
24
330
23
100
AcDbEntity
 67
     1
  8
0
100
AcDbBlockBegin
  2
*Paper_Space0
 70
     0
 10
0.0
 20
0.0
 30
0.0
  3
*Paper_Space0
  1

  0
ENDBLK
  5
25
330
23
100
AcDbEntity
 67
     1
  8
0
100
AcDbBlockEnd
  0
BLOCK
  5
6D
330
69
100
AcDbEntity
  8
0
100
AcDbBlockBegin
  2
_Open30
 70
     0
 10
0.0
 20
0.0
 30
0.0
  3
_Open30
  1

  0
LINE
  5
6A
330
69
100
AcDbEntity
  8
0
  6
ByBlock
 62
     0
370
    -2
100
AcDbLine
 10
-1.0
 20
0.26794919
 30
0.0
 11
0.0
 21
0.0
 31
0.0
  0
LINE
  5
6B
330
69
100
AcDbEntity
  8
0
  6
ByBlock
 62
     0
370
    -2
100
AcDbLine
 10
0.0
 20
0.0
 30
0.0
 11
-1.0
 21
-0.26794919
 31
0.0
  0
LINE
  5
6C
330
69
100
AcDbEntity
  8
0
  6
ByBlock
 62
     0
370
    -2
100
AcDbLine
 10
0.0
 20
0.0
 30
0.0
 11
-1.0
 21
0.0
 31
0.0
  0
ENDBLK
  5
6E
330
69
100
AcDbEntity
  8
0
100
AcDbBlockEnd
  0
BLOCK
  5
76
330
74
100
AcDbEntity
  8
0
100
AcDbBlockBegin
  2
GENAXEH
 70
     0
 10
0.0
 20
0.0
 30
0.0
  3
GENAXEH
  1

  0
LINE
  5
75
330
74
100
AcDbEntity
  8
0
100
AcDbLine
 10
-1.0
 20
0.0
 30
0.0
 11
1.0
 21
0.0
 31
0.0
  0
ENDBLK
  5
77
330
74
100
AcDbEntity
  8
0
100
AcDbBlockEnd
  0
BLOCK
  5
52C4
330
52C3
100
AcDbEntity
  8
0
100
AcDbBlockBegin
  2
ロッカクアナツキプラグ R1／8
 70
     0
 10
0.0
 20
0.0
 30
0.0
  3
ロッカクアナツキプラグ R1／8
  1

  0
CIRCLE
  5
52C6
330
52C3
100
AcDbEntity
  8
AM_4 細線
100
AcDbCircle
 10
0.0
 20
0.0
 30
0.0
 40
4.816232
  0
LINE
  5
52C7
330
52C3
100
AcDbEntity
  8
AM_7 中心線
100
AcDbLine
 10
10.413182
 20
0.0
 30
0.0
 11
-10.41318200000006
 21
0.0
 31
0.0
  0
CIRCLE
  5
52C8
330
52C3
100
AcDbEntity
  8
AM_0 外形線1
100
AcDbCircle
 10
0.0
 20
0.0
 30
0.0
 40
5.271232
  0
LINE
  5
52C9
330
52C3
100
AcDbEntity
  8
AM_0 外形線1
100
AcDbLine
 10
0.0
 20
-2.5150000000001
 30
0.0
 11
2.178053999999974
 21
-1.257499999999936
 31
0.0
  0
LINE
  5
52CA
330
52C3
100
AcDbEntity
  8
AM_0 外形線1
100
AcDbLine
 10
2.178053999999974
 20
1.257499999999936
 30
0.0
 11
0.0
 21
2.514999999999872
 31
0.0
  0
LINE
  5
52CB
330
52C3
100
AcDbEntity
  8
AM_7 中心線
100
AcDbLine
 10
-0.0030339999998432
 20
10.41317999999978
 30
0.0
 11
-0.0030339999998432
 21
-10.41318000000024
 31
0.0
  0
LINE
  5
52CC
330
52C3
100
AcDbEntity
  8
AM_0 外形線1
100
AcDbLine
 10
-2.178053999999974
 20
-1.257499999999936
 30
0.0
 11
0.0
 21
-2.5150000000001
 31
0.0
  0
LINE
  5
52CD
330
52C3
100
AcDbEntity
  8
AM_0 外形線1
100
AcDbLine
 10
-2.178053999999974
 20
1.257499999999936
 30
0.0
 11
-2.178053999999974
 21
-1.257499999999936
 31
0.0
  0
LINE
  5
52CE
330
52C3
100
AcDbEntity
  8
AM_0 外形線1
100
AcDbLine
 10
0.0
 20
2.514999999999872
 30
0.0
 11
-2.178053999999974
 21
1.257499999999936
 31
0.0
  0
LINE
  5
52CF
330
52C3
100
AcDbEntity
  8
AM_0 外形線1
100
AcDbLine
 10
2.178053999999974
 20
-1.257499999999936
 30
0.0
 11
2.178053999999974
 21
1.257499999999936
 31
0.0
  0
ENDBLK
  5
52C5
330
52C3
100
AcDbEntity
  8
0
100
AcDbBlockEnd
  0
BLOCK
  5
53A5
330
53A4
100
AcDbEntity
  8
0
100
AcDbBlockBegin
  2
ケースＡ SSM160
 70
     0
 10
0.0
 20
0.0
 30
0.0
  3
ケースＡ SSM160
  1

  0
LINE
  5
53A7
330
53A4
100
AcDbEntity
  8
AM_0 外形線1
100
AcDbLine
 10
15.00000000000006
 20
-79.5
 30
0.0
 11
15.00000000000006
 21
0.0
 31
0.0
  0
LINE
  5
53A8
330
53A4
100
AcDbEntity
  8
AM_0 外形線1
100
AcDbLine
 10
0.0
 20
0.0
 30
0.0
 11
0.0
 21
-79.5
 31
0.0
  0
LINE
  5
53A9
330
53A4
100
AcDbEntity
  8
AM_0 外形線1
100
AcDbLine
 10
0.500000000000057
 20
-80.0
 30
0.0
 11
14.50000000000005
 21
-80.0
 31
0.0
  0
LINE
  5
53AA
330
53A4
100
AcDbEntity
  8
AM_0 外形線1
100
AcDbLine
 10
0.0
 20
-79.5
 30
0.0
 11
0.500000000000057
 21
-80.0
 31
0.0
  0
LINE
  5
53AB
330
53A4
100
AcDbEntity
  8
AM_0 外形線1
100
AcDbLine
 10
14.50000000000005
 20
-80.0
 30
0.0
 11
15.00000000000006
 21
-79.5
 31
0.0
  0
LINE
  5
53AC
330
53A4
100
AcDbEntity
  8
AM_0 外形線1
100
AcDbLine
 10
52.00000000000006
 20
-52.49519800000006
 30
0.0
 11
52.00000000000006
 21
0.0
 31
0.0
  0
LINE
  5
53AD
330
53A4
100
AcDbEntity
  8
AM_0 外形線1
100
AcDbLine
 10
18.00000000000006
 20
-60.0
 30
0.0
 11
49.00000000000005
 21
-60.0
 31
0.0
  0
ARC
  5
53AE
330
53A4
100
AcDbEntity
  8
AM_0 外形線1
100
AcDbCircle
 10
49.00000000000005
 20
-57.0
 30
0.0
 40
3.0
100
AcDbArc
 50
270.0
 51
0.0
  0
LINE
  5
53AF
330
53A4
100
AcDbEntity
  8
AM_0 外形線1
100
AcDbLine
 10
52.00000000000006
 20
-57.0
 30
0.0
 11
52.00000000000006
 21
-52.49519800000006
 31
0.0
  0
LINE
  5
53B0
330
53A4
100
AcDbEntity
  8
AM_0 外形線1
100
AcDbLine
 10
15.00000000000006
 20
54.5
 30
0.0
 11
-3.0
 21
54.5
 31
0.0
  0
LINE
  5
53B1
330
53A4
100
AcDbEntity
  8
AM_0 外形線1
100
AcDbLine
 10
0.0
 20
67.0
 30
0.0
 11
15.00000000000006
 21
67.0
 31
0.0
  0
LINE
  5
53B2
330
53A4
100
AcDbEntity
  8
AM_0 外形線1
100
AcDbLine
 10
15.00000000000006
 20
76.0
 30
0.0
 11
0.0
 21
76.0
 31
0.0
  0
LINE
  5
53B3
330
53A4
100
AcDbEntity
  8
AM_0 外形線1
100
AcDbLine
 10
0.500000000000057
 20
80.0
 30
0.0
 11
14.50000000000005
 21
80.0
 31
0.0
  0
LINE
  5
53B4
330
53A4
100
AcDbEntity
  8
AM_0 外形線1
100
AcDbLine
 10
0.0
 20
76.0
 30
0.0
 11
0.0
 21
79.5
 31
0.0
  0
LINE
  5
53B5
330
53A4
100
AcDbEntity
  8
AM_0 外形線1
100
AcDbLine
 10
-3.0
 20
54.5
 30
0.0
 11
-3.0
 21
52.0
 31
0.0
  0
LINE
  5
53B6
330
53A4
100
AcDbEntity
  8
AM_0 外形線1
100
AcDbLine
 10
0.0000000000000568
 20
61.4000000000001
 30
0.0
 11
0.0
 21
67.0
 31
0.0
  0
LINE
  5
53B7
330
53A4
100
AcDbEntity
  8
AM_0 外形線1
100
AcDbLine
 10
0.0
 20
61.4000000000001
 30
0.0
 11
0.0
 21
67.0
 31
0.0
  0
LWPOLYLINE
  5
53B8
330
53A4
100
AcDbEntity
  8
AM_0 外形線1
100
AcDbPolyline
 90
       49
 70
     0
 43
0.0
 10
1.200000000000102
 20
57.5
 10
1.30520800000005
 20
57.50755600000002
 10
1.40837800000014
 20
57.52962400000001
 10
1.512200000000176
 20
57.56714800000009
 10
1.610424000000023
 20
57.61760000000004
 10
1.709106000000075
 20
57.68426799999997
 10
1.800000000000011
 20
57.76125000000002
 10
2.060845999999911
 20
58.08992200000012
 10
2.239229999999962
 20
58.4749999999999
 10
2.329310000000134
 20
58.78986800000006
 10
2.381770000000016
 20
59.11138600000004
 10
2.395436000000074
 20
59.2803960000001
 10
2.400000000000146
 20
59.45000000000003
 10
2.395436000000074
 20
59.61960399999998
 10
2.381770000000016
 20
59.78861400000004
 10
2.329310000000134
 20
60.11013200000002
 10
2.239229999999962
 20
60.42499999999995
 10
2.060845999999911
 20
60.81007799999998
 10
1.800000000000011
 20
61.13875000000007
 10
1.709106000000075
 20
61.2157320000001
 10
1.610424000000023
 20
61.28240000000005
 10
1.512200000000176
 20
61.332852
 10
1.40837800000014
 20
61.37037599999985
 10
1.30520800000005
 20
61.39244400000007
 10
1.200000000000102
 20
61.4000000000001
 10
1.094791999999926
 20
61.39244400000007
 10
0.9916220000000636
 20
61.37037599999985
 10
0.887800000000027
 20
61.332852
 10
0.7895759999999541
 20
61.28240000000005
 10
0.6908940000001281
 20
61.2157320000001
 10
0.5999999999999659
 20
61.13875000000007
 10
0.3391540000000646
 20
60.81007799999998
 10
0.1607700000000136
 20
60.42499999999995
 10
0.0706900000000701
 20
60.11013200000002
 10
0.0182299999999032
 20
59.78861400000004
 10
0.0045639999998457
 20
59.61960399999998
 10
0.0
 20
59.45000000000003
 10
0.0045639999998457
 20
59.2803960000001
 10
0.0182299999999032
 20
59.11138600000004
 10
0.0706900000000701
 20
58.78986800000006
 10
0.1607700000000136
 20
58.4749999999999
 10
0.3391540000000646
 20
58.08992200000012
 10
0.5999999999999659
 20
57.76125000000002
 10
0.6908940000001281
 20
57.68426799999997
 10
0.7895759999999541
 20
57.61760000000004
 10
0.887800000000027
 20
57.56714800000009
 10
0.9916220000000636
 20
57.52962400000001
 10
1.094791999999926
 20
57.50755600000002
 10
1.200000000000102
 20
57.5
  0
LINE
  5
53B9
330
53A4
100
AcDbEntity
  8
AM_0 外形線1
100
AcDbLine
 10
1.900000000000146
 20
61.4000000000001
 30
0.0
 11
0.0
 21
61.4000000000001
 31
0.0
  0
LINE
  5
53BA
330
53A4
100
AcDbEntity
  8
AM_0 外形線1
100
AcDbLine
 10
-2.5
 20
57.5
 30
0.0
 11
1.900000000000146
 21
57.5
 31
0.0
  0
LINE
  5
53BB
330
53A4
100
AcDbEntity
  8
AM_0 外形線1
100
AcDbLine
 10
-3.0
 20
57.0
 30
0.0
 11
-2.5
 21
57.5
 31
0.0
  0
LINE
  5
53BC
330
53A4
100
AcDbEntity
  8
AM_0 外形線1
100
AcDbLine
 10
-3.0
 20
54.5
 30
0.0
 11
-3.0
 21
57.0
 31
0.0
  0
ARC
  5
53BD
330
53A4
100
AcDbEntity
  8
AM_0 外形線1
100
AcDbCircle
 10
1.900000000000146
 20
60.9000000000001
 30
0.0
 40
0.5
100
AcDbArc
 50
0.0
 51
90.0
  0
LINE
  5
53BE
330
53A4
100
AcDbEntity
  8
AM_0 外形線1
100
AcDbLine
 10
2.400000000000146
 20
58.0
 30
0.0
 11
2.400000000000146
 21
60.9000000000001
 31
0.0
  0
ARC
  5
53BF
330
53A4
100
AcDbEntity
  8
AM_0 外形線1
100
AcDbCircle
 10
1.900000000000146
 20
58.0
 30
0.0
 40
0.5
100
AcDbArc
 50
270.0
 51
0.0
  0
LINE
  5
53C0
330
53A4
100
AcDbEntity
  8
AM_0 外形線1
100
AcDbLine
 10
0.0
 20
79.5
 30
0.0
 11
0.500000000000057
 21
80.0
 31
0.0
  0
LINE
  5
53C2
330
53A4
100
AcDbEntity
  8
AM_0 外形線1
100
AcDbLine
 10
42.2000000000001
 20
48.5
 30
0.0
 11
40.00000000000006
 21
48.5
 31
0.0
  0
LINE
  5
53C3
330
53A4
100
AcDbEntity
  8
AM_0 外形線1
100
AcDbLine
 10
18.00000000000006
 20
60.0
 30
0.0
 11
49.00000000000005
 21
60.0
 31
0.0
  0
LINE
  5
53C4
330
53A4
100
AcDbEntity
  8
AM_0 外形線1
100
AcDbLine
 10
36.00000000000007
 20
53.06127599999991
 30
0.0
 11
36.00000000000007
 21
53.5
 31
0.0
  0
LINE
  5
53C5
330
53A4
100
AcDbEntity
  8
AM_0 外形線1
100
AcDbLine
 10
16.00000000000006
 20
51.4000000000001
 30
0.0
 11
16.00000000000006
 21
53.5
 31
0.0
  0
LINE
  5
53C6
330
53A4
100
AcDbEntity
  8
AM_0 外形線1
100
AcDbLine
 10
40.00000000000006
 20
48.5
 30
0.0
 11
40.00000000000006
 21
53.5
 31
0.0
  0
LINE
  5
53C7
330
53A4
100
AcDbEntity
  8
AM_3 隠れ線
100
AcDbLine
 10
19.00000000000005
 20
50.40000000000009
 30
0.0
 11
35.00000000000006
 21
50.40000000000009
 31
0.0
  0
LINE
  5
53C8
330
53A4
100
AcDbEntity
  8
AM_7 中心線
100
AcDbLine
 10
14.00000000000005
 20
52.0
 30
0.0
 11
38.00000000000006
 21
52.0
 31
0.0
  0
LINE
  5
53C9
330
53A4
100
AcDbEntity
  8
AM_0 外形線1
100
AcDbLine
 10
17.00000000000005
 20
50.40000000000009
 30
0.0
 11
16.00000000000006
 21
51.4000000000001
 31
0.0
  0
LINE
  5
53CA
330
53A4
100
AcDbEntity
  8
AM_0 外形線1
100
AcDbLine
 10
16.00000000000006
 20
51.4000000000001
 30
0.0
 11
16.00000000000006
 21
48.4180019999999
 31
0.0
  0
LINE
  5
53CB
330
53A4
100
AcDbEntity
  8
AM_0 外形線1
100
AcDbLine
 10
19.00000000000005
 20
50.40000000000009
 30
0.0
 11
17.00000000000005
 21
50.40000000000009
 31
0.0
  0
LINE
  5
53CC
330
53A4
100
AcDbEntity
  8
AM_3 隠れ線
100
AcDbLine
 10
36.00000000000007
 20
53.06127599999991
 30
0.0
 11
36.00000000000007
 21
51.4000000000001
 31
0.0
  0
LINE
  5
53CD
330
53A4
100
AcDbEntity
  8
AM_3 隠れ線
100
AcDbLine
 10
36.00000000000007
 20
51.4000000000001
 30
0.0
 11
35.00000000000006
 21
50.40000000000009
 31
0.0
  0
LINE
  5
53CE
330
53A4
100
AcDbEntity
  8
AM_0 外形線1
100
AcDbLine
 10
40.00000000000006
 20
48.5
 30
0.0
 11
40.00000000000006
 21
47.5
 31
0.0
  0
LINE
  5
53CF
330
53A4
100
AcDbEntity
  8
AM_0 外形線1
100
AcDbLine
 10
16.00000000000006
 20
54.0
 30
0.0
 11
36.00000000000007
 21
54.0
 31
0.0
  0
LINE
  5
53D0
330
53A4
100
AcDbEntity
  8
AM_0 外形線1
100
AcDbLine
 10
15.00000000000006
 20
79.49999999999993
 30
0.0
 11
15.00000000000006
 21
63.0
 31
0.0
  0
ARC
  5
53D1
330
53A4
100
AcDbEntity
  8
AM_0 外形線1
100
AcDbCircle
 10
18.00000000000006
 20
63.0
 30
0.0
 40
3.0
100
AcDbArc
 50
180.0
 51
270.0
  0
ARC
  5
53D2
330
53A4
100
AcDbEntity
  8
AM_0 外形線1
100
AcDbCircle
 10
15.00000000000006
 20
53.5
 30
0.0
 40
1.0
100
AcDbArc
 50
0.0
 51
90.0
  0
ARC
  5
53D3
330
53A4
100
AcDbEntity
  8
AM_0 外形線1
100
AcDbCircle
 10
37.00000000000006
 20
53.5
 30
0.0
 40
1.0
100
AcDbArc
 50
90.0
 51
180.0
  0
LINE
  5
53D4
330
53A4
100
AcDbEntity
  8
AM_0 外形線1
100
AcDbLine
 10
39.00000000000007
 20
54.5
 30
0.0
 11
37.00000000000006
 21
54.5
 31
0.0
  0
ARC
  5
53D5
330
53A4
100
AcDbEntity
  8
AM_0 外形線1
100
AcDbCircle
 10
39.00000000000007
 20
53.5
 30
0.0
 40
1.0
100
AcDbArc
 50
0.0
 51
90.0
  0
LINE
  5
53D6
330
53A4
100
AcDbEntity
  8
AM_0 外形線1
100
AcDbLine
 10
52.00000000000006
 20
57.0
 30
0.0
 11
52.00000000000006
 21
48.5
 31
0.0
  0
LINE
  5
53D7
330
53A4
100
AcDbEntity
  8
AM_0 外形線1
100
AcDbLine
 10
52.00000000000006
 20
48.5
 30
0.0
 11
49.80000000000001
 21
48.5
 31
0.0
  0
LWPOLYLINE
  5
53D8
330
53A4
100
AcDbEntity
  8
AM_0 外形線1
100
AcDbPolyline
 90
       49
 70
     0
 43
0.0
 10
42.2000000000001
 20
49.8499999999999
 10
42.21472
 20
49.64398600000004
 10
42.25773000000009
 20
49.44192599999997
 10
42.33083600000013
 20
49.238654
 10
42.42916799999995
 20
49.04625200000009
 10
42.55904800000013
 20
48.85304799999993
 10
42.70910400000007
 20
48.67499999999996
 10
43.34927400000021
 20
48.164444
 10
44.09999999999995
 20
47.81484
 10
44.7135060000001
 20
47.63844399999993
 10
45.34013600000007
 20
47.53570200000011
 10
45.66948800000004
 20
47.50893799999993
 10
46.00000000000004
 20
47.5
 10
46.33051200000005
 20
47.50893799999993
 10
46.65986400000003
 20
47.53570200000011
 10
47.28649400000001
 20
47.63844399999993
 10
47.90000000000016
 20
47.81484
 10
48.65072599999989
 20
48.164444
 10
49.29089600000003
 20
48.67499999999996
 10
49.44095199999998
 20
48.85304799999993
 10
49.57083200000017
 20
49.04625200000009
 10
49.66916399999997
 20
49.238654
 10
49.74227000000002
 20
49.44192599999997
 10
49.78528000000011
 20
49.64398600000004
 10
49.80000000000001
 20
49.8499999999999
 10
49.78528000000011
 20
50.056014
 10
49.74227000000002
 20
50.25807400000008
 10
49.66916399999997
 20
50.46134600000005
 10
49.57083200000017
 20
50.65374799999995
 10
49.44095199999998
 20
50.84695199999988
 10
49.29089600000003
 20
51.02500000000009
 10
48.65072599999989
 20
51.53555600000004
 10
47.90000000000016
 20
51.88516000000004
 10
47.28649400000001
 20
52.0615560000001
 10
46.65986400000003
 20
52.16429799999993
 10
46.33051200000005
 20
52.19106199999989
 10
46.00000000000004
 20
52.20000000000005
 10
45.66948800000004
 20
52.19106199999989
 10
45.34013600000007
 20
52.16429799999993
 10
44.7135060000001
 20
52.0615560000001
 10
44.09999999999995
 20
51.88516000000004
 10
43.34927400000021
 20
51.53555600000004
 10
42.70910400000007
 20
51.02500000000009
 10
42.55904800000013
 20
50.84695199999988
 10
42.42916799999995
 20
50.65374799999995
 10
42.33083600000013
 20
50.46134600000005
 10
42.25773000000009
 20
50.25807400000008
 10
42.21472
 20
50.056014
 10
42.2000000000001
 20
49.8499999999999
  0
LINE
  5
53D9
330
53A4
100
AcDbEntity
  8
AM_0 外形線1
100
AcDbLine
 10
42.2000000000001
 20
51.70000000000005
 30
0.0
 11
42.2000000000001
 21
48.5
 31
0.0
  0
ARC
  5
53DA
330
53A4
100
AcDbEntity
  8
AM_0 外形線1
100
AcDbCircle
 10
42.7000000000001
 20
51.70000000000005
 30
0.0
 40
0.5
100
AcDbArc
 50
90.0
 51
180.0
  0
LINE
  5
53DB
330
53A4
100
AcDbEntity
  8
AM_0 外形線1
100
AcDbLine
 10
49.30000000000001
 20
52.20000000000005
 30
0.0
 11
42.7000000000001
 21
52.20000000000005
 31
0.0
  0
ARC
  5
53DC
330
53A4
100
AcDbEntity
  8
AM_0 外形線1
100
AcDbCircle
 10
49.30000000000001
 20
51.70000000000005
 30
0.0
 40
0.5
100
AcDbArc
 50
0.0
 51
90.0
  0
LINE
  5
53DD
330
53A4
100
AcDbEntity
  8
AM_0 外形線1
100
AcDbLine
 10
49.80000000000001
 20
48.5
 30
0.0
 11
49.80000000000001
 21
51.70000000000005
 31
0.0
  0
LINE
  5
53DE
330
53A4
100
AcDbEntity
  8
AM_0 外形線1
100
AcDbLine
 10
49.80000000000001
 20
48.5
 30
0.0
 11
49.80000000000001
 21
47.5
 31
0.0
  0
LINE
  5
53DF
330
53A4
100
AcDbEntity
  8
AM_0 外形線1
100
AcDbLine
 10
42.2000000000001
 20
48.5
 30
0.0
 11
42.2000000000001
 21
47.5
 31
0.0
  0
LINE
  5
53E0
330
53A4
100
AcDbEntity
  8
AM_0 外形線1
100
AcDbLine
 10
52.00000000000006
 20
48.5
 30
0.0
 11
52.00000000000006
 21
47.5
 31
0.0
  0
ARC
  5
53E1
330
53A4
100
AcDbEntity
  8
AM_0 外形線1
100
AcDbCircle
 10
49.00000000000005
 20
57.0
 30
0.0
 40
3.0
100
AcDbArc
 50
0.0
 51
90.0
  0
LINE
  5
53E2
330
53A4
100
AcDbEntity
  8
AM_0 外形線1
100
AcDbLine
 10
14.50000000000005
 20
80.0
 30
0.0
 11
15.00000000000006
 21
79.5
 31
0.0
  0
ARC
  5
53E4
330
53A4
100
AcDbEntity
  8
AM_0 外形線1
100
AcDbCircle
 10
18.00000000000006
 20
-63.0
 30
0.0
 40
3.0
100
AcDbArc
 50
90.0
 51
180.0
  0
INSERT
  5
5479
330
53A4
100
AcDbEntity
  8
AM_5 寸法線
100
AcDbBlockReference
  2
ロッカクアナツキプラグ R1／8
 10
7.500000000000056
 20
-26.49868399999991
 30
0.0
  0
LINE
  5
5493
330
53A4
100
AcDbEntity
  8
AM_7 中心線
100
AcDbLine
 10
-25.5
 20
71.5
 30
0.0
 11
32.00000000000006
 21
71.5
 31
0.0
  0
ENDBLK
  5
53A6
330
53A4
100
AcDbEntity
  8
0
100
AcDbBlockEnd
  0
BLOCK
  5
5514
330
5513
100
AcDbEntity
  8
0
100
AcDbBlockBegin
  2
ケースＢ SSM160
 70
     0
 10
0.0
 20
0.0
 30
0.0
  3
ケースＢ SSM160
  1

  0
ARC
  5
5516
330
5513
100
AcDbEntity
  8
AM_0 外形線1
100
AcDbCircle
 10
-18.0
 20
-63.0
 30
0.0
 40
3.0
100
AcDbArc
 50
0.0
 51
90.0
  0
LINE
  5
5517
330
5513
100
AcDbEntity
  8
AM_0 外形線1
100
AcDbLine
 10
-15.0
 20
-79.5
 30
0.0
 11
-15.0
 21
0.0
 31
0.0
  0
LINE
  5
5518
330
5513
100
AcDbEntity
  8
AM_0 外形線1
100
AcDbLine
 10
-0.5
 20
-80.0
 30
0.0
 11
-14.5
 21
-80.0
 31
0.0
  0
LINE
  5
5519
330
5513
100
AcDbEntity
  8
AM_7 中心線
100
AcDbLine
 10
20.8186412213837
 20
-71.5
 30
0.0
 11
-20.81864122138359
 21
-71.5
 31
0.0
  0
LINE
  5
551A
330
5513
100
AcDbEntity
  8
AM_0 外形線1
100
AcDbLine
 10
-14.5
 20
-80.0
 30
0.0
 11
-15.0
 21
-79.5
 31
0.0
  0
LINE
  5
551B
330
5513
100
AcDbEntity
  8
AM_0 外形線1
100
AcDbLine
 10
0.0
 20
-79.5
 30
0.0
 11
-0.5
 21
-80.0
 31
0.0
  0
LINE
  5
551C
330
5513
100
AcDbEntity
  8
AM_0 外形線1
100
AcDbLine
 10
-52.0
 20
-57.0
 30
0.0
 11
-52.0
 21
0.0
 31
0.0
  0
LINE
  5
551D
330
5513
100
AcDbEntity
  8
AM_0 外形線1
100
AcDbLine
 10
-18.0
 20
-60.0
 30
0.0
 11
-49.0
 21
-60.0
 31
0.0
  0
ARC
  5
551E
330
5513
100
AcDbEntity
  8
AM_0 外形線1
100
AcDbCircle
 10
-49.0
 20
-57.0
 30
0.0
 40
3.0
100
AcDbArc
 50
180.0
 51
270.0
  0
LINE
  5
5520
330
5513
100
AcDbEntity
  8
AM_3 隠れ線
100
AcDbLine
 10
-19.0
 20
50.40000000000009
 30
0.0
 11
-35.0
 21
50.40000000000009
 31
0.0
  0
LINE
  5
5521
330
5513
100
AcDbEntity
  8
AM_0 外形線1
100
AcDbLine
 10
-18.0
 20
60.0
 30
0.0
 11
-49.0
 21
60.0
 31
0.0
  0
LINE
  5
5522
330
5513
100
AcDbEntity
  8
AM_0 外形線1
100
AcDbLine
 10
-16.0
 20
54.0
 30
0.0
 11
-36.0
 21
54.0
 31
0.0
  0
LINE
  5
5523
330
5513
100
AcDbEntity
  8
AM_7 中心線
100
AcDbLine
 10
-14.0
 20
52.0
 30
0.0
 11
-38.0
 21
52.0
 31
0.0
  0
LINE
  5
5524
330
5513
100
AcDbEntity
  8
AM_0 外形線1
100
AcDbLine
 10
-36.0
 20
53.06127599999991
 30
0.0
 11
-36.0
 21
53.5
 31
0.0
  0
LINE
  5
5525
330
5513
100
AcDbEntity
  8
AM_0 外形線1
100
AcDbLine
 10
-40.0
 20
48.5
 30
0.0
 11
-40.0
 21
53.5
 31
0.0
  0
LINE
  5
5526
330
5513
100
AcDbEntity
  8
AM_0 外形線1
100
AcDbLine
 10
-52.0
 20
57.0
 30
0.0
 11
-52.0
 21
48.5
 31
0.0
  0
LINE
  5
5527
330
5513
100
AcDbEntity
  8
AM_0 外形線1
100
AcDbLine
 10
-42.20000000000005
 20
48.5
 30
0.0
 11
-40.0
 21
48.5
 31
0.0
  0
LWPOLYLINE
  5
5528
330
5513
100
AcDbEntity
  8
AM_0 外形線1
100
AcDbPolyline
 90
       49
 70
     0
 43
0.0
 10
-42.20000000000005
 20
49.8499999999999
 10
-42.21471999999994
 20
50.056014
 10
-42.25773000000002
 20
50.25807400000008
 10
-42.3308360000001
 20
50.46134600000005
 10
-42.42916800000012
 20
50.65374799999995
 10
-42.55904800000006
 20
50.84695199999988
 10
-42.70910400000002
 20
51.02500000000009
 10
-43.34927400000014
 20
51.53555600000004
 10
-44.0999999999999
 20
51.88516000000004
 10
-44.71350600000004
 20
52.0615560000001
 10
-45.34013600000003
 20
52.16429799999993
 10
-45.669488
 20
52.19106199999989
 10
-46.0
 20
52.20000000000005
 10
-46.33051199999999
 20
52.19106199999989
 10
-46.65986399999996
 20
52.16429799999993
 10
-47.28649399999993
 20
52.0615560000001
 10
-47.90000000000008
 20
51.88516000000004
 10
-48.65072599999985
 20
51.53555600000004
 10
-49.29089599999997
 20
51.02500000000009
 10
-49.44095199999992
 20
50.84695199999988
 10
-49.57083199999988
 20
50.65374799999995
 10
-49.6691639999999
 20
50.46134600000005
 10
-49.74226999999996
 20
50.25807400000008
 10
-49.78528000000006
 20
50.056014
 10
-49.79999999999995
 20
49.8499999999999
 10
-49.78528000000006
 20
49.64398600000004
 10
-49.74226999999996
 20
49.44192599999997
 10
-49.6691639999999
 20
49.238654
 10
-49.57083199999988
 20
49.04625200000009
 10
-49.44095199999992
 20
48.85304799999993
 10
-49.29089599999997
 20
48.67499999999996
 10
-48.65072599999985
 20
48.164444
 10
-47.90000000000008
 20
47.81484
 10
-47.28649399999993
 20
47.63844399999993
 10
-46.65986399999996
 20
47.53570200000011
 10
-46.33051199999999
 20
47.50893799999993
 10
-46.0
 20
47.5
 10
-45.669488
 20
47.50893799999993
 10
-45.34013600000003
 20
47.53570200000011
 10
-44.71350600000004
 20
47.63844399999993
 10
-44.0999999999999
 20
47.81484
 10
-43.34927400000014
 20
48.164444
 10
-42.70910400000002
 20
48.67499999999996
 10
-42.55904800000006
 20
48.85304799999993
 10
-42.42916800000012
 20
49.04625200000009
 10
-42.3308360000001
 20
49.238654
 10
-42.25773000000002
 20
49.44192599999997
 10
-42.21471999999994
 20
49.64398600000004
 10
-42.20000000000005
 20
49.8499999999999
  0
ARC
  5
5529
330
5513
100
AcDbEntity
  8
AM_0 外形線1
100
AcDbCircle
 10
-49.29999999999996
 20
51.70000000000005
 30
0.0
 40
0.5
100
AcDbArc
 50
90.0
 51
180.0
  0
LINE
  5
552A
330
5513
100
AcDbEntity
  8
AM_0 外形線1
100
AcDbLine
 10
-49.79999999999995
 20
48.5
 30
0.0
 11
-49.79999999999995
 21
51.70000000000005
 31
0.0
  0
LINE
  5
552B
330
5513
100
AcDbEntity
  8
AM_0 外形線1
100
AcDbLine
 10
-52.0
 20
48.5
 30
0.0
 11
-49.79999999999995
 21
48.5
 31
0.0
  0
LINE
  5
552C
330
5513
100
AcDbEntity
  8
AM_0 外形線1
100
AcDbLine
 10
-49.79999999999995
 20
48.5
 30
0.0
 11
-49.79999999999995
 21
47.5
 31
0.0
  0
LINE
  5
552D
330
5513
100
AcDbEntity
  8
AM_0 外形線1
100
AcDbLine
 10
-52.0
 20
48.5
 30
0.0
 11
-52.0
 21
47.5
 31
0.0
  0
LINE
  5
552E
330
5513
100
AcDbEntity
  8
AM_0 外形線1
100
AcDbLine
 10
-42.20000000000005
 20
51.70000000000005
 30
0.0
 11
-42.20000000000005
 21
48.5
 31
0.0
  0
ARC
  5
552F
330
5513
100
AcDbEntity
  8
AM_0 外形線1
100
AcDbCircle
 10
-42.70000000000004
 20
51.70000000000005
 30
0.0
 40
0.5
100
AcDbArc
 50
0.0
 51
90.0
  0
LINE
  5
5530
330
5513
100
AcDbEntity
  8
AM_0 外形線1
100
AcDbLine
 10
-49.29999999999996
 20
52.20000000000005
 30
0.0
 11
-42.70000000000004
 21
52.20000000000005
 31
0.0
  0
LINE
  5
5531
330
5513
100
AcDbEntity
  8
AM_0 外形線1
100
AcDbLine
 10
-42.20000000000005
 20
48.5
 30
0.0
 11
-42.20000000000005
 21
47.5
 31
0.0
  0
LINE
  5
5532
330
5513
100
AcDbEntity
  8
AM_3 隠れ線
100
AcDbLine
 10
-36.0
 20
53.06127599999991
 30
0.0
 11
-36.0
 21
51.4000000000001
 31
0.0
  0
LINE
  5
5533
330
5513
100
AcDbEntity
  8
AM_3 隠れ線
100
AcDbLine
 10
-36.0
 20
51.4000000000001
 30
0.0
 11
-35.0
 21
50.40000000000009
 31
0.0
  0
LINE
  5
5534
330
5513
100
AcDbEntity
  8
AM_0 外形線1
100
AcDbLine
 10
-40.0
 20
48.5
 30
0.0
 11
-40.0
 21
47.5
 31
0.0
  0
ARC
  5
5535
330
5513
100
AcDbEntity
  8
AM_0 外形線1
100
AcDbCircle
 10
-49.0
 20
57.0
 30
0.0
 40
3.0
100
AcDbArc
 50
90.0
 51
180.0
  0
ARC
  5
5536
330
5513
100
AcDbEntity
  8
AM_0 外形線1
100
AcDbCircle
 10
-37.0
 20
53.5
 30
0.0
 40
1.0
100
AcDbArc
 50
0.0
 51
90.0
  0
LINE
  5
5537
330
5513
100
AcDbEntity
  8
AM_0 外形線1
100
AcDbLine
 10
-39.0
 20
54.5
 30
0.0
 11
-37.0
 21
54.5
 31
0.0
  0
ARC
  5
5538
330
5513
100
AcDbEntity
  8
AM_0 外形線1
100
AcDbCircle
 10
-39.0
 20
53.5
 30
0.0
 40
1.0
100
AcDbArc
 50
90.0
 51
180.0
  0
LINE
  5
5539
330
5513
100
AcDbEntity
  8
AM_0 外形線1
100
AcDbLine
 10
-4.0
 20
54.5
 30
0.0
 11
-4.0
 21
51.5
 31
0.0
  0
LINE
  5
553A
330
5513
100
AcDbEntity
  8
AM_0 外形線1
100
AcDbLine
 10
-16.0
 20
51.4000000000001
 30
0.0
 11
-16.0
 21
53.5
 31
0.0
  0
LINE
  5
553B
330
5513
100
AcDbEntity
  8
AM_0 外形線1
100
AcDbLine
 10
-17.0
 20
50.40000000000009
 30
0.0
 11
-16.0
 21
51.4000000000001
 31
0.0
  0
LINE
  5
553C
330
5513
100
AcDbEntity
  8
AM_0 外形線1
100
AcDbLine
 10
-19.0
 20
50.40000000000009
 30
0.0
 11
-17.0
 21
50.40000000000009
 31
0.0
  0
LINE
  5
553D
330
5513
100
AcDbEntity
  8
AM_0 外形線1
100
AcDbLine
 10
-16.0
 20
51.4000000000001
 30
0.0
 11
-16.0
 21
48.4180019999999
 31
0.0
  0
LINE
  5
553E
330
5513
100
AcDbEntity
  8
AM_0 外形線1
100
AcDbLine
 10
-15.0
 20
54.5
 30
0.0
 11
-4.0
 21
54.5
 31
0.0
  0
LINE
  5
553F
330
5513
100
AcDbEntity
  8
AM_0 外形線1
100
AcDbLine
 10
0.0
 20
67.0
 30
0.0
 11
-15.0
 21
67.0
 31
0.0
  0
LINE
  5
5540
330
5513
100
AcDbEntity
  8
AM_0 外形線1
100
AcDbLine
 10
-15.0
 20
76.0
 30
0.0
 11
0.0
 21
76.0
 31
0.0
  0
LINE
  5
5541
330
5513
100
AcDbEntity
  8
AM_0 外形線1
100
AcDbLine
 10
-15.0
 20
79.5
 30
0.0
 11
-15.0
 21
63.0
 31
0.0
  0
ARC
  5
5542
330
5513
100
AcDbEntity
  8
AM_0 外形線1
100
AcDbCircle
 10
-18.0
 20
63.0
 30
0.0
 40
3.0
100
AcDbArc
 50
270.0
 51
0.0
  0
ARC
  5
5543
330
5513
100
AcDbEntity
  8
AM_0 外形線1
100
AcDbCircle
 10
-15.0
 20
53.5
 30
0.0
 40
1.0
100
AcDbArc
 50
90.0
 51
180.0
  0
LINE
  5
5544
330
5513
100
AcDbEntity
  8
AM_0 外形線1
100
AcDbLine
 10
-0.5
 20
57.5
 30
0.0
 11
0.0
 21
58.0
 31
0.0
  0
LINE
  5
5545
330
5513
100
AcDbEntity
  8
AM_0 外形線1
100
AcDbLine
 10
-4.0
 20
57.5
 30
0.0
 11
-0.5
 21
57.5
 31
0.0
  0
LINE
  5
5546
330
5513
100
AcDbEntity
  8
AM_0 外形線1
100
AcDbLine
 10
-4.0
 20
54.5
 30
0.0
 11
-4.0
 21
57.5
 31
0.0
  0
LINE
  5
5547
330
5513
100
AcDbEntity
  8
AM_0 外形線1
100
AcDbLine
 10
-0.5
 20
80.0
 30
0.0
 11
-14.5
 21
80.0
 31
0.0
  0
LINE
  5
5548
330
5513
100
AcDbEntity
  8
AM_0 外形線1
100
AcDbLine
 10
0.0
 20
79.5
 30
0.0
 11
-0.5
 21
80.0
 31
0.0
  0
LINE
  5
55BE
330
5513
100
AcDbEntity
  8
AM_0 外形線1
100
AcDbLine
 10
0.0
 20
79.5
 30
0.0
 11
0.0
 21
76.0
 31
0.0
  0
LINE
  5
55BF
330
5513
100
AcDbEntity
  8
AM_0 外形線1
100
AcDbLine
 10
0.0
 20
67.0
 30
0.0
 11
0.0
 21
58.0
 31
0.0
  0
LINE
  5
55C0
330
5513
100
AcDbEntity
  8
AM_0 外形線1
100
AcDbLine
 10
0.0
 20
-79.5
 30
0.0
 11
0.0
 21
0.0
 31
0.0
  0
LINE
  5
55C1
330
5513
100
AcDbEntity
  8
AM_0 外形線1
100
AcDbLine
 10
-14.5
 20
80.0
 30
0.0
 11
-15.0
 21
79.5
 31
0.0
  0
ENDBLK
  5
5515
330
5513
100
AcDbEntity
  8
0
100
AcDbBlockEnd
  0
BLOCK
  5
5691
330
5690
100
AcDbEntity
  8
0
100
AcDbBlockBegin
  2
センタＡ SSM160
 70
     0
 10
0.0
 20
0.0
 30
0.0
  3
センタＡ SSM160
  1

  0
LINE
  5
5693
330
5690
100
AcDbEntity
  8
AM_0 外形線1
100
AcDbLine
 10
56.0
 20
-46.9000000000001
 30
0.0
 11
77.0
 21
-46.9000000000001
 31
0.0
  0
LINE
  5
5694
330
5690
100
AcDbEntity
  8
AM_0 外形線1
100
AcDbLine
 10
77.0
 20
46.9000000000001
 30
0.0
 11
56.0
 21
46.9000000000001
 31
0.0
  0
LINE
  5
5695
330
5690
100
AcDbEntity
  8
AM_0 外形線1
100
AcDbLine
 10
0.0
 20
46.5
 30
0.0
 11
0.0
 21
0.0
 31
0.0
  0
LINE
  5
5696
330
5690
100
AcDbEntity
  8
AM_0 外形線1
100
AcDbLine
 10
56.0
 20
-46.9000000000001
 30
0.0
 11
56.0
 21
0.0
 31
0.0
  0
LINE
  5
5697
330
5690
100
AcDbEntity
  8
AM_0 外形線1
100
AcDbLine
 10
54.0
 20
-47.5
 30
0.0
 11
54.0
 21
0.0
 31
0.0
  0
LINE
  5
5698
330
5690
100
AcDbEntity
  8
AM_0 外形線1
100
AcDbLine
 10
47.0
 20
-47.5
 30
0.0
 11
54.0
 21
-47.5
 31
0.0
  0
LINE
  5
5699
330
5690
100
AcDbEntity
  8
AM_0 外形線1
100
AcDbLine
 10
54.0
 20
-47.5
 30
0.0
 11
56.0
 21
-46.9000000000001
 31
0.0
  0
LINE
  5
569A
330
5690
100
AcDbEntity
  8
AM_0 外形線1
100
AcDbLine
 10
13.5
 20
47.0
 30
0.0
 11
0.5
 21
47.0
 31
0.0
  0
LINE
  5
569B
330
5690
100
AcDbEntity
  8
AM_0 外形線1
100
AcDbLine
 10
0.5
 20
47.0
 30
0.0
 11
0.0
 21
46.5
 31
0.0
  0
LINE
  5
569C
330
5690
100
AcDbEntity
  8
AM_0 外形線1
100
AcDbLine
 10
54.0
 20
47.5
 30
0.0
 11
32.5
 21
47.5
 31
0.0
  0
LINE
  5
569D
330
5690
100
AcDbEntity
  8
AM_0 外形線1
100
AcDbLine
 10
15.0
 20
53.51167200000009
 30
0.0
 11
14.0
 21
52.38069799999993
 31
0.0
  0
ARC
  5
569E
330
5690
100
AcDbEntity
  8
AM_0 外形線1
100
AcDbCircle
 10
21.5
 20
0.0
 30
0.0
 40
53.905
100
AcDbArc
 50
79.84940800000003
 51
96.92572200000224
  0
LINE
  5
569F
330
5690
100
AcDbEntity
  8
AM_7 中心線
100
AcDbLine
 10
21.5
 20
58.90499999999997
 30
0.0
 11
21.5
 21
44.79999999999995
 31
0.0
  0
ARC
  5
56A2
330
5690
100
AcDbEntity
  8
AM_0 外形線1
100
AcDbCircle
 10
13.5
 20
47.5
 30
0.0
 40
0.5
100
AcDbArc
 50
270.0
 51
0.0
  0
LINE
  5
56A3
330
5690
100
AcDbEntity
  8
AM_0 外形線1
100
AcDbLine
 10
14.0
 20
52.38069799999993
 30
0.0
 11
14.0
 21
47.5
 31
0.0
  0
LINE
  5
56A4
330
5690
100
AcDbEntity
  8
AM_0 外形線1
100
AcDbLine
 10
32.0
 20
51.872478
 30
0.0
 11
31.0
 21
53.06127599999991
 31
0.0
  0
LINE
  5
56A5
330
5690
100
AcDbEntity
  8
AM_0 外形線1
100
AcDbLine
 10
32.0
 20
48.0
 30
0.0
 11
32.0
 21
51.872478
 31
0.0
  0
ARC
  5
56A6
330
5690
100
AcDbEntity
  8
AM_0 外形線1
100
AcDbCircle
 10
32.5
 20
48.0
 30
0.0
 40
0.5
100
AcDbArc
 50
180.0
 51
270.0
  0
LINE
  5
56A7
330
5690
100
AcDbEntity
  8
AM_0 外形線1
100
AcDbLine
 10
56.0
 20
46.9000000000001
 30
0.0
 11
54.0
 21
47.5
 31
0.0
  0
LINE
  5
56A8
330
5690
100
AcDbEntity
  8
AM_0 外形線1
100
AcDbLine
 10
80.0
 20
-43.9000000000001
 30
0.0
 11
80.0
 21
43.9000000000001
 31
0.0
  0
ARC
  5
56A9
330
5690
100
AcDbEntity
  8
AM_0 外形線1
100
AcDbCircle
 10
77.0
 20
-43.9000000000001
 30
0.0
 40
3.0
100
AcDbArc
 50
270.0
 51
0.0
  0
ARC
  5
56AA
330
5690
100
AcDbEntity
  8
AM_0 外形線1
100
AcDbCircle
 10
77.0
 20
43.9000000000001
 30
0.0
 40
3.0
100
AcDbArc
 50
0.0
 51
90.0
  0
LINE
  5
56AB
330
5690
100
AcDbEntity
  8
AM_0 外形線1
100
AcDbLine
 10
0.0
 20
22.5
 30
0.0
 11
80.0
 21
22.5
 31
0.0
  0
ARC
  5
7AFB
330
5690
100
AcDbEntity
  8
AM_7 中心線
100
AcDbCircle
 10
21.49999999999995
 20
0.0
 30
0.0
 40
51.99999999999993
100
AcDbArc
 50
74.95275834043484
 51
101.6494379108209
  0
ARC
  5
7C7F
330
5690
100
AcDbEntity
  8
AM_0 外形線1
100
AcDbCircle
 10
21.5
 20
0.0
 30
0.0
 40
49.80000000000001
100
AcDbArc
 50
77.82821934507842
 51
98.66183868200129
  0
ENDBLK
  5
5692
330
5690
100
AcDbEntity
  8
0
100
AcDbBlockEnd
  0
BLOCK
  5
570E
330
570D
100
AcDbEntity
  8
0
100
AcDbBlockBegin
  2
センタＢ SSM160
 70
     0
 10
0.0
 20
0.0
 30
0.0
  3
センタＢ SSM160
  1

  0
LINE
  5
5710
330
570D
100
AcDbEntity
  8
AM_0 外形線1
100
AcDbLine
 10
-47.0
 20
-47.5
 30
0.0
 11
-54.0
 21
-47.5
 31
0.0
  0
LINE
  5
5711
330
570D
100
AcDbEntity
  8
AM_0 外形線1
100
AcDbLine
 10
-54.0
 20
47.5
 30
0.0
 11
-32.5
 21
47.5
 31
0.0
  0
LINE
  5
5712
330
570D
100
AcDbEntity
  8
AM_0 外形線1
100
AcDbLine
 10
-80.0
 20
-43.9000000000001
 30
0.0
 11
-80.0
 21
43.9000000000001
 31
0.0
  0
LINE
  5
5713
330
570D
100
AcDbEntity
  8
AM_0 外形線1
100
AcDbLine
 10
-56.0
 20
-46.9000000000001
 30
0.0
 11
-56.0
 21
0.0
 31
0.0
  0
LINE
  5
5714
330
570D
100
AcDbEntity
  8
AM_0 外形線1
100
AcDbLine
 10
-54.0
 20
-47.5
 30
0.0
 11
-54.0
 21
0.0
 31
0.0
  0
LINE
  5
5715
330
570D
100
AcDbEntity
  8
AM_0 外形線1
100
AcDbLine
 10
-56.0
 20
-46.9000000000001
 30
0.0
 11
-77.0
 21
-46.9000000000001
 31
0.0
  0
ARC
  5
5716
330
570D
100
AcDbEntity
  8
AM_0 外形線1
100
AcDbCircle
 10
-77.0
 20
-43.9000000000001
 30
0.0
 40
3.0
100
AcDbArc
 50
180.0
 51
270.0
  0
LINE
  5
5717
330
570D
100
AcDbEntity
  8
AM_0 外形線1
100
AcDbLine
 10
-54.0
 20
-47.5
 30
0.0
 11
-56.0
 21
-46.9000000000001
 31
0.0
  0
LINE
  5
5718
330
570D
100
AcDbEntity
  8
AM_0 外形線1
100
AcDbLine
 10
-77.0
 20
46.9000000000001
 30
0.0
 11
-56.0
 21
46.9000000000001
 31
0.0
  0
ARC
  5
5719
330
570D
100
AcDbEntity
  8
AM_0 外形線1
100
AcDbCircle
 10
-77.0
 20
43.9000000000001
 30
0.0
 40
3.0
100
AcDbArc
 50
90.0
 51
180.0
  0
LINE
  5
571A
330
570D
100
AcDbEntity
  8
AM_0 外形線1
100
AcDbLine
 10
-56.0
 20
46.9000000000001
 30
0.0
 11
-54.0
 21
47.5
 31
0.0
  0
ARC
  5
571D
330
570D
100
AcDbEntity
  8
AM_0 外形線1
100
AcDbCircle
 10
-21.5
 20
0.0
 30
0.0
 40
53.905
100
AcDbArc
 50
83.07427799999777
 51
100.150592
  0
LINE
  5
571F
330
570D
100
AcDbEntity
  8
AM_7 中心線
100
AcDbLine
 10
-21.5
 20
58.90499999999997
 30
0.0
 11
-21.5
 21
44.79999999999995
 31
0.0
  0
LINE
  5
5720
330
570D
100
AcDbEntity
  8
AM_0 外形線1
100
AcDbLine
 10
-32.0
 20
51.872478
 30
0.0
 11
-31.0
 21
53.06127599999991
 31
0.0
  0
LINE
  5
5721
330
570D
100
AcDbEntity
  8
AM_0 外形線1
100
AcDbLine
 10
-32.0
 20
48.0
 30
0.0
 11
-32.0
 21
51.872478
 31
0.0
  0
ARC
  5
5722
330
570D
100
AcDbEntity
  8
AM_0 外形線1
100
AcDbCircle
 10
-32.5
 20
48.0
 30
0.0
 40
0.5
100
AcDbArc
 50
270.0
 51
0.0
  0
LINE
  5
5723
330
570D
100
AcDbEntity
  8
AM_0 外形線1
100
AcDbLine
 10
-15.0
 20
53.51167200000009
 30
0.0
 11
-14.0
 21
52.38069799999993
 31
0.0
  0
LINE
  5
5724
330
570D
100
AcDbEntity
  8
AM_0 外形線1
100
AcDbLine
 10
-13.5
 20
47.0
 30
0.0
 11
-0.5
 21
47.0
 31
0.0
  0
ARC
  5
5725
330
570D
100
AcDbEntity
  8
AM_0 外形線1
100
AcDbCircle
 10
-13.5
 20
47.5
 30
0.0
 40
0.5
100
AcDbArc
 50
180.0
 51
270.0
  0
LINE
  5
5726
330
570D
100
AcDbEntity
  8
AM_0 外形線1
100
AcDbLine
 10
-14.0
 20
52.38069799999993
 30
0.0
 11
-14.0
 21
47.5
 31
0.0
  0
LINE
  5
5727
330
570D
100
AcDbEntity
  8
AM_0 外形線1
100
AcDbLine
 10
-0.5
 20
47.0
 30
0.0
 11
0.0
 21
46.5
 31
0.0
  0
LINE
  5
5728
330
570D
100
AcDbEntity
  8
AM_0 外形線1
100
AcDbLine
 10
-80.0
 20
22.5
 30
0.0
 11
0.0
 21
22.5
 31
0.0
  0
LINE
  5
5DC2
330
570D
100
AcDbEntity
  8
AM_0 外形線1
100
AcDbLine
 10
0.0
 20
46.5
 30
0.0
 11
0.0
 21
0.0
 31
0.0
  0
ARC
  5
79B6
330
570D
100
AcDbEntity
  8
AM_0 外形線1
100
AcDbCircle
 10
-21.5
 20
0.0
 30
0.0
 40
49.80000000000001
100
AcDbArc
 50
81.33816131799873
 51
102.1717806549215
  0
ARC
  5
79D1
330
570D
100
AcDbEntity
  8
AM_7 中心線
100
AcDbCircle
 10
-21.5
 20
0.0
 30
0.0
 40
51.99999999999993
100
AcDbArc
 50
78.35056208917908
 51
105.0472416595651
  0
ENDBLK
  5
570F
330
570D
100
AcDbEntity
  8
0
100
AcDbBlockEnd
  0
BLOCK
  5
5987
330
5986
100
AcDbEntity
  8
0
100
AcDbBlockBegin
  2
リーマボルト SSM160 M8
 70
     0
 10
0.0
 20
0.0
 30
0.0
  3
リーマボルト SSM160 M8
  1

  0
ARC
  5
5989
330
5986
100
AcDbEntity
  8
AM_0 外形線1
100
AcDbCircle
 10
-2.171211999999968
 20
5.626387999999906
 30
0.0
 40
3.328787999999998
100
AcDbArc
 50
145.746812999999
 51
214.2531870000009
  0
LINE
  5
598A
330
5986
100
AcDbEntity
  8
AM_0 外形線1
100
AcDbLine
 10
-5.5
 20
6.5
 30
0.0
 11
-5.5
 21
-6.5
 31
0.0
  0
ARC
  5
598B
330
5986
100
AcDbEntity
  8
AM_0 外形線1
100
AcDbCircle
 10
-2.171211999999968
 20
-5.626387999999906
 30
0.0
 40
3.328787999999998
100
AcDbArc
 50
145.746812999999
 51
214.2531870000009
  0
LINE
  5
598C
330
5986
100
AcDbEntity
  8
AM_0 外形線1
100
AcDbLine
 10
-5.5
 20
-6.5
 30
0.0
 11
-4.922649999999974
 21
-7.5
 31
0.0
  0
LINE
  5
598D
330
5986
100
AcDbEntity
  8
AM_0 外形線1
100
AcDbLine
 10
-4.922649999999974
 20
-7.5
 30
0.0
 11
0.0
 21
-7.5
 31
0.0
  0
LINE
  5
598E
330
5986
100
AcDbEntity
  8
AM_0 外形線1
100
AcDbLine
 10
0.0
 20
-3.752776000000038
 30
0.0
 11
-4.922649999999974
 21
-3.752776000000038
 31
0.0
  0
LINE
  5
598F
330
5986
100
AcDbEntity
  8
AM_0 外形線1
100
AcDbLine
 10
0.0
 20
3.752776000000038
 30
0.0
 11
-4.922649999999974
 21
3.752776000000038
 31
0.0
  0
ARC
  5
5990
330
5986
100
AcDbEntity
  8
AM_0 外形線1
100
AcDbCircle
 10
6.985200000000077
 20
0.0
 30
0.0
 40
12.4852
100
AcDbArc
 50
162.5076750000006
 51
197.4923249999993
  0
LINE
  5
5991
330
5986
100
AcDbEntity
  8
AM_0 外形線1
100
AcDbLine
 10
1.5
 20
-4.5
 30
0.0
 11
1.5
 21
4.5
 31
0.0
  0
ARC
  5
5992
330
5986
100
AcDbEntity
  8
AM_0 外形線1
100
AcDbCircle
 10
1.0
 20
-4.5
 30
0.0
 40
0.5
100
AcDbArc
 50
0.0
 51
90.0
  0
LINE
  5
5993
330
5986
100
AcDbEntity
  8
AM_0 外形線1
100
AcDbLine
 10
0.5
 20
-4.0
 30
0.0
 11
1.0
 21
-4.0
 31
0.0
  0
ARC
  5
5994
330
5986
100
AcDbEntity
  8
AM_0 外形線1
100
AcDbCircle
 10
0.5
 20
-4.5
 30
0.0
 40
0.5
100
AcDbArc
 50
90.0
 51
180.0
  0
ARC
  5
5995
330
5986
100
AcDbEntity
  8
AM_0 外形線1
100
AcDbCircle
 10
1.0
 20
4.5
 30
0.0
 40
0.5
100
AcDbArc
 50
270.0
 51
0.0
  0
LINE
  5
5996
330
5986
100
AcDbEntity
  8
AM_0 外形線1
100
AcDbLine
 10
0.5
 20
4.0
 30
0.0
 11
1.0
 21
4.0
 31
0.0
  0
ARC
  5
5997
330
5986
100
AcDbEntity
  8
AM_0 外形線1
100
AcDbCircle
 10
0.5
 20
4.5
 30
0.0
 40
0.5
100
AcDbArc
 50
180.0
 51
270.0
  0
LINE
  5
5998
330
5986
100
AcDbEntity
  8
AM_0 外形線1
100
AcDbLine
 10
0.0
 20
7.5
 30
0.0
 11
-4.922649999999974
 21
7.5
 31
0.0
  0
LINE
  5
5999
330
5986
100
AcDbEntity
  8
AM_0 外形線1
100
AcDbLine
 10
-4.922649999999974
 20
7.5
 30
0.0
 11
-5.5
 21
6.5
 31
0.0
  0
ARC
  5
599A
330
5986
100
AcDbEntity
  8
AM_0 外形線1
100
AcDbCircle
 10
35.17121200000004
 20
5.626387999999906
 30
0.0
 40
3.328787999999998
100
AcDbArc
 50
325.7468129999991
 51
34.25318700000094
  0
LINE
  5
599B
330
5986
100
AcDbEntity
  8
AM_0 外形線1
100
AcDbLine
 10
32.00000000000006
 20
-7.5
 30
0.0
 11
32.00000000000006
 21
7.5
 31
0.0
  0
LINE
  5
599C
330
5986
100
AcDbEntity
  8
AM_0 外形線1
100
AcDbLine
 10
38.50000000000007
 20
6.5
 30
0.0
 11
38.50000000000007
 21
-6.5
 31
0.0
  0
LINE
  5
599D
330
5986
100
AcDbEntity
  8
AM_0 外形線1
100
AcDbLine
 10
41.00000000000004
 20
-4.0
 30
0.0
 11
38.50000000000007
 21
-4.0
 31
0.0
  0
LINE
  5
599E
330
5986
100
AcDbEntity
  8
AM_0 外形線1
100
AcDbLine
 10
38.50000000000007
 20
4.0
 30
0.0
 11
41.00000000000004
 21
4.0
 31
0.0
  0
LINE
  5
599F
330
5986
100
AcDbEntity
  8
AM_4 細線
100
AcDbLine
 10
38.50000000000007
 20
-3.375
 30
0.0
 11
41.62500000000004
 21
-3.375
 31
0.0
  0
LINE
  5
59A0
330
5986
100
AcDbEntity
  8
AM_4 細線
100
AcDbLine
 10
38.50000000000007
 20
3.375
 30
0.0
 11
41.62500000000004
 21
3.375
 31
0.0
  0
ARC
  5
59A1
330
5986
100
AcDbEntity
  8
AM_0 外形線1
100
AcDbCircle
 10
35.17121200000004
 20
-5.626387999999906
 30
0.0
 40
3.328787999999998
100
AcDbArc
 50
325.7468129999991
 51
34.25318700000094
  0
LINE
  5
59A2
330
5986
100
AcDbEntity
  8
AM_0 外形線1
100
AcDbLine
 10
38.50000000000007
 20
-6.5
 30
0.0
 11
37.92265000000003
 21
-7.5
 31
0.0
  0
LINE
  5
59A3
330
5986
100
AcDbEntity
  8
AM_0 外形線1
100
AcDbLine
 10
30.00000000000006
 20
-7.700000000000045
 30
0.0
 11
32.00000000000006
 21
-7.700000000000045
 31
0.0
  0
LINE
  5
59A4
330
5986
100
AcDbEntity
  8
AM_0 外形線1
100
AcDbLine
 10
37.92265000000003
 20
-7.5
 30
0.0
 11
32.00000000000006
 21
-7.5
 31
0.0
  0
LINE
  5
59A5
330
5986
100
AcDbEntity
  8
AM_0 外形線1
100
AcDbLine
 10
32.00000000000006
 20
-7.700000000000045
 30
0.0
 11
32.00000000000006
 21
-7.5
 31
0.0
  0
LINE
  5
59A6
330
5986
100
AcDbEntity
  8
AM_0 外形線1
100
AcDbLine
 10
32.00000000000006
 20
0.6666660000000775
 30
0.0
 11
30.00000000000006
 21
-1.333333999999922
 31
0.0
  0
LINE
  5
59A7
330
5986
100
AcDbEntity
  8
AM_0 外形線1
100
AcDbLine
 10
32.00000000000006
 20
1.333333999999922
 30
0.0
 11
30.00000000000006
 21
-0.6666660000000775
 31
0.0
  0
LINE
  5
59A8
330
5986
100
AcDbEntity
  8
AM_0 外形線1
100
AcDbLine
 10
25.00000000000006
 20
-3.922649999999975
 30
0.0
 11
30.00000000000006
 21
-3.922649999999975
 31
0.0
  0
LINE
  5
59A9
330
5986
100
AcDbEntity
  8
AM_0 外形線1
100
AcDbLine
 10
25.00000000000006
 20
3.922649999999975
 30
0.0
 11
30.00000000000006
 21
3.922649999999975
 31
0.0
  0
LINE
  5
59AA
330
5986
100
AcDbEntity
  8
AM_0 外形線1
100
AcDbLine
 10
24.00000000000006
 20
4.5
 30
0.0
 11
24.00000000000006
 21
-4.5
 31
0.0
  0
LINE
  5
59AB
330
5986
100
AcDbEntity
  8
AM_0 外形線1
100
AcDbLine
 10
25.00000000000006
 20
-3.922649999999975
 30
0.0
 11
24.00000000000006
 21
-4.5
 31
0.0
  0
LINE
  5
59AC
330
5986
100
AcDbEntity
  8
AM_0 外形線1
100
AcDbLine
 10
25.00000000000006
 20
3.922649999999975
 30
0.0
 11
25.00000000000006
 21
-3.922649999999975
 31
0.0
  0
LINE
  5
59AD
330
5986
100
AcDbEntity
  8
AM_0 外形線1
100
AcDbLine
 10
24.00000000000006
 20
4.5
 30
0.0
 11
25.00000000000006
 21
3.922649999999975
 31
0.0
  0
LINE
  5
59AE
330
5986
100
AcDbEntity
  8
AM_0 外形線1
100
AcDbLine
 10
32.00000000000006
 20
-3.752776000000038
 30
0.0
 11
37.92265000000003
 21
-3.752776000000038
 31
0.0
  0
LINE
  5
59AF
330
5986
100
AcDbEntity
  8
AM_0 外形線1
100
AcDbLine
 10
32.00000000000006
 20
3.752776000000038
 30
0.0
 11
37.92265000000003
 21
3.752776000000038
 31
0.0
  0
ARC
  5
59B0
330
5986
100
AcDbEntity
  8
AM_0 外形線1
100
AcDbCircle
 10
26.01479999999998
 20
0.0
 30
0.0
 40
12.4852
100
AcDbArc
 50
342.5076750000007
 51
17.49232499999933
  0
LINE
  5
59B1
330
5986
100
AcDbEntity
  8
AM_0 外形線1
100
AcDbLine
 10
41.00000000000004
 20
4.0
 30
0.0
 11
41.00000000000004
 21
-4.0
 31
0.0
  0
LINE
  5
59B2
330
5986
100
AcDbEntity
  8
AM_0 外形線1
100
AcDbLine
 10
42.00000000000005
 20
-3.0
 30
0.0
 11
41.00000000000004
 21
-4.0
 31
0.0
  0
LINE
  5
59B3
330
5986
100
AcDbEntity
  8
AM_0 外形線1
100
AcDbLine
 10
42.00000000000005
 20
3.0
 30
0.0
 11
42.00000000000005
 21
-3.0
 31
0.0
  0
LINE
  5
59B4
330
5986
100
AcDbEntity
  8
AM_0 外形線1
100
AcDbLine
 10
41.00000000000004
 20
4.0
 30
0.0
 11
42.00000000000005
 21
3.0
 31
0.0
  0
LINE
  5
59B5
330
5986
100
AcDbEntity
  8
AM_0 外形線1
100
AcDbLine
 10
32.00000000000006
 20
7.700000000000045
 30
0.0
 11
30.00000000000006
 21
7.700000000000045
 31
0.0
  0
LINE
  5
59B6
330
5986
100
AcDbEntity
  8
AM_0 外形線1
100
AcDbLine
 10
37.92265000000003
 20
7.5
 30
0.0
 11
38.50000000000007
 21
6.5
 31
0.0
  0
LINE
  5
59B7
330
5986
100
AcDbEntity
  8
AM_0 外形線1
100
AcDbLine
 10
32.00000000000006
 20
7.5
 30
0.0
 11
37.92265000000003
 21
7.5
 31
0.0
  0
LINE
  5
59B8
330
5986
100
AcDbEntity
  8
AM_0 外形線1
100
AcDbLine
 10
32.00000000000006
 20
7.5
 30
0.0
 11
32.00000000000006
 21
7.700000000000045
 31
0.0
  0
LINE
  5
5A22
330
5986
100
AcDbEntity
  8
AM_0 外形線1
100
AcDbLine
 10
0.0
 20
7.5
 30
0.0
 11
0.0
 21
-7.5
 31
0.0
  0
LINE
  5
5A23
330
5986
100
AcDbEntity
  8
AM_0 外形線1
100
AcDbLine
 10
1.5
 20
4.5
 30
0.0
 11
24.00000000000006
 21
4.5
 31
0.0
  0
LINE
  5
5A24
330
5986
100
AcDbEntity
  8
AM_0 外形線1
100
AcDbLine
 10
1.5
 20
-4.5
 30
0.0
 11
24.00000000000006
 21
-4.5
 31
0.0
  0
LINE
  5
5A25
330
5986
100
AcDbEntity
  8
AM_0 外形線1
100
AcDbLine
 10
30.00000000000006
 20
7.700000000000045
 30
0.0
 11
30.00000000000006
 21
-7.700000000000045
 31
0.0
  0
ENDBLK
  5
5988
330
5986
100
AcDbEntity
  8
0
100
AcDbBlockEnd
  0
BLOCK
  5
619B
330
619A
100
AcDbEntity
  8
0
100
AcDbBlockBegin
  2
*D12
 70
     1
 10
0.0
 20
0.0
 30
0.0
  3
*D12
  1

  0
LINE
  5
61C9
330
619A
100
AcDbEntity
  8
AM_5 寸法線
 62
     3
100
AcDbLine
 10
333.9366483750343
 20
471.5000000000004
 30
0.0
 11
277.9366483750345
 21
471.5000000000004
 31
0.0
  0
LINE
  5
61CA
330
619A
100
AcDbEntity
  8
AM_5 寸法線
 62
     3
100
AcDbLine
 10
333.9366483750343
 20
376.5000000000005
 30
0.0
 11
277.9366483750344
 21
376.5000000000005
 31
0.0
  0
LINE
  5
61CB
330
619A
100
AcDbEntity
  8
AM_5 寸法線
 62
     3
100
AcDbLine
 10
279.1866483750344
 20
466.5000000000004
 30
0.0
 11
279.1866483750344
 21
381.5000000000005
 31
0.0
  0
INSERT
  5
61CC
330
619A
100
AcDbEntity
  8
AM_5 寸法線
 62
     3
100
AcDbBlockReference
  2
_Open30
 10
279.1866483750344
 20
471.5000000000004
 30
0.0
 41
5.0
 42
5.0
 43
5.0
 50
90.0
  0
INSERT
  5
61CD
330
619A
100
AcDbEntity
  8
AM_5 寸法線
 62
     3
100
AcDbBlockReference
  2
_Open30
 10
279.1866483750344
 20
376.5000000000005
 30
0.0
 41
5.0
 42
5.0
 43
5.0
 50
270.0
  0
MTEXT
  5
61CE
330
619A
100
AcDbEntity
  8
AM_5 寸法線
 62
     3
100
AcDbMText
 10
272.6866483750344
 20
427.2519104987487
 30
0.0
 40
7.0
 41
0.0
 46
0.0
 71
     5
 72
     1
  1
%%c95
  7
SEISA
 11
0.0000000000000001
 21
1.0
 31
0.0
 73
     1
 44
1.0
  0
POINT
  5
61CF
330
619A
100
AcDbEntity
  8
Defpoints
 62
     0
100
AcDbPoint
 10
335.1866483750344
 20
471.5000000000004
 30
0.0
  0
POINT
  5
61D0
330
619A
100
AcDbEntity
  8
Defpoints
 62
     0
100
AcDbPoint
 10
335.1866483750344
 20
376.5000000000005
 30
0.0
  0
POINT
  5
61D1
330
619A
100
AcDbEntity
  8
Defpoints
 62
     0
100
AcDbPoint
 10
279.1866483750344
 20
376.5000000000005
 30
0.0
  0
ENDBLK
  5
619C
330
619A
100
AcDbEntity
  8
0
100
AcDbBlockEnd
  0
BLOCK
  5
620D
330
620C
100
AcDbEntity
  8
0
100
AcDbBlockBegin
  2
*D13
 70
     1
 10
0.0
 20
0.0
 30
0.0
  3
*D13
  1

  0
LINE
  5
70EF
330
620C
100
AcDbEntity
  8
AM_5 寸法線
 62
     3
100
AcDbLine
 10
379.1866483750343
 20
343.2500000000004
 30
0.0
 11
379.1866483750343
 21
312.7500000000005
 31
0.0
  0
LINE
  5
70F0
330
620C
100
AcDbEntity
  8
AM_5 寸法線
 62
     3
100
AcDbLine
 10
394.1866483750343
 20
343.2500000000004
 30
0.0
 11
394.1866483750343
 21
312.7500000000005
 31
0.0
  0
LINE
  5
70F1
330
620C
100
AcDbEntity
  8
AM_5 寸法線
 62
     3
100
AcDbLine
 10
374.1866483750343
 20
314.0000000000005
 30
0.0
 11
369.1866483750343
 21
314.0000000000005
 31
0.0
  0
LINE
  5
70F2
330
620C
100
AcDbEntity
  8
AM_5 寸法線
 62
     3
100
AcDbLine
 10
399.1866483750343
 20
314.0000000000005
 30
0.0
 11
404.1866483750343
 21
314.0000000000005
 31
0.0
  0
LINE
  5
70F3
330
620C
100
AcDbEntity
  8
AM_5 寸法線
 62
     3
100
AcDbLine
 10
379.1866483750343
 20
314.0000000000005
 30
0.0
 11
394.1866483750343
 21
314.0000000000005
 31
0.0
  0
INSERT
  5
70F4
330
620C
100
AcDbEntity
  8
AM_5 寸法線
 62
     3
100
AcDbBlockReference
  2
_Open30
 10
379.1866483750343
 20
314.0000000000005
 30
0.0
 41
5.0
 42
5.0
 43
5.0
  0
INSERT
  5
70F5
330
620C
100
AcDbEntity
  8
AM_5 寸法線
 62
     3
100
AcDbBlockReference
  2
GENDOT
 10
394.1866483750343
 20
314.0000000000005
 30
0.0
 41
5.0
 42
5.0
 43
5.0
 50
180.0
  0
MTEXT
  5
70F6
330
620C
100
AcDbEntity
  8
AM_5 寸法線
 62
     3
100
AcDbMText
 10
386.6866483750343
 20
320.5000000000004
 30
0.0
 40
7.0
 41
0.0
 46
0.0
 71
     5
 72
     1
  1
15
  7
SEISA
 73
     1
 44
1.0
  0
POINT
  5
70F7
330
620C
100
AcDbEntity
  8
Defpoints
 62
     0
100
AcDbPoint
 10
379.1866483750343
 20
344.5000000000005
 30
0.0
  0
POINT
  5
70F8
330
620C
100
AcDbEntity
  8
Defpoints
 62
     0
100
AcDbPoint
 10
394.1866483750343
 20
344.5000000000005
 30
0.0
  0
POINT
  5
70F9
330
620C
100
AcDbEntity
  8
Defpoints
 62
     0
100
AcDbPoint
 10
394.1866483750343
 20
314.0000000000005
 30
0.0
  0
ENDBLK
  5
620E
330
620C
100
AcDbEntity
  8
0
100
AcDbBlockEnd
  0
BLOCK
  5
6229
330
6228
100
AcDbEntity
  8
0
100
AcDbBlockBegin
  2
*D14
 70
     1
 10
0.0
 20
0.0
 30
0.0
  3
*D14
  1

  0
LINE
  5
7103
330
6228
100
AcDbEntity
  8
AM_5 寸法線
 62
     3
100
AcDbLine
 10
394.1866483750343
 20
343.2500000000004
 30
0.0
 11
394.1866483750343
 21
312.7500000000005
 31
0.0
  0
LINE
  5
7104
330
6228
100
AcDbEntity
  8
AM_5 寸法線
 62
     3
100
AcDbLine
 10
409.1866483750344
 20
343.2500000000004
 30
0.0
 11
409.1866483750344
 21
312.7500000000005
 31
0.0
  0
LINE
  5
7105
330
6228
100
AcDbEntity
  8
AM_5 寸法線
 62
     3
100
AcDbLine
 10
389.1866483750344
 20
314.0000000000005
 30
0.0
 11
384.1866483750343
 21
314.0000000000005
 31
0.0
  0
LINE
  5
7106
330
6228
100
AcDbEntity
  8
AM_5 寸法線
 62
     3
100
AcDbLine
 10
414.1866483750344
 20
314.0000000000005
 30
0.0
 11
419.1866483750343
 21
314.0000000000005
 31
0.0
  0
LINE
  5
7107
330
6228
100
AcDbEntity
  8
AM_5 寸法線
 62
     3
100
AcDbLine
 10
394.1866483750343
 20
314.0000000000005
 30
0.0
 11
409.1866483750344
 21
314.0000000000005
 31
0.0
  0
INSERT
  5
7108
330
6228
100
AcDbEntity
  8
AM_5 寸法線
 62
     3
100
AcDbBlockReference
  2
GENDOT
 10
394.1866483750343
 20
314.0000000000005
 30
0.0
 41
5.0
 42
5.0
 43
5.0
  0
INSERT
  5
7109
330
6228
100
AcDbEntity
  8
AM_5 寸法線
 62
     3
100
AcDbBlockReference
  2
_Open30
 10
409.1866483750344
 20
314.0000000000005
 30
0.0
 41
5.0
 42
5.0
 43
5.0
 50
180.0
  0
MTEXT
  5
710A
330
6228
100
AcDbEntity
  8
AM_5 寸法線
 62
     3
100
AcDbMText
 10
401.6866483750343
 20
320.5000000000004
 30
0.0
 40
7.0
 41
0.0
 46
0.0
 71
     5
 72
     1
  1
15
  7
SEISA
 73
     1
 44
1.0
  0
POINT
  5
710B
330
6228
100
AcDbEntity
  8
Defpoints
 62
     0
100
AcDbPoint
 10
394.1866483750343
 20
344.5000000000005
 30
0.0
  0
POINT
  5
710C
330
6228
100
AcDbEntity
  8
Defpoints
 62
     0
100
AcDbPoint
 10
409.1866483750344
 20
344.5000000000005
 30
0.0
  0
POINT
  5
710D
330
6228
100
AcDbEntity
  8
Defpoints
 62
     0
100
AcDbPoint
 10
409.1866483750344
 20
314.0000000000005
 30
0.0
  0
ENDBLK
  5
622A
330
6228
100
AcDbEntity
  8
0
100
AcDbBlockEnd
  0
BLOCK
  5
6382
330
6381
100
AcDbEntity
  8
0
100
AcDbBlockBegin
  2
*D15
 70
     1
 10
0.0
 20
0.0
 30
0.0
  3
*D15
  1

  0
LINE
  5
7966
330
6381
100
AcDbEntity
  8
AM_5 寸法線
 62
     3
100
AcDbLine
 10
342.1866483750343
 20
365.7500000000005
 30
0.0
 11
342.1866483750343
 21
292.7500000000005
 31
0.0
  0
LINE
  5
7967
330
6381
100
AcDbEntity
  8
AM_5 寸法線
 62
     3
100
AcDbLine
 10
446.1866483750344
 20
365.7500000000005
 30
0.0
 11
446.1866483750344
 21
292.7500000000005
 31
0.0
  0
LINE
  5
7968
330
6381
100
AcDbEntity
  8
AM_5 寸法線
 62
     3
100
AcDbLine
 10
347.1866483750343
 20
294.0000000000004
 30
0.0
 11
441.1866483750343
 21
294.0000000000004
 31
0.0
  0
INSERT
  5
7969
330
6381
100
AcDbEntity
  8
AM_5 寸法線
 62
     3
100
AcDbBlockReference
  2
_Open30
 10
342.1866483750343
 20
294.0000000000004
 30
0.0
 41
5.0
 42
5.0
 43
5.0
 50
180.0
  0
INSERT
  5
796A
330
6381
100
AcDbEntity
  8
AM_5 寸法線
 62
     3
100
AcDbBlockReference
  2
_Open30
 10
446.1866483750344
 20
294.0000000000004
 30
0.0
 41
5.0
 42
5.0
 43
5.0
  0
MTEXT
  5
796B
330
6381
100
AcDbEntity
  8
AM_5 寸法線
 62
     3
100
AcDbMText
 10
394.1866483750343
 20
300.5000000000005
 30
0.0
 40
7.0
 41
0.0
 46
0.0
 71
     5
 72
     1
  1
104
  7
SEISA
 73
     1
 44
1.0
  0
POINT
  5
796C
330
6381
100
AcDbEntity
  8
Defpoints
 62
     0
100
AcDbPoint
 10
342.1866483750343
 20
367.0000000000005
 30
0.0
  0
POINT
  5
796D
330
6381
100
AcDbEntity
  8
Defpoints
 62
     0
100
AcDbPoint
 10
446.1866483750344
 20
367.0000000000005
 30
0.0
  0
POINT
  5
796E
330
6381
100
AcDbEntity
  8
Defpoints
 62
     0
100
AcDbPoint
 10
446.1866483750344
 20
294.0000000000004
 30
0.0
  0
ENDBLK
  5
6383
330
6381
100
AcDbEntity
  8
0
100
AcDbBlockEnd
  0
BLOCK
  5
646A
330
6469
100
AcDbEntity
  8
0
100
AcDbBlockBegin
  2
*D16
 70
     1
 10
0.0
 20
0.0
 30
0.0
  3
*D16
  1

  0
LINE
  5
6476
330
6469
100
AcDbEntity
  8
AM_5 寸法線
 62
     3
100
AcDbLine
 10
309.1866483750343
 20
425.2500000000003
 30
0.0
 11
309.1866483750343
 21
435.2353767934117
 31
0.0
  0
LINE
  5
6477
330
6469
100
AcDbEntity
  8
AM_5 寸法線
 62
     3
100
AcDbLine
 10
389.1866483750344
 20
425.2500000000003
 30
0.0
 11
389.1866483750344
 21
435.2353767934117
 31
0.0
  0
LINE
  5
6478
330
6469
100
AcDbEntity
  8
AM_5 寸法線
 62
     3
100
AcDbLine
 10
314.1866483750344
 20
433.9853767934117
 30
0.0
 11
384.1866483750343
 21
433.9853767934117
 31
0.0
  0
INSERT
  5
6479
330
6469
100
AcDbEntity
  8
AM_5 寸法線
 62
     3
100
AcDbBlockReference
  2
_Open30
 10
309.1866483750343
 20
433.9853767934117
 30
0.0
 41
5.0
 42
5.0
 43
5.0
 50
180.0
  0
INSERT
  5
647A
330
6469
100
AcDbEntity
  8
AM_5 寸法線
 62
     3
100
AcDbBlockReference
  2
_Open30
 10
389.1866483750344
 20
433.9853767934117
 30
0.0
 41
5.0
 42
5.0
 43
5.0
  0
MTEXT
  5
647B
330
6469
100
AcDbEntity
  8
AM_5 寸法線
 62
     3
100
AcDbMText
 10
349.1866483750343
 20
440.4853767934119
 30
0.0
 40
7.0
 41
0.0
 46
0.0
 71
     5
 72
     1
  1
80
  7
SEISA
 73
     1
 44
1.0
  0
POINT
  5
647C
330
6469
100
AcDbEntity
  8
Defpoints
 62
     0
100
AcDbPoint
 10
309.1866483750343
 20
424.0000000000003
 30
0.0
  0
POINT
  5
647D
330
6469
100
AcDbEntity
  8
Defpoints
 62
     0
100
AcDbPoint
 10
389.1866483750344
 20
424.0000000000003
 30
0.0
  0
POINT
  5
647E
330
6469
100
AcDbEntity
  8
Defpoints
 62
     0
100
AcDbPoint
 10
389.1866483750344
 20
433.9853767934117
 30
0.0
  0
ENDBLK
  5
646B
330
6469
100
AcDbEntity
  8
0
100
AcDbBlockEnd
  0
BLOCK
  5
6482
330
6481
100
AcDbEntity
  8
0
100
AcDbBlockBegin
  2
*D17
 70
     1
 10
0.0
 20
0.0
 30
0.0
  3
*D17
  1

  0
LINE
  5
64B2
330
6481
100
AcDbEntity
  8
AM_5 寸法線
 62
     3
100
AcDbLine
 10
389.1866483750344
 20
425.2500000000003
 30
0.0
 11
389.1866483750344
 21
435.2353767934117
 31
0.0
  0
LINE
  5
64B3
330
6481
100
AcDbEntity
  8
AM_5 寸法線
 62
     3
100
AcDbLine
 10
399.1866483750344
 20
425.2500000000003
 30
0.0
 11
399.1866483750344
 21
435.2353767934117
 31
0.0
  0
LINE
  5
64B4
330
6481
100
AcDbEntity
  8
AM_5 寸法線
 62
     3
100
AcDbLine
 10
384.1866483750343
 20
433.9853767934117
 30
0.0
 11
379.1866483750343
 21
433.9853767934117
 31
0.0
  0
LINE
  5
64B5
330
6481
100
AcDbEntity
  8
AM_5 寸法線
 62
     3
100
AcDbLine
 10
404.1866483750344
 20
433.9853767934117
 30
0.0
 11
409.1866483750344
 21
433.9853767934117
 31
0.0
  0
MTEXT
  5
64B6
330
6481
100
AcDbEntity
  8
AM_5 寸法線
 62
     3
100
AcDbMText
 10
408.0270318889029
 20
439.5643734851297
 30
0.0
 40
7.0
 41
0.0
 46
0.0
 71
     5
 72
     1
  1
10
  7
SEISA
 73
     1
 44
1.0
  0
LINE
  5
64B7
330
6481
100
AcDbEntity
  8
AM_5 寸法線
 62
     3
100
AcDbLine
 10
389.1866483750344
 20
433.9853767934117
 30
0.0
 11
399.1866483750344
 21
433.9853767934117
 31
0.0
  0
INSERT
  5
64B8
330
6481
100
AcDbEntity
  8
AM_5 寸法線
 62
     3
100
AcDbBlockReference
  2
_Open30
 10
389.1866483750344
 20
433.9853767934117
 30
0.0
 41
5.0
 42
5.0
 43
5.0
  0
INSERT
  5
64B9
330
6481
100
AcDbEntity
  8
AM_5 寸法線
 62
     3
100
AcDbBlockReference
  2
_Open30
 10
399.1866483750344
 20
433.9853767934117
 30
0.0
 41
5.0
 42
5.0
 43
5.0
 50
180.0
  0
POINT
  5
64BA
330
6481
100
AcDbEntity
  8
Defpoints
 62
     0
100
AcDbPoint
 10
389.1866483750344
 20
424.0000000000003
 30
0.0
  0
POINT
  5
64BB
330
6481
100
AcDbEntity
  8
Defpoints
 62
     0
100
AcDbPoint
 10
399.1866483750344
 20
424.0000000000003
 30
0.0
  0
POINT
  5
64BC
330
6481
100
AcDbEntity
  8
Defpoints
 62
     0
100
AcDbPoint
 10
399.1866483750344
 20
433.9853767934117
 30
0.0
  0
ENDBLK
  5
6483
330
6481
100
AcDbEntity
  8
0
100
AcDbBlockEnd
  0
BLOCK
  5
64BF
330
64BE
100
AcDbEntity
  8
0
100
AcDbBlockBegin
  2
*D18
 70
     1
 10
0.0
 20
0.0
 30
0.0
  3
*D18
  1

  0
LINE
  5
64CB
330
64BE
100
AcDbEntity
  8
AM_5 寸法線
 62
     3
100
AcDbLine
 10
399.1866483750344
 20
425.2500000000003
 30
0.0
 11
399.1866483750344
 21
435.2353767934117
 31
0.0
  0
LINE
  5
64CC
330
64BE
100
AcDbEntity
  8
AM_5 寸法線
 62
     3
100
AcDbLine
 10
479.1866483750344
 20
425.2500000000003
 30
0.0
 11
479.1866483750344
 21
435.2353767934117
 31
0.0
  0
LINE
  5
64CD
330
64BE
100
AcDbEntity
  8
AM_5 寸法線
 62
     3
100
AcDbLine
 10
404.1866483750344
 20
433.9853767934117
 30
0.0
 11
474.1866483750343
 21
433.9853767934117
 31
0.0
  0
INSERT
  5
64CE
330
64BE
100
AcDbEntity
  8
AM_5 寸法線
 62
     3
100
AcDbBlockReference
  2
_Open30
 10
399.1866483750344
 20
433.9853767934117
 30
0.0
 41
5.0
 42
5.0
 43
5.0
 50
180.0
  0
INSERT
  5
64CF
330
64BE
100
AcDbEntity
  8
AM_5 寸法線
 62
     3
100
AcDbBlockReference
  2
_Open30
 10
479.1866483750344
 20
433.9853767934117
 30
0.0
 41
5.0
 42
5.0
 43
5.0
  0
MTEXT
  5
64D0
330
64BE
100
AcDbEntity
  8
AM_5 寸法線
 62
     3
100
AcDbMText
 10
439.1866483750344
 20
440.4853767934119
 30
0.0
 40
7.0
 41
0.0
 46
0.0
 71
     5
 72
     1
  1
80
  7
SEISA
 73
     1
 44
1.0
  0
POINT
  5
64D1
330
64BE
100
AcDbEntity
  8
Defpoints
 62
     0
100
AcDbPoint
 10
399.1866483750344
 20
424.0000000000003
 30
0.0
  0
POINT
  5
64D2
330
64BE
100
AcDbEntity
  8
Defpoints
 62
     0
100
AcDbPoint
 10
479.1866483750344
 20
424.0000000000003
 30
0.0
  0
POINT
  5
64D3
330
64BE
100
AcDbEntity
  8
Defpoints
 62
     0
100
AcDbPoint
 10
479.1866483750344
 20
433.9853767934117
 30
0.0
  0
ENDBLK
  5
64C0
330
64BE
100
AcDbEntity
  8
0
100
AcDbBlockEnd
  0
BLOCK
  5
6586
330
6585
100
AcDbEntity
  8
0
100
AcDbBlockBegin
  2
*D19
 70
     1
 10
0.0
 20
0.0
 30
0.0
  3
*D19
  1

  0
LINE
  5
65AB
330
6585
100
AcDbEntity
  8
AM_5 寸法線
 62
     3
100
AcDbLine
 10
354.1866483750343
 20
470.2500000000005
 30
0.0
 11
354.1866483750343
 21
455.7871241690827
 31
0.0
  0
LINE
  5
65AC
330
6585
100
AcDbEntity
  8
AM_5 寸法線
 62
     3
100
AcDbLine
 10
357.1866483750343
 20
470.7500000000004
 30
0.0
 11
357.1866483750343
 21
455.7871241690827
 31
0.0
  0
LINE
  5
65AD
330
6585
100
AcDbEntity
  8
AM_5 寸法線
 62
     3
100
AcDbLine
 10
362.1866483750344
 20
457.0371241690827
 30
0.0
 11
367.1866483750343
 21
457.0371241690827
 31
0.0
  0
LINE
  5
65AE
330
6585
100
AcDbEntity
  8
AM_5 寸法線
 62
     3
100
AcDbLine
 10
349.1866483750343
 20
457.0371241690827
 30
0.0
 11
333.9866483750344
 21
457.0371241690827
 31
0.0
  0
LINE
  5
65AF
330
6585
100
AcDbEntity
  8
AM_5 寸法線
 62
     3
100
AcDbLine
 10
357.1866483750343
 20
457.0371241690827
 30
0.0
 11
354.1866483750343
 21
457.0371241690827
 31
0.0
  0
INSERT
  5
65B0
330
6585
100
AcDbEntity
  8
AM_5 寸法線
 62
     3
100
AcDbBlockReference
  2
_Open30
 10
357.1866483750343
 20
457.0371241690827
 30
0.0
 41
5.0
 42
5.0
 43
5.0
 50
180.0
  0
INSERT
  5
65B1
330
6585
100
AcDbEntity
  8
AM_5 寸法線
 62
     3
100
AcDbBlockReference
  2
_Open30
 10
354.1866483750343
 20
457.0371241690827
 30
0.0
 41
5.0
 42
5.0
 43
5.0
  0
MTEXT
  5
65B2
330
6585
100
AcDbEntity
  8
AM_5 寸法線
 62
     3
100
AcDbMText
 10
339.0866483750343
 20
463.5371241690827
 30
0.0
 40
7.0
 41
0.0
 46
0.0
 71
     5
 72
     1
  1
3
  7
SEISA
 73
     1
 44
1.0
  0
POINT
  5
65B3
330
6585
100
AcDbEntity
  8
Defpoints
 62
     0
100
AcDbPoint
 10
354.1866483750343
 20
471.5000000000004
 30
0.0
  0
POINT
  5
65B4
102
{ACAD_REACTORS
330
79E1
102
}
330
6585
100
AcDbEntity
  8
Defpoints
 62
     0
100
AcDbPoint
 10
357.1866483750343
 20
472.0000000000005
 30
0.0
  0
POINT
  5
65B5
330
6585
100
AcDbEntity
  8
Defpoints
 62
     0
100
AcDbPoint
 10
357.1866483750343
 20
457.0371241690827
 30
0.0
  0
ENDBLK
  5
6587
330
6585
100
AcDbEntity
  8
0
100
AcDbBlockEnd
  0
BLOCK
  5
6607
330
6606
100
AcDbEntity
  8
0
100
AcDbBlockBegin
  2
*D20
 70
     1
 10
0.0
 20
0.0
 30
0.0
  3
*D20
  1

  0
LINE
  5
6656
330
6606
100
AcDbEntity
  8
AM_5 寸法線
 62
     3
100
AcDbLine
 10
454.4366483750343
 20
471.5000000000004
 30
0.0
 11
510.4366483750344
 21
471.5000000000004
 31
0.0
  0
LINE
  5
6657
330
6606
100
AcDbEntity
  8
AM_5 寸法線
 62
     3
100
AcDbLine
 10
454.4366483750343
 20
376.5000000000005
 30
0.0
 11
510.4366483750344
 21
376.5000000000005
 31
0.0
  0
LINE
  5
6658
330
6606
100
AcDbEntity
  8
AM_5 寸法線
 62
     3
100
AcDbLine
 10
509.1866483750344
 20
466.5000000000004
 30
0.0
 11
509.1866483750344
 21
381.5000000000005
 31
0.0
  0
INSERT
  5
6659
330
6606
100
AcDbEntity
  8
AM_5 寸法線
 62
     3
100
AcDbBlockReference
  2
_Open30
 10
509.1866483750344
 20
471.5000000000004
 30
0.0
 41
5.0
 42
5.0
 43
5.0
 50
90.0
  0
INSERT
  5
665A
330
6606
100
AcDbEntity
  8
AM_5 寸法線
 62
     3
100
AcDbBlockReference
  2
_Open30
 10
509.1866483750344
 20
376.5000000000005
 30
0.0
 41
5.0
 42
5.0
 43
5.0
 50
270.0
  0
MTEXT
  5
665B
330
6606
100
AcDbEntity
  8
AM_5 寸法線
 62
     3
100
AcDbMText
 10
502.6866483750343
 20
424.0000000000005
 30
0.0
 40
7.0
 41
0.0
 46
0.0
 71
     5
 72
     1
  1
%%c95
  7
SEISA
 11
0.0000000000000001
 21
1.0
 31
0.0
 73
     1
 44
1.0
  0
POINT
  5
665C
330
6606
100
AcDbEntity
  8
Defpoints
 62
     0
100
AcDbPoint
 10
453.1866483750343
 20
471.5000000000004
 30
0.0
  0
POINT
  5
665D
330
6606
100
AcDbEntity
  8
Defpoints
 62
     0
100
AcDbPoint
 10
453.1866483750343
 20
376.5000000000005
 30
0.0
  0
POINT
  5
665E
330
6606
100
AcDbEntity
  8
Defpoints
 62
     0
100
AcDbPoint
 10
509.1866483750344
 20
376.5000000000005
 30
0.0
  0
ENDBLK
  5
6608
330
6606
100
AcDbEntity
  8
0
100
AcDbBlockEnd
  0
BLOCK
  5
661F
330
661E
100
AcDbEntity
  8
0
100
AcDbBlockBegin
  2
*D21
 70
     1
 10
0.0
 20
0.0
 30
0.0
  3
*D21
  1

  0
LINE
  5
6668
330
661E
100
AcDbEntity
  8
AM_5 寸法線
 62
     3
100
AcDbLine
 10
444.4366483750344
 20
484.0000000000004
 30
0.0
 11
530.4366483750344
 21
484.0000000000004
 31
0.0
  0
LINE
  5
6669
330
661E
100
AcDbEntity
  8
AM_5 寸法線
 62
     3
100
AcDbLine
 10
444.4366483750344
 20
364.0000000000005
 30
0.0
 11
530.4366483750344
 21
364.0000000000005
 31
0.0
  0
LINE
  5
666A
330
661E
100
AcDbEntity
  8
AM_5 寸法線
 62
     3
100
AcDbLine
 10
529.1866483750344
 20
479.0000000000004
 30
0.0
 11
529.1866483750344
 21
369.0000000000005
 31
0.0
  0
INSERT
  5
666B
330
661E
100
AcDbEntity
  8
AM_5 寸法線
 62
     3
100
AcDbBlockReference
  2
_Open30
 10
529.1866483750344
 20
484.0000000000004
 30
0.0
 41
5.0
 42
5.0
 43
5.0
 50
90.0
  0
INSERT
  5
666C
330
661E
100
AcDbEntity
  8
AM_5 寸法線
 62
     3
100
AcDbBlockReference
  2
_Open30
 10
529.1866483750344
 20
364.0000000000005
 30
0.0
 41
5.0
 42
5.0
 43
5.0
 50
270.0
  0
MTEXT
  5
666D
330
661E
100
AcDbEntity
  8
AM_5 寸法線
 62
     3
100
AcDbMText
 10
522.6866483750343
 20
424.0000000000005
 30
0.0
 40
7.0
 41
0.0
 46
0.0
 71
     5
 72
     1
  1
%%c120
  7
SEISA
 11
0.0000000000000001
 21
1.0
 31
0.0
 73
     1
 44
1.0
  0
POINT
  5
666E
330
661E
100
AcDbEntity
  8
Defpoints
 62
     0
100
AcDbPoint
 10
443.1866483750344
 20
484.0000000000004
 30
0.0
  0
POINT
  5
666F
330
661E
100
AcDbEntity
  8
Defpoints
 62
     0
100
AcDbPoint
 10
443.1866483750344
 20
364.0000000000005
 30
0.0
  0
POINT
  5
6670
330
661E
100
AcDbEntity
  8
Defpoints
 62
     0
100
AcDbPoint
 10
529.1866483750344
 20
364.0000000000005
 30
0.0
  0
ENDBLK
  5
6620
330
661E
100
AcDbEntity
  8
0
100
AcDbBlockEnd
  0
BLOCK
  5
6637
330
6636
100
AcDbEntity
  8
0
100
AcDbBlockBegin
  2
*D22
 70
     1
 10
0.0
 20
0.0
 30
0.0
  3
*D22
  1

  0
LINE
  5
667A
330
6636
100
AcDbEntity
  8
AM_5 寸法線
 62
     3
100
AcDbLine
 10
409.9366483750343
 20
504.0000000000004
 30
0.0
 11
550.4366483750344
 21
504.0000000000004
 31
0.0
  0
LINE
  5
667B
330
6636
100
AcDbEntity
  8
AM_5 寸法線
 62
     3
100
AcDbLine
 10
409.9366483750343
 20
344.0000000000005
 30
0.0
 11
550.4366483750344
 21
344.0000000000005
 31
0.0
  0
LINE
  5
667C
330
6636
100
AcDbEntity
  8
AM_5 寸法線
 62
     3
100
AcDbLine
 10
549.1866483750344
 20
499.0000000000003
 30
0.0
 11
549.1866483750344
 21
349.0000000000005
 31
0.0
  0
INSERT
  5
667D
330
6636
100
AcDbEntity
  8
AM_5 寸法線
 62
     3
100
AcDbBlockReference
  2
_Open30
 10
549.1866483750344
 20
504.0000000000004
 30
0.0
 41
5.0
 42
5.0
 43
5.0
 50
90.0
  0
INSERT
  5
667E
330
6636
100
AcDbEntity
  8
AM_5 寸法線
 62
     3
100
AcDbBlockReference
  2
_Open30
 10
549.1866483750344
 20
344.0000000000005
 30
0.0
 41
5.0
 42
5.0
 43
5.0
 50
270.0
  0
MTEXT
  5
667F
330
6636
100
AcDbEntity
  8
AM_5 寸法線
 62
     3
100
AcDbMText
 10
542.6866483750344
 20
424.0000000000005
 30
0.0
 40
7.0
 41
0.0
 46
0.0
 71
     5
 72
     1
  1
%%c160
  7
SEISA
 11
0.0000000000000001
 21
1.0
 31
0.0
 73
     1
 44
1.0
  0
POINT
  5
6680
330
6636
100
AcDbEntity
  8
Defpoints
 62
     0
100
AcDbPoint
 10
408.6866483750344
 20
504.0000000000004
 30
0.0
  0
POINT
  5
6681
330
6636
100
AcDbEntity
  8
Defpoints
 62
     0
100
AcDbPoint
 10
408.6866483750344
 20
344.0000000000005
 30
0.0
  0
POINT
  5
6682
330
6636
100
AcDbEntity
  8
Defpoints
 62
     0
100
AcDbPoint
 10
549.1866483750344
 20
344.0000000000005
 30
0.0
  0
ENDBLK
  5
6638
330
6636
100
AcDbEntity
  8
0
100
AcDbBlockEnd
  0
BLOCK
  5
6B1E
330
6B1D
100
AcDbEntity
  8
0
100
AcDbBlockBegin
  2
*D23
 70
     1
 10
0.0
 20
0.0
 30
0.0
  3
*D23
  1

  0
LINE
  5
6B2A
330
6B1D
100
AcDbEntity
  8
AM_5 寸法線
 62
     3
100
AcDbLine
 10
309.1866483750343
 20
379.3497748741339
 30
0.0
 11
309.1866483750343
 21
272.7500000000004
 31
0.0
  0
LINE
  5
6B2B
330
6B1D
100
AcDbEntity
  8
AM_5 寸法線
 62
     3
100
AcDbLine
 10
479.1866483750344
 20
379.3497748741339
 30
0.0
 11
479.1866483750344
 21
272.7500000000004
 31
0.0
  0
LINE
  5
6B2C
330
6B1D
100
AcDbEntity
  8
AM_5 寸法線
 62
     3
100
AcDbLine
 10
314.1866483750344
 20
274.0000000000005
 30
0.0
 11
474.1866483750343
 21
274.0000000000005
 31
0.0
  0
INSERT
  5
6B2D
330
6B1D
100
AcDbEntity
  8
AM_5 寸法線
 62
     3
100
AcDbBlockReference
  2
_Open30
 10
309.1866483750343
 20
274.0000000000005
 30
0.0
 41
5.0
 42
5.0
 43
5.0
 50
180.0
  0
INSERT
  5
6B2E
330
6B1D
100
AcDbEntity
  8
AM_5 寸法線
 62
     3
100
AcDbBlockReference
  2
_Open30
 10
479.1866483750344
 20
274.0000000000005
 30
0.0
 41
5.0
 42
5.0
 43
5.0
  0
MTEXT
  5
6B2F
330
6B1D
100
AcDbEntity
  8
AM_5 寸法線
 62
     3
100
AcDbMText
 10
394.1866483750343
 20
280.5000000000005
 30
0.0
 40
7.0
 41
0.0
 46
0.0
 71
     5
 72
     1
  1
170
  7
SEISA
 73
     1
 44
1.0
  0
POINT
  5
6B30
330
6B1D
100
AcDbEntity
  8
Defpoints
 62
     0
100
AcDbPoint
 10
309.1866483750343
 20
380.5997748741339
 30
0.0
  0
POINT
  5
6B31
330
6B1D
100
AcDbEntity
  8
Defpoints
 62
     0
100
AcDbPoint
 10
479.1866483750344
 20
380.5997748741339
 30
0.0
  0
POINT
  5
6B32
330
6B1D
100
AcDbEntity
  8
Defpoints
 62
     0
100
AcDbPoint
 10
479.1866483750344
 20
274.0000000000005
 30
0.0
  0
ENDBLK
  5
6B1F
330
6B1D
100
AcDbEntity
  8
0
100
AcDbBlockEnd
  0
BLOCK
  5
700F
330
700C
100
AcDbEntity
  8
0
100
AcDbBlockBegin
  2
GENDOT
 70
     0
 10
0.0
 20
0.0
 30
0.0
  3
GENDOT
  1

  0
LINE
  5
700D
330
700C
100
AcDbEntity
  8
0
100
AcDbLine
 10
0.0
 20
0.0
 30
0.0
 11
-1.0
 21
0.0
 31
0.0
  0
LWPOLYLINE
  5
700E
330
700C
100
AcDbEntity
  8
0
100
AcDbPolyline
 90
        2
 70
     1
 43
0.25
 10
-0.125
 20
0.0
 42
1.0
 10
0.125
 20
0.0
 42
1.0
  0
ENDBLK
  5
7010
330
700C
100
AcDbEntity
  8
0
100
AcDbBlockEnd
  0
BLOCK
  5
7936
330
7935
100
AcDbEntity
  8
0
100
AcDbBlockBegin
  2
*D25
 70
     1
 10
0.0
 20
0.0
 30
0.0
  3
*D25
  1

  0
LINE
  5
7CA0
330
7935
100
AcDbEntity
  8
AM_5 寸法線
 62
     3
100
AcDbLine
 10
302.1866483750343
 20
482.2500000000003
 30
0.0
 11
302.1866483750343
 21
505.2500000000003
 31
0.0
  0
LINE
  5
7CA1
330
7935
100
AcDbEntity
  8
AM_5 寸法線
 62
     3
100
AcDbLine
 10
309.1866483750343
 20
469.1500000000005
 30
0.0
 11
309.1866483750343
 21
505.2500000000003
 31
0.0
  0
LINE
  5
7CA2
330
7935
100
AcDbEntity
  8
AM_5 寸法線
 62
     3
100
AcDbLine
 10
297.1866483750343
 20
504.0000000000004
 30
0.0
 11
292.1866483750343
 21
504.0000000000004
 31
0.0
  0
LINE
  5
7CA3
330
7935
100
AcDbEntity
  8
AM_5 寸法線
 62
     3
100
AcDbLine
 10
314.1866483750344
 20
504.0000000000004
 30
0.0
 11
329.3866483750343
 21
504.0000000000004
 31
0.0
  0
LINE
  5
7CA4
330
7935
100
AcDbEntity
  8
AM_5 寸法線
 62
     3
100
AcDbLine
 10
302.1866483750343
 20
504.0000000000004
 30
0.0
 11
309.1866483750343
 21
504.0000000000004
 31
0.0
  0
INSERT
  5
7CA5
330
7935
100
AcDbEntity
  8
AM_5 寸法線
 62
     3
100
AcDbBlockReference
  2
_Open30
 10
302.1866483750343
 20
504.0000000000004
 30
0.0
 41
5.0
 42
5.0
 43
5.0
  0
INSERT
  5
7CA6
330
7935
100
AcDbEntity
  8
AM_5 寸法線
 62
     3
100
AcDbBlockReference
  2
_Open30
 10
309.1866483750343
 20
504.0000000000004
 30
0.0
 41
5.0
 42
5.0
 43
5.0
 50
180.0
  0
MTEXT
  5
7CA7
330
7935
100
AcDbEntity
  8
AM_5 寸法線
 62
     3
100
AcDbMText
 10
324.2866483750344
 20
510.5000000000003
 30
0.0
 40
7.0
 41
0.0
 46
0.0
 71
     5
 72
     1
  1
7
  7
SEISA
 73
     1
 44
1.0
  0
POINT
  5
7CA8
330
7935
100
AcDbEntity
  8
Defpoints
 62
     0
100
AcDbPoint
 10
302.1866483750343
 20
481.0000000000003
 30
0.0
  0
POINT
  5
7CA9
330
7935
100
AcDbEntity
  8
Defpoints
 62
     0
100
AcDbPoint
 10
309.1866483750343
 20
467.9000000000005
 30
0.0
  0
POINT
  5
7CAA
330
7935
100
AcDbEntity
  8
Defpoints
 62
     0
100
AcDbPoint
 10
309.1866483750343
 20
504.0000000000004
 30
0.0
  0
ENDBLK
  5
7937
330
7935
100
AcDbEntity
  8
0
100
AcDbBlockEnd
  0
BLOCK
  5
79D5
330
79D4
100
AcDbEntity
  8
0
100
AcDbBlockBegin
  2
*D26
 70
     1
 10
0.0
 20
0.0
 30
0.0
  3
*D26
  1

  0
LINE
  5
79F4
330
79D4
100
AcDbEntity
  8
AM_5 寸法線
 62
     3
100
AcDbLine
 10
357.1866483750343
 20
470.7500000000004
 30
0.0
 11
357.1866483750343
 21
455.7871241690832
 31
0.0
  0
LINE
  5
79F5
330
79D4
100
AcDbEntity
  8
AM_5 寸法線
 62
     3
100
AcDbLine
 10
375.1866483750343
 20
470.2500000000005
 30
0.0
 11
375.1866483750343
 21
455.7871241690832
 31
0.0
  0
LINE
  5
79F6
330
79D4
100
AcDbEntity
  8
AM_5 寸法線
 62
     3
100
AcDbLine
 10
362.1866483750344
 20
457.0371241690832
 30
0.0
 11
370.1866483750344
 21
457.0371241690832
 31
0.0
  0
INSERT
  5
79F7
330
79D4
100
AcDbEntity
  8
AM_5 寸法線
 62
     3
100
AcDbBlockReference
  2
_Open30
 10
357.1866483750343
 20
457.0371241690832
 30
0.0
 41
5.0
 42
5.0
 43
5.0
 50
180.0
  0
INSERT
  5
79F8
330
79D4
100
AcDbEntity
  8
AM_5 寸法線
 62
     3
100
AcDbBlockReference
  2
_Open30
 10
375.1866483750343
 20
457.0371241690832
 30
0.0
 41
5.0
 42
5.0
 43
5.0
  0
MTEXT
  5
79F9
330
79D4
100
AcDbEntity
  8
AM_5 寸法線
 62
     3
100
AcDbMText
 10
366.1866483750344
 20
463.5371241690831
 30
0.0
 40
7.0
 41
0.0
 46
0.0
 71
     5
 72
     1
  1
18
  7
SEISA
 73
     1
 44
1.0
  0
POINT
  5
79FA
330
79D4
100
AcDbEntity
  8
Defpoints
 62
     0
100
AcDbPoint
 10
357.1866483750343
 20
472.0000000000005
 30
0.0
  0
POINT
  5
79FB
102
{ACAD_REACTORS
330
7A0D
102
}
330
79D4
100
AcDbEntity
  8
Defpoints
 62
     0
100
AcDbPoint
 10
375.1866483750343
 20
471.5000000000004
 30
0.0
  0
POINT
  5
79FC
330
79D4
100
AcDbEntity
  8
Defpoints
 62
     0
100
AcDbPoint
 10
375.1866483750343
 20
457.0371241690832
 30
0.0
  0
ENDBLK
  5
79D6
330
79D4
100
AcDbEntity
  8
0
100
AcDbBlockEnd
  0
BLOCK
  5
79FF
330
79FE
100
AcDbEntity
  8
0
100
AcDbBlockBegin
  2
*D27
 70
     1
 10
0.0
 20
0.0
 30
0.0
  3
*D27
  1

  0
LINE
  5
7A3A
330
79FE
100
AcDbEntity
  8
AM_5 寸法線
 62
     3
100
AcDbLine
 10
375.1866483750343
 20
470.2500000000005
 30
0.0
 11
375.1866483750343
 21
455.7871241690828
 31
0.0
  0
LINE
  5
7A3B
330
79FE
100
AcDbEntity
  8
AM_5 寸法線
 62
     3
100
AcDbLine
 10
389.1866483750344
 20
469.2500000000004
 30
0.0
 11
389.1866483750344
 21
455.7871241690828
 31
0.0
  0
LINE
  5
7A3C
330
79FE
100
AcDbEntity
  8
AM_5 寸法線
 62
     3
100
AcDbLine
 10
370.1866483750344
 20
457.0371241690828
 30
0.0
 11
365.1866483750343
 21
457.0371241690828
 31
0.0
  0
LINE
  5
7A3D
330
79FE
100
AcDbEntity
  8
AM_5 寸法線
 62
     3
100
AcDbLine
 10
394.1866483750343
 20
457.0371241690828
 30
0.0
 11
399.1866483750343
 21
457.0371241690828
 31
0.0
  0
MTEXT
  5
7A3E
330
79FE
100
AcDbEntity
  8
AM_5 寸法線
 62
     3
100
AcDbMText
 10
381.7299735294448
 20
463.0558539713023
 30
0.0
 40
7.0
 41
0.0
 46
0.0
 71
     5
 72
     1
  1
14
  7
SEISA
 73
     1
 44
1.0
  0
LINE
  5
7A3F
330
79FE
100
AcDbEntity
  8
AM_5 寸法線
 62
     3
100
AcDbLine
 10
375.1866483750343
 20
457.0371241690828
 30
0.0
 11
389.1866483750344
 21
457.0371241690828
 31
0.0
  0
INSERT
  5
7A40
330
79FE
100
AcDbEntity
  8
AM_5 寸法線
 62
     3
100
AcDbBlockReference
  2
_Open30
 10
375.1866483750343
 20
457.0371241690828
 30
0.0
 41
5.0
 42
5.0
 43
5.0
  0
INSERT
  5
7A41
330
79FE
100
AcDbEntity
  8
AM_5 寸法線
 62
     3
100
AcDbBlockReference
  2
_Open30
 10
389.1866483750344
 20
457.0371241690828
 30
0.0
 41
5.0
 42
5.0
 43
5.0
 50
180.0
  0
POINT
  5
7A42
330
79FE
100
AcDbEntity
  8
Defpoints
 62
     0
100
AcDbPoint
 10
375.1866483750343
 20
471.5000000000004
 30
0.0
  0
POINT
  5
7A43
330
79FE
100
AcDbEntity
  8
Defpoints
 62
     0
100
AcDbPoint
 10
389.1866483750344
 20
470.5000000000004
 30
0.0
  0
POINT
  5
7A44
330
79FE
100
AcDbEntity
  8
Defpoints
 62
     0
100
AcDbPoint
 10
389.1866483750344
 20
457.0371241690828
 30
0.0
  0
ENDBLK
  5
7A00
330
79FE
100
AcDbEntity
  8
0
100
AcDbBlockEnd
  0
BLOCK
  5
7D99
330
7D98
100
AcDbEntity
  8
0
100
AcDbBlockBegin
  2
ケース
 70
     0
 10
0.0
 20
0.0
 30
0.0
  3
ケース
  1

  0
LINE
  5
7D9B
330
7D98
100
AcDbEntity
  8
AM_11 想像線
 48
0.2
100
AcDbLine
 10
0.0
 20
-9.599999999999909
 30
0.0
 11
-2.32509393630471
 21
-9.599999999999909
 31
0.0
  0
LINE
  5
7D9C
330
7D98
100
AcDbEntity
  8
AM_11 想像線
 48
0.2
100
AcDbLine
 10
0.0
 20
0.0
 30
0.0
 11
-16.32509393630471
 21
0.0
 31
0.0
  0
LINE
  5
7D9D
330
7D98
100
AcDbEntity
  8
AM_11 想像線
 48
0.2
100
AcDbLine
 10
0.0
 20
-6.0
 30
0.0
 11
-3.32509393630471
 21
-6.0
 31
0.0
  0
LINE
  5
7D9E
330
7D98
100
AcDbEntity
  8
AM_11 想像線
 48
0.2
100
AcDbLine
 10
0.0
 20
-8.0
 30
0.0
 11
-5.32509393630471
 21
-8.0
 31
0.0
  0
LINE
  5
7D9F
330
7D98
100
AcDbEntity
  8
AM_11 想像線
 48
0.2
100
AcDbLine
 10
-3.32509393630471
 20
-6.938724000000092
 30
0.0
 11
-3.32509393630471
 21
-6.5
 31
0.0
  0
LINE
  5
7DA0
330
7D98
100
AcDbEntity
  8
AM_11 想像線
 48
0.1
100
AcDbLine
 10
-7.32509393630471
 20
-11.5
 30
0.0
 11
-7.32509393630471
 21
-6.5
 31
0.0
  0
LINE
  5
7DA1
330
7D98
100
AcDbEntity
  8
AM_11 想像線
 48
0.15
100
AcDbLine
 10
-19.32509393630471
 20
-3.0
 30
0.0
 11
-19.32509393630471
 21
-11.5
 31
0.0
  0
LINE
  5
7DA2
330
7D98
100
AcDbEntity
  8
AM_11 想像線
 48
0.1
100
AcDbLine
 10
-9.525093936304756
 20
-11.5
 30
0.0
 11
-7.32509393630471
 21
-11.5
 31
0.0
  0
ARC
  5
7DA3
330
7D98
100
AcDbEntity
  8
AM_11 想像線
 48
0.2
100
AcDbCircle
 10
-16.62509393630466
 20
-8.299999999999952
 30
0.0
 40
0.5
100
AcDbArc
 50
90.0
 51
180.0
  0
LINE
  5
7DA4
330
7D98
100
AcDbEntity
  8
AM_11 想像線
 48
0.2
100
AcDbLine
 10
-17.12509393630466
 20
-11.5
 30
0.0
 11
-17.12509393630466
 21
-8.299999999999952
 31
0.0
  0
LINE
  5
7DA5
330
7D98
100
AcDbEntity
  8
AM_11 想像線
 48
0.2
100
AcDbLine
 10
-19.32509393630471
 20
-11.5
 30
0.0
 11
-17.12509393630466
 21
-11.5
 31
0.0
  0
LINE
  5
7DA6
330
7D98
100
AcDbEntity
  8
AM_11 想像線
 48
0.2
100
AcDbLine
 10
-17.12509393630466
 20
-11.5
 30
0.0
 11
-17.12509393630466
 21
-12.5
 31
0.0
  0
LINE
  5
7DA7
330
7D98
100
AcDbEntity
  8
AM_11 想像線
 48
0.2
100
AcDbLine
 10
-19.32509393630471
 20
-11.5
 30
0.0
 11
-19.32509393630471
 21
-12.5
 31
0.0
  0
LINE
  5
7DA8
330
7D98
100
AcDbEntity
  8
AM_11 想像線
 48
0.1
100
AcDbLine
 10
-9.525093936304756
 20
-8.299999999999952
 30
0.0
 11
-9.525093936304756
 21
-11.5
 31
0.0
  0
ARC
  5
7DA9
330
7D98
100
AcDbEntity
  8
AM_11 想像線
 48
0.2
100
AcDbCircle
 10
-10.02509393630475
 20
-8.299999999999952
 30
0.0
 40
0.5
100
AcDbArc
 50
0.0
 51
90.0
  0
LINE
  5
7DAA
330
7D98
100
AcDbEntity
  8
AM_11 想像線
 48
0.2
100
AcDbLine
 10
-16.62509393630466
 20
-7.799999999999953
 30
0.0
 11
-10.02509393630475
 21
-7.799999999999953
 31
0.0
  0
LINE
  5
7DAB
330
7D98
100
AcDbEntity
  8
AM_11 想像線
 48
0.1
100
AcDbLine
 10
-9.525093936304756
 20
-11.5
 30
0.0
 11
-9.525093936304756
 21
-12.5
 31
0.0
  0
LINE
  5
7DAC
330
7D98
100
AcDbEntity
  8
AM_11 想像線
 48
0.2
100
AcDbLine
 10
-3.32509393630471
 20
-6.938724000000092
 30
0.0
 11
-3.32509393630471
 21
-8.599999999999909
 31
0.0
  0
LINE
  5
7DAD
330
7D98
100
AcDbEntity
  8
AM_11 想像線
 48
0.2
100
AcDbLine
 10
-3.32509393630471
 20
-8.599999999999909
 30
0.0
 11
-2.32509393630471
 21
-9.599999999999909
 31
0.0
  0
LINE
  5
7DAE
330
7D98
100
AcDbEntity
  8
AM_11 想像線
 48
0.1
100
AcDbLine
 10
-7.32509393630471
 20
-11.5
 30
0.0
 11
-7.32509393630471
 21
-12.5
 31
0.0
  0
ARC
  5
7DAF
330
7D98
100
AcDbEntity
  8
AM_11 想像線
 48
0.2
100
AcDbCircle
 10
-16.32509393630471
 20
-3.0
 30
0.0
 40
3.0
100
AcDbArc
 50
90.0
 51
180.0
  0
ARC
  5
7DB0
330
7D98
100
AcDbEntity
  8
AM_11 想像線
 48
0.2
100
AcDbCircle
 10
-4.32509393630471
 20
-6.5
 30
0.0
 40
1.0
100
AcDbArc
 50
0.0
 51
90.0
  0
LINE
  5
7DB1
330
7D98
100
AcDbEntity
  8
AM_11 想像線
 48
0.2
100
AcDbLine
 10
-6.32509393630471
 20
-5.5
 30
0.0
 11
-4.32509393630471
 21
-5.5
 31
0.0
  0
ARC
  5
7DB2
330
7D98
100
AcDbEntity
  8
AM_11 想像線
 48
0.2
100
AcDbCircle
 10
-6.32509393630471
 20
-6.5
 30
0.0
 40
1.0
100
AcDbArc
 50
90.0
 51
180.0
  0
ENDBLK
  5
7D9A
330
7D98
100
AcDbEntity
  8
0
100
AcDbBlockEnd
  0
ENDSEC
  0
SECTION
  2
ENTITIES
  0
LINE
  5
3F3D
330
1F
100
AcDbEntity
  8
AM_7 中心線
100
AcDbLine
 10
306.1866483750343
 20
424.0000000000003
 30
0.0
 11
482.1866483750343
 21
424.0000000000003
 31
0.0
  0
LINE
  5
3F40
330
1F
100
AcDbEntity
  8
AM_0 外形線1
100
AcDbLine
 10
394.1866483750343
 20
424.0000000000003
 30
0.0
 11
394.1866483750343
 21
344.5000000000005
 31
0.0
  0
LINE
  5
3F74
330
1F
100
AcDbEntity
  8
AM_0 外形線1
100
AcDbLine
 10
403.1866483750343
 20
491.0000000000003
 30
0.0
 11
380.6866483750344
 21
491.0000000000003
 31
0.0
  0
LINE
  5
3F75
330
1F
100
AcDbEntity
  8
AM_0 外形線1
100
AcDbLine
 10
380.6866483750344
 20
500.0000000000004
 30
0.0
 11
403.1866483750343
 21
500.0000000000004
 31
0.0
  0
LINE
  5
3F7B
330
1F
100
AcDbEntity
  8
AM_0 外形線1
100
AcDbLine
 10
379.1866483750343
 20
488.0000000000004
 30
0.0
 11
379.1866483750343
 21
503.0000000000003
 31
0.0
  0
LINE
  5
3F7E
330
1F
100
AcDbEntity
  8
AM_0 外形線1
100
AcDbLine
 10
394.1866483750343
 20
500.0000000000004
 30
0.0
 11
394.1866483750343
 21
503.5000000000003
 31
0.0
  0
LINE
  5
3FDA
330
1F
100
AcDbEntity
  8
AM_0 外形線1
100
AcDbLine
 10
409.1866483750344
 20
503.5000000000003
 30
0.0
 11
409.1866483750344
 21
500.0000000000004
 31
0.0
  0
INSERT
  5
53E5
102
{ACAD_REACTORS
330
6242
330
6634
330
664C
102
}
330
1F
100
AcDbEntity
  8
AM_0 外形線1
100
AcDbBlockReference
  2
ケースＡ SSM160
 10
394.1866483750343
 20
424.0000000000003
 30
0.0
  0
INSERT
  5
5549
102
{ACAD_REACTORS
330
6226
330
6242
330
659F
330
6397
102
}
330
1F
100
AcDbEntity
  8
AM_0 外形線1
100
AcDbBlockReference
  2
ケースＢ SSM160
 10
394.1866483750343
 20
424.0000000000003
 30
0.0
  0
INSERT
  5
56AF
102
{ACAD_REACTORS
330
649B
330
64D4
330
661C
330
6B33
102
}
330
1F
100
AcDbEntity
  8
AM_0 外形線1
100
AcDbBlockReference
  2
センタＡ SSM160
 10
399.1866483750344
 20
424.0000000000003
 30
0.0
  0
INSERT
  5
5737
102
{ACAD_REACTORS
330
61B0
330
647F
330
649B
330
659F
330
6B33
330
7944
330
79E1
330
7A0D
102
}
330
1F
100
AcDbEntity
  8
AM_0 外形線1
100
AcDbBlockReference
  2
センタＢ SSM160
 10
389.1866483750344
 20
424.0000000000003
 30
0.0
  0
INSERT
  5
59B9
330
1F
100
AcDbEntity
  8
AM_0 外形線1
100
AcDbBlockReference
  2
リーマボルト SSM160 M8
 10
379.1866483750343
 20
495.5000000000004
 30
0.0
  0
DIMENSION
  5
6199
102
{ACAD_XDICTIONARY
360
61A6
102
}
102
{ACAD_REACTORS
330
61B0
102
}
330
1F
100
AcDbEntity
  8
AM_5 寸法線
100
AcDbDimension
  2
*D12
 10
279.1866483750344
 20
376.5000000000005
 30
0.0
 11
279.1866483750343
 21
427.2519104987487
 31
0.0
 70
   160
  1
%%c<>
 71
     5
 42
95.0
 73
     0
 74
     0
 75
     0
  3
SEISA$0
100
AcDbAlignedDimension
 13
335.1866483750344
 23
471.5000000000004
 33
0.0
 14
335.1866483750344
 24
376.5000000000005
 34
0.0
 50
90.0
100
AcDbRotatedDimension
1001
ACAD_DSTYLE_DIMINSPECT
1070
   396
1000
100%
1070
   395
1000

1070
   394
1070
    33
1070
   393
1070
     0
  0
DIMENSION
  5
620B
102
{ACAD_XDICTIONARY
360
621A
102
}
102
{ACAD_REACTORS
330
6226
102
}
330
1F
100
AcDbEntity
  8
AM_5 寸法線
100
AcDbDimension
  2
*D13
 10
394.1866483750343
 20
314.0000000000005
 30
0.0
 11
386.6866483750343
 21
314.0000000000005
 31
0.0
 70
   160
 71
     5
 42
15.0
 73
     0
 74
     0
 75
     0
  3
SEISA$0
100
AcDbAlignedDimension
 13
379.1866483750343
 23
344.5000000000005
 33
0.0
 14
394.1866483750343
 24
344.5000000000005
 34
0.0
100
AcDbRotatedDimension
1001
ACAD_DSTYLE_DIMINSPECT
1070
   396
1000
100%
1070
   395
1000

1070
   394
1070
    33
1070
   393
1070
     0
1001
ACAD
1000
DSTYLE
1002
{
1070
   173
1070
     1
1070
   342
1005
0
1070
   343
1005
69
1070
   344
1005
700C
1002
}
  0
DIMENSION
  5
6227
102
{ACAD_XDICTIONARY
360
6236
102
}
102
{ACAD_REACTORS
330
6242
102
}
330
1F
100
AcDbEntity
  8
AM_5 寸法線
100
AcDbDimension
  2
*D14
 10
409.1866483750344
 20
314.0000000000005
 30
0.0
 11
401.6866483750343
 21
314.0000000000005
 31
0.0
 70
   160
 71
     5
 42
15.00000000000006
 73
     0
 74
     0
 75
     0
  3
SEISA$0
100
AcDbAlignedDimension
 13
394.1866483750343
 23
344.5000000000005
 33
0.0
 14
409.1866483750344
 24
344.5000000000005
 34
0.0
100
AcDbRotatedDimension
1001
ACAD_DSTYLE_DIMINSPECT
1070
   396
1000
100%
1070
   395
1000

1070
   394
1070
    33
1070
   393
1070
     0
1001
ACAD
1000
DSTYLE
1002
{
1070
   173
1070
     1
1070
   342
1005
0
1070
   343
1005
700C
1070
   344
1005
69
1002
}
  0
DIMENSION
  5
6380
102
{ACAD_XDICTIONARY
360
638D
102
}
102
{ACAD_REACTORS
330
6397
102
}
330
1F
100
AcDbEntity
  8
AM_5 寸法線
100
AcDbDimension
  2
*D15
 10
446.1866483750344
 20
294.0000000000004
 30
0.0
 11
394.1866483750343
 21
300.5000000000005
 31
0.0
 70
    32
 71
     5
 42
104.0
 73
     0
 74
     0
 75
     0
  3
SEISA$0
100
AcDbAlignedDimension
 13
342.1866483750343
 23
367.0000000000005
 33
0.0
 14
446.1866483750344
 24
367.0000000000005
 34
0.0
100
AcDbRotatedDimension
  0
DIMENSION
  5
6468
102
{ACAD_XDICTIONARY
360
6475
102
}
102
{ACAD_REACTORS
330
647F
102
}
330
1F
100
AcDbEntity
  8
AM_5 寸法線
100
AcDbDimension
  2
*D16
 10
389.1866483750344
 20
433.9853767934117
 30
0.0
 11
349.1866483750343
 21
440.4853767934119
 31
0.0
 70
    32
 71
     5
 42
80.0
 73
     0
 74
     0
 75
     0
  3
SEISA$0
100
AcDbAlignedDimension
 13
309.1866483750343
 23
424.0000000000003
 33
0.0
 14
389.1866483750344
 24
424.0000000000003
 34
0.0
100
AcDbRotatedDimension
  0
DIMENSION
  5
6480
102
{ACAD_XDICTIONARY
360
648F
102
}
102
{ACAD_REACTORS
330
649B
102
}
330
1F
100
AcDbEntity
  8
AM_5 寸法線
100
AcDbDimension
  2
*D17
 10
399.1866483750344
 20
433.9853767934117
 30
0.0
 11
408.0270318889029
 21
439.5643734851297
 31
0.0
 70
   160
 71
     5
 42
10.00000000000005
 73
     0
 74
     0
 75
     0
  3
SEISA$0
100
AcDbAlignedDimension
 13
389.1866483750344
 23
424.0000000000003
 33
0.0
 14
399.1866483750344
 24
424.0000000000003
 34
0.0
100
AcDbRotatedDimension
1001
ACAD
1000
DSTYLE
1002
{
1070
   279
1070
     2
1002
}
  0
DIMENSION
  5
64BD
102
{ACAD_XDICTIONARY
360
64CA
102
}
102
{ACAD_REACTORS
330
64D4
102
}
330
1F
100
AcDbEntity
  8
AM_5 寸法線
100
AcDbDimension
  2
*D18
 10
479.1866483750344
 20
433.9853767934117
 30
0.0
 11
439.1866483750344
 21
440.4853767934119
 31
0.0
 70
    32
 71
     5
 42
80.0
 73
     0
 74
     0
 75
     0
  3
SEISA$0
100
AcDbAlignedDimension
 13
399.1866483750344
 23
424.0000000000003
 33
0.0
 14
479.1866483750344
 24
424.0000000000003
 34
0.0
100
AcDbRotatedDimension
  0
DIMENSION
  5
6584
102
{ACAD_XDICTIONARY
360
6593
102
}
102
{ACAD_REACTORS
330
659F
330
79E1
102
}
330
1F
100
AcDbEntity
  8
AM_5 寸法線
100
AcDbDimension
  2
*D19
 10
357.1866483750343
 20
457.0371241690827
 30
0.0
 11
339.0866483750343
 21
457.0371241690827
 31
0.0
 70
   160
 71
     5
 42
3.0
 73
     0
 74
     0
 75
     0
  3
SEISA$0
100
AcDbAlignedDimension
 13
354.1866483750343
 23
471.5000000000004
 33
0.0
 14
357.1866483750343
 24
472.0000000000005
 34
0.0
100
AcDbRotatedDimension
  0
DIMENSION
  5
6605
102
{ACAD_XDICTIONARY
360
6612
102
}
102
{ACAD_REACTORS
330
661C
102
}
330
1F
100
AcDbEntity
  8
AM_5 寸法線
100
AcDbDimension
  2
*D20
 10
509.1866483750344
 20
376.5000000000005
 30
0.0
 11
502.6866483750343
 21
424.0000000000005
 31
0.0
 70
    32
  1
%%c<>
 71
     5
 42
95.0
 73
     0
 74
     0
 75
     0
  3
SEISA$0
100
AcDbAlignedDimension
 13
453.1866483750343
 23
471.5000000000004
 33
0.0
 14
453.1866483750343
 24
376.5000000000005
 34
0.0
 50
90.0
100
AcDbRotatedDimension
1001
ACAD_DSTYLE_DIMINSPECT
1070
   396
1000
100%
1070
   395
1000

1070
   394
1070
    33
1070
   393
1070
     0
  0
DIMENSION
  5
661D
102
{ACAD_XDICTIONARY
360
662A
102
}
102
{ACAD_REACTORS
330
6634
102
}
330
1F
100
AcDbEntity
  8
AM_5 寸法線
100
AcDbDimension
  2
*D21
 10
529.1866483750344
 20
364.0000000000005
 30
0.0
 11
522.6866483750343
 21
424.0000000000005
 31
0.0
 70
    32
  1
%%c<>
 71
     5
 42
119.9999999999999
 73
     0
 74
     0
 75
     0
  3
SEISA$0
100
AcDbAlignedDimension
 13
443.1866483750344
 23
484.0000000000004
 33
0.0
 14
443.1866483750344
 24
364.0000000000005
 34
0.0
 50
90.0
100
AcDbRotatedDimension
1001
ACAD_DSTYLE_DIMINSPECT
1070
   396
1000
100%
1070
   395
1000

1070
   394
1070
    33
1070
   393
1070
     0
  0
DIMENSION
  5
6635
102
{ACAD_XDICTIONARY
360
6642
102
}
102
{ACAD_REACTORS
330
664C
102
}
330
1F
100
AcDbEntity
  8
AM_5 寸法線
100
AcDbDimension
  2
*D22
 10
549.1866483750344
 20
344.0000000000005
 30
0.0
 11
542.6866483750344
 21
424.0000000000005
 31
0.0
 70
    32
  1
%%c<>
 71
     5
 42
160.0
 73
     0
 74
     0
 75
     0
  3
SEISA$0
100
AcDbAlignedDimension
 13
408.6866483750344
 23
504.0000000000004
 33
0.0
 14
408.6866483750344
 24
344.0000000000005
 34
0.0
 50
90.0
100
AcDbRotatedDimension
1001
ACAD_DSTYLE_DIMINSPECT
1070
   396
1000
100%
1070
   395
1000

1070
   394
1070
    33
1070
   393
1070
     0
  0
DIMENSION
  5
6B1C
102
{ACAD_XDICTIONARY
360
6B29
102
}
102
{ACAD_REACTORS
330
6B33
102
}
330
1F
100
AcDbEntity
  8
AM_5 寸法線
100
AcDbDimension
  2
*D23
 10
479.1866483750344
 20
274.0000000000005
 30
0.0
 11
394.1866483750343
 21
280.5000000000005
 31
0.0
 70
    32
 71
     5
 42
170.0
 73
     0
 74
     0
 75
     0
  3
SEISA$0
100
AcDbAlignedDimension
 13
309.1866483750343
 23
380.5997748741339
 33
0.0
 14
479.1866483750344
 24
380.5997748741339
 34
0.0
100
AcDbRotatedDimension
  0
MTEXT
  5
78F6
330
1F
100
AcDbEntity
  8
AM_6 文字
100
AcDbMText
 10
495.4585622570318
 20
326.9427552758385
 30
0.0
 40
7.0
 41
156.481185464782
 46
40.30025727030088
 71
     1
 72
     5
  1
{\W0.6;TYPE:SSM160/SSMH160\PSHAFT DIA:MAX/MIN φ65/φ22}
  7
SEISA
 73
     1
 44
1.0
  0
DIMENSION
  5
7934
102
{ACAD_XDICTIONARY
360
7943
102
}
102
{ACAD_REACTORS
330
7944
102
}
330
1F
100
AcDbEntity
  8
AM_5 寸法線
100
AcDbDimension
  2
*D25
 10
309.1866483750343
 20
504.0000000000004
 30
0.0
 11
324.2866483750344
 21
510.5000000000003
 31
0.0
 70
    32
 71
     5
 42
7.0
 73
     0
 74
     0
 75
     0
  3
SEISA$0
100
AcDbAlignedDimension
 13
302.1866483750343
 23
481.0000000000003
 33
0.0
 14
309.1866483750343
 24
467.9000000000005
 34
0.0
100
AcDbRotatedDimension
1001
ACAD_DSTYLE_DIMINSPECT
1070
   396
1000
100%
1070
   395
1000

1070
   394
1070
    33
1070
   393
1070
     0
  0
DIMENSION
  5
79D3
102
{ACAD_XDICTIONARY
360
79E0
102
}
102
{ACAD_REACTORS
330
79E1
330
7A0D
102
}
330
1F
100
AcDbEntity
  8
AM_5 寸法線
100
AcDbDimension
  2
*D26
 10
375.1866483750343
 20
457.0371241690832
 30
0.0
 11
366.1866483750344
 21
463.5371241690831
 31
0.0
 70
    32
 71
     5
 42
18.0
 73
     0
 74
     0
 75
     0
  3
SEISA$0
100
AcDbAlignedDimension
 13
357.1866483750343
 23
472.0000000000005
 33
0.0
 14
375.1866483750343
 24
471.5000000000004
 34
0.0
 50
0.0000000000001132
100
AcDbRotatedDimension
1001
ACAD_DSTYLE_DIMINSPECT
1070
   396
1000
100%
1070
   395
1000

1070
   394
1070
    33
1070
   393
1070
     0
  0
DIMENSION
  5
79FD
102
{ACAD_XDICTIONARY
360
7A0C
102
}
102
{ACAD_REACTORS
330
7A0D
102
}
330
1F
100
AcDbEntity
  8
AM_5 寸法線
100
AcDbDimension
  2
*D27
 10
389.1866483750344
 20
457.0371241690828
 30
0.0
 11
381.7299735294448
 21
463.0558539713023
 31
0.0
 70
   160
 71
     5
 42
14.0
 73
     0
 74
     0
 75
     0
  3
SEISA$0
100
AcDbAlignedDimension
 13
375.1866483750343
 23
471.5000000000004
 33
0.0
 14
389.1866483750344
 24
470.5000000000004
 34
0.0
 50
0.0000000000001132
100
AcDbRotatedDimension
1001
ACAD_DSTYLE_DIMINSPECT
1070
   396
1000
100%
1070
   395
1000

1070
   394
1070
    33
1070
   393
1070
     0
1001
ACAD
1000
DSTYLE
1002
{
1070
   279
1070
     2
1002
}
  0
INSERT
  5
7DB3
330
1F
100
AcDbEntity
  8
AM_0 外形線1
100
AcDbBlockReference
  2
ケース
 10
321.5117423113391
 20
484.0000000000002
 30
0.0
  0
ENDSEC
  0
SECTION
  2
OBJECTS
  0
DICTIONARY
  5
C
330
0
100
AcDbDictionary
281
     1
  3
ACAD_COLOR
350
C5
  3
ACAD_GROUP
350
D
  3
ACAD_LAYOUT
350
1A
  3
ACAD_MATERIAL
350
C4
  3
ACAD_MLEADERSTYLE
350
2D5
  3
ACAD_MLINESTYLE
350
17
  3
ACAD_PLOTSETTINGS
350
19
  3
ACAD_PLOTSTYLENAME
350
E
  3
ACAD_SCALELIST
350
2B3
  3
ACAD_TABLESTYLE
350
121
  3
ACAD_VISUALSTYLE
350
27F
  3
ACDB_RECOMPOSE_DATA
350
2F7
  3
AcDbVariableDictionary
350
34
  3
AcmDictionary
350
49
  3
AMG
350
2B
  3
AMGSNAPSETTINGS
350
1DE
  0
DICTIONARY
  5
BF
330
2
100
AcDbDictionary
280
     1
281
     1
  3
ACAD_LAYERSTATES
360
43D7
  3
AMLAYER_GROUPCOLORS
360
C0
  0
DICTIONARY
  5
29D8
330
10
100
AcDbDictionary
280
     1
281
     1
  3
ADSK_XREC_LAYER_RECONCILED
360
29D9
  0
DICTIONARY
  5
29DA
330
81
100
AcDbDictionary
280
     1
281
     1
  3
ADSK_XREC_LAYER_RECONCILED
360
29DB
  0
DICTIONARY
  5
29E1
330
25C9
100
AcDbDictionary
280
     1
281
     1
  3
ADSK_XREC_LAYER_RECONCILED
360
29E2
  0
DICTIONARY
  5
29E3
330
25CA
100
AcDbDictionary
280
     1
281
     1
  3
ADSK_XREC_LAYER_RECONCILED
360
29E4
  0
DICTIONARY
  5
29E9
330
26B3
100
AcDbDictionary
280
     1
281
     1
  3
ADSK_XREC_LAYER_RECONCILED
360
29EA
  0
DICTIONARY
  5
82
330
1F
100
AcDbDictionary
280
     1
281
     1
  3
ACAD_SORTENTS
360
A41
  0
DICTIONARY
  5
5C59
330
52C3
100
AcDbDictionary
280
     1
281
     1
  3
ACAD_SORTENTS
360
5C5A
  0
DICTIONARY
  5
5494
330
53A4
100
AcDbDictionary
280
     1
281
     1
  3
ACAD_SORTENTS
360
7418
  0
DICTIONARY
  5
55C2
330
5513
100
AcDbDictionary
280
     1
281
     1
  3
ACAD_SORTENTS
360
7356
  0
DICTIONARY
  5
5B48
330
5690
100
AcDbDictionary
280
     1
281
     1
  3
ACAD_SORTENTS
360
7C80
  0
DICTIONARY
  5
5DC3
330
570D
100
AcDbDictionary
280
     1
281
     1
  3
ACAD_SORTENTS
360
7BEB
  0
DICTIONARY
  5
5A26
330
5986
100
AcDbDictionary
280
     1
281
     1
  3
ACAD_SORTENTS
360
74BC
  0
DICTIONARY
  5
7DE9
330
7D98
100
AcDbDictionary
280
     1
281
     1
  3
ACAD_SORTENTS
360
7E1F
  0
DICTIONARY
  5
61A6
330
6199
100
AcDbDictionary
280
     1
281
     1
  3
ACAD_DIMASSOC
360
61B0
  0
DICTIONARY
  5
621A
330
620B
100
AcDbDictionary
280
     1
281
     1
  3
ACAD_DIMASSOC
360
6226
  0
DICTIONARY
  5
6236
330
6227
100
AcDbDictionary
280
     1
281
     1
  3
ACAD_DIMASSOC
360
6242
  0
DICTIONARY
  5
638D
330
6380
100
AcDbDictionary
280
     1
281
     1
  3
ACAD_DIMASSOC
360
6397
  0
DICTIONARY
  5
6475
330
6468
100
AcDbDictionary
280
     1
281
     1
  3
ACAD_DIMASSOC
360
647F
  0
DICTIONARY
  5
648F
330
6480
100
AcDbDictionary
280
     1
281
     1
  3
ACAD_DIMASSOC
360
649B
  0
DICTIONARY
  5
64CA
330
64BD
100
AcDbDictionary
280
     1
281
     1
  3
ACAD_DIMASSOC
360
64D4
  0
DICTIONARY
  5
6593
330
6584
100
AcDbDictionary
280
     1
281
     1
  3
ACAD_DIMASSOC
360
659F
  0
DICTIONARY
  5
6612
330
6605
100
AcDbDictionary
280
     1
281
     1
  3
ACAD_DIMASSOC
360
661C
  0
DICTIONARY
  5
662A
330
661D
100
AcDbDictionary
280
     1
281
     1
  3
ACAD_DIMASSOC
360
6634
  0
DICTIONARY
  5
6642
330
6635
100
AcDbDictionary
280
     1
281
     1
  3
ACAD_DIMASSOC
360
664C
  0
DICTIONARY
  5
6B29
330
6B1C
100
AcDbDictionary
280
     1
281
     1
  3
ACAD_DIMASSOC
360
6B33
  0
DICTIONARY
  5
7943
330
7934
100
AcDbDictionary
280
     1
281
     1
  3
ACAD_DIMASSOC
360
7944
  0
DICTIONARY
  5
79E0
330
79D3
100
AcDbDictionary
280
     1
281
     1
  3
ACAD_DIMASSOC
360
79E1
  0
DICTIONARY
  5
7A0C
330
79FD
100
AcDbDictionary
280
     1
281
     1
  3
ACAD_DIMASSOC
360
7A0D
  0
DICTIONARY
  5
C5
102
{ACAD_REACTORS
330
C
102
}
330
C
100
AcDbDictionary
281
     1
  0
DICTIONARY
  5
D
102
{ACAD_REACTORS
330
C
102
}
330
C
100
AcDbDictionary
281
     1
  0
DICTIONARY
  5
1A
102
{ACAD_REACTORS
330
C
102
}
330
C
100
AcDbDictionary
281
     1
  3
Model
350
22
  3
レイアウト1
350
1E
  3
レイアウト2
350
26
  0
DICTIONARY
  5
C4
102
{ACAD_REACTORS
330
C
102
}
330
C
100
AcDbDictionary
281
     1
  3
ByBlock
350
27D
  3
ByLayer
350
27C
  3
Global
350
27E
  0
DICTIONARY
  5
2D5
102
{ACAD_REACTORS
330
C
102
}
330
C
100
AcDbDictionary
281
     1
  3
Standard
350
2D6
  0
DICTIONARY
  5
17
102
{ACAD_REACTORS
330
C
102
}
330
C
100
AcDbDictionary
281
     1
  3
Standard
350
18
  0
DICTIONARY
  5
19
102
{ACAD_REACTORS
330
C
102
}
330
C
100
AcDbDictionary
281
     1
  3
SEISA基本
350
1C7E
  0
ACDBDICTIONARYWDFLT
  5
E
102
{ACAD_REACTORS
330
C
102
}
330
C
100
AcDbDictionary
281
     1
  3
Normal
350
F
100
AcDbDictionaryWithDefault
340
F
  0
DICTIONARY
  5
2B3
102
{ACAD_REACTORS
330
C
102
}
330
C
100
AcDbDictionary
281
     1
  3
*A1
350
78ED
  3
A0
350
2B4
  3
A1
350
2B5
  3
A2
350
2B6
  3
A3
350
2B7
  3
A4
350
2B8
  3
A5
350
2B9
  3
A6
350
2BA
  3
A7
350
2BB
  3
A8
350
2BC
  3
A9
350
2BD
  3
B0
350
2BE
  3
B1
350
2BF
  3
B2
350
2C0
  3
B3
350
2C1
  3
B4
350
2C2
  3
B5
350
2C3
  3
B6
350
2C4
  3
B7
350
2C5
  3
B8
350
2C6
  3
B9
350
2C7
  3
C0
350
2C8
  3
C1
350
2C9
  3
C2
350
2CA
  3
C3
350
2CB
  3
C4
350
2CC
  3
C5
350
2CD
  3
C6
350
2CE
  3
C7
350
2CF
  3
C8
350
2D0
  3
C9
350
2D1
  3
D0
350
2D2
  3
D1
350
2D3
  3
D2
350
2D4
  0
DICTIONARY
  5
121
102
{ACAD_REACTORS
330
C
102
}
330
C
100
AcDbDictionary
281
     1
  3
Standard
350
122
  0
DICTIONARY
  5
27F
102
{ACAD_REACTORS
330
C
102
}
330
C
100
AcDbDictionary
281
     1
  3
2dWireframe
350
285
  3
3D Hidden
350
287
  3
3dWireframe
350
286
  3
Basic
350
284
  3
Brighten
350
28B
  3
ColorChange
350
28F
  3
Conceptual
350
288
  3
Dim
350
28A
  3
Facepattern
350
28E
  3
Flat
350
280
  3
FlatWithEdges
350
281
  3
Gouraud
350
282
  3
GouraudWithEdges
350
283
  3
Linepattern
350
28D
  3
Realistic
350
289
  3
Thicken
350
28C
  0
XRECORD
  5
2F7
102
{ACAD_REACTORS
330
C
102
}
330
C
100
AcDbXrecord
280
     1
 90
        1
330
122
  0
DICTIONARY
  5
34
102
{ACAD_REACTORS
330
C
102
}
330
C
100
AcDbDictionary
281
     1
  3
CANNOSCALE
350
2FA
  3
CMLEADERSTYLE
350
2F8
  3
CTABLESTYLE
350
140
  3
DIMASSOC
350
AC
  3
INDEXCTL
350
35
  3
LAYEREVAL
350
5ACC
  3
LAYERNOTIFY
350
5ACD
  3
LIGHTINGUNITS
350
2FB
  3
MSLTSCALE
350
2F9
  0
DICTIONARY
  5
49
102
{ACAD_REACTORS
330
C
102
}
330
C
100
AcDbDictionary
281
     1
  3
AcmBOM
350
161B
  3
AcmStdDictionary
350
4A
  3
AMDTSECTSYM_ARROWCOLOR
350
12B
  0
DICTIONARY
  5
2B
102
{ACAD_REACTORS
330
C
102
}
330
C
100
AcDbDictionary
281
     1
  0
DICTIONARY
  5
1DE
102
{ACAD_REACTORS
330
C
102
}
330
C
100
AcDbDictionary
281
     1
  0
DICTIONARY
  5
43D7
102
{ACAD_REACTORS
330
BF
102
}
330
BF
100
AcDbDictionary
281
     1
  0
DICTIONARY
  5
C0
102
{ACAD_REACTORS
330
BF
102
}
330
BF
100
AcDbDictionary
280
     1
281
     1
  0
XRECORD
  5
29D9
102
{ACAD_REACTORS
330
29D8
102
}
330
29D8
100
AcDbXrecord
280
     1
290
     1
  0
XRECORD
  5
29DB
102
{ACAD_REACTORS
330
29DA
102
}
330
29DA
100
AcDbXrecord
280
     1
290
     1
  0
XRECORD
  5
29E2
102
{ACAD_REACTORS
330
29E1
102
}
330
29E1
100
AcDbXrecord
280
     1
290
     1
  0
XRECORD
  5
29E4
102
{ACAD_REACTORS
330
29E3
102
}
330
29E3
100
AcDbXrecord
280
     1
290
     1
  0
XRECORD
  5
29EA
102
{ACAD_REACTORS
330
29E9
102
}
330
29E9
100
AcDbXrecord
280
     1
290
     1
  0
SORTENTSTABLE
  5
A41
102
{ACAD_REACTORS
330
82
102
}
330
82
100
AcDbSortentsTable
330
1F
331
6480
  5
64BD
331
5737
  5
59B9
331
6635
  5
66B8
331
3F74
  5
3F74
331
661D
  5
6635
331
6468
  5
6480
331
6605
  5
661D
331
3F75
  5
3F75
331
56AF
  5
5737
331
3F7E
  5
3F7E
331
3F3D
  5
3F3D
331
3FDA
  5
3FDA
331
53E5
  5
5549
331
6227
  5
62A1
331
5549
  5
56AF
331
6584
  5
65B6
331
78F6
  5
78F6
331
6380
  5
6398
331
3F40
  5
3F40
331
64BD
  5
6584
331
6199
  5
620B
331
59B9
  5
60CC
331
6B1C
  5
6B47
331
3F7B
  5
3F7B
331
620B
  5
6227
  0
SORTENTSTABLE
  5
5C5A
102
{ACAD_REACTORS
330
5C59
102
}
330
5C59
100
AcDbSortentsTable
330
52C3
  0
SORTENTSTABLE
  5
7418
102
{ACAD_REACTORS
330
5494
102
}
330
5494
100
AcDbSortentsTable
330
53A4
331
53B1
  5
53B3
331
53D1
  5
53D3
331
53B2
  5
53B4
331
53C2
  5
53C4
331
53D8
  5
53DA
331
53D2
  5
53D4
331
5493
  5
53A7
331
53C3
  5
53C5
331
53B3
  5
53B5
331
53D9
  5
53DB
331
53D3
  5
53D5
331
53B4
  5
53B6
331
53C4
  5
53C6
331
53D4
  5
53D6
331
53DA
  5
53DC
331
53C5
  5
53C7
331
53B5
  5
53B7
331
53DB
  5
53DD
331
53D5
  5
53D7
331
53B6
  5
53B8
331
53C6
  5
53C8
331
53D6
  5
53D8
331
53DC
  5
53DE
331
53C7
  5
53C9
331
53A7
  5
53A9
331
53B7
  5
53B9
331
53DD
  5
53DF
331
53E0
  5
53E2
331
53D7
  5
53D9
331
53A8
  5
53AA
331
53B8
  5
53BA
331
53C8
  5
53CA
331
53A9
  5
53AB
331
53DE
  5
53E0
331
53E1
  5
53E4
331
53C9
  5
53CB
331
53B9
  5
53BB
331
53AA
  5
53AC
331
53DF
  5
53E1
331
53E2
  5
5479
331
53BA
  5
53BC
331
53CA
  5
53CC
331
53AB
  5
53AD
331
53BB
  5
53BD
331
53CB
  5
53CD
331
53AC
  5
53AE
331
53E4
  5
5493
331
53CC
  5
53CE
331
53BC
  5
53BE
331
53AD
  5
53AF
331
53BD
  5
53BF
331
53CD
  5
53CF
331
53AE
  5
53B0
331
53CE
  5
53D0
331
53BE
  5
53C0
331
53AF
  5
53B1
331
53BF
  5
53C2
331
53CF
  5
53D1
331
53B0
  5
53B2
331
53C0
  5
53C3
331
53D0
  5
53D2
331
5479
  5
53A8
  0
SORTENTSTABLE
  5
7356
102
{ACAD_REACTORS
330
55C2
102
}
330
55C2
100
AcDbSortentsTable
330
5513
331
5520
  5
5521
331
5547
  5
5548
331
551E
  5
5520
331
5545
  5
5546
331
551C
  5
551D
331
5543
  5
5544
331
551A
  5
551B
331
55C1
  5
5516
331
5541
  5
5542
331
553F
  5
5540
331
5518
  5
5519
331
553D
  5
553E
331
552F
  5
5530
331
553B
  5
553C
331
552D
  5
552E
331
5539
  5
553A
331
552B
  5
552C
331
5537
  5
5538
331
5535
  5
5536
331
5529
  5
552A
331
5533
  5
5534
331
55BE
  5
55BF
331
5527
  5
5528
331
5531
  5
5532
331
5525
  5
5526
331
5516
  5
5517
331
5523
  5
5524
331
5521
  5
5522
331
5546
  5
5547
331
5544
  5
5545
331
551D
  5
551E
331
5542
  5
5543
331
551B
  5
551C
331
5540
  5
5541
331
5519
  5
551A
331
55C0
  5
55C1
331
553E
  5
553F
331
553C
  5
553D
331
5548
  5
55BE
331
552E
  5
552F
331
553A
  5
553B
331
552C
  5
552D
331
5538
  5
5539
331
552A
  5
552B
331
5536
  5
5537
331
55BF
  5
55C0
331
5528
  5
5529
331
5534
  5
5535
331
5526
  5
5527
331
5532
  5
5533
331
5517
  5
5518
331
5524
  5
5525
331
5530
  5
5531
331
5522
  5
5523
  0
SORTENTSTABLE
  5
7C80
102
{ACAD_REACTORS
330
5B48
102
}
330
5B48
100
AcDbSortentsTable
330
5690
331
5696
  5
5698
331
56A7
  5
56A9
331
569F
  5
56A3
331
5697
  5
5699
331
5698
  5
569A
331
56A8
  5
56AA
331
5699
  5
569B
331
56A9
  5
56AB
331
56A2
  5
56A4
331
569A
  5
569C
331
7AFB
  5
5694
331
56A3
  5
56A5
331
56AA
  5
7AFB
331
569B
  5
569D
331
5693
  5
5695
331
56AB
  5
7C7F
331
56A4
  5
56A6
331
569C
  5
569E
331
5694
  5
5696
331
56A5
  5
56A7
331
569D
  5
569F
331
5695
  5
5697
331
56A6
  5
56A8
331
7C7F
  5
5693
331
569E
  5
56A2
  0
SORTENTSTABLE
  5
7BEB
102
{ACAD_REACTORS
330
5DC3
102
}
330
5DC3
100
AcDbSortentsTable
330
570D
331
79D1
  5
5711
331
5713
  5
5715
331
5724
  5
5727
331
5728
  5
79D1
331
5714
  5
5716
331
5725
  5
5728
331
571D
  5
5721
331
5715
  5
5717
331
5726
  5
5DC2
331
5716
  5
5718
331
5727
  5
79B6
331
5DC2
  5
5720
331
571F
  5
5722
331
5717
  5
5719
331
5720
  5
5723
331
5718
  5
571A
331
5710
  5
5712
331
5721
  5
5724
331
5719
  5
571D
331
5711
  5
5713
331
79B6
  5
5710
331
5722
  5
5725
331
571A
  5
571F
331
5712
  5
5714
331
5723
  5
5726
  0
SORTENTSTABLE
  5
74BC
102
{ACAD_REACTORS
330
5A26
102
}
330
5A26
100
AcDbSortentsTable
330
5986
  0
SORTENTSTABLE
  5
7E1F
102
{ACAD_REACTORS
330
7DE9
102
}
330
7DE9
100
AcDbSortentsTable
330
7D98
  0
DIMASSOC
  5
61B0
102
{ACAD_REACTORS
330
61A6
102
}
330
61A6
100
AcDbDimAssoc
330
6199
 90
        3
 70
     0
 71
     0
  1
AcDbOsnapPointRef
 72
    13
331
5737
331
5711
 73
     2
 91
        0
 40
0.0
 10
0.0
 20
0.0
 30
2.000000000000000E+50
 75
     0
  1
AcDbOsnapPointRef
 72
     1
331
5737
331
5710
 73
     2
 91
        0
 40
1.0
 10
0.0
 20
0.0
 30
2.000000000000000E+50
 75
     0
  0
DIMASSOC
  5
6226
102
{ACAD_REACTORS
330
621A
102
}
330
621A
100
AcDbDimAssoc
330
620B
 90
        3
 70
     0
 71
     0
  1
AcDbOsnapPointRef
 72
    13
331
5549
331
5517
 73
     2
 91
        0
 40
0.0
 10
0.0
 20
0.0
 30
2.000000000000000E+50
 75
     0
  1
AcDbOsnapPointRef
 72
    13
331
5549
331
551B
 73
     2
 91
        0
 40
0.0
 10
0.0
 20
0.0
 30
2.000000000000000E+50
 75
     0
  0
DIMASSOC
  5
6242
102
{ACAD_REACTORS
330
6236
102
}
330
6236
100
AcDbDimAssoc
330
6227
 90
        3
 70
     0
 71
     0
  1
AcDbOsnapPointRef
 72
    13
331
5549
331
551B
 73
     2
 91
        0
 40
0.0
 10
0.0
 20
0.0
 30
2.000000000000000E+50
 75
     0
  1
AcDbOsnapPointRef
 72
    13
331
53E5
331
53A7
 73
     2
 91
        0
 40
0.0
 10
0.0
 20
0.0
 30
2.000000000000000E+50
 75
     0
  0
DIMASSOC
  5
6397
102
{ACAD_REACTORS
330
638D
102
}
330
638D
100
AcDbDimAssoc
330
6380
 90
        1
 70
     0
 71
     0
  1
AcDbOsnapPointRef
 72
    13
331
5549
331
551C
 73
     2
 91
        0
 40
0.0
 10
0.0
 20
0.0
 30
2.000000000000000E+50
 75
     0
  0
DIMASSOC
  5
647F
102
{ACAD_REACTORS
330
6475
102
}
330
6475
100
AcDbDimAssoc
330
6468
 90
        3
 70
     0
 71
     0
  1
AcDbOsnapPointRef
 72
     2
331
5737
331
5712
 73
     2
 91
        0
 40
0.5
 10
0.0
 20
0.0
 30
0.0
 75
     0
  1
AcDbOsnapPointRef
 72
     1
331
5737
331
5DC2
 73
     2
 91
        0
 40
1.0
 10
0.0
 20
0.0
 30
2.000000000000000E+50
 75
     0
  0
DIMASSOC
  5
649B
102
{ACAD_REACTORS
330
648F
102
}
330
648F
100
AcDbDimAssoc
330
6480
 90
        3
 70
     0
 71
     0
  1
AcDbOsnapPointRef
 72
     1
331
5737
331
5DC2
 73
     2
 91
        0
 40
1.0
 10
0.0
 20
0.0
 30
2.000000000000000E+50
 75
     0
  1
AcDbOsnapPointRef
 72
     1
331
56AF
331
5695
 73
     2
 91
        0
 40
1.0
 10
0.0
 20
0.0
 30
2.000000000000000E+50
 75
     0
  0
DIMASSOC
  5
64D4
102
{ACAD_REACTORS
330
64CA
102
}
330
64CA
100
AcDbDimAssoc
330
64BD
 90
        3
 70
     0
 71
     0
  1
AcDbOsnapPointRef
 72
     1
331
56AF
331
5695
 73
     2
 91
        0
 40
1.0
 10
0.0
 20
0.0
 30
2.000000000000000E+50
 75
     0
  1
AcDbOsnapPointRef
 72
     2
331
56AF
331
56A8
 73
     2
 91
        0
 40
0.5
 10
0.0
 20
0.0
 30
0.0
 75
     0
  0
DIMASSOC
  5
659F
102
{ACAD_REACTORS
330
6593
102
}
330
6593
100
AcDbDimAssoc
330
6584
 90
        3
 70
     0
 71
     0
  1
AcDbOsnapPointRef
 72
     1
331
5549
331
5534
 73
     2
 91
        0
 40
1.0
 10
0.0
 20
0.0
 30
2.000000000000000E+50
 75
     0
  1
AcDbOsnapPointRef
 72
    13
331
5737
331
5721
 73
     2
 91
        0
 40
0.0
 10
0.0
 20
0.0
 30
2.000000000000000E+50
 75
     0
  0
DIMASSOC
  5
661C
102
{ACAD_REACTORS
330
6612
102
}
330
6612
100
AcDbDimAssoc
330
6605
 90
        3
 70
     0
 71
     0
  1
AcDbOsnapPointRef
 72
    13
331
56AF
331
569C
 73
     2
 91
        0
 40
0.0
 10
0.0
 20
0.0
 30
2.000000000000000E+50
 75
     0
  1
AcDbOsnapPointRef
 72
    13
331
56AF
331
5697
 73
     2
 91
        0
 40
0.0
 10
0.0
 20
0.0
 30
2.000000000000000E+50
 75
     0
  0
DIMASSOC
  5
6634
102
{ACAD_REACTORS
330
662A
102
}
330
662A
100
AcDbDimAssoc
330
661D
 90
        3
 70
     0
 71
     0
  1
AcDbOsnapPointRef
 72
     1
331
53E5
331
53C3
 73
     2
 91
        0
 40
1.0
 10
0.0
 20
0.0
 30
2.000000000000000E+50
 75
     0
  1
AcDbOsnapPointRef
 72
     8
331
53E5
331
53AD
 73
     2
 91
        0
 40
1.0
 10
0.0
 20
0.0
 30
0.0
 75
     1
  1
AcDbOsnapPointRef
 72
     1
331
53E5
331
53C3
 73
     2
 91
        0
 40
1.0
 10
0.0
 20
0.0
 30
2.000000000000000E+50
 75
     0
  0
DIMASSOC
  5
664C
102
{ACAD_REACTORS
330
6642
102
}
330
6642
100
AcDbDimAssoc
330
6635
 90
        3
 70
     0
 71
     0
  1
AcDbOsnapPointRef
 72
     1
331
53E5
331
53B3
 73
     2
 91
        0
 40
1.0
 10
0.0
 20
0.0
 30
2.000000000000000E+50
 75
     0
  1
AcDbOsnapPointRef
 72
     1
331
53E5
331
53A9
 73
     2
 91
        0
 40
1.0
 10
0.0
 20
0.0
 30
2.000000000000000E+50
 75
     0
  0
DIMASSOC
  5
6B33
102
{ACAD_REACTORS
330
6B29
102
}
330
6B29
100
AcDbDimAssoc
330
6B1C
 90
        3
 70
     0
 71
     0
  1
AcDbOsnapPointRef
 72
    10
331
5737
331
5712
 73
     2
 91
        0
 40
0.0056921967441166
 10
0.0
 20
0.0
 30
0.0
 75
     0
  1
AcDbOsnapPointRef
 72
     8
331
56AF
331
56A8
 73
     2
 91
        0
 40
0.0056921967441166
 10
0.0
 20
0.0
 30
0.0
 75
     1
  1
AcDbOsnapPointRef
 72
    10
331
5737
331
5712
 73
     2
 91
        0
 40
0.0056921967441166
 10
0.0
 20
0.0
 30
0.0
 75
     0
  0
DIMASSOC
  5
7944
102
{ACAD_REACTORS
330
7943
102
}
330
7943
100
AcDbDimAssoc
330
7934
 90
        2
 70
     0
 71
     0
  1
AcDbOsnapPointRef
 72
     1
331
5737
331
5712
 73
     0
 91
        0
 40
0.0
 10
0.0
 20
0.0
 30
2.000000000000000E+50
 75
     0
  0
DIMASSOC
  5
79E1
102
{ACAD_REACTORS
330
79E0
102
}
330
79E0
100
AcDbDimAssoc
330
79D3
 90
        3
 70
     0
 71
     0
  1
AcDbOsnapPointRef
 72
     4
331
6584
331
65B4
 73
     0
 91
        0
 40
0.0
 10
0.0
 20
0.0
 30
0.0
 75
     0
  1
AcDbOsnapPointRef
 72
    13
331
5737
331
5725
 73
     0
 91
        0
 40
0.0
 10
0.0
 20
0.0
 30
2.000000000000000E+50
 75
     0
  0
DIMASSOC
  5
7A0D
102
{ACAD_REACTORS
330
7A0C
102
}
330
7A0C
100
AcDbDimAssoc
330
79FD
 90
        3
 70
     0
 71
     0
  1
AcDbOsnapPointRef
 72
     4
331
79D3
331
79FB
 73
     0
 91
        0
 40
0.0
 10
0.0
 20
0.0
 30
0.0
 75
     0
  1
AcDbOsnapPointRef
 72
    13
331
5737
331
5DC2
 73
     0
 91
        0
 40
0.0
 10
0.0
 20
0.0
 30
2.000000000000000E+50
 75
     0
  0
LAYOUT
  5
22
102
{ACAD_REACTORS
330
1A
102
}
330
1A
100
AcDbPlotSettings
  1

  2
KONICA MINOLTA 501 PCL
  4
A4
  6

 40
5.027082920074462
 41
5.027085781097412
 42
5.027069091796875
 43
5.027069091796875
 44
209.9733276367186
 45
296.9259948730469
 46
0.0
 47
5.556014953444303
 48
0.0
 49
0.0
140
0.0
141
0.0
142
1.0
143
1.198028245258672
 70
 11956
 72
     1
 73
     1
 74
     1
  7
SEISA.ctb
 75
     0
147
0.8347048610561639
 76
     0
 77
     2
 78
   300
148
-269.1394069488397
149
-272.6185937477417
100
AcDbLayout
  1
Model
 70
     1
 71
     0
 10
0.0
 20
0.0
 11
12.0
 21
9.0
 12
0.0
 22
0.0
 32
0.0
 14
0.0
 24
0.0
 34
0.0
 15
0.0
 25
0.0
 35
0.0
146
0.0
 13
0.0
 23
0.0
 33
0.0
 16
1.0
 26
0.0
 36
0.0
 17
0.0
 27
1.0
 37
0.0
 76
     0
330
1F
331
27A
1001
ACAD_PSEXT
1000
KONICA MINOLTA 501 PCL
1000
KONICA MINOLTA 501/421/361PCL
1000
IP_192.168.20.231_(1)
1000

1070
     0
  0
LAYOUT
  5
1E
102
{ACAD_REACTORS
330
1A
102
}
330
1A
100
AcDbPlotSettings
  1

  2
none_device
  4
Letter_(8.50_x_11.00_Inches)
  6

 40
6.349999904632567
 41
6.349999904632567
 42
6.350006103515625
 43
6.350006103515625
 44
215.8999938964844
 45
279.3999938964844
 46
0.0
 47
0.0
 48
0.0
 49
0.0
140
0.0
141
0.0
142
1.0
143
1.0
 70
 15024
 72
     1
 73
     1
 74
     5
  7
SEISA.ctb
 75
    16
147
1.0
 76
     0
 77
     2
 78
   300
148
0.0
149
0.0
100
AcDbLayout
  1
レイアウト1
 70
     1
 71
     1
 10
0.0
 20
0.0
 11
420.0
 21
297.0
 12
0.0
 22
0.0
 32
0.0
 14
1.000000000000000E+20
 24
1.000000000000000E+20
 34
1.000000000000000E+20
 15
-1.000000000000000E+20
 25
-1.000000000000000E+20
 35
-1.000000000000000E+20
146
0.0
 13
0.0
 23
0.0
 33
0.0
 16
1.0
 26
0.0
 36
0.0
 17
0.0
 27
1.0
 37
0.0
 76
     0
330
1B
  0
LAYOUT
  5
26
102
{ACAD_REACTORS
330
1A
102
}
330
1A
100
AcDbPlotSettings
  1

  2
none_device
  4
Letter_(8.50_x_11.00_Inches)
  6

 40
6.349999904632567
 41
6.349999904632567
 42
6.350006103515625
 43
6.350006103515625
 44
215.8999938964844
 45
279.3999938964844
 46
0.0
 47
0.0
 48
0.0
 49
0.0
140
0.0
141
0.0
142
1.0
143
1.0
 70
 15024
 72
     1
 73
     1
 74
     5
  7
SEISA.ctb
 75
    16
147
1.0
 76
     0
 77
     2
 78
   300
148
0.0
149
0.0
100
AcDbLayout
  1
レイアウト2
 70
     1
 71
     2
 10
0.0
 20
0.0
 11
12.0
 21
9.0
 12
0.0
 22
0.0
 32
0.0
 14
0.0
 24
0.0
 34
0.0
 15
0.0
 25
0.0
 35
0.0
146
0.0
 13
0.0
 23
0.0
 33
0.0
 16
1.0
 26
0.0
 36
0.0
 17
0.0
 27
1.0
 37
0.0
 76
     0
330
23
  0
MATERIAL
  5
27D
102
{ACAD_REACTORS
330
C4
102
}
330
C4
100
AcDbMaterial
  1
ByBlock
 73
     1
 78
     1
172
     1
176
     1
270
     1
274
     1
 94
       63
  0
MATERIAL
  5
27C
102
{ACAD_REACTORS
330
C4
102
}
330
C4
100
AcDbMaterial
  1
ByLayer
 73
     1
 78
     1
172
     1
176
     1
270
     1
274
     1
 94
       63
  0
MATERIAL
  5
27E
102
{ACAD_REACTORS
330
C4
102
}
330
C4
100
AcDbMaterial
  1
Global
 73
     1
 78
     1
172
     1
176
     1
270
     1
274
     1
 94
       63
  0
MLEADERSTYLE
  5
2D6
102
{ACAD_REACTORS
330
2D5
102
}
330
2D5
100
AcDbMLeaderStyle
170
     2
171
     1
172
     0
 90
        2
 40
0.0
 41
0.0
173
     1
 91
-1056964608
340
14
 92
       -2
290
     1
 42
2.0
291
     1
 43
0.36
  3
Standard
 44
4.0
300

342
11
174
     1
178
     6
175
     1
176
     0
 93
-1056964608
 45
4.0
292
     0
297
     0
 46
4.0
 94
-1056964608
 47
1.0
 49
1.0
140
1.0
293
     1
141
0.0
294
     1
177
     0
142
1.0
295
     0
296
     0
143
0.125
1001
ACAD_MLEADERVER
1070
     2
  0
MLINESTYLE
  5
18
102
{ACAD_REACTORS
330
17
102
}
330
17
100
AcDbMlineStyle
  2
STANDARD
 70
     0
  3

 62
   256
 51
90.0
 52
90.0
 71
     2
 49
0.5
 62
   256
  6
BYLAYER
 49
-0.5
 62
   256
  6
BYLAYER
  0
PLOTSETTINGS
  5
1C7E
102
{ACAD_REACTORS
330
19
102
}
330
19
100
AcDbPlotSettings
  1
SEISA基本
  2
none_device
  4
Letter_(8.50_x_11.00_Inches)
  6

 40
6.349999904632567
 41
6.349999904632567
 42
6.350006103515625
 43
6.350006103515625
 44
215.8999938964844
 45
279.3999938964844
 46
7.302498226506357
 47
0.0
 48
0.0
 49
0.0
140
0.0
141
0.0
142
1.0
143
1.574803221122935
 70
 11956
 72
     1
 73
     1
 74
     2
  7
SEISA.ctb
 75
     0
147
0.6349999711627054
 76
     0
 77
     2
 78
   300
148
0.0
149
0.0
1001
ACAD_PSEXT
1000
なし
1000
なし
1000
適切ではありません
1000
新しいプロッタ環境設定名を選択しない限り、レイアウトは印刷されません。
1070
     0
  0
ACDBPLACEHOLDER
  5
F
102
{ACAD_REACTORS
330
E
102
}
330
E
  0
SCALE
  5
78ED
102
{ACAD_REACTORS
330
2B3
102
}
330
2B3
100
AcDbScale
 70
     0
300
1:1.5
140
1.0
141
1.5
290
     0
  0
SCALE
  5
2B4
102
{ACAD_REACTORS
330
2B3
102
}
330
2B3
100
AcDbScale
 70
     0
300
1:1
140
1.0
141
1.0
290
     1
  0
SCALE
  5
2B5
102
{ACAD_REACTORS
330
2B3
102
}
330
2B3
100
AcDbScale
 70
     0
300
1:2
140
1.0
141
2.0
290
     0
  0
SCALE
  5
2B6
102
{ACAD_REACTORS
330
2B3
102
}
330
2B3
100
AcDbScale
 70
     0
300
1:4
140
1.0
141
4.0
290
     0
  0
SCALE
  5
2B7
102
{ACAD_REACTORS
330
2B3
102
}
330
2B3
100
AcDbScale
 70
     0
300
1:5
140
1.0
141
5.0
290
     0
  0
SCALE
  5
2B8
102
{ACAD_REACTORS
330
2B3
102
}
330
2B3
100
AcDbScale
 70
     0
300
1:8
140
1.0
141
8.0
290
     0
  0
SCALE
  5
2B9
102
{ACAD_REACTORS
330
2B3
102
}
330
2B3
100
AcDbScale
 70
     0
300
1:10
140
1.0
141
10.0
290
     0
  0
SCALE
  5
2BA
102
{ACAD_REACTORS
330
2B3
102
}
330
2B3
100
AcDbScale
 70
     0
300
1:16
140
1.0
141
16.0
290
     0
  0
SCALE
  5
2BB
102
{ACAD_REACTORS
330
2B3
102
}
330
2B3
100
AcDbScale
 70
     0
300
1:20
140
1.0
141
20.0
290
     0
  0
SCALE
  5
2BC
102
{ACAD_REACTORS
330
2B3
102
}
330
2B3
100
AcDbScale
 70
     0
300
1:30
140
1.0
141
30.0
290
     0
  0
SCALE
  5
2BD
102
{ACAD_REACTORS
330
2B3
102
}
330
2B3
100
AcDbScale
 70
     0
300
1:40
140
1.0
141
40.0
290
     0
  0
SCALE
  5
2BE
102
{ACAD_REACTORS
330
2B3
102
}
330
2B3
100
AcDbScale
 70
     0
300
1:50
140
1.0
141
50.0
290
     0
  0
SCALE
  5
2BF
102
{ACAD_REACTORS
330
2B3
102
}
330
2B3
100
AcDbScale
 70
     0
300
1:100
140
1.0
141
100.0
290
     0
  0
SCALE
  5
2C0
102
{ACAD_REACTORS
330
2B3
102
}
330
2B3
100
AcDbScale
 70
     0
300
2:1
140
2.0
141
1.0
290
     0
  0
SCALE
  5
2C1
102
{ACAD_REACTORS
330
2B3
102
}
330
2B3
100
AcDbScale
 70
     0
300
4:1
140
4.0
141
1.0
290
     0
  0
SCALE
  5
2C2
102
{ACAD_REACTORS
330
2B3
102
}
330
2B3
100
AcDbScale
 70
     0
300
8:1
140
8.0
141
1.0
290
     0
  0
SCALE
  5
2C3
102
{ACAD_REACTORS
330
2B3
102
}
330
2B3
100
AcDbScale
 70
     0
300
10:1
140
10.0
141
1.0
290
     0
  0
SCALE
  5
2C4
102
{ACAD_REACTORS
330
2B3
102
}
330
2B3
100
AcDbScale
 70
     0
300
100:1
140
100.0
141
1.0
290
     0
  0
SCALE
  5
2C5
102
{ACAD_REACTORS
330
2B3
102
}
330
2B3
100
AcDbScale
 70
     0
300
1/128" = 1'-0"
140
0.0078125
141
12.0
290
     0
  0
SCALE
  5
2C6
102
{ACAD_REACTORS
330
2B3
102
}
330
2B3
100
AcDbScale
 70
     0
300
1/64" = 1'-0"
140
0.015625
141
12.0
290
     0
  0
SCALE
  5
2C7
102
{ACAD_REACTORS
330
2B3
102
}
330
2B3
100
AcDbScale
 70
     0
300
1/32" = 1'-0"
140
0.03125
141
12.0
290
     0
  0
SCALE
  5
2C8
102
{ACAD_REACTORS
330
2B3
102
}
330
2B3
100
AcDbScale
 70
     0
300
1/16" = 1'-0"
140
0.0625
141
12.0
290
     0
  0
SCALE
  5
2C9
102
{ACAD_REACTORS
330
2B3
102
}
330
2B3
100
AcDbScale
 70
     0
300
3/32" = 1'-0"
140
0.09375
141
12.0
290
     0
  0
SCALE
  5
2CA
102
{ACAD_REACTORS
330
2B3
102
}
330
2B3
100
AcDbScale
 70
     0
300
1/8" = 1'-0"
140
0.125
141
12.0
290
     0
  0
SCALE
  5
2CB
102
{ACAD_REACTORS
330
2B3
102
}
330
2B3
100
AcDbScale
 70
     0
300
3/16" = 1'-0"
140
0.1875
141
12.0
290
     0
  0
SCALE
  5
2CC
102
{ACAD_REACTORS
330
2B3
102
}
330
2B3
100
AcDbScale
 70
     0
300
1/4" = 1'-0"
140
0.25
141
12.0
290
     0
  0
SCALE
  5
2CD
102
{ACAD_REACTORS
330
2B3
102
}
330
2B3
100
AcDbScale
 70
     0
300
3/8" = 1'-0"
140
0.375
141
12.0
290
     0
  0
SCALE
  5
2CE
102
{ACAD_REACTORS
330
2B3
102
}
330
2B3
100
AcDbScale
 70
     0
300
1/2" = 1'-0"
140
0.5
141
12.0
290
     0
  0
SCALE
  5
2CF
102
{ACAD_REACTORS
330
2B3
102
}
330
2B3
100
AcDbScale
 70
     0
300
3/4" = 1'-0"
140
0.75
141
12.0
290
     0
  0
SCALE
  5
2D0
102
{ACAD_REACTORS
330
2B3
102
}
330
2B3
100
AcDbScale
 70
     0
300
1" = 1'-0"
140
1.0
141
12.0
290
     0
  0
SCALE
  5
2D1
102
{ACAD_REACTORS
330
2B3
102
}
330
2B3
100
AcDbScale
 70
     0
300
1-1/2" = 1'-0"
140
1.5
141
12.0
290
     0
  0
SCALE
  5
2D2
102
{ACAD_REACTORS
330
2B3
102
}
330
2B3
100
AcDbScale
 70
     0
300
3" = 1'-0"
140
3.0
141
12.0
290
     0
  0
SCALE
  5
2D3
102
{ACAD_REACTORS
330
2B3
102
}
330
2B3
100
AcDbScale
 70
     0
300
6" = 1'-0"
140
6.0
141
12.0
290
     0
  0
SCALE
  5
2D4
102
{ACAD_REACTORS
330
2B3
102
}
330
2B3
100
AcDbScale
 70
     0
300
1'-0" = 1'-0"
140
12.0
141
12.0
290
     0
  0
TABLESTYLE
  5
122
102
{ACAD_XDICTIONARY
360
2F5
102
}
102
{ACAD_REACTORS
330
121
102
}
330
121
100
AcDbTableStyle
  3
Standard
 70
     0
 71
     0
 40
1.5
 41
1.5
280
     0
281
     0
  7
STANDARD
140
4.5
170
     2
 62
     0
 63
     7
283
     0
 90
      512
 91
        0
  1

274
    -2
284
     1
 64
     0
275
    -2
285
     1
 65
     0
276
    -2
286
     1
 66
     0
277
    -2
287
     1
 67
     0
278
    -2
288
     1
 68
     0
279
    -2
289
     1
 69
     0
  7
STANDARD
140
6.0
170
     5
 62
     0
 63
     7
283
     0
 90
      512
 91
        0
  1

274
    -2
284
     1
 64
     0
275
    -2
285
     1
 65
     0
276
    -2
286
     1
 66
     0
277
    -2
287
     1
 67
     0
278
    -2
288
     1
 68
     0
279
    -2
289
     1
 69
     0
  7
STANDARD
140
4.5
170
     5
 62
     0
 63
     7
283
     0
 90
      512
 91
        0
  1

274
    -2
284
     1
 64
     0
275
    -2
285
     1
 65
     0
276
    -2
286
     1
 66
     0
277
    -2
287
     1
 67
     0
278
    -2
288
     1
 68
     0
279
    -2
289
     1
 69
     0
  0
VISUALSTYLE
  5
285
102
{ACAD_REACTORS
330
27F
102
}
330
27F
100
AcDbVisualStyle
  2
2dWireframe
 70
     4
 71
     0
 72
     2
 73
     0
 90
        0
 40
-0.6
 41
-30.0
 62
     5
 63
     7
421
 16777215
 74
     1
 91
        4
 64
     7
 65
   257
 75
     1
175
     1
 42
1.0
 92
        0
 66
   257
 43
1.0
 76
     1
 77
     6
 78
     2
 67
     7
 79
     5
170
     0
171
     0
290
     0
174
     0
 93
        1
 44
0.0
173
     0
291
     0
 45
0.0
  0
VISUALSTYLE
  5
287
102
{ACAD_REACTORS
330
27F
102
}
330
27F
100
AcDbVisualStyle
  2
3D Hidden
 70
     6
 71
     1
 72
     2
 73
     2
 90
        0
 40
-0.6
 41
-30.0
 62
     5
 63
     7
421
 16777215
 74
     2
 91
        2
 64
     7
 65
   257
 75
     2
175
     1
 42
40.0
 92
        0
 66
   257
 43
1.0
 76
     1
 77
     6
 78
     2
 67
     7
 79
     3
170
     0
171
     0
290
     0
174
     0
 93
        1
 44
0.0
173
     0
291
     0
 45
0.0
  0
VISUALSTYLE
  5
286
102
{ACAD_REACTORS
330
27F
102
}
330
27F
100
AcDbVisualStyle
  2
3dWireframe
 70
     5
 71
     0
 72
     2
 73
     0
 90
        0
 40
-0.6
 41
-30.0
 62
     5
 63
     7
421
 16777215
 74
     1
 91
        4
 64
     7
 65
   257
 75
     1
175
     1
 42
1.0
 92
        0
 66
   257
 43
1.0
 76
     1
 77
     6
 78
     2
 67
     7
 79
     5
170
     0
171
     0
290
     0
174
     0
 93
        1
 44
0.0
173
     0
291
     0
 45
0.0
  0
VISUALSTYLE
  5
284
102
{ACAD_REACTORS
330
27F
102
}
330
27F
100
AcDbVisualStyle
  2
Basic
 70
     7
 71
     1
 72
     0
 73
     1
 90
        0
 40
-0.6
 41
-30.0
 62
     5
 63
     7
421
 16777215
 74
     0
 91
        4
 64
     7
 65
   257
 75
     1
175
     1
 42
1.0
 92
        8
 66
     7
 43
1.0
 76
     1
 77
     6
 78
     2
 67
     7
 79
     5
170
     0
171
     0
290
     0
174
     0
 93
        1
 44
0.0
173
     0
291
     1
 45
0.0
  0
VISUALSTYLE
  5
28B
102
{ACAD_REACTORS
330
27F
102
}
330
27F
100
AcDbVisualStyle
  2
Brighten
 70
    12
 71
     2
 72
     2
 73
     0
 90
        0
 40
-0.6
 41
-30.0
 62
     5
 63
     7
421
 16777215
 74
     1
 91
        4
 64
     7
 65
   257
 75
     1
175
     1
 42
1.0
 92
        8
 66
     7
 43
1.0
 76
     1
 77
     6
 78
     2
 67
     7
 79
     5
170
     0
171
     0
290
     0
174
     0
 93
        1
 44
50.0
173
     0
291
     1
 45
0.0
  0
VISUALSTYLE
  5
28F
102
{ACAD_REACTORS
330
27F
102
}
330
27F
100
AcDbVisualStyle
  2
ColorChange
 70
    16
 71
     2
 72
     2
 73
     3
 90
        0
 40
-0.6
 41
-30.0
 62
     5
 63
     8
421
  8421504
 74
     1
 91
        4
 64
     7
 65
   257
 75
     1
175
     1
 42
1.0
 92
        8
 66
     8
424
  8421504
 43
1.0
 76
     1
 77
     6
 78
     2
 67
     7
 79
     5
170
     0
171
     0
290
     0
174
     0
 93
        1
 44
0.0
173
     0
291
     1
 45
0.0
  0
VISUALSTYLE
  5
288
102
{ACAD_REACTORS
330
27F
102
}
330
27F
100
AcDbVisualStyle
  2
Conceptual
 70
     9
 71
     3
 72
     2
 73
     0
 90
        0
 40
-0.6
 41
-30.0
 62
     5
 63
     7
421
 16777215
 74
     2
 91
        2
 64
     7
 65
   257
 75
     1
175
     1
 42
40.0
 92
        8
 66
     7
 43
1.0
 76
     1
 77
     6
 78
     2
 67
     7
 79
     3
170
     0
171
     0
290
     0
174
     0
 93
        1
 44
0.0
173
     0
291
     0
 45
0.0
  0
VISUALSTYLE
  5
28A
102
{ACAD_REACTORS
330
27F
102
}
330
27F
100
AcDbVisualStyle
  2
Dim
 70
    11
 71
     2
 72
     2
 73
     0
 90
        0
 40
-0.6
 41
-30.0
 62
     5
 63
     7
421
 16777215
 74
     1
 91
        4
 64
     7
 65
   257
 75
     1
175
     1
 42
1.0
 92
        8
 66
     7
 43
1.0
 76
     1
 77
     6
 78
     2
 67
     7
 79
     5
170
     0
171
     0
290
     0
174
     0
 93
        1
 44
-50.0
173
     0
291
     1
 45
0.0
  0
VISUALSTYLE
  5
28E
102
{ACAD_REACTORS
330
27F
102
}
330
27F
100
AcDbVisualStyle
  2
Facepattern
 70
    15
 71
     2
 72
     2
 73
     0
 90
        0
 40
-0.6
 41
-30.0
 62
     5
 63
     7
421
 16777215
 74
     1
 91
        4
 64
     7
 65
   257
 75
     1
175
     1
 42
1.0
 92
        8
 66
     7
 43
1.0
 76
     1
 77
     6
 78
     2
 67
     7
 79
     5
170
     0
171
     0
290
     0
174
     0
 93
        1
 44
0.0
173
     0
291
     1
 45
0.0
  0
VISUALSTYLE
  5
280
102
{ACAD_REACTORS
330
27F
102
}
330
27F
100
AcDbVisualStyle
  2
Flat
 70
     0
 71
     2
 72
     1
 73
     1
 90
        2
 40
-0.6
 41
30.0
 62
     5
 63
     7
421
 16777215
 74
     0
 91
        4
 64
     7
 65
   257
 75
     1
175
     1
 42
1.0
 92
        8
 66
     7
 43
1.0
 76
     1
 77
     6
 78
     2
 67
     7
 79
     5
170
     0
171
     0
290
     0
174
     0
 93
       13
 44
0.0
173
     0
291
     1
 45
0.0
  0
VISUALSTYLE
  5
281
102
{ACAD_REACTORS
330
27F
102
}
330
27F
100
AcDbVisualStyle
  2
FlatWithEdges
 70
     1
 71
     2
 72
     1
 73
     1
 90
        2
 40
-0.6
 41
30.0
 62
     5
 63
     7
421
 16777215
 74
     1
 91
        4
 64
     7
 65
   257
 75
     1
175
     1
 42
1.0
 92
        0
 66
   257
 43
1.0
 76
     1
 77
     6
 78
     2
 67
     7
 79
     5
170
     0
171
     0
290
     0
174
     0
 93
       13
 44
0.0
173
     0
291
     1
 45
0.0
  0
VISUALSTYLE
  5
282
102
{ACAD_REACTORS
330
27F
102
}
330
27F
100
AcDbVisualStyle
  2
Gouraud
 70
     2
 71
     2
 72
     2
 73
     1
 90
        2
 40
-0.6
 41
30.0
 62
     5
 63
     7
421
 16777215
 74
     0
 91
        4
 64
     7
 65
   257
 75
     1
175
     1
 42
1.0
 92
        0
 66
     7
 43
1.0
 76
     1
 77
     6
 78
     2
 67
     7
 79
     5
170
     0
171
     0
290
     0
174
     0
 93
       13
 44
0.0
173
     0
291
     1
 45
0.0
  0
VISUALSTYLE
  5
283
102
{ACAD_REACTORS
330
27F
102
}
330
27F
100
AcDbVisualStyle
  2
GouraudWithEdges
 70
     3
 71
     2
 72
     2
 73
     1
 90
        2
 40
-0.6
 41
30.0
 62
     5
 63
     7
421
 16777215
 74
     1
 91
        4
 64
     7
 65
   257
 75
     1
175
     1
 42
1.0
 92
        0
 66
   257
 43
1.0
 76
     1
 77
     6
 78
     2
 67
     7
 79
     5
170
     0
171
     0
290
     0
174
     0
 93
       13
 44
0.0
173
     0
291
     1
 45
0.0
  0
VISUALSTYLE
  5
28D
102
{ACAD_REACTORS
330
27F
102
}
330
27F
100
AcDbVisualStyle
  2
Linepattern
 70
    14
 71
     2
 72
     2
 73
     0
 90
        0
 40
-0.6
 41
-30.0
 62
     5
 63
     7
421
 16777215
 74
     1
 91
        4
 64
     7
 65
   257
 75
     7
175
     7
 42
1.0
 92
        8
 66
     7
 43
1.0
 76
     1
 77
     6
 78
     2
 67
     7
 79
     5
170
     0
171
     0
290
     0
174
     0
 93
        1
 44
0.0
173
     0
291
     1
 45
0.0
  0
VISUALSTYLE
  5
289
102
{ACAD_REACTORS
330
27F
102
}
330
27F
100
AcDbVisualStyle
  2
Realistic
 70
     8
 71
     2
 72
     2
 73
     0
 90
        0
 40
-0.6
 41
-30.0
 62
     5
 63
     7
421
 16777215
 74
     1
 91
        0
 64
     7
 65
   257
 75
     1
175
     1
 42
1.0
 92
        8
 66
     8
424
  7895160
 43
1.0
 76
     1
 77
     6
 78
     2
 67
     7
 79
     5
170
     0
171
     0
290
     0
174
     0
 93
       13
 44
0.0
173
     0
291
     0
 45
0.0
  0
VISUALSTYLE
  5
28C
102
{ACAD_REACTORS
330
27F
102
}
330
27F
100
AcDbVisualStyle
  2
Thicken
 70
    13
 71
     2
 72
     2
 73
     0
 90
        0
 40
-0.6
 41
-30.0
 62
     5
 63
     7
421
 16777215
 74
     1
 91
        4
 64
     7
 65
   257
 75
     1
175
     1
 42
1.0
 92
       12
 66
     7
 43
1.0
 76
     1
 77
     6
 78
     2
 67
     7
 79
     5
170
     0
171
     0
290
     0
174
     0
 93
        1
 44
0.0
173
     0
291
     1
 45
0.0
  0
DICTIONARYVAR
  5
2FA
102
{ACAD_REACTORS
330
34
102
}
330
34
100
DictionaryVariables
280
     0
  1
1:2
  0
DICTIONARYVAR
  5
2F8
102
{ACAD_REACTORS
330
34
102
}
330
34
100
DictionaryVariables
280
     0
  1
STANDARD
  0
DICTIONARYVAR
  5
140
102
{ACAD_REACTORS
330
34
102
}
330
34
100
DictionaryVariables
280
     0
  1
STANDARD
  0
DICTIONARYVAR
  5
AC
102
{ACAD_REACTORS
330
34
102
}
330
34
100
DictionaryVariables
280
     0
  1
1
  0
DICTIONARYVAR
  5
35
102
{ACAD_REACTORS
330
34
102
}
330
34
100
DictionaryVariables
280
     0
  1
1
  0
DICTIONARYVAR
  5
5ACC
102
{ACAD_REACTORS
330
34
102
}
330
34
100
DictionaryVariables
280
     0
  1
1
  0
DICTIONARYVAR
  5
5ACD
102
{ACAD_REACTORS
330
34
102
}
330
34
100
DictionaryVariables
280
     0
  1
15
  0
DICTIONARYVAR
  5
2FB
102
{ACAD_REACTORS
330
34
102
}
330
34
100
DictionaryVariables
280
     0
  1
0
  0
DICTIONARYVAR
  5
2F9
102
{ACAD_REACTORS
330
34
102
}
330
34
100
DictionaryVariables
280
     0
  1
0
  0
DICTIONARY
  5
161B
102
{ACAD_REACTORS
330
49
102
}
330
49
100
AcDbDictionary
281
     1
  0
DICTIONARY
  5
4A
102
{ACAD_REACTORS
330
49
102
}
330
49
100
AcDbDictionary
281
     1
  0
XRECORD
  5
12B
102
{ACAD_REACTORS
330
49
102
}
330
49
100
AcDbXrecord
280
     1
 90
-1023410169
  0
DICTIONARY
  5
2F5
330
122
100
AcDbDictionary
280
     1
281
     1
  3
ACAD_ROUNDTRIP_2008_TABLESTYLE_CELLSTYLEMAP
360
7EED
  0
CELLSTYLEMAP
  5
7EED
102
{ACAD_REACTORS
330
2F5
102
}
330
2F5
100
AcDbCellStyleMap
 90
        3
300
CELLSTYLE
  1
TABLEFORMAT_BEGIN
 90
        5
170
     1
 91
        0
 92
    32768
 62
   257
 93
        1
300
CONTENTFORMAT
  1
CONTENTFORMAT_BEGIN
 90
        0
 91
        0
 92
      512
 93
        0
300

 40
0.0
140
1.0
 94
        5
 62
     0
340
11
144
6.0
309
CONTENTFORMAT_END
171
     1
301
MARGIN
  1
CELLMARGIN_BEGIN
 40
1.5
 40
1.5
 40
1.5
 40
1.5
 40
0.18
 40
0.18
309
CELLMARGIN_END
 94
        6
 95
        1
302
GRIDFORMAT
  1
GRIDFORMAT_BEGIN
 90
        0
 91
        1
 62
     0
 92
       -2
340
0
 93
        0
 40
0.045
309
GRIDFORMAT_END
 95
        2
302
GRIDFORMAT
  1
GRIDFORMAT_BEGIN
 90
        0
 91
        1
 62
     0
 92
       -2
340
0
 93
        0
 40
0.045
309
GRIDFORMAT_END
 95
        4
302
GRIDFORMAT
  1
GRIDFORMAT_BEGIN
 90
        0
 91
        1
 62
     0
 92
       -2
340
0
 93
        0
 40
0.045
309
GRIDFORMAT_END
 95
        8
302
GRIDFORMAT
  1
GRIDFORMAT_BEGIN
 90
        0
 91
        1
 62
     0
 92
       -2
340
0
 93
        0
 40
0.045
309
GRIDFORMAT_END
 95
       16
302
GRIDFORMAT
  1
GRIDFORMAT_BEGIN
 90
        0
 91
        1
 62
     0
 92
       -2
340
0
 93
        0
 40
0.045
309
GRIDFORMAT_END
 95
       32
302
GRIDFORMAT
  1
GRIDFORMAT_BEGIN
 90
        0
 91
        1
 62
     0
 92
       -2
340
0
 93
        0
 40
0.045
309
GRIDFORMAT_END
309
TABLEFORMAT_END
  1
CELLSTYLE_BEGIN
 90
        1
 91
        1
300
_TITLE
309
CELLSTYLE_END
300
CELLSTYLE
  1
TABLEFORMAT_BEGIN
 90
        5
170
     1
 91
        0
 92
        0
 62
   257
 93
        1
300
CONTENTFORMAT
  1
CONTENTFORMAT_BEGIN
 90
        0
 91
        0
 92
      512
 93
        0
300

 40
0.0
140
1.0
 94
        5
 62
     0
340
11
144
4.5
309
CONTENTFORMAT_END
171
     1
301
MARGIN
  1
CELLMARGIN_BEGIN
 40
1.5
 40
1.5
 40
1.5
 40
1.5
 40
0.18
 40
0.18
309
CELLMARGIN_END
 94
        6
 95
        1
302
GRIDFORMAT
  1
GRIDFORMAT_BEGIN
 90
        0
 91
        1
 62
     0
 92
       -2
340
0
 93
        0
 40
0.045
309
GRIDFORMAT_END
 95
        2
302
GRIDFORMAT
  1
GRIDFORMAT_BEGIN
 90
        0
 91
        1
 62
     0
 92
       -2
340
0
 93
        0
 40
0.045
309
GRIDFORMAT_END
 95
        4
302
GRIDFORMAT
  1
GRIDFORMAT_BEGIN
 90
        0
 91
        1
 62
     0
 92
       -2
340
0
 93
        0
 40
0.045
309
GRIDFORMAT_END
 95
        8
302
GRIDFORMAT
  1
GRIDFORMAT_BEGIN
 90
        0
 91
        1
 62
     0
 92
       -2
340
0
 93
        0
 40
0.045
309
GRIDFORMAT_END
 95
       16
302
GRIDFORMAT
  1
GRIDFORMAT_BEGIN
 90
        0
 91
        1
 62
     0
 92
       -2
340
0
 93
        0
 40
0.045
309
GRIDFORMAT_END
 95
       32
302
GRIDFORMAT
  1
GRIDFORMAT_BEGIN
 90
        0
 91
        1
 62
     0
 92
       -2
340
0
 93
        0
 40
0.045
309
GRIDFORMAT_END
309
TABLEFORMAT_END
  1
CELLSTYLE_BEGIN
 90
        2
 91
        1
300
_HEADER
309
CELLSTYLE_END
300
CELLSTYLE
  1
TABLEFORMAT_BEGIN
 90
        5
170
     1
 91
        0
 92
        0
 62
   257
 93
        1
300
CONTENTFORMAT
  1
CONTENTFORMAT_BEGIN
 90
        0
 91
        0
 92
      512
 93
        0
300

 40
0.0
140
1.0
 94
        2
 62
     0
340
11
144
4.5
309
CONTENTFORMAT_END
171
     1
301
MARGIN
  1
CELLMARGIN_BEGIN
 40
1.5
 40
1.5
 40
1.5
 40
1.5
 40
0.18
 40
0.18
309
CELLMARGIN_END
 94
        6
 95
        1
302
GRIDFORMAT
  1
GRIDFORMAT_BEGIN
 90
        0
 91
        1
 62
     0
 92
       -2
340
0
 93
        0
 40
0.045
309
GRIDFORMAT_END
 95
        2
302
GRIDFORMAT
  1
GRIDFORMAT_BEGIN
 90
        0
 91
        1
 62
     0
 92
       -2
340
0
 93
        0
 40
0.045
309
GRIDFORMAT_END
 95
        4
302
GRIDFORMAT
  1
GRIDFORMAT_BEGIN
 90
        0
 91
        1
 62
     0
 92
       -2
340
0
 93
        0
 40
0.045
309
GRIDFORMAT_END
 95
        8
302
GRIDFORMAT
  1
GRIDFORMAT_BEGIN
 90
        0
 91
        1
 62
     0
 92
       -2
340
0
 93
        0
 40
0.045
309
GRIDFORMAT_END
 95
       16
302
GRIDFORMAT
  1
GRIDFORMAT_BEGIN
 90
        0
 91
        1
 62
     0
 92
       -2
340
0
 93
        0
 40
0.045
309
GRIDFORMAT_END
 95
       32
302
GRIDFORMAT
  1
GRIDFORMAT_BEGIN
 90
        0
 91
        1
 62
     0
 92
       -2
340
0
 93
        0
 40
0.045
309
GRIDFORMAT_END
309
TABLEFORMAT_END
  1
CELLSTYLE_BEGIN
 90
        3
 91
        2
300
_DATA
309
CELLSTYLE_END
  0
ENDSEC
  0
EOF
