  0
SECTION
  2
HEADER
  9
$ACADVER
  1
AC1021
  9
$ACADMAINTVER
 70
    26
  9
$DWGCODEPAGE
  3
ANSI_932
  9
$LASTSAVEDBY
  1
Htm_Terada
  9
$CUSTOMPROPERTYTAG
  1
AmdtFileType
  9
$CUSTOMPROPERTY
  1
84
  9
$INSBASE
 10
0.0
 20
0.0
 30
0.0
  9
$EXTMIN
 10
190.8693578905606
 20
210.6654639720319
 30
0.0
  9
$EXTMAX
 10
447.2926178099337
 20
404.1738667179319
 30
0.0
  9
$LIMMIN
 10
0.0000002871507832
 20
0.0000005540730967
  9
$LIMMAX
 10
630.0000002871508
 20
445.5000005540731
  9
$ORTHOMODE
 70
     0
  9
$REGENMODE
 70
     1
  9
$FILLMODE
 70
     1
  9
$QTEXTMODE
 70
     0
  9
$MIRRTEXT
 70
     1
  9
$LTSCALE
 40
1.5
  9
$ATTMODE
 70
     1
  9
$TEXTSIZE
 40
25.0
  9
$TRACEWID
 40
1.0
  9
$TEXTSTYLE
  7
SEISA
  9
$CLAYER
  8
AM_11 想像線
  9
$CELTYPE
  6
ByLayer
  9
$CECOLOR
 62
   256
  9
$CELTSCALE
 40
1.0
  9
$DISPSILH
 70
     0
  9
$DIMSCALE
 40
1.5
  9
$DIMASZ
 40
2.5
  9
$DIMEXO
 40
0.625
  9
$DIMDLI
 40
10.0
  9
$DIMRND
 40
0.0
  9
$DIMDLE
 40
0.0
  9
$DIMEXE
 40
0.625
  9
$DIMTP
 40
0.1
  9
$DIMTM
 40
0.1
  9
$DIMTXT
 40
3.5
  9
$DIMCEN
 40
0.0
  9
$DIMTSZ
 40
0.0
  9
$DIMTOL
 70
     0
  9
$DIMLIM
 70
     0
  9
$DIMTIH
 70
     0
  9
$DIMTOH
 70
     0
  9
$DIMSE1
 70
     0
  9
$DIMSE2
 70
     0
  9
$DIMTAD
 70
     3
  9
$DIMZIN
 70
     8
  9
$DIMBLK
  1
Open30
  9
$DIMASO
 70
     1
  9
$DIMSHO
 70
     1
  9
$DIMPOST
  1

  9
$DIMAPOST
  1
"
  9
$DIMALT
 70
     0
  9
$DIMALTD
 70
     2
  9
$DIMALTF
 40
0.0393701
  9
$DIMLFAC
 40
1.0
  9
$DIMTOFL
 70
     1
  9
$DIMTVP
 40
0.0
  9
$DIMTIX
 70
     0
  9
$DIMSOXD
 70
     0
  9
$DIMSAH
 70
     0
  9
$DIMBLK1
  1

  9
$DIMBLK2
  1

  9
$DIMSTYLE
  2
SEISA
  9
$DIMCLRD
 70
     3
  9
$DIMCLRE
 70
     3
  9
$DIMCLRT
 70
     3
  9
$DIMTFAC
 40
0.71
  9
$DIMGAP
 40
1.5
  9
$DIMJUST
 70
     0
  9
$DIMSD1
 70
     0
  9
$DIMSD2
 70
     0
  9
$DIMTOLJ
 70
     0
  9
$DIMTZIN
 70
     0
  9
$DIMALTZ
 70
     0
  9
$DIMALTTZ
 70
     8
  9
$DIMUPT
 70
     0
  9
$DIMDEC
 70
     2
  9
$DIMTDEC
 70
     2
  9
$DIMALTU
 70
     2
  9
$DIMALTTD
 70
     2
  9
$DIMTXSTY
  7
SEISA
  9
$DIMAUNIT
 70
     0
  9
$DIMADEC
 70
     0
  9
$DIMALTRND
 40
0.0
  9
$DIMAZIN
 70
     2
  9
$DIMDSEP
 70
    46
  9
$DIMATFIT
 70
     3
  9
$DIMFRAC
 70
     0
  9
$DIMLDRBLK
  1
Open30
  9
$DIMLUNIT
 70
     2
  9
$DIMLWD
 70
    -1
  9
$DIMLWE
 70
    -1
  9
$DIMTMOVE
 70
     0
  9
$DIMFXL
 40
1.0
  9
$DIMFXLON
 70
     0
  9
$DIMJOGANG
 40
0.7853981633974483
  9
$DIMTFILL
 70
     0
  9
$DIMTFILLCLR
 70
     0
  9
$DIMARCSYM
 70
     1
  9
$DIMLTYPE
  6

  9
$DIMLTEX1
  6

  9
$DIMLTEX2
  6

  9
$LUNITS
 70
     2
  9
$LUPREC
 70
     2
  9
$SKETCHINC
 40
1.0
  9
$FILLETRAD
 40
3.75
  9
$AUNITS
 70
     0
  9
$AUPREC
 70
     0
  9
$MENU
  1
.
  9
$ELEVATION
 40
0.0
  9
$PELEVATION
 40
0.0
  9
$THICKNESS
 40
0.0
  9
$LIMCHECK
 70
     0
  9
$CHAMFERA
 40
0.9999999999998864
  9
$CHAMFERB
 40
0.9999999999999715
  9
$CHAMFERC
 40
0.9999999999998864
  9
$CHAMFERD
 40
0.7853981633974625
  9
$SKPOLY
 70
     0
  9
$TDCREATE
 40
2454897.443919780
  9
$TDUCREATE
 40
2454897.068919780
  9
$TDUPDATE
 40
2456478.690982350
  9
$TDUUPDATE
 40
2456478.315982350
  9
$TDINDWG
 40
0.4041493866
  9
$TDUSRTIMER
 40
0.4041488426
  9
$USRTIMER
 70
     1
  9
$ANGBASE
 50
0.0
  9
$ANGDIR
 70
     0
  9
$PDMODE
 70
     0
  9
$PDSIZE
 40
0.0
  9
$PLINEWID
 40
0.0
  9
$SPLFRAME
 70
     0
  9
$SPLINETYPE
 70
     6
  9
$SPLINESEGS
 70
     8
  9
$HANDSEED
  5
8600
  9
$SURFTAB1
 70
     6
  9
$SURFTAB2
 70
     6
  9
$SURFTYPE
 70
     6
  9
$SURFU
 70
     6
  9
$SURFV
 70
     6
  9
$UCSBASE
  2

  9
$UCSNAME
  2

  9
$UCSORG
 10
0.0
 20
0.0
 30
0.0
  9
$UCSXDIR
 10
1.0
 20
0.0
 30
0.0
  9
$UCSYDIR
 10
0.0
 20
1.0
 30
0.0
  9
$UCSORTHOREF
  2

  9
$UCSORTHOVIEW
 70
     0
  9
$UCSORGTOP
 10
0.0
 20
0.0
 30
0.0
  9
$UCSORGBOTTOM
 10
0.0
 20
0.0
 30
0.0
  9
$UCSORGLEFT
 10
0.0
 20
0.0
 30
0.0
  9
$UCSORGRIGHT
 10
0.0
 20
0.0
 30
0.0
  9
$UCSORGFRONT
 10
0.0
 20
0.0
 30
0.0
  9
$UCSORGBACK
 10
0.0
 20
0.0
 30
0.0
  9
$PUCSBASE
  2

  9
$PUCSNAME
  2

  9
$PUCSORG
 10
0.0
 20
0.0
 30
0.0
  9
$PUCSXDIR
 10
1.0
 20
0.0
 30
0.0
  9
$PUCSYDIR
 10
0.0
 20
1.0
 30
0.0
  9
$PUCSORTHOREF
  2

  9
$PUCSORTHOVIEW
 70
     0
  9
$PUCSORGTOP
 10
0.0
 20
0.0
 30
0.0
  9
$PUCSORGBOTTOM
 10
0.0
 20
0.0
 30
0.0
  9
$PUCSORGLEFT
 10
0.0
 20
0.0
 30
0.0
  9
$PUCSORGRIGHT
 10
0.0
 20
0.0
 30
0.0
  9
$PUCSORGFRONT
 10
0.0
 20
0.0
 30
0.0
  9
$PUCSORGBACK
 10
0.0
 20
0.0
 30
0.0
  9
$USERI1
 70
     0
  9
$USERI2
 70
     0
  9
$USERI3
 70
     0
  9
$USERI4
 70
     0
  9
$USERI5
 70
     0
  9
$USERR1
 40
0.0
  9
$USERR2
 40
0.0
  9
$USERR3
 40
0.0
  9
$USERR4
 40
0.0
  9
$USERR5
 40
0.0
  9
$WORLDVIEW
 70
     1
  9
$SHADEDGE
 70
     3
  9
$SHADEDIF
 70
    70
  9
$TILEMODE
 70
     1
  9
$MAXACTVP
 70
    64
  9
$PINSBASE
 10
0.0
 20
0.0
 30
0.0
  9
$PLIMCHECK
 70
     0
  9
$PEXTMIN
 10
1.000000000000000E+20
 20
1.000000000000000E+20
 30
1.000000000000000E+20
  9
$PEXTMAX
 10
-1.000000000000000E+20
 20
-1.000000000000000E+20
 30
-1.000000000000000E+20
  9
$PLIMMIN
 10
0.0
 20
0.0
  9
$PLIMMAX
 10
420.0
 20
297.0
  9
$UNITMODE
 70
     0
  9
$VISRETAIN
 70
     1
  9
$PLINEGEN
 70
     0
  9
$PSLTSCALE
 70
     1
  9
$TREEDEPTH
 70
  3020
  9
$CMLSTYLE
  2
Standard
  9
$CMLJUST
 70
     0
  9
$CMLSCALE
 40
20.0
  9
$PROXYGRAPHICS
 70
     1
  9
$MEASUREMENT
 70
     1
  9
$CELWEIGHT
370
    -1
  9
$ENDCAPS
280
     0
  9
$JOINSTYLE
280
     0
  9
$LWDISPLAY
290
     0
  9
$INSUNITS
 70
     4
  9
$HYPERLINKBASE
  1

  9
$STYLESHEET
  1
SEISA.CTB
  9
$XEDIT
290
     1
  9
$CEPSNTYPE
380
     0
  9
$PSTYLEMODE
290
     1
  9
$FINGERPRINTGUID
  2
{0D19D42B-4A23-4CDA-80AB-D21F7C9EEEA6}
  9
$VERSIONGUID
  2
{40CFE49F-3FA4-481A-AF3C-B30C8B81898A}
  9
$EXTNAMES
290
     1
  9
$PSVPSCALE
 40
0.0
  9
$OLESTARTUP
290
     0
  9
$SORTENTS
280
   127
  9
$INDEXCTL
280
     0
  9
$HIDETEXT
280
     0
  9
$XCLIPFRAME
290
     0
  9
$HALOGAP
280
     0
  9
$OBSCOLOR
 70
   257
  9
$OBSLTYPE
280
     0
  9
$INTERSECTIONDISPLAY
280
     0
  9
$INTERSECTIONCOLOR
 70
   257
  9
$DIMASSOC
280
     2
  9
$PROJECTNAME
  1

  9
$CAMERADISPLAY
290
     0
  9
$LENSLENGTH
 40
50.0
  9
$CAMERAHEIGHT
 40
0.0
  9
$STEPSPERSEC
 40
2.0
  9
$STEPSIZE
 40
6.0
  9
$3DDWFPREC
 40
2.0
  9
$PSOLWIDTH
 40
0.25
  9
$PSOLHEIGHT
 40
4.0
  9
$LOFTANG1
 40
1.570796326794896
  9
$LOFTANG2
 40
1.570796326794896
  9
$LOFTMAG1
 40
0.0
  9
$LOFTMAG2
 40
0.0
  9
$LOFTPARAM
 70
     7
  9
$LOFTNORMALS
280
     1
  9
$LATITUDE
 40
37.795
  9
$LONGITUDE
 40
-122.394
  9
$NORTHDIRECTION
 40
0.0
  9
$TIMEZONE
 70
 -8000
  9
$LIGHTGLYPHDISPLAY
280
     1
  9
$TILEMODELIGHTSYNCH
280
     1
  9
$CMATERIAL
347
27C
  9
$SOLIDHIST
280
     1
  9
$SHOWHIST
280
     1
  9
$DWFFRAME
280
     2
  9
$DGNFRAME
280
     0
  9
$REALWORLDSCALE
290
     1
  9
$INTERFERECOLOR
 62
     1
  9
$INTERFEREOBJVS
345
289
  9
$INTERFEREVPVS
346
286
  9
$CSHADOW
280
     0
  9
$SHADOWPLANELOCATION
 40
0.0
  0
ENDSEC
  0
SECTION
  2
CLASSES
  0
CLASS
  1
ACDBDICTIONARYWDFLT
  2
AcDbDictionaryWithDefault
  3
ObjectDBX Classes
 90
        0
 91
        1
280
     0
281
     0
  0
CLASS
  1
AMGSETTINGSOBJ
  2
AmgSettingsObj
  3
"AcadM|Product Description: AutoCAD Mechanical|Company: Autodesk, Inc."
 90
     1024
 91
        2
280
     0
281
     0
  0
CLASS
  1
ACME_DOCUMENT
  2
AcMeDbDoc
  3
AcMeServices
 90
     1024
 91
        1
280
     0
281
     0
  0
CLASS
  1
ACMESCOPE
  2
AcMeScope
  3
AcMeServices
 90
     1024
 91
        1
280
     0
281
     0
  0
CLASS
  1
ACMECOMMANDHISTORY
  2
AcMeCommandHistory
  3
AcMeServices
 90
     1024
 91
        1
280
     0
281
     0
  0
CLASS
  1
DICTIONARYVAR
  2
AcDbDictionaryVar
  3
ObjectDBX Classes
 90
        0
 91
        9
280
     0
281
     0
  0
CLASS
  1
ACIMSYSVARMAN
  2
AcImSysVarManager
  3
AcMeServices
 90
     1024
 91
        5
280
     0
281
     0
  0
CLASS
  1
ACIMREALSYSVAR
  2
AcImRealSysVar
  3
AcMeServices
 90
     1024
 91
        1
280
     0
281
     0
  0
CLASS
  1
ACIMINTSYSVAR
  2
AcImIntSysVar
  3
AcMeServices
 90
     1024
 91
       27
280
     0
281
     0
  0
CLASS
  1
ACMEDRAWINGMAN
  2
AcMeDrawingMan
  3
AcMeServices
 90
     1024
 91
        1
280
     0
281
     0
  0
CLASS
  1
ACMEVIEW
  2
AcMeView
  3
AcMeServices
 90
     1024
 91
        1
280
     0
281
     0
  0
CLASS
  1
ACDBENTITYCACHE
  2
AcMeEntityCache
  3
AcMeServices
 90
     1024
 91
        1
280
     0
281
     0
  0
CLASS
  1
GSMANAGER
  2
AcMeGSManager
  3
AcMeServices
 90
     1024
 91
        1
280
     0
281
     0
  0
CLASS
  1
AMDTINTERNALREACTOR
  2
AmdtInternalReactor
  3
AcMeServices
 90
     1024
 91
        2
280
     0
281
     0
  0
CLASS
  1
ACMESTATEMGR
  2
AcMeStateMgr
  3
AcMeServices
 90
     1024
 91
        1
280
     0
281
     0
  0
CLASS
  1
ACGREFMASTER
  2
AcGrefMaster
  3
AcAttribServices
 90
     1024
 91
        1
280
     0
281
     0
  0
CLASS
  1
ACME_DATABASE
  2
AcMeDbDatabase
  3
AcMeServices
 90
     1024
 91
        1
280
     0
281
     0
  0
CLASS
  1
ACRFINSADJUSTERMGR
  2
AcRfInsAdjusterMgr
  3
AcMeServices
 90
     1024
 91
        1
280
     0
281
     0
  0
CLASS
  1
ACGREFACADMASTER
  2
AcGrefacadMaster
  3
AcGrefServices
 90
     1024
 91
        1
280
     0
281
     0
  0
CLASS
  1
AMIMASTER
  2
AmiMaster
  3
AmiServices
 90
     1024
 91
        1
280
     0
281
     0
  0
CLASS
  1
ACIMSTRSYSVAR
  2
AcImStrSysVar
  3
AcMeServices
 90
     1024
 91
        5
280
     0
281
     0
  0
CLASS
  1
ACMSTANDARDJIS
  2
AcmStandardJIS
  3
"Amdt_StdImp|Product Description: AutoCAD Mechanical|Company: Autodesk, Inc."
 90
     1024
 91
        0
280
     0
281
     0
  0
CLASS
  1
AMGOBJPROPCFG
  2
AmgObjPropCfg
  3
"AmgLay|Product Description: AutoCAD Mechanical|Company: Autodesk, Inc."
 90
     1025
 91
        1
280
     0
281
     0
  0
CLASS
  1
ACMSURFSTANDARDJIS
  2
AcmSurfTextStdJIS
  3
"Amdt_StdImp|Product Description: AutoCAD Mechanical|Company: Autodesk, Inc."
 90
     1024
 91
        0
280
     0
281
     0
  0
CLASS
  1
ACMFCFSTANDARDJIS
  2
AcmFCFStdJIS
  3
"Amdt_StdImp|Product Description: AutoCAD Mechanical|Company: Autodesk, Inc."
 90
     1024
 91
        0
280
     0
281
     0
  0
CLASS
  1
ACMWELDSTANDARDJIS
  2
AcmWeldingStdJIS
  3
"Amdt_StdImp|Product Description: AutoCAD Mechanical|Company: Autodesk, Inc."
 90
     1024
 91
        0
280
     0
281
     0
  0
CLASS
  1
ACMIDSTANDARDJIS
  2
AcmIdStdJIS
  3
"Amdt_StdImp|Product Description: AutoCAD Mechanical|Company: Autodesk, Inc."
 90
     1024
 91
        0
280
     0
281
     0
  0
CLASS
  1
ACMDATUMSTANDARDJIS
  2
AcmDatumStdJIS
  3
"Amdt_StdImp|Product Description: AutoCAD Mechanical|Company: Autodesk, Inc."
 90
     1024
 91
        0
280
     0
281
     0
  0
CLASS
  1
ACMBOMSTANDARDJIS
  2
AcmBOMStdJIS
  3
"Amdt_StdImp|Product Description: AutoCAD Mechanical|Company: Autodesk, Inc."
 90
     1024
 91
        0
280
     0
281
     0
  0
CLASS
  1
ACMDETAILSTANDARDJIS
  2
AmdtDetailSymStdJIS
  3
"Amdt_StdImp|Product Description: AutoCAD Mechanical|Company: Autodesk, Inc."
 90
     1024
 91
        0
280
     0
281
     0
  0
CLASS
  1
ACMSECTIONSTANDARDJIS
  2
AmdtSectionSymStdJIS
  3
"Amdt_StdImp|Product Description: AutoCAD Mechanical|Company: Autodesk, Inc."
 90
     1024
 91
        0
280
     0
281
     0
  0
CLASS
  1
ACMCENTERLINESTANDARDJIS
  2
AmdtCenterLineStdJIS
  3
"Amdt_StdImp|Product Description: AutoCAD Mechanical|Company: Autodesk, Inc."
 90
     1024
 91
        0
280
     0
281
     0
  0
CLASS
  1
ACMTHREADLINESTANDARDJIS
  2
AmdtThreadLineStdJIS
  3
"Amdt_StdImp|Product Description: AutoCAD Mechanical|Company: Autodesk, Inc."
 90
     1024
 91
        0
280
     0
281
     0
  0
CLASS
  1
ACAMGLAYSTD
  2
AcAmgLayStd
  3
"AmgLay|Product Description: AutoCAD Mechanical|Company: Autodesk, Inc."
 90
     1024
 91
        1
280
     0
281
     0
  0
CLASS
  1
ACAMGDIMSTD
  2
AcAmgDimStd
  3
"AmgDim|Product Description: AutoCAD Mechanical|Company: Autodesk, Inc."
 90
     1024
 91
        1
280
     0
281
     0
  0
CLASS
  1
ACAMGTITLESTD
  2
AcAmgTitleStd
  3
"AmgTitle|Product Description: AutoCAD Mechanical|Company: Autodesk, Inc."
 90
     4095
 91
        1
280
     0
281
     0
  0
CLASS
  1
ACMDATADICTIONARY
  2
AcmDataDictionary
  3
"AcmSymBB|Product Description: AutoCAD Mechanical|Company: Autodesk, Inc."
 90
     1024
 91
        1
280
     0
281
     0
  0
CLASS
  1
ACMDATAENTRYBLOCK
  2
AcmDataEntryBlock
  3
AcmSymBB|Product Description: AutoCAD Mechanical|Company: Autodesk, Inc.
 90
     1024
 91
        0
280
     0
281
     0
  0
CLASS
  1
LAYER_INDEX
  2
AcDbLayerIndex
  3
ObjectDBX Classes
 90
        0
 91
        0
280
     0
281
     0
  0
CLASS
  1
IDBUFFER
  2
AcDbIdBuffer
  3
ObjectDBX Classes
 90
        0
 91
        0
280
     0
281
     0
  0
CLASS
  1
ACMNOTESTANDARDJIS
  2
AmdtNoteStdJIS
  3
"Amdt_StdImp|Product Description: AutoCAD Mechanical|Company: Autodesk, Inc."
 90
     1024
 91
        0
280
     0
281
     0
  0
CLASS
  1
ACAMGHOLECHARTSTDJIS
  2
AcAmgHoleChartStdJIS
  3
AmgDim|Product Description: AutoCAD Mechanical|Company: Autodesk, Inc.
 90
     1024
 91
        0
280
     0
281
     0
  0
CLASS
  1
AM_DRAWING_MGR
  2
AcDmDwgMgr
  3
AcMechDwgViewMgmt
 90
     1024
 91
        1
280
     0
281
     0
  0
CLASS
  1
AM_DWG_DOCUMENT
  2
AcDmDwgDocument
  3
AcMechDwgViewMgmt
 90
     1024
 91
        1
280
     0
281
     0
  0
CLASS
  1
AM_DWG_SHEET
  2
AcDmSheet
  3
AcMechDwgViewMgmt
 90
     1024
 91
        2
280
     0
281
     0
  0
CLASS
  1
AM_VIEWDIMPARMAP
  2
AcDmViewDimParMap
  3
AcMechDwgViewMgmt
 90
     1024
 91
        2
280
     0
281
     0
  0
CLASS
  1
AM_DWGMGR_NAME
  2
AcDmDwgMgrName
  3
AcMechDwgViewMgmt
 90
     1024
 91
        1
280
     0
281
     0
  0
CLASS
  1
AMDTMENUSTATEMGR
  2
AmdtMenuStateMgr
  3
McadcomServices
 90
     1024
 91
        1
280
     0
281
     0
  0
CLASS
  1
AMDTMCOMMENUSTATE
  2
AmdtMcomMenuState
  3
McadcomServices
 90
     1024
 91
        1
280
     0
281
     0
  0
CLASS
  1
MAPIAMMOUDLE
  2
MApiAmModule
  3
MApiAmServices
 90
     1024
 91
        1
280
     0
281
     0
  0
CLASS
  1
AMDTADMENUSTATE
  2
AmdtAdMenuState
  3
DesignerServices
 90
     1024
 91
        1
280
     0
281
     0
  0
CLASS
  1
ADAPPL
  2
AcAdAppl
  3
DesignerServices
 90
     1024
 91
        1
280
     0
281
     0
  0
CLASS
  1
DEPMGR
  2
AcAdDepMgr
  3
DesignerServices
 90
     1024
 91
        1
280
     0
281
     0
  0
CLASS
  1
PARAMMGR
  2
AcAdParamMgr
  3
DesignerServices
 90
     1024
 91
        1
280
     0
281
     0
  0
CLASS
  1
PARAMSCOPE
  2
AcAdParamScope
  3
DesignerServices
 90
     1024
 91
        1
280
     0
281
     0
  0
CLASS
  1
NAMEDAPPL
  2
AcAdNamedAppl
  3
DesignerServices
 90
     1024
 91
        1
280
     0
281
     0
  0
CLASS
  1
AMDTDMMENUSTATE
  2
AmdtDmMenuState
  3
AcMechDwgViewMgmt
 90
     1024
 91
        1
280
     0
281
     0
  0
CLASS
  1
AMDTAMMENUSTATE
  2
AmdtAmMenuState
  3
DesignerAssemblies
 90
     1024
 91
        1
280
     0
281
     0
  0
CLASS
  1
ACAMPROJECT
  2
AcAmProject
  3
DesignerAssemblies
 90
     1024
 91
        1
280
     0
281
     0
  0
CLASS
  1
ACAMGRCOMPDEF
  2
AcAmGrCompDef
  3
DesignerAssemblies
 90
     1024
 91
        1
280
     0
281
     0
  0
CLASS
  1
ACCMCONTEXT
  2
AcCmContext
  3
DesignerAssemblies
 90
     1024
 91
        1
280
     0
281
     0
  0
CLASS
  1
ACAMCOMPDEF
  2
AcAmCompDef
  3
DesignerAssemblies
 90
     1024
 91
        1
280
     0
281
     0
  0
CLASS
  1
ACAMCOMPDEFMGR
  2
AcAmCompDefMgr
  3
DesignerAssemblies
 90
     1024
 91
        1
280
     0
281
     0
  0
CLASS
  1
AMCONTEXTMGR
  2
AcAmContextMgr
  3
DesignerAssemblies
 90
     1024
 91
        1
280
     0
281
     0
  0
CLASS
  1
ACAMCONTEXTMODELER
  2
AcAmContextModeler
  3
DesignerAssemblies
 90
     1024
 91
        1
280
     0
281
     0
  0
CLASS
  1
CATALOGSTATE
  2
AcAmCatalogState
  3
DesignerAssemblies
 90
     1024
 91
        1
280
     0
281
     0
  0
CLASS
  1
ACAMGRCOMPDEFSET
  2
AcAmGrCompDefSet
  3
DesignerAssemblies
 90
     1024
 91
        1
280
     0
281
     0
  0
CLASS
  1
AMDTBROWSERDBTAB
  2
AmdtBrowserDbTab
  3
McadcomServices
 90
     1024
 91
        1
280
     0
281
     0
  0
CLASS
  1
CBROWSERAPPOBJECT
  2
CBrowserAppObject
  3
McadcomServices
 90
     1024
 91
        3
280
     0
281
     0
  0
CLASS
  1
DM_PLACEHOLDER
  2
AcDmSelsetPlaceholder
  3
AcMechDwgViewMgmt
 90
     1024
 91
        1
280
     0
281
     0
  0
CLASS
  1
TABLESTYLE
  2
AcDbTableStyle
  3
ObjectDBX Classes
 90
     4095
 91
        1
280
     0
281
     0
  0
CLASS
  1
VAACXREFPANELOBJECT
  2
VaAcXREFPanelObject
  3
VAAC_ADDIN
 90
        0
 91
        0
280
     0
281
     0
  0
CLASS
  1
VAACIMAGEINVENTORY
  2
VaAcImageInventory
  3
VAAC_ADDIN
 90
        0
 91
        0
280
     0
281
     0
  0
CLASS
  1
AMDTNOTETEMPLATEDB
  2
AmdtNoteTemplateDB
  3
AcmSymBB|Product Description: AutoCAD Mechanical|Company: Autodesk, Inc.
 90
     1024
 91
        6
280
     0
281
     0
  0
CLASS
  1
ACAMGFILTERDAT
  2
AcAmgFilterDat
  3
"AcadM|Product Description: AutoCAD Mechanical|Company: Autodesk, Inc."
 90
     1024
 91
        0
280
     0
281
     0
  0
CLASS
  1
MATERIAL
  2
AcDbMaterial
  3
ObjectDBX Classes
 90
     1153
 91
        3
280
     0
281
     0
  0
CLASS
  1
VISUALSTYLE
  2
AcDbVisualStyle
  3
ObjectDBX Classes
 90
     4095
 91
       16
280
     0
281
     0
  0
CLASS
  1
ACRFATTGENMGR
  2
AcRfAttGeneralMgr
  3
AcAttribServices
 90
     1024
 91
        0
280
     0
281
     0
  0
CLASS
  1
ACRFOBJATTMGR
  2
AcRfObjAttGroupMgr
  3
AcAttribServices
 90
     1024
 91
        0
280
     0
281
     0
  0
CLASS
  1
ACRFMCADAPIATTHOLDER
  2
AcRfMCADAPIAttHolder
  3
AcAttribServices
 90
     1024
 91
        0
280
     0
281
     0
  0
CLASS
  1
AMDTSYSATTR
  2
AmdtSystemAttribute
  3
AcAttribServices
 90
     1024
 91
        0
280
     0
281
     0
  0
CLASS
  1
ACMTAPERSTANDARDJIS
  2
AcmTaperStdJIS
  3
"Amdt_StdImp|Product Description: AutoCAD Mechanical|Company: Autodesk, Inc."
 90
     1024
 91
        0
280
     0
281
     0
  0
CLASS
  1
CAMSSTRUCTBTNSTATE
  2
StructBtnState
  3
DesignerAssemblies
 90
     1024
 91
        0
280
     0
281
     0
  0
CLASS
  1
SCALE
  2
AcDbScale
  3
ObjectDBX Classes
 90
     1153
 91
       34
280
     0
281
     0
  0
CLASS
  1
MLEADERSTYLE
  2
AcDbMLeaderStyle
  3
ACDB_MLEADERSTYLE_CLASS
 90
     4095
 91
        1
280
     0
281
     0
  0
CLASS
  1
ACMANOOTATIONVIEWSTANDARDJIS
  2
AmdtAnViewStdJIS
  3
"Amdt_StdImp|Product Description: AutoCAD Mechanical|Company: Autodesk, Inc."
 90
     1024
 91
        0
280
     0
281
     0
  0
CLASS
  1
ACMSURFSTANDARDJIS2003
  2
AcmSurfTextStdJIS2003
  3
"Amdt_StdImp|Product Description: AutoCAD Mechanical|Company: Autodesk, Inc."
 90
     1024
 91
        0
280
     0
281
     0
  0
CLASS
  1
CELLSTYLEMAP
  2
AcDbCellStyleMap
  3
ObjectDBX Classes
 90
     1152
 91
        2
280
     0
281
     0
  0
CLASS
  1
ACMFCFSTANDARDJIS98
  2
AcmFCFStdJIS98
  3
"Amdt_StdImp|Product Description: AutoCAD Mechanical|Company: Autodesk, Inc."
 90
     1024
 91
        0
280
     0
281
     0
  0
CLASS
  1
SORTENTSTABLE
  2
AcDbSortentsTable
  3
ObjectDBX Classes
 90
        0
 91
       11
280
     0
281
     0
  0
CLASS
  1
DIMASSOC
  2
AcDbDimAssoc
  3
"AcDbDimAssoc|Product Desc:     AcDim ARX App For Dimension|Company:          Autodesk, Inc.|WEB Address:      www.autodesk.com"
 90
        0
 91
       15
280
     0
281
     0
  0
CLASS
  1
STDPART2D
  2
AmgStdPart
  3
AmgStdPart|Product Description: AutoCAD Mechanical|Company: Autodesk, Inc.
 90
     4095
 91
        0
280
     0
281
     1
  0
CLASS
  1
ACMDATAENTRYPART
  2
AcmDataEntryPart
  3
AcmSymBB|Product Description: AutoCAD Mechanical|Company: Autodesk, Inc.
 90
     1024
 91
        0
280
     0
281
     0
  0
CLASS
  1
ACMPARTREF
  2
AcmPartRef
  3
"AcmSymBB|Product Description: AutoCAD Mechanical|Company: Autodesk, Inc."
 90
     4095
 91
        0
280
     0
281
     1
  0
CLASS
  1
ACDBSTDPARTRES_LINE
  2
AcDbStdPartRes_Line
  3
AmgStdPart|Product Description: AutoCAD Mechanical|Company: Autodesk, Inc.
 90
     1024
 91
        0
280
     0
281
     0
  0
CLASS
  1
ACMBOM
  2
AcmBom
  3
"AcmSymBB|Product Description: AutoCAD Mechanical|Company: Autodesk, Inc."
 90
     1024
 91
        0
280
     0
281
     0
  0
CLASS
  1
AMDTFORMULAUPDATEDISPATCHER
  2
AmdtFormulaUpdateDispatcher
  3
AcMeServices
 90
     1024
 91
        0
280
     0
281
     0
  0
CLASS
  1
ACMBOMROW
  2
AcmBomRow
  3
"AcmSymBB|Product Description: AutoCAD Mechanical|Company: Autodesk, Inc."
 90
     1024
 91
        0
280
     0
281
     0
  0
CLASS
  1
ACMPARTLIST
  2
AcmPartList
  3
"AcmSymBB|Product Description: AutoCAD Mechanical|Company: Autodesk, Inc."
 90
     4095
 91
        0
280
     0
281
     1
  0
CLASS
  1
ACDBLINERES
  2
AcDbLineRes
  3
AcGrefServices
 90
     1024
 91
        0
280
     0
281
     0
  0
CLASS
  1
ACRFINSADJ
  2
AcRfInsAdjuster
  3
AcMeServices
 90
     1024
 91
        0
280
     0
281
     0
  0
CLASS
  1
ACMSTANDARDISO
  2
AcmStandardISO
  3
"Amdt_StdImp|Product Description: AutoCAD Mechanical|Company: Autodesk, Inc."
 90
     1024
 91
        1
280
     0
281
     0
  0
CLASS
  1
AMDTEDGESTANDARDISO13715
  2
AmdtEdgeStdISO13715
  3
"Amdt_StdImp|Product Description: AutoCAD Mechanical|Company: Autodesk, Inc."
 90
     1024
 91
        1
280
     0
281
     0
  0
CLASS
  1
ACMSURFSTANDARDISO2002
  2
AcmSurfTextStdISO2002
  3
"Amdt_StdImp|Product Description: AutoCAD Mechanical|Company: Autodesk, Inc."
 90
     1024
 91
        1
280
     0
281
     0
  0
CLASS
  1
ACMFCFSTANDARDISO
  2
AcmFCFStdISO
  3
"Amdt_StdImp|Product Description: AutoCAD Mechanical|Company: Autodesk, Inc."
 90
     1024
 91
        1
280
     0
281
     0
  0
CLASS
  1
ACMWELDSTANDARDISO
  2
AcmWeldingStdISO
  3
"Amdt_StdImp|Product Description: AutoCAD Mechanical|Company: Autodesk, Inc."
 90
     1024
 91
        1
280
     0
281
     0
  0
CLASS
  1
ACMIDSTANDARDISO
  2
AcmIdStdISO
  3
"Amdt_StdImp|Product Description: AutoCAD Mechanical|Company: Autodesk, Inc."
 90
     1024
 91
        1
280
     0
281
     0
  0
CLASS
  1
ACMDATUMSTANDARDISO
  2
AcmDatumStdISO
  3
"Amdt_StdImp|Product Description: AutoCAD Mechanical|Company: Autodesk, Inc."
 90
     1024
 91
        1
280
     0
281
     0
  0
CLASS
  1
ACMBOMSTANDARDISO
  2
AcmBOMStdISO
  3
"Amdt_StdImp|Product Description: AutoCAD Mechanical|Company: Autodesk, Inc."
 90
     1024
 91
        1
280
     0
281
     0
  0
CLASS
  1
ACMDETAILSTANDARDISO
  2
AmdtDetailSymStdISO
  3
"Amdt_StdImp|Product Description: AutoCAD Mechanical|Company: Autodesk, Inc."
 90
     1024
 91
        1
280
     0
281
     0
  0
CLASS
  1
ACMSECTIONSTANDARDISO2001
  2
AmdtSectionSymStdISO2001
  3
"Amdt_StdImp|Product Description: AutoCAD Mechanical|Company: Autodesk, Inc."
 90
     1024
 91
        1
280
     0
281
     0
  0
CLASS
  1
ACMCENTERLINESTANDARDISO
  2
AmdtCenterLineStdISO
  3
"Amdt_StdImp|Product Description: AutoCAD Mechanical|Company: Autodesk, Inc."
 90
     1024
 91
        1
280
     0
281
     0
  0
CLASS
  1
ACMTHREADLINESTANDARDISO
  2
AmdtThreadLineStdISO
  3
"Amdt_StdImp|Product Description: AutoCAD Mechanical|Company: Autodesk, Inc."
 90
     1024
 91
        1
280
     0
281
     0
  0
CLASS
  1
ACMNOTESTANDARDISO
  2
AmdtNoteStdISO
  3
"Amdt_StdImp|Product Description: AutoCAD Mechanical|Company: Autodesk, Inc."
 90
     1024
 91
        1
280
     0
281
     0
  0
CLASS
  1
ACMTAPERSTANDARDISO
  2
AcmTaperStdISO
  3
"Amdt_StdImp|Product Description: AutoCAD Mechanical|Company: Autodesk, Inc."
 90
     1024
 91
        1
280
     0
281
     0
  0
CLASS
  1
ACMANOOTATIONVIEWSTANDARDISO
  2
AmdtAnViewStdISO
  3
"Amdt_StdImp|Product Description: AutoCAD Mechanical|Company: Autodesk, Inc."
 90
     1024
 91
        1
280
     0
281
     0
  0
CLASS
  1
ACAMGHOLECHARTSTDISO
  2
AcAmgHoleChartStdISO
  3
AmgDim|Product Description: AutoCAD Mechanical|Company: Autodesk, Inc.
 90
     1024
 91
        1
280
     0
281
     0
  0
CLASS
  1
EXACXREFPANELOBJECT
  2
ExAcXREFPanelObject
  3
EXAC_ESW
 90
     1025
 91
        0
280
     0
281
     0
  0
CLASS
  1
NPOCOLLECTION
  2
AcDbImpNonPersistentObjectsCollection
  3
ObjectDBX Classes
 90
     1153
 91
        0
280
     0
281
     0
  0
CLASS
  1
ACDBSTDPARTRES_ARC
  2
AcDbStdPartRes_Arc
  3
AmgStdPart|Product Description: AutoCAD Mechanical|Company: Autodesk, Inc.
 90
     1024
 91
        0
280
     0
281
     0
  0
CLASS
  1
AMDTNOTE
  2
AmdtNote
  3
"AcmSymBB|Product Description: AutoCAD Mechanical|Company: Autodesk, Inc."
 90
     4095
 91
        0
280
     0
281
     1
  0
CLASS
  1
PLOTSETTINGS
  2
AcDbPlotSettings
  3
ObjectDBX Classes
 90
        0
 91
        1
280
     0
281
     0
  0
CLASS
  1
ACMSTANDARDANSI
  2
AcmStandardANSI
  3
"Amdt_StdImp|Product Description: AutoCAD Mechanical|Company: Autodesk, Inc."
 90
     1024
 91
        0
280
     0
281
     0
  0
CLASS
  1
ACMSURFSTANDARDANSI
  2
AcmSurfTextStdANSI
  3
"Amdt_StdImp|Product Description: AutoCAD Mechanical|Company: Autodesk, Inc."
 90
     1024
 91
        0
280
     0
281
     0
  0
CLASS
  1
ACMFCFSTANDARDANSI
  2
AcmFCFStdANSI
  3
"Amdt_StdImp|Product Description: AutoCAD Mechanical|Company: Autodesk, Inc."
 90
     1024
 91
        0
280
     0
281
     0
  0
CLASS
  1
ACMWELDSTANDARDANSI
  2
AcmWeldingStdANSI
  3
"Amdt_StdImp|Product Description: AutoCAD Mechanical|Company: Autodesk, Inc."
 90
     1024
 91
        0
280
     0
281
     0
  0
CLASS
  1
ACMIDSTANDARDANSI
  2
AcmIdStdANSI
  3
"Amdt_StdImp|Product Description: AutoCAD Mechanical|Company: Autodesk, Inc."
 90
     1024
 91
        0
280
     0
281
     0
  0
CLASS
  1
ACMDATUMSTANDARDANSI
  2
AcmDatumStdANSI
  3
"Amdt_StdImp|Product Description: AutoCAD Mechanical|Company: Autodesk, Inc."
 90
     1024
 91
        0
280
     0
281
     0
  0
CLASS
  1
ACMBOMSTANDARDANSI
  2
AcmBOMStdANSI
  3
"Amdt_StdImp|Product Description: AutoCAD Mechanical|Company: Autodesk, Inc."
 90
     1024
 91
        0
280
     0
281
     0
  0
CLASS
  1
ACMDETAILSTANDARDANSI
  2
AmdtDetailSymStdANSI
  3
"Amdt_StdImp|Product Description: AutoCAD Mechanical|Company: Autodesk, Inc."
 90
     1024
 91
        0
280
     0
281
     0
  0
CLASS
  1
ACMSECTIONSTANDARDANSI
  2
AmdtSectionSymStdANSI
  3
"Amdt_StdImp|Product Description: AutoCAD Mechanical|Company: Autodesk, Inc."
 90
     1024
 91
        0
280
     0
281
     0
  0
CLASS
  1
ACMCENTERLINESTANDARDANSI
  2
AmdtCenterLineStdANSI
  3
"Amdt_StdImp|Product Description: AutoCAD Mechanical|Company: Autodesk, Inc."
 90
     1024
 91
        0
280
     0
281
     0
  0
CLASS
  1
ACMTHREADLINESTANDARDANSI
  2
AmdtThreadLineStdANSI
  3
"Amdt_StdImp|Product Description: AutoCAD Mechanical|Company: Autodesk, Inc."
 90
     1024
 91
        0
280
     0
281
     0
  0
CLASS
  1
ACMNOTESTANDARDANSI
  2
AmdtNoteStdANSI
  3
"Amdt_StdImp|Product Description: AutoCAD Mechanical|Company: Autodesk, Inc."
 90
     1024
 91
        0
280
     0
281
     0
  0
CLASS
  1
ACMTAPERSTANDARDANSI
  2
AcmTaperStdANSI
  3
"Amdt_StdImp|Product Description: AutoCAD Mechanical|Company: Autodesk, Inc."
 90
     1024
 91
        0
280
     0
281
     0
  0
CLASS
  1
ACMANOOTATIONVIEWSTANDARDANSI
  2
AmdtAnViewStdANSI
  3
"Amdt_StdImp|Product Description: AutoCAD Mechanical|Company: Autodesk, Inc."
 90
     1024
 91
        0
280
     0
281
     0
  0
CLASS
  1
ACAMGHOLECHARTSTDANSI
  2
AcAmgHoleChartStdANSI
  3
AmgDim|Product Description: AutoCAD Mechanical|Company: Autodesk, Inc.
 90
     1024
 91
        0
280
     0
281
     0
  0
CLASS
  1
ACMSTANDARDBSI
  2
AcmStandardBSI
  3
"Amdt_StdImp|Product Description: AutoCAD Mechanical|Company: Autodesk, Inc."
 90
     1024
 91
        0
280
     0
281
     0
  0
CLASS
  1
ACMSURFSTANDARDBSI2002
  2
AcmSurfTextStdBSI2002
  3
"Amdt_StdImp|Product Description: AutoCAD Mechanical|Company: Autodesk, Inc."
 90
     1024
 91
        0
280
     0
281
     0
  0
CLASS
  1
ACMFCFSTANDARDBSI
  2
AcmFCFStdBSI
  3
"Amdt_StdImp|Product Description: AutoCAD Mechanical|Company: Autodesk, Inc."
 90
     1024
 91
        0
280
     0
281
     0
  0
CLASS
  1
ACMWELDSTANDARDBSI
  2
AcmWeldingStdBSI
  3
"Amdt_StdImp|Product Description: AutoCAD Mechanical|Company: Autodesk, Inc."
 90
     1024
 91
        0
280
     0
281
     0
  0
CLASS
  1
ACMIDSTANDARDBSI
  2
AcmIdStdBSI
  3
"Amdt_StdImp|Product Description: AutoCAD Mechanical|Company: Autodesk, Inc."
 90
     1024
 91
        0
280
     0
281
     0
  0
CLASS
  1
ACMDATUMSTANDARDBSI
  2
AcmDatumStdBSI
  3
"Amdt_StdImp|Product Description: AutoCAD Mechanical|Company: Autodesk, Inc."
 90
     1024
 91
        0
280
     0
281
     0
  0
CLASS
  1
ACMBOMSTANDARDBSI
  2
AcmBOMStdBSI
  3
"Amdt_StdImp|Product Description: AutoCAD Mechanical|Company: Autodesk, Inc."
 90
     1024
 91
        0
280
     0
281
     0
  0
CLASS
  1
ACMDETAILSTANDARDBSI
  2
AmdtDetailSymStdBSI
  3
"Amdt_StdImp|Product Description: AutoCAD Mechanical|Company: Autodesk, Inc."
 90
     1024
 91
        0
280
     0
281
     0
  0
CLASS
  1
ACMSECTIONSTANDARDBSI2001
  2
AmdtSectionSymStdBSI2001
  3
"Amdt_StdImp|Product Description: AutoCAD Mechanical|Company: Autodesk, Inc."
 90
     1024
 91
        0
280
     0
281
     0
  0
CLASS
  1
ACMCENTERLINESTANDARDBSI
  2
AmdtCenterLineStdBSI
  3
"Amdt_StdImp|Product Description: AutoCAD Mechanical|Company: Autodesk, Inc."
 90
     1024
 91
        0
280
     0
281
     0
  0
CLASS
  1
ACMTHREADLINESTANDARDBSI
  2
AmdtThreadLineStdBSI
  3
"Amdt_StdImp|Product Description: AutoCAD Mechanical|Company: Autodesk, Inc."
 90
     1024
 91
        0
280
     0
281
     0
  0
CLASS
  1
ACMNOTESTANDARDBSI
  2
AmdtNoteStdBSI
  3
"Amdt_StdImp|Product Description: AutoCAD Mechanical|Company: Autodesk, Inc."
 90
     1024
 91
        0
280
     0
281
     0
  0
CLASS
  1
ACMTAPERSTANDARDBSI
  2
AcmTaperStdBSI
  3
"Amdt_StdImp|Product Description: AutoCAD Mechanical|Company: Autodesk, Inc."
 90
     1024
 91
        0
280
     0
281
     0
  0
CLASS
  1
ACMANOOTATIONVIEWSTANDARDBSI
  2
AmdtAnViewStdBSI
  3
"Amdt_StdImp|Product Description: AutoCAD Mechanical|Company: Autodesk, Inc."
 90
     1024
 91
        0
280
     0
281
     0
  0
CLASS
  1
ACAMGHOLECHARTSTDBSI
  2
AcAmgHoleChartStdBSI
  3
AmgDim|Product Description: AutoCAD Mechanical|Company: Autodesk, Inc.
 90
     1024
 91
        0
280
     0
281
     0
  0
CLASS
  1
AMDTEDGESTANDARDJIS
  2
AmdtEdgeStdJIS
  3
"Amdt_StdImp|Product Description: AutoCAD Mechanical|Company: Autodesk, Inc."
 90
     1024
 91
        0
280
     0
281
     0
  0
CLASS
  1
ACMSURFSYM
  2
AcmSurfaceTexture
  3
"AcmSymBB|Product Description: AutoCAD Mechanical|Company: Autodesk, Inc."
 90
     4095
 91
        0
280
     0
281
     1
  0
CLASS
  1
ACDBDIMENSIONRES
  2
AcDbDimensionRes
  3
AcmSymBB|Product Description: AutoCAD Mechanical|Company: Autodesk, Inc.
 90
     1024
 91
        0
280
     0
281
     0
  0
CLASS
  1
ACDBCIRCARCRES
  2
AcDbCircArcRes
  3
AcGrefServices
 90
     1024
 91
        0
280
     0
281
     0
  0
CLASS
  1
AMDTACMWBLOCKBOMENTITY
  2
AmdtAcmWblockBomEntity
  3
"AcmSymBB|Product Description: AutoCAD Mechanical|Company: Autodesk, Inc."
 90
     4095
 91
        0
280
     0
281
     1
  0
CLASS
  1
ACDBOPPOLYLINERES
  2
AcDbOpPolylineRes
  3
AcGrefServices
 90
     1024
 91
        0
280
     0
281
     0
  0
CLASS
  1
ACDB_BLKREFOBJECTCONTEXTDATA_CLASS
  2
AcDbBlkRefObjectContextData
  3
ObjectDBX Classes
 90
     1153
 91
        0
280
     0
281
     0
  0
CLASS
  1
ACMPICKOBJ
  2
AcmPickEnt
  3
"AcmSymBB|Product Description: AutoCAD Mechanical|Company: Autodesk, Inc."
 90
     1024
 91
        0
280
     0
281
     1
  0
CLASS
  1
ACMBALLOON
  2
AcmBalloon
  3
"AcmSymBB|Product Description: AutoCAD Mechanical|Company: Autodesk, Inc."
 90
     4095
 91
        0
280
     0
281
     1
  0
ENDSEC
  0
SECTION
  2
TABLES
  0
TABLE
  2
VPORT
  5
8
330
0
100
AcDbSymbolTable
 70
     1
  0
VPORT
  5
27A
330
8
100
AcDbSymbolTableRecord
100
AcDbViewportTableRecord
  2
*Active
 70
     0
 10
0.0
 20
0.0
 11
1.0
 21
1.0
 12
347.7522677213044
 22
307.4164827079646
 13
0.0
 23
0.0
 14
3.75
 24
3.75
 15
15.0
 25
15.0
 16
0.0
 26
0.0
 36
1.0
 17
0.0
 27
0.0
 37
0.0
 40
200.7032423421277
 41
1.285714285714285
 42
50.0
 43
0.0
 44
0.0
 50
0.0
 51
0.0
 71
    16
 72
 20000
 73
     1
 74
     0
 75
     0
 76
     0
 77
     0
 78
     0
281
     0
 65
     0
110
0.0
120
0.0
130
0.0
111
1.0
121
0.0
131
0.0
112
0.0
122
1.0
132
0.0
 79
     0
146
0.0
348
285
 60
     3
 61
     5
292
     1
282
     0
141
0.0
142
0.0
 63
   250
421
  3355443
  0
ENDTAB
  0
TABLE
  2
LTYPE
  5
5
330
0
100
AcDbSymbolTable
 70
    22
  0
LTYPE
  5
14
330
5
100
AcDbSymbolTableRecord
100
AcDbLinetypeTableRecord
  2
ByBlock
 70
     0
  3

 72
    65
 73
     0
 40
0.0
  0
LTYPE
  5
15
330
5
100
AcDbSymbolTableRecord
100
AcDbLinetypeTableRecord
  2
ByLayer
 70
     0
  3

 72
    65
 73
     0
 40
0.0
  0
LTYPE
  5
16
330
5
100
AcDbSymbolTableRecord
100
AcDbLinetypeTableRecord
  2
Continuous
 70
     0
  3
Solid line
 72
    65
 73
     0
 40
0.0
  0
LTYPE
  5
4D
330
5
100
AcDbSymbolTableRecord
100
AcDbLinetypeTableRecord
  2
AM_ISO02W050
 70
     0
  3
__ __ __ __ __ __ __ __ __ __ __ __ __ __ __
 72
    65
 73
     2
 40
7.5
 49
6.0
 74
     0
 49
-1.5
 74
     0
  0
LTYPE
  5
4E
330
5
100
AcDbSymbolTableRecord
100
AcDbLinetypeTableRecord
  2
AM_ISO08W050
 70
     0
  3
____ . ____ . ____ . ____ . ____ . ____ . ____
 72
    65
 73
     4
 40
18.0
 49
12.0
 74
     0
 49
-1.5
 74
     0
 49
3.0
 74
     0
 49
-1.5
 74
     0
  0
LTYPE
  5
4F
330
5
100
AcDbSymbolTableRecord
100
AcDbLinetypeTableRecord
  2
AM_ISO09W050
 70
     0
  3
_____ . . _____ . . _____ . . ____ .. ____
 72
    65
 73
     6
 40
22.5
 49
12.0
 74
     0
 49
-1.5
 74
     0
 49
3.0
 74
     0
 49
-1.5
 74
     0
 49
3.0
 74
     0
 49
-1.5
 74
     0
  0
LTYPE
  5
50
330
5
100
AcDbSymbolTableRecord
100
AcDbLinetypeTableRecord
  2
Amconstr
 70
     0
  3
_______________________
 72
    65
 73
     2
 40
9999.0
 49
9999.0
 74
     0
 49
0.0
 74
     0
  0
LTYPE
  5
51
330
5
100
AcDbSymbolTableRecord
100
AcDbLinetypeTableRecord
  2
AM_ISO08W050x2
 70
     0
  3
__ . __ . __ . __ . __ . __
 72
    65
 73
     4
 40
9.0
 49
6.0
 74
     0
 49
-0.75
 74
     0
 49
1.5
 74
     0
 49
-0.75
 74
     0
  0
LTYPE
  5
52
330
5
100
AcDbSymbolTableRecord
100
AcDbLinetypeTableRecord
  2
AM_ISO02W050x2
 70
     0
  3
 _ _ _ _ _ _ _ _ _ _ _ _
 72
    65
 73
     2
 40
3.75
 49
3.0
 74
     0
 49
-0.75
 74
     0
  0
LTYPE
  5
55
330
5
100
AcDbSymbolTableRecord
100
AcDbLinetypeTableRecord
  2
Amzigzag
 70
     0
  3
/\/-/\/-/\/-/\/-/\/-/\/
 72
    65
 73
     2
 40
11.0001
 49
0.0001
 74
     4
 75
   136
340
23D
 46
0.04
 50
0.0
 44
0.0
 45
0.0
 49
-11.0
 74
     0
  0
LTYPE
  5
65
330
5
100
AcDbSymbolTableRecord
100
AcDbLinetypeTableRecord
  2
CENTER
 70
     0
  3
__ . __
 72
    65
 73
     4
 40
7.0
 49
4.0
 74
     0
 49
-1.0
 74
     0
 49
1.0
 74
     0
 49
-1.0
 74
     0
  0
LTYPE
  5
E0
330
5
100
AcDbSymbolTableRecord
100
AcDbLinetypeTableRecord
  2
HIDDEN
 70
     0
  3
Hidden __ __ __ __ __ __ __ __ __ __ __ __ __ _
 72
    65
 73
     2
 40
9.524999999999996
 49
6.349999999999998
 74
     0
 49
-3.174999999999998
 74
     0
  0
LTYPE
  5
E1
330
5
100
AcDbSymbolTableRecord
100
AcDbLinetypeTableRecord
  2
PHANTOM2
 70
     0
  3
Phantom (.5x) ___ _ _ ___ _ _ ___ _ _ ___ _ _
 72
    65
 73
     6
 40
31.75
 49
15.875
 74
     0
 49
-3.174999999999998
 74
     0
 49
3.174999999999998
 74
     0
 49
-3.174999999999998
 74
     0
 49
3.174999999999998
 74
     0
 49
-3.174999999999998
 74
     0
  0
LTYPE
  5
5A2
330
5
100
AcDbSymbolTableRecord
100
AcDbLinetypeTableRecord
  2
ACJISWELD
 70
     0
  3
_ _ _ _ _
 72
    65
 73
     2
 40
2.0
 49
2.0
 74
     0
 49
-1.0
 74
     0
  0
LTYPE
  5
85EB
330
5
100
AcDbSymbolTableRecord
100
AcDbLinetypeTableRecord
  2
ACISOWELD
 70
     0
  3
_ _ _ _ _
 72
    65
 73
     2
 40
2.0
 49
2.0
 74
     0
 49
-1.0
 74
     0
  0
LTYPE
  5
85EC
330
5
100
AcDbSymbolTableRecord
100
AcDbLinetypeTableRecord
  2
ACISOTGB
 70
     0
  3
__ . . __ . .
 72
    65
 73
     6
 40
9.0
 49
4.0
 74
     0
 49
-1.0
 74
     0
 49
1.0
 74
     0
 49
-1.0
 74
     0
 49
1.0
 74
     0
 49
-1.0
 74
     0
  0
LTYPE
  5
85ED
330
5
100
AcDbSymbolTableRecord
100
AcDbLinetypeTableRecord
  2
ACISOTGL
 70
     0
  3
_ _ _ _ _
 72
    65
 73
     2
 40
3.0
 49
2.0
 74
     0
 49
-1.0
 74
     0
  0
ENDTAB
  0
TABLE
  2
LAYER
  5
2
102
{ACAD_XDICTIONARY
360
BF
102
}
330
0
100
AcDbSymbolTable
 70
    10
  0
LAYER
  5
10
102
{ACAD_XDICTIONARY
360
29D8
102
}
330
2
100
AcDbSymbolTableRecord
100
AcDbLayerTableRecord
  2
0
 70
     0
 62
     7
  6
Continuous
370
    -3
390
F
347
27E
  0
LAYER
  5
81
102
{ACAD_XDICTIONARY
360
29DA
102
}
330
2
100
AcDbSymbolTableRecord
100
AcDbLayerTableRecord
  2
AM_0 外形線1
 70
     0
 62
     7
  6
Continuous
370
    25
390
F
347
27E
  0
LAYER
  5
427
330
2
100
AcDbSymbolTableRecord
100
AcDbLayerTableRecord
  2
Defpoints
 70
     0
 62
     7
  6
Continuous
290
     0
370
    -3
390
F
347
27E
  0
LAYER
  5
25C9
102
{ACAD_XDICTIONARY
360
29E1
102
}
330
2
100
AcDbSymbolTableRecord
100
AcDbLayerTableRecord
  2
AM_3 隠れ線
 70
     0
 62
     8
  6
ACJISWELD
370
    13
390
F
347
27E
1001
AcAecLayerStandard
1000

1000

  0
LAYER
  5
25CA
102
{ACAD_XDICTIONARY
360
29E3
102
}
330
2
100
AcDbSymbolTableRecord
100
AcDbLayerTableRecord
  2
AM_4 細線
 70
     0
 62
     4
  6
Continuous
370
    13
390
F
347
27E
1001
AcAecLayerStandard
1000

1000

  0
LAYER
  5
26B3
102
{ACAD_XDICTIONARY
360
29E9
102
}
330
2
100
AcDbSymbolTableRecord
100
AcDbLayerTableRecord
  2
AM_5 寸法線
 70
     0
 62
     3
  6
Continuous
370
    13
390
F
347
27E
1001
AcAecLayerStandard
1000

1000

  0
LAYER
  5
3ABD
330
2
100
AcDbSymbolTableRecord
100
AcDbLayerTableRecord
  2
AM_7 中心線
 70
     0
 62
     1
  6
AM_ISO08W050
370
    13
390
F
347
27E
1001
AcAecLayerStandard
1000

1000

  0
LAYER
  5
3AC0
330
2
100
AcDbSymbolTableRecord
100
AcDbLayerTableRecord
  2
AM_6 文字
 70
     0
 62
     2
  6
Continuous
370
    13
390
F
347
27E
1001
AcAecLayerStandard
1000

1000

  0
LAYER
  5
81C9
330
2
100
AcDbSymbolTableRecord
100
AcDbLayerTableRecord
  2
AM_11 想像線
 70
     0
 62
     5
  6
AM_ISO09W050
370
    13
390
F
347
27E
1001
AcAecLayerStandard
1000

1000

  0
ENDTAB
  0
TABLE
  2
STYLE
  5
3
330
0
100
AcDbSymbolTable
 70
    10
  0
STYLE
  5
11
330
3
100
AcDbSymbolTableRecord
100
AcDbTextStyleTableRecord
  2
STANDARD
 70
     0
 40
0.0
 41
1.0
 50
0.0
 71
     0
 42
25.0
  3
ISOCP.SHX
  4
EXTFONT.SHX
  0
STYLE
  5
23D
330
3
100
AcDbSymbolTableRecord
100
AcDbTextStyleTableRecord
  2

 70
     1
 40
0.0
 41
1.0
 50
0.0
 71
     0
 42
2.5
  3
genltshp.shx
  4

  0
STYLE
  5
5D5
330
3
100
AcDbSymbolTableRecord
100
AcDbTextStyleTableRecord
  2
SEISA
 70
     0
 40
0.0
 41
0.9
 50
0.0
 71
     0
 42
25.0
  3
romans.shx
  4
extfont2.shx
  0
STYLE
  5
85DB
330
3
100
AcDbSymbolTableRecord
100
AcDbTextStyleTableRecord
  2
ACISOTS
 70
     0
 40
1.0
 41
1.0
 50
0.0
 71
     0
 42
25.0
  3
isocp.shx
  4
extfont.shx
  0
STYLE
  5
85EA
330
3
100
AcDbSymbolTableRecord
100
AcDbTextStyleTableRecord
  2
ACISOGDT
 70
     0
 40
0.0
 41
1.0
 50
0.0
 71
     0
 42
25.0
  3
amgdt.shx
  4

  0
ENDTAB
  0
TABLE
  2
VIEW
  5
6
330
0
100
AcDbSymbolTable
 70
     6
  0
VIEW
  5
91B
330
6
100
AcDbSymbolTableRecord
100
AcDbViewTableRecord
  2
AM_VIEW1
 70
     0
 40
222.75
 10
219.1838057058701
 20
334.1250005540731
 41
438.3676108374385
 11
0.0
 21
0.0
 31
1.0
 12
0.0
 22
0.0
 32
0.0
 42
50.0
 43
0.0
 44
0.0
 50
0.0
 71
    16
281
     0
 72
     0
 73
     0
  0
VIEW
  5
91C
330
6
100
AcDbSymbolTableRecord
100
AcDbViewTableRecord
  2
AM_VIEW2
 70
     0
 40
222.75
 10
410.8161948684315
 20
334.1250005540731
 41
438.3676108374385
 11
0.0
 21
0.0
 31
1.0
 12
0.0
 22
0.0
 32
0.0
 42
50.0
 43
0.0
 44
0.0
 50
0.0
 71
    16
281
     0
 72
     0
 73
     0
  0
VIEW
  5
91D
330
6
100
AcDbSymbolTableRecord
100
AcDbViewTableRecord
  2
AM_VIEW3
 70
     0
 40
222.75
 10
219.1838057058701
 20
111.3750005540731
 41
438.3676108374385
 11
0.0
 21
0.0
 31
1.0
 12
0.0
 22
0.0
 32
0.0
 42
50.0
 43
0.0
 44
0.0
 50
0.0
 71
    16
281
     0
 72
     0
 73
     0
  0
VIEW
  5
91E
330
6
100
AcDbSymbolTableRecord
100
AcDbViewTableRecord
  2
AM_VIEW4
 70
     0
 40
222.75
 10
410.8161948684315
 20
111.3750005540731
 41
438.3676108374385
 11
0.0
 21
0.0
 31
1.0
 12
0.0
 22
0.0
 32
0.0
 42
50.0
 43
0.0
 44
0.0
 50
0.0
 71
    16
281
     0
 72
     0
 73
     0
  0
VIEW
  5
91F
330
6
100
AcDbSymbolTableRecord
100
AcDbViewTableRecord
  2
AM_VIEW5
 70
     0
 40
222.75
 10
315.0000002871508
 20
222.7500005540731
 41
438.3676108374386
 11
0.0
 21
0.0
 31
1.0
 12
0.0
 22
0.0
 32
0.0
 42
50.0
 43
0.0
 44
0.0
 50
0.0
 71
    16
281
     0
 72
     0
 73
     0
  0
VIEW
  5
920
330
6
100
AcDbSymbolTableRecord
100
AcDbViewTableRecord
  2
AM_VIEW6
 70
     0
 40
445.4955449999999
 10
315.0000002871508
 20
222.7500005540731
 41
876.7264543226604
 11
0.0
 21
0.0
 31
1.0
 12
0.0
 22
0.0
 32
0.0
 42
50.0
 43
0.0
 44
0.0
 50
0.0
 71
    16
281
     0
 72
     0
 73
     0
  0
ENDTAB
  0
TABLE
  2
UCS
  5
7
330
0
100
AcDbSymbolTable
 70
     0
  0
ENDTAB
  0
TABLE
  2
APPID
  5
9
330
0
100
AcDbSymbolTable
 70
   396
  0
APPID
  5
12
330
9
100
AcDbSymbolTableRecord
100
AcDbRegAppTableRecord
  2
ACAD
 70
     0
  0
APPID
  5
30
330
9
100
AcDbSymbolTableRecord
100
AcDbRegAppTableRecord
  2
MCAD_NO_VIS
 70
     0
  0
APPID
  5
31
330
9
100
AcDbSymbolTableRecord
100
AcDbRegAppTableRecord
  2
ACAD_TEMP_GRAPHIC
 70
     0
  0
APPID
  5
44
330
9
100
AcDbSymbolTableRecord
100
AcDbRegAppTableRecord
  2
ACATTRIBSERVICES
 70
     0
  0
APPID
  5
F6
330
9
100
AcDbSymbolTableRecord
100
AcDbRegAppTableRecord
  2
AD_DRAW
 70
     0
  0
APPID
  5
114
330
9
100
AcDbSymbolTableRecord
100
AcDbRegAppTableRecord
  2
DESIGNERASSEMBLIES
 70
     0
  0
APPID
  5
118
330
9
100
AcDbSymbolTableRecord
100
AcDbRegAppTableRecord
  2
ACADM_DIM_EDIT
 70
     0
  0
APPID
  5
119
330
9
100
AcDbSymbolTableRecord
100
AcDbRegAppTableRecord
  2
AMDT_DM_ADJ
 70
     0
  0
APPID
  5
1AF
330
9
100
AcDbSymbolTableRecord
100
AcDbRegAppTableRecord
  2
ACAD_DSTYLE_DIMARC_LENGTH_SYMBOL
 70
     0
  0
APPID
  5
1B0
330
9
100
AcDbSymbolTableRecord
100
AcDbRegAppTableRecord
  2
ACAD_DSTYLE_DIMJOGGED_JOGANGLE_SYMBOL
 70
     0
  0
APPID
  5
2D7
330
9
100
AcDbSymbolTableRecord
100
AcDbRegAppTableRecord
  2
ACAD_MLEADERVER
 70
     0
  0
APPID
  5
355
330
9
100
AcDbSymbolTableRecord
100
AcDbRegAppTableRecord
  2
AcadAnnoPO
 70
     0
  0
APPID
  5
428
330
9
100
AcDbSymbolTableRecord
100
AcDbRegAppTableRecord
  2
ACAD_DSTYLE_DIMTEXT_FILL
 70
     0
  0
APPID
  5
429
330
9
100
AcDbSymbolTableRecord
100
AcDbRegAppTableRecord
  2
GENIUS_GENSCREG_15
 70
     0
  0
APPID
  5
42A
330
9
100
AcDbSymbolTableRecord
100
AcDbRegAppTableRecord
  2
GENIUS_GENOBJ-N-SDF_13
 70
     0
  0
APPID
  5
42B
330
9
100
AcDbSymbolTableRecord
100
AcDbRegAppTableRecord
  2
GENIUS_GENODEF_13
 70
     0
  0
APPID
  5
42C
330
9
100
AcDbSymbolTableRecord
100
AcDbRegAppTableRecord
  2
ACAD_EXEMPT_FROM_CAD_STANDARDS
 70
     0
  0
APPID
  5
42D
330
9
100
AcDbSymbolTableRecord
100
AcDbRegAppTableRecord
  2
AcAecLayerStandard
 70
     0
  0
APPID
  5
42E
330
9
100
AcDbSymbolTableRecord
100
AcDbRegAppTableRecord
  2
GENIUS_GENOBJ-N-CEN_13
 70
     0
  0
APPID
  5
42F
330
9
100
AcDbSymbolTableRecord
100
AcDbRegAppTableRecord
  2
GENIUS_GENCEN_19
 70
     0
  0
APPID
  5
430
330
9
100
AcDbSymbolTableRecord
100
AcDbRegAppTableRecord
  2
ACAD_DSTYLE_DIMINSPECT
 70
     0
  0
APPID
  5
431
330
9
100
AcDbSymbolTableRecord
100
AcDbRegAppTableRecord
  2
GENIUS_AMGTXT_16
 70
     0
  0
APPID
  5
432
330
9
100
AcDbSymbolTableRecord
100
AcDbRegAppTableRecord
  2
GENIUS_GENFIL_13
 70
     0
  0
APPID
  5
433
330
9
100
AcDbSymbolTableRecord
100
AcDbRegAppTableRecord
  2
GENIUS_GENOLIS_13
 70
     0
  0
APPID
  5
434
330
9
100
AcDbSymbolTableRecord
100
AcDbRegAppTableRecord
  2
GENIUS_GENOBJ-N-CHA_13
 70
     0
  0
APPID
  5
435
330
9
100
AcDbSymbolTableRecord
100
AcDbRegAppTableRecord
  2
GENIUS_GENOENT_13
 70
     0
  0
APPID
  5
436
330
9
100
AcDbSymbolTableRecord
100
AcDbRegAppTableRecord
  2
GENIUS_GENOREF_13
 70
     0
  0
APPID
  5
437
330
9
100
AcDbSymbolTableRecord
100
AcDbRegAppTableRecord
  2
GENIUS_GENOBJ-N-FIL_13
 70
     0
  0
APPID
  5
438
330
9
100
AcDbSymbolTableRecord
100
AcDbRegAppTableRecord
  2
GEVID1208829536
 70
     0
  0
APPID
  5
439
330
9
100
AcDbSymbolTableRecord
100
AcDbRegAppTableRecord
  2
GEVDC
 70
     0
  0
APPID
  5
43A
330
9
100
AcDbSymbolTableRecord
100
AcDbRegAppTableRecord
  2
GEVRADREF
 70
     0
  0
APPID
  5
43B
330
9
100
AcDbSymbolTableRecord
100
AcDbRegAppTableRecord
  2
GENIUS_GENBH_13
 70
     0
  0
APPID
  5
43C
330
9
100
AcDbSymbolTableRecord
100
AcDbRegAppTableRecord
  2
GENIUS_GENOBJ-NBEHI-BHF_13
 70
     0
  0
APPID
  5
43D
330
9
100
AcDbSymbolTableRecord
100
AcDbRegAppTableRecord
  2
GENIUS_GENOBJ-NBEHI-BHB_13
 70
     0
  0
APPID
  5
43E
330
9
100
AcDbSymbolTableRecord
100
AcDbRegAppTableRecord
  2
GEVID1208829537
 70
     0
  0
APPID
  5
43F
330
9
100
AcDbSymbolTableRecord
100
AcDbRegAppTableRecord
  2
ACAD_DSTYLE_DIMJAG
 70
     0
  0
APPID
  5
440
330
9
100
AcDbSymbolTableRecord
100
AcDbRegAppTableRecord
  2
ACAD_DSTYLE_DIMTALN
 70
     0
  0
APPID
  5
441
330
9
100
AcDbSymbolTableRecord
100
AcDbRegAppTableRecord
  2
AMG_2DHIDE
 70
     0
  0
APPID
  5
442
330
9
100
AcDbSymbolTableRecord
100
AcDbRegAppTableRecord
  2
AMG_2DSTRUCT_BTR
 70
     0
  0
APPID
  5
443
330
9
100
AcDbSymbolTableRecord
100
AcDbRegAppTableRecord
  2
GEVID1208845772
 70
     0
  0
APPID
  5
444
330
9
100
AcDbSymbolTableRecord
100
AcDbRegAppTableRecord
  2
GEVID1208845773
 70
     0
  0
APPID
  5
445
330
9
100
AcDbSymbolTableRecord
100
AcDbRegAppTableRecord
  2
ACADM_2DVIEW_IGN_NOTIFY
 70
     0
  0
APPID
  5
446
330
9
100
AcDbSymbolTableRecord
100
AcDbRegAppTableRecord
  2
GEVID1208845774
 70
     0
  0
APPID
  5
447
330
9
100
AcDbSymbolTableRecord
100
AcDbRegAppTableRecord
  2
GEVID1208845775
 70
     0
  0
APPID
  5
448
330
9
100
AcDbSymbolTableRecord
100
AcDbRegAppTableRecord
  2
GEVID1208845776
 70
     0
  0
APPID
  5
449
330
9
100
AcDbSymbolTableRecord
100
AcDbRegAppTableRecord
  2
GEVID1208845777
 70
     0
  0
APPID
  5
44A
330
9
100
AcDbSymbolTableRecord
100
AcDbRegAppTableRecord
  2
GEVCON
 70
     0
  0
APPID
  5
44B
330
9
100
AcDbSymbolTableRecord
100
AcDbRegAppTableRecord
  2
GENIUS_GENOBJ-F-SCPASSM_13
 70
     0
  0
APPID
  5
44C
330
9
100
AcDbSymbolTableRecord
100
AcDbRegAppTableRecord
  2
GEVID1208845778
 70
     0
  0
APPID
  5
44D
330
9
100
AcDbSymbolTableRecord
100
AcDbRegAppTableRecord
  2
GEVID1208845779
 70
     0
  0
APPID
  5
44E
330
9
100
AcDbSymbolTableRecord
100
AcDbRegAppTableRecord
  2
GEVID1208845780
 70
     0
  0
APPID
  5
44F
330
9
100
AcDbSymbolTableRecord
100
AcDbRegAppTableRecord
  2
GEVID1208845781
 70
     0
  0
APPID
  5
450
330
9
100
AcDbSymbolTableRecord
100
AcDbRegAppTableRecord
  2
GEVID1208845782
 70
     0
  0
APPID
  5
451
330
9
100
AcDbSymbolTableRecord
100
AcDbRegAppTableRecord
  2
GEVID1208845783
 70
     0
  0
APPID
  5
452
330
9
100
AcDbSymbolTableRecord
100
AcDbRegAppTableRecord
  2
GEVID1208845784
 70
     0
  0
APPID
  5
453
330
9
100
AcDbSymbolTableRecord
100
AcDbRegAppTableRecord
  2
GEVID1208845785
 70
     0
  0
APPID
  5
454
330
9
100
AcDbSymbolTableRecord
100
AcDbRegAppTableRecord
  2
GEVID1208845787
 70
     0
  0
APPID
  5
455
330
9
100
AcDbSymbolTableRecord
100
AcDbRegAppTableRecord
  2
GEVID1208845788
 70
     0
  0
APPID
  5
456
330
9
100
AcDbSymbolTableRecord
100
AcDbRegAppTableRecord
  2
GEVID1208845789
 70
     0
  0
APPID
  5
457
330
9
100
AcDbSymbolTableRecord
100
AcDbRegAppTableRecord
  2
GEVID1208845790
 70
     0
  0
APPID
  5
458
330
9
100
AcDbSymbolTableRecord
100
AcDbRegAppTableRecord
  2
GEVID1208845791
 70
     0
  0
APPID
  5
459
330
9
100
AcDbSymbolTableRecord
100
AcDbRegAppTableRecord
  2
GEVID1208845792
 70
     0
  0
APPID
  5
45A
330
9
100
AcDbSymbolTableRecord
100
AcDbRegAppTableRecord
  2
GEVID1208845793
 70
     0
  0
APPID
  5
45B
330
9
100
AcDbSymbolTableRecord
100
AcDbRegAppTableRecord
  2
GEVID1208845794
 70
     0
  0
APPID
  5
45C
330
9
100
AcDbSymbolTableRecord
100
AcDbRegAppTableRecord
  2
GEVID1208845795
 70
     0
  0
APPID
  5
45D
330
9
100
AcDbSymbolTableRecord
100
AcDbRegAppTableRecord
  2
GEVID1208845796
 70
     0
  0
APPID
  5
45E
330
9
100
AcDbSymbolTableRecord
100
AcDbRegAppTableRecord
  2
GEVID1208845797
 70
     0
  0
APPID
  5
45F
330
9
100
AcDbSymbolTableRecord
100
AcDbRegAppTableRecord
  2
GEVID1208845798
 70
     0
  0
APPID
  5
460
330
9
100
AcDbSymbolTableRecord
100
AcDbRegAppTableRecord
  2
GEVID1208845799
 70
     0
  0
APPID
  5
461
330
9
100
AcDbSymbolTableRecord
100
AcDbRegAppTableRecord
  2
GEVID1208845800
 70
     0
  0
APPID
  5
462
330
9
100
AcDbSymbolTableRecord
100
AcDbRegAppTableRecord
  2
GEVID1208845801
 70
     0
  0
APPID
  5
463
330
9
100
AcDbSymbolTableRecord
100
AcDbRegAppTableRecord
  2
GEVID1208845802
 70
     0
  0
APPID
  5
464
330
9
100
AcDbSymbolTableRecord
100
AcDbRegAppTableRecord
  2
GENIUS_GENOBJ-N-DIM_13
 70
     0
  0
APPID
  5
465
330
9
100
AcDbSymbolTableRecord
100
AcDbRegAppTableRecord
  2
GENIUS_GENDIM_13
 70
     0
  0
APPID
  5
466
330
9
100
AcDbSymbolTableRecord
100
AcDbRegAppTableRecord
  2
GENIUS_GENDIMSH_14
 70
     0
  0
APPID
  5
467
330
9
100
AcDbSymbolTableRecord
100
AcDbRegAppTableRecord
  2
GEVID1208845803
 70
     0
  0
APPID
  5
468
330
9
100
AcDbSymbolTableRecord
100
AcDbRegAppTableRecord
  2
GEVID1208845804
 70
     0
  0
APPID
  5
469
330
9
100
AcDbSymbolTableRecord
100
AcDbRegAppTableRecord
  2
GEVID1208845805
 70
     0
  0
APPID
  5
46A
330
9
100
AcDbSymbolTableRecord
100
AcDbRegAppTableRecord
  2
GEVID1208845806
 70
     0
  0
APPID
  5
46B
330
9
100
AcDbSymbolTableRecord
100
AcDbRegAppTableRecord
  2
GEVID1208845807
 70
     0
  0
APPID
  5
46C
330
9
100
AcDbSymbolTableRecord
100
AcDbRegAppTableRecord
  2
GEVID1208845808
 70
     0
  0
APPID
  5
46D
330
9
100
AcDbSymbolTableRecord
100
AcDbRegAppTableRecord
  2
GEVID1208845809
 70
     0
  0
APPID
  5
46E
330
9
100
AcDbSymbolTableRecord
100
AcDbRegAppTableRecord
  2
GEVID1208845810
 70
     0
  0
APPID
  5
46F
330
9
100
AcDbSymbolTableRecord
100
AcDbRegAppTableRecord
  2
GEVID1208845811
 70
     0
  0
APPID
  5
470
330
9
100
AcDbSymbolTableRecord
100
AcDbRegAppTableRecord
  2
GEVID1208845813
 70
     0
  0
APPID
  5
471
330
9
100
AcDbSymbolTableRecord
100
AcDbRegAppTableRecord
  2
GEVID1208845814
 70
     0
  0
APPID
  5
472
330
9
100
AcDbSymbolTableRecord
100
AcDbRegAppTableRecord
  2
GEVID1208845815
 70
     0
  0
APPID
  5
473
330
9
100
AcDbSymbolTableRecord
100
AcDbRegAppTableRecord
  2
GEVID1208845816
 70
     0
  0
APPID
  5
474
330
9
100
AcDbSymbolTableRecord
100
AcDbRegAppTableRecord
  2
GEVID1208845817
 70
     0
  0
APPID
  5
475
330
9
100
AcDbSymbolTableRecord
100
AcDbRegAppTableRecord
  2
GEVID1208845818
 70
     0
  0
APPID
  5
476
330
9
100
AcDbSymbolTableRecord
100
AcDbRegAppTableRecord
  2
GEVID1208845819
 70
     0
  0
APPID
  5
477
330
9
100
AcDbSymbolTableRecord
100
AcDbRegAppTableRecord
  2
GEVID1208845820
 70
     0
  0
APPID
  5
478
330
9
100
AcDbSymbolTableRecord
100
AcDbRegAppTableRecord
  2
GENIUS_GENOBJ-F-SHCL_13
 70
     0
  0
APPID
  5
479
330
9
100
AcDbSymbolTableRecord
100
AcDbRegAppTableRecord
  2
GENIUS_GEFMSH_13
 70
     0
  0
APPID
  5
47A
330
9
100
AcDbSymbolTableRecord
100
AcDbRegAppTableRecord
  2
GENIUS_GENOBJ-F-SHCA_13
 70
     0
  0
APPID
  5
47B
330
9
100
AcDbSymbolTableRecord
100
AcDbRegAppTableRecord
  2
GENIUS_GEFSH_13
 70
     0
  0
APPID
  5
47C
330
9
100
AcDbSymbolTableRecord
100
AcDbRegAppTableRecord
  2
GENIUS_GEFSHP_13
 70
     0
  0
APPID
  5
47D
330
9
100
AcDbSymbolTableRecord
100
AcDbRegAppTableRecord
  2
GENIUS_GEFSHP0_13
 70
     0
  0
APPID
  5
47E
330
9
100
AcDbSymbolTableRecord
100
AcDbRegAppTableRecord
  2
GENIUS_GEFSH0_13
 70
     0
  0
APPID
  5
47F
330
9
100
AcDbSymbolTableRecord
100
AcDbRegAppTableRecord
  2
GENIUS_GEFSHP1_13
 70
     0
  0
APPID
  5
480
330
9
100
AcDbSymbolTableRecord
100
AcDbRegAppTableRecord
  2
GENIUS_GEFSH1_13
 70
     0
  0
APPID
  5
481
330
9
100
AcDbSymbolTableRecord
100
AcDbRegAppTableRecord
  2
GEVID1208866337
 70
     0
  0
APPID
  5
482
330
9
100
AcDbSymbolTableRecord
100
AcDbRegAppTableRecord
  2
GEVID1208866338
 70
     0
  0
APPID
  5
483
330
9
100
AcDbSymbolTableRecord
100
AcDbRegAppTableRecord
  2
GEVID1208866339
 70
     0
  0
APPID
  5
484
330
9
100
AcDbSymbolTableRecord
100
AcDbRegAppTableRecord
  2
GEVID1208866340
 70
     0
  0
APPID
  5
485
330
9
100
AcDbSymbolTableRecord
100
AcDbRegAppTableRecord
  2
GEVID1208866341
 70
     0
  0
APPID
  5
486
330
9
100
AcDbSymbolTableRecord
100
AcDbRegAppTableRecord
  2
ACAD_PSEXT
 70
     0
  0
APPID
  5
487
330
9
100
AcDbSymbolTableRecord
100
AcDbRegAppTableRecord
  2
GEVID1208866342
 70
     0
  0
APPID
  5
488
330
9
100
AcDbSymbolTableRecord
100
AcDbRegAppTableRecord
  2
GEVID1208913836
 70
     0
  0
APPID
  5
489
330
9
100
AcDbSymbolTableRecord
100
AcDbRegAppTableRecord
  2
GEVID1208913837
 70
     0
  0
APPID
  5
48A
330
9
100
AcDbSymbolTableRecord
100
AcDbRegAppTableRecord
  2
GEVID1208913838
 70
     0
  0
APPID
  5
48B
330
9
100
AcDbSymbolTableRecord
100
AcDbRegAppTableRecord
  2
GEVID1208913839
 70
     0
  0
APPID
  5
48C
330
9
100
AcDbSymbolTableRecord
100
AcDbRegAppTableRecord
  2
GENIUS_GENDTOL_13
 70
     0
  0
APPID
  5
48D
330
9
100
AcDbSymbolTableRecord
100
AcDbRegAppTableRecord
  2
GEVID1208928889
 70
     0
  0
APPID
  5
48E
330
9
100
AcDbSymbolTableRecord
100
AcDbRegAppTableRecord
  2
GEVID1208928890
 70
     0
  0
APPID
  5
48F
330
9
100
AcDbSymbolTableRecord
100
AcDbRegAppTableRecord
  2
GEVID1208928891
 70
     0
  0
APPID
  5
490
330
9
100
AcDbSymbolTableRecord
100
AcDbRegAppTableRecord
  2
GEVID1208928892
 70
     0
  0
APPID
  5
491
330
9
100
AcDbSymbolTableRecord
100
AcDbRegAppTableRecord
  2
GEVID1208933827
 70
     0
  0
APPID
  5
492
330
9
100
AcDbSymbolTableRecord
100
AcDbRegAppTableRecord
  2
GEVID1208933829
 70
     0
  0
APPID
  5
493
330
9
100
AcDbSymbolTableRecord
100
AcDbRegAppTableRecord
  2
GEVID1208933830
 70
     0
  0
APPID
  5
494
330
9
100
AcDbSymbolTableRecord
100
AcDbRegAppTableRecord
  2
GEVID1208933831
 70
     0
  0
APPID
  5
495
330
9
100
AcDbSymbolTableRecord
100
AcDbRegAppTableRecord
  2
GEVID1208933832
 70
     0
  0
APPID
  5
496
330
9
100
AcDbSymbolTableRecord
100
AcDbRegAppTableRecord
  2
GEVID1208933833
 70
     0
  0
APPID
  5
497
330
9
100
AcDbSymbolTableRecord
100
AcDbRegAppTableRecord
  2
GEVID1208933834
 70
     0
  0
APPID
  5
498
330
9
100
AcDbSymbolTableRecord
100
AcDbRegAppTableRecord
  2
GEVID1208933835
 70
     0
  0
APPID
  5
499
330
9
100
AcDbSymbolTableRecord
100
AcDbRegAppTableRecord
  2
GEVID1208933836
 70
     0
  0
APPID
  5
49A
330
9
100
AcDbSymbolTableRecord
100
AcDbRegAppTableRecord
  2
GEVID1208933837
 70
     0
  0
APPID
  5
49B
330
9
100
AcDbSymbolTableRecord
100
AcDbRegAppTableRecord
  2
GEVID1208933838
 70
     0
  0
APPID
  5
49C
330
9
100
AcDbSymbolTableRecord
100
AcDbRegAppTableRecord
  2
GEVID1208933840
 70
     0
  0
APPID
  5
49D
330
9
100
AcDbSymbolTableRecord
100
AcDbRegAppTableRecord
  2
GEVID1208933842
 70
     0
  0
APPID
  5
49E
330
9
100
AcDbSymbolTableRecord
100
AcDbRegAppTableRecord
  2
GEVID1208933843
 70
     0
  0
APPID
  5
49F
330
9
100
AcDbSymbolTableRecord
100
AcDbRegAppTableRecord
  2
GEVID1208933844
 70
     0
  0
APPID
  5
4A0
330
9
100
AcDbSymbolTableRecord
100
AcDbRegAppTableRecord
  2
GEVID1208933845
 70
     0
  0
APPID
  5
4A1
330
9
100
AcDbSymbolTableRecord
100
AcDbRegAppTableRecord
  2
GEVID1208933846
 70
     0
  0
APPID
  5
4A2
330
9
100
AcDbSymbolTableRecord
100
AcDbRegAppTableRecord
  2
GEVID1208933847
 70
     0
  0
APPID
  5
4A3
330
9
100
AcDbSymbolTableRecord
100
AcDbRegAppTableRecord
  2
GEVID1208933848
 70
     0
  0
APPID
  5
4A4
330
9
100
AcDbSymbolTableRecord
100
AcDbRegAppTableRecord
  2
GEVID1208933849
 70
     0
  0
APPID
  5
4A5
330
9
100
AcDbSymbolTableRecord
100
AcDbRegAppTableRecord
  2
GEVID1208933850
 70
     0
  0
APPID
  5
4A6
330
9
100
AcDbSymbolTableRecord
100
AcDbRegAppTableRecord
  2
GEVID1208933851
 70
     0
  0
APPID
  5
4A7
330
9
100
AcDbSymbolTableRecord
100
AcDbRegAppTableRecord
  2
GEVID1208933852
 70
     0
  0
APPID
  5
4A8
330
9
100
AcDbSymbolTableRecord
100
AcDbRegAppTableRecord
  2
GEVID1208933853
 70
     0
  0
APPID
  5
4A9
330
9
100
AcDbSymbolTableRecord
100
AcDbRegAppTableRecord
  2
GEVID1208933854
 70
     0
  0
APPID
  5
4AA
330
9
100
AcDbSymbolTableRecord
100
AcDbRegAppTableRecord
  2
GEVID1208933855
 70
     0
  0
APPID
  5
4AB
330
9
100
AcDbSymbolTableRecord
100
AcDbRegAppTableRecord
  2
GEVID1208933856
 70
     0
  0
APPID
  5
4AC
330
9
100
AcDbSymbolTableRecord
100
AcDbRegAppTableRecord
  2
GEVID1208933857
 70
     0
  0
APPID
  5
4AD
330
9
100
AcDbSymbolTableRecord
100
AcDbRegAppTableRecord
  2
GEVID1208933858
 70
     0
  0
APPID
  5
4AE
330
9
100
AcDbSymbolTableRecord
100
AcDbRegAppTableRecord
  2
GEVID1208933859
 70
     0
  0
APPID
  5
4AF
330
9
100
AcDbSymbolTableRecord
100
AcDbRegAppTableRecord
  2
GEVID1208933860
 70
     0
  0
APPID
  5
4B0
330
9
100
AcDbSymbolTableRecord
100
AcDbRegAppTableRecord
  2
GEVID1208933861
 70
     0
  0
APPID
  5
4B1
330
9
100
AcDbSymbolTableRecord
100
AcDbRegAppTableRecord
  2
GEVID1208933862
 70
     0
  0
APPID
  5
4B2
330
9
100
AcDbSymbolTableRecord
100
AcDbRegAppTableRecord
  2
GEVID1208933863
 70
     0
  0
APPID
  5
4B3
330
9
100
AcDbSymbolTableRecord
100
AcDbRegAppTableRecord
  2
GEVID1208933864
 70
     0
  0
APPID
  5
4B4
330
9
100
AcDbSymbolTableRecord
100
AcDbRegAppTableRecord
  2
GEVID1208933865
 70
     0
  0
APPID
  5
4B5
330
9
100
AcDbSymbolTableRecord
100
AcDbRegAppTableRecord
  2
GEVID1208933866
 70
     0
  0
APPID
  5
4B6
330
9
100
AcDbSymbolTableRecord
100
AcDbRegAppTableRecord
  2
GEVID1208933867
 70
     0
  0
APPID
  5
4B7
330
9
100
AcDbSymbolTableRecord
100
AcDbRegAppTableRecord
  2
GEVID1208933868
 70
     0
  0
APPID
  5
4B8
330
9
100
AcDbSymbolTableRecord
100
AcDbRegAppTableRecord
  2
GEVID1208933869
 70
     0
  0
APPID
  5
4B9
330
9
100
AcDbSymbolTableRecord
100
AcDbRegAppTableRecord
  2
GEVID1208933870
 70
     0
  0
APPID
  5
4BA
330
9
100
AcDbSymbolTableRecord
100
AcDbRegAppTableRecord
  2
GEVID1208933871
 70
     0
  0
APPID
  5
4BB
330
9
100
AcDbSymbolTableRecord
100
AcDbRegAppTableRecord
  2
GEVID1208933872
 70
     0
  0
APPID
  5
4BC
330
9
100
AcDbSymbolTableRecord
100
AcDbRegAppTableRecord
  2
GEVID1208933873
 70
     0
  0
APPID
  5
4BD
330
9
100
AcDbSymbolTableRecord
100
AcDbRegAppTableRecord
  2
GEVID1208933874
 70
     0
  0
APPID
  5
4BE
330
9
100
AcDbSymbolTableRecord
100
AcDbRegAppTableRecord
  2
GEVID1208933875
 70
     0
  0
APPID
  5
4BF
330
9
100
AcDbSymbolTableRecord
100
AcDbRegAppTableRecord
  2
GEVID1208933876
 70
     0
  0
APPID
  5
4C0
330
9
100
AcDbSymbolTableRecord
100
AcDbRegAppTableRecord
  2
ACAD_DSTYLE_DIMRADIAL_EXTENSION
 70
     0
  0
APPID
  5
4C1
330
9
100
AcDbSymbolTableRecord
100
AcDbRegAppTableRecord
  2
GEVID1208999100
 70
     0
  0
APPID
  5
4C2
330
9
100
AcDbSymbolTableRecord
100
AcDbRegAppTableRecord
  2
GEVID1208999101
 70
     0
  0
APPID
  5
4C3
330
9
100
AcDbSymbolTableRecord
100
AcDbRegAppTableRecord
  2
GEVID1208999102
 70
     0
  0
APPID
  5
4C4
330
9
100
AcDbSymbolTableRecord
100
AcDbRegAppTableRecord
  2
GEVID1208999103
 70
     0
  0
APPID
  5
4C5
330
9
100
AcDbSymbolTableRecord
100
AcDbRegAppTableRecord
  2
GEVID1208999105
 70
     0
  0
APPID
  5
4C6
330
9
100
AcDbSymbolTableRecord
100
AcDbRegAppTableRecord
  2
GEVID1208999106
 70
     0
  0
APPID
  5
4C7
330
9
100
AcDbSymbolTableRecord
100
AcDbRegAppTableRecord
  2
GEVID1208999108
 70
     0
  0
APPID
  5
4C8
330
9
100
AcDbSymbolTableRecord
100
AcDbRegAppTableRecord
  2
GEVID1208999109
 70
     0
  0
APPID
  5
4C9
330
9
100
AcDbSymbolTableRecord
100
AcDbRegAppTableRecord
  2
GEVID1208999110
 70
     0
  0
APPID
  5
4CA
330
9
100
AcDbSymbolTableRecord
100
AcDbRegAppTableRecord
  2
GEVID1208999111
 70
     0
  0
APPID
  5
4CB
330
9
100
AcDbSymbolTableRecord
100
AcDbRegAppTableRecord
  2
GEVID1208999112
 70
     0
  0
APPID
  5
4CC
330
9
100
AcDbSymbolTableRecord
100
AcDbRegAppTableRecord
  2
GEVID1208999113
 70
     0
  0
APPID
  5
4CD
330
9
100
AcDbSymbolTableRecord
100
AcDbRegAppTableRecord
  2
GEVID1208999114
 70
     0
  0
APPID
  5
4CE
330
9
100
AcDbSymbolTableRecord
100
AcDbRegAppTableRecord
  2
GEVID1210218799
 70
     0
  0
APPID
  5
4CF
330
9
100
AcDbSymbolTableRecord
100
AcDbRegAppTableRecord
  2
GEVID1210218800
 70
     0
  0
APPID
  5
4D0
330
9
100
AcDbSymbolTableRecord
100
AcDbRegAppTableRecord
  2
GENIUS_GEFWELD_13
 70
     0
  0
APPID
  5
4D1
330
9
100
AcDbSymbolTableRecord
100
AcDbRegAppTableRecord
  2
GENIUS_GENOBJ-F-WELS_13
 70
     0
  0
APPID
  5
4D2
330
9
100
AcDbSymbolTableRecord
100
AcDbRegAppTableRecord
  2
AcadAnnotative
 70
     0
  0
APPID
  5
4D3
330
9
100
AcDbSymbolTableRecord
100
AcDbRegAppTableRecord
  2
GEVID1210145339
 70
     0
  0
APPID
  5
4D4
330
9
100
AcDbSymbolTableRecord
100
AcDbRegAppTableRecord
  2
ACAD_DSTYLE_DIMBREAK
 70
     0
  0
APPID
  5
4D5
330
9
100
AcDbSymbolTableRecord
100
AcDbRegAppTableRecord
  2
GEVID1210145340
 70
     0
  0
APPID
  5
4D6
330
9
100
AcDbSymbolTableRecord
100
AcDbRegAppTableRecord
  2
GEVID1210145341
 70
     0
  0
APPID
  5
4D7
330
9
100
AcDbSymbolTableRecord
100
AcDbRegAppTableRecord
  2
GEVID1210145342
 70
     0
  0
APPID
  5
4D8
330
9
100
AcDbSymbolTableRecord
100
AcDbRegAppTableRecord
  2
GEVID1210145343
 70
     0
  0
APPID
  5
4D9
330
9
100
AcDbSymbolTableRecord
100
AcDbRegAppTableRecord
  2
GEVID1210145344
 70
     0
  0
APPID
  5
4DA
330
9
100
AcDbSymbolTableRecord
100
AcDbRegAppTableRecord
  2
GEVID1210145345
 70
     0
  0
APPID
  5
4DB
330
9
100
AcDbSymbolTableRecord
100
AcDbRegAppTableRecord
  2
GEVID1210152816
 70
     0
  0
APPID
  5
4DC
330
9
100
AcDbSymbolTableRecord
100
AcDbRegAppTableRecord
  2
GEVID1210153850
 70
     0
  0
APPID
  5
4DD
330
9
100
AcDbSymbolTableRecord
100
AcDbRegAppTableRecord
  2
GEVID1210153851
 70
     0
  0
APPID
  5
4DE
330
9
100
AcDbSymbolTableRecord
100
AcDbRegAppTableRecord
  2
GEVID1210153852
 70
     0
  0
APPID
  5
4DF
330
9
100
AcDbSymbolTableRecord
100
AcDbRegAppTableRecord
  2
GEVID1210549898
 70
     0
  0
APPID
  5
4E0
330
9
100
AcDbSymbolTableRecord
100
AcDbRegAppTableRecord
  2
GEVID1210549899
 70
     0
  0
APPID
  5
4E1
330
9
100
AcDbSymbolTableRecord
100
AcDbRegAppTableRecord
  2
GEVID1210549900
 70
     0
  0
APPID
  5
4E2
330
9
100
AcDbSymbolTableRecord
100
AcDbRegAppTableRecord
  2
GEVID1210549901
 70
     0
  0
APPID
  5
4E3
330
9
100
AcDbSymbolTableRecord
100
AcDbRegAppTableRecord
  2
GEVID1210549902
 70
     0
  0
APPID
  5
4E4
330
9
100
AcDbSymbolTableRecord
100
AcDbRegAppTableRecord
  2
GEVID1210549903
 70
     0
  0
APPID
  5
4E5
330
9
100
AcDbSymbolTableRecord
100
AcDbRegAppTableRecord
  2
GEVID1210549904
 70
     0
  0
APPID
  5
4E6
330
9
100
AcDbSymbolTableRecord
100
AcDbRegAppTableRecord
  2
GEVID1210549905
 70
     0
  0
APPID
  5
4E7
330
9
100
AcDbSymbolTableRecord
100
AcDbRegAppTableRecord
  2
GEVID1210549906
 70
     0
  0
APPID
  5
4E8
330
9
100
AcDbSymbolTableRecord
100
AcDbRegAppTableRecord
  2
GEVID1210549907
 70
     0
  0
APPID
  5
4E9
330
9
100
AcDbSymbolTableRecord
100
AcDbRegAppTableRecord
  2
GEVID1210549908
 70
     0
  0
APPID
  5
4EA
330
9
100
AcDbSymbolTableRecord
100
AcDbRegAppTableRecord
  2
GEVID1210549909
 70
     0
  0
APPID
  5
4EB
330
9
100
AcDbSymbolTableRecord
100
AcDbRegAppTableRecord
  2
GEVID1210549910
 70
     0
  0
APPID
  5
4EC
330
9
100
AcDbSymbolTableRecord
100
AcDbRegAppTableRecord
  2
GEVID1210549911
 70
     0
  0
APPID
  5
4ED
330
9
100
AcDbSymbolTableRecord
100
AcDbRegAppTableRecord
  2
GEVID1210549912
 70
     0
  0
APPID
  5
4EE
330
9
100
AcDbSymbolTableRecord
100
AcDbRegAppTableRecord
  2
GEVID1210549913
 70
     0
  0
APPID
  5
4EF
330
9
100
AcDbSymbolTableRecord
100
AcDbRegAppTableRecord
  2
GEVID1210549914
 70
     0
  0
APPID
  5
4F0
330
9
100
AcDbSymbolTableRecord
100
AcDbRegAppTableRecord
  2
GEVID1210549915
 70
     0
  0
APPID
  5
4F1
330
9
100
AcDbSymbolTableRecord
100
AcDbRegAppTableRecord
  2
GEVID1210549916
 70
     0
  0
APPID
  5
4F2
330
9
100
AcDbSymbolTableRecord
100
AcDbRegAppTableRecord
  2
GEVID1210549917
 70
     0
  0
APPID
  5
4F3
330
9
100
AcDbSymbolTableRecord
100
AcDbRegAppTableRecord
  2
GENIUS_GENOBJ-N-CRS_13
 70
     0
  0
APPID
  5
4F4
330
9
100
AcDbSymbolTableRecord
100
AcDbRegAppTableRecord
  2
GEVID1210549918
 70
     0
  0
APPID
  5
4F5
330
9
100
AcDbSymbolTableRecord
100
AcDbRegAppTableRecord
  2
GENIUS_GENOBJ-N-CRC_13
 70
     0
  0
APPID
  5
4F6
330
9
100
AcDbSymbolTableRecord
100
AcDbRegAppTableRecord
  2
GENIUS_GENCRC_14
 70
     0
  0
APPID
  5
4F7
330
9
100
AcDbSymbolTableRecord
100
AcDbRegAppTableRecord
  2
GEVID1210549919
 70
     0
  0
APPID
  5
4F8
330
9
100
AcDbSymbolTableRecord
100
AcDbRegAppTableRecord
  2
GEVID1210549921
 70
     0
  0
APPID
  5
4F9
330
9
100
AcDbSymbolTableRecord
100
AcDbRegAppTableRecord
  2
GEVID1210549922
 70
     0
  0
APPID
  5
4FA
330
9
100
AcDbSymbolTableRecord
100
AcDbRegAppTableRecord
  2
GEVID1210635173
 70
     0
  0
APPID
  5
4FB
330
9
100
AcDbSymbolTableRecord
100
AcDbRegAppTableRecord
  2
GEVID1210635174
 70
     0
  0
APPID
  5
4FC
330
9
100
AcDbSymbolTableRecord
100
AcDbRegAppTableRecord
  2
GEVID1210635175
 70
     0
  0
APPID
  5
4FD
330
9
100
AcDbSymbolTableRecord
100
AcDbRegAppTableRecord
  2
GEVID1210635176
 70
     0
  0
APPID
  5
4FE
330
9
100
AcDbSymbolTableRecord
100
AcDbRegAppTableRecord
  2
GEVID1210635177
 70
     0
  0
APPID
  5
4FF
330
9
100
AcDbSymbolTableRecord
100
AcDbRegAppTableRecord
  2
GEVID1210635178
 70
     0
  0
APPID
  5
500
330
9
100
AcDbSymbolTableRecord
100
AcDbRegAppTableRecord
  2
GENIUS_GENIUS_GENBHEDTMP_13
 70
     0
  0
APPID
  5
501
330
9
100
AcDbSymbolTableRecord
100
AcDbRegAppTableRecord
  2
GEVID1210635179
 70
     0
  0
APPID
  5
502
330
9
100
AcDbSymbolTableRecord
100
AcDbRegAppTableRecord
  2
GEVID1210635180
 70
     0
  0
APPID
  5
503
330
9
100
AcDbSymbolTableRecord
100
AcDbRegAppTableRecord
  2
GEVID1210635181
 70
     0
  0
APPID
  5
504
330
9
100
AcDbSymbolTableRecord
100
AcDbRegAppTableRecord
  2
GEVID1210635182
 70
     0
  0
APPID
  5
505
330
9
100
AcDbSymbolTableRecord
100
AcDbRegAppTableRecord
  2
GEVID1210635184
 70
     0
  0
APPID
  5
506
330
9
100
AcDbSymbolTableRecord
100
AcDbRegAppTableRecord
  2
GEVID1210635185
 70
     0
  0
APPID
  5
507
330
9
100
AcDbSymbolTableRecord
100
AcDbRegAppTableRecord
  2
GEVID1210635186
 70
     0
  0
APPID
  5
508
330
9
100
AcDbSymbolTableRecord
100
AcDbRegAppTableRecord
  2
GEVID1210635187
 70
     0
  0
APPID
  5
509
330
9
100
AcDbSymbolTableRecord
100
AcDbRegAppTableRecord
  2
GEVID1210635188
 70
     0
  0
APPID
  5
50A
330
9
100
AcDbSymbolTableRecord
100
AcDbRegAppTableRecord
  2
GEVID1210635189
 70
     0
  0
APPID
  5
50B
330
9
100
AcDbSymbolTableRecord
100
AcDbRegAppTableRecord
  2
GEVID1210635190
 70
     0
  0
APPID
  5
50C
330
9
100
AcDbSymbolTableRecord
100
AcDbRegAppTableRecord
  2
GENIUS_GENREC_14
 70
     0
  0
APPID
  5
50D
330
9
100
AcDbSymbolTableRecord
100
AcDbRegAppTableRecord
  2
GENIUS_GENOBJ-N-REC_13
 70
     0
  0
APPID
  5
50E
330
9
100
AcDbSymbolTableRecord
100
AcDbRegAppTableRecord
  2
GEVID1210676655
 70
     0
  0
APPID
  5
50F
330
9
100
AcDbSymbolTableRecord
100
AcDbRegAppTableRecord
  2
GEVID1210676656
 70
     0
  0
APPID
  5
510
330
9
100
AcDbSymbolTableRecord
100
AcDbRegAppTableRecord
  2
GEVID1210676657
 70
     0
  0
APPID
  5
511
330
9
100
AcDbSymbolTableRecord
100
AcDbRegAppTableRecord
  2
GEVID1210676659
 70
     0
  0
APPID
  5
512
330
9
100
AcDbSymbolTableRecord
100
AcDbRegAppTableRecord
  2
GEVID1210676660
 70
     0
  0
APPID
  5
513
330
9
100
AcDbSymbolTableRecord
100
AcDbRegAppTableRecord
  2
GEVID1210676661
 70
     0
  0
APPID
  5
514
330
9
100
AcDbSymbolTableRecord
100
AcDbRegAppTableRecord
  2
GEVID1210676662
 70
     0
  0
APPID
  5
515
330
9
100
AcDbSymbolTableRecord
100
AcDbRegAppTableRecord
  2
GEVID1210721646
 70
     0
  0
APPID
  5
516
330
9
100
AcDbSymbolTableRecord
100
AcDbRegAppTableRecord
  2
GEVID1210721647
 70
     0
  0
APPID
  5
517
330
9
100
AcDbSymbolTableRecord
100
AcDbRegAppTableRecord
  2
GEVID1210721648
 70
     0
  0
APPID
  5
518
330
9
100
AcDbSymbolTableRecord
100
AcDbRegAppTableRecord
  2
GEVID1210721649
 70
     0
  0
APPID
  5
519
330
9
100
AcDbSymbolTableRecord
100
AcDbRegAppTableRecord
  2
GEVID1210721650
 70
     0
  0
APPID
  5
51A
330
9
100
AcDbSymbolTableRecord
100
AcDbRegAppTableRecord
  2
GEVID1210721651
 70
     0
  0
APPID
  5
51B
330
9
100
AcDbSymbolTableRecord
100
AcDbRegAppTableRecord
  2
GEVID1210721652
 70
     0
  0
APPID
  5
51C
330
9
100
AcDbSymbolTableRecord
100
AcDbRegAppTableRecord
  2
GEVID1210721653
 70
     0
  0
APPID
  5
51D
330
9
100
AcDbSymbolTableRecord
100
AcDbRegAppTableRecord
  2
PE_URL
 70
     0
  0
APPID
  5
51E
330
9
100
AcDbSymbolTableRecord
100
AcDbRegAppTableRecord
  2
GEVID1210825555
 70
     0
  0
APPID
  5
51F
330
9
100
AcDbSymbolTableRecord
100
AcDbRegAppTableRecord
  2
GEVID1210825556
 70
     0
  0
APPID
  5
520
330
9
100
AcDbSymbolTableRecord
100
AcDbRegAppTableRecord
  2
GEVID1210825557
 70
     0
  0
APPID
  5
521
330
9
100
AcDbSymbolTableRecord
100
AcDbRegAppTableRecord
  2
GEVID1210825558
 70
     0
  0
APPID
  5
522
330
9
100
AcDbSymbolTableRecord
100
AcDbRegAppTableRecord
  2
GEVID1210825559
 70
     0
  0
APPID
  5
523
330
9
100
AcDbSymbolTableRecord
100
AcDbRegAppTableRecord
  2
GEVID1210825560
 70
     0
  0
APPID
  5
524
330
9
100
AcDbSymbolTableRecord
100
AcDbRegAppTableRecord
  2
GEVID1210825561
 70
     0
  0
APPID
  5
525
330
9
100
AcDbSymbolTableRecord
100
AcDbRegAppTableRecord
  2
GEVID1210825562
 70
     0
  0
APPID
  5
526
330
9
100
AcDbSymbolTableRecord
100
AcDbRegAppTableRecord
  2
GEVID1210825563
 70
     0
  0
APPID
  5
527
330
9
100
AcDbSymbolTableRecord
100
AcDbRegAppTableRecord
  2
GEVID1210825564
 70
     0
  0
APPID
  5
528
330
9
100
AcDbSymbolTableRecord
100
AcDbRegAppTableRecord
  2
GEVID1210825565
 70
     0
  0
APPID
  5
529
330
9
100
AcDbSymbolTableRecord
100
AcDbRegAppTableRecord
  2
GEVID1210825566
 70
     0
  0
APPID
  5
52A
330
9
100
AcDbSymbolTableRecord
100
AcDbRegAppTableRecord
  2
GEVID1210825567
 70
     0
  0
APPID
  5
52B
330
9
100
AcDbSymbolTableRecord
100
AcDbRegAppTableRecord
  2
GENIUS_GENOBJ-N-ZOO_13
 70
     0
  0
APPID
  5
52C
330
9
100
AcDbSymbolTableRecord
100
AcDbRegAppTableRecord
  2
GENIUS_GENZOO_17
 70
     0
  0
APPID
  5
52D
330
9
100
AcDbSymbolTableRecord
100
AcDbRegAppTableRecord
  2
ACADANNOTATIVEDECOMPOSITION
 70
     0
  0
APPID
  5
52E
330
9
100
AcDbSymbolTableRecord
100
AcDbRegAppTableRecord
  2
GENIUS_GENOBJ-N-HTC_13
 70
     0
  0
APPID
  5
52F
330
9
100
AcDbSymbolTableRecord
100
AcDbRegAppTableRecord
  2
GENIUS_GENHATCH_13
 70
     0
  0
APPID
  5
530
330
9
100
AcDbSymbolTableRecord
100
AcDbRegAppTableRecord
  2
GEVID1210896020
 70
     0
  0
APPID
  5
531
330
9
100
AcDbSymbolTableRecord
100
AcDbRegAppTableRecord
  2
GEVID1210896021
 70
     0
  0
APPID
  5
532
330
9
100
AcDbSymbolTableRecord
100
AcDbRegAppTableRecord
  2
GEVID1209083540
 70
     0
  0
APPID
  5
533
330
9
100
AcDbSymbolTableRecord
100
AcDbRegAppTableRecord
  2
GEVMK
 70
     0
  0
APPID
  5
534
330
9
100
AcDbSymbolTableRecord
100
AcDbRegAppTableRecord
  2
GEVID1209083542
 70
     0
  0
APPID
  5
535
330
9
100
AcDbSymbolTableRecord
100
AcDbRegAppTableRecord
  2
GEVID1209083543
 70
     0
  0
APPID
  5
536
330
9
100
AcDbSymbolTableRecord
100
AcDbRegAppTableRecord
  2
GEVID1209083544
 70
     0
  0
APPID
  5
537
330
9
100
AcDbSymbolTableRecord
100
AcDbRegAppTableRecord
  2
GEVID1209083545
 70
     0
  0
APPID
  5
538
330
9
100
AcDbSymbolTableRecord
100
AcDbRegAppTableRecord
  2
GEVID1209083546
 70
     0
  0
APPID
  5
539
330
9
100
AcDbSymbolTableRecord
100
AcDbRegAppTableRecord
  2
GEVID1209083547
 70
     0
  0
APPID
  5
53A
330
9
100
AcDbSymbolTableRecord
100
AcDbRegAppTableRecord
  2
GEVID1209083548
 70
     0
  0
APPID
  5
53B
330
9
100
AcDbSymbolTableRecord
100
AcDbRegAppTableRecord
  2
GEVID1209083549
 70
     0
  0
APPID
  5
53C
330
9
100
AcDbSymbolTableRecord
100
AcDbRegAppTableRecord
  2
GEVID1209083550
 70
     0
  0
APPID
  5
53D
330
9
100
AcDbSymbolTableRecord
100
AcDbRegAppTableRecord
  2
GEVID1209083551
 70
     0
  0
APPID
  5
53E
330
9
100
AcDbSymbolTableRecord
100
AcDbRegAppTableRecord
  2
GEVID1209083552
 70
     0
  0
APPID
  5
53F
330
9
100
AcDbSymbolTableRecord
100
AcDbRegAppTableRecord
  2
GEVID1209083553
 70
     0
  0
APPID
  5
540
330
9
100
AcDbSymbolTableRecord
100
AcDbRegAppTableRecord
  2
GEVID1210896022
 70
     0
  0
APPID
  5
541
330
9
100
AcDbSymbolTableRecord
100
AcDbRegAppTableRecord
  2
GEVID1211508364
 70
     0
  0
APPID
  5
542
330
9
100
AcDbSymbolTableRecord
100
AcDbRegAppTableRecord
  2
GEVID1211414908
 70
     0
  0
APPID
  5
543
330
9
100
AcDbSymbolTableRecord
100
AcDbRegAppTableRecord
  2
GEVID1211414909
 70
     0
  0
APPID
  5
544
330
9
100
AcDbSymbolTableRecord
100
AcDbRegAppTableRecord
  2
GEVID1211508359
 70
     0
  0
APPID
  5
545
330
9
100
AcDbSymbolTableRecord
100
AcDbRegAppTableRecord
  2
GEVID1211508360
 70
     0
  0
APPID
  5
546
330
9
100
AcDbSymbolTableRecord
100
AcDbRegAppTableRecord
  2
GEVID1211508361
 70
     0
  0
APPID
  5
547
330
9
100
AcDbSymbolTableRecord
100
AcDbRegAppTableRecord
  2
GEVID1211508362
 70
     0
  0
APPID
  5
548
330
9
100
AcDbSymbolTableRecord
100
AcDbRegAppTableRecord
  2
GEVID1211508363
 70
     0
  0
APPID
  5
549
330
9
100
AcDbSymbolTableRecord
100
AcDbRegAppTableRecord
  2
GEVID1211878469
 70
     0
  0
APPID
  5
54A
330
9
100
AcDbSymbolTableRecord
100
AcDbRegAppTableRecord
  2
GEVID1212642819
 70
     0
  0
APPID
  5
54B
330
9
100
AcDbSymbolTableRecord
100
AcDbRegAppTableRecord
  2
GEVID1212642820
 70
     0
  0
APPID
  5
54C
330
9
100
AcDbSymbolTableRecord
100
AcDbRegAppTableRecord
  2
GEVID1212642821
 70
     0
  0
APPID
  5
54D
330
9
100
AcDbSymbolTableRecord
100
AcDbRegAppTableRecord
  2
GEVID1212642822
 70
     0
  0
APPID
  5
54E
330
9
100
AcDbSymbolTableRecord
100
AcDbRegAppTableRecord
  2
GEVID1212642823
 70
     0
  0
APPID
  5
54F
330
9
100
AcDbSymbolTableRecord
100
AcDbRegAppTableRecord
  2
GEVID1212642825
 70
     0
  0
APPID
  5
550
330
9
100
AcDbSymbolTableRecord
100
AcDbRegAppTableRecord
  2
GEVID1212642826
 70
     0
  0
APPID
  5
551
330
9
100
AcDbSymbolTableRecord
100
AcDbRegAppTableRecord
  2
GEVID1212642827
 70
     0
  0
APPID
  5
552
330
9
100
AcDbSymbolTableRecord
100
AcDbRegAppTableRecord
  2
GEVID1212642828
 70
     0
  0
APPID
  5
553
330
9
100
AcDbSymbolTableRecord
100
AcDbRegAppTableRecord
  2
GEVID1212642831
 70
     0
  0
APPID
  5
554
330
9
100
AcDbSymbolTableRecord
100
AcDbRegAppTableRecord
  2
GEVID1212642834
 70
     0
  0
APPID
  5
555
330
9
100
AcDbSymbolTableRecord
100
AcDbRegAppTableRecord
  2
GEVID1212642835
 70
     0
  0
APPID
  5
556
330
9
100
AcDbSymbolTableRecord
100
AcDbRegAppTableRecord
  2
GEVID1212642836
 70
     0
  0
APPID
  5
557
330
9
100
AcDbSymbolTableRecord
100
AcDbRegAppTableRecord
  2
GEVID1212642837
 70
     0
  0
APPID
  5
558
330
9
100
AcDbSymbolTableRecord
100
AcDbRegAppTableRecord
  2
GEVID1212642839
 70
     0
  0
APPID
  5
559
330
9
100
AcDbSymbolTableRecord
100
AcDbRegAppTableRecord
  2
GEVID1212642840
 70
     0
  0
APPID
  5
55A
330
9
100
AcDbSymbolTableRecord
100
AcDbRegAppTableRecord
  2
GEVID1212642841
 70
     0
  0
APPID
  5
55B
330
9
100
AcDbSymbolTableRecord
100
AcDbRegAppTableRecord
  2
GEVID1212655312
 70
     0
  0
APPID
  5
55C
330
9
100
AcDbSymbolTableRecord
100
AcDbRegAppTableRecord
  2
GEVID1212655313
 70
     0
  0
APPID
  5
55D
330
9
100
AcDbSymbolTableRecord
100
AcDbRegAppTableRecord
  2
GEVID1212656533
 70
     0
  0
APPID
  5
55E
330
9
100
AcDbSymbolTableRecord
100
AcDbRegAppTableRecord
  2
GEVID1212656534
 70
     0
  0
APPID
  5
55F
330
9
100
AcDbSymbolTableRecord
100
AcDbRegAppTableRecord
  2
GEVID1212656535
 70
     0
  0
APPID
  5
560
330
9
100
AcDbSymbolTableRecord
100
AcDbRegAppTableRecord
  2
GEVID1212656536
 70
     0
  0
APPID
  5
561
330
9
100
AcDbSymbolTableRecord
100
AcDbRegAppTableRecord
  2
GEVID1212656538
 70
     0
  0
APPID
  5
562
330
9
100
AcDbSymbolTableRecord
100
AcDbRegAppTableRecord
  2
GEVID1212656541
 70
     0
  0
APPID
  5
563
330
9
100
AcDbSymbolTableRecord
100
AcDbRegAppTableRecord
  2
GEVID1212656543
 70
     0
  0
APPID
  5
564
330
9
100
AcDbSymbolTableRecord
100
AcDbRegAppTableRecord
  2
GENIUS_GENOBJ-F-PFASSM_13
 70
     0
  0
APPID
  5
565
330
9
100
AcDbSymbolTableRecord
100
AcDbRegAppTableRecord
  2
GEVID1212656544
 70
     0
  0
APPID
  5
566
330
9
100
AcDbSymbolTableRecord
100
AcDbRegAppTableRecord
  2
GEVID1212656545
 70
     0
  0
APPID
  5
567
330
9
100
AcDbSymbolTableRecord
100
AcDbRegAppTableRecord
  2
GEVID1212656546
 70
     0
  0
APPID
  5
568
330
9
100
AcDbSymbolTableRecord
100
AcDbRegAppTableRecord
  2
GEVID1212656547
 70
     0
  0
APPID
  5
569
330
9
100
AcDbSymbolTableRecord
100
AcDbRegAppTableRecord
  2
GEVID1212656548
 70
     0
  0
APPID
  5
56A
330
9
100
AcDbSymbolTableRecord
100
AcDbRegAppTableRecord
  2
GEVID1212656549
 70
     0
  0
APPID
  5
56B
330
9
100
AcDbSymbolTableRecord
100
AcDbRegAppTableRecord
  2
GEVID1212656550
 70
     0
  0
APPID
  5
56C
330
9
100
AcDbSymbolTableRecord
100
AcDbRegAppTableRecord
  2
GEVID1212656552
 70
     0
  0
APPID
  5
56D
330
9
100
AcDbSymbolTableRecord
100
AcDbRegAppTableRecord
  2
GEVID1212656553
 70
     0
  0
APPID
  5
56E
330
9
100
AcDbSymbolTableRecord
100
AcDbRegAppTableRecord
  2
GEVID1212656554
 70
     0
  0
APPID
  5
56F
330
9
100
AcDbSymbolTableRecord
100
AcDbRegAppTableRecord
  2
GEVID1212656555
 70
     0
  0
APPID
  5
570
330
9
100
AcDbSymbolTableRecord
100
AcDbRegAppTableRecord
  2
GEVID1212656556
 70
     0
  0
APPID
  5
571
330
9
100
AcDbSymbolTableRecord
100
AcDbRegAppTableRecord
  2
GEVID1212656557
 70
     0
  0
APPID
  5
572
330
9
100
AcDbSymbolTableRecord
100
AcDbRegAppTableRecord
  2
GEVID1212656559
 70
     0
  0
APPID
  5
573
330
9
100
AcDbSymbolTableRecord
100
AcDbRegAppTableRecord
  2
GEVID1212656560
 70
     0
  0
APPID
  5
574
330
9
100
AcDbSymbolTableRecord
100
AcDbRegAppTableRecord
  2
GEVID1212656561
 70
     0
  0
APPID
  5
575
330
9
100
AcDbSymbolTableRecord
100
AcDbRegAppTableRecord
  2
GEVID1212656562
 70
     0
  0
APPID
  5
576
330
9
100
AcDbSymbolTableRecord
100
AcDbRegAppTableRecord
  2
GEVID1212656563
 70
     0
  0
APPID
  5
577
330
9
100
AcDbSymbolTableRecord
100
AcDbRegAppTableRecord
  2
GEVID1212711781
 70
     0
  0
APPID
  5
578
330
9
100
AcDbSymbolTableRecord
100
AcDbRegAppTableRecord
  2
GEVID1212711782
 70
     0
  0
APPID
  5
579
330
9
100
AcDbSymbolTableRecord
100
AcDbRegAppTableRecord
  2
GEVID1212711783
 70
     0
  0
APPID
  5
57A
330
9
100
AcDbSymbolTableRecord
100
AcDbRegAppTableRecord
  2
GEVID1212711784
 70
     0
  0
APPID
  5
57B
330
9
100
AcDbSymbolTableRecord
100
AcDbRegAppTableRecord
  2
GEVID1212711788
 70
     0
  0
APPID
  5
57C
330
9
100
AcDbSymbolTableRecord
100
AcDbRegAppTableRecord
  2
GEVID1212711789
 70
     0
  0
APPID
  5
57D
330
9
100
AcDbSymbolTableRecord
100
AcDbRegAppTableRecord
  2
GEVID1212711790
 70
     0
  0
APPID
  5
57E
330
9
100
AcDbSymbolTableRecord
100
AcDbRegAppTableRecord
  2
GEVID1212711791
 70
     0
  0
APPID
  5
57F
330
9
100
AcDbSymbolTableRecord
100
AcDbRegAppTableRecord
  2
GEVID1212711792
 70
     0
  0
APPID
  5
580
330
9
100
AcDbSymbolTableRecord
100
AcDbRegAppTableRecord
  2
GEVID1212711793
 70
     0
  0
APPID
  5
581
330
9
100
AcDbSymbolTableRecord
100
AcDbRegAppTableRecord
  2
GEVID1212711794
 70
     0
  0
APPID
  5
582
330
9
100
AcDbSymbolTableRecord
100
AcDbRegAppTableRecord
  2
GEVID1212711795
 70
     0
  0
APPID
  5
583
330
9
100
AcDbSymbolTableRecord
100
AcDbRegAppTableRecord
  2
GEVID1212711797
 70
     0
  0
APPID
  5
584
330
9
100
AcDbSymbolTableRecord
100
AcDbRegAppTableRecord
  2
GEVID1212711798
 70
     0
  0
APPID
  5
585
330
9
100
AcDbSymbolTableRecord
100
AcDbRegAppTableRecord
  2
GEVID1212711799
 70
     0
  0
APPID
  5
586
330
9
100
AcDbSymbolTableRecord
100
AcDbRegAppTableRecord
  2
GEVID1212711800
 70
     0
  0
APPID
  5
587
330
9
100
AcDbSymbolTableRecord
100
AcDbRegAppTableRecord
  2
GEVID1212711801
 70
     0
  0
APPID
  5
588
330
9
100
AcDbSymbolTableRecord
100
AcDbRegAppTableRecord
  2
GEVID1212711802
 70
     0
  0
APPID
  5
589
330
9
100
AcDbSymbolTableRecord
100
AcDbRegAppTableRecord
  2
GEVID1212711803
 70
     0
  0
APPID
  5
58A
330
9
100
AcDbSymbolTableRecord
100
AcDbRegAppTableRecord
  2
GEVID1212711804
 70
     0
  0
APPID
  5
58B
330
9
100
AcDbSymbolTableRecord
100
AcDbRegAppTableRecord
  2
GEVID1212711805
 70
     0
  0
APPID
  5
58C
330
9
100
AcDbSymbolTableRecord
100
AcDbRegAppTableRecord
  2
GEVID1212711806
 70
     0
  0
APPID
  5
58D
330
9
100
AcDbSymbolTableRecord
100
AcDbRegAppTableRecord
  2
GEVID1212711807
 70
     0
  0
APPID
  5
58E
330
9
100
AcDbSymbolTableRecord
100
AcDbRegAppTableRecord
  2
GEVID1212711808
 70
     0
  0
APPID
  5
58F
330
9
100
AcDbSymbolTableRecord
100
AcDbRegAppTableRecord
  2
GEVID1212711809
 70
     0
  0
APPID
  5
590
330
9
100
AcDbSymbolTableRecord
100
AcDbRegAppTableRecord
  2
GEVID1212711810
 70
     0
  0
APPID
  5
591
330
9
100
AcDbSymbolTableRecord
100
AcDbRegAppTableRecord
  2
GEVID1212711811
 70
     0
  0
APPID
  5
90A
330
9
100
AcDbSymbolTableRecord
100
AcDbRegAppTableRecord
  2
GENIUS_GENTRA_14
 70
     0
  0
APPID
  5
919
330
9
100
AcDbSymbolTableRecord
100
AcDbRegAppTableRecord
  2
GENIUS_GENOBJ-N-TIT_13
 70
     0
  0
APPID
  5
91A
330
9
100
AcDbSymbolTableRecord
100
AcDbRegAppTableRecord
  2
GENIUS_GENTITLE_13
 70
     0
  0
APPID
  5
949
330
9
100
AcDbSymbolTableRecord
100
AcDbRegAppTableRecord
  2
GENIUS_GENBLLY_14
 70
     0
  0
APPID
  5
DDD
330
9
100
AcDbSymbolTableRecord
100
AcDbRegAppTableRecord
  2
GEVID1213165152
 70
     0
  0
APPID
  5
12F9
330
9
100
AcDbSymbolTableRecord
100
AcDbRegAppTableRecord
  2
AcDbDynamicBlockTrueName
 70
     0
  0
APPID
  5
12FA
330
9
100
AcDbSymbolTableRecord
100
AcDbRegAppTableRecord
  2
ACDBBLOCKREPETAG
 70
     0
  0
APPID
  5
1C15
330
9
100
AcDbSymbolTableRecord
100
AcDbRegAppTableRecord
  2
GEVID1214872427
 70
     0
  0
APPID
  5
1C2A
330
9
100
AcDbSymbolTableRecord
100
AcDbRegAppTableRecord
  2
GEVID1214872428
 70
     0
  0
APPID
  5
1C2F
330
9
100
AcDbSymbolTableRecord
100
AcDbRegAppTableRecord
  2
GEVID1214872429
 70
     0
  0
APPID
  5
1C33
330
9
100
AcDbSymbolTableRecord
100
AcDbRegAppTableRecord
  2
GEVID1214872430
 70
     0
  0
APPID
  5
1C3F
330
9
100
AcDbSymbolTableRecord
100
AcDbRegAppTableRecord
  2
GEVID1214872432
 70
     0
  0
APPID
  5
1C4E
330
9
100
AcDbSymbolTableRecord
100
AcDbRegAppTableRecord
  2
GEVID1214872433
 70
     0
  0
APPID
  5
20DC
330
9
100
AcDbSymbolTableRecord
100
AcDbRegAppTableRecord
  2
AcDbDynamicBlockGUID
 70
     0
  0
APPID
  5
20FD
330
9
100
AcDbSymbolTableRecord
100
AcDbRegAppTableRecord
  2
GENIUS_GENOBJ-N-REV_13
 70
     0
  0
APPID
  5
20FE
330
9
100
AcDbSymbolTableRecord
100
AcDbRegAppTableRecord
  2
GENIUS_GENOBJ-N-RSSYM_13
 70
     0
  0
APPID
  5
20FF
330
9
100
AcDbSymbolTableRecord
100
AcDbRegAppTableRecord
  2
GENIUS_GENSYMENT_13
 70
     0
  0
APPID
  5
2100
330
9
100
AcDbSymbolTableRecord
100
AcDbRegAppTableRecord
  2
GENIUS_GENSCSYM_13
 70
     0
  0
APPID
  5
47BB
330
9
100
AcDbSymbolTableRecord
100
AcDbRegAppTableRecord
  2
ACLAYERTOOLS
 70
     0
  0
APPID
  5
5985
330
9
100
AcDbSymbolTableRecord
100
AcDbRegAppTableRecord
  2
GEVID1236302620
 70
     0
  0
APPID
  5
598F
330
9
100
AcDbSymbolTableRecord
100
AcDbRegAppTableRecord
  2
GEVID1236302621
 70
     0
  0
APPID
  5
60FB
330
9
100
AcDbSymbolTableRecord
100
AcDbRegAppTableRecord
  2
ACAD_DSTYLE_DIMANGULAR_EXTENSION
 70
     0
  0
ENDTAB
  0
TABLE
  2
DIMSTYLE
  5
A
330
0
100
AcDbSymbolTable
 70
    29
100
AcDbDimStyleTable
 71
     1
340
5AB
  0
DIMSTYLE
105
5AB
330
A
100
AcDbSymbolTableRecord
100
AcDbDimStyleTableRecord
  2
SEISA
 70
     0
  4
"
 40
1.5
 41
2.5
 42
0.625
 43
10.0
 44
0.625
 47
0.1
 48
0.1
 73
     0
 74
     0
 77
     3
 78
     8
 79
     2
 90
     1
140
3.5
141
0.0
143
0.0393701
146
0.71
147
1.5
172
     1
176
     3
177
     3
178
     3
271
     2
272
     2
283
     0
286
     8
340
5D5
341
69
342
69
371
    -1
372
    -1
1001
ACAD_DSTYLE_DIMJAG
1070
   388
1040
1.5
1001
ACAD_DSTYLE_DIMTALN
1070
   392
1070
     1
  0
DIMSTYLE
105
5E9
102
{ACAD_REACTORS
330
67CD
330
67FE
330
6853
330
686B
330
689D
330
694D
330
6965
330
6A8A
330
6B17
330
6B41
330
6B59
330
7039
330
8118
330
8159
330
81CA
102
}
330
A
100
AcDbSymbolTableRecord
100
AcDbDimStyleTableRecord
  2
SEISA$0
 70
     0
  4
"
 40
1.5
 41
2.5
 42
0.625
 43
10.0
 44
0.625
 47
0.1
 48
0.1
 73
     0
 74
     0
 77
     3
 78
     8
 79
     2
 90
     1
140
3.5
141
0.0
143
0.0393701
146
0.71
147
1.5
172
     1
176
     3
177
     3
178
     3
271
     2
272
     2
283
     0
286
     8
340
5D5
341
69
342
69
371
    -1
372
    -1
  0
DIMSTYLE
105
85F6
330
A
100
AcDbSymbolTableRecord
100
AcDbDimStyleTableRecord
  2
AM_ISO
 70
     0
  4
"
 41
2.5
 42
1.0
 43
10.0
 44
1.0
 47
0.1
 48
0.1
 73
     0
 74
     0
 77
     1
 78
     8
 79
     2
 90
     1
140
3.5
141
0.0
143
0.0393701
146
0.71
147
1.5
172
     1
176
   256
177
   256
178
     2
271
     2
272
     3
274
     4
283
     0
284
     8
340
11
371
    -1
372
    -1
  0
DIMSTYLE
105
85F7
330
A
100
AcDbSymbolTableRecord
100
AcDbDimStyleTableRecord
  2
AM_ISO$3
 70
     0
  4
"
 41
2.5
 42
1.0
 43
10.0
 44
1.0
 47
0.1
 48
0.1
 73
     0
 77
     1
 78
     8
 79
     2
 90
     1
140
3.5
141
0.0
143
0.0393701
146
0.71
147
1.5
176
   256
177
   256
178
     2
271
     2
272
     3
274
     4
283
     0
284
     8
288
     1
289
     0
340
11
371
    -1
372
    -1
  0
DIMSTYLE
105
85F8
330
A
100
AcDbSymbolTableRecord
100
AcDbDimStyleTableRecord
  2
AM_ISO$4
 70
     0
  4
"
 41
2.5
 42
1.0
 43
10.0
 44
1.0
 47
0.1
 48
0.1
 73
     0
 77
     1
 78
     8
 79
     2
 90
     1
140
3.5
141
0.0
143
0.0393701
146
0.71
147
1.5
176
   256
177
   256
178
     2
271
     2
272
     3
274
     4
283
     0
284
     8
288
     1
289
     0
340
11
371
    -1
372
    -1
  0
DIMSTYLE
105
85F9
330
A
100
AcDbSymbolTableRecord
100
AcDbDimStyleTableRecord
  2
AM_ISO$6
 70
     0
  4
"
 41
2.5
 42
1.0
 43
10.0
 44
1.0
 47
0.1
 48
0.1
 73
     0
 74
     0
 78
     8
 79
     2
 90
     1
140
3.5
141
0.0
143
0.0393701
146
0.71
147
1.5
172
     1
176
   256
177
   256
178
     2
271
     2
272
     3
274
     4
283
     0
284
     8
340
11
371
    -1
372
    -1
  0
DIMSTYLE
105
85FA
330
A
100
AcDbSymbolTableRecord
100
AcDbDimStyleTableRecord
  2
AM_ISO$7
 70
     0
  4
"
 41
2.5
 42
1.0
 43
10.0
 44
1.0
 47
0.1
 48
0.1
 73
     0
 74
     0
 77
     1
 78
     8
 79
     2
 90
     1
140
5.0
141
0.0
143
0.0393701
146
0.71
147
1.5
172
     1
176
   256
177
   256
178
     2
271
     2
272
     3
274
     4
283
     0
284
     8
340
11
371
    -1
372
    -1
  0
DIMSTYLE
105
85FB
330
A
100
AcDbSymbolTableRecord
100
AcDbDimStyleTableRecord
  2
AM_ISO$SF
 70
     0
  4
"
 41
2.5
 42
1.0
 43
10.0
 44
1.0
 47
0.1
 48
0.1
 73
     0
 74
     0
 75
     1
 76
     1
 77
     1
 78
     8
 79
     2
 90
     1
140
3.5
141
0.0
143
0.0393701
146
0.71
147
1.5
172
     1
176
   256
177
   256
178
     2
271
     2
272
     3
274
     4
283
     0
284
     8
340
11
371
    -1
372
    -1
  0
DIMSTYLE
105
85FC
330
A
100
AcDbSymbolTableRecord
100
AcDbDimStyleTableRecord
  2
AM_ISO$SH
 70
     0
  4
"
 41
2.5
 42
1.0
 43
10.0
 44
1.0
 47
0.1
 48
0.1
 73
     0
 74
     0
 75
     1
 76
     1
 77
     1
 78
     8
 79
     2
 90
     1
140
3.5
141
0.0
143
0.0393701
144
2.0
146
0.71
147
1.5
172
     1
173
     1
176
   256
177
   256
178
     2
271
     2
272
     3
274
     4
283
     0
284
     8
340
11
343
74
371
    -1
372
    -1
  0
ENDTAB
  0
TABLE
  2
BLOCK_RECORD
  5
1
330
0
100
AcDbSymbolTable
 70
    29
  0
BLOCK_RECORD
  5
1F
102
{ACAD_XDICTIONARY
360
82
102
}
330
1
100
AcDbSymbolTableRecord
100
AcDbBlockTableRecord
  2
*Model_Space
340
22
 70
     0
280
     1
281
     0
  0
BLOCK_RECORD
  5
1B
330
1
100
AcDbSymbolTableRecord
100
AcDbBlockTableRecord
  2
*Paper_Space
340
1E
 70
     0
280
     1
281
     0
  0
BLOCK_RECORD
  5
23
330
1
100
AcDbSymbolTableRecord
100
AcDbBlockTableRecord
  2
*Paper_Space0
340
26
 70
     0
280
     1
281
     0
  0
BLOCK_RECORD
  5
69
330
1
100
AcDbSymbolTableRecord
100
AcDbBlockTableRecord
  2
_Open30
340
0
102
{BLKREFS
331
67F1
331
67F2
331
682A
331
682B
331
6864
331
6865
331
695E
331
695F
331
6976
331
6977
331
6B7D
331
6B7E
331
6B8F
331
6B90
331
7101
331
7102
331
7127
331
7128
331
7130
331
7131
331
7CD3
331
7CD4
331
8154
331
8155
331
8186
331
8187
331
81FF
331
8200
331
83D3
331
83D4
102
}
 70
     0
280
     1
281
     0
  0
BLOCK_RECORD
  5
74
330
1
100
AcDbSymbolTableRecord
100
AcDbBlockTableRecord
  2
GENAXEH
340
0
 70
     0
280
     1
281
     0
  0
BLOCK_RECORD
  5
5B3B
102
{ACAD_XDICTIONARY
360
5B62
102
}
330
1
100
AcDbSymbolTableRecord
100
AcDbBlockTableRecord
  2
ロッカクアナツキプラグ R1／8
340
0
310
2800000020000000200000000100080000000000000400000000000000000000000000000000000000000000000080000080000000808000800000008000800080800000C0C0C000C0DCC000F0CAA6000020400000206000002080000020A0000020C0000020E00000400000004020000040400000406000004080000040A0
310
000040C0000040E00000600000006020000060400000606000006080000060A0000060C0000060E00000800000008020000080400000806000008080000080A0000080C0000080E00000A0000000A0200000A0400000A0600000A0800000A0A00000A0C00000A0E00000C0000000C0200000C0400000C0600000C0800000C0
310
A00000C0C00000C0E00000E0000000E0200000E0400000E0600000E0800000E0A00000E0C00000E0E00040000000400020004000400040006000400080004000A0004000C0004000E00040200000402020004020400040206000402080004020A0004020C0004020E000404000004040200040404000404060004040800040
310
40A0004040C0004040E00040600000406020004060400040606000406080004060A0004060C0004060E00040800000408020004080400040806000408080004080A0004080C0004080E00040A0000040A0200040A0400040A0600040A0800040A0A00040A0C00040A0E00040C0000040C0200040C0400040C0600040C08000
310
40C0A00040C0C00040C0E00040E0000040E0200040E0400040E0600040E0800040E0A00040E0C00040E0E00080000000800020008000400080006000800080008000A0008000C0008000E00080200000802020008020400080206000802080008020A0008020C0008020E00080400000804020008040400080406000804080
310
008040A0008040C0008040E00080600000806020008060400080606000806080008060A0008060C0008060E00080800000808020008080400080806000808080008080A0008080C0008080E00080A0000080A0200080A0400080A0600080A0800080A0A00080A0C00080A0E00080C0000080C0200080C0400080C0600080C0
310
800080C0A00080C0C00080C0E00080E0000080E0200080E0400080E0600080E0800080E0A00080E0C00080E0E000C0000000C0002000C0004000C0006000C0008000C000A000C000C000C000E000C0200000C0202000C0204000C0206000C0208000C020A000C020C000C020E000C0400000C0402000C0404000C0406000C0
310
408000C040A000C040C000C040E000C0600000C0602000C0604000C0606000C0608000C060A000C060C000C060E000C0800000C0802000C0804000C0806000C0808000C080A000C080C000C080E000C0A00000C0A02000C0A04000C0A06000C0A08000C0A0A000C0A0C000C0A0E000C0C00000C0C02000C0C04000C0C06000
310
C0C08000C0C0A000F0FBFF00A4A0A000808080000000FF0000FF000000FFFF00FF000000FF00FF00FFFF0000FFFFFF00000000000000000000000000000000000000000000000000000000000000000000000000000000000000000000000000F9000000000000000000000000000000000000000000000000000000000000
310
00F900000000000000000000000000000000000000000000000000000000000000F900000000000000000000000000000000000000000000000000000000000000F90000000000000000000000000000000000000000000000000000000000FFFFF9FF0000000000000000000000000000000000000000000000000000FFFF
310
FEFEF9FEFEFEFF000000000000000000000000000000000000000000FFFFFEFE0000F9000000FEFEFF000000000000000000000000000000000000FFFEFE00000000F90000000000FEFF00000000000000000000000000000000FFFE000000000000F9000000000000FE00000000000000000000000000000000FE00000000
310
000000F900000000000000FE0000000000000000000000000000FFFE000000000000FFFF00000000000000FEFF00000000000000000000000000FE0000000000FFFF00F9FFFF000000000000FEFF0000000000000000000000FFFE000000FFFF000000F90000FFFF00000000FEFF0000000000000000000000FE00000000FF
310
00000000F9000000FF00000000FEFF000000000000F9F9F9F9F9F9F9F9F9F9FFF9F9F9F9F9F9F9F9FFF9F9F9F9F9F9F9F9F9F9000000000000FFFE00000000FF00000000F9000000FF00000000FEFF0000000000000000000000FE00000000FF00000000F9000000FF00000000FEFF0000000000000000000000FFFE000000
310
FFFF000000F9000000FF00000000FEFF000000000000000000000000FE0000000000FFFF00F900FFFF0000000000FEFF000000000000000000000000FFFE000000000000FFFFFF000000000000FEFF0000000000000000000000000000FE00000000000000F900000000000000FE000000000000000000000000000000FFFE
310
000000000000F9000000000000FE0000000000000000000000000000000000FFFE0000000000F90000000000FEFF000000000000000000000000000000000000FFFEFE000000F900000000FEFF0000000000000000000000000000000000000000FFFFFEFEFEF9FEFEFEFE0000000000000000000000000000000000000000
310
00000000FFFFFFF9FFFF0000000000000000000000000000000000000000000000000000000000F900000000000000000000000000000000000000000000000000000000000000F900000000000000000000000000000000000000000000000000000000000000F90000000000000000000000000000000000000000000000
310
0000000000000000F90000000000000000000000000000000000000000000000000000000000000000000000000000000000000000000000
102
{BLKREFS
331
5C30
102
}
 70
     4
280
     1
281
     0
  0
BLOCK_RECORD
  5
5BEF
102
{ACAD_XDICTIONARY
360
5CBC
102
}
330
1
100
AcDbSymbolTableRecord
100
AcDbBlockTableRecord
  2
ケースＡ SSM140
340
0
310
2800000020000000200000000100080000000000000400000000000000000000000000000000000000000000000080000080000000808000800000008000800080800000C0C0C000C0DCC000F0CAA6000020400000206000002080000020A0000020C0000020E00000400000004020000040400000406000004080000040A0
310
000040C0000040E00000600000006020000060400000606000006080000060A0000060C0000060E00000800000008020000080400000806000008080000080A0000080C0000080E00000A0000000A0200000A0400000A0600000A0800000A0A00000A0C00000A0E00000C0000000C0200000C0400000C0600000C0800000C0
310
A00000C0C00000C0E00000E0000000E0200000E0400000E0600000E0800000E0A00000E0C00000E0E00040000000400020004000400040006000400080004000A0004000C0004000E00040200000402020004020400040206000402080004020A0004020C0004020E000404000004040200040404000404060004040800040
310
40A0004040C0004040E00040600000406020004060400040606000406080004060A0004060C0004060E00040800000408020004080400040806000408080004080A0004080C0004080E00040A0000040A0200040A0400040A0600040A0800040A0A00040A0C00040A0E00040C0000040C0200040C0400040C0600040C08000
310
40C0A00040C0C00040C0E00040E0000040E0200040E0400040E0600040E0800040E0A00040E0C00040E0E00080000000800020008000400080006000800080008000A0008000C0008000E00080200000802020008020400080206000802080008020A0008020C0008020E00080400000804020008040400080406000804080
310
008040A0008040C0008040E00080600000806020008060400080606000806080008060A0008060C0008060E00080800000808020008080400080806000808080008080A0008080C0008080E00080A0000080A0200080A0400080A0600080A0800080A0A00080A0C00080A0E00080C0000080C0200080C0400080C0600080C0
310
800080C0A00080C0C00080C0E00080E0000080E0200080E0400080E0600080E0800080E0A00080E0C00080E0E000C0000000C0002000C0004000C0006000C0008000C000A000C000C000C000E000C0200000C0202000C0204000C0206000C0208000C020A000C020C000C020E000C0400000C0402000C0404000C0406000C0
310
408000C040A000C040C000C040E000C0600000C0602000C0604000C0606000C0608000C060A000C060C000C060E000C0800000C0802000C0804000C0806000C0808000C080A000C080C000C080E000C0A00000C0A02000C0A04000C0A06000C0A08000C0A0A000C0A0C000C0A0E000C0C00000C0C02000C0C04000C0C06000
310
C0C08000C0C0A000F0FBFF00A4A0A000808080000000FF0000FF000000FFFF00FF000000FF00FF00FFFF0000FFFFFF00000000000000000000000000000000000000000000000000000000000000000000000000000000000000000000FFFFFFFF00000000000000000000000000000000000000000000000000000000FF00
310
00FF000000000000000000000000000000000000000000000000F9F9F9F9F9F9F9F9F9000000000000000000000000000000000000000000000000000000FF0000FF00000000000000000000000000000000000000000000000000000000FF0000FFFFFFFFFFFFFF00000000000000000000000000000000000000000000FF
310
0000FF0000000000FF00000000000000000000000000000000000000000000FF0000FF0000000000FF00000000000000000000000000000000000000000000FF0000FF0000000000FF00000000000000000000000000000000000000000000FFF900FF0000000000FF00000000000000000000000000000000000000000000
310
FFFFFEFF0000000000FF00000000000000000000000000000000000000000000F9FFFFF90000000000FF00000000000000000000000000000000000000000000FFF9FEFF0000000000FF00000000000000000000000000000000000000000000FF0000FF0000000000FF000000000000000000000000000000000000000000
310
00FF0000FF0000000000FF00000000000000000000000000000000000000000000FF0000FF0000000000FF00000000000000000000000000000000000000000000FF0000FF0000000000FF00000000000000000000000000000000000000000000000000000000000000000000000000000000000000000000000000000000
310
00000000000000000000000000000000000000000000000000000000000000000000000000000000000000000000000000000000000000000000000000000000000000000000000000000000000000000000000000000000000000000000000000000000000000000000000000000000000000000000000000000000000000
310
000000000000000000000000000000000000000000000000000000000000000000000000000000000000000000000000000000000000000000000000000000000000FF000000FFA4A4A4FFFFFF000000000000000000000000000000000000000000FFFFFFFFFFFFFFFFFF00FF000000000000000000000000000000000000
310
000000FFFF0000FFFFFFFFFFFFFF00000000000000000000000000000000000000000000FF0000FF00000000000000000000000000000000000000000000000000000000FFFFFFFF00000000000000000000000000000000000000000000000000000000FFFFFFFF0000000000000000000000000000000000000000000000
310
0000000000FFFFFFFF0000000000000000000000000000000000000000000000000000000000000000000000000000000000000000000000
102
{BLKREFS
331
5DC4
102
}
 70
     4
280
     1
281
     0
  0
BLOCK_RECORD
  5
5D53
102
{ACAD_XDICTIONARY
360
5DFF
102
}
330
1
100
AcDbSymbolTableRecord
100
AcDbBlockTableRecord
  2
ケースＢ SSM140
340
0
310
2800000020000000200000000100080000000000000400000000000000000000000000000000000000000000000080000080000000808000800000008000800080800000C0C0C000C0DCC000F0CAA6000020400000206000002080000020A0000020C0000020E00000400000004020000040400000406000004080000040A0
310
000040C0000040E00000600000006020000060400000606000006080000060A0000060C0000060E00000800000008020000080400000806000008080000080A0000080C0000080E00000A0000000A0200000A0400000A0600000A0800000A0A00000A0C00000A0E00000C0000000C0200000C0400000C0600000C0800000C0
310
A00000C0C00000C0E00000E0000000E0200000E0400000E0600000E0800000E0A00000E0C00000E0E00040000000400020004000400040006000400080004000A0004000C0004000E00040200000402020004020400040206000402080004020A0004020C0004020E000404000004040200040404000404060004040800040
310
40A0004040C0004040E00040600000406020004060400040606000406080004060A0004060C0004060E00040800000408020004080400040806000408080004080A0004080C0004080E00040A0000040A0200040A0400040A0600040A0800040A0A00040A0C00040A0E00040C0000040C0200040C0400040C0600040C08000
310
40C0A00040C0C00040C0E00040E0000040E0200040E0400040E0600040E0800040E0A00040E0C00040E0E00080000000800020008000400080006000800080008000A0008000C0008000E00080200000802020008020400080206000802080008020A0008020C0008020E00080400000804020008040400080406000804080
310
008040A0008040C0008040E00080600000806020008060400080606000806080008060A0008060C0008060E00080800000808020008080400080806000808080008080A0008080C0008080E00080A0000080A0200080A0400080A0600080A0800080A0A00080A0C00080A0E00080C0000080C0200080C0400080C0600080C0
310
800080C0A00080C0C00080C0E00080E0000080E0200080E0400080E0600080E0800080E0A00080E0C00080E0E000C0000000C0002000C0004000C0006000C0008000C000A000C000C000C000E000C0200000C0202000C0204000C0206000C0208000C020A000C020C000C020E000C0400000C0402000C0404000C0406000C0
310
408000C040A000C040C000C040E000C0600000C0602000C0604000C0606000C0608000C060A000C060C000C060E000C0800000C0802000C0804000C0806000C0808000C080A000C080C000C080E000C0A00000C0A02000C0A04000C0A06000C0A08000C0A0A000C0A0C000C0A0E000C0C00000C0C02000C0C04000C0C06000
310
C0C08000C0C0A000F0FBFF00A4A0A000808080000000FF0000FF000000FFFF00FF000000FF00FF00FFFF0000FFFFFF000000000000000000000000000000000000000000000000000000000000000000000000000000000000000000FFFFFFFFFFFFFFFF000000000000000000000000000000000000000000000000FF0000
310
00FF0000FF0000000000000000000000000000000000000000000000F9F9F9F9F9F9F9F9F9000000000000000000000000000000000000000000000000FF000000FF0000FF000000000000000000000000000000000000FFFFFFFFFFFFFF000000FF0000FFFFFFFFFFFFFF000000000000000000000000FF0000000000FF00
310
0000FF0000FF0000000000FF000000000000000000000000FF0000000000FF000000FF0000FF0000000000FF000000000000000000000000FF0000000000FF000000FF0000FF0000000000FF000000000000000000000000FF0000000000FF000000FFF900FF0000000000FF000000000000000000000000FF0000000000FF
310
000000FEFFFEFF0000000000FF000000000000000000000000FF0000000000FF000000F9FFF9FF0000000000FF000000000000000000000000FF0000000000FF000000FEF9FEFF0000000000FF000000000000000000000000FF0000000000FF000000FF0000FF0000000000FF000000000000000000000000FF0000000000
310
FF000000FF0000FF0000000000FF000000000000000000000000FF0000000000FF000000FF0000FF0000000000FF000000000000000000000000FF0000000000FF000000FF0000FF0000000000FF00000000000000000000000000000000000000000000000000000000000000000000000000000000000000000000000000
310
00000000000000000000000000000000000000000000000000000000000000000000000000000000000000000000000000000000000000000000000000000000000000000000000000000000000000000000000000000000000000000000000000000000000000000000000000000000000000000000000000000000000000
310
000000000000000000000000000000000000000000000000000000000000000000000000000000000000000000000000000000000000000000000000FFFFFFA4A4A4FF0000FF000000FFA4A4A4FFFFFF000000000000000000000000FF00FFFFFFFFFFFFFFFFFFFFF9FFFFFFFFFF00FF000000000000000000000000FFFFFF
310
FFFFFFFF0000FFFF0000FFFFFFFFFFFFFF000000000000000000000000000000000000FF0000FFFF0000FF000000000000000000000000000000000000000000000000FFFFFFFFFFFFFFFF000000000000000000000000000000000000000000000000FFFFFFFFFFFFFFFF0000000000000000000000000000000000000000
310
00000000FFFFFFFFFFFFFFFF0000000000000000000000000000000000000000000000000000000000000000000000000000000000000000
102
{BLKREFS
331
5D89
102
}
 70
     4
280
     1
281
     0
  0
BLOCK_RECORD
  5
5F13
102
{ACAD_XDICTIONARY
360
5F69
102
}
330
1
100
AcDbSymbolTableRecord
100
AcDbBlockTableRecord
  2
センタＡ SSM140
340
0
310
2800000020000000200000000100080000000000000400000000000000000000000000000000000000000000000080000080000000808000800000008000800080800000C0C0C000C0DCC000F0CAA6000020400000206000002080000020A0000020C0000020E00000400000004020000040400000406000004080000040A0
310
000040C0000040E00000600000006020000060400000606000006080000060A0000060C0000060E00000800000008020000080400000806000008080000080A0000080C0000080E00000A0000000A0200000A0400000A0600000A0800000A0A00000A0C00000A0E00000C0000000C0200000C0400000C0600000C0800000C0
310
A00000C0C00000C0E00000E0000000E0200000E0400000E0600000E0800000E0A00000E0C00000E0E00040000000400020004000400040006000400080004000A0004000C0004000E00040200000402020004020400040206000402080004020A0004020C0004020E000404000004040200040404000404060004040800040
310
40A0004040C0004040E00040600000406020004060400040606000406080004060A0004060C0004060E00040800000408020004080400040806000408080004080A0004080C0004080E00040A0000040A0200040A0400040A0600040A0800040A0A00040A0C00040A0E00040C0000040C0200040C0400040C0600040C08000
310
40C0A00040C0C00040C0E00040E0000040E0200040E0400040E0600040E0800040E0A00040E0C00040E0E00080000000800020008000400080006000800080008000A0008000C0008000E00080200000802020008020400080206000802080008020A0008020C0008020E00080400000804020008040400080406000804080
310
008040A0008040C0008040E00080600000806020008060400080606000806080008060A0008060C0008060E00080800000808020008080400080806000808080008080A0008080C0008080E00080A0000080A0200080A0400080A0600080A0800080A0A00080A0C00080A0E00080C0000080C0200080C0400080C0600080C0
310
800080C0A00080C0C00080C0E00080E0000080E0200080E0400080E0600080E0800080E0A00080E0C00080E0E000C0000000C0002000C0004000C0006000C0008000C000A000C000C000C000E000C0200000C0202000C0204000C0206000C0208000C020A000C020C000C020E000C0400000C0402000C0404000C0406000C0
310
408000C040A000C040C000C040E000C0600000C0602000C0604000C0606000C0608000C060A000C060C000C060E000C0800000C0802000C0804000C0806000C0808000C080A000C080C000C080E000C0A00000C0A02000C0A04000C0A06000C0A08000C0A0A000C0A0C000C0A0E000C0C00000C0C02000C0C04000C0C06000
310
C0C08000C0C0A000F0FBFF00A4A0A000808080000000FF0000FF000000FFFF00FF000000FF00FF00FFFF0000FFFFFF000000000000000000000000000000000000000000000000000000000000000000000000000000000000000000000000000000FFFFFFFFFFFFFFFF000000000000000000000000000000000000000000
310
0000000000000000000000FF00000000000000000000000000000000000000000000000000000000000000FF00000000000000000000000000000000000000000000000000000000000000FF00000000000000000000000000000000000000000000000000000000000000FF00000000000000000000000000000000000000
310
000000000000000000000000FF00000000000000000000000000000000000000000000000000000000000000FF00000000000000000000000000000000000000000000000000000000000000FF00000000000000000000000000000000000000000000000000000000000000FF000000000000000000000000000000000000
310
00000000000000000000000000FF00000000000000000000000000000000000000000000000000000000000000FF00000000000000000000000000000000000000000000000000000000000000FF00000000000000000000000000000000000000000000000000000000000000FF00000000000000000000FF000000000000
310
0000000000000000000000000000FF00000000000000000000FF0000000000000000000000000000000000000000FF00000000000000000000FF0000000000000000000000000000000000000000FF00000000000000000000FF0000000000000000000000000000000000000000FF00000000000000000000FF0000000000
310
000000000000000000000000000000FF00000000000000000000FF0000000000000000000000000000000000000000FF00000000000000000000FFFFFFFFFFFFFFFFFFFFFFFFFFFFFFFFFFFFFFFFFFFF00000000000000000000FFFFFFFFFFFFFFFFFFFFFFFFFFFFFFFFFFFFFFFFFFFF00000000000000000000FF00000000
310
00000000000000000000000000000000FF00000000000000000000FF0000000000000000000000000000000000000000FF00000000000000000000FF0000000000000000000000000000000000000000FF00000000000000000000FF0000000000F90000000000000000000000000000FF00000000000000000000FFFFFFFF
310
FF00F900FFFFFFFFFFFFFFFFFFFFFFFFFF0000000000000000000000000000F9FFF9F9F9FFF90000000000000000000000000000000000000000000000000000FFFFF9FFFF0000000000000000000000000000000000000000000000000000000000F900000000000000000000000000000000000000000000000000000000
310
000000F900000000000000000000000000000000000000000000000000000000000000000000000000000000000000000000000000000000
102
{BLKREFS
331
5F36
102
}
 70
     4
280
     1
281
     0
  0
BLOCK_RECORD
  5
5FC0
102
{ACAD_XDICTIONARY
360
6017
102
}
330
1
100
AcDbSymbolTableRecord
100
AcDbBlockTableRecord
  2
センタＢ SSM140
340
0
310
2800000020000000200000000100080000000000000400000000000000000000000000000000000000000000000080000080000000808000800000008000800080800000C0C0C000C0DCC000F0CAA6000020400000206000002080000020A0000020C0000020E00000400000004020000040400000406000004080000040A0
310
000040C0000040E00000600000006020000060400000606000006080000060A0000060C0000060E00000800000008020000080400000806000008080000080A0000080C0000080E00000A0000000A0200000A0400000A0600000A0800000A0A00000A0C00000A0E00000C0000000C0200000C0400000C0600000C0800000C0
310
A00000C0C00000C0E00000E0000000E0200000E0400000E0600000E0800000E0A00000E0C00000E0E00040000000400020004000400040006000400080004000A0004000C0004000E00040200000402020004020400040206000402080004020A0004020C0004020E000404000004040200040404000404060004040800040
310
40A0004040C0004040E00040600000406020004060400040606000406080004060A0004060C0004060E00040800000408020004080400040806000408080004080A0004080C0004080E00040A0000040A0200040A0400040A0600040A0800040A0A00040A0C00040A0E00040C0000040C0200040C0400040C0600040C08000
310
40C0A00040C0C00040C0E00040E0000040E0200040E0400040E0600040E0800040E0A00040E0C00040E0E00080000000800020008000400080006000800080008000A0008000C0008000E00080200000802020008020400080206000802080008020A0008020C0008020E00080400000804020008040400080406000804080
310
008040A0008040C0008040E00080600000806020008060400080606000806080008060A0008060C0008060E00080800000808020008080400080806000808080008080A0008080C0008080E00080A0000080A0200080A0400080A0600080A0800080A0A00080A0C00080A0E00080C0000080C0200080C0400080C0600080C0
310
800080C0A00080C0C00080C0E00080E0000080E0200080E0400080E0600080E0800080E0A00080E0C00080E0E000C0000000C0002000C0004000C0006000C0008000C000A000C000C000C000E000C0200000C0202000C0204000C0206000C0208000C020A000C020C000C020E000C0400000C0402000C0404000C0406000C0
310
408000C040A000C040C000C040E000C0600000C0602000C0604000C0606000C0608000C060A000C060C000C060E000C0800000C0802000C0804000C0806000C0808000C080A000C080C000C080E000C0A00000C0A02000C0A04000C0A06000C0A08000C0A0A000C0A0C000C0A0E000C0C00000C0C02000C0C04000C0C06000
310
C0C08000C0C0A000F0FBFF00A4A0A000808080000000FF0000FF000000FFFF00FF000000FF00FF00FFFF0000FFFFFF000000000000000000000000000000000000000000000000000000000000000000000000000000FFFFFFFFFFFFFFFF0000000000000000000000000000000000000000000000FF000000000000000000
310
00000000000000000000000000000000000000000000FF00000000000000000000000000000000000000000000000000000000000000FF00000000000000000000000000000000000000000000000000000000000000FF00000000000000000000000000000000000000000000000000000000000000FF0000000000000000
310
0000000000000000000000000000000000000000000000FF00000000000000000000000000000000000000000000000000000000000000FF00000000000000000000000000000000000000000000000000000000000000FF00000000000000000000000000000000000000000000000000000000000000FF00000000000000
310
000000000000000000000000000000000000000000000000FF00000000000000000000000000000000000000000000000000000000000000FF00000000000000000000000000000000000000000000000000000000000000FF00000000000000000000000000000000000000000000000000000000000000FF000000000000
310
0000000000000000000000000000FF00000000000000000000FF0000000000000000000000000000000000000000FF00000000000000000000FF0000000000000000000000000000000000000000FF00000000000000000000FF0000000000000000000000000000000000000000FF00000000000000000000FF0000000000
310
000000000000000000000000000000FF00000000000000000000FF0000000000000000000000000000000000000000FF00000000000000000000FFFFFFFFFFFFFFFFFFFFFFFFFFFFFFFFFFFFFFFFFFFF00000000000000000000FFFFFFFFFFFFFFFFFFFFFFFFFFFFFFFFFFFFFFFFFFFF00000000000000000000FF00000000
310
00000000000000000000000000000000FF00000000000000000000FF0000000000000000000000000000000000000000FF00000000000000000000FF0000000000000000000000000000000000000000FF00000000000000000000FF0000000000000000000000000000F90000000000FF0000000000000000000000FFFFFF
310
FFFFFFFFFFFFFFFFFFFF00F900FFFFFFFFFF00000000000000000000000000000000000000000000F9FFF9F9F9FFF90000000000000000000000000000000000000000000000000000FFFFF9FFFF0000000000000000000000000000000000000000000000000000000000F900000000000000000000000000000000000000
310
000000000000000000000000F900000000000000000000000000000000000000000000000000000000000000000000000000000000000000
102
{BLKREFS
331
5FE4
102
}
 70
     4
280
     1
281
     0
  0
BLOCK_RECORD
  5
6249
102
{ACAD_XDICTIONARY
360
62E5
102
}
330
1
100
AcDbSymbolTableRecord
100
AcDbBlockTableRecord
  2
リーマボルト SSM140 M6
340
0
310
2800000020000000200000000100080000000000000400000000000000000000000000000000000000000000000080000080000000808000800000008000800080800000C0C0C000C0DCC000F0CAA6000020400000206000002080000020A0000020C0000020E00000400000004020000040400000406000004080000040A0
310
000040C0000040E00000600000006020000060400000606000006080000060A0000060C0000060E00000800000008020000080400000806000008080000080A0000080C0000080E00000A0000000A0200000A0400000A0600000A0800000A0A00000A0C00000A0E00000C0000000C0200000C0400000C0600000C0800000C0
310
A00000C0C00000C0E00000E0000000E0200000E0400000E0600000E0800000E0A00000E0C00000E0E00040000000400020004000400040006000400080004000A0004000C0004000E00040200000402020004020400040206000402080004020A0004020C0004020E000404000004040200040404000404060004040800040
310
40A0004040C0004040E00040600000406020004060400040606000406080004060A0004060C0004060E00040800000408020004080400040806000408080004080A0004080C0004080E00040A0000040A0200040A0400040A0600040A0800040A0A00040A0C00040A0E00040C0000040C0200040C0400040C0600040C08000
310
40C0A00040C0C00040C0E00040E0000040E0200040E0400040E0600040E0800040E0A00040E0C00040E0E00080000000800020008000400080006000800080008000A0008000C0008000E00080200000802020008020400080206000802080008020A0008020C0008020E00080400000804020008040400080406000804080
310
008040A0008040C0008040E00080600000806020008060400080606000806080008060A0008060C0008060E00080800000808020008080400080806000808080008080A0008080C0008080E00080A0000080A0200080A0400080A0600080A0800080A0A00080A0C00080A0E00080C0000080C0200080C0400080C0600080C0
310
800080C0A00080C0C00080C0E00080E0000080E0200080E0400080E0600080E0800080E0A00080E0C00080E0E000C0000000C0002000C0004000C0006000C0008000C000A000C000C000C000E000C0200000C0202000C0204000C0206000C0208000C020A000C020C000C020E000C0400000C0402000C0404000C0406000C0
310
408000C040A000C040C000C040E000C0600000C0602000C0604000C0606000C0608000C060A000C060C000C060E000C0800000C0802000C0804000C0806000C0808000C080A000C080C000C080E000C0A00000C0A02000C0A04000C0A06000C0A08000C0A0A000C0A0C000C0A0E000C0C00000C0C02000C0C04000C0C06000
310
C0C08000C0C0A000F0FBFF00A4A0A000808080000000FF0000FF000000FFFF00FF000000FF00FF00FFFF0000FFFFFF0000000000000000000000000000000000000000000000000000000000000000000000000000000000000000000000000000000000000000000000000000000000000000000000000000000000000000
310
00000000000000000000000000000000000000000000000000000000000000000000000000000000000000000000000000000000000000000000000000000000000000000000000000000000000000000000000000000000000000000000000000000000000000000000000000000000000000000000000000000000000000
310
00000000000000000000000000000000000000000000000000000000000000000000000000000000000000000000000000000000000000000000000000000000000000000000000000000000000000000000000000000000000000000000000000000000000000000000000000000000000000000000000000000000000000
310
00000000000000000000000000000000000000000000000000000000000000000000000000000000000000000000000000000000FFFFFFFF00000000000000000000000000000000000000FFFFFFFFFF00000000FFFF00FFFF000000000000000000000000000000FF000000FF0000FF00000000FFFFFFFFFF000000000000
310
000000000000000000FFFFFFFFFFFFFFFEFEFF0000FFFF0000FF000000000000000000000000000000FFFF00FFFF0000FFFFFF0000FFFF0000FF000000000000000000000000000000FFFF0000FF0000FFFFFF0000FFFFFFFFFF000000000000000000000000000000FFFFFFFFFFFFFFFEFEFF0000FFFF00FFFF0000000000
310
00000000000000000000FF000000FF0000FF00000000FFFFFFFF00000000000000000000000000000000000000FFFFFFFFFF0000000000000000000000000000000000000000000000000000000000000000000000000000000000000000000000000000000000000000000000000000000000000000000000000000000000
310
00000000000000000000000000000000000000000000000000000000000000000000000000000000000000000000000000000000000000000000000000000000000000000000000000000000000000000000000000000000000000000000000000000000000000000000000000000000000000000000000000000000000000
310
00000000000000000000000000000000000000000000000000000000000000000000000000000000000000000000000000000000000000000000000000000000000000000000000000000000000000000000000000000000000000000000000000000000000000000000000000000000000000000000000000000000000000
310
0000000000000000000000000000000000000000000000000000000000000000000000000000000000000000000000000000000000000000
102
{BLKREFS
331
6278
102
}
 70
     4
280
     1
281
     0
  0
BLOCK_RECORD
  5
67CE
330
1
100
AcDbSymbolTableRecord
100
AcDbBlockTableRecord
  2
*D12
340
0
 70
     0
280
     1
281
     0
  0
BLOCK_RECORD
  5
67FF
330
1
100
AcDbSymbolTableRecord
100
AcDbBlockTableRecord
  2
*D13
340
0
 70
     0
280
     1
281
     0
  0
BLOCK_RECORD
  5
6854
330
1
100
AcDbSymbolTableRecord
100
AcDbBlockTableRecord
  2
*D14
340
0
 70
     0
280
     1
281
     0
  0
BLOCK_RECORD
  5
686C
330
1
100
AcDbSymbolTableRecord
100
AcDbBlockTableRecord
  2
*D15
340
0
 70
     0
280
     1
281
     0
  0
BLOCK_RECORD
  5
689E
330
1
100
AcDbSymbolTableRecord
100
AcDbBlockTableRecord
  2
*D16
340
0
 70
     0
280
     1
281
     0
  0
BLOCK_RECORD
  5
694E
330
1
100
AcDbSymbolTableRecord
100
AcDbBlockTableRecord
  2
*D17
340
0
 70
     0
280
     1
281
     0
  0
BLOCK_RECORD
  5
6966
330
1
100
AcDbSymbolTableRecord
100
AcDbBlockTableRecord
  2
*D18
340
0
 70
     0
280
     1
281
     0
  0
BLOCK_RECORD
  5
6A8B
330
1
100
AcDbSymbolTableRecord
100
AcDbBlockTableRecord
  2
*D19
340
0
 70
     0
280
     1
281
     0
  0
BLOCK_RECORD
  5
6B18
330
1
100
AcDbSymbolTableRecord
100
AcDbBlockTableRecord
  2
*D20
340
0
 70
     0
280
     1
281
     0
  0
BLOCK_RECORD
  5
6B42
330
1
100
AcDbSymbolTableRecord
100
AcDbBlockTableRecord
  2
*D21
340
0
 70
     0
280
     1
281
     0
  0
BLOCK_RECORD
  5
6B5A
330
1
100
AcDbSymbolTableRecord
100
AcDbBlockTableRecord
  2
*D22
340
0
 70
     0
280
     1
281
     0
  0
BLOCK_RECORD
  5
703A
330
1
100
AcDbSymbolTableRecord
100
AcDbBlockTableRecord
  2
*D23
340
0
 70
     0
280
     1
281
     0
  0
BLOCK_RECORD
  5
8119
330
1
100
AcDbSymbolTableRecord
100
AcDbBlockTableRecord
  2
*D24
340
0
 70
     0
280
     1
281
     0
  0
BLOCK_RECORD
  5
815A
330
1
100
AcDbSymbolTableRecord
100
AcDbBlockTableRecord
  2
*D25
340
0
 70
     0
280
     1
281
     0
  0
BLOCK_RECORD
  5
81CB
330
1
100
AcDbSymbolTableRecord
100
AcDbBlockTableRecord
  2
*D26
340
0
 70
     0
280
     1
281
     0
  0
BLOCK_RECORD
  5
84E3
102
{ACAD_XDICTIONARY
360
8550
102
}
330
1
100
AcDbSymbolTableRecord
100
AcDbBlockTableRecord
  2
ケース
340
0
310
2800000020000000200000000100080000000000000400000000000000000000000000000000000000000000000080000080000000808000800000008000800080800000C0C0C000C0DCC000F0CAA6000020400000206000002080000020A0000020C0000020E00000400000004020000040400000406000004080000040A0
310
000040C0000040E00000600000006020000060400000606000006080000060A0000060C0000060E00000800000008020000080400000806000008080000080A0000080C0000080E00000A0000000A0200000A0400000A0600000A0800000A0A00000A0C00000A0E00000C0000000C0200000C0400000C0600000C0800000C0
310
A00000C0C00000C0E00000E0000000E0200000E0400000E0600000E0800000E0A00000E0C00000E0E00040000000400020004000400040006000400080004000A0004000C0004000E00040200000402020004020400040206000402080004020A0004020C0004020E000404000004040200040404000404060004040800040
310
40A0004040C0004040E00040600000406020004060400040606000406080004060A0004060C0004060E00040800000408020004080400040806000408080004080A0004080C0004080E00040A0000040A0200040A0400040A0600040A0800040A0A00040A0C00040A0E00040C0000040C0200040C0400040C0600040C08000
310
40C0A00040C0C00040C0E00040E0000040E0200040E0400040E0600040E0800040E0A00040E0C00040E0E00080000000800020008000400080006000800080008000A0008000C0008000E00080200000802020008020400080206000802080008020A0008020C0008020E00080400000804020008040400080406000804080
310
008040A0008040C0008040E00080600000806020008060400080606000806080008060A0008060C0008060E00080800000808020008080400080806000808080008080A0008080C0008080E00080A0000080A0200080A0400080A0600080A0800080A0A00080A0C00080A0E00080C0000080C0200080C0400080C0600080C0
310
800080C0A00080C0C00080C0E00080E0000080E0200080E0400080E0600080E0800080E0A00080E0C00080E0E000C0000000C0002000C0004000C0006000C0008000C000A000C000C000C000E000C0200000C0202000C0204000C0206000C0208000C020A000C020C000C020E000C0400000C0402000C0404000C0406000C0
310
408000C040A000C040C000C040E000C0600000C0602000C0604000C0606000C0608000C060A000C060C000C060E000C0800000C0802000C0804000C0806000C0808000C080A000C080C000C080E000C0A00000C0A02000C0A04000C0A06000C0A08000C0A0A000C0A0C000C0A0E000C0C00000C0C02000C0C04000C0C06000
310
C0C08000C0C0A000F0FBFF00A4A0A000808080000000FF0000FF000000FFFF00FF000000FF00FF00FFFF0000FFFFFF0000000000000000000000000000000000000000000000000000000000000000000000000000000000000000000000000000000000000000000000000000000000000000000000000000000000000000
310
00000000000000000000000000000000000000000000000000000000000000000000000000000000000000000000000000000000000000000000000000000000000000000000000000000000000000000000FC000000FC0000000000000000000000FC0000FC000000000000000000000000FCFCFCFCFC0000000000000000
310
000000FCFCFCFC000000000000000000000000FC000000FC0000000000000000000000FC0000FC000000000000000000000000FC000000FC0000000000000000000000FC0000FC000000000000000000000000FC000000FC0000000000000000000000FC0000FC000000000000000000000000FC000000FC00000000000000
310
00000000FC0000FC000000000000000000000000FC000000FC0000000000000000000000FC0000FC000000000000000000000000FC00000000FCFCFCFCFCFCFCFCFCFCFC000000FC00000000000000FCFCFC0000FC000000000000000000000000000000000000FC000000000000FC0000000000FC00000000000000000000
310
0000000000000000FC000000FCFCFCFCFCFCFC0000FC000000000000000000000000000000000000FC000000000000FC0000000000FC000000000000000000000000000000000000FC000000000000FC0000000000FC000000000000000000000000000000000000FC000000000000FCFCFCFC0000FC000000000000000000
310
00000000000000000000FCFCFCFCFCFC000000000000FC00000000000000000000000000000000000000000000000000000000000000FC00000000000000000000000000000000000000000000000000000000000000FC0000000000000000000000000000000000000000000000000000000000000000FC00000000000000
310
00000000000000000000000000000000000000000000000000FC0000000000000000000000000000000000000000000000000000000000000000FC0000000000000000000000000000000000000000000000000000000000000000FC0000000000000000000000000000000000000000000000000000000000000000FCFCFC
310
FCFCFCFCFCFCFCFCFCFCFCFCFCFCFCFCFCFCFCFCFCFC000000000000000000000000000000000000000000000000000000000000000000000000000000000000000000000000000000000000000000000000000000000000000000000000000000000000000000000000000000000000000000000000000000000000000000
310
0000000000000000000000000000000000000000000000000000000000000000000000000000000000000000000000000000000000000000
102
{BLKREFS
331
84FD
102
}
 70
     4
280
     1
281
     1
  0
ENDTAB
  0
ENDSEC
  0
SECTION
  2
BLOCKS
  0
BLOCK
  5
20
330
1F
100
AcDbEntity
  8
0
100
AcDbBlockBegin
  2
*Model_Space
 70
     0
 10
0.0
 20
0.0
 30
0.0
  3
*Model_Space
  1

  0
ENDBLK
  5
21
330
1F
100
AcDbEntity
  8
0
100
AcDbBlockEnd
  0
BLOCK
  5
1C
330
1B
100
AcDbEntity
 67
     1
  8
0
100
AcDbBlockBegin
  2
*Paper_Space
 70
     0
 10
0.0
 20
0.0
 30
0.0
  3
*Paper_Space
  1

  0
ENDBLK
  5
1D
330
1B
100
AcDbEntity
 67
     1
  8
0
100
AcDbBlockEnd
  0
BLOCK
  5
24
330
23
100
AcDbEntity
 67
     1
  8
0
100
AcDbBlockBegin
  2
*Paper_Space0
 70
     0
 10
0.0
 20
0.0
 30
0.0
  3
*Paper_Space0
  1

  0
ENDBLK
  5
25
330
23
100
AcDbEntity
 67
     1
  8
0
100
AcDbBlockEnd
  0
BLOCK
  5
6D
330
69
100
AcDbEntity
  8
0
100
AcDbBlockBegin
  2
_Open30
 70
     0
 10
0.0
 20
0.0
 30
0.0
  3
_Open30
  1

  0
LINE
  5
6A
330
69
100
AcDbEntity
  8
0
  6
ByBlock
 62
     0
370
    -2
100
AcDbLine
 10
-1.0
 20
0.26794919
 30
0.0
 11
0.0
 21
0.0
 31
0.0
  0
LINE
  5
6B
330
69
100
AcDbEntity
  8
0
  6
ByBlock
 62
     0
370
    -2
100
AcDbLine
 10
0.0
 20
0.0
 30
0.0
 11
-1.0
 21
-0.26794919
 31
0.0
  0
LINE
  5
6C
330
69
100
AcDbEntity
  8
0
  6
ByBlock
 62
     0
370
    -2
100
AcDbLine
 10
0.0
 20
0.0
 30
0.0
 11
-1.0
 21
0.0
 31
0.0
  0
ENDBLK
  5
6E
330
69
100
AcDbEntity
  8
0
100
AcDbBlockEnd
  0
BLOCK
  5
76
330
74
100
AcDbEntity
  8
0
100
AcDbBlockBegin
  2
GENAXEH
 70
     0
 10
0.0
 20
0.0
 30
0.0
  3
GENAXEH
  1

  0
LINE
  5
75
330
74
100
AcDbEntity
  8
0
100
AcDbLine
 10
-1.0
 20
0.0
 30
0.0
 11
1.0
 21
0.0
 31
0.0
  0
ENDBLK
  5
77
330
74
100
AcDbEntity
  8
0
100
AcDbBlockEnd
  0
BLOCK
  5
5B3C
330
5B3B
100
AcDbEntity
  8
0
100
AcDbBlockBegin
  2
ロッカクアナツキプラグ R1／8
 70
     0
 10
0.0
 20
0.0
 30
0.0
  3
ロッカクアナツキプラグ R1／8
  1

  0
CIRCLE
  5
5B3E
330
5B3B
100
AcDbEntity
  8
AM_0 外形線1
100
AcDbCircle
 10
0.1090763902525396
 20
-0.0000007500266861
 30
0.0
 40
5.271368005419998
  0
CIRCLE
  5
5B3F
330
5B3B
100
AcDbEntity
  8
AM_4 細線
100
AcDbCircle
 10
0.1090763902525396
 20
-0.0000007500266861
 30
0.0
 40
4.816355277211498
  0
LINE
  5
5B40
330
5B3B
100
AcDbEntity
  8
AM_7 中心線
100
AcDbLine
 10
7.16119540685986
 20
-0.0000007500266861
 30
0.0
 11
-7.161195406860088
 21
-0.0000007500266861
 31
0.0
  0
LINE
  5
5B41
330
5B3B
100
AcDbEntity
  8
AM_7 中心線
100
AcDbLine
 10
0.0
 20
7.161196156886773
 30
0.0
 11
0.0
 21
-7.161196156886718
 31
0.0
  0
LINE
  5
5B42
330
5B3B
100
AcDbEntity
  8
AM_0 外形線1
100
AcDbLine
 10
2.287185573375836
 20
-1.25753160036072
 30
0.0
 11
2.287185573375836
 21
1.257531600360835
 31
0.0
  0
LINE
  5
5B43
330
5B3B
100
AcDbEntity
  8
AM_0 外形線1
100
AcDbLine
 10
-2.069032792870983
 20
1.257531600360835
 30
0.0
 11
-2.069032792870983
 21
-1.25753160036072
 31
0.0
  0
LINE
  5
5B44
330
5B3B
100
AcDbEntity
  8
AM_0 外形線1
100
AcDbLine
 10
0.1090763902525396
 20
-2.515063950748185
 30
0.0
 11
2.287185573375836
 21
-1.25753160036072
 31
0.0
  0
LINE
  5
5B45
330
5B3B
100
AcDbEntity
  8
AM_0 外形線1
100
AcDbLine
 10
-2.069032792870983
 20
-1.25753160036072
 30
0.0
 11
0.1090763902525396
 21
-2.515063950748185
 31
0.0
  0
LINE
  5
5B46
330
5B3B
100
AcDbEntity
  8
AM_0 外形線1
100
AcDbLine
 10
0.1090763902525396
 20
2.515063950748298
 30
0.0
 11
-2.069032792870983
 21
1.257531600360835
 31
0.0
  0
LINE
  5
5B47
330
5B3B
100
AcDbEntity
  8
AM_0 外形線1
100
AcDbLine
 10
2.287185573375836
 20
1.257531600360835
 30
0.0
 11
0.1090763902525396
 21
2.515063950748298
 31
0.0
  0
ENDBLK
  5
5B3D
330
5B3B
100
AcDbEntity
  8
0
100
AcDbBlockEnd
  0
BLOCK
  5
5BF0
330
5BEF
100
AcDbEntity
  8
0
100
AcDbBlockBegin
  2
ケースＡ SSM140
 70
     0
 10
0.0
 20
0.0
 30
0.0
  3
ケースＡ SSM140
  1

  0
LINE
  5
5BF2
330
5BEF
100
AcDbEntity
  8
AM_0 外形線1
100
AcDbLine
 10
15.00038499465006
 20
-69.801791508438
 30
0.0
 11
15.00038499465006
 21
0.0
 31
0.0
  0
LINE
  5
5BF3
330
5BEF
100
AcDbEntity
  8
AM_0 外形線1
100
AcDbLine
 10
0.0
 20
0.0
 30
0.0
 11
0.0
 21
-69.801791508438
 31
0.0
  0
LINE
  5
5BF4
330
5BEF
100
AcDbEntity
  8
AM_0 外形線1
100
AcDbLine
 10
0.2000051332620387
 20
-70.00179664170002
 30
0.0
 11
14.80037986138802
 21
-70.00179664170002
 31
0.0
  0
LINE
  5
5BF6
330
5BEF
100
AcDbEntity
  8
AM_0 外形線1
100
AcDbLine
 10
0.0
 20
-69.801791508438
 30
0.0
 11
0.2000051332620387
 21
-70.00179664170002
 31
0.0
  0
LINE
  5
5BF7
330
5BEF
100
AcDbEntity
  8
AM_0 外形線1
100
AcDbLine
 10
14.80037986138802
 20
-70.00179664170002
 30
0.0
 11
15.00038499465006
 21
-69.801791508438
 31
0.0
  0
LINE
  5
5BF8
330
5BEF
100
AcDbEntity
  8
AM_0 外形線1
100
AcDbLine
 10
47.00120631657006
 20
0.0
 30
0.0
 11
47.00120631657006
 21
-50.501296148655
 31
0.0
  0
LINE
  5
5BF9
330
5BEF
100
AcDbEntity
  8
AM_0 外形線1
100
AcDbLine
 10
47.00120631657006
 20
-50.501296148655
 30
0.0
 11
47.00120631657006
 21
0.0
 31
0.0
  0
LINE
  5
5BFA
330
5BEF
100
AcDbEntity
  8
AM_0 外形線1
100
AcDbLine
 10
41.79713221121345
 20
-53.50137314758502
 30
0.0
 11
18.00046199357996
 21
-53.50137314758502
 31
0.0
  0
ARC
  5
5BFB
330
5BEF
100
AcDbEntity
  8
AM_0 外形線1
100
AcDbCircle
 10
18.00046199357996
 20
-56.50145014651503
 30
0.0
 40
3.000076998929998
100
AcDbArc
 50
90.0
 51
180.0
  0
LINE
  5
5BFC
330
5BEF
100
AcDbEntity
  8
AM_0 外形線1
100
AcDbLine
 10
44.00112931763999
 20
-53.50137314758502
 30
0.0
 11
41.79713221121345
 21
-53.50137314758502
 31
0.0
  0
ARC
  5
5BFD
330
5BEF
100
AcDbEntity
  8
AM_0 外形線1
100
AcDbCircle
 10
44.00112931763999
 20
-50.501296148655
 30
0.0
 40
3.000076998929998
100
AcDbArc
 50
270.0
 51
0.0
  0
LINE
  5
5BFE
330
5BEF
100
AcDbEntity
  8
AM_0 外形線1
100
AcDbLine
 10
15.00038499465006
 20
48.50124481603501
 30
0.0
 11
-2.000051332619932
 21
48.50124481603501
 31
0.0
  0
LINE
  5
5BFF
330
5BEF
100
AcDbEntity
  8
AM_0 外形線1
100
AcDbLine
 10
0.0
 20
60.00153997859996
 30
0.0
 11
15.00038499465006
 21
60.00153997859996
 31
0.0
  0
LINE
  5
5C00
330
5BEF
100
AcDbEntity
  8
AM_0 外形線1
100
AcDbLine
 10
15.00038499465006
 20
67.00171964277
 30
0.0
 11
0.0
 21
67.00171964277
 31
0.0
  0
LINE
  5
5C01
330
5BEF
100
AcDbEntity
  8
AM_0 外形線1
100
AcDbLine
 10
0.2000051332620387
 20
70.00179664169997
 30
0.0
 11
14.80037986138802
 21
70.00179664169997
 31
0.0
  0
LINE
  5
5C02
330
5BEF
100
AcDbEntity
  8
AM_0 外形線1
100
AcDbLine
 10
-2.000051332619932
 20
48.50124481603501
 30
0.0
 11
-2.000051332619932
 21
44.701147284057
 31
0.0
  0
LINE
  5
5C03
330
5BEF
100
AcDbEntity
  8
AM_0 外形線1
100
AcDbLine
 10
-1.800046199357893
 20
52.50134748127493
 30
0.0
 11
1.900048765989025
 21
52.50134748127493
 31
0.0
  0
LINE
  5
5C04
330
5BEF
100
AcDbEntity
  8
AM_0 外形線1
100
AcDbLine
 10
-2.000051332619932
 20
52.30134234801295
 30
0.0
 11
-1.800046199357893
 21
52.50134748127493
 31
0.0
  0
LINE
  5
5C05
330
5BEF
100
AcDbEntity
  8
AM_0 外形線1
100
AcDbLine
 10
-2.000051332619932
 20
48.50124481603501
 30
0.0
 11
-2.000051332619932
 21
52.30134234801295
 31
0.0
  0
LWPOLYLINE
  5
5C06
330
5BEF
100
AcDbEntity
  8
AM_0 外形線1
100
AcDbPolyline
 90
       49
 70
     0
 43
0.0
 10
1.20003079957189
 20
52.50134748127493
 10
1.305241551954964
 20
52.50890325075449
 10
1.408413731631411
 20
52.53097353790002
 10
1.512238434580581
 20
52.56849887625588
 10
1.610464937867503
 20
52.61895017562142
 10
1.709148957472051
 20
52.68562005342893
 10
1.800046199357893
 20
52.76260429910245
 10
2.060899502793971
 20
53.09128552164793
 10
2.23928736506741
 20
53.47637325595394
 10
2.32936857784955
 20
53.79124948613901
 10
2.38182994890485
 20
54.11277545348945
 10
2.395496936343533
 20
54.28178948144142
 10
2.400061599143896
 20
54.45139753057953
 10
2.395496936343533
 20
54.62100557971751
 10
2.38182994890485
 20
54.79001960766948
 10
2.32936857784955
 20
55.11154557502004
 10
2.23928736506741
 20
55.42642330525847
 10
2.060899502793971
 20
55.81150953951095
 10
1.800046199357893
 20
56.14019076205654
 10
1.709148957472051
 20
56.2171750077299
 10
1.610464937867503
 20
56.28384488553741
 10
1.512238434580581
 20
56.33429618490293
 10
1.408413731631411
 20
56.37182152325903
 10
1.305241551954964
 20
56.39389181040456
 10
1.20003079957189
 20
56.40144757988401
 10
1.094820047189045
 20
56.39389181040456
 10
0.9916478675124835
 20
56.37182152325903
 10
0.8878231645634285
 20
56.33429618490293
 10
0.7895966612765051
 20
56.28384488553741
 10
0.6909126416719574
 20
56.2171750077299
 10
0.6000153997860025
 20
56.14019076205654
 10
0.3391620963499236
 20
55.81150953951095
 10
0.1607742340764844
 20
55.42642330525847
 10
0.0706930212945736
 20
55.11154557502004
 10
0.018231650239045
 20
54.79001960766948
 10
0.0045646628005898
 20
54.62100557971751
 10
0.0
 20
54.45139753057953
 10
0.0045646628005898
 20
54.28178948144142
 10
0.018231650239045
 20
54.11277545348945
 10
0.0706930212945736
 20
53.79124948613901
 10
0.1607742340764844
 20
53.47637325595394
 10
0.3391620963499236
 20
53.09128552164793
 10
0.6000153997860025
 20
52.76260429910245
 10
0.6909126416719574
 20
52.68562005342893
 10
0.7895966612765051
 20
52.61895017562142
 10
0.8878231645634285
 20
52.56849887625588
 10
0.9916478675124835
 20
52.53097353790002
 10
1.094820047189045
 20
52.50890325075449
 10
1.20003079957189
 20
52.50134748127493
  0
LINE
  5
5C07
330
5BEF
100
AcDbEntity
  8
AM_0 外形線1
100
AcDbLine
 10
-0.0000000000000568
 20
56.40144757988401
 30
0.0
 11
0.0
 21
60.00153997859996
 31
0.0
  0
ARC
  5
5C08
330
5BEF
100
AcDbEntity
  8
AM_0 外形線1
100
AcDbCircle
 10
1.900048765989025
 20
55.90143474672903
 30
0.0
 40
0.500012833155
100
AcDbArc
 50
0.0
 51
90.0
  0
LINE
  5
5C09
330
5BEF
100
AcDbEntity
  8
AM_0 外形線1
100
AcDbLine
 10
2.400061599143896
 20
53.00136031443003
 30
0.0
 11
2.400061599143896
 21
55.90143474672903
 31
0.0
  0
ARC
  5
5C0A
330
5BEF
100
AcDbEntity
  8
AM_0 外形線1
100
AcDbCircle
 10
1.900048765989025
 20
53.00136031443003
 30
0.0
 40
0.500012833155
100
AcDbArc
 50
270.0
 51
0.0
  0
LINE
  5
5C0B
330
5BEF
100
AcDbEntity
  8
AM_0 外形線1
100
AcDbLine
 10
0.0
 20
56.40144757988401
 30
0.0
 11
0.0
 21
60.00153997859996
 31
0.0
  0
LINE
  5
5C0C
330
5BEF
100
AcDbEntity
  8
AM_0 外形線1
100
AcDbLine
 10
1.900048765989025
 20
56.40144757988401
 30
0.0
 11
0.0
 21
56.40144757988401
 31
0.0
  0
LINE
  5
5C0D
330
5BEF
100
AcDbEntity
  8
AM_0 外形線1
100
AcDbLine
 10
0.0
 20
69.801791508438
 30
0.0
 11
0.2000051332620387
 21
70.00179664169997
 31
0.0
  0
LINE
  5
5C0E
330
5BEF
100
AcDbEntity
  8
AM_0 外形線1
100
AcDbLine
 10
0.0
 20
67.00171964277
 30
0.0
 11
0.0
 21
69.801791508438
 31
0.0
  0
ARC
  5
5C0F
330
5BEF
100
AcDbEntity
  8
AM_0 外形線1
100
AcDbCircle
 10
15.00038499465006
 20
47.50121914972493
 30
0.0
 40
1.00002566631
100
AcDbArc
 50
0.0
 51
90.0
  0
ARC
  5
5C10
330
5BEF
100
AcDbEntity
  8
AM_0 外形線1
100
AcDbCircle
 10
32.00082132192006
 20
47.50121914972493
 30
0.0
 40
1.00002566631
100
AcDbArc
 50
90.0
 51
180.0
  0
ARC
  5
5C11
330
5BEF
100
AcDbEntity
  8
AM_0 外形線1
100
AcDbCircle
 10
34.00087265453999
 20
47.50121914972493
 30
0.0
 40
1.00002566631
100
AcDbArc
 50
0.0
 51
90.0
  0
LINE
  5
5C12
330
5BEF
100
AcDbEntity
  8
AM_0 外形線1
100
AcDbLine
 10
47.00120631657006
 20
50.501296148655
 30
0.0
 11
47.00120631657006
 21
41.00105231871004
 31
0.0
  0
LINE
  5
5C13
330
5BEF
100
AcDbEntity
  8
AM_0 外形線1
100
AcDbLine
 10
37.20095478673204
 20
41.00105231871004
 30
0.0
 11
35.00089832085007
 21
41.00105231871004
 31
0.0
  0
LINE
  5
5C14
330
5BEF
100
AcDbEntity
  8
AM_3 隠れ線
100
AcDbLine
 10
18.00046199357996
 20
44.40113958416396
 30
0.0
 11
30.50078282245499
 21
44.40113958416396
 31
0.0
  0
LINE
  5
5C15
330
5BEF
100
AcDbEntity
  8
AM_7 中心線
100
AcDbLine
 10
14.00035932833987
 20
46.00118065025998
 30
0.0
 11
33.00084698823003
 21
46.00118065025998
 31
0.0
  0
LINE
  5
5C16
330
5BEF
100
AcDbEntity
  8
AM_0 外形線1
100
AcDbLine
 10
18.00046199357996
 20
44.40113958416396
 30
0.0
 11
16.50042349411501
 21
44.40113958416396
 31
0.0
  0
LINE
  5
5C17
330
5BEF
100
AcDbEntity
  8
AM_0 外形線1
100
AcDbLine
 10
16.00041066096003
 20
44.90115241731898
 30
0.0
 11
16.00041066096003
 21
47.50121914972493
 31
0.0
  0
LINE
  5
5C18
330
5BEF
100
AcDbEntity
  8
AM_0 外形線1
100
AcDbLine
 10
16.50042349411501
 20
44.40113958416396
 30
0.0
 11
16.00041066096003
 21
44.90115241731898
 31
0.0
  0
LINE
  5
5C19
330
5BEF
100
AcDbEntity
  8
AM_0 外形線1
100
AcDbLine
 10
16.00041066096003
 20
44.90115241731898
 30
0.0
 11
16.00041066096003
 21
41.58946930483398
 31
0.0
  0
LINE
  5
5C1A
330
5BEF
100
AcDbEntity
  8
AM_3 隠れ線
100
AcDbLine
 10
31.00079565561009
 20
47.39708243564797
 30
0.0
 11
31.00079565561009
 21
44.90115241731898
 31
0.0
  0
LINE
  5
5C1B
330
5BEF
100
AcDbEntity
  8
AM_3 隠れ線
100
AcDbLine
 10
31.00079565561009
 20
44.90115241731898
 30
0.0
 11
30.50078282245499
 21
44.40113958416396
 31
0.0
  0
LINE
  5
5C1C
330
5BEF
100
AcDbEntity
  8
AM_0 外形線1
100
AcDbLine
 10
35.00089832085007
 20
41.00105231871004
 30
0.0
 11
35.00089832085007
 21
47.50121914972493
 31
0.0
  0
LINE
  5
5C1D
330
5BEF
100
AcDbEntity
  8
AM_0 外形線1
100
AcDbLine
 10
35.00089832085007
 20
41.00105231871004
 30
0.0
 11
35.00089832085007
 21
40.0010266524
 31
0.0
  0
LWPOLYLINE
  5
5C1E
330
5BEF
100
AcDbEntity
  8
AM_0 外形線1
100
AcDbPolyline
 90
       49
 70
     0
 43
0.0
 10
37.20095478673204
 20
42.35108696822845
 10
37.21567481172747
 20
42.14506812048495
 10
37.2586873457866
 20
41.94300341376748
 10
37.33179395316245
 20
41.73972516376847
 10
37.43012846030149
 20
41.54731930153746
 10
37.56001209265253
 20
41.35410941063049
 10
37.71007144457839
 20
41.17605606028746
 10
38.35025677704095
 20
40.66548735065304
 10
39.10100355272108
 20
40.31587438156845
 10
39.71452543422106
 20
40.13947409018242
 10
40.34117278384599
 20
40.03672942575349
 10
40.67053203057343
 20
40.00996547120649
 10
41.00105231871009
 20
40.0010266524
 10
41.33157260684652
 20
40.00996547120649
 10
41.66093185357397
 20
40.03672942575349
 10
42.28757920319913
 20
40.13947409018242
 10
42.90110108469911
 20
40.31587438156845
 10
43.65184786037899
 20
40.66548735065304
 10
44.29203319284147
 20
41.17605756034095
 10
44.44209254476755
 20
41.35410941063049
 10
44.57197617711836
 20
41.54731930153746
 10
44.6703106842574
 20
41.73972516376847
 10
44.74341729163358
 20
41.94300341376748
 10
44.78642982569261
 20
42.14506812048495
 10
44.80114985068792
 20
42.35108696822845
 10
44.78642982569261
 20
42.55710581597195
 10
44.74341729163358
 20
42.75917052268943
 10
44.6703106842574
 20
42.9624487726885
 10
44.57197617711836
 20
43.15485463491945
 10
44.44209254476755
 20
43.34806452582653
 10
44.29203319284147
 20
43.52611787616949
 10
43.65184786037899
 20
44.03668658580396
 10
42.90110108469911
 20
44.38629955488845
 10
42.28757920319913
 20
44.56269984627448
 10
41.66093185357397
 20
44.66544451070342
 10
41.33157260684652
 20
44.69220846525047
 10
41.00105231871009
 20
44.701147284057
 10
40.67053203057343
 20
44.69220846525047
 10
40.34117278384599
 20
44.66544451070342
 10
39.71452543422106
 20
44.56269984627448
 10
39.10100355272108
 20
44.38629955488845
 10
38.35025677704095
 20
44.03668658580396
 10
37.71007144457839
 20
43.52611637611603
 10
37.56001209265253
 20
43.34806452582653
 10
37.43012846030149
 20
43.15485463491945
 10
37.33179395316245
 20
42.9624487726885
 10
37.2586873457866
 20
42.75917052268943
 10
37.21567481172747
 20
42.55710581597195
 10
37.20095478673204
 20
42.35108696822845
  0
LINE
  5
5C1F
330
5BEF
100
AcDbEntity
  8
AM_0 外形線1
100
AcDbLine
 10
44.30113701753304
 20
44.701147284057
 30
0.0
 11
37.70096761988702
 21
44.701147284057
 31
0.0
  0
LINE
  5
5C20
330
5BEF
100
AcDbEntity
  8
AM_0 外形線1
100
AcDbLine
 10
37.20095478673204
 20
44.20113445090197
 30
0.0
 11
37.20095478673204
 21
41.00105231871004
 31
0.0
  0
ARC
  5
5C21
330
5BEF
100
AcDbEntity
  8
AM_0 外形線1
100
AcDbCircle
 10
37.70096761988702
 20
44.20113445090197
 30
0.0
 40
0.500012833155
100
AcDbArc
 50
90.0
 51
180.0
  0
LINE
  5
5C22
330
5BEF
100
AcDbEntity
  8
AM_0 外形線1
100
AcDbLine
 10
37.20095478673204
 20
41.00105231871004
 30
0.0
 11
37.20095478673204
 21
40.0010266524
 31
0.0
  0
ARC
  5
5C23
330
5BEF
100
AcDbEntity
  8
AM_0 外形線1
100
AcDbCircle
 10
44.30113701753304
 20
44.20113445090197
 30
0.0
 40
0.500012833155
100
AcDbArc
 50
0.0
 51
90.0
  0
LINE
  5
5C24
330
5BEF
100
AcDbEntity
  8
AM_0 外形線1
100
AcDbLine
 10
44.80114985068802
 20
41.00105231871004
 30
0.0
 11
44.80114985068802
 21
44.20113445090197
 31
0.0
  0
LINE
  5
5C25
330
5BEF
100
AcDbEntity
  8
AM_0 外形線1
100
AcDbLine
 10
47.00120631657006
 20
41.00105231871004
 30
0.0
 11
44.80114985068802
 21
41.00105231871004
 31
0.0
  0
LINE
  5
5C26
330
5BEF
100
AcDbEntity
  8
AM_0 外形線1
100
AcDbLine
 10
47.00120631657006
 20
41.00105231871004
 30
0.0
 11
47.00120631657006
 21
40.0010266524
 31
0.0
  0
LINE
  5
5C27
330
5BEF
100
AcDbEntity
  8
AM_0 外形線1
100
AcDbLine
 10
44.80114985068802
 20
41.00105231871004
 30
0.0
 11
44.80114985068802
 21
40.0010266524
 31
0.0
  0
LINE
  5
5C28
330
5BEF
100
AcDbEntity
  8
AM_0 外形線1
100
AcDbLine
 10
18.00046199357996
 20
53.50137314758502
 30
0.0
 11
44.00112931763999
 21
53.50137314758502
 31
0.0
  0
LINE
  5
5C29
330
5BEF
100
AcDbEntity
  8
AM_0 外形線1
100
AcDbLine
 10
15.00038499465006
 20
69.801791508438
 30
0.0
 11
15.00038499465006
 21
57.40147324619397
 31
0.0
  0
LINE
  5
5C2A
330
5BEF
100
AcDbEntity
  8
AM_0 外形線1
100
AcDbLine
 10
16.00041066096003
 20
48.00123198288003
 30
0.0
 11
31.00079565561009
 21
48.00123198288003
 31
0.0
  0
ARC
  5
5C2B
330
5BEF
100
AcDbEntity
  8
AM_0 外形線1
100
AcDbCircle
 10
18.00046199357996
 20
56.50145014651497
 30
0.0
 40
3.000076998929998
100
AcDbArc
 50
180.0
 51
270.0
  0
LINE
  5
5C2C
330
5BEF
100
AcDbEntity
  8
AM_0 外形線1
100
AcDbLine
 10
15.00038499465006
 20
60.00153997859996
 30
0.0
 11
15.00038499465006
 21
56.50145014651497
 31
0.0
  0
LINE
  5
5C2D
330
5BEF
100
AcDbEntity
  8
AM_0 外形線1
100
AcDbLine
 10
34.00087265453999
 20
48.50124481603501
 30
0.0
 11
32.00082132192006
 21
48.50124481603501
 31
0.0
  0
LINE
  5
5C2E
330
5BEF
100
AcDbEntity
  8
AM_0 外形線1
100
AcDbLine
 10
14.80037986138802
 20
70.00179664169997
 30
0.0
 11
15.00038499465006
 21
69.801791508438
 31
0.0
  0
ARC
  5
5C2F
330
5BEF
100
AcDbEntity
  8
AM_0 外形線1
100
AcDbCircle
 10
44.00112931763999
 20
50.501296148655
 30
0.0
 40
3.000076998929998
100
AcDbArc
 50
0.0
 51
90.0
  0
INSERT
  5
5C30
330
5BEF
100
AcDbEntity
  8
AM_5 寸法線
100
AcDbBlockReference
  2
ロッカクアナツキプラグ R1／8
 10
7.391116107072547
 20
-22.96397026906129
 30
0.0
  0
LINE
  5
642B
330
5BEF
100
AcDbEntity
  8
AM_7 中心線
100
AcDbLine
 10
-24.00061599143987
 20
63.50162981068496
 30
0.0
 11
29.00074432298993
 21
63.50162981068496
 31
0.0
  0
LINE
  5
642C
330
5BEF
100
AcDbEntity
  8
AM_0 外形線1
100
AcDbLine
 10
31.00079565561009
 20
47.39708243564797
 30
0.0
 11
31.00079565561009
 21
47.50121914972493
 31
0.0
  0
ENDBLK
  5
5BF1
330
5BEF
100
AcDbEntity
  8
0
100
AcDbBlockEnd
  0
BLOCK
  5
5D54
330
5D53
100
AcDbEntity
  8
0
100
AcDbBlockBegin
  2
ケースＢ SSM140
 70
     0
 10
0.0
 20
0.0
 30
0.0
  3
ケースＢ SSM140
  1

  0
LINE
  5
5D56
330
5D53
100
AcDbEntity
  8
AM_0 外形線1
100
AcDbLine
 10
-15.00038499465006
 20
-69.801791508438
 30
0.0
 11
-15.00038499465006
 21
0.0
 31
0.0
  0
LINE
  5
5D57
330
5D53
100
AcDbEntity
  8
AM_0 外形線1
100
AcDbLine
 10
-0.2000051332620387
 20
-70.00179664170002
 30
0.0
 11
-14.80037986138802
 21
-70.00179664170002
 31
0.0
  0
LINE
  5
5D58
330
5D53
100
AcDbEntity
  8
AM_0 外形線1
100
AcDbLine
 10
-14.80037986138802
 20
-70.00179664170002
 30
0.0
 11
-15.00038499465006
 21
-69.801791508438
 31
0.0
  0
LINE
  5
5D59
330
5D53
100
AcDbEntity
  8
AM_0 外形線1
100
AcDbLine
 10
0.0
 20
-69.801791508438
 30
0.0
 11
-0.2000051332620387
 21
-70.00179664170002
 31
0.0
  0
LWPOLYLINE
  5
5D5A
330
5D53
100
AcDbEntity
  8
AM_0 外形線1
100
AcDbPolyline
 90
       49
 70
     0
 43
0.0
 10
-37.20095478673204
 20
42.35108696822845
 10
-37.21567481172757
 20
42.55710581597195
 10
-37.25868734578636
 20
42.75917052268943
 10
-37.33179395316256
 20
42.9624487726885
 10
-37.43012846030139
 20
43.15485463491945
 10
-37.56001209265253
 20
43.34806452582653
 10
-37.71007144457849
 20
43.52611787616949
 10
-38.35025677704095
 20
44.03668658580396
 10
-39.10100355272084
 20
44.38629955488845
 10
-39.71452543422106
 20
44.56269984627448
 10
-40.34117278384599
 20
44.66544451070342
 10
-40.67053203057343
 20
44.69220846525047
 10
-41.00105231870986
 20
44.701147284057
 10
-41.33157260684652
 20
44.69220846525047
 10
-41.66093185357397
 20
44.66544451070342
 10
-42.28757920319913
 20
44.56269984627448
 10
-42.90110108469889
 20
44.38629955488845
 10
-43.65184786037899
 20
44.03668658580396
 10
-44.29203319284158
 20
43.52611637611603
 10
-44.44209254476755
 20
43.34806452582653
 10
-44.57197617711847
 20
43.15485463491945
 10
-44.6703106842575
 20
42.9624487726885
 10
-44.74341729163335
 20
42.75917052268943
 10
-44.78642982569249
 20
42.55710581597195
 10
-44.80114985068792
 20
42.35108696822845
 10
-44.78642982569249
 20
42.14506812048495
 10
-44.74341729163335
 20
41.94300341376748
 10
-44.6703106842575
 20
41.73972516376847
 10
-44.57197617711847
 20
41.54731930153746
 10
-44.44209254476755
 20
41.35410941063049
 10
-44.29203319284158
 20
41.17605606028746
 10
-43.65184786037899
 20
40.66548735065304
 10
-42.90110108469889
 20
40.31587438156845
 10
-42.28757920319913
 20
40.13947409018242
 10
-41.66093185357397
 20
40.03672942575349
 10
-41.33157260684652
 20
40.00996547120649
 10
-41.00105231870986
 20
40.0010266524
 10
-40.67053203057343
 20
40.00996547120649
 10
-40.34117278384599
 20
40.03672942575349
 10
-39.71452543422106
 20
40.13947409018242
 10
-39.10100355272084
 20
40.31587438156845
 10
-38.35025677704095
 20
40.66548735065304
 10
-37.71007144457849
 20
41.17605756034095
 10
-37.56001209265253
 20
41.35410941063049
 10
-37.43012846030139
 20
41.54731930153746
 10
-37.33179395316256
 20
41.73972516376847
 10
-37.25868734578636
 20
41.94300341376748
 10
-37.21567481172757
 20
42.14506812048495
 10
-37.20095478673204
 20
42.35108696822845
  0
LINE
  5
5D5B
330
5D53
100
AcDbEntity
  8
AM_0 外形線1
100
AcDbLine
 10
-44.30113701753304
 20
44.701147284057
 30
0.0
 11
-37.70096761988702
 21
44.701147284057
 31
0.0
  0
LINE
  5
5D5C
330
5D53
100
AcDbEntity
  8
AM_0 外形線1
100
AcDbLine
 10
-18.00046199357996
 20
53.50137314758502
 30
0.0
 11
-44.00112931763999
 21
53.50137314758502
 31
0.0
  0
LINE
  5
5D5D
330
5D53
100
AcDbEntity
  8
AM_0 外形線1
100
AcDbLine
 10
-18.00046199357996
 20
-53.50137314758502
 30
0.0
 11
-44.00112931763999
 21
-53.50137314758502
 31
0.0
  0
LINE
  5
5D5E
330
5D53
100
AcDbEntity
  8
AM_0 外形線1
100
AcDbLine
 10
-47.00120631657
 20
-50.501296148655
 30
0.0
 11
-47.00120631657
 21
0.0
 31
0.0
  0
ARC
  5
5D5F
330
5D53
100
AcDbEntity
  8
AM_0 外形線1
100
AcDbCircle
 10
-44.00112931763999
 20
-50.501296148655
 30
0.0
 40
3.000076998929998
100
AcDbArc
 50
180.0
 51
270.0
  0
LINE
  5
5D60
330
5D53
100
AcDbEntity
  8
AM_0 外形線1
100
AcDbLine
 10
-47.00120631657
 20
50.501296148655
 30
0.0
 11
-47.00120631657
 21
41.00105231871004
 31
0.0
  0
ARC
  5
5D61
330
5D53
100
AcDbEntity
  8
AM_0 外形線1
100
AcDbCircle
 10
-44.30113701753304
 20
44.20113445090197
 30
0.0
 40
0.500012833155
100
AcDbArc
 50
90.0
 51
180.0
  0
LINE
  5
5D62
330
5D53
100
AcDbEntity
  8
AM_0 外形線1
100
AcDbLine
 10
-44.80114985068792
 20
41.00105231871004
 30
0.0
 11
-44.80114985068792
 21
44.20113445090197
 31
0.0
  0
LINE
  5
5D63
330
5D53
100
AcDbEntity
  8
AM_0 外形線1
100
AcDbLine
 10
-47.00120631657
 20
41.00105231871004
 30
0.0
 11
-44.80114985068792
 21
41.00105231871004
 31
0.0
  0
LINE
  5
5D64
330
5D53
100
AcDbEntity
  8
AM_0 外形線1
100
AcDbLine
 10
-44.80114985068792
 20
41.00105231871004
 30
0.0
 11
-44.80114985068792
 21
40.0010266524
 31
0.0
  0
LINE
  5
5D65
330
5D53
100
AcDbEntity
  8
AM_0 外形線1
100
AcDbLine
 10
-47.00120631657
 20
41.00105231871004
 30
0.0
 11
-47.00120631657
 21
40.0010266524
 31
0.0
  0
ARC
  5
5D66
330
5D53
100
AcDbEntity
  8
AM_0 外形線1
100
AcDbCircle
 10
-44.00112931763999
 20
50.501296148655
 30
0.0
 40
3.000076998929998
100
AcDbArc
 50
90.0
 51
180.0
  0
ARC
  5
5D67
330
5D53
100
AcDbEntity
  8
AM_0 外形線1
100
AcDbCircle
 10
-18.00046199357996
 20
-56.50145014651503
 30
0.0
 40
3.000076998929998
100
AcDbArc
 50
0.0
 51
90.0
  0
LINE
  5
5D68
330
5D53
100
AcDbEntity
  8
AM_0 外形線1
100
AcDbLine
 10
-3.000076998929898
 20
48.50124481603501
 30
0.0
 11
-3.000076998929898
 21
44.50114215079503
 31
0.0
  0
ARC
  5
5D69
330
5D53
100
AcDbEntity
  8
AM_0 外形線1
100
AcDbCircle
 10
-15.00038499465006
 20
47.50121914972493
 30
0.0
 40
1.00002566631
100
AcDbArc
 50
90.0
 51
180.0
  0
ARC
  5
5D6A
330
5D53
100
AcDbEntity
  8
AM_0 外形線1
100
AcDbCircle
 10
-32.00082132192006
 20
47.50121914972493
 30
0.0
 40
1.00002566631
100
AcDbArc
 50
0.0
 51
90.0
  0
ARC
  5
5D6B
330
5D53
100
AcDbEntity
  8
AM_0 外形線1
100
AcDbCircle
 10
-34.00087265453999
 20
47.50121914972493
 30
0.0
 40
1.00002566631
100
AcDbArc
 50
90.0
 51
180.0
  0
LINE
  5
5D6C
330
5D53
100
AcDbEntity
  8
AM_3 隠れ線
100
AcDbLine
 10
-18.00046199357996
 20
44.40113958416396
 30
0.0
 11
-30.50078282245499
 21
44.40113958416396
 31
0.0
  0
LINE
  5
5D6D
330
5D53
100
AcDbEntity
  8
AM_7 中心線
100
AcDbLine
 10
-14.00035932833987
 20
46.00118065025998
 30
0.0
 11
-33.00084698823003
 21
46.00118065025998
 31
0.0
  0
LINE
  5
5D6E
330
5D53
100
AcDbEntity
  8
AM_0 外形線1
100
AcDbLine
 10
-35.00089832085007
 20
41.00105231871004
 30
0.0
 11
-35.00089832085007
 21
47.50121914972493
 31
0.0
  0
LINE
  5
5D6F
330
5D53
100
AcDbEntity
  8
AM_0 外形線1
100
AcDbLine
 10
-37.20095478673204
 20
41.00105231871004
 30
0.0
 11
-35.00089832085007
 21
41.00105231871004
 31
0.0
  0
LINE
  5
5D70
330
5D53
100
AcDbEntity
  8
AM_0 外形線1
100
AcDbLine
 10
-37.20095478673204
 20
44.20113445090197
 30
0.0
 11
-37.20095478673204
 21
41.00105231871004
 31
0.0
  0
ARC
  5
5D71
330
5D53
100
AcDbEntity
  8
AM_0 外形線1
100
AcDbCircle
 10
-37.70096761988702
 20
44.20113445090197
 30
0.0
 40
0.500012833155
100
AcDbArc
 50
0.0
 51
90.0
  0
LINE
  5
5D72
330
5D53
100
AcDbEntity
  8
AM_0 外形線1
100
AcDbLine
 10
-35.00089832085007
 20
41.00105231871004
 30
0.0
 11
-35.00089832085007
 21
40.0010266524
 31
0.0
  0
LINE
  5
5D73
330
5D53
100
AcDbEntity
  8
AM_0 外形線1
100
AcDbLine
 10
-37.20095478673204
 20
41.00105231871004
 30
0.0
 11
-37.20095478673204
 21
40.0010266524
 31
0.0
  0
LINE
  5
5D74
330
5D53
100
AcDbEntity
  8
AM_3 隠れ線
100
AcDbLine
 10
-31.00079565561009
 20
47.39708243564797
 30
0.0
 11
-31.00079565561009
 21
44.90115241731898
 31
0.0
  0
LINE
  5
5D75
330
5D53
100
AcDbEntity
  8
AM_0 外形線1
100
AcDbLine
 10
-31.00079565561009
 20
47.39708243564797
 30
0.0
 11
-31.00079565561009
 21
47.50121914972493
 31
0.0
  0
LINE
  5
5D76
330
5D53
100
AcDbEntity
  8
AM_0 外形線1
100
AcDbLine
 10
-18.00046199357996
 20
44.40113958416396
 30
0.0
 11
-16.50042349411501
 21
44.40113958416396
 31
0.0
  0
LINE
  5
5D77
330
5D53
100
AcDbEntity
  8
AM_0 外形線1
100
AcDbLine
 10
-16.00041066096003
 20
44.90115241731898
 30
0.0
 11
-16.00041066096003
 21
47.50121914972493
 31
0.0
  0
LINE
  5
5D78
330
5D53
100
AcDbEntity
  8
AM_0 外形線1
100
AcDbLine
 10
-16.50042349411501
 20
44.40113958416396
 30
0.0
 11
-16.00041066096003
 21
44.90115241731898
 31
0.0
  0
LINE
  5
5D79
330
5D53
100
AcDbEntity
  8
AM_0 外形線1
100
AcDbLine
 10
-16.00041066096003
 20
44.90115241731898
 30
0.0
 11
-16.00041066096003
 21
41.58946930483398
 31
0.0
  0
LINE
  5
5D7A
330
5D53
100
AcDbEntity
  8
AM_0 外形線1
100
AcDbLine
 10
-15.00038499465006
 20
48.50124481603501
 30
0.0
 11
-3.000076998929898
 21
48.50124481603501
 31
0.0
  0
LINE
  5
5D7B
330
5D53
100
AcDbEntity
  8
AM_0 外形線1
100
AcDbLine
 10
0.0
 20
60.00153997859996
 30
0.0
 11
-15.00038499465006
 21
60.00153997859996
 31
0.0
  0
LINE
  5
5D7C
330
5D53
100
AcDbEntity
  8
AM_0 外形線1
100
AcDbLine
 10
-15.00038499465006
 20
67.00171964277
 30
0.0
 11
0.0
 21
67.00171964277
 31
0.0
  0
LINE
  5
5D7D
330
5D53
100
AcDbEntity
  8
AM_0 外形線1
100
AcDbLine
 10
-0.2000051332620387
 20
70.00179664169997
 30
0.0
 11
-14.80037986138802
 21
70.00179664169997
 31
0.0
  0
LINE
  5
5D7E
330
5D53
100
AcDbEntity
  8
AM_0 外形線1
100
AcDbLine
 10
-16.00041066096003
 20
48.00123198288003
 30
0.0
 11
-31.00079565561009
 21
48.00123198288003
 31
0.0
  0
LINE
  5
5D7F
330
5D53
100
AcDbEntity
  8
AM_0 外形線1
100
AcDbLine
 10
-34.00087265453999
 20
48.50124481603501
 30
0.0
 11
-32.00082132192006
 21
48.50124481603501
 31
0.0
  0
ARC
  5
5D80
330
5D53
100
AcDbEntity
  8
AM_0 外形線1
100
AcDbCircle
 10
-18.00046199357996
 20
56.50145014651497
 30
0.0
 40
3.000076998929998
100
AcDbArc
 50
270.0
 51
0.0
  0
LINE
  5
5D81
330
5D53
100
AcDbEntity
  8
AM_0 外形線1
100
AcDbLine
 10
-15.00038499465006
 20
69.801791508438
 30
0.0
 11
-15.00038499465006
 21
56.50145014651497
 31
0.0
  0
LINE
  5
5D83
330
5D53
100
AcDbEntity
  8
AM_0 外形線1
100
AcDbLine
 10
-14.80037986138802
 20
70.00179664169997
 30
0.0
 11
-15.00038499465006
 21
69.801791508438
 31
0.0
  0
LINE
  5
5D84
330
5D53
100
AcDbEntity
  8
AM_0 外形線1
100
AcDbLine
 10
-3.000076998929898
 20
52.50134748127493
 30
0.0
 11
-0.2000051332620387
 21
52.50134748127493
 31
0.0
  0
LINE
  5
5D85
330
5D53
100
AcDbEntity
  8
AM_0 外形線1
100
AcDbLine
 10
-3.000076998929898
 20
48.50124481603501
 30
0.0
 11
-3.000076998929898
 21
52.50134748127493
 31
0.0
  0
LINE
  5
5D86
330
5D53
100
AcDbEntity
  8
AM_0 外形線1
100
AcDbLine
 10
0.0
 20
69.801791508438
 30
0.0
 11
-0.2000051332620387
 21
70.00179664169997
 31
0.0
  0
LINE
  5
5D88
330
5D53
100
AcDbEntity
  8
AM_7 中心線
100
AcDbLine
 10
19.72748853746753
 20
-63.50162981068502
 30
0.0
 11
-20.00051332620001
 21
-63.50162981068502
 31
0.0
  0
LINE
  5
5DCB
330
5D53
100
AcDbEntity
  8
AM_0 外形線1
100
AcDbLine
 10
-0.2000051332620387
 20
52.50134748127493
 30
0.0
 11
0.0
 21
52.70135261453692
 31
0.0
  0
LINE
  5
5DFD
330
5D53
100
AcDbEntity
  8
AM_0 外形線1
100
AcDbLine
 10
0.0
 20
60.00153997859996
 30
0.0
 11
0.0
 21
52.70135261453692
 31
0.0
  0
LINE
  5
5DFE
330
5D53
100
AcDbEntity
  8
AM_0 外形線1
100
AcDbLine
 10
0.0
 20
-69.801791508438
 30
0.0
 11
0.0
 21
0.0
 31
0.0
  0
LINE
  5
5E76
330
5D53
100
AcDbEntity
  8
AM_0 外形線1
100
AcDbLine
 10
0.0
 20
69.801791508438
 30
0.0
 11
0.0
 21
67.00171964277
 31
0.0
  0
ENDBLK
  5
5D55
330
5D53
100
AcDbEntity
  8
0
100
AcDbBlockEnd
  0
BLOCK
  5
5F14
330
5F13
100
AcDbEntity
  8
0
100
AcDbBlockBegin
  2
センタＡ SSM140
 70
     0
 10
0.0
 20
0.0
 30
0.0
  3
センタＡ SSM140
  1

  0
LINE
  5
5F16
330
5F13
100
AcDbEntity
  8
AM_0 外形線1
100
AcDbLine
 10
68.00174530907987
 20
40.0010266524
 30
0.0
 11
29.00074432298993
 21
40.0010266524
 31
0.0
  0
LINE
  5
5F17
330
5F13
100
AcDbEntity
  8
AM_0 外形線1
100
AcDbLine
 10
43.00110365132996
 20
-40.0010266524
 30
0.0
 11
68.00174530907987
 21
-40.0010266524
 31
0.0
  0
LINE
  5
5F18
330
5F13
100
AcDbEntity
  8
AM_0 外形線1
100
AcDbLine
 10
0.0
 20
39.50101381924503
 30
0.0
 11
0.0
 21
0.0
 31
0.0
  0
LINE
  5
5F19
330
5F13
100
AcDbEntity
  8
AM_0 外形線1
100
AcDbLine
 10
0.0
 20
39.50101381924503
 30
0.0
 11
0.0
 21
0.0
 31
0.0
  0
LINE
  5
5F1A
330
5F13
100
AcDbEntity
  8
AM_0 外形線1
100
AcDbLine
 10
13.50034649518488
 20
40.0010266524
 30
0.0
 11
0.5000128331549833
 21
40.0010266524
 31
0.0
  0
LINE
  5
5F1B
330
5F13
100
AcDbEntity
  8
AM_0 外形線1
100
AcDbLine
 10
0.5000128331549833
 20
40.0010266524
 30
0.0
 11
0.0
 21
39.50101381924503
 31
0.0
  0
LINE
  5
5F1C
330
5F13
100
AcDbEntity
  8
AM_0 外形線1
100
AcDbLine
 10
14.50037216149496
 20
47.59447897587347
 30
0.0
 11
14.00035932833987
 21
47.03401848682897
 31
0.0
  0
ARC
  5
5F1D
330
5F13
100
AcDbEntity
  8
AM_0 外形線1
100
AcDbCircle
 10
20.00051332619978
 20
0.0
 30
0.0
 40
47.9112302729335
100
AcDbArc
 50
80.38773799999658
 51
96.59200800000142
  0
LINE
  5
5F1E
330
5F13
100
AcDbEntity
  8
AM_7 中心線
100
AcDbLine
 10
20.00051332619978
 20
52.91135860448349
 30
0.0
 11
20.00051332619978
 21
38.80099585282795
 31
0.0
  0
ARC
  5
5F21
330
5F13
100
AcDbEntity
  8
AM_0 外形線1
100
AcDbCircle
 10
13.50034649518488
 20
40.50103948555499
 30
0.0
 40
0.500012833155
100
AcDbArc
 50
270.0
 51
0.0
  0
LINE
  5
5F22
330
5F13
100
AcDbEntity
  8
AM_0 外形線1
100
AcDbLine
 10
14.00035932833987
 20
47.03401848682897
 30
0.0
 11
14.00035932833987
 21
40.50103948555499
 31
0.0
  0
LINE
  5
5F23
330
5F13
100
AcDbEntity
  8
AM_0 外形線1
100
AcDbLine
 10
28.50073148983483
 20
46.65115083170298
 30
0.0
 11
28.00071865667997
 21
47.23857178230298
 31
0.0
  0
LINE
  5
5F24
330
5F13
100
AcDbEntity
  8
AM_0 外形線1
100
AcDbLine
 10
28.50073148983483
 20
40.50103948555499
 30
0.0
 11
28.50073148983483
 21
46.65115083170298
 31
0.0
  0
ARC
  5
5F25
330
5F13
100
AcDbEntity
  8
AM_0 外形線1
100
AcDbCircle
 10
29.00074432298993
 20
40.50103948555499
 30
0.0
 40
0.500012833155
100
AcDbArc
 50
180.0
 51
270.0
  0
LINE
  5
5F26
330
5F13
100
AcDbEntity
  8
AM_0 外形線1
100
AcDbLine
 10
71.00182230800993
 20
-37.00094965347
 30
0.0
 11
71.00182230800993
 21
37.00094965347
 31
0.0
  0
ARC
  5
5F27
330
5F13
100
AcDbEntity
  8
AM_0 外形線1
100
AcDbCircle
 10
68.00174530907987
 20
-37.00094965347
 30
0.0
 40
3.000076998929998
100
AcDbArc
 50
270.0
 51
0.0
  0
ARC
  5
5F28
330
5F13
100
AcDbEntity
  8
AM_0 外形線1
100
AcDbCircle
 10
68.00174530907987
 20
37.00094965347
 30
0.0
 40
3.000076998929998
100
AcDbArc
 50
0.0
 51
90.0
  0
LINE
  5
5F29
330
5F13
100
AcDbEntity
  8
AM_0 外形線1
100
AcDbLine
 10
0.0
 20
20.0
 30
0.0
 11
71.00182230800993
 21
20.0
 31
0.0
  0
ARC
  5
82C5
330
5F13
100
AcDbEntity
  8
AM_0 外形線1
100
AcDbCircle
 10
20.00051332620001
 20
0.0
 30
0.0
 40
43.801124184378
100
AcDbArc
 50
78.80995399634874
 51
97.87349379825865
  0
ARC
  5
82C6
330
5F13
100
AcDbEntity
  8
AM_7 中心線
100
AcDbCircle
 10
20.00051332620001
 20
0.0
 30
0.0
 40
46.00118065025998
100
AcDbArc
 50
76.16477638596099
 51
100.0154101682502
  0
ENDBLK
  5
5F15
330
5F13
100
AcDbEntity
  8
0
100
AcDbBlockEnd
  0
BLOCK
  5
5FC1
330
5FC0
100
AcDbEntity
  8
0
100
AcDbBlockBegin
  2
センタＢ SSM140
 70
     0
 10
0.0
 20
0.0
 30
0.0
  3
センタＢ SSM140
  1

  0
LINE
  5
5FC3
330
5FC0
100
AcDbEntity
  8
AM_0 外形線1
100
AcDbLine
 10
-68.0017453090802
 20
40.0010266524
 30
0.0
 11
-29.00074432299016
 21
40.0010266524
 31
0.0
  0
LINE
  5
5FC4
330
5FC0
100
AcDbEntity
  8
AM_0 外形線1
100
AcDbLine
 10
-71.00182230801009
 20
-37.00094965347
 30
0.0
 11
-71.00182230801009
 21
37.00094965347
 31
0.0
  0
LINE
  5
5FC5
330
5FC0
100
AcDbEntity
  8
AM_0 外形線1
100
AcDbLine
 10
-43.00110365133014
 20
-40.0010266524
 30
0.0
 11
-68.0017453090802
 21
-40.0010266524
 31
0.0
  0
ARC
  5
5FC6
330
5FC0
100
AcDbEntity
  8
AM_0 外形線1
100
AcDbCircle
 10
-68.0017453090802
 20
-37.00094965347
 30
0.0
 40
3.000076998929998
100
AcDbArc
 50
180.0
 51
270.0
  0
ARC
  5
5FC7
330
5FC0
100
AcDbEntity
  8
AM_0 外形線1
100
AcDbCircle
 10
-68.0017453090802
 20
37.00094965347
 30
0.0
 40
3.000076998929998
100
AcDbArc
 50
90.0
 51
180.0
  0
LINE
  5
5FC9
330
5FC0
100
AcDbEntity
  8
AM_0 外形線1
100
AcDbLine
 10
-14.50037216149508
 20
47.59447897587347
 30
0.0
 11
-14.00035932834009
 21
47.03401848682897
 31
0.0
  0
ARC
  5
5FCA
330
5FC0
100
AcDbEntity
  8
AM_0 外形線1
100
AcDbCircle
 10
-20.00051332620001
 20
0.0
 30
0.0
 40
47.9112302729335
100
AcDbArc
 50
83.40799199999855
 51
99.612261999997
  0
LINE
  5
5FCB
330
5FC0
100
AcDbEntity
  8
AM_7 中心線
100
AcDbLine
 10
-20.00051332620001
 20
52.91135860448349
 30
0.0
 11
-20.00051332620001
 21
38.80099585282795
 31
0.0
  0
LINE
  5
5FCC
330
5FC0
100
AcDbEntity
  8
AM_0 外形線1
100
AcDbLine
 10
-13.50034649518511
 20
40.0010266524
 30
0.0
 11
-0.5000128331552105
 21
40.0010266524
 31
0.0
  0
LINE
  5
5FCF
330
5FC0
100
AcDbEntity
  8
AM_0 外形線1
100
AcDbLine
 10
-28.50073148983506
 20
46.65115083170298
 30
0.0
 11
-28.00071865668019
 21
47.23857178230298
 31
0.0
  0
LINE
  5
5FD0
330
5FC0
100
AcDbEntity
  8
AM_0 外形線1
100
AcDbLine
 10
-28.50073148983506
 20
40.50103948555499
 30
0.0
 11
-28.50073148983506
 21
46.65115083170298
 31
0.0
  0
ARC
  5
5FD1
330
5FC0
100
AcDbEntity
  8
AM_0 外形線1
100
AcDbCircle
 10
-29.00074432299016
 20
40.50103948555499
 30
0.0
 40
0.500012833155
100
AcDbArc
 50
270.0
 51
0.0
  0
ARC
  5
5FD2
330
5FC0
100
AcDbEntity
  8
AM_0 外形線1
100
AcDbCircle
 10
-13.50034649518511
 20
40.50103948555499
 30
0.0
 40
0.500012833155
100
AcDbArc
 50
180.0
 51
270.0
  0
LINE
  5
5FD3
330
5FC0
100
AcDbEntity
  8
AM_0 外形線1
100
AcDbLine
 10
-14.00035932834009
 20
47.03401848682897
 30
0.0
 11
-14.00035932834009
 21
40.50103948555499
 31
0.0
  0
LINE
  5
5FD4
330
5FC0
100
AcDbEntity
  8
AM_0 外形線1
100
AcDbLine
 10
-0.5000128331552105
 20
40.0010266524
 30
0.0
 11
0.0
 21
39.50101381924503
 31
0.0
  0
LINE
  5
5FD5
330
5FC0
100
AcDbEntity
  8
AM_0 外形線1
100
AcDbLine
 10
-71.00182230801009
 20
20.0
 30
0.0
 11
0.0
 21
20.0
 31
0.0
  0
LINE
  5
6016
330
5FC0
100
AcDbEntity
  8
AM_0 外形線1
100
AcDbLine
 10
0.0
 20
39.50101381924503
 30
0.0
 11
0.0
 21
0.0
 31
0.0
  0
ARC
  5
8101
330
5FC0
100
AcDbEntity
  8
AM_7 中心線
100
AcDbCircle
 10
-20.00051332620001
 20
0.0
 30
0.0
 40
46.00118065025998
100
AcDbArc
 50
79.98458983174981
 51
103.835223614039
  0
ARC
  5
8116
330
5FC0
100
AcDbEntity
  8
AM_0 外形線1
100
AcDbCircle
 10
-20.00051332620001
 20
0.0
 30
0.0
 40
43.801124184378
100
AcDbArc
 50
82.12650620174455
 51
101.1900460036512
  0
ENDBLK
  5
5FC2
330
5FC0
100
AcDbEntity
  8
0
100
AcDbBlockEnd
  0
BLOCK
  5
624A
330
6249
100
AcDbEntity
  8
0
100
AcDbBlockBegin
  2
リーマボルト SSM140 M6
 70
     0
 10
0.0
 20
0.0
 30
0.0
  3
リーマボルト SSM140 M6
  1

  0
LINE
  5
624C
330
6249
100
AcDbEntity
  8
AM_0 外形線1
100
AcDbLine
 10
27.00069299037
 20
-2.922725240148962
 30
0.0
 11
26.00066732406003
 21
-3.500089832084995
 31
0.0
  0
LINE
  5
624D
330
6249
100
AcDbEntity
  8
AM_0 外形線1
100
AcDbLine
 10
26.00066732406003
 20
3.500089832085051
 30
0.0
 11
27.00069299037
 21
2.922725240149076
 31
0.0
  0
LINE
  5
624E
330
6249
100
AcDbEntity
  8
AM_0 外形線1
100
AcDbLine
 10
1.000025666310192
 20
-3.500089832084995
 30
0.0
 11
1.000025666310192
 21
3.500089832085051
 31
0.0
  0
ARC
  5
624F
330
6249
100
AcDbEntity
  8
AM_0 外形線1
100
AcDbCircle
 10
5.839160755972557
 20
0.0
 30
0.0
 40
9.8392634212125
100
AcDbArc
 50
162.9384689999997
 51
197.0615310000002
  0
LINE
  5
6250
330
6249
100
AcDbEntity
  8
AM_0 外形線1
100
AcDbLine
 10
-4.000102665239865
 20
5.00012833155
 30
0.0
 11
-4.000102665239865
 21
-5.000128331549943
 31
0.0
  0
ARC
  5
6251
330
6249
100
AcDbEntity
  8
AM_0 外形線1
100
AcDbCircle
 10
0.5000128331550969
 20
-3.500089832084995
 30
0.0
 40
0.500012833155
100
AcDbArc
 50
0.0
 51
180.0
  0
ARC
  5
6252
330
6249
100
AcDbEntity
  8
AM_0 外形線1
100
AcDbCircle
 10
-1.416916034869473
 20
-4.318486020507974
 30
0.0
 40
2.5831866303705
100
AcDbArc
 50
146.3428030000009
 51
213.657196999999
  0
LINE
  5
6253
330
6249
100
AcDbEntity
  8
AM_0 外形線1
100
AcDbLine
 10
0.0
 20
-2.886825959787016
 30
0.0
 11
-3.567079221288053
 21
-2.886825959787016
 31
0.0
  0
LINE
  5
6254
330
6249
100
AcDbEntity
  8
AM_0 外形線1
100
AcDbLine
 10
-3.567079221288053
 20
-5.750147581282532
 30
0.0
 11
0.0
 21
-5.750147581282532
 31
0.0
  0
LINE
  5
6255
330
6249
100
AcDbEntity
  8
AM_0 外形線1
100
AcDbLine
 10
-4.000102665239865
 20
-5.000128331549943
 30
0.0
 11
-3.567079221288053
 21
-5.750147581282532
 31
0.0
  0
ARC
  5
6256
330
6249
100
AcDbEntity
  8
AM_0 外形線1
100
AcDbCircle
 10
0.5000128331550969
 20
3.500089832085051
 30
0.0
 40
0.500012833155
100
AcDbArc
 50
180.0
 51
0.0
  0
ARC
  5
6257
330
6249
100
AcDbEntity
  8
AM_0 外形線1
100
AcDbCircle
 10
-1.416916034869473
 20
4.318486020508031
 30
0.0
 40
2.5831866303705
100
AcDbArc
 50
146.3428030000009
 51
213.657196999999
  0
LINE
  5
6258
330
6249
100
AcDbEntity
  8
AM_0 外形線1
100
AcDbLine
 10
0.0
 20
2.886825959787016
 30
0.0
 11
-3.567079221288053
 21
2.886825959787016
 31
0.0
  0
LINE
  5
6259
330
6249
100
AcDbEntity
  8
AM_0 外形線1
100
AcDbLine
 10
-3.567079221288053
 20
5.750147581282532
 30
0.0
 11
-4.000102665239865
 21
5.00012833155
 31
0.0
  0
LINE
  5
625A
330
6249
100
AcDbEntity
  8
AM_0 外形線1
100
AcDbLine
 10
0.0
 20
5.750147581282532
 30
0.0
 11
-3.567079221288053
 21
5.750147581282532
 31
0.0
  0
LINE
  5
625B
330
6249
100
AcDbEntity
  8
AM_0 外形線1
100
AcDbLine
 10
26.00066732406003
 20
3.500089832085051
 30
0.0
 11
26.00066732406003
 21
-3.500089832084995
 31
0.0
  0
LINE
  5
625C
330
6249
100
AcDbEntity
  8
AM_0 外形線1
100
AcDbLine
 10
38.00097531977997
 20
3.000076998930068
 30
0.0
 11
38.00097531977997
 21
-3.000076998930012
 31
0.0
  0
LINE
  5
625D
330
6249
100
AcDbEntity
  8
AM_0 外形線1
100
AcDbLine
 10
39.00100098608993
 20
2.000051332619988
 30
0.0
 11
39.00100098608993
 21
-2.000051332619932
 31
0.0
  0
ARC
  5
625E
330
6249
100
AcDbEntity
  8
AM_0 外形線1
100
AcDbCircle
 10
26.6616733991026
 20
0.0
 30
0.0
 40
9.8392634212125
100
AcDbArc
 50
342.9384689999998
 51
17.06153100000025
  0
LINE
  5
625F
330
6249
100
AcDbEntity
  8
AM_0 外形線1
100
AcDbLine
 10
31.50080848876508
 20
-5.750147581282532
 30
0.0
 11
31.50080848876508
 21
5.750147581282532
 31
0.0
  0
LINE
  5
6260
330
6249
100
AcDbEntity
  8
AM_0 外形線1
100
AcDbLine
 10
36.50093682031513
 20
5.00012833155
 30
0.0
 11
36.50093682031513
 21
-5.000128331549943
 31
0.0
  0
LINE
  5
6261
330
6249
100
AcDbEntity
  8
AM_0 外形線1
100
AcDbLine
 10
27.00069299037
 20
2.922725240149076
 30
0.0
 11
27.00069299037
 21
-2.922725240148962
 31
0.0
  0
LINE
  5
6262
330
6249
100
AcDbEntity
  8
AM_0 外形線1
100
AcDbLine
 10
39.00100098608993
 20
-2.000051332619932
 30
0.0
 11
38.00097531977997
 21
-3.000076998930012
 31
0.0
  0
LINE
  5
6263
330
6249
100
AcDbEntity
  8
AM_0 外形線1
100
AcDbLine
 10
31.50080848876508
 20
-2.886825959787016
 30
0.0
 11
36.06791337636309
 21
-2.886825959787016
 31
0.0
  0
LINE
  5
6264
330
6249
100
AcDbEntity
  8
AM_0 外形線1
100
AcDbLine
 10
36.06791337636309
 20
-5.750147581282532
 30
0.0
 11
31.50080848876508
 21
-5.750147581282532
 31
0.0
  0
LINE
  5
6265
330
6249
100
AcDbEntity
  8
AM_0 外形線1
100
AcDbLine
 10
27.00069299037
 20
-2.922725240148962
 30
0.0
 11
30.00076998930012
 21
-2.922725240148962
 31
0.0
  0
LINE
  5
6266
330
6249
100
AcDbEntity
  8
AM_0 外形線1
100
AcDbLine
 10
31.50080848876508
 20
0.50001283315504
 30
0.0
 11
30.00076998930012
 21
-1.000025666309966
 31
0.0
  0
LINE
  5
6267
330
6249
100
AcDbEntity
  8
AM_0 外形線1
100
AcDbLine
 10
31.50080848876508
 20
1.000025666310022
 30
0.0
 11
30.00076998930012
 21
-0.5000128331549833
 31
0.0
  0
LINE
  5
6268
330
6249
100
AcDbEntity
  8
AM_0 外形線1
100
AcDbLine
 10
31.50080848876508
 20
-6.100156564490987
 30
0.0
 11
31.50080848876508
 21
-5.750147581282532
 31
0.0
  0
LINE
  5
6269
330
6249
100
AcDbEntity
  8
AM_0 外形線1
100
AcDbLine
 10
30.00076998930012
 20
-6.100156564490987
 30
0.0
 11
31.50080848876508
 21
-6.100156564490987
 31
0.0
  0
LINE
  5
626A
330
6249
100
AcDbEntity
  8
AM_0 外形線1
100
AcDbLine
 10
38.00097531977997
 20
-3.000076998930012
 30
0.0
 11
36.50093682031513
 21
-3.000076998930012
 31
0.0
  0
ARC
  5
626B
330
6249
100
AcDbEntity
  8
AM_0 外形線1
100
AcDbCircle
 10
33.91775018994451
 20
-4.318486020507974
 30
0.0
 40
2.5831866303705
100
AcDbArc
 50
326.3428030000008
 51
33.65719699999906
  0
LINE
  5
626C
330
6249
100
AcDbEntity
  8
AM_0 外形線1
100
AcDbLine
 10
36.50093682031513
 20
-5.000128331549943
 30
0.0
 11
36.06791337636309
 21
-5.750147581282532
 31
0.0
  0
LINE
  5
626D
330
6249
100
AcDbEntity
  8
AM_4 細線
100
AcDbLine
 10
36.50093682031513
 20
-2.500064165774914
 30
0.0
 11
38.50098815293506
 21
-2.500064165774914
 31
0.0
  0
LINE
  5
626E
330
6249
100
AcDbEntity
  8
AM_0 外形線1
100
AcDbLine
 10
38.00097531977997
 20
3.000076998930068
 30
0.0
 11
39.00100098608993
 21
2.000051332619988
 31
0.0
  0
LINE
  5
626F
330
6249
100
AcDbEntity
  8
AM_0 外形線1
100
AcDbLine
 10
31.50080848876508
 20
2.886825959787016
 30
0.0
 11
36.06791337636309
 21
2.886825959787016
 31
0.0
  0
LINE
  5
6270
330
6249
100
AcDbEntity
  8
AM_0 外形線1
100
AcDbLine
 10
31.50080848876508
 20
5.750147581282532
 30
0.0
 11
36.06791337636309
 21
5.750147581282532
 31
0.0
  0
LINE
  5
6271
330
6249
100
AcDbEntity
  8
AM_0 外形線1
100
AcDbLine
 10
27.00069299037
 20
2.922725240149076
 30
0.0
 11
30.00076998930012
 21
2.922725240149076
 31
0.0
  0
LINE
  5
6272
330
6249
100
AcDbEntity
  8
AM_0 外形線1
100
AcDbLine
 10
31.50080848876508
 20
6.100156564491044
 30
0.0
 11
30.00076998930012
 21
6.100156564491044
 31
0.0
  0
LINE
  5
6273
330
6249
100
AcDbEntity
  8
AM_0 外形線1
100
AcDbLine
 10
31.50080848876508
 20
5.750147581282532
 30
0.0
 11
31.50080848876508
 21
6.100156564491044
 31
0.0
  0
LINE
  5
6274
330
6249
100
AcDbEntity
  8
AM_0 外形線1
100
AcDbLine
 10
36.50093682031513
 20
3.000076998930068
 30
0.0
 11
38.00097531977997
 21
3.000076998930068
 31
0.0
  0
ARC
  5
6275
330
6249
100
AcDbEntity
  8
AM_0 外形線1
100
AcDbCircle
 10
33.91775018994451
 20
4.318486020508031
 30
0.0
 40
2.5831866303705
100
AcDbArc
 50
326.3428030000008
 51
33.65719699999906
  0
LINE
  5
6276
330
6249
100
AcDbEntity
  8
AM_0 外形線1
100
AcDbLine
 10
36.06791337636309
 20
5.750147581282532
 30
0.0
 11
36.50093682031513
 21
5.00012833155
 31
0.0
  0
LINE
  5
6277
330
6249
100
AcDbEntity
  8
AM_4 細線
100
AcDbLine
 10
36.50093682031513
 20
2.500064165774971
 30
0.0
 11
38.50098815293506
 21
2.500064165774971
 31
0.0
  0
LINE
  5
62E1
330
6249
100
AcDbEntity
  8
AM_0 外形線1
100
AcDbLine
 10
0.0
 20
5.750147581282532
 30
0.0
 11
0.0
 21
-5.750147581282532
 31
0.0
  0
LINE
  5
62E2
330
6249
100
AcDbEntity
  8
AM_0 外形線1
100
AcDbLine
 10
1.000025666310079
 20
3.500089832085051
 30
0.0
 11
26.00066732406003
 21
3.500089832085051
 31
0.0
  0
LINE
  5
62E3
330
6249
100
AcDbEntity
  8
AM_0 外形線1
100
AcDbLine
 10
1.000025666310192
 20
-3.500089832084995
 30
0.0
 11
26.00066732406003
 21
-3.500089832085051
 31
0.0
  0
LINE
  5
62E4
330
6249
100
AcDbEntity
  8
AM_0 外形線1
100
AcDbLine
 10
30.00076998930012
 20
6.100156564491044
 30
0.0
 11
30.00076998930012
 21
-6.100156564490987
 31
0.0
  0
ENDBLK
  5
624B
330
6249
100
AcDbEntity
  8
0
100
AcDbBlockEnd
  0
BLOCK
  5
67CF
330
67CE
100
AcDbEntity
  8
0
100
AcDbBlockBegin
  2
*D12
 70
     1
 10
0.0
 20
0.0
 30
0.0
  3
*D12
  1

  0
LINE
  5
67EE
330
67CE
100
AcDbEntity
  8
AM_5 寸法線
 62
     3
100
AcDbLine
 10
221.7816535111468
 20
366.673096728632
 30
0.0
 11
197.4318578905607
 21
366.673096728632
 31
0.0
  0
LINE
  5
67EF
330
67CE
100
AcDbEntity
  8
AM_5 寸法線
 62
     3
100
AcDbLine
 10
221.7816535111468
 20
286.671043423832
 30
0.0
 11
197.4318578905606
 21
286.671043423832
 31
0.0
  0
LINE
  5
67F0
330
67CE
100
AcDbEntity
  8
AM_5 寸法線
 62
     3
100
AcDbLine
 10
198.3693578905607
 20
362.923096728632
 30
0.0
 11
198.3693578905606
 21
290.421043423832
 31
0.0
  0
INSERT
  5
67F1
330
67CE
100
AcDbEntity
  8
AM_5 寸法線
 62
     3
100
AcDbBlockReference
  2
_Open30
 10
198.3693578905607
 20
366.673096728632
 30
0.0
 41
3.75
 42
3.75
 43
3.75
 50
90.0
  0
INSERT
  5
67F2
330
67CE
100
AcDbEntity
  8
AM_5 寸法線
 62
     3
100
AcDbBlockReference
  2
_Open30
 10
198.3693578905606
 20
286.671043423832
 30
0.0
 41
3.75
 42
3.75
 43
3.75
 50
270.0
  0
MTEXT
  5
67F3
330
67CE
100
AcDbEntity
  8
AM_5 寸法線
 62
     3
100
AcDbMText
 10
193.4943578905606
 20
326.672070076232
 30
0.0
 40
5.25
 41
0.0
 46
0.0
 71
     5
 72
     1
  1
%%c80
  7
SEISA
 11
0.0000000000000001
 21
1.0
 31
0.0
 73
     1
 44
1.0
  0
POINT
  5
67F4
330
67CE
100
AcDbEntity
  8
Defpoints
 62
     0
100
AcDbPoint
 10
222.7191535111468
 20
366.673096728632
 30
0.0
  0
POINT
  5
67F5
330
67CE
100
AcDbEntity
  8
Defpoints
 62
     0
100
AcDbPoint
 10
222.7191535111468
 20
286.671043423832
 30
0.0
  0
POINT
  5
67F6
330
67CE
100
AcDbEntity
  8
Defpoints
 62
     0
100
AcDbPoint
 10
198.3693578905606
 20
286.671043423832
 30
0.0
  0
ENDBLK
  5
67D0
330
67CE
100
AcDbEntity
  8
0
100
AcDbBlockEnd
  0
BLOCK
  5
6800
330
67FF
100
AcDbEntity
  8
0
100
AcDbBlockBegin
  2
*D13
 70
     1
 10
0.0
 20
0.0
 30
0.0
  3
*D13
  1

  0
LINE
  5
6825
330
67FF
100
AcDbEntity
  8
AM_5 寸法線
 62
     3
100
AcDbLine
 10
259.7201031646168
 20
365.7355967286319
 30
0.0
 11
259.7201031646168
 21
352.3917985166413
 31
0.0
  0
LINE
  5
6826
330
67FF
100
AcDbEntity
  8
AM_5 寸法線
 62
     3
100
AcDbLine
 10
262.220167330392
 20
366.235609561787
 30
0.0
 11
262.220167330392
 21
352.3917985166413
 31
0.0
  0
LINE
  5
6827
330
67FF
100
AcDbEntity
  8
AM_5 寸法線
 62
     3
100
AcDbLine
 10
265.970167330392
 20
353.3292985166413
 30
0.0
 11
269.720167330392
 21
353.3292985166413
 31
0.0
  0
LINE
  5
6828
330
67FF
100
AcDbEntity
  8
AM_5 寸法線
 62
     3
100
AcDbLine
 10
255.9701031646168
 20
353.3292985166413
 30
0.0
 11
237.8201031646168
 21
353.3292985166413
 31
0.0
  0
LINE
  5
6829
330
67FF
100
AcDbEntity
  8
AM_5 寸法線
 62
     3
100
AcDbLine
 10
262.220167330392
 20
353.3292985166413
 30
0.0
 11
259.7201031646168
 21
353.3292985166413
 31
0.0
  0
INSERT
  5
682A
330
67FF
100
AcDbEntity
  8
AM_5 寸法線
 62
     3
100
AcDbBlockReference
  2
_Open30
 10
262.220167330392
 20
353.3292985166413
 30
0.0
 41
3.75
 42
3.75
 43
3.75
 50
180.0
  0
INSERT
  5
682B
330
67FF
100
AcDbEntity
  8
AM_5 寸法線
 62
     3
100
AcDbBlockReference
  2
_Open30
 10
259.7201031646168
 20
353.3292985166413
 30
0.0
 41
3.75
 42
3.75
 43
3.75
  0
MTEXT
  5
682C
330
67FF
100
AcDbEntity
  8
AM_5 寸法線
 62
     3
100
AcDbMText
 10
245.0201031646169
 20
358.2042985166413
 30
0.0
 40
5.25
 41
0.0
 46
0.0
 71
     5
 72
     1
  1
2.5
  7
SEISA
 73
     1
 44
1.0
  0
POINT
  5
682D
330
67FF
100
AcDbEntity
  8
Defpoints
 62
     0
100
AcDbPoint
 10
259.7201031646168
 20
366.673096728632
 30
0.0
  0
POINT
  5
682E
102
{ACAD_REACTORS
330
8127
102
}
330
67FF
100
AcDbEntity
  8
Defpoints
 62
     0
100
AcDbPoint
 10
262.220167330392
 20
367.173109561787
 30
0.0
  0
POINT
  5
682F
330
67FF
100
AcDbEntity
  8
Defpoints
 62
     0
100
AcDbPoint
 10
262.220167330392
 20
353.3292985166413
 30
0.0
  0
ENDBLK
  5
6801
330
67FF
100
AcDbEntity
  8
0
100
AcDbBlockEnd
  0
BLOCK
  5
6855
330
6854
100
AcDbEntity
  8
0
100
AcDbBlockBegin
  2
*D14
 70
     1
 10
0.0
 20
0.0
 30
0.0
  3
*D14
  1

  0
LINE
  5
6861
330
6854
100
AcDbEntity
  8
AM_5 寸法線
 62
     3
100
AcDbLine
 10
219.7190765122169
 20
327.609570076232
 30
0.0
 11
219.7190765122169
 21
334.6429424236222
 31
0.0
  0
LINE
  5
6862
330
6854
100
AcDbEntity
  8
AM_5 寸法線
 62
     3
100
AcDbLine
 10
290.720898820227
 20
327.609570076232
 30
0.0
 11
290.720898820227
 21
334.6429424236222
 31
0.0
  0
LINE
  5
6863
330
6854
100
AcDbEntity
  8
AM_5 寸法線
 62
     3
100
AcDbLine
 10
223.4690765122169
 20
333.7054424236222
 30
0.0
 11
286.970898820227
 21
333.7054424236222
 31
0.0
  0
INSERT
  5
6864
330
6854
100
AcDbEntity
  8
AM_5 寸法線
 62
     3
100
AcDbBlockReference
  2
_Open30
 10
219.7190765122169
 20
333.7054424236222
 30
0.0
 41
3.75
 42
3.75
 43
3.75
 50
180.0
  0
INSERT
  5
6865
330
6854
100
AcDbEntity
  8
AM_5 寸法線
 62
     3
100
AcDbBlockReference
  2
_Open30
 10
290.720898820227
 20
333.7054424236222
 30
0.0
 41
3.75
 42
3.75
 43
3.75
  0
MTEXT
  5
6866
330
6854
100
AcDbEntity
  8
AM_5 寸法線
 62
     3
100
AcDbMText
 10
255.219987666222
 20
338.5804424236222
 30
0.0
 40
5.25
 41
0.0
 46
0.0
 71
     5
 72
     1
  1
71
  7
SEISA
 73
     1
 44
1.0
  0
POINT
  5
6867
330
6854
100
AcDbEntity
  8
Defpoints
 62
     0
100
AcDbPoint
 10
219.7190765122169
 20
326.672070076232
 30
0.0
  0
POINT
  5
6868
330
6854
100
AcDbEntity
  8
Defpoints
 62
     0
100
AcDbPoint
 10
290.720898820227
 20
326.672070076232
 30
0.0
  0
POINT
  5
6869
330
6854
100
AcDbEntity
  8
Defpoints
 62
     0
100
AcDbPoint
 10
290.720898820227
 20
333.7054424236222
 30
0.0
  0
ENDBLK
  5
6856
330
6854
100
AcDbEntity
  8
0
100
AcDbBlockEnd
  0
BLOCK
  5
686D
330
686C
100
AcDbEntity
  8
0
100
AcDbBlockBegin
  2
*D15
 70
     1
 10
0.0
 20
0.0
 30
0.0
  3
*D15
  1

  0
LINE
  5
7CCD
330
686C
100
AcDbEntity
  8
AM_5 寸法線
 62
     3
100
AcDbLine
 10
290.720898820227
 20
327.609570076232
 30
0.0
 11
290.720898820227
 21
334.6429424236222
 31
0.0
  0
LINE
  5
7CCE
330
686C
100
AcDbEntity
  8
AM_5 寸法線
 62
     3
100
AcDbLine
 10
298.721104150707
 20
327.609570076232
 30
0.0
 11
298.721104150707
 21
334.6429424236222
 31
0.0
  0
LINE
  5
7CCF
330
686C
100
AcDbEntity
  8
AM_5 寸法線
 62
     3
100
AcDbLine
 10
286.970898820227
 20
333.7054424236222
 30
0.0
 11
283.220898820227
 21
333.7054424236222
 31
0.0
  0
LINE
  5
7CD0
330
686C
100
AcDbEntity
  8
AM_5 寸法線
 62
     3
100
AcDbLine
 10
302.471104150707
 20
333.7054424236222
 30
0.0
 11
306.221104150707
 21
333.7054424236222
 31
0.0
  0
MTEXT
  5
7CD1
330
686C
100
AcDbEntity
  8
AM_5 寸法線
 62
     3
100
AcDbMText
 10
294.7651891085598
 20
338.352182515485
 30
0.0
 40
5.25
 41
0.0
 46
0.0
 71
     5
 72
     1
  1
8
  7
SEISA
 73
     1
 44
1.0
  0
LINE
  5
7CD2
330
686C
100
AcDbEntity
  8
AM_5 寸法線
 62
     3
100
AcDbLine
 10
290.720898820227
 20
333.7054424236222
 30
0.0
 11
298.721104150707
 21
333.7054424236222
 31
0.0
  0
INSERT
  5
7CD3
330
686C
100
AcDbEntity
  8
AM_5 寸法線
 62
     3
100
AcDbBlockReference
  2
_Open30
 10
290.720898820227
 20
333.7054424236222
 30
0.0
 41
3.75
 42
3.75
 43
3.75
  0
INSERT
  5
7CD4
330
686C
100
AcDbEntity
  8
AM_5 寸法線
 62
     3
100
AcDbBlockReference
  2
_Open30
 10
298.721104150707
 20
333.7054424236222
 30
0.0
 41
3.75
 42
3.75
 43
3.75
 50
180.0
  0
POINT
  5
7CD5
330
686C
100
AcDbEntity
  8
Defpoints
 62
     0
100
AcDbPoint
 10
290.720898820227
 20
326.672070076232
 30
0.0
  0
POINT
  5
7CD6
330
686C
100
AcDbEntity
  8
Defpoints
 62
     0
100
AcDbPoint
 10
298.721104150707
 20
326.672070076232
 30
0.0
  0
POINT
  5
7CD7
330
686C
100
AcDbEntity
  8
Defpoints
 62
     0
100
AcDbPoint
 10
298.721104150707
 20
333.7054424236222
 30
0.0
  0
ENDBLK
  5
686E
330
686C
100
AcDbEntity
  8
0
100
AcDbBlockEnd
  0
BLOCK
  5
689F
330
689E
100
AcDbEntity
  8
0
100
AcDbBlockBegin
  2
*D16
 70
     1
 10
0.0
 20
0.0
 30
0.0
  3
*D16
  1

  0
LINE
  5
70FE
330
689E
100
AcDbEntity
  8
AM_5 寸法線
 62
     3
100
AcDbLine
 10
298.721104150707
 20
327.609570076232
 30
0.0
 11
298.721104150707
 21
334.6429424236222
 31
0.0
  0
LINE
  5
70FF
330
689E
100
AcDbEntity
  8
AM_5 寸法線
 62
     3
100
AcDbLine
 10
369.7229264587169
 20
327.609570076232
 30
0.0
 11
369.7229264587169
 21
334.6429424236222
 31
0.0
  0
LINE
  5
7100
330
689E
100
AcDbEntity
  8
AM_5 寸法線
 62
     3
100
AcDbLine
 10
302.471104150707
 20
333.7054424236222
 30
0.0
 11
365.9729264587169
 21
333.7054424236222
 31
0.0
  0
INSERT
  5
7101
330
689E
100
AcDbEntity
  8
AM_5 寸法線
 62
     3
100
AcDbBlockReference
  2
_Open30
 10
298.721104150707
 20
333.7054424236222
 30
0.0
 41
3.75
 42
3.75
 43
3.75
 50
180.0
  0
INSERT
  5
7102
330
689E
100
AcDbEntity
  8
AM_5 寸法線
 62
     3
100
AcDbBlockReference
  2
_Open30
 10
369.7229264587169
 20
333.7054424236222
 30
0.0
 41
3.75
 42
3.75
 43
3.75
  0
MTEXT
  5
7103
330
689E
100
AcDbEntity
  8
AM_5 寸法線
 62
     3
100
AcDbMText
 10
334.2220153047119
 20
338.5804424236222
 30
0.0
 40
5.25
 41
0.0
 46
0.0
 71
     5
 72
     1
  1
71
  7
SEISA
 73
     1
 44
1.0
  0
POINT
  5
7104
330
689E
100
AcDbEntity
  8
Defpoints
 62
     0
100
AcDbPoint
 10
298.721104150707
 20
326.672070076232
 30
0.0
  0
POINT
  5
7105
330
689E
100
AcDbEntity
  8
Defpoints
 62
     0
100
AcDbPoint
 10
369.7229264587169
 20
326.672070076232
 30
0.0
  0
POINT
  5
7106
330
689E
100
AcDbEntity
  8
Defpoints
 62
     0
100
AcDbPoint
 10
369.7229264587169
 20
333.7054424236222
 30
0.0
  0
ENDBLK
  5
68A0
330
689E
100
AcDbEntity
  8
0
100
AcDbBlockEnd
  0
BLOCK
  5
694F
330
694E
100
AcDbEntity
  8
0
100
AcDbBlockBegin
  2
*D17
 70
     1
 10
0.0
 20
0.0
 30
0.0
  3
*D17
  1

  0
LINE
  5
695B
330
694E
100
AcDbEntity
  8
AM_5 寸法線
 62
     3
100
AcDbLine
 10
279.7206164908168
 20
255.932778567794
 30
0.0
 11
279.7206164908168
 21
240.732773434532
 31
0.0
  0
LINE
  5
695C
330
694E
100
AcDbEntity
  8
AM_5 寸法線
 62
     3
100
AcDbLine
 10
294.7210014854669
 20
255.932778567794
 30
0.0
 11
294.7210014854669
 21
240.732773434532
 31
0.0
  0
LINE
  5
695D
330
694E
100
AcDbEntity
  8
AM_5 寸法線
 62
     3
100
AcDbLine
 10
283.4706164908169
 20
241.670273434532
 30
0.0
 11
290.9710014854669
 21
241.670273434532
 31
0.0
  0
INSERT
  5
695E
330
694E
100
AcDbEntity
  8
AM_5 寸法線
 62
     3
100
AcDbBlockReference
  2
_Open30
 10
279.7206164908168
 20
241.670273434532
 30
0.0
 41
3.75
 42
3.75
 43
3.75
 50
180.0
  0
INSERT
  5
695F
330
694E
100
AcDbEntity
  8
AM_5 寸法線
 62
     3
100
AcDbBlockReference
  2
_Open30
 10
294.7210014854669
 20
241.670273434532
 30
0.0
 41
3.75
 42
3.75
 43
3.75
  0
MTEXT
  5
6960
330
694E
100
AcDbEntity
  8
AM_5 寸法線
 62
     3
100
AcDbMText
 10
287.2208089881419
 20
246.545273434532
 30
0.0
 40
5.25
 41
0.0
 46
0.0
 71
     5
 72
     1
  1
15
  7
SEISA
 73
     1
 44
1.0
  0
POINT
  5
6961
330
694E
100
AcDbEntity
  8
Defpoints
 62
     0
100
AcDbPoint
 10
279.7206164908168
 20
256.870278567794
 30
0.0
  0
POINT
  5
6962
330
694E
100
AcDbEntity
  8
Defpoints
 62
     0
100
AcDbPoint
 10
294.7210014854669
 20
256.870278567794
 30
0.0
  0
POINT
  5
6963
330
694E
100
AcDbEntity
  8
Defpoints
 62
     0
100
AcDbPoint
 10
294.7210014854669
 20
241.670273434532
 30
0.0
  0
ENDBLK
  5
6950
330
694E
100
AcDbEntity
  8
0
100
AcDbBlockEnd
  0
BLOCK
  5
6967
330
6966
100
AcDbEntity
  8
0
100
AcDbBlockBegin
  2
*D18
 70
     1
 10
0.0
 20
0.0
 30
0.0
  3
*D18
  1

  0
LINE
  5
6973
330
6966
100
AcDbEntity
  8
AM_5 寸法線
 62
     3
100
AcDbLine
 10
294.7210014854669
 20
255.932778567794
 30
0.0
 11
294.7210014854669
 21
240.732773434532
 31
0.0
  0
LINE
  5
6974
330
6966
100
AcDbEntity
  8
AM_5 寸法線
 62
     3
100
AcDbLine
 10
309.721386480117
 20
255.932778567794
 30
0.0
 11
309.721386480117
 21
240.732773434532
 31
0.0
  0
LINE
  5
6975
330
6966
100
AcDbEntity
  8
AM_5 寸法線
 62
     3
100
AcDbLine
 10
298.4710014854669
 20
241.670273434532
 30
0.0
 11
305.971386480117
 21
241.670273434532
 31
0.0
  0
INSERT
  5
6976
330
6966
100
AcDbEntity
  8
AM_5 寸法線
 62
     3
100
AcDbBlockReference
  2
_Open30
 10
294.7210014854669
 20
241.670273434532
 30
0.0
 41
3.75
 42
3.75
 43
3.75
 50
180.0
  0
INSERT
  5
6977
330
6966
100
AcDbEntity
  8
AM_5 寸法線
 62
     3
100
AcDbBlockReference
  2
_Open30
 10
309.721386480117
 20
241.670273434532
 30
0.0
 41
3.75
 42
3.75
 43
3.75
  0
MTEXT
  5
6978
330
6966
100
AcDbEntity
  8
AM_5 寸法線
 62
     3
100
AcDbMText
 10
302.2211939827919
 20
246.545273434532
 30
0.0
 40
5.25
 41
0.0
 46
0.0
 71
     5
 72
     1
  1
15
  7
SEISA
 73
     1
 44
1.0
  0
POINT
  5
6979
330
6966
100
AcDbEntity
  8
Defpoints
 62
     0
100
AcDbPoint
 10
294.7210014854669
 20
256.870278567794
 30
0.0
  0
POINT
  5
697A
330
6966
100
AcDbEntity
  8
Defpoints
 62
     0
100
AcDbPoint
 10
309.721386480117
 20
256.870278567794
 30
0.0
  0
POINT
  5
697B
330
6966
100
AcDbEntity
  8
Defpoints
 62
     0
100
AcDbPoint
 10
309.721386480117
 20
241.670273434532
 30
0.0
  0
ENDBLK
  5
6968
330
6966
100
AcDbEntity
  8
0
100
AcDbBlockEnd
  0
BLOCK
  5
6A8C
330
6A8B
100
AcDbEntity
  8
0
100
AcDbBlockBegin
  2
*D19
 70
     1
 10
0.0
 20
0.0
 30
0.0
  3
*D19
  1

  0
LINE
  5
81FC
330
6A8B
100
AcDbEntity
  8
AM_5 寸法線
 62
     3
100
AcDbLine
 10
247.7197951688969
 20
275.233273927577
 30
0.0
 11
247.7197951688969
 21
225.732773434532
 31
0.0
  0
LINE
  5
81FD
330
6A8B
100
AcDbEntity
  8
AM_5 寸法線
 62
     3
100
AcDbLine
 10
341.7222078020369
 20
275.233273927577
 30
0.0
 11
341.7222078020369
 21
225.732773434532
 31
0.0
  0
LINE
  5
81FE
330
6A8B
100
AcDbEntity
  8
AM_5 寸法線
 62
     3
100
AcDbLine
 10
251.4697951688969
 20
226.670273434532
 30
0.0
 11
337.9722078020368
 21
226.670273434532
 31
0.0
  0
INSERT
  5
81FF
330
6A8B
100
AcDbEntity
  8
AM_5 寸法線
 62
     3
100
AcDbBlockReference
  2
_Open30
 10
247.7197951688969
 20
226.670273434532
 30
0.0
 41
3.75
 42
3.75
 43
3.75
 50
180.0
  0
INSERT
  5
8200
330
6A8B
100
AcDbEntity
  8
AM_5 寸法線
 62
     3
100
AcDbBlockReference
  2
_Open30
 10
341.7222078020369
 20
226.670273434532
 30
0.0
 41
3.75
 42
3.75
 43
3.75
  0
MTEXT
  5
8201
330
6A8B
100
AcDbEntity
  8
AM_5 寸法線
 62
     3
100
AcDbMText
 10
294.7210014854669
 20
231.545273434532
 30
0.0
 40
5.25
 41
0.0
 46
0.0
 71
     5
 72
     1
  1
94
  7
SEISA
 73
     1
 44
1.0
  0
POINT
  5
8202
330
6A8B
100
AcDbEntity
  8
Defpoints
 62
     0
100
AcDbPoint
 10
247.7197951688969
 20
276.170773927577
 30
0.0
  0
POINT
  5
8203
330
6A8B
100
AcDbEntity
  8
Defpoints
 62
     0
100
AcDbPoint
 10
341.7222078020369
 20
276.170773927577
 30
0.0
  0
POINT
  5
8204
330
6A8B
100
AcDbEntity
  8
Defpoints
 62
     0
100
AcDbPoint
 10
341.7222078020369
 20
226.670273434532
 30
0.0
  0
ENDBLK
  5
6A8D
330
6A8B
100
AcDbEntity
  8
0
100
AcDbBlockEnd
  0
BLOCK
  5
6B19
330
6B18
100
AcDbEntity
  8
0
100
AcDbBlockBegin
  2
*D20
 70
     1
 10
0.0
 20
0.0
 30
0.0
  3
*D20
  1

  0
LINE
  5
7124
330
6B18
100
AcDbEntity
  8
AM_5 寸法線
 62
     3
100
AcDbLine
 10
367.6603494597868
 20
366.673096728632
 30
0.0
 11
390.9440733653278
 21
366.673096728632
 31
0.0
  0
LINE
  5
7125
330
6B18
100
AcDbEntity
  8
AM_5 寸法線
 62
     3
100
AcDbLine
 10
367.6603494597868
 20
286.671043423832
 30
0.0
 11
390.9440733653278
 21
286.6710434238319
 31
0.0
  0
LINE
  5
7126
330
6B18
100
AcDbEntity
  8
AM_5 寸法線
 62
     3
100
AcDbLine
 10
390.0065733653278
 20
362.923096728632
 30
0.0
 11
390.0065733653278
 21
290.4210434238319
 31
0.0
  0
INSERT
  5
7127
330
6B18
100
AcDbEntity
  8
AM_5 寸法線
 62
     3
100
AcDbBlockReference
  2
_Open30
 10
390.0065733653278
 20
366.673096728632
 30
0.0
 41
3.75
 42
3.75
 43
3.75
 50
90.0
  0
INSERT
  5
7128
330
6B18
100
AcDbEntity
  8
AM_5 寸法線
 62
     3
100
AcDbBlockReference
  2
_Open30
 10
390.0065733653278
 20
286.6710434238319
 30
0.0
 41
3.75
 42
3.75
 43
3.75
 50
270.0
  0
MTEXT
  5
7129
330
6B18
100
AcDbEntity
  8
AM_5 寸法線
 62
     3
100
AcDbMText
 10
385.1315733653277
 20
326.672070076232
 30
0.0
 40
5.25
 41
0.0
 46
0.0
 71
     5
 72
     1
  1
%%c80
  7
SEISA
 11
0.0000000000000001
 21
1.0
 31
0.0
 73
     1
 44
1.0
  0
POINT
  5
712A
330
6B18
100
AcDbEntity
  8
Defpoints
 62
     0
100
AcDbPoint
 10
366.7228494597869
 20
366.673096728632
 30
0.0
  0
POINT
  5
712B
330
6B18
100
AcDbEntity
  8
Defpoints
 62
     0
100
AcDbPoint
 10
366.7228494597869
 20
286.671043423832
 30
0.0
  0
POINT
  5
712C
330
6B18
100
AcDbEntity
  8
Defpoints
 62
     0
100
AcDbPoint
 10
390.0065733653278
 20
286.6710434238319
 30
0.0
  0
ENDBLK
  5
6B1A
330
6B18
100
AcDbEntity
  8
0
100
AcDbBlockEnd
  0
BLOCK
  5
6B43
330
6B42
100
AcDbEntity
  8
0
100
AcDbBlockBegin
  2
*D21
 70
     1
 10
0.0
 20
0.0
 30
0.0
  3
*D21
  1

  0
LINE
  5
6B7A
330
6B42
100
AcDbEntity
  8
AM_5 寸法線
 62
     3
100
AcDbLine
 10
339.6596308031069
 20
380.173443223817
 30
0.0
 11
405.9440733653278
 21
380.1734432238169
 31
0.0
  0
LINE
  5
6B7B
330
6B42
100
AcDbEntity
  8
AM_5 寸法線
 62
     3
100
AcDbLine
 10
339.6596308031069
 20
273.1706969286469
 30
0.0
 11
405.9440733653278
 21
273.1706969286469
 31
0.0
  0
LINE
  5
6B7C
330
6B42
100
AcDbEntity
  8
AM_5 寸法線
 62
     3
100
AcDbLine
 10
405.0065733653278
 20
376.4234432238169
 30
0.0
 11
405.0065733653278
 21
276.9206969286468
 31
0.0
  0
INSERT
  5
6B7D
330
6B42
100
AcDbEntity
  8
AM_5 寸法線
 62
     3
100
AcDbBlockReference
  2
_Open30
 10
405.0065733653278
 20
380.1734432238169
 30
0.0
 41
3.75
 42
3.75
 43
3.75
 50
90.0
  0
INSERT
  5
6B7E
330
6B42
100
AcDbEntity
  8
AM_5 寸法線
 62
     3
100
AcDbBlockReference
  2
_Open30
 10
405.0065733653278
 20
273.1706969286469
 30
0.0
 41
3.75
 42
3.75
 43
3.75
 50
270.0
  0
MTEXT
  5
6B7F
330
6B42
100
AcDbEntity
  8
AM_5 寸法線
 62
     3
100
AcDbMText
 10
400.1315733653276
 20
326.672070076232
 30
0.0
 40
5.25
 41
0.0
 46
0.0
 71
     5
 72
     1
  1
%%c107
  7
SEISA
 11
0.0000000000000001
 21
1.0
 31
0.0
 73
     1
 44
1.0
  0
POINT
  5
6B80
330
6B42
100
AcDbEntity
  8
Defpoints
 62
     0
100
AcDbPoint
 10
338.7221308031069
 20
380.173443223817
 30
0.0
  0
POINT
  5
6B81
330
6B42
100
AcDbEntity
  8
Defpoints
 62
     0
100
AcDbPoint
 10
338.7221308031069
 20
273.1706969286469
 30
0.0
  0
POINT
  5
6B82
330
6B42
100
AcDbEntity
  8
Defpoints
 62
     0
100
AcDbPoint
 10
405.0065733653278
 20
273.1706969286469
 30
0.0
  0
ENDBLK
  5
6B44
330
6B42
100
AcDbEntity
  8
0
100
AcDbBlockEnd
  0
BLOCK
  5
6B5B
330
6B5A
100
AcDbEntity
  8
0
100
AcDbBlockBegin
  2
*D22
 70
     1
 10
0.0
 20
0.0
 30
0.0
  3
*D22
  1

  0
LINE
  5
6B8C
330
6B5A
100
AcDbEntity
  8
AM_5 寸法線
 62
     3
100
AcDbLine
 10
310.4588813468549
 20
396.673866717932
 30
0.0
 11
420.9440733653279
 21
396.6738667179319
 31
0.0
  0
LINE
  5
6B8D
330
6B5A
100
AcDbEntity
  8
AM_5 寸法線
 62
     3
100
AcDbLine
 10
310.4588813468549
 20
256.6702734345319
 30
0.0
 11
420.9440733653279
 21
256.6702734345319
 31
0.0
  0
LINE
  5
6B8E
330
6B5A
100
AcDbEntity
  8
AM_5 寸法線
 62
     3
100
AcDbLine
 10
420.0065733653279
 20
392.9238667179319
 30
0.0
 11
420.0065733653278
 21
260.4202734345319
 31
0.0
  0
INSERT
  5
6B8F
330
6B5A
100
AcDbEntity
  8
AM_5 寸法線
 62
     3
100
AcDbBlockReference
  2
_Open30
 10
420.0065733653279
 20
396.6738667179319
 30
0.0
 41
3.75
 42
3.75
 43
3.75
 50
90.0
  0
INSERT
  5
6B90
330
6B5A
100
AcDbEntity
  8
AM_5 寸法線
 62
     3
100
AcDbBlockReference
  2
_Open30
 10
420.0065733653278
 20
256.6702734345319
 30
0.0
 41
3.75
 42
3.75
 43
3.75
 50
270.0
  0
MTEXT
  5
6B91
330
6B5A
100
AcDbEntity
  8
AM_5 寸法線
 62
     3
100
AcDbMText
 10
415.1315733653277
 20
326.672070076232
 30
0.0
 40
5.25
 41
0.0
 46
0.0
 71
     5
 72
     1
  1
%%c140
  7
SEISA
 11
0.0000000000000001
 21
1.0
 31
0.0
 73
     1
 44
1.0
  0
POINT
  5
6B92
330
6B5A
100
AcDbEntity
  8
Defpoints
 62
     0
100
AcDbPoint
 10
309.5213813468549
 20
396.673866717932
 30
0.0
  0
POINT
  5
6B93
330
6B5A
100
AcDbEntity
  8
Defpoints
 62
     0
100
AcDbPoint
 10
309.5213813468549
 20
256.6702734345319
 30
0.0
  0
POINT
  5
6B94
330
6B5A
100
AcDbEntity
  8
Defpoints
 62
     0
100
AcDbPoint
 10
420.0065733653278
 20
256.6702734345319
 30
0.0
  0
ENDBLK
  5
6B5C
330
6B5A
100
AcDbEntity
  8
0
100
AcDbBlockEnd
  0
BLOCK
  5
703B
330
703A
100
AcDbEntity
  8
0
100
AcDbBlockBegin
  2
*D23
 70
     1
 10
0.0
 20
0.0
 30
0.0
  3
*D23
  1

  0
LINE
  5
712D
330
703A
100
AcDbEntity
  8
AM_5 寸法線
 62
     3
100
AcDbLine
 10
219.7190765122169
 20
288.9877354472833
 30
0.0
 11
219.7190765122169
 21
210.7327734345319
 31
0.0
  0
LINE
  5
712E
330
703A
100
AcDbEntity
  8
AM_5 寸法線
 62
     3
100
AcDbLine
 10
369.7229264587169
 20
288.9877354472833
 30
0.0
 11
369.7229264587169
 21
210.7327734345319
 31
0.0
  0
LINE
  5
712F
330
703A
100
AcDbEntity
  8
AM_5 寸法線
 62
     3
100
AcDbLine
 10
223.4690765122169
 20
211.6702734345319
 30
0.0
 11
365.9729264587169
 21
211.6702734345319
 31
0.0
  0
INSERT
  5
7130
330
703A
100
AcDbEntity
  8
AM_5 寸法線
 62
     3
100
AcDbBlockReference
  2
_Open30
 10
219.7190765122169
 20
211.6702734345319
 30
0.0
 41
3.75
 42
3.75
 43
3.75
 50
180.0
  0
INSERT
  5
7131
330
703A
100
AcDbEntity
  8
AM_5 寸法線
 62
     3
100
AcDbBlockReference
  2
_Open30
 10
369.7229264587169
 20
211.6702734345319
 30
0.0
 41
3.75
 42
3.75
 43
3.75
  0
MTEXT
  5
7132
330
703A
100
AcDbEntity
  8
AM_5 寸法線
 62
     3
100
AcDbMText
 10
294.7210014854669
 20
216.5452734345319
 30
0.0
 40
5.25
 41
0.0
 46
0.0
 71
     5
 72
     1
  1
150
  7
SEISA
 73
     1
 44
1.0
  0
POINT
  5
7133
330
703A
100
AcDbEntity
  8
Defpoints
 62
     0
100
AcDbPoint
 10
219.7190765122169
 20
289.9252354472833
 30
0.0
  0
POINT
  5
7134
330
703A
100
AcDbEntity
  8
Defpoints
 62
     0
100
AcDbPoint
 10
369.7229264587169
 20
289.9252354472833
 30
0.0
  0
POINT
  5
7135
330
703A
100
AcDbEntity
  8
Defpoints
 62
     0
100
AcDbPoint
 10
369.7229264587169
 20
211.6702734345319
 30
0.0
  0
ENDBLK
  5
703C
330
703A
100
AcDbEntity
  8
0
100
AcDbBlockEnd
  0
BLOCK
  5
811A
330
8119
100
AcDbEntity
  8
0
100
AcDbBlockBegin
  2
*D24
 70
     1
 10
0.0
 20
0.0
 30
0.0
  3
*D24
  1

  0
LINE
  5
8150
330
8119
100
AcDbEntity
  8
AM_5 寸法線
 62
     3
100
AcDbLine
 10
262.220167330392
 20
366.235609561787
 30
0.0
 11
262.220167330392
 21
352.3917985166417
 31
0.0
  0
LINE
  5
8151
330
8119
100
AcDbEntity
  8
AM_5 寸法線
 62
     3
100
AcDbLine
 10
276.7205394918869
 20
366.235609561787
 30
0.0
 11
276.7205394918869
 21
352.3917985166417
 31
0.0
  0
LINE
  5
8152
330
8119
100
AcDbEntity
  8
AM_5 寸法線
 62
     3
100
AcDbLine
 10
265.970167330392
 20
353.3292985166417
 30
0.0
 11
272.970539491887
 21
353.3292985166417
 31
0.0
  0
MTEXT
  5
8153
330
8119
100
AcDbEntity
  8
AM_5 寸法線
 62
     3
100
AcDbMText
 10
269.4137069793757
 20
357.8154864208774
 30
0.0
 40
5.25
 41
0.0
 46
0.0
 71
     5
 72
     1
  1
14.5
  7
SEISA
 73
     1
 44
1.0
  0
INSERT
  5
8154
330
8119
100
AcDbEntity
  8
AM_5 寸法線
 62
     3
100
AcDbBlockReference
  2
_Open30
 10
262.220167330392
 20
353.3292985166417
 30
0.0
 41
3.75
 42
3.75
 43
3.75
 50
180.0
  0
INSERT
  5
8155
330
8119
100
AcDbEntity
  8
AM_5 寸法線
 62
     3
100
AcDbBlockReference
  2
_Open30
 10
276.7205394918869
 20
353.3292985166417
 30
0.0
 41
3.75
 42
3.75
 43
3.75
  0
POINT
  5
8156
330
8119
100
AcDbEntity
  8
Defpoints
 62
     0
100
AcDbPoint
 10
262.220167330392
 20
367.173109561787
 30
0.0
  0
POINT
  5
8157
102
{ACAD_REACTORS
330
8167
102
}
330
8119
100
AcDbEntity
  8
Defpoints
 62
     0
100
AcDbPoint
 10
276.7205394918869
 20
367.173109561787
 30
0.0
  0
POINT
  5
8158
330
8119
100
AcDbEntity
  8
Defpoints
 62
     0
100
AcDbPoint
 10
276.7205394918869
 20
353.3292985166417
 30
0.0
  0
ENDBLK
  5
811B
330
8119
100
AcDbEntity
  8
0
100
AcDbBlockEnd
  0
BLOCK
  5
815B
330
815A
100
AcDbEntity
  8
0
100
AcDbBlockBegin
  2
*D25
 70
     1
 10
0.0
 20
0.0
 30
0.0
  3
*D25
  1

  0
LINE
  5
8183
330
815A
100
AcDbEntity
  8
AM_5 寸法線
 62
     3
100
AcDbLine
 10
276.7205394918869
 20
366.235609561787
 30
0.0
 11
276.7205394918869
 21
352.3917985166417
 31
0.0
  0
LINE
  5
8184
330
815A
100
AcDbEntity
  8
AM_5 寸法線
 62
     3
100
AcDbLine
 10
290.720898820227
 20
365.235583895477
 30
0.0
 11
290.720898820227
 21
352.3917985166417
 31
0.0
  0
LINE
  5
8185
330
815A
100
AcDbEntity
  8
AM_5 寸法線
 62
     3
100
AcDbLine
 10
280.4705394918869
 20
353.3292985166417
 30
0.0
 11
286.970898820227
 21
353.3292985166417
 31
0.0
  0
INSERT
  5
8186
330
815A
100
AcDbEntity
  8
AM_5 寸法線
 62
     3
100
AcDbBlockReference
  2
_Open30
 10
276.7205394918869
 20
353.3292985166417
 30
0.0
 41
3.75
 42
3.75
 43
3.75
 50
180.0
  0
INSERT
  5
8187
330
815A
100
AcDbEntity
  8
AM_5 寸法線
 62
     3
100
AcDbBlockReference
  2
_Open30
 10
290.720898820227
 20
353.3292985166417
 30
0.0
 41
3.75
 42
3.75
 43
3.75
  0
MTEXT
  5
8188
330
815A
100
AcDbEntity
  8
AM_5 寸法線
 62
     3
100
AcDbMText
 10
283.720719156057
 20
358.2042985166417
 30
0.0
 40
5.25
 41
0.0
 46
0.0
 71
     5
 72
     1
  1
14
  7
SEISA
 73
     1
 44
1.0
  0
POINT
  5
8189
330
815A
100
AcDbEntity
  8
Defpoints
 62
     0
100
AcDbPoint
 10
276.7205394918869
 20
367.173109561787
 30
0.0
  0
POINT
  5
818A
330
815A
100
AcDbEntity
  8
Defpoints
 62
     0
100
AcDbPoint
 10
290.720898820227
 20
366.173083895477
 30
0.0
  0
POINT
  5
818B
330
815A
100
AcDbEntity
  8
Defpoints
 62
     0
100
AcDbPoint
 10
290.720898820227
 20
353.3292985166417
 30
0.0
  0
ENDBLK
  5
815C
330
815A
100
AcDbEntity
  8
0
100
AcDbBlockEnd
  0
BLOCK
  5
81CC
330
81CB
100
AcDbEntity
  8
0
100
AcDbBlockBegin
  2
*D26
 70
     1
 10
0.0
 20
0.0
 30
0.0
  3
*D26
  1

  0
LINE
  5
83CE
330
81CB
100
AcDbEntity
  8
AM_5 寸法線
 62
     3
100
AcDbLine
 10
219.7190765122168
 20
364.610519729702
 30
0.0
 11
219.7190765122168
 21
397.6113667179319
 31
0.0
  0
LINE
  5
83CF
330
81CB
100
AcDbEntity
  8
AM_5 寸法線
 62
     3
100
AcDbLine
 10
212.7190765122168
 20
378.110866224887
 30
0.0
 11
212.7190765122168
 21
397.6113667179319
 31
0.0
  0
LINE
  5
83D0
330
81CB
100
AcDbEntity
  8
AM_5 寸法線
 62
     3
100
AcDbLine
 10
223.4690765122168
 20
396.673866717932
 30
0.0
 11
227.2190765122168
 21
396.673866717932
 31
0.0
  0
LINE
  5
83D1
330
81CB
100
AcDbEntity
  8
AM_5 寸法線
 62
     3
100
AcDbLine
 10
208.9690765122168
 20
396.673866717932
 30
0.0
 11
197.5690765122168
 21
396.673866717932
 31
0.0
  0
LINE
  5
83D2
330
81CB
100
AcDbEntity
  8
AM_5 寸法線
 62
     3
100
AcDbLine
 10
219.7190765122168
 20
396.673866717932
 30
0.0
 11
212.7190765122168
 21
396.673866717932
 31
0.0
  0
INSERT
  5
83D3
330
81CB
100
AcDbEntity
  8
AM_5 寸法線
 62
     3
100
AcDbBlockReference
  2
_Open30
 10
219.7190765122168
 20
396.673866717932
 30
0.0
 41
3.75
 42
3.75
 43
3.75
 50
180.0
  0
INSERT
  5
83D4
330
81CB
100
AcDbEntity
  8
AM_5 寸法線
 62
     3
100
AcDbBlockReference
  2
_Open30
 10
212.7190765122168
 20
396.673866717932
 30
0.0
 41
3.75
 42
3.75
 43
3.75
  0
MTEXT
  5
83D5
330
81CB
100
AcDbEntity
  8
AM_5 寸法線
 62
     3
100
AcDbMText
 10
201.3940765122168
 20
401.5488667179319
 30
0.0
 40
5.25
 41
0.0
 46
0.0
 71
     5
 72
     1
  1
7
  7
SEISA
 73
     1
 44
1.0
  0
POINT
  5
83D6
330
81CB
100
AcDbEntity
  8
Defpoints
 62
     0
100
AcDbPoint
 10
219.7190765122168
 20
363.673019729702
 30
0.0
  0
POINT
  5
83D7
330
81CB
100
AcDbEntity
  8
Defpoints
 62
     0
100
AcDbPoint
 10
212.7190765122168
 20
377.173366224887
 30
0.0
  0
POINT
  5
83D8
330
81CB
100
AcDbEntity
  8
Defpoints
 62
     0
100
AcDbPoint
 10
212.7190765122168
 20
396.673866717932
 30
0.0
  0
ENDBLK
  5
81CD
330
81CB
100
AcDbEntity
  8
0
100
AcDbBlockEnd
  0
BLOCK
  5
84E4
330
84E3
100
AcDbEntity
  8
0
100
AcDbBlockBegin
  2
ケース
 70
     0
 10
0.0
 20
0.0
 30
0.0
  3
ケース
  1

  0
LINE
  5
84E6
330
84E3
100
AcDbEntity
  8
AM_11 想像線
 48
0.2
100
AcDbLine
 10
-15.11423310522815
 20
-8.800225863527996
 30
0.0
 11
-8.514063707582124
 21
-8.800225863527996
 31
0.0
  0
LINE
  5
84E7
330
84E3
100
AcDbEntity
  8
AM_11 想像線
 48
0.2
100
AcDbLine
 10
0.0
 20
0.0
 30
0.0
 11
-14.81422540533509
 21
0.0
 31
0.0
  0
LINE
  5
84E8
330
84E3
100
AcDbEntity
  8
AM_11 想像線
 48
0.2
100
AcDbLine
 10
-17.8143024042651
 20
-3.000076998930012
 30
0.0
 11
-17.8143024042651
 21
-12.50032082887498
 31
0.0
  0
ARC
  5
84E9
330
84E3
100
AcDbEntity
  8
AM_11 想像線
 48
0.2
100
AcDbCircle
 10
-15.11423310522815
 20
-9.300238696683036
 30
0.0
 40
0.500012833155
100
AcDbArc
 50
90.0
 51
180.0
  0
LINE
  5
84EA
330
84E3
100
AcDbEntity
  8
AM_11 想像線
 48
0.2
100
AcDbLine
 10
-15.61424593838302
 20
-12.50032082887498
 30
0.0
 11
-15.61424593838302
 21
-9.300238696683036
 31
0.0
  0
LINE
  5
84EB
330
84E3
100
AcDbEntity
  8
AM_11 想像線
 48
0.2
100
AcDbLine
 10
-17.8143024042651
 20
-12.50032082887498
 30
0.0
 11
-15.61424593838302
 21
-12.50032082887498
 31
0.0
  0
LINE
  5
84EC
330
84E3
100
AcDbEntity
  8
AM_11 想像線
 48
0.2
100
AcDbLine
 10
-15.61424593838302
 20
-12.50032082887498
 30
0.0
 11
-15.61424593838302
 21
-13.500346495185
 31
0.0
  0
LINE
  5
84ED
330
84E3
100
AcDbEntity
  8
AM_11 想像線
 48
0.2
100
AcDbLine
 10
-17.8143024042651
 20
-12.50032082887498
 30
0.0
 11
-17.8143024042651
 21
-13.500346495185
 31
0.0
  0
ARC
  5
84EE
330
84E3
100
AcDbEntity
  8
AM_11 想像線
 48
0.2
100
AcDbCircle
 10
-14.81422540533509
 20
-3.000076998930012
 30
0.0
 40
3.000076998929998
100
AcDbArc
 50
90.0
 51
180.0
  0
ARC
  5
84EF
330
84E3
100
AcDbEntity
  8
AM_11 想像線
 48
0.2
100
AcDbCircle
 10
-2.813917409615156
 20
-6.00015399786008
 30
0.0
 40
1.00002566631
100
AcDbArc
 50
0.0
 51
90.0
  0
ARC
  5
84F0
330
84E3
100
AcDbEntity
  8
AM_11 想像線
 48
0.2
100
AcDbCircle
 10
-4.81396874223509
 20
-6.00015399786008
 30
0.0
 40
1.00002566631
100
AcDbArc
 50
90.0
 51
180.0
  0
LINE
  5
84F1
330
84E3
100
AcDbEntity
  8
AM_11 想像線
 48
0.2
100
AcDbLine
 10
0.0
 20
-9.100233563421056
 30
0.0
 11
-1.313878910150094
 21
-9.100233563421056
 31
0.0
  0
LINE
  5
84F2
330
84E3
100
AcDbEntity
  8
AM_11 想像線
 48
0.2
100
AcDbLine
 10
0.0
 20
-7.500192497325032
 30
0.0
 11
-3.813943075925123
 21
-7.500192497325032
 31
0.0
  0
LINE
  5
84F3
330
84E3
100
AcDbEntity
  8
AM_11 想像線
 48
0.2
100
AcDbLine
 10
-5.81399440854517
 20
-12.50032082887498
 30
0.0
 11
-5.81399440854517
 21
-6.00015399786008
 31
0.0
  0
LINE
  5
84F4
330
84E3
100
AcDbEntity
  8
AM_11 想像線
 48
0.2
100
AcDbLine
 10
-8.014050874427141
 20
-12.50032082887498
 30
0.0
 11
-5.81399440854517
 21
-12.50032082887498
 31
0.0
  0
LINE
  5
84F5
330
84E3
100
AcDbEntity
  8
AM_11 想像線
 48
0.2
100
AcDbLine
 10
-8.014050874427141
 20
-9.300238696683036
 30
0.0
 11
-8.014050874427141
 21
-12.50032082887498
 31
0.0
  0
ARC
  5
84F6
330
84E3
100
AcDbEntity
  8
AM_11 想像線
 48
0.2
100
AcDbCircle
 10
-8.514063707582124
 20
-9.300238696683036
 30
0.0
 40
0.500012833155
100
AcDbArc
 50
0.0
 51
90.0
  0
LINE
  5
84F7
330
84E3
100
AcDbEntity
  8
AM_11 想像線
 48
0.2
100
AcDbLine
 10
-5.81399440854517
 20
-12.50032082887498
 30
0.0
 11
-5.81399440854517
 21
-13.500346495185
 31
0.0
  0
LINE
  5
84F8
330
84E3
100
AcDbEntity
  8
AM_11 想像線
 48
0.2
100
AcDbLine
 10
-8.014050874427141
 20
-12.50032082887498
 30
0.0
 11
-8.014050874427141
 21
-13.500346495185
 31
0.0
  0
LINE
  5
84F9
330
84E3
100
AcDbEntity
  8
AM_11 想像線
 48
0.2
100
AcDbLine
 10
-1.81389174330519
 20
-6.104290711937038
 30
0.0
 11
-1.81389174330519
 21
-8.600220730266016
 31
0.0
  0
LINE
  5
84FA
330
84E3
100
AcDbEntity
  8
AM_11 想像線
 48
0.2
100
AcDbLine
 10
-1.81389174330519
 20
-6.104290711937038
 30
0.0
 11
-1.81389174330519
 21
-6.00015399786008
 31
0.0
  0
LINE
  5
84FB
330
84E3
100
AcDbEntity
  8
AM_11 想像線
 48
0.2
100
AcDbLine
 10
0.0
 20
-5.500141164704983
 30
0.0
 11
-1.81389174330519
 21
-5.500141164704983
 31
0.0
  0
LINE
  5
84FC
330
84E3
100
AcDbEntity
  8
AM_11 想像線
 48
0.2
100
AcDbLine
 10
-4.81396874223509
 20
-5.00012833155
 30
0.0
 11
-2.813917409615156
 21
-5.00012833155
 31
0.0
  0
ENDBLK
  5
84E5
330
84E3
100
AcDbEntity
  8
0
100
AcDbBlockEnd
  0
ENDSEC
  0
SECTION
  2
ENTITIES
  0
LINE
  5
42DA
330
1F
100
AcDbEntity
  8
AM_7 中心線
100
AcDbLine
 10
242.7215214854669
 20
326.672070076232
 30
0.0
 11
346.7204814854668
 21
326.672070076232
 31
0.0
  0
LINE
  5
42DB
330
1F
100
AcDbEntity
  8
AM_0 外形線1
100
AcDbLine
 10
294.7210014854669
 20
326.672070076232
 30
0.0
 11
294.7210014854669
 21
280.139202076232
 31
0.0
  0
LINE
  5
42DC
330
1F
100
AcDbEntity
  8
AM_0 外形線1
100
AcDbLine
 10
294.7210014854669
 20
326.672070076232
 30
0.0
 11
294.7210014854669
 21
280.139202076232
 31
0.0
  0
LINE
  5
42E0
330
1F
100
AcDbEntity
  8
AM_7 中心線
100
AcDbLine
 10
216.718999513287
 20
326.672070076232
 30
0.0
 11
372.7230034576468
 21
326.672070076232
 31
0.0
  0
LINE
  5
42E2
330
1F
100
AcDbEntity
  8
AM_0 外形線1
100
AcDbLine
 10
294.7210014854669
 20
326.672070076232
 30
0.0
 11
294.7210014854669
 21
256.870278567794
 31
0.0
  0
LINE
  5
4337
330
1F
100
AcDbEntity
  8
AM_3 隠れ線
100
AcDbLine
 10
263.7202058298568
 20
371.5732224935511
 30
0.0
 11
264.2202186630119
 21
371.073209660396
 31
0.0
  0
LINE
  5
4349
330
1F
100
AcDbEntity
  8
AM_0 外形線1
100
AcDbLine
 10
305.7212838148769
 20
386.673610054832
 30
0.0
 11
280.720642157127
 21
386.673610054832
 31
0.0
  0
LINE
  5
434A
330
1F
100
AcDbEntity
  8
AM_0 外形線1
100
AcDbLine
 10
280.720642157127
 20
393.673789719002
 30
0.0
 11
305.7212838148769
 21
393.673789719002
 31
0.0
  0
LINE
  5
434F
330
1F
100
AcDbEntity
  8
AM_0 外形線1
100
AcDbLine
 10
279.7206164908168
 20
384.4235523056344
 30
0.0
 11
279.7206164908168
 21
395.9238474681995
 31
0.0
  0
LINE
  5
4370
330
1F
100
AcDbEntity
  8
AM_0 外形線1
100
AcDbLine
 10
294.7210014854669
 20
393.673789719002
 30
0.0
 11
294.7210014854669
 21
396.47386158467
 31
0.0
  0
LINE
  5
43B5
330
1F
100
AcDbEntity
  8
AM_0 外形線1
100
AcDbLine
 10
309.721386480117
 20
396.47386158467
 30
0.0
 11
309.721386480117
 21
393.673789719002
 31
0.0
  0
INSERT
  5
5D89
102
{ACAD_REACTORS
330
6819
330
6964
102
}
330
1F
100
AcDbEntity
  8
AM_0 外形線1
100
AcDbBlockReference
  2
ケースＢ SSM140
 10
294.7210014854669
 20
326.672070076232
 30
0.0
  0
INSERT
  5
5DC4
102
{ACAD_REACTORS
330
6964
330
697C
330
6B58
330
6B70
330
6AA1
102
}
330
1F
100
AcDbEntity
  8
AM_0 外形線1
100
AcDbBlockReference
  2
ケースＡ SSM140
 10
294.7210014854669
 20
326.672070076232
 30
0.0
  0
INSERT
  5
5F36
102
{ACAD_REACTORS
330
6886
330
68B4
330
6B2E
330
7050
102
}
330
1F
100
AcDbEntity
  8
AM_0 外形線1
100
AcDbBlockReference
  2
センタＡ SSM140
 10
298.721104150707
 20
326.672070076232
 30
0.0
  0
INSERT
  5
5FE4
102
{ACAD_REACTORS
330
67E4
330
6819
330
686A
330
6886
330
7050
330
8127
330
8167
330
81DA
102
}
330
1F
100
AcDbEntity
  8
AM_0 外形線1
100
AcDbBlockReference
  2
センタＢ SSM140
 10
290.720898820227
 20
326.672070076232
 30
0.0
  0
INSERT
  5
6278
330
1F
100
AcDbEntity
  8
AM_0 外形線1
100
AcDbBlockReference
  2
リーマボルト SSM140 M6
 10
279.7206164908168
 20
390.1736998869171
 30
0.0
  0
DIMENSION
  5
67CD
102
{ACAD_XDICTIONARY
360
67DA
102
}
102
{ACAD_REACTORS
330
67E4
102
}
330
1F
100
AcDbEntity
  8
AM_5 寸法線
100
AcDbDimension
  2
*D12
 10
198.3693578905606
 20
286.671043423832
 30
0.0
 11
193.4943578905606
 21
326.672070076232
 31
0.0
 70
    32
  1
%%c<>
 71
     5
 42
80.00205330480003
 73
     0
 74
     0
 75
     0
  3
SEISA$0
100
AcDbAlignedDimension
 13
222.7191535111468
 23
366.673096728632
 33
0.0
 14
222.7191535111468
 24
286.671043423832
 34
0.0
 50
90.0
100
AcDbRotatedDimension
1001
ACAD_DSTYLE_DIMINSPECT
1070
   396
1000
100%
1070
   395
1000

1070
   394
1070
    33
1070
   393
1070
     0
  0
DIMENSION
  5
67FE
102
{ACAD_XDICTIONARY
360
680D
102
}
102
{ACAD_REACTORS
330
6819
330
8127
102
}
330
1F
100
AcDbEntity
  8
AM_5 寸法線
100
AcDbDimension
  2
*D13
 10
262.220167330392
 20
353.3292985166413
 30
0.0
 11
245.0201031646169
 21
353.3292985166413
 31
0.0
 70
   160
 71
     5
 42
2.500064165775143
 73
     0
 74
     0
 75
     0
  3
SEISA$0
100
AcDbAlignedDimension
 13
259.7201031646168
 23
366.673096728632
 33
0.0
 14
262.220167330392
 24
367.173109561787
 34
0.0
100
AcDbRotatedDimension
  0
DIMENSION
  5
6853
102
{ACAD_XDICTIONARY
360
6860
102
}
102
{ACAD_REACTORS
330
686A
102
}
330
1F
100
AcDbEntity
  8
AM_5 寸法線
100
AcDbDimension
  2
*D14
 10
290.720898820227
 20
333.7054424236222
 30
0.0
 11
255.219987666222
 21
338.5804424236222
 31
0.0
 70
    32
 71
     5
 42
71.00182230801009
 73
     0
 74
     0
 75
     0
  3
SEISA$0
100
AcDbAlignedDimension
 13
219.7190765122169
 23
326.672070076232
 33
0.0
 14
290.720898820227
 24
326.672070076232
 34
0.0
100
AcDbRotatedDimension
  0
DIMENSION
  5
686B
102
{ACAD_XDICTIONARY
360
687A
102
}
102
{ACAD_REACTORS
330
6886
102
}
330
1F
100
AcDbEntity
  8
AM_5 寸法線
100
AcDbDimension
  2
*D15
 10
298.721104150707
 20
333.7054424236222
 30
0.0
 11
294.7651891085598
 21
338.352182515485
 31
0.0
 70
   160
 71
     5
 42
8.000205330479957
 73
     0
 74
     0
 75
     0
  3
SEISA$0
100
AcDbAlignedDimension
 13
290.720898820227
 23
326.672070076232
 33
0.0
 14
298.721104150707
 24
326.672070076232
 34
0.0
100
AcDbRotatedDimension
1001
ACAD
1000
DSTYLE
1002
{
1070
   279
1070
     2
1002
}
  0
DIMENSION
  5
689D
102
{ACAD_XDICTIONARY
360
68AA
102
}
102
{ACAD_REACTORS
330
68B4
102
}
330
1F
100
AcDbEntity
  8
AM_5 寸法線
100
AcDbDimension
  2
*D16
 10
369.7229264587169
 20
333.7054424236222
 30
0.0
 11
334.2220153047119
 21
338.5804424236222
 31
0.0
 70
    32
 71
     5
 42
71.00182230800993
 73
     0
 74
     0
 75
     0
  3
SEISA$0
100
AcDbAlignedDimension
 13
298.721104150707
 23
326.672070076232
 33
0.0
 14
369.7229264587169
 24
326.672070076232
 34
0.0
100
AcDbRotatedDimension
  0
DIMENSION
  5
694D
102
{ACAD_XDICTIONARY
360
695A
102
}
102
{ACAD_REACTORS
330
6964
102
}
330
1F
100
AcDbEntity
  8
AM_5 寸法線
100
AcDbDimension
  2
*D17
 10
294.7210014854669
 20
241.670273434532
 30
0.0
 11
287.2208089881419
 21
246.545273434532
 31
0.0
 70
    32
 71
     5
 42
15.00038499465006
 73
     0
 74
     0
 75
     0
  3
SEISA$0
100
AcDbAlignedDimension
 13
279.7206164908168
 23
256.870278567794
 33
0.0
 14
294.7210014854669
 24
256.870278567794
 34
0.0
100
AcDbRotatedDimension
  0
DIMENSION
  5
6965
102
{ACAD_XDICTIONARY
360
6972
102
}
102
{ACAD_REACTORS
330
697C
102
}
330
1F
100
AcDbEntity
  8
AM_5 寸法線
100
AcDbDimension
  2
*D18
 10
309.721386480117
 20
241.670273434532
 30
0.0
 11
302.2211939827919
 21
246.545273434532
 31
0.0
 70
    32
 71
     5
 42
15.00038499465006
 73
     0
 74
     0
 75
     0
  3
SEISA$0
100
AcDbAlignedDimension
 13
294.7210014854669
 23
256.870278567794
 33
0.0
 14
309.721386480117
 24
256.870278567794
 34
0.0
100
AcDbRotatedDimension
  0
DIMENSION
  5
6A8A
102
{ACAD_XDICTIONARY
360
6A97
102
}
102
{ACAD_REACTORS
330
6AA1
102
}
330
1F
100
AcDbEntity
  8
AM_5 寸法線
100
AcDbDimension
  2
*D19
 10
341.7222078020369
 20
226.670273434532
 30
0.0
 11
294.7210014854669
 21
231.545273434532
 31
0.0
 70
    32
 71
     5
 42
94.00241263313999
 73
     0
 74
     0
 75
     0
  3
SEISA$0
100
AcDbAlignedDimension
 13
247.7197951688969
 23
276.170773927577
 33
0.0
 14
341.7222078020369
 24
276.170773927577
 34
0.0
100
AcDbRotatedDimension
  0
DIMENSION
  5
6B17
102
{ACAD_XDICTIONARY
360
6B24
102
}
102
{ACAD_REACTORS
330
6B2E
102
}
330
1F
100
AcDbEntity
  8
AM_5 寸法線
100
AcDbDimension
  2
*D20
 10
390.0065733653278
 20
286.6710434238319
 30
0.0
 11
385.1315733653277
 21
326.672070076232
 31
0.0
 70
    32
  1
%%c<>
 71
     5
 42
80.00205330480003
 73
     0
 74
     0
 75
     0
  3
SEISA$0
100
AcDbAlignedDimension
 13
366.7228494597869
 23
366.673096728632
 33
0.0
 14
366.7228494597869
 24
286.671043423832
 34
0.0
 50
90.0
100
AcDbRotatedDimension
1001
ACAD_DSTYLE_DIMINSPECT
1070
   396
1000
100%
1070
   395
1000

1070
   394
1070
    33
1070
   393
1070
     0
  0
DIMENSION
  5
6B41
102
{ACAD_XDICTIONARY
360
6B4E
102
}
102
{ACAD_REACTORS
330
6B58
102
}
330
1F
100
AcDbEntity
  8
AM_5 寸法線
100
AcDbDimension
  2
*D21
 10
405.0065733653278
 20
273.1706969286469
 30
0.0
 11
400.1315733653276
 21
326.672070076232
 31
0.0
 70
    32
  1
%%c<>
 71
     5
 42
107.0027462951701
 73
     0
 74
     0
 75
     0
  3
SEISA$0
100
AcDbAlignedDimension
 13
338.7221308031069
 23
380.173443223817
 33
0.0
 14
338.7221308031069
 24
273.1706969286469
 34
0.0
 50
90.0
100
AcDbRotatedDimension
1001
ACAD_DSTYLE_DIMINSPECT
1070
   396
1000
100%
1070
   395
1000

1070
   394
1070
    33
1070
   393
1070
     0
  0
DIMENSION
  5
6B59
102
{ACAD_XDICTIONARY
360
6B66
102
}
102
{ACAD_REACTORS
330
6B70
102
}
330
1F
100
AcDbEntity
  8
AM_5 寸法線
100
AcDbDimension
  2
*D22
 10
420.0065733653278
 20
256.6702734345319
 30
0.0
 11
415.1315733653277
 21
326.672070076232
 31
0.0
 70
    32
  1
%%c<>
 71
     5
 42
140.0035932834
 73
     0
 74
     0
 75
     0
  3
SEISA$0
100
AcDbAlignedDimension
 13
309.5213813468549
 23
396.673866717932
 33
0.0
 14
309.5213813468549
 24
256.6702734345319
 34
0.0
 50
90.0
100
AcDbRotatedDimension
1001
ACAD_DSTYLE_DIMINSPECT
1070
   396
1000
100%
1070
   395
1000

1070
   394
1070
    33
1070
   393
1070
     0
  0
DIMENSION
  5
7039
102
{ACAD_XDICTIONARY
360
7046
102
}
102
{ACAD_REACTORS
330
7050
102
}
330
1F
100
AcDbEntity
  8
AM_5 寸法線
100
AcDbDimension
  2
*D23
 10
369.7229264587169
 20
211.6702734345319
 30
0.0
 11
294.7210014854669
 21
216.5452734345319
 31
0.0
 70
    32
 71
     5
 42
150.0038499465
 73
     0
 74
     0
 75
     0
  3
SEISA$0
100
AcDbAlignedDimension
 13
219.7190765122169
 23
289.9252354472833
 33
0.0
 14
369.7229264587169
 24
289.9252354472833
 34
0.0
100
AcDbRotatedDimension
  0
MTEXT
  5
80DB
330
1F
100
AcDbEntity
  8
AM_6 文字
100
AcDbMText
 10
375.6826178099333
 20
247.7996549014771
 30
0.0
 40
5.25
 41
103.86546019968
 46
0.0
 71
     1
 72
     5
  1
{\W0.6;TYPE:SSM140/SSMH140\PSHAFT DIA:MAX/MIN φ56/φ22}
  7
SEISA
 73
     1
 44
1.0
  0
DIMENSION
  5
8118
102
{ACAD_XDICTIONARY
360
8126
102
}
102
{ACAD_REACTORS
330
8127
330
8167
102
}
330
1F
100
AcDbEntity
  8
AM_5 寸法線
100
AcDbDimension
  2
*D24
 10
276.7205394918869
 20
353.3292985166417
 30
0.0
 11
269.4137069793757
 21
357.8154864208774
 31
0.0
 70
   160
 71
     5
 42
14.50037216149496
 73
     0
 74
     0
 75
     0
  3
SEISA$0
100
AcDbAlignedDimension
 13
262.220167330392
 23
367.173109561787
 33
0.0
 14
276.7205394918869
 24
367.173109561787
 34
0.0
 50
0.0000000000001132
100
AcDbRotatedDimension
1001
ACAD_DSTYLE_DIMINSPECT
1070
   396
1000
100%
1070
   395
1000

1070
   394
1070
    33
1070
   393
1070
     0
1001
ACAD
1000
DSTYLE
1002
{
1070
   279
1070
     2
1002
}
  0
DIMENSION
  5
8159
102
{ACAD_XDICTIONARY
360
8166
102
}
102
{ACAD_REACTORS
330
8167
102
}
330
1F
100
AcDbEntity
  8
AM_5 寸法線
100
AcDbDimension
  2
*D25
 10
290.720898820227
 20
353.3292985166417
 30
0.0
 11
283.720719156057
 21
358.2042985166417
 31
0.0
 70
    32
 71
     5
 42
14.00035932834009
 73
     0
 74
     0
 75
     0
  3
SEISA$0
100
AcDbAlignedDimension
 13
276.7205394918869
 23
367.173109561787
 33
0.0
 14
290.720898820227
 24
366.173083895477
 34
0.0
 50
0.0000000000001132
100
AcDbRotatedDimension
1001
ACAD_DSTYLE_DIMINSPECT
1070
   396
1000
100%
1070
   395
1000

1070
   394
1070
    33
1070
   393
1070
     0
  0
DIMENSION
  5
81CA
102
{ACAD_XDICTIONARY
360
81D9
102
}
102
{ACAD_REACTORS
330
81DA
102
}
330
1F
100
AcDbEntity
  8
AM_5 寸法線
100
AcDbDimension
  2
*D26
 10
212.7190765122168
 20
396.673866717932
 30
0.0
 11
201.3940765122168
 21
401.5488667179319
 31
0.0
 70
    32
 71
     5
 42
7.0
 73
     0
 74
     0
 75
     0
  3
SEISA$0
100
AcDbAlignedDimension
 13
219.7190765122168
 23
363.673019729702
 33
0.0
 14
212.7190765122168
 24
377.173366224887
 34
0.0
100
AcDbRotatedDimension
1001
ACAD_DSTYLE_DIMINSPECT
1070
   396
1000
100%
1070
   395
1000

1070
   394
1070
    33
1070
   393
1070
     0
  0
INSERT
  5
84FD
330
1F
100
AcDbEntity
  8
AM_11 想像線
100
AcDbBlockReference
  2
ケース
 10
230.5333789164819
 20
380.173443223817
 30
0.0
  0
ENDSEC
  0
SECTION
  2
OBJECTS
  0
DICTIONARY
  5
C
330
0
100
AcDbDictionary
281
     1
  3
ACAD_COLOR
350
C5
  3
ACAD_GROUP
350
D
  3
ACAD_LAYOUT
350
1A
  3
ACAD_MATERIAL
350
C4
  3
ACAD_MLEADERSTYLE
350
2D5
  3
ACAD_MLINESTYLE
350
17
  3
ACAD_PLOTSETTINGS
350
19
  3
ACAD_PLOTSTYLENAME
350
E
  3
ACAD_SCALELIST
350
2B3
  3
ACAD_TABLESTYLE
350
121
  3
ACAD_VISUALSTYLE
350
27F
  3
ACDB_RECOMPOSE_DATA
350
2F7
  3
AcDbVariableDictionary
350
34
  3
AcmDictionary
350
49
  3
AMG
350
2B
  3
AMGSNAPSETTINGS
350
1DE
  0
DICTIONARY
  5
BF
330
2
100
AcDbDictionary
280
     1
281
     1
  3
ACAD_LAYERSTATES
360
47B7
  3
AMLAYER_GROUPCOLORS
360
C0
  0
DICTIONARY
  5
29D8
330
10
100
AcDbDictionary
280
     1
281
     1
  3
ADSK_XREC_LAYER_RECONCILED
360
29D9
  0
DICTIONARY
  5
29DA
330
81
100
AcDbDictionary
280
     1
281
     1
  3
ADSK_XREC_LAYER_RECONCILED
360
29DB
  0
DICTIONARY
  5
29E1
330
25C9
100
AcDbDictionary
280
     1
281
     1
  3
ADSK_XREC_LAYER_RECONCILED
360
29E2
  0
DICTIONARY
  5
29E3
330
25CA
100
AcDbDictionary
280
     1
281
     1
  3
ADSK_XREC_LAYER_RECONCILED
360
29E4
  0
DICTIONARY
  5
29E9
330
26B3
100
AcDbDictionary
280
     1
281
     1
  3
ADSK_XREC_LAYER_RECONCILED
360
29EA
  0
DICTIONARY
  5
82
330
1F
100
AcDbDictionary
280
     1
281
     1
  3
ACAD_SORTENTS
360
A41
  0
DICTIONARY
  5
5B62
330
5B3B
100
AcDbDictionary
280
     1
281
     1
  3
ACAD_SORTENTS
360
63AA
  0
DICTIONARY
  5
5CBC
330
5BEF
100
AcDbDictionary
280
     1
281
     1
  3
ACAD_SORTENTS
360
7AF6
  0
DICTIONARY
  5
5DFF
330
5D53
100
AcDbDictionary
280
     1
281
     1
  3
ACAD_SORTENTS
360
7B9D
  0
DICTIONARY
  5
5F69
330
5F13
100
AcDbDictionary
280
     1
281
     1
  3
ACAD_SORTENTS
360
837F
  0
DICTIONARY
  5
6017
330
5FC0
100
AcDbDictionary
280
     1
281
     1
  3
ACAD_SORTENTS
360
83AD
  0
DICTIONARY
  5
62E5
330
6249
100
AcDbDictionary
280
     1
281
     1
  3
ACAD_SORTENTS
360
7C35
  0
DICTIONARY
  5
8550
330
84E3
100
AcDbDictionary
280
     1
281
     1
  3
ACAD_SORTENTS
360
8551
  0
DICTIONARY
  5
67DA
330
67CD
100
AcDbDictionary
280
     1
281
     1
  3
ACAD_DIMASSOC
360
67E4
  0
DICTIONARY
  5
680D
330
67FE
100
AcDbDictionary
280
     1
281
     1
  3
ACAD_DIMASSOC
360
6819
  0
DICTIONARY
  5
6860
330
6853
100
AcDbDictionary
280
     1
281
     1
  3
ACAD_DIMASSOC
360
686A
  0
DICTIONARY
  5
687A
330
686B
100
AcDbDictionary
280
     1
281
     1
  3
ACAD_DIMASSOC
360
6886
  0
DICTIONARY
  5
68AA
330
689D
100
AcDbDictionary
280
     1
281
     1
  3
ACAD_DIMASSOC
360
68B4
  0
DICTIONARY
  5
695A
330
694D
100
AcDbDictionary
280
     1
281
     1
  3
ACAD_DIMASSOC
360
6964
  0
DICTIONARY
  5
6972
330
6965
100
AcDbDictionary
280
     1
281
     1
  3
ACAD_DIMASSOC
360
697C
  0
DICTIONARY
  5
6A97
330
6A8A
100
AcDbDictionary
280
     1
281
     1
  3
ACAD_DIMASSOC
360
6AA1
  0
DICTIONARY
  5
6B24
330
6B17
100
AcDbDictionary
280
     1
281
     1
  3
ACAD_DIMASSOC
360
6B2E
  0
DICTIONARY
  5
6B4E
330
6B41
100
AcDbDictionary
280
     1
281
     1
  3
ACAD_DIMASSOC
360
6B58
  0
DICTIONARY
  5
6B66
330
6B59
100
AcDbDictionary
280
     1
281
     1
  3
ACAD_DIMASSOC
360
6B70
  0
DICTIONARY
  5
7046
330
7039
100
AcDbDictionary
280
     1
281
     1
  3
ACAD_DIMASSOC
360
7050
  0
DICTIONARY
  5
8126
330
8118
100
AcDbDictionary
280
     1
281
     1
  3
ACAD_DIMASSOC
360
8127
  0
DICTIONARY
  5
8166
330
8159
100
AcDbDictionary
280
     1
281
     1
  3
ACAD_DIMASSOC
360
8167
  0
DICTIONARY
  5
81D9
330
81CA
100
AcDbDictionary
280
     1
281
     1
  3
ACAD_DIMASSOC
360
81DA
  0
DICTIONARY
  5
C5
102
{ACAD_REACTORS
330
C
102
}
330
C
100
AcDbDictionary
281
     1
  0
DICTIONARY
  5
D
102
{ACAD_REACTORS
330
C
102
}
330
C
100
AcDbDictionary
281
     1
  0
DICTIONARY
  5
1A
102
{ACAD_REACTORS
330
C
102
}
330
C
100
AcDbDictionary
281
     1
  3
Model
350
22
  3
レイアウト1
350
1E
  3
レイアウト2
350
26
  0
DICTIONARY
  5
C4
102
{ACAD_REACTORS
330
C
102
}
330
C
100
AcDbDictionary
281
     1
  3
ByBlock
350
27D
  3
ByLayer
350
27C
  3
Global
350
27E
  0
DICTIONARY
  5
2D5
102
{ACAD_REACTORS
330
C
102
}
330
C
100
AcDbDictionary
281
     1
  3
Standard
350
2D6
  0
DICTIONARY
  5
17
102
{ACAD_REACTORS
330
C
102
}
330
C
100
AcDbDictionary
281
     1
  3
Standard
350
18
  0
DICTIONARY
  5
19
102
{ACAD_REACTORS
330
C
102
}
330
C
100
AcDbDictionary
281
     1
  3
SEISA基本
350
1C7E
  0
ACDBDICTIONARYWDFLT
  5
E
102
{ACAD_REACTORS
330
C
102
}
330
C
100
AcDbDictionary
281
     1
  3
Normal
350
F
100
AcDbDictionaryWithDefault
340
F
  0
DICTIONARY
  5
2B3
102
{ACAD_REACTORS
330
C
102
}
330
C
100
AcDbDictionary
281
     1
  3
*A1
350
29F3
  3
A0
350
2B4
  3
A1
350
2B5
  3
A2
350
2B6
  3
A3
350
2B7
  3
A4
350
2B8
  3
A5
350
2B9
  3
A6
350
2BA
  3
A7
350
2BB
  3
A8
350
2BC
  3
A9
350
2BD
  3
B0
350
2BE
  3
B1
350
2BF
  3
B2
350
2C0
  3
B3
350
2C1
  3
B4
350
2C2
  3
B5
350
2C3
  3
B6
350
2C4
  3
B7
350
2C5
  3
B8
350
2C6
  3
B9
350
2C7
  3
C0
350
2C8
  3
C1
350
2C9
  3
C2
350
2CA
  3
C3
350
2CB
  3
C4
350
2CC
  3
C5
350
2CD
  3
C6
350
2CE
  3
C7
350
2CF
  3
C8
350
2D0
  3
C9
350
2D1
  3
D0
350
2D2
  3
D1
350
2D3
  3
D2
350
2D4
  0
DICTIONARY
  5
121
102
{ACAD_REACTORS
330
C
102
}
330
C
100
AcDbDictionary
281
     1
  3
Standard
350
122
  0
DICTIONARY
  5
27F
102
{ACAD_REACTORS
330
C
102
}
330
C
100
AcDbDictionary
281
     1
  3
2dWireframe
350
285
  3
3D Hidden
350
287
  3
3dWireframe
350
286
  3
Basic
350
284
  3
Brighten
350
28B
  3
ColorChange
350
28F
  3
Conceptual
350
288
  3
Dim
350
28A
  3
Facepattern
350
28E
  3
Flat
350
280
  3
FlatWithEdges
350
281
  3
Gouraud
350
282
  3
GouraudWithEdges
350
283
  3
Linepattern
350
28D
  3
Realistic
350
289
  3
Thicken
350
28C
  0
XRECORD
  5
2F7
102
{ACAD_REACTORS
330
C
102
}
330
C
100
AcDbXrecord
280
     1
 90
        1
330
122
  0
DICTIONARY
  5
34
102
{ACAD_REACTORS
330
C
102
}
330
C
100
AcDbDictionary
281
     1
  3
CANNOSCALE
350
2FA
  3
CMLEADERSTYLE
350
2F8
  3
CTABLESTYLE
350
140
  3
DIMASSOC
350
AC
  3
INDEXCTL
350
35
  3
LAYEREVAL
350
661E
  3
LAYERNOTIFY
350
661F
  3
LIGHTINGUNITS
350
2FB
  3
MSLTSCALE
350
2F9
  0
DICTIONARY
  5
49
102
{ACAD_REACTORS
330
C
102
}
330
C
100
AcDbDictionary
281
     1
  3
AcmBOM
350
161B
  3
AcmStdDictionary
350
4A
  3
AMDTSECTSYM_ARROWCOLOR
350
12B
  0
DICTIONARY
  5
2B
102
{ACAD_REACTORS
330
C
102
}
330
C
100
AcDbDictionary
281
     1
  0
DICTIONARY
  5
1DE
102
{ACAD_REACTORS
330
C
102
}
330
C
100
AcDbDictionary
281
     1
  0
DICTIONARY
  5
47B7
102
{ACAD_REACTORS
330
BF
102
}
330
BF
100
AcDbDictionary
281
     1
  0
DICTIONARY
  5
C0
102
{ACAD_REACTORS
330
BF
102
}
330
BF
100
AcDbDictionary
280
     1
281
     1
  0
XRECORD
  5
29D9
102
{ACAD_REACTORS
330
29D8
102
}
330
29D8
100
AcDbXrecord
280
     1
290
     1
  0
XRECORD
  5
29DB
102
{ACAD_REACTORS
330
29DA
102
}
330
29DA
100
AcDbXrecord
280
     1
290
     1
  0
XRECORD
  5
29E2
102
{ACAD_REACTORS
330
29E1
102
}
330
29E1
100
AcDbXrecord
280
     1
290
     1
  0
XRECORD
  5
29E4
102
{ACAD_REACTORS
330
29E3
102
}
330
29E3
100
AcDbXrecord
280
     1
290
     1
  0
XRECORD
  5
29EA
102
{ACAD_REACTORS
330
29E9
102
}
330
29E9
100
AcDbXrecord
280
     1
290
     1
  0
SORTENTSTABLE
  5
A41
102
{ACAD_REACTORS
330
82
102
}
330
82
100
AcDbSortentsTable
330
1F
331
4337
  5
4337
331
6B41
  5
6B59
331
434F
  5
434F
331
6B59
  5
6BD3
331
42E0
  5
42E0
331
4370
  5
4370
331
6A8A
  5
6AA2
331
5FE4
  5
6278
331
6853
  5
686B
331
686B
  5
689D
331
4349
  5
4349
331
42DA
  5
42DA
331
42E2
  5
42E2
331
434A
  5
434A
331
67CD
  5
67FE
331
42DB
  5
42DB
331
5F36
  5
5FE4
331
689D
  5
68CE
331
694D
  5
6965
331
8118
  5
8118
331
6965
  5
6989
331
67FE
  5
6830
331
42DC
  5
42DC
331
7039
  5
717F
331
8159
  5
8159
331
5D89
  5
5DC4
331
5DC4
  5
5F36
331
43B5
  5
43B5
331
6B17
  5
6B41
331
80DB
  5
80DB
331
6278
  5
65DC
  0
SORTENTSTABLE
  5
63AA
102
{ACAD_REACTORS
330
5B62
102
}
330
5B62
100
AcDbSortentsTable
330
5B3B
  0
SORTENTSTABLE
  5
7AF6
102
{ACAD_REACTORS
330
5CBC
102
}
330
5CBC
100
AcDbSortentsTable
330
5BEF
331
5C19
  5
5C1B
331
5BF9
  5
5BFB
331
5C18
  5
5C1A
331
5BF8
  5
5BFA
331
5C1B
  5
5C1D
331
5BFB
  5
5BFD
331
5C1A
  5
5C1C
331
5BFA
  5
5BFC
331
5C1D
  5
5C1F
331
5BFD
  5
5BFF
331
5C1C
  5
5C1E
331
5BFC
  5
5BFE
331
5C1F
  5
5C21
331
5BFF
  5
5C01
331
5C1E
  5
5C20
331
5BFE
  5
5C00
331
5C21
  5
5C23
331
5C01
  5
5C03
331
5C20
  5
5C22
331
5C00
  5
5C02
331
5C04
  5
5C06
331
5C23
  5
5C25
331
5C03
  5
5C05
331
5C22
  5
5C24
331
5C02
  5
5C04
331
5C26
  5
5C28
331
5C06
  5
5C08
331
5C25
  5
5C27
331
5C05
  5
5C07
331
5C27
  5
5C29
331
5C07
  5
5C09
331
5C24
  5
5C26
331
5C28
  5
5C2A
331
5C08
  5
5C0A
331
5BF3
  5
5BF6
331
5C2A
  5
5C2C
331
5C0A
  5
5C0C
331
5BF2
  5
5BF4
331
5C29
  5
5C2B
331
5C09
  5
5C0B
331
5C2C
  5
5C2E
331
5C0C
  5
5C0E
331
5BF4
  5
5BF7
331
5C2B
  5
5C2D
331
5C0B
  5
5C0D
331
5C2D
  5
5C2F
331
5BF7
  5
5BF9
331
5C2E
  5
5C30
331
5C0E
  5
5C10
331
5BF6
  5
5BF8
331
5C0D
  5
5C0F
331
5C10
  5
5C12
331
5C2F
  5
642B
331
5C0F
  5
5C11
331
5C12
  5
5C14
331
5C11
  5
5C13
331
5C30
  5
642C
331
5C15
  5
5C17
331
642C
  5
5BF3
331
5C14
  5
5C16
331
5C17
  5
5C19
331
5C16
  5
5C18
331
642B
  5
5BF2
331
5C13
  5
5C15
  0
SORTENTSTABLE
  5
7B9D
102
{ACAD_REACTORS
330
5DFF
102
}
330
5DFF
100
AcDbSortentsTable
330
5D53
331
5D60
  5
5D61
331
5D7D
  5
5D7E
331
5D69
  5
5D6A
331
5D59
  5
5D5A
331
5D72
  5
5D73
331
5D86
  5
5D88
331
5D62
  5
5D63
331
5D7F
  5
5D80
331
5D6B
  5
5D6C
331
5D5B
  5
5D5C
331
5D74
  5
5D75
331
5D56
  5
5D57
331
5D78
  5
5D79
331
5D64
  5
5D65
331
5D81
  5
5D83
331
5D6D
  5
5D6E
331
5D5D
  5
5D5E
331
5D76
  5
5D77
331
5D7A
  5
5D7B
331
5D88
  5
5DCB
331
5D66
  5
5D67
331
5D83
  5
5D84
331
5D6F
  5
5D70
331
5D5F
  5
5D60
331
5D68
  5
5D69
331
5D7C
  5
5D7D
331
5D85
  5
5D86
331
5D58
  5
5D59
331
5D71
  5
5D72
331
5D61
  5
5D62
331
5D6A
  5
5D6B
331
5D7E
  5
5D7F
331
5D5A
  5
5D5B
331
5D73
  5
5D74
331
5D63
  5
5D64
331
5D6C
  5
5D6D
331
5D80
  5
5D81
331
5D5C
  5
5D5D
331
5D57
  5
5D58
331
5D75
  5
5D76
331
5D79
  5
5D7A
331
5D65
  5
5D66
331
5D6E
  5
5D6F
331
5DCB
  5
5D56
331
5D5E
  5
5D5F
331
5D77
  5
5D78
331
5D7B
  5
5D7C
331
5D67
  5
5D68
331
5D70
  5
5D71
331
5D84
  5
5D85
  0
SORTENTSTABLE
  5
837F
102
{ACAD_REACTORS
330
5F69
102
}
330
5F69
100
AcDbSortentsTable
330
5F13
331
5F16
  5
5F18
331
82C6
  5
5F17
331
5F1D
  5
5F21
331
5F18
  5
5F1A
331
5F27
  5
5F29
331
5F22
  5
5F24
331
5F1B
  5
5F1D
331
5F25
  5
5F27
331
5F19
  5
5F1B
331
5F17
  5
5F19
331
5F28
  5
82C5
331
5F23
  5
5F25
331
5F1E
  5
5F22
331
82C5
  5
5F16
331
5F26
  5
5F28
331
5F21
  5
5F23
331
5F1C
  5
5F1E
331
5F24
  5
5F26
331
5F29
  5
82C6
331
5F1A
  5
5F1C
  0
SORTENTSTABLE
  5
83AD
102
{ACAD_REACTORS
330
6017
102
}
330
6017
100
AcDbSortentsTable
330
5FC0
331
5FCA
  5
5FCF
331
5FC9
  5
5FCC
331
5FC7
  5
5FCA
331
5FC6
  5
5FC9
331
5FC5
  5
5FC7
331
8101
  5
5FC4
331
5FC4
  5
5FC6
331
5FC3
  5
5FC5
331
6016
  5
5FCB
331
5FD5
  5
8116
331
8116
  5
5FC3
331
5FD4
  5
8101
331
5FD3
  5
6016
331
5FD2
  5
5FD5
331
5FD1
  5
5FD4
331
5FD0
  5
5FD3
331
5FCF
  5
5FD2
331
5FCC
  5
5FD1
331
5FCB
  5
5FD0
  0
SORTENTSTABLE
  5
7C35
102
{ACAD_REACTORS
330
62E5
102
}
330
62E5
100
AcDbSortentsTable
330
6249
  0
SORTENTSTABLE
  5
8551
102
{ACAD_REACTORS
330
8550
102
}
330
8550
100
AcDbSortentsTable
330
84E3
  0
DIMASSOC
  5
67E4
102
{ACAD_REACTORS
330
67DA
102
}
330
67DA
100
AcDbDimAssoc
330
67CD
 90
        3
 70
     0
 71
     0
  1
AcDbOsnapPointRef
 72
    13
331
5FE4
331
5FC3
 73
     2
 91
        0
 40
0.0
 10
0.0
 20
0.0
 30
2.000000000000000E+50
 75
     0
  1
AcDbOsnapPointRef
 72
     1
331
5FE4
331
5FC5
 73
     2
 91
        0
 40
0.9999999999999998
 10
0.0
 20
0.0
 30
2.000000000000000E+50
 75
     0
  0
DIMASSOC
  5
6819
102
{ACAD_REACTORS
330
680D
102
}
330
680D
100
AcDbDimAssoc
330
67FE
 90
        3
 70
     0
 71
     0
  1
AcDbOsnapPointRef
 72
     1
331
5D89
331
5D72
 73
     2
 91
        0
 40
1.0
 10
0.0
 20
0.0
 30
2.000000000000000E+50
 75
     0
  1
AcDbOsnapPointRef
 72
    13
331
5FE4
331
5FD0
 73
     2
 91
        0
 40
0.0
 10
0.0
 20
0.0
 30
2.000000000000000E+50
 75
     0
  0
DIMASSOC
  5
686A
102
{ACAD_REACTORS
330
6860
102
}
330
6860
100
AcDbDimAssoc
330
6853
 90
        3
 70
     0
 71
     0
  1
AcDbOsnapPointRef
 72
     2
331
5FE4
331
5FC4
 73
     2
 91
        0
 40
0.5
 10
0.0
 20
0.0
 30
0.0
 75
     0
  1
AcDbOsnapPointRef
 72
     1
331
5FE4
331
6016
 73
     2
 91
        0
 40
1.0
 10
0.0
 20
0.0
 30
2.000000000000000E+50
 75
     0
  0
DIMASSOC
  5
6886
102
{ACAD_REACTORS
330
687A
102
}
330
687A
100
AcDbDimAssoc
330
686B
 90
        3
 70
     0
 71
     0
  1
AcDbOsnapPointRef
 72
     1
331
5FE4
331
6016
 73
     2
 91
        0
 40
1.0
 10
0.0
 20
0.0
 30
2.000000000000000E+50
 75
     0
  1
AcDbOsnapPointRef
 72
     1
331
5F36
331
5F18
 73
     2
 91
        0
 40
1.0
 10
0.0
 20
0.0
 30
2.000000000000000E+50
 75
     0
  0
DIMASSOC
  5
68B4
102
{ACAD_REACTORS
330
68AA
102
}
330
68AA
100
AcDbDimAssoc
330
689D
 90
        3
 70
     0
 71
     0
  1
AcDbOsnapPointRef
 72
     1
331
5F36
331
5F18
 73
     2
 91
        0
 40
1.0
 10
0.0
 20
0.0
 30
2.000000000000000E+50
 75
     0
  1
AcDbOsnapPointRef
 72
     2
331
5F36
331
5F26
 73
     2
 91
        0
 40
0.5
 10
0.0
 20
0.0
 30
0.0
 75
     0
  0
DIMASSOC
  5
6964
102
{ACAD_REACTORS
330
695A
102
}
330
695A
100
AcDbDimAssoc
330
694D
 90
        3
 70
     0
 71
     0
  1
AcDbOsnapPointRef
 72
    13
331
5D89
331
5D56
 73
     2
 91
        0
 40
0.0
 10
0.0
 20
0.0
 30
2.000000000000000E+50
 75
     0
  1
AcDbOsnapPointRef
 72
     1
331
5DC4
331
5BF3
 73
     2
 91
        0
 40
1.0
 10
0.0
 20
0.0
 30
2.000000000000000E+50
 75
     0
  0
DIMASSOC
  5
697C
102
{ACAD_REACTORS
330
6972
102
}
330
6972
100
AcDbDimAssoc
330
6965
 90
        3
 70
     0
 71
     0
  1
AcDbOsnapPointRef
 72
     1
331
5DC4
331
5BF3
 73
     2
 91
        0
 40
1.0
 10
0.0
 20
0.0
 30
2.000000000000000E+50
 75
     0
  1
AcDbOsnapPointRef
 72
    13
331
5DC4
331
5BF2
 73
     2
 91
        0
 40
0.0
 10
0.0
 20
0.0
 30
2.000000000000000E+50
 75
     0
  0
DIMASSOC
  5
6AA1
102
{ACAD_REACTORS
330
6A97
102
}
330
6A97
100
AcDbDimAssoc
330
6A8A
 90
        2
 70
     0
 71
     0
  1
AcDbOsnapPointRef
 72
     1
331
5DC4
331
5BFD
 73
     2
 91
        0
 40
6.283185307179585
 10
0.0
 20
0.0
 30
2.000000000000000E+50
 75
     0
  0
DIMASSOC
  5
6B2E
102
{ACAD_REACTORS
330
6B24
102
}
330
6B24
100
AcDbDimAssoc
330
6B17
 90
        3
 70
     0
 71
     0
  1
AcDbOsnapPointRef
 72
    13
331
5F36
331
5F16
 73
     2
 91
        0
 40
0.0
 10
0.0
 20
0.0
 30
2.000000000000000E+50
 75
     0
  1
AcDbOsnapPointRef
 72
     1
331
5F36
331
5F17
 73
     2
 91
        0
 40
0.9999999999999998
 10
0.0
 20
0.0
 30
2.000000000000000E+50
 75
     0
  0
DIMASSOC
  5
6B58
102
{ACAD_REACTORS
330
6B4E
102
}
330
6B4E
100
AcDbDimAssoc
330
6B41
 90
        3
 70
     0
 71
     0
  1
AcDbOsnapPointRef
 72
     1
331
5DC4
331
5C28
 73
     2
 91
        0
 40
0.9999999999999998
 10
0.0
 20
0.0
 30
2.000000000000000E+50
 75
     0
  1
AcDbOsnapPointRef
 72
     6
331
5DC4
331
5BFC
 73
     2
 91
        0
 40
0.0
 10
0.0
 20
0.0
 30
0.0
332
5DC4
332
5BFD
 74
     2
 92
        0
 75
     0
  0
DIMASSOC
  5
6B70
102
{ACAD_REACTORS
330
6B66
102
}
330
6B66
100
AcDbDimAssoc
330
6B59
 90
        3
 70
     0
 71
     0
  1
AcDbOsnapPointRef
 72
     1
331
5DC4
331
5C01
 73
     2
 91
        0
 40
1.0
 10
0.0
 20
0.0
 30
2.000000000000000E+50
 75
     0
  1
AcDbOsnapPointRef
 72
     1
331
5DC4
331
5BF4
 73
     2
 91
        0
 40
1.0
 10
0.0
 20
0.0
 30
2.000000000000000E+50
 75
     0
  0
DIMASSOC
  5
7050
102
{ACAD_REACTORS
330
7046
102
}
330
7046
100
AcDbDimAssoc
330
7039
 90
        3
 70
     0
 71
     0
  1
AcDbOsnapPointRef
 72
    10
331
5FE4
331
5FC4
 73
     2
 91
        0
 40
0.0034338986823488
 10
0.0
 20
0.0
 30
0.0
 75
     0
  1
AcDbOsnapPointRef
 72
     8
331
5F36
331
5F26
 73
     2
 91
        0
 40
0.0034338986823488
 10
0.0
 20
0.0
 30
0.0
 75
     1
  1
AcDbOsnapPointRef
 72
    10
331
5FE4
331
5FC4
 73
     2
 91
        0
 40
0.0034338986823488
 10
0.0
 20
0.0
 30
0.0
 75
     0
  0
DIMASSOC
  5
8127
102
{ACAD_REACTORS
330
8126
102
}
330
8126
100
AcDbDimAssoc
330
8118
 90
        3
 70
     0
 71
     0
  1
AcDbOsnapPointRef
 72
     4
331
67FE
331
682E
 73
     0
 91
        0
 40
0.0
 10
0.0
 20
0.0
 30
0.0
 75
     0
  1
AcDbOsnapPointRef
 72
    13
331
5FE4
331
5FD2
 73
     0
 91
        0
 40
0.0
 10
0.0
 20
0.0
 30
2.000000000000000E+50
 75
     0
  0
DIMASSOC
  5
8167
102
{ACAD_REACTORS
330
8166
102
}
330
8166
100
AcDbDimAssoc
330
8159
 90
        3
 70
     0
 71
     0
  1
AcDbOsnapPointRef
 72
     4
331
8118
331
8157
 73
     0
 91
        0
 40
0.0
 10
0.0
 20
0.0
 30
0.0
 75
     0
  1
AcDbOsnapPointRef
 72
    13
331
5FE4
331
6016
 73
     0
 91
        0
 40
0.0
 10
0.0
 20
0.0
 30
2.000000000000000E+50
 75
     0
  0
DIMASSOC
  5
81DA
102
{ACAD_REACTORS
330
81D9
102
}
330
81D9
100
AcDbDimAssoc
330
81CA
 90
        1
 70
     0
 71
     0
  1
AcDbOsnapPointRef
 72
     1
331
5FE4
331
5FC7
 73
     0
 91
        0
 40
0.0
 10
0.0
 20
0.0
 30
2.000000000000000E+50
 75
     0
  0
LAYOUT
  5
22
102
{ACAD_REACTORS
330
1A
102
}
330
1A
100
AcDbPlotSettings
  1

  2
KONICA MINOLTA 501 PCL
  4
A4
  6

 40
5.027082920074462
 41
5.027085781097412
 42
5.027069091796875
 43
5.027069091796875
 44
209.9733276367186
 45
296.9259948730469
 46
0.0000000000000142
 47
7.775257024148741
 48
0.0
 49
0.0
140
0.0
141
0.0
142
1.0
143
0.9830178783071993
 70
 11956
 72
     1
 73
     1
 74
     1
  7
SEISA.ctb
 75
     0
147
1.017275496272808
 76
     0
 77
     2
 78
   300
148
-190.8476277085813
149
-210.6499346978903
100
AcDbLayout
  1
Model
 70
     1
 71
     0
 10
0.0
 20
0.0
 11
12.0
 21
9.0
 12
0.0
 22
0.0
 32
0.0
 14
0.0
 24
0.0
 34
0.0
 15
0.0
 25
0.0
 35
0.0
146
0.0
 13
0.0
 23
0.0
 33
0.0
 16
1.0
 26
0.0
 36
0.0
 17
0.0
 27
1.0
 37
0.0
 76
     0
330
1F
331
27A
1001
ACAD_PSEXT
1000
KONICA MINOLTA 501 PCL
1000
KONICA MINOLTA 501/421/361PCL
1000
IP_192.168.20.231_(1)
1000

1070
     0
  0
LAYOUT
  5
1E
102
{ACAD_REACTORS
330
1A
102
}
330
1A
100
AcDbPlotSettings
  1

  2
none_device
  4
Letter_(8.50_x_11.00_Inches)
  6

 40
6.349999904632567
 41
6.349999904632567
 42
6.350006103515625
 43
6.350006103515625
 44
215.8999938964844
 45
279.3999938964844
 46
0.0
 47
0.0
 48
0.0
 49
0.0
140
0.0
141
0.0
142
1.0
143
1.0
 70
 15024
 72
     1
 73
     1
 74
     5
  7
SEISA.ctb
 75
    16
147
1.0
 76
     0
 77
     2
 78
   300
148
0.0
149
0.0
100
AcDbLayout
  1
レイアウト1
 70
     1
 71
     1
 10
0.0
 20
0.0
 11
420.0
 21
297.0
 12
0.0
 22
0.0
 32
0.0
 14
1.000000000000000E+20
 24
1.000000000000000E+20
 34
1.000000000000000E+20
 15
-1.000000000000000E+20
 25
-1.000000000000000E+20
 35
-1.000000000000000E+20
146
0.0
 13
0.0
 23
0.0
 33
0.0
 16
1.0
 26
0.0
 36
0.0
 17
0.0
 27
1.0
 37
0.0
 76
     0
330
1B
  0
LAYOUT
  5
26
102
{ACAD_REACTORS
330
1A
102
}
330
1A
100
AcDbPlotSettings
  1

  2
none_device
  4
Letter_(8.50_x_11.00_Inches)
  6

 40
6.349999904632567
 41
6.349999904632567
 42
6.350006103515625
 43
6.350006103515625
 44
215.8999938964844
 45
279.3999938964844
 46
0.0
 47
0.0
 48
0.0
 49
0.0
140
0.0
141
0.0
142
1.0
143
1.0
 70
 15024
 72
     1
 73
     1
 74
     5
  7
SEISA.ctb
 75
    16
147
1.0
 76
     0
 77
     2
 78
   300
148
0.0
149
0.0
100
AcDbLayout
  1
レイアウト2
 70
     1
 71
     2
 10
0.0
 20
0.0
 11
12.0
 21
9.0
 12
0.0
 22
0.0
 32
0.0
 14
0.0
 24
0.0
 34
0.0
 15
0.0
 25
0.0
 35
0.0
146
0.0
 13
0.0
 23
0.0
 33
0.0
 16
1.0
 26
0.0
 36
0.0
 17
0.0
 27
1.0
 37
0.0
 76
     0
330
23
  0
MATERIAL
  5
27D
102
{ACAD_REACTORS
330
C4
102
}
330
C4
100
AcDbMaterial
  1
ByBlock
 73
     1
 78
     1
172
     1
176
     1
270
     1
274
     1
 94
       63
  0
MATERIAL
  5
27C
102
{ACAD_REACTORS
330
C4
102
}
330
C4
100
AcDbMaterial
  1
ByLayer
 73
     1
 78
     1
172
     1
176
     1
270
     1
274
     1
 94
       63
  0
MATERIAL
  5
27E
102
{ACAD_REACTORS
330
C4
102
}
330
C4
100
AcDbMaterial
  1
Global
 73
     1
 78
     1
172
     1
176
     1
270
     1
274
     1
 94
       63
  0
MLEADERSTYLE
  5
2D6
102
{ACAD_REACTORS
330
2D5
102
}
330
2D5
100
AcDbMLeaderStyle
170
     2
171
     1
172
     0
 90
        2
 40
0.0
 41
0.0
173
     1
 91
-1056964608
340
14
 92
       -2
290
     1
 42
2.0
291
     1
 43
0.36
  3
Standard
 44
4.0
300

342
11
174
     1
178
     6
175
     1
176
     0
 93
-1056964608
 45
4.0
292
     0
297
     0
 46
4.0
 94
-1056964608
 47
1.0
 49
1.0
140
1.0
293
     1
141
0.0
294
     1
177
     0
142
1.0
295
     0
296
     0
143
0.125
1001
ACAD_MLEADERVER
1070
     2
  0
MLINESTYLE
  5
18
102
{ACAD_REACTORS
330
17
102
}
330
17
100
AcDbMlineStyle
  2
STANDARD
 70
     0
  3

 62
   256
 51
90.0
 52
90.0
 71
     2
 49
0.5
 62
   256
  6
BYLAYER
 49
-0.5
 62
   256
  6
BYLAYER
  0
PLOTSETTINGS
  5
1C7E
102
{ACAD_REACTORS
330
19
102
}
330
19
100
AcDbPlotSettings
  1
SEISA基本
  2
none_device
  4
Letter_(8.50_x_11.00_Inches)
  6

 40
6.349999904632567
 41
6.349999904632567
 42
6.350006103515625
 43
6.350006103515625
 44
215.8999938964844
 45
279.3999938964844
 46
7.302498226506357
 47
0.0
 48
0.0
 49
0.0
140
0.0
141
0.0
142
1.0
143
1.574803221122935
 70
 11956
 72
     1
 73
     1
 74
     2
  7
SEISA.ctb
 75
     0
147
0.6349999711627054
 76
     0
 77
     2
 78
   300
148
0.0
149
0.0
1001
ACAD_PSEXT
1000
なし
1000
なし
1000
適切ではありません
1000
新しいプロッタ環境設定名を選択しない限り、レイアウトは印刷されません。
1070
     0
  0
ACDBPLACEHOLDER
  5
F
102
{ACAD_REACTORS
330
E
102
}
330
E
  0
SCALE
  5
29F3
102
{ACAD_REACTORS
330
2B3
102
}
330
2B3
100
AcDbScale
 70
     0
300
1:1.5
140
1.0
141
1.5
290
     0
  0
SCALE
  5
2B4
102
{ACAD_REACTORS
330
2B3
102
}
330
2B3
100
AcDbScale
 70
     0
300
1:1
140
1.0
141
1.0
290
     1
  0
SCALE
  5
2B5
102
{ACAD_REACTORS
330
2B3
102
}
330
2B3
100
AcDbScale
 70
     0
300
1:2
140
1.0
141
2.0
290
     0
  0
SCALE
  5
2B6
102
{ACAD_REACTORS
330
2B3
102
}
330
2B3
100
AcDbScale
 70
     0
300
1:4
140
1.0
141
4.0
290
     0
  0
SCALE
  5
2B7
102
{ACAD_REACTORS
330
2B3
102
}
330
2B3
100
AcDbScale
 70
     0
300
1:5
140
1.0
141
5.0
290
     0
  0
SCALE
  5
2B8
102
{ACAD_REACTORS
330
2B3
102
}
330
2B3
100
AcDbScale
 70
     0
300
1:8
140
1.0
141
8.0
290
     0
  0
SCALE
  5
2B9
102
{ACAD_REACTORS
330
2B3
102
}
330
2B3
100
AcDbScale
 70
     0
300
1:10
140
1.0
141
10.0
290
     0
  0
SCALE
  5
2BA
102
{ACAD_REACTORS
330
2B3
102
}
330
2B3
100
AcDbScale
 70
     0
300
1:16
140
1.0
141
16.0
290
     0
  0
SCALE
  5
2BB
102
{ACAD_REACTORS
330
2B3
102
}
330
2B3
100
AcDbScale
 70
     0
300
1:20
140
1.0
141
20.0
290
     0
  0
SCALE
  5
2BC
102
{ACAD_REACTORS
330
2B3
102
}
330
2B3
100
AcDbScale
 70
     0
300
1:30
140
1.0
141
30.0
290
     0
  0
SCALE
  5
2BD
102
{ACAD_REACTORS
330
2B3
102
}
330
2B3
100
AcDbScale
 70
     0
300
1:40
140
1.0
141
40.0
290
     0
  0
SCALE
  5
2BE
102
{ACAD_REACTORS
330
2B3
102
}
330
2B3
100
AcDbScale
 70
     0
300
1:50
140
1.0
141
50.0
290
     0
  0
SCALE
  5
2BF
102
{ACAD_REACTORS
330
2B3
102
}
330
2B3
100
AcDbScale
 70
     0
300
1:100
140
1.0
141
100.0
290
     0
  0
SCALE
  5
2C0
102
{ACAD_REACTORS
330
2B3
102
}
330
2B3
100
AcDbScale
 70
     0
300
2:1
140
2.0
141
1.0
290
     0
  0
SCALE
  5
2C1
102
{ACAD_REACTORS
330
2B3
102
}
330
2B3
100
AcDbScale
 70
     0
300
4:1
140
4.0
141
1.0
290
     0
  0
SCALE
  5
2C2
102
{ACAD_REACTORS
330
2B3
102
}
330
2B3
100
AcDbScale
 70
     0
300
8:1
140
8.0
141
1.0
290
     0
  0
SCALE
  5
2C3
102
{ACAD_REACTORS
330
2B3
102
}
330
2B3
100
AcDbScale
 70
     0
300
10:1
140
10.0
141
1.0
290
     0
  0
SCALE
  5
2C4
102
{ACAD_REACTORS
330
2B3
102
}
330
2B3
100
AcDbScale
 70
     0
300
100:1
140
100.0
141
1.0
290
     0
  0
SCALE
  5
2C5
102
{ACAD_REACTORS
330
2B3
102
}
330
2B3
100
AcDbScale
 70
     0
300
1/128" = 1'-0"
140
0.0078125
141
12.0
290
     0
  0
SCALE
  5
2C6
102
{ACAD_REACTORS
330
2B3
102
}
330
2B3
100
AcDbScale
 70
     0
300
1/64" = 1'-0"
140
0.015625
141
12.0
290
     0
  0
SCALE
  5
2C7
102
{ACAD_REACTORS
330
2B3
102
}
330
2B3
100
AcDbScale
 70
     0
300
1/32" = 1'-0"
140
0.03125
141
12.0
290
     0
  0
SCALE
  5
2C8
102
{ACAD_REACTORS
330
2B3
102
}
330
2B3
100
AcDbScale
 70
     0
300
1/16" = 1'-0"
140
0.0625
141
12.0
290
     0
  0
SCALE
  5
2C9
102
{ACAD_REACTORS
330
2B3
102
}
330
2B3
100
AcDbScale
 70
     0
300
3/32" = 1'-0"
140
0.09375
141
12.0
290
     0
  0
SCALE
  5
2CA
102
{ACAD_REACTORS
330
2B3
102
}
330
2B3
100
AcDbScale
 70
     0
300
1/8" = 1'-0"
140
0.125
141
12.0
290
     0
  0
SCALE
  5
2CB
102
{ACAD_REACTORS
330
2B3
102
}
330
2B3
100
AcDbScale
 70
     0
300
3/16" = 1'-0"
140
0.1875
141
12.0
290
     0
  0
SCALE
  5
2CC
102
{ACAD_REACTORS
330
2B3
102
}
330
2B3
100
AcDbScale
 70
     0
300
1/4" = 1'-0"
140
0.25
141
12.0
290
     0
  0
SCALE
  5
2CD
102
{ACAD_REACTORS
330
2B3
102
}
330
2B3
100
AcDbScale
 70
     0
300
3/8" = 1'-0"
140
0.375
141
12.0
290
     0
  0
SCALE
  5
2CE
102
{ACAD_REACTORS
330
2B3
102
}
330
2B3
100
AcDbScale
 70
     0
300
1/2" = 1'-0"
140
0.5
141
12.0
290
     0
  0
SCALE
  5
2CF
102
{ACAD_REACTORS
330
2B3
102
}
330
2B3
100
AcDbScale
 70
     0
300
3/4" = 1'-0"
140
0.75
141
12.0
290
     0
  0
SCALE
  5
2D0
102
{ACAD_REACTORS
330
2B3
102
}
330
2B3
100
AcDbScale
 70
     0
300
1" = 1'-0"
140
1.0
141
12.0
290
     0
  0
SCALE
  5
2D1
102
{ACAD_REACTORS
330
2B3
102
}
330
2B3
100
AcDbScale
 70
     0
300
1-1/2" = 1'-0"
140
1.5
141
12.0
290
     0
  0
SCALE
  5
2D2
102
{ACAD_REACTORS
330
2B3
102
}
330
2B3
100
AcDbScale
 70
     0
300
3" = 1'-0"
140
3.0
141
12.0
290
     0
  0
SCALE
  5
2D3
102
{ACAD_REACTORS
330
2B3
102
}
330
2B3
100
AcDbScale
 70
     0
300
6" = 1'-0"
140
6.0
141
12.0
290
     0
  0
SCALE
  5
2D4
102
{ACAD_REACTORS
330
2B3
102
}
330
2B3
100
AcDbScale
 70
     0
300
1'-0" = 1'-0"
140
12.0
141
12.0
290
     0
  0
TABLESTYLE
  5
122
102
{ACAD_XDICTIONARY
360
2F5
102
}
102
{ACAD_REACTORS
330
121
102
}
330
121
100
AcDbTableStyle
  3
Standard
 70
     0
 71
     0
 40
1.5
 41
1.5
280
     0
281
     0
  7
STANDARD
140
4.5
170
     2
 62
     0
 63
     7
283
     0
 90
      512
 91
        0
  1

274
    -2
284
     1
 64
     0
275
    -2
285
     1
 65
     0
276
    -2
286
     1
 66
     0
277
    -2
287
     1
 67
     0
278
    -2
288
     1
 68
     0
279
    -2
289
     1
 69
     0
  7
STANDARD
140
6.0
170
     5
 62
     0
 63
     7
283
     0
 90
      512
 91
        0
  1

274
    -2
284
     1
 64
     0
275
    -2
285
     1
 65
     0
276
    -2
286
     1
 66
     0
277
    -2
287
     1
 67
     0
278
    -2
288
     1
 68
     0
279
    -2
289
     1
 69
     0
  7
STANDARD
140
4.5
170
     5
 62
     0
 63
     7
283
     0
 90
      512
 91
        0
  1

274
    -2
284
     1
 64
     0
275
    -2
285
     1
 65
     0
276
    -2
286
     1
 66
     0
277
    -2
287
     1
 67
     0
278
    -2
288
     1
 68
     0
279
    -2
289
     1
 69
     0
  0
VISUALSTYLE
  5
285
102
{ACAD_REACTORS
330
27F
102
}
330
27F
100
AcDbVisualStyle
  2
2dWireframe
 70
     4
 71
     0
 72
     2
 73
     0
 90
        0
 40
-0.6
 41
-30.0
 62
     5
 63
     7
421
 16777215
 74
     1
 91
        4
 64
     7
 65
   257
 75
     1
175
     1
 42
1.0
 92
        0
 66
   257
 43
1.0
 76
     1
 77
     6
 78
     2
 67
     7
 79
     5
170
     0
171
     0
290
     0
174
     0
 93
        1
 44
0.0
173
     0
291
     0
 45
0.0
  0
VISUALSTYLE
  5
287
102
{ACAD_REACTORS
330
27F
102
}
330
27F
100
AcDbVisualStyle
  2
3D Hidden
 70
     6
 71
     1
 72
     2
 73
     2
 90
        0
 40
-0.6
 41
-30.0
 62
     5
 63
     7
421
 16777215
 74
     2
 91
        2
 64
     7
 65
   257
 75
     2
175
     1
 42
40.0
 92
        0
 66
   257
 43
1.0
 76
     1
 77
     6
 78
     2
 67
     7
 79
     3
170
     0
171
     0
290
     0
174
     0
 93
        1
 44
0.0
173
     0
291
     0
 45
0.0
  0
VISUALSTYLE
  5
286
102
{ACAD_REACTORS
330
27F
102
}
330
27F
100
AcDbVisualStyle
  2
3dWireframe
 70
     5
 71
     0
 72
     2
 73
     0
 90
        0
 40
-0.6
 41
-30.0
 62
     5
 63
     7
421
 16777215
 74
     1
 91
        4
 64
     7
 65
   257
 75
     1
175
     1
 42
1.0
 92
        0
 66
   257
 43
1.0
 76
     1
 77
     6
 78
     2
 67
     7
 79
     5
170
     0
171
     0
290
     0
174
     0
 93
        1
 44
0.0
173
     0
291
     0
 45
0.0
  0
VISUALSTYLE
  5
284
102
{ACAD_REACTORS
330
27F
102
}
330
27F
100
AcDbVisualStyle
  2
Basic
 70
     7
 71
     1
 72
     0
 73
     1
 90
        0
 40
-0.6
 41
-30.0
 62
     5
 63
     7
421
 16777215
 74
     0
 91
        4
 64
     7
 65
   257
 75
     1
175
     1
 42
1.0
 92
        8
 66
     7
 43
1.0
 76
     1
 77
     6
 78
     2
 67
     7
 79
     5
170
     0
171
     0
290
     0
174
     0
 93
        1
 44
0.0
173
     0
291
     1
 45
0.0
  0
VISUALSTYLE
  5
28B
102
{ACAD_REACTORS
330
27F
102
}
330
27F
100
AcDbVisualStyle
  2
Brighten
 70
    12
 71
     2
 72
     2
 73
     0
 90
        0
 40
-0.6
 41
-30.0
 62
     5
 63
     7
421
 16777215
 74
     1
 91
        4
 64
     7
 65
   257
 75
     1
175
     1
 42
1.0
 92
        8
 66
     7
 43
1.0
 76
     1
 77
     6
 78
     2
 67
     7
 79
     5
170
     0
171
     0
290
     0
174
     0
 93
        1
 44
50.0
173
     0
291
     1
 45
0.0
  0
VISUALSTYLE
  5
28F
102
{ACAD_REACTORS
330
27F
102
}
330
27F
100
AcDbVisualStyle
  2
ColorChange
 70
    16
 71
     2
 72
     2
 73
     3
 90
        0
 40
-0.6
 41
-30.0
 62
     5
 63
     8
421
  8421504
 74
     1
 91
        4
 64
     7
 65
   257
 75
     1
175
     1
 42
1.0
 92
        8
 66
     8
424
  8421504
 43
1.0
 76
     1
 77
     6
 78
     2
 67
     7
 79
     5
170
     0
171
     0
290
     0
174
     0
 93
        1
 44
0.0
173
     0
291
     1
 45
0.0
  0
VISUALSTYLE
  5
288
102
{ACAD_REACTORS
330
27F
102
}
330
27F
100
AcDbVisualStyle
  2
Conceptual
 70
     9
 71
     3
 72
     2
 73
     0
 90
        0
 40
-0.6
 41
-30.0
 62
     5
 63
     7
421
 16777215
 74
     2
 91
        2
 64
     7
 65
   257
 75
     1
175
     1
 42
40.0
 92
        8
 66
     7
 43
1.0
 76
     1
 77
     6
 78
     2
 67
     7
 79
     3
170
     0
171
     0
290
     0
174
     0
 93
        1
 44
0.0
173
     0
291
     0
 45
0.0
  0
VISUALSTYLE
  5
28A
102
{ACAD_REACTORS
330
27F
102
}
330
27F
100
AcDbVisualStyle
  2
Dim
 70
    11
 71
     2
 72
     2
 73
     0
 90
        0
 40
-0.6
 41
-30.0
 62
     5
 63
     7
421
 16777215
 74
     1
 91
        4
 64
     7
 65
   257
 75
     1
175
     1
 42
1.0
 92
        8
 66
     7
 43
1.0
 76
     1
 77
     6
 78
     2
 67
     7
 79
     5
170
     0
171
     0
290
     0
174
     0
 93
        1
 44
-50.0
173
     0
291
     1
 45
0.0
  0
VISUALSTYLE
  5
28E
102
{ACAD_REACTORS
330
27F
102
}
330
27F
100
AcDbVisualStyle
  2
Facepattern
 70
    15
 71
     2
 72
     2
 73
     0
 90
        0
 40
-0.6
 41
-30.0
 62
     5
 63
     7
421
 16777215
 74
     1
 91
        4
 64
     7
 65
   257
 75
     1
175
     1
 42
1.0
 92
        8
 66
     7
 43
1.0
 76
     1
 77
     6
 78
     2
 67
     7
 79
     5
170
     0
171
     0
290
     0
174
     0
 93
        1
 44
0.0
173
     0
291
     1
 45
0.0
  0
VISUALSTYLE
  5
280
102
{ACAD_REACTORS
330
27F
102
}
330
27F
100
AcDbVisualStyle
  2
Flat
 70
     0
 71
     2
 72
     1
 73
     1
 90
        2
 40
-0.6
 41
30.0
 62
     5
 63
     7
421
 16777215
 74
     0
 91
        4
 64
     7
 65
   257
 75
     1
175
     1
 42
1.0
 92
        8
 66
     7
 43
1.0
 76
     1
 77
     6
 78
     2
 67
     7
 79
     5
170
     0
171
     0
290
     0
174
     0
 93
       13
 44
0.0
173
     0
291
     1
 45
0.0
  0
VISUALSTYLE
  5
281
102
{ACAD_REACTORS
330
27F
102
}
330
27F
100
AcDbVisualStyle
  2
FlatWithEdges
 70
     1
 71
     2
 72
     1
 73
     1
 90
        2
 40
-0.6
 41
30.0
 62
     5
 63
     7
421
 16777215
 74
     1
 91
        4
 64
     7
 65
   257
 75
     1
175
     1
 42
1.0
 92
        0
 66
   257
 43
1.0
 76
     1
 77
     6
 78
     2
 67
     7
 79
     5
170
     0
171
     0
290
     0
174
     0
 93
       13
 44
0.0
173
     0
291
     1
 45
0.0
  0
VISUALSTYLE
  5
282
102
{ACAD_REACTORS
330
27F
102
}
330
27F
100
AcDbVisualStyle
  2
Gouraud
 70
     2
 71
     2
 72
     2
 73
     1
 90
        2
 40
-0.6
 41
30.0
 62
     5
 63
     7
421
 16777215
 74
     0
 91
        4
 64
     7
 65
   257
 75
     1
175
     1
 42
1.0
 92
        0
 66
     7
 43
1.0
 76
     1
 77
     6
 78
     2
 67
     7
 79
     5
170
     0
171
     0
290
     0
174
     0
 93
       13
 44
0.0
173
     0
291
     1
 45
0.0
  0
VISUALSTYLE
  5
283
102
{ACAD_REACTORS
330
27F
102
}
330
27F
100
AcDbVisualStyle
  2
GouraudWithEdges
 70
     3
 71
     2
 72
     2
 73
     1
 90
        2
 40
-0.6
 41
30.0
 62
     5
 63
     7
421
 16777215
 74
     1
 91
        4
 64
     7
 65
   257
 75
     1
175
     1
 42
1.0
 92
        0
 66
   257
 43
1.0
 76
     1
 77
     6
 78
     2
 67
     7
 79
     5
170
     0
171
     0
290
     0
174
     0
 93
       13
 44
0.0
173
     0
291
     1
 45
0.0
  0
VISUALSTYLE
  5
28D
102
{ACAD_REACTORS
330
27F
102
}
330
27F
100
AcDbVisualStyle
  2
Linepattern
 70
    14
 71
     2
 72
     2
 73
     0
 90
        0
 40
-0.6
 41
-30.0
 62
     5
 63
     7
421
 16777215
 74
     1
 91
        4
 64
     7
 65
   257
 75
     7
175
     7
 42
1.0
 92
        8
 66
     7
 43
1.0
 76
     1
 77
     6
 78
     2
 67
     7
 79
     5
170
     0
171
     0
290
     0
174
     0
 93
        1
 44
0.0
173
     0
291
     1
 45
0.0
  0
VISUALSTYLE
  5
289
102
{ACAD_REACTORS
330
27F
102
}
330
27F
100
AcDbVisualStyle
  2
Realistic
 70
     8
 71
     2
 72
     2
 73
     0
 90
        0
 40
-0.6
 41
-30.0
 62
     5
 63
     7
421
 16777215
 74
     1
 91
        0
 64
     7
 65
   257
 75
     1
175
     1
 42
1.0
 92
        8
 66
     8
424
  7895160
 43
1.0
 76
     1
 77
     6
 78
     2
 67
     7
 79
     5
170
     0
171
     0
290
     0
174
     0
 93
       13
 44
0.0
173
     0
291
     0
 45
0.0
  0
VISUALSTYLE
  5
28C
102
{ACAD_REACTORS
330
27F
102
}
330
27F
100
AcDbVisualStyle
  2
Thicken
 70
    13
 71
     2
 72
     2
 73
     0
 90
        0
 40
-0.6
 41
-30.0
 62
     5
 63
     7
421
 16777215
 74
     1
 91
        4
 64
     7
 65
   257
 75
     1
175
     1
 42
1.0
 92
       12
 66
     7
 43
1.0
 76
     1
 77
     6
 78
     2
 67
     7
 79
     5
170
     0
171
     0
290
     0
174
     0
 93
        1
 44
0.0
173
     0
291
     1
 45
0.0
  0
DICTIONARYVAR
  5
2FA
102
{ACAD_REACTORS
330
34
102
}
330
34
100
DictionaryVariables
280
     0
  1
1:1.5
  0
DICTIONARYVAR
  5
2F8
102
{ACAD_REACTORS
330
34
102
}
330
34
100
DictionaryVariables
280
     0
  1
STANDARD
  0
DICTIONARYVAR
  5
140
102
{ACAD_REACTORS
330
34
102
}
330
34
100
DictionaryVariables
280
     0
  1
STANDARD
  0
DICTIONARYVAR
  5
AC
102
{ACAD_REACTORS
330
34
102
}
330
34
100
DictionaryVariables
280
     0
  1
1
  0
DICTIONARYVAR
  5
35
102
{ACAD_REACTORS
330
34
102
}
330
34
100
DictionaryVariables
280
     0
  1
1
  0
DICTIONARYVAR
  5
661E
102
{ACAD_REACTORS
330
34
102
}
330
34
100
DictionaryVariables
280
     0
  1
1
  0
DICTIONARYVAR
  5
661F
102
{ACAD_REACTORS
330
34
102
}
330
34
100
DictionaryVariables
280
     0
  1
15
  0
DICTIONARYVAR
  5
2FB
102
{ACAD_REACTORS
330
34
102
}
330
34
100
DictionaryVariables
280
     0
  1
0
  0
DICTIONARYVAR
  5
2F9
102
{ACAD_REACTORS
330
34
102
}
330
34
100
DictionaryVariables
280
     0
  1
0
  0
DICTIONARY
  5
161B
102
{ACAD_REACTORS
330
49
102
}
330
49
100
AcDbDictionary
281
     1
  0
DICTIONARY
  5
4A
102
{ACAD_REACTORS
330
49
102
}
330
49
100
AcDbDictionary
281
     1
  0
XRECORD
  5
12B
102
{ACAD_REACTORS
330
49
102
}
330
49
100
AcDbXrecord
280
     1
 90
-1023410169
  0
DICTIONARY
  5
2F5
330
122
100
AcDbDictionary
280
     1
281
     1
  3
ACAD_ROUNDTRIP_2008_TABLESTYLE_CELLSTYLEMAP
360
85FF
  0
CELLSTYLEMAP
  5
85FF
102
{ACAD_REACTORS
330
2F5
102
}
330
2F5
100
AcDbCellStyleMap
 90
        3
300
CELLSTYLE
  1
TABLEFORMAT_BEGIN
 90
        5
170
     1
 91
        0
 92
    32768
 62
   257
 93
        1
300
CONTENTFORMAT
  1
CONTENTFORMAT_BEGIN
 90
        0
 91
        0
 92
      512
 93
        0
300

 40
0.0
140
1.0
 94
        5
 62
     0
340
11
144
6.0
309
CONTENTFORMAT_END
171
     1
301
MARGIN
  1
CELLMARGIN_BEGIN
 40
1.5
 40
1.5
 40
1.5
 40
1.5
 40
0.18
 40
0.18
309
CELLMARGIN_END
 94
        6
 95
        1
302
GRIDFORMAT
  1
GRIDFORMAT_BEGIN
 90
        0
 91
        1
 62
     0
 92
       -2
340
0
 93
        0
 40
0.045
309
GRIDFORMAT_END
 95
        2
302
GRIDFORMAT
  1
GRIDFORMAT_BEGIN
 90
        0
 91
        1
 62
     0
 92
       -2
340
0
 93
        0
 40
0.045
309
GRIDFORMAT_END
 95
        4
302
GRIDFORMAT
  1
GRIDFORMAT_BEGIN
 90
        0
 91
        1
 62
     0
 92
       -2
340
0
 93
        0
 40
0.045
309
GRIDFORMAT_END
 95
        8
302
GRIDFORMAT
  1
GRIDFORMAT_BEGIN
 90
        0
 91
        1
 62
     0
 92
       -2
340
0
 93
        0
 40
0.045
309
GRIDFORMAT_END
 95
       16
302
GRIDFORMAT
  1
GRIDFORMAT_BEGIN
 90
        0
 91
        1
 62
     0
 92
       -2
340
0
 93
        0
 40
0.045
309
GRIDFORMAT_END
 95
       32
302
GRIDFORMAT
  1
GRIDFORMAT_BEGIN
 90
        0
 91
        1
 62
     0
 92
       -2
340
0
 93
        0
 40
0.045
309
GRIDFORMAT_END
309
TABLEFORMAT_END
  1
CELLSTYLE_BEGIN
 90
        1
 91
        1
300
_TITLE
309
CELLSTYLE_END
300
CELLSTYLE
  1
TABLEFORMAT_BEGIN
 90
        5
170
     1
 91
        0
 92
        0
 62
   257
 93
        1
300
CONTENTFORMAT
  1
CONTENTFORMAT_BEGIN
 90
        0
 91
        0
 92
      512
 93
        0
300

 40
0.0
140
1.0
 94
        5
 62
     0
340
11
144
4.5
309
CONTENTFORMAT_END
171
     1
301
MARGIN
  1
CELLMARGIN_BEGIN
 40
1.5
 40
1.5
 40
1.5
 40
1.5
 40
0.18
 40
0.18
309
CELLMARGIN_END
 94
        6
 95
        1
302
GRIDFORMAT
  1
GRIDFORMAT_BEGIN
 90
        0
 91
        1
 62
     0
 92
       -2
340
0
 93
        0
 40
0.045
309
GRIDFORMAT_END
 95
        2
302
GRIDFORMAT
  1
GRIDFORMAT_BEGIN
 90
        0
 91
        1
 62
     0
 92
       -2
340
0
 93
        0
 40
0.045
309
GRIDFORMAT_END
 95
        4
302
GRIDFORMAT
  1
GRIDFORMAT_BEGIN
 90
        0
 91
        1
 62
     0
 92
       -2
340
0
 93
        0
 40
0.045
309
GRIDFORMAT_END
 95
        8
302
GRIDFORMAT
  1
GRIDFORMAT_BEGIN
 90
        0
 91
        1
 62
     0
 92
       -2
340
0
 93
        0
 40
0.045
309
GRIDFORMAT_END
 95
       16
302
GRIDFORMAT
  1
GRIDFORMAT_BEGIN
 90
        0
 91
        1
 62
     0
 92
       -2
340
0
 93
        0
 40
0.045
309
GRIDFORMAT_END
 95
       32
302
GRIDFORMAT
  1
GRIDFORMAT_BEGIN
 90
        0
 91
        1
 62
     0
 92
       -2
340
0
 93
        0
 40
0.045
309
GRIDFORMAT_END
309
TABLEFORMAT_END
  1
CELLSTYLE_BEGIN
 90
        2
 91
        1
300
_HEADER
309
CELLSTYLE_END
300
CELLSTYLE
  1
TABLEFORMAT_BEGIN
 90
        5
170
     1
 91
        0
 92
        0
 62
   257
 93
        1
300
CONTENTFORMAT
  1
CONTENTFORMAT_BEGIN
 90
        0
 91
        0
 92
      512
 93
        0
300

 40
0.0
140
1.0
 94
        2
 62
     0
340
11
144
4.5
309
CONTENTFORMAT_END
171
     1
301
MARGIN
  1
CELLMARGIN_BEGIN
 40
1.5
 40
1.5
 40
1.5
 40
1.5
 40
0.18
 40
0.18
309
CELLMARGIN_END
 94
        6
 95
        1
302
GRIDFORMAT
  1
GRIDFORMAT_BEGIN
 90
        0
 91
        1
 62
     0
 92
       -2
340
0
 93
        0
 40
0.045
309
GRIDFORMAT_END
 95
        2
302
GRIDFORMAT
  1
GRIDFORMAT_BEGIN
 90
        0
 91
        1
 62
     0
 92
       -2
340
0
 93
        0
 40
0.045
309
GRIDFORMAT_END
 95
        4
302
GRIDFORMAT
  1
GRIDFORMAT_BEGIN
 90
        0
 91
        1
 62
     0
 92
       -2
340
0
 93
        0
 40
0.045
309
GRIDFORMAT_END
 95
        8
302
GRIDFORMAT
  1
GRIDFORMAT_BEGIN
 90
        0
 91
        1
 62
     0
 92
       -2
340
0
 93
        0
 40
0.045
309
GRIDFORMAT_END
 95
       16
302
GRIDFORMAT
  1
GRIDFORMAT_BEGIN
 90
        0
 91
        1
 62
     0
 92
       -2
340
0
 93
        0
 40
0.045
309
GRIDFORMAT_END
 95
       32
302
GRIDFORMAT
  1
GRIDFORMAT_BEGIN
 90
        0
 91
        1
 62
     0
 92
       -2
340
0
 93
        0
 40
0.045
309
GRIDFORMAT_END
309
TABLEFORMAT_END
  1
CELLSTYLE_BEGIN
 90
        3
 91
        2
300
_DATA
309
CELLSTYLE_END
  0
ENDSEC
  0
EOF
