  0
SECTION
  2
HEADER
  9
$ACADVER
  1
AC1021
  9
$ACADMAINTVER
 70
    26
  9
$DWGCODEPAGE
  3
ANSI_932
  9
$LASTSAVEDBY
  1
Htm_Terada
  9
$CUSTOMPROPERTYTAG
  1
AmdtFileType
  9
$CUSTOMPROPERTY
  1
84
  9
$INSBASE
 10
0.0
 20
0.0
 30
0.0
  9
$EXTMIN
 10
187.3169356770781
 20
214.2315605554036
 30
0.0
  9
$EXTMAX
 10
442.4045745072535
 20
392.7363700179036
 30
0.0
  9
$LIMMIN
 10
0.0000002871507832
 20
0.0000005540730967
  9
$LIMMAX
 10
630.0000002871508
 20
445.5000005540731
  9
$ORTHOMODE
 70
     0
  9
$REGENMODE
 70
     1
  9
$FILLMODE
 70
     1
  9
$QTEXTMODE
 70
     0
  9
$MIRRTEXT
 70
     1
  9
$LTSCALE
 40
1.5
  9
$ATTMODE
 70
     1
  9
$TEXTSIZE
 40
25.0
  9
$TRACEWID
 40
1.0
  9
$TEXTSTYLE
  7
SEISA
  9
$CLAYER
  8
AM_11 想像線
  9
$CELTYPE
  6
ByLayer
  9
$CECOLOR
 62
   256
  9
$CELTSCALE
 40
1.0
  9
$DISPSILH
 70
     0
  9
$DIMSCALE
 40
1.5
  9
$DIMASZ
 40
2.5
  9
$DIMEXO
 40
0.625
  9
$DIMDLI
 40
10.0
  9
$DIMRND
 40
0.0
  9
$DIMDLE
 40
0.0
  9
$DIMEXE
 40
0.625
  9
$DIMTP
 40
0.1
  9
$DIMTM
 40
0.1
  9
$DIMTXT
 40
3.5
  9
$DIMCEN
 40
0.0
  9
$DIMTSZ
 40
0.0
  9
$DIMTOL
 70
     0
  9
$DIMLIM
 70
     0
  9
$DIMTIH
 70
     0
  9
$DIMTOH
 70
     0
  9
$DIMSE1
 70
     0
  9
$DIMSE2
 70
     0
  9
$DIMTAD
 70
     3
  9
$DIMZIN
 70
     8
  9
$DIMBLK
  1
Open30
  9
$DIMASO
 70
     1
  9
$DIMSHO
 70
     1
  9
$DIMPOST
  1

  9
$DIMAPOST
  1
"
  9
$DIMALT
 70
     0
  9
$DIMALTD
 70
     2
  9
$DIMALTF
 40
0.0393701
  9
$DIMLFAC
 40
1.0
  9
$DIMTOFL
 70
     1
  9
$DIMTVP
 40
0.0
  9
$DIMTIX
 70
     0
  9
$DIMSOXD
 70
     0
  9
$DIMSAH
 70
     0
  9
$DIMBLK1
  1

  9
$DIMBLK2
  1

  9
$DIMSTYLE
  2
SEISA
  9
$DIMCLRD
 70
     3
  9
$DIMCLRE
 70
     3
  9
$DIMCLRT
 70
     3
  9
$DIMTFAC
 40
0.71
  9
$DIMGAP
 40
1.5
  9
$DIMJUST
 70
     0
  9
$DIMSD1
 70
     0
  9
$DIMSD2
 70
     0
  9
$DIMTOLJ
 70
     0
  9
$DIMTZIN
 70
     0
  9
$DIMALTZ
 70
     0
  9
$DIMALTTZ
 70
     8
  9
$DIMUPT
 70
     0
  9
$DIMDEC
 70
     2
  9
$DIMTDEC
 70
     2
  9
$DIMALTU
 70
     2
  9
$DIMALTTD
 70
     2
  9
$DIMTXSTY
  7
SEISA
  9
$DIMAUNIT
 70
     0
  9
$DIMADEC
 70
     0
  9
$DIMALTRND
 40
0.0
  9
$DIMAZIN
 70
     2
  9
$DIMDSEP
 70
    46
  9
$DIMATFIT
 70
     3
  9
$DIMFRAC
 70
     0
  9
$DIMLDRBLK
  1
Open30
  9
$DIMLUNIT
 70
     2
  9
$DIMLWD
 70
    -1
  9
$DIMLWE
 70
    -1
  9
$DIMTMOVE
 70
     0
  9
$DIMFXL
 40
1.0
  9
$DIMFXLON
 70
     0
  9
$DIMJOGANG
 40
0.7853981633974483
  9
$DIMTFILL
 70
     0
  9
$DIMTFILLCLR
 70
     0
  9
$DIMARCSYM
 70
     1
  9
$DIMLTYPE
  6

  9
$DIMLTEX1
  6

  9
$DIMLTEX2
  6

  9
$LUNITS
 70
     2
  9
$LUPREC
 70
     2
  9
$SKETCHINC
 40
1.0
  9
$FILLETRAD
 40
3.75
  9
$AUNITS
 70
     0
  9
$AUPREC
 70
     0
  9
$MENU
  1
.
  9
$ELEVATION
 40
0.0
  9
$PELEVATION
 40
0.0
  9
$THICKNESS
 40
0.0
  9
$LIMCHECK
 70
     0
  9
$CHAMFERA
 40
1.5
  9
$CHAMFERB
 40
1.5
  9
$CHAMFERC
 40
1.5
  9
$CHAMFERD
 40
0.7853981633974581
  9
$SKPOLY
 70
     0
  9
$TDCREATE
 40
2454896.518201308
  9
$TDUCREATE
 40
2454896.143201308
  9
$TDUPDATE
 40
2456478.690551933
  9
$TDUUPDATE
 40
2456478.315551933
  9
$TDINDWG
 40
0.5190073843
  9
$TDUSRTIMER
 40
0.5190066667
  9
$USRTIMER
 70
     1
  9
$ANGBASE
 50
0.0
  9
$ANGDIR
 70
     0
  9
$PDMODE
 70
     0
  9
$PDSIZE
 40
0.0
  9
$PLINEWID
 40
0.0
  9
$SPLFRAME
 70
     0
  9
$SPLINETYPE
 70
     6
  9
$SPLINESEGS
 70
     8
  9
$HANDSEED
  5
A551
  9
$SURFTAB1
 70
     6
  9
$SURFTAB2
 70
     6
  9
$SURFTYPE
 70
     6
  9
$SURFU
 70
     6
  9
$SURFV
 70
     6
  9
$UCSBASE
  2

  9
$UCSNAME
  2

  9
$UCSORG
 10
0.0
 20
0.0
 30
0.0
  9
$UCSXDIR
 10
1.0
 20
0.0
 30
0.0
  9
$UCSYDIR
 10
0.0
 20
1.0
 30
0.0
  9
$UCSORTHOREF
  2

  9
$UCSORTHOVIEW
 70
     0
  9
$UCSORGTOP
 10
0.0
 20
0.0
 30
0.0
  9
$UCSORGBOTTOM
 10
0.0
 20
0.0
 30
0.0
  9
$UCSORGLEFT
 10
0.0
 20
0.0
 30
0.0
  9
$UCSORGRIGHT
 10
0.0
 20
0.0
 30
0.0
  9
$UCSORGFRONT
 10
0.0
 20
0.0
 30
0.0
  9
$UCSORGBACK
 10
0.0
 20
0.0
 30
0.0
  9
$PUCSBASE
  2

  9
$PUCSNAME
  2

  9
$PUCSORG
 10
0.0
 20
0.0
 30
0.0
  9
$PUCSXDIR
 10
1.0
 20
0.0
 30
0.0
  9
$PUCSYDIR
 10
0.0
 20
1.0
 30
0.0
  9
$PUCSORTHOREF
  2

  9
$PUCSORTHOVIEW
 70
     0
  9
$PUCSORGTOP
 10
0.0
 20
0.0
 30
0.0
  9
$PUCSORGBOTTOM
 10
0.0
 20
0.0
 30
0.0
  9
$PUCSORGLEFT
 10
0.0
 20
0.0
 30
0.0
  9
$PUCSORGRIGHT
 10
0.0
 20
0.0
 30
0.0
  9
$PUCSORGFRONT
 10
0.0
 20
0.0
 30
0.0
  9
$PUCSORGBACK
 10
0.0
 20
0.0
 30
0.0
  9
$USERI1
 70
     0
  9
$USERI2
 70
     0
  9
$USERI3
 70
     0
  9
$USERI4
 70
     0
  9
$USERI5
 70
     0
  9
$USERR1
 40
0.0
  9
$USERR2
 40
0.0
  9
$USERR3
 40
0.0
  9
$USERR4
 40
0.0
  9
$USERR5
 40
0.0
  9
$WORLDVIEW
 70
     1
  9
$SHADEDGE
 70
     3
  9
$SHADEDIF
 70
    70
  9
$TILEMODE
 70
     1
  9
$MAXACTVP
 70
    64
  9
$PINSBASE
 10
0.0
 20
0.0
 30
0.0
  9
$PLIMCHECK
 70
     0
  9
$PEXTMIN
 10
1.000000000000000E+20
 20
1.000000000000000E+20
 30
1.000000000000000E+20
  9
$PEXTMAX
 10
-1.000000000000000E+20
 20
-1.000000000000000E+20
 30
-1.000000000000000E+20
  9
$PLIMMIN
 10
0.0
 20
0.0
  9
$PLIMMAX
 10
420.0
 20
297.0
  9
$UNITMODE
 70
     0
  9
$VISRETAIN
 70
     1
  9
$PLINEGEN
 70
     0
  9
$PSLTSCALE
 70
     1
  9
$TREEDEPTH
 70
  3020
  9
$CMLSTYLE
  2
Standard
  9
$CMLJUST
 70
     0
  9
$CMLSCALE
 40
20.0
  9
$PROXYGRAPHICS
 70
     1
  9
$MEASUREMENT
 70
     1
  9
$CELWEIGHT
370
    -1
  9
$ENDCAPS
280
     0
  9
$JOINSTYLE
280
     0
  9
$LWDISPLAY
290
     0
  9
$INSUNITS
 70
     4
  9
$HYPERLINKBASE
  1

  9
$STYLESHEET
  1
SEISA.CTB
  9
$XEDIT
290
     1
  9
$CEPSNTYPE
380
     0
  9
$PSTYLEMODE
290
     1
  9
$FINGERPRINTGUID
  2
{3CDCBD73-765C-4F29-BCFB-A5C50049448F}
  9
$VERSIONGUID
  2
{9C992E18-C5E5-4523-B39B-E63C1F2C4B66}
  9
$EXTNAMES
290
     1
  9
$PSVPSCALE
 40
0.0
  9
$OLESTARTUP
290
     0
  9
$SORTENTS
280
   127
  9
$INDEXCTL
280
     0
  9
$HIDETEXT
280
     0
  9
$XCLIPFRAME
290
     0
  9
$HALOGAP
280
     0
  9
$OBSCOLOR
 70
   257
  9
$OBSLTYPE
280
     0
  9
$INTERSECTIONDISPLAY
280
     0
  9
$INTERSECTIONCOLOR
 70
   257
  9
$DIMASSOC
280
     2
  9
$PROJECTNAME
  1

  9
$CAMERADISPLAY
290
     0
  9
$LENSLENGTH
 40
50.0
  9
$CAMERAHEIGHT
 40
0.0
  9
$STEPSPERSEC
 40
2.0
  9
$STEPSIZE
 40
6.0
  9
$3DDWFPREC
 40
2.0
  9
$PSOLWIDTH
 40
0.25
  9
$PSOLHEIGHT
 40
4.0
  9
$LOFTANG1
 40
1.570796326794896
  9
$LOFTANG2
 40
1.570796326794896
  9
$LOFTMAG1
 40
0.0
  9
$LOFTMAG2
 40
0.0
  9
$LOFTPARAM
 70
     7
  9
$LOFTNORMALS
280
     1
  9
$LATITUDE
 40
37.795
  9
$LONGITUDE
 40
-122.394
  9
$NORTHDIRECTION
 40
0.0
  9
$TIMEZONE
 70
 -8000
  9
$LIGHTGLYPHDISPLAY
280
     1
  9
$TILEMODELIGHTSYNCH
280
     1
  9
$CMATERIAL
347
27C
  9
$SOLIDHIST
280
     1
  9
$SHOWHIST
280
     1
  9
$DWFFRAME
280
     2
  9
$DGNFRAME
280
     0
  9
$REALWORLDSCALE
290
     1
  9
$INTERFERECOLOR
 62
     1
  9
$INTERFEREOBJVS
345
289
  9
$INTERFEREVPVS
346
286
  9
$CSHADOW
280
     0
  9
$SHADOWPLANELOCATION
 40
0.0
  0
ENDSEC
  0
SECTION
  2
CLASSES
  0
CLASS
  1
ACDBDICTIONARYWDFLT
  2
AcDbDictionaryWithDefault
  3
ObjectDBX Classes
 90
        0
 91
        1
280
     0
281
     0
  0
CLASS
  1
AMGSETTINGSOBJ
  2
AmgSettingsObj
  3
"AcadM|Product Description: AutoCAD Mechanical|Company: Autodesk, Inc."
 90
     1024
 91
        2
280
     0
281
     0
  0
CLASS
  1
ACME_DOCUMENT
  2
AcMeDbDoc
  3
AcMeServices
 90
     1024
 91
        1
280
     0
281
     0
  0
CLASS
  1
ACMESCOPE
  2
AcMeScope
  3
AcMeServices
 90
     1024
 91
        1
280
     0
281
     0
  0
CLASS
  1
ACMECOMMANDHISTORY
  2
AcMeCommandHistory
  3
AcMeServices
 90
     1024
 91
        1
280
     0
281
     0
  0
CLASS
  1
DICTIONARYVAR
  2
AcDbDictionaryVar
  3
ObjectDBX Classes
 90
        0
 91
        9
280
     0
281
     0
  0
CLASS
  1
ACIMSYSVARMAN
  2
AcImSysVarManager
  3
AcMeServices
 90
     1024
 91
        5
280
     0
281
     0
  0
CLASS
  1
ACIMREALSYSVAR
  2
AcImRealSysVar
  3
AcMeServices
 90
     1024
 91
        1
280
     0
281
     0
  0
CLASS
  1
ACIMINTSYSVAR
  2
AcImIntSysVar
  3
AcMeServices
 90
     1024
 91
       27
280
     0
281
     0
  0
CLASS
  1
ACMEDRAWINGMAN
  2
AcMeDrawingMan
  3
AcMeServices
 90
     1024
 91
        1
280
     0
281
     0
  0
CLASS
  1
ACMEVIEW
  2
AcMeView
  3
AcMeServices
 90
     1024
 91
        1
280
     0
281
     0
  0
CLASS
  1
ACDBENTITYCACHE
  2
AcMeEntityCache
  3
AcMeServices
 90
     1024
 91
        1
280
     0
281
     0
  0
CLASS
  1
GSMANAGER
  2
AcMeGSManager
  3
AcMeServices
 90
     1024
 91
        1
280
     0
281
     0
  0
CLASS
  1
AMDTINTERNALREACTOR
  2
AmdtInternalReactor
  3
AcMeServices
 90
     1024
 91
        2
280
     0
281
     0
  0
CLASS
  1
ACMESTATEMGR
  2
AcMeStateMgr
  3
AcMeServices
 90
     1024
 91
        1
280
     0
281
     0
  0
CLASS
  1
ACGREFMASTER
  2
AcGrefMaster
  3
AcAttribServices
 90
     1024
 91
        1
280
     0
281
     0
  0
CLASS
  1
ACME_DATABASE
  2
AcMeDbDatabase
  3
AcMeServices
 90
     1024
 91
        1
280
     0
281
     0
  0
CLASS
  1
ACRFINSADJUSTERMGR
  2
AcRfInsAdjusterMgr
  3
AcMeServices
 90
     1024
 91
        1
280
     0
281
     0
  0
CLASS
  1
ACGREFACADMASTER
  2
AcGrefacadMaster
  3
AcGrefServices
 90
     1024
 91
        1
280
     0
281
     0
  0
CLASS
  1
AMIMASTER
  2
AmiMaster
  3
AmiServices
 90
     1024
 91
        1
280
     0
281
     0
  0
CLASS
  1
ACIMSTRSYSVAR
  2
AcImStrSysVar
  3
AcMeServices
 90
     1024
 91
        5
280
     0
281
     0
  0
CLASS
  1
ACMSTANDARDJIS
  2
AcmStandardJIS
  3
"Amdt_StdImp|Product Description: AutoCAD Mechanical|Company: Autodesk, Inc."
 90
     1024
 91
        0
280
     0
281
     0
  0
CLASS
  1
AMGOBJPROPCFG
  2
AmgObjPropCfg
  3
"AmgLay|Product Description: AutoCAD Mechanical|Company: Autodesk, Inc."
 90
     1025
 91
        1
280
     0
281
     0
  0
CLASS
  1
ACMSURFSTANDARDJIS
  2
AcmSurfTextStdJIS
  3
"Amdt_StdImp|Product Description: AutoCAD Mechanical|Company: Autodesk, Inc."
 90
     1024
 91
        0
280
     0
281
     0
  0
CLASS
  1
ACMFCFSTANDARDJIS
  2
AcmFCFStdJIS
  3
"Amdt_StdImp|Product Description: AutoCAD Mechanical|Company: Autodesk, Inc."
 90
     1024
 91
        0
280
     0
281
     0
  0
CLASS
  1
ACMWELDSTANDARDJIS
  2
AcmWeldingStdJIS
  3
"Amdt_StdImp|Product Description: AutoCAD Mechanical|Company: Autodesk, Inc."
 90
     1024
 91
        0
280
     0
281
     0
  0
CLASS
  1
ACMIDSTANDARDJIS
  2
AcmIdStdJIS
  3
"Amdt_StdImp|Product Description: AutoCAD Mechanical|Company: Autodesk, Inc."
 90
     1024
 91
        0
280
     0
281
     0
  0
CLASS
  1
ACMDATUMSTANDARDJIS
  2
AcmDatumStdJIS
  3
"Amdt_StdImp|Product Description: AutoCAD Mechanical|Company: Autodesk, Inc."
 90
     1024
 91
        0
280
     0
281
     0
  0
CLASS
  1
ACMBOMSTANDARDJIS
  2
AcmBOMStdJIS
  3
"Amdt_StdImp|Product Description: AutoCAD Mechanical|Company: Autodesk, Inc."
 90
     1024
 91
        0
280
     0
281
     0
  0
CLASS
  1
ACMDETAILSTANDARDJIS
  2
AmdtDetailSymStdJIS
  3
"Amdt_StdImp|Product Description: AutoCAD Mechanical|Company: Autodesk, Inc."
 90
     1024
 91
        0
280
     0
281
     0
  0
CLASS
  1
ACMSECTIONSTANDARDJIS
  2
AmdtSectionSymStdJIS
  3
"Amdt_StdImp|Product Description: AutoCAD Mechanical|Company: Autodesk, Inc."
 90
     1024
 91
        0
280
     0
281
     0
  0
CLASS
  1
ACMCENTERLINESTANDARDJIS
  2
AmdtCenterLineStdJIS
  3
"Amdt_StdImp|Product Description: AutoCAD Mechanical|Company: Autodesk, Inc."
 90
     1024
 91
        0
280
     0
281
     0
  0
CLASS
  1
ACMTHREADLINESTANDARDJIS
  2
AmdtThreadLineStdJIS
  3
"Amdt_StdImp|Product Description: AutoCAD Mechanical|Company: Autodesk, Inc."
 90
     1024
 91
        0
280
     0
281
     0
  0
CLASS
  1
ACAMGLAYSTD
  2
AcAmgLayStd
  3
"AmgLay|Product Description: AutoCAD Mechanical|Company: Autodesk, Inc."
 90
     1024
 91
        1
280
     0
281
     0
  0
CLASS
  1
ACAMGDIMSTD
  2
AcAmgDimStd
  3
"AmgDim|Product Description: AutoCAD Mechanical|Company: Autodesk, Inc."
 90
     1024
 91
        1
280
     0
281
     0
  0
CLASS
  1
ACAMGTITLESTD
  2
AcAmgTitleStd
  3
"AmgTitle|Product Description: AutoCAD Mechanical|Company: Autodesk, Inc."
 90
     4095
 91
        1
280
     0
281
     0
  0
CLASS
  1
ACMDATADICTIONARY
  2
AcmDataDictionary
  3
"AcmSymBB|Product Description: AutoCAD Mechanical|Company: Autodesk, Inc."
 90
     1024
 91
        1
280
     0
281
     0
  0
CLASS
  1
ACMDATAENTRYBLOCK
  2
AcmDataEntryBlock
  3
AcmSymBB|Product Description: AutoCAD Mechanical|Company: Autodesk, Inc.
 90
     1024
 91
        0
280
     0
281
     0
  0
CLASS
  1
LAYER_INDEX
  2
AcDbLayerIndex
  3
ObjectDBX Classes
 90
        0
 91
        0
280
     0
281
     0
  0
CLASS
  1
IDBUFFER
  2
AcDbIdBuffer
  3
ObjectDBX Classes
 90
        0
 91
        0
280
     0
281
     0
  0
CLASS
  1
ACMNOTESTANDARDJIS
  2
AmdtNoteStdJIS
  3
"Amdt_StdImp|Product Description: AutoCAD Mechanical|Company: Autodesk, Inc."
 90
     1024
 91
        0
280
     0
281
     0
  0
CLASS
  1
ACAMGHOLECHARTSTDJIS
  2
AcAmgHoleChartStdJIS
  3
AmgDim|Product Description: AutoCAD Mechanical|Company: Autodesk, Inc.
 90
     1024
 91
        0
280
     0
281
     0
  0
CLASS
  1
AM_DRAWING_MGR
  2
AcDmDwgMgr
  3
AcMechDwgViewMgmt
 90
     1024
 91
        1
280
     0
281
     0
  0
CLASS
  1
AM_DWG_DOCUMENT
  2
AcDmDwgDocument
  3
AcMechDwgViewMgmt
 90
     1024
 91
        1
280
     0
281
     0
  0
CLASS
  1
AM_DWG_SHEET
  2
AcDmSheet
  3
AcMechDwgViewMgmt
 90
     1024
 91
        2
280
     0
281
     0
  0
CLASS
  1
AM_VIEWDIMPARMAP
  2
AcDmViewDimParMap
  3
AcMechDwgViewMgmt
 90
     1024
 91
        2
280
     0
281
     0
  0
CLASS
  1
AM_DWGMGR_NAME
  2
AcDmDwgMgrName
  3
AcMechDwgViewMgmt
 90
     1024
 91
        1
280
     0
281
     0
  0
CLASS
  1
AMDTMENUSTATEMGR
  2
AmdtMenuStateMgr
  3
McadcomServices
 90
     1024
 91
        1
280
     0
281
     0
  0
CLASS
  1
AMDTMCOMMENUSTATE
  2
AmdtMcomMenuState
  3
McadcomServices
 90
     1024
 91
        1
280
     0
281
     0
  0
CLASS
  1
MAPIAMMOUDLE
  2
MApiAmModule
  3
MApiAmServices
 90
     1024
 91
        1
280
     0
281
     0
  0
CLASS
  1
AMDTADMENUSTATE
  2
AmdtAdMenuState
  3
DesignerServices
 90
     1024
 91
        1
280
     0
281
     0
  0
CLASS
  1
ADAPPL
  2
AcAdAppl
  3
DesignerServices
 90
     1024
 91
        1
280
     0
281
     0
  0
CLASS
  1
DEPMGR
  2
AcAdDepMgr
  3
DesignerServices
 90
     1024
 91
        1
280
     0
281
     0
  0
CLASS
  1
PARAMMGR
  2
AcAdParamMgr
  3
DesignerServices
 90
     1024
 91
        1
280
     0
281
     0
  0
CLASS
  1
PARAMSCOPE
  2
AcAdParamScope
  3
DesignerServices
 90
     1024
 91
        1
280
     0
281
     0
  0
CLASS
  1
NAMEDAPPL
  2
AcAdNamedAppl
  3
DesignerServices
 90
     1024
 91
        1
280
     0
281
     0
  0
CLASS
  1
AMDTDMMENUSTATE
  2
AmdtDmMenuState
  3
AcMechDwgViewMgmt
 90
     1024
 91
        1
280
     0
281
     0
  0
CLASS
  1
AMDTAMMENUSTATE
  2
AmdtAmMenuState
  3
DesignerAssemblies
 90
     1024
 91
        1
280
     0
281
     0
  0
CLASS
  1
ACAMPROJECT
  2
AcAmProject
  3
DesignerAssemblies
 90
     1024
 91
        1
280
     0
281
     0
  0
CLASS
  1
ACAMGRCOMPDEF
  2
AcAmGrCompDef
  3
DesignerAssemblies
 90
     1024
 91
        1
280
     0
281
     0
  0
CLASS
  1
ACCMCONTEXT
  2
AcCmContext
  3
DesignerAssemblies
 90
     1024
 91
        1
280
     0
281
     0
  0
CLASS
  1
ACAMCOMPDEF
  2
AcAmCompDef
  3
DesignerAssemblies
 90
     1024
 91
        1
280
     0
281
     0
  0
CLASS
  1
ACAMCOMPDEFMGR
  2
AcAmCompDefMgr
  3
DesignerAssemblies
 90
     1024
 91
        1
280
     0
281
     0
  0
CLASS
  1
AMCONTEXTMGR
  2
AcAmContextMgr
  3
DesignerAssemblies
 90
     1024
 91
        1
280
     0
281
     0
  0
CLASS
  1
ACAMCONTEXTMODELER
  2
AcAmContextModeler
  3
DesignerAssemblies
 90
     1024
 91
        1
280
     0
281
     0
  0
CLASS
  1
CATALOGSTATE
  2
AcAmCatalogState
  3
DesignerAssemblies
 90
     1024
 91
        1
280
     0
281
     0
  0
CLASS
  1
ACAMGRCOMPDEFSET
  2
AcAmGrCompDefSet
  3
DesignerAssemblies
 90
     1024
 91
        1
280
     0
281
     0
  0
CLASS
  1
AMDTBROWSERDBTAB
  2
AmdtBrowserDbTab
  3
McadcomServices
 90
     1024
 91
        1
280
     0
281
     0
  0
CLASS
  1
CBROWSERAPPOBJECT
  2
CBrowserAppObject
  3
McadcomServices
 90
     1024
 91
        3
280
     0
281
     0
  0
CLASS
  1
DM_PLACEHOLDER
  2
AcDmSelsetPlaceholder
  3
AcMechDwgViewMgmt
 90
     1024
 91
        1
280
     0
281
     0
  0
CLASS
  1
TABLESTYLE
  2
AcDbTableStyle
  3
ObjectDBX Classes
 90
     4095
 91
        1
280
     0
281
     0
  0
CLASS
  1
VAACXREFPANELOBJECT
  2
VaAcXREFPanelObject
  3
VAAC_ADDIN
 90
        0
 91
        0
280
     0
281
     0
  0
CLASS
  1
VAACIMAGEINVENTORY
  2
VaAcImageInventory
  3
VAAC_ADDIN
 90
        0
 91
        0
280
     0
281
     0
  0
CLASS
  1
AMDTNOTETEMPLATEDB
  2
AmdtNoteTemplateDB
  3
AcmSymBB|Product Description: AutoCAD Mechanical|Company: Autodesk, Inc.
 90
     1024
 91
        6
280
     0
281
     0
  0
CLASS
  1
ACAMGFILTERDAT
  2
AcAmgFilterDat
  3
"AcadM|Product Description: AutoCAD Mechanical|Company: Autodesk, Inc."
 90
     1024
 91
        0
280
     0
281
     0
  0
CLASS
  1
MATERIAL
  2
AcDbMaterial
  3
ObjectDBX Classes
 90
     1153
 91
        3
280
     0
281
     0
  0
CLASS
  1
VISUALSTYLE
  2
AcDbVisualStyle
  3
ObjectDBX Classes
 90
     4095
 91
       16
280
     0
281
     0
  0
CLASS
  1
ACRFATTGENMGR
  2
AcRfAttGeneralMgr
  3
AcAttribServices
 90
     1024
 91
        0
280
     0
281
     0
  0
CLASS
  1
ACRFOBJATTMGR
  2
AcRfObjAttGroupMgr
  3
AcAttribServices
 90
     1024
 91
        0
280
     0
281
     0
  0
CLASS
  1
ACRFMCADAPIATTHOLDER
  2
AcRfMCADAPIAttHolder
  3
AcAttribServices
 90
     1024
 91
        0
280
     0
281
     0
  0
CLASS
  1
AMDTSYSATTR
  2
AmdtSystemAttribute
  3
AcAttribServices
 90
     1024
 91
        0
280
     0
281
     0
  0
CLASS
  1
ACMTAPERSTANDARDJIS
  2
AcmTaperStdJIS
  3
"Amdt_StdImp|Product Description: AutoCAD Mechanical|Company: Autodesk, Inc."
 90
     1024
 91
        0
280
     0
281
     0
  0
CLASS
  1
CAMSSTRUCTBTNSTATE
  2
StructBtnState
  3
DesignerAssemblies
 90
     1024
 91
        0
280
     0
281
     0
  0
CLASS
  1
SCALE
  2
AcDbScale
  3
ObjectDBX Classes
 90
     1153
 91
       34
280
     0
281
     0
  0
CLASS
  1
MLEADERSTYLE
  2
AcDbMLeaderStyle
  3
ACDB_MLEADERSTYLE_CLASS
 90
     4095
 91
        1
280
     0
281
     0
  0
CLASS
  1
ACMANOOTATIONVIEWSTANDARDJIS
  2
AmdtAnViewStdJIS
  3
"Amdt_StdImp|Product Description: AutoCAD Mechanical|Company: Autodesk, Inc."
 90
     1024
 91
        0
280
     0
281
     0
  0
CLASS
  1
ACMSURFSTANDARDJIS2003
  2
AcmSurfTextStdJIS2003
  3
"Amdt_StdImp|Product Description: AutoCAD Mechanical|Company: Autodesk, Inc."
 90
     1024
 91
        0
280
     0
281
     0
  0
CLASS
  1
CELLSTYLEMAP
  2
AcDbCellStyleMap
  3
ObjectDBX Classes
 90
     1152
 91
        2
280
     0
281
     0
  0
CLASS
  1
ACMFCFSTANDARDJIS98
  2
AcmFCFStdJIS98
  3
"Amdt_StdImp|Product Description: AutoCAD Mechanical|Company: Autodesk, Inc."
 90
     1024
 91
        0
280
     0
281
     0
  0
CLASS
  1
SORTENTSTABLE
  2
AcDbSortentsTable
  3
ObjectDBX Classes
 90
        0
 91
       11
280
     0
281
     0
  0
CLASS
  1
DIMASSOC
  2
AcDbDimAssoc
  3
"AcDbDimAssoc|Product Desc:     AcDim ARX App For Dimension|Company:          Autodesk, Inc.|WEB Address:      www.autodesk.com"
 90
        0
 91
       14
280
     0
281
     0
  0
CLASS
  1
STDPART2D
  2
AmgStdPart
  3
AmgStdPart|Product Description: AutoCAD Mechanical|Company: Autodesk, Inc.
 90
     4095
 91
        0
280
     0
281
     1
  0
CLASS
  1
ACMDATAENTRYPART
  2
AcmDataEntryPart
  3
AcmSymBB|Product Description: AutoCAD Mechanical|Company: Autodesk, Inc.
 90
     1024
 91
        0
280
     0
281
     0
  0
CLASS
  1
ACMPARTREF
  2
AcmPartRef
  3
"AcmSymBB|Product Description: AutoCAD Mechanical|Company: Autodesk, Inc."
 90
     4095
 91
        0
280
     0
281
     1
  0
CLASS
  1
ACDBSTDPARTRES_LINE
  2
AcDbStdPartRes_Line
  3
AmgStdPart|Product Description: AutoCAD Mechanical|Company: Autodesk, Inc.
 90
     1024
 91
        0
280
     0
281
     0
  0
CLASS
  1
ACMBOM
  2
AcmBom
  3
"AcmSymBB|Product Description: AutoCAD Mechanical|Company: Autodesk, Inc."
 90
     1024
 91
        0
280
     0
281
     0
  0
CLASS
  1
AMDTFORMULAUPDATEDISPATCHER
  2
AmdtFormulaUpdateDispatcher
  3
AcMeServices
 90
     1024
 91
        0
280
     0
281
     0
  0
CLASS
  1
ACMBOMROW
  2
AcmBomRow
  3
"AcmSymBB|Product Description: AutoCAD Mechanical|Company: Autodesk, Inc."
 90
     1024
 91
        0
280
     0
281
     0
  0
CLASS
  1
ACMPARTLIST
  2
AcmPartList
  3
"AcmSymBB|Product Description: AutoCAD Mechanical|Company: Autodesk, Inc."
 90
     4095
 91
        0
280
     0
281
     1
  0
CLASS
  1
ACDBLINERES
  2
AcDbLineRes
  3
AcGrefServices
 90
     1024
 91
        0
280
     0
281
     0
  0
CLASS
  1
ACRFINSADJ
  2
AcRfInsAdjuster
  3
AcMeServices
 90
     1024
 91
        0
280
     0
281
     0
  0
CLASS
  1
ACMSTANDARDISO
  2
AcmStandardISO
  3
"Amdt_StdImp|Product Description: AutoCAD Mechanical|Company: Autodesk, Inc."
 90
     1024
 91
        1
280
     0
281
     0
  0
CLASS
  1
AMDTEDGESTANDARDISO13715
  2
AmdtEdgeStdISO13715
  3
"Amdt_StdImp|Product Description: AutoCAD Mechanical|Company: Autodesk, Inc."
 90
     1024
 91
        1
280
     0
281
     0
  0
CLASS
  1
ACMSURFSTANDARDISO2002
  2
AcmSurfTextStdISO2002
  3
"Amdt_StdImp|Product Description: AutoCAD Mechanical|Company: Autodesk, Inc."
 90
     1024
 91
        1
280
     0
281
     0
  0
CLASS
  1
ACMFCFSTANDARDISO
  2
AcmFCFStdISO
  3
"Amdt_StdImp|Product Description: AutoCAD Mechanical|Company: Autodesk, Inc."
 90
     1024
 91
        1
280
     0
281
     0
  0
CLASS
  1
ACMWELDSTANDARDISO
  2
AcmWeldingStdISO
  3
"Amdt_StdImp|Product Description: AutoCAD Mechanical|Company: Autodesk, Inc."
 90
     1024
 91
        1
280
     0
281
     0
  0
CLASS
  1
ACMIDSTANDARDISO
  2
AcmIdStdISO
  3
"Amdt_StdImp|Product Description: AutoCAD Mechanical|Company: Autodesk, Inc."
 90
     1024
 91
        1
280
     0
281
     0
  0
CLASS
  1
ACMDATUMSTANDARDISO
  2
AcmDatumStdISO
  3
"Amdt_StdImp|Product Description: AutoCAD Mechanical|Company: Autodesk, Inc."
 90
     1024
 91
        1
280
     0
281
     0
  0
CLASS
  1
ACMBOMSTANDARDISO
  2
AcmBOMStdISO
  3
"Amdt_StdImp|Product Description: AutoCAD Mechanical|Company: Autodesk, Inc."
 90
     1024
 91
        1
280
     0
281
     0
  0
CLASS
  1
ACMDETAILSTANDARDISO
  2
AmdtDetailSymStdISO
  3
"Amdt_StdImp|Product Description: AutoCAD Mechanical|Company: Autodesk, Inc."
 90
     1024
 91
        1
280
     0
281
     0
  0
CLASS
  1
ACMSECTIONSTANDARDISO2001
  2
AmdtSectionSymStdISO2001
  3
"Amdt_StdImp|Product Description: AutoCAD Mechanical|Company: Autodesk, Inc."
 90
     1024
 91
        1
280
     0
281
     0
  0
CLASS
  1
ACMCENTERLINESTANDARDISO
  2
AmdtCenterLineStdISO
  3
"Amdt_StdImp|Product Description: AutoCAD Mechanical|Company: Autodesk, Inc."
 90
     1024
 91
        1
280
     0
281
     0
  0
CLASS
  1
ACMTHREADLINESTANDARDISO
  2
AmdtThreadLineStdISO
  3
"Amdt_StdImp|Product Description: AutoCAD Mechanical|Company: Autodesk, Inc."
 90
     1024
 91
        1
280
     0
281
     0
  0
CLASS
  1
ACMNOTESTANDARDISO
  2
AmdtNoteStdISO
  3
"Amdt_StdImp|Product Description: AutoCAD Mechanical|Company: Autodesk, Inc."
 90
     1024
 91
        1
280
     0
281
     0
  0
CLASS
  1
ACMTAPERSTANDARDISO
  2
AcmTaperStdISO
  3
"Amdt_StdImp|Product Description: AutoCAD Mechanical|Company: Autodesk, Inc."
 90
     1024
 91
        1
280
     0
281
     0
  0
CLASS
  1
ACMANOOTATIONVIEWSTANDARDISO
  2
AmdtAnViewStdISO
  3
"Amdt_StdImp|Product Description: AutoCAD Mechanical|Company: Autodesk, Inc."
 90
     1024
 91
        1
280
     0
281
     0
  0
CLASS
  1
ACAMGHOLECHARTSTDISO
  2
AcAmgHoleChartStdISO
  3
AmgDim|Product Description: AutoCAD Mechanical|Company: Autodesk, Inc.
 90
     1024
 91
        1
280
     0
281
     0
  0
CLASS
  1
EXACXREFPANELOBJECT
  2
ExAcXREFPanelObject
  3
EXAC_ESW
 90
     1025
 91
        0
280
     0
281
     0
  0
CLASS
  1
NPOCOLLECTION
  2
AcDbImpNonPersistentObjectsCollection
  3
ObjectDBX Classes
 90
     1153
 91
        0
280
     0
281
     0
  0
CLASS
  1
ACDBSTDPARTRES_ARC
  2
AcDbStdPartRes_Arc
  3
AmgStdPart|Product Description: AutoCAD Mechanical|Company: Autodesk, Inc.
 90
     1024
 91
        0
280
     0
281
     0
  0
CLASS
  1
AMDTNOTE
  2
AmdtNote
  3
"AcmSymBB|Product Description: AutoCAD Mechanical|Company: Autodesk, Inc."
 90
     4095
 91
        0
280
     0
281
     1
  0
CLASS
  1
PLOTSETTINGS
  2
AcDbPlotSettings
  3
ObjectDBX Classes
 90
        0
 91
        1
280
     0
281
     0
  0
CLASS
  1
ACMSTANDARDANSI
  2
AcmStandardANSI
  3
"Amdt_StdImp|Product Description: AutoCAD Mechanical|Company: Autodesk, Inc."
 90
     1024
 91
        0
280
     0
281
     0
  0
CLASS
  1
ACMSURFSTANDARDANSI
  2
AcmSurfTextStdANSI
  3
"Amdt_StdImp|Product Description: AutoCAD Mechanical|Company: Autodesk, Inc."
 90
     1024
 91
        0
280
     0
281
     0
  0
CLASS
  1
ACMFCFSTANDARDANSI
  2
AcmFCFStdANSI
  3
"Amdt_StdImp|Product Description: AutoCAD Mechanical|Company: Autodesk, Inc."
 90
     1024
 91
        0
280
     0
281
     0
  0
CLASS
  1
ACMWELDSTANDARDANSI
  2
AcmWeldingStdANSI
  3
"Amdt_StdImp|Product Description: AutoCAD Mechanical|Company: Autodesk, Inc."
 90
     1024
 91
        0
280
     0
281
     0
  0
CLASS
  1
ACMIDSTANDARDANSI
  2
AcmIdStdANSI
  3
"Amdt_StdImp|Product Description: AutoCAD Mechanical|Company: Autodesk, Inc."
 90
     1024
 91
        0
280
     0
281
     0
  0
CLASS
  1
ACMDATUMSTANDARDANSI
  2
AcmDatumStdANSI
  3
"Amdt_StdImp|Product Description: AutoCAD Mechanical|Company: Autodesk, Inc."
 90
     1024
 91
        0
280
     0
281
     0
  0
CLASS
  1
ACMBOMSTANDARDANSI
  2
AcmBOMStdANSI
  3
"Amdt_StdImp|Product Description: AutoCAD Mechanical|Company: Autodesk, Inc."
 90
     1024
 91
        0
280
     0
281
     0
  0
CLASS
  1
ACMDETAILSTANDARDANSI
  2
AmdtDetailSymStdANSI
  3
"Amdt_StdImp|Product Description: AutoCAD Mechanical|Company: Autodesk, Inc."
 90
     1024
 91
        0
280
     0
281
     0
  0
CLASS
  1
ACMSECTIONSTANDARDANSI
  2
AmdtSectionSymStdANSI
  3
"Amdt_StdImp|Product Description: AutoCAD Mechanical|Company: Autodesk, Inc."
 90
     1024
 91
        0
280
     0
281
     0
  0
CLASS
  1
ACMCENTERLINESTANDARDANSI
  2
AmdtCenterLineStdANSI
  3
"Amdt_StdImp|Product Description: AutoCAD Mechanical|Company: Autodesk, Inc."
 90
     1024
 91
        0
280
     0
281
     0
  0
CLASS
  1
ACMTHREADLINESTANDARDANSI
  2
AmdtThreadLineStdANSI
  3
"Amdt_StdImp|Product Description: AutoCAD Mechanical|Company: Autodesk, Inc."
 90
     1024
 91
        0
280
     0
281
     0
  0
CLASS
  1
ACMNOTESTANDARDANSI
  2
AmdtNoteStdANSI
  3
"Amdt_StdImp|Product Description: AutoCAD Mechanical|Company: Autodesk, Inc."
 90
     1024
 91
        0
280
     0
281
     0
  0
CLASS
  1
ACMTAPERSTANDARDANSI
  2
AcmTaperStdANSI
  3
"Amdt_StdImp|Product Description: AutoCAD Mechanical|Company: Autodesk, Inc."
 90
     1024
 91
        0
280
     0
281
     0
  0
CLASS
  1
ACMANOOTATIONVIEWSTANDARDANSI
  2
AmdtAnViewStdANSI
  3
"Amdt_StdImp|Product Description: AutoCAD Mechanical|Company: Autodesk, Inc."
 90
     1024
 91
        0
280
     0
281
     0
  0
CLASS
  1
ACAMGHOLECHARTSTDANSI
  2
AcAmgHoleChartStdANSI
  3
AmgDim|Product Description: AutoCAD Mechanical|Company: Autodesk, Inc.
 90
     1024
 91
        0
280
     0
281
     0
  0
CLASS
  1
ACMSTANDARDBSI
  2
AcmStandardBSI
  3
"Amdt_StdImp|Product Description: AutoCAD Mechanical|Company: Autodesk, Inc."
 90
     1024
 91
        0
280
     0
281
     0
  0
CLASS
  1
ACMSURFSTANDARDBSI2002
  2
AcmSurfTextStdBSI2002
  3
"Amdt_StdImp|Product Description: AutoCAD Mechanical|Company: Autodesk, Inc."
 90
     1024
 91
        0
280
     0
281
     0
  0
CLASS
  1
ACMFCFSTANDARDBSI
  2
AcmFCFStdBSI
  3
"Amdt_StdImp|Product Description: AutoCAD Mechanical|Company: Autodesk, Inc."
 90
     1024
 91
        0
280
     0
281
     0
  0
CLASS
  1
ACMWELDSTANDARDBSI
  2
AcmWeldingStdBSI
  3
"Amdt_StdImp|Product Description: AutoCAD Mechanical|Company: Autodesk, Inc."
 90
     1024
 91
        0
280
     0
281
     0
  0
CLASS
  1
ACMIDSTANDARDBSI
  2
AcmIdStdBSI
  3
"Amdt_StdImp|Product Description: AutoCAD Mechanical|Company: Autodesk, Inc."
 90
     1024
 91
        0
280
     0
281
     0
  0
CLASS
  1
ACMDATUMSTANDARDBSI
  2
AcmDatumStdBSI
  3
"Amdt_StdImp|Product Description: AutoCAD Mechanical|Company: Autodesk, Inc."
 90
     1024
 91
        0
280
     0
281
     0
  0
CLASS
  1
ACMBOMSTANDARDBSI
  2
AcmBOMStdBSI
  3
"Amdt_StdImp|Product Description: AutoCAD Mechanical|Company: Autodesk, Inc."
 90
     1024
 91
        0
280
     0
281
     0
  0
CLASS
  1
ACMDETAILSTANDARDBSI
  2
AmdtDetailSymStdBSI
  3
"Amdt_StdImp|Product Description: AutoCAD Mechanical|Company: Autodesk, Inc."
 90
     1024
 91
        0
280
     0
281
     0
  0
CLASS
  1
ACMSECTIONSTANDARDBSI2001
  2
AmdtSectionSymStdBSI2001
  3
"Amdt_StdImp|Product Description: AutoCAD Mechanical|Company: Autodesk, Inc."
 90
     1024
 91
        0
280
     0
281
     0
  0
CLASS
  1
ACMCENTERLINESTANDARDBSI
  2
AmdtCenterLineStdBSI
  3
"Amdt_StdImp|Product Description: AutoCAD Mechanical|Company: Autodesk, Inc."
 90
     1024
 91
        0
280
     0
281
     0
  0
CLASS
  1
ACMTHREADLINESTANDARDBSI
  2
AmdtThreadLineStdBSI
  3
"Amdt_StdImp|Product Description: AutoCAD Mechanical|Company: Autodesk, Inc."
 90
     1024
 91
        0
280
     0
281
     0
  0
CLASS
  1
ACMNOTESTANDARDBSI
  2
AmdtNoteStdBSI
  3
"Amdt_StdImp|Product Description: AutoCAD Mechanical|Company: Autodesk, Inc."
 90
     1024
 91
        0
280
     0
281
     0
  0
CLASS
  1
ACMTAPERSTANDARDBSI
  2
AcmTaperStdBSI
  3
"Amdt_StdImp|Product Description: AutoCAD Mechanical|Company: Autodesk, Inc."
 90
     1024
 91
        0
280
     0
281
     0
  0
CLASS
  1
ACMANOOTATIONVIEWSTANDARDBSI
  2
AmdtAnViewStdBSI
  3
"Amdt_StdImp|Product Description: AutoCAD Mechanical|Company: Autodesk, Inc."
 90
     1024
 91
        0
280
     0
281
     0
  0
CLASS
  1
ACAMGHOLECHARTSTDBSI
  2
AcAmgHoleChartStdBSI
  3
AmgDim|Product Description: AutoCAD Mechanical|Company: Autodesk, Inc.
 90
     1024
 91
        0
280
     0
281
     0
  0
CLASS
  1
AMDTEDGESTANDARDJIS
  2
AmdtEdgeStdJIS
  3
"Amdt_StdImp|Product Description: AutoCAD Mechanical|Company: Autodesk, Inc."
 90
     1024
 91
        0
280
     0
281
     0
  0
CLASS
  1
ACMSURFSYM
  2
AcmSurfaceTexture
  3
"AcmSymBB|Product Description: AutoCAD Mechanical|Company: Autodesk, Inc."
 90
     4095
 91
        0
280
     0
281
     1
  0
CLASS
  1
ACDBDIMENSIONRES
  2
AcDbDimensionRes
  3
AcmSymBB|Product Description: AutoCAD Mechanical|Company: Autodesk, Inc.
 90
     1024
 91
        0
280
     0
281
     0
  0
CLASS
  1
ACDBCIRCARCRES
  2
AcDbCircArcRes
  3
AcGrefServices
 90
     1024
 91
        0
280
     0
281
     0
  0
CLASS
  1
AMDTACMWBLOCKBOMENTITY
  2
AmdtAcmWblockBomEntity
  3
"AcmSymBB|Product Description: AutoCAD Mechanical|Company: Autodesk, Inc."
 90
     4095
 91
        0
280
     0
281
     1
  0
CLASS
  1
ACDBOPPOLYLINERES
  2
AcDbOpPolylineRes
  3
AcGrefServices
 90
     1024
 91
        0
280
     0
281
     0
  0
CLASS
  1
ACDB_BLKREFOBJECTCONTEXTDATA_CLASS
  2
AcDbBlkRefObjectContextData
  3
ObjectDBX Classes
 90
     1153
 91
        0
280
     0
281
     0
  0
CLASS
  1
ACMPICKOBJ
  2
AcmPickEnt
  3
"AcmSymBB|Product Description: AutoCAD Mechanical|Company: Autodesk, Inc."
 90
     1024
 91
        0
280
     0
281
     1
  0
CLASS
  1
ACMBALLOON
  2
AcmBalloon
  3
"AcmSymBB|Product Description: AutoCAD Mechanical|Company: Autodesk, Inc."
 90
     4095
 91
        0
280
     0
281
     1
  0
ENDSEC
  0
SECTION
  2
TABLES
  0
TABLE
  2
VPORT
  5
8
330
0
100
AcDbSymbolTable
 70
     1
  0
VPORT
  5
27A
330
8
100
AcDbSymbolTableRecord
100
AcDbViewportTableRecord
  2
*Active
 70
     0
 10
0.0
 20
0.0
 11
1.0
 21
1.0
 12
343.3721062931194
 22
303.4907586738535
 13
0.0
 23
0.0
 14
3.75
 24
3.75
 15
15.0
 25
15.0
 16
0.0
 26
0.0
 36
1.0
 17
0.0
 27
0.0
 37
0.0
 40
199.6500768995395
 41
1.285714285714285
 42
50.0
 43
0.0
 44
0.0
 50
0.0
 51
0.0
 71
    16
 72
 20000
 73
     1
 74
     3
 75
     0
 76
     0
 77
     0
 78
     0
281
     0
 65
     0
110
0.0
120
0.0
130
0.0
111
1.0
121
0.0
131
0.0
112
0.0
122
1.0
132
0.0
 79
     0
146
0.0
348
285
 60
     3
 61
     5
292
     1
282
     0
141
0.0
142
0.0
 63
   250
421
  3355443
  0
ENDTAB
  0
TABLE
  2
LTYPE
  5
5
330
0
100
AcDbSymbolTable
 70
    22
  0
LTYPE
  5
14
330
5
100
AcDbSymbolTableRecord
100
AcDbLinetypeTableRecord
  2
ByBlock
 70
     0
  3

 72
    65
 73
     0
 40
0.0
  0
LTYPE
  5
15
330
5
100
AcDbSymbolTableRecord
100
AcDbLinetypeTableRecord
  2
ByLayer
 70
     0
  3

 72
    65
 73
     0
 40
0.0
  0
LTYPE
  5
16
330
5
100
AcDbSymbolTableRecord
100
AcDbLinetypeTableRecord
  2
Continuous
 70
     0
  3
Solid line
 72
    65
 73
     0
 40
0.0
  0
LTYPE
  5
4D
330
5
100
AcDbSymbolTableRecord
100
AcDbLinetypeTableRecord
  2
AM_ISO02W050
 70
     0
  3
__ __ __ __ __ __ __ __ __ __ __ __ __ __ __
 72
    65
 73
     2
 40
7.5
 49
6.0
 74
     0
 49
-1.5
 74
     0
  0
LTYPE
  5
4E
330
5
100
AcDbSymbolTableRecord
100
AcDbLinetypeTableRecord
  2
AM_ISO08W050
 70
     0
  3
____ . ____ . ____ . ____ . ____ . ____ . ____
 72
    65
 73
     4
 40
18.0
 49
12.0
 74
     0
 49
-1.5
 74
     0
 49
3.0
 74
     0
 49
-1.5
 74
     0
  0
LTYPE
  5
4F
330
5
100
AcDbSymbolTableRecord
100
AcDbLinetypeTableRecord
  2
AM_ISO09W050
 70
     0
  3
_____ . . _____ . . _____ . . ____ .. ____
 72
    65
 73
     6
 40
22.5
 49
12.0
 74
     0
 49
-1.5
 74
     0
 49
3.0
 74
     0
 49
-1.5
 74
     0
 49
3.0
 74
     0
 49
-1.5
 74
     0
  0
LTYPE
  5
50
330
5
100
AcDbSymbolTableRecord
100
AcDbLinetypeTableRecord
  2
Amconstr
 70
     0
  3
_______________________
 72
    65
 73
     2
 40
9999.0
 49
9999.0
 74
     0
 49
0.0
 74
     0
  0
LTYPE
  5
51
330
5
100
AcDbSymbolTableRecord
100
AcDbLinetypeTableRecord
  2
AM_ISO08W050x2
 70
     0
  3
__ . __ . __ . __ . __ . __
 72
    65
 73
     4
 40
9.0
 49
6.0
 74
     0
 49
-0.75
 74
     0
 49
1.5
 74
     0
 49
-0.75
 74
     0
  0
LTYPE
  5
52
330
5
100
AcDbSymbolTableRecord
100
AcDbLinetypeTableRecord
  2
AM_ISO02W050x2
 70
     0
  3
 _ _ _ _ _ _ _ _ _ _ _ _
 72
    65
 73
     2
 40
3.75
 49
3.0
 74
     0
 49
-0.75
 74
     0
  0
LTYPE
  5
55
330
5
100
AcDbSymbolTableRecord
100
AcDbLinetypeTableRecord
  2
Amzigzag
 70
     0
  3
/\/-/\/-/\/-/\/-/\/-/\/
 72
    65
 73
     2
 40
11.0001
 49
0.0001
 74
     4
 75
   136
340
23D
 46
0.04
 50
0.0
 44
0.0
 45
0.0
 49
-11.0
 74
     0
  0
LTYPE
  5
65
330
5
100
AcDbSymbolTableRecord
100
AcDbLinetypeTableRecord
  2
CENTER
 70
     0
  3
__ . __
 72
    65
 73
     4
 40
7.0
 49
4.0
 74
     0
 49
-1.0
 74
     0
 49
1.0
 74
     0
 49
-1.0
 74
     0
  0
LTYPE
  5
E0
330
5
100
AcDbSymbolTableRecord
100
AcDbLinetypeTableRecord
  2
HIDDEN
 70
     0
  3
Hidden __ __ __ __ __ __ __ __ __ __ __ __ __ _
 72
    65
 73
     2
 40
9.524999999999996
 49
6.349999999999998
 74
     0
 49
-3.174999999999998
 74
     0
  0
LTYPE
  5
E1
330
5
100
AcDbSymbolTableRecord
100
AcDbLinetypeTableRecord
  2
PHANTOM2
 70
     0
  3
Phantom (.5x) ___ _ _ ___ _ _ ___ _ _ ___ _ _
 72
    65
 73
     6
 40
31.75
 49
15.875
 74
     0
 49
-3.174999999999998
 74
     0
 49
3.174999999999998
 74
     0
 49
-3.174999999999998
 74
     0
 49
3.174999999999998
 74
     0
 49
-3.174999999999998
 74
     0
  0
LTYPE
  5
5A2
330
5
100
AcDbSymbolTableRecord
100
AcDbLinetypeTableRecord
  2
ACJISWELD
 70
     0
  3
_ _ _ _ _
 72
    65
 73
     2
 40
2.0
 49
2.0
 74
     0
 49
-1.0
 74
     0
  0
LTYPE
  5
A53C
330
5
100
AcDbSymbolTableRecord
100
AcDbLinetypeTableRecord
  2
ACISOWELD
 70
     0
  3
_ _ _ _ _
 72
    65
 73
     2
 40
2.0
 49
2.0
 74
     0
 49
-1.0
 74
     0
  0
LTYPE
  5
A53D
330
5
100
AcDbSymbolTableRecord
100
AcDbLinetypeTableRecord
  2
ACISOTGB
 70
     0
  3
__ . . __ . .
 72
    65
 73
     6
 40
9.0
 49
4.0
 74
     0
 49
-1.0
 74
     0
 49
1.0
 74
     0
 49
-1.0
 74
     0
 49
1.0
 74
     0
 49
-1.0
 74
     0
  0
LTYPE
  5
A53E
330
5
100
AcDbSymbolTableRecord
100
AcDbLinetypeTableRecord
  2
ACISOTGL
 70
     0
  3
_ _ _ _ _
 72
    65
 73
     2
 40
3.0
 49
2.0
 74
     0
 49
-1.0
 74
     0
  0
ENDTAB
  0
TABLE
  2
LAYER
  5
2
102
{ACAD_XDICTIONARY
360
BF
102
}
330
0
100
AcDbSymbolTable
 70
    10
  0
LAYER
  5
10
102
{ACAD_XDICTIONARY
360
2A7C
102
}
330
2
100
AcDbSymbolTableRecord
100
AcDbLayerTableRecord
  2
0
 70
     0
 62
     7
  6
Continuous
370
    -3
390
F
347
27E
  0
LAYER
  5
81
102
{ACAD_XDICTIONARY
360
2A7E
102
}
330
2
100
AcDbSymbolTableRecord
100
AcDbLayerTableRecord
  2
AM_0 外形線1
 70
     0
 62
     7
  6
Continuous
370
    25
390
F
347
27E
  0
LAYER
  5
427
330
2
100
AcDbSymbolTableRecord
100
AcDbLayerTableRecord
  2
Defpoints
 70
     0
 62
     7
  6
Continuous
290
     0
370
    -3
390
F
347
27E
  0
LAYER
  5
25C9
102
{ACAD_XDICTIONARY
360
2A85
102
}
330
2
100
AcDbSymbolTableRecord
100
AcDbLayerTableRecord
  2
AM_3 隠れ線
 70
     0
 62
     8
  6
ACJISWELD
370
    13
390
F
347
27E
1001
AcAecLayerStandard
1000

1000

  0
LAYER
  5
25CA
102
{ACAD_XDICTIONARY
360
2A87
102
}
330
2
100
AcDbSymbolTableRecord
100
AcDbLayerTableRecord
  2
AM_4 細線
 70
     0
 62
     4
  6
Continuous
370
    13
390
F
347
27E
1001
AcAecLayerStandard
1000

1000

  0
LAYER
  5
26B3
102
{ACAD_XDICTIONARY
360
2A8D
102
}
330
2
100
AcDbSymbolTableRecord
100
AcDbLayerTableRecord
  2
AM_5 寸法線
 70
     0
 62
     3
  6
Continuous
370
    13
390
F
347
27E
1001
AcAecLayerStandard
1000

1000

  0
LAYER
  5
38F4
330
2
100
AcDbSymbolTableRecord
100
AcDbLayerTableRecord
  2
AM_7 中心線
 70
     0
 62
     1
  6
AM_ISO08W050
370
    13
390
F
347
27E
1001
AcAecLayerStandard
1000

1000

  0
LAYER
  5
38F7
330
2
100
AcDbSymbolTableRecord
100
AcDbLayerTableRecord
  2
AM_6 文字
 70
     0
 62
     2
  6
Continuous
370
    13
390
F
347
27E
1001
AcAecLayerStandard
1000

1000

  0
LAYER
  5
A134
330
2
100
AcDbSymbolTableRecord
100
AcDbLayerTableRecord
  2
AM_11 想像線
 70
     0
 62
     5
  6
AM_ISO09W050
370
    13
390
F
347
27E
1001
AcAecLayerStandard
1000

1000

  0
ENDTAB
  0
TABLE
  2
STYLE
  5
3
330
0
100
AcDbSymbolTable
 70
    10
  0
STYLE
  5
11
330
3
100
AcDbSymbolTableRecord
100
AcDbTextStyleTableRecord
  2
STANDARD
 70
     0
 40
0.0
 41
1.0
 50
0.0
 71
     0
 42
25.0
  3
ISOCP.SHX
  4
EXTFONT.SHX
  0
STYLE
  5
23D
330
3
100
AcDbSymbolTableRecord
100
AcDbTextStyleTableRecord
  2

 70
     1
 40
0.0
 41
1.0
 50
0.0
 71
     0
 42
2.5
  3
genltshp.shx
  4

  0
STYLE
  5
5D5
330
3
100
AcDbSymbolTableRecord
100
AcDbTextStyleTableRecord
  2
SEISA
 70
     0
 40
0.0
 41
0.9
 50
0.0
 71
     0
 42
25.0
  3
romans.shx
  4
extfont2.shx
  0
STYLE
  5
A52C
330
3
100
AcDbSymbolTableRecord
100
AcDbTextStyleTableRecord
  2
ACISOTS
 70
     0
 40
1.0
 41
1.0
 50
0.0
 71
     0
 42
25.0
  3
isocp.shx
  4
extfont.shx
  0
STYLE
  5
A53B
330
3
100
AcDbSymbolTableRecord
100
AcDbTextStyleTableRecord
  2
ACISOGDT
 70
     0
 40
0.0
 41
1.0
 50
0.0
 71
     0
 42
25.0
  3
amgdt.shx
  4

  0
ENDTAB
  0
TABLE
  2
VIEW
  5
6
330
0
100
AcDbSymbolTable
 70
     6
  0
VIEW
  5
91B
330
6
100
AcDbSymbolTableRecord
100
AcDbViewTableRecord
  2
AM_VIEW1
 70
     0
 40
222.75
 10
219.1838057058701
 20
334.1250005540731
 41
438.3676108374385
 11
0.0
 21
0.0
 31
1.0
 12
0.0
 22
0.0
 32
0.0
 42
50.0
 43
0.0
 44
0.0
 50
0.0
 71
    16
281
     0
 72
     0
 73
     0
  0
VIEW
  5
91C
330
6
100
AcDbSymbolTableRecord
100
AcDbViewTableRecord
  2
AM_VIEW2
 70
     0
 40
222.75
 10
410.8161948684315
 20
334.1250005540731
 41
438.3676108374385
 11
0.0
 21
0.0
 31
1.0
 12
0.0
 22
0.0
 32
0.0
 42
50.0
 43
0.0
 44
0.0
 50
0.0
 71
    16
281
     0
 72
     0
 73
     0
  0
VIEW
  5
91D
330
6
100
AcDbSymbolTableRecord
100
AcDbViewTableRecord
  2
AM_VIEW3
 70
     0
 40
222.75
 10
219.1838057058701
 20
111.3750005540731
 41
438.3676108374385
 11
0.0
 21
0.0
 31
1.0
 12
0.0
 22
0.0
 32
0.0
 42
50.0
 43
0.0
 44
0.0
 50
0.0
 71
    16
281
     0
 72
     0
 73
     0
  0
VIEW
  5
91E
330
6
100
AcDbSymbolTableRecord
100
AcDbViewTableRecord
  2
AM_VIEW4
 70
     0
 40
222.75
 10
410.8161948684315
 20
111.3750005540731
 41
438.3676108374385
 11
0.0
 21
0.0
 31
1.0
 12
0.0
 22
0.0
 32
0.0
 42
50.0
 43
0.0
 44
0.0
 50
0.0
 71
    16
281
     0
 72
     0
 73
     0
  0
VIEW
  5
91F
330
6
100
AcDbSymbolTableRecord
100
AcDbViewTableRecord
  2
AM_VIEW5
 70
     0
 40
222.75
 10
315.0000002871508
 20
222.7500005540731
 41
438.3676108374386
 11
0.0
 21
0.0
 31
1.0
 12
0.0
 22
0.0
 32
0.0
 42
50.0
 43
0.0
 44
0.0
 50
0.0
 71
    16
281
     0
 72
     0
 73
     0
  0
VIEW
  5
920
330
6
100
AcDbSymbolTableRecord
100
AcDbViewTableRecord
  2
AM_VIEW6
 70
     0
 40
445.4955449999999
 10
315.0000002871508
 20
222.7500005540731
 41
876.7264543226604
 11
0.0
 21
0.0
 31
1.0
 12
0.0
 22
0.0
 32
0.0
 42
50.0
 43
0.0
 44
0.0
 50
0.0
 71
    16
281
     0
 72
     0
 73
     0
  0
ENDTAB
  0
TABLE
  2
UCS
  5
7
330
0
100
AcDbSymbolTable
 70
     0
  0
ENDTAB
  0
TABLE
  2
APPID
  5
9
330
0
100
AcDbSymbolTable
 70
   393
  0
APPID
  5
12
330
9
100
AcDbSymbolTableRecord
100
AcDbRegAppTableRecord
  2
ACAD
 70
     0
  0
APPID
  5
30
330
9
100
AcDbSymbolTableRecord
100
AcDbRegAppTableRecord
  2
MCAD_NO_VIS
 70
     0
  0
APPID
  5
31
330
9
100
AcDbSymbolTableRecord
100
AcDbRegAppTableRecord
  2
ACAD_TEMP_GRAPHIC
 70
     0
  0
APPID
  5
44
330
9
100
AcDbSymbolTableRecord
100
AcDbRegAppTableRecord
  2
ACATTRIBSERVICES
 70
     0
  0
APPID
  5
F6
330
9
100
AcDbSymbolTableRecord
100
AcDbRegAppTableRecord
  2
AD_DRAW
 70
     0
  0
APPID
  5
114
330
9
100
AcDbSymbolTableRecord
100
AcDbRegAppTableRecord
  2
DESIGNERASSEMBLIES
 70
     0
  0
APPID
  5
118
330
9
100
AcDbSymbolTableRecord
100
AcDbRegAppTableRecord
  2
ACADM_DIM_EDIT
 70
     0
  0
APPID
  5
119
330
9
100
AcDbSymbolTableRecord
100
AcDbRegAppTableRecord
  2
AMDT_DM_ADJ
 70
     0
  0
APPID
  5
1AF
330
9
100
AcDbSymbolTableRecord
100
AcDbRegAppTableRecord
  2
ACAD_DSTYLE_DIMARC_LENGTH_SYMBOL
 70
     0
  0
APPID
  5
1B0
330
9
100
AcDbSymbolTableRecord
100
AcDbRegAppTableRecord
  2
ACAD_DSTYLE_DIMJOGGED_JOGANGLE_SYMBOL
 70
     0
  0
APPID
  5
2D7
330
9
100
AcDbSymbolTableRecord
100
AcDbRegAppTableRecord
  2
ACAD_MLEADERVER
 70
     0
  0
APPID
  5
355
330
9
100
AcDbSymbolTableRecord
100
AcDbRegAppTableRecord
  2
AcadAnnoPO
 70
     0
  0
APPID
  5
428
330
9
100
AcDbSymbolTableRecord
100
AcDbRegAppTableRecord
  2
ACAD_DSTYLE_DIMTEXT_FILL
 70
     0
  0
APPID
  5
429
330
9
100
AcDbSymbolTableRecord
100
AcDbRegAppTableRecord
  2
GENIUS_GENSCREG_15
 70
     0
  0
APPID
  5
42A
330
9
100
AcDbSymbolTableRecord
100
AcDbRegAppTableRecord
  2
GENIUS_GENOBJ-N-SDF_13
 70
     0
  0
APPID
  5
42B
330
9
100
AcDbSymbolTableRecord
100
AcDbRegAppTableRecord
  2
GENIUS_GENODEF_13
 70
     0
  0
APPID
  5
42C
330
9
100
AcDbSymbolTableRecord
100
AcDbRegAppTableRecord
  2
ACAD_EXEMPT_FROM_CAD_STANDARDS
 70
     0
  0
APPID
  5
42D
330
9
100
AcDbSymbolTableRecord
100
AcDbRegAppTableRecord
  2
AcAecLayerStandard
 70
     0
  0
APPID
  5
42E
330
9
100
AcDbSymbolTableRecord
100
AcDbRegAppTableRecord
  2
GENIUS_GENOBJ-N-CEN_13
 70
     0
  0
APPID
  5
42F
330
9
100
AcDbSymbolTableRecord
100
AcDbRegAppTableRecord
  2
GENIUS_GENCEN_19
 70
     0
  0
APPID
  5
430
330
9
100
AcDbSymbolTableRecord
100
AcDbRegAppTableRecord
  2
ACAD_DSTYLE_DIMINSPECT
 70
     0
  0
APPID
  5
431
330
9
100
AcDbSymbolTableRecord
100
AcDbRegAppTableRecord
  2
GENIUS_AMGTXT_16
 70
     0
  0
APPID
  5
432
330
9
100
AcDbSymbolTableRecord
100
AcDbRegAppTableRecord
  2
GENIUS_GENFIL_13
 70
     0
  0
APPID
  5
433
330
9
100
AcDbSymbolTableRecord
100
AcDbRegAppTableRecord
  2
GENIUS_GENOLIS_13
 70
     0
  0
APPID
  5
434
330
9
100
AcDbSymbolTableRecord
100
AcDbRegAppTableRecord
  2
GENIUS_GENOBJ-N-CHA_13
 70
     0
  0
APPID
  5
435
330
9
100
AcDbSymbolTableRecord
100
AcDbRegAppTableRecord
  2
GENIUS_GENOENT_13
 70
     0
  0
APPID
  5
436
330
9
100
AcDbSymbolTableRecord
100
AcDbRegAppTableRecord
  2
GENIUS_GENOREF_13
 70
     0
  0
APPID
  5
437
330
9
100
AcDbSymbolTableRecord
100
AcDbRegAppTableRecord
  2
GENIUS_GENOBJ-N-FIL_13
 70
     0
  0
APPID
  5
438
330
9
100
AcDbSymbolTableRecord
100
AcDbRegAppTableRecord
  2
GEVID1208829536
 70
     0
  0
APPID
  5
439
330
9
100
AcDbSymbolTableRecord
100
AcDbRegAppTableRecord
  2
GEVDC
 70
     0
  0
APPID
  5
43A
330
9
100
AcDbSymbolTableRecord
100
AcDbRegAppTableRecord
  2
GEVRADREF
 70
     0
  0
APPID
  5
43B
330
9
100
AcDbSymbolTableRecord
100
AcDbRegAppTableRecord
  2
GENIUS_GENBH_13
 70
     0
  0
APPID
  5
43C
330
9
100
AcDbSymbolTableRecord
100
AcDbRegAppTableRecord
  2
GENIUS_GENOBJ-NBEHI-BHF_13
 70
     0
  0
APPID
  5
43D
330
9
100
AcDbSymbolTableRecord
100
AcDbRegAppTableRecord
  2
GENIUS_GENOBJ-NBEHI-BHB_13
 70
     0
  0
APPID
  5
43E
330
9
100
AcDbSymbolTableRecord
100
AcDbRegAppTableRecord
  2
GEVID1208829537
 70
     0
  0
APPID
  5
43F
330
9
100
AcDbSymbolTableRecord
100
AcDbRegAppTableRecord
  2
ACAD_DSTYLE_DIMJAG
 70
     0
  0
APPID
  5
440
330
9
100
AcDbSymbolTableRecord
100
AcDbRegAppTableRecord
  2
ACAD_DSTYLE_DIMTALN
 70
     0
  0
APPID
  5
441
330
9
100
AcDbSymbolTableRecord
100
AcDbRegAppTableRecord
  2
AMG_2DHIDE
 70
     0
  0
APPID
  5
442
330
9
100
AcDbSymbolTableRecord
100
AcDbRegAppTableRecord
  2
AMG_2DSTRUCT_BTR
 70
     0
  0
APPID
  5
443
330
9
100
AcDbSymbolTableRecord
100
AcDbRegAppTableRecord
  2
GEVID1208845772
 70
     0
  0
APPID
  5
444
330
9
100
AcDbSymbolTableRecord
100
AcDbRegAppTableRecord
  2
GEVID1208845773
 70
     0
  0
APPID
  5
445
330
9
100
AcDbSymbolTableRecord
100
AcDbRegAppTableRecord
  2
ACADM_2DVIEW_IGN_NOTIFY
 70
     0
  0
APPID
  5
446
330
9
100
AcDbSymbolTableRecord
100
AcDbRegAppTableRecord
  2
GEVID1208845774
 70
     0
  0
APPID
  5
447
330
9
100
AcDbSymbolTableRecord
100
AcDbRegAppTableRecord
  2
GEVID1208845775
 70
     0
  0
APPID
  5
448
330
9
100
AcDbSymbolTableRecord
100
AcDbRegAppTableRecord
  2
GEVID1208845776
 70
     0
  0
APPID
  5
449
330
9
100
AcDbSymbolTableRecord
100
AcDbRegAppTableRecord
  2
GEVID1208845777
 70
     0
  0
APPID
  5
44A
330
9
100
AcDbSymbolTableRecord
100
AcDbRegAppTableRecord
  2
GEVCON
 70
     0
  0
APPID
  5
44B
330
9
100
AcDbSymbolTableRecord
100
AcDbRegAppTableRecord
  2
GENIUS_GENOBJ-F-SCPASSM_13
 70
     0
  0
APPID
  5
44C
330
9
100
AcDbSymbolTableRecord
100
AcDbRegAppTableRecord
  2
GEVID1208845778
 70
     0
  0
APPID
  5
44D
330
9
100
AcDbSymbolTableRecord
100
AcDbRegAppTableRecord
  2
GEVID1208845779
 70
     0
  0
APPID
  5
44E
330
9
100
AcDbSymbolTableRecord
100
AcDbRegAppTableRecord
  2
GEVID1208845780
 70
     0
  0
APPID
  5
44F
330
9
100
AcDbSymbolTableRecord
100
AcDbRegAppTableRecord
  2
GEVID1208845781
 70
     0
  0
APPID
  5
450
330
9
100
AcDbSymbolTableRecord
100
AcDbRegAppTableRecord
  2
GEVID1208845782
 70
     0
  0
APPID
  5
451
330
9
100
AcDbSymbolTableRecord
100
AcDbRegAppTableRecord
  2
GEVID1208845783
 70
     0
  0
APPID
  5
452
330
9
100
AcDbSymbolTableRecord
100
AcDbRegAppTableRecord
  2
GEVID1208845784
 70
     0
  0
APPID
  5
453
330
9
100
AcDbSymbolTableRecord
100
AcDbRegAppTableRecord
  2
GEVID1208845785
 70
     0
  0
APPID
  5
454
330
9
100
AcDbSymbolTableRecord
100
AcDbRegAppTableRecord
  2
GEVID1208845787
 70
     0
  0
APPID
  5
455
330
9
100
AcDbSymbolTableRecord
100
AcDbRegAppTableRecord
  2
GEVID1208845788
 70
     0
  0
APPID
  5
456
330
9
100
AcDbSymbolTableRecord
100
AcDbRegAppTableRecord
  2
GEVID1208845789
 70
     0
  0
APPID
  5
457
330
9
100
AcDbSymbolTableRecord
100
AcDbRegAppTableRecord
  2
GEVID1208845790
 70
     0
  0
APPID
  5
458
330
9
100
AcDbSymbolTableRecord
100
AcDbRegAppTableRecord
  2
GEVID1208845791
 70
     0
  0
APPID
  5
459
330
9
100
AcDbSymbolTableRecord
100
AcDbRegAppTableRecord
  2
GEVID1208845792
 70
     0
  0
APPID
  5
45A
330
9
100
AcDbSymbolTableRecord
100
AcDbRegAppTableRecord
  2
GEVID1208845793
 70
     0
  0
APPID
  5
45B
330
9
100
AcDbSymbolTableRecord
100
AcDbRegAppTableRecord
  2
GEVID1208845794
 70
     0
  0
APPID
  5
45C
330
9
100
AcDbSymbolTableRecord
100
AcDbRegAppTableRecord
  2
GEVID1208845795
 70
     0
  0
APPID
  5
45D
330
9
100
AcDbSymbolTableRecord
100
AcDbRegAppTableRecord
  2
GEVID1208845796
 70
     0
  0
APPID
  5
45E
330
9
100
AcDbSymbolTableRecord
100
AcDbRegAppTableRecord
  2
GEVID1208845797
 70
     0
  0
APPID
  5
45F
330
9
100
AcDbSymbolTableRecord
100
AcDbRegAppTableRecord
  2
GEVID1208845798
 70
     0
  0
APPID
  5
460
330
9
100
AcDbSymbolTableRecord
100
AcDbRegAppTableRecord
  2
GEVID1208845799
 70
     0
  0
APPID
  5
461
330
9
100
AcDbSymbolTableRecord
100
AcDbRegAppTableRecord
  2
GEVID1208845800
 70
     0
  0
APPID
  5
462
330
9
100
AcDbSymbolTableRecord
100
AcDbRegAppTableRecord
  2
GEVID1208845801
 70
     0
  0
APPID
  5
463
330
9
100
AcDbSymbolTableRecord
100
AcDbRegAppTableRecord
  2
GEVID1208845802
 70
     0
  0
APPID
  5
464
330
9
100
AcDbSymbolTableRecord
100
AcDbRegAppTableRecord
  2
GENIUS_GENOBJ-N-DIM_13
 70
     0
  0
APPID
  5
465
330
9
100
AcDbSymbolTableRecord
100
AcDbRegAppTableRecord
  2
GENIUS_GENDIM_13
 70
     0
  0
APPID
  5
466
330
9
100
AcDbSymbolTableRecord
100
AcDbRegAppTableRecord
  2
GENIUS_GENDIMSH_14
 70
     0
  0
APPID
  5
467
330
9
100
AcDbSymbolTableRecord
100
AcDbRegAppTableRecord
  2
GEVID1208845803
 70
     0
  0
APPID
  5
468
330
9
100
AcDbSymbolTableRecord
100
AcDbRegAppTableRecord
  2
GEVID1208845804
 70
     0
  0
APPID
  5
469
330
9
100
AcDbSymbolTableRecord
100
AcDbRegAppTableRecord
  2
GEVID1208845805
 70
     0
  0
APPID
  5
46A
330
9
100
AcDbSymbolTableRecord
100
AcDbRegAppTableRecord
  2
GEVID1208845806
 70
     0
  0
APPID
  5
46B
330
9
100
AcDbSymbolTableRecord
100
AcDbRegAppTableRecord
  2
GEVID1208845807
 70
     0
  0
APPID
  5
46C
330
9
100
AcDbSymbolTableRecord
100
AcDbRegAppTableRecord
  2
GEVID1208845808
 70
     0
  0
APPID
  5
46D
330
9
100
AcDbSymbolTableRecord
100
AcDbRegAppTableRecord
  2
GEVID1208845809
 70
     0
  0
APPID
  5
46E
330
9
100
AcDbSymbolTableRecord
100
AcDbRegAppTableRecord
  2
GEVID1208845810
 70
     0
  0
APPID
  5
46F
330
9
100
AcDbSymbolTableRecord
100
AcDbRegAppTableRecord
  2
GEVID1208845811
 70
     0
  0
APPID
  5
470
330
9
100
AcDbSymbolTableRecord
100
AcDbRegAppTableRecord
  2
GEVID1208845813
 70
     0
  0
APPID
  5
471
330
9
100
AcDbSymbolTableRecord
100
AcDbRegAppTableRecord
  2
GEVID1208845814
 70
     0
  0
APPID
  5
472
330
9
100
AcDbSymbolTableRecord
100
AcDbRegAppTableRecord
  2
GEVID1208845815
 70
     0
  0
APPID
  5
473
330
9
100
AcDbSymbolTableRecord
100
AcDbRegAppTableRecord
  2
GEVID1208845816
 70
     0
  0
APPID
  5
474
330
9
100
AcDbSymbolTableRecord
100
AcDbRegAppTableRecord
  2
GEVID1208845817
 70
     0
  0
APPID
  5
475
330
9
100
AcDbSymbolTableRecord
100
AcDbRegAppTableRecord
  2
GEVID1208845818
 70
     0
  0
APPID
  5
476
330
9
100
AcDbSymbolTableRecord
100
AcDbRegAppTableRecord
  2
GEVID1208845819
 70
     0
  0
APPID
  5
477
330
9
100
AcDbSymbolTableRecord
100
AcDbRegAppTableRecord
  2
GEVID1208845820
 70
     0
  0
APPID
  5
478
330
9
100
AcDbSymbolTableRecord
100
AcDbRegAppTableRecord
  2
GENIUS_GENOBJ-F-SHCL_13
 70
     0
  0
APPID
  5
479
330
9
100
AcDbSymbolTableRecord
100
AcDbRegAppTableRecord
  2
GENIUS_GEFMSH_13
 70
     0
  0
APPID
  5
47A
330
9
100
AcDbSymbolTableRecord
100
AcDbRegAppTableRecord
  2
GENIUS_GENOBJ-F-SHCA_13
 70
     0
  0
APPID
  5
47B
330
9
100
AcDbSymbolTableRecord
100
AcDbRegAppTableRecord
  2
GENIUS_GEFSH_13
 70
     0
  0
APPID
  5
47C
330
9
100
AcDbSymbolTableRecord
100
AcDbRegAppTableRecord
  2
GENIUS_GEFSHP_13
 70
     0
  0
APPID
  5
47D
330
9
100
AcDbSymbolTableRecord
100
AcDbRegAppTableRecord
  2
GENIUS_GEFSHP0_13
 70
     0
  0
APPID
  5
47E
330
9
100
AcDbSymbolTableRecord
100
AcDbRegAppTableRecord
  2
GENIUS_GEFSH0_13
 70
     0
  0
APPID
  5
47F
330
9
100
AcDbSymbolTableRecord
100
AcDbRegAppTableRecord
  2
GENIUS_GEFSHP1_13
 70
     0
  0
APPID
  5
480
330
9
100
AcDbSymbolTableRecord
100
AcDbRegAppTableRecord
  2
GENIUS_GEFSH1_13
 70
     0
  0
APPID
  5
481
330
9
100
AcDbSymbolTableRecord
100
AcDbRegAppTableRecord
  2
GEVID1208866337
 70
     0
  0
APPID
  5
482
330
9
100
AcDbSymbolTableRecord
100
AcDbRegAppTableRecord
  2
GEVID1208866338
 70
     0
  0
APPID
  5
483
330
9
100
AcDbSymbolTableRecord
100
AcDbRegAppTableRecord
  2
GEVID1208866339
 70
     0
  0
APPID
  5
484
330
9
100
AcDbSymbolTableRecord
100
AcDbRegAppTableRecord
  2
GEVID1208866340
 70
     0
  0
APPID
  5
485
330
9
100
AcDbSymbolTableRecord
100
AcDbRegAppTableRecord
  2
GEVID1208866341
 70
     0
  0
APPID
  5
486
330
9
100
AcDbSymbolTableRecord
100
AcDbRegAppTableRecord
  2
ACAD_PSEXT
 70
     0
  0
APPID
  5
487
330
9
100
AcDbSymbolTableRecord
100
AcDbRegAppTableRecord
  2
GEVID1208866342
 70
     0
  0
APPID
  5
488
330
9
100
AcDbSymbolTableRecord
100
AcDbRegAppTableRecord
  2
GEVID1208913836
 70
     0
  0
APPID
  5
489
330
9
100
AcDbSymbolTableRecord
100
AcDbRegAppTableRecord
  2
GEVID1208913837
 70
     0
  0
APPID
  5
48A
330
9
100
AcDbSymbolTableRecord
100
AcDbRegAppTableRecord
  2
GEVID1208913838
 70
     0
  0
APPID
  5
48B
330
9
100
AcDbSymbolTableRecord
100
AcDbRegAppTableRecord
  2
GEVID1208913839
 70
     0
  0
APPID
  5
48C
330
9
100
AcDbSymbolTableRecord
100
AcDbRegAppTableRecord
  2
GENIUS_GENDTOL_13
 70
     0
  0
APPID
  5
48D
330
9
100
AcDbSymbolTableRecord
100
AcDbRegAppTableRecord
  2
GEVID1208928889
 70
     0
  0
APPID
  5
48E
330
9
100
AcDbSymbolTableRecord
100
AcDbRegAppTableRecord
  2
GEVID1208928890
 70
     0
  0
APPID
  5
48F
330
9
100
AcDbSymbolTableRecord
100
AcDbRegAppTableRecord
  2
GEVID1208928891
 70
     0
  0
APPID
  5
490
330
9
100
AcDbSymbolTableRecord
100
AcDbRegAppTableRecord
  2
GEVID1208928892
 70
     0
  0
APPID
  5
491
330
9
100
AcDbSymbolTableRecord
100
AcDbRegAppTableRecord
  2
GEVID1208933827
 70
     0
  0
APPID
  5
492
330
9
100
AcDbSymbolTableRecord
100
AcDbRegAppTableRecord
  2
GEVID1208933829
 70
     0
  0
APPID
  5
493
330
9
100
AcDbSymbolTableRecord
100
AcDbRegAppTableRecord
  2
GEVID1208933830
 70
     0
  0
APPID
  5
494
330
9
100
AcDbSymbolTableRecord
100
AcDbRegAppTableRecord
  2
GEVID1208933831
 70
     0
  0
APPID
  5
495
330
9
100
AcDbSymbolTableRecord
100
AcDbRegAppTableRecord
  2
GEVID1208933832
 70
     0
  0
APPID
  5
496
330
9
100
AcDbSymbolTableRecord
100
AcDbRegAppTableRecord
  2
GEVID1208933833
 70
     0
  0
APPID
  5
497
330
9
100
AcDbSymbolTableRecord
100
AcDbRegAppTableRecord
  2
GEVID1208933834
 70
     0
  0
APPID
  5
498
330
9
100
AcDbSymbolTableRecord
100
AcDbRegAppTableRecord
  2
GEVID1208933835
 70
     0
  0
APPID
  5
499
330
9
100
AcDbSymbolTableRecord
100
AcDbRegAppTableRecord
  2
GEVID1208933836
 70
     0
  0
APPID
  5
49A
330
9
100
AcDbSymbolTableRecord
100
AcDbRegAppTableRecord
  2
GEVID1208933837
 70
     0
  0
APPID
  5
49B
330
9
100
AcDbSymbolTableRecord
100
AcDbRegAppTableRecord
  2
GEVID1208933838
 70
     0
  0
APPID
  5
49C
330
9
100
AcDbSymbolTableRecord
100
AcDbRegAppTableRecord
  2
GEVID1208933840
 70
     0
  0
APPID
  5
49D
330
9
100
AcDbSymbolTableRecord
100
AcDbRegAppTableRecord
  2
GEVID1208933842
 70
     0
  0
APPID
  5
49E
330
9
100
AcDbSymbolTableRecord
100
AcDbRegAppTableRecord
  2
GEVID1208933843
 70
     0
  0
APPID
  5
49F
330
9
100
AcDbSymbolTableRecord
100
AcDbRegAppTableRecord
  2
GEVID1208933844
 70
     0
  0
APPID
  5
4A0
330
9
100
AcDbSymbolTableRecord
100
AcDbRegAppTableRecord
  2
GEVID1208933845
 70
     0
  0
APPID
  5
4A1
330
9
100
AcDbSymbolTableRecord
100
AcDbRegAppTableRecord
  2
GEVID1208933846
 70
     0
  0
APPID
  5
4A2
330
9
100
AcDbSymbolTableRecord
100
AcDbRegAppTableRecord
  2
GEVID1208933847
 70
     0
  0
APPID
  5
4A3
330
9
100
AcDbSymbolTableRecord
100
AcDbRegAppTableRecord
  2
GEVID1208933848
 70
     0
  0
APPID
  5
4A4
330
9
100
AcDbSymbolTableRecord
100
AcDbRegAppTableRecord
  2
GEVID1208933849
 70
     0
  0
APPID
  5
4A5
330
9
100
AcDbSymbolTableRecord
100
AcDbRegAppTableRecord
  2
GEVID1208933850
 70
     0
  0
APPID
  5
4A6
330
9
100
AcDbSymbolTableRecord
100
AcDbRegAppTableRecord
  2
GEVID1208933851
 70
     0
  0
APPID
  5
4A7
330
9
100
AcDbSymbolTableRecord
100
AcDbRegAppTableRecord
  2
GEVID1208933852
 70
     0
  0
APPID
  5
4A8
330
9
100
AcDbSymbolTableRecord
100
AcDbRegAppTableRecord
  2
GEVID1208933853
 70
     0
  0
APPID
  5
4A9
330
9
100
AcDbSymbolTableRecord
100
AcDbRegAppTableRecord
  2
GEVID1208933854
 70
     0
  0
APPID
  5
4AA
330
9
100
AcDbSymbolTableRecord
100
AcDbRegAppTableRecord
  2
GEVID1208933855
 70
     0
  0
APPID
  5
4AB
330
9
100
AcDbSymbolTableRecord
100
AcDbRegAppTableRecord
  2
GEVID1208933856
 70
     0
  0
APPID
  5
4AC
330
9
100
AcDbSymbolTableRecord
100
AcDbRegAppTableRecord
  2
GEVID1208933857
 70
     0
  0
APPID
  5
4AD
330
9
100
AcDbSymbolTableRecord
100
AcDbRegAppTableRecord
  2
GEVID1208933858
 70
     0
  0
APPID
  5
4AE
330
9
100
AcDbSymbolTableRecord
100
AcDbRegAppTableRecord
  2
GEVID1208933859
 70
     0
  0
APPID
  5
4AF
330
9
100
AcDbSymbolTableRecord
100
AcDbRegAppTableRecord
  2
GEVID1208933860
 70
     0
  0
APPID
  5
4B0
330
9
100
AcDbSymbolTableRecord
100
AcDbRegAppTableRecord
  2
GEVID1208933861
 70
     0
  0
APPID
  5
4B1
330
9
100
AcDbSymbolTableRecord
100
AcDbRegAppTableRecord
  2
GEVID1208933862
 70
     0
  0
APPID
  5
4B2
330
9
100
AcDbSymbolTableRecord
100
AcDbRegAppTableRecord
  2
GEVID1208933863
 70
     0
  0
APPID
  5
4B3
330
9
100
AcDbSymbolTableRecord
100
AcDbRegAppTableRecord
  2
GEVID1208933864
 70
     0
  0
APPID
  5
4B4
330
9
100
AcDbSymbolTableRecord
100
AcDbRegAppTableRecord
  2
GEVID1208933865
 70
     0
  0
APPID
  5
4B5
330
9
100
AcDbSymbolTableRecord
100
AcDbRegAppTableRecord
  2
GEVID1208933866
 70
     0
  0
APPID
  5
4B6
330
9
100
AcDbSymbolTableRecord
100
AcDbRegAppTableRecord
  2
GEVID1208933867
 70
     0
  0
APPID
  5
4B7
330
9
100
AcDbSymbolTableRecord
100
AcDbRegAppTableRecord
  2
GEVID1208933868
 70
     0
  0
APPID
  5
4B8
330
9
100
AcDbSymbolTableRecord
100
AcDbRegAppTableRecord
  2
GEVID1208933869
 70
     0
  0
APPID
  5
4B9
330
9
100
AcDbSymbolTableRecord
100
AcDbRegAppTableRecord
  2
GEVID1208933870
 70
     0
  0
APPID
  5
4BA
330
9
100
AcDbSymbolTableRecord
100
AcDbRegAppTableRecord
  2
GEVID1208933871
 70
     0
  0
APPID
  5
4BB
330
9
100
AcDbSymbolTableRecord
100
AcDbRegAppTableRecord
  2
GEVID1208933872
 70
     0
  0
APPID
  5
4BC
330
9
100
AcDbSymbolTableRecord
100
AcDbRegAppTableRecord
  2
GEVID1208933873
 70
     0
  0
APPID
  5
4BD
330
9
100
AcDbSymbolTableRecord
100
AcDbRegAppTableRecord
  2
GEVID1208933874
 70
     0
  0
APPID
  5
4BE
330
9
100
AcDbSymbolTableRecord
100
AcDbRegAppTableRecord
  2
GEVID1208933875
 70
     0
  0
APPID
  5
4BF
330
9
100
AcDbSymbolTableRecord
100
AcDbRegAppTableRecord
  2
GEVID1208933876
 70
     0
  0
APPID
  5
4C0
330
9
100
AcDbSymbolTableRecord
100
AcDbRegAppTableRecord
  2
ACAD_DSTYLE_DIMRADIAL_EXTENSION
 70
     0
  0
APPID
  5
4C1
330
9
100
AcDbSymbolTableRecord
100
AcDbRegAppTableRecord
  2
GEVID1208999100
 70
     0
  0
APPID
  5
4C2
330
9
100
AcDbSymbolTableRecord
100
AcDbRegAppTableRecord
  2
GEVID1208999101
 70
     0
  0
APPID
  5
4C3
330
9
100
AcDbSymbolTableRecord
100
AcDbRegAppTableRecord
  2
GEVID1208999102
 70
     0
  0
APPID
  5
4C4
330
9
100
AcDbSymbolTableRecord
100
AcDbRegAppTableRecord
  2
GEVID1208999103
 70
     0
  0
APPID
  5
4C5
330
9
100
AcDbSymbolTableRecord
100
AcDbRegAppTableRecord
  2
GEVID1208999105
 70
     0
  0
APPID
  5
4C6
330
9
100
AcDbSymbolTableRecord
100
AcDbRegAppTableRecord
  2
GEVID1208999106
 70
     0
  0
APPID
  5
4C7
330
9
100
AcDbSymbolTableRecord
100
AcDbRegAppTableRecord
  2
GEVID1208999108
 70
     0
  0
APPID
  5
4C8
330
9
100
AcDbSymbolTableRecord
100
AcDbRegAppTableRecord
  2
GEVID1208999109
 70
     0
  0
APPID
  5
4C9
330
9
100
AcDbSymbolTableRecord
100
AcDbRegAppTableRecord
  2
GEVID1208999110
 70
     0
  0
APPID
  5
4CA
330
9
100
AcDbSymbolTableRecord
100
AcDbRegAppTableRecord
  2
GEVID1208999111
 70
     0
  0
APPID
  5
4CB
330
9
100
AcDbSymbolTableRecord
100
AcDbRegAppTableRecord
  2
GEVID1208999112
 70
     0
  0
APPID
  5
4CC
330
9
100
AcDbSymbolTableRecord
100
AcDbRegAppTableRecord
  2
GEVID1208999113
 70
     0
  0
APPID
  5
4CD
330
9
100
AcDbSymbolTableRecord
100
AcDbRegAppTableRecord
  2
GEVID1208999114
 70
     0
  0
APPID
  5
4CE
330
9
100
AcDbSymbolTableRecord
100
AcDbRegAppTableRecord
  2
GEVID1210218799
 70
     0
  0
APPID
  5
4CF
330
9
100
AcDbSymbolTableRecord
100
AcDbRegAppTableRecord
  2
GEVID1210218800
 70
     0
  0
APPID
  5
4D0
330
9
100
AcDbSymbolTableRecord
100
AcDbRegAppTableRecord
  2
GENIUS_GEFWELD_13
 70
     0
  0
APPID
  5
4D1
330
9
100
AcDbSymbolTableRecord
100
AcDbRegAppTableRecord
  2
GENIUS_GENOBJ-F-WELS_13
 70
     0
  0
APPID
  5
4D2
330
9
100
AcDbSymbolTableRecord
100
AcDbRegAppTableRecord
  2
AcadAnnotative
 70
     0
  0
APPID
  5
4D3
330
9
100
AcDbSymbolTableRecord
100
AcDbRegAppTableRecord
  2
GEVID1210145339
 70
     0
  0
APPID
  5
4D4
330
9
100
AcDbSymbolTableRecord
100
AcDbRegAppTableRecord
  2
ACAD_DSTYLE_DIMBREAK
 70
     0
  0
APPID
  5
4D5
330
9
100
AcDbSymbolTableRecord
100
AcDbRegAppTableRecord
  2
GEVID1210145340
 70
     0
  0
APPID
  5
4D6
330
9
100
AcDbSymbolTableRecord
100
AcDbRegAppTableRecord
  2
GEVID1210145341
 70
     0
  0
APPID
  5
4D7
330
9
100
AcDbSymbolTableRecord
100
AcDbRegAppTableRecord
  2
GEVID1210145342
 70
     0
  0
APPID
  5
4D8
330
9
100
AcDbSymbolTableRecord
100
AcDbRegAppTableRecord
  2
GEVID1210145343
 70
     0
  0
APPID
  5
4D9
330
9
100
AcDbSymbolTableRecord
100
AcDbRegAppTableRecord
  2
GEVID1210145344
 70
     0
  0
APPID
  5
4DA
330
9
100
AcDbSymbolTableRecord
100
AcDbRegAppTableRecord
  2
GEVID1210145345
 70
     0
  0
APPID
  5
4DB
330
9
100
AcDbSymbolTableRecord
100
AcDbRegAppTableRecord
  2
GEVID1210152816
 70
     0
  0
APPID
  5
4DC
330
9
100
AcDbSymbolTableRecord
100
AcDbRegAppTableRecord
  2
GEVID1210153850
 70
     0
  0
APPID
  5
4DD
330
9
100
AcDbSymbolTableRecord
100
AcDbRegAppTableRecord
  2
GEVID1210153851
 70
     0
  0
APPID
  5
4DE
330
9
100
AcDbSymbolTableRecord
100
AcDbRegAppTableRecord
  2
GEVID1210153852
 70
     0
  0
APPID
  5
4DF
330
9
100
AcDbSymbolTableRecord
100
AcDbRegAppTableRecord
  2
GEVID1210549898
 70
     0
  0
APPID
  5
4E0
330
9
100
AcDbSymbolTableRecord
100
AcDbRegAppTableRecord
  2
GEVID1210549899
 70
     0
  0
APPID
  5
4E1
330
9
100
AcDbSymbolTableRecord
100
AcDbRegAppTableRecord
  2
GEVID1210549900
 70
     0
  0
APPID
  5
4E2
330
9
100
AcDbSymbolTableRecord
100
AcDbRegAppTableRecord
  2
GEVID1210549901
 70
     0
  0
APPID
  5
4E3
330
9
100
AcDbSymbolTableRecord
100
AcDbRegAppTableRecord
  2
GEVID1210549902
 70
     0
  0
APPID
  5
4E4
330
9
100
AcDbSymbolTableRecord
100
AcDbRegAppTableRecord
  2
GEVID1210549903
 70
     0
  0
APPID
  5
4E5
330
9
100
AcDbSymbolTableRecord
100
AcDbRegAppTableRecord
  2
GEVID1210549904
 70
     0
  0
APPID
  5
4E6
330
9
100
AcDbSymbolTableRecord
100
AcDbRegAppTableRecord
  2
GEVID1210549905
 70
     0
  0
APPID
  5
4E7
330
9
100
AcDbSymbolTableRecord
100
AcDbRegAppTableRecord
  2
GEVID1210549906
 70
     0
  0
APPID
  5
4E8
330
9
100
AcDbSymbolTableRecord
100
AcDbRegAppTableRecord
  2
GEVID1210549907
 70
     0
  0
APPID
  5
4E9
330
9
100
AcDbSymbolTableRecord
100
AcDbRegAppTableRecord
  2
GEVID1210549908
 70
     0
  0
APPID
  5
4EA
330
9
100
AcDbSymbolTableRecord
100
AcDbRegAppTableRecord
  2
GEVID1210549909
 70
     0
  0
APPID
  5
4EB
330
9
100
AcDbSymbolTableRecord
100
AcDbRegAppTableRecord
  2
GEVID1210549910
 70
     0
  0
APPID
  5
4EC
330
9
100
AcDbSymbolTableRecord
100
AcDbRegAppTableRecord
  2
GEVID1210549911
 70
     0
  0
APPID
  5
4ED
330
9
100
AcDbSymbolTableRecord
100
AcDbRegAppTableRecord
  2
GEVID1210549912
 70
     0
  0
APPID
  5
4EE
330
9
100
AcDbSymbolTableRecord
100
AcDbRegAppTableRecord
  2
GEVID1210549913
 70
     0
  0
APPID
  5
4EF
330
9
100
AcDbSymbolTableRecord
100
AcDbRegAppTableRecord
  2
GEVID1210549914
 70
     0
  0
APPID
  5
4F0
330
9
100
AcDbSymbolTableRecord
100
AcDbRegAppTableRecord
  2
GEVID1210549915
 70
     0
  0
APPID
  5
4F1
330
9
100
AcDbSymbolTableRecord
100
AcDbRegAppTableRecord
  2
GEVID1210549916
 70
     0
  0
APPID
  5
4F2
330
9
100
AcDbSymbolTableRecord
100
AcDbRegAppTableRecord
  2
GEVID1210549917
 70
     0
  0
APPID
  5
4F3
330
9
100
AcDbSymbolTableRecord
100
AcDbRegAppTableRecord
  2
GENIUS_GENOBJ-N-CRS_13
 70
     0
  0
APPID
  5
4F4
330
9
100
AcDbSymbolTableRecord
100
AcDbRegAppTableRecord
  2
GEVID1210549918
 70
     0
  0
APPID
  5
4F5
330
9
100
AcDbSymbolTableRecord
100
AcDbRegAppTableRecord
  2
GENIUS_GENOBJ-N-CRC_13
 70
     0
  0
APPID
  5
4F6
330
9
100
AcDbSymbolTableRecord
100
AcDbRegAppTableRecord
  2
GENIUS_GENCRC_14
 70
     0
  0
APPID
  5
4F7
330
9
100
AcDbSymbolTableRecord
100
AcDbRegAppTableRecord
  2
GEVID1210549919
 70
     0
  0
APPID
  5
4F8
330
9
100
AcDbSymbolTableRecord
100
AcDbRegAppTableRecord
  2
GEVID1210549921
 70
     0
  0
APPID
  5
4F9
330
9
100
AcDbSymbolTableRecord
100
AcDbRegAppTableRecord
  2
GEVID1210549922
 70
     0
  0
APPID
  5
4FA
330
9
100
AcDbSymbolTableRecord
100
AcDbRegAppTableRecord
  2
GEVID1210635173
 70
     0
  0
APPID
  5
4FB
330
9
100
AcDbSymbolTableRecord
100
AcDbRegAppTableRecord
  2
GEVID1210635174
 70
     0
  0
APPID
  5
4FC
330
9
100
AcDbSymbolTableRecord
100
AcDbRegAppTableRecord
  2
GEVID1210635175
 70
     0
  0
APPID
  5
4FD
330
9
100
AcDbSymbolTableRecord
100
AcDbRegAppTableRecord
  2
GEVID1210635176
 70
     0
  0
APPID
  5
4FE
330
9
100
AcDbSymbolTableRecord
100
AcDbRegAppTableRecord
  2
GEVID1210635177
 70
     0
  0
APPID
  5
4FF
330
9
100
AcDbSymbolTableRecord
100
AcDbRegAppTableRecord
  2
GEVID1210635178
 70
     0
  0
APPID
  5
500
330
9
100
AcDbSymbolTableRecord
100
AcDbRegAppTableRecord
  2
GENIUS_GENIUS_GENBHEDTMP_13
 70
     0
  0
APPID
  5
501
330
9
100
AcDbSymbolTableRecord
100
AcDbRegAppTableRecord
  2
GEVID1210635179
 70
     0
  0
APPID
  5
502
330
9
100
AcDbSymbolTableRecord
100
AcDbRegAppTableRecord
  2
GEVID1210635180
 70
     0
  0
APPID
  5
503
330
9
100
AcDbSymbolTableRecord
100
AcDbRegAppTableRecord
  2
GEVID1210635181
 70
     0
  0
APPID
  5
504
330
9
100
AcDbSymbolTableRecord
100
AcDbRegAppTableRecord
  2
GEVID1210635182
 70
     0
  0
APPID
  5
505
330
9
100
AcDbSymbolTableRecord
100
AcDbRegAppTableRecord
  2
GEVID1210635184
 70
     0
  0
APPID
  5
506
330
9
100
AcDbSymbolTableRecord
100
AcDbRegAppTableRecord
  2
GEVID1210635185
 70
     0
  0
APPID
  5
507
330
9
100
AcDbSymbolTableRecord
100
AcDbRegAppTableRecord
  2
GEVID1210635186
 70
     0
  0
APPID
  5
508
330
9
100
AcDbSymbolTableRecord
100
AcDbRegAppTableRecord
  2
GEVID1210635187
 70
     0
  0
APPID
  5
509
330
9
100
AcDbSymbolTableRecord
100
AcDbRegAppTableRecord
  2
GEVID1210635188
 70
     0
  0
APPID
  5
50A
330
9
100
AcDbSymbolTableRecord
100
AcDbRegAppTableRecord
  2
GEVID1210635189
 70
     0
  0
APPID
  5
50B
330
9
100
AcDbSymbolTableRecord
100
AcDbRegAppTableRecord
  2
GEVID1210635190
 70
     0
  0
APPID
  5
50C
330
9
100
AcDbSymbolTableRecord
100
AcDbRegAppTableRecord
  2
GENIUS_GENREC_14
 70
     0
  0
APPID
  5
50D
330
9
100
AcDbSymbolTableRecord
100
AcDbRegAppTableRecord
  2
GENIUS_GENOBJ-N-REC_13
 70
     0
  0
APPID
  5
50E
330
9
100
AcDbSymbolTableRecord
100
AcDbRegAppTableRecord
  2
GEVID1210676655
 70
     0
  0
APPID
  5
50F
330
9
100
AcDbSymbolTableRecord
100
AcDbRegAppTableRecord
  2
GEVID1210676656
 70
     0
  0
APPID
  5
510
330
9
100
AcDbSymbolTableRecord
100
AcDbRegAppTableRecord
  2
GEVID1210676657
 70
     0
  0
APPID
  5
511
330
9
100
AcDbSymbolTableRecord
100
AcDbRegAppTableRecord
  2
GEVID1210676659
 70
     0
  0
APPID
  5
512
330
9
100
AcDbSymbolTableRecord
100
AcDbRegAppTableRecord
  2
GEVID1210676660
 70
     0
  0
APPID
  5
513
330
9
100
AcDbSymbolTableRecord
100
AcDbRegAppTableRecord
  2
GEVID1210676661
 70
     0
  0
APPID
  5
514
330
9
100
AcDbSymbolTableRecord
100
AcDbRegAppTableRecord
  2
GEVID1210676662
 70
     0
  0
APPID
  5
515
330
9
100
AcDbSymbolTableRecord
100
AcDbRegAppTableRecord
  2
GEVID1210721646
 70
     0
  0
APPID
  5
516
330
9
100
AcDbSymbolTableRecord
100
AcDbRegAppTableRecord
  2
GEVID1210721647
 70
     0
  0
APPID
  5
517
330
9
100
AcDbSymbolTableRecord
100
AcDbRegAppTableRecord
  2
GEVID1210721648
 70
     0
  0
APPID
  5
518
330
9
100
AcDbSymbolTableRecord
100
AcDbRegAppTableRecord
  2
GEVID1210721649
 70
     0
  0
APPID
  5
519
330
9
100
AcDbSymbolTableRecord
100
AcDbRegAppTableRecord
  2
GEVID1210721650
 70
     0
  0
APPID
  5
51A
330
9
100
AcDbSymbolTableRecord
100
AcDbRegAppTableRecord
  2
GEVID1210721651
 70
     0
  0
APPID
  5
51B
330
9
100
AcDbSymbolTableRecord
100
AcDbRegAppTableRecord
  2
GEVID1210721652
 70
     0
  0
APPID
  5
51C
330
9
100
AcDbSymbolTableRecord
100
AcDbRegAppTableRecord
  2
GEVID1210721653
 70
     0
  0
APPID
  5
51D
330
9
100
AcDbSymbolTableRecord
100
AcDbRegAppTableRecord
  2
PE_URL
 70
     0
  0
APPID
  5
51E
330
9
100
AcDbSymbolTableRecord
100
AcDbRegAppTableRecord
  2
GEVID1210825555
 70
     0
  0
APPID
  5
51F
330
9
100
AcDbSymbolTableRecord
100
AcDbRegAppTableRecord
  2
GEVID1210825556
 70
     0
  0
APPID
  5
520
330
9
100
AcDbSymbolTableRecord
100
AcDbRegAppTableRecord
  2
GEVID1210825557
 70
     0
  0
APPID
  5
521
330
9
100
AcDbSymbolTableRecord
100
AcDbRegAppTableRecord
  2
GEVID1210825558
 70
     0
  0
APPID
  5
522
330
9
100
AcDbSymbolTableRecord
100
AcDbRegAppTableRecord
  2
GEVID1210825559
 70
     0
  0
APPID
  5
523
330
9
100
AcDbSymbolTableRecord
100
AcDbRegAppTableRecord
  2
GEVID1210825560
 70
     0
  0
APPID
  5
524
330
9
100
AcDbSymbolTableRecord
100
AcDbRegAppTableRecord
  2
GEVID1210825561
 70
     0
  0
APPID
  5
525
330
9
100
AcDbSymbolTableRecord
100
AcDbRegAppTableRecord
  2
GEVID1210825562
 70
     0
  0
APPID
  5
526
330
9
100
AcDbSymbolTableRecord
100
AcDbRegAppTableRecord
  2
GEVID1210825563
 70
     0
  0
APPID
  5
527
330
9
100
AcDbSymbolTableRecord
100
AcDbRegAppTableRecord
  2
GEVID1210825564
 70
     0
  0
APPID
  5
528
330
9
100
AcDbSymbolTableRecord
100
AcDbRegAppTableRecord
  2
GEVID1210825565
 70
     0
  0
APPID
  5
529
330
9
100
AcDbSymbolTableRecord
100
AcDbRegAppTableRecord
  2
GEVID1210825566
 70
     0
  0
APPID
  5
52A
330
9
100
AcDbSymbolTableRecord
100
AcDbRegAppTableRecord
  2
GEVID1210825567
 70
     0
  0
APPID
  5
52B
330
9
100
AcDbSymbolTableRecord
100
AcDbRegAppTableRecord
  2
GENIUS_GENOBJ-N-ZOO_13
 70
     0
  0
APPID
  5
52C
330
9
100
AcDbSymbolTableRecord
100
AcDbRegAppTableRecord
  2
GENIUS_GENZOO_17
 70
     0
  0
APPID
  5
52D
330
9
100
AcDbSymbolTableRecord
100
AcDbRegAppTableRecord
  2
ACADANNOTATIVEDECOMPOSITION
 70
     0
  0
APPID
  5
52E
330
9
100
AcDbSymbolTableRecord
100
AcDbRegAppTableRecord
  2
GENIUS_GENOBJ-N-HTC_13
 70
     0
  0
APPID
  5
52F
330
9
100
AcDbSymbolTableRecord
100
AcDbRegAppTableRecord
  2
GENIUS_GENHATCH_13
 70
     0
  0
APPID
  5
530
330
9
100
AcDbSymbolTableRecord
100
AcDbRegAppTableRecord
  2
GEVID1210896020
 70
     0
  0
APPID
  5
531
330
9
100
AcDbSymbolTableRecord
100
AcDbRegAppTableRecord
  2
GEVID1210896021
 70
     0
  0
APPID
  5
532
330
9
100
AcDbSymbolTableRecord
100
AcDbRegAppTableRecord
  2
GEVID1209083540
 70
     0
  0
APPID
  5
533
330
9
100
AcDbSymbolTableRecord
100
AcDbRegAppTableRecord
  2
GEVMK
 70
     0
  0
APPID
  5
534
330
9
100
AcDbSymbolTableRecord
100
AcDbRegAppTableRecord
  2
GEVID1209083542
 70
     0
  0
APPID
  5
535
330
9
100
AcDbSymbolTableRecord
100
AcDbRegAppTableRecord
  2
GEVID1209083543
 70
     0
  0
APPID
  5
536
330
9
100
AcDbSymbolTableRecord
100
AcDbRegAppTableRecord
  2
GEVID1209083544
 70
     0
  0
APPID
  5
537
330
9
100
AcDbSymbolTableRecord
100
AcDbRegAppTableRecord
  2
GEVID1209083545
 70
     0
  0
APPID
  5
538
330
9
100
AcDbSymbolTableRecord
100
AcDbRegAppTableRecord
  2
GEVID1209083546
 70
     0
  0
APPID
  5
539
330
9
100
AcDbSymbolTableRecord
100
AcDbRegAppTableRecord
  2
GEVID1209083547
 70
     0
  0
APPID
  5
53A
330
9
100
AcDbSymbolTableRecord
100
AcDbRegAppTableRecord
  2
GEVID1209083548
 70
     0
  0
APPID
  5
53B
330
9
100
AcDbSymbolTableRecord
100
AcDbRegAppTableRecord
  2
GEVID1209083549
 70
     0
  0
APPID
  5
53C
330
9
100
AcDbSymbolTableRecord
100
AcDbRegAppTableRecord
  2
GEVID1209083550
 70
     0
  0
APPID
  5
53D
330
9
100
AcDbSymbolTableRecord
100
AcDbRegAppTableRecord
  2
GEVID1209083551
 70
     0
  0
APPID
  5
53E
330
9
100
AcDbSymbolTableRecord
100
AcDbRegAppTableRecord
  2
GEVID1209083552
 70
     0
  0
APPID
  5
53F
330
9
100
AcDbSymbolTableRecord
100
AcDbRegAppTableRecord
  2
GEVID1209083553
 70
     0
  0
APPID
  5
540
330
9
100
AcDbSymbolTableRecord
100
AcDbRegAppTableRecord
  2
GEVID1210896022
 70
     0
  0
APPID
  5
541
330
9
100
AcDbSymbolTableRecord
100
AcDbRegAppTableRecord
  2
GEVID1211508364
 70
     0
  0
APPID
  5
542
330
9
100
AcDbSymbolTableRecord
100
AcDbRegAppTableRecord
  2
GEVID1211414908
 70
     0
  0
APPID
  5
543
330
9
100
AcDbSymbolTableRecord
100
AcDbRegAppTableRecord
  2
GEVID1211414909
 70
     0
  0
APPID
  5
544
330
9
100
AcDbSymbolTableRecord
100
AcDbRegAppTableRecord
  2
GEVID1211508359
 70
     0
  0
APPID
  5
545
330
9
100
AcDbSymbolTableRecord
100
AcDbRegAppTableRecord
  2
GEVID1211508360
 70
     0
  0
APPID
  5
546
330
9
100
AcDbSymbolTableRecord
100
AcDbRegAppTableRecord
  2
GEVID1211508361
 70
     0
  0
APPID
  5
547
330
9
100
AcDbSymbolTableRecord
100
AcDbRegAppTableRecord
  2
GEVID1211508362
 70
     0
  0
APPID
  5
548
330
9
100
AcDbSymbolTableRecord
100
AcDbRegAppTableRecord
  2
GEVID1211508363
 70
     0
  0
APPID
  5
549
330
9
100
AcDbSymbolTableRecord
100
AcDbRegAppTableRecord
  2
GEVID1211878469
 70
     0
  0
APPID
  5
54A
330
9
100
AcDbSymbolTableRecord
100
AcDbRegAppTableRecord
  2
GEVID1212642819
 70
     0
  0
APPID
  5
54B
330
9
100
AcDbSymbolTableRecord
100
AcDbRegAppTableRecord
  2
GEVID1212642820
 70
     0
  0
APPID
  5
54C
330
9
100
AcDbSymbolTableRecord
100
AcDbRegAppTableRecord
  2
GEVID1212642821
 70
     0
  0
APPID
  5
54D
330
9
100
AcDbSymbolTableRecord
100
AcDbRegAppTableRecord
  2
GEVID1212642822
 70
     0
  0
APPID
  5
54E
330
9
100
AcDbSymbolTableRecord
100
AcDbRegAppTableRecord
  2
GEVID1212642823
 70
     0
  0
APPID
  5
54F
330
9
100
AcDbSymbolTableRecord
100
AcDbRegAppTableRecord
  2
GEVID1212642825
 70
     0
  0
APPID
  5
550
330
9
100
AcDbSymbolTableRecord
100
AcDbRegAppTableRecord
  2
GEVID1212642826
 70
     0
  0
APPID
  5
551
330
9
100
AcDbSymbolTableRecord
100
AcDbRegAppTableRecord
  2
GEVID1212642827
 70
     0
  0
APPID
  5
552
330
9
100
AcDbSymbolTableRecord
100
AcDbRegAppTableRecord
  2
GEVID1212642828
 70
     0
  0
APPID
  5
553
330
9
100
AcDbSymbolTableRecord
100
AcDbRegAppTableRecord
  2
GEVID1212642831
 70
     0
  0
APPID
  5
554
330
9
100
AcDbSymbolTableRecord
100
AcDbRegAppTableRecord
  2
GEVID1212642834
 70
     0
  0
APPID
  5
555
330
9
100
AcDbSymbolTableRecord
100
AcDbRegAppTableRecord
  2
GEVID1212642835
 70
     0
  0
APPID
  5
556
330
9
100
AcDbSymbolTableRecord
100
AcDbRegAppTableRecord
  2
GEVID1212642836
 70
     0
  0
APPID
  5
557
330
9
100
AcDbSymbolTableRecord
100
AcDbRegAppTableRecord
  2
GEVID1212642837
 70
     0
  0
APPID
  5
558
330
9
100
AcDbSymbolTableRecord
100
AcDbRegAppTableRecord
  2
GEVID1212642839
 70
     0
  0
APPID
  5
559
330
9
100
AcDbSymbolTableRecord
100
AcDbRegAppTableRecord
  2
GEVID1212642840
 70
     0
  0
APPID
  5
55A
330
9
100
AcDbSymbolTableRecord
100
AcDbRegAppTableRecord
  2
GEVID1212642841
 70
     0
  0
APPID
  5
55B
330
9
100
AcDbSymbolTableRecord
100
AcDbRegAppTableRecord
  2
GEVID1212655312
 70
     0
  0
APPID
  5
55C
330
9
100
AcDbSymbolTableRecord
100
AcDbRegAppTableRecord
  2
GEVID1212655313
 70
     0
  0
APPID
  5
55D
330
9
100
AcDbSymbolTableRecord
100
AcDbRegAppTableRecord
  2
GEVID1212656533
 70
     0
  0
APPID
  5
55E
330
9
100
AcDbSymbolTableRecord
100
AcDbRegAppTableRecord
  2
GEVID1212656534
 70
     0
  0
APPID
  5
55F
330
9
100
AcDbSymbolTableRecord
100
AcDbRegAppTableRecord
  2
GEVID1212656535
 70
     0
  0
APPID
  5
560
330
9
100
AcDbSymbolTableRecord
100
AcDbRegAppTableRecord
  2
GEVID1212656536
 70
     0
  0
APPID
  5
561
330
9
100
AcDbSymbolTableRecord
100
AcDbRegAppTableRecord
  2
GEVID1212656538
 70
     0
  0
APPID
  5
562
330
9
100
AcDbSymbolTableRecord
100
AcDbRegAppTableRecord
  2
GEVID1212656541
 70
     0
  0
APPID
  5
563
330
9
100
AcDbSymbolTableRecord
100
AcDbRegAppTableRecord
  2
GEVID1212656543
 70
     0
  0
APPID
  5
564
330
9
100
AcDbSymbolTableRecord
100
AcDbRegAppTableRecord
  2
GENIUS_GENOBJ-F-PFASSM_13
 70
     0
  0
APPID
  5
565
330
9
100
AcDbSymbolTableRecord
100
AcDbRegAppTableRecord
  2
GEVID1212656544
 70
     0
  0
APPID
  5
566
330
9
100
AcDbSymbolTableRecord
100
AcDbRegAppTableRecord
  2
GEVID1212656545
 70
     0
  0
APPID
  5
567
330
9
100
AcDbSymbolTableRecord
100
AcDbRegAppTableRecord
  2
GEVID1212656546
 70
     0
  0
APPID
  5
568
330
9
100
AcDbSymbolTableRecord
100
AcDbRegAppTableRecord
  2
GEVID1212656547
 70
     0
  0
APPID
  5
569
330
9
100
AcDbSymbolTableRecord
100
AcDbRegAppTableRecord
  2
GEVID1212656548
 70
     0
  0
APPID
  5
56A
330
9
100
AcDbSymbolTableRecord
100
AcDbRegAppTableRecord
  2
GEVID1212656549
 70
     0
  0
APPID
  5
56B
330
9
100
AcDbSymbolTableRecord
100
AcDbRegAppTableRecord
  2
GEVID1212656550
 70
     0
  0
APPID
  5
56C
330
9
100
AcDbSymbolTableRecord
100
AcDbRegAppTableRecord
  2
GEVID1212656552
 70
     0
  0
APPID
  5
56D
330
9
100
AcDbSymbolTableRecord
100
AcDbRegAppTableRecord
  2
GEVID1212656553
 70
     0
  0
APPID
  5
56E
330
9
100
AcDbSymbolTableRecord
100
AcDbRegAppTableRecord
  2
GEVID1212656554
 70
     0
  0
APPID
  5
56F
330
9
100
AcDbSymbolTableRecord
100
AcDbRegAppTableRecord
  2
GEVID1212656555
 70
     0
  0
APPID
  5
570
330
9
100
AcDbSymbolTableRecord
100
AcDbRegAppTableRecord
  2
GEVID1212656556
 70
     0
  0
APPID
  5
571
330
9
100
AcDbSymbolTableRecord
100
AcDbRegAppTableRecord
  2
GEVID1212656557
 70
     0
  0
APPID
  5
572
330
9
100
AcDbSymbolTableRecord
100
AcDbRegAppTableRecord
  2
GEVID1212656559
 70
     0
  0
APPID
  5
573
330
9
100
AcDbSymbolTableRecord
100
AcDbRegAppTableRecord
  2
GEVID1212656560
 70
     0
  0
APPID
  5
574
330
9
100
AcDbSymbolTableRecord
100
AcDbRegAppTableRecord
  2
GEVID1212656561
 70
     0
  0
APPID
  5
575
330
9
100
AcDbSymbolTableRecord
100
AcDbRegAppTableRecord
  2
GEVID1212656562
 70
     0
  0
APPID
  5
576
330
9
100
AcDbSymbolTableRecord
100
AcDbRegAppTableRecord
  2
GEVID1212656563
 70
     0
  0
APPID
  5
577
330
9
100
AcDbSymbolTableRecord
100
AcDbRegAppTableRecord
  2
GEVID1212711781
 70
     0
  0
APPID
  5
578
330
9
100
AcDbSymbolTableRecord
100
AcDbRegAppTableRecord
  2
GEVID1212711782
 70
     0
  0
APPID
  5
579
330
9
100
AcDbSymbolTableRecord
100
AcDbRegAppTableRecord
  2
GEVID1212711783
 70
     0
  0
APPID
  5
57A
330
9
100
AcDbSymbolTableRecord
100
AcDbRegAppTableRecord
  2
GEVID1212711784
 70
     0
  0
APPID
  5
57B
330
9
100
AcDbSymbolTableRecord
100
AcDbRegAppTableRecord
  2
GEVID1212711788
 70
     0
  0
APPID
  5
57C
330
9
100
AcDbSymbolTableRecord
100
AcDbRegAppTableRecord
  2
GEVID1212711789
 70
     0
  0
APPID
  5
57D
330
9
100
AcDbSymbolTableRecord
100
AcDbRegAppTableRecord
  2
GEVID1212711790
 70
     0
  0
APPID
  5
57E
330
9
100
AcDbSymbolTableRecord
100
AcDbRegAppTableRecord
  2
GEVID1212711791
 70
     0
  0
APPID
  5
57F
330
9
100
AcDbSymbolTableRecord
100
AcDbRegAppTableRecord
  2
GEVID1212711792
 70
     0
  0
APPID
  5
580
330
9
100
AcDbSymbolTableRecord
100
AcDbRegAppTableRecord
  2
GEVID1212711793
 70
     0
  0
APPID
  5
581
330
9
100
AcDbSymbolTableRecord
100
AcDbRegAppTableRecord
  2
GEVID1212711794
 70
     0
  0
APPID
  5
582
330
9
100
AcDbSymbolTableRecord
100
AcDbRegAppTableRecord
  2
GEVID1212711795
 70
     0
  0
APPID
  5
583
330
9
100
AcDbSymbolTableRecord
100
AcDbRegAppTableRecord
  2
GEVID1212711797
 70
     0
  0
APPID
  5
584
330
9
100
AcDbSymbolTableRecord
100
AcDbRegAppTableRecord
  2
GEVID1212711798
 70
     0
  0
APPID
  5
585
330
9
100
AcDbSymbolTableRecord
100
AcDbRegAppTableRecord
  2
GEVID1212711799
 70
     0
  0
APPID
  5
586
330
9
100
AcDbSymbolTableRecord
100
AcDbRegAppTableRecord
  2
GEVID1212711800
 70
     0
  0
APPID
  5
587
330
9
100
AcDbSymbolTableRecord
100
AcDbRegAppTableRecord
  2
GEVID1212711801
 70
     0
  0
APPID
  5
588
330
9
100
AcDbSymbolTableRecord
100
AcDbRegAppTableRecord
  2
GEVID1212711802
 70
     0
  0
APPID
  5
589
330
9
100
AcDbSymbolTableRecord
100
AcDbRegAppTableRecord
  2
GEVID1212711803
 70
     0
  0
APPID
  5
58A
330
9
100
AcDbSymbolTableRecord
100
AcDbRegAppTableRecord
  2
GEVID1212711804
 70
     0
  0
APPID
  5
58B
330
9
100
AcDbSymbolTableRecord
100
AcDbRegAppTableRecord
  2
GEVID1212711805
 70
     0
  0
APPID
  5
58C
330
9
100
AcDbSymbolTableRecord
100
AcDbRegAppTableRecord
  2
GEVID1212711806
 70
     0
  0
APPID
  5
58D
330
9
100
AcDbSymbolTableRecord
100
AcDbRegAppTableRecord
  2
GEVID1212711807
 70
     0
  0
APPID
  5
58E
330
9
100
AcDbSymbolTableRecord
100
AcDbRegAppTableRecord
  2
GEVID1212711808
 70
     0
  0
APPID
  5
58F
330
9
100
AcDbSymbolTableRecord
100
AcDbRegAppTableRecord
  2
GEVID1212711809
 70
     0
  0
APPID
  5
590
330
9
100
AcDbSymbolTableRecord
100
AcDbRegAppTableRecord
  2
GEVID1212711810
 70
     0
  0
APPID
  5
591
330
9
100
AcDbSymbolTableRecord
100
AcDbRegAppTableRecord
  2
GEVID1212711811
 70
     0
  0
APPID
  5
90A
330
9
100
AcDbSymbolTableRecord
100
AcDbRegAppTableRecord
  2
GENIUS_GENTRA_14
 70
     0
  0
APPID
  5
919
330
9
100
AcDbSymbolTableRecord
100
AcDbRegAppTableRecord
  2
GENIUS_GENOBJ-N-TIT_13
 70
     0
  0
APPID
  5
91A
330
9
100
AcDbSymbolTableRecord
100
AcDbRegAppTableRecord
  2
GENIUS_GENTITLE_13
 70
     0
  0
APPID
  5
949
330
9
100
AcDbSymbolTableRecord
100
AcDbRegAppTableRecord
  2
GENIUS_GENBLLY_14
 70
     0
  0
APPID
  5
DDD
330
9
100
AcDbSymbolTableRecord
100
AcDbRegAppTableRecord
  2
GEVID1213165152
 70
     0
  0
APPID
  5
12F9
330
9
100
AcDbSymbolTableRecord
100
AcDbRegAppTableRecord
  2
AcDbDynamicBlockTrueName
 70
     0
  0
APPID
  5
12FA
330
9
100
AcDbSymbolTableRecord
100
AcDbRegAppTableRecord
  2
ACDBBLOCKREPETAG
 70
     0
  0
APPID
  5
1C15
330
9
100
AcDbSymbolTableRecord
100
AcDbRegAppTableRecord
  2
GEVID1214872427
 70
     0
  0
APPID
  5
1C2A
330
9
100
AcDbSymbolTableRecord
100
AcDbRegAppTableRecord
  2
GEVID1214872428
 70
     0
  0
APPID
  5
1C2F
330
9
100
AcDbSymbolTableRecord
100
AcDbRegAppTableRecord
  2
GEVID1214872429
 70
     0
  0
APPID
  5
1C33
330
9
100
AcDbSymbolTableRecord
100
AcDbRegAppTableRecord
  2
GEVID1214872430
 70
     0
  0
APPID
  5
1C3F
330
9
100
AcDbSymbolTableRecord
100
AcDbRegAppTableRecord
  2
GEVID1214872432
 70
     0
  0
APPID
  5
1C4E
330
9
100
AcDbSymbolTableRecord
100
AcDbRegAppTableRecord
  2
GEVID1214872433
 70
     0
  0
APPID
  5
20DC
330
9
100
AcDbSymbolTableRecord
100
AcDbRegAppTableRecord
  2
AcDbDynamicBlockGUID
 70
     0
  0
APPID
  5
20FD
330
9
100
AcDbSymbolTableRecord
100
AcDbRegAppTableRecord
  2
GENIUS_GENOBJ-N-REV_13
 70
     0
  0
APPID
  5
20FE
330
9
100
AcDbSymbolTableRecord
100
AcDbRegAppTableRecord
  2
GENIUS_GENOBJ-N-RSSYM_13
 70
     0
  0
APPID
  5
20FF
330
9
100
AcDbSymbolTableRecord
100
AcDbRegAppTableRecord
  2
GENIUS_GENSYMENT_13
 70
     0
  0
APPID
  5
2100
330
9
100
AcDbSymbolTableRecord
100
AcDbRegAppTableRecord
  2
GENIUS_GENSCSYM_13
 70
     0
  0
APPID
  5
4163
330
9
100
AcDbSymbolTableRecord
100
AcDbRegAppTableRecord
  2
ACLAYERTOOLS
 70
     0
  0
ENDTAB
  0
TABLE
  2
DIMSTYLE
  5
A
330
0
100
AcDbSymbolTable
 70
    29
100
AcDbDimStyleTable
 71
     1
340
5AB
  0
DIMSTYLE
105
5AB
330
A
100
AcDbSymbolTableRecord
100
AcDbDimStyleTableRecord
  2
SEISA
 70
     0
  4
"
 40
1.5
 41
2.5
 42
0.625
 43
10.0
 44
0.625
 47
0.1
 48
0.1
 73
     0
 74
     0
 77
     3
 78
     8
 79
     2
 90
     1
140
3.5
141
0.0
143
0.0393701
146
0.71
147
1.5
172
     1
176
     3
177
     3
178
     3
271
     2
272
     2
283
     0
286
     8
340
5D5
341
69
342
69
371
    -1
372
    -1
1001
ACAD_DSTYLE_DIMJAG
1070
   388
1040
1.5
1001
ACAD_DSTYLE_DIMTALN
1070
   392
1070
     1
  0
DIMSTYLE
105
5E9
102
{ACAD_REACTORS
330
7442
330
74E6
330
74FE
330
7530
330
756F
330
7587
330
76A4
330
76FB
330
7713
330
772B
330
8ED2
330
9D6E
330
9FB8
330
A00B
330
A039
102
}
330
A
100
AcDbSymbolTableRecord
100
AcDbDimStyleTableRecord
  2
SEISA$0
 70
     0
  4
"
 40
1.5
 41
2.5
 42
0.625
 43
10.0
 44
0.625
 47
0.1
 48
0.1
 73
     0
 74
     0
 77
     3
 78
     8
 79
     2
 90
     1
140
3.5
141
0.0
143
0.0393701
146
0.71
147
1.5
172
     1
176
     3
177
     3
178
     3
271
     2
272
     2
283
     0
286
     8
340
5D5
341
69
342
69
371
    -1
372
    -1
  0
DIMSTYLE
105
A547
330
A
100
AcDbSymbolTableRecord
100
AcDbDimStyleTableRecord
  2
AM_ISO
 70
     0
  4
"
 41
2.5
 42
1.0
 43
10.0
 44
1.0
 47
0.1
 48
0.1
 73
     0
 74
     0
 77
     1
 78
     8
 79
     2
 90
     1
140
3.5
141
0.0
143
0.0393701
146
0.71
147
1.5
172
     1
176
   256
177
   256
178
     2
271
     2
272
     3
274
     4
283
     0
284
     8
340
11
371
    -1
372
    -1
  0
DIMSTYLE
105
A548
330
A
100
AcDbSymbolTableRecord
100
AcDbDimStyleTableRecord
  2
AM_ISO$3
 70
     0
  4
"
 41
2.5
 42
1.0
 43
10.0
 44
1.0
 47
0.1
 48
0.1
 73
     0
 77
     1
 78
     8
 79
     2
 90
     1
140
3.5
141
0.0
143
0.0393701
146
0.71
147
1.5
176
   256
177
   256
178
     2
271
     2
272
     3
274
     4
283
     0
284
     8
288
     1
289
     0
340
11
371
    -1
372
    -1
  0
DIMSTYLE
105
A549
330
A
100
AcDbSymbolTableRecord
100
AcDbDimStyleTableRecord
  2
AM_ISO$4
 70
     0
  4
"
 41
2.5
 42
1.0
 43
10.0
 44
1.0
 47
0.1
 48
0.1
 73
     0
 77
     1
 78
     8
 79
     2
 90
     1
140
3.5
141
0.0
143
0.0393701
146
0.71
147
1.5
176
   256
177
   256
178
     2
271
     2
272
     3
274
     4
283
     0
284
     8
288
     1
289
     0
340
11
371
    -1
372
    -1
  0
DIMSTYLE
105
A54A
330
A
100
AcDbSymbolTableRecord
100
AcDbDimStyleTableRecord
  2
AM_ISO$6
 70
     0
  4
"
 41
2.5
 42
1.0
 43
10.0
 44
1.0
 47
0.1
 48
0.1
 73
     0
 74
     0
 78
     8
 79
     2
 90
     1
140
3.5
141
0.0
143
0.0393701
146
0.71
147
1.5
172
     1
176
   256
177
   256
178
     2
271
     2
272
     3
274
     4
283
     0
284
     8
340
11
371
    -1
372
    -1
  0
DIMSTYLE
105
A54B
330
A
100
AcDbSymbolTableRecord
100
AcDbDimStyleTableRecord
  2
AM_ISO$7
 70
     0
  4
"
 41
2.5
 42
1.0
 43
10.0
 44
1.0
 47
0.1
 48
0.1
 73
     0
 74
     0
 77
     1
 78
     8
 79
     2
 90
     1
140
5.0
141
0.0
143
0.0393701
146
0.71
147
1.5
172
     1
176
   256
177
   256
178
     2
271
     2
272
     3
274
     4
283
     0
284
     8
340
11
371
    -1
372
    -1
  0
DIMSTYLE
105
A54C
330
A
100
AcDbSymbolTableRecord
100
AcDbDimStyleTableRecord
  2
AM_ISO$SF
 70
     0
  4
"
 41
2.5
 42
1.0
 43
10.0
 44
1.0
 47
0.1
 48
0.1
 73
     0
 74
     0
 75
     1
 76
     1
 77
     1
 78
     8
 79
     2
 90
     1
140
3.5
141
0.0
143
0.0393701
146
0.71
147
1.5
172
     1
176
   256
177
   256
178
     2
271
     2
272
     3
274
     4
283
     0
284
     8
340
11
371
    -1
372
    -1
  0
DIMSTYLE
105
A54D
330
A
100
AcDbSymbolTableRecord
100
AcDbDimStyleTableRecord
  2
AM_ISO$SH
 70
     0
  4
"
 41
2.5
 42
1.0
 43
10.0
 44
1.0
 47
0.1
 48
0.1
 73
     0
 74
     0
 75
     1
 76
     1
 77
     1
 78
     8
 79
     2
 90
     1
140
3.5
141
0.0
143
0.0393701
144
2.0
146
0.71
147
1.5
172
     1
173
     1
176
   256
177
   256
178
     2
271
     2
272
     3
274
     4
283
     0
284
     8
340
11
343
74
371
    -1
372
    -1
  0
ENDTAB
  0
TABLE
  2
BLOCK_RECORD
  5
1
330
0
100
AcDbSymbolTable
 70
    29
  0
BLOCK_RECORD
  5
1F
102
{ACAD_XDICTIONARY
360
82
102
}
330
1
100
AcDbSymbolTableRecord
100
AcDbBlockTableRecord
  2
*Model_Space
340
22
 70
     0
280
     1
281
     0
  0
BLOCK_RECORD
  5
1B
330
1
100
AcDbSymbolTableRecord
100
AcDbBlockTableRecord
  2
*Paper_Space
340
1E
 70
     0
280
     1
281
     0
  0
BLOCK_RECORD
  5
23
330
1
100
AcDbSymbolTableRecord
100
AcDbBlockTableRecord
  2
*Paper_Space0
340
26
 70
     0
280
     1
281
     0
  0
BLOCK_RECORD
  5
69
330
1
100
AcDbSymbolTableRecord
100
AcDbBlockTableRecord
  2
_Open30
340
0
102
{BLKREFS
331
7541
331
7542
331
7580
331
7581
331
7598
331
7599
331
774F
331
7750
331
7761
331
7762
331
7773
331
7774
331
8EE3
331
8EE4
331
9923
331
9924
331
9D28
331
9D29
331
A006
331
A007
331
A0C9
331
A0CA
331
A12E
331
A12F
331
A139
331
A13A
331
A194
331
A195
331
A361
331
A362
102
}
 70
     0
280
     1
281
     0
  0
BLOCK_RECORD
  5
74
330
1
100
AcDbSymbolTableRecord
100
AcDbBlockTableRecord
  2
GENAXEH
340
0
 70
     0
280
     1
281
     0
  0
BLOCK_RECORD
  5
5EC0
102
{ACAD_XDICTIONARY
360
678E
102
}
330
1
100
AcDbSymbolTableRecord
100
AcDbBlockTableRecord
  2
ロッカクアナツキプラグ R1／8
340
0
310
2800000020000000200000000100080000000000000400000000000000000000000000000000000000000000000080000080000000808000800000008000800080800000C0C0C000C0DCC000F0CAA6000020400000206000002080000020A0000020C0000020E00000400000004020000040400000406000004080000040A0
310
000040C0000040E00000600000006020000060400000606000006080000060A0000060C0000060E00000800000008020000080400000806000008080000080A0000080C0000080E00000A0000000A0200000A0400000A0600000A0800000A0A00000A0C00000A0E00000C0000000C0200000C0400000C0600000C0800000C0
310
A00000C0C00000C0E00000E0000000E0200000E0400000E0600000E0800000E0A00000E0C00000E0E00040000000400020004000400040006000400080004000A0004000C0004000E00040200000402020004020400040206000402080004020A0004020C0004020E000404000004040200040404000404060004040800040
310
40A0004040C0004040E00040600000406020004060400040606000406080004060A0004060C0004060E00040800000408020004080400040806000408080004080A0004080C0004080E00040A0000040A0200040A0400040A0600040A0800040A0A00040A0C00040A0E00040C0000040C0200040C0400040C0600040C08000
310
40C0A00040C0C00040C0E00040E0000040E0200040E0400040E0600040E0800040E0A00040E0C00040E0E00080000000800020008000400080006000800080008000A0008000C0008000E00080200000802020008020400080206000802080008020A0008020C0008020E00080400000804020008040400080406000804080
310
008040A0008040C0008040E00080600000806020008060400080606000806080008060A0008060C0008060E00080800000808020008080400080806000808080008080A0008080C0008080E00080A0000080A0200080A0400080A0600080A0800080A0A00080A0C00080A0E00080C0000080C0200080C0400080C0600080C0
310
800080C0A00080C0C00080C0E00080E0000080E0200080E0400080E0600080E0800080E0A00080E0C00080E0E000C0000000C0002000C0004000C0006000C0008000C000A000C000C000C000E000C0200000C0202000C0204000C0206000C0208000C020A000C020C000C020E000C0400000C0402000C0404000C0406000C0
310
408000C040A000C040C000C040E000C0600000C0602000C0604000C0606000C0608000C060A000C060C000C060E000C0800000C0802000C0804000C0806000C0808000C080A000C080C000C080E000C0A00000C0A02000C0A04000C0A06000C0A08000C0A0A000C0A0C000C0A0E000C0C00000C0C02000C0C04000C0C06000
310
C0C08000C0C0A000F0FBFF00A4A0A000808080000000FF0000FF000000FFFF00FF000000FF00FF00FFFF0000FFFFFF00000000000000000000000000000000000000000000000000000000000000000000000000000000000000000000000000F9000000000000000000000000000000000000000000000000000000000000
310
00F900000000000000000000000000000000000000000000000000000000000000F90000000000000000000000000000000000000000000000000000000000FFFFF9FFFF00000000000000000000000000000000000000000000000000FFFFFEFEF9FE00FFFF000000000000000000000000000000000000000000FFFFFEFE
310
0000F900FEFE00FFFF0000000000000000000000000000000000FFFFFEFE00000000F9000000FEFE00FF000000000000000000000000000000FF00FE000000000000F90000000000FE00FF00000000000000000000000000FF00FE00000000000000F9000000000000FE00FF000000000000000000000000FFFE0000000000
310
000000FF00000000000000FE00FF00000000000000000000FFFE00000000000000FFFFF9FF00000000000000FEFF00000000000000000000FFFE0000000000FFFF0000F900FFFF0000000000FEFF00000000000000000000FFFE00000000FF00000000F9000000FF00000000FEFF000000000000000000FF00FE0000000000
310
00000000F9000000FF0000000000FEFF000000000000F9F9FFFEF9F9F9F9F9F9F9F9F9F9F9F9F9F9FFF9F9F9F9F9FEFFF9F9000000000000FFFE00000000000000000000F9000000FF0000000000FEFF0000000000000000FF00FE000000000000000000F9000000FF00000000FEFF00000000000000000000FFFE00000000
310
FF00000000F9000000FF00000000FEFF00000000000000000000FFFE0000000000FFFF0000F90000FF0000000000FEFF00000000000000000000FFFE00000000000000FFFFF9FFFF000000000000FEFF0000000000000000000000FFFE0000000000000000FF00000000000000FE00FF0000000000000000000000FF00FE00
310
000000000000F9000000000000FE00FF00000000000000000000000000FF00FE000000000000F90000000000FE00FF000000000000000000000000000000FF00FE0000000000F900000000FE00FF0000000000000000000000000000000000FFFFFEFE000000F90000FEFE00FF000000000000000000000000000000000000
310
0000FFFFFFFEFEF9FEFEFFFFFF000000000000000000000000000000000000000000000000FFFFF9FFFF0000000000000000000000000000000000000000000000000000000000F900000000000000000000000000000000000000000000000000000000000000F90000000000000000000000000000000000000000000000
310
0000000000000000F90000000000000000000000000000000000000000000000000000000000000000000000000000000000000000000000
102
{BLKREFS
331
5F9F
102
}
 70
     4
280
     1
281
     0
  0
BLOCK_RECORD
  5
5F62
102
{ACAD_XDICTIONARY
360
6046
102
}
330
1
100
AcDbSymbolTableRecord
100
AcDbBlockTableRecord
  2
ケースＡ SSM125
340
0
310
2800000020000000200000000100080000000000000400000000000000000000000000000000000000000000000080000080000000808000800000008000800080800000C0C0C000C0DCC000F0CAA6000020400000206000002080000020A0000020C0000020E00000400000004020000040400000406000004080000040A0
310
000040C0000040E00000600000006020000060400000606000006080000060A0000060C0000060E00000800000008020000080400000806000008080000080A0000080C0000080E00000A0000000A0200000A0400000A0600000A0800000A0A00000A0C00000A0E00000C0000000C0200000C0400000C0600000C0800000C0
310
A00000C0C00000C0E00000E0000000E0200000E0400000E0600000E0800000E0A00000E0C00000E0E00040000000400020004000400040006000400080004000A0004000C0004000E00040200000402020004020400040206000402080004020A0004020C0004020E000404000004040200040404000404060004040800040
310
40A0004040C0004040E00040600000406020004060400040606000406080004060A0004060C0004060E00040800000408020004080400040806000408080004080A0004080C0004080E00040A0000040A0200040A0400040A0600040A0800040A0A00040A0C00040A0E00040C0000040C0200040C0400040C0600040C08000
310
40C0A00040C0C00040C0E00040E0000040E0200040E0400040E0600040E0800040E0A00040E0C00040E0E00080000000800020008000400080006000800080008000A0008000C0008000E00080200000802020008020400080206000802080008020A0008020C0008020E00080400000804020008040400080406000804080
310
008040A0008040C0008040E00080600000806020008060400080606000806080008060A0008060C0008060E00080800000808020008080400080806000808080008080A0008080C0008080E00080A0000080A0200080A0400080A0600080A0800080A0A00080A0C00080A0E00080C0000080C0200080C0400080C0600080C0
310
800080C0A00080C0C00080C0E00080E0000080E0200080E0400080E0600080E0800080E0A00080E0C00080E0E000C0000000C0002000C0004000C0006000C0008000C000A000C000C000C000E000C0200000C0202000C0204000C0206000C0208000C020A000C020C000C020E000C0400000C0402000C0404000C0406000C0
310
408000C040A000C040C000C040E000C0600000C0602000C0604000C0606000C0608000C060A000C060C000C060E000C0800000C0802000C0804000C0806000C0808000C080A000C080C000C080E000C0A00000C0A02000C0A04000C0A06000C0A08000C0A0A000C0A0C000C0A0E000C0C00000C0C02000C0C04000C0C06000
310
C0C08000C0C0A000F0FBFF00A4A0A000808080000000FF0000FF000000FFFF00FF000000FF00FF00FFFF0000FFFFFF000000000000000000000000000000000000000000000000000000000000000000000000000000000000000000FFFFFFFF00000000000000000000000000000000000000000000000000000000FF0000
310
FF0000000000000000000000000000000000000000000000F9F9F9F9F9F9F9F9F9F9F9F900000000000000000000000000000000000000000000000000FF0000FF00000000000000000000000000000000000000000000000000000000FF0000FFFFFFFFFFFFFF00000000000000000000000000000000000000000000FF00
310
00FF000000000000FF000000000000000000000000000000000000000000FF0000FF000000000000FF000000000000000000000000000000000000000000FF0000FF000000000000FF000000000000000000000000000000000000000000FF0000FF000000000000FF000000000000000000000000000000000000000000FF
310
FFFFFF000000000000FF000000000000000000000000000000000000000000FFFFFFFF000000000000FF000000000000000000000000000000000000000000FFFFFFFF000000000000FF000000000000000000000000000000000000000000FF0000FF000000000000FF000000000000000000000000000000000000000000
310
FF0000FF000000000000FF000000000000000000000000000000000000000000FF0000FF000000000000FF000000000000000000000000000000000000000000FF0000FF000000000000FF00000000000000000000000000000000000000000000000000000000000000000000000000000000000000000000000000000000
310
000000000000000000000000000000000000000000000000000000000000000000000000000000000000000000000000000000000000000000000000000000000000000000000000000000000000000000000000000000000000000000000000000000000000FAFAFAFAFAFAFAFA0000000000000000000000000000000000
310
0000000000000000FAFA00FAFAFA0000000000000000000000000000000000000000000000000000FAFFFFFFFFFA00000000000000000000000000000000000000FF000000FFA4A4A4FFFFFFFF0000000000000000000000000000000000000000FFFFFFFFFFFFFFFFFF0000FF000000000000000000000000000000000000
310
0000FFFF000000FFFFFFFFFFFF00000000000000000000000000000000000000000000FFFFFFFF0000000000000000000000000000000000000000000000F9F9F9F9F9F9F9F9FFF9F9F900000000000000000000000000000000000000000000000000FFFFFFFF000000000000000000000000000000000000000000000000
310
00000000FFFFFFFF000000000000000000000000000000000000000000000000000000000000000000000000000000000000000000000000
102
{BLKREFS
331
5FA0
102
}
 70
     4
280
     1
281
     0
  0
BLOCK_RECORD
  5
60EF
102
{ACAD_XDICTIONARY
360
62F3
102
}
330
1
100
AcDbSymbolTableRecord
100
AcDbBlockTableRecord
  2
ケースB SSM125
340
0
310
2800000020000000200000000100080000000000000400000000000000000000000000000000000000000000000080000080000000808000800000008000800080800000C0C0C000C0DCC000F0CAA6000020400000206000002080000020A0000020C0000020E00000400000004020000040400000406000004080000040A0
310
000040C0000040E00000600000006020000060400000606000006080000060A0000060C0000060E00000800000008020000080400000806000008080000080A0000080C0000080E00000A0000000A0200000A0400000A0600000A0800000A0A00000A0C00000A0E00000C0000000C0200000C0400000C0600000C0800000C0
310
A00000C0C00000C0E00000E0000000E0200000E0400000E0600000E0800000E0A00000E0C00000E0E00040000000400020004000400040006000400080004000A0004000C0004000E00040200000402020004020400040206000402080004020A0004020C0004020E000404000004040200040404000404060004040800040
310
40A0004040C0004040E00040600000406020004060400040606000406080004060A0004060C0004060E00040800000408020004080400040806000408080004080A0004080C0004080E00040A0000040A0200040A0400040A0600040A0800040A0A00040A0C00040A0E00040C0000040C0200040C0400040C0600040C08000
310
40C0A00040C0C00040C0E00040E0000040E0200040E0400040E0600040E0800040E0A00040E0C00040E0E00080000000800020008000400080006000800080008000A0008000C0008000E00080200000802020008020400080206000802080008020A0008020C0008020E00080400000804020008040400080406000804080
310
008040A0008040C0008040E00080600000806020008060400080606000806080008060A0008060C0008060E00080800000808020008080400080806000808080008080A0008080C0008080E00080A0000080A0200080A0400080A0600080A0800080A0A00080A0C00080A0E00080C0000080C0200080C0400080C0600080C0
310
800080C0A00080C0C00080C0E00080E0000080E0200080E0400080E0600080E0800080E0A00080E0C00080E0E000C0000000C0002000C0004000C0006000C0008000C000A000C000C000C000E000C0200000C0202000C0204000C0206000C0208000C020A000C020C000C020E000C0400000C0402000C0404000C0406000C0
310
408000C040A000C040C000C040E000C0600000C0602000C0604000C0606000C0608000C060A000C060C000C060E000C0800000C0802000C0804000C0806000C0808000C080A000C080C000C080E000C0A00000C0A02000C0A04000C0A06000C0A08000C0A0A000C0A0C000C0A0E000C0C00000C0C02000C0C04000C0C06000
310
C0C08000C0C0A000F0FBFF00A4A0A000808080000000FF0000FF000000FFFF00FF000000FF00FF00FFFF0000FFFFFF0000000000000000000000000000000000000000000000000000000000000000000000000000000000000000000000000000FFFFFFFF0000000000000000000000000000000000000000000000000000
310
0000FF00000000000000000000000000000000000000000000000000000000000000FF00000000000000000000000000000000000000000000000000000000000000FF00000000000000000000000000000000000000000000000000FFFFFFFFFFFFFF00000000000000000000000000000000000000000000000000FF0000
310
000000FF00000000000000000000000000000000000000000000000000FF0000000000FF00000000000000000000000000000000000000000000000000FF0000000000FF00000000000000000000000000000000000000000000000000FF0000000000FF00000000000000000000000000000000000000000000000000FF00
310
00000000FF00000000000000000000000000000000000000000000000000FF0000000000FF00000000000000000000000000000000000000000000000000FF0000000000FF00000000000000000000000000000000000000000000000000FF0000000000FF00000000000000000000000000000000000000000000000000FF
310
0000000000FF00000000000000000000000000000000000000000000000000FF0000000000FF00000000000000000000000000000000000000000000000000FF0000000000FF000000000000000000000000000000000000000000000000000000000000000000000000000000000000000000000000000000000000000000
310
00000000000000000000000000000000000000000000000000000000000000000000000000000000000000000000000000000000000000000000000000000000000000000000000000000000000000000000000000000000000000000000000000000000000000000000000000000000000000000000000000000000000000
310
000000000000000000000000000000000000000000000000000000000000000000FFFFFF0000000000000000000000000000000000000000000000000000000000FFFFFFA4F9F9FFF900FF00000000000000000000000000000000000000000000FF00FFFFFFFFFFFFFFFF0000000000000000000000000000000000000000
310
0000FFFFFFFFFFFF000000FF00000000000000000000000000000000000000000000000000000000FFFFFFFF00000000000000000000000000000000000000000000000000000000FF00000000000000000000000000000000000000000000000000000000000000FFFFFFFF00000000000000000000000000000000000000
310
000000000000000000FFFFFFFF00000000000000000000000000000000000000000000000000000000000000000000000000000000000000
102
{BLKREFS
331
630E
102
}
 70
     4
280
     1
281
     0
  0
BLOCK_RECORD
  5
61CD
102
{ACAD_XDICTIONARY
360
6250
102
}
330
1
100
AcDbSymbolTableRecord
100
AcDbBlockTableRecord
  2
センタＡ SSM125
340
0
310
2800000020000000200000000100080000000000000400000000000000000000000000000000000000000000000080000080000000808000800000008000800080800000C0C0C000C0DCC000F0CAA6000020400000206000002080000020A0000020C0000020E00000400000004020000040400000406000004080000040A0
310
000040C0000040E00000600000006020000060400000606000006080000060A0000060C0000060E00000800000008020000080400000806000008080000080A0000080C0000080E00000A0000000A0200000A0400000A0600000A0800000A0A00000A0C00000A0E00000C0000000C0200000C0400000C0600000C0800000C0
310
A00000C0C00000C0E00000E0000000E0200000E0400000E0600000E0800000E0A00000E0C00000E0E00040000000400020004000400040006000400080004000A0004000C0004000E00040200000402020004020400040206000402080004020A0004020C0004020E000404000004040200040404000404060004040800040
310
40A0004040C0004040E00040600000406020004060400040606000406080004060A0004060C0004060E00040800000408020004080400040806000408080004080A0004080C0004080E00040A0000040A0200040A0400040A0600040A0800040A0A00040A0C00040A0E00040C0000040C0200040C0400040C0600040C08000
310
40C0A00040C0C00040C0E00040E0000040E0200040E0400040E0600040E0800040E0A00040E0C00040E0E00080000000800020008000400080006000800080008000A0008000C0008000E00080200000802020008020400080206000802080008020A0008020C0008020E00080400000804020008040400080406000804080
310
008040A0008040C0008040E00080600000806020008060400080606000806080008060A0008060C0008060E00080800000808020008080400080806000808080008080A0008080C0008080E00080A0000080A0200080A0400080A0600080A0800080A0A00080A0C00080A0E00080C0000080C0200080C0400080C0600080C0
310
800080C0A00080C0C00080C0E00080E0000080E0200080E0400080E0600080E0800080E0A00080E0C00080E0E000C0000000C0002000C0004000C0006000C0008000C000A000C000C000C000E000C0200000C0202000C0204000C0206000C0208000C020A000C020C000C020E000C0400000C0402000C0404000C0406000C0
310
408000C040A000C040C000C040E000C0600000C0602000C0604000C0606000C0608000C060A000C060C000C060E000C0800000C0802000C0804000C0806000C0808000C080A000C080C000C080E000C0A00000C0A02000C0A04000C0A06000C0A08000C0A0A000C0A0C000C0A0E000C0C00000C0C02000C0C04000C0C06000
310
C0C08000C0C0A000F0FBFF00A4A0A000808080000000FF0000FF000000FFFF00FF000000FF00FF00FFFF0000FFFFFF000000000000000000000000000000000000000000000000000000000000000000000000000000000000000000000000000000FFFFFFFFFFFFFFFFFF0000000000000000000000000000000000000000
310
000000000000000000000000FF00000000000000000000000000000000000000000000000000000000000000FF00000000000000000000000000000000000000000000000000000000000000FF00000000000000000000000000000000000000000000000000000000000000FF000000000000000000000000000000000000
310
00000000000000000000000000FF00000000000000000000000000000000000000000000000000000000000000FF00000000000000000000000000000000000000000000000000000000000000FF00000000000000000000000000000000000000000000000000000000000000FF0000000000000000000000000000000000
310
0000000000000000000000000000FF00000000000000000000000000000000000000000000000000000000000000FF00000000000000000000000000000000000000000000000000000000000000FF00000000000000000000000000000000000000000000000000000000000000FF0000000000000000FF00000000000000
310
0000000000000000000000000000FFFF0000000000000000FF000000000000000000000000000000000000000000FFFF0000000000000000FF000000000000000000000000000000000000000000FFFF0000000000000000FF000000000000000000000000000000000000000000FFFF0000000000000000FF000000000000
310
000000000000000000000000000000FFFF0000000000000000FF000000000000000000000000000000000000000000FFFF0000000000000000FFFFFFFFFFFFFFFFFFFFFFFFFFFFFFFFFFFFFFFFFFFFFFFF0000000000000000FF00000000000000000000000000000000000000000000FF0000000000000000FFFFFFFFFFFF
310
FFFFFFFFFFFFFFFFFFFFFFFFFFFFFFFFFFFF0000000000000000FF00000000000000000000000000000000000000000000FF0000000000000000FF00000000000000000000000000000000000000000000FF0000000000000000FF00000000000000000000000000000000000000000000FF0000000000000000FF00000000
310
00F900000000000000000000000000000000FF0000000000000000FFFFFFFFFFFFFFFFFFFFFFFFFFFFFFFFFFFFFFFFFFFFFF00000000000000000000000000FFFFF9FFFFFFF9000000000000000000000000000000000000000000000000000000F90000000000000000000000000000000000000000000000000000000000
310
0000F90000000000000000000000000000000000000000000000000000000000000000000000000000000000000000000000000000000000
102
{BLKREFS
331
61E7
102
}
 70
     4
280
     1
281
     0
  0
BLOCK_RECORD
  5
6252
102
{ACAD_XDICTIONARY
360
632A
102
}
330
1
100
AcDbSymbolTableRecord
100
AcDbBlockTableRecord
  2
センタB SSM125
340
0
310
2800000020000000200000000100080000000000000400000000000000000000000000000000000000000000000080000080000000808000800000008000800080800000C0C0C000C0DCC000F0CAA6000020400000206000002080000020A0000020C0000020E00000400000004020000040400000406000004080000040A0
310
000040C0000040E00000600000006020000060400000606000006080000060A0000060C0000060E00000800000008020000080400000806000008080000080A0000080C0000080E00000A0000000A0200000A0400000A0600000A0800000A0A00000A0C00000A0E00000C0000000C0200000C0400000C0600000C0800000C0
310
A00000C0C00000C0E00000E0000000E0200000E0400000E0600000E0800000E0A00000E0C00000E0E00040000000400020004000400040006000400080004000A0004000C0004000E00040200000402020004020400040206000402080004020A0004020C0004020E000404000004040200040404000404060004040800040
310
40A0004040C0004040E00040600000406020004060400040606000406080004060A0004060C0004060E00040800000408020004080400040806000408080004080A0004080C0004080E00040A0000040A0200040A0400040A0600040A0800040A0A00040A0C00040A0E00040C0000040C0200040C0400040C0600040C08000
310
40C0A00040C0C00040C0E00040E0000040E0200040E0400040E0600040E0800040E0A00040E0C00040E0E00080000000800020008000400080006000800080008000A0008000C0008000E00080200000802020008020400080206000802080008020A0008020C0008020E00080400000804020008040400080406000804080
310
008040A0008040C0008040E00080600000806020008060400080606000806080008060A0008060C0008060E00080800000808020008080400080806000808080008080A0008080C0008080E00080A0000080A0200080A0400080A0600080A0800080A0A00080A0C00080A0E00080C0000080C0200080C0400080C0600080C0
310
800080C0A00080C0C00080C0E00080E0000080E0200080E0400080E0600080E0800080E0A00080E0C00080E0E000C0000000C0002000C0004000C0006000C0008000C000A000C000C000C000E000C0200000C0202000C0204000C0206000C0208000C020A000C020C000C020E000C0400000C0402000C0404000C0406000C0
310
408000C040A000C040C000C040E000C0600000C0602000C0604000C0606000C0608000C060A000C060C000C060E000C0800000C0802000C0804000C0806000C0808000C080A000C080C000C080E000C0A00000C0A02000C0A04000C0A06000C0A08000C0A0A000C0A0C000C0A0E000C0C00000C0C02000C0C04000C0C06000
310
C0C08000C0C0A000F0FBFF00A4A0A000808080000000FF0000FF000000FFFF00FF000000FF00FF00FFFF0000FFFFFF0000000000000000000000000000000000000000000000000000000000000000000000000000000000000000000000000000000000FFFFFFFF0000000000000000000000000000000000000000000000
310
0000000000FF00000000000000000000000000000000000000000000000000000000000000FF00000000000000000000000000000000000000000000000000000000000000FF00000000000000000000000000000000000000000000000000FFFFFFFFFFFFFF000000000000000000000000000000000000000000000000FF
310
000000000000FF000000000000000000000000000000000000000000000000FF000000000000FF00000000000000000000000000000000000000FFFFFFFFFFFF000000000000FF00000000000000000000000000000000000000FF00000000FF000000000000FF00000000000000000000000000000000000000FF00000000
310
FF000000000000FF00000000000000000000000000000000000000FF00000000FF000000000000FF00000000000000000000000000000000000000FF00000000FF000000000000FF00000000000000000000000000000000000000FF00000000FF000000000000FF00000000000000000000000000000000000000FF000000
310
00FF000000000000FF00000000000000000000000000000000000000FF00000000FF000000000000FF00000000000000000000000000000000000000FF00000000FF000000000000FF00FF0000000000000000000000000000000000FF00000000000000000000000000FF0000000000000000000000000000000000FF0000
310
0000000000000000000000FF0000000000000000000000000000000000FFFFFFFFFFFFFFFFFFFFFFFFFFFFFF0000000000000000000000000000000000FFFFFFFFFFFFFFFFFFFFFFFFFFFFFF0000000000000000000000000000000000FF00000000000000000000000000FF0000000000000000000000000000000000FF00
310
000000000000000000000000FF0000000000000000000000000000000000FFFFFFFFFFFFFFFFFFFFF900FFFFFF00000000000000000000000000000000000000000000FFFFFFFFA4F9FFFF00FF00000000000000000000000000000000000000000000FF0000FFFFFFFFFFFFFF000000000000000000000000000000000000
310
0000000000FFFFFFFFFFFF0000FFFF00000000000000000000000000000000000000000000000000000000FFFFFFFF00000000000000000000000000000000000000000000000000000000FF00000000000000000000000000000000000000000000000000000000000000FFFFFFFF00000000000000000000000000000000
310
000000000000000000000000FFFFFFFF00000000000000000000000000000000000000000000000000000000000000000000000000000000
102
{BLKREFS
331
6284
102
}
 70
     4
280
     1
281
     0
  0
BLOCK_RECORD
  5
6520
102
{ACAD_XDICTIONARY
360
65B2
102
}
330
1
100
AcDbSymbolTableRecord
100
AcDbBlockTableRecord
  2
リーマボルト SSM125 M6
340
0
310
2800000020000000200000000100080000000000000400000000000000000000000000000000000000000000000080000080000000808000800000008000800080800000C0C0C000C0DCC000F0CAA6000020400000206000002080000020A0000020C0000020E00000400000004020000040400000406000004080000040A0
310
000040C0000040E00000600000006020000060400000606000006080000060A0000060C0000060E00000800000008020000080400000806000008080000080A0000080C0000080E00000A0000000A0200000A0400000A0600000A0800000A0A00000A0C00000A0E00000C0000000C0200000C0400000C0600000C0800000C0
310
A00000C0C00000C0E00000E0000000E0200000E0400000E0600000E0800000E0A00000E0C00000E0E00040000000400020004000400040006000400080004000A0004000C0004000E00040200000402020004020400040206000402080004020A0004020C0004020E000404000004040200040404000404060004040800040
310
40A0004040C0004040E00040600000406020004060400040606000406080004060A0004060C0004060E00040800000408020004080400040806000408080004080A0004080C0004080E00040A0000040A0200040A0400040A0600040A0800040A0A00040A0C00040A0E00040C0000040C0200040C0400040C0600040C08000
310
40C0A00040C0C00040C0E00040E0000040E0200040E0400040E0600040E0800040E0A00040E0C00040E0E00080000000800020008000400080006000800080008000A0008000C0008000E00080200000802020008020400080206000802080008020A0008020C0008020E00080400000804020008040400080406000804080
310
008040A0008040C0008040E00080600000806020008060400080606000806080008060A0008060C0008060E00080800000808020008080400080806000808080008080A0008080C0008080E00080A0000080A0200080A0400080A0600080A0800080A0A00080A0C00080A0E00080C0000080C0200080C0400080C0600080C0
310
800080C0A00080C0C00080C0E00080E0000080E0200080E0400080E0600080E0800080E0A00080E0C00080E0E000C0000000C0002000C0004000C0006000C0008000C000A000C000C000C000E000C0200000C0202000C0204000C0206000C0208000C020A000C020C000C020E000C0400000C0402000C0404000C0406000C0
310
408000C040A000C040C000C040E000C0600000C0602000C0604000C0606000C0608000C060A000C060C000C060E000C0800000C0802000C0804000C0806000C0808000C080A000C080C000C080E000C0A00000C0A02000C0A04000C0A06000C0A08000C0A0A000C0A0C000C0A0E000C0C00000C0C02000C0C04000C0C06000
310
C0C08000C0C0A000F0FBFF00A4A0A000808080000000FF0000FF000000FFFF00FF000000FF00FF00FFFF0000FFFFFF0000000000000000000000000000000000000000000000000000000000000000000000000000000000000000000000000000000000000000000000000000000000000000000000000000000000000000
310
00000000000000000000000000000000000000000000000000000000000000000000000000000000000000000000000000000000000000000000000000000000000000000000000000000000000000000000000000000000000000000000000000000000000000000000000000000000000000000000000000000000000000
310
00000000000000000000000000000000000000000000000000000000000000000000000000000000000000000000000000000000000000000000000000000000000000000000000000000000000000000000000000000000000000000000000000000000000000000000000000000000000000000000000000000000000000
310
00000000000000000000000000000000000000000000000000000000000000000000000000000000000000000000000000000000FFFFFFFF00000000000000000000000000000000000000FFFFFFFFFF00000000FFFF00FFFF000000000000000000000000000000FF000000FF0000FF00000000FFFFFFFFFF000000000000
310
000000000000000000FFFFFFFFFFFFFFFFFFFF0000FFFF0000FF000000000000000000000000000000FFFF00FFFF0000FFFFFF0000FFFF0000FF000000000000000000000000000000FFFF0000FF0000FFFFFF0000FFFFFFFFFF000000000000000000000000000000FFFFFFFFFFFFFFFFFFFF0000FFFF00FFFF0000000000
310
00000000000000000000FF000000FF0000FF00000000FFFFFFFF00000000000000000000000000000000000000FFFFFFFFFF0000000000000000000000000000000000000000000000000000000000000000000000000000000000000000000000000000000000000000000000000000000000000000000000000000000000
310
00000000000000000000000000000000000000000000000000000000000000000000000000000000000000000000000000000000000000000000000000000000000000000000000000000000000000000000000000000000000000000000000000000000000000000000000000000000000000000000000000000000000000
310
00000000000000000000000000000000000000000000000000000000000000000000000000000000000000000000000000000000000000000000000000000000000000000000000000000000000000000000000000000000000000000000000000000000000000000000000000000000000000000000000000000000000000
310
0000000000000000000000000000000000000000000000000000000000000000000000000000000000000000000000000000000000000000
102
{BLKREFS
331
654F
102
}
 70
     4
280
     1
281
     0
  0
BLOCK_RECORD
  5
7443
330
1
100
AcDbSymbolTableRecord
100
AcDbBlockTableRecord
  2
*D12
340
0
 70
     0
280
     1
281
     0
  0
BLOCK_RECORD
  5
74E7
330
1
100
AcDbSymbolTableRecord
100
AcDbBlockTableRecord
  2
*D13
340
0
 70
     0
280
     1
281
     0
  0
BLOCK_RECORD
  5
74FF
330
1
100
AcDbSymbolTableRecord
100
AcDbBlockTableRecord
  2
*D14
340
0
 70
     0
280
     1
281
     0
  0
BLOCK_RECORD
  5
7531
330
1
100
AcDbSymbolTableRecord
100
AcDbBlockTableRecord
  2
*D15
340
0
 70
     0
280
     1
281
     0
  0
BLOCK_RECORD
  5
7570
330
1
100
AcDbSymbolTableRecord
100
AcDbBlockTableRecord
  2
*D16
340
0
 70
     0
280
     1
281
     0
  0
BLOCK_RECORD
  5
7588
330
1
100
AcDbSymbolTableRecord
100
AcDbBlockTableRecord
  2
*D17
340
0
 70
     0
280
     1
281
     0
  0
BLOCK_RECORD
  5
76A5
330
1
100
AcDbSymbolTableRecord
100
AcDbBlockTableRecord
  2
*D18
340
0
 70
     0
280
     1
281
     0
  0
BLOCK_RECORD
  5
76FC
330
1
100
AcDbSymbolTableRecord
100
AcDbBlockTableRecord
  2
*D19
340
0
 70
     0
280
     1
281
     0
  0
BLOCK_RECORD
  5
7714
330
1
100
AcDbSymbolTableRecord
100
AcDbBlockTableRecord
  2
*D20
340
0
 70
     0
280
     1
281
     0
  0
BLOCK_RECORD
  5
772C
330
1
100
AcDbSymbolTableRecord
100
AcDbBlockTableRecord
  2
*D21
340
0
 70
     0
280
     1
281
     0
  0
BLOCK_RECORD
  5
8ED3
330
1
100
AcDbSymbolTableRecord
100
AcDbBlockTableRecord
  2
*D22
340
0
 70
     0
280
     1
281
     0
  0
BLOCK_RECORD
  5
9D6F
330
1
100
AcDbSymbolTableRecord
100
AcDbBlockTableRecord
  2
*D23
340
0
 70
     0
280
     1
281
     0
  0
BLOCK_RECORD
  5
9FB9
330
1
100
AcDbSymbolTableRecord
100
AcDbBlockTableRecord
  2
*D24
340
0
 70
     0
280
     1
281
     0
  0
BLOCK_RECORD
  5
A00C
330
1
100
AcDbSymbolTableRecord
100
AcDbBlockTableRecord
  2
*D25
340
0
 70
     0
280
     1
281
     0
  0
BLOCK_RECORD
  5
A03A
330
1
100
AcDbSymbolTableRecord
100
AcDbBlockTableRecord
  2
*D26
340
0
 70
     0
280
     1
281
     0
  0
BLOCK_RECORD
  5
A434
102
{ACAD_XDICTIONARY
360
A498
102
}
330
1
100
AcDbSymbolTableRecord
100
AcDbBlockTableRecord
  2
ケース
340
0
310
2800000020000000200000000100080000000000000400000000000000000000000000000000000000000000000080000080000000808000800000008000800080800000C0C0C000C0DCC000F0CAA6000020400000206000002080000020A0000020C0000020E00000400000004020000040400000406000004080000040A0
310
000040C0000040E00000600000006020000060400000606000006080000060A0000060C0000060E00000800000008020000080400000806000008080000080A0000080C0000080E00000A0000000A0200000A0400000A0600000A0800000A0A00000A0C00000A0E00000C0000000C0200000C0400000C0600000C0800000C0
310
A00000C0C00000C0E00000E0000000E0200000E0400000E0600000E0800000E0A00000E0C00000E0E00040000000400020004000400040006000400080004000A0004000C0004000E00040200000402020004020400040206000402080004020A0004020C0004020E000404000004040200040404000404060004040800040
310
40A0004040C0004040E00040600000406020004060400040606000406080004060A0004060C0004060E00040800000408020004080400040806000408080004080A0004080C0004080E00040A0000040A0200040A0400040A0600040A0800040A0A00040A0C00040A0E00040C0000040C0200040C0400040C0600040C08000
310
40C0A00040C0C00040C0E00040E0000040E0200040E0400040E0600040E0800040E0A00040E0C00040E0E00080000000800020008000400080006000800080008000A0008000C0008000E00080200000802020008020400080206000802080008020A0008020C0008020E00080400000804020008040400080406000804080
310
008040A0008040C0008040E00080600000806020008060400080606000806080008060A0008060C0008060E00080800000808020008080400080806000808080008080A0008080C0008080E00080A0000080A0200080A0400080A0600080A0800080A0A00080A0C00080A0E00080C0000080C0200080C0400080C0600080C0
310
800080C0A00080C0C00080C0E00080E0000080E0200080E0400080E0600080E0800080E0A00080E0C00080E0E000C0000000C0002000C0004000C0006000C0008000C000A000C000C000C000E000C0200000C0202000C0204000C0206000C0208000C020A000C020C000C020E000C0400000C0402000C0404000C0406000C0
310
408000C040A000C040C000C040E000C0600000C0602000C0604000C0606000C0608000C060A000C060C000C060E000C0800000C0802000C0804000C0806000C0808000C080A000C080C000C080E000C0A00000C0A02000C0A04000C0A06000C0A08000C0A0A000C0A0C000C0A0E000C0C00000C0C02000C0C04000C0C06000
310
C0C08000C0C0A000F0FBFF00A4A0A000808080000000FF0000FF000000FFFF00FF000000FF00FF00FFFF0000FFFFFF0000000000000000000000000000000000000000000000000000000000000000000000000000000000000000000000000000000000000000000000000000000000000000000000000000000000000000
310
000000000000000000000000000000000000000000000000000000000000000000000000000000000000000000000000000000000000000000000000000000000000000000000000000000000000000000000000000000000000000000000000000000000000000000000000000000000000FC000000FC0000000000000000
310
00000000FC0000FC0000000000000000000000FC000000FC000000000000000000000000FC0000FC0000000000000000000000FCFCFCFCFC000000000000000000000000FCFCFCFC0000000000000000000000FC000000FC000000000000000000000000FC0000FC0000000000000000000000FC000000FC00000000000000
310
0000000000FC0000FC0000000000000000000000FC000000FC000000000000000000000000FC0000FC0000000000FCFCFCFC0000FC000000FC000000000000000000000000FC0000FC00000000FC000000000000FC000000FC000000000000000000000000FC0000FC00FCFCFCFCFCFCFCFC0000FC00000000FCFCFCFCFCFC
310
FCFCFCFCFCFC000000FC00000000FC000000000000FC00000000000000000000000000000000000000FC00000000FCFCFCFCFC0000FC0000000000000000000000000000000000000000FCFCFCFC00000000000000FC00000000000000000000000000000000000000000000000000000000000000FC000000000000000000
310
00000000000000000000000000000000000000000000FC00000000000000000000000000000000000000000000000000000000000000FC0000000000000000000000000000000000000000000000000000000000000000FC0000000000000000000000000000000000000000000000000000000000000000FC000000000000
310
0000000000000000000000000000000000000000000000000000FC0000000000000000000000000000000000000000000000000000000000000000FC0000000000000000000000000000000000000000000000000000000000000000FCFCFCFCFCFCFCFCFCFCFCFCFCFCFCFCFCFCFCFCFCFCFCFCFC00000000000000000000
310
00000000000000000000000000000000000000000000000000000000000000000000000000000000000000000000000000000000000000000000000000000000000000000000000000000000000000000000000000000000000000000000000000000000000000000000000000000000000000000000000000000000000000
310
0000000000000000000000000000000000000000000000000000000000000000000000000000000000000000000000000000000000000000
102
{BLKREFS
331
A44B
102
}
 70
     4
280
     1
281
     1
  0
ENDTAB
  0
ENDSEC
  0
SECTION
  2
BLOCKS
  0
BLOCK
  5
20
330
1F
100
AcDbEntity
  8
0
100
AcDbBlockBegin
  2
*Model_Space
 70
     0
 10
0.0
 20
0.0
 30
0.0
  3
*Model_Space
  1

  0
ENDBLK
  5
21
330
1F
100
AcDbEntity
  8
0
100
AcDbBlockEnd
  0
BLOCK
  5
1C
330
1B
100
AcDbEntity
 67
     1
  8
0
100
AcDbBlockBegin
  2
*Paper_Space
 70
     0
 10
0.0
 20
0.0
 30
0.0
  3
*Paper_Space
  1

  0
ENDBLK
  5
1D
330
1B
100
AcDbEntity
 67
     1
  8
0
100
AcDbBlockEnd
  0
BLOCK
  5
24
330
23
100
AcDbEntity
 67
     1
  8
0
100
AcDbBlockBegin
  2
*Paper_Space0
 70
     0
 10
0.0
 20
0.0
 30
0.0
  3
*Paper_Space0
  1

  0
ENDBLK
  5
25
330
23
100
AcDbEntity
 67
     1
  8
0
100
AcDbBlockEnd
  0
BLOCK
  5
6D
330
69
100
AcDbEntity
  8
0
100
AcDbBlockBegin
  2
_Open30
 70
     0
 10
0.0
 20
0.0
 30
0.0
  3
_Open30
  1

  0
LINE
  5
6A
330
69
100
AcDbEntity
  8
0
  6
ByBlock
 62
     0
370
    -2
100
AcDbLine
 10
-1.0
 20
0.26794919
 30
0.0
 11
0.0
 21
0.0
 31
0.0
  0
LINE
  5
6B
330
69
100
AcDbEntity
  8
0
  6
ByBlock
 62
     0
370
    -2
100
AcDbLine
 10
0.0
 20
0.0
 30
0.0
 11
-1.0
 21
-0.26794919
 31
0.0
  0
LINE
  5
6C
330
69
100
AcDbEntity
  8
0
  6
ByBlock
 62
     0
370
    -2
100
AcDbLine
 10
0.0
 20
0.0
 30
0.0
 11
-1.0
 21
0.0
 31
0.0
  0
ENDBLK
  5
6E
330
69
100
AcDbEntity
  8
0
100
AcDbBlockEnd
  0
BLOCK
  5
76
330
74
100
AcDbEntity
  8
0
100
AcDbBlockBegin
  2
GENAXEH
 70
     0
 10
0.0
 20
0.0
 30
0.0
  3
GENAXEH
  1

  0
LINE
  5
75
330
74
100
AcDbEntity
  8
0
100
AcDbLine
 10
-1.0
 20
0.0
 30
0.0
 11
1.0
 21
0.0
 31
0.0
  0
ENDBLK
  5
77
330
74
100
AcDbEntity
  8
0
100
AcDbBlockEnd
  0
BLOCK
  5
5EC1
330
5EC0
100
AcDbEntity
  8
0
100
AcDbBlockBegin
  2
ロッカクアナツキプラグ R1／8
 70
     0
 10
0.0
 20
0.0
 30
0.0
  3
ロッカクアナツキプラグ R1／8
  1

  0
LINE
  5
5EC3
330
5EC0
100
AcDbEntity
  8
AM_7 中心線
100
AcDbLine
 10
-6.453148000000054
 20
0.0
 30
0.0
 11
6.453148000000054
 21
0.0
 31
0.0
  0
CIRCLE
  5
5EC4
330
5EC0
100
AcDbEntity
  8
AM_4 細線
100
AcDbCircle
 10
0.0
 20
0.0
 30
0.0
 40
4.816232
  0
CIRCLE
  5
5EC5
330
5EC0
100
AcDbEntity
  8
AM_0 外形線1
100
AcDbCircle
 10
0.0
 20
0.0
 30
0.0
 40
5.271232
  0
LINE
  5
5EC6
330
5EC0
100
AcDbEntity
  8
AM_0 外形線1
100
AcDbLine
 10
-2.178053999999974
 20
-1.257499999999992
 30
0.0
 11
0.0
 21
-2.515000000000042
 31
0.0
  0
LINE
  5
5EC7
330
5EC0
100
AcDbEntity
  8
AM_0 外形線1
100
AcDbLine
 10
0.0
 20
2.514999999999985
 30
0.0
 11
-2.178053999999974
 21
1.257499999999992
 31
0.0
  0
LINE
  5
5EC8
330
5EC0
100
AcDbEntity
  8
AM_7 中心線
100
AcDbLine
 10
0.0
 20
-6.612318000000017
 30
0.0
 11
0.0
 21
6.612319000000012
 31
0.0
  0
LINE
  5
5EC9
330
5EC0
100
AcDbEntity
  8
AM_0 外形線1
100
AcDbLine
 10
2.178053999999974
 20
-1.257499999999992
 30
0.0
 11
2.178053999999974
 21
1.257499999999992
 31
0.0
  0
LINE
  5
5ECA
330
5EC0
100
AcDbEntity
  8
AM_0 外形線1
100
AcDbLine
 10
0.0
 20
-2.515000000000042
 30
0.0
 11
2.178053999999974
 21
-1.257499999999992
 31
0.0
  0
LINE
  5
5ECB
330
5EC0
100
AcDbEntity
  8
AM_0 外形線1
100
AcDbLine
 10
2.178053999999974
 20
1.257499999999992
 30
0.0
 11
0.0
 21
2.514999999999985
 31
0.0
  0
LINE
  5
678D
330
5EC0
100
AcDbEntity
  8
AM_0 外形線1
100
AcDbLine
 10
-2.178053999999974
 20
1.257499999999992
 30
0.0
 11
-2.178053999999974
 21
-1.257499999999992
 31
0.0
  0
ENDBLK
  5
5EC2
330
5EC0
100
AcDbEntity
  8
0
100
AcDbBlockEnd
  0
BLOCK
  5
5F63
330
5F62
100
AcDbEntity
  8
0
100
AcDbBlockBegin
  2
ケースＡ SSM125
 70
     0
 10
0.0
 20
0.0
 30
0.0
  3
ケースＡ SSM125
  1

  0
LINE
  5
5F65
330
5F62
100
AcDbEntity
  8
AM_0 外形線1
100
AcDbLine
 10
0.0
 20
0.0
 30
0.0
 11
0.0000000000001137
 21
-62.29993799999999
 31
0.0
  0
LINE
  5
5F66
330
5F62
100
AcDbEntity
  8
AM_0 外形線1
100
AcDbLine
 10
30.0
 20
41.0
 30
0.0
 11
29.0
 21
41.0
 31
0.0
  0
LINE
  5
5F67
330
5F62
100
AcDbEntity
  8
AM_7 中心線
100
AcDbLine
 10
12.0
 20
39.0
 30
0.0
 11
30.0
 21
39.0
 31
0.0
  0
LINE
  5
5F68
330
5F62
100
AcDbEntity
  8
AM_0 外形線1
100
AcDbLine
 10
18.0
 20
46.0
 30
0.0
 11
40.0
 21
46.0
 31
0.0
  0
LINE
  5
5F69
330
5F62
100
AcDbEntity
  8
AM_0 外形線1
100
AcDbLine
 10
18.0
 20
-46.0
 30
0.0
 11
40.0
 21
-46.0
 31
0.0
  0
ARC
  5
5F6B
330
5F62
100
AcDbEntity
  8
AM_0 外形線1
100
AcDbCircle
 10
18.0
 20
-49.0
 30
0.0
 40
3.0
100
AcDbArc
 50
90.0
 51
180.0
  0
LINE
  5
5F6C
330
5F62
100
AcDbEntity
  8
AM_0 外形線1
100
AcDbLine
 10
15.0
 20
-62.30000000000001
 30
0.0
 11
15.0
 21
0.0
 31
0.0
  0
LINE
  5
5F6E
330
5F62
100
AcDbEntity
  8
AM_0 外形線1
100
AcDbLine
 10
0.2000000000000455
 20
-62.5
 30
0.0
 11
14.79999999999995
 21
-62.5
 31
0.0
  0
LINE
  5
5F6F
330
5F62
100
AcDbEntity
  8
AM_0 外形線1
100
AcDbLine
 10
0.0
 20
-62.30000000000001
 30
0.0
 11
0.2000000000000455
 21
-62.5
 31
0.0
  0
LINE
  5
5F70
330
5F62
100
AcDbEntity
  8
AM_0 外形線1
100
AcDbLine
 10
14.79999999999995
 20
-62.5
 30
0.0
 11
15.0
 21
-62.30000000000001
 31
0.0
  0
LINE
  5
5F71
330
5F62
100
AcDbEntity
  8
AM_7 中心線
100
AcDbLine
 10
-20.5
 20
56.0
 30
0.0
 11
25.5
 21
56.0
 31
0.0
  0
LINE
  5
5F73
330
5F62
100
AcDbEntity
  8
AM_0 外形線1
100
AcDbLine
 10
13.0
 20
41.0
 30
0.0
 11
-2.0
 21
41.0
 31
0.0
  0
LINE
  5
5F74
330
5F62
100
AcDbEntity
  8
AM_0 外形線1
100
AcDbLine
 10
0.0
 20
52.5
 30
0.0
 11
15.0
 21
52.5
 31
0.0
  0
LINE
  5
5F76
330
5F62
100
AcDbEntity
  8
AM_0 外形線1
100
AcDbLine
 10
0.0
 20
48.89999999999997
 30
0.0
 11
0.0
 21
52.5
 31
0.0
  0
LINE
  5
5F77
330
5F62
100
AcDbEntity
  8
AM_0 外形線1
100
AcDbLine
 10
-2.0
 20
45.0
 30
0.0
 11
1.899999999999976
 21
45.0
 31
0.0
  0
LINE
  5
5F78
330
5F62
100
AcDbEntity
  8
AM_0 外形線1
100
AcDbLine
 10
-2.0
 20
36.20940999999999
 30
0.0
 11
-2.0
 21
45.0
 31
0.0
  0
LWPOLYLINE
  5
5F79
330
5F62
100
AcDbEntity
  8
AM_0 外形線1
100
AcDbPolyline
 90
       73
 70
     0
 43
0.0
 10
1.200000000000044
 20
45.0
 10
1.304587000000082
 20
45.00742000000001
 10
1.408378000000084
 20
45.02962500000001
 10
1.510582999999995
 20
45.06644399999998
 10
1.610423999999965
 20
45.11759900000003
 10
1.707141999999976
 20
45.18270000000001
 10
1.799999999999954
 20
45.26125000000002
 10
1.888291999999977
 20
45.35265300000003
 10
1.971344999999928
 20
45.45621299999999
 10
2.048528000000032
 20
45.571142
 10
2.119253000000071
 20
45.69656400000002
 10
2.182982000000038
 20
45.831526
 10
2.23923000000002
 20
45.97500000000001
 10
2.287568999999961
 20
46.125894
 10
2.327630999999996
 20
46.28306000000002
 10
2.359110999999983
 20
46.44530300000002
 10
2.381768999999962
 20
46.61138599999998
 10
2.395434000000022
 20
46.78004599999996
 10
2.399999999999977
 20
46.94999999999999
 10
2.395434000000022
 20
47.119953
 10
2.381768999999962
 20
47.28861399999998
 10
2.359110999999983
 20
47.45469700000001
 10
2.327630999999996
 20
47.616939
 10
2.287568999999961
 20
47.77410500000002
 10
2.23923000000002
 20
47.92500000000001
 10
2.182982000000038
 20
48.06847400000004
 10
2.119253000000071
 20
48.20343600000001
 10
2.048528000000032
 20
48.32885800000003
 10
1.971344999999928
 20
48.44378599999998
 10
1.888291999999977
 20
48.547346
 10
1.799999999999954
 20
48.63874900000002
 10
1.707141999999976
 20
48.71730000000003
 10
1.610423999999965
 20
48.78239999999999
 10
1.510582999999995
 20
48.83355500000003
 10
1.408378000000084
 20
48.87037500000001
 10
1.304587000000082
 20
48.89257900000001
 10
1.200000000000044
 20
48.89999999999997
 10
1.095413000000007
 20
48.89257900000001
 10
0.9916220000000064
 20
48.87037500000001
 10
0.8894169999999801
 20
48.83355500000003
 10
0.7895760000000111
 20
48.78239999999999
 10
0.6928580000000011
 20
48.71730000000003
 10
0.5999999999999091
 20
48.63874900000002
 10
0.5117079999999988
 20
48.547346
 10
0.4286549999999353
 20
48.44378599999998
 10
0.351472000000058
 20
48.32885800000003
 10
0.2807470000000194
 20
48.20343600000001
 10
0.2170180000000528
 20
48.06847400000004
 10
0.1607699999999568
 20
47.92500000000001
 10
0.112431000000015
 20
47.77410500000002
 10
0.0723689999999806
 20
47.616939
 10
0.0408889999999929
 20
47.45469700000001
 10
0.0182310000000143
 20
47.28861399999998
 10
0.004566000000068
 20
47.119953
 10
0.0
 20
46.94999999999999
 10
0.004566000000068
 20
46.78004599999996
 10
0.0182310000000143
 20
46.61138599999998
 10
0.0408889999999929
 20
46.44530300000002
 10
0.0723689999999806
 20
46.28306000000002
 10
0.112431000000015
 20
46.125894
 10
0.1607699999999568
 20
45.97500000000001
 10
0.2170180000000528
 20
45.831526
 10
0.2807470000000194
 20
45.69656400000002
 10
0.351472000000058
 20
45.571142
 10
0.4286549999999353
 20
45.45621299999999
 10
0.5117079999999988
 20
45.35265300000003
 10
0.5999999999999091
 20
45.26125000000002
 10
0.6928580000000011
 20
45.18270000000001
 10
0.7895760000000111
 20
45.11759900000003
 10
0.8894169999999801
 20
45.06644399999998
 10
0.9916220000000064
 20
45.02962500000001
 10
1.095413000000007
 20
45.00742000000001
 10
1.200000000000044
 20
45.0
  0
LINE
  5
5F7A
330
5F62
100
AcDbEntity
  8
AM_0 外形線1
100
AcDbLine
 10
1.899999999999976
 20
48.89999999999997
 30
0.0
 11
0.0
 21
48.89999999999997
 31
0.0
  0
ARC
  5
5F7B
330
5F62
100
AcDbEntity
  8
AM_0 外形線1
100
AcDbCircle
 10
1.899999999999976
 20
48.39999999999998
 30
0.0
 40
0.5
100
AcDbArc
 50
0.0
 51
90.0
  0
LINE
  5
5F7C
330
5F62
100
AcDbEntity
  8
AM_0 外形線1
100
AcDbLine
 10
2.399999999999977
 20
45.49999999999999
 30
0.0
 11
2.399999999999977
 21
48.39999999999998
 31
0.0
  0
ARC
  5
5F7D
330
5F62
100
AcDbEntity
  8
AM_0 外形線1
100
AcDbCircle
 10
1.899999999999976
 20
45.49999999999999
 30
0.0
 40
0.5
100
AcDbArc
 50
270.0
 51
0.0
  0
ARC
  5
5F7E
330
5F62
100
AcDbEntity
  8
AM_0 外形線1
100
AcDbCircle
 10
13.0
 20
40.0
 30
0.0
 40
1.0
100
AcDbArc
 50
0.0
 51
90.0
  0
ARC
  5
5F7F
330
5F62
100
AcDbEntity
  8
AM_0 外形線1
100
AcDbCircle
 10
29.0
 20
40.0
 30
0.0
 40
1.0
100
AcDbArc
 50
90.0
 51
180.0
  0
LINE
  5
5F80
330
5F62
100
AcDbEntity
  8
AM_3 隠れ線
  6
AM_ISO02W050x2
100
AcDbLine
 10
27.5
 20
37.80000000000001
 30
0.0
 11
16.0
 21
37.80000000000001
 31
0.0
  0
LINE
  5
5F81
330
5F62
100
AcDbEntity
  8
AM_0 外形線1
100
AcDbLine
 10
16.0
 20
37.80000000000001
 30
0.0
 11
14.5
 21
37.80000000000001
 31
0.0
  0
LINE
  5
5F82
330
5F62
100
AcDbEntity
  8
AM_0 外形線1
100
AcDbLine
 10
14.5
 20
37.80000000000001
 30
0.0
 11
14.0
 21
38.30000000000001
 31
0.0
  0
LINE
  5
5F83
330
5F62
100
AcDbEntity
  8
AM_0 外形線1
100
AcDbLine
 10
14.0
 20
40.0
 30
0.0
 11
14.0
 21
36.20940999999999
 31
0.0
  0
LINE
  5
5F85
330
5F62
100
AcDbEntity
  8
AM_3 隠れ線
  6
AM_ISO02W050x2
100
AcDbLine
 10
28.0
 20
38.30000000000001
 30
0.0
 11
27.5
 21
37.80000000000001
 31
0.0
  0
LINE
  5
5F86
330
5F62
100
AcDbEntity
  8
AM_3 隠れ線
  6
AM_ISO02W050x2
100
AcDbLine
 10
28.0
 20
39.88380700000005
 30
0.0
 11
28.0
 21
38.30000000000001
 31
0.0
  0
LINE
  5
5F87
330
5F62
100
AcDbEntity
  8
AM_0 外形線1
100
AcDbLine
 10
14.0
 20
40.49999999999999
 30
0.0
 11
28.0
 21
40.49999999999999
 31
0.0
  0
ARC
  5
5F88
330
5F62
100
AcDbEntity
  8
AM_0 外形線1
100
AcDbCircle
 10
18.0
 20
49.0
 30
0.0
 40
3.0
100
AcDbArc
 50
180.0
 51
270.0
  0
LINE
  5
5F89
330
5F62
100
AcDbEntity
  8
AM_0 外形線1
100
AcDbLine
 10
15.0
 20
62.29999999999989
 30
0.0
 11
15.0
 21
49.0
 31
0.0
  0
LINE
  5
5F8A
330
5F62
100
AcDbEntity
  8
AM_0 外形線1
100
AcDbLine
 10
0.2000000000000455
 20
62.5
 30
0.0
 11
14.79999999999995
 21
62.5
 31
0.0
  0
LINE
  5
5F8B
330
5F62
100
AcDbEntity
  8
AM_0 外形線1
100
AcDbLine
 10
15.0
 20
59.5
 30
0.0
 11
0.0
 21
59.5
 31
0.0
  0
LINE
  5
5F8C
330
5F62
100
AcDbEntity
  8
AM_0 外形線1
100
AcDbLine
 10
0.0
 20
62.30000000000001
 30
0.0
 11
0.2000000000000455
 21
62.5
 31
0.0
  0
LINE
  5
5F8D
330
5F62
100
AcDbEntity
  8
AM_0 外形線1
100
AcDbLine
 10
0.0
 20
59.5
 30
0.0
 11
0.0
 21
62.30000000000001
 31
0.0
  0
ARC
  5
5F8E
330
5F62
100
AcDbEntity
  8
AM_0 外形線1
100
AcDbCircle
 10
40.0
 20
-43.0
 30
0.0
 40
3.0
100
AcDbArc
 50
270.0
 51
0.0
  0
LINE
  5
5F8F
330
5F62
100
AcDbEntity
  8
AM_0 外形線1
100
AcDbLine
 10
43.0
 20
-43.0
 30
0.0
 11
43.0
 21
0.0
 31
0.0
  0
ARC
  5
5F90
330
5F62
100
AcDbEntity
  8
AM_0 外形線1
100
AcDbCircle
 10
30.0
 20
40.0
 30
0.0
 40
1.0
100
AcDbArc
 50
0.0
 51
90.0
  0
LINE
  5
5F91
330
5F62
100
AcDbEntity
  8
AM_0 外形線1
100
AcDbLine
 10
43.0
 20
43.0
 30
0.0
 11
43.0
 21
36.0
 31
0.0
  0
LINE
  5
5F92
330
5F62
100
AcDbEntity
  8
AM_0 外形線1
100
AcDbLine
 10
43.0
 20
36.0
 30
0.0
 11
40.79999999999995
 21
36.0
 31
0.0
  0
LWPOLYLINE
  5
5F93
330
5F62
100
AcDbEntity
  8
AM_0 外形線1
100
AcDbPolyline
 90
       73
 70
     0
 43
0.0
 10
33.20000000000006
 20
37.35000000000002
 10
33.21445999999993
 20
37.14518399999997
 10
33.25773099999992
 20
36.94192700000002
 10
33.3294820000001
 20
36.74177500000002
 10
33.42916800000001
 20
36.54625199999998
 10
33.55602999999997
 20
36.35684700000002
 10
33.70910300000004
 20
36.17500000000001
 10
33.88722200000007
 20
36.002095
 10
34.08903099999998
 20
35.839449
 10
34.312994
 20
35.68829900000004
 10
34.55740700000001
 20
35.54979500000003
 10
34.82041000000004
 20
35.42499199999998
 10
35.09999999999991
 20
35.31484000000001
 10
35.39405099999999
 20
35.22017600000004
 10
35.70032300000003
 20
35.14172200000002
 10
36.01648799999998
 20
35.08007400000002
 10
36.34013700000004
 20
35.03570200000002
 10
36.66880800000001
 20
35.00894199999999
 10
37.0
 20
35.0
 10
37.33119199999999
 20
35.00894199999999
 10
37.65986299999998
 20
35.03570200000002
 10
37.98351200000003
 20
35.08007400000002
 10
38.29967699999997
 20
35.14172200000002
 10
38.60594900000001
 20
35.22017600000004
 10
38.89999999999998
 20
35.31484000000001
 10
39.17958999999996
 20
35.42499199999998
 10
39.44259299999999
 20
35.54979500000003
 10
39.687006
 20
35.68829900000004
 10
39.91096900000002
 20
35.839449
 10
40.11277799999994
 20
36.002095
 10
40.29089700000008
 20
36.17500000000001
 10
40.44397000000003
 20
36.35684700000002
 10
40.570832
 20
36.54625199999998
 10
40.670518
 20
36.74177500000002
 10
40.74226899999996
 20
36.94192700000002
 10
40.78553999999996
 20
37.14518399999997
 10
40.79999999999995
 20
37.35000000000002
 10
40.78553999999996
 20
37.55481600000003
 10
40.74226899999996
 20
37.75807299999997
 10
40.670518
 20
37.95822499999996
 10
40.570832
 20
38.15374700000001
 10
40.44397000000003
 20
38.34315300000004
 10
40.29089700000008
 20
38.52499999999998
 10
40.11277799999994
 20
38.69790399999999
 10
39.91096900000002
 20
38.86055100000005
 10
39.687006
 20
39.01170100000001
 10
39.44259299999999
 20
39.15020399999998
 10
39.17958999999996
 20
39.27500700000003
 10
38.89999999999998
 20
39.38515899999999
 10
38.60594900000001
 20
39.47982300000001
 10
38.29967699999997
 20
39.55827699999998
 10
37.98351200000003
 20
39.61992500000003
 10
37.65986299999998
 20
39.66429799999998
 10
37.33119199999999
 20
39.691057
 10
37.0
 20
39.69999999999999
 10
36.66880800000001
 20
39.691057
 10
36.34013700000004
 20
39.66429799999998
 10
36.01648799999998
 20
39.61992500000003
 10
35.70032300000003
 20
39.55827699999998
 10
35.39405099999999
 20
39.47982300000001
 10
35.09999999999991
 20
39.38515899999999
 10
34.82041000000004
 20
39.27500700000003
 10
34.55740700000001
 20
39.15020399999998
 10
34.312994
 20
39.01170100000001
 10
34.08903099999998
 20
38.86055100000005
 10
33.88722200000007
 20
38.69790399999999
 10
33.70910300000004
 20
38.52499999999998
 10
33.55602999999997
 20
38.34315300000004
 10
33.42916800000001
 20
38.15374700000001
 10
33.3294820000001
 20
37.95822499999996
 10
33.25773099999992
 20
37.75807299999997
 10
33.21445999999993
 20
37.55481600000003
 10
33.20000000000006
 20
37.35000000000002
  0
LINE
  5
5F94
330
5F62
100
AcDbEntity
  8
AM_0 外形線1
100
AcDbLine
 10
40.29999999999995
 20
39.69999999999999
 30
0.0
 11
33.70000000000004
 21
39.69999999999999
 31
0.0
  0
LINE
  5
5F96
330
5F62
100
AcDbEntity
  8
AM_0 外形線1
100
AcDbLine
 10
33.20000000000006
 20
36.0
 30
0.0
 11
31.0
 21
36.0
 31
0.0
  0
ARC
  5
5F98
330
5F62
100
AcDbEntity
  8
AM_0 外形線1
100
AcDbCircle
 10
33.70000000000004
 20
39.19999999999999
 30
0.0
 40
0.5
100
AcDbArc
 50
90.0
 51
180.0
  0
LINE
  5
5F99
330
5F62
100
AcDbEntity
  8
AM_0 外形線1
100
AcDbLine
 10
33.20000000000006
 20
39.19999999999999
 30
0.0
 11
33.20000000000006
 21
35.0
 31
0.0
  0
LINE
  5
5F9A
330
5F62
100
AcDbEntity
  8
AM_0 外形線1
100
AcDbLine
 10
31.0
 20
40.0
 30
0.0
 11
31.0
 21
35.0
 31
0.0
  0
LINE
  5
5F9B
330
5F62
100
AcDbEntity
  8
AM_0 外形線1
100
AcDbLine
 10
40.79999999999995
 20
36.0
 30
0.0
 11
40.79999999999995
 21
39.19999999999999
 31
0.0
  0
LINE
  5
5F9C
330
5F62
100
AcDbEntity
  8
AM_0 外形線1
100
AcDbLine
 10
40.79999999999995
 20
36.0
 30
0.0
 11
40.79999999999995
 21
35.0
 31
0.0
  0
LINE
  5
5F9D
330
5F62
100
AcDbEntity
  8
AM_0 外形線1
100
AcDbLine
 10
43.0
 20
36.0
 30
0.0
 11
43.0
 21
35.0
 31
0.0
  0
ARC
  5
5F9E
330
5F62
100
AcDbEntity
  8
AM_0 外形線1
100
AcDbCircle
 10
40.0
 20
43.0
 30
0.0
 40
3.0
100
AcDbArc
 50
0.0
 51
90.0
  0
INSERT
  5
5F9F
330
5F62
100
AcDbEntity
  8
AM_5 寸法線
100
AcDbBlockReference
  2
ロッカクアナツキプラグ R1／8
 10
7.5
 20
-19.99286899999998
 30
0.0
  0
LINE
  5
60E6
330
5F62
100
AcDbEntity
  8
AM_0 外形線1
100
AcDbLine
 10
28.0
 20
40.0
 30
0.0
 11
28.0
 21
39.88380700000005
 31
0.0
  0
LINE
  5
60E7
330
5F62
100
AcDbEntity
  8
AM_0 外形線1
100
AcDbLine
 10
14.79999999999995
 20
62.5
 30
0.0
 11
15.0
 21
62.30000000000001
 31
0.0
  0
LINE
  5
6774
330
5F62
100
AcDbEntity
  8
AM_0 外形線1
100
AcDbLine
 10
5.321946000000025
 20
-18.73536899999999
 30
0.0
 11
5.321946000000025
 21
-21.25036899999998
 31
0.0
  0
ARC
  5
6850
330
5F62
100
AcDbEntity
  8
AM_0 外形線1
100
AcDbCircle
 10
40.29999999999995
 20
39.19999999999999
 30
0.0
 40
0.5
100
AcDbArc
 50
0.0
 51
90.0
  0
ENDBLK
  5
5F64
330
5F62
100
AcDbEntity
  8
0
100
AcDbBlockEnd
  0
BLOCK
  5
60F0
330
60EF
100
AcDbEntity
  8
0
100
AcDbBlockBegin
  2
ケースB SSM125
 70
     0
 10
0.0
 20
0.0
 30
0.0
  3
ケースB SSM125
  1

  0
ARC
  5
60F2
330
60EF
100
AcDbEntity
  8
AM_0 外形線1
100
AcDbCircle
 10
-40.0
 20
-43.0
 30
0.0
 40
3.0
100
AcDbArc
 50
180.0
 51
270.0
  0
ARC
  5
60F3
330
60EF
100
AcDbEntity
  8
AM_0 外形線1
100
AcDbCircle
 10
-18.0
 20
-49.0
 30
0.0
 40
3.0
100
AcDbArc
 50
0.0
 51
90.0
  0
LINE
  5
60F4
330
60EF
100
AcDbEntity
  8
AM_0 外形線1
100
AcDbLine
 10
-15.0
 20
-62.30000000000001
 30
0.0
 11
-15.0
 21
0.0
 31
0.0
  0
LINE
  5
60F5
330
60EF
100
AcDbEntity
  8
AM_0 外形線1
100
AcDbLine
 10
-0.2000000000000455
 20
-62.5
 30
0.0
 11
-14.79999999999995
 21
-62.5
 31
0.0
  0
LINE
  5
60F6
330
60EF
100
AcDbEntity
  8
AM_0 外形線1
100
AcDbLine
 10
-14.79999999999995
 20
-62.5
 30
0.0
 11
-15.0
 21
-62.30000000000001
 31
0.0
  0
LINE
  5
60F7
330
60EF
100
AcDbEntity
  8
AM_0 外形線1
100
AcDbLine
 10
0.0
 20
-62.30000000000001
 30
0.0
 11
-0.2000000000000455
 21
-62.5
 31
0.0
  0
LINE
  5
60F8
330
60EF
100
AcDbEntity
  8
AM_0 外形線1
100
AcDbLine
 10
-18.0
 20
-46.0
 30
0.0
 11
-40.0
 21
-46.0
 31
0.0
  0
LINE
  5
60F9
330
60EF
100
AcDbEntity
  8
AM_0 外形線1
100
AcDbLine
 10
-43.0
 20
-43.0
 30
0.0
 11
-43.0
 21
0.0
 31
0.0
  0
LINE
  5
60FA
330
60EF
100
AcDbEntity
  8
AM_3 隠れ線
  6
AM_ISO02W050x2
100
AcDbLine
 10
-27.5
 20
37.80000000000001
 30
0.0
 11
-16.0
 21
37.80000000000001
 31
0.0
  0
LINE
  5
60FB
330
60EF
100
AcDbEntity
  8
AM_7 中心線
100
AcDbLine
 10
-12.0
 20
39.0
 30
0.0
 11
-30.0
 21
39.0
 31
0.0
  0
LINE
  5
60FC
330
60EF
100
AcDbEntity
  8
AM_0 外形線1
100
AcDbLine
 10
-14.0
 20
40.49999999999999
 30
0.0
 11
-28.0
 21
40.49999999999999
 31
0.0
  0
LINE
  5
60FD
330
60EF
100
AcDbEntity
  8
AM_0 外形線1
100
AcDbLine
 10
-18.0
 20
46.0
 30
0.0
 11
-40.0
 21
46.0
 31
0.0
  0
ARC
  5
60FE
330
60EF
100
AcDbEntity
  8
AM_0 外形線1
100
AcDbCircle
 10
-30.0
 20
40.0
 30
0.0
 40
1.0
100
AcDbArc
 50
90.0
 51
180.0
  0
ARC
  5
6100
330
60EF
100
AcDbEntity
  8
AM_0 外形線1
100
AcDbCircle
 10
-29.0
 20
40.0
 30
0.0
 40
1.0
100
AcDbArc
 50
0.0
 51
90.0
  0
LINE
  5
6101
330
60EF
100
AcDbEntity
  8
AM_0 外形線1
100
AcDbLine
 10
-33.20000000000006
 20
36.0
 30
0.0
 11
-31.0
 21
36.0
 31
0.0
  0
LWPOLYLINE
  5
6102
330
60EF
100
AcDbEntity
  8
AM_0 外形線1
100
AcDbPolyline
 90
       73
 70
     0
 43
0.0
 10
-33.20000000000006
 20
37.35000000000002
 10
-33.21446000000003
 20
37.55481600000003
 10
-33.25773100000004
 20
37.75807299999997
 10
-33.32948199999999
 20
37.95822499999996
 10
-33.42916800000001
 20
38.15374700000001
 10
-33.55602999999997
 20
38.34315300000004
 10
-33.70910299999991
 20
38.52499999999998
 10
-33.88722200000007
 20
38.69790399999999
 10
-34.08903099999998
 20
38.86055100000005
 10
-34.312994
 20
39.01170100000001
 10
-34.55740700000001
 20
39.15020399999998
 10
-34.82041000000004
 20
39.27500700000003
 10
-35.10000000000002
 20
39.38515899999999
 10
-35.39405099999999
 20
39.47982300000001
 10
-35.70032300000003
 20
39.55827699999998
 10
-36.01648799999998
 20
39.61992500000003
 10
-36.34013700000004
 20
39.66429799999998
 10
-36.66880800000001
 20
39.691057
 10
-37.0
 20
39.69999999999999
 10
-37.33119199999999
 20
39.691057
 10
-37.65986299999998
 20
39.66429799999998
 10
-37.98351200000003
 20
39.61992500000003
 10
-38.29967699999997
 20
39.55827699999998
 10
-38.60594900000001
 20
39.47982300000001
 10
-38.9000000000001
 20
39.38515899999999
 10
-39.17958999999996
 20
39.27500700000003
 10
-39.44259299999999
 20
39.15020399999998
 10
-39.687006
 20
39.01170100000001
 10
-39.91096900000002
 20
38.86055100000005
 10
-40.11277799999994
 20
38.69790399999999
 10
-40.29089699999996
 20
38.52499999999998
 10
-40.44397000000003
 20
38.34315300000004
 10
-40.570832
 20
38.15374700000001
 10
-40.6705179999999
 20
37.95822499999996
 10
-40.74226900000008
 20
37.75807299999997
 10
-40.78554000000007
 20
37.55481600000003
 10
-40.79999999999995
 20
37.35000000000002
 10
-40.78554000000007
 20
37.14518399999997
 10
-40.74226900000008
 20
36.94192700000002
 10
-40.6705179999999
 20
36.74177500000002
 10
-40.570832
 20
36.54625199999998
 10
-40.44397000000003
 20
36.35684700000002
 10
-40.29089699999996
 20
36.17500000000001
 10
-40.11277799999994
 20
36.002095
 10
-39.91096900000002
 20
35.839449
 10
-39.687006
 20
35.68829900000004
 10
-39.44259299999999
 20
35.54979500000003
 10
-39.17958999999996
 20
35.42499199999998
 10
-38.9000000000001
 20
35.31484000000001
 10
-38.60594900000001
 20
35.22017600000004
 10
-38.29967699999997
 20
35.14172200000002
 10
-37.98351200000003
 20
35.08007400000002
 10
-37.65986299999998
 20
35.03570200000002
 10
-37.33119199999999
 20
35.00894199999999
 10
-37.0
 20
35.0
 10
-36.66880800000001
 20
35.00894199999999
 10
-36.34013700000004
 20
35.03570200000002
 10
-36.01648799999998
 20
35.08007400000002
 10
-35.70032300000003
 20
35.14172200000002
 10
-35.39405099999999
 20
35.22017600000004
 10
-35.10000000000002
 20
35.31484000000001
 10
-34.82041000000004
 20
35.42499199999998
 10
-34.55740700000001
 20
35.54979500000003
 10
-34.312994
 20
35.68829900000004
 10
-34.08903099999998
 20
35.839449
 10
-33.88722200000007
 20
36.002095
 10
-33.70910299999991
 20
36.17500000000001
 10
-33.55602999999997
 20
36.35684700000002
 10
-33.42916800000001
 20
36.54625199999998
 10
-33.32948199999999
 20
36.74177500000002
 10
-33.25773100000004
 20
36.94192700000002
 10
-33.21446000000003
 20
37.14518399999997
 10
-33.20000000000006
 20
37.35000000000002
  0
LINE
  5
6103
330
60EF
100
AcDbEntity
  8
AM_0 外形線1
100
AcDbLine
 10
-40.29999999999995
 20
39.69999999999999
 30
0.0
 11
-33.70000000000004
 21
39.69999999999999
 31
0.0
  0
ARC
  5
6104
330
60EF
100
AcDbEntity
  8
AM_0 外形線1
100
AcDbCircle
 10
-40.29999999999995
 20
39.19999999999999
 30
0.0
 40
0.5
100
AcDbArc
 50
90.0
 51
180.0
  0
LINE
  5
6106
330
60EF
100
AcDbEntity
  8
AM_0 外形線1
100
AcDbLine
 10
-43.0
 20
36.0
 30
0.0
 11
-40.79999999999995
 21
36.0
 31
0.0
  0
LINE
  5
6107
330
60EF
100
AcDbEntity
  8
AM_0 外形線1
100
AcDbLine
 10
-40.79999999999995
 20
39.19999999999999
 30
0.0
 11
-40.79999999999995
 21
35.0
 31
0.0
  0
LINE
  5
6108
330
60EF
100
AcDbEntity
  8
AM_0 外形線1
100
AcDbLine
 10
-43.0
 20
43.0
 30
0.0
 11
-43.0
 21
35.0
 31
0.0
  0
ARC
  5
610A
330
60EF
100
AcDbEntity
  8
AM_0 外形線1
100
AcDbCircle
 10
-33.70000000000004
 20
39.19999999999999
 30
0.0
 40
0.5
100
AcDbArc
 50
0.0
 51
90.0
  0
LINE
  5
610B
330
60EF
100
AcDbEntity
  8
AM_0 外形線1
100
AcDbLine
 10
-33.20000000000006
 20
39.19999999999999
 30
0.0
 11
-33.20000000000006
 21
35.0
 31
0.0
  0
LINE
  5
610D
330
60EF
100
AcDbEntity
  8
AM_0 外形線1
100
AcDbLine
 10
-31.0
 20
40.0
 30
0.0
 11
-31.0
 21
35.0
 31
0.0
  0
LINE
  5
610E
330
60EF
100
AcDbEntity
  8
AM_0 外形線1
100
AcDbLine
 10
-28.0
 20
40.0
 30
0.0
 11
-28.0
 21
39.88380700000005
 31
0.0
  0
LINE
  5
610F
330
60EF
100
AcDbEntity
  8
AM_3 隠れ線
  6
AM_ISO02W050x2
100
AcDbLine
 10
-28.0
 20
39.88380700000005
 30
0.0
 11
-28.0
 21
38.30000000000001
 31
0.0
  0
LINE
  5
6110
330
60EF
100
AcDbEntity
  8
AM_3 隠れ線
  6
AM_ISO02W050x2
100
AcDbLine
 10
-28.0
 20
38.30000000000001
 30
0.0
 11
-27.5
 21
37.80000000000001
 31
0.0
  0
ARC
  5
6111
330
60EF
100
AcDbEntity
  8
AM_0 外形線1
100
AcDbCircle
 10
-40.0
 20
43.0
 30
0.0
 40
3.0
100
AcDbArc
 50
90.0
 51
180.0
  0
LINE
  5
6112
330
60EF
100
AcDbEntity
  8
AM_0 外形線1
100
AcDbLine
 10
-30.0
 20
41.0
 30
0.0
 11
-29.0
 21
41.0
 31
0.0
  0
ARC
  5
6114
330
60EF
100
AcDbEntity
  8
AM_0 外形線1
100
AcDbCircle
 10
-13.0
 20
40.0
 30
0.0
 40
1.0
100
AcDbArc
 50
90.0
 51
180.0
  0
LINE
  5
6115
330
60EF
100
AcDbEntity
  8
AM_0 外形線1
100
AcDbLine
 10
-3.0
 20
45.0
 30
0.0
 11
-3.0
 21
36.20940999999999
 31
0.0
  0
LINE
  5
6116
330
60EF
100
AcDbEntity
  8
AM_0 外形線1
100
AcDbLine
 10
-16.0
 20
37.80000000000001
 30
0.0
 11
-14.5
 21
37.80000000000001
 31
0.0
  0
LINE
  5
6117
330
60EF
100
AcDbEntity
  8
AM_0 外形線1
100
AcDbLine
 10
-14.5
 20
37.80000000000001
 30
0.0
 11
-14.0
 21
38.30000000000001
 31
0.0
  0
LINE
  5
6118
330
60EF
100
AcDbEntity
  8
AM_0 外形線1
100
AcDbLine
 10
-14.0
 20
40.0
 30
0.0
 11
-14.0
 21
36.20940999999999
 31
0.0
  0
LINE
  5
611A
330
60EF
100
AcDbEntity
  8
AM_0 外形線1
100
AcDbLine
 10
-13.0
 20
41.0
 30
0.0
 11
-3.0
 21
41.0
 31
0.0
  0
LINE
  5
611B
330
60EF
100
AcDbEntity
  8
AM_0 外形線1
100
AcDbLine
 10
0.0
 20
52.5
 30
0.0
 11
-15.0
 21
52.5
 31
0.0
  0
ARC
  5
611D
330
60EF
100
AcDbEntity
  8
AM_0 外形線1
100
AcDbCircle
 10
-18.0
 20
49.0
 30
0.0
 40
3.0
100
AcDbArc
 50
270.0
 51
0.0
  0
LINE
  5
611E
330
60EF
100
AcDbEntity
  8
AM_0 外形線1
100
AcDbLine
 10
0.0
 20
45.19999999999998
 30
0.0
 11
0.0
 21
52.5
 31
0.0
  0
LINE
  5
611F
330
60EF
100
AcDbEntity
  8
AM_0 外形線1
100
AcDbLine
 10
-3.0
 20
45.0
 30
0.0
 11
-0.2000000000000455
 21
45.0
 31
0.0
  0
LINE
  5
6121
330
60EF
100
AcDbEntity
  8
AM_0 外形線1
100
AcDbLine
 10
-0.2000000000000455
 20
45.0
 30
0.0
 11
0.0
 21
45.19999999999998
 31
0.0
  0
LINE
  5
6122
330
60EF
100
AcDbEntity
  8
AM_0 外形線1
100
AcDbLine
 10
-0.2000000000000455
 20
62.5
 30
0.0
 11
-14.79999999999995
 21
62.5
 31
0.0
  0
LINE
  5
6123
330
60EF
100
AcDbEntity
  8
AM_0 外形線1
100
AcDbLine
 10
-15.0
 20
59.5
 30
0.0
 11
0.0
 21
59.5
 31
0.0
  0
LINE
  5
6124
330
60EF
100
AcDbEntity
  8
AM_0 外形線1
100
AcDbLine
 10
-15.0
 20
62.30000000000001
 30
0.0
 11
-15.0
 21
49.0
 31
0.0
  0
LINE
  5
6125
330
60EF
100
AcDbEntity
  8
AM_0 外形線1
100
AcDbLine
 10
-14.79999999999995
 20
62.5
 30
0.0
 11
-15.0
 21
62.30000000000001
 31
0.0
  0
LINE
  5
6126
330
60EF
100
AcDbEntity
  8
AM_0 外形線1
100
AcDbLine
 10
0.0
 20
62.30000000000001
 30
0.0
 11
-0.2000000000000455
 21
62.5
 31
0.0
  0
LINE
  5
6968
330
60EF
100
AcDbEntity
  8
AM_0 外形線1
100
AcDbLine
 10
0.0
 20
62.30000000000001
 30
0.0
 11
0.0
 21
59.5
 31
0.0
  0
LINE
  5
6969
330
60EF
100
AcDbEntity
  8
AM_0 外形線1
100
AcDbLine
 10
0.0
 20
0.0
 30
0.0
 11
0.0000000000001137
 21
-62.29993799999999
 31
0.0
  0
LINE
  5
6F58
330
60EF
100
AcDbEntity
  8
AM_7 中心線
100
AcDbLine
 10
-20.5
 20
-56.0
 30
0.0
 11
25.5
 21
-56.0
 31
0.0
  0
ENDBLK
  5
60F1
330
60EF
100
AcDbEntity
  8
0
100
AcDbBlockEnd
  0
BLOCK
  5
61CE
330
61CD
100
AcDbEntity
  8
0
100
AcDbBlockBegin
  2
センタＡ SSM125
 70
     0
 10
0.0
 20
0.0
 30
0.0
  3
センタＡ SSM125
  1

  0
LINE
  5
61D0
330
61CD
100
AcDbEntity
  8
AM_0 外形線1
100
AcDbLine
 10
0.0
 20
17.5
 30
0.0
 11
63.0
 21
17.5
 31
0.0
  0
LINE
  5
61D2
330
61CD
100
AcDbEntity
  8
AM_0 外形線1
100
AcDbLine
 10
60.0
 20
35.0
 30
0.0
 11
25.0
 21
35.0
 31
0.0
  0
LINE
  5
61D4
330
61CD
100
AcDbEntity
  8
AM_0 外形線1
100
AcDbLine
 10
0.0
 20
34.5
 30
0.0
 11
0.0
 21
0.0
 31
0.0
  0
LINE
  5
61D5
330
61CD
100
AcDbEntity
  8
AM_0 外形線1
100
AcDbLine
 10
11.5
 20
35.0
 30
0.0
 11
0.5
 21
35.0
 31
0.0
  0
LINE
  5
61D6
330
61CD
100
AcDbEntity
  8
AM_0 外形線1
100
AcDbLine
 10
0.5
 20
35.0
 30
0.0
 11
0.0
 21
34.5
 31
0.0
  0
ARC
  5
61D7
330
61CD
100
AcDbEntity
  8
AM_0 外形線1
100
AcDbCircle
 10
17.5
 20
0.0
 30
0.0
 40
40.40999999999999
100
AcDbArc
 50
80.74368899999852
 51
97.1075219999993
  0
LINE
  5
61D8
330
61CD
100
AcDbEntity
  8
AM_7 中心線
100
AcDbLine
 10
17.5
 20
43.5
 30
0.0
 11
17.5
 21
34.35000000000002
 31
0.0
  0
ARC
  5
61DA
330
61CD
100
AcDbEntity
  8
AM_0 外形線1
100
AcDbCircle
 10
11.5
 20
35.5
 30
0.0
 40
0.5
100
AcDbArc
 50
270.0
 51
0.0
  0
LINE
  5
61DB
330
61CD
100
AcDbEntity
  8
AM_0 外形線1
100
AcDbLine
 10
12.0
 20
39.53396200000003
 30
0.0
 11
12.0
 21
35.5
 31
0.0
  0
LINE
  5
61DC
330
61CD
100
AcDbEntity
  8
AM_0 外形線1
100
AcDbLine
 10
12.5
 20
40.09947699999997
 30
0.0
 11
12.0
 21
39.53396200000003
 31
0.0
  0
LINE
  5
61DD
330
61CD
100
AcDbEntity
  8
AM_0 外形線1
100
AcDbLine
 10
24.5
 20
39.29909600000003
 30
0.0
 11
24.0
 21
39.88380700000005
 31
0.0
  0
LINE
  5
61DE
330
61CD
100
AcDbEntity
  8
AM_0 外形線1
100
AcDbLine
 10
24.5
 20
35.5
 30
0.0
 11
24.5
 21
39.29909600000003
 31
0.0
  0
ARC
  5
61DF
330
61CD
100
AcDbEntity
  8
AM_0 外形線1
100
AcDbCircle
 10
25.0
 20
35.5
 30
0.0
 40
0.5
100
AcDbArc
 50
180.0
 51
270.0
  0
LINE
  5
61E0
330
61CD
100
AcDbEntity
  8
AM_0 外形線1
100
AcDbLine
 10
63.0
 20
0.0
 30
0.0
 11
63.0
 21
32.0
 31
0.0
  0
LINE
  5
61E1
330
61CD
100
AcDbEntity
  8
AM_0 外形線1
100
AcDbLine
 10
63.0
 20
0.0
 30
0.0
 11
63.0
 21
-32.0
 31
0.0
  0
LINE
  5
61E2
330
61CD
100
AcDbEntity
  8
AM_0 外形線1
100
AcDbLine
 10
39.0
 20
-35.0
 30
0.0
 11
60.0
 21
-35.0
 31
0.0
  0
ARC
  5
61E3
330
61CD
100
AcDbEntity
  8
AM_0 外形線1
100
AcDbCircle
 10
60.0
 20
-32.0
 30
0.0
 40
3.0
100
AcDbArc
 50
270.0
 51
0.0
  0
ARC
  5
61E4
330
61CD
100
AcDbEntity
  8
AM_0 外形線1
100
AcDbCircle
 10
60.0
 20
32.0
 30
0.0
 40
3.0
100
AcDbArc
 50
0.0
 51
90.0
  0
ARC
  5
A269
330
61CD
100
AcDbEntity
  8
AM_0 外形線1
100
AcDbCircle
 10
17.5
 20
0.0
 30
0.0
 40
37.34999999999997
100
AcDbArc
 50
79.19795746451772
 51
98.46792307143644
  0
ARC
  5
A26A
330
61CD
100
AcDbEntity
  8
AM_7 中心線
100
AcDbCircle
 10
17.5
 20
0.0
 30
0.0
 40
39.0
100
AcDbArc
 50
75.7499673021932
 51
101.0874892109732
  0
ENDBLK
  5
61CF
330
61CD
100
AcDbEntity
  8
0
100
AcDbBlockEnd
  0
BLOCK
  5
6253
330
6252
100
AcDbEntity
  8
0
100
AcDbBlockBegin
  2
センタB SSM125
 70
     0
 10
0.0
 20
0.0
 30
0.0
  3
センタB SSM125
  1

  0
LINE
  5
6255
330
6252
100
AcDbEntity
  8
AM_0 外形線1
100
AcDbLine
 10
0.0
 20
17.50000000000006
 30
0.0
 11
-63.0
 21
17.5
 31
0.0
  0
LINE
  5
6259
330
6252
100
AcDbEntity
  8
AM_0 外形線1
100
AcDbLine
 10
-63.0
 20
0.0
 30
0.0
 11
-63.0
 21
32.0
 31
0.0
  0
LINE
  5
625A
330
6252
100
AcDbEntity
  8
AM_0 外形線1
100
AcDbLine
 10
0.0
 20
34.5
 30
0.0
 11
0.0
 21
0.0
 31
0.0
  0
LINE
  5
625B
330
6252
100
AcDbEntity
  8
AM_0 外形線1
100
AcDbLine
 10
-63.0
 20
0.0
 30
0.0
 11
-63.0
 21
-32.0
 31
0.0
  0
LINE
  5
625C
330
6252
100
AcDbEntity
  8
AM_0 外形線1
100
AcDbLine
 10
-39.0
 20
-35.0
 30
0.0
 11
-60.0
 21
-35.0
 31
0.0
  0
ARC
  5
625D
330
6252
100
AcDbEntity
  8
AM_0 外形線1
100
AcDbCircle
 10
-60.0
 20
-32.0
 30
0.0
 40
3.0
100
AcDbArc
 50
180.0
 51
270.0
  0
ARC
  5
625E
330
6252
100
AcDbEntity
  8
AM_0 外形線1
100
AcDbCircle
 10
-17.5
 20
0.0
 30
0.0
 40
40.40999999999999
100
AcDbArc
 50
82.89247800000067
 51
99.25631100000149
  0
LINE
  5
6261
330
6252
100
AcDbEntity
  8
AM_0 外形線1
100
AcDbLine
 10
-60.0
 20
35.0
 30
0.0
 11
-25.0
 21
35.0
 31
0.0
  0
ARC
  5
6262
330
6252
100
AcDbEntity
  8
AM_0 外形線1
100
AcDbCircle
 10
-60.0
 20
32.0
 30
0.0
 40
3.0
100
AcDbArc
 50
90.0
 51
180.0
  0
LINE
  5
6263
330
6252
100
AcDbEntity
  8
AM_7 中心線
100
AcDbLine
 10
-17.5
 20
43.5
 30
0.0
 11
-17.5
 21
34.35000000000002
 31
0.0
  0
LINE
  5
6264
330
6252
100
AcDbEntity
  8
AM_0 外形線1
100
AcDbLine
 10
-24.5
 20
39.29909600000003
 30
0.0
 11
-24.0
 21
39.88380700000005
 31
0.0
  0
LINE
  5
6265
330
6252
100
AcDbEntity
  8
AM_0 外形線1
100
AcDbLine
 10
-24.5
 20
35.5
 30
0.0
 11
-24.5
 21
39.29909600000003
 31
0.0
  0
ARC
  5
6266
330
6252
100
AcDbEntity
  8
AM_0 外形線1
100
AcDbCircle
 10
-25.0
 20
35.5
 30
0.0
 40
0.5
100
AcDbArc
 50
270.0
 51
0.0
  0
LINE
  5
6267
330
6252
100
AcDbEntity
  8
AM_0 外形線1
100
AcDbLine
 10
-11.5
 20
35.0
 30
0.0
 11
-0.5
 21
35.0
 31
0.0
  0
ARC
  5
6268
330
6252
100
AcDbEntity
  8
AM_0 外形線1
100
AcDbCircle
 10
-11.5
 20
35.5
 30
0.0
 40
0.5
100
AcDbArc
 50
180.0
 51
270.0
  0
LINE
  5
6269
330
6252
100
AcDbEntity
  8
AM_0 外形線1
100
AcDbLine
 10
-12.0
 20
39.53396200000003
 30
0.0
 11
-12.0
 21
35.5
 31
0.0
  0
LINE
  5
626A
330
6252
100
AcDbEntity
  8
AM_0 外形線1
100
AcDbLine
 10
-12.5
 20
40.09947699999997
 30
0.0
 11
-12.0
 21
39.53396200000003
 31
0.0
  0
LINE
  5
626C
330
6252
100
AcDbEntity
  8
AM_0 外形線1
100
AcDbLine
 10
-0.5
 20
35.0
 30
0.0
 11
0.0
 21
34.5
 31
0.0
  0
ARC
  5
9DE3
330
6252
100
AcDbEntity
  8
AM_7 中心線
100
AcDbCircle
 10
-17.5
 20
0.0
 30
0.0
 40
39.0
100
AcDbArc
 50
78.91251078902998
 51
104.2500326978036
  0
ARC
  5
9DE4
330
6252
100
AcDbEntity
  8
AM_0 外形線1
100
AcDbCircle
 10
-17.5
 20
0.0
 30
0.0
 40
37.34999999999997
100
AcDbArc
 50
81.5320769285636
 51
100.8020425354822
  0
ENDBLK
  5
6254
330
6252
100
AcDbEntity
  8
0
100
AcDbBlockEnd
  0
BLOCK
  5
6521
330
6520
100
AcDbEntity
  8
0
100
AcDbBlockBegin
  2
リーマボルト SSM125 M6
 70
     0
 10
0.0
 20
0.0
 30
0.0
  3
リーマボルト SSM125 M6
  1

  0
LINE
  5
6523
330
6520
100
AcDbEntity
  8
AM_0 外形線1
100
AcDbLine
 10
38.0
 20
3.0
 30
0.0
 11
38.0
 21
-3.0
 31
0.0
  0
LINE
  5
6524
330
6520
100
AcDbEntity
  8
AM_0 外形線1
100
AcDbLine
 10
39.0
 20
2.0
 30
0.0
 11
39.0
 21
-2.0
 31
0.0
  0
ARC
  5
6525
330
6520
100
AcDbEntity
  8
AM_0 外形線1
100
AcDbCircle
 10
26.66098899999997
 20
0.0
 30
0.0
 40
9.839010999999999
100
AcDbArc
 50
342.9384689999998
 51
17.06153100000025
  0
LINE
  5
6526
330
6520
100
AcDbEntity
  8
AM_0 外形線1
100
AcDbLine
 10
31.5
 20
-5.75
 30
0.0
 11
31.5
 21
5.75
 31
0.0
  0
LINE
  5
6527
330
6520
100
AcDbEntity
  8
AM_0 外形線1
100
AcDbLine
 10
36.5
 20
5.0
 30
0.0
 11
36.5
 21
-5.0
 31
0.0
  0
LINE
  5
6528
330
6520
100
AcDbEntity
  8
AM_0 外形線1
100
AcDbLine
 10
26.0
 20
3.5
 30
0.0
 11
26.0
 21
-3.5
 31
0.0
  0
LINE
  5
6529
330
6520
100
AcDbEntity
  8
AM_0 外形線1
100
AcDbLine
 10
1.0
 20
-3.5
 30
0.0
 11
1.0
 21
3.5
 31
0.0
  0
LINE
  5
652A
330
6520
100
AcDbEntity
  8
AM_0 外形線1
100
AcDbLine
 10
27.0
 20
2.922649000000035
 30
0.0
 11
27.0
 21
-2.922649999999975
 31
0.0
  0
ARC
  5
652B
330
6520
100
AcDbEntity
  8
AM_0 外形線1
100
AcDbCircle
 10
5.839011000000027
 20
0.0
 30
0.0
 40
9.839010999999999
100
AcDbArc
 50
162.9384689999997
 51
197.0615310000002
  0
LINE
  5
652C
330
6520
100
AcDbEntity
  8
AM_0 外形線1
100
AcDbLine
 10
-4.0
 20
5.0
 30
0.0
 11
-4.0
 21
-5.0
 31
0.0
  0
ARC
  5
652D
330
6520
100
AcDbEntity
  8
AM_0 外形線1
100
AcDbCircle
 10
0.5
 20
-3.5
 30
0.0
 40
0.5
100
AcDbArc
 50
0.0
 51
180.0
  0
ARC
  5
652E
330
6520
100
AcDbEntity
  8
AM_0 外形線1
100
AcDbCircle
 10
-1.416878999999994
 20
-4.318375999999999
 30
0.0
 40
2.583120999999998
100
AcDbArc
 50
146.3428030000036
 51
213.6571969999963
  0
LINE
  5
652F
330
6520
100
AcDbEntity
  8
AM_0 外形線1
100
AcDbLine
 10
0.0
 20
-2.886752000000001
 30
0.0
 11
-3.56698700000004
 21
-2.886752000000001
 31
0.0
  0
LINE
  5
6530
330
6520
100
AcDbEntity
  8
AM_0 外形線1
100
AcDbLine
 10
-3.56698700000004
 20
-5.75
 30
0.0
 11
0.0
 21
-5.75
 31
0.0
  0
LINE
  5
6531
330
6520
100
AcDbEntity
  8
AM_0 外形線1
100
AcDbLine
 10
-4.0
 20
-5.0
 30
0.0
 11
-3.56698700000004
 21
-5.75
 31
0.0
  0
LINE
  5
6532
330
6520
100
AcDbEntity
  8
AM_0 外形線1
100
AcDbLine
 10
31.5
 20
-2.886752000000001
 30
0.0
 11
36.06698699999993
 21
-2.886752000000001
 31
0.0
  0
LINE
  5
6533
330
6520
100
AcDbEntity
  8
AM_0 外形線1
100
AcDbLine
 10
36.06698699999993
 20
-5.75
 30
0.0
 11
31.5
 21
-5.75
 31
0.0
  0
LINE
  5
6534
330
6520
100
AcDbEntity
  8
AM_0 外形線1
100
AcDbLine
 10
27.0
 20
-2.922649999999975
 30
0.0
 11
26.0
 21
-3.5
 31
0.0
  0
LINE
  5
6535
330
6520
100
AcDbEntity
  8
AM_0 外形線1
100
AcDbLine
 10
27.0
 20
-2.922649999999975
 30
0.0
 11
30.0
 21
-2.922649999999975
 31
0.0
  0
LINE
  5
6536
330
6520
100
AcDbEntity
  8
AM_0 外形線1
100
AcDbLine
 10
31.5
 20
0.5
 30
0.0
 11
30.0
 21
-1.0
 31
0.0
  0
LINE
  5
6537
330
6520
100
AcDbEntity
  8
AM_0 外形線1
100
AcDbLine
 10
31.5
 20
1.0
 30
0.0
 11
30.0
 21
-0.5
 31
0.0
  0
LINE
  5
6538
330
6520
100
AcDbEntity
  8
AM_0 外形線1
100
AcDbLine
 10
31.5
 20
-6.100000000000022
 30
0.0
 11
31.5
 21
-5.75
 31
0.0
  0
LINE
  5
6539
330
6520
100
AcDbEntity
  8
AM_0 外形線1
100
AcDbLine
 10
30.0
 20
-6.100000000000022
 30
0.0
 11
31.5
 21
-6.100000000000022
 31
0.0
  0
LINE
  5
653A
330
6520
100
AcDbEntity
  8
AM_0 外形線1
100
AcDbLine
 10
39.0
 20
-2.0
 30
0.0
 11
38.0
 21
-3.0
 31
0.0
  0
LINE
  5
653B
330
6520
100
AcDbEntity
  8
AM_4 細線
100
AcDbLine
 10
36.5
 20
-2.5
 30
0.0
 11
38.5
 21
-2.5
 31
0.0
  0
LINE
  5
653C
330
6520
100
AcDbEntity
  8
AM_0 外形線1
100
AcDbLine
 10
38.0
 20
-3.0
 30
0.0
 11
36.5
 21
-3.0
 31
0.0
  0
ARC
  5
653D
330
6520
100
AcDbEntity
  8
AM_0 外形線1
100
AcDbCircle
 10
33.91687899999999
 20
-4.318375999999999
 30
0.0
 40
2.583120999999998
100
AcDbArc
 50
326.3428030000036
 51
33.65719699999635
  0
LINE
  5
653E
330
6520
100
AcDbEntity
  8
AM_0 外形線1
100
AcDbLine
 10
36.5
 20
-5.0
 30
0.0
 11
36.06698699999993
 21
-5.75
 31
0.0
  0
ARC
  5
653F
330
6520
100
AcDbEntity
  8
AM_0 外形線1
100
AcDbCircle
 10
0.5
 20
3.5
 30
0.0
 40
0.5
100
AcDbArc
 50
180.0
 51
0.0
  0
ARC
  5
6540
330
6520
100
AcDbEntity
  8
AM_0 外形線1
100
AcDbCircle
 10
-1.416878999999994
 20
4.318375000000003
 30
0.0
 40
2.583120999999998
100
AcDbArc
 50
146.3428030000036
 51
213.6571969999963
  0
LINE
  5
6541
330
6520
100
AcDbEntity
  8
AM_0 外形線1
100
AcDbLine
 10
0.0
 20
2.886751000000002
 30
0.0
 11
-3.56698700000004
 21
2.886751000000002
 31
0.0
  0
LINE
  5
6542
330
6520
100
AcDbEntity
  8
AM_0 外形線1
100
AcDbLine
 10
-3.56698700000004
 20
5.75
 30
0.0
 11
-4.0
 21
5.0
 31
0.0
  0
LINE
  5
6543
330
6520
100
AcDbEntity
  8
AM_0 外形線1
100
AcDbLine
 10
0.0
 20
5.75
 30
0.0
 11
-3.56698700000004
 21
5.75
 31
0.0
  0
LINE
  5
6544
330
6520
100
AcDbEntity
  8
AM_0 外形線1
100
AcDbLine
 10
31.5
 20
2.886751000000002
 30
0.0
 11
36.06698699999993
 21
2.886751000000002
 31
0.0
  0
LINE
  5
6545
330
6520
100
AcDbEntity
  8
AM_0 外形線1
100
AcDbLine
 10
31.5
 20
5.75
 30
0.0
 11
36.06698699999993
 21
5.75
 31
0.0
  0
LINE
  5
6546
330
6520
100
AcDbEntity
  8
AM_0 外形線1
100
AcDbLine
 10
26.0
 20
3.5
 30
0.0
 11
27.0
 21
2.922649000000035
 31
0.0
  0
LINE
  5
6547
330
6520
100
AcDbEntity
  8
AM_0 外形線1
100
AcDbLine
 10
27.0
 20
2.922649000000035
 30
0.0
 11
30.0
 21
2.922649000000035
 31
0.0
  0
LINE
  5
6548
330
6520
100
AcDbEntity
  8
AM_0 外形線1
100
AcDbLine
 10
31.5
 20
6.100000000000022
 30
0.0
 11
30.0
 21
6.100000000000022
 31
0.0
  0
LINE
  5
6549
330
6520
100
AcDbEntity
  8
AM_0 外形線1
100
AcDbLine
 10
31.5
 20
5.75
 30
0.0
 11
31.5
 21
6.100000000000022
 31
0.0
  0
LINE
  5
654A
330
6520
100
AcDbEntity
  8
AM_0 外形線1
100
AcDbLine
 10
38.0
 20
3.0
 30
0.0
 11
39.0
 21
2.0
 31
0.0
  0
LINE
  5
654B
330
6520
100
AcDbEntity
  8
AM_4 細線
100
AcDbLine
 10
36.5
 20
2.5
 30
0.0
 11
38.5
 21
2.5
 31
0.0
  0
LINE
  5
654C
330
6520
100
AcDbEntity
  8
AM_0 外形線1
100
AcDbLine
 10
36.5
 20
3.0
 30
0.0
 11
38.0
 21
3.0
 31
0.0
  0
ARC
  5
654D
330
6520
100
AcDbEntity
  8
AM_0 外形線1
100
AcDbCircle
 10
33.91687899999999
 20
4.318375000000003
 30
0.0
 40
2.583120999999998
100
AcDbArc
 50
326.3428030000036
 51
33.65719699999635
  0
LINE
  5
654E
330
6520
100
AcDbEntity
  8
AM_0 外形線1
100
AcDbLine
 10
36.06698699999993
 20
5.75
 30
0.0
 11
36.5
 21
5.0
 31
0.0
  0
LINE
  5
65AF
330
6520
100
AcDbEntity
  8
AM_0 外形線1
100
AcDbLine
 10
1.0
 20
3.5
 30
0.0
 11
26.0
 21
3.5
 31
0.0
  0
LINE
  5
65B0
330
6520
100
AcDbEntity
  8
AM_0 外形線1
100
AcDbLine
 10
1.0
 20
-3.5
 30
0.0
 11
26.0
 21
-3.5
 31
0.0
  0
LINE
  5
65B1
330
6520
100
AcDbEntity
  8
AM_0 外形線1
100
AcDbLine
 10
30.0
 20
6.100000000000022
 30
0.0
 11
30.0
 21
-6.100000000000022
 31
0.0
  0
LINE
  5
7152
330
6520
100
AcDbEntity
  8
AM_0 外形線1
100
AcDbLine
 10
0.0
 20
5.75
 30
0.0
 11
0.0
 21
-5.749999999999943
 31
0.0
  0
ENDBLK
  5
6522
330
6520
100
AcDbEntity
  8
0
100
AcDbBlockEnd
  0
BLOCK
  5
7444
330
7443
100
AcDbEntity
  8
0
100
AcDbBlockBegin
  2
*D12
 70
     1
 10
0.0
 20
0.0
 30
0.0
  3
*D12
  1

  0
LINE
  5
A136
330
7443
100
AcDbEntity
  8
AM_5 寸法線
 62
     3
100
AcDbLine
 10
229.8629436770784
 20
357.7363700179036
 30
0.0
 11
193.8794356770783
 21
357.7363700179036
 31
0.0
  0
LINE
  5
A137
330
7443
100
AcDbEntity
  8
AM_5 寸法線
 62
     3
100
AcDbLine
 10
229.8629436770784
 20
287.7363700179036
 30
0.0
 11
193.8794356770783
 21
287.7363700179036
 31
0.0
  0
LINE
  5
A138
330
7443
100
AcDbEntity
  8
AM_5 寸法線
 62
     3
100
AcDbLine
 10
194.8169356770783
 20
353.9863700179036
 30
0.0
 11
194.8169356770781
 21
291.4863700179036
 31
0.0
  0
INSERT
  5
A139
330
7443
100
AcDbEntity
  8
AM_5 寸法線
 62
     3
100
AcDbBlockReference
  2
_Open30
 10
194.8169356770783
 20
357.7363700179036
 30
0.0
 41
3.75
 42
3.75
 43
3.75
 50
90.0
  0
INSERT
  5
A13A
330
7443
100
AcDbEntity
  8
AM_5 寸法線
 62
     3
100
AcDbBlockReference
  2
_Open30
 10
194.8169356770781
 20
287.7363700179036
 30
0.0
 41
3.75
 42
3.75
 43
3.75
 50
270.0
  0
MTEXT
  5
A13B
330
7443
100
AcDbEntity
  8
AM_5 寸法線
 62
     3
100
AcDbMText
 10
189.9419356770781
 20
322.7363700179036
 30
0.0
 40
5.25
 41
0.0
 46
0.0
 71
     5
 72
     1
  1
%%c70
  7
SEISA
 11
0.0000000000000001
 21
1.0
 31
0.0
 73
     1
 44
1.0
  0
POINT
  5
A13C
330
7443
100
AcDbEntity
  8
Defpoints
 62
     0
100
AcDbPoint
 10
230.8004436770783
 20
357.7363700179036
 30
0.0
  0
POINT
  5
A13D
330
7443
100
AcDbEntity
  8
Defpoints
 62
     0
100
AcDbPoint
 10
230.8004436770783
 20
287.7363700179036
 30
0.0
  0
POINT
  5
A13E
330
7443
100
AcDbEntity
  8
Defpoints
 62
     0
100
AcDbPoint
 10
194.8169356770781
 20
287.7363700179036
 30
0.0
  0
ENDBLK
  5
7445
330
7443
100
AcDbEntity
  8
0
100
AcDbBlockEnd
  0
BLOCK
  5
74E8
330
74E7
100
AcDbEntity
  8
0
100
AcDbBlockBegin
  2
*D13
 70
     1
 10
0.0
 20
0.0
 30
0.0
  3
*D13
  1

  0
LINE
  5
A190
330
74E7
100
AcDbEntity
  8
AM_5 寸法線
 62
     3
100
AcDbLine
 10
227.8004436770783
 20
323.6738700179036
 30
0.0
 11
227.8004436770783
 21
329.9697590179036
 31
0.0
  0
LINE
  5
A191
330
74E7
100
AcDbEntity
  8
AM_5 寸法線
 62
     3
100
AcDbLine
 10
290.8004436770783
 20
323.6738700179036
 30
0.0
 11
290.8004436770783
 21
329.9697590179036
 31
0.0
  0
LINE
  5
A192
330
74E7
100
AcDbEntity
  8
AM_5 寸法線
 62
     3
100
AcDbLine
 10
231.5504436770783
 20
329.0322590179036
 30
0.0
 11
287.0504436770783
 21
329.0322590179036
 31
0.0
  0
MTEXT
  5
A193
330
74E7
100
AcDbEntity
  8
AM_5 寸法線
 62
     3
100
AcDbMText
 10
238.0400827259251
 20
334.0198551076387
 30
0.0
 40
5.25
 41
0.0
 46
0.0
 71
     5
 72
     1
  1
63
  7
SEISA
 73
     1
 44
1.0
  0
INSERT
  5
A194
330
74E7
100
AcDbEntity
  8
AM_5 寸法線
 62
     3
100
AcDbBlockReference
  2
_Open30
 10
227.8004436770783
 20
329.0322590179036
 30
0.0
 41
3.75
 42
3.75
 43
3.75
 50
180.0
  0
INSERT
  5
A195
330
74E7
100
AcDbEntity
  8
AM_5 寸法線
 62
     3
100
AcDbBlockReference
  2
_Open30
 10
290.8004436770783
 20
329.0322590179036
 30
0.0
 41
3.75
 42
3.75
 43
3.75
  0
POINT
  5
A196
330
74E7
100
AcDbEntity
  8
Defpoints
 62
     0
100
AcDbPoint
 10
227.8004436770783
 20
322.7363700179036
 30
0.0
  0
POINT
  5
A197
330
74E7
100
AcDbEntity
  8
Defpoints
 62
     0
100
AcDbPoint
 10
290.8004436770783
 20
322.7363700179036
 30
0.0
  0
POINT
  5
A198
330
74E7
100
AcDbEntity
  8
Defpoints
 62
     0
100
AcDbPoint
 10
290.8004436770783
 20
329.0322590179036
 30
0.0
  0
ENDBLK
  5
74E9
330
74E7
100
AcDbEntity
  8
0
100
AcDbBlockEnd
  0
BLOCK
  5
7500
330
74FF
100
AcDbEntity
  8
0
100
AcDbBlockBegin
  2
*D14
 70
     1
 10
0.0
 20
0.0
 30
0.0
  3
*D14
  1

  0
LINE
  5
991D
330
74FF
100
AcDbEntity
  8
AM_5 寸法線
 62
     3
100
AcDbLine
 10
290.8004436770783
 20
323.6738700179036
 30
0.0
 11
290.8004436770783
 21
329.9697590179036
 31
0.0
  0
LINE
  5
991E
330
74FF
100
AcDbEntity
  8
AM_5 寸法線
 62
     3
100
AcDbLine
 10
298.8004436770783
 20
323.6738700179036
 30
0.0
 11
298.8004436770783
 21
329.9697590179036
 31
0.0
  0
LINE
  5
991F
330
74FF
100
AcDbEntity
  8
AM_5 寸法線
 62
     3
100
AcDbLine
 10
287.0504436770783
 20
329.0322590179036
 30
0.0
 11
283.3004436770783
 21
329.0322590179036
 31
0.0
  0
LINE
  5
9920
330
74FF
100
AcDbEntity
  8
AM_5 寸法線
 62
     3
100
AcDbLine
 10
302.5504436770783
 20
329.0322590179036
 30
0.0
 11
306.3004436770783
 21
329.0322590179036
 31
0.0
  0
MTEXT
  5
9921
330
74FF
100
AcDbEntity
  8
AM_5 寸法線
 62
     3
100
AcDbMText
 10
294.7850496341889
 20
333.8814239658497
 30
0.0
 40
5.25
 41
0.0
 46
0.0
 71
     5
 72
     1
  1
8
  7
SEISA
 73
     1
 44
1.0
  0
LINE
  5
9922
330
74FF
100
AcDbEntity
  8
AM_5 寸法線
 62
     3
100
AcDbLine
 10
290.8004436770783
 20
329.0322590179036
 30
0.0
 11
298.8004436770783
 21
329.0322590179036
 31
0.0
  0
INSERT
  5
9923
330
74FF
100
AcDbEntity
  8
AM_5 寸法線
 62
     3
100
AcDbBlockReference
  2
_Open30
 10
290.8004436770783
 20
329.0322590179036
 30
0.0
 41
3.75
 42
3.75
 43
3.75
  0
INSERT
  5
9924
330
74FF
100
AcDbEntity
  8
AM_5 寸法線
 62
     3
100
AcDbBlockReference
  2
_Open30
 10
298.8004436770783
 20
329.0322590179036
 30
0.0
 41
3.75
 42
3.75
 43
3.75
 50
180.0
  0
POINT
  5
9925
330
74FF
100
AcDbEntity
  8
Defpoints
 62
     0
100
AcDbPoint
 10
290.8004436770783
 20
322.7363700179036
 30
0.0
  0
POINT
  5
9926
330
74FF
100
AcDbEntity
  8
Defpoints
 62
     0
100
AcDbPoint
 10
298.8004436770783
 20
322.7363700179036
 30
0.0
  0
POINT
  5
9927
330
74FF
100
AcDbEntity
  8
Defpoints
 62
     0
100
AcDbPoint
 10
298.8004436770783
 20
329.0322590179036
 30
0.0
  0
ENDBLK
  5
7501
330
74FF
100
AcDbEntity
  8
0
100
AcDbBlockEnd
  0
BLOCK
  5
7532
330
7531
100
AcDbEntity
  8
0
100
AcDbBlockBegin
  2
*D15
 70
     1
 10
0.0
 20
0.0
 30
0.0
  3
*D15
  1

  0
LINE
  5
753E
330
7531
100
AcDbEntity
  8
AM_5 寸法線
 62
     3
100
AcDbLine
 10
298.8004476770783
 20
323.6738700179036
 30
0.0
 11
298.8004476770783
 21
329.9697590179036
 31
0.0
  0
LINE
  5
753F
330
7531
100
AcDbEntity
  8
AM_5 寸法線
 62
     3
100
AcDbLine
 10
361.8004436770783
 20
323.6738700179036
 30
0.0
 11
361.8004436770783
 21
329.9697590179036
 31
0.0
  0
LINE
  5
7540
330
7531
100
AcDbEntity
  8
AM_5 寸法線
 62
     3
100
AcDbLine
 10
302.5504476770783
 20
329.0322590179036
 30
0.0
 11
358.0504436770783
 21
329.0322590179036
 31
0.0
  0
INSERT
  5
7541
330
7531
100
AcDbEntity
  8
AM_5 寸法線
 62
     3
100
AcDbBlockReference
  2
_Open30
 10
298.8004476770783
 20
329.0322590179036
 30
0.0
 41
3.75
 42
3.75
 43
3.75
 50
180.0
  0
INSERT
  5
7542
330
7531
100
AcDbEntity
  8
AM_5 寸法線
 62
     3
100
AcDbBlockReference
  2
_Open30
 10
361.8004436770783
 20
329.0322590179036
 30
0.0
 41
3.75
 42
3.75
 43
3.75
  0
MTEXT
  5
7543
330
7531
100
AcDbEntity
  8
AM_5 寸法線
 62
     3
100
AcDbMText
 10
330.3004456770783
 20
333.9072590179037
 30
0.0
 40
5.25
 41
0.0
 46
0.0
 71
     5
 72
     1
  1
63
  7
SEISA
 73
     1
 44
1.0
  0
POINT
  5
7544
330
7531
100
AcDbEntity
  8
Defpoints
 62
     0
100
AcDbPoint
 10
298.8004476770783
 20
322.7363700179036
 30
0.0
  0
POINT
  5
7545
330
7531
100
AcDbEntity
  8
Defpoints
 62
     0
100
AcDbPoint
 10
361.8004436770783
 20
322.7363700179036
 30
0.0
  0
POINT
  5
7546
330
7531
100
AcDbEntity
  8
Defpoints
 62
     0
100
AcDbPoint
 10
361.8004436770783
 20
329.0322590179036
 30
0.0
  0
ENDBLK
  5
7533
330
7531
100
AcDbEntity
  8
0
100
AcDbBlockEnd
  0
BLOCK
  5
7571
330
7570
100
AcDbEntity
  8
0
100
AcDbBlockBegin
  2
*D16
 70
     1
 10
0.0
 20
0.0
 30
0.0
  3
*D16
  1

  0
LINE
  5
757D
330
7570
100
AcDbEntity
  8
AM_5 寸法線
 62
     3
100
AcDbLine
 10
279.8004436770783
 20
259.4988700179036
 30
0.0
 11
279.8004436770783
 21
244.2988700179036
 31
0.0
  0
LINE
  5
757E
330
7570
100
AcDbEntity
  8
AM_5 寸法線
 62
     3
100
AcDbLine
 10
294.8004436770784
 20
259.4989320179036
 30
0.0
 11
294.8004436770784
 21
244.2988700179036
 31
0.0
  0
LINE
  5
757F
330
7570
100
AcDbEntity
  8
AM_5 寸法線
 62
     3
100
AcDbLine
 10
283.5504436770783
 20
245.2363700179036
 30
0.0
 11
291.0504436770784
 21
245.2363700179036
 31
0.0
  0
INSERT
  5
7580
330
7570
100
AcDbEntity
  8
AM_5 寸法線
 62
     3
100
AcDbBlockReference
  2
_Open30
 10
279.8004436770783
 20
245.2363700179036
 30
0.0
 41
3.75
 42
3.75
 43
3.75
 50
180.0
  0
INSERT
  5
7581
330
7570
100
AcDbEntity
  8
AM_5 寸法線
 62
     3
100
AcDbBlockReference
  2
_Open30
 10
294.8004436770784
 20
245.2363700179036
 30
0.0
 41
3.75
 42
3.75
 43
3.75
  0
MTEXT
  5
7582
330
7570
100
AcDbEntity
  8
AM_5 寸法線
 62
     3
100
AcDbMText
 10
287.3004436770784
 20
250.1113700179036
 30
0.0
 40
5.25
 41
0.0
 46
0.0
 71
     5
 72
     1
  1
15
  7
SEISA
 73
     1
 44
1.0
  0
POINT
  5
7583
330
7570
100
AcDbEntity
  8
Defpoints
 62
     0
100
AcDbPoint
 10
279.8004436770783
 20
260.4363700179036
 30
0.0
  0
POINT
  5
7584
330
7570
100
AcDbEntity
  8
Defpoints
 62
     0
100
AcDbPoint
 10
294.8004436770784
 20
260.4364320179036
 30
0.0
  0
POINT
  5
7585
330
7570
100
AcDbEntity
  8
Defpoints
 62
     0
100
AcDbPoint
 10
294.8004436770784
 20
245.2363700179036
 30
0.0
  0
ENDBLK
  5
7572
330
7570
100
AcDbEntity
  8
0
100
AcDbBlockEnd
  0
BLOCK
  5
7589
330
7588
100
AcDbEntity
  8
0
100
AcDbBlockBegin
  2
*D17
 70
     1
 10
0.0
 20
0.0
 30
0.0
  3
*D17
  1

  0
LINE
  5
7595
330
7588
100
AcDbEntity
  8
AM_5 寸法線
 62
     3
100
AcDbLine
 10
294.8004436770784
 20
259.4989320179036
 30
0.0
 11
294.8004436770784
 21
244.2988700179036
 31
0.0
  0
LINE
  5
7596
330
7588
100
AcDbEntity
  8
AM_5 寸法線
 62
     3
100
AcDbLine
 10
309.8004436770783
 20
259.4988700179036
 30
0.0
 11
309.8004436770783
 21
244.2988700179036
 31
0.0
  0
LINE
  5
7597
330
7588
100
AcDbEntity
  8
AM_5 寸法線
 62
     3
100
AcDbLine
 10
298.5504436770784
 20
245.2363700179036
 30
0.0
 11
306.0504436770783
 21
245.2363700179036
 31
0.0
  0
INSERT
  5
7598
330
7588
100
AcDbEntity
  8
AM_5 寸法線
 62
     3
100
AcDbBlockReference
  2
_Open30
 10
294.8004436770784
 20
245.2363700179036
 30
0.0
 41
3.75
 42
3.75
 43
3.75
 50
180.0
  0
INSERT
  5
7599
330
7588
100
AcDbEntity
  8
AM_5 寸法線
 62
     3
100
AcDbBlockReference
  2
_Open30
 10
309.8004436770783
 20
245.2363700179036
 30
0.0
 41
3.75
 42
3.75
 43
3.75
  0
MTEXT
  5
759A
330
7588
100
AcDbEntity
  8
AM_5 寸法線
 62
     3
100
AcDbMText
 10
302.3004436770784
 20
250.1113700179036
 30
0.0
 40
5.25
 41
0.0
 46
0.0
 71
     5
 72
     1
  1
15
  7
SEISA
 73
     1
 44
1.0
  0
POINT
  5
759B
330
7588
100
AcDbEntity
  8
Defpoints
 62
     0
100
AcDbPoint
 10
294.8004436770784
 20
260.4364320179036
 30
0.0
  0
POINT
  5
759C
330
7588
100
AcDbEntity
  8
Defpoints
 62
     0
100
AcDbPoint
 10
309.8004436770783
 20
260.4363700179036
 30
0.0
  0
POINT
  5
759D
330
7588
100
AcDbEntity
  8
Defpoints
 62
     0
100
AcDbPoint
 10
309.8004436770783
 20
245.2363700179036
 30
0.0
  0
ENDBLK
  5
758A
330
7588
100
AcDbEntity
  8
0
100
AcDbBlockEnd
  0
BLOCK
  5
76A6
330
76A5
100
AcDbEntity
  8
0
100
AcDbBlockBegin
  2
*D18
 70
     1
 10
0.0
 20
0.0
 30
0.0
  3
*D18
  1

  0
LINE
  5
9D25
330
76A5
100
AcDbEntity
  8
AM_5 寸法線
 62
     3
100
AcDbLine
 10
251.8004436770783
 20
278.7988700179036
 30
0.0
 11
251.8004436770783
 21
229.2988700179036
 31
0.0
  0
LINE
  5
9D26
330
76A5
100
AcDbEntity
  8
AM_5 寸法線
 62
     3
100
AcDbLine
 10
337.8004436770783
 20
278.7988700179036
 30
0.0
 11
337.8004436770783
 21
229.2988700179036
 31
0.0
  0
LINE
  5
9D27
330
76A5
100
AcDbEntity
  8
AM_5 寸法線
 62
     3
100
AcDbLine
 10
255.5504436770783
 20
230.2363700179036
 30
0.0
 11
334.0504436770783
 21
230.2363700179036
 31
0.0
  0
INSERT
  5
9D28
330
76A5
100
AcDbEntity
  8
AM_5 寸法線
 62
     3
100
AcDbBlockReference
  2
_Open30
 10
251.8004436770783
 20
230.2363700179036
 30
0.0
 41
3.75
 42
3.75
 43
3.75
 50
180.0
  0
INSERT
  5
9D29
330
76A5
100
AcDbEntity
  8
AM_5 寸法線
 62
     3
100
AcDbBlockReference
  2
_Open30
 10
337.8004436770783
 20
230.2363700179036
 30
0.0
 41
3.75
 42
3.75
 43
3.75
  0
MTEXT
  5
9D2A
330
76A5
100
AcDbEntity
  8
AM_5 寸法線
 62
     3
100
AcDbMText
 10
294.8004436770783
 20
235.1113700179036
 30
0.0
 40
5.25
 41
0.0
 46
0.0
 71
     5
 72
     1
  1
86
  7
SEISA
 73
     1
 44
1.0
  0
POINT
  5
9D2B
330
76A5
100
AcDbEntity
  8
Defpoints
 62
     0
100
AcDbPoint
 10
251.8004436770783
 20
279.7363700179036
 30
0.0
  0
POINT
  5
9D2C
330
76A5
100
AcDbEntity
  8
Defpoints
 62
     0
100
AcDbPoint
 10
337.8004436770783
 20
279.7363700179036
 30
0.0
  0
POINT
  5
9D2D
330
76A5
100
AcDbEntity
  8
Defpoints
 62
     0
100
AcDbPoint
 10
337.8004436770783
 20
230.2363700179036
 30
0.0
  0
ENDBLK
  5
76A7
330
76A5
100
AcDbEntity
  8
0
100
AcDbBlockEnd
  0
BLOCK
  5
76FD
330
76FC
100
AcDbEntity
  8
0
100
AcDbBlockBegin
  2
*D19
 70
     1
 10
0.0
 20
0.0
 30
0.0
  3
*D19
  1

  0
LINE
  5
774C
330
76FC
100
AcDbEntity
  8
AM_5 寸法線
 62
     3
100
AcDbLine
 10
359.7379436770783
 20
357.7363700179036
 30
0.0
 11
395.7214516770783
 21
357.7363700179035
 31
0.0
  0
LINE
  5
774D
330
76FC
100
AcDbEntity
  8
AM_5 寸法線
 62
     3
100
AcDbLine
 10
359.7379436770783
 20
287.7363700179036
 30
0.0
 11
395.7214516770783
 21
287.7363700179035
 31
0.0
  0
LINE
  5
774E
330
76FC
100
AcDbEntity
  8
AM_5 寸法線
 62
     3
100
AcDbLine
 10
394.7839516770784
 20
353.9863700179036
 30
0.0
 11
394.7839516770784
 21
291.4863700179036
 31
0.0
  0
INSERT
  5
774F
330
76FC
100
AcDbEntity
  8
AM_5 寸法線
 62
     3
100
AcDbBlockReference
  2
_Open30
 10
394.7839516770784
 20
357.7363700179035
 30
0.0
 41
3.75
 42
3.75
 43
3.75
 50
90.0
  0
INSERT
  5
7750
330
76FC
100
AcDbEntity
  8
AM_5 寸法線
 62
     3
100
AcDbBlockReference
  2
_Open30
 10
394.7839516770784
 20
287.7363700179035
 30
0.0
 41
3.75
 42
3.75
 43
3.75
 50
270.0
  0
MTEXT
  5
7751
330
76FC
100
AcDbEntity
  8
AM_5 寸法線
 62
     3
100
AcDbMText
 10
389.9089516770784
 20
322.7363700179036
 30
0.0
 40
5.25
 41
0.0
 46
0.0
 71
     5
 72
     1
  1
%%c70
  7
SEISA
 11
0.0000000000000001
 21
1.0
 31
0.0
 73
     1
 44
1.0
  0
POINT
  5
7752
330
76FC
100
AcDbEntity
  8
Defpoints
 62
     0
100
AcDbPoint
 10
358.8004436770783
 20
357.7363700179036
 30
0.0
  0
POINT
  5
7753
330
76FC
100
AcDbEntity
  8
Defpoints
 62
     0
100
AcDbPoint
 10
358.8004436770783
 20
287.7363700179036
 30
0.0
  0
POINT
  5
7754
330
76FC
100
AcDbEntity
  8
Defpoints
 62
     0
100
AcDbPoint
 10
394.7839516770784
 20
287.7363700179035
 30
0.0
  0
ENDBLK
  5
76FE
330
76FC
100
AcDbEntity
  8
0
100
AcDbBlockEnd
  0
BLOCK
  5
7715
330
7714
100
AcDbEntity
  8
0
100
AcDbBlockBegin
  2
*D20
 70
     1
 10
0.0
 20
0.0
 30
0.0
  3
*D20
  1

  0
LINE
  5
775E
330
7714
100
AcDbEntity
  8
AM_5 寸法線
 62
     3
100
AcDbLine
 10
335.7379436770783
 20
368.7363700179036
 30
0.0
 11
410.7214516770784
 21
368.7363700179036
 31
0.0
  0
LINE
  5
775F
330
7714
100
AcDbEntity
  8
AM_5 寸法線
 62
     3
100
AcDbLine
 10
335.7379436770783
 20
276.7363700179036
 30
0.0
 11
410.7214516770784
 21
276.7363700179036
 31
0.0
  0
LINE
  5
7760
330
7714
100
AcDbEntity
  8
AM_5 寸法線
 62
     3
100
AcDbLine
 10
409.7839516770783
 20
364.9863700179035
 30
0.0
 11
409.7839516770783
 21
280.4863700179035
 31
0.0
  0
INSERT
  5
7761
330
7714
100
AcDbEntity
  8
AM_5 寸法線
 62
     3
100
AcDbBlockReference
  2
_Open30
 10
409.7839516770783
 20
368.7363700179036
 30
0.0
 41
3.75
 42
3.75
 43
3.75
 50
90.0
  0
INSERT
  5
7762
330
7714
100
AcDbEntity
  8
AM_5 寸法線
 62
     3
100
AcDbBlockReference
  2
_Open30
 10
409.7839516770783
 20
276.7363700179036
 30
0.0
 41
3.75
 42
3.75
 43
3.75
 50
270.0
  0
MTEXT
  5
7763
330
7714
100
AcDbEntity
  8
AM_5 寸法線
 62
     3
100
AcDbMText
 10
404.9089516770782
 20
322.7363700179036
 30
0.0
 40
5.25
 41
0.0
 46
0.0
 71
     5
 72
     1
  1
%%c92
  7
SEISA
 11
0.0000000000000001
 21
1.0
 31
0.0
 73
     1
 44
1.0
  0
POINT
  5
7764
330
7714
100
AcDbEntity
  8
Defpoints
 62
     0
100
AcDbPoint
 10
334.8004436770783
 20
368.7363700179036
 30
0.0
  0
POINT
  5
7765
330
7714
100
AcDbEntity
  8
Defpoints
 62
     0
100
AcDbPoint
 10
334.8004436770783
 20
276.7363700179036
 30
0.0
  0
POINT
  5
7766
330
7714
100
AcDbEntity
  8
Defpoints
 62
     0
100
AcDbPoint
 10
409.7839516770783
 20
276.7363700179036
 30
0.0
  0
ENDBLK
  5
7716
330
7714
100
AcDbEntity
  8
0
100
AcDbBlockEnd
  0
BLOCK
  5
772D
330
772C
100
AcDbEntity
  8
0
100
AcDbBlockBegin
  2
*D21
 70
     1
 10
0.0
 20
0.0
 30
0.0
  3
*D21
  1

  0
LINE
  5
7770
330
772C
100
AcDbEntity
  8
AM_5 寸法線
 62
     3
100
AcDbLine
 10
310.5379436770783
 20
385.2363700179036
 30
0.0
 11
425.7214516770784
 21
385.2363700179036
 31
0.0
  0
LINE
  5
7771
330
772C
100
AcDbEntity
  8
AM_5 寸法線
 62
     3
100
AcDbLine
 10
310.5379436770783
 20
260.2363700179036
 30
0.0
 11
425.7214516770783
 21
260.2363700179036
 31
0.0
  0
LINE
  5
7772
330
772C
100
AcDbEntity
  8
AM_5 寸法線
 62
     3
100
AcDbLine
 10
424.7839516770784
 20
381.4863700179035
 30
0.0
 11
424.7839516770784
 21
263.9863700179035
 31
0.0
  0
INSERT
  5
7773
330
772C
100
AcDbEntity
  8
AM_5 寸法線
 62
     3
100
AcDbBlockReference
  2
_Open30
 10
424.7839516770784
 20
385.2363700179036
 30
0.0
 41
3.75
 42
3.75
 43
3.75
 50
90.0
  0
INSERT
  5
7774
330
772C
100
AcDbEntity
  8
AM_5 寸法線
 62
     3
100
AcDbBlockReference
  2
_Open30
 10
424.7839516770784
 20
260.2363700179036
 30
0.0
 41
3.75
 42
3.75
 43
3.75
 50
270.0
  0
MTEXT
  5
7775
330
772C
100
AcDbEntity
  8
AM_5 寸法線
 62
     3
100
AcDbMText
 10
419.9089516770784
 20
322.7363700179036
 30
0.0
 40
5.25
 41
0.0
 46
0.0
 71
     5
 72
     1
  1
%%c125
  7
SEISA
 11
0.0000000000000001
 21
1.0
 31
0.0
 73
     1
 44
1.0
  0
POINT
  5
7776
330
772C
100
AcDbEntity
  8
Defpoints
 62
     0
100
AcDbPoint
 10
309.6004436770783
 20
385.2363700179036
 30
0.0
  0
POINT
  5
7777
330
772C
100
AcDbEntity
  8
Defpoints
 62
     0
100
AcDbPoint
 10
309.6004436770783
 20
260.2363700179036
 30
0.0
  0
POINT
  5
7778
330
772C
100
AcDbEntity
  8
Defpoints
 62
     0
100
AcDbPoint
 10
424.7839516770784
 20
260.2363700179036
 30
0.0
  0
ENDBLK
  5
772E
330
772C
100
AcDbEntity
  8
0
100
AcDbBlockEnd
  0
BLOCK
  5
8ED4
330
8ED3
100
AcDbEntity
  8
0
100
AcDbBlockBegin
  2
*D22
 70
     1
 10
0.0
 20
0.0
 30
0.0
  3
*D22
  1

  0
LINE
  5
8EE0
330
8ED3
100
AcDbEntity
  8
AM_5 寸法線
 62
     3
100
AcDbLine
 10
227.8004436770783
 20
289.9461604937272
 30
0.0
 11
227.8004436770783
 21
214.2988700179036
 31
0.0
  0
LINE
  5
8EE1
330
8ED3
100
AcDbEntity
  8
AM_5 寸法線
 62
     3
100
AcDbLine
 10
361.8004436770783
 20
289.9461604937272
 30
0.0
 11
361.8004436770783
 21
214.2988700179036
 31
0.0
  0
LINE
  5
8EE2
330
8ED3
100
AcDbEntity
  8
AM_5 寸法線
 62
     3
100
AcDbLine
 10
231.5504436770783
 20
215.2363700179036
 30
0.0
 11
358.0504436770783
 21
215.2363700179036
 31
0.0
  0
INSERT
  5
8EE3
330
8ED3
100
AcDbEntity
  8
AM_5 寸法線
 62
     3
100
AcDbBlockReference
  2
_Open30
 10
227.8004436770783
 20
215.2363700179036
 30
0.0
 41
3.75
 42
3.75
 43
3.75
 50
180.0
  0
INSERT
  5
8EE4
330
8ED3
100
AcDbEntity
  8
AM_5 寸法線
 62
     3
100
AcDbBlockReference
  2
_Open30
 10
361.8004436770783
 20
215.2363700179036
 30
0.0
 41
3.75
 42
3.75
 43
3.75
  0
MTEXT
  5
8EE5
330
8ED3
100
AcDbEntity
  8
AM_5 寸法線
 62
     3
100
AcDbMText
 10
294.8004436770783
 20
220.1113700179036
 30
0.0
 40
5.25
 41
0.0
 46
0.0
 71
     5
 72
     1
  1
134
  7
SEISA
 73
     1
 44
1.0
  0
POINT
  5
8EE6
330
8ED3
100
AcDbEntity
  8
Defpoints
 62
     0
100
AcDbPoint
 10
227.8004436770783
 20
290.8836604937272
 30
0.0
  0
POINT
  5
8EE7
330
8ED3
100
AcDbEntity
  8
Defpoints
 62
     0
100
AcDbPoint
 10
361.8004436770783
 20
290.8836604937272
 30
0.0
  0
POINT
  5
8EE8
330
8ED3
100
AcDbEntity
  8
Defpoints
 62
     0
100
AcDbPoint
 10
361.8004436770783
 20
215.2363700179036
 30
0.0
  0
ENDBLK
  5
8ED5
330
8ED3
100
AcDbEntity
  8
0
100
AcDbBlockEnd
  0
BLOCK
  5
9D70
330
9D6F
100
AcDbEntity
  8
0
100
AcDbBlockBegin
  2
*D23
 70
     1
 10
0.0
 20
0.0
 30
0.0
  3
*D23
  1

  0
LINE
  5
A35C
330
9D6F
100
AcDbEntity
  8
AM_5 寸法線
 62
     3
100
AcDbLine
 10
227.8004436770783
 20
355.6738700179036
 30
0.0
 11
227.8004436770783
 21
386.1738700179036
 31
0.0
  0
LINE
  5
A35D
330
9D6F
100
AcDbEntity
  8
AM_5 寸法線
 62
     3
100
AcDbLine
 10
220.8004436770783
 20
366.6738700179036
 30
0.0
 11
220.8004436770783
 21
386.1738700179036
 31
0.0
  0
LINE
  5
A35E
330
9D6F
100
AcDbEntity
  8
AM_5 寸法線
 62
     3
100
AcDbLine
 10
231.5504436770783
 20
385.2363700179036
 30
0.0
 11
235.3004436770783
 21
385.2363700179036
 31
0.0
  0
LINE
  5
A35F
330
9D6F
100
AcDbEntity
  8
AM_5 寸法線
 62
     3
100
AcDbLine
 10
217.0504436770783
 20
385.2363700179036
 30
0.0
 11
205.6504436770783
 21
385.2363700179036
 31
0.0
  0
LINE
  5
A360
330
9D6F
100
AcDbEntity
  8
AM_5 寸法線
 62
     3
100
AcDbLine
 10
227.8004436770783
 20
385.2363700179036
 30
0.0
 11
220.8004436770783
 21
385.2363700179036
 31
0.0
  0
INSERT
  5
A361
330
9D6F
100
AcDbEntity
  8
AM_5 寸法線
 62
     3
100
AcDbBlockReference
  2
_Open30
 10
227.8004436770783
 20
385.2363700179036
 30
0.0
 41
3.75
 42
3.75
 43
3.75
 50
180.0
  0
INSERT
  5
A362
330
9D6F
100
AcDbEntity
  8
AM_5 寸法線
 62
     3
100
AcDbBlockReference
  2
_Open30
 10
220.8004436770783
 20
385.2363700179036
 30
0.0
 41
3.75
 42
3.75
 43
3.75
  0
MTEXT
  5
A363
330
9D6F
100
AcDbEntity
  8
AM_5 寸法線
 62
     3
100
AcDbMText
 10
209.4754436770783
 20
390.1113700179036
 30
0.0
 40
5.25
 41
0.0
 46
0.0
 71
     5
 72
     1
  1
7
  7
SEISA
 73
     1
 44
1.0
  0
POINT
  5
A364
330
9D6F
100
AcDbEntity
  8
Defpoints
 62
     0
100
AcDbPoint
 10
227.8004436770783
 20
354.7363700179036
 30
0.0
  0
POINT
  5
A365
330
9D6F
100
AcDbEntity
  8
Defpoints
 62
     0
100
AcDbPoint
 10
220.8004436770783
 20
365.7363700179036
 30
0.0
  0
POINT
  5
A366
330
9D6F
100
AcDbEntity
  8
Defpoints
 62
     0
100
AcDbPoint
 10
220.8004436770783
 20
385.2363700179036
 30
0.0
  0
ENDBLK
  5
9D71
330
9D6F
100
AcDbEntity
  8
0
100
AcDbBlockEnd
  0
BLOCK
  5
9FBA
330
9FB9
100
AcDbEntity
  8
0
100
AcDbBlockBegin
  2
*D24
 70
     1
 10
0.0
 20
0.0
 30
0.0
  3
*D24
  1

  0
LINE
  5
A000
330
9FB9
100
AcDbEntity
  8
AM_5 寸法線
 62
     3
100
AcDbLine
 10
263.8004436770783
 20
356.7988700179036
 30
0.0
 11
263.8004436770783
 21
345.563047642813
 31
0.0
  0
LINE
  5
A001
330
9FB9
100
AcDbEntity
  8
AM_5 寸法線
 62
     3
100
AcDbLine
 10
266.3004436770783
 20
357.2988700179036
 30
0.0
 11
266.3004436770783
 21
345.563047642813
 31
0.0
  0
LINE
  5
A002
330
9FB9
100
AcDbEntity
  8
AM_5 寸法線
 62
     3
100
AcDbLine
 10
260.0504436770783
 20
346.5005476428129
 30
0.0
 11
256.3004436770783
 21
346.5005476428129
 31
0.0
  0
LINE
  5
A003
330
9FB9
100
AcDbEntity
  8
AM_5 寸法線
 62
     3
100
AcDbLine
 10
270.0504436770783
 20
346.5005476428129
 30
0.0
 11
273.8004436770783
 21
346.5005476428129
 31
0.0
  0
MTEXT
  5
A004
330
9FB9
100
AcDbEntity
  8
AM_5 寸法線
 62
     3
100
AcDbMText
 10
257.1155713353071
 20
350.6348832285916
 30
0.0
 40
5.25
 41
0.0
 46
0.0
 71
     5
 72
     1
  1
2.5
  7
SEISA
 73
     1
 44
1.0
  0
LINE
  5
A005
330
9FB9
100
AcDbEntity
  8
AM_5 寸法線
 62
     3
100
AcDbLine
 10
263.8004436770783
 20
346.5005476428129
 30
0.0
 11
266.3004436770783
 21
346.5005476428129
 31
0.0
  0
INSERT
  5
A006
330
9FB9
100
AcDbEntity
  8
AM_5 寸法線
 62
     3
100
AcDbBlockReference
  2
_Open30
 10
263.8004436770783
 20
346.5005476428129
 30
0.0
 41
3.75
 42
3.75
 43
3.75
  0
INSERT
  5
A007
330
9FB9
100
AcDbEntity
  8
AM_5 寸法線
 62
     3
100
AcDbBlockReference
  2
_Open30
 10
266.3004436770783
 20
346.5005476428129
 30
0.0
 41
3.75
 42
3.75
 43
3.75
 50
180.0
  0
POINT
  5
A008
330
9FB9
100
AcDbEntity
  8
Defpoints
 62
     0
100
AcDbPoint
 10
263.8004436770783
 20
357.7363700179036
 30
0.0
  0
POINT
  5
A009
102
{ACAD_REACTORS
330
A01A
102
}
330
9FB9
100
AcDbEntity
  8
Defpoints
 62
     0
100
AcDbPoint
 10
266.3004436770783
 20
358.2363700179036
 30
0.0
  0
POINT
  5
A00A
330
9FB9
100
AcDbEntity
  8
Defpoints
 62
     0
100
AcDbPoint
 10
266.3004436770783
 20
346.5005476428129
 30
0.0
  0
ENDBLK
  5
9FBB
330
9FB9
100
AcDbEntity
  8
0
100
AcDbBlockEnd
  0
BLOCK
  5
A00D
330
A00C
100
AcDbEntity
  8
0
100
AcDbBlockBegin
  2
*D25
 70
     1
 10
0.0
 20
0.0
 30
0.0
  3
*D25
  1

  0
LINE
  5
A0C3
330
A00C
100
AcDbEntity
  8
AM_5 寸法線
 62
     3
100
AcDbLine
 10
266.3004436770783
 20
357.2988700179036
 30
0.0
 11
266.3004436770783
 21
345.5630476428128
 31
0.0
  0
LINE
  5
A0C4
330
A00C
100
AcDbEntity
  8
AM_5 寸法線
 62
     3
100
AcDbLine
 10
278.8004436770783
 20
357.2988700179036
 30
0.0
 11
278.8004436770783
 21
345.5630476428128
 31
0.0
  0
LINE
  5
A0C5
330
A00C
100
AcDbEntity
  8
AM_5 寸法線
 62
     3
100
AcDbLine
 10
270.0504436770783
 20
346.5005476428128
 30
0.0
 11
275.0504436770783
 21
346.5005476428128
 31
0.0
  0
LINE
  5
A0C6
330
A00C
100
AcDbEntity
  8
AM_5 寸法線
 62
     3
100
AcDbLine
 10
272.5504436770783
 20
346.5005476428128
 30
0.0
 11
273.9905195247871
 21
331.4995925496684
 31
0.0
  0
LINE
  5
A0C7
330
A00C
100
AcDbEntity
  8
AM_5 寸法線
 62
     3
100
AcDbLine
 10
273.9905195247871
 20
331.4995925496684
 30
0.0
 11
255.765519524787
 21
331.4995925496684
 31
0.0
  0
MTEXT
  5
A0C8
330
A00C
100
AcDbEntity
  8
AM_5 寸法線
 62
     3
100
AcDbMText
 10
264.878019524787
 20
336.3745925496683
 30
0.0
 40
5.25
 41
0.0
 46
0.0
 71
     5
 72
     1
  1
12.5
  7
SEISA
 73
     1
 44
1.0
  0
INSERT
  5
A0C9
330
A00C
100
AcDbEntity
  8
AM_5 寸法線
 62
     3
100
AcDbBlockReference
  2
_Open30
 10
266.3004436770783
 20
346.5005476428128
 30
0.0
 41
3.75
 42
3.75
 43
3.75
 50
180.0
  0
INSERT
  5
A0CA
330
A00C
100
AcDbEntity
  8
AM_5 寸法線
 62
     3
100
AcDbBlockReference
  2
_Open30
 10
278.8004436770783
 20
346.5005476428128
 30
0.0
 41
3.75
 42
3.75
 43
3.75
  0
POINT
  5
A0CB
330
A00C
100
AcDbEntity
  8
Defpoints
 62
     0
100
AcDbPoint
 10
266.3004436770783
 20
358.2363700179036
 30
0.0
  0
POINT
  5
A0CC
330
A00C
100
AcDbEntity
  8
Defpoints
 62
     0
100
AcDbPoint
 10
278.8004436770783
 20
358.2363700179036
 30
0.0
  0
POINT
  5
A0CD
330
A00C
100
AcDbEntity
  8
Defpoints
 62
     0
100
AcDbPoint
 10
278.8004436770783
 20
346.5005476428128
 30
0.0
  0
ENDBLK
  5
A00E
330
A00C
100
AcDbEntity
  8
0
100
AcDbBlockEnd
  0
BLOCK
  5
A03B
330
A03A
100
AcDbEntity
  8
0
100
AcDbBlockBegin
  2
*D26
 70
     1
 10
0.0
 20
0.0
 30
0.0
  3
*D26
  1

  0
LINE
  5
A128
330
A03A
100
AcDbEntity
  8
AM_5 寸法線
 62
     3
100
AcDbLine
 10
278.8004436770783
 20
357.2988700179036
 30
0.0
 11
278.8004436770783
 21
345.5630476428128
 31
0.0
  0
LINE
  5
A129
330
A03A
100
AcDbEntity
  8
AM_5 寸法線
 62
     3
100
AcDbLine
 10
290.8004436770783
 20
323.6738700179036
 30
0.0
 11
290.8004436770783
 21
347.4380476428128
 31
0.0
  0
LINE
  5
A12A
330
A03A
100
AcDbEntity
  8
AM_5 寸法線
 62
     3
100
AcDbLine
 10
275.0504436770783
 20
346.5005476428128
 30
0.0
 11
271.3004436770783
 21
346.5005476428128
 31
0.0
  0
LINE
  5
A12B
330
A03A
100
AcDbEntity
  8
AM_5 寸法線
 62
     3
100
AcDbLine
 10
294.5504436770783
 20
346.5005476428128
 30
0.0
 11
298.3004436770783
 21
346.5005476428128
 31
0.0
  0
MTEXT
  5
A12C
330
A03A
100
AcDbEntity
  8
AM_5 寸法線
 62
     3
100
AcDbMText
 10
285.2513463896648
 20
350.0844135934412
 30
0.0
 40
5.25
 41
0.0
 46
0.0
 71
     5
 72
     1
  1
12
  7
SEISA
 73
     1
 44
1.0
  0
LINE
  5
A12D
330
A03A
100
AcDbEntity
  8
AM_5 寸法線
 62
     3
100
AcDbLine
 10
278.8004436770783
 20
346.5005476428128
 30
0.0
 11
290.8004436770783
 21
346.5005476428128
 31
0.0
  0
INSERT
  5
A12E
330
A03A
100
AcDbEntity
  8
AM_5 寸法線
 62
     3
100
AcDbBlockReference
  2
_Open30
 10
278.8004436770783
 20
346.5005476428128
 30
0.0
 41
3.75
 42
3.75
 43
3.75
  0
INSERT
  5
A12F
330
A03A
100
AcDbEntity
  8
AM_5 寸法線
 62
     3
100
AcDbBlockReference
  2
_Open30
 10
290.8004436770783
 20
346.5005476428128
 30
0.0
 41
3.75
 42
3.75
 43
3.75
 50
180.0
  0
POINT
  5
A130
330
A03A
100
AcDbEntity
  8
Defpoints
 62
     0
100
AcDbPoint
 10
278.8004436770783
 20
358.2363700179036
 30
0.0
  0
POINT
  5
A131
330
A03A
100
AcDbEntity
  8
Defpoints
 62
     0
100
AcDbPoint
 10
290.8004436770783
 20
322.7363700179036
 30
0.0
  0
POINT
  5
A132
330
A03A
100
AcDbEntity
  8
Defpoints
 62
     0
100
AcDbPoint
 10
290.8004436770783
 20
346.5005476428128
 30
0.0
  0
ENDBLK
  5
A03C
330
A03A
100
AcDbEntity
  8
0
100
AcDbBlockEnd
  0
BLOCK
  5
A435
330
A434
100
AcDbEntity
  8
0
100
AcDbBlockBegin
  2
ケース
 70
     0
 10
0.0
 20
0.0
 30
0.0
  3
ケース
  1

  0
LINE
  5
A437
330
A434
100
AcDbEntity
  8
AM_11 想像線
 48
0.2
100
AcDbLine
 10
-1.5
 20
-8.199999999999986
 30
0.0
 11
0.0
 21
-8.199999999999986
 31
0.0
  0
LINE
  5
A438
330
A434
100
AcDbEntity
  8
AM_11 想像線
 48
0.2
100
AcDbLine
 10
0.0
 20
-7.0
 30
0.0
 11
-4.0
 21
-7.0
 31
0.0
  0
LINE
  5
A439
330
A434
100
AcDbEntity
  8
AM_11 想像線
 48
0.2
100
AcDbLine
 10
0.0
 20
-5.5
 30
0.0
 11
-2.0
 21
-5.5
 31
0.0
  0
LINE
  5
A43A
330
A434
100
AcDbEntity
  8
AM_11 想像線
 48
0.2
100
AcDbLine
 10
0.0
 20
0.0
 30
0.0
 11
-14.0
 21
0.0
 31
0.0
  0
ARC
  5
A43B
330
A434
100
AcDbEntity
  8
AM_11 想像線
 48
0.2
100
AcDbCircle
 10
-4.0
 20
-6.0
 30
0.0
 40
1.0
100
AcDbArc
 50
90.0
 51
180.0
  0
ARC
  5
A43C
330
A434
100
AcDbEntity
  8
AM_11 想像線
 48
0.2
100
AcDbCircle
 10
-3.0
 20
-6.0
 30
0.0
 40
1.0
100
AcDbArc
 50
0.0
 51
90.0
  0
LINE
  5
A43D
330
A434
100
AcDbEntity
  8
AM_11 想像線
 48
0.2
100
AcDbLine
 10
-7.200000000000045
 20
-10.0
 30
0.0
 11
-5.0
 21
-10.0
 31
0.0
  0
LINE
  5
A43E
330
A434
100
AcDbEntity
  8
AM_11 想像線
 48
0.2
100
AcDbLine
 10
-14.29999999999995
 20
-6.300000000000012
 30
0.0
 11
-7.700000000000045
 21
-6.300000000000012
 31
0.0
  0
ARC
  5
A43F
330
A434
100
AcDbEntity
  8
AM_11 想像線
 48
0.2
100
AcDbCircle
 10
-14.29999999999995
 20
-6.800000000000012
 30
0.0
 40
0.5
100
AcDbArc
 50
90.0
 51
180.0
  0
LINE
  5
A440
330
A434
100
AcDbEntity
  8
AM_11 想像線
 48
0.2
100
AcDbLine
 10
-17.0
 20
-10.0
 30
0.0
 11
-14.79999999999995
 21
-10.0
 31
0.0
  0
LINE
  5
A441
330
A434
100
AcDbEntity
  8
AM_11 想像線
 48
0.2
100
AcDbLine
 10
-14.79999999999995
 20
-6.800000000000012
 30
0.0
 11
-14.79999999999995
 21
-11.0
 31
0.0
  0
LINE
  5
A442
330
A434
100
AcDbEntity
  8
AM_11 想像線
 48
0.2
100
AcDbLine
 10
-17.0
 20
-3.0
 30
0.0
 11
-17.0
 21
-11.0
 31
0.0
  0
ARC
  5
A443
330
A434
100
AcDbEntity
  8
AM_11 想像線
 48
0.2
100
AcDbCircle
 10
-7.700000000000045
 20
-6.800000000000012
 30
0.0
 40
0.5
100
AcDbArc
 50
0.0
 51
90.0
  0
LINE
  5
A444
330
A434
100
AcDbEntity
  8
AM_11 想像線
 48
0.2
100
AcDbLine
 10
-7.200000000000045
 20
-6.800000000000012
 30
0.0
 11
-7.200000000000045
 21
-11.0
 31
0.0
  0
LINE
  5
A445
330
A434
100
AcDbEntity
  8
AM_11 想像線
 48
0.2
100
AcDbLine
 10
-5.0
 20
-6.0
 30
0.0
 11
-5.0
 21
-11.0
 31
0.0
  0
LINE
  5
A446
330
A434
100
AcDbEntity
  8
AM_11 想像線
 48
0.2
100
AcDbLine
 10
-2.0
 20
-6.0
 30
0.0
 11
-2.0
 21
-6.116192999999952
 31
0.0
  0
LINE
  5
A447
330
A434
100
AcDbEntity
  8
AM_11 想像線
 48
0.2
100
AcDbLine
 10
-2.0
 20
-6.116192999999952
 30
0.0
 11
-2.0
 21
-7.699999999999986
 31
0.0
  0
LINE
  5
A448
330
A434
100
AcDbEntity
  8
AM_11 想像線
 48
0.2
100
AcDbLine
 10
-2.0
 20
-7.699999999999986
 30
0.0
 11
-1.5
 21
-8.199999999999986
 31
0.0
  0
ARC
  5
A449
330
A434
100
AcDbEntity
  8
AM_11 想像線
 48
0.2
100
AcDbCircle
 10
-14.0
 20
-3.0
 30
0.0
 40
3.0
100
AcDbArc
 50
90.0
 51
180.0
  0
LINE
  5
A44A
330
A434
100
AcDbEntity
  8
AM_11 想像線
 48
0.2
100
AcDbLine
 10
-4.0
 20
-5.0
 30
0.0
 11
-3.0
 21
-5.0
 31
0.0
  0
ENDBLK
  5
A436
330
A434
100
AcDbEntity
  8
0
100
AcDbBlockEnd
  0
ENDSEC
  0
SECTION
  2
ENTITIES
  0
LINE
  5
30F2
330
1F
100
AcDbEntity
  8
AM_0 外形線1
100
AcDbLine
 10
294.8004436770783
 20
322.7363700179036
 30
0.0
 11
294.8004436770784
 21
260.4364320179036
 31
0.0
  0
LINE
  5
30F3
330
1F
100
AcDbEntity
  8
AM_0 外形線1
100
AcDbLine
 10
294.8004436770783
 20
322.7363700179036
 30
0.0
 11
294.8004436770784
 21
260.4364320179036
 31
0.0
  0
LINE
  5
3123
330
1F
100
AcDbEntity
  8
AM_0 外形線1
100
AcDbLine
 10
294.8004436770783
 20
322.7363700179036
 30
0.0
 11
294.8004436770784
 21
260.4364320179036
 31
0.0
  0
LINE
  5
3125
330
1F
100
AcDbEntity
  8
AM_7 中心線
100
AcDbLine
 10
295.3004436770783
 20
322.7363700179036
 30
0.0
 11
218.706173972895
 21
322.7363700179036
 31
0.0
  0
LINE
  5
3126
330
1F
100
AcDbEntity
  8
AM_0 外形線1
100
AcDbLine
 10
294.8004436770783
 20
322.7363700179036
 30
0.0
 11
294.8004436770783
 21
266.9363700179037
 31
0.0
  0
LINE
  5
3127
330
1F
100
AcDbEntity
  8
AM_0 外形線1
100
AcDbLine
 10
294.8004436770783
 20
322.7363700179036
 30
0.0
 11
294.8004436770783
 21
266.9363700179037
 31
0.0
  0
LINE
  5
312A
330
1F
100
AcDbEntity
  8
AM_7 中心線
100
AcDbLine
 10
295.3004436770783
 20
322.7363700179036
 30
0.0
 11
367.3003716770784
 21
322.7363700179036
 31
0.0
  0
LINE
  5
31F9
330
1F
100
AcDbEntity
  8
AM_0 外形線1
100
AcDbLine
 10
305.8004436770783
 20
375.2363700179036
 30
0.0
 11
280.8004436770783
 21
375.2363700179036
 31
0.0
  0
LINE
  5
326F
330
1F
100
AcDbEntity
  8
AM_0 外形線1
100
AcDbLine
 10
280.8004436770783
 20
382.2363700179036
 30
0.0
 11
305.8004436770783
 21
382.2363700179036
 31
0.0
  0
INSERT
  5
5FA0
102
{ACAD_REACTORS
330
759E
330
76BB
330
772A
330
7742
102
}
330
1F
100
AcDbEntity
  8
AM_0 外形線1
100
AcDbBlockReference
  2
ケースＡ SSM125
 10
294.8004436770783
 20
322.7363700179036
 30
0.0
  0
INSERT
  5
61E7
102
{ACAD_REACTORS
330
7519
330
7547
330
7712
330
8EE9
102
}
330
1F
100
AcDbEntity
  8
AM_0 外形線1
100
AcDbBlockReference
  2
センタＡ SSM125
 10
298.8004436770783
 20
322.7363700179036
 30
0.0
  0
INSERT
  5
6284
102
{ACAD_REACTORS
330
74FD
330
8EE9
330
9D7E
330
7459
330
A01A
330
A049
102
}
330
1F
100
AcDbEntity
  8
AM_0 外形線1
100
AcDbBlockReference
  2
センタB SSM125
 10
290.8004436770783
 20
322.7363700179036
 30
0.0
  0
INSERT
  5
630E
102
{ACAD_REACTORS
330
7586
330
759E
102
}
330
1F
100
AcDbEntity
  8
AM_0 外形線1
100
AcDbBlockReference
  2
ケースB SSM125
 10
294.8004436770783
 20
322.7363700179036
 30
0.0
  0
INSERT
  5
654F
330
1F
100
AcDbEntity
  8
AM_0 外形線1
100
AcDbBlockReference
  2
リーマボルト SSM125 M6
 10
279.8004436770783
 20
378.7363700179036
 30
0.0
  0
DIMENSION
  5
7442
102
{ACAD_XDICTIONARY
360
744F
102
}
102
{ACAD_REACTORS
330
7459
102
}
330
1F
100
AcDbEntity
  8
AM_5 寸法線
100
AcDbDimension
  2
*D12
 10
194.8169356770781
 20
287.7363700179036
 30
0.0
 11
189.9419356770781
 21
322.7363700179036
 31
0.0
 70
    32
  1
%%c<>
 71
     5
 42
70.0
 73
     0
 74
     0
 75
     0
  3
SEISA$0
100
AcDbAlignedDimension
 13
230.8004436770783
 23
357.7363700179036
 33
0.0
 14
230.8004436770783
 24
287.7363700179036
 34
0.0
 50
90.0
100
AcDbRotatedDimension
1001
ACAD_DSTYLE_DIMINSPECT
1070
   396
1000
100%
1070
   395
1000

1070
   394
1070
    33
1070
   393
1070
     0
  0
DIMENSION
  5
74E6
102
{ACAD_XDICTIONARY
360
74F3
102
}
102
{ACAD_REACTORS
330
74FD
102
}
330
1F
100
AcDbEntity
  8
AM_5 寸法線
100
AcDbDimension
  2
*D13
 10
290.8004436770783
 20
329.0322590179036
 30
0.0
 11
238.0400827259251
 21
334.0198551076387
 31
0.0
 70
   160
 71
     5
 42
63.0
 73
     0
 74
     0
 75
     0
  3
SEISA$0
100
AcDbAlignedDimension
 13
227.8004436770783
 23
322.7363700179036
 33
0.0
 14
290.8004436770783
 24
322.7363700179036
 34
0.0
100
AcDbRotatedDimension
1001
ACAD
1000
DSTYLE
1002
{
1070
   279
1070
     2
1002
}
  0
DIMENSION
  5
74FE
102
{ACAD_XDICTIONARY
360
750D
102
}
102
{ACAD_REACTORS
330
7519
102
}
330
1F
100
AcDbEntity
  8
AM_5 寸法線
100
AcDbDimension
  2
*D14
 10
298.8004436770783
 20
329.0322590179036
 30
0.0
 11
294.7850496341889
 21
333.8814239658497
 31
0.0
 70
   160
 71
     5
 42
8.0
 73
     0
 74
     0
 75
     0
  3
SEISA$0
100
AcDbAlignedDimension
 13
290.8004436770783
 23
322.7363700179036
 33
0.0
 14
298.8004436770783
 24
322.7363700179036
 34
0.0
100
AcDbRotatedDimension
1001
ACAD
1000
DSTYLE
1002
{
1070
   279
1070
     2
1002
}
  0
DIMENSION
  5
7530
102
{ACAD_XDICTIONARY
360
753D
102
}
102
{ACAD_REACTORS
330
7547
102
}
330
1F
100
AcDbEntity
  8
AM_5 寸法線
100
AcDbDimension
  2
*D15
 10
361.8004436770783
 20
329.0322590179036
 30
0.0
 11
330.3004456770783
 21
333.9072590179037
 31
0.0
 70
    32
 71
     5
 42
62.99999600000001
 73
     0
 74
     0
 75
     0
  3
SEISA$0
100
AcDbAlignedDimension
 13
298.8004476770783
 23
322.7363700179036
 33
0.0
 14
361.8004436770783
 24
322.7363700179036
 34
0.0
100
AcDbRotatedDimension
  0
DIMENSION
  5
756F
102
{ACAD_XDICTIONARY
360
757C
102
}
102
{ACAD_REACTORS
330
7586
102
}
330
1F
100
AcDbEntity
  8
AM_5 寸法線
100
AcDbDimension
  2
*D16
 10
294.8004436770784
 20
245.2363700179036
 30
0.0
 11
287.3004436770784
 21
250.1113700179036
 31
0.0
 70
    32
 71
     5
 42
15.00000000000011
 73
     0
 74
     0
 75
     0
  3
SEISA$0
100
AcDbAlignedDimension
 13
279.8004436770783
 23
260.4363700179036
 33
0.0
 14
294.8004436770784
 24
260.4364320179036
 34
0.0
100
AcDbRotatedDimension
  0
DIMENSION
  5
7587
102
{ACAD_XDICTIONARY
360
7594
102
}
102
{ACAD_REACTORS
330
759E
102
}
330
1F
100
AcDbEntity
  8
AM_5 寸法線
100
AcDbDimension
  2
*D17
 10
309.8004436770783
 20
245.2363700179036
 30
0.0
 11
302.3004436770784
 21
250.1113700179036
 31
0.0
 70
    32
 71
     5
 42
14.99999999999988
 73
     0
 74
     0
 75
     0
  3
SEISA$0
100
AcDbAlignedDimension
 13
294.8004436770784
 23
260.4364320179036
 33
0.0
 14
309.8004436770783
 24
260.4363700179036
 34
0.0
100
AcDbRotatedDimension
  0
DIMENSION
  5
76A4
102
{ACAD_XDICTIONARY
360
76B1
102
}
102
{ACAD_REACTORS
330
76BB
102
}
330
1F
100
AcDbEntity
  8
AM_5 寸法線
100
AcDbDimension
  2
*D18
 10
337.8004436770783
 20
230.2363700179036
 30
0.0
 11
294.8004436770783
 21
235.1113700179036
 31
0.0
 70
    32
 71
     5
 42
86.0
 73
     0
 74
     0
 75
     0
  3
SEISA$0
100
AcDbAlignedDimension
 13
251.8004436770783
 23
279.7363700179036
 33
0.0
 14
337.8004436770783
 24
279.7363700179036
 34
0.0
100
AcDbRotatedDimension
  0
DIMENSION
  5
76FB
102
{ACAD_XDICTIONARY
360
7708
102
}
102
{ACAD_REACTORS
330
7712
102
}
330
1F
100
AcDbEntity
  8
AM_5 寸法線
100
AcDbDimension
  2
*D19
 10
394.7839516770784
 20
287.7363700179035
 30
0.0
 11
389.9089516770784
 21
322.7363700179036
 31
0.0
 70
    32
  1
%%c<>
 71
     5
 42
70.0
 73
     0
 74
     0
 75
     0
  3
SEISA$0
100
AcDbAlignedDimension
 13
358.8004436770783
 23
357.7363700179036
 33
0.0
 14
358.8004436770783
 24
287.7363700179036
 34
0.0
 50
90.0
100
AcDbRotatedDimension
1001
ACAD_DSTYLE_DIMINSPECT
1070
   396
1000
100%
1070
   395
1000

1070
   394
1070
    33
1070
   393
1070
     0
  0
DIMENSION
  5
7713
102
{ACAD_XDICTIONARY
360
7720
102
}
102
{ACAD_REACTORS
330
772A
102
}
330
1F
100
AcDbEntity
  8
AM_5 寸法線
100
AcDbDimension
  2
*D20
 10
409.7839516770783
 20
276.7363700179036
 30
0.0
 11
404.9089516770782
 21
322.7363700179036
 31
0.0
 70
    32
  1
%%c<>
 71
     5
 42
92.0
 73
     0
 74
     0
 75
     0
  3
SEISA$0
100
AcDbAlignedDimension
 13
334.8004436770783
 23
368.7363700179036
 33
0.0
 14
334.8004436770783
 24
276.7363700179036
 34
0.0
 50
90.0
100
AcDbRotatedDimension
1001
ACAD_DSTYLE_DIMINSPECT
1070
   396
1000
100%
1070
   395
1000

1070
   394
1070
    33
1070
   393
1070
     0
  0
DIMENSION
  5
772B
102
{ACAD_XDICTIONARY
360
7738
102
}
102
{ACAD_REACTORS
330
7742
102
}
330
1F
100
AcDbEntity
  8
AM_5 寸法線
100
AcDbDimension
  2
*D21
 10
424.7839516770784
 20
260.2363700179036
 30
0.0
 11
419.9089516770784
 21
322.7363700179036
 31
0.0
 70
    32
  1
%%c<>
 71
     5
 42
125.0
 73
     0
 74
     0
 75
     0
  3
SEISA$0
100
AcDbAlignedDimension
 13
309.6004436770783
 23
385.2363700179036
 33
0.0
 14
309.6004436770783
 24
260.2363700179036
 34
0.0
 50
90.0
100
AcDbRotatedDimension
1001
ACAD_DSTYLE_DIMINSPECT
1070
   396
1000
100%
1070
   395
1000

1070
   394
1070
    33
1070
   393
1070
     0
  0
DIMENSION
  5
8ED2
102
{ACAD_XDICTIONARY
360
8EDF
102
}
102
{ACAD_REACTORS
330
8EE9
102
}
330
1F
100
AcDbEntity
  8
AM_5 寸法線
100
AcDbDimension
  2
*D22
 10
361.8004436770783
 20
215.2363700179036
 30
0.0
 11
294.8004436770783
 21
220.1113700179036
 31
0.0
 70
    32
 71
     5
 42
134.0
 73
     0
 74
     0
 75
     0
  3
SEISA$0
100
AcDbAlignedDimension
 13
227.8004436770783
 23
290.8836604937272
 33
0.0
 14
361.8004436770783
 24
290.8836604937272
 34
0.0
100
AcDbRotatedDimension
  0
DIMENSION
  5
9D6E
102
{ACAD_XDICTIONARY
360
9D7D
102
}
102
{ACAD_REACTORS
330
9D7E
102
}
330
1F
100
AcDbEntity
  8
AM_5 寸法線
100
AcDbDimension
  2
*D23
 10
220.8004436770783
 20
385.2363700179036
 30
0.0
 11
209.4754436770783
 21
390.1113700179036
 31
0.0
 70
    32
 71
     5
 42
7.0
 73
     0
 74
     0
 75
     0
  3
SEISA$0
100
AcDbAlignedDimension
 13
227.8004436770783
 23
354.7363700179036
 33
0.0
 14
220.8004436770783
 24
365.7363700179036
 34
0.0
100
AcDbRotatedDimension
1001
ACAD_DSTYLE_DIMINSPECT
1070
   396
1000
100%
1070
   395
1000

1070
   394
1070
    33
1070
   393
1070
     0
  0
MTEXT
  5
9F02
330
1F
100
AcDbEntity
  8
AM_6 文字
100
AcDbMText
 10
370.7945745072532
 20
250.8878135863572
 30
0.0
 40
5.25
 41
103.86546019968
 46
0.0
 71
     1
 72
     5
  1
{\W0.6;TYPE:SSM125/SSMH125\PSHAFT DIA:MAX/MIN φ50/φ22}
  7
SEISA
 73
     1
 44
1.0
  0
DIMENSION
  5
9FB8
102
{ACAD_REACTORS
330
A01A
102
}
330
1F
100
AcDbEntity
  8
AM_5 寸法線
100
AcDbDimension
  2
*D24
 10
266.3004436770783
 20
346.5005476428129
 30
0.0
 11
257.1155713353071
 21
350.6348832285916
 31
0.0
 70
   160
 71
     5
 42
2.5
 73
     0
 74
     0
 75
     0
  3
SEISA$0
100
AcDbAlignedDimension
 13
263.8004436770783
 23
357.7363700179036
 33
0.0
 14
266.3004436770783
 24
358.2363700179036
 34
0.0
 50
0.0000000000001132
100
AcDbRotatedDimension
1001
ACAD_DSTYLE_DIMINSPECT
1070
   396
1000
100%
1070
   395
1000

1070
   394
1070
    33
1070
   393
1070
     0
1001
ACAD
1000
DSTYLE
1002
{
1070
   279
1070
     2
1002
}
  0
DIMENSION
  5
A00B
102
{ACAD_XDICTIONARY
360
A019
102
}
102
{ACAD_REACTORS
330
A01A
102
}
330
1F
100
AcDbEntity
  8
AM_5 寸法線
100
AcDbDimension
  2
*D25
 10
278.8004436770783
 20
346.5005476428128
 30
0.0
 11
271.740519524787
 21
331.4995925496684
 31
0.0
 70
   160
 71
     5
 42
12.5
 73
     0
 74
     0
 75
     0
  3
SEISA$0
100
AcDbAlignedDimension
 13
266.3004436770783
 23
358.2363700179036
 33
0.0
 14
278.8004436770783
 24
358.2363700179036
 34
0.0
 50
0.0000000000001132
100
AcDbRotatedDimension
1001
ACAD_DSTYLE_DIMINSPECT
1070
   396
1000
100%
1070
   395
1000

1070
   394
1070
    33
1070
   393
1070
     0
1001
ACAD
1000
DSTYLE
1002
{
1070
   279
1070
     1
1002
}
  0
DIMENSION
  5
A039
102
{ACAD_XDICTIONARY
360
A048
102
}
102
{ACAD_REACTORS
330
A049
102
}
330
1F
100
AcDbEntity
  8
AM_5 寸法線
100
AcDbDimension
  2
*D26
 10
290.8004436770783
 20
346.5005476428128
 30
0.0
 11
285.2513463896648
 21
350.0844135934412
 31
0.0
 70
   160
 71
     5
 42
12.0
 73
     0
 74
     0
 75
     0
  3
SEISA$0
100
AcDbAlignedDimension
 13
278.8004436770783
 23
358.2363700179036
 33
0.0
 14
290.8004436770783
 24
322.7363700179036
 34
0.0
 50
0.0000000000001132
100
AcDbRotatedDimension
1001
ACAD_DSTYLE_DIMINSPECT
1070
   396
1000
100%
1070
   395
1000

1070
   394
1070
    33
1070
   393
1070
     0
1001
ACAD
1000
DSTYLE
1002
{
1070
   279
1070
     2
1002
}
  0
INSERT
  5
A44B
330
1F
100
AcDbEntity
  8
AM_11 想像線
100
AcDbBlockReference
  2
ケース
 10
237.8004436770783
 20
368.7363700179036
 30
0.0
  0
ENDSEC
  0
SECTION
  2
OBJECTS
  0
DICTIONARY
  5
C
330
0
100
AcDbDictionary
281
     1
  3
ACAD_COLOR
350
C5
  3
ACAD_GROUP
350
D
  3
ACAD_LAYOUT
350
1A
  3
ACAD_MATERIAL
350
C4
  3
ACAD_MLEADERSTYLE
350
2D5
  3
ACAD_MLINESTYLE
350
17
  3
ACAD_PLOTSETTINGS
350
19
  3
ACAD_PLOTSTYLENAME
350
E
  3
ACAD_SCALELIST
350
2B3
  3
ACAD_TABLESTYLE
350
121
  3
ACAD_VISUALSTYLE
350
27F
  3
ACDB_RECOMPOSE_DATA
350
2F7
  3
AcDbVariableDictionary
350
34
  3
AcmDictionary
350
49
  3
AMG
350
2B
  3
AMGSNAPSETTINGS
350
1DE
  0
DICTIONARY
  5
BF
330
2
100
AcDbDictionary
280
     1
281
     1
  3
ACAD_LAYERFILTERS
360
69EA
  3
ACAD_LAYERSTATES
360
415F
  3
ACLYDICTIONARY
360
69E9
  3
AMLAYER_GROUPCOLORS
360
C0
  0
DICTIONARY
  5
2A7C
330
10
100
AcDbDictionary
280
     1
281
     1
  3
ADSK_XREC_LAYER_RECONCILED
360
2A7D
  0
DICTIONARY
  5
2A7E
330
81
100
AcDbDictionary
280
     1
281
     1
  3
ADSK_XREC_LAYER_RECONCILED
360
2A7F
  0
DICTIONARY
  5
2A85
330
25C9
100
AcDbDictionary
280
     1
281
     1
  3
ADSK_XREC_LAYER_RECONCILED
360
2A86
  0
DICTIONARY
  5
2A87
330
25CA
100
AcDbDictionary
280
     1
281
     1
  3
ADSK_XREC_LAYER_RECONCILED
360
2A88
  0
DICTIONARY
  5
2A8D
330
26B3
100
AcDbDictionary
280
     1
281
     1
  3
ADSK_XREC_LAYER_RECONCILED
360
2A8E
  0
DICTIONARY
  5
82
330
1F
100
AcDbDictionary
280
     1
281
     1
  3
ACAD_SORTENTS
360
A41
  0
DICTIONARY
  5
678E
330
5EC0
100
AcDbDictionary
280
     1
281
     1
  3
ACAD_SORTENTS
360
6E1F
  0
DICTIONARY
  5
6046
330
5F62
100
AcDbDictionary
280
     1
281
     1
  3
ACAD_SORTENTS
360
9789
  0
DICTIONARY
  5
62F3
330
60EF
100
AcDbDictionary
280
     1
281
     1
  3
ACAD_SORTENTS
360
96D9
  0
DICTIONARY
  5
6250
330
61CD
100
AcDbDictionary
280
     1
281
     1
  3
ACAD_SORTENTS
360
A33B
  0
DICTIONARY
  5
632A
330
6252
100
AcDbDictionary
280
     1
281
     1
  3
ACAD_SORTENTS
360
A30B
  0
DICTIONARY
  5
65B2
330
6520
100
AcDbDictionary
280
     1
281
     1
  3
ACAD_SORTENTS
360
9640
  0
DICTIONARY
  5
A498
330
A434
100
AcDbDictionary
280
     1
281
     1
  3
ACAD_SORTENTS
360
A499
  0
DICTIONARY
  5
744F
330
7442
100
AcDbDictionary
280
     1
281
     1
  3
ACAD_DIMASSOC
360
7459
  0
DICTIONARY
  5
74F3
330
74E6
100
AcDbDictionary
280
     1
281
     1
  3
ACAD_DIMASSOC
360
74FD
  0
DICTIONARY
  5
750D
330
74FE
100
AcDbDictionary
280
     1
281
     1
  3
ACAD_DIMASSOC
360
7519
  0
DICTIONARY
  5
753D
330
7530
100
AcDbDictionary
280
     1
281
     1
  3
ACAD_DIMASSOC
360
7547
  0
DICTIONARY
  5
757C
330
756F
100
AcDbDictionary
280
     1
281
     1
  3
ACAD_DIMASSOC
360
7586
  0
DICTIONARY
  5
7594
330
7587
100
AcDbDictionary
280
     1
281
     1
  3
ACAD_DIMASSOC
360
759E
  0
DICTIONARY
  5
76B1
330
76A4
100
AcDbDictionary
280
     1
281
     1
  3
ACAD_DIMASSOC
360
76BB
  0
DICTIONARY
  5
7708
330
76FB
100
AcDbDictionary
280
     1
281
     1
  3
ACAD_DIMASSOC
360
7712
  0
DICTIONARY
  5
7720
330
7713
100
AcDbDictionary
280
     1
281
     1
  3
ACAD_DIMASSOC
360
772A
  0
DICTIONARY
  5
7738
330
772B
100
AcDbDictionary
280
     1
281
     1
  3
ACAD_DIMASSOC
360
7742
  0
DICTIONARY
  5
8EDF
330
8ED2
100
AcDbDictionary
280
     1
281
     1
  3
ACAD_DIMASSOC
360
8EE9
  0
DICTIONARY
  5
9D7D
330
9D6E
100
AcDbDictionary
280
     1
281
     1
  3
ACAD_DIMASSOC
360
9D7E
  0
DICTIONARY
  5
A019
330
A00B
100
AcDbDictionary
280
     1
281
     1
  3
ACAD_DIMASSOC
360
A01A
  0
DICTIONARY
  5
A048
330
A039
100
AcDbDictionary
280
     1
281
     1
  3
ACAD_DIMASSOC
360
A049
  0
DICTIONARY
  5
C5
102
{ACAD_REACTORS
330
C
102
}
330
C
100
AcDbDictionary
281
     1
  0
DICTIONARY
  5
D
102
{ACAD_REACTORS
330
C
102
}
330
C
100
AcDbDictionary
281
     1
  0
DICTIONARY
  5
1A
102
{ACAD_REACTORS
330
C
102
}
330
C
100
AcDbDictionary
281
     1
  3
Model
350
22
  3
レイアウト1
350
1E
  3
レイアウト2
350
26
  0
DICTIONARY
  5
C4
102
{ACAD_REACTORS
330
C
102
}
330
C
100
AcDbDictionary
281
     1
  3
ByBlock
350
27D
  3
ByLayer
350
27C
  3
Global
350
27E
  0
DICTIONARY
  5
2D5
102
{ACAD_REACTORS
330
C
102
}
330
C
100
AcDbDictionary
281
     1
  3
Standard
350
2D6
  0
DICTIONARY
  5
17
102
{ACAD_REACTORS
330
C
102
}
330
C
100
AcDbDictionary
281
     1
  3
Standard
350
18
  0
DICTIONARY
  5
19
102
{ACAD_REACTORS
330
C
102
}
330
C
100
AcDbDictionary
281
     1
  3
SEISA基本
350
1C7E
  0
ACDBDICTIONARYWDFLT
  5
E
102
{ACAD_REACTORS
330
C
102
}
330
C
100
AcDbDictionary
281
     1
  3
Normal
350
F
100
AcDbDictionaryWithDefault
340
F
  0
DICTIONARY
  5
2B3
102
{ACAD_REACTORS
330
C
102
}
330
C
100
AcDbDictionary
281
     1
  3
*A1
350
2A97
  3
A0
350
2B4
  3
A1
350
2B5
  3
A2
350
2B6
  3
A3
350
2B7
  3
A4
350
2B8
  3
A5
350
2B9
  3
A6
350
2BA
  3
A7
350
2BB
  3
A8
350
2BC
  3
A9
350
2BD
  3
B0
350
2BE
  3
B1
350
2BF
  3
B2
350
2C0
  3
B3
350
2C1
  3
B4
350
2C2
  3
B5
350
2C3
  3
B6
350
2C4
  3
B7
350
2C5
  3
B8
350
2C6
  3
B9
350
2C7
  3
C0
350
2C8
  3
C1
350
2C9
  3
C2
350
2CA
  3
C3
350
2CB
  3
C4
350
2CC
  3
C5
350
2CD
  3
C6
350
2CE
  3
C7
350
2CF
  3
C8
350
2D0
  3
C9
350
2D1
  3
D0
350
2D2
  3
D1
350
2D3
  3
D2
350
2D4
  0
DICTIONARY
  5
121
102
{ACAD_REACTORS
330
C
102
}
330
C
100
AcDbDictionary
281
     1
  3
Standard
350
122
  0
DICTIONARY
  5
27F
102
{ACAD_REACTORS
330
C
102
}
330
C
100
AcDbDictionary
281
     1
  3
2dWireframe
350
285
  3
3D Hidden
350
287
  3
3dWireframe
350
286
  3
Basic
350
284
  3
Brighten
350
28B
  3
ColorChange
350
28F
  3
Conceptual
350
288
  3
Dim
350
28A
  3
Facepattern
350
28E
  3
Flat
350
280
  3
FlatWithEdges
350
281
  3
Gouraud
350
282
  3
GouraudWithEdges
350
283
  3
Linepattern
350
28D
  3
Realistic
350
289
  3
Thicken
350
28C
  0
XRECORD
  5
2F7
102
{ACAD_REACTORS
330
C
102
}
330
C
100
AcDbXrecord
280
     1
 90
        1
330
122
  0
DICTIONARY
  5
34
102
{ACAD_REACTORS
330
C
102
}
330
C
100
AcDbDictionary
281
     1
  3
CANNOSCALE
350
2FA
  3
CMLEADERSTYLE
350
2F8
  3
CTABLESTYLE
350
140
  3
DIMASSOC
350
AC
  3
INDEXCTL
350
35
  3
LAYEREVAL
350
55E0
  3
LAYERNOTIFY
350
55E1
  3
LIGHTINGUNITS
350
2FB
  3
MSLTSCALE
350
2F9
  0
DICTIONARY
  5
49
102
{ACAD_REACTORS
330
C
102
}
330
C
100
AcDbDictionary
281
     1
  3
AcmBOM
350
161B
  3
AcmStdDictionary
350
4A
  3
AMDTSECTSYM_ARROWCOLOR
350
12B
  0
DICTIONARY
  5
2B
102
{ACAD_REACTORS
330
C
102
}
330
C
100
AcDbDictionary
281
     1
  0
DICTIONARY
  5
1DE
102
{ACAD_REACTORS
330
C
102
}
330
C
100
AcDbDictionary
281
     1
  0
DICTIONARY
  5
69EA
102
{ACAD_REACTORS
330
BF
102
}
330
BF
100
AcDbDictionary
281
     1
  0
DICTIONARY
  5
415F
102
{ACAD_REACTORS
330
BF
102
}
330
BF
100
AcDbDictionary
281
     1
  0
DICTIONARY
  5
69E9
102
{ACAD_REACTORS
330
BF
102
}
330
BF
100
AcDbDictionary
281
     1
1001
ACAD
1000
<All
  0
DICTIONARY
  5
C0
102
{ACAD_REACTORS
330
BF
102
}
330
BF
100
AcDbDictionary
280
     1
281
     1
  0
XRECORD
  5
2A7D
102
{ACAD_REACTORS
330
2A7C
102
}
330
2A7C
100
AcDbXrecord
280
     1
290
     1
  0
XRECORD
  5
2A7F
102
{ACAD_REACTORS
330
2A7E
102
}
330
2A7E
100
AcDbXrecord
280
     1
290
     1
  0
XRECORD
  5
2A86
102
{ACAD_REACTORS
330
2A85
102
}
330
2A85
100
AcDbXrecord
280
     1
290
     1
  0
XRECORD
  5
2A88
102
{ACAD_REACTORS
330
2A87
102
}
330
2A87
100
AcDbXrecord
280
     1
290
     1
  0
XRECORD
  5
2A8E
102
{ACAD_REACTORS
330
2A8D
102
}
330
2A8D
100
AcDbXrecord
280
     1
290
     1
  0
SORTENTSTABLE
  5
A41
102
{ACAD_REACTORS
330
82
102
}
330
82
100
AcDbSortentsTable
330
1F
331
6284
  5
6350
331
3125
  5
3125
331
74FE
  5
7530
331
76FB
  5
7713
331
74E6
  5
74FE
331
3126
  5
3126
331
76A4
  5
76BC
331
3127
  5
3127
331
654F
  5
737A
331
7530
  5
756F
331
31F9
  5
31FF
331
8ED2
  5
9438
331
5FA0
  5
6284
331
312A
  5
312A
331
772B
  5
778D
331
7442
  5
7485
331
7587
  5
75B0
331
7713
  5
772B
331
756F
  5
7587
331
30F2
  5
30F2
331
630E
  5
654F
331
326F
  5
3277
331
3123
  5
3123
331
30F3
  5
30F3
331
61E7
  5
630E
  0
SORTENTSTABLE
  5
6E1F
102
{ACAD_REACTORS
330
678E
102
}
330
678E
100
AcDbSortentsTable
330
5EC0
  0
SORTENTSTABLE
  5
9789
102
{ACAD_REACTORS
330
6046
102
}
330
6046
100
AcDbSortentsTable
330
5F62
331
5F68
  5
5F6E
331
5F8D
  5
5F91
331
5F94
  5
5F9A
331
5F9B
  5
5F9F
331
5F7D
  5
5F81
331
5F76
  5
5F7A
331
6850
  5
5F65
331
5F6F
  5
5F74
331
5F8E
  5
5F92
331
5F77
  5
5F7B
331
5F70
  5
5F76
331
5F69
  5
5F6F
331
5F85
  5
5F89
331
5F9C
  5
60E6
331
5F7E
  5
5F82
331
5F88
  5
5F8C
331
5F71
  5
5F77
331
5F96
  5
5F9B
331
5F86
  5
5F8A
331
5F9D
  5
60E7
331
5F7F
  5
5F83
331
5F78
  5
5F7C
331
5F8F
  5
5F93
331
5F89
  5
5F8D
331
5F79
  5
5F7D
331
5F90
  5
5F94
331
6774
  5
5F66
331
5F6B
  5
5F70
331
60E6
  5
5F67
331
5F87
  5
5F8B
331
5F9E
  5
6774
331
5F80
  5
5F85
331
5F8A
  5
5F8E
331
5F6C
  5
5F71
331
5F73
  5
5F78
331
60E7
  5
5F68
331
5F65
  5
5F69
331
5F9F
  5
6850
331
5F81
  5
5F86
331
5F98
  5
5F9C
331
5F7A
  5
5F7E
331
5F91
  5
5F96
331
5F92
  5
5F98
331
5F82
  5
5F87
331
5F99
  5
5F9D
331
5F7B
  5
5F7F
331
5F74
  5
5F79
331
5F66
  5
5F6B
331
5F8B
  5
5F8F
331
5F8C
  5
5F90
331
5F93
  5
5F99
331
5F6E
  5
5F73
331
5F67
  5
5F6C
331
5F83
  5
5F88
331
5F9A
  5
5F9E
331
5F7C
  5
5F80
  0
SORTENTSTABLE
  5
96D9
102
{ACAD_REACTORS
330
62F3
102
}
330
62F3
100
AcDbSortentsTable
330
60EF
331
6110
  5
6111
331
60F2
  5
60F3
331
6116
  5
6117
331
60FB
  5
60FC
331
60F8
  5
60F9
331
611F
  5
6121
331
6101
  5
6102
331
60FE
  5
6100
331
6122
  5
6123
331
6125
  5
6126
331
6107
  5
6108
331
6104
  5
6106
331
60F5
  5
60F6
331
610A
  5
610B
331
610D
  5
610E
331
6968
  5
6969
331
6F58
  5
60F2
331
6112
  5
6114
331
60F4
  5
60F5
331
60F7
  5
60F8
331
6118
  5
611A
331
611B
  5
611D
331
60FD
  5
60FE
331
60FA
  5
60FB
331
611E
  5
611F
331
6121
  5
6122
331
6103
  5
6104
331
6100
  5
6101
331
6124
  5
6125
331
6115
  5
6116
331
610F
  5
6110
331
6106
  5
6107
331
6111
  5
6112
331
6114
  5
6115
331
60F6
  5
60F7
331
60F3
  5
60F4
331
60F9
  5
60FA
331
611A
  5
611B
331
611D
  5
611E
331
60FC
  5
60FD
331
6123
  5
6124
331
6102
  5
6103
331
6108
  5
610A
331
6969
  5
6F58
331
610E
  5
610F
331
610B
  5
610D
331
6126
  5
6968
331
6117
  5
6118
  0
SORTENTSTABLE
  5
A33B
102
{ACAD_REACTORS
330
6250
102
}
330
6250
100
AcDbSortentsTable
330
61CD
331
61D4
  5
61D6
331
61E0
  5
61E2
331
61DE
  5
61E0
331
61D7
  5
61DA
331
61E3
  5
A269
331
61D2
  5
61D5
331
A269
  5
61D0
331
61DC
  5
61DE
331
61D5
  5
61D7
331
61E1
  5
61E3
331
61D0
  5
61D4
331
61DF
  5
61E1
331
61DA
  5
61DC
331
61DD
  5
61DF
331
61D8
  5
61DB
331
61E4
  5
A26A
331
A26A
  5
61D2
331
61DB
  5
61DD
331
61D6
  5
61D8
331
61E2
  5
61E4
  0
SORTENTSTABLE
  5
A30B
102
{ACAD_REACTORS
330
632A
102
}
330
632A
100
AcDbSortentsTable
330
6252
331
6267
  5
6269
331
6262
  5
6264
331
9DE3
  5
6259
331
626C
  5
9DE4
331
625D
  5
6261
331
6265
  5
6267
331
626A
  5
9DE3
331
625B
  5
625D
331
625E
  5
6262
331
6259
  5
625B
331
9DE4
  5
6255
331
6268
  5
626A
331
6263
  5
6265
331
625C
  5
625E
331
6266
  5
6268
331
6261
  5
6263
331
6255
  5
625A
331
625A
  5
625C
331
6269
  5
626C
331
6264
  5
6266
  0
SORTENTSTABLE
  5
9640
102
{ACAD_REACTORS
330
65B2
102
}
330
65B2
100
AcDbSortentsTable
330
6520
  0
SORTENTSTABLE
  5
A499
102
{ACAD_REACTORS
330
A498
102
}
330
A498
100
AcDbSortentsTable
330
A434
  0
DIMASSOC
  5
7459
102
{ACAD_REACTORS
330
744F
102
}
330
744F
100
AcDbDimAssoc
330
7442
 90
        2
 70
     0
 71
     0
  1
AcDbOsnapPointRef
 72
     1
331
6284
331
625C
 73
     2
 91
        0
 40
1.0
 10
0.0
 20
0.0
 30
2.000000000000000E+50
 75
     0
  0
DIMASSOC
  5
74FD
102
{ACAD_REACTORS
330
74F3
102
}
330
74F3
100
AcDbDimAssoc
330
74E6
 90
        1
 70
     0
 71
     0
  1
AcDbOsnapPointRef
 72
    13
331
6284
331
6259
 73
     2
 91
        0
 40
0.0
 10
0.0
 20
0.0
 30
2.000000000000000E+50
 75
     0
  0
DIMASSOC
  5
7519
102
{ACAD_REACTORS
330
750D
102
}
330
750D
100
AcDbDimAssoc
330
74FE
 90
        2
 70
     0
 71
     0
  1
AcDbOsnapPointRef
 72
     1
331
61E7
331
61D4
 73
     2
 91
        0
 40
1.0
 10
0.0
 20
0.0
 30
2.000000000000000E+50
 75
     0
  0
DIMASSOC
  5
7547
102
{ACAD_REACTORS
330
753D
102
}
330
753D
100
AcDbDimAssoc
330
7530
 90
        2
 70
     0
 71
     0
  1
AcDbOsnapPointRef
 72
    13
331
61E7
331
61E0
 73
     2
 91
        0
 40
0.0
 10
0.0
 20
0.0
 30
2.000000000000000E+50
 75
     0
  0
DIMASSOC
  5
7586
102
{ACAD_REACTORS
330
757C
102
}
330
757C
100
AcDbDimAssoc
330
756F
 90
        3
 70
     0
 71
     0
  1
AcDbOsnapPointRef
 72
    13
331
630E
331
60F4
 73
     2
 91
        0
 40
0.0
 10
0.0
 20
0.0
 30
2.000000000000000E+50
 75
     0
  1
AcDbOsnapPointRef
 72
     1
331
630E
331
6969
 73
     2
 91
        0
 40
1.0
 10
0.0
 20
0.0
 30
2.000000000000000E+50
 75
     0
  0
DIMASSOC
  5
759E
102
{ACAD_REACTORS
330
7594
102
}
330
7594
100
AcDbDimAssoc
330
7587
 90
        3
 70
     0
 71
     0
  1
AcDbOsnapPointRef
 72
     1
331
630E
331
6969
 73
     2
 91
        0
 40
1.0
 10
0.0
 20
0.0
 30
2.000000000000000E+50
 75
     0
  1
AcDbOsnapPointRef
 72
    13
331
5FA0
331
5F6C
 73
     2
 91
        0
 40
0.0
 10
0.0
 20
0.0
 30
2.000000000000000E+50
 75
     0
  0
DIMASSOC
  5
76BB
102
{ACAD_REACTORS
330
76B1
102
}
330
76B1
100
AcDbDimAssoc
330
76A4
 90
        2
 70
     0
 71
     0
  1
AcDbOsnapPointRef
 72
     1
331
5FA0
331
5F8E
 73
     2
 91
        0
 40
6.283185307179585
 10
0.0
 20
0.0
 30
2.000000000000000E+50
 75
     0
  0
DIMASSOC
  5
7712
102
{ACAD_REACTORS
330
7708
102
}
330
7708
100
AcDbDimAssoc
330
76FB
 90
        3
 70
     0
 71
     0
  1
AcDbOsnapPointRef
 72
    13
331
61E7
331
61D2
 73
     2
 91
        0
 40
0.0
 10
0.0
 20
0.0
 30
2.000000000000000E+50
 75
     0
  1
AcDbOsnapPointRef
 72
     1
331
61E7
331
61E2
 73
     2
 91
        0
 40
1.0
 10
0.0
 20
0.0
 30
2.000000000000000E+50
 75
     0
  0
DIMASSOC
  5
772A
102
{ACAD_REACTORS
330
7720
102
}
330
7720
100
AcDbDimAssoc
330
7713
 90
        3
 70
     0
 71
     0
  1
AcDbOsnapPointRef
 72
     1
331
5FA0
331
5F68
 73
     2
 91
        0
 40
1.0
 10
0.0
 20
0.0
 30
2.000000000000000E+50
 75
     0
  1
AcDbOsnapPointRef
 72
     1
331
5FA0
331
5F69
 73
     2
 91
        0
 40
1.0
 10
0.0
 20
0.0
 30
2.000000000000000E+50
 75
     0
  0
DIMASSOC
  5
7742
102
{ACAD_REACTORS
330
7738
102
}
330
7738
100
AcDbDimAssoc
330
772B
 90
        3
 70
     0
 71
     0
  1
AcDbOsnapPointRef
 72
    13
331
5FA0
331
60E7
 73
     2
 91
        0
 40
0.0
 10
0.0
 20
0.0
 30
2.000000000000000E+50
 75
     0
  1
AcDbOsnapPointRef
 72
     1
331
5FA0
331
5F6E
 73
     2
 91
        0
 40
1.0
 10
0.0
 20
0.0
 30
2.000000000000000E+50
 75
     0
  0
DIMASSOC
  5
8EE9
102
{ACAD_REACTORS
330
8EDF
102
}
330
8EDF
100
AcDbDimAssoc
330
8ED2
 90
        3
 70
     0
 71
     0
  1
AcDbOsnapPointRef
 72
    10
331
6284
331
625B
 73
     2
 91
        0
 40
0.9953971726305111
 10
0.0
 20
0.0
 30
0.0
 75
     0
  1
AcDbOsnapPointRef
 72
     8
331
61E7
331
61E1
 73
     2
 91
        0
 40
0.9953971726305111
 10
0.0
 20
0.0
 30
0.0
 75
     1
  1
AcDbOsnapPointRef
 72
    10
331
6284
331
625B
 73
     2
 91
        0
 40
0.9953971726305111
 10
0.0
 20
0.0
 30
0.0
 75
     0
  0
DIMASSOC
  5
9D7E
102
{ACAD_REACTORS
330
9D7D
102
}
330
9D7D
100
AcDbDimAssoc
330
9D6E
 90
        1
 70
     0
 71
     0
  1
AcDbOsnapPointRef
 72
     1
331
6284
331
6259
 73
     0
 91
        0
 40
0.0
 10
0.0
 20
0.0
 30
2.000000000000000E+50
 75
     0
  0
DIMASSOC
  5
A01A
102
{ACAD_REACTORS
330
A019
102
}
330
A019
100
AcDbDimAssoc
330
A00B
 90
        3
 70
     0
 71
     0
  1
AcDbOsnapPointRef
 72
     4
331
9FB8
331
A009
 73
     0
 91
        0
 40
0.0
 10
0.0
 20
0.0
 30
0.0
 75
     0
  1
AcDbOsnapPointRef
 72
    13
331
6284
331
6268
 73
     0
 91
        0
 40
0.0
 10
0.0
 20
0.0
 30
2.000000000000000E+50
 75
     0
  0
DIMASSOC
  5
A049
102
{ACAD_REACTORS
330
A048
102
}
330
A048
100
AcDbDimAssoc
330
A039
 90
        2
 70
     0
 71
     0
  1
AcDbOsnapPointRef
 72
     1
331
6284
331
625A
 73
     0
 91
        0
 40
0.0
 10
0.0
 20
0.0
 30
2.000000000000000E+50
 75
     0
  0
LAYOUT
  5
22
102
{ACAD_REACTORS
330
1A
102
}
330
1A
100
AcDbPlotSettings
  1

  2
KONICA MINOLTA 501 PCL
  4
A4
  6

 40
5.027082920074462
 41
5.027085781097412
 42
5.027069091796875
 43
5.027069091796875
 44
209.9733276367186
 45
296.9259948730469
 46
1.83679223158171
 47
0.0
 48
0.0
 49
0.0
140
0.0
141
0.0
142
1.0
143
0.9250398679064078
 70
 11956
 72
     1
 73
     1
 74
     1
  7
SEISA.ctb
 75
     0
147
1.081034488019684
 76
     0
 77
     2
 78
   300
148
-187.2908039739718
149
-214.2187747289006
100
AcDbLayout
  1
Model
 70
     1
 71
     0
 10
0.0
 20
0.0
 11
12.0
 21
9.0
 12
0.0
 22
0.0
 32
0.0
 14
0.0
 24
0.0
 34
0.0
 15
0.0
 25
0.0
 35
0.0
146
0.0
 13
0.0
 23
0.0
 33
0.0
 16
1.0
 26
0.0
 36
0.0
 17
0.0
 27
1.0
 37
0.0
 76
     0
330
1F
331
27A
1001
ACAD_PSEXT
1000
KONICA MINOLTA 501 PCL
1000
KONICA MINOLTA 501/421/361PCL
1000
IP_192.168.20.231_(1)
1000

1070
     0
  0
LAYOUT
  5
1E
102
{ACAD_REACTORS
330
1A
102
}
330
1A
100
AcDbPlotSettings
  1

  2
none_device
  4
Letter_(8.50_x_11.00_Inches)
  6

 40
6.349999904632567
 41
6.349999904632567
 42
6.350006103515625
 43
6.350006103515625
 44
215.8999938964844
 45
279.3999938964844
 46
0.0
 47
0.0
 48
0.0
 49
0.0
140
0.0
141
0.0
142
1.0
143
1.0
 70
 15024
 72
     1
 73
     1
 74
     5
  7
SEISA.ctb
 75
    16
147
1.0
 76
     0
 77
     2
 78
   300
148
0.0
149
0.0
100
AcDbLayout
  1
レイアウト1
 70
     1
 71
     1
 10
0.0
 20
0.0
 11
420.0
 21
297.0
 12
0.0
 22
0.0
 32
0.0
 14
1.000000000000000E+20
 24
1.000000000000000E+20
 34
1.000000000000000E+20
 15
-1.000000000000000E+20
 25
-1.000000000000000E+20
 35
-1.000000000000000E+20
146
0.0
 13
0.0
 23
0.0
 33
0.0
 16
1.0
 26
0.0
 36
0.0
 17
0.0
 27
1.0
 37
0.0
 76
     0
330
1B
  0
LAYOUT
  5
26
102
{ACAD_REACTORS
330
1A
102
}
330
1A
100
AcDbPlotSettings
  1

  2
none_device
  4
Letter_(8.50_x_11.00_Inches)
  6

 40
6.349999904632567
 41
6.349999904632567
 42
6.350006103515625
 43
6.350006103515625
 44
215.8999938964844
 45
279.3999938964844
 46
0.0
 47
0.0
 48
0.0
 49
0.0
140
0.0
141
0.0
142
1.0
143
1.0
 70
 15024
 72
     1
 73
     1
 74
     5
  7
SEISA.ctb
 75
    16
147
1.0
 76
     0
 77
     2
 78
   300
148
0.0
149
0.0
100
AcDbLayout
  1
レイアウト2
 70
     1
 71
     2
 10
0.0
 20
0.0
 11
12.0
 21
9.0
 12
0.0
 22
0.0
 32
0.0
 14
0.0
 24
0.0
 34
0.0
 15
0.0
 25
0.0
 35
0.0
146
0.0
 13
0.0
 23
0.0
 33
0.0
 16
1.0
 26
0.0
 36
0.0
 17
0.0
 27
1.0
 37
0.0
 76
     0
330
23
  0
MATERIAL
  5
27D
102
{ACAD_REACTORS
330
C4
102
}
330
C4
100
AcDbMaterial
  1
ByBlock
 73
     1
 78
     1
172
     1
176
     1
270
     1
274
     1
 94
       63
  0
MATERIAL
  5
27C
102
{ACAD_REACTORS
330
C4
102
}
330
C4
100
AcDbMaterial
  1
ByLayer
 73
     1
 78
     1
172
     1
176
     1
270
     1
274
     1
 94
       63
  0
MATERIAL
  5
27E
102
{ACAD_REACTORS
330
C4
102
}
330
C4
100
AcDbMaterial
  1
Global
 73
     1
 78
     1
172
     1
176
     1
270
     1
274
     1
 94
       63
  0
MLEADERSTYLE
  5
2D6
102
{ACAD_REACTORS
330
2D5
102
}
330
2D5
100
AcDbMLeaderStyle
170
     2
171
     1
172
     0
 90
        2
 40
0.0
 41
0.0
173
     1
 91
-1056964608
340
14
 92
       -2
290
     1
 42
2.0
291
     1
 43
0.36
  3
Standard
 44
4.0
300

342
11
174
     1
178
     6
175
     1
176
     0
 93
-1056964608
 45
4.0
292
     0
297
     0
 46
4.0
 94
-1056964608
 47
1.0
 49
1.0
140
1.0
293
     1
141
0.0
294
     1
177
     0
142
1.0
295
     0
296
     0
143
0.125
1001
ACAD_MLEADERVER
1070
     2
  0
MLINESTYLE
  5
18
102
{ACAD_REACTORS
330
17
102
}
330
17
100
AcDbMlineStyle
  2
STANDARD
 70
     0
  3

 62
   256
 51
90.0
 52
90.0
 71
     2
 49
0.5
 62
   256
  6
BYLAYER
 49
-0.5
 62
   256
  6
BYLAYER
  0
PLOTSETTINGS
  5
1C7E
102
{ACAD_REACTORS
330
19
102
}
330
19
100
AcDbPlotSettings
  1
SEISA基本
  2
none_device
  4
Letter_(8.50_x_11.00_Inches)
  6

 40
6.349999904632567
 41
6.349999904632567
 42
6.350006103515625
 43
6.350006103515625
 44
215.8999938964844
 45
279.3999938964844
 46
7.302498226506357
 47
0.0
 48
0.0
 49
0.0
140
0.0
141
0.0
142
1.0
143
1.574803221122935
 70
 11956
 72
     1
 73
     1
 74
     2
  7
SEISA.ctb
 75
     0
147
0.6349999711627054
 76
     0
 77
     2
 78
   300
148
0.0
149
0.0
1001
ACAD_PSEXT
1000
なし
1000
なし
1000
適切ではありません
1000
新しいプロッタ環境設定名を選択しない限り、レイアウトは印刷されません。
1070
     0
  0
ACDBPLACEHOLDER
  5
F
102
{ACAD_REACTORS
330
E
102
}
330
E
  0
SCALE
  5
2A97
102
{ACAD_REACTORS
330
2B3
102
}
330
2B3
100
AcDbScale
 70
     0
300
1:1.5
140
1.0
141
1.5
290
     0
  0
SCALE
  5
2B4
102
{ACAD_REACTORS
330
2B3
102
}
330
2B3
100
AcDbScale
 70
     0
300
1:1
140
1.0
141
1.0
290
     1
  0
SCALE
  5
2B5
102
{ACAD_REACTORS
330
2B3
102
}
330
2B3
100
AcDbScale
 70
     0
300
1:2
140
1.0
141
2.0
290
     0
  0
SCALE
  5
2B6
102
{ACAD_REACTORS
330
2B3
102
}
330
2B3
100
AcDbScale
 70
     0
300
1:4
140
1.0
141
4.0
290
     0
  0
SCALE
  5
2B7
102
{ACAD_REACTORS
330
2B3
102
}
330
2B3
100
AcDbScale
 70
     0
300
1:5
140
1.0
141
5.0
290
     0
  0
SCALE
  5
2B8
102
{ACAD_REACTORS
330
2B3
102
}
330
2B3
100
AcDbScale
 70
     0
300
1:8
140
1.0
141
8.0
290
     0
  0
SCALE
  5
2B9
102
{ACAD_REACTORS
330
2B3
102
}
330
2B3
100
AcDbScale
 70
     0
300
1:10
140
1.0
141
10.0
290
     0
  0
SCALE
  5
2BA
102
{ACAD_REACTORS
330
2B3
102
}
330
2B3
100
AcDbScale
 70
     0
300
1:16
140
1.0
141
16.0
290
     0
  0
SCALE
  5
2BB
102
{ACAD_REACTORS
330
2B3
102
}
330
2B3
100
AcDbScale
 70
     0
300
1:20
140
1.0
141
20.0
290
     0
  0
SCALE
  5
2BC
102
{ACAD_REACTORS
330
2B3
102
}
330
2B3
100
AcDbScale
 70
     0
300
1:30
140
1.0
141
30.0
290
     0
  0
SCALE
  5
2BD
102
{ACAD_REACTORS
330
2B3
102
}
330
2B3
100
AcDbScale
 70
     0
300
1:40
140
1.0
141
40.0
290
     0
  0
SCALE
  5
2BE
102
{ACAD_REACTORS
330
2B3
102
}
330
2B3
100
AcDbScale
 70
     0
300
1:50
140
1.0
141
50.0
290
     0
  0
SCALE
  5
2BF
102
{ACAD_REACTORS
330
2B3
102
}
330
2B3
100
AcDbScale
 70
     0
300
1:100
140
1.0
141
100.0
290
     0
  0
SCALE
  5
2C0
102
{ACAD_REACTORS
330
2B3
102
}
330
2B3
100
AcDbScale
 70
     0
300
2:1
140
2.0
141
1.0
290
     0
  0
SCALE
  5
2C1
102
{ACAD_REACTORS
330
2B3
102
}
330
2B3
100
AcDbScale
 70
     0
300
4:1
140
4.0
141
1.0
290
     0
  0
SCALE
  5
2C2
102
{ACAD_REACTORS
330
2B3
102
}
330
2B3
100
AcDbScale
 70
     0
300
8:1
140
8.0
141
1.0
290
     0
  0
SCALE
  5
2C3
102
{ACAD_REACTORS
330
2B3
102
}
330
2B3
100
AcDbScale
 70
     0
300
10:1
140
10.0
141
1.0
290
     0
  0
SCALE
  5
2C4
102
{ACAD_REACTORS
330
2B3
102
}
330
2B3
100
AcDbScale
 70
     0
300
100:1
140
100.0
141
1.0
290
     0
  0
SCALE
  5
2C5
102
{ACAD_REACTORS
330
2B3
102
}
330
2B3
100
AcDbScale
 70
     0
300
1/128" = 1'-0"
140
0.0078125
141
12.0
290
     0
  0
SCALE
  5
2C6
102
{ACAD_REACTORS
330
2B3
102
}
330
2B3
100
AcDbScale
 70
     0
300
1/64" = 1'-0"
140
0.015625
141
12.0
290
     0
  0
SCALE
  5
2C7
102
{ACAD_REACTORS
330
2B3
102
}
330
2B3
100
AcDbScale
 70
     0
300
1/32" = 1'-0"
140
0.03125
141
12.0
290
     0
  0
SCALE
  5
2C8
102
{ACAD_REACTORS
330
2B3
102
}
330
2B3
100
AcDbScale
 70
     0
300
1/16" = 1'-0"
140
0.0625
141
12.0
290
     0
  0
SCALE
  5
2C9
102
{ACAD_REACTORS
330
2B3
102
}
330
2B3
100
AcDbScale
 70
     0
300
3/32" = 1'-0"
140
0.09375
141
12.0
290
     0
  0
SCALE
  5
2CA
102
{ACAD_REACTORS
330
2B3
102
}
330
2B3
100
AcDbScale
 70
     0
300
1/8" = 1'-0"
140
0.125
141
12.0
290
     0
  0
SCALE
  5
2CB
102
{ACAD_REACTORS
330
2B3
102
}
330
2B3
100
AcDbScale
 70
     0
300
3/16" = 1'-0"
140
0.1875
141
12.0
290
     0
  0
SCALE
  5
2CC
102
{ACAD_REACTORS
330
2B3
102
}
330
2B3
100
AcDbScale
 70
     0
300
1/4" = 1'-0"
140
0.25
141
12.0
290
     0
  0
SCALE
  5
2CD
102
{ACAD_REACTORS
330
2B3
102
}
330
2B3
100
AcDbScale
 70
     0
300
3/8" = 1'-0"
140
0.375
141
12.0
290
     0
  0
SCALE
  5
2CE
102
{ACAD_REACTORS
330
2B3
102
}
330
2B3
100
AcDbScale
 70
     0
300
1/2" = 1'-0"
140
0.5
141
12.0
290
     0
  0
SCALE
  5
2CF
102
{ACAD_REACTORS
330
2B3
102
}
330
2B3
100
AcDbScale
 70
     0
300
3/4" = 1'-0"
140
0.75
141
12.0
290
     0
  0
SCALE
  5
2D0
102
{ACAD_REACTORS
330
2B3
102
}
330
2B3
100
AcDbScale
 70
     0
300
1" = 1'-0"
140
1.0
141
12.0
290
     0
  0
SCALE
  5
2D1
102
{ACAD_REACTORS
330
2B3
102
}
330
2B3
100
AcDbScale
 70
     0
300
1-1/2" = 1'-0"
140
1.5
141
12.0
290
     0
  0
SCALE
  5
2D2
102
{ACAD_REACTORS
330
2B3
102
}
330
2B3
100
AcDbScale
 70
     0
300
3" = 1'-0"
140
3.0
141
12.0
290
     0
  0
SCALE
  5
2D3
102
{ACAD_REACTORS
330
2B3
102
}
330
2B3
100
AcDbScale
 70
     0
300
6" = 1'-0"
140
6.0
141
12.0
290
     0
  0
SCALE
  5
2D4
102
{ACAD_REACTORS
330
2B3
102
}
330
2B3
100
AcDbScale
 70
     0
300
1'-0" = 1'-0"
140
12.0
141
12.0
290
     0
  0
TABLESTYLE
  5
122
102
{ACAD_XDICTIONARY
360
2F5
102
}
102
{ACAD_REACTORS
330
121
102
}
330
121
100
AcDbTableStyle
  3
Standard
 70
     0
 71
     0
 40
1.5
 41
1.5
280
     0
281
     0
  7
STANDARD
140
4.5
170
     2
 62
     0
 63
     7
283
     0
 90
      512
 91
        0
  1

274
    -2
284
     1
 64
     0
275
    -2
285
     1
 65
     0
276
    -2
286
     1
 66
     0
277
    -2
287
     1
 67
     0
278
    -2
288
     1
 68
     0
279
    -2
289
     1
 69
     0
  7
STANDARD
140
6.0
170
     5
 62
     0
 63
     7
283
     0
 90
      512
 91
        0
  1

274
    -2
284
     1
 64
     0
275
    -2
285
     1
 65
     0
276
    -2
286
     1
 66
     0
277
    -2
287
     1
 67
     0
278
    -2
288
     1
 68
     0
279
    -2
289
     1
 69
     0
  7
STANDARD
140
4.5
170
     5
 62
     0
 63
     7
283
     0
 90
      512
 91
        0
  1

274
    -2
284
     1
 64
     0
275
    -2
285
     1
 65
     0
276
    -2
286
     1
 66
     0
277
    -2
287
     1
 67
     0
278
    -2
288
     1
 68
     0
279
    -2
289
     1
 69
     0
  0
VISUALSTYLE
  5
285
102
{ACAD_REACTORS
330
27F
102
}
330
27F
100
AcDbVisualStyle
  2
2dWireframe
 70
     4
 71
     0
 72
     2
 73
     0
 90
        0
 40
-0.6
 41
-30.0
 62
     5
 63
     7
421
 16777215
 74
     1
 91
        4
 64
     7
 65
   257
 75
     1
175
     1
 42
1.0
 92
        0
 66
   257
 43
1.0
 76
     1
 77
     6
 78
     2
 67
     7
 79
     5
170
     0
171
     0
290
     0
174
     0
 93
        1
 44
0.0
173
     0
291
     0
 45
0.0
  0
VISUALSTYLE
  5
287
102
{ACAD_REACTORS
330
27F
102
}
330
27F
100
AcDbVisualStyle
  2
3D Hidden
 70
     6
 71
     1
 72
     2
 73
     2
 90
        0
 40
-0.6
 41
-30.0
 62
     5
 63
     7
421
 16777215
 74
     2
 91
        2
 64
     7
 65
   257
 75
     2
175
     1
 42
40.0
 92
        0
 66
   257
 43
1.0
 76
     1
 77
     6
 78
     2
 67
     7
 79
     3
170
     0
171
     0
290
     0
174
     0
 93
        1
 44
0.0
173
     0
291
     0
 45
0.0
  0
VISUALSTYLE
  5
286
102
{ACAD_REACTORS
330
27F
102
}
330
27F
100
AcDbVisualStyle
  2
3dWireframe
 70
     5
 71
     0
 72
     2
 73
     0
 90
        0
 40
-0.6
 41
-30.0
 62
     5
 63
     7
421
 16777215
 74
     1
 91
        4
 64
     7
 65
   257
 75
     1
175
     1
 42
1.0
 92
        0
 66
   257
 43
1.0
 76
     1
 77
     6
 78
     2
 67
     7
 79
     5
170
     0
171
     0
290
     0
174
     0
 93
        1
 44
0.0
173
     0
291
     0
 45
0.0
  0
VISUALSTYLE
  5
284
102
{ACAD_REACTORS
330
27F
102
}
330
27F
100
AcDbVisualStyle
  2
Basic
 70
     7
 71
     1
 72
     0
 73
     1
 90
        0
 40
-0.6
 41
-30.0
 62
     5
 63
     7
421
 16777215
 74
     0
 91
        4
 64
     7
 65
   257
 75
     1
175
     1
 42
1.0
 92
        8
 66
     7
 43
1.0
 76
     1
 77
     6
 78
     2
 67
     7
 79
     5
170
     0
171
     0
290
     0
174
     0
 93
        1
 44
0.0
173
     0
291
     1
 45
0.0
  0
VISUALSTYLE
  5
28B
102
{ACAD_REACTORS
330
27F
102
}
330
27F
100
AcDbVisualStyle
  2
Brighten
 70
    12
 71
     2
 72
     2
 73
     0
 90
        0
 40
-0.6
 41
-30.0
 62
     5
 63
     7
421
 16777215
 74
     1
 91
        4
 64
     7
 65
   257
 75
     1
175
     1
 42
1.0
 92
        8
 66
     7
 43
1.0
 76
     1
 77
     6
 78
     2
 67
     7
 79
     5
170
     0
171
     0
290
     0
174
     0
 93
        1
 44
50.0
173
     0
291
     1
 45
0.0
  0
VISUALSTYLE
  5
28F
102
{ACAD_REACTORS
330
27F
102
}
330
27F
100
AcDbVisualStyle
  2
ColorChange
 70
    16
 71
     2
 72
     2
 73
     3
 90
        0
 40
-0.6
 41
-30.0
 62
     5
 63
     8
421
  8421504
 74
     1
 91
        4
 64
     7
 65
   257
 75
     1
175
     1
 42
1.0
 92
        8
 66
     8
424
  8421504
 43
1.0
 76
     1
 77
     6
 78
     2
 67
     7
 79
     5
170
     0
171
     0
290
     0
174
     0
 93
        1
 44
0.0
173
     0
291
     1
 45
0.0
  0
VISUALSTYLE
  5
288
102
{ACAD_REACTORS
330
27F
102
}
330
27F
100
AcDbVisualStyle
  2
Conceptual
 70
     9
 71
     3
 72
     2
 73
     0
 90
        0
 40
-0.6
 41
-30.0
 62
     5
 63
     7
421
 16777215
 74
     2
 91
        2
 64
     7
 65
   257
 75
     1
175
     1
 42
40.0
 92
        8
 66
     7
 43
1.0
 76
     1
 77
     6
 78
     2
 67
     7
 79
     3
170
     0
171
     0
290
     0
174
     0
 93
        1
 44
0.0
173
     0
291
     0
 45
0.0
  0
VISUALSTYLE
  5
28A
102
{ACAD_REACTORS
330
27F
102
}
330
27F
100
AcDbVisualStyle
  2
Dim
 70
    11
 71
     2
 72
     2
 73
     0
 90
        0
 40
-0.6
 41
-30.0
 62
     5
 63
     7
421
 16777215
 74
     1
 91
        4
 64
     7
 65
   257
 75
     1
175
     1
 42
1.0
 92
        8
 66
     7
 43
1.0
 76
     1
 77
     6
 78
     2
 67
     7
 79
     5
170
     0
171
     0
290
     0
174
     0
 93
        1
 44
-50.0
173
     0
291
     1
 45
0.0
  0
VISUALSTYLE
  5
28E
102
{ACAD_REACTORS
330
27F
102
}
330
27F
100
AcDbVisualStyle
  2
Facepattern
 70
    15
 71
     2
 72
     2
 73
     0
 90
        0
 40
-0.6
 41
-30.0
 62
     5
 63
     7
421
 16777215
 74
     1
 91
        4
 64
     7
 65
   257
 75
     1
175
     1
 42
1.0
 92
        8
 66
     7
 43
1.0
 76
     1
 77
     6
 78
     2
 67
     7
 79
     5
170
     0
171
     0
290
     0
174
     0
 93
        1
 44
0.0
173
     0
291
     1
 45
0.0
  0
VISUALSTYLE
  5
280
102
{ACAD_REACTORS
330
27F
102
}
330
27F
100
AcDbVisualStyle
  2
Flat
 70
     0
 71
     2
 72
     1
 73
     1
 90
        2
 40
-0.6
 41
30.0
 62
     5
 63
     7
421
 16777215
 74
     0
 91
        4
 64
     7
 65
   257
 75
     1
175
     1
 42
1.0
 92
        8
 66
     7
 43
1.0
 76
     1
 77
     6
 78
     2
 67
     7
 79
     5
170
     0
171
     0
290
     0
174
     0
 93
       13
 44
0.0
173
     0
291
     1
 45
0.0
  0
VISUALSTYLE
  5
281
102
{ACAD_REACTORS
330
27F
102
}
330
27F
100
AcDbVisualStyle
  2
FlatWithEdges
 70
     1
 71
     2
 72
     1
 73
     1
 90
        2
 40
-0.6
 41
30.0
 62
     5
 63
     7
421
 16777215
 74
     1
 91
        4
 64
     7
 65
   257
 75
     1
175
     1
 42
1.0
 92
        0
 66
   257
 43
1.0
 76
     1
 77
     6
 78
     2
 67
     7
 79
     5
170
     0
171
     0
290
     0
174
     0
 93
       13
 44
0.0
173
     0
291
     1
 45
0.0
  0
VISUALSTYLE
  5
282
102
{ACAD_REACTORS
330
27F
102
}
330
27F
100
AcDbVisualStyle
  2
Gouraud
 70
     2
 71
     2
 72
     2
 73
     1
 90
        2
 40
-0.6
 41
30.0
 62
     5
 63
     7
421
 16777215
 74
     0
 91
        4
 64
     7
 65
   257
 75
     1
175
     1
 42
1.0
 92
        0
 66
     7
 43
1.0
 76
     1
 77
     6
 78
     2
 67
     7
 79
     5
170
     0
171
     0
290
     0
174
     0
 93
       13
 44
0.0
173
     0
291
     1
 45
0.0
  0
VISUALSTYLE
  5
283
102
{ACAD_REACTORS
330
27F
102
}
330
27F
100
AcDbVisualStyle
  2
GouraudWithEdges
 70
     3
 71
     2
 72
     2
 73
     1
 90
        2
 40
-0.6
 41
30.0
 62
     5
 63
     7
421
 16777215
 74
     1
 91
        4
 64
     7
 65
   257
 75
     1
175
     1
 42
1.0
 92
        0
 66
   257
 43
1.0
 76
     1
 77
     6
 78
     2
 67
     7
 79
     5
170
     0
171
     0
290
     0
174
     0
 93
       13
 44
0.0
173
     0
291
     1
 45
0.0
  0
VISUALSTYLE
  5
28D
102
{ACAD_REACTORS
330
27F
102
}
330
27F
100
AcDbVisualStyle
  2
Linepattern
 70
    14
 71
     2
 72
     2
 73
     0
 90
        0
 40
-0.6
 41
-30.0
 62
     5
 63
     7
421
 16777215
 74
     1
 91
        4
 64
     7
 65
   257
 75
     7
175
     7
 42
1.0
 92
        8
 66
     7
 43
1.0
 76
     1
 77
     6
 78
     2
 67
     7
 79
     5
170
     0
171
     0
290
     0
174
     0
 93
        1
 44
0.0
173
     0
291
     1
 45
0.0
  0
VISUALSTYLE
  5
289
102
{ACAD_REACTORS
330
27F
102
}
330
27F
100
AcDbVisualStyle
  2
Realistic
 70
     8
 71
     2
 72
     2
 73
     0
 90
        0
 40
-0.6
 41
-30.0
 62
     5
 63
     7
421
 16777215
 74
     1
 91
        0
 64
     7
 65
   257
 75
     1
175
     1
 42
1.0
 92
        8
 66
     8
424
  7895160
 43
1.0
 76
     1
 77
     6
 78
     2
 67
     7
 79
     5
170
     0
171
     0
290
     0
174
     0
 93
       13
 44
0.0
173
     0
291
     0
 45
0.0
  0
VISUALSTYLE
  5
28C
102
{ACAD_REACTORS
330
27F
102
}
330
27F
100
AcDbVisualStyle
  2
Thicken
 70
    13
 71
     2
 72
     2
 73
     0
 90
        0
 40
-0.6
 41
-30.0
 62
     5
 63
     7
421
 16777215
 74
     1
 91
        4
 64
     7
 65
   257
 75
     1
175
     1
 42
1.0
 92
       12
 66
     7
 43
1.0
 76
     1
 77
     6
 78
     2
 67
     7
 79
     5
170
     0
171
     0
290
     0
174
     0
 93
        1
 44
0.0
173
     0
291
     1
 45
0.0
  0
DICTIONARYVAR
  5
2FA
102
{ACAD_REACTORS
330
34
102
}
330
34
100
DictionaryVariables
280
     0
  1
1:1.5
  0
DICTIONARYVAR
  5
2F8
102
{ACAD_REACTORS
330
34
102
}
330
34
100
DictionaryVariables
280
     0
  1
STANDARD
  0
DICTIONARYVAR
  5
140
102
{ACAD_REACTORS
330
34
102
}
330
34
100
DictionaryVariables
280
     0
  1
STANDARD
  0
DICTIONARYVAR
  5
AC
102
{ACAD_REACTORS
330
34
102
}
330
34
100
DictionaryVariables
280
     0
  1
1
  0
DICTIONARYVAR
  5
35
102
{ACAD_REACTORS
330
34
102
}
330
34
100
DictionaryVariables
280
     0
  1
1
  0
DICTIONARYVAR
  5
55E0
102
{ACAD_REACTORS
330
34
102
}
330
34
100
DictionaryVariables
280
     0
  1
1
  0
DICTIONARYVAR
  5
55E1
102
{ACAD_REACTORS
330
34
102
}
330
34
100
DictionaryVariables
280
     0
  1
15
  0
DICTIONARYVAR
  5
2FB
102
{ACAD_REACTORS
330
34
102
}
330
34
100
DictionaryVariables
280
     0
  1
0
  0
DICTIONARYVAR
  5
2F9
102
{ACAD_REACTORS
330
34
102
}
330
34
100
DictionaryVariables
280
     0
  1
0
  0
DICTIONARY
  5
161B
102
{ACAD_REACTORS
330
49
102
}
330
49
100
AcDbDictionary
281
     1
  0
DICTIONARY
  5
4A
102
{ACAD_REACTORS
330
49
102
}
330
49
100
AcDbDictionary
281
     1
  0
XRECORD
  5
12B
102
{ACAD_REACTORS
330
49
102
}
330
49
100
AcDbXrecord
280
     1
 90
-1023410169
  0
DICTIONARY
  5
2F5
330
122
100
AcDbDictionary
280
     1
281
     1
  3
ACAD_ROUNDTRIP_2008_TABLESTYLE_CELLSTYLEMAP
360
A550
  0
CELLSTYLEMAP
  5
A550
102
{ACAD_REACTORS
330
2F5
102
}
330
2F5
100
AcDbCellStyleMap
 90
        3
300
CELLSTYLE
  1
TABLEFORMAT_BEGIN
 90
        5
170
     1
 91
        0
 92
    32768
 62
   257
 93
        1
300
CONTENTFORMAT
  1
CONTENTFORMAT_BEGIN
 90
        0
 91
        0
 92
      512
 93
        0
300

 40
0.0
140
1.0
 94
        5
 62
     0
340
11
144
6.0
309
CONTENTFORMAT_END
171
     1
301
MARGIN
  1
CELLMARGIN_BEGIN
 40
1.5
 40
1.5
 40
1.5
 40
1.5
 40
0.18
 40
0.18
309
CELLMARGIN_END
 94
        6
 95
        1
302
GRIDFORMAT
  1
GRIDFORMAT_BEGIN
 90
        0
 91
        1
 62
     0
 92
       -2
340
0
 93
        0
 40
0.045
309
GRIDFORMAT_END
 95
        2
302
GRIDFORMAT
  1
GRIDFORMAT_BEGIN
 90
        0
 91
        1
 62
     0
 92
       -2
340
0
 93
        0
 40
0.045
309
GRIDFORMAT_END
 95
        4
302
GRIDFORMAT
  1
GRIDFORMAT_BEGIN
 90
        0
 91
        1
 62
     0
 92
       -2
340
0
 93
        0
 40
0.045
309
GRIDFORMAT_END
 95
        8
302
GRIDFORMAT
  1
GRIDFORMAT_BEGIN
 90
        0
 91
        1
 62
     0
 92
       -2
340
0
 93
        0
 40
0.045
309
GRIDFORMAT_END
 95
       16
302
GRIDFORMAT
  1
GRIDFORMAT_BEGIN
 90
        0
 91
        1
 62
     0
 92
       -2
340
0
 93
        0
 40
0.045
309
GRIDFORMAT_END
 95
       32
302
GRIDFORMAT
  1
GRIDFORMAT_BEGIN
 90
        0
 91
        1
 62
     0
 92
       -2
340
0
 93
        0
 40
0.045
309
GRIDFORMAT_END
309
TABLEFORMAT_END
  1
CELLSTYLE_BEGIN
 90
        1
 91
        1
300
_TITLE
309
CELLSTYLE_END
300
CELLSTYLE
  1
TABLEFORMAT_BEGIN
 90
        5
170
     1
 91
        0
 92
        0
 62
   257
 93
        1
300
CONTENTFORMAT
  1
CONTENTFORMAT_BEGIN
 90
        0
 91
        0
 92
      512
 93
        0
300

 40
0.0
140
1.0
 94
        5
 62
     0
340
11
144
4.5
309
CONTENTFORMAT_END
171
     1
301
MARGIN
  1
CELLMARGIN_BEGIN
 40
1.5
 40
1.5
 40
1.5
 40
1.5
 40
0.18
 40
0.18
309
CELLMARGIN_END
 94
        6
 95
        1
302
GRIDFORMAT
  1
GRIDFORMAT_BEGIN
 90
        0
 91
        1
 62
     0
 92
       -2
340
0
 93
        0
 40
0.045
309
GRIDFORMAT_END
 95
        2
302
GRIDFORMAT
  1
GRIDFORMAT_BEGIN
 90
        0
 91
        1
 62
     0
 92
       -2
340
0
 93
        0
 40
0.045
309
GRIDFORMAT_END
 95
        4
302
GRIDFORMAT
  1
GRIDFORMAT_BEGIN
 90
        0
 91
        1
 62
     0
 92
       -2
340
0
 93
        0
 40
0.045
309
GRIDFORMAT_END
 95
        8
302
GRIDFORMAT
  1
GRIDFORMAT_BEGIN
 90
        0
 91
        1
 62
     0
 92
       -2
340
0
 93
        0
 40
0.045
309
GRIDFORMAT_END
 95
       16
302
GRIDFORMAT
  1
GRIDFORMAT_BEGIN
 90
        0
 91
        1
 62
     0
 92
       -2
340
0
 93
        0
 40
0.045
309
GRIDFORMAT_END
 95
       32
302
GRIDFORMAT
  1
GRIDFORMAT_BEGIN
 90
        0
 91
        1
 62
     0
 92
       -2
340
0
 93
        0
 40
0.045
309
GRIDFORMAT_END
309
TABLEFORMAT_END
  1
CELLSTYLE_BEGIN
 90
        2
 91
        1
300
_HEADER
309
CELLSTYLE_END
300
CELLSTYLE
  1
TABLEFORMAT_BEGIN
 90
        5
170
     1
 91
        0
 92
        0
 62
   257
 93
        1
300
CONTENTFORMAT
  1
CONTENTFORMAT_BEGIN
 90
        0
 91
        0
 92
      512
 93
        0
300

 40
0.0
140
1.0
 94
        2
 62
     0
340
11
144
4.5
309
CONTENTFORMAT_END
171
     1
301
MARGIN
  1
CELLMARGIN_BEGIN
 40
1.5
 40
1.5
 40
1.5
 40
1.5
 40
0.18
 40
0.18
309
CELLMARGIN_END
 94
        6
 95
        1
302
GRIDFORMAT
  1
GRIDFORMAT_BEGIN
 90
        0
 91
        1
 62
     0
 92
       -2
340
0
 93
        0
 40
0.045
309
GRIDFORMAT_END
 95
        2
302
GRIDFORMAT
  1
GRIDFORMAT_BEGIN
 90
        0
 91
        1
 62
     0
 92
       -2
340
0
 93
        0
 40
0.045
309
GRIDFORMAT_END
 95
        4
302
GRIDFORMAT
  1
GRIDFORMAT_BEGIN
 90
        0
 91
        1
 62
     0
 92
       -2
340
0
 93
        0
 40
0.045
309
GRIDFORMAT_END
 95
        8
302
GRIDFORMAT
  1
GRIDFORMAT_BEGIN
 90
        0
 91
        1
 62
     0
 92
       -2
340
0
 93
        0
 40
0.045
309
GRIDFORMAT_END
 95
       16
302
GRIDFORMAT
  1
GRIDFORMAT_BEGIN
 90
        0
 91
        1
 62
     0
 92
       -2
340
0
 93
        0
 40
0.045
309
GRIDFORMAT_END
 95
       32
302
GRIDFORMAT
  1
GRIDFORMAT_BEGIN
 90
        0
 91
        1
 62
     0
 92
       -2
340
0
 93
        0
 40
0.045
309
GRIDFORMAT_END
309
TABLEFORMAT_END
  1
CELLSTYLE_BEGIN
 90
        3
 91
        2
300
_DATA
309
CELLSTYLE_END
  0
ENDSEC
  0
EOF
