  0
SECTION
  2
HEADER
  9
$ACADVER
  1
AC1021
  9
$ACADMAINTVER
 70
    26
  9
$DWGCODEPAGE
  3
ANSI_932
  9
$LASTSAVEDBY
  1
Htm_Terada
  9
$CUSTOMPROPERTYTAG
  1
AmdtFileType
  9
$CUSTOMPROPERTY
  1
84
  9
$INSBASE
 10
0.0
 20
0.0
 30
0.0
  9
$EXTMIN
 10
209.1604634232599
 20
217.9575595232922
 30
-0.0000000349181948
  9
$EXTMAX
 10
430.0680557204511
 20
385.4891067460811
 30
0.0000000814935747
  9
$LIMMIN
 10
0.0000002871507832
 20
0.0000005540730967
  9
$LIMMAX
 10
630.0000002871508
 20
445.5000005540731
  9
$ORTHOMODE
 70
     0
  9
$REGENMODE
 70
     1
  9
$FILLMODE
 70
     1
  9
$QTEXTMODE
 70
     0
  9
$MIRRTEXT
 70
     1
  9
$LTSCALE
 40
1.5
  9
$ATTMODE
 70
     1
  9
$TEXTSIZE
 40
25.0
  9
$TRACEWID
 40
1.0
  9
$TEXTSTYLE
  7
SEISA
  9
$CLAYER
  8
AM_0 外形線1
  9
$CELTYPE
  6
ByLayer
  9
$CECOLOR
 62
   256
  9
$CELTSCALE
 40
1.0
  9
$DISPSILH
 70
     0
  9
$DIMSCALE
 40
1.5
  9
$DIMASZ
 40
2.5
  9
$DIMEXO
 40
0.625
  9
$DIMDLI
 40
10.0
  9
$DIMRND
 40
0.0
  9
$DIMDLE
 40
0.0
  9
$DIMEXE
 40
0.625
  9
$DIMTP
 40
0.1
  9
$DIMTM
 40
0.1
  9
$DIMTXT
 40
3.5
  9
$DIMCEN
 40
0.0
  9
$DIMTSZ
 40
0.0
  9
$DIMTOL
 70
     0
  9
$DIMLIM
 70
     0
  9
$DIMTIH
 70
     0
  9
$DIMTOH
 70
     0
  9
$DIMSE1
 70
     0
  9
$DIMSE2
 70
     0
  9
$DIMTAD
 70
     3
  9
$DIMZIN
 70
     8
  9
$DIMBLK
  1
Open30
  9
$DIMASO
 70
     1
  9
$DIMSHO
 70
     1
  9
$DIMPOST
  1

  9
$DIMAPOST
  1
"
  9
$DIMALT
 70
     0
  9
$DIMALTD
 70
     2
  9
$DIMALTF
 40
0.0393701
  9
$DIMLFAC
 40
1.0
  9
$DIMTOFL
 70
     1
  9
$DIMTVP
 40
0.0
  9
$DIMTIX
 70
     0
  9
$DIMSOXD
 70
     0
  9
$DIMSAH
 70
     0
  9
$DIMBLK1
  1

  9
$DIMBLK2
  1

  9
$DIMSTYLE
  2
SEISA
  9
$DIMCLRD
 70
     3
  9
$DIMCLRE
 70
     3
  9
$DIMCLRT
 70
     3
  9
$DIMTFAC
 40
0.71
  9
$DIMGAP
 40
1.5
  9
$DIMJUST
 70
     0
  9
$DIMSD1
 70
     0
  9
$DIMSD2
 70
     0
  9
$DIMTOLJ
 70
     0
  9
$DIMTZIN
 70
     0
  9
$DIMALTZ
 70
     0
  9
$DIMALTTZ
 70
     8
  9
$DIMUPT
 70
     0
  9
$DIMDEC
 70
     2
  9
$DIMTDEC
 70
     2
  9
$DIMALTU
 70
     2
  9
$DIMALTTD
 70
     2
  9
$DIMTXSTY
  7
SEISA
  9
$DIMAUNIT
 70
     0
  9
$DIMADEC
 70
     0
  9
$DIMALTRND
 40
0.0
  9
$DIMAZIN
 70
     2
  9
$DIMDSEP
 70
    46
  9
$DIMATFIT
 70
     3
  9
$DIMFRAC
 70
     0
  9
$DIMLDRBLK
  1
Open30
  9
$DIMLUNIT
 70
     2
  9
$DIMLWD
 70
    -1
  9
$DIMLWE
 70
    -1
  9
$DIMTMOVE
 70
     0
  9
$DIMFXL
 40
1.0
  9
$DIMFXLON
 70
     0
  9
$DIMJOGANG
 40
0.7853981633974483
  9
$DIMTFILL
 70
     0
  9
$DIMTFILLCLR
 70
     0
  9
$DIMARCSYM
 70
     1
  9
$DIMLTYPE
  6

  9
$DIMLTEX1
  6

  9
$DIMLTEX2
  6

  9
$LUNITS
 70
     2
  9
$LUPREC
 70
     2
  9
$SKETCHINC
 40
1.0
  9
$FILLETRAD
 40
3.75
  9
$AUNITS
 70
     0
  9
$AUPREC
 70
     0
  9
$MENU
  1
.
  9
$ELEVATION
 40
0.0
  9
$PELEVATION
 40
0.0
  9
$THICKNESS
 40
0.0
  9
$LIMCHECK
 70
     0
  9
$CHAMFERA
 40
1.0
  9
$CHAMFERB
 40
1.000000000000027
  9
$CHAMFERC
 40
1.0
  9
$CHAMFERD
 40
0.7853981633974483
  9
$SKPOLY
 70
     0
  9
$TDCREATE
 40
2454894.615069259
  9
$TDUCREATE
 40
2454894.240069259
  9
$TDUPDATE
 40
2456478.689634143
  9
$TDUUPDATE
 40
2456478.314634143
  9
$TDINDWG
 40
0.4783953009
  9
$TDUSRTIMER
 40
0.4783943866
  9
$USRTIMER
 70
     1
  9
$ANGBASE
 50
0.0
  9
$ANGDIR
 70
     0
  9
$PDMODE
 70
     0
  9
$PDSIZE
 40
0.0
  9
$PLINEWID
 40
0.0
  9
$SPLFRAME
 70
     0
  9
$SPLINETYPE
 70
     6
  9
$SPLINESEGS
 70
     8
  9
$HANDSEED
  5
B423
  9
$SURFTAB1
 70
     6
  9
$SURFTAB2
 70
     6
  9
$SURFTYPE
 70
     6
  9
$SURFU
 70
     6
  9
$SURFV
 70
     6
  9
$UCSBASE
  2

  9
$UCSNAME
  2

  9
$UCSORG
 10
0.0
 20
0.0
 30
0.0
  9
$UCSXDIR
 10
1.0
 20
0.0
 30
0.0
  9
$UCSYDIR
 10
0.0
 20
1.0
 30
0.0
  9
$UCSORTHOREF
  2

  9
$UCSORTHOVIEW
 70
     0
  9
$UCSORGTOP
 10
0.0
 20
0.0
 30
0.0
  9
$UCSORGBOTTOM
 10
0.0
 20
0.0
 30
0.0
  9
$UCSORGLEFT
 10
0.0
 20
0.0
 30
0.0
  9
$UCSORGRIGHT
 10
0.0
 20
0.0
 30
0.0
  9
$UCSORGFRONT
 10
0.0
 20
0.0
 30
0.0
  9
$UCSORGBACK
 10
0.0
 20
0.0
 30
0.0
  9
$PUCSBASE
  2

  9
$PUCSNAME
  2

  9
$PUCSORG
 10
0.0
 20
0.0
 30
0.0
  9
$PUCSXDIR
 10
1.0
 20
0.0
 30
0.0
  9
$PUCSYDIR
 10
0.0
 20
1.0
 30
0.0
  9
$PUCSORTHOREF
  2

  9
$PUCSORTHOVIEW
 70
     0
  9
$PUCSORGTOP
 10
0.0
 20
0.0
 30
0.0
  9
$PUCSORGBOTTOM
 10
0.0
 20
0.0
 30
0.0
  9
$PUCSORGLEFT
 10
0.0
 20
0.0
 30
0.0
  9
$PUCSORGRIGHT
 10
0.0
 20
0.0
 30
0.0
  9
$PUCSORGFRONT
 10
0.0
 20
0.0
 30
0.0
  9
$PUCSORGBACK
 10
0.0
 20
0.0
 30
0.0
  9
$USERI1
 70
     0
  9
$USERI2
 70
     0
  9
$USERI3
 70
     0
  9
$USERI4
 70
     0
  9
$USERI5
 70
     0
  9
$USERR1
 40
0.0
  9
$USERR2
 40
0.0
  9
$USERR3
 40
0.0
  9
$USERR4
 40
0.0
  9
$USERR5
 40
0.0
  9
$WORLDVIEW
 70
     1
  9
$SHADEDGE
 70
     3
  9
$SHADEDIF
 70
    70
  9
$TILEMODE
 70
     1
  9
$MAXACTVP
 70
    64
  9
$PINSBASE
 10
0.0
 20
0.0
 30
0.0
  9
$PLIMCHECK
 70
     0
  9
$PEXTMIN
 10
1.000000000000000E+20
 20
1.000000000000000E+20
 30
1.000000000000000E+20
  9
$PEXTMAX
 10
-1.000000000000000E+20
 20
-1.000000000000000E+20
 30
-1.000000000000000E+20
  9
$PLIMMIN
 10
0.0
 20
0.0
  9
$PLIMMAX
 10
420.0
 20
297.0
  9
$UNITMODE
 70
     0
  9
$VISRETAIN
 70
     1
  9
$PLINEGEN
 70
     0
  9
$PSLTSCALE
 70
     1
  9
$TREEDEPTH
 70
  3020
  9
$CMLSTYLE
  2
Standard
  9
$CMLJUST
 70
     0
  9
$CMLSCALE
 40
20.0
  9
$PROXYGRAPHICS
 70
     1
  9
$MEASUREMENT
 70
     1
  9
$CELWEIGHT
370
    -1
  9
$ENDCAPS
280
     0
  9
$JOINSTYLE
280
     0
  9
$LWDISPLAY
290
     0
  9
$INSUNITS
 70
     4
  9
$HYPERLINKBASE
  1

  9
$STYLESHEET
  1
SEISA.CTB
  9
$XEDIT
290
     1
  9
$CEPSNTYPE
380
     0
  9
$PSTYLEMODE
290
     1
  9
$FINGERPRINTGUID
  2
{A0EC8FEA-AEB4-4814-9814-61AAAD989C3B}
  9
$VERSIONGUID
  2
{7ADBF045-88DE-457C-873F-F690DBDD00C7}
  9
$EXTNAMES
290
     1
  9
$PSVPSCALE
 40
0.0
  9
$OLESTARTUP
290
     0
  9
$SORTENTS
280
   127
  9
$INDEXCTL
280
     0
  9
$HIDETEXT
280
     0
  9
$XCLIPFRAME
290
     0
  9
$HALOGAP
280
     0
  9
$OBSCOLOR
 70
   257
  9
$OBSLTYPE
280
     0
  9
$INTERSECTIONDISPLAY
280
     0
  9
$INTERSECTIONCOLOR
 70
   257
  9
$DIMASSOC
280
     2
  9
$PROJECTNAME
  1

  9
$CAMERADISPLAY
290
     0
  9
$LENSLENGTH
 40
50.0
  9
$CAMERAHEIGHT
 40
0.0
  9
$STEPSPERSEC
 40
2.0
  9
$STEPSIZE
 40
6.0
  9
$3DDWFPREC
 40
2.0
  9
$PSOLWIDTH
 40
0.25
  9
$PSOLHEIGHT
 40
4.0
  9
$LOFTANG1
 40
1.570796326794896
  9
$LOFTANG2
 40
1.570796326794896
  9
$LOFTMAG1
 40
0.0
  9
$LOFTMAG2
 40
0.0
  9
$LOFTPARAM
 70
     7
  9
$LOFTNORMALS
280
     1
  9
$LATITUDE
 40
37.795
  9
$LONGITUDE
 40
-122.394
  9
$NORTHDIRECTION
 40
0.0
  9
$TIMEZONE
 70
 -8000
  9
$LIGHTGLYPHDISPLAY
280
     1
  9
$TILEMODELIGHTSYNCH
280
     1
  9
$CMATERIAL
347
27C
  9
$SOLIDHIST
280
     1
  9
$SHOWHIST
280
     1
  9
$DWFFRAME
280
     2
  9
$DGNFRAME
280
     0
  9
$REALWORLDSCALE
290
     1
  9
$INTERFERECOLOR
 62
     1
  9
$INTERFEREOBJVS
345
289
  9
$INTERFEREVPVS
346
286
  9
$CSHADOW
280
     0
  9
$SHADOWPLANELOCATION
 40
0.0
  0
ENDSEC
  0
SECTION
  2
CLASSES
  0
CLASS
  1
ACDBDICTIONARYWDFLT
  2
AcDbDictionaryWithDefault
  3
ObjectDBX Classes
 90
        0
 91
        1
280
     0
281
     0
  0
CLASS
  1
AMGSETTINGSOBJ
  2
AmgSettingsObj
  3
"AcadM|Product Description: AutoCAD Mechanical|Company: Autodesk, Inc."
 90
     1024
 91
        2
280
     0
281
     0
  0
CLASS
  1
ACME_DOCUMENT
  2
AcMeDbDoc
  3
AcMeServices
 90
     1024
 91
        1
280
     0
281
     0
  0
CLASS
  1
ACMESCOPE
  2
AcMeScope
  3
AcMeServices
 90
     1024
 91
        1
280
     0
281
     0
  0
CLASS
  1
ACMECOMMANDHISTORY
  2
AcMeCommandHistory
  3
AcMeServices
 90
     1024
 91
        1
280
     0
281
     0
  0
CLASS
  1
DICTIONARYVAR
  2
AcDbDictionaryVar
  3
ObjectDBX Classes
 90
        0
 91
        9
280
     0
281
     0
  0
CLASS
  1
ACIMSYSVARMAN
  2
AcImSysVarManager
  3
AcMeServices
 90
     1024
 91
        5
280
     0
281
     0
  0
CLASS
  1
ACIMREALSYSVAR
  2
AcImRealSysVar
  3
AcMeServices
 90
     1024
 91
        1
280
     0
281
     0
  0
CLASS
  1
ACIMINTSYSVAR
  2
AcImIntSysVar
  3
AcMeServices
 90
     1024
 91
       27
280
     0
281
     0
  0
CLASS
  1
ACMEDRAWINGMAN
  2
AcMeDrawingMan
  3
AcMeServices
 90
     1024
 91
        1
280
     0
281
     0
  0
CLASS
  1
ACMEVIEW
  2
AcMeView
  3
AcMeServices
 90
     1024
 91
        1
280
     0
281
     0
  0
CLASS
  1
ACDBENTITYCACHE
  2
AcMeEntityCache
  3
AcMeServices
 90
     1024
 91
        1
280
     0
281
     0
  0
CLASS
  1
GSMANAGER
  2
AcMeGSManager
  3
AcMeServices
 90
     1024
 91
        1
280
     0
281
     0
  0
CLASS
  1
AMDTINTERNALREACTOR
  2
AmdtInternalReactor
  3
AcMeServices
 90
     1024
 91
        2
280
     0
281
     0
  0
CLASS
  1
ACMESTATEMGR
  2
AcMeStateMgr
  3
AcMeServices
 90
     1024
 91
        1
280
     0
281
     0
  0
CLASS
  1
ACGREFMASTER
  2
AcGrefMaster
  3
AcAttribServices
 90
     1024
 91
        1
280
     0
281
     0
  0
CLASS
  1
ACME_DATABASE
  2
AcMeDbDatabase
  3
AcMeServices
 90
     1024
 91
        1
280
     0
281
     0
  0
CLASS
  1
ACRFINSADJUSTERMGR
  2
AcRfInsAdjusterMgr
  3
AcMeServices
 90
     1024
 91
        1
280
     0
281
     0
  0
CLASS
  1
ACGREFACADMASTER
  2
AcGrefacadMaster
  3
AcGrefServices
 90
     1024
 91
        1
280
     0
281
     0
  0
CLASS
  1
AMIMASTER
  2
AmiMaster
  3
AmiServices
 90
     1024
 91
        1
280
     0
281
     0
  0
CLASS
  1
ACIMSTRSYSVAR
  2
AcImStrSysVar
  3
AcMeServices
 90
     1024
 91
        5
280
     0
281
     0
  0
CLASS
  1
ACMSTANDARDJIS
  2
AcmStandardJIS
  3
"Amdt_StdImp|Product Description: AutoCAD Mechanical|Company: Autodesk, Inc."
 90
     1024
 91
        0
280
     0
281
     0
  0
CLASS
  1
AMGOBJPROPCFG
  2
AmgObjPropCfg
  3
"AmgLay|Product Description: AutoCAD Mechanical|Company: Autodesk, Inc."
 90
     1025
 91
        1
280
     0
281
     0
  0
CLASS
  1
ACMSURFSTANDARDJIS
  2
AcmSurfTextStdJIS
  3
"Amdt_StdImp|Product Description: AutoCAD Mechanical|Company: Autodesk, Inc."
 90
     1024
 91
        0
280
     0
281
     0
  0
CLASS
  1
ACMFCFSTANDARDJIS
  2
AcmFCFStdJIS
  3
"Amdt_StdImp|Product Description: AutoCAD Mechanical|Company: Autodesk, Inc."
 90
     1024
 91
        0
280
     0
281
     0
  0
CLASS
  1
ACMWELDSTANDARDJIS
  2
AcmWeldingStdJIS
  3
"Amdt_StdImp|Product Description: AutoCAD Mechanical|Company: Autodesk, Inc."
 90
     1024
 91
        0
280
     0
281
     0
  0
CLASS
  1
ACMIDSTANDARDJIS
  2
AcmIdStdJIS
  3
"Amdt_StdImp|Product Description: AutoCAD Mechanical|Company: Autodesk, Inc."
 90
     1024
 91
        0
280
     0
281
     0
  0
CLASS
  1
ACMDATUMSTANDARDJIS
  2
AcmDatumStdJIS
  3
"Amdt_StdImp|Product Description: AutoCAD Mechanical|Company: Autodesk, Inc."
 90
     1024
 91
        0
280
     0
281
     0
  0
CLASS
  1
ACMBOMSTANDARDJIS
  2
AcmBOMStdJIS
  3
"Amdt_StdImp|Product Description: AutoCAD Mechanical|Company: Autodesk, Inc."
 90
     1024
 91
        0
280
     0
281
     0
  0
CLASS
  1
ACMDETAILSTANDARDJIS
  2
AmdtDetailSymStdJIS
  3
"Amdt_StdImp|Product Description: AutoCAD Mechanical|Company: Autodesk, Inc."
 90
     1024
 91
        0
280
     0
281
     0
  0
CLASS
  1
ACMSECTIONSTANDARDJIS
  2
AmdtSectionSymStdJIS
  3
"Amdt_StdImp|Product Description: AutoCAD Mechanical|Company: Autodesk, Inc."
 90
     1024
 91
        0
280
     0
281
     0
  0
CLASS
  1
ACMCENTERLINESTANDARDJIS
  2
AmdtCenterLineStdJIS
  3
"Amdt_StdImp|Product Description: AutoCAD Mechanical|Company: Autodesk, Inc."
 90
     1024
 91
        0
280
     0
281
     0
  0
CLASS
  1
ACMTHREADLINESTANDARDJIS
  2
AmdtThreadLineStdJIS
  3
"Amdt_StdImp|Product Description: AutoCAD Mechanical|Company: Autodesk, Inc."
 90
     1024
 91
        0
280
     0
281
     0
  0
CLASS
  1
ACAMGLAYSTD
  2
AcAmgLayStd
  3
"AmgLay|Product Description: AutoCAD Mechanical|Company: Autodesk, Inc."
 90
     1024
 91
        1
280
     0
281
     0
  0
CLASS
  1
ACAMGDIMSTD
  2
AcAmgDimStd
  3
"AmgDim|Product Description: AutoCAD Mechanical|Company: Autodesk, Inc."
 90
     1024
 91
        1
280
     0
281
     0
  0
CLASS
  1
ACAMGTITLESTD
  2
AcAmgTitleStd
  3
"AmgTitle|Product Description: AutoCAD Mechanical|Company: Autodesk, Inc."
 90
     4095
 91
        1
280
     0
281
     0
  0
CLASS
  1
ACMDATADICTIONARY
  2
AcmDataDictionary
  3
"AcmSymBB|Product Description: AutoCAD Mechanical|Company: Autodesk, Inc."
 90
     1024
 91
        1
280
     0
281
     0
  0
CLASS
  1
ACMDATAENTRYBLOCK
  2
AcmDataEntryBlock
  3
AcmSymBB|Product Description: AutoCAD Mechanical|Company: Autodesk, Inc.
 90
     1024
 91
        0
280
     0
281
     0
  0
CLASS
  1
LAYER_INDEX
  2
AcDbLayerIndex
  3
ObjectDBX Classes
 90
        0
 91
        0
280
     0
281
     0
  0
CLASS
  1
IDBUFFER
  2
AcDbIdBuffer
  3
ObjectDBX Classes
 90
        0
 91
        0
280
     0
281
     0
  0
CLASS
  1
ACMNOTESTANDARDJIS
  2
AmdtNoteStdJIS
  3
"Amdt_StdImp|Product Description: AutoCAD Mechanical|Company: Autodesk, Inc."
 90
     1024
 91
        0
280
     0
281
     0
  0
CLASS
  1
ACAMGHOLECHARTSTDJIS
  2
AcAmgHoleChartStdJIS
  3
AmgDim|Product Description: AutoCAD Mechanical|Company: Autodesk, Inc.
 90
     1024
 91
        0
280
     0
281
     0
  0
CLASS
  1
AM_DRAWING_MGR
  2
AcDmDwgMgr
  3
AcMechDwgViewMgmt
 90
     1024
 91
        1
280
     0
281
     0
  0
CLASS
  1
AM_DWG_DOCUMENT
  2
AcDmDwgDocument
  3
AcMechDwgViewMgmt
 90
     1024
 91
        1
280
     0
281
     0
  0
CLASS
  1
AM_DWG_SHEET
  2
AcDmSheet
  3
AcMechDwgViewMgmt
 90
     1024
 91
        2
280
     0
281
     0
  0
CLASS
  1
AM_VIEWDIMPARMAP
  2
AcDmViewDimParMap
  3
AcMechDwgViewMgmt
 90
     1024
 91
        2
280
     0
281
     0
  0
CLASS
  1
AM_DWGMGR_NAME
  2
AcDmDwgMgrName
  3
AcMechDwgViewMgmt
 90
     1024
 91
        1
280
     0
281
     0
  0
CLASS
  1
AMDTMENUSTATEMGR
  2
AmdtMenuStateMgr
  3
McadcomServices
 90
     1024
 91
        1
280
     0
281
     0
  0
CLASS
  1
AMDTMCOMMENUSTATE
  2
AmdtMcomMenuState
  3
McadcomServices
 90
     1024
 91
        1
280
     0
281
     0
  0
CLASS
  1
MAPIAMMOUDLE
  2
MApiAmModule
  3
MApiAmServices
 90
     1024
 91
        1
280
     0
281
     0
  0
CLASS
  1
AMDTADMENUSTATE
  2
AmdtAdMenuState
  3
DesignerServices
 90
     1024
 91
        1
280
     0
281
     0
  0
CLASS
  1
ADAPPL
  2
AcAdAppl
  3
DesignerServices
 90
     1024
 91
        1
280
     0
281
     0
  0
CLASS
  1
DEPMGR
  2
AcAdDepMgr
  3
DesignerServices
 90
     1024
 91
        1
280
     0
281
     0
  0
CLASS
  1
PARAMMGR
  2
AcAdParamMgr
  3
DesignerServices
 90
     1024
 91
        1
280
     0
281
     0
  0
CLASS
  1
PARAMSCOPE
  2
AcAdParamScope
  3
DesignerServices
 90
     1024
 91
        1
280
     0
281
     0
  0
CLASS
  1
NAMEDAPPL
  2
AcAdNamedAppl
  3
DesignerServices
 90
     1024
 91
        1
280
     0
281
     0
  0
CLASS
  1
AMDTDMMENUSTATE
  2
AmdtDmMenuState
  3
AcMechDwgViewMgmt
 90
     1024
 91
        1
280
     0
281
     0
  0
CLASS
  1
AMDTAMMENUSTATE
  2
AmdtAmMenuState
  3
DesignerAssemblies
 90
     1024
 91
        1
280
     0
281
     0
  0
CLASS
  1
ACAMPROJECT
  2
AcAmProject
  3
DesignerAssemblies
 90
     1024
 91
        1
280
     0
281
     0
  0
CLASS
  1
ACAMGRCOMPDEF
  2
AcAmGrCompDef
  3
DesignerAssemblies
 90
     1024
 91
        1
280
     0
281
     0
  0
CLASS
  1
ACCMCONTEXT
  2
AcCmContext
  3
DesignerAssemblies
 90
     1024
 91
        1
280
     0
281
     0
  0
CLASS
  1
ACAMCOMPDEF
  2
AcAmCompDef
  3
DesignerAssemblies
 90
     1024
 91
        1
280
     0
281
     0
  0
CLASS
  1
ACAMCOMPDEFMGR
  2
AcAmCompDefMgr
  3
DesignerAssemblies
 90
     1024
 91
        1
280
     0
281
     0
  0
CLASS
  1
AMCONTEXTMGR
  2
AcAmContextMgr
  3
DesignerAssemblies
 90
     1024
 91
        1
280
     0
281
     0
  0
CLASS
  1
ACAMCONTEXTMODELER
  2
AcAmContextModeler
  3
DesignerAssemblies
 90
     1024
 91
        1
280
     0
281
     0
  0
CLASS
  1
CATALOGSTATE
  2
AcAmCatalogState
  3
DesignerAssemblies
 90
     1024
 91
        1
280
     0
281
     0
  0
CLASS
  1
ACAMGRCOMPDEFSET
  2
AcAmGrCompDefSet
  3
DesignerAssemblies
 90
     1024
 91
        1
280
     0
281
     0
  0
CLASS
  1
AMDTBROWSERDBTAB
  2
AmdtBrowserDbTab
  3
McadcomServices
 90
     1024
 91
        1
280
     0
281
     0
  0
CLASS
  1
CBROWSERAPPOBJECT
  2
CBrowserAppObject
  3
McadcomServices
 90
     1024
 91
        3
280
     0
281
     0
  0
CLASS
  1
DM_PLACEHOLDER
  2
AcDmSelsetPlaceholder
  3
AcMechDwgViewMgmt
 90
     1024
 91
        1
280
     0
281
     0
  0
CLASS
  1
TABLESTYLE
  2
AcDbTableStyle
  3
ObjectDBX Classes
 90
     4095
 91
        1
280
     0
281
     0
  0
CLASS
  1
VAACXREFPANELOBJECT
  2
VaAcXREFPanelObject
  3
VAAC_ADDIN
 90
        0
 91
        0
280
     0
281
     0
  0
CLASS
  1
VAACIMAGEINVENTORY
  2
VaAcImageInventory
  3
VAAC_ADDIN
 90
        0
 91
        0
280
     0
281
     0
  0
CLASS
  1
AMDTNOTETEMPLATEDB
  2
AmdtNoteTemplateDB
  3
AcmSymBB|Product Description: AutoCAD Mechanical|Company: Autodesk, Inc.
 90
     1024
 91
        6
280
     0
281
     0
  0
CLASS
  1
ACAMGFILTERDAT
  2
AcAmgFilterDat
  3
"AcadM|Product Description: AutoCAD Mechanical|Company: Autodesk, Inc."
 90
     1024
 91
        0
280
     0
281
     0
  0
CLASS
  1
MATERIAL
  2
AcDbMaterial
  3
ObjectDBX Classes
 90
     1153
 91
        3
280
     0
281
     0
  0
CLASS
  1
VISUALSTYLE
  2
AcDbVisualStyle
  3
ObjectDBX Classes
 90
     4095
 91
       16
280
     0
281
     0
  0
CLASS
  1
ACRFATTGENMGR
  2
AcRfAttGeneralMgr
  3
AcAttribServices
 90
     1024
 91
        0
280
     0
281
     0
  0
CLASS
  1
ACRFOBJATTMGR
  2
AcRfObjAttGroupMgr
  3
AcAttribServices
 90
     1024
 91
        0
280
     0
281
     0
  0
CLASS
  1
ACRFMCADAPIATTHOLDER
  2
AcRfMCADAPIAttHolder
  3
AcAttribServices
 90
     1024
 91
        0
280
     0
281
     0
  0
CLASS
  1
AMDTSYSATTR
  2
AmdtSystemAttribute
  3
AcAttribServices
 90
     1024
 91
        0
280
     0
281
     0
  0
CLASS
  1
ACMTAPERSTANDARDJIS
  2
AcmTaperStdJIS
  3
"Amdt_StdImp|Product Description: AutoCAD Mechanical|Company: Autodesk, Inc."
 90
     1024
 91
        0
280
     0
281
     0
  0
CLASS
  1
CAMSSTRUCTBTNSTATE
  2
StructBtnState
  3
DesignerAssemblies
 90
     1024
 91
        0
280
     0
281
     0
  0
CLASS
  1
SCALE
  2
AcDbScale
  3
ObjectDBX Classes
 90
     1153
 91
       34
280
     0
281
     0
  0
CLASS
  1
MLEADERSTYLE
  2
AcDbMLeaderStyle
  3
ACDB_MLEADERSTYLE_CLASS
 90
     4095
 91
        1
280
     0
281
     0
  0
CLASS
  1
ACMANOOTATIONVIEWSTANDARDJIS
  2
AmdtAnViewStdJIS
  3
"Amdt_StdImp|Product Description: AutoCAD Mechanical|Company: Autodesk, Inc."
 90
     1024
 91
        0
280
     0
281
     0
  0
CLASS
  1
ACMSURFSTANDARDJIS2003
  2
AcmSurfTextStdJIS2003
  3
"Amdt_StdImp|Product Description: AutoCAD Mechanical|Company: Autodesk, Inc."
 90
     1024
 91
        0
280
     0
281
     0
  0
CLASS
  1
CELLSTYLEMAP
  2
AcDbCellStyleMap
  3
ObjectDBX Classes
 90
     1152
 91
        2
280
     0
281
     0
  0
CLASS
  1
ACMFCFSTANDARDJIS98
  2
AcmFCFStdJIS98
  3
"Amdt_StdImp|Product Description: AutoCAD Mechanical|Company: Autodesk, Inc."
 90
     1024
 91
        0
280
     0
281
     0
  0
CLASS
  1
SORTENTSTABLE
  2
AcDbSortentsTable
  3
ObjectDBX Classes
 90
        0
 91
       11
280
     0
281
     0
  0
CLASS
  1
DIMASSOC
  2
AcDbDimAssoc
  3
"AcDbDimAssoc|Product Desc:     AcDim ARX App For Dimension|Company:          Autodesk, Inc.|WEB Address:      www.autodesk.com"
 90
        0
 91
       15
280
     0
281
     0
  0
CLASS
  1
STDPART2D
  2
AmgStdPart
  3
AmgStdPart|Product Description: AutoCAD Mechanical|Company: Autodesk, Inc.
 90
     4095
 91
        0
280
     0
281
     1
  0
CLASS
  1
ACMDATAENTRYPART
  2
AcmDataEntryPart
  3
AcmSymBB|Product Description: AutoCAD Mechanical|Company: Autodesk, Inc.
 90
     1024
 91
        0
280
     0
281
     0
  0
CLASS
  1
ACMPARTREF
  2
AcmPartRef
  3
"AcmSymBB|Product Description: AutoCAD Mechanical|Company: Autodesk, Inc."
 90
     4095
 91
        0
280
     0
281
     1
  0
CLASS
  1
ACDBSTDPARTRES_LINE
  2
AcDbStdPartRes_Line
  3
AmgStdPart|Product Description: AutoCAD Mechanical|Company: Autodesk, Inc.
 90
     1024
 91
        0
280
     0
281
     0
  0
CLASS
  1
ACMBOM
  2
AcmBom
  3
"AcmSymBB|Product Description: AutoCAD Mechanical|Company: Autodesk, Inc."
 90
     1024
 91
        0
280
     0
281
     0
  0
CLASS
  1
AMDTFORMULAUPDATEDISPATCHER
  2
AmdtFormulaUpdateDispatcher
  3
AcMeServices
 90
     1024
 91
        0
280
     0
281
     0
  0
CLASS
  1
ACMBOMROW
  2
AcmBomRow
  3
"AcmSymBB|Product Description: AutoCAD Mechanical|Company: Autodesk, Inc."
 90
     1024
 91
        0
280
     0
281
     0
  0
CLASS
  1
ACMPARTLIST
  2
AcmPartList
  3
"AcmSymBB|Product Description: AutoCAD Mechanical|Company: Autodesk, Inc."
 90
     4095
 91
        0
280
     0
281
     1
  0
CLASS
  1
ACDBLINERES
  2
AcDbLineRes
  3
AcGrefServices
 90
     1024
 91
        0
280
     0
281
     0
  0
CLASS
  1
ACRFINSADJ
  2
AcRfInsAdjuster
  3
AcMeServices
 90
     1024
 91
        0
280
     0
281
     0
  0
CLASS
  1
ACMSTANDARDISO
  2
AcmStandardISO
  3
"Amdt_StdImp|Product Description: AutoCAD Mechanical|Company: Autodesk, Inc."
 90
     1024
 91
        1
280
     0
281
     0
  0
CLASS
  1
AMDTEDGESTANDARDISO13715
  2
AmdtEdgeStdISO13715
  3
"Amdt_StdImp|Product Description: AutoCAD Mechanical|Company: Autodesk, Inc."
 90
     1024
 91
        1
280
     0
281
     0
  0
CLASS
  1
ACMSURFSTANDARDISO2002
  2
AcmSurfTextStdISO2002
  3
"Amdt_StdImp|Product Description: AutoCAD Mechanical|Company: Autodesk, Inc."
 90
     1024
 91
        1
280
     0
281
     0
  0
CLASS
  1
ACMFCFSTANDARDISO
  2
AcmFCFStdISO
  3
"Amdt_StdImp|Product Description: AutoCAD Mechanical|Company: Autodesk, Inc."
 90
     1024
 91
        1
280
     0
281
     0
  0
CLASS
  1
ACMWELDSTANDARDISO
  2
AcmWeldingStdISO
  3
"Amdt_StdImp|Product Description: AutoCAD Mechanical|Company: Autodesk, Inc."
 90
     1024
 91
        1
280
     0
281
     0
  0
CLASS
  1
ACMIDSTANDARDISO
  2
AcmIdStdISO
  3
"Amdt_StdImp|Product Description: AutoCAD Mechanical|Company: Autodesk, Inc."
 90
     1024
 91
        1
280
     0
281
     0
  0
CLASS
  1
ACMDATUMSTANDARDISO
  2
AcmDatumStdISO
  3
"Amdt_StdImp|Product Description: AutoCAD Mechanical|Company: Autodesk, Inc."
 90
     1024
 91
        1
280
     0
281
     0
  0
CLASS
  1
ACMBOMSTANDARDISO
  2
AcmBOMStdISO
  3
"Amdt_StdImp|Product Description: AutoCAD Mechanical|Company: Autodesk, Inc."
 90
     1024
 91
        1
280
     0
281
     0
  0
CLASS
  1
ACMDETAILSTANDARDISO
  2
AmdtDetailSymStdISO
  3
"Amdt_StdImp|Product Description: AutoCAD Mechanical|Company: Autodesk, Inc."
 90
     1024
 91
        1
280
     0
281
     0
  0
CLASS
  1
ACMSECTIONSTANDARDISO2001
  2
AmdtSectionSymStdISO2001
  3
"Amdt_StdImp|Product Description: AutoCAD Mechanical|Company: Autodesk, Inc."
 90
     1024
 91
        1
280
     0
281
     0
  0
CLASS
  1
ACMCENTERLINESTANDARDISO
  2
AmdtCenterLineStdISO
  3
"Amdt_StdImp|Product Description: AutoCAD Mechanical|Company: Autodesk, Inc."
 90
     1024
 91
        1
280
     0
281
     0
  0
CLASS
  1
ACMTHREADLINESTANDARDISO
  2
AmdtThreadLineStdISO
  3
"Amdt_StdImp|Product Description: AutoCAD Mechanical|Company: Autodesk, Inc."
 90
     1024
 91
        1
280
     0
281
     0
  0
CLASS
  1
ACMNOTESTANDARDISO
  2
AmdtNoteStdISO
  3
"Amdt_StdImp|Product Description: AutoCAD Mechanical|Company: Autodesk, Inc."
 90
     1024
 91
        1
280
     0
281
     0
  0
CLASS
  1
ACMTAPERSTANDARDISO
  2
AcmTaperStdISO
  3
"Amdt_StdImp|Product Description: AutoCAD Mechanical|Company: Autodesk, Inc."
 90
     1024
 91
        1
280
     0
281
     0
  0
CLASS
  1
ACMANOOTATIONVIEWSTANDARDISO
  2
AmdtAnViewStdISO
  3
"Amdt_StdImp|Product Description: AutoCAD Mechanical|Company: Autodesk, Inc."
 90
     1024
 91
        1
280
     0
281
     0
  0
CLASS
  1
ACAMGHOLECHARTSTDISO
  2
AcAmgHoleChartStdISO
  3
AmgDim|Product Description: AutoCAD Mechanical|Company: Autodesk, Inc.
 90
     1024
 91
        1
280
     0
281
     0
  0
CLASS
  1
EXACXREFPANELOBJECT
  2
ExAcXREFPanelObject
  3
EXAC_ESW
 90
     1025
 91
        0
280
     0
281
     0
  0
CLASS
  1
NPOCOLLECTION
  2
AcDbImpNonPersistentObjectsCollection
  3
ObjectDBX Classes
 90
     1153
 91
        0
280
     0
281
     0
  0
CLASS
  1
ACDBSTDPARTRES_ARC
  2
AcDbStdPartRes_Arc
  3
AmgStdPart|Product Description: AutoCAD Mechanical|Company: Autodesk, Inc.
 90
     1024
 91
        0
280
     0
281
     0
  0
CLASS
  1
AMDTNOTE
  2
AmdtNote
  3
"AcmSymBB|Product Description: AutoCAD Mechanical|Company: Autodesk, Inc."
 90
     4095
 91
        0
280
     0
281
     1
  0
CLASS
  1
PLOTSETTINGS
  2
AcDbPlotSettings
  3
ObjectDBX Classes
 90
        0
 91
        1
280
     0
281
     0
  0
CLASS
  1
ACMSTANDARDANSI
  2
AcmStandardANSI
  3
"Amdt_StdImp|Product Description: AutoCAD Mechanical|Company: Autodesk, Inc."
 90
     1024
 91
        0
280
     0
281
     0
  0
CLASS
  1
ACMSURFSTANDARDANSI
  2
AcmSurfTextStdANSI
  3
"Amdt_StdImp|Product Description: AutoCAD Mechanical|Company: Autodesk, Inc."
 90
     1024
 91
        0
280
     0
281
     0
  0
CLASS
  1
ACMFCFSTANDARDANSI
  2
AcmFCFStdANSI
  3
"Amdt_StdImp|Product Description: AutoCAD Mechanical|Company: Autodesk, Inc."
 90
     1024
 91
        0
280
     0
281
     0
  0
CLASS
  1
ACMWELDSTANDARDANSI
  2
AcmWeldingStdANSI
  3
"Amdt_StdImp|Product Description: AutoCAD Mechanical|Company: Autodesk, Inc."
 90
     1024
 91
        0
280
     0
281
     0
  0
CLASS
  1
ACMIDSTANDARDANSI
  2
AcmIdStdANSI
  3
"Amdt_StdImp|Product Description: AutoCAD Mechanical|Company: Autodesk, Inc."
 90
     1024
 91
        0
280
     0
281
     0
  0
CLASS
  1
ACMDATUMSTANDARDANSI
  2
AcmDatumStdANSI
  3
"Amdt_StdImp|Product Description: AutoCAD Mechanical|Company: Autodesk, Inc."
 90
     1024
 91
        0
280
     0
281
     0
  0
CLASS
  1
ACMBOMSTANDARDANSI
  2
AcmBOMStdANSI
  3
"Amdt_StdImp|Product Description: AutoCAD Mechanical|Company: Autodesk, Inc."
 90
     1024
 91
        0
280
     0
281
     0
  0
CLASS
  1
ACMDETAILSTANDARDANSI
  2
AmdtDetailSymStdANSI
  3
"Amdt_StdImp|Product Description: AutoCAD Mechanical|Company: Autodesk, Inc."
 90
     1024
 91
        0
280
     0
281
     0
  0
CLASS
  1
ACMSECTIONSTANDARDANSI
  2
AmdtSectionSymStdANSI
  3
"Amdt_StdImp|Product Description: AutoCAD Mechanical|Company: Autodesk, Inc."
 90
     1024
 91
        0
280
     0
281
     0
  0
CLASS
  1
ACMCENTERLINESTANDARDANSI
  2
AmdtCenterLineStdANSI
  3
"Amdt_StdImp|Product Description: AutoCAD Mechanical|Company: Autodesk, Inc."
 90
     1024
 91
        0
280
     0
281
     0
  0
CLASS
  1
ACMTHREADLINESTANDARDANSI
  2
AmdtThreadLineStdANSI
  3
"Amdt_StdImp|Product Description: AutoCAD Mechanical|Company: Autodesk, Inc."
 90
     1024
 91
        0
280
     0
281
     0
  0
CLASS
  1
ACMNOTESTANDARDANSI
  2
AmdtNoteStdANSI
  3
"Amdt_StdImp|Product Description: AutoCAD Mechanical|Company: Autodesk, Inc."
 90
     1024
 91
        0
280
     0
281
     0
  0
CLASS
  1
ACMTAPERSTANDARDANSI
  2
AcmTaperStdANSI
  3
"Amdt_StdImp|Product Description: AutoCAD Mechanical|Company: Autodesk, Inc."
 90
     1024
 91
        0
280
     0
281
     0
  0
CLASS
  1
ACMANOOTATIONVIEWSTANDARDANSI
  2
AmdtAnViewStdANSI
  3
"Amdt_StdImp|Product Description: AutoCAD Mechanical|Company: Autodesk, Inc."
 90
     1024
 91
        0
280
     0
281
     0
  0
CLASS
  1
ACAMGHOLECHARTSTDANSI
  2
AcAmgHoleChartStdANSI
  3
AmgDim|Product Description: AutoCAD Mechanical|Company: Autodesk, Inc.
 90
     1024
 91
        0
280
     0
281
     0
  0
CLASS
  1
ACMSTANDARDBSI
  2
AcmStandardBSI
  3
"Amdt_StdImp|Product Description: AutoCAD Mechanical|Company: Autodesk, Inc."
 90
     1024
 91
        0
280
     0
281
     0
  0
CLASS
  1
ACMSURFSTANDARDBSI2002
  2
AcmSurfTextStdBSI2002
  3
"Amdt_StdImp|Product Description: AutoCAD Mechanical|Company: Autodesk, Inc."
 90
     1024
 91
        0
280
     0
281
     0
  0
CLASS
  1
ACMFCFSTANDARDBSI
  2
AcmFCFStdBSI
  3
"Amdt_StdImp|Product Description: AutoCAD Mechanical|Company: Autodesk, Inc."
 90
     1024
 91
        0
280
     0
281
     0
  0
CLASS
  1
ACMWELDSTANDARDBSI
  2
AcmWeldingStdBSI
  3
"Amdt_StdImp|Product Description: AutoCAD Mechanical|Company: Autodesk, Inc."
 90
     1024
 91
        0
280
     0
281
     0
  0
CLASS
  1
ACMIDSTANDARDBSI
  2
AcmIdStdBSI
  3
"Amdt_StdImp|Product Description: AutoCAD Mechanical|Company: Autodesk, Inc."
 90
     1024
 91
        0
280
     0
281
     0
  0
CLASS
  1
ACMDATUMSTANDARDBSI
  2
AcmDatumStdBSI
  3
"Amdt_StdImp|Product Description: AutoCAD Mechanical|Company: Autodesk, Inc."
 90
     1024
 91
        0
280
     0
281
     0
  0
CLASS
  1
ACMBOMSTANDARDBSI
  2
AcmBOMStdBSI
  3
"Amdt_StdImp|Product Description: AutoCAD Mechanical|Company: Autodesk, Inc."
 90
     1024
 91
        0
280
     0
281
     0
  0
CLASS
  1
ACMDETAILSTANDARDBSI
  2
AmdtDetailSymStdBSI
  3
"Amdt_StdImp|Product Description: AutoCAD Mechanical|Company: Autodesk, Inc."
 90
     1024
 91
        0
280
     0
281
     0
  0
CLASS
  1
ACMSECTIONSTANDARDBSI2001
  2
AmdtSectionSymStdBSI2001
  3
"Amdt_StdImp|Product Description: AutoCAD Mechanical|Company: Autodesk, Inc."
 90
     1024
 91
        0
280
     0
281
     0
  0
CLASS
  1
ACMCENTERLINESTANDARDBSI
  2
AmdtCenterLineStdBSI
  3
"Amdt_StdImp|Product Description: AutoCAD Mechanical|Company: Autodesk, Inc."
 90
     1024
 91
        0
280
     0
281
     0
  0
CLASS
  1
ACMTHREADLINESTANDARDBSI
  2
AmdtThreadLineStdBSI
  3
"Amdt_StdImp|Product Description: AutoCAD Mechanical|Company: Autodesk, Inc."
 90
     1024
 91
        0
280
     0
281
     0
  0
CLASS
  1
ACMNOTESTANDARDBSI
  2
AmdtNoteStdBSI
  3
"Amdt_StdImp|Product Description: AutoCAD Mechanical|Company: Autodesk, Inc."
 90
     1024
 91
        0
280
     0
281
     0
  0
CLASS
  1
ACMTAPERSTANDARDBSI
  2
AcmTaperStdBSI
  3
"Amdt_StdImp|Product Description: AutoCAD Mechanical|Company: Autodesk, Inc."
 90
     1024
 91
        0
280
     0
281
     0
  0
CLASS
  1
ACMANOOTATIONVIEWSTANDARDBSI
  2
AmdtAnViewStdBSI
  3
"Amdt_StdImp|Product Description: AutoCAD Mechanical|Company: Autodesk, Inc."
 90
     1024
 91
        0
280
     0
281
     0
  0
CLASS
  1
ACAMGHOLECHARTSTDBSI
  2
AcAmgHoleChartStdBSI
  3
AmgDim|Product Description: AutoCAD Mechanical|Company: Autodesk, Inc.
 90
     1024
 91
        0
280
     0
281
     0
  0
CLASS
  1
AMDTEDGESTANDARDJIS
  2
AmdtEdgeStdJIS
  3
"Amdt_StdImp|Product Description: AutoCAD Mechanical|Company: Autodesk, Inc."
 90
     1024
 91
        0
280
     0
281
     0
  0
CLASS
  1
ACMSURFSYM
  2
AcmSurfaceTexture
  3
"AcmSymBB|Product Description: AutoCAD Mechanical|Company: Autodesk, Inc."
 90
     4095
 91
        0
280
     0
281
     1
  0
CLASS
  1
ACDBDIMENSIONRES
  2
AcDbDimensionRes
  3
AcmSymBB|Product Description: AutoCAD Mechanical|Company: Autodesk, Inc.
 90
     1024
 91
        0
280
     0
281
     0
  0
CLASS
  1
ACDBCIRCARCRES
  2
AcDbCircArcRes
  3
AcGrefServices
 90
     1024
 91
        0
280
     0
281
     0
  0
CLASS
  1
AMDTACMWBLOCKBOMENTITY
  2
AmdtAcmWblockBomEntity
  3
"AcmSymBB|Product Description: AutoCAD Mechanical|Company: Autodesk, Inc."
 90
     4095
 91
        0
280
     0
281
     1
  0
CLASS
  1
ACDBOPPOLYLINERES
  2
AcDbOpPolylineRes
  3
AcGrefServices
 90
     1024
 91
        0
280
     0
281
     0
  0
CLASS
  1
ACDB_BLKREFOBJECTCONTEXTDATA_CLASS
  2
AcDbBlkRefObjectContextData
  3
ObjectDBX Classes
 90
     1153
 91
        0
280
     0
281
     0
  0
CLASS
  1
BREAKDATA
  2
AcDbBreakData
  3
ObjectDBX Classes
 90
     1024
 91
        0
280
     0
281
     0
  0
CLASS
  1
ACMDIMBREAKPERSREACTOR
  2
AcmDimBreakPersReactor
  3
AmgDim|Product Description: AutoCAD Mechanical|Company: Autodesk, Inc.
 90
     4095
 91
        0
280
     0
281
     0
  0
CLASS
  1
ACMBALLOON
  2
AcmBalloon
  3
"AcmSymBB|Product Description: AutoCAD Mechanical|Company: Autodesk, Inc."
 90
     4095
 91
        0
280
     0
281
     1
  0
CLASS
  1
ACMPICKOBJ
  2
AcmPickEnt
  3
"AcmSymBB|Product Description: AutoCAD Mechanical|Company: Autodesk, Inc."
 90
     1024
 91
        0
280
     0
281
     1
  0
ENDSEC
  0
SECTION
  2
TABLES
  0
TABLE
  2
VPORT
  5
8
330
0
100
AcDbSymbolTable
 70
     1
  0
VPORT
  5
27A
330
8
100
AcDbSymbolTableRecord
100
AcDbViewportTableRecord
  2
*Active
 70
     0
 10
0.0
 20
0.0
 11
1.0
 21
1.0
 12
319.6142595718555
 22
301.7233331346866
 13
0.0
 23
0.0
 14
3.75
 24
3.75
 15
15.0
 25
15.0
 16
0.0
 26
0.0
 36
1.0
 17
0.0
 27
0.0
 37
0.0
 40
172.8384337374061
 41
1.285714285714285
 42
50.0
 43
0.0
 44
0.0
 50
0.0
 51
0.0
 71
    16
 72
 20000
 73
     1
 74
     3
 75
     0
 76
     0
 77
     0
 78
     0
281
     0
 65
     0
110
0.0
120
0.0
130
0.0
111
1.0
121
0.0
131
0.0
112
0.0
122
1.0
132
0.0
 79
     0
146
0.0
348
285
 60
     3
 61
     5
292
     1
282
     0
141
0.0
142
0.0
 63
   250
421
  3355443
  0
ENDTAB
  0
TABLE
  2
LTYPE
  5
5
330
0
100
AcDbSymbolTable
 70
    22
  0
LTYPE
  5
14
330
5
100
AcDbSymbolTableRecord
100
AcDbLinetypeTableRecord
  2
ByBlock
 70
     0
  3

 72
    65
 73
     0
 40
0.0
  0
LTYPE
  5
15
330
5
100
AcDbSymbolTableRecord
100
AcDbLinetypeTableRecord
  2
ByLayer
 70
     0
  3

 72
    65
 73
     0
 40
0.0
  0
LTYPE
  5
16
330
5
100
AcDbSymbolTableRecord
100
AcDbLinetypeTableRecord
  2
Continuous
 70
     0
  3
Solid line
 72
    65
 73
     0
 40
0.0
  0
LTYPE
  5
4D
330
5
100
AcDbSymbolTableRecord
100
AcDbLinetypeTableRecord
  2
AM_ISO02W050
 70
     0
  3
__ __ __ __ __ __ __ __ __ __ __ __ __ __ __
 72
    65
 73
     2
 40
7.5
 49
6.0
 74
     0
 49
-1.5
 74
     0
  0
LTYPE
  5
4E
330
5
100
AcDbSymbolTableRecord
100
AcDbLinetypeTableRecord
  2
AM_ISO08W050
 70
     0
  3
____ . ____ . ____ . ____ . ____ . ____ . ____
 72
    65
 73
     4
 40
18.0
 49
12.0
 74
     0
 49
-1.5
 74
     0
 49
3.0
 74
     0
 49
-1.5
 74
     0
  0
LTYPE
  5
4F
330
5
100
AcDbSymbolTableRecord
100
AcDbLinetypeTableRecord
  2
AM_ISO09W050
 70
     0
  3
_____ . . _____ . . _____ . . ____ .. ____
 72
    65
 73
     6
 40
22.5
 49
12.0
 74
     0
 49
-1.5
 74
     0
 49
3.0
 74
     0
 49
-1.5
 74
     0
 49
3.0
 74
     0
 49
-1.5
 74
     0
  0
LTYPE
  5
50
330
5
100
AcDbSymbolTableRecord
100
AcDbLinetypeTableRecord
  2
Amconstr
 70
     0
  3
_______________________
 72
    65
 73
     2
 40
9999.0
 49
9999.0
 74
     0
 49
0.0
 74
     0
  0
LTYPE
  5
51
330
5
100
AcDbSymbolTableRecord
100
AcDbLinetypeTableRecord
  2
AM_ISO08W050x2
 70
     0
  3
__ . __ . __ . __ . __ . __
 72
    65
 73
     4
 40
9.0
 49
6.0
 74
     0
 49
-0.75
 74
     0
 49
1.5
 74
     0
 49
-0.75
 74
     0
  0
LTYPE
  5
52
330
5
100
AcDbSymbolTableRecord
100
AcDbLinetypeTableRecord
  2
AM_ISO02W050x2
 70
     0
  3
 _ _ _ _ _ _ _ _ _ _ _ _
 72
    65
 73
     2
 40
3.75
 49
3.0
 74
     0
 49
-0.75
 74
     0
  0
LTYPE
  5
55
330
5
100
AcDbSymbolTableRecord
100
AcDbLinetypeTableRecord
  2
Amzigzag
 70
     0
  3
/\/-/\/-/\/-/\/-/\/-/\/
 72
    65
 73
     2
 40
11.0001
 49
0.0001
 74
     4
 75
   136
340
23D
 46
0.04
 50
0.0
 44
0.0
 45
0.0
 49
-11.0
 74
     0
  0
LTYPE
  5
65
330
5
100
AcDbSymbolTableRecord
100
AcDbLinetypeTableRecord
  2
CENTER
 70
     0
  3
__ . __
 72
    65
 73
     4
 40
7.0
 49
4.0
 74
     0
 49
-1.0
 74
     0
 49
1.0
 74
     0
 49
-1.0
 74
     0
  0
LTYPE
  5
E0
330
5
100
AcDbSymbolTableRecord
100
AcDbLinetypeTableRecord
  2
HIDDEN
 70
     0
  3
Hidden __ __ __ __ __ __ __ __ __ __ __ __ __ _
 72
    65
 73
     2
 40
9.524999999999996
 49
6.349999999999998
 74
     0
 49
-3.174999999999998
 74
     0
  0
LTYPE
  5
E1
330
5
100
AcDbSymbolTableRecord
100
AcDbLinetypeTableRecord
  2
PHANTOM2
 70
     0
  3
Phantom (.5x) ___ _ _ ___ _ _ ___ _ _ ___ _ _
 72
    65
 73
     6
 40
31.75
 49
15.875
 74
     0
 49
-3.174999999999998
 74
     0
 49
3.174999999999998
 74
     0
 49
-3.174999999999998
 74
     0
 49
3.174999999999998
 74
     0
 49
-3.174999999999998
 74
     0
  0
LTYPE
  5
5A2
330
5
100
AcDbSymbolTableRecord
100
AcDbLinetypeTableRecord
  2
ACJISWELD
 70
     0
  3
_ _ _ _ _
 72
    65
 73
     2
 40
2.0
 49
2.0
 74
     0
 49
-1.0
 74
     0
  0
LTYPE
  5
B40E
330
5
100
AcDbSymbolTableRecord
100
AcDbLinetypeTableRecord
  2
ACISOWELD
 70
     0
  3
_ _ _ _ _
 72
    65
 73
     2
 40
2.0
 49
2.0
 74
     0
 49
-1.0
 74
     0
  0
LTYPE
  5
B40F
330
5
100
AcDbSymbolTableRecord
100
AcDbLinetypeTableRecord
  2
ACISOTGB
 70
     0
  3
__ . . __ . .
 72
    65
 73
     6
 40
9.0
 49
4.0
 74
     0
 49
-1.0
 74
     0
 49
1.0
 74
     0
 49
-1.0
 74
     0
 49
1.0
 74
     0
 49
-1.0
 74
     0
  0
LTYPE
  5
B410
330
5
100
AcDbSymbolTableRecord
100
AcDbLinetypeTableRecord
  2
ACISOTGL
 70
     0
  3
_ _ _ _ _
 72
    65
 73
     2
 40
3.0
 49
2.0
 74
     0
 49
-1.0
 74
     0
  0
ENDTAB
  0
TABLE
  2
LAYER
  5
2
102
{ACAD_XDICTIONARY
360
BF
102
}
330
0
100
AcDbSymbolTable
 70
    10
  0
LAYER
  5
10
102
{ACAD_XDICTIONARY
360
2A98
102
}
330
2
100
AcDbSymbolTableRecord
100
AcDbLayerTableRecord
  2
0
 70
     0
 62
     7
  6
Continuous
370
    -3
390
F
347
27E
  0
LAYER
  5
81
102
{ACAD_XDICTIONARY
360
2A9A
102
}
330
2
100
AcDbSymbolTableRecord
100
AcDbLayerTableRecord
  2
AM_0 外形線1
 70
     0
 62
     7
  6
Continuous
370
    25
390
F
347
27E
  0
LAYER
  5
427
330
2
100
AcDbSymbolTableRecord
100
AcDbLayerTableRecord
  2
Defpoints
 70
     0
 62
     7
  6
Continuous
290
     0
370
    -3
390
F
347
27E
  0
LAYER
  5
25C9
102
{ACAD_XDICTIONARY
360
2AA1
102
}
330
2
100
AcDbSymbolTableRecord
100
AcDbLayerTableRecord
  2
AM_3 隠れ線
 70
     0
 62
     8
  6
ACJISWELD
370
    13
390
F
347
27E
1001
AcAecLayerStandard
1000

1000

  0
LAYER
  5
25CA
102
{ACAD_XDICTIONARY
360
2AA3
102
}
330
2
100
AcDbSymbolTableRecord
100
AcDbLayerTableRecord
  2
AM_4 細線
 70
     0
 62
     4
  6
Continuous
370
    13
390
F
347
27E
1001
AcAecLayerStandard
1000

1000

  0
LAYER
  5
26B3
102
{ACAD_XDICTIONARY
360
2AA9
102
}
330
2
100
AcDbSymbolTableRecord
100
AcDbLayerTableRecord
  2
AM_5 寸法線
 70
     0
 62
     3
  6
Continuous
370
    13
390
F
347
27E
1001
AcAecLayerStandard
1000

1000

  0
LAYER
  5
3D3E
330
2
100
AcDbSymbolTableRecord
100
AcDbLayerTableRecord
  2
AM_7 中心線
 70
     0
 62
     1
  6
AM_ISO08W050
370
    13
390
F
347
27E
1001
AcAecLayerStandard
1000

1000

  0
LAYER
  5
3D41
330
2
100
AcDbSymbolTableRecord
100
AcDbLayerTableRecord
  2
AM_6 文字
 70
     0
 62
     2
  6
Continuous
370
    13
390
F
347
27E
1001
AcAecLayerStandard
1000

1000

  0
LAYER
  5
ACFF
330
2
100
AcDbSymbolTableRecord
100
AcDbLayerTableRecord
  2
AM_11 想像線
 70
     0
 62
     5
  6
AM_ISO09W050
370
    13
390
F
347
27E
1001
AcAecLayerStandard
1000

1000

  0
ENDTAB
  0
TABLE
  2
STYLE
  5
3
330
0
100
AcDbSymbolTable
 70
    10
  0
STYLE
  5
11
330
3
100
AcDbSymbolTableRecord
100
AcDbTextStyleTableRecord
  2
STANDARD
 70
     0
 40
0.0
 41
1.0
 50
0.0
 71
     0
 42
25.0
  3
ISOCP.SHX
  4
EXTFONT.SHX
  0
STYLE
  5
23D
330
3
100
AcDbSymbolTableRecord
100
AcDbTextStyleTableRecord
  2

 70
     1
 40
0.0
 41
1.0
 50
0.0
 71
     0
 42
2.5
  3
genltshp.shx
  4

  0
STYLE
  5
5D5
330
3
100
AcDbSymbolTableRecord
100
AcDbTextStyleTableRecord
  2
SEISA
 70
     0
 40
0.0
 41
0.9
 50
0.0
 71
     0
 42
25.0
  3
romans.shx
  4
extfont2.shx
  0
STYLE
  5
B3FE
330
3
100
AcDbSymbolTableRecord
100
AcDbTextStyleTableRecord
  2
ACISOTS
 70
     0
 40
1.0
 41
1.0
 50
0.0
 71
     0
 42
25.0
  3
isocp.shx
  4
extfont.shx
  0
STYLE
  5
B40D
330
3
100
AcDbSymbolTableRecord
100
AcDbTextStyleTableRecord
  2
ACISOGDT
 70
     0
 40
0.0
 41
1.0
 50
0.0
 71
     0
 42
25.0
  3
amgdt.shx
  4

  0
ENDTAB
  0
TABLE
  2
VIEW
  5
6
330
0
100
AcDbSymbolTable
 70
     6
  0
VIEW
  5
91B
330
6
100
AcDbSymbolTableRecord
100
AcDbViewTableRecord
  2
AM_VIEW1
 70
     0
 40
222.75
 10
219.1838057058701
 20
334.1250005540731
 41
438.3676108374385
 11
0.0
 21
0.0
 31
1.0
 12
0.0
 22
0.0
 32
0.0
 42
50.0
 43
0.0
 44
0.0
 50
0.0
 71
    16
281
     0
 72
     0
 73
     0
  0
VIEW
  5
91C
330
6
100
AcDbSymbolTableRecord
100
AcDbViewTableRecord
  2
AM_VIEW2
 70
     0
 40
222.75
 10
410.8161948684315
 20
334.1250005540731
 41
438.3676108374385
 11
0.0
 21
0.0
 31
1.0
 12
0.0
 22
0.0
 32
0.0
 42
50.0
 43
0.0
 44
0.0
 50
0.0
 71
    16
281
     0
 72
     0
 73
     0
  0
VIEW
  5
91D
330
6
100
AcDbSymbolTableRecord
100
AcDbViewTableRecord
  2
AM_VIEW3
 70
     0
 40
222.75
 10
219.1838057058701
 20
111.3750005540731
 41
438.3676108374385
 11
0.0
 21
0.0
 31
1.0
 12
0.0
 22
0.0
 32
0.0
 42
50.0
 43
0.0
 44
0.0
 50
0.0
 71
    16
281
     0
 72
     0
 73
     0
  0
VIEW
  5
91E
330
6
100
AcDbSymbolTableRecord
100
AcDbViewTableRecord
  2
AM_VIEW4
 70
     0
 40
222.75
 10
410.8161948684315
 20
111.3750005540731
 41
438.3676108374385
 11
0.0
 21
0.0
 31
1.0
 12
0.0
 22
0.0
 32
0.0
 42
50.0
 43
0.0
 44
0.0
 50
0.0
 71
    16
281
     0
 72
     0
 73
     0
  0
VIEW
  5
91F
330
6
100
AcDbSymbolTableRecord
100
AcDbViewTableRecord
  2
AM_VIEW5
 70
     0
 40
222.75
 10
315.0000002871508
 20
222.7500005540731
 41
438.3676108374386
 11
0.0
 21
0.0
 31
1.0
 12
0.0
 22
0.0
 32
0.0
 42
50.0
 43
0.0
 44
0.0
 50
0.0
 71
    16
281
     0
 72
     0
 73
     0
  0
VIEW
  5
920
330
6
100
AcDbSymbolTableRecord
100
AcDbViewTableRecord
  2
AM_VIEW6
 70
     0
 40
445.4955449999999
 10
315.0000002871508
 20
222.7500005540731
 41
876.7264543226604
 11
0.0
 21
0.0
 31
1.0
 12
0.0
 22
0.0
 32
0.0
 42
50.0
 43
0.0
 44
0.0
 50
0.0
 71
    16
281
     0
 72
     0
 73
     0
  0
ENDTAB
  0
TABLE
  2
UCS
  5
7
330
0
100
AcDbSymbolTable
 70
     0
  0
ENDTAB
  0
TABLE
  2
APPID
  5
9
330
0
100
AcDbSymbolTable
 70
   393
  0
APPID
  5
12
330
9
100
AcDbSymbolTableRecord
100
AcDbRegAppTableRecord
  2
ACAD
 70
     0
  0
APPID
  5
30
330
9
100
AcDbSymbolTableRecord
100
AcDbRegAppTableRecord
  2
MCAD_NO_VIS
 70
     0
  0
APPID
  5
31
330
9
100
AcDbSymbolTableRecord
100
AcDbRegAppTableRecord
  2
ACAD_TEMP_GRAPHIC
 70
     0
  0
APPID
  5
44
330
9
100
AcDbSymbolTableRecord
100
AcDbRegAppTableRecord
  2
ACATTRIBSERVICES
 70
     0
  0
APPID
  5
F6
330
9
100
AcDbSymbolTableRecord
100
AcDbRegAppTableRecord
  2
AD_DRAW
 70
     0
  0
APPID
  5
114
330
9
100
AcDbSymbolTableRecord
100
AcDbRegAppTableRecord
  2
DESIGNERASSEMBLIES
 70
     0
  0
APPID
  5
118
330
9
100
AcDbSymbolTableRecord
100
AcDbRegAppTableRecord
  2
ACADM_DIM_EDIT
 70
     0
  0
APPID
  5
119
330
9
100
AcDbSymbolTableRecord
100
AcDbRegAppTableRecord
  2
AMDT_DM_ADJ
 70
     0
  0
APPID
  5
1AF
330
9
100
AcDbSymbolTableRecord
100
AcDbRegAppTableRecord
  2
ACAD_DSTYLE_DIMARC_LENGTH_SYMBOL
 70
     0
  0
APPID
  5
1B0
330
9
100
AcDbSymbolTableRecord
100
AcDbRegAppTableRecord
  2
ACAD_DSTYLE_DIMJOGGED_JOGANGLE_SYMBOL
 70
     0
  0
APPID
  5
2D7
330
9
100
AcDbSymbolTableRecord
100
AcDbRegAppTableRecord
  2
ACAD_MLEADERVER
 70
     0
  0
APPID
  5
355
330
9
100
AcDbSymbolTableRecord
100
AcDbRegAppTableRecord
  2
AcadAnnoPO
 70
     0
  0
APPID
  5
428
330
9
100
AcDbSymbolTableRecord
100
AcDbRegAppTableRecord
  2
ACAD_DSTYLE_DIMTEXT_FILL
 70
     0
  0
APPID
  5
429
330
9
100
AcDbSymbolTableRecord
100
AcDbRegAppTableRecord
  2
GENIUS_GENSCREG_15
 70
     0
  0
APPID
  5
42A
330
9
100
AcDbSymbolTableRecord
100
AcDbRegAppTableRecord
  2
GENIUS_GENOBJ-N-SDF_13
 70
     0
  0
APPID
  5
42B
330
9
100
AcDbSymbolTableRecord
100
AcDbRegAppTableRecord
  2
GENIUS_GENODEF_13
 70
     0
  0
APPID
  5
42C
330
9
100
AcDbSymbolTableRecord
100
AcDbRegAppTableRecord
  2
ACAD_EXEMPT_FROM_CAD_STANDARDS
 70
     0
  0
APPID
  5
42D
330
9
100
AcDbSymbolTableRecord
100
AcDbRegAppTableRecord
  2
AcAecLayerStandard
 70
     0
  0
APPID
  5
42E
330
9
100
AcDbSymbolTableRecord
100
AcDbRegAppTableRecord
  2
GENIUS_GENOBJ-N-CEN_13
 70
     0
  0
APPID
  5
42F
330
9
100
AcDbSymbolTableRecord
100
AcDbRegAppTableRecord
  2
GENIUS_GENCEN_19
 70
     0
  0
APPID
  5
430
330
9
100
AcDbSymbolTableRecord
100
AcDbRegAppTableRecord
  2
ACAD_DSTYLE_DIMINSPECT
 70
     0
  0
APPID
  5
431
330
9
100
AcDbSymbolTableRecord
100
AcDbRegAppTableRecord
  2
GENIUS_AMGTXT_16
 70
     0
  0
APPID
  5
432
330
9
100
AcDbSymbolTableRecord
100
AcDbRegAppTableRecord
  2
GENIUS_GENFIL_13
 70
     0
  0
APPID
  5
433
330
9
100
AcDbSymbolTableRecord
100
AcDbRegAppTableRecord
  2
GENIUS_GENOLIS_13
 70
     0
  0
APPID
  5
434
330
9
100
AcDbSymbolTableRecord
100
AcDbRegAppTableRecord
  2
GENIUS_GENOBJ-N-CHA_13
 70
     0
  0
APPID
  5
435
330
9
100
AcDbSymbolTableRecord
100
AcDbRegAppTableRecord
  2
GENIUS_GENOENT_13
 70
     0
  0
APPID
  5
436
330
9
100
AcDbSymbolTableRecord
100
AcDbRegAppTableRecord
  2
GENIUS_GENOREF_13
 70
     0
  0
APPID
  5
437
330
9
100
AcDbSymbolTableRecord
100
AcDbRegAppTableRecord
  2
GENIUS_GENOBJ-N-FIL_13
 70
     0
  0
APPID
  5
438
330
9
100
AcDbSymbolTableRecord
100
AcDbRegAppTableRecord
  2
GEVID1208829536
 70
     0
  0
APPID
  5
439
330
9
100
AcDbSymbolTableRecord
100
AcDbRegAppTableRecord
  2
GEVDC
 70
     0
  0
APPID
  5
43A
330
9
100
AcDbSymbolTableRecord
100
AcDbRegAppTableRecord
  2
GEVRADREF
 70
     0
  0
APPID
  5
43B
330
9
100
AcDbSymbolTableRecord
100
AcDbRegAppTableRecord
  2
GENIUS_GENBH_13
 70
     0
  0
APPID
  5
43C
330
9
100
AcDbSymbolTableRecord
100
AcDbRegAppTableRecord
  2
GENIUS_GENOBJ-NBEHI-BHF_13
 70
     0
  0
APPID
  5
43D
330
9
100
AcDbSymbolTableRecord
100
AcDbRegAppTableRecord
  2
GENIUS_GENOBJ-NBEHI-BHB_13
 70
     0
  0
APPID
  5
43E
330
9
100
AcDbSymbolTableRecord
100
AcDbRegAppTableRecord
  2
GEVID1208829537
 70
     0
  0
APPID
  5
43F
330
9
100
AcDbSymbolTableRecord
100
AcDbRegAppTableRecord
  2
ACAD_DSTYLE_DIMJAG
 70
     0
  0
APPID
  5
440
330
9
100
AcDbSymbolTableRecord
100
AcDbRegAppTableRecord
  2
ACAD_DSTYLE_DIMTALN
 70
     0
  0
APPID
  5
441
330
9
100
AcDbSymbolTableRecord
100
AcDbRegAppTableRecord
  2
AMG_2DHIDE
 70
     0
  0
APPID
  5
442
330
9
100
AcDbSymbolTableRecord
100
AcDbRegAppTableRecord
  2
AMG_2DSTRUCT_BTR
 70
     0
  0
APPID
  5
443
330
9
100
AcDbSymbolTableRecord
100
AcDbRegAppTableRecord
  2
GEVID1208845772
 70
     0
  0
APPID
  5
444
330
9
100
AcDbSymbolTableRecord
100
AcDbRegAppTableRecord
  2
GEVID1208845773
 70
     0
  0
APPID
  5
445
330
9
100
AcDbSymbolTableRecord
100
AcDbRegAppTableRecord
  2
ACADM_2DVIEW_IGN_NOTIFY
 70
     0
  0
APPID
  5
446
330
9
100
AcDbSymbolTableRecord
100
AcDbRegAppTableRecord
  2
GEVID1208845774
 70
     0
  0
APPID
  5
447
330
9
100
AcDbSymbolTableRecord
100
AcDbRegAppTableRecord
  2
GEVID1208845775
 70
     0
  0
APPID
  5
448
330
9
100
AcDbSymbolTableRecord
100
AcDbRegAppTableRecord
  2
GEVID1208845776
 70
     0
  0
APPID
  5
449
330
9
100
AcDbSymbolTableRecord
100
AcDbRegAppTableRecord
  2
GEVID1208845777
 70
     0
  0
APPID
  5
44A
330
9
100
AcDbSymbolTableRecord
100
AcDbRegAppTableRecord
  2
GEVCON
 70
     0
  0
APPID
  5
44B
330
9
100
AcDbSymbolTableRecord
100
AcDbRegAppTableRecord
  2
GENIUS_GENOBJ-F-SCPASSM_13
 70
     0
  0
APPID
  5
44C
330
9
100
AcDbSymbolTableRecord
100
AcDbRegAppTableRecord
  2
GEVID1208845778
 70
     0
  0
APPID
  5
44D
330
9
100
AcDbSymbolTableRecord
100
AcDbRegAppTableRecord
  2
GEVID1208845779
 70
     0
  0
APPID
  5
44E
330
9
100
AcDbSymbolTableRecord
100
AcDbRegAppTableRecord
  2
GEVID1208845780
 70
     0
  0
APPID
  5
44F
330
9
100
AcDbSymbolTableRecord
100
AcDbRegAppTableRecord
  2
GEVID1208845781
 70
     0
  0
APPID
  5
450
330
9
100
AcDbSymbolTableRecord
100
AcDbRegAppTableRecord
  2
GEVID1208845782
 70
     0
  0
APPID
  5
451
330
9
100
AcDbSymbolTableRecord
100
AcDbRegAppTableRecord
  2
GEVID1208845783
 70
     0
  0
APPID
  5
452
330
9
100
AcDbSymbolTableRecord
100
AcDbRegAppTableRecord
  2
GEVID1208845784
 70
     0
  0
APPID
  5
453
330
9
100
AcDbSymbolTableRecord
100
AcDbRegAppTableRecord
  2
GEVID1208845785
 70
     0
  0
APPID
  5
454
330
9
100
AcDbSymbolTableRecord
100
AcDbRegAppTableRecord
  2
GEVID1208845787
 70
     0
  0
APPID
  5
455
330
9
100
AcDbSymbolTableRecord
100
AcDbRegAppTableRecord
  2
GEVID1208845788
 70
     0
  0
APPID
  5
456
330
9
100
AcDbSymbolTableRecord
100
AcDbRegAppTableRecord
  2
GEVID1208845789
 70
     0
  0
APPID
  5
457
330
9
100
AcDbSymbolTableRecord
100
AcDbRegAppTableRecord
  2
GEVID1208845790
 70
     0
  0
APPID
  5
458
330
9
100
AcDbSymbolTableRecord
100
AcDbRegAppTableRecord
  2
GEVID1208845791
 70
     0
  0
APPID
  5
459
330
9
100
AcDbSymbolTableRecord
100
AcDbRegAppTableRecord
  2
GEVID1208845792
 70
     0
  0
APPID
  5
45A
330
9
100
AcDbSymbolTableRecord
100
AcDbRegAppTableRecord
  2
GEVID1208845793
 70
     0
  0
APPID
  5
45B
330
9
100
AcDbSymbolTableRecord
100
AcDbRegAppTableRecord
  2
GEVID1208845794
 70
     0
  0
APPID
  5
45C
330
9
100
AcDbSymbolTableRecord
100
AcDbRegAppTableRecord
  2
GEVID1208845795
 70
     0
  0
APPID
  5
45D
330
9
100
AcDbSymbolTableRecord
100
AcDbRegAppTableRecord
  2
GEVID1208845796
 70
     0
  0
APPID
  5
45E
330
9
100
AcDbSymbolTableRecord
100
AcDbRegAppTableRecord
  2
GEVID1208845797
 70
     0
  0
APPID
  5
45F
330
9
100
AcDbSymbolTableRecord
100
AcDbRegAppTableRecord
  2
GEVID1208845798
 70
     0
  0
APPID
  5
460
330
9
100
AcDbSymbolTableRecord
100
AcDbRegAppTableRecord
  2
GEVID1208845799
 70
     0
  0
APPID
  5
461
330
9
100
AcDbSymbolTableRecord
100
AcDbRegAppTableRecord
  2
GEVID1208845800
 70
     0
  0
APPID
  5
462
330
9
100
AcDbSymbolTableRecord
100
AcDbRegAppTableRecord
  2
GEVID1208845801
 70
     0
  0
APPID
  5
463
330
9
100
AcDbSymbolTableRecord
100
AcDbRegAppTableRecord
  2
GEVID1208845802
 70
     0
  0
APPID
  5
464
330
9
100
AcDbSymbolTableRecord
100
AcDbRegAppTableRecord
  2
GENIUS_GENOBJ-N-DIM_13
 70
     0
  0
APPID
  5
465
330
9
100
AcDbSymbolTableRecord
100
AcDbRegAppTableRecord
  2
GENIUS_GENDIM_13
 70
     0
  0
APPID
  5
466
330
9
100
AcDbSymbolTableRecord
100
AcDbRegAppTableRecord
  2
GENIUS_GENDIMSH_14
 70
     0
  0
APPID
  5
467
330
9
100
AcDbSymbolTableRecord
100
AcDbRegAppTableRecord
  2
GEVID1208845803
 70
     0
  0
APPID
  5
468
330
9
100
AcDbSymbolTableRecord
100
AcDbRegAppTableRecord
  2
GEVID1208845804
 70
     0
  0
APPID
  5
469
330
9
100
AcDbSymbolTableRecord
100
AcDbRegAppTableRecord
  2
GEVID1208845805
 70
     0
  0
APPID
  5
46A
330
9
100
AcDbSymbolTableRecord
100
AcDbRegAppTableRecord
  2
GEVID1208845806
 70
     0
  0
APPID
  5
46B
330
9
100
AcDbSymbolTableRecord
100
AcDbRegAppTableRecord
  2
GEVID1208845807
 70
     0
  0
APPID
  5
46C
330
9
100
AcDbSymbolTableRecord
100
AcDbRegAppTableRecord
  2
GEVID1208845808
 70
     0
  0
APPID
  5
46D
330
9
100
AcDbSymbolTableRecord
100
AcDbRegAppTableRecord
  2
GEVID1208845809
 70
     0
  0
APPID
  5
46E
330
9
100
AcDbSymbolTableRecord
100
AcDbRegAppTableRecord
  2
GEVID1208845810
 70
     0
  0
APPID
  5
46F
330
9
100
AcDbSymbolTableRecord
100
AcDbRegAppTableRecord
  2
GEVID1208845811
 70
     0
  0
APPID
  5
470
330
9
100
AcDbSymbolTableRecord
100
AcDbRegAppTableRecord
  2
GEVID1208845813
 70
     0
  0
APPID
  5
471
330
9
100
AcDbSymbolTableRecord
100
AcDbRegAppTableRecord
  2
GEVID1208845814
 70
     0
  0
APPID
  5
472
330
9
100
AcDbSymbolTableRecord
100
AcDbRegAppTableRecord
  2
GEVID1208845815
 70
     0
  0
APPID
  5
473
330
9
100
AcDbSymbolTableRecord
100
AcDbRegAppTableRecord
  2
GEVID1208845816
 70
     0
  0
APPID
  5
474
330
9
100
AcDbSymbolTableRecord
100
AcDbRegAppTableRecord
  2
GEVID1208845817
 70
     0
  0
APPID
  5
475
330
9
100
AcDbSymbolTableRecord
100
AcDbRegAppTableRecord
  2
GEVID1208845818
 70
     0
  0
APPID
  5
476
330
9
100
AcDbSymbolTableRecord
100
AcDbRegAppTableRecord
  2
GEVID1208845819
 70
     0
  0
APPID
  5
477
330
9
100
AcDbSymbolTableRecord
100
AcDbRegAppTableRecord
  2
GEVID1208845820
 70
     0
  0
APPID
  5
478
330
9
100
AcDbSymbolTableRecord
100
AcDbRegAppTableRecord
  2
GENIUS_GENOBJ-F-SHCL_13
 70
     0
  0
APPID
  5
479
330
9
100
AcDbSymbolTableRecord
100
AcDbRegAppTableRecord
  2
GENIUS_GEFMSH_13
 70
     0
  0
APPID
  5
47A
330
9
100
AcDbSymbolTableRecord
100
AcDbRegAppTableRecord
  2
GENIUS_GENOBJ-F-SHCA_13
 70
     0
  0
APPID
  5
47B
330
9
100
AcDbSymbolTableRecord
100
AcDbRegAppTableRecord
  2
GENIUS_GEFSH_13
 70
     0
  0
APPID
  5
47C
330
9
100
AcDbSymbolTableRecord
100
AcDbRegAppTableRecord
  2
GENIUS_GEFSHP_13
 70
     0
  0
APPID
  5
47D
330
9
100
AcDbSymbolTableRecord
100
AcDbRegAppTableRecord
  2
GENIUS_GEFSHP0_13
 70
     0
  0
APPID
  5
47E
330
9
100
AcDbSymbolTableRecord
100
AcDbRegAppTableRecord
  2
GENIUS_GEFSH0_13
 70
     0
  0
APPID
  5
47F
330
9
100
AcDbSymbolTableRecord
100
AcDbRegAppTableRecord
  2
GENIUS_GEFSHP1_13
 70
     0
  0
APPID
  5
480
330
9
100
AcDbSymbolTableRecord
100
AcDbRegAppTableRecord
  2
GENIUS_GEFSH1_13
 70
     0
  0
APPID
  5
481
330
9
100
AcDbSymbolTableRecord
100
AcDbRegAppTableRecord
  2
GEVID1208866337
 70
     0
  0
APPID
  5
482
330
9
100
AcDbSymbolTableRecord
100
AcDbRegAppTableRecord
  2
GEVID1208866338
 70
     0
  0
APPID
  5
483
330
9
100
AcDbSymbolTableRecord
100
AcDbRegAppTableRecord
  2
GEVID1208866339
 70
     0
  0
APPID
  5
484
330
9
100
AcDbSymbolTableRecord
100
AcDbRegAppTableRecord
  2
GEVID1208866340
 70
     0
  0
APPID
  5
485
330
9
100
AcDbSymbolTableRecord
100
AcDbRegAppTableRecord
  2
GEVID1208866341
 70
     0
  0
APPID
  5
486
330
9
100
AcDbSymbolTableRecord
100
AcDbRegAppTableRecord
  2
ACAD_PSEXT
 70
     0
  0
APPID
  5
487
330
9
100
AcDbSymbolTableRecord
100
AcDbRegAppTableRecord
  2
GEVID1208866342
 70
     0
  0
APPID
  5
488
330
9
100
AcDbSymbolTableRecord
100
AcDbRegAppTableRecord
  2
GEVID1208913836
 70
     0
  0
APPID
  5
489
330
9
100
AcDbSymbolTableRecord
100
AcDbRegAppTableRecord
  2
GEVID1208913837
 70
     0
  0
APPID
  5
48A
330
9
100
AcDbSymbolTableRecord
100
AcDbRegAppTableRecord
  2
GEVID1208913838
 70
     0
  0
APPID
  5
48B
330
9
100
AcDbSymbolTableRecord
100
AcDbRegAppTableRecord
  2
GEVID1208913839
 70
     0
  0
APPID
  5
48C
330
9
100
AcDbSymbolTableRecord
100
AcDbRegAppTableRecord
  2
GENIUS_GENDTOL_13
 70
     0
  0
APPID
  5
48D
330
9
100
AcDbSymbolTableRecord
100
AcDbRegAppTableRecord
  2
GEVID1208928889
 70
     0
  0
APPID
  5
48E
330
9
100
AcDbSymbolTableRecord
100
AcDbRegAppTableRecord
  2
GEVID1208928890
 70
     0
  0
APPID
  5
48F
330
9
100
AcDbSymbolTableRecord
100
AcDbRegAppTableRecord
  2
GEVID1208928891
 70
     0
  0
APPID
  5
490
330
9
100
AcDbSymbolTableRecord
100
AcDbRegAppTableRecord
  2
GEVID1208928892
 70
     0
  0
APPID
  5
491
330
9
100
AcDbSymbolTableRecord
100
AcDbRegAppTableRecord
  2
GEVID1208933827
 70
     0
  0
APPID
  5
492
330
9
100
AcDbSymbolTableRecord
100
AcDbRegAppTableRecord
  2
GEVID1208933829
 70
     0
  0
APPID
  5
493
330
9
100
AcDbSymbolTableRecord
100
AcDbRegAppTableRecord
  2
GEVID1208933830
 70
     0
  0
APPID
  5
494
330
9
100
AcDbSymbolTableRecord
100
AcDbRegAppTableRecord
  2
GEVID1208933831
 70
     0
  0
APPID
  5
495
330
9
100
AcDbSymbolTableRecord
100
AcDbRegAppTableRecord
  2
GEVID1208933832
 70
     0
  0
APPID
  5
496
330
9
100
AcDbSymbolTableRecord
100
AcDbRegAppTableRecord
  2
GEVID1208933833
 70
     0
  0
APPID
  5
497
330
9
100
AcDbSymbolTableRecord
100
AcDbRegAppTableRecord
  2
GEVID1208933834
 70
     0
  0
APPID
  5
498
330
9
100
AcDbSymbolTableRecord
100
AcDbRegAppTableRecord
  2
GEVID1208933835
 70
     0
  0
APPID
  5
499
330
9
100
AcDbSymbolTableRecord
100
AcDbRegAppTableRecord
  2
GEVID1208933836
 70
     0
  0
APPID
  5
49A
330
9
100
AcDbSymbolTableRecord
100
AcDbRegAppTableRecord
  2
GEVID1208933837
 70
     0
  0
APPID
  5
49B
330
9
100
AcDbSymbolTableRecord
100
AcDbRegAppTableRecord
  2
GEVID1208933838
 70
     0
  0
APPID
  5
49C
330
9
100
AcDbSymbolTableRecord
100
AcDbRegAppTableRecord
  2
GEVID1208933840
 70
     0
  0
APPID
  5
49D
330
9
100
AcDbSymbolTableRecord
100
AcDbRegAppTableRecord
  2
GEVID1208933842
 70
     0
  0
APPID
  5
49E
330
9
100
AcDbSymbolTableRecord
100
AcDbRegAppTableRecord
  2
GEVID1208933843
 70
     0
  0
APPID
  5
49F
330
9
100
AcDbSymbolTableRecord
100
AcDbRegAppTableRecord
  2
GEVID1208933844
 70
     0
  0
APPID
  5
4A0
330
9
100
AcDbSymbolTableRecord
100
AcDbRegAppTableRecord
  2
GEVID1208933845
 70
     0
  0
APPID
  5
4A1
330
9
100
AcDbSymbolTableRecord
100
AcDbRegAppTableRecord
  2
GEVID1208933846
 70
     0
  0
APPID
  5
4A2
330
9
100
AcDbSymbolTableRecord
100
AcDbRegAppTableRecord
  2
GEVID1208933847
 70
     0
  0
APPID
  5
4A3
330
9
100
AcDbSymbolTableRecord
100
AcDbRegAppTableRecord
  2
GEVID1208933848
 70
     0
  0
APPID
  5
4A4
330
9
100
AcDbSymbolTableRecord
100
AcDbRegAppTableRecord
  2
GEVID1208933849
 70
     0
  0
APPID
  5
4A5
330
9
100
AcDbSymbolTableRecord
100
AcDbRegAppTableRecord
  2
GEVID1208933850
 70
     0
  0
APPID
  5
4A6
330
9
100
AcDbSymbolTableRecord
100
AcDbRegAppTableRecord
  2
GEVID1208933851
 70
     0
  0
APPID
  5
4A7
330
9
100
AcDbSymbolTableRecord
100
AcDbRegAppTableRecord
  2
GEVID1208933852
 70
     0
  0
APPID
  5
4A8
330
9
100
AcDbSymbolTableRecord
100
AcDbRegAppTableRecord
  2
GEVID1208933853
 70
     0
  0
APPID
  5
4A9
330
9
100
AcDbSymbolTableRecord
100
AcDbRegAppTableRecord
  2
GEVID1208933854
 70
     0
  0
APPID
  5
4AA
330
9
100
AcDbSymbolTableRecord
100
AcDbRegAppTableRecord
  2
GEVID1208933855
 70
     0
  0
APPID
  5
4AB
330
9
100
AcDbSymbolTableRecord
100
AcDbRegAppTableRecord
  2
GEVID1208933856
 70
     0
  0
APPID
  5
4AC
330
9
100
AcDbSymbolTableRecord
100
AcDbRegAppTableRecord
  2
GEVID1208933857
 70
     0
  0
APPID
  5
4AD
330
9
100
AcDbSymbolTableRecord
100
AcDbRegAppTableRecord
  2
GEVID1208933858
 70
     0
  0
APPID
  5
4AE
330
9
100
AcDbSymbolTableRecord
100
AcDbRegAppTableRecord
  2
GEVID1208933859
 70
     0
  0
APPID
  5
4AF
330
9
100
AcDbSymbolTableRecord
100
AcDbRegAppTableRecord
  2
GEVID1208933860
 70
     0
  0
APPID
  5
4B0
330
9
100
AcDbSymbolTableRecord
100
AcDbRegAppTableRecord
  2
GEVID1208933861
 70
     0
  0
APPID
  5
4B1
330
9
100
AcDbSymbolTableRecord
100
AcDbRegAppTableRecord
  2
GEVID1208933862
 70
     0
  0
APPID
  5
4B2
330
9
100
AcDbSymbolTableRecord
100
AcDbRegAppTableRecord
  2
GEVID1208933863
 70
     0
  0
APPID
  5
4B3
330
9
100
AcDbSymbolTableRecord
100
AcDbRegAppTableRecord
  2
GEVID1208933864
 70
     0
  0
APPID
  5
4B4
330
9
100
AcDbSymbolTableRecord
100
AcDbRegAppTableRecord
  2
GEVID1208933865
 70
     0
  0
APPID
  5
4B5
330
9
100
AcDbSymbolTableRecord
100
AcDbRegAppTableRecord
  2
GEVID1208933866
 70
     0
  0
APPID
  5
4B6
330
9
100
AcDbSymbolTableRecord
100
AcDbRegAppTableRecord
  2
GEVID1208933867
 70
     0
  0
APPID
  5
4B7
330
9
100
AcDbSymbolTableRecord
100
AcDbRegAppTableRecord
  2
GEVID1208933868
 70
     0
  0
APPID
  5
4B8
330
9
100
AcDbSymbolTableRecord
100
AcDbRegAppTableRecord
  2
GEVID1208933869
 70
     0
  0
APPID
  5
4B9
330
9
100
AcDbSymbolTableRecord
100
AcDbRegAppTableRecord
  2
GEVID1208933870
 70
     0
  0
APPID
  5
4BA
330
9
100
AcDbSymbolTableRecord
100
AcDbRegAppTableRecord
  2
GEVID1208933871
 70
     0
  0
APPID
  5
4BB
330
9
100
AcDbSymbolTableRecord
100
AcDbRegAppTableRecord
  2
GEVID1208933872
 70
     0
  0
APPID
  5
4BC
330
9
100
AcDbSymbolTableRecord
100
AcDbRegAppTableRecord
  2
GEVID1208933873
 70
     0
  0
APPID
  5
4BD
330
9
100
AcDbSymbolTableRecord
100
AcDbRegAppTableRecord
  2
GEVID1208933874
 70
     0
  0
APPID
  5
4BE
330
9
100
AcDbSymbolTableRecord
100
AcDbRegAppTableRecord
  2
GEVID1208933875
 70
     0
  0
APPID
  5
4BF
330
9
100
AcDbSymbolTableRecord
100
AcDbRegAppTableRecord
  2
GEVID1208933876
 70
     0
  0
APPID
  5
4C0
330
9
100
AcDbSymbolTableRecord
100
AcDbRegAppTableRecord
  2
ACAD_DSTYLE_DIMRADIAL_EXTENSION
 70
     0
  0
APPID
  5
4C1
330
9
100
AcDbSymbolTableRecord
100
AcDbRegAppTableRecord
  2
GEVID1208999100
 70
     0
  0
APPID
  5
4C2
330
9
100
AcDbSymbolTableRecord
100
AcDbRegAppTableRecord
  2
GEVID1208999101
 70
     0
  0
APPID
  5
4C3
330
9
100
AcDbSymbolTableRecord
100
AcDbRegAppTableRecord
  2
GEVID1208999102
 70
     0
  0
APPID
  5
4C4
330
9
100
AcDbSymbolTableRecord
100
AcDbRegAppTableRecord
  2
GEVID1208999103
 70
     0
  0
APPID
  5
4C5
330
9
100
AcDbSymbolTableRecord
100
AcDbRegAppTableRecord
  2
GEVID1208999105
 70
     0
  0
APPID
  5
4C6
330
9
100
AcDbSymbolTableRecord
100
AcDbRegAppTableRecord
  2
GEVID1208999106
 70
     0
  0
APPID
  5
4C7
330
9
100
AcDbSymbolTableRecord
100
AcDbRegAppTableRecord
  2
GEVID1208999108
 70
     0
  0
APPID
  5
4C8
330
9
100
AcDbSymbolTableRecord
100
AcDbRegAppTableRecord
  2
GEVID1208999109
 70
     0
  0
APPID
  5
4C9
330
9
100
AcDbSymbolTableRecord
100
AcDbRegAppTableRecord
  2
GEVID1208999110
 70
     0
  0
APPID
  5
4CA
330
9
100
AcDbSymbolTableRecord
100
AcDbRegAppTableRecord
  2
GEVID1208999111
 70
     0
  0
APPID
  5
4CB
330
9
100
AcDbSymbolTableRecord
100
AcDbRegAppTableRecord
  2
GEVID1208999112
 70
     0
  0
APPID
  5
4CC
330
9
100
AcDbSymbolTableRecord
100
AcDbRegAppTableRecord
  2
GEVID1208999113
 70
     0
  0
APPID
  5
4CD
330
9
100
AcDbSymbolTableRecord
100
AcDbRegAppTableRecord
  2
GEVID1208999114
 70
     0
  0
APPID
  5
4CE
330
9
100
AcDbSymbolTableRecord
100
AcDbRegAppTableRecord
  2
GEVID1210218799
 70
     0
  0
APPID
  5
4CF
330
9
100
AcDbSymbolTableRecord
100
AcDbRegAppTableRecord
  2
GEVID1210218800
 70
     0
  0
APPID
  5
4D0
330
9
100
AcDbSymbolTableRecord
100
AcDbRegAppTableRecord
  2
GENIUS_GEFWELD_13
 70
     0
  0
APPID
  5
4D1
330
9
100
AcDbSymbolTableRecord
100
AcDbRegAppTableRecord
  2
GENIUS_GENOBJ-F-WELS_13
 70
     0
  0
APPID
  5
4D2
330
9
100
AcDbSymbolTableRecord
100
AcDbRegAppTableRecord
  2
AcadAnnotative
 70
     0
  0
APPID
  5
4D3
330
9
100
AcDbSymbolTableRecord
100
AcDbRegAppTableRecord
  2
GEVID1210145339
 70
     0
  0
APPID
  5
4D4
330
9
100
AcDbSymbolTableRecord
100
AcDbRegAppTableRecord
  2
ACAD_DSTYLE_DIMBREAK
 70
     0
  0
APPID
  5
4D5
330
9
100
AcDbSymbolTableRecord
100
AcDbRegAppTableRecord
  2
GEVID1210145340
 70
     0
  0
APPID
  5
4D6
330
9
100
AcDbSymbolTableRecord
100
AcDbRegAppTableRecord
  2
GEVID1210145341
 70
     0
  0
APPID
  5
4D7
330
9
100
AcDbSymbolTableRecord
100
AcDbRegAppTableRecord
  2
GEVID1210145342
 70
     0
  0
APPID
  5
4D8
330
9
100
AcDbSymbolTableRecord
100
AcDbRegAppTableRecord
  2
GEVID1210145343
 70
     0
  0
APPID
  5
4D9
330
9
100
AcDbSymbolTableRecord
100
AcDbRegAppTableRecord
  2
GEVID1210145344
 70
     0
  0
APPID
  5
4DA
330
9
100
AcDbSymbolTableRecord
100
AcDbRegAppTableRecord
  2
GEVID1210145345
 70
     0
  0
APPID
  5
4DB
330
9
100
AcDbSymbolTableRecord
100
AcDbRegAppTableRecord
  2
GEVID1210152816
 70
     0
  0
APPID
  5
4DC
330
9
100
AcDbSymbolTableRecord
100
AcDbRegAppTableRecord
  2
GEVID1210153850
 70
     0
  0
APPID
  5
4DD
330
9
100
AcDbSymbolTableRecord
100
AcDbRegAppTableRecord
  2
GEVID1210153851
 70
     0
  0
APPID
  5
4DE
330
9
100
AcDbSymbolTableRecord
100
AcDbRegAppTableRecord
  2
GEVID1210153852
 70
     0
  0
APPID
  5
4DF
330
9
100
AcDbSymbolTableRecord
100
AcDbRegAppTableRecord
  2
GEVID1210549898
 70
     0
  0
APPID
  5
4E0
330
9
100
AcDbSymbolTableRecord
100
AcDbRegAppTableRecord
  2
GEVID1210549899
 70
     0
  0
APPID
  5
4E1
330
9
100
AcDbSymbolTableRecord
100
AcDbRegAppTableRecord
  2
GEVID1210549900
 70
     0
  0
APPID
  5
4E2
330
9
100
AcDbSymbolTableRecord
100
AcDbRegAppTableRecord
  2
GEVID1210549901
 70
     0
  0
APPID
  5
4E3
330
9
100
AcDbSymbolTableRecord
100
AcDbRegAppTableRecord
  2
GEVID1210549902
 70
     0
  0
APPID
  5
4E4
330
9
100
AcDbSymbolTableRecord
100
AcDbRegAppTableRecord
  2
GEVID1210549903
 70
     0
  0
APPID
  5
4E5
330
9
100
AcDbSymbolTableRecord
100
AcDbRegAppTableRecord
  2
GEVID1210549904
 70
     0
  0
APPID
  5
4E6
330
9
100
AcDbSymbolTableRecord
100
AcDbRegAppTableRecord
  2
GEVID1210549905
 70
     0
  0
APPID
  5
4E7
330
9
100
AcDbSymbolTableRecord
100
AcDbRegAppTableRecord
  2
GEVID1210549906
 70
     0
  0
APPID
  5
4E8
330
9
100
AcDbSymbolTableRecord
100
AcDbRegAppTableRecord
  2
GEVID1210549907
 70
     0
  0
APPID
  5
4E9
330
9
100
AcDbSymbolTableRecord
100
AcDbRegAppTableRecord
  2
GEVID1210549908
 70
     0
  0
APPID
  5
4EA
330
9
100
AcDbSymbolTableRecord
100
AcDbRegAppTableRecord
  2
GEVID1210549909
 70
     0
  0
APPID
  5
4EB
330
9
100
AcDbSymbolTableRecord
100
AcDbRegAppTableRecord
  2
GEVID1210549910
 70
     0
  0
APPID
  5
4EC
330
9
100
AcDbSymbolTableRecord
100
AcDbRegAppTableRecord
  2
GEVID1210549911
 70
     0
  0
APPID
  5
4ED
330
9
100
AcDbSymbolTableRecord
100
AcDbRegAppTableRecord
  2
GEVID1210549912
 70
     0
  0
APPID
  5
4EE
330
9
100
AcDbSymbolTableRecord
100
AcDbRegAppTableRecord
  2
GEVID1210549913
 70
     0
  0
APPID
  5
4EF
330
9
100
AcDbSymbolTableRecord
100
AcDbRegAppTableRecord
  2
GEVID1210549914
 70
     0
  0
APPID
  5
4F0
330
9
100
AcDbSymbolTableRecord
100
AcDbRegAppTableRecord
  2
GEVID1210549915
 70
     0
  0
APPID
  5
4F1
330
9
100
AcDbSymbolTableRecord
100
AcDbRegAppTableRecord
  2
GEVID1210549916
 70
     0
  0
APPID
  5
4F2
330
9
100
AcDbSymbolTableRecord
100
AcDbRegAppTableRecord
  2
GEVID1210549917
 70
     0
  0
APPID
  5
4F3
330
9
100
AcDbSymbolTableRecord
100
AcDbRegAppTableRecord
  2
GENIUS_GENOBJ-N-CRS_13
 70
     0
  0
APPID
  5
4F4
330
9
100
AcDbSymbolTableRecord
100
AcDbRegAppTableRecord
  2
GEVID1210549918
 70
     0
  0
APPID
  5
4F5
330
9
100
AcDbSymbolTableRecord
100
AcDbRegAppTableRecord
  2
GENIUS_GENOBJ-N-CRC_13
 70
     0
  0
APPID
  5
4F6
330
9
100
AcDbSymbolTableRecord
100
AcDbRegAppTableRecord
  2
GENIUS_GENCRC_14
 70
     0
  0
APPID
  5
4F7
330
9
100
AcDbSymbolTableRecord
100
AcDbRegAppTableRecord
  2
GEVID1210549919
 70
     0
  0
APPID
  5
4F8
330
9
100
AcDbSymbolTableRecord
100
AcDbRegAppTableRecord
  2
GEVID1210549921
 70
     0
  0
APPID
  5
4F9
330
9
100
AcDbSymbolTableRecord
100
AcDbRegAppTableRecord
  2
GEVID1210549922
 70
     0
  0
APPID
  5
4FA
330
9
100
AcDbSymbolTableRecord
100
AcDbRegAppTableRecord
  2
GEVID1210635173
 70
     0
  0
APPID
  5
4FB
330
9
100
AcDbSymbolTableRecord
100
AcDbRegAppTableRecord
  2
GEVID1210635174
 70
     0
  0
APPID
  5
4FC
330
9
100
AcDbSymbolTableRecord
100
AcDbRegAppTableRecord
  2
GEVID1210635175
 70
     0
  0
APPID
  5
4FD
330
9
100
AcDbSymbolTableRecord
100
AcDbRegAppTableRecord
  2
GEVID1210635176
 70
     0
  0
APPID
  5
4FE
330
9
100
AcDbSymbolTableRecord
100
AcDbRegAppTableRecord
  2
GEVID1210635177
 70
     0
  0
APPID
  5
4FF
330
9
100
AcDbSymbolTableRecord
100
AcDbRegAppTableRecord
  2
GEVID1210635178
 70
     0
  0
APPID
  5
500
330
9
100
AcDbSymbolTableRecord
100
AcDbRegAppTableRecord
  2
GENIUS_GENIUS_GENBHEDTMP_13
 70
     0
  0
APPID
  5
501
330
9
100
AcDbSymbolTableRecord
100
AcDbRegAppTableRecord
  2
GEVID1210635179
 70
     0
  0
APPID
  5
502
330
9
100
AcDbSymbolTableRecord
100
AcDbRegAppTableRecord
  2
GEVID1210635180
 70
     0
  0
APPID
  5
503
330
9
100
AcDbSymbolTableRecord
100
AcDbRegAppTableRecord
  2
GEVID1210635181
 70
     0
  0
APPID
  5
504
330
9
100
AcDbSymbolTableRecord
100
AcDbRegAppTableRecord
  2
GEVID1210635182
 70
     0
  0
APPID
  5
505
330
9
100
AcDbSymbolTableRecord
100
AcDbRegAppTableRecord
  2
GEVID1210635184
 70
     0
  0
APPID
  5
506
330
9
100
AcDbSymbolTableRecord
100
AcDbRegAppTableRecord
  2
GEVID1210635185
 70
     0
  0
APPID
  5
507
330
9
100
AcDbSymbolTableRecord
100
AcDbRegAppTableRecord
  2
GEVID1210635186
 70
     0
  0
APPID
  5
508
330
9
100
AcDbSymbolTableRecord
100
AcDbRegAppTableRecord
  2
GEVID1210635187
 70
     0
  0
APPID
  5
509
330
9
100
AcDbSymbolTableRecord
100
AcDbRegAppTableRecord
  2
GEVID1210635188
 70
     0
  0
APPID
  5
50A
330
9
100
AcDbSymbolTableRecord
100
AcDbRegAppTableRecord
  2
GEVID1210635189
 70
     0
  0
APPID
  5
50B
330
9
100
AcDbSymbolTableRecord
100
AcDbRegAppTableRecord
  2
GEVID1210635190
 70
     0
  0
APPID
  5
50C
330
9
100
AcDbSymbolTableRecord
100
AcDbRegAppTableRecord
  2
GENIUS_GENREC_14
 70
     0
  0
APPID
  5
50D
330
9
100
AcDbSymbolTableRecord
100
AcDbRegAppTableRecord
  2
GENIUS_GENOBJ-N-REC_13
 70
     0
  0
APPID
  5
50E
330
9
100
AcDbSymbolTableRecord
100
AcDbRegAppTableRecord
  2
GEVID1210676655
 70
     0
  0
APPID
  5
50F
330
9
100
AcDbSymbolTableRecord
100
AcDbRegAppTableRecord
  2
GEVID1210676656
 70
     0
  0
APPID
  5
510
330
9
100
AcDbSymbolTableRecord
100
AcDbRegAppTableRecord
  2
GEVID1210676657
 70
     0
  0
APPID
  5
511
330
9
100
AcDbSymbolTableRecord
100
AcDbRegAppTableRecord
  2
GEVID1210676659
 70
     0
  0
APPID
  5
512
330
9
100
AcDbSymbolTableRecord
100
AcDbRegAppTableRecord
  2
GEVID1210676660
 70
     0
  0
APPID
  5
513
330
9
100
AcDbSymbolTableRecord
100
AcDbRegAppTableRecord
  2
GEVID1210676661
 70
     0
  0
APPID
  5
514
330
9
100
AcDbSymbolTableRecord
100
AcDbRegAppTableRecord
  2
GEVID1210676662
 70
     0
  0
APPID
  5
515
330
9
100
AcDbSymbolTableRecord
100
AcDbRegAppTableRecord
  2
GEVID1210721646
 70
     0
  0
APPID
  5
516
330
9
100
AcDbSymbolTableRecord
100
AcDbRegAppTableRecord
  2
GEVID1210721647
 70
     0
  0
APPID
  5
517
330
9
100
AcDbSymbolTableRecord
100
AcDbRegAppTableRecord
  2
GEVID1210721648
 70
     0
  0
APPID
  5
518
330
9
100
AcDbSymbolTableRecord
100
AcDbRegAppTableRecord
  2
GEVID1210721649
 70
     0
  0
APPID
  5
519
330
9
100
AcDbSymbolTableRecord
100
AcDbRegAppTableRecord
  2
GEVID1210721650
 70
     0
  0
APPID
  5
51A
330
9
100
AcDbSymbolTableRecord
100
AcDbRegAppTableRecord
  2
GEVID1210721651
 70
     0
  0
APPID
  5
51B
330
9
100
AcDbSymbolTableRecord
100
AcDbRegAppTableRecord
  2
GEVID1210721652
 70
     0
  0
APPID
  5
51C
330
9
100
AcDbSymbolTableRecord
100
AcDbRegAppTableRecord
  2
GEVID1210721653
 70
     0
  0
APPID
  5
51D
330
9
100
AcDbSymbolTableRecord
100
AcDbRegAppTableRecord
  2
PE_URL
 70
     0
  0
APPID
  5
51E
330
9
100
AcDbSymbolTableRecord
100
AcDbRegAppTableRecord
  2
GEVID1210825555
 70
     0
  0
APPID
  5
51F
330
9
100
AcDbSymbolTableRecord
100
AcDbRegAppTableRecord
  2
GEVID1210825556
 70
     0
  0
APPID
  5
520
330
9
100
AcDbSymbolTableRecord
100
AcDbRegAppTableRecord
  2
GEVID1210825557
 70
     0
  0
APPID
  5
521
330
9
100
AcDbSymbolTableRecord
100
AcDbRegAppTableRecord
  2
GEVID1210825558
 70
     0
  0
APPID
  5
522
330
9
100
AcDbSymbolTableRecord
100
AcDbRegAppTableRecord
  2
GEVID1210825559
 70
     0
  0
APPID
  5
523
330
9
100
AcDbSymbolTableRecord
100
AcDbRegAppTableRecord
  2
GEVID1210825560
 70
     0
  0
APPID
  5
524
330
9
100
AcDbSymbolTableRecord
100
AcDbRegAppTableRecord
  2
GEVID1210825561
 70
     0
  0
APPID
  5
525
330
9
100
AcDbSymbolTableRecord
100
AcDbRegAppTableRecord
  2
GEVID1210825562
 70
     0
  0
APPID
  5
526
330
9
100
AcDbSymbolTableRecord
100
AcDbRegAppTableRecord
  2
GEVID1210825563
 70
     0
  0
APPID
  5
527
330
9
100
AcDbSymbolTableRecord
100
AcDbRegAppTableRecord
  2
GEVID1210825564
 70
     0
  0
APPID
  5
528
330
9
100
AcDbSymbolTableRecord
100
AcDbRegAppTableRecord
  2
GEVID1210825565
 70
     0
  0
APPID
  5
529
330
9
100
AcDbSymbolTableRecord
100
AcDbRegAppTableRecord
  2
GEVID1210825566
 70
     0
  0
APPID
  5
52A
330
9
100
AcDbSymbolTableRecord
100
AcDbRegAppTableRecord
  2
GEVID1210825567
 70
     0
  0
APPID
  5
52B
330
9
100
AcDbSymbolTableRecord
100
AcDbRegAppTableRecord
  2
GENIUS_GENOBJ-N-ZOO_13
 70
     0
  0
APPID
  5
52C
330
9
100
AcDbSymbolTableRecord
100
AcDbRegAppTableRecord
  2
GENIUS_GENZOO_17
 70
     0
  0
APPID
  5
52D
330
9
100
AcDbSymbolTableRecord
100
AcDbRegAppTableRecord
  2
ACADANNOTATIVEDECOMPOSITION
 70
     0
  0
APPID
  5
52E
330
9
100
AcDbSymbolTableRecord
100
AcDbRegAppTableRecord
  2
GENIUS_GENOBJ-N-HTC_13
 70
     0
  0
APPID
  5
52F
330
9
100
AcDbSymbolTableRecord
100
AcDbRegAppTableRecord
  2
GENIUS_GENHATCH_13
 70
     0
  0
APPID
  5
530
330
9
100
AcDbSymbolTableRecord
100
AcDbRegAppTableRecord
  2
GEVID1210896020
 70
     0
  0
APPID
  5
531
330
9
100
AcDbSymbolTableRecord
100
AcDbRegAppTableRecord
  2
GEVID1210896021
 70
     0
  0
APPID
  5
532
330
9
100
AcDbSymbolTableRecord
100
AcDbRegAppTableRecord
  2
GEVID1209083540
 70
     0
  0
APPID
  5
533
330
9
100
AcDbSymbolTableRecord
100
AcDbRegAppTableRecord
  2
GEVMK
 70
     0
  0
APPID
  5
534
330
9
100
AcDbSymbolTableRecord
100
AcDbRegAppTableRecord
  2
GEVID1209083542
 70
     0
  0
APPID
  5
535
330
9
100
AcDbSymbolTableRecord
100
AcDbRegAppTableRecord
  2
GEVID1209083543
 70
     0
  0
APPID
  5
536
330
9
100
AcDbSymbolTableRecord
100
AcDbRegAppTableRecord
  2
GEVID1209083544
 70
     0
  0
APPID
  5
537
330
9
100
AcDbSymbolTableRecord
100
AcDbRegAppTableRecord
  2
GEVID1209083545
 70
     0
  0
APPID
  5
538
330
9
100
AcDbSymbolTableRecord
100
AcDbRegAppTableRecord
  2
GEVID1209083546
 70
     0
  0
APPID
  5
539
330
9
100
AcDbSymbolTableRecord
100
AcDbRegAppTableRecord
  2
GEVID1209083547
 70
     0
  0
APPID
  5
53A
330
9
100
AcDbSymbolTableRecord
100
AcDbRegAppTableRecord
  2
GEVID1209083548
 70
     0
  0
APPID
  5
53B
330
9
100
AcDbSymbolTableRecord
100
AcDbRegAppTableRecord
  2
GEVID1209083549
 70
     0
  0
APPID
  5
53C
330
9
100
AcDbSymbolTableRecord
100
AcDbRegAppTableRecord
  2
GEVID1209083550
 70
     0
  0
APPID
  5
53D
330
9
100
AcDbSymbolTableRecord
100
AcDbRegAppTableRecord
  2
GEVID1209083551
 70
     0
  0
APPID
  5
53E
330
9
100
AcDbSymbolTableRecord
100
AcDbRegAppTableRecord
  2
GEVID1209083552
 70
     0
  0
APPID
  5
53F
330
9
100
AcDbSymbolTableRecord
100
AcDbRegAppTableRecord
  2
GEVID1209083553
 70
     0
  0
APPID
  5
540
330
9
100
AcDbSymbolTableRecord
100
AcDbRegAppTableRecord
  2
GEVID1210896022
 70
     0
  0
APPID
  5
541
330
9
100
AcDbSymbolTableRecord
100
AcDbRegAppTableRecord
  2
GEVID1211508364
 70
     0
  0
APPID
  5
542
330
9
100
AcDbSymbolTableRecord
100
AcDbRegAppTableRecord
  2
GEVID1211414908
 70
     0
  0
APPID
  5
543
330
9
100
AcDbSymbolTableRecord
100
AcDbRegAppTableRecord
  2
GEVID1211414909
 70
     0
  0
APPID
  5
544
330
9
100
AcDbSymbolTableRecord
100
AcDbRegAppTableRecord
  2
GEVID1211508359
 70
     0
  0
APPID
  5
545
330
9
100
AcDbSymbolTableRecord
100
AcDbRegAppTableRecord
  2
GEVID1211508360
 70
     0
  0
APPID
  5
546
330
9
100
AcDbSymbolTableRecord
100
AcDbRegAppTableRecord
  2
GEVID1211508361
 70
     0
  0
APPID
  5
547
330
9
100
AcDbSymbolTableRecord
100
AcDbRegAppTableRecord
  2
GEVID1211508362
 70
     0
  0
APPID
  5
548
330
9
100
AcDbSymbolTableRecord
100
AcDbRegAppTableRecord
  2
GEVID1211508363
 70
     0
  0
APPID
  5
549
330
9
100
AcDbSymbolTableRecord
100
AcDbRegAppTableRecord
  2
GEVID1211878469
 70
     0
  0
APPID
  5
54A
330
9
100
AcDbSymbolTableRecord
100
AcDbRegAppTableRecord
  2
GEVID1212642819
 70
     0
  0
APPID
  5
54B
330
9
100
AcDbSymbolTableRecord
100
AcDbRegAppTableRecord
  2
GEVID1212642820
 70
     0
  0
APPID
  5
54C
330
9
100
AcDbSymbolTableRecord
100
AcDbRegAppTableRecord
  2
GEVID1212642821
 70
     0
  0
APPID
  5
54D
330
9
100
AcDbSymbolTableRecord
100
AcDbRegAppTableRecord
  2
GEVID1212642822
 70
     0
  0
APPID
  5
54E
330
9
100
AcDbSymbolTableRecord
100
AcDbRegAppTableRecord
  2
GEVID1212642823
 70
     0
  0
APPID
  5
54F
330
9
100
AcDbSymbolTableRecord
100
AcDbRegAppTableRecord
  2
GEVID1212642825
 70
     0
  0
APPID
  5
550
330
9
100
AcDbSymbolTableRecord
100
AcDbRegAppTableRecord
  2
GEVID1212642826
 70
     0
  0
APPID
  5
551
330
9
100
AcDbSymbolTableRecord
100
AcDbRegAppTableRecord
  2
GEVID1212642827
 70
     0
  0
APPID
  5
552
330
9
100
AcDbSymbolTableRecord
100
AcDbRegAppTableRecord
  2
GEVID1212642828
 70
     0
  0
APPID
  5
553
330
9
100
AcDbSymbolTableRecord
100
AcDbRegAppTableRecord
  2
GEVID1212642831
 70
     0
  0
APPID
  5
554
330
9
100
AcDbSymbolTableRecord
100
AcDbRegAppTableRecord
  2
GEVID1212642834
 70
     0
  0
APPID
  5
555
330
9
100
AcDbSymbolTableRecord
100
AcDbRegAppTableRecord
  2
GEVID1212642835
 70
     0
  0
APPID
  5
556
330
9
100
AcDbSymbolTableRecord
100
AcDbRegAppTableRecord
  2
GEVID1212642836
 70
     0
  0
APPID
  5
557
330
9
100
AcDbSymbolTableRecord
100
AcDbRegAppTableRecord
  2
GEVID1212642837
 70
     0
  0
APPID
  5
558
330
9
100
AcDbSymbolTableRecord
100
AcDbRegAppTableRecord
  2
GEVID1212642839
 70
     0
  0
APPID
  5
559
330
9
100
AcDbSymbolTableRecord
100
AcDbRegAppTableRecord
  2
GEVID1212642840
 70
     0
  0
APPID
  5
55A
330
9
100
AcDbSymbolTableRecord
100
AcDbRegAppTableRecord
  2
GEVID1212642841
 70
     0
  0
APPID
  5
55B
330
9
100
AcDbSymbolTableRecord
100
AcDbRegAppTableRecord
  2
GEVID1212655312
 70
     0
  0
APPID
  5
55C
330
9
100
AcDbSymbolTableRecord
100
AcDbRegAppTableRecord
  2
GEVID1212655313
 70
     0
  0
APPID
  5
55D
330
9
100
AcDbSymbolTableRecord
100
AcDbRegAppTableRecord
  2
GEVID1212656533
 70
     0
  0
APPID
  5
55E
330
9
100
AcDbSymbolTableRecord
100
AcDbRegAppTableRecord
  2
GEVID1212656534
 70
     0
  0
APPID
  5
55F
330
9
100
AcDbSymbolTableRecord
100
AcDbRegAppTableRecord
  2
GEVID1212656535
 70
     0
  0
APPID
  5
560
330
9
100
AcDbSymbolTableRecord
100
AcDbRegAppTableRecord
  2
GEVID1212656536
 70
     0
  0
APPID
  5
561
330
9
100
AcDbSymbolTableRecord
100
AcDbRegAppTableRecord
  2
GEVID1212656538
 70
     0
  0
APPID
  5
562
330
9
100
AcDbSymbolTableRecord
100
AcDbRegAppTableRecord
  2
GEVID1212656541
 70
     0
  0
APPID
  5
563
330
9
100
AcDbSymbolTableRecord
100
AcDbRegAppTableRecord
  2
GEVID1212656543
 70
     0
  0
APPID
  5
564
330
9
100
AcDbSymbolTableRecord
100
AcDbRegAppTableRecord
  2
GENIUS_GENOBJ-F-PFASSM_13
 70
     0
  0
APPID
  5
565
330
9
100
AcDbSymbolTableRecord
100
AcDbRegAppTableRecord
  2
GEVID1212656544
 70
     0
  0
APPID
  5
566
330
9
100
AcDbSymbolTableRecord
100
AcDbRegAppTableRecord
  2
GEVID1212656545
 70
     0
  0
APPID
  5
567
330
9
100
AcDbSymbolTableRecord
100
AcDbRegAppTableRecord
  2
GEVID1212656546
 70
     0
  0
APPID
  5
568
330
9
100
AcDbSymbolTableRecord
100
AcDbRegAppTableRecord
  2
GEVID1212656547
 70
     0
  0
APPID
  5
569
330
9
100
AcDbSymbolTableRecord
100
AcDbRegAppTableRecord
  2
GEVID1212656548
 70
     0
  0
APPID
  5
56A
330
9
100
AcDbSymbolTableRecord
100
AcDbRegAppTableRecord
  2
GEVID1212656549
 70
     0
  0
APPID
  5
56B
330
9
100
AcDbSymbolTableRecord
100
AcDbRegAppTableRecord
  2
GEVID1212656550
 70
     0
  0
APPID
  5
56C
330
9
100
AcDbSymbolTableRecord
100
AcDbRegAppTableRecord
  2
GEVID1212656552
 70
     0
  0
APPID
  5
56D
330
9
100
AcDbSymbolTableRecord
100
AcDbRegAppTableRecord
  2
GEVID1212656553
 70
     0
  0
APPID
  5
56E
330
9
100
AcDbSymbolTableRecord
100
AcDbRegAppTableRecord
  2
GEVID1212656554
 70
     0
  0
APPID
  5
56F
330
9
100
AcDbSymbolTableRecord
100
AcDbRegAppTableRecord
  2
GEVID1212656555
 70
     0
  0
APPID
  5
570
330
9
100
AcDbSymbolTableRecord
100
AcDbRegAppTableRecord
  2
GEVID1212656556
 70
     0
  0
APPID
  5
571
330
9
100
AcDbSymbolTableRecord
100
AcDbRegAppTableRecord
  2
GEVID1212656557
 70
     0
  0
APPID
  5
572
330
9
100
AcDbSymbolTableRecord
100
AcDbRegAppTableRecord
  2
GEVID1212656559
 70
     0
  0
APPID
  5
573
330
9
100
AcDbSymbolTableRecord
100
AcDbRegAppTableRecord
  2
GEVID1212656560
 70
     0
  0
APPID
  5
574
330
9
100
AcDbSymbolTableRecord
100
AcDbRegAppTableRecord
  2
GEVID1212656561
 70
     0
  0
APPID
  5
575
330
9
100
AcDbSymbolTableRecord
100
AcDbRegAppTableRecord
  2
GEVID1212656562
 70
     0
  0
APPID
  5
576
330
9
100
AcDbSymbolTableRecord
100
AcDbRegAppTableRecord
  2
GEVID1212656563
 70
     0
  0
APPID
  5
577
330
9
100
AcDbSymbolTableRecord
100
AcDbRegAppTableRecord
  2
GEVID1212711781
 70
     0
  0
APPID
  5
578
330
9
100
AcDbSymbolTableRecord
100
AcDbRegAppTableRecord
  2
GEVID1212711782
 70
     0
  0
APPID
  5
579
330
9
100
AcDbSymbolTableRecord
100
AcDbRegAppTableRecord
  2
GEVID1212711783
 70
     0
  0
APPID
  5
57A
330
9
100
AcDbSymbolTableRecord
100
AcDbRegAppTableRecord
  2
GEVID1212711784
 70
     0
  0
APPID
  5
57B
330
9
100
AcDbSymbolTableRecord
100
AcDbRegAppTableRecord
  2
GEVID1212711788
 70
     0
  0
APPID
  5
57C
330
9
100
AcDbSymbolTableRecord
100
AcDbRegAppTableRecord
  2
GEVID1212711789
 70
     0
  0
APPID
  5
57D
330
9
100
AcDbSymbolTableRecord
100
AcDbRegAppTableRecord
  2
GEVID1212711790
 70
     0
  0
APPID
  5
57E
330
9
100
AcDbSymbolTableRecord
100
AcDbRegAppTableRecord
  2
GEVID1212711791
 70
     0
  0
APPID
  5
57F
330
9
100
AcDbSymbolTableRecord
100
AcDbRegAppTableRecord
  2
GEVID1212711792
 70
     0
  0
APPID
  5
580
330
9
100
AcDbSymbolTableRecord
100
AcDbRegAppTableRecord
  2
GEVID1212711793
 70
     0
  0
APPID
  5
581
330
9
100
AcDbSymbolTableRecord
100
AcDbRegAppTableRecord
  2
GEVID1212711794
 70
     0
  0
APPID
  5
582
330
9
100
AcDbSymbolTableRecord
100
AcDbRegAppTableRecord
  2
GEVID1212711795
 70
     0
  0
APPID
  5
583
330
9
100
AcDbSymbolTableRecord
100
AcDbRegAppTableRecord
  2
GEVID1212711797
 70
     0
  0
APPID
  5
584
330
9
100
AcDbSymbolTableRecord
100
AcDbRegAppTableRecord
  2
GEVID1212711798
 70
     0
  0
APPID
  5
585
330
9
100
AcDbSymbolTableRecord
100
AcDbRegAppTableRecord
  2
GEVID1212711799
 70
     0
  0
APPID
  5
586
330
9
100
AcDbSymbolTableRecord
100
AcDbRegAppTableRecord
  2
GEVID1212711800
 70
     0
  0
APPID
  5
587
330
9
100
AcDbSymbolTableRecord
100
AcDbRegAppTableRecord
  2
GEVID1212711801
 70
     0
  0
APPID
  5
588
330
9
100
AcDbSymbolTableRecord
100
AcDbRegAppTableRecord
  2
GEVID1212711802
 70
     0
  0
APPID
  5
589
330
9
100
AcDbSymbolTableRecord
100
AcDbRegAppTableRecord
  2
GEVID1212711803
 70
     0
  0
APPID
  5
58A
330
9
100
AcDbSymbolTableRecord
100
AcDbRegAppTableRecord
  2
GEVID1212711804
 70
     0
  0
APPID
  5
58B
330
9
100
AcDbSymbolTableRecord
100
AcDbRegAppTableRecord
  2
GEVID1212711805
 70
     0
  0
APPID
  5
58C
330
9
100
AcDbSymbolTableRecord
100
AcDbRegAppTableRecord
  2
GEVID1212711806
 70
     0
  0
APPID
  5
58D
330
9
100
AcDbSymbolTableRecord
100
AcDbRegAppTableRecord
  2
GEVID1212711807
 70
     0
  0
APPID
  5
58E
330
9
100
AcDbSymbolTableRecord
100
AcDbRegAppTableRecord
  2
GEVID1212711808
 70
     0
  0
APPID
  5
58F
330
9
100
AcDbSymbolTableRecord
100
AcDbRegAppTableRecord
  2
GEVID1212711809
 70
     0
  0
APPID
  5
590
330
9
100
AcDbSymbolTableRecord
100
AcDbRegAppTableRecord
  2
GEVID1212711810
 70
     0
  0
APPID
  5
591
330
9
100
AcDbSymbolTableRecord
100
AcDbRegAppTableRecord
  2
GEVID1212711811
 70
     0
  0
APPID
  5
90A
330
9
100
AcDbSymbolTableRecord
100
AcDbRegAppTableRecord
  2
GENIUS_GENTRA_14
 70
     0
  0
APPID
  5
919
330
9
100
AcDbSymbolTableRecord
100
AcDbRegAppTableRecord
  2
GENIUS_GENOBJ-N-TIT_13
 70
     0
  0
APPID
  5
91A
330
9
100
AcDbSymbolTableRecord
100
AcDbRegAppTableRecord
  2
GENIUS_GENTITLE_13
 70
     0
  0
APPID
  5
949
330
9
100
AcDbSymbolTableRecord
100
AcDbRegAppTableRecord
  2
GENIUS_GENBLLY_14
 70
     0
  0
APPID
  5
DDD
330
9
100
AcDbSymbolTableRecord
100
AcDbRegAppTableRecord
  2
GEVID1213165152
 70
     0
  0
APPID
  5
12F9
330
9
100
AcDbSymbolTableRecord
100
AcDbRegAppTableRecord
  2
AcDbDynamicBlockTrueName
 70
     0
  0
APPID
  5
12FA
330
9
100
AcDbSymbolTableRecord
100
AcDbRegAppTableRecord
  2
ACDBBLOCKREPETAG
 70
     0
  0
APPID
  5
1C15
330
9
100
AcDbSymbolTableRecord
100
AcDbRegAppTableRecord
  2
GEVID1214872427
 70
     0
  0
APPID
  5
1C2A
330
9
100
AcDbSymbolTableRecord
100
AcDbRegAppTableRecord
  2
GEVID1214872428
 70
     0
  0
APPID
  5
1C2F
330
9
100
AcDbSymbolTableRecord
100
AcDbRegAppTableRecord
  2
GEVID1214872429
 70
     0
  0
APPID
  5
1C33
330
9
100
AcDbSymbolTableRecord
100
AcDbRegAppTableRecord
  2
GEVID1214872430
 70
     0
  0
APPID
  5
1C3F
330
9
100
AcDbSymbolTableRecord
100
AcDbRegAppTableRecord
  2
GEVID1214872432
 70
     0
  0
APPID
  5
1C4E
330
9
100
AcDbSymbolTableRecord
100
AcDbRegAppTableRecord
  2
GEVID1214872433
 70
     0
  0
APPID
  5
20DC
330
9
100
AcDbSymbolTableRecord
100
AcDbRegAppTableRecord
  2
AcDbDynamicBlockGUID
 70
     0
  0
APPID
  5
20FD
330
9
100
AcDbSymbolTableRecord
100
AcDbRegAppTableRecord
  2
GENIUS_GENOBJ-N-REV_13
 70
     0
  0
APPID
  5
20FE
330
9
100
AcDbSymbolTableRecord
100
AcDbRegAppTableRecord
  2
GENIUS_GENOBJ-N-RSSYM_13
 70
     0
  0
APPID
  5
20FF
330
9
100
AcDbSymbolTableRecord
100
AcDbRegAppTableRecord
  2
GENIUS_GENSYMENT_13
 70
     0
  0
APPID
  5
2100
330
9
100
AcDbSymbolTableRecord
100
AcDbRegAppTableRecord
  2
GENIUS_GENSCSYM_13
 70
     0
  0
APPID
  5
4765
330
9
100
AcDbSymbolTableRecord
100
AcDbRegAppTableRecord
  2
ACLAYERTOOLS
 70
     0
  0
ENDTAB
  0
TABLE
  2
DIMSTYLE
  5
A
330
0
100
AcDbSymbolTable
 70
    29
100
AcDbDimStyleTable
 71
     1
340
5AB
  0
DIMSTYLE
105
5AB
330
A
100
AcDbSymbolTableRecord
100
AcDbDimStyleTableRecord
  2
SEISA
 70
     0
  4
"
 40
1.5
 41
2.5
 42
0.625
 43
10.0
 44
0.625
 47
0.1
 48
0.1
 73
     0
 74
     0
 77
     3
 78
     8
 79
     2
 90
     1
140
3.5
141
0.0
143
0.0393701
146
0.71
147
1.5
172
     1
176
     3
177
     3
178
     3
271
     2
272
     2
283
     0
286
     8
340
5D5
341
69
342
69
371
    -1
372
    -1
1001
ACAD_DSTYLE_DIMJAG
1070
   388
1040
1.5
1001
ACAD_DSTYLE_DIMTALN
1070
   392
1070
     1
  0
DIMSTYLE
105
5E9
102
{ACAD_REACTORS
330
939F
330
94AA
330
94CB
330
9519
330
954F
330
9636
330
964E
330
9666
330
974B
330
977F
330
97B3
330
A82E
330
AD87
330
AE58
330
AEB2
102
}
330
A
100
AcDbSymbolTableRecord
100
AcDbDimStyleTableRecord
  2
SEISA$0
 70
     0
  4
"
 40
1.5
 41
2.5
 42
0.625
 43
10.0
 44
0.625
 47
0.1
 48
0.1
 73
     0
 74
     0
 77
     3
 78
     8
 79
     2
 90
     1
140
3.5
141
0.0
143
0.0393701
146
0.71
147
1.5
172
     1
176
     3
177
     3
178
     3
271
     2
272
     2
283
     0
286
     8
340
5D5
341
69
342
69
371
    -1
372
    -1
  0
DIMSTYLE
105
B419
330
A
100
AcDbSymbolTableRecord
100
AcDbDimStyleTableRecord
  2
AM_ISO
 70
     0
  4
"
 41
2.5
 42
1.0
 43
10.0
 44
1.0
 47
0.1
 48
0.1
 73
     0
 74
     0
 77
     1
 78
     8
 79
     2
 90
     1
140
3.5
141
0.0
143
0.0393701
146
0.71
147
1.5
172
     1
176
   256
177
   256
178
     2
271
     2
272
     3
274
     4
283
     0
284
     8
340
11
371
    -1
372
    -1
  0
DIMSTYLE
105
B41A
330
A
100
AcDbSymbolTableRecord
100
AcDbDimStyleTableRecord
  2
AM_ISO$3
 70
     0
  4
"
 41
2.5
 42
1.0
 43
10.0
 44
1.0
 47
0.1
 48
0.1
 73
     0
 77
     1
 78
     8
 79
     2
 90
     1
140
3.5
141
0.0
143
0.0393701
146
0.71
147
1.5
176
   256
177
   256
178
     2
271
     2
272
     3
274
     4
283
     0
284
     8
288
     1
289
     0
340
11
371
    -1
372
    -1
  0
DIMSTYLE
105
B41B
330
A
100
AcDbSymbolTableRecord
100
AcDbDimStyleTableRecord
  2
AM_ISO$4
 70
     0
  4
"
 41
2.5
 42
1.0
 43
10.0
 44
1.0
 47
0.1
 48
0.1
 73
     0
 77
     1
 78
     8
 79
     2
 90
     1
140
3.5
141
0.0
143
0.0393701
146
0.71
147
1.5
176
   256
177
   256
178
     2
271
     2
272
     3
274
     4
283
     0
284
     8
288
     1
289
     0
340
11
371
    -1
372
    -1
  0
DIMSTYLE
105
B41C
330
A
100
AcDbSymbolTableRecord
100
AcDbDimStyleTableRecord
  2
AM_ISO$6
 70
     0
  4
"
 41
2.5
 42
1.0
 43
10.0
 44
1.0
 47
0.1
 48
0.1
 73
     0
 74
     0
 78
     8
 79
     2
 90
     1
140
3.5
141
0.0
143
0.0393701
146
0.71
147
1.5
172
     1
176
   256
177
   256
178
     2
271
     2
272
     3
274
     4
283
     0
284
     8
340
11
371
    -1
372
    -1
  0
DIMSTYLE
105
B41D
330
A
100
AcDbSymbolTableRecord
100
AcDbDimStyleTableRecord
  2
AM_ISO$7
 70
     0
  4
"
 41
2.5
 42
1.0
 43
10.0
 44
1.0
 47
0.1
 48
0.1
 73
     0
 74
     0
 77
     1
 78
     8
 79
     2
 90
     1
140
5.0
141
0.0
143
0.0393701
146
0.71
147
1.5
172
     1
176
   256
177
   256
178
     2
271
     2
272
     3
274
     4
283
     0
284
     8
340
11
371
    -1
372
    -1
  0
DIMSTYLE
105
B41E
330
A
100
AcDbSymbolTableRecord
100
AcDbDimStyleTableRecord
  2
AM_ISO$SF
 70
     0
  4
"
 41
2.5
 42
1.0
 43
10.0
 44
1.0
 47
0.1
 48
0.1
 73
     0
 74
     0
 75
     1
 76
     1
 77
     1
 78
     8
 79
     2
 90
     1
140
3.5
141
0.0
143
0.0393701
146
0.71
147
1.5
172
     1
176
   256
177
   256
178
     2
271
     2
272
     3
274
     4
283
     0
284
     8
340
11
371
    -1
372
    -1
  0
DIMSTYLE
105
B41F
330
A
100
AcDbSymbolTableRecord
100
AcDbDimStyleTableRecord
  2
AM_ISO$SH
 70
     0
  4
"
 41
2.5
 42
1.0
 43
10.0
 44
1.0
 47
0.1
 48
0.1
 73
     0
 74
     0
 75
     1
 76
     1
 77
     1
 78
     8
 79
     2
 90
     1
140
3.5
141
0.0
143
0.0393701
144
2.0
146
0.71
147
1.5
172
     1
173
     1
176
   256
177
   256
178
     2
271
     2
272
     3
274
     4
283
     0
284
     8
340
11
343
74
371
    -1
372
    -1
  0
ENDTAB
  0
TABLE
  2
BLOCK_RECORD
  5
1
330
0
100
AcDbSymbolTable
 70
    30
  0
BLOCK_RECORD
  5
1F
102
{ACAD_XDICTIONARY
360
82
102
}
330
1
100
AcDbSymbolTableRecord
100
AcDbBlockTableRecord
  2
*Model_Space
340
22
 70
     0
280
     1
281
     0
  0
BLOCK_RECORD
  5
1B
330
1
100
AcDbSymbolTableRecord
100
AcDbBlockTableRecord
  2
*Paper_Space
340
1E
 70
     0
280
     1
281
     0
  0
BLOCK_RECORD
  5
23
330
1
100
AcDbSymbolTableRecord
100
AcDbBlockTableRecord
  2
*Paper_Space0
340
26
 70
     0
280
     1
281
     0
  0
BLOCK_RECORD
  5
69
330
1
100
AcDbSymbolTableRecord
100
AcDbBlockTableRecord
  2
_Open30
340
0
102
{BLKREFS
331
93C3
331
93C4
331
94C5
331
94C6
331
94DC
331
94DD
331
9560
331
9561
331
9696
331
9697
331
96A8
331
96A9
331
96BA
331
96BB
331
975C
331
975D
331
9790
331
9791
331
A85A
331
A85B
331
AD0C
331
AD0D
331
AEA4
331
AF60
331
B190
331
B191
102
}
 70
     0
280
     1
281
     0
  0
BLOCK_RECORD
  5
74
330
1
100
AcDbSymbolTableRecord
100
AcDbBlockTableRecord
  2
GENAXEH
340
0
 70
     0
280
     1
281
     0
  0
BLOCK_RECORD
  5
5558
102
{ACAD_XDICTIONARY
360
5583
102
}
330
1
100
AcDbSymbolTableRecord
100
AcDbBlockTableRecord
  2
ロッカクアナツキプラグ R1／8
340
0
310
2800000020000000200000000100080000000000000400000000000000000000000000000000000000000000000080000080000000808000800000008000800080800000C0C0C000C0DCC000F0CAA6000020400000206000002080000020A0000020C0000020E00000400000004020000040400000406000004080000040A0
310
000040C0000040E00000600000006020000060400000606000006080000060A0000060C0000060E00000800000008020000080400000806000008080000080A0000080C0000080E00000A0000000A0200000A0400000A0600000A0800000A0A00000A0C00000A0E00000C0000000C0200000C0400000C0600000C0800000C0
310
A00000C0C00000C0E00000E0000000E0200000E0400000E0600000E0800000E0A00000E0C00000E0E00040000000400020004000400040006000400080004000A0004000C0004000E00040200000402020004020400040206000402080004020A0004020C0004020E000404000004040200040404000404060004040800040
310
40A0004040C0004040E00040600000406020004060400040606000406080004060A0004060C0004060E00040800000408020004080400040806000408080004080A0004080C0004080E00040A0000040A0200040A0400040A0600040A0800040A0A00040A0C00040A0E00040C0000040C0200040C0400040C0600040C08000
310
40C0A00040C0C00040C0E00040E0000040E0200040E0400040E0600040E0800040E0A00040E0C00040E0E00080000000800020008000400080006000800080008000A0008000C0008000E00080200000802020008020400080206000802080008020A0008020C0008020E00080400000804020008040400080406000804080
310
008040A0008040C0008040E00080600000806020008060400080606000806080008060A0008060C0008060E00080800000808020008080400080806000808080008080A0008080C0008080E00080A0000080A0200080A0400080A0600080A0800080A0A00080A0C00080A0E00080C0000080C0200080C0400080C0600080C0
310
800080C0A00080C0C00080C0E00080E0000080E0200080E0400080E0600080E0800080E0A00080E0C00080E0E000C0000000C0002000C0004000C0006000C0008000C000A000C000C000C000E000C0200000C0202000C0204000C0206000C0208000C020A000C020C000C020E000C0400000C0402000C0404000C0406000C0
310
408000C040A000C040C000C040E000C0600000C0602000C0604000C0606000C0608000C060A000C060C000C060E000C0800000C0802000C0804000C0806000C0808000C080A000C080C000C080E000C0A00000C0A02000C0A04000C0A06000C0A08000C0A0A000C0A0C000C0A0E000C0C00000C0C02000C0C04000C0C06000
310
C0C08000C0C0A000F0FBFF00A4A0A000808080000000FF0000FF000000FFFF00FF000000FF00FF00FFFF0000FFFFFF00000000000000000000000000000000000000000000000000000000000000000000000000000000000000000000000000F9000000000000000000000000000000000000000000000000000000000000
310
00F900000000000000000000000000000000000000000000000000000000000000F90000000000000000000000000000000000000000000000000000000000FFFFF9000000000000000000000000000000000000000000000000000000FFFFFEFEFEFEFFFFFF000000000000000000000000000000000000000000FFFFFEFE
310
0000F900FEFE00FF000000000000000000000000000000000000FFFFFEFE00000000F9000000FEFEFF00000000000000000000000000000000FF00FE000000000000F90000000000FEFFFF00000000000000000000000000FF00FE00000000000000F9000000000000FEFF00000000000000000000000000FF00FE00000000
310
000000FF00000000000000FEFF0000000000000000000000FF00FE000000000000FFFFF9FF000000000000FEFF0000000000000000000000FF00FE00000000FFFF0000F900FFFF0000000000FEFF00000000000000000000FFFE00000000FF00000000F9000000FF00000000FEFF00000000000000000000FFFE0000000000
310
00000000F9000000FF00000000FEFF00000000000000000000FE00000000000000000000F9000000FF0000000000FEFF0000000000F9F9F9F9F9F9F9F9F9F9F9F9F9F9F9F9F9F9F9FFF9F9F9F9F9F9F9F9F9F9000000000000FFFE000000000000000000F9000000FF0000000000FEFF000000000000000000FFFE00000000
310
FF00000000F9000000FF00000000FEFF00000000000000000000FF00FE00000000FFFF0000F90000FF0000000000FEFF00000000000000000000FF00FE000000000000FFFFF9FFFF0000000000FEFF000000000000000000000000FF00FE00000000000000FF00000000000000FEFF000000000000000000000000FF00FE00
310
000000000000F9000000000000FEFF0000000000000000000000000000FF00FE000000000000F90000000000FE00FF000000000000000000000000000000FF00FE0000000000F900000000FEFFFF0000000000000000000000000000000000FFFFFEFE000000F90000FEFEFF00000000000000000000000000000000000000
310
0000FFFFFEFEFEFEFEFEFFFF00000000000000000000000000000000000000000000000000FFFFF900000000000000000000000000000000000000000000000000000000000000F900000000000000000000000000000000000000000000000000000000000000F90000000000000000000000000000000000000000000000
310
0000000000000000F90000000000000000000000000000000000000000000000000000000000000000000000000000000000000000000000
102
{BLKREFS
331
568E
102
}
 70
     4
280
     1
281
     0
  0
BLOCK_RECORD
  5
5650
102
{ACAD_XDICTIONARY
360
5714
102
}
330
1
100
AcDbSymbolTableRecord
100
AcDbBlockTableRecord
  2
ケースＡ SSM112
340
0
310
2800000020000000200000000100080000000000000400000000000000000000000000000000000000000000000080000080000000808000800000008000800080800000C0C0C000C0DCC000F0CAA6000020400000206000002080000020A0000020C0000020E00000400000004020000040400000406000004080000040A0
310
000040C0000040E00000600000006020000060400000606000006080000060A0000060C0000060E00000800000008020000080400000806000008080000080A0000080C0000080E00000A0000000A0200000A0400000A0600000A0800000A0A00000A0C00000A0E00000C0000000C0200000C0400000C0600000C0800000C0
310
A00000C0C00000C0E00000E0000000E0200000E0400000E0600000E0800000E0A00000E0C00000E0E00040000000400020004000400040006000400080004000A0004000C0004000E00040200000402020004020400040206000402080004020A0004020C0004020E000404000004040200040404000404060004040800040
310
40A0004040C0004040E00040600000406020004060400040606000406080004060A0004060C0004060E00040800000408020004080400040806000408080004080A0004080C0004080E00040A0000040A0200040A0400040A0600040A0800040A0A00040A0C00040A0E00040C0000040C0200040C0400040C0600040C08000
310
40C0A00040C0C00040C0E00040E0000040E0200040E0400040E0600040E0800040E0A00040E0C00040E0E00080000000800020008000400080006000800080008000A0008000C0008000E00080200000802020008020400080206000802080008020A0008020C0008020E00080400000804020008040400080406000804080
310
008040A0008040C0008040E00080600000806020008060400080606000806080008060A0008060C0008060E00080800000808020008080400080806000808080008080A0008080C0008080E00080A0000080A0200080A0400080A0600080A0800080A0A00080A0C00080A0E00080C0000080C0200080C0400080C0600080C0
310
800080C0A00080C0C00080C0E00080E0000080E0200080E0400080E0600080E0800080E0A00080E0C00080E0E000C0000000C0002000C0004000C0006000C0008000C000A000C000C000C000E000C0200000C0202000C0204000C0206000C0208000C020A000C020C000C020E000C0400000C0402000C0404000C0406000C0
310
408000C040A000C040C000C040E000C0600000C0602000C0604000C0606000C0608000C060A000C060C000C060E000C0800000C0802000C0804000C0806000C0808000C080A000C080C000C080E000C0A00000C0A02000C0A04000C0A06000C0A08000C0A0A000C0A0C000C0A0E000C0C00000C0C02000C0C04000C0C06000
310
C0C08000C0C0A000F0FBFF00A4A0A000808080000000FF0000FF000000FFFF00FF000000FF00FF00FFFF0000FFFFFF000000000000000000000000000000000000000000000000000000000000000000000000000000000000000000FFFFFFFFFF000000000000000000000000000000000000000000000000000000FF0000
310
00FF000000000000000000000000000000000000000000000000000000FF000000FF000000000000000000000000000000000000000000000000000000FF000000FF000000000000000000000000000000000000000000000000000000FF000000FF000000000000000000000000000000000000000000000000000000FF00
310
0000FFFFFFFFFFFFFF000000000000000000000000000000000000000000FF000000FF0000000000FF000000000000000000000000000000000000000000FF00FEFEFF0000000000FF000000000000000000000000000000000000000000FFF9FFFFF90000000000FF000000000000000000000000000000000000000000FF
310
FEFFFFFF0000000000FF000000000000000000000000000000000000000000FF00F900FF0000000000FF000000000000000000000000000000000000000000FF000000FF0000000000FF000000000000000000000000000000000000000000FF000000FF0000000000FF000000000000000000000000000000000000000000
310
FF000000FF0000000000FF000000000000000000000000000000000000000000FF000000FF0000000000FF000000000000000000000000000000000000000000000000000000000000000000000000000000000000000000000000000000000000000000000000000000000000000000000000000000000000000000000000
310
00000000000000000000000000000000000000000000000000000000000000000000000000000000000000000000000000000000000000000000000000000000000000000000000000000000000000000000000000000000000000000000000000000000000000000000000000000000000000000000000000000000000000
310
0000000000000000000000000000000000000000000000000000000000000000000000000000FF0000FFFFFFFF000000000000000000000000000000000000000000FFFFFFFFFFF9F9FFFFFFFF000000000000000000000000000000000000000000FFFF000000FFFFFFFFFFFF000000000000000000000000000000000000
310
000000FFFF0000FF000000000000000000000000000000000000000000000000FFFFFFFFFFFFFFFF00000000000000000000000000000000000000000000000000000000000000FF000000000000000000000000000000000000000000000000000000FFFFFFFFFF0000000000000000000000000000000000000000000000
310
00000000FFFFFFFFFF0000000000000000000000000000000000000000000000000000000000000000000000000000000000000000000000
102
{BLKREFS
331
568F
102
}
 70
     4
280
     1
281
     0
  0
BLOCK_RECORD
  5
5821
102
{ACAD_XDICTIONARY
360
5A49
102
}
330
1
100
AcDbSymbolTableRecord
100
AcDbBlockTableRecord
  2
ケースＢ SSM112
340
0
310
2800000020000000200000000100080000000000000400000000000000000000000000000000000000000000000080000080000000808000800000008000800080800000C0C0C000C0DCC000F0CAA6000020400000206000002080000020A0000020C0000020E00000400000004020000040400000406000004080000040A0
310
000040C0000040E00000600000006020000060400000606000006080000060A0000060C0000060E00000800000008020000080400000806000008080000080A0000080C0000080E00000A0000000A0200000A0400000A0600000A0800000A0A00000A0C00000A0E00000C0000000C0200000C0400000C0600000C0800000C0
310
A00000C0C00000C0E00000E0000000E0200000E0400000E0600000E0800000E0A00000E0C00000E0E00040000000400020004000400040006000400080004000A0004000C0004000E00040200000402020004020400040206000402080004020A0004020C0004020E000404000004040200040404000404060004040800040
310
40A0004040C0004040E00040600000406020004060400040606000406080004060A0004060C0004060E00040800000408020004080400040806000408080004080A0004080C0004080E00040A0000040A0200040A0400040A0600040A0800040A0A00040A0C00040A0E00040C0000040C0200040C0400040C0600040C08000
310
40C0A00040C0C00040C0E00040E0000040E0200040E0400040E0600040E0800040E0A00040E0C00040E0E00080000000800020008000400080006000800080008000A0008000C0008000E00080200000802020008020400080206000802080008020A0008020C0008020E00080400000804020008040400080406000804080
310
008040A0008040C0008040E00080600000806020008060400080606000806080008060A0008060C0008060E00080800000808020008080400080806000808080008080A0008080C0008080E00080A0000080A0200080A0400080A0600080A0800080A0A00080A0C00080A0E00080C0000080C0200080C0400080C0600080C0
310
800080C0A00080C0C00080C0E00080E0000080E0200080E0400080E0600080E0800080E0A00080E0C00080E0E000C0000000C0002000C0004000C0006000C0008000C000A000C000C000C000E000C0200000C0202000C0204000C0206000C0208000C020A000C020C000C020E000C0400000C0402000C0404000C0406000C0
310
408000C040A000C040C000C040E000C0600000C0602000C0604000C0606000C0608000C060A000C060C000C060E000C0800000C0802000C0804000C0806000C0808000C080A000C080C000C080E000C0A00000C0A02000C0A04000C0A06000C0A08000C0A0A000C0A0C000C0A0E000C0C00000C0C02000C0C04000C0C06000
310
C0C08000C0C0A000F0FBFF00A4A0A000808080000000FF0000FF000000FFFF00FF000000FF00FF00FFFF0000FFFFFF0000000000000000000000000000000000000000000000000000000000000000000000000000000000000000000000FFFFFFFFFF000000000000000000000000000000000000000000000000000000FF
310
000000000000000000000000000000000000000000000000000000000000F9F9F9F9F9F9F9F9F9F9F900000000000000000000000000000000000000000000FF00000000000000000000000000000000000000000000000000000000000000FF00000000000000000000000000000000000000000000000000FFFFFFFFFFFF
310
FF00000000000000000000000000000000000000000000000000FF0000000000FF00000000000000000000000000000000000000000000000000FF0000000000FF00000000000000000000000000000000000000000000000000FF0000000000FF00000000000000000000000000000000000000000000000000FF00000000
310
00FF00000000000000000000000000000000000000000000000000FF0000000000FF00000000000000000000000000000000000000000000000000FF0000000000FF00000000000000000000000000000000000000000000000000FF0000000000FF00000000000000000000000000000000000000000000000000FF000000
310
0000FF00000000000000000000000000000000000000000000000000FF0000000000FF0000000000000000000000000000000000000000000000000000000000000000000000000000000000000000000000000000000000000000000000000000000000000000000000000000000000000000000000000000000000000000
310
00000000000000000000000000000000000000000000000000000000000000000000000000000000000000000000000000000000000000000000000000000000000000000000000000000000000000000000000000000000000000000000000000000000000000000000000000000000000000000000000000000000000000
310
000000000000000000000000000000000000000000000000000000000000FFFFFFFF000000FF000000000000000000000000000000000000000000000000FFFFFFFFFFF9FFFFFFFF00000000000000000000000000000000000000000000FFFFFFFFFFFF000000FFFF00000000000000000000000000000000000000000000
310
0000000000FF000000FF000000000000000000000000000000000000000000000000000000FFFFFFFFFFFFFFFF000000000000000000000000000000000000000000000000FF00000000000000000000000000000000000000000000000000000000000000FFFFFFFFFF000000000000000000000000000000000000000000
310
000000000000FFFFFFFFFF000000000000000000000000000000000000000000000000000000000000000000000000000000000000000000
102
{BLKREFS
331
5F79
102
}
 70
     4
280
     1
281
     0
  0
BLOCK_RECORD
  5
5B26
102
{ACAD_XDICTIONARY
360
5B78
102
}
330
1
100
AcDbSymbolTableRecord
100
AcDbBlockTableRecord
  2
センタＡ SSM112
340
0
310
2800000020000000200000000100080000000000000400000000000000000000000000000000000000000000000080000080000000808000800000008000800080800000C0C0C000C0DCC000F0CAA6000020400000206000002080000020A0000020C0000020E00000400000004020000040400000406000004080000040A0
310
000040C0000040E00000600000006020000060400000606000006080000060A0000060C0000060E00000800000008020000080400000806000008080000080A0000080C0000080E00000A0000000A0200000A0400000A0600000A0800000A0A00000A0C00000A0E00000C0000000C0200000C0400000C0600000C0800000C0
310
A00000C0C00000C0E00000E0000000E0200000E0400000E0600000E0800000E0A00000E0C00000E0E00040000000400020004000400040006000400080004000A0004000C0004000E00040200000402020004020400040206000402080004020A0004020C0004020E000404000004040200040404000404060004040800040
310
40A0004040C0004040E00040600000406020004060400040606000406080004060A0004060C0004060E00040800000408020004080400040806000408080004080A0004080C0004080E00040A0000040A0200040A0400040A0600040A0800040A0A00040A0C00040A0E00040C0000040C0200040C0400040C0600040C08000
310
40C0A00040C0C00040C0E00040E0000040E0200040E0400040E0600040E0800040E0A00040E0C00040E0E00080000000800020008000400080006000800080008000A0008000C0008000E00080200000802020008020400080206000802080008020A0008020C0008020E00080400000804020008040400080406000804080
310
008040A0008040C0008040E00080600000806020008060400080606000806080008060A0008060C0008060E00080800000808020008080400080806000808080008080A0008080C0008080E00080A0000080A0200080A0400080A0600080A0800080A0A00080A0C00080A0E00080C0000080C0200080C0400080C0600080C0
310
800080C0A00080C0C00080C0E00080E0000080E0200080E0400080E0600080E0800080E0A00080E0C00080E0E000C0000000C0002000C0004000C0006000C0008000C000A000C000C000C000E000C0200000C0202000C0204000C0206000C0208000C020A000C020C000C020E000C0400000C0402000C0404000C0406000C0
310
408000C040A000C040C000C040E000C0600000C0602000C0604000C0606000C0608000C060A000C060C000C060E000C0800000C0802000C0804000C0806000C0808000C080A000C080C000C080E000C0A00000C0A02000C0A04000C0A06000C0A08000C0A0A000C0A0C000C0A0E000C0C00000C0C02000C0C04000C0C06000
310
C0C08000C0C0A000F0FBFF00A4A0A000808080000000FF0000FF000000FFFF00FF000000FF00FF00FFFF0000FFFFFF0000000000000000000000000000000000000000000000000000000000000000000000000000000000000000000000000000000000FFFFFFFFFFFF000000000000000000000000000000000000000000
310
0000000000000000000000FF00000000000000000000000000000000000000000000000000000000000000FF00000000000000000000000000000000000000000000000000000000000000FF00000000000000000000000000000000000000000000000000000000000000FF00000000000000000000000000000000000000
310
000000000000000000000000FF00000000000000000000000000000000000000000000000000000000000000FF00000000000000000000000000000000000000000000000000000000000000FF00000000000000000000000000000000000000000000000000000000000000FF000000000000000000000000000000000000
310
00000000000000000000000000FF00000000000000000000000000000000000000000000000000000000000000FF00000000000000000000000000000000000000000000000000000000000000FF00000000000000000000FF00000000000000000000000000000000000000FFFF00000000000000000000FF000000000000
310
00000000000000000000000000FFFF00000000000000000000FF00000000000000000000000000000000000000FFFF00000000000000000000FF00000000000000000000000000000000000000FFFF00000000000000000000FF00000000000000000000000000000000000000FFFF00000000000000000000FF0000000000
310
0000000000000000000000000000FFFF00000000000000000000FF00000000000000000000000000000000000000FFFF00000000000000000000FFFFFFFFFFFFFFFFFFFFFFFFFFFFFFFFFFFFFFFFFFFF00000000000000000000FFFFFFFFFFFFFFFFFFFFFFFFFFFFFFFFFFFFFFFFFFFF00000000000000000000FF00000000
310
00000000000000000000000000000000FF00000000000000000000FF0000000000000000000000000000000000000000FF00000000000000000000FF000000000000F900000000000000000000000000FF00000000000000000000FFFFFFFFFFFF00F900FFFFFFFFFFFFFFFFFFFFFFFF000000000000000000000000000000
310
00FFFFF9FFFF0000000000000000000000000000000000000000000000000000F9FFF9F9F9FFF900000000000000000000000000000000000000000000000000000000F900000000000000000000000000000000000000000000000000000000000000F9000000000000000000000000000000000000000000000000000000
310
00000000F9000000000000000000000000000000000000000000000000000000000000000000000000000000000000000000000000000000
102
{BLKREFS
331
5B3F
102
}
 70
     4
280
     1
281
     0
  0
BLOCK_RECORD
  5
5BDF
102
{ACAD_XDICTIONARY
360
5C2E
102
}
330
1
100
AcDbSymbolTableRecord
100
AcDbBlockTableRecord
  2
センタＢ SSM112
340
0
310
2800000020000000200000000100080000000000000400000000000000000000000000000000000000000000000080000080000000808000800000008000800080800000C0C0C000C0DCC000F0CAA6000020400000206000002080000020A0000020C0000020E00000400000004020000040400000406000004080000040A0
310
000040C0000040E00000600000006020000060400000606000006080000060A0000060C0000060E00000800000008020000080400000806000008080000080A0000080C0000080E00000A0000000A0200000A0400000A0600000A0800000A0A00000A0C00000A0E00000C0000000C0200000C0400000C0600000C0800000C0
310
A00000C0C00000C0E00000E0000000E0200000E0400000E0600000E0800000E0A00000E0C00000E0E00040000000400020004000400040006000400080004000A0004000C0004000E00040200000402020004020400040206000402080004020A0004020C0004020E000404000004040200040404000404060004040800040
310
40A0004040C0004040E00040600000406020004060400040606000406080004060A0004060C0004060E00040800000408020004080400040806000408080004080A0004080C0004080E00040A0000040A0200040A0400040A0600040A0800040A0A00040A0C00040A0E00040C0000040C0200040C0400040C0600040C08000
310
40C0A00040C0C00040C0E00040E0000040E0200040E0400040E0600040E0800040E0A00040E0C00040E0E00080000000800020008000400080006000800080008000A0008000C0008000E00080200000802020008020400080206000802080008020A0008020C0008020E00080400000804020008040400080406000804080
310
008040A0008040C0008040E00080600000806020008060400080606000806080008060A0008060C0008060E00080800000808020008080400080806000808080008080A0008080C0008080E00080A0000080A0200080A0400080A0600080A0800080A0A00080A0C00080A0E00080C0000080C0200080C0400080C0600080C0
310
800080C0A00080C0C00080C0E00080E0000080E0200080E0400080E0600080E0800080E0A00080E0C00080E0E000C0000000C0002000C0004000C0006000C0008000C000A000C000C000C000E000C0200000C0202000C0204000C0206000C0208000C020A000C020C000C020E000C0400000C0402000C0404000C0406000C0
310
408000C040A000C040C000C040E000C0600000C0602000C0604000C0606000C0608000C060A000C060C000C060E000C0800000C0802000C0804000C0806000C0808000C080A000C080C000C080E000C0A00000C0A02000C0A04000C0A06000C0A08000C0A0A000C0A0C000C0A0E000C0C00000C0C02000C0C04000C0C06000
310
C0C08000C0C0A000F0FBFF00A4A0A000808080000000FF0000FF000000FFFF00FF000000FF00FF00FFFF0000FFFFFF00000000000000000000000000000000000000000000000000000000000000000000000000000000000000000000000000FFFFFFFFFF0000000000000000000000000000000000000000000000000000
310
00FF000000FF0000000000000000000000000000000000000000000000000000F9F9F9F9F9FFF9F9F9F9F900000000000000000000000000000000000000000000FF000000FF000000000000000000000000000000000000000000000000000000FF000000FF000000000000000000000000000000000000000000FFFFFFFF
310
FFFFFF000000FF000000000000000000000000000000000000000000FF0000000000FF000000FF000000000000000000000000000000000000FFFFFFFF0000000000FF000000FF0000000000000000000000000000000000FF000000FF0000000000FF000000FF0000000000000000000000000000000000FF000000FF0000
310
000000FF000000FF0000000000000000000000000000000000FF000000FF0000000000FF000000FF0000000000000000000000000000000000FF000000FF0000000000FF000000FF0000000000000000000000000000000000FF000000FF0000000000FF000000FF0000000000000000000000000000000000FF000000FF00
310
00000000FF000000FF0000000000000000000000000000000000FF000000FF0000000000FF0000FFFF0000000000000000000000000000000000FF000000000000000000000000FF000000000000000000000000000000000000FF000000000000000000000000FF000000000000000000000000000000000000FF00000000
310
0000000000000000FF000000000000000000000000000000000000FFFFFFFFFFFFFFFFFFFFFFFFFFFF000000000000000000000000000000000000FFFFFFFFFFFFFFFFFFFFFFFFFFFF000000000000000000000000000000000000FF000000000000000000000000FF000000000000000000000000000000000000FF000000
310
0000000000F9000000FF00000000000000000000000000000000000000FFFFFFFFFFFFFFFFF9FFFFFFFF00000000000000000000000000000000000000000000FFFFFFFFA4F9FFFFFFFF00000000000000000000000000000000000000000000FFFFFFFFFFFF000000FFFF0000000000000000000000000000000000000000
310
00000000000000FF000000FF000000000000000000000000000000000000000000000000000000FFFFFFFFFFFFFFFF000000000000000000000000000000000000000000000000FF00000000000000000000000000000000000000000000000000000000000000FFFFFFFFFF00000000000000000000000000000000000000
310
0000000000000000FFFFFFFFFF00000000000000000000000000000000000000000000000000000000000000000000000000000000000000
102
{BLKREFS
331
5BFA
102
}
 70
     4
280
     1
281
     0
  0
BLOCK_RECORD
  5
5EB9
102
{ACAD_XDICTIONARY
360
5FB1
102
}
330
1
100
AcDbSymbolTableRecord
100
AcDbBlockTableRecord
  2
リーマボルト SSM112 M6
340
0
310
2800000020000000200000000100080000000000000400000000000000000000000000000000000000000000000080000080000000808000800000008000800080800000C0C0C000C0DCC000F0CAA6000020400000206000002080000020A0000020C0000020E00000400000004020000040400000406000004080000040A0
310
000040C0000040E00000600000006020000060400000606000006080000060A0000060C0000060E00000800000008020000080400000806000008080000080A0000080C0000080E00000A0000000A0200000A0400000A0600000A0800000A0A00000A0C00000A0E00000C0000000C0200000C0400000C0600000C0800000C0
310
A00000C0C00000C0E00000E0000000E0200000E0400000E0600000E0800000E0A00000E0C00000E0E00040000000400020004000400040006000400080004000A0004000C0004000E00040200000402020004020400040206000402080004020A0004020C0004020E000404000004040200040404000404060004040800040
310
40A0004040C0004040E00040600000406020004060400040606000406080004060A0004060C0004060E00040800000408020004080400040806000408080004080A0004080C0004080E00040A0000040A0200040A0400040A0600040A0800040A0A00040A0C00040A0E00040C0000040C0200040C0400040C0600040C08000
310
40C0A00040C0C00040C0E00040E0000040E0200040E0400040E0600040E0800040E0A00040E0C00040E0E00080000000800020008000400080006000800080008000A0008000C0008000E00080200000802020008020400080206000802080008020A0008020C0008020E00080400000804020008040400080406000804080
310
008040A0008040C0008040E00080600000806020008060400080606000806080008060A0008060C0008060E00080800000808020008080400080806000808080008080A0008080C0008080E00080A0000080A0200080A0400080A0600080A0800080A0A00080A0C00080A0E00080C0000080C0200080C0400080C0600080C0
310
800080C0A00080C0C00080C0E00080E0000080E0200080E0400080E0600080E0800080E0A00080E0C00080E0E000C0000000C0002000C0004000C0006000C0008000C000A000C000C000C000E000C0200000C0202000C0204000C0206000C0208000C020A000C020C000C020E000C0400000C0402000C0404000C0406000C0
310
408000C040A000C040C000C040E000C0600000C0602000C0604000C0606000C0608000C060A000C060C000C060E000C0800000C0802000C0804000C0806000C0808000C080A000C080C000C080E000C0A00000C0A02000C0A04000C0A06000C0A08000C0A0A000C0A0C000C0A0E000C0C00000C0C02000C0C04000C0C06000
310
C0C08000C0C0A000F0FBFF00A4A0A000808080000000FF0000FF000000FFFF00FF000000FF00FF00FFFF0000FFFFFF0000000000000000000000000000000000000000000000000000000000000000000000000000000000000000000000FFFFFFFFFF000000000000000000000000000000000000000000000000000000FF
310
000000FF00000000000000000000000000000000000000000000000000F9F9F9F9F9F9FFF9F9F9F9F900000000000000000000000000000000000000000000FF000000FF000000000000000000000000000000000000000000000000000000FF000000FF0000000000000000000000000000000000000000FFFFFFFFFFFFFF
310
FF000000FF0000000000000000000000000000000000000000FF000000000000FF000000FF0000000000000000000000000000000000000000FF000000000000FF000000FF0000000000000000000000000000000000000000FF000000000000FF000000FF0000000000000000000000000000000000000000FF0000000000
310
00FF000000FF0000000000000000000000000000000000000000FF000000000000FF000000FF0000000000000000000000000000000000000000FF000000000000FF000000FF0000000000000000000000000000000000000000FF000000000000FF000000FF0000000000000000000000000000000000000000FF00000000
310
0000FF000000FF0000000000000000000000000000000000000000FF000000000000FF000000FF00000000000000000000000000000000000000000000000000000000000000000000000000000000000000000000000000000000000000000000000000000000000000000000000000000000000000000000000000000000
310
00000000000000000000000000000000000000000000000000000000000000000000000000000000000000000000000000000000000000000000000000000000000000000000000000000000000000000000000000000000000000000000000000000000000000000000000000000000000000000000000000000000000000
310
0000000000000000000000000000000000000000000000000000000000FFFFFFFF000000FF000000000000000000000000000000000000000000000000FFFFFFFFFFF9F9FFF9FFFF000000000000000000000000000000000000000000FFFFFFFFFFFFFF000000FFFF00000000000000000000000000000000000000000000
310
0000000000FF000000FF0000FFFF00000000000000000000000000000000000000000000FFFFFFFFFFFFFFFFFFFFFFFF0000000000000000000000000000000000000000FFFF0000000000FFFFFFFFFF0000000000000000000000000000000000000000FFFFFFFFFFFF00FFFFFFFF00000000000000000000000000000000
310
000000000000FFFFFFFFFF000000000000000000000000000000000000000000000000000000000000000000000000000000000000000000
102
{BLKREFS
331
5EE9
102
}
 70
     4
280
     1
281
     0
  0
BLOCK_RECORD
  5
93A0
330
1
100
AcDbSymbolTableRecord
100
AcDbBlockTableRecord
  2
*D12
340
0
 70
     0
280
     1
281
     0
  0
BLOCK_RECORD
  5
94AB
330
1
100
AcDbSymbolTableRecord
100
AcDbBlockTableRecord
  2
*D13
340
0
 70
     0
280
     1
281
     0
  0
BLOCK_RECORD
  5
94CC
330
1
100
AcDbSymbolTableRecord
100
AcDbBlockTableRecord
  2
*D14
340
0
 70
     0
280
     1
281
     0
  0
BLOCK_RECORD
  5
951A
330
1
100
AcDbSymbolTableRecord
100
AcDbBlockTableRecord
  2
*D15
340
0
 70
     0
280
     1
281
     0
  0
BLOCK_RECORD
  5
9550
330
1
100
AcDbSymbolTableRecord
100
AcDbBlockTableRecord
  2
*D16
340
0
 70
     0
280
     1
281
     0
  0
BLOCK_RECORD
  5
9637
330
1
100
AcDbSymbolTableRecord
100
AcDbBlockTableRecord
  2
*D17
340
0
 70
     0
280
     1
281
     0
  0
BLOCK_RECORD
  5
964F
330
1
100
AcDbSymbolTableRecord
100
AcDbBlockTableRecord
  2
*D18
340
0
 70
     0
280
     1
281
     0
  0
BLOCK_RECORD
  5
9667
330
1
100
AcDbSymbolTableRecord
100
AcDbBlockTableRecord
  2
*D19
340
0
 70
     0
280
     1
281
     0
  0
BLOCK_RECORD
  5
974C
330
1
100
AcDbSymbolTableRecord
100
AcDbBlockTableRecord
  2
*D20
340
0
 70
     0
280
     1
281
     0
  0
BLOCK_RECORD
  5
9780
330
1
100
AcDbSymbolTableRecord
100
AcDbBlockTableRecord
  2
*D21
340
0
 70
     0
280
     1
281
     0
  0
BLOCK_RECORD
  5
97B4
330
1
100
AcDbSymbolTableRecord
100
AcDbBlockTableRecord
  2
*D22
340
0
 70
     0
280
     1
281
     0
  0
BLOCK_RECORD
  5
A82F
330
1
100
AcDbSymbolTableRecord
100
AcDbBlockTableRecord
  2
*D23
340
0
 70
     0
280
     1
281
     0
  0
BLOCK_RECORD
  5
AD88
330
1
100
AcDbSymbolTableRecord
100
AcDbBlockTableRecord
  2
*D24
340
0
 70
     0
280
     1
281
     0
  0
BLOCK_RECORD
  5
AE59
330
1
100
AcDbSymbolTableRecord
100
AcDbBlockTableRecord
  2
*D25
340
0
 70
     0
280
     1
281
     0
  0
BLOCK_RECORD
  5
AE9A
330
1
100
AcDbSymbolTableRecord
100
AcDbBlockTableRecord
  2
_DotSmall
340
0
102
{BLKREFS
331
AEA3
331
AF53
331
AF54
331
AF5F
102
}
 70
     0
280
     1
281
     0
  0
BLOCK_RECORD
  5
AEB3
330
1
100
AcDbSymbolTableRecord
100
AcDbBlockTableRecord
  2
*D27
340
0
 70
     0
280
     1
281
     0
  0
BLOCK_RECORD
  5
B2B3
102
{ACAD_XDICTIONARY
360
B2F8
102
}
330
1
100
AcDbSymbolTableRecord
100
AcDbBlockTableRecord
  2
ケース
340
0
310
2800000020000000200000000100080000000000000400000000000000000000000000000000000000000000000080000080000000808000800000008000800080800000C0C0C000C0DCC000F0CAA6000020400000206000002080000020A0000020C0000020E00000400000004020000040400000406000004080000040A0
310
000040C0000040E00000600000006020000060400000606000006080000060A0000060C0000060E00000800000008020000080400000806000008080000080A0000080C0000080E00000A0000000A0200000A0400000A0600000A0800000A0A00000A0C00000A0E00000C0000000C0200000C0400000C0600000C0800000C0
310
A00000C0C00000C0E00000E0000000E0200000E0400000E0600000E0800000E0A00000E0C00000E0E00040000000400020004000400040006000400080004000A0004000C0004000E00040200000402020004020400040206000402080004020A0004020C0004020E000404000004040200040404000404060004040800040
310
40A0004040C0004040E00040600000406020004060400040606000406080004060A0004060C0004060E00040800000408020004080400040806000408080004080A0004080C0004080E00040A0000040A0200040A0400040A0600040A0800040A0A00040A0C00040A0E00040C0000040C0200040C0400040C0600040C08000
310
40C0A00040C0C00040C0E00040E0000040E0200040E0400040E0600040E0800040E0A00040E0C00040E0E00080000000800020008000400080006000800080008000A0008000C0008000E00080200000802020008020400080206000802080008020A0008020C0008020E00080400000804020008040400080406000804080
310
008040A0008040C0008040E00080600000806020008060400080606000806080008060A0008060C0008060E00080800000808020008080400080806000808080008080A0008080C0008080E00080A0000080A0200080A0400080A0600080A0800080A0A00080A0C00080A0E00080C0000080C0200080C0400080C0600080C0
310
800080C0A00080C0C00080C0E00080E0000080E0200080E0400080E0600080E0800080E0A00080E0C00080E0E000C0000000C0002000C0004000C0006000C0008000C000A000C000C000C000E000C0200000C0202000C0204000C0206000C0208000C020A000C020C000C020E000C0400000C0402000C0404000C0406000C0
310
408000C040A000C040C000C040E000C0600000C0602000C0604000C0606000C0608000C060A000C060C000C060E000C0800000C0802000C0804000C0806000C0808000C080A000C080C000C080E000C0A00000C0A02000C0A04000C0A06000C0A08000C0A0A000C0A0C000C0A0E000C0C00000C0C02000C0C04000C0C06000
310
C0C08000C0C0A000F0FBFF00A4A0A000808080000000FF0000FF000000FFFF00FF000000FF00FF00FFFF0000FFFFFF0000000000000000000000000000000000000000000000000000000000000000000000000000000000000000000000000000000000000000000000000000000000000000000000000000000000000000
310
00000000000000000000000000000000000000000000000000000000000000000000000000000000000000000000000000000000000000000000000000000000000000000000000000000000000000000000000000000000000000000000000000000000000000000000000000000000000000000000000000000000000000
310
00000000000000000000000000000000000000FC000000FC000000000000000000000000FC0000FC0000000000000000000000FCFCFCFCFC000000000000000000000000FCFCFCFC0000000000000000000000FC000000FC000000000000000000000000FC0000FC0000000000000000000000FC000000FC00000000000000
310
0000000000FC0000FC0000000000000000000000FC000000FC000000000000000000000000FC0000FC0000000000FCFCFCFC0000FC000000FC000000000000000000000000FC0000FC00000000FC000000000000FC000000FC000000000000000000000000FC0000FC00FCFCFCFCFCFCFCFC0000FC000000FC000000000000
310
000000000000FC0000FC00000000FC000000000000FC00000000FCFCFCFCFCFCFCFCFCFCFCFC000000FC00000000FC000000000000FC0000000000000000000000000000000000000000FC000000FCFCFCFCFC0000FC000000000000000000000000000000000000000000FCFCFC00000000000000FC000000000000000000
310
00000000000000000000000000000000000000000000FC0000000000000000000000000000000000000000000000000000000000000000FC0000000000000000000000000000000000000000000000000000000000000000FC0000000000000000000000000000000000000000000000000000000000000000FC0000000000
310
000000000000000000000000000000000000000000000000000000FC0000000000000000000000000000000000000000000000000000000000000000FCFCFCFCFCFCFCFCFCFCFCFCFCFCFCFCFCFCFCFCFCFCFCFCFC000000000000000000000000000000000000000000000000000000000000000000000000000000000000
310
00000000000000000000000000000000000000000000000000000000000000000000000000000000000000000000000000000000000000000000000000000000000000000000000000000000000000000000000000000000000000000000000000000000000000000000000000000000000000000000000000000000000000
310
0000000000000000000000000000000000000000000000000000000000000000000000000000000000000000000000000000000000000000
102
{BLKREFS
331
B2CA
102
}
 70
     4
280
     1
281
     1
  0
ENDTAB
  0
ENDSEC
  0
SECTION
  2
BLOCKS
  0
BLOCK
  5
20
330
1F
100
AcDbEntity
  8
0
100
AcDbBlockBegin
  2
*Model_Space
 70
     0
 10
0.0
 20
0.0
 30
0.0
  3
*Model_Space
  1

  0
ENDBLK
  5
21
330
1F
100
AcDbEntity
  8
0
100
AcDbBlockEnd
  0
BLOCK
  5
1C
330
1B
100
AcDbEntity
 67
     1
  8
0
100
AcDbBlockBegin
  2
*Paper_Space
 70
     0
 10
0.0
 20
0.0
 30
0.0
  3
*Paper_Space
  1

  0
ENDBLK
  5
1D
330
1B
100
AcDbEntity
 67
     1
  8
0
100
AcDbBlockEnd
  0
BLOCK
  5
24
330
23
100
AcDbEntity
 67
     1
  8
0
100
AcDbBlockBegin
  2
*Paper_Space0
 70
     0
 10
0.0
 20
0.0
 30
0.0
  3
*Paper_Space0
  1

  0
ENDBLK
  5
25
330
23
100
AcDbEntity
 67
     1
  8
0
100
AcDbBlockEnd
  0
BLOCK
  5
6D
330
69
100
AcDbEntity
  8
0
100
AcDbBlockBegin
  2
_Open30
 70
     0
 10
0.0
 20
0.0
 30
0.0
  3
_Open30
  1

  0
LINE
  5
6A
330
69
100
AcDbEntity
  8
0
  6
ByBlock
 62
     0
370
    -2
100
AcDbLine
 10
-1.0
 20
0.26794919
 30
0.0
 11
0.0
 21
0.0
 31
0.0
  0
LINE
  5
6B
330
69
100
AcDbEntity
  8
0
  6
ByBlock
 62
     0
370
    -2
100
AcDbLine
 10
0.0
 20
0.0
 30
0.0
 11
-1.0
 21
-0.26794919
 31
0.0
  0
LINE
  5
6C
330
69
100
AcDbEntity
  8
0
  6
ByBlock
 62
     0
370
    -2
100
AcDbLine
 10
0.0
 20
0.0
 30
0.0
 11
-1.0
 21
0.0
 31
0.0
  0
ENDBLK
  5
6E
330
69
100
AcDbEntity
  8
0
100
AcDbBlockEnd
  0
BLOCK
  5
76
330
74
100
AcDbEntity
  8
0
100
AcDbBlockBegin
  2
GENAXEH
 70
     0
 10
0.0
 20
0.0
 30
0.0
  3
GENAXEH
  1

  0
LINE
  5
75
330
74
100
AcDbEntity
  8
0
100
AcDbLine
 10
-1.0
 20
0.0
 30
0.0
 11
1.0
 21
0.0
 31
0.0
  0
ENDBLK
  5
77
330
74
100
AcDbEntity
  8
0
100
AcDbBlockEnd
  0
BLOCK
  5
5559
330
5558
100
AcDbEntity
  8
0
100
AcDbBlockBegin
  2
ロッカクアナツキプラグ R1／8
 70
     0
 10
0.0
 20
0.0
 30
0.0
  3
ロッカクアナツキプラグ R1／8
  1

  0
CIRCLE
  5
555B
330
5558
100
AcDbEntity
  8
AM_0 外形線1
100
AcDbCircle
 10
0.0
 20
0.0
 30
0.0
 40
5.271232
  0
LINE
  5
555C
330
5558
100
AcDbEntity
  8
AM_7 中心線
100
AcDbLine
 10
0.0
 20
6.71623199999999
 30
0.0
 11
0.0
 21
-6.71623199999999
 31
0.0
  0
CIRCLE
  5
555D
330
5558
100
AcDbEntity
  8
AM_4 細線
100
AcDbCircle
 10
0.0
 20
0.0
 30
0.0
 40
4.816232
  0
LINE
  5
555E
330
5558
100
AcDbEntity
  8
AM_7 中心線
100
AcDbLine
 10
6.71623199999999
 20
0.0
 30
0.0
 11
-6.71623199999999
 21
0.0
 31
0.0
  0
LINE
  5
555F
330
5558
100
AcDbEntity
  8
AM_0 外形線1
100
AcDbLine
 10
0.0
 20
-2.514999999999985
 30
0.0
 11
2.178053999999974
 21
-1.257499999999936
 31
0.0
  0
LINE
  5
5560
330
5558
100
AcDbEntity
  8
AM_0 外形線1
100
AcDbLine
 10
2.178053999999974
 20
1.257499999999936
 30
0.0
 11
0.0
 21
2.514999999999985
 31
0.0
  0
LINE
  5
5561
330
5558
100
AcDbEntity
  8
AM_0 外形線1
100
AcDbLine
 10
-2.178053999999974
 20
-1.257499999999936
 30
0.0
 11
0.0
 21
-2.514999999999985
 31
0.0
  0
LINE
  5
5562
330
5558
100
AcDbEntity
  8
AM_0 外形線1
100
AcDbLine
 10
0.0
 20
2.514999999999985
 30
0.0
 11
-2.178053999999974
 21
1.257499999999936
 31
0.0
  0
LINE
  5
5563
330
5558
100
AcDbEntity
  8
AM_0 外形線1
100
AcDbLine
 10
2.178053999999974
 20
-1.257499999999936
 30
0.0
 11
2.178053999999974
 21
1.257499999999936
 31
0.0
  0
ENDBLK
  5
555A
330
5558
100
AcDbEntity
  8
0
100
AcDbBlockEnd
  0
BLOCK
  5
5651
330
5650
100
AcDbEntity
  8
0
100
AcDbBlockBegin
  2
ケースＡ SSM112
 70
     0
 10
0.0
 20
0.0
 30
0.0
  3
ケースＡ SSM112
  1

  0
LINE
  5
5653
330
5650
100
AcDbEntity
  8
AM_0 外形線1
100
AcDbLine
 10
0.0000000000000568
 20
0.0
 30
0.0
 11
0.0000000000000568
 21
-55.7999999999999
 31
0.0
  0
LINE
  5
5654
330
5650
100
AcDbEntity
  8
AM_0 外形線1
100
AcDbLine
 10
15.0
 20
-55.79999999999995
 30
0.0
 11
15.0
 21
0.0
 31
0.0
  0
LINE
  5
5655
330
5650
100
AcDbEntity
  8
AM_0 外形線1
100
AcDbLine
 10
0.2000000000000455
 20
-56.0
 30
0.0
 11
14.79999999999995
 21
-56.0
 31
0.0
  0
LINE
  5
5656
330
5650
100
AcDbEntity
  8
AM_0 外形線1
100
AcDbLine
 10
0.0
 20
-55.79999999999995
 30
0.0
 11
0.2000000000000455
 21
-56.0
 31
0.0
  0
LINE
  5
5657
330
5650
100
AcDbEntity
  8
AM_0 外形線1
100
AcDbLine
 10
14.79999999999995
 20
-56.0
 30
0.0
 11
15.0
 21
-55.79999999999995
 31
0.0
  0
ARC
  5
5658
330
5650
100
AcDbEntity
  8
AM_0 外形線1
100
AcDbCircle
 10
18.0
 20
-42.5
 30
0.0
 40
3.0
100
AcDbArc
 50
90.0
 51
180.0
  0
LINE
  5
5659
330
5650
100
AcDbEntity
  8
AM_0 外形線1
100
AcDbLine
 10
40.0
 20
-36.5
 30
0.0
 11
40.0
 21
0.0
 31
0.0
  0
ARC
  5
565A
330
5650
100
AcDbEntity
  8
AM_0 外形線1
100
AcDbCircle
 10
37.0
 20
-36.5
 30
0.0
 40
3.0
100
AcDbArc
 50
270.0
 51
0.0
  0
LINE
  5
565B
330
5650
100
AcDbEntity
  8
AM_0 外形線1
100
AcDbLine
 10
18.0
 20
-39.5
 30
0.0
 11
37.0
 21
-39.5
 31
0.0
  0
LINE
  5
565C
330
5650
100
AcDbEntity
  8
AM_3 隠れ線
100
AcDbLine
 10
15.0
 20
31.79999999999996
 30
0.0
 11
24.5
 21
31.79999999999996
 31
0.0
  0
ARC
  5
565D
330
5650
100
AcDbEntity
  8
AM_0 外形線1
100
AcDbCircle
 10
18.0
 20
42.5
 30
0.0
 40
3.0
100
AcDbArc
 50
180.0
 51
270.0
  0
LINE
  5
565E
330
5650
100
AcDbEntity
  8
AM_0 外形線1
100
AcDbLine
 10
13.0
 20
34.5
 30
0.0
 11
25.0
 21
34.5
 31
0.0
  0
LINE
  5
565F
330
5650
100
AcDbEntity
  8
AM_7 中心線
100
AcDbLine
 10
11.0
 20
33.0
 30
0.0
 11
27.0
 21
33.0
 31
0.0
  0
LINE
  5
5660
330
5650
100
AcDbEntity
  8
AM_0 外形線1
100
AcDbLine
 10
0.0
 20
46.0
 30
0.0
 11
15.0
 21
46.0
 31
0.0
  0
LWPOLYLINE
  5
5661
330
5650
100
AcDbEntity
  8
AM_0 外形線1
100
AcDbPolyline
 90
       73
 70
     0
 43
0.0
 10
1.225000000000021
 20
37.5
 10
1.329586999999946
 20
37.50742000000002
 10
1.433377999999946
 20
37.52962500000001
 10
1.535583000000086
 20
37.56644500000005
 10
1.635424000000056
 20
37.61759900000004
 10
1.732142000000066
 20
37.68270000000001
 10
1.825000000000045
 20
37.76125000000003
 10
1.913291999999954
 20
37.85265400000004
 10
1.996345000000019
 20
37.95621299999999
 10
2.073527999999896
 20
38.07114200000001
 10
2.144252999999935
 20
38.19656400000003
 10
2.2079819999999
 20
38.331526
 10
2.264229999999996
 20
38.47500000000002
 10
2.312568999999939
 20
38.62589400000003
 10
2.352630999999973
 20
38.78306099999998
 10
2.38411099999996
 20
38.94530299999997
 10
2.406768999999939
 20
39.11138599999997
 10
2.420434
 20
39.28004599999996
 10
2.424999999999954
 20
39.44999999999999
 10
2.420434
 20
39.61995400000001
 10
2.406768999999939
 20
39.78861399999999
 10
2.38411099999996
 20
39.95469700000001
 10
2.352630999999973
 20
40.116939
 10
2.312568999999939
 20
40.27410600000002
 10
2.264229999999996
 20
40.42500000000001
 10
2.2079819999999
 20
40.56847400000004
 10
2.144252999999935
 20
40.70343600000001
 10
2.073527999999896
 20
40.82885800000002
 10
1.996345000000019
 20
40.94378699999999
 10
1.913291999999954
 20
41.047346
 10
1.825000000000045
 20
41.13875000000001
 10
1.732142000000066
 20
41.21730000000002
 10
1.635424000000056
 20
41.28240099999999
 10
1.535583000000086
 20
41.33355499999999
 10
1.433377999999946
 20
41.37037500000002
 10
1.329586999999946
 20
41.39258
 10
1.225000000000021
 20
41.39999999999997
 10
1.120412999999985
 20
41.39258
 10
1.016622000000096
 20
41.37037500000002
 10
0.9144169999999576
 20
41.33355499999999
 10
0.814575999999988
 20
41.28240099999999
 10
0.7178579999999784
 20
41.21730000000002
 10
0.625
 20
41.13875000000001
 10
0.5367080000000897
 20
41.047346
 10
0.4536550000000262
 20
40.94378699999999
 10
0.3764720000000352
 20
40.82885800000002
 10
0.3057469999999967
 20
40.70343600000001
 10
0.24201800000003
 20
40.56847400000004
 10
0.1857700000000477
 20
40.42500000000001
 10
0.1374309999999923
 20
40.27410600000002
 10
0.0973690000000716
 20
40.116939
 10
0.0658889999999701
 20
39.95469700000001
 10
0.0432309999999916
 20
39.78861399999999
 10
0.0295659999999316
 20
39.61995400000001
 10
0.0249999999999773
 20
39.44999999999999
 10
0.0295659999999316
 20
39.28004599999996
 10
0.0432309999999916
 20
39.11138599999997
 10
0.0658889999999701
 20
38.94530299999997
 10
0.0973690000000716
 20
38.78306099999998
 10
0.1374309999999923
 20
38.62589400000003
 10
0.1857700000000477
 20
38.47500000000002
 10
0.24201800000003
 20
38.331526
 10
0.3057469999999967
 20
38.19656400000003
 10
0.3764720000000352
 20
38.07114200000001
 10
0.4536550000000262
 20
37.95621299999999
 10
0.5367080000000897
 20
37.85265400000004
 10
0.625
 20
37.76125000000003
 10
0.7178579999999784
 20
37.68270000000001
 10
0.814575999999988
 20
37.61759900000004
 10
0.9144169999999576
 20
37.56644500000005
 10
1.016622000000096
 20
37.52962500000001
 10
1.120412999999985
 20
37.50742000000002
 10
1.225000000000021
 20
37.5
  0
LINE
  5
5662
330
5650
100
AcDbEntity
  8
AM_0 外形線1
100
AcDbLine
 10
2.399999999999977
 20
38.0
 30
0.0
 11
2.399999999999977
 21
40.89999999999998
 31
0.0
  0
LINE
  5
5663
330
5650
100
AcDbEntity
  8
AM_0 外形線1
100
AcDbLine
 10
12.0
 20
35.0
 30
0.0
 11
-2.0
 21
35.0
 31
0.0
  0
LINE
  5
5664
330
5650
100
AcDbEntity
  8
AM_0 外形線1
100
AcDbLine
 10
-2.0
 20
37.29999999999995
 30
0.0
 11
-2.0
 21
32.70000000000005
 31
0.0
  0
ARC
  5
5665
330
5650
100
AcDbEntity
  8
AM_0 外形線1
100
AcDbCircle
 10
1.899999999999976
 20
38.0
 30
0.0
 40
0.5
100
AcDbArc
 50
270.0
 51
0.0
  0
LINE
  5
5666
330
5650
100
AcDbEntity
  8
AM_0 外形線1
100
AcDbLine
 10
-1.799999999999954
 20
37.5
 30
0.0
 11
1.899999999999976
 21
37.5
 31
0.0
  0
LINE
  5
5667
330
5650
100
AcDbEntity
  8
AM_0 外形線1
100
AcDbLine
 10
-2.0
 20
37.29999999999995
 30
0.0
 11
-1.799999999999954
 21
37.5
 31
0.0
  0
LINE
  5
5669
330
5650
100
AcDbEntity
  8
AM_0 外形線1
100
AcDbLine
 10
13.0
 20
34.0
 30
0.0
 11
13.0
 21
29.955106
 31
0.0
  0
LINE
  5
566A
330
5650
100
AcDbEntity
  8
AM_0 外形線1
100
AcDbLine
 10
15.0
 20
31.79999999999996
 30
0.0
 11
13.5
 21
31.79999999999996
 31
0.0
  0
ARC
  5
566B
330
5650
100
AcDbEntity
  8
AM_0 外形線1
100
AcDbCircle
 10
12.0
 20
34.0
 30
0.0
 40
1.0
100
AcDbArc
 50
0.0
 51
90.0
  0
LINE
  5
566D
330
5650
100
AcDbEntity
  8
AM_0 外形線1
100
AcDbLine
 10
13.5
 20
31.79999999999996
 30
0.0
 11
13.0
 21
32.29999999999995
 31
0.0
  0
LINE
  5
566E
330
5650
100
AcDbEntity
  8
AM_0 外形線1
100
AcDbLine
 10
0.2000000000000455
 20
56.0
 30
0.0
 11
14.79999999999995
 21
56.0
 31
0.0
  0
LINE
  5
566F
330
5650
100
AcDbEntity
  8
AM_0 外形線1
100
AcDbLine
 10
15.0
 20
53.0
 30
0.0
 11
0.0
 21
53.0
 31
0.0
  0
LINE
  5
5670
330
5650
100
AcDbEntity
  8
AM_0 外形線1
100
AcDbLine
 10
0.0
 20
41.39999999999997
 30
0.0
 11
0.0
 21
46.0
 31
0.0
  0
LINE
  5
5671
330
5650
100
AcDbEntity
  8
AM_0 外形線1
100
AcDbLine
 10
1.899999999999976
 20
41.39999999999997
 30
0.0
 11
0.0
 21
41.39999999999997
 31
0.0
  0
ARC
  5
5672
330
5650
100
AcDbEntity
  8
AM_0 外形線1
100
AcDbCircle
 10
1.899999999999976
 20
40.89999999999998
 30
0.0
 40
0.5
100
AcDbArc
 50
0.0
 51
90.0
  0
LINE
  5
5673
330
5650
100
AcDbEntity
  8
AM_0 外形線1
100
AcDbLine
 10
0.0
 20
55.79999999999995
 30
0.0
 11
0.2000000000000455
 21
56.0
 31
0.0
  0
LINE
  5
5674
330
5650
100
AcDbEntity
  8
AM_0 外形線1
100
AcDbLine
 10
0.0
 20
53.0
 30
0.0
 11
0.0
 21
55.79999999999995
 31
0.0
  0
LINE
  5
5677
330
5650
100
AcDbEntity
  8
AM_0 外形線1
100
AcDbLine
 10
15.0
 20
55.79999999999995
 30
0.0
 11
15.0
 21
42.5
 31
0.0
  0
LINE
  5
5678
330
5650
100
AcDbEntity
  8
AM_0 外形線1
100
AcDbLine
 10
14.79999999999995
 20
56.0
 30
0.0
 11
15.0
 21
55.79999999999995
 31
0.0
  0
ARC
  5
5679
330
5650
100
AcDbEntity
  8
AM_0 外形線1
100
AcDbCircle
 10
37.0
 20
36.5
 30
0.0
 40
3.0
100
AcDbArc
 50
0.0
 51
90.0
  0
ARC
  5
567A
330
5650
100
AcDbEntity
  8
AM_0 外形線1
100
AcDbCircle
 10
27.0
 20
34.0
 30
0.0
 40
1.0
100
AcDbArc
 50
0.0
 51
90.0
  0
LINE
  5
567B
330
5650
100
AcDbEntity
  8
AM_0 外形線1
100
AcDbLine
 10
30.20000000000005
 20
30.0
 30
0.0
 11
28.0
 21
30.0
 31
0.0
  0
LINE
  5
567C
330
5650
100
AcDbEntity
  8
AM_0 外形線1
100
AcDbLine
 10
18.0
 20
39.5
 30
0.0
 11
37.0
 21
39.5
 31
0.0
  0
LINE
  5
567E
330
5650
100
AcDbEntity
  8
AM_0 外形線1
100
AcDbLine
 10
28.0
 20
34.0
 30
0.0
 11
28.0
 21
29.0
 31
0.0
  0
LINE
  5
567F
330
5650
100
AcDbEntity
  8
AM_3 隠れ線
100
AcDbLine
 10
25.0
 20
33.97773400000005
 30
0.0
 11
25.0
 21
32.29999999999995
 31
0.0
  0
LINE
  5
5680
330
5650
100
AcDbEntity
  8
AM_3 隠れ線
100
AcDbLine
 10
25.0
 20
32.29999999999995
 30
0.0
 11
24.5
 21
31.79999999999996
 31
0.0
  0
ARC
  5
5681
330
5650
100
AcDbEntity
  8
AM_0 外形線1
100
AcDbCircle
 10
26.0
 20
34.0
 30
0.0
 40
1.0
100
AcDbArc
 50
90.0
 51
180.0
  0
LINE
  5
5682
330
5650
100
AcDbEntity
  8
AM_0 外形線1
100
AcDbLine
 10
27.0
 20
35.0
 30
0.0
 11
26.0
 21
35.0
 31
0.0
  0
LWPOLYLINE
  5
5683
330
5650
100
AcDbEntity
  8
AM_0 外形線1
100
AcDbPolyline
 90
       73
 70
     0
 43
0.0
 10
30.20000000000005
 20
31.35000000000002
 10
30.21446000000004
 20
31.14518399999997
 10
30.25773099999993
 20
30.94192700000002
 10
30.32948199999998
 20
30.74177500000002
 10
30.429168
 20
30.54625299999998
 10
30.55602999999996
 20
30.35684700000002
 10
30.70910299999991
 20
30.17500000000001
 10
30.88722200000006
 20
30.002095
 10
31.08903099999998
 20
29.839449
 10
31.312994
 20
29.68829900000003
 10
31.55740700000001
 20
29.54979600000001
 10
31.82041000000004
 20
29.42499300000003
 10
32.10000000000003
 20
29.31484000000001
 10
32.39405099999999
 20
29.22017699999998
 10
32.70032300000003
 20
29.14172200000002
 10
33.01648799999998
 20
29.08007400000002
 10
33.34013700000003
 20
29.03570200000002
 10
33.66880800000001
 20
29.00894199999999
 10
34.0
 20
29.0
 10
34.33119199999999
 20
29.00894199999999
 10
34.65986299999997
 20
29.03570200000002
 10
34.98351200000002
 20
29.08007400000002
 10
35.29967699999998
 20
29.14172200000002
 10
35.60594900000001
 20
29.22017699999998
 10
35.89999999999998
 20
29.31484000000001
 10
36.17958999999996
 20
29.42499300000003
 10
36.44259299999999
 20
29.54979600000001
 10
36.687006
 20
29.68829900000003
 10
36.91096900000002
 20
29.839449
 10
37.11277799999994
 20
30.002095
 10
37.2908970000001
 20
30.17500000000001
 10
37.44397000000004
 20
30.35684700000002
 10
37.570832
 20
30.54625299999998
 10
37.67051800000003
 20
30.74177500000002
 10
37.74226900000008
 20
30.94192700000002
 10
37.78553999999997
 20
31.14518399999997
 10
37.79999999999996
 20
31.35000000000002
 10
37.78553999999997
 20
31.55481600000002
 10
37.74226900000008
 20
31.75807300000002
 10
37.67051800000003
 20
31.95822500000004
 10
37.570832
 20
32.15374700000001
 10
37.44397000000004
 20
32.34315299999997
 10
37.2908970000001
 20
32.52499999999999
 10
37.11277799999994
 20
32.69790499999999
 10
36.91096900000002
 20
32.860551
 10
36.687006
 20
33.01170099999996
 10
36.44259299999999
 20
33.15020400000003
 10
36.17958999999996
 20
33.27500699999996
 10
35.89999999999998
 20
33.38515999999998
 10
35.60594900000001
 20
33.47982300000001
 10
35.29967699999998
 20
33.55827799999997
 10
34.98351200000002
 20
33.61992599999997
 10
34.65986299999997
 20
33.66429799999997
 10
34.33119199999999
 20
33.691058
 10
34.0
 20
33.69999999999999
 10
33.66880800000001
 20
33.691058
 10
33.34013700000003
 20
33.66429799999997
 10
33.01648799999998
 20
33.61992599999997
 10
32.70032300000003
 20
33.55827799999997
 10
32.39405099999999
 20
33.47982300000001
 10
32.10000000000003
 20
33.38515999999998
 10
31.82041000000004
 20
33.27500699999996
 10
31.55740700000001
 20
33.15020400000003
 10
31.312994
 20
33.01170099999996
 10
31.08903099999998
 20
32.860551
 10
30.88722200000006
 20
32.69790499999999
 10
30.70910299999991
 20
32.52499999999999
 10
30.55602999999996
 20
32.34315299999997
 10
30.429168
 20
32.15374700000001
 10
30.32948199999998
 20
31.95822500000004
 10
30.25773099999993
 20
31.75807300000002
 10
30.21446000000004
 20
31.55481600000002
 10
30.20000000000005
 20
31.35000000000002
  0
LINE
  5
5687
330
5650
100
AcDbEntity
  8
AM_0 外形線1
100
AcDbLine
 10
30.20000000000005
 20
33.20000000000006
 30
0.0
 11
30.20000000000005
 21
29.0
 31
0.0
  0
LINE
  5
5688
330
5650
100
AcDbEntity
  8
AM_0 外形線1
100
AcDbLine
 10
40.0
 20
30.0
 30
0.0
 11
37.79999999999996
 21
30.0
 31
0.0
  0
LINE
  5
5689
330
5650
100
AcDbEntity
  8
AM_0 外形線1
100
AcDbLine
 10
40.0
 20
36.5
 30
0.0
 11
40.0
 21
29.0
 31
0.0
  0
LINE
  5
568A
330
5650
100
AcDbEntity
  8
AM_0 外形線1
100
AcDbLine
 10
37.79999999999996
 20
33.20000000000006
 30
0.0
 11
37.79999999999996
 21
29.0
 31
0.0
  0
LINE
  5
568B
330
5650
100
AcDbEntity
  8
AM_0 外形線1
100
AcDbLine
 10
37.29999999999995
 20
33.70000000000004
 30
0.0
 11
30.70000000000006
 21
33.70000000000004
 31
0.0
  0
ARC
  5
568C
330
5650
100
AcDbEntity
  8
AM_0 外形線1
100
AcDbCircle
 10
30.70000000000006
 20
33.20000000000006
 30
0.0
 40
0.5
100
AcDbArc
 50
90.0
 51
180.0
  0
ARC
  5
568D
330
5650
100
AcDbEntity
  8
AM_0 外形線1
100
AcDbCircle
 10
37.29999999999995
 20
33.20000000000006
 30
0.0
 40
0.5
100
AcDbArc
 50
0.0
 51
90.0
  0
INSERT
  5
568E
330
5650
100
AcDbEntity
  8
AM_0 外形線1
100
AcDbBlockReference
  2
ロッカクアナツキプラグ R1／8
 10
7.5
 20
-24.75
 30
0.0
  0
LINE
  5
5756
330
5650
100
AcDbEntity
  8
AM_7 中心線
100
AcDbLine
 10
-24.0
 20
49.5
 30
0.0
 11
29.0
 21
49.5
 31
0.0
  0
ENDBLK
  5
5652
330
5650
100
AcDbEntity
  8
0
100
AcDbBlockEnd
  0
BLOCK
  5
5822
330
5821
100
AcDbEntity
  8
0
100
AcDbBlockBegin
  2
ケースＢ SSM112
 70
     0
 10
0.0
 20
0.0
 30
0.0
  3
ケースＢ SSM112
  1

  0
LINE
  5
5824
330
5821
100
AcDbEntity
  8
AM_0 外形線1
100
AcDbLine
 10
-15.0
 20
-55.79999999999995
 30
0.0
 11
-15.0
 21
0.0
 31
0.0
  0
LINE
  5
5825
330
5821
100
AcDbEntity
  8
AM_7 中心線
100
AcDbLine
 10
-20.0
 20
-49.5
 30
0.0
 11
20.0
 21
-49.5
 31
0.0
  0
LINE
  5
5826
330
5821
100
AcDbEntity
  8
AM_0 外形線1
100
AcDbLine
 10
-0.2000000000000455
 20
-56.0
 30
0.0
 11
-14.79999999999995
 21
-56.0
 31
0.0
  0
LINE
  5
5827
330
5821
100
AcDbEntity
  8
AM_0 外形線1
100
AcDbLine
 10
-14.79999999999995
 20
-56.0
 30
0.0
 11
-15.0
 21
-55.79999999999995
 31
0.0
  0
LINE
  5
5828
330
5821
100
AcDbEntity
  8
AM_0 外形線1
100
AcDbLine
 10
0.0
 20
-55.79999999999995
 30
0.0
 11
-0.2000000000000455
 21
-56.0
 31
0.0
  0
LWPOLYLINE
  5
5829
330
5821
100
AcDbEntity
  8
AM_0 外形線1
100
AcDbPolyline
 90
       73
 70
     0
 43
0.0
 10
-30.20000000000005
 20
31.35000000000002
 10
-30.21446000000004
 20
31.55481600000002
 10
-30.25773099999993
 20
31.75807300000002
 10
-30.32948199999998
 20
31.95822500000004
 10
-30.429168
 20
32.15374700000001
 10
-30.55602999999996
 20
32.34315299999997
 10
-30.70910299999991
 20
32.52499999999999
 10
-30.88722200000006
 20
32.69790499999999
 10
-31.08903099999998
 20
32.860551
 10
-31.312994
 20
33.01170099999996
 10
-31.55740700000001
 20
33.15020400000003
 10
-31.82041000000004
 20
33.27500699999996
 10
-32.10000000000003
 20
33.38515999999998
 10
-32.39405099999999
 20
33.47982300000001
 10
-32.70032300000003
 20
33.55827799999997
 10
-33.01648799999998
 20
33.61992599999997
 10
-33.34013700000003
 20
33.66429799999997
 10
-33.66880800000001
 20
33.691058
 10
-34.0
 20
33.69999999999999
 10
-34.33119199999999
 20
33.691058
 10
-34.65986299999997
 20
33.66429799999997
 10
-34.98351200000002
 20
33.61992599999997
 10
-35.29967699999998
 20
33.55827799999997
 10
-35.60594900000001
 20
33.47982300000001
 10
-35.89999999999998
 20
33.38515999999998
 10
-36.17958999999996
 20
33.27500699999996
 10
-36.44259299999999
 20
33.15020400000003
 10
-36.687006
 20
33.01170099999996
 10
-36.91096900000002
 20
32.860551
 10
-37.11277799999994
 20
32.69790499999999
 10
-37.2908970000001
 20
32.52499999999999
 10
-37.44397000000004
 20
32.34315299999997
 10
-37.570832
 20
32.15374700000001
 10
-37.67051800000003
 20
31.95822500000004
 10
-37.74226900000008
 20
31.75807300000002
 10
-37.78553999999997
 20
31.55481600000002
 10
-37.79999999999996
 20
31.35000000000002
 10
-37.78553999999997
 20
31.14518399999997
 10
-37.74226900000008
 20
30.94192700000002
 10
-37.67051800000003
 20
30.74177500000002
 10
-37.570832
 20
30.54625299999998
 10
-37.44397000000004
 20
30.35684700000002
 10
-37.2908970000001
 20
30.17500000000001
 10
-37.11277799999994
 20
30.002095
 10
-36.91096900000002
 20
29.839449
 10
-36.687006
 20
29.68829900000003
 10
-36.44259299999999
 20
29.54979600000001
 10
-36.17958999999996
 20
29.42499300000003
 10
-35.89999999999998
 20
29.31484000000001
 10
-35.60594900000001
 20
29.22017699999998
 10
-35.29967699999998
 20
29.14172200000002
 10
-34.98351200000002
 20
29.08007400000002
 10
-34.65986299999997
 20
29.03570200000002
 10
-34.33119199999999
 20
29.00894199999999
 10
-34.0
 20
29.0
 10
-33.66880800000001
 20
29.00894199999999
 10
-33.34013700000003
 20
29.03570200000002
 10
-33.01648799999998
 20
29.08007400000002
 10
-32.70032300000003
 20
29.14172200000002
 10
-32.39405099999999
 20
29.22017699999998
 10
-32.10000000000003
 20
29.31484000000001
 10
-31.82041000000004
 20
29.42499300000003
 10
-31.55740700000001
 20
29.54979600000001
 10
-31.312994
 20
29.68829900000003
 10
-31.08903099999998
 20
29.839449
 10
-30.88722200000006
 20
30.002095
 10
-30.70910299999991
 20
30.17500000000001
 10
-30.55602999999996
 20
30.35684700000002
 10
-30.429168
 20
30.54625299999998
 10
-30.32948199999998
 20
30.74177500000002
 10
-30.25773099999993
 20
30.94192700000002
 10
-30.21446000000004
 20
31.14518399999997
 10
-30.20000000000005
 20
31.35000000000002
  0
LINE
  5
582A
330
5821
100
AcDbEntity
  8
AM_0 外形線1
100
AcDbLine
 10
-37.29999999999995
 20
33.70000000000004
 30
0.0
 11
-30.70000000000006
 21
33.70000000000004
 31
0.0
  0
LINE
  5
582B
330
5821
100
AcDbEntity
  8
AM_0 外形線1
100
AcDbLine
 10
-18.0
 20
39.5
 30
0.0
 11
-37.0
 21
39.5
 31
0.0
  0
LINE
  5
582C
330
5821
100
AcDbEntity
  8
AM_0 外形線1
100
AcDbLine
 10
-18.0
 20
-39.5
 30
0.0
 11
-37.0
 21
-39.5
 31
0.0
  0
LINE
  5
582D
330
5821
100
AcDbEntity
  8
AM_0 外形線1
100
AcDbLine
 10
-40.0
 20
-36.5
 30
0.0
 11
-40.0
 21
0.0
 31
0.0
  0
ARC
  5
582E
330
5821
100
AcDbEntity
  8
AM_0 外形線1
100
AcDbCircle
 10
-37.0
 20
-36.5
 30
0.0
 40
3.0
100
AcDbArc
 50
180.0
 51
270.0
  0
ARC
  5
582F
330
5821
100
AcDbEntity
  8
AM_0 外形線1
100
AcDbCircle
 10
-37.0
 20
36.5
 30
0.0
 40
3.0
100
AcDbArc
 50
90.0
 51
180.0
  0
LINE
  5
5832
330
5821
100
AcDbEntity
  8
AM_0 外形線1
100
AcDbLine
 10
-40.0
 20
30.0
 30
0.0
 11
-37.79999999999996
 21
30.0
 31
0.0
  0
LINE
  5
5833
330
5821
100
AcDbEntity
  8
AM_0 外形線1
100
AcDbLine
 10
-40.0
 20
36.5
 30
0.0
 11
-40.0
 21
29.0
 31
0.0
  0
LINE
  5
5834
330
5821
100
AcDbEntity
  8
AM_0 外形線1
100
AcDbLine
 10
-37.79999999999996
 20
33.20000000000006
 30
0.0
 11
-37.79999999999996
 21
29.0
 31
0.0
  0
ARC
  5
5835
330
5821
100
AcDbEntity
  8
AM_0 外形線1
100
AcDbCircle
 10
-37.29999999999995
 20
33.20000000000006
 30
0.0
 40
0.5
100
AcDbArc
 50
90.0
 51
180.0
  0
ARC
  5
5836
330
5821
100
AcDbEntity
  8
AM_0 外形線1
100
AcDbCircle
 10
-18.0
 20
-42.5
 30
0.0
 40
3.0
100
AcDbArc
 50
0.0
 51
90.0
  0
LINE
  5
5837
330
5821
100
AcDbEntity
  8
AM_0 外形線1
100
AcDbLine
 10
-0.2000000000000455
 20
56.0
 30
0.0
 11
-14.79999999999995
 21
56.0
 31
0.0
  0
LINE
  5
5838
330
5821
100
AcDbEntity
  8
AM_0 外形線1
100
AcDbLine
 10
-12.0
 20
35.0
 30
0.0
 11
-3.0
 21
35.0
 31
0.0
  0
LINE
  5
5839
330
5821
100
AcDbEntity
  8
AM_0 外形線1
100
AcDbLine
 10
11.0
 20
46.0
 30
0.0
 11
-15.0
 21
45.99999999999993
 31
0.0
  0
LINE
  5
583A
330
5821
100
AcDbEntity
  8
AM_0 外形線1
100
AcDbLine
 10
-15.0
 20
53.0
 30
0.0
 11
0.0
 21
53.0
 31
0.0
  0
ARC
  5
583B
330
5821
100
AcDbEntity
  8
AM_0 外形線1
100
AcDbCircle
 10
-18.0
 20
42.5
 30
0.0
 40
3.0
100
AcDbArc
 50
270.0
 51
0.0
  0
LINE
  5
583C
330
5821
100
AcDbEntity
  8
AM_3 隠れ線
100
AcDbLine
 10
-15.0
 20
31.79999999999996
 30
0.0
 11
-24.5
 21
31.79999999999996
 31
0.0
  0
LINE
  5
583D
330
5821
100
AcDbEntity
  8
AM_0 外形線1
100
AcDbLine
 10
-13.0
 20
34.5
 30
0.0
 11
-25.0
 21
34.5
 31
0.0
  0
LINE
  5
583E
330
5821
100
AcDbEntity
  8
AM_7 中心線
100
AcDbLine
 10
-11.0
 20
33.0
 30
0.0
 11
-27.0
 21
33.0
 31
0.0
  0
LINE
  5
5841
330
5821
100
AcDbEntity
  8
AM_0 外形線1
100
AcDbLine
 10
-30.20000000000005
 20
30.0
 30
0.0
 11
-28.0
 21
30.0
 31
0.0
  0
LINE
  5
5842
330
5821
100
AcDbEntity
  8
AM_0 外形線1
100
AcDbLine
 10
-28.0
 20
34.0
 30
0.0
 11
-28.0
 21
29.0
 31
0.0
  0
LINE
  5
5843
330
5821
100
AcDbEntity
  8
AM_0 外形線1
100
AcDbLine
 10
-30.20000000000005
 20
33.20000000000006
 30
0.0
 11
-30.20000000000005
 21
29.0
 31
0.0
  0
ARC
  5
5844
330
5821
100
AcDbEntity
  8
AM_0 外形線1
100
AcDbCircle
 10
-27.0
 20
34.0
 30
0.0
 40
1.0
100
AcDbArc
 50
90.0
 51
180.0
  0
ARC
  5
5845
330
5821
100
AcDbEntity
  8
AM_0 外形線1
100
AcDbCircle
 10
-30.70000000000006
 20
33.20000000000006
 30
0.0
 40
0.5
100
AcDbArc
 50
0.0
 51
90.0
  0
LINE
  5
5846
330
5821
100
AcDbEntity
  8
AM_3 隠れ線
100
AcDbLine
 10
-25.0
 20
33.97773400000005
 30
0.0
 11
-25.0
 21
32.29999999999995
 31
0.0
  0
LINE
  5
5847
330
5821
100
AcDbEntity
  8
AM_3 隠れ線
100
AcDbLine
 10
-25.0
 20
32.29999999999995
 30
0.0
 11
-24.5
 21
31.79999999999996
 31
0.0
  0
ARC
  5
5848
330
5821
100
AcDbEntity
  8
AM_0 外形線1
100
AcDbCircle
 10
-26.0
 20
34.0
 30
0.0
 40
1.0
100
AcDbArc
 50
0.0
 51
90.0
  0
LINE
  5
5849
330
5821
100
AcDbEntity
  8
AM_0 外形線1
100
AcDbLine
 10
-27.0
 20
35.0
 30
0.0
 11
-26.0
 21
35.0
 31
0.0
  0
LINE
  5
584A
330
5821
100
AcDbEntity
  8
AM_0 外形線1
100
AcDbLine
 10
-13.0
 20
34.0
 30
0.0
 11
-13.0
 21
29.955106
 31
0.0
  0
LINE
  5
584B
330
5821
100
AcDbEntity
  8
AM_0 外形線1
100
AcDbLine
 10
-15.0
 20
31.79999999999996
 30
0.0
 11
-13.5
 21
31.79999999999996
 31
0.0
  0
ARC
  5
584C
330
5821
100
AcDbEntity
  8
AM_0 外形線1
100
AcDbCircle
 10
-12.0
 20
34.0
 30
0.0
 40
1.0
100
AcDbArc
 50
90.0
 51
180.0
  0
LINE
  5
584E
330
5821
100
AcDbEntity
  8
AM_0 外形線1
100
AcDbLine
 10
-13.5
 20
31.79999999999996
 30
0.0
 11
-13.0
 21
32.29999999999995
 31
0.0
  0
LINE
  5
5851
330
5821
100
AcDbEntity
  8
AM_0 外形線1
100
AcDbLine
 10
-14.79999999999995
 20
56.0
 30
0.0
 11
-15.0
 21
55.79999999999995
 31
0.0
  0
LINE
  5
5852
330
5821
100
AcDbEntity
  8
AM_0 外形線1
100
AcDbLine
 10
-15.0
 20
55.79999999999995
 30
0.0
 11
-15.0
 21
42.5
 31
0.0
  0
LINE
  5
5853
330
5821
100
AcDbEntity
  8
AM_0 外形線1
100
AcDbLine
 10
0.0
 20
37.70000000000005
 30
0.0
 11
0.0
 21
46.0
 31
0.0
  0
LINE
  5
5854
330
5821
100
AcDbEntity
  8
AM_0 外形線1
100
AcDbLine
 10
-3.0
 20
37.5
 30
0.0
 11
-0.2000000000000455
 21
37.5
 31
0.0
  0
LINE
  5
5856
330
5821
100
AcDbEntity
  8
AM_0 外形線1
100
AcDbLine
 10
-0.2000000000000455
 20
37.5
 30
0.0
 11
0.0
 21
37.70000000000005
 31
0.0
  0
LINE
  5
5857
330
5821
100
AcDbEntity
  8
AM_0 外形線1
100
AcDbLine
 10
0.0
 20
55.79999999999995
 30
0.0
 11
-0.2000000000000455
 21
56.0
 31
0.0
  0
LINE
  5
5A1B
330
5821
100
AcDbEntity
  8
AM_0 外形線1
100
AcDbLine
 10
-3.0
 20
37.5
 30
0.0
 11
-3.0
 21
32.5
 31
0.0
  0
LINE
  5
5A48
330
5821
100
AcDbEntity
  8
AM_0 外形線1
100
AcDbLine
 10
0.0
 20
-55.79999999999995
 30
0.0
 11
0.0000000000000568
 21
0.0
 31
0.0
  0
LINE
  5
8B02
330
5821
100
AcDbEntity
  8
AM_0 外形線1
100
AcDbLine
 10
0.0
 20
55.79999999999995
 30
0.0
 11
0.0
 21
53.0
 31
0.0
  0
ENDBLK
  5
5823
330
5821
100
AcDbEntity
  8
0
100
AcDbBlockEnd
  0
BLOCK
  5
5B27
330
5B26
100
AcDbEntity
  8
0
100
AcDbBlockBegin
  2
センタＡ SSM112
 70
     0
 10
0.0
 20
0.0
 30
0.0
  3
センタＡ SSM112
  1

  0
LINE
  5
5B29
330
5B26
100
AcDbEntity
  8
AM_0 外形線1
100
AcDbLine
 10
0.0
 20
28.5
 30
0.0
 11
0.0
 21
0.0
 31
0.0
  0
LINE
  5
5B2A
330
5B26
100
AcDbEntity
  8
AM_0 外形線1
100
AcDbLine
 10
50.0
 20
-26.0
 30
0.0
 11
50.0
 21
26.0
 31
0.0
  0
LINE
  5
5B2B
330
5B26
100
AcDbEntity
  8
AM_0 外形線1
100
AcDbLine
 10
36.0
 20
-29.0
 30
0.0
 11
47.0
 21
-29.0
 31
0.0
  0
ARC
  5
5B2C
330
5B26
100
AcDbEntity
  8
AM_0 外形線1
100
AcDbCircle
 10
47.0
 20
-26.0
 30
0.0
 40
3.0
100
AcDbArc
 50
270.0
 51
0.0
  0
ARC
  5
5B2D
330
5B26
100
AcDbEntity
  8
AM_0 外形線1
100
AcDbCircle
 10
15.5
 20
0.0
 30
0.0
 40
34.42
100
AcDbArc
 50
79.96107100000179
 51
96.67350799999731
  0
LINE
  5
5B30
330
5B26
100
AcDbEntity
  8
AM_0 外形線1
100
AcDbLine
 10
11.0
 20
33.62457199999994
 30
0.0
 11
11.0
 21
29.5
 31
0.0
  0
LINE
  5
5B31
330
5B26
100
AcDbEntity
  8
AM_0 外形線1
100
AcDbLine
 10
10.5
 20
29.0
 30
0.0
 11
0.5
 21
29.0
 31
0.0
  0
LINE
  5
5B32
330
5B26
100
AcDbEntity
  8
AM_0 外形線1
100
AcDbLine
 10
0.5
 20
29.0
 30
0.0
 11
0.0
 21
28.5
 31
0.0
  0
ARC
  5
5B33
330
5B26
100
AcDbEntity
  8
AM_0 外形線1
100
AcDbCircle
 10
10.5
 20
29.5
 30
0.0
 40
0.5
100
AcDbArc
 50
270.0
 51
0.0
  0
LINE
  5
5B34
330
5B26
100
AcDbEntity
  8
AM_0 外形線1
100
AcDbLine
 10
11.5
 20
34.1867870000001
 30
0.0
 11
11.0
 21
33.62457199999994
 31
0.0
  0
LINE
  5
5B35
330
5B26
100
AcDbEntity
  8
AM_0 外形線1
100
AcDbLine
 10
47.0
 20
29.0
 30
0.0
 11
22.5
 21
29.0
 31
0.0
  0
LINE
  5
5B36
330
5B26
100
AcDbEntity
  8
AM_0 外形線1
100
AcDbLine
 10
22.0
 20
29.5
 30
0.0
 11
22.0
 21
33.30068600000004
 31
0.0
  0
LINE
  5
5B37
330
5B26
100
AcDbEntity
  8
AM_7 中心線
100
AcDbLine
 10
15.5
 20
39.42000000000007
 30
0.0
 11
15.5
 21
26.35000000000002
 31
0.0
  0
ARC
  5
5B38
330
5B26
100
AcDbEntity
  8
AM_0 外形線1
100
AcDbCircle
 10
22.5
 20
29.5
 30
0.0
 40
0.5
100
AcDbArc
 50
180.0
 51
270.0
  0
LINE
  5
5B39
330
5B26
100
AcDbEntity
  8
AM_0 外形線1
100
AcDbLine
 10
22.0
 20
33.30068600000004
 30
0.0
 11
21.5
 21
33.89301399999999
 31
0.0
  0
ARC
  5
5B3A
330
5B26
100
AcDbEntity
  8
AM_0 外形線1
100
AcDbCircle
 10
47.0
 20
26.0
 30
0.0
 40
3.0
100
AcDbArc
 50
0.0
 51
90.0
  0
LINE
  5
5B3B
330
5B26
100
AcDbEntity
  8
AM_0 外形線1
100
AcDbLine
 10
50.0
 20
15.00000000000006
 30
0.0
 11
0.0
 21
15.0
 31
0.0
  0
ARC
  5
B060
330
5B26
100
AcDbEntity
  8
AM_7 中心線
100
AcDbCircle
 10
15.5
 20
0.0
 30
0.0
 40
33.0
100
AcDbArc
 50
74.50126724340067
 51
101.4386927593424
  0
ARC
  5
B061
330
5B26
100
AcDbEntity
  8
AM_0 外形線1
100
AcDbCircle
 10
15.5
 20
0.0
 30
0.0
 40
31.34999999999997
100
AcDbArc
 50
78.03368880517182
 51
98.25278173670666
  0
ENDBLK
  5
5B28
330
5B26
100
AcDbEntity
  8
0
100
AcDbBlockEnd
  0
BLOCK
  5
5BE0
330
5BDF
100
AcDbEntity
  8
0
100
AcDbBlockBegin
  2
センタＢ SSM112
 70
     0
 10
0.0
 20
0.0
 30
0.0
  3
センタＢ SSM112
  1

  0
LINE
  5
5BE2
330
5BDF
100
AcDbEntity
  8
AM_0 外形線1
100
AcDbLine
 10
-47.0
 20
29.0
 30
0.0
 11
-22.5
 21
29.0
 31
0.0
  0
LINE
  5
5BE3
330
5BDF
100
AcDbEntity
  8
AM_0 外形線1
100
AcDbLine
 10
-50.0
 20
-26.0
 30
0.0
 11
-50.0
 21
26.0
 31
0.0
  0
LINE
  5
5BE4
330
5BDF
100
AcDbEntity
  8
AM_0 外形線1
100
AcDbLine
 10
-36.0
 20
-29.0
 30
0.0
 11
-47.0
 21
-29.0
 31
0.0
  0
ARC
  5
5BE5
330
5BDF
100
AcDbEntity
  8
AM_0 外形線1
100
AcDbCircle
 10
-47.0
 20
-26.0
 30
0.0
 40
3.0
100
AcDbArc
 50
180.0
 51
270.0
  0
ARC
  5
5BE6
330
5BDF
100
AcDbEntity
  8
AM_0 外形線1
100
AcDbCircle
 10
-47.0
 20
26.0
 30
0.0
 40
3.0
100
AcDbArc
 50
90.0
 51
180.0
  0
LINE
  5
5BE7
330
5BDF
100
AcDbEntity
  8
AM_0 外形線1
100
AcDbLine
 10
0.0
 20
28.5
 30
0.0
 11
0.0
 21
0.0
 31
0.0
  0
LINE
  5
5BE8
330
5BDF
100
AcDbEntity
  8
AM_0 外形線1
100
AcDbLine
 10
-10.5
 20
29.0
 30
0.0
 11
-0.5
 21
29.0
 31
0.0
  0
ARC
  5
5BE9
330
5BDF
100
AcDbEntity
  8
AM_0 外形線1
100
AcDbCircle
 10
-15.5
 20
0.0
 30
0.0
 40
34.42
100
AcDbArc
 50
83.32649200000268
 51
100.0389289999982
  0
LINE
  5
5BEC
330
5BDF
100
AcDbEntity
  8
AM_0 外形線1
100
AcDbLine
 10
-22.0
 20
29.5
 30
0.0
 11
-22.0
 21
33.30068600000004
 31
0.0
  0
ARC
  5
5BED
330
5BDF
100
AcDbEntity
  8
AM_0 外形線1
100
AcDbCircle
 10
-22.5
 20
29.5
 30
0.0
 40
0.5
100
AcDbArc
 50
270.0
 51
0.0
  0
LINE
  5
5BEE
330
5BDF
100
AcDbEntity
  8
AM_0 外形線1
100
AcDbLine
 10
-22.0
 20
33.30068600000004
 30
0.0
 11
-21.5
 21
33.89301399999999
 31
0.0
  0
LINE
  5
5BEF
330
5BDF
100
AcDbEntity
  8
AM_0 外形線1
100
AcDbLine
 10
-11.0
 20
33.62457199999994
 30
0.0
 11
-11.0
 21
29.5
 31
0.0
  0
LINE
  5
5BF0
330
5BDF
100
AcDbEntity
  8
AM_7 中心線
100
AcDbLine
 10
-15.5
 20
39.42000000000007
 30
0.0
 11
-15.5
 21
26.35000000000002
 31
0.0
  0
ARC
  5
5BF1
330
5BDF
100
AcDbEntity
  8
AM_0 外形線1
100
AcDbCircle
 10
-10.5
 20
29.5
 30
0.0
 40
0.5
100
AcDbArc
 50
180.0
 51
270.0
  0
LINE
  5
5BF2
330
5BDF
100
AcDbEntity
  8
AM_0 外形線1
100
AcDbLine
 10
-11.5
 20
34.1867870000001
 30
0.0
 11
-11.0
 21
33.62457199999994
 31
0.0
  0
LINE
  5
5BF4
330
5BDF
100
AcDbEntity
  8
AM_0 外形線1
100
AcDbLine
 10
-0.5
 20
29.0
 30
0.0
 11
0.0
 21
28.5
 31
0.0
  0
LINE
  5
5BF6
330
5BDF
100
AcDbEntity
  8
AM_0 外形線1
100
AcDbLine
 10
0.0
 20
15.0
 30
0.0
 11
-50.0
 21
15.0
 31
0.0
  0
ARC
  5
ADD4
330
5BDF
100
AcDbEntity
  8
AM_7 中心線
100
AcDbCircle
 10
-15.5
 20
0.0
 30
0.0
 40
33.0
100
AcDbArc
 50
78.56130724065758
 51
105.4987327565962
  0
ARC
  5
ADD5
330
5BDF
100
AcDbEntity
  8
AM_0 外形線1
100
AcDbCircle
 10
-15.5
 20
0.0
 30
0.0
 40
31.34999999999997
100
AcDbArc
 50
81.74721826329657
 51
101.9663111948249
  0
ENDBLK
  5
5BE1
330
5BDF
100
AcDbEntity
  8
0
100
AcDbBlockEnd
  0
BLOCK
  5
5EBA
330
5EB9
100
AcDbEntity
  8
0
100
AcDbBlockBegin
  2
リーマボルト SSM112 M6
 70
     0
 10
0.0
 20
0.0
 30
0.0
  3
リーマボルト SSM112 M6
  1

  0
LINE
  5
5EBC
330
5EB9
100
AcDbEntity
  8
AM_0 外形線1
100
AcDbLine
 10
31.5
 20
1.0
 30
0.0
 11
30.0
 21
-0.5
 31
0.0
  0
LINE
  5
5EBD
330
5EB9
100
AcDbEntity
  8
AM_0 外形線1
100
AcDbLine
 10
31.5
 20
0.5
 30
0.0
 11
30.0
 21
-1.0
 31
0.0
  0
LINE
  5
5EBE
330
5EB9
100
AcDbEntity
  8
AM_0 外形線1
100
AcDbLine
 10
30.0
 20
-6.100000000000022
 30
0.0
 11
31.5
 21
-6.100000000000022
 31
0.0
  0
LINE
  5
5EBF
330
5EB9
100
AcDbEntity
  8
AM_0 外形線1
100
AcDbLine
 10
31.5
 20
6.100000000000022
 30
0.0
 11
30.0
 21
6.100000000000022
 31
0.0
  0
LINE
  5
5EC0
330
5EB9
100
AcDbEntity
  8
AM_0 外形線1
100
AcDbLine
 10
1.0
 20
-3.5
 30
0.0
 11
1.0
 21
3.5
 31
0.0
  0
ARC
  5
5EC1
330
5EB9
100
AcDbEntity
  8
AM_0 外形線1
100
AcDbCircle
 10
5.839011000000027
 20
0.0
 30
0.0
 40
9.839010999999999
100
AcDbArc
 50
162.9384689999997
 51
197.0615310000002
  0
LINE
  5
5EC2
330
5EB9
100
AcDbEntity
  8
AM_0 外形線1
100
AcDbLine
 10
-4.0
 20
5.0
 30
0.0
 11
-4.0
 21
-5.0
 31
0.0
  0
ARC
  5
5EC3
330
5EB9
100
AcDbEntity
  8
AM_0 外形線1
100
AcDbCircle
 10
0.5
 20
-3.5
 30
0.0
 40
0.5
100
AcDbArc
 50
0.0
 51
180.0
  0
ARC
  5
5EC4
330
5EB9
100
AcDbEntity
  8
AM_0 外形線1
100
AcDbCircle
 10
-1.416878999999994
 20
-4.318375999999943
 30
0.0
 40
2.583120999999998
100
AcDbArc
 50
146.3428030000009
 51
213.657196999999
  0
LINE
  5
5EC5
330
5EB9
100
AcDbEntity
  8
AM_0 外形線1
100
AcDbLine
 10
0.0
 20
-2.886751000000002
 30
0.0
 11
-3.566986999999925
 21
-2.886751000000002
 31
0.0
  0
LINE
  5
5EC6
330
5EB9
100
AcDbEntity
  8
AM_0 外形線1
100
AcDbLine
 10
-3.566986999999925
 20
-5.75
 30
0.0
 11
0.0
 21
-5.75
 31
0.0
  0
LINE
  5
5EC7
330
5EB9
100
AcDbEntity
  8
AM_0 外形線1
100
AcDbLine
 10
-4.0
 20
-5.0
 30
0.0
 11
-3.566986999999925
 21
-5.75
 31
0.0
  0
ARC
  5
5EC8
330
5EB9
100
AcDbEntity
  8
AM_0 外形線1
100
AcDbCircle
 10
0.5
 20
3.5
 30
0.0
 40
0.5
100
AcDbArc
 50
180.0
 51
0.0
  0
ARC
  5
5EC9
330
5EB9
100
AcDbEntity
  8
AM_0 外形線1
100
AcDbCircle
 10
-1.416878999999994
 20
4.318375999999943
 30
0.0
 40
2.583120999999998
100
AcDbArc
 50
146.3428030000009
 51
213.657196999999
  0
LINE
  5
5ECA
330
5EB9
100
AcDbEntity
  8
AM_0 外形線1
100
AcDbLine
 10
0.0
 20
2.886751000000002
 30
0.0
 11
-3.566986999999925
 21
2.886751000000002
 31
0.0
  0
LINE
  5
5ECB
330
5EB9
100
AcDbEntity
  8
AM_0 外形線1
100
AcDbLine
 10
-3.566986999999925
 20
5.75
 30
0.0
 11
-4.0
 21
5.0
 31
0.0
  0
LINE
  5
5ECC
330
5EB9
100
AcDbEntity
  8
AM_0 外形線1
100
AcDbLine
 10
0.0
 20
5.75
 30
0.0
 11
-3.566986999999925
 21
5.75
 31
0.0
  0
LINE
  5
5ECD
330
5EB9
100
AcDbEntity
  8
AM_0 外形線1
100
AcDbLine
 10
26.0
 20
3.5
 30
0.0
 11
26.0
 21
-3.5
 31
0.0
  0
LINE
  5
5ECE
330
5EB9
100
AcDbEntity
  8
AM_0 外形線1
100
AcDbLine
 10
27.0
 20
2.922649999999975
 30
0.0
 11
27.0
 21
-2.922649999999975
 31
0.0
  0
LINE
  5
5ECF
330
5EB9
100
AcDbEntity
  8
AM_0 外形線1
100
AcDbLine
 10
27.0
 20
-2.922649999999975
 30
0.0
 11
30.0
 21
-2.922649999999975
 31
0.0
  0
LINE
  5
5ED0
330
5EB9
100
AcDbEntity
  8
AM_0 外形線1
100
AcDbLine
 10
27.0
 20
-2.922649999999975
 30
0.0
 11
26.0
 21
-3.5
 31
0.0
  0
LINE
  5
5ED1
330
5EB9
100
AcDbEntity
  8
AM_0 外形線1
100
AcDbLine
 10
27.0
 20
2.922649999999975
 30
0.0
 11
30.0
 21
2.922649999999975
 31
0.0
  0
LINE
  5
5ED2
330
5EB9
100
AcDbEntity
  8
AM_0 外形線1
100
AcDbLine
 10
26.0
 20
3.5
 30
0.0
 11
27.0
 21
2.922649999999975
 31
0.0
  0
LINE
  5
5ED3
330
5EB9
100
AcDbEntity
  8
AM_0 外形線1
100
AcDbLine
 10
38.0
 20
3.0
 30
0.0
 11
38.0
 21
-3.0
 31
0.0
  0
LINE
  5
5ED4
330
5EB9
100
AcDbEntity
  8
AM_0 外形線1
100
AcDbLine
 10
39.0
 20
2.0
 30
0.0
 11
39.0
 21
-2.0
 31
0.0
  0
ARC
  5
5ED5
330
5EB9
100
AcDbEntity
  8
AM_0 外形線1
100
AcDbCircle
 10
26.66098899999997
 20
0.0
 30
0.0
 40
9.839010999999999
100
AcDbArc
 50
342.9384689999998
 51
17.06153100000025
  0
LINE
  5
5ED6
330
5EB9
100
AcDbEntity
  8
AM_0 外形線1
100
AcDbLine
 10
31.5
 20
-5.75
 30
0.0
 11
31.5
 21
5.75
 31
0.0
  0
LINE
  5
5ED7
330
5EB9
100
AcDbEntity
  8
AM_0 外形線1
100
AcDbLine
 10
36.5
 20
5.0
 30
0.0
 11
36.5
 21
-5.0
 31
0.0
  0
LINE
  5
5ED8
330
5EB9
100
AcDbEntity
  8
AM_4 細線
100
AcDbLine
 10
36.5
 20
-2.5
 30
0.0
 11
38.5
 21
-2.5
 31
0.0
  0
LINE
  5
5ED9
330
5EB9
100
AcDbEntity
  8
AM_0 外形線1
100
AcDbLine
 10
38.0
 20
-3.0
 30
0.0
 11
36.5
 21
-3.0
 31
0.0
  0
LINE
  5
5EDA
330
5EB9
100
AcDbEntity
  8
AM_0 外形線1
100
AcDbLine
 10
31.5
 20
-2.886751000000002
 30
0.0
 11
36.06698699999993
 21
-2.886751000000002
 31
0.0
  0
ARC
  5
5EDB
330
5EB9
100
AcDbEntity
  8
AM_0 外形線1
100
AcDbCircle
 10
33.91687899999999
 20
-4.318375999999943
 30
0.0
 40
2.583120999999998
100
AcDbArc
 50
326.3428030000008
 51
33.65719699999906
  0
LINE
  5
5EDC
330
5EB9
100
AcDbEntity
  8
AM_0 外形線1
100
AcDbLine
 10
36.06698699999993
 20
-5.75
 30
0.0
 11
31.5
 21
-5.75
 31
0.0
  0
LINE
  5
5EDD
330
5EB9
100
AcDbEntity
  8
AM_0 外形線1
100
AcDbLine
 10
36.5
 20
-5.0
 30
0.0
 11
36.06698699999993
 21
-5.75
 31
0.0
  0
LINE
  5
5EDE
330
5EB9
100
AcDbEntity
  8
AM_0 外形線1
100
AcDbLine
 10
31.5
 20
-6.100000000000022
 30
0.0
 11
31.5
 21
-5.75
 31
0.0
  0
LINE
  5
5EDF
330
5EB9
100
AcDbEntity
  8
AM_0 外形線1
100
AcDbLine
 10
39.0
 20
-2.0
 30
0.0
 11
38.0
 21
-3.0
 31
0.0
  0
LINE
  5
5EE0
330
5EB9
100
AcDbEntity
  8
AM_4 細線
100
AcDbLine
 10
36.5
 20
2.5
 30
0.0
 11
38.5
 21
2.5
 31
0.0
  0
LINE
  5
5EE1
330
5EB9
100
AcDbEntity
  8
AM_0 外形線1
100
AcDbLine
 10
36.5
 20
3.0
 30
0.0
 11
38.0
 21
3.0
 31
0.0
  0
LINE
  5
5EE2
330
5EB9
100
AcDbEntity
  8
AM_0 外形線1
100
AcDbLine
 10
31.5
 20
2.886751000000002
 30
0.0
 11
36.06698699999993
 21
2.886751000000002
 31
0.0
  0
ARC
  5
5EE3
330
5EB9
100
AcDbEntity
  8
AM_0 外形線1
100
AcDbCircle
 10
33.91687899999999
 20
4.318375999999943
 30
0.0
 40
2.583120999999998
100
AcDbArc
 50
326.3428030000008
 51
33.65719699999906
  0
LINE
  5
5EE4
330
5EB9
100
AcDbEntity
  8
AM_0 外形線1
100
AcDbLine
 10
36.06698699999993
 20
5.75
 30
0.0
 11
36.5
 21
5.0
 31
0.0
  0
LINE
  5
5EE5
330
5EB9
100
AcDbEntity
  8
AM_0 外形線1
100
AcDbLine
 10
31.5
 20
5.75
 30
0.0
 11
36.06698699999993
 21
5.75
 31
0.0
  0
LINE
  5
5EE6
330
5EB9
100
AcDbEntity
  8
AM_0 外形線1
100
AcDbLine
 10
31.5
 20
5.75
 30
0.0
 11
31.5
 21
6.100000000000022
 31
0.0
  0
LINE
  5
5EE7
330
5EB9
100
AcDbEntity
  8
AM_0 外形線1
100
AcDbLine
 10
38.0
 20
3.0
 30
0.0
 11
39.0
 21
2.0
 31
0.0
  0
LINE
  5
5FAD
330
5EB9
100
AcDbEntity
  8
AM_0 外形線1
100
AcDbLine
 10
0.0
 20
5.75
 30
0.0
 11
0.0
 21
-5.75
 31
0.0
  0
LINE
  5
5FAE
330
5EB9
100
AcDbEntity
  8
AM_0 外形線1
100
AcDbLine
 10
1.0
 20
3.5
 30
0.0
 11
26.0
 21
3.5
 31
0.0
  0
LINE
  5
5FAF
330
5EB9
100
AcDbEntity
  8
AM_0 外形線1
100
AcDbLine
 10
1.0
 20
-3.5
 30
0.0
 11
26.0
 21
-3.5
 31
0.0
  0
LINE
  5
5FB0
330
5EB9
100
AcDbEntity
  8
AM_0 外形線1
100
AcDbLine
 10
30.0
 20
6.100000000000022
 30
0.0
 11
30.0
 21
-6.100000000000022
 31
0.0
  0
ENDBLK
  5
5EBB
330
5EB9
100
AcDbEntity
  8
0
100
AcDbBlockEnd
  0
BLOCK
  5
93A1
330
93A0
100
AcDbEntity
  8
0
100
AcDbBlockBegin
  2
*D12
 70
     1
 10
0.0
 20
0.0
 30
0.0
  3
*D12
  1

  0
LINE
  5
93C0
330
93A0
100
AcDbEntity
  8
AM_5 寸法線
 62
     3
100
AcDbLine
 10
243.3629436770783
 20
350.9775336869205
 30
0.0
 11
215.7554047619929
 21
350.9775336869205
 31
0.0
  0
LINE
  5
93C1
330
93A0
100
AcDbEntity
  8
AM_5 寸法線
 62
     3
100
AcDbLine
 10
243.3629436770783
 20
292.9775336869205
 30
0.0
 11
215.7554047619929
 21
292.9775336869205
 31
0.0
  0
LINE
  5
93C2
330
93A0
100
AcDbEntity
  8
AM_5 寸法線
 62
     3
100
AcDbLine
 10
216.6929047619929
 20
347.2275336869206
 30
0.0
 11
216.6929047619929
 21
296.7275336869205
 31
0.0
  0
INSERT
  5
93C3
330
93A0
100
AcDbEntity
  8
AM_5 寸法線
 62
     3
100
AcDbBlockReference
  2
_Open30
 10
216.6929047619929
 20
350.9775336869205
 30
0.0
 41
3.75
 42
3.75
 43
3.75
 50
90.0
  0
INSERT
  5
93C4
330
93A0
100
AcDbEntity
  8
AM_5 寸法線
 62
     3
100
AcDbBlockReference
  2
_Open30
 10
216.6929047619929
 20
292.9775336869205
 30
0.0
 41
3.75
 42
3.75
 43
3.75
 50
270.0
  0
MTEXT
  5
93C5
330
93A0
100
AcDbEntity
  8
AM_5 寸法線
 62
     3
100
AcDbMText
 10
211.8179047619928
 20
321.9775336869207
 30
0.0
 40
5.25
 41
0.0
 46
0.0
 71
     5
 72
     1
  1
%%c58
  7
SEISA
 11
0.0000000000000001
 21
1.0
 31
0.0
 73
     1
 44
1.0
  0
POINT
  5
93C6
330
93A0
100
AcDbEntity
  8
Defpoints
 62
     0
100
AcDbPoint
 10
244.3004436770783
 20
350.9775336869205
 30
0.0
  0
POINT
  5
93C7
330
93A0
100
AcDbEntity
  8
Defpoints
 62
     0
100
AcDbPoint
 10
244.3004436770783
 20
292.9775336869205
 30
0.0
  0
POINT
  5
93C8
330
93A0
100
AcDbEntity
  8
Defpoints
 62
     0
100
AcDbPoint
 10
216.6929047619929
 20
292.9775336869205
 30
0.0
  0
ENDBLK
  5
93A2
330
93A0
100
AcDbEntity
  8
0
100
AcDbBlockEnd
  0
BLOCK
  5
94AC
330
94AB
100
AcDbEntity
  8
0
100
AcDbBlockBegin
  2
*D13
 70
     1
 10
0.0
 20
0.0
 30
0.0
  3
*D13
  1

  0
LINE
  5
94C2
330
94AB
100
AcDbEntity
  8
AM_5 寸法線
 62
     3
100
AcDbLine
 10
280.3004436770783
 20
265.2400336869206
 30
0.0
 11
280.3004436770783
 21
248.0662048209692
 31
0.0
  0
LINE
  5
94C3
330
94AB
100
AcDbEntity
  8
AM_5 寸法線
 62
     3
100
AcDbLine
 10
295.3004436770783
 20
265.2400336869206
 30
0.0
 11
295.3004436770783
 21
248.0662048209692
 31
0.0
  0
LINE
  5
94C4
330
94AB
100
AcDbEntity
  8
AM_5 寸法線
 62
     3
100
AcDbLine
 10
284.0504436770783
 20
249.0037048209692
 30
0.0
 11
291.5504436770784
 21
249.0037048209692
 31
0.0
  0
INSERT
  5
94C5
330
94AB
100
AcDbEntity
  8
AM_5 寸法線
 62
     3
100
AcDbBlockReference
  2
_Open30
 10
280.3004436770783
 20
249.0037048209692
 30
0.0
 41
3.75
 42
3.75
 43
3.75
 50
180.0
  0
INSERT
  5
94C6
330
94AB
100
AcDbEntity
  8
AM_5 寸法線
 62
     3
100
AcDbBlockReference
  2
_Open30
 10
295.3004436770783
 20
249.0037048209692
 30
0.0
 41
3.75
 42
3.75
 43
3.75
  0
MTEXT
  5
94C7
330
94AB
100
AcDbEntity
  8
AM_5 寸法線
 62
     3
100
AcDbMText
 10
287.8004436770783
 20
253.8787048209692
 30
0.0
 40
5.25
 41
0.0
 46
0.0
 71
     5
 72
     1
  1
15
  7
SEISA
 73
     1
 44
1.0
  0
POINT
  5
94C8
330
94AB
100
AcDbEntity
  8
Defpoints
 62
     0
100
AcDbPoint
 10
280.3004436770783
 20
266.1775336869206
 30
0.0
  0
POINT
  5
94C9
330
94AB
100
AcDbEntity
  8
Defpoints
 62
     0
100
AcDbPoint
 10
295.3004436770783
 20
266.1775336869206
 30
0.0
  0
POINT
  5
94CA
330
94AB
100
AcDbEntity
  8
Defpoints
 62
     0
100
AcDbPoint
 10
295.3004436770783
 20
249.0037048209692
 30
0.0
  0
ENDBLK
  5
94AD
330
94AB
100
AcDbEntity
  8
0
100
AcDbBlockEnd
  0
BLOCK
  5
94CD
330
94CC
100
AcDbEntity
  8
0
100
AcDbBlockBegin
  2
*D14
 70
     1
 10
0.0
 20
0.0
 30
0.0
  3
*D14
  1

  0
LINE
  5
94D9
330
94CC
100
AcDbEntity
  8
AM_5 寸法線
 62
     3
100
AcDbLine
 10
295.3004436770783
 20
265.2400336869206
 30
0.0
 11
295.3004436770783
 21
248.0662048209692
 31
0.0
  0
LINE
  5
94DA
330
94CC
100
AcDbEntity
  8
AM_5 寸法線
 62
     3
100
AcDbLine
 10
310.3004436770783
 20
265.2400336869206
 30
0.0
 11
310.3004436770783
 21
248.0662048209692
 31
0.0
  0
LINE
  5
94DB
330
94CC
100
AcDbEntity
  8
AM_5 寸法線
 62
     3
100
AcDbLine
 10
299.0504436770784
 20
249.0037048209692
 30
0.0
 11
306.5504436770783
 21
249.0037048209692
 31
0.0
  0
INSERT
  5
94DC
330
94CC
100
AcDbEntity
  8
AM_5 寸法線
 62
     3
100
AcDbBlockReference
  2
_Open30
 10
295.3004436770783
 20
249.0037048209692
 30
0.0
 41
3.75
 42
3.75
 43
3.75
 50
180.0
  0
INSERT
  5
94DD
330
94CC
100
AcDbEntity
  8
AM_5 寸法線
 62
     3
100
AcDbBlockReference
  2
_Open30
 10
310.3004436770783
 20
249.0037048209692
 30
0.0
 41
3.75
 42
3.75
 43
3.75
  0
MTEXT
  5
94DE
330
94CC
100
AcDbEntity
  8
AM_5 寸法線
 62
     3
100
AcDbMText
 10
302.8004436770783
 20
253.8787048209692
 30
0.0
 40
5.25
 41
0.0
 46
0.0
 71
     5
 72
     1
  1
15
  7
SEISA
 73
     1
 44
1.0
  0
POINT
  5
94DF
330
94CC
100
AcDbEntity
  8
Defpoints
 62
     0
100
AcDbPoint
 10
295.3004436770783
 20
266.1775336869206
 30
0.0
  0
POINT
  5
94E0
330
94CC
100
AcDbEntity
  8
Defpoints
 62
     0
100
AcDbPoint
 10
310.3004436770783
 20
266.1775336869206
 30
0.0
  0
POINT
  5
94E1
330
94CC
100
AcDbEntity
  8
Defpoints
 62
     0
100
AcDbPoint
 10
310.3004436770783
 20
249.0037048209692
 30
0.0
  0
ENDBLK
  5
94CE
330
94CC
100
AcDbEntity
  8
0
100
AcDbBlockEnd
  0
BLOCK
  5
951B
330
951A
100
AcDbEntity
  8
0
100
AcDbBlockBegin
  2
*D15
 70
     1
 10
0.0
 20
0.0
 30
0.0
  3
*D15
  1

  0
LINE
  5
AD09
330
951A
100
AcDbEntity
  8
AM_5 寸法線
 62
     3
100
AcDbLine
 10
255.3004436770784
 20
284.5400336869206
 30
0.0
 11
255.3004436770784
 21
233.0400336869205
 31
0.0
  0
LINE
  5
AD0A
330
951A
100
AcDbEntity
  8
AM_5 寸法線
 62
     3
100
AcDbLine
 10
335.3004436770783
 20
284.5400336869206
 30
0.0
 11
335.3004436770783
 21
233.0400336869205
 31
0.0
  0
LINE
  5
AD0B
330
951A
100
AcDbEntity
  8
AM_5 寸法線
 62
     3
100
AcDbLine
 10
259.0504436770783
 20
233.9775336869205
 30
0.0
 11
331.5504436770783
 21
233.9775336869205
 31
0.0
  0
INSERT
  5
AD0C
330
951A
100
AcDbEntity
  8
AM_5 寸法線
 62
     3
100
AcDbBlockReference
  2
_Open30
 10
255.3004436770784
 20
233.9775336869205
 30
0.0
 41
3.75
 42
3.75
 43
3.75
 50
180.0
  0
INSERT
  5
AD0D
330
951A
100
AcDbEntity
  8
AM_5 寸法線
 62
     3
100
AcDbBlockReference
  2
_Open30
 10
335.3004436770783
 20
233.9775336869205
 30
0.0
 41
3.75
 42
3.75
 43
3.75
  0
MTEXT
  5
AD0E
330
951A
100
AcDbEntity
  8
AM_5 寸法線
 62
     3
100
AcDbMText
 10
295.3004436770783
 20
238.8525336869205
 30
0.0
 40
5.25
 41
0.0
 46
0.0
 71
     5
 72
     1
  1
80
  7
SEISA
 73
     1
 44
1.0
  0
POINT
  5
AD0F
330
951A
100
AcDbEntity
  8
Defpoints
 62
     0
100
AcDbPoint
 10
255.3004436770784
 20
285.4775336869206
 30
0.0
  0
POINT
  5
AD10
330
951A
100
AcDbEntity
  8
Defpoints
 62
     0
100
AcDbPoint
 10
335.3004436770783
 20
285.4775336869206
 30
0.0
  0
POINT
  5
AD11
330
951A
100
AcDbEntity
  8
Defpoints
 62
     0
100
AcDbPoint
 10
335.3004436770783
 20
233.9775336869205
 30
0.0
  0
ENDBLK
  5
951C
330
951A
100
AcDbEntity
  8
0
100
AcDbBlockEnd
  0
BLOCK
  5
9551
330
9550
100
AcDbEntity
  8
0
100
AcDbBlockBegin
  2
*D16
 70
     1
 10
0.0
 20
0.0
 30
0.0
  3
*D16
  1

  0
LINE
  5
955D
330
9550
100
AcDbEntity
  8
AM_5 寸法線
 62
     3
100
AcDbLine
 10
241.3004436770783
 20
295.0400336869206
 30
0.0
 11
241.3004436770783
 21
218.0400336869205
 31
0.0
  0
LINE
  5
955E
330
9550
100
AcDbEntity
  8
AM_5 寸法線
 62
     3
100
AcDbLine
 10
349.3004436770783
 20
295.0400336869206
 30
0.0
 11
349.3004436770783
 21
218.0400336869205
 31
0.0
  0
LINE
  5
955F
330
9550
100
AcDbEntity
  8
AM_5 寸法線
 62
     3
100
AcDbLine
 10
245.0504436770784
 20
218.9775336869205
 30
0.0
 11
345.5504436770783
 21
218.9775336869205
 31
0.0
  0
INSERT
  5
9560
330
9550
100
AcDbEntity
  8
AM_5 寸法線
 62
     3
100
AcDbBlockReference
  2
_Open30
 10
241.3004436770783
 20
218.9775336869205
 30
0.0
 41
3.75
 42
3.75
 43
3.75
 50
180.0
  0
INSERT
  5
9561
330
9550
100
AcDbEntity
  8
AM_5 寸法線
 62
     3
100
AcDbBlockReference
  2
_Open30
 10
349.3004436770783
 20
218.9775336869205
 30
0.0
 41
3.75
 42
3.75
 43
3.75
  0
MTEXT
  5
9562
330
9550
100
AcDbEntity
  8
AM_5 寸法線
 62
     3
100
AcDbMText
 10
295.3004436770783
 20
223.8525336869205
 30
0.0
 40
5.25
 41
0.0
 46
0.0
 71
     5
 72
     1
  1
108
  7
SEISA
 73
     1
 44
1.0
  0
POINT
  5
9563
330
9550
100
AcDbEntity
  8
Defpoints
 62
     0
100
AcDbPoint
 10
241.3004436770783
 20
295.9775336869205
 30
0.0
  0
POINT
  5
9564
330
9550
100
AcDbEntity
  8
Defpoints
 62
     0
100
AcDbPoint
 10
349.3004436770783
 20
295.9775336869205
 30
0.0
  0
POINT
  5
9565
330
9550
100
AcDbEntity
  8
Defpoints
 62
     0
100
AcDbPoint
 10
349.3004436770783
 20
218.9775336869205
 30
0.0
  0
ENDBLK
  5
9552
330
9550
100
AcDbEntity
  8
0
100
AcDbBlockEnd
  0
BLOCK
  5
9638
330
9637
100
AcDbEntity
  8
0
100
AcDbBlockBegin
  2
*D17
 70
     1
 10
0.0
 20
0.0
 30
0.0
  3
*D17
  1

  0
LINE
  5
9693
330
9637
100
AcDbEntity
  8
AM_5 寸法線
 62
     3
100
AcDbLine
 10
347.2379436770783
 20
350.9775336869205
 30
0.0
 11
375.2379436770783
 21
350.9775336869205
 31
0.0
  0
LINE
  5
9694
330
9637
100
AcDbEntity
  8
AM_5 寸法線
 62
     3
100
AcDbLine
 10
347.2379436770783
 20
292.9775336869205
 30
0.0
 11
375.2379436770783
 21
292.9775336869205
 31
0.0
  0
LINE
  5
9695
330
9637
100
AcDbEntity
  8
AM_5 寸法線
 62
     3
100
AcDbLine
 10
374.3004436770783
 20
347.2275336869206
 30
0.0
 11
374.3004436770783
 21
296.7275336869205
 31
0.0
  0
INSERT
  5
9696
330
9637
100
AcDbEntity
  8
AM_5 寸法線
 62
     3
100
AcDbBlockReference
  2
_Open30
 10
374.3004436770783
 20
350.9775336869205
 30
0.0
 41
3.75
 42
3.75
 43
3.75
 50
90.0
  0
INSERT
  5
9697
330
9637
100
AcDbEntity
  8
AM_5 寸法線
 62
     3
100
AcDbBlockReference
  2
_Open30
 10
374.3004436770783
 20
292.9775336869205
 30
0.0
 41
3.75
 42
3.75
 43
3.75
 50
270.0
  0
MTEXT
  5
9698
330
9637
100
AcDbEntity
  8
AM_5 寸法線
 62
     3
100
AcDbMText
 10
369.4254436770783
 20
321.9775336869207
 30
0.0
 40
5.25
 41
0.0
 46
0.0
 71
     5
 72
     1
  1
%%c58
  7
SEISA
 11
0.0000000000000001
 21
1.0
 31
0.0
 73
     1
 44
1.0
  0
POINT
  5
9699
330
9637
100
AcDbEntity
  8
Defpoints
 62
     0
100
AcDbPoint
 10
346.3004436770783
 20
350.9775336869205
 30
0.0
  0
POINT
  5
969A
330
9637
100
AcDbEntity
  8
Defpoints
 62
     0
100
AcDbPoint
 10
346.3004436770783
 20
292.9775336869205
 30
0.0
  0
POINT
  5
969B
330
9637
100
AcDbEntity
  8
Defpoints
 62
     0
100
AcDbPoint
 10
374.3004436770783
 20
292.9775336869205
 30
0.0
  0
ENDBLK
  5
9639
330
9637
100
AcDbEntity
  8
0
100
AcDbBlockEnd
  0
BLOCK
  5
9650
330
964F
100
AcDbEntity
  8
0
100
AcDbBlockBegin
  2
*D18
 70
     1
 10
0.0
 20
0.0
 30
0.0
  3
*D18
  1

  0
LINE
  5
96A5
330
964F
100
AcDbEntity
  8
AM_5 寸法線
 62
     3
100
AcDbLine
 10
333.2379436770783
 20
361.4775336869205
 30
0.0
 11
390.2379436770784
 21
361.4775336869205
 31
0.0
  0
LINE
  5
96A6
330
964F
100
AcDbEntity
  8
AM_5 寸法線
 62
     3
100
AcDbLine
 10
333.2379436770783
 20
282.4775336869205
 30
0.0
 11
390.2379436770784
 21
282.4775336869205
 31
0.0
  0
LINE
  5
96A7
330
964F
100
AcDbEntity
  8
AM_5 寸法線
 62
     3
100
AcDbLine
 10
389.3004436770784
 20
357.7275336869205
 30
0.0
 11
389.3004436770784
 21
286.2275336869205
 31
0.0
  0
INSERT
  5
96A8
330
964F
100
AcDbEntity
  8
AM_5 寸法線
 62
     3
100
AcDbBlockReference
  2
_Open30
 10
389.3004436770784
 20
361.4775336869205
 30
0.0
 41
3.75
 42
3.75
 43
3.75
 50
90.0
  0
INSERT
  5
96A9
330
964F
100
AcDbEntity
  8
AM_5 寸法線
 62
     3
100
AcDbBlockReference
  2
_Open30
 10
389.3004436770784
 20
282.4775336869205
 30
0.0
 41
3.75
 42
3.75
 43
3.75
 50
270.0
  0
MTEXT
  5
96AA
330
964F
100
AcDbEntity
  8
AM_5 寸法線
 62
     3
100
AcDbMText
 10
384.4254436770783
 20
321.9775336869207
 30
0.0
 40
5.25
 41
0.0
 46
0.0
 71
     5
 72
     1
  1
%%c79
  7
SEISA
 11
0.0000000000000001
 21
1.0
 31
0.0
 73
     1
 44
1.0
  0
POINT
  5
96AB
330
964F
100
AcDbEntity
  8
Defpoints
 62
     0
100
AcDbPoint
 10
332.3004436770783
 20
361.4775336869205
 30
0.0
  0
POINT
  5
96AC
330
964F
100
AcDbEntity
  8
Defpoints
 62
     0
100
AcDbPoint
 10
332.3004436770783
 20
282.4775336869205
 30
0.0
  0
POINT
  5
96AD
330
964F
100
AcDbEntity
  8
Defpoints
 62
     0
100
AcDbPoint
 10
389.3004436770784
 20
282.4775336869205
 30
0.0
  0
ENDBLK
  5
9651
330
964F
100
AcDbEntity
  8
0
100
AcDbBlockEnd
  0
BLOCK
  5
9668
330
9667
100
AcDbEntity
  8
0
100
AcDbBlockBegin
  2
*D19
 70
     1
 10
0.0
 20
0.0
 30
0.0
  3
*D19
  1

  0
LINE
  5
96B7
330
9667
100
AcDbEntity
  8
AM_5 寸法線
 62
     3
100
AcDbLine
 10
311.0379436770783
 20
377.9775336869205
 30
0.0
 11
405.2379436770784
 21
377.9775336869205
 31
0.0
  0
LINE
  5
96B8
330
9667
100
AcDbEntity
  8
AM_5 寸法線
 62
     3
100
AcDbLine
 10
311.0379436770783
 20
265.9775336869206
 30
0.0
 11
405.2379436770784
 21
265.9775336869206
 31
0.0
  0
LINE
  5
96B9
330
9667
100
AcDbEntity
  8
AM_5 寸法線
 62
     3
100
AcDbLine
 10
404.3004436770784
 20
374.2275336869205
 30
0.0
 11
404.3004436770784
 21
269.7275336869205
 31
0.0
  0
INSERT
  5
96BA
330
9667
100
AcDbEntity
  8
AM_5 寸法線
 62
     3
100
AcDbBlockReference
  2
_Open30
 10
404.3004436770784
 20
377.9775336869205
 30
0.0
 41
3.75
 42
3.75
 43
3.75
 50
90.0
  0
INSERT
  5
96BB
330
9667
100
AcDbEntity
  8
AM_5 寸法線
 62
     3
100
AcDbBlockReference
  2
_Open30
 10
404.3004436770784
 20
265.9775336869206
 30
0.0
 41
3.75
 42
3.75
 43
3.75
 50
270.0
  0
MTEXT
  5
96BC
330
9667
100
AcDbEntity
  8
AM_5 寸法線
 62
     3
100
AcDbMText
 10
399.4254436770784
 20
321.9775336869207
 30
0.0
 40
5.25
 41
0.0
 46
0.0
 71
     5
 72
     1
  1
%%c112
  7
SEISA
 11
0.0000000000000001
 21
1.0
 31
0.0
 73
     1
 44
1.0
  0
POINT
  5
96BD
330
9667
100
AcDbEntity
  8
Defpoints
 62
     0
100
AcDbPoint
 10
310.1004436770783
 20
377.9775336869205
 30
0.0
  0
POINT
  5
96BE
330
9667
100
AcDbEntity
  8
Defpoints
 62
     0
100
AcDbPoint
 10
310.1004436770783
 20
265.9775336869206
 30
0.0
  0
POINT
  5
96BF
330
9667
100
AcDbEntity
  8
Defpoints
 62
     0
100
AcDbPoint
 10
404.3004436770784
 20
265.9775336869206
 30
0.0
  0
ENDBLK
  5
9669
330
9667
100
AcDbEntity
  8
0
100
AcDbBlockEnd
  0
BLOCK
  5
974D
330
974C
100
AcDbEntity
  8
0
100
AcDbBlockBegin
  2
*D20
 70
     1
 10
0.0
 20
0.0
 30
0.0
  3
*D20
  1

  0
LINE
  5
9759
330
974C
100
AcDbEntity
  8
AM_5 寸法線
 62
     3
100
AcDbLine
 10
241.3004436770783
 20
332.4202730813096
 30
0.0
 11
241.3004436770783
 21
326.9343403629493
 31
0.0
  0
LINE
  5
975A
102
{ACAD_REACTORS
330
A83E
102
}
330
974C
100
AcDbEntity
  8
AM_5 寸法線
 62
     3
100
AcDbLine
 10
291.3004436770783
 20
333.9216493706007
 30
0.0
 11
291.3004436770783
 21
326.9343403629493
 31
0.0
  0
LINE
  5
975B
330
974C
100
AcDbEntity
  8
AM_5 寸法線
 62
     3
100
AcDbLine
 10
245.0504436770784
 20
327.8718403629493
 30
0.0
 11
287.5504436770783
 21
327.8718403629493
 31
0.0
  0
INSERT
  5
975C
330
974C
100
AcDbEntity
  8
AM_5 寸法線
 62
     3
100
AcDbBlockReference
  2
_Open30
 10
241.3004436770783
 20
327.8718403629493
 30
0.0
 41
3.75
 42
3.75
 43
3.75
 50
180.0
  0
INSERT
  5
975D
330
974C
100
AcDbEntity
  8
AM_5 寸法線
 62
     3
100
AcDbBlockReference
  2
_Open30
 10
291.3004436770783
 20
327.8718403629493
 30
0.0
 41
3.75
 42
3.75
 43
3.75
  0
MTEXT
  5
975E
330
974C
100
AcDbEntity
  8
AM_5 寸法線
 62
     3
100
AcDbMText
 10
266.3004436770783
 20
332.7468403629493
 30
0.0
 40
5.25
 41
0.0
 46
0.0
 71
     5
 72
     1
  1
50
  7
SEISA
 73
     1
 44
1.0
  0
POINT
  5
975F
330
974C
100
AcDbEntity
  8
Defpoints
 62
     0
100
AcDbPoint
 10
241.3004436770783
 20
333.3577730813096
 30
0.0
  0
POINT
  5
9760
330
974C
100
AcDbEntity
  8
Defpoints
 62
     0
100
AcDbPoint
 10
291.3004436770783
 20
334.8591493706007
 30
0.0
  0
POINT
  5
9761
330
974C
100
AcDbEntity
  8
Defpoints
 62
     0
100
AcDbPoint
 10
291.3004436770783
 20
327.8718403629493
 30
0.0
  0
ENDBLK
  5
974E
330
974C
100
AcDbEntity
  8
0
100
AcDbBlockEnd
  0
BLOCK
  5
9781
330
9780
100
AcDbEntity
  8
0
100
AcDbBlockBegin
  2
*D21
 70
     1
 10
0.0
 20
0.0
 30
0.0
  3
*D21
  1

  0
LINE
  5
978D
330
9780
100
AcDbEntity
  8
AM_5 寸法線
 62
     3
100
AcDbLine
 10
299.3004436770783
 20
332.9855767817067
 30
0.0
 11
299.3004436770783
 21
326.9343403629493
 31
0.0
  0
LINE
  5
978E
330
9780
100
AcDbEntity
  8
AM_5 寸法線
 62
     3
100
AcDbLine
 10
349.3004436770783
 20
332.9855767817067
 30
0.0
 11
349.3004436770783
 21
326.9343403629493
 31
0.0
  0
LINE
  5
978F
330
9780
100
AcDbEntity
  8
AM_5 寸法線
 62
     3
100
AcDbLine
 10
303.0504436770783
 20
327.8718403629493
 30
0.0
 11
345.5504436770783
 21
327.8718403629493
 31
0.0
  0
INSERT
  5
9790
330
9780
100
AcDbEntity
  8
AM_5 寸法線
 62
     3
100
AcDbBlockReference
  2
_Open30
 10
299.3004436770783
 20
327.8718403629493
 30
0.0
 41
3.75
 42
3.75
 43
3.75
 50
180.0
  0
INSERT
  5
9791
330
9780
100
AcDbEntity
  8
AM_5 寸法線
 62
     3
100
AcDbBlockReference
  2
_Open30
 10
349.3004436770783
 20
327.8718403629493
 30
0.0
 41
3.75
 42
3.75
 43
3.75
  0
MTEXT
  5
9792
330
9780
100
AcDbEntity
  8
AM_5 寸法線
 62
     3
100
AcDbMText
 10
324.3004436770783
 20
332.7468403629493
 30
0.0
 40
5.25
 41
0.0
 46
0.0
 71
     5
 72
     1
  1
50
  7
SEISA
 73
     1
 44
1.0
  0
POINT
  5
9793
330
9780
100
AcDbEntity
  8
Defpoints
 62
     0
100
AcDbPoint
 10
299.3004436770783
 20
333.9230767817067
 30
0.0
  0
POINT
  5
9794
330
9780
100
AcDbEntity
  8
Defpoints
 62
     0
100
AcDbPoint
 10
349.3004436770783
 20
333.9230767817067
 30
0.0
  0
POINT
  5
9795
330
9780
100
AcDbEntity
  8
Defpoints
 62
     0
100
AcDbPoint
 10
349.3004436770783
 20
327.8718403629493
 30
0.0
  0
ENDBLK
  5
9782
330
9780
100
AcDbEntity
  8
0
100
AcDbBlockEnd
  0
BLOCK
  5
97B5
330
97B4
100
AcDbEntity
  8
0
100
AcDbBlockBegin
  2
*D22
 70
     1
 10
0.0
 20
0.0
 30
0.0
  3
*D22
  1

  0
LINE
  5
AE9E
330
97B4
100
AcDbEntity
  8
AM_5 寸法線
 62
     3
100
AcDbLine
 10
267.3004436770783
 20
350.0400336869205
 30
0.0
 11
267.3004436770783
 21
341.5722636869205
 31
0.0
  0
LINE
  5
AE9F
330
97B4
100
AcDbEntity
  8
AM_5 寸法線
 62
     3
100
AcDbLine
 10
269.3004436770783
 20
350.5400336869205
 30
0.0
 11
269.3004436770783
 21
341.5722636869205
 31
0.0
  0
LINE
  5
AEA0
330
97B4
100
AcDbEntity
  8
AM_5 寸法線
 62
     3
100
AcDbLine
 10
269.3004436770783
 20
342.5097636869205
 30
0.0
 11
276.8004436770783
 21
342.5097636869205
 31
0.0
  0
LINE
  5
AEA1
330
97B4
100
AcDbEntity
  8
AM_5 寸法線
 62
     3
100
AcDbLine
 10
263.5504436770783
 20
342.5097636869205
 30
0.0
 11
252.1504436770783
 21
342.5097636869205
 31
0.0
  0
LINE
  5
AEA2
330
97B4
100
AcDbEntity
  8
AM_5 寸法線
 62
     3
100
AcDbLine
 10
269.3004436770783
 20
342.5097636869205
 30
0.0
 11
267.3004436770783
 21
342.5097636869205
 31
0.0
  0
INSERT
  5
AEA3
330
97B4
100
AcDbEntity
  8
AM_5 寸法線
 62
     3
100
AcDbBlockReference
  2
_DotSmall
 10
269.3004436770783
 20
342.5097636869205
 30
0.0
 41
3.75
 42
3.75
 43
3.75
 50
180.0
  0
INSERT
  5
AEA4
330
97B4
100
AcDbEntity
  8
AM_5 寸法線
 62
     3
100
AcDbBlockReference
  2
_Open30
 10
267.3004436770783
 20
342.5097636869205
 30
0.0
 41
3.75
 42
3.75
 43
3.75
  0
MTEXT
  5
AEA5
330
97B4
100
AcDbEntity
  8
AM_5 寸法線
 62
     3
100
AcDbMText
 10
255.9754436770783
 20
347.3847636869205
 30
0.0
 40
5.25
 41
0.0
 46
0.0
 71
     5
 72
     1
  1
2
  7
SEISA
 73
     1
 44
1.0
  0
POINT
  5
AEA6
330
97B4
100
AcDbEntity
  8
Defpoints
 62
     0
100
AcDbPoint
 10
267.3004436770783
 20
350.9775336869205
 30
0.0
  0
POINT
  5
AEA7
330
97B4
100
AcDbEntity
  8
Defpoints
 62
     0
100
AcDbPoint
 10
269.3004436770783
 20
351.4775336869206
 30
0.0
  0
POINT
  5
AEA8
330
97B4
100
AcDbEntity
  8
Defpoints
 62
     0
100
AcDbPoint
 10
269.3004436770783
 20
342.5097636869205
 30
0.0
  0
ENDBLK
  5
97B6
330
97B4
100
AcDbEntity
  8
0
100
AcDbBlockEnd
  0
BLOCK
  5
A830
330
A82F
100
AcDbEntity
  8
0
100
AcDbBlockBegin
  2
*D23
 70
     1
 10
0.0
 20
0.0
 30
0.0
  3
*D23
  1

  0
LINE
  5
A855
330
A82F
100
AcDbEntity
  8
AM_5 寸法線
 62
     3
100
AcDbLine
 10
291.3004436770783
 20
332.9841493706007
 30
0.0
 11
291.3004436770783
 21
326.9343403629492
 31
0.0
  0
LINE
  5
A856
330
A82F
100
AcDbEntity
  8
AM_5 寸法線
 62
     3
100
AcDbLine
 10
299.3004436770783
 20
332.9841493706007
 30
0.0
 11
299.3004436770783
 21
326.9343403629492
 31
0.0
  0
LINE
  5
A857
330
A82F
100
AcDbEntity
  8
AM_5 寸法線
 62
     3
100
AcDbLine
 10
287.5504436770783
 20
327.8718403629492
 30
0.0
 11
283.8004436770783
 21
327.8718403629492
 31
0.0
  0
LINE
  5
A858
330
A82F
100
AcDbEntity
  8
AM_5 寸法線
 62
     3
100
AcDbLine
 10
303.0504436770783
 20
327.8718403629492
 30
0.0
 11
306.8004436770783
 21
327.8718403629492
 31
0.0
  0
LINE
  5
A859
330
A82F
100
AcDbEntity
  8
AM_5 寸法線
 62
     3
100
AcDbLine
 10
291.3004436770783
 20
327.8718403629492
 30
0.0
 11
299.3004436770783
 21
327.8718403629492
 31
0.0
  0
INSERT
  5
A85A
330
A82F
100
AcDbEntity
  8
AM_5 寸法線
 62
     3
100
AcDbBlockReference
  2
_Open30
 10
291.3004436770783
 20
327.8718403629492
 30
0.0
 41
3.75
 42
3.75
 43
3.75
  0
INSERT
  5
A85B
330
A82F
100
AcDbEntity
  8
AM_5 寸法線
 62
     3
100
AcDbBlockReference
  2
_Open30
 10
299.3004436770783
 20
327.8718403629492
 30
0.0
 41
3.75
 42
3.75
 43
3.75
 50
180.0
  0
MTEXT
  5
A85C
330
A82F
100
AcDbEntity
  8
AM_5 寸法線
 62
     3
100
AcDbMText
 10
295.3004436770783
 20
332.7468403629492
 30
0.0
 40
5.25
 41
0.0
 46
0.0
 71
     5
 72
     1
  1
8
  7
SEISA
 73
     1
 44
1.0
  0
POINT
  5
A85D
330
A82F
100
AcDbEntity
  8
Defpoints
 62
     0
100
AcDbPoint
 10
291.3004436770783
 20
333.9216493706007
 30
0.0
  0
POINT
  5
A85E
330
A82F
100
AcDbEntity
  8
Defpoints
 62
     0
100
AcDbPoint
 10
299.3004436770783
 20
333.9216493706007
 30
0.0
  0
POINT
  5
A85F
330
A82F
100
AcDbEntity
  8
Defpoints
 62
     0
100
AcDbPoint
 10
299.3004436770783
 20
327.8718403629492
 30
0.0
  0
ENDBLK
  5
A831
330
A82F
100
AcDbEntity
  8
0
100
AcDbBlockEnd
  0
BLOCK
  5
AD89
330
AD88
100
AcDbEntity
  8
0
100
AcDbBlockBegin
  2
*D24
 70
     1
 10
0.0
 20
0.0
 30
0.0
  3
*D24
  1

  0
LINE
  5
B18D
330
AD88
100
AcDbEntity
  8
AM_5 寸法線
 62
     3
100
AcDbLine
 10
241.3004436770783
 20
348.9150336869205
 30
0.0
 11
241.3004436770783
 21
378.9150336869206
 31
0.0
  0
LINE
  5
B18E
330
AD88
100
AcDbEntity
  8
AM_5 寸法線
 62
     3
100
AcDbLine
 10
227.3004436770783
 20
359.4150336869205
 30
0.0
 11
227.3004436770783
 21
378.9150336869206
 31
0.0
  0
LINE
  5
B18F
330
AD88
100
AcDbEntity
  8
AM_5 寸法線
 62
     3
100
AcDbLine
 10
237.5504436770783
 20
377.9775336869205
 30
0.0
 11
231.0504436770783
 21
377.9775336869205
 31
0.0
  0
INSERT
  5
B190
330
AD88
100
AcDbEntity
  8
AM_5 寸法線
 62
     3
100
AcDbBlockReference
  2
_Open30
 10
241.3004436770783
 20
377.9775336869205
 30
0.0
 41
3.75
 42
3.75
 43
3.75
  0
INSERT
  5
B191
330
AD88
100
AcDbEntity
  8
AM_5 寸法線
 62
     3
100
AcDbBlockReference
  2
_Open30
 10
227.3004436770783
 20
377.9775336869205
 30
0.0
 41
3.75
 42
3.75
 43
3.75
 50
180.0
  0
MTEXT
  5
B192
330
AD88
100
AcDbEntity
  8
AM_5 寸法線
 62
     3
100
AcDbMText
 10
234.3004436770783
 20
382.8525336869205
 30
0.0
 40
5.25
 41
0.0
 46
0.0
 71
     5
 72
     1
  1
14
  7
SEISA
 73
     1
 44
1.0
  0
POINT
  5
B193
330
AD88
100
AcDbEntity
  8
Defpoints
 62
     0
100
AcDbPoint
 10
241.3004436770783
 20
347.9775336869205
 30
0.0
  0
POINT
  5
B194
330
AD88
100
AcDbEntity
  8
Defpoints
 62
     0
100
AcDbPoint
 10
227.3004436770783
 20
358.4775336869205
 30
0.0
  0
POINT
  5
B195
330
AD88
100
AcDbEntity
  8
Defpoints
 62
     0
100
AcDbPoint
 10
227.3004436770783
 20
377.9775336869205
 30
0.0
  0
ENDBLK
  5
AD8A
330
AD88
100
AcDbEntity
  8
0
100
AcDbBlockEnd
  0
BLOCK
  5
AE5A
330
AE59
100
AcDbEntity
  8
0
100
AcDbBlockBegin
  2
*D25
 70
     1
 10
0.0
 20
0.0
 30
0.0
  3
*D25
  1

  0
LINE
  5
AF4E
330
AE59
100
AcDbEntity
  8
AM_5 寸法線
 62
     3
100
AcDbLine
 10
269.3004436770783
 20
350.5400336869205
 30
0.0
 11
269.3004436770783
 21
341.5722636869209
 31
0.0
  0
LINE
  5
AF4F
330
AE59
100
AcDbEntity
  8
AM_5 寸法線
 62
     3
100
AcDbLine
 10
280.3004436770783
 20
350.5400336869205
 30
0.0
 11
280.3004436770783
 21
341.5722636869209
 31
0.0
  0
LINE
  5
AF50
330
AE59
100
AcDbEntity
  8
AM_5 寸法線
 62
     3
100
AcDbLine
 10
269.3004436770783
 20
342.5097636869208
 30
0.0
 11
269.7988260546264
 21
342.5097636869208
 31
0.0
  0
LINE
  5
AF51
330
AE59
100
AcDbEntity
  8
AM_5 寸法線
 62
     3
100
AcDbLine
 10
280.3004436770783
 20
342.5097636869208
 30
0.0
 11
279.9238260546264
 21
342.5097636869208
 31
0.0
  0
MTEXT
  5
AF52
330
AE59
100
AcDbEntity
  8
AM_5 寸法線
 62
     3
100
AcDbMText
 10
274.8613260546264
 20
346.6423589464904
 30
0.0
 40
5.25
 41
0.0
 46
0.0
 71
     5
 72
     1
  1
11
  7
SEISA
 73
     1
 44
1.0
  0
INSERT
  5
AF53
330
AE59
100
AcDbEntity
  8
AM_5 寸法線
 62
     3
100
AcDbBlockReference
  2
_DotSmall
 10
269.3004436770783
 20
342.5097636869208
 30
0.0
 41
3.75
 42
3.75
 43
3.75
 50
180.0
  0
INSERT
  5
AF54
330
AE59
100
AcDbEntity
  8
AM_5 寸法線
 62
     3
100
AcDbBlockReference
  2
_DotSmall
 10
280.3004436770783
 20
342.5097636869208
 30
0.0
 41
3.75
 42
3.75
 43
3.75
  0
POINT
  5
AF55
330
AE59
100
AcDbEntity
  8
Defpoints
 62
     0
100
AcDbPoint
 10
269.3004436770783
 20
351.4775336869206
 30
0.0
  0
POINT
  5
AF56
330
AE59
100
AcDbEntity
  8
Defpoints
 62
     0
100
AcDbPoint
 10
280.3004436770783
 20
351.4775336869206
 30
0.0
  0
POINT
  5
AF57
330
AE59
100
AcDbEntity
  8
Defpoints
 62
     0
100
AcDbPoint
 10
280.3004436770783
 20
342.5097636869208
 30
0.0
  0
ENDBLK
  5
AE5B
330
AE59
100
AcDbEntity
  8
0
100
AcDbBlockEnd
  0
BLOCK
  5
AE9C
330
AE9A
100
AcDbEntity
  8
0
100
AcDbBlockBegin
  2
_DotSmall
 70
     0
 10
0.0
 20
0.0
 30
0.0
  3
_DotSmall
  1

  0
LWPOLYLINE
  5
AE9B
330
AE9A
100
AcDbEntity
  8
0
  6
ByBlock
 62
     0
100
AcDbPolyline
 90
        2
 70
     1
 43
0.5
 10
-0.0625
 20
0.0
 42
1.0
 10
0.0625
 20
0.0
 42
1.0
  0
ENDBLK
  5
AE9D
330
AE9A
100
AcDbEntity
  8
0
100
AcDbBlockEnd
  0
BLOCK
  5
AEB4
330
AEB3
100
AcDbEntity
  8
0
100
AcDbBlockBegin
  2
*D27
 70
     1
 10
0.0
 20
0.0
 30
0.0
  3
*D27
  1

  0
LINE
  5
AF59
330
AEB3
100
AcDbEntity
  8
AM_5 寸法線
 62
     3
100
AcDbLine
 10
280.3004436770783
 20
350.5400336869205
 30
0.0
 11
280.3004436770783
 21
341.5722636869209
 31
0.0
  0
LINE
  5
AF5A
330
AEB3
100
AcDbEntity
  8
AM_5 寸法線
 62
     3
100
AcDbLine
 10
291.3004436770783
 20
349.5400336869205
 30
0.0
 11
291.3004436770783
 21
341.5722636869209
 31
0.0
  0
LINE
  5
AF5B
330
AEB3
100
AcDbEntity
  8
AM_5 寸法線
 62
     3
100
AcDbLine
 10
280.3004436770783
 20
342.5097636869208
 30
0.0
 11
276.5504436770783
 21
342.5097636869208
 31
0.0
  0
LINE
  5
AF5C
330
AEB3
100
AcDbEntity
  8
AM_5 寸法線
 62
     3
100
AcDbLine
 10
295.0504436770783
 20
342.5097636869208
 30
0.0
 11
298.8004436770783
 21
342.5097636869208
 31
0.0
  0
MTEXT
  5
AF5D
330
AEB3
100
AcDbEntity
  8
AM_5 寸法線
 62
     3
100
AcDbMText
 10
285.8575939876839
 20
346.6423589464904
 30
0.0
 40
5.25
 41
0.0
 46
0.0
 71
     5
 72
     1
  1
11
  7
SEISA
 73
     1
 44
1.0
  0
LINE
  5
AF5E
330
AEB3
100
AcDbEntity
  8
AM_5 寸法線
 62
     3
100
AcDbLine
 10
280.3004436770783
 20
342.5097636869208
 30
0.0
 11
291.3004436770783
 21
342.5097636869208
 31
0.0
  0
INSERT
  5
AF5F
330
AEB3
100
AcDbEntity
  8
AM_5 寸法線
 62
     3
100
AcDbBlockReference
  2
_DotSmall
 10
280.3004436770783
 20
342.5097636869208
 30
0.0
 41
3.75
 42
3.75
 43
3.75
 50
180.0
  0
INSERT
  5
AF60
330
AEB3
100
AcDbEntity
  8
AM_5 寸法線
 62
     3
100
AcDbBlockReference
  2
_Open30
 10
291.3004436770783
 20
342.5097636869208
 30
0.0
 41
3.75
 42
3.75
 43
3.75
 50
180.0
  0
POINT
  5
AF61
330
AEB3
100
AcDbEntity
  8
Defpoints
 62
     0
100
AcDbPoint
 10
280.3004436770783
 20
351.4775336869206
 30
0.0
  0
POINT
  5
AF62
330
AEB3
100
AcDbEntity
  8
Defpoints
 62
     0
100
AcDbPoint
 10
291.3004436770783
 20
350.4775336869205
 30
0.0
  0
POINT
  5
AF63
330
AEB3
100
AcDbEntity
  8
Defpoints
 62
     0
100
AcDbPoint
 10
291.3004436770783
 20
342.5097636869208
 30
0.0
  0
ENDBLK
  5
AEB5
330
AEB3
100
AcDbEntity
  8
0
100
AcDbBlockEnd
  0
BLOCK
  5
B2B4
330
B2B3
100
AcDbEntity
  8
0
100
AcDbBlockBegin
  2
ケース
 70
     0
 10
0.0
 20
0.0
 30
0.0
  3
ケース
  1

  0
LINE
  5
B2B6
330
B2B3
100
AcDbEntity
  8
AM_11 想像線
 48
0.2
100
AcDbLine
 10
-14.29999999999995
 20
-5.799999999999953
 30
0.0
 11
-7.700000000000045
 21
-5.799999999999953
 31
0.0
  0
LINE
  5
B2B7
330
B2B3
100
AcDbEntity
  8
AM_11 想像線
 48
0.2
100
AcDbLine
 10
0.0
 20
0.0
 30
0.0
 11
-14.0
 21
0.0
 31
0.0
  0
ARC
  5
B2B8
330
B2B3
100
AcDbEntity
  8
AM_11 想像線
 48
0.2
100
AcDbCircle
 10
-14.0
 20
-3.0
 30
0.0
 40
3.0
100
AcDbArc
 50
90.0
 51
180.0
  0
LINE
  5
B2B9
330
B2B3
100
AcDbEntity
  8
AM_11 想像線
 48
0.2
100
AcDbLine
 10
-17.0
 20
-9.5
 30
0.0
 11
-14.79999999999995
 21
-9.5
 31
0.0
  0
LINE
  5
B2BA
330
B2B3
100
AcDbEntity
  8
AM_11 想像線
 48
0.2
100
AcDbLine
 10
-17.0
 20
-3.0
 30
0.0
 11
-17.0
 21
-10.5
 31
0.0
  0
LINE
  5
B2BB
330
B2B3
100
AcDbEntity
  8
AM_11 想像線
 48
0.2
100
AcDbLine
 10
-14.79999999999995
 20
-6.299999999999953
 30
0.0
 11
-14.79999999999995
 21
-10.5
 31
0.0
  0
ARC
  5
B2BC
330
B2B3
100
AcDbEntity
  8
AM_11 想像線
 48
0.2
100
AcDbCircle
 10
-14.29999999999995
 20
-6.299999999999953
 30
0.0
 40
0.5
100
AcDbArc
 50
90.0
 51
180.0
  0
LINE
  5
B2BD
330
B2B3
100
AcDbEntity
  8
AM_11 想像線
 48
0.2
100
AcDbLine
 10
0.0
 20
-7.700000000000045
 30
0.0
 11
-1.5
 21
-7.700000000000045
 31
0.0
  0
LINE
  5
B2BE
330
B2B3
100
AcDbEntity
  8
AM_11 想像線
 48
0.2
100
AcDbLine
 10
0.0
 20
-5.0
 30
0.0
 11
-2.0
 21
-5.0
 31
0.0
  0
LINE
  5
B2BF
330
B2B3
100
AcDbEntity
  8
AM_11 想像線
 48
0.2
100
AcDbLine
 10
0.0
 20
-6.5
 30
0.0
 11
-4.0
 21
-6.5
 31
0.0
  0
LINE
  5
B2C0
330
B2B3
100
AcDbEntity
  8
AM_11 想像線
 48
0.2
100
AcDbLine
 10
-7.200000000000045
 20
-9.5
 30
0.0
 11
-5.0
 21
-9.5
 31
0.0
  0
LINE
  5
B2C1
330
B2B3
100
AcDbEntity
  8
AM_11 想像線
 48
0.2
100
AcDbLine
 10
-5.0
 20
-5.5
 30
0.0
 11
-5.0
 21
-10.5
 31
0.0
  0
LINE
  5
B2C2
330
B2B3
100
AcDbEntity
  8
AM_11 想像線
 48
0.2
100
AcDbLine
 10
-7.200000000000045
 20
-6.299999999999953
 30
0.0
 11
-7.200000000000045
 21
-10.5
 31
0.0
  0
ARC
  5
B2C3
330
B2B3
100
AcDbEntity
  8
AM_11 想像線
 48
0.2
100
AcDbCircle
 10
-4.0
 20
-5.5
 30
0.0
 40
1.0
100
AcDbArc
 50
90.0
 51
180.0
  0
ARC
  5
B2C4
330
B2B3
100
AcDbEntity
  8
AM_11 想像線
 48
0.2
100
AcDbCircle
 10
-7.700000000000045
 20
-6.299999999999953
 30
0.0
 40
0.5
100
AcDbArc
 50
0.0
 51
90.0
  0
LINE
  5
B2C5
330
B2B3
100
AcDbEntity
  8
AM_11 想像線
 48
0.2
100
AcDbLine
 10
-2.0
 20
-5.522265999999945
 30
0.0
 11
-2.0
 21
-7.200000000000045
 31
0.0
  0
LINE
  5
B2C6
330
B2B3
100
AcDbEntity
  8
AM_11 想像線
 48
0.2
100
AcDbLine
 10
-2.0
 20
-7.200000000000045
 30
0.0
 11
-1.5
 21
-7.700000000000045
 31
0.0
  0
ARC
  5
B2C7
330
B2B3
100
AcDbEntity
  8
AM_11 想像線
 48
0.2
100
AcDbCircle
 10
-3.0
 20
-5.5
 30
0.0
 40
1.0
100
AcDbArc
 50
0.0
 51
90.0
  0
LINE
  5
B2C8
330
B2B3
100
AcDbEntity
  8
AM_11 想像線
 48
0.2
100
AcDbLine
 10
-4.0
 20
-4.5
 30
0.0
 11
-3.0
 21
-4.5
 31
0.0
  0
LINE
  5
B2C9
330
B2B3
100
AcDbEntity
  8
AM_11 想像線
 48
0.2
100
AcDbLine
 10
-2.0
 20
-6.5
 30
0.0
 11
0.0
 21
-6.5
 31
0.0
  0
ENDBLK
  5
B2B5
330
B2B3
100
AcDbEntity
  8
0
100
AcDbBlockEnd
  0
ENDSEC
  0
SECTION
  2
ENTITIES
  0
LINE
  5
3531
330
1F
100
AcDbEntity
  8
AM_7 中心線
100
AcDbLine
 10
354.3004436770783
 20
321.9775336869205
 30
0.0
 11
236.3004436770783
 21
321.9775336869205
 31
0.0
  0
LINE
  5
355B
330
1F
100
AcDbEntity
  8
AM_0 外形線1
100
AcDbLine
 10
300.6223896770783
 20
298.4850336869205
 30
0.0
 11
300.6223896770783
 21
295.9700336869206
 31
0.0
  0
LINE
  5
3564
330
1F
100
AcDbEntity
  8
AM_0 外形線1
100
AcDbLine
 10
291.3004436770783
 20
343.9775336869205
 30
0.0
 11
291.3004436770783
 21
321.9775336869205
 31
0.0
  0
LINE
  5
3589
330
1F
100
AcDbEntity
  8
AM_0 外形線1
100
AcDbLine
 10
281.3004436770783
 20
374.9775336869205
 30
0.0
 11
306.3004436770783
 21
374.9775336869205
 31
0.0
  0
LINE
  5
359D
330
1F
100
AcDbEntity
  8
AM_0 外形線1
100
AcDbLine
 10
270.3004436770783
 20
355.9552676869206
 30
0.0
 11
270.3004436770783
 21
355.9775336869205
 31
0.0
  0
LINE
  5
35EB
330
1F
100
AcDbEntity
  8
AM_0 外形線1
100
AcDbLine
 10
295.3004436770783
 20
374.9775336869205
 30
0.0
 11
295.3004436770783
 21
377.7775336869205
 31
0.0
  0
LINE
  5
3604
330
1F
100
AcDbEntity
  8
AM_0 外形線1
100
AcDbLine
 10
320.3004436770783
 20
355.9552676869206
 30
0.0
 11
320.3004436770783
 21
355.9775336869205
 31
0.0
  0
INSERT
  5
568F
102
{ACAD_REACTORS
330
94C1
330
94E2
330
9665
330
967D
330
9530
102
}
330
1F
100
AcDbEntity
  8
AM_0 外形線1
100
AcDbBlockReference
  2
ケースＡ SSM112
 10
295.3004436770783
 20
321.9775336869205
 30
0.0
  0
INSERT
  5
5B3F
102
{ACAD_REACTORS
330
9566
330
964D
330
9796
330
A83E
102
}
330
1F
100
AcDbEntity
  8
AM_0 外形線1
100
AcDbBlockReference
  2
センタＡ SSM112
 10
299.3004436770783
 20
321.9775336869205
 30
0.0
  0
INSERT
  5
5BFA
102
{ACAD_REACTORS
330
93B6
330
9566
330
9762
330
97CE
330
AD95
330
AE68
330
AEC2
102
}
330
1F
100
AcDbEntity
  8
AM_0 外形線1
100
AcDbBlockReference
  2
センタＢ SSM112
 10
291.3004436770783
 20
321.9775336869205
 30
0.0
  0
INSERT
  5
5EE9
330
1F
100
AcDbEntity
  8
AM_0 外形線1
100
AcDbBlockReference
  2
リーマボルト SSM112 M6
 10
280.3004436770783
 20
371.4775336869205
 30
0.0
  0
INSERT
  5
5F79
102
{ACAD_REACTORS
330
94C1
330
97CE
102
}
330
1F
100
AcDbEntity
  8
AM_0 外形線1
100
AcDbBlockReference
  2
ケースＢ SSM112
 10
295.3004436770783
 20
321.9775336869205
 30
0.0
  0
DIMENSION
  5
939F
102
{ACAD_XDICTIONARY
360
93AC
102
}
102
{ACAD_REACTORS
330
93B6
102
}
330
1F
100
AcDbEntity
  8
AM_5 寸法線
100
AcDbDimension
  2
*D12
 10
216.6929047619929
 20
292.9775336869205
 30
0.0
 11
211.8179047619928
 21
321.9775336869207
 31
0.0
 70
    32
  1
%%c<>
 71
     5
 42
58.0
 73
     0
 74
     0
 75
     0
  3
SEISA$0
100
AcDbAlignedDimension
 13
244.3004436770783
 23
350.9775336869205
 33
0.0
 14
244.3004436770783
 24
292.9775336869205
 34
0.0
 50
90.0
100
AcDbRotatedDimension
1001
ACAD_DSTYLE_DIMINSPECT
1070
   396
1000
100%
1070
   395
1000

1070
   394
1070
    33
1070
   393
1070
     0
  0
DIMENSION
  5
94AA
102
{ACAD_XDICTIONARY
360
94B7
102
}
102
{ACAD_REACTORS
330
94C1
102
}
330
1F
100
AcDbEntity
  8
AM_5 寸法線
100
AcDbDimension
  2
*D13
 10
295.3004436770783
 20
249.0037048209692
 30
0.0
 11
287.8004436770783
 21
253.8787048209692
 31
0.0
 70
    32
 71
     5
 42
15.00000000000006
 73
     0
 74
     0
 75
     0
  3
SEISA$0
100
AcDbAlignedDimension
 13
280.3004436770783
 23
266.1775336869206
 33
0.0
 14
295.3004436770783
 24
266.1775336869206
 34
0.0
100
AcDbRotatedDimension
  0
DIMENSION
  5
94CB
102
{ACAD_XDICTIONARY
360
94D8
102
}
102
{ACAD_REACTORS
330
94E2
102
}
330
1F
100
AcDbEntity
  8
AM_5 寸法線
100
AcDbDimension
  2
*D14
 10
310.3004436770783
 20
249.0037048209692
 30
0.0
 11
302.8004436770783
 21
253.8787048209692
 31
0.0
 70
    32
 71
     5
 42
14.99999999999994
 73
     0
 74
     0
 75
     0
  3
SEISA$0
100
AcDbAlignedDimension
 13
295.3004436770783
 23
266.1775336869206
 33
0.0
 14
310.3004436770783
 24
266.1775336869206
 34
0.0
100
AcDbRotatedDimension
  0
DIMENSION
  5
9519
102
{ACAD_XDICTIONARY
360
9526
102
}
102
{ACAD_REACTORS
330
9530
102
}
330
1F
100
AcDbEntity
  8
AM_5 寸法線
100
AcDbDimension
  2
*D15
 10
335.3004436770783
 20
233.9775336869205
 30
0.0
 11
295.3004436770783
 21
238.8525336869205
 31
0.0
 70
    32
 71
     5
 42
80.0
 73
     0
 74
     0
 75
     0
  3
SEISA$0
100
AcDbAlignedDimension
 13
255.3004436770784
 23
285.4775336869206
 33
0.0
 14
335.3004436770783
 24
285.4775336869206
 34
0.0
100
AcDbRotatedDimension
  0
DIMENSION
  5
954F
102
{ACAD_XDICTIONARY
360
955C
102
}
102
{ACAD_REACTORS
330
9566
102
}
330
1F
100
AcDbEntity
  8
AM_5 寸法線
100
AcDbDimension
  2
*D16
 10
349.3004436770783
 20
218.9775336869205
 30
0.0
 11
295.3004436770783
 21
223.8525336869205
 31
0.0
 70
    32
 71
     5
 42
108.0
 73
     0
 74
     0
 75
     0
  3
SEISA$0
100
AcDbAlignedDimension
 13
241.3004436770783
 23
295.9775336869205
 33
0.0
 14
349.3004436770783
 24
295.9775336869205
 34
0.0
100
AcDbRotatedDimension
  0
DIMENSION
  5
9636
102
{ACAD_XDICTIONARY
360
9643
102
}
102
{ACAD_REACTORS
330
964D
102
}
330
1F
100
AcDbEntity
  8
AM_5 寸法線
100
AcDbDimension
  2
*D17
 10
374.3004436770783
 20
292.9775336869205
 30
0.0
 11
369.4254436770783
 21
321.9775336869207
 31
0.0
 70
    32
  1
%%c<>
 71
     5
 42
58.0
 73
     0
 74
     0
 75
     0
  3
SEISA$0
100
AcDbAlignedDimension
 13
346.3004436770783
 23
350.9775336869205
 33
0.0
 14
346.3004436770783
 24
292.9775336869205
 34
0.0
 50
90.0
100
AcDbRotatedDimension
1001
ACAD_DSTYLE_DIMINSPECT
1070
   396
1000
100%
1070
   395
1000

1070
   394
1070
    33
1070
   393
1070
     0
  0
DIMENSION
  5
964E
102
{ACAD_XDICTIONARY
360
965B
102
}
102
{ACAD_REACTORS
330
9665
102
}
330
1F
100
AcDbEntity
  8
AM_5 寸法線
100
AcDbDimension
  2
*D18
 10
389.3004436770784
 20
282.4775336869205
 30
0.0
 11
384.4254436770783
 21
321.9775336869207
 31
0.0
 70
    32
  1
%%c<>
 71
     5
 42
79.0
 73
     0
 74
     0
 75
     0
  3
SEISA$0
100
AcDbAlignedDimension
 13
332.3004436770783
 23
361.4775336869205
 33
0.0
 14
332.3004436770783
 24
282.4775336869205
 34
0.0
 50
90.0
100
AcDbRotatedDimension
1001
ACAD_DSTYLE_DIMINSPECT
1070
   396
1000
100%
1070
   395
1000

1070
   394
1070
    33
1070
   393
1070
     0
  0
DIMENSION
  5
9666
102
{ACAD_XDICTIONARY
360
9673
102
}
102
{ACAD_REACTORS
330
967D
102
}
330
1F
100
AcDbEntity
  8
AM_5 寸法線
100
AcDbDimension
  2
*D19
 10
404.3004436770784
 20
265.9775336869206
 30
0.0
 11
399.4254436770784
 21
321.9775336869207
 31
0.0
 70
    32
  1
%%c<>
 71
     5
 42
112.0
 73
     0
 74
     0
 75
     0
  3
SEISA$0
100
AcDbAlignedDimension
 13
310.1004436770783
 23
377.9775336869205
 33
0.0
 14
310.1004436770783
 24
265.9775336869206
 34
0.0
 50
90.0
100
AcDbRotatedDimension
1001
ACAD_DSTYLE_DIMINSPECT
1070
   396
1000
100%
1070
   395
1000

1070
   394
1070
    33
1070
   393
1070
     0
  0
DIMENSION
  5
974B
102
{ACAD_XDICTIONARY
360
9758
102
}
102
{ACAD_REACTORS
330
9762
330
A83E
102
}
330
1F
100
AcDbEntity
  8
AM_5 寸法線
100
AcDbDimension
  2
*D20
 10
291.3004436770783
 20
327.8718403629493
 30
0.0
 11
266.3004436770783
 21
332.7468403629493
 31
0.0
 70
    32
 71
     5
 42
50.0
 73
     0
 74
     0
 75
     0
  3
SEISA$0
100
AcDbAlignedDimension
 13
241.3004436770783
 23
333.3577730813096
 33
0.0
 14
291.3004436770783
 24
334.8591493706007
 34
0.0
100
AcDbRotatedDimension
  0
DIMENSION
  5
977F
102
{ACAD_XDICTIONARY
360
978C
102
}
102
{ACAD_REACTORS
330
9796
102
}
330
1F
100
AcDbEntity
  8
AM_5 寸法線
100
AcDbDimension
  2
*D21
 10
349.3004436770783
 20
327.8718403629493
 30
0.0
 11
324.3004436770783
 21
332.7468403629493
 31
0.0
 70
    32
 71
     5
 42
50.0
 73
     0
 74
     0
 75
     0
  3
SEISA$0
100
AcDbAlignedDimension
 13
299.3004436770783
 23
333.9230767817067
 33
0.0
 14
349.3004436770783
 24
333.9230767817067
 34
0.0
100
AcDbRotatedDimension
  0
DIMENSION
  5
97B3
102
{ACAD_XDICTIONARY
360
97C2
102
}
102
{ACAD_REACTORS
330
97CE
102
}
330
1F
100
AcDbEntity
  8
AM_5 寸法線
100
AcDbDimension
  2
*D22
 10
269.3004436770783
 20
342.5097636869205
 30
0.0
 11
255.9754436770783
 21
342.5097636869205
 31
0.0
 70
   160
 71
     5
 42
2.0
 73
     0
 74
     0
 75
     0
  3
SEISA$0
100
AcDbAlignedDimension
 13
267.3004436770783
 23
350.9775336869205
 33
0.0
 14
269.3004436770783
 24
351.4775336869206
 34
0.0
100
AcDbRotatedDimension
1001
ACAD
1000
DSTYLE
1002
{
1070
   344
1005
AE9A
1070
   342
1005
0
1070
   173
1070
     1
1070
   343
1005
69
1002
}
  0
DIMENSION
  5
A82E
102
{ACAD_XDICTIONARY
360
A83D
102
}
102
{ACAD_REACTORS
330
A83E
102
}
330
1F
100
AcDbEntity
  8
AM_5 寸法線
100
AcDbDimension
  2
*D23
 10
299.3004436770783
 20
327.8718403629492
 30
0.0
 11
295.3004436770783
 21
332.7468403629492
 31
0.0
 70
    32
 71
     5
 42
8.0
 73
     0
 74
     0
 75
     0
  3
SEISA$0
100
AcDbAlignedDimension
 13
291.3004436770783
 23
333.9216493706007
 33
0.0
 14
299.3004436770783
 24
333.9216493706007
 34
0.0
 50
0.0000000000000114
100
AcDbRotatedDimension
1001
ACAD_DSTYLE_DIMINSPECT
1070
   396
1000
100%
1070
   395
1000

1070
   394
1070
    33
1070
   393
1070
     0
  0
MTEXT
  5
AD08
330
1F
100
AcDbEntity
  8
AM_6 文字
100
AcDbMText
 10
358.4355994290541
 20
257.9324093606754
 30
0.0
 40
5.25
 41
113.3316458551956
 46
26.15781955699456
 71
     1
 72
     5
  1
{\W0.6;TYPE:SSM112/SSMH112\PSHAFT DIA:MAX/MIN φ40/φ17}
  7
SEISA
 73
     1
 44
1.0
  0
DIMENSION
  5
AD87
102
{ACAD_XDICTIONARY
360
AD94
102
}
102
{ACAD_REACTORS
330
AD95
102
}
330
1F
100
AcDbEntity
  8
AM_5 寸法線
100
AcDbDimension
  2
*D24
 10
227.3004436770783
 20
377.9775336869205
 30
0.0
 11
234.3004436770783
 21
382.8525336869205
 31
0.0
 70
    32
 71
     5
 42
14.0
 73
     0
 74
     0
 75
     0
  3
SEISA$0
100
AcDbAlignedDimension
 13
241.3004436770783
 23
347.9775336869205
 33
0.0
 14
227.3004436770783
 24
358.4775336869205
 34
0.0
100
AcDbRotatedDimension
1001
ACAD_DSTYLE_DIMINSPECT
1070
   396
1000
100%
1070
   395
1000

1070
   394
1070
    33
1070
   393
1070
     0
  0
DIMENSION
  5
AE58
102
{ACAD_XDICTIONARY
360
AE67
102
}
102
{ACAD_REACTORS
330
AE68
102
}
330
1F
100
AcDbEntity
  8
AM_5 寸法線
100
AcDbDimension
  2
*D25
 10
280.3004436770783
 20
342.5097636869208
 30
0.0
 11
274.8613260546264
 21
346.6423589464904
 31
0.0
 70
   160
 71
     5
 42
11.0
 73
     0
 74
     0
 75
     0
  3
SEISA$0
100
AcDbAlignedDimension
 13
269.3004436770783
 23
351.4775336869206
 33
0.0
 14
280.3004436770783
 24
351.4775336869206
 34
0.0
 50
0.0000000000001132
100
AcDbRotatedDimension
1001
ACAD_DSTYLE_DIMINSPECT
1070
   396
1000
100%
1070
   395
1000

1070
   394
1070
    33
1070
   393
1070
     0
1001
ACAD
1000
DSTYLE
1002
{
1070
   173
1070
     1
1070
   279
1070
     2
1070
   342
1005
0
1070
   343
1005
AE9A
1070
   344
1005
AE9A
1002
}
  0
DIMENSION
  5
AEB2
102
{ACAD_XDICTIONARY
360
AEC1
102
}
102
{ACAD_REACTORS
330
AEC2
102
}
330
1F
100
AcDbEntity
  8
AM_5 寸法線
100
AcDbDimension
  2
*D27
 10
291.3004436770783
 20
342.5097636869208
 30
0.0
 11
285.8575939876839
 21
346.6423589464904
 31
0.0
 70
   160
 71
     5
 42
11.0
 73
     0
 74
     1
 75
     0
  3
SEISA$0
100
AcDbAlignedDimension
 13
280.3004436770783
 23
351.4775336869206
 33
0.0
 14
291.3004436770783
 24
350.4775336869205
 34
0.0
 50
0.0000000000001132
100
AcDbRotatedDimension
1001
ACAD_DSTYLE_DIMINSPECT
1070
   396
1000
100%
1070
   395
1000

1070
   394
1070
    33
1070
   393
1070
     0
1001
ACAD
1000
DSTYLE
1002
{
1070
   173
1070
     1
1070
   279
1070
     2
1070
   342
1005
0
1070
   343
1005
AE9A
1070
   344
1005
69
1002
}
  0
INSERT
  5
B2CA
330
1F
100
AcDbEntity
  8
AM_0 外形線1
100
AcDbBlockReference
  2
ケース
 10
244.3004436770783
 20
361.4775336869205
 30
0.0
  0
ENDSEC
  0
SECTION
  2
OBJECTS
  0
DICTIONARY
  5
C
330
0
100
AcDbDictionary
281
     1
  3
ACAD_COLOR
350
C5
  3
ACAD_GROUP
350
D
  3
ACAD_LAYOUT
350
1A
  3
ACAD_MATERIAL
350
C4
  3
ACAD_MLEADERSTYLE
350
2D5
  3
ACAD_MLINESTYLE
350
17
  3
ACAD_PLOTSETTINGS
350
19
  3
ACAD_PLOTSTYLENAME
350
E
  3
ACAD_SCALELIST
350
2B3
  3
ACAD_TABLESTYLE
350
121
  3
ACAD_VISUALSTYLE
350
27F
  3
ACDB_RECOMPOSE_DATA
350
2F7
  3
AcDbVariableDictionary
350
34
  3
AcmDictionary
350
49
  3
AMG
350
2B
  3
AMGSNAPSETTINGS
350
1DE
  0
DICTIONARY
  5
BF
330
2
100
AcDbDictionary
280
     1
281
     1
  3
ACAD_LAYERSTATES
360
4761
  3
AMLAYER_GROUPCOLORS
360
C0
  0
DICTIONARY
  5
2A98
330
10
100
AcDbDictionary
280
     1
281
     1
  3
ADSK_XREC_LAYER_RECONCILED
360
2A99
  0
DICTIONARY
  5
2A9A
330
81
100
AcDbDictionary
280
     1
281
     1
  3
ADSK_XREC_LAYER_RECONCILED
360
2A9B
  0
DICTIONARY
  5
2AA1
330
25C9
100
AcDbDictionary
280
     1
281
     1
  3
ADSK_XREC_LAYER_RECONCILED
360
2AA2
  0
DICTIONARY
  5
2AA3
330
25CA
100
AcDbDictionary
280
     1
281
     1
  3
ADSK_XREC_LAYER_RECONCILED
360
2AA4
  0
DICTIONARY
  5
2AA9
330
26B3
100
AcDbDictionary
280
     1
281
     1
  3
ADSK_XREC_LAYER_RECONCILED
360
2AAA
  0
DICTIONARY
  5
82
330
1F
100
AcDbDictionary
280
     1
281
     1
  3
ACAD_SORTENTS
360
A41
  0
DICTIONARY
  5
5583
330
5558
100
AcDbDictionary
280
     1
281
     1
  3
ACAD_SORTENTS
360
55B4
  0
DICTIONARY
  5
5714
330
5650
100
AcDbDictionary
280
     1
281
     1
  3
ACAD_SORTENTS
360
A799
  0
DICTIONARY
  5
5A49
330
5821
100
AcDbDictionary
280
     1
281
     1
  3
ACAD_SORTENTS
360
A6F2
  0
DICTIONARY
  5
5B78
330
5B26
100
AcDbDictionary
280
     1
281
     1
  3
ACAD_SORTENTS
360
B16D
  0
DICTIONARY
  5
5C2E
330
5BDF
100
AcDbDictionary
280
     1
281
     1
  3
ACAD_SORTENTS
360
B13F
  0
DICTIONARY
  5
5FB1
330
5EB9
100
AcDbDictionary
280
     1
281
     1
  3
ACAD_SORTENTS
360
A65D
  0
DICTIONARY
  5
B2F8
330
B2B3
100
AcDbDictionary
280
     1
281
     1
  3
ACAD_SORTENTS
360
B373
  0
DICTIONARY
  5
93AC
330
939F
100
AcDbDictionary
280
     1
281
     1
  3
ACAD_DIMASSOC
360
93B6
  0
DICTIONARY
  5
94B7
330
94AA
100
AcDbDictionary
280
     1
281
     1
  3
ACAD_DIMASSOC
360
94C1
  0
DICTIONARY
  5
94D8
330
94CB
100
AcDbDictionary
280
     1
281
     1
  3
ACAD_DIMASSOC
360
94E2
  0
DICTIONARY
  5
9526
330
9519
100
AcDbDictionary
280
     1
281
     1
  3
ACAD_DIMASSOC
360
9530
  0
DICTIONARY
  5
955C
330
954F
100
AcDbDictionary
280
     1
281
     1
  3
ACAD_DIMASSOC
360
9566
  0
DICTIONARY
  5
9643
330
9636
100
AcDbDictionary
280
     1
281
     1
  3
ACAD_DIMASSOC
360
964D
  0
DICTIONARY
  5
965B
330
964E
100
AcDbDictionary
280
     1
281
     1
  3
ACAD_DIMASSOC
360
9665
  0
DICTIONARY
  5
9673
330
9666
100
AcDbDictionary
280
     1
281
     1
  3
ACAD_DIMASSOC
360
967D
  0
DICTIONARY
  5
9758
330
974B
100
AcDbDictionary
280
     1
281
     1
  3
ACAD_DIMASSOC
360
9762
  0
DICTIONARY
  5
978C
330
977F
100
AcDbDictionary
280
     1
281
     1
  3
ACAD_DIMASSOC
360
9796
  0
DICTIONARY
  5
97C2
330
97B3
100
AcDbDictionary
280
     1
281
     1
  3
ACAD_DIMASSOC
360
97CE
  0
DICTIONARY
  5
A83D
330
A82E
100
AcDbDictionary
280
     1
281
     1
  3
ACAD_DIMASSOC
360
A83E
  0
DICTIONARY
  5
AD94
330
AD87
100
AcDbDictionary
280
     1
281
     1
  3
ACAD_DIMASSOC
360
AD95
  0
DICTIONARY
  5
AE67
330
AE58
100
AcDbDictionary
280
     1
281
     1
  3
ACAD_DIMASSOC
360
AE68
  0
DICTIONARY
  5
AEC1
330
AEB2
100
AcDbDictionary
280
     1
281
     1
  3
ACAD_DIMASSOC
360
AEC2
  0
DICTIONARY
  5
C5
102
{ACAD_REACTORS
330
C
102
}
330
C
100
AcDbDictionary
281
     1
  0
DICTIONARY
  5
D
102
{ACAD_REACTORS
330
C
102
}
330
C
100
AcDbDictionary
281
     1
  0
DICTIONARY
  5
1A
102
{ACAD_REACTORS
330
C
102
}
330
C
100
AcDbDictionary
281
     1
  3
Model
350
22
  3
レイアウト1
350
1E
  3
レイアウト2
350
26
  0
DICTIONARY
  5
C4
102
{ACAD_REACTORS
330
C
102
}
330
C
100
AcDbDictionary
281
     1
  3
ByBlock
350
27D
  3
ByLayer
350
27C
  3
Global
350
27E
  0
DICTIONARY
  5
2D5
102
{ACAD_REACTORS
330
C
102
}
330
C
100
AcDbDictionary
281
     1
  3
Standard
350
2D6
  0
DICTIONARY
  5
17
102
{ACAD_REACTORS
330
C
102
}
330
C
100
AcDbDictionary
281
     1
  3
Standard
350
18
  0
DICTIONARY
  5
19
102
{ACAD_REACTORS
330
C
102
}
330
C
100
AcDbDictionary
281
     1
  3
SEISA基本
350
1C7E
  0
ACDBDICTIONARYWDFLT
  5
E
102
{ACAD_REACTORS
330
C
102
}
330
C
100
AcDbDictionary
281
     1
  3
Normal
350
F
100
AcDbDictionaryWithDefault
340
F
  0
DICTIONARY
  5
2B3
102
{ACAD_REACTORS
330
C
102
}
330
C
100
AcDbDictionary
281
     1
  3
*A1
350
2AB3
  3
A0
350
2B4
  3
A1
350
2B5
  3
A2
350
2B6
  3
A3
350
2B7
  3
A4
350
2B8
  3
A5
350
2B9
  3
A6
350
2BA
  3
A7
350
2BB
  3
A8
350
2BC
  3
A9
350
2BD
  3
B0
350
2BE
  3
B1
350
2BF
  3
B2
350
2C0
  3
B3
350
2C1
  3
B4
350
2C2
  3
B5
350
2C3
  3
B6
350
2C4
  3
B7
350
2C5
  3
B8
350
2C6
  3
B9
350
2C7
  3
C0
350
2C8
  3
C1
350
2C9
  3
C2
350
2CA
  3
C3
350
2CB
  3
C4
350
2CC
  3
C5
350
2CD
  3
C6
350
2CE
  3
C7
350
2CF
  3
C8
350
2D0
  3
C9
350
2D1
  3
D0
350
2D2
  3
D1
350
2D3
  3
D2
350
2D4
  0
DICTIONARY
  5
121
102
{ACAD_REACTORS
330
C
102
}
330
C
100
AcDbDictionary
281
     1
  3
Standard
350
122
  0
DICTIONARY
  5
27F
102
{ACAD_REACTORS
330
C
102
}
330
C
100
AcDbDictionary
281
     1
  3
2dWireframe
350
285
  3
3D Hidden
350
287
  3
3dWireframe
350
286
  3
Basic
350
284
  3
Brighten
350
28B
  3
ColorChange
350
28F
  3
Conceptual
350
288
  3
Dim
350
28A
  3
Facepattern
350
28E
  3
Flat
350
280
  3
FlatWithEdges
350
281
  3
Gouraud
350
282
  3
GouraudWithEdges
350
283
  3
Linepattern
350
28D
  3
Realistic
350
289
  3
Thicken
350
28C
  0
XRECORD
  5
2F7
102
{ACAD_REACTORS
330
C
102
}
330
C
100
AcDbXrecord
280
     1
 90
        1
330
122
  0
DICTIONARY
  5
34
102
{ACAD_REACTORS
330
C
102
}
330
C
100
AcDbDictionary
281
     1
  3
CANNOSCALE
350
2FA
  3
CMLEADERSTYLE
350
2F8
  3
CTABLESTYLE
350
140
  3
DIMASSOC
350
AC
  3
INDEXCTL
350
35
  3
LAYEREVAL
350
80EB
  3
LAYERNOTIFY
350
80EC
  3
LIGHTINGUNITS
350
2FB
  3
MSLTSCALE
350
2F9
  0
DICTIONARY
  5
49
102
{ACAD_REACTORS
330
C
102
}
330
C
100
AcDbDictionary
281
     1
  3
AcmBOM
350
161B
  3
AcmStdDictionary
350
4A
  3
AMDTSECTSYM_ARROWCOLOR
350
12B
  0
DICTIONARY
  5
2B
102
{ACAD_REACTORS
330
C
102
}
330
C
100
AcDbDictionary
281
     1
  0
DICTIONARY
  5
1DE
102
{ACAD_REACTORS
330
C
102
}
330
C
100
AcDbDictionary
281
     1
  0
DICTIONARY
  5
4761
102
{ACAD_REACTORS
330
BF
102
}
330
BF
100
AcDbDictionary
281
     1
  0
DICTIONARY
  5
C0
102
{ACAD_REACTORS
330
BF
102
}
330
BF
100
AcDbDictionary
280
     1
281
     1
  0
XRECORD
  5
2A99
102
{ACAD_REACTORS
330
2A98
102
}
330
2A98
100
AcDbXrecord
280
     1
290
     1
  0
XRECORD
  5
2A9B
102
{ACAD_REACTORS
330
2A9A
102
}
330
2A9A
100
AcDbXrecord
280
     1
290
     1
  0
XRECORD
  5
2AA2
102
{ACAD_REACTORS
330
2AA1
102
}
330
2AA1
100
AcDbXrecord
280
     1
290
     1
  0
XRECORD
  5
2AA4
102
{ACAD_REACTORS
330
2AA3
102
}
330
2AA3
100
AcDbXrecord
280
     1
290
     1
  0
XRECORD
  5
2AAA
102
{ACAD_REACTORS
330
2AA9
102
}
330
2AA9
100
AcDbXrecord
280
     1
290
     1
  0
SORTENTSTABLE
  5
A41
102
{ACAD_REACTORS
330
82
102
}
330
82
100
AcDbSortentsTable
330
1F
331
939F
  5
93FF
331
AD08
  5
AD08
331
5BFA
  5
5BFA
331
35EB
  5
35EB
331
9519
  5
9531
331
3604
  5
3604
331
9666
  5
974B
331
964E
  5
9666
331
9636
  5
964E
331
97B3
  5
97EB
331
3589
  5
3589
331
359D
  5
359D
331
94AA
  5
94CB
331
5EE9
  5
5EE9
331
5F79
  5
5F79
331
974B
  5
977F
331
3531
  5
3531
331
94CB
  5
94E9
331
954F
  5
9636
331
5B3F
  5
5B3F
331
A82E
  5
AAA9
331
355B
  5
355B
331
568F
  5
568F
331
3564
  5
3564
331
977F
  5
97B3
  0
SORTENTSTABLE
  5
55B4
102
{ACAD_REACTORS
330
5583
102
}
330
5583
100
AcDbSortentsTable
330
5558
  0
SORTENTSTABLE
  5
A799
102
{ACAD_REACTORS
330
5714
102
}
330
5714
100
AcDbSortentsTable
330
5650
331
5659
  5
565A
331
5658
  5
5659
331
5674
  5
5677
331
5673
  5
5674
331
5672
  5
5673
331
5671
  5
5672
331
5657
  5
5658
331
5670
  5
5671
331
5656
  5
5657
331
566F
  5
5670
331
5655
  5
5656
331
566E
  5
566F
331
5654
  5
5655
331
566D
  5
566E
331
5653
  5
5654
331
5687
  5
5688
331
568E
  5
5756
331
566B
  5
566D
331
566A
  5
566B
331
568D
  5
568E
331
5667
  5
5669
331
568C
  5
568D
331
5669
  5
566A
331
5666
  5
5667
331
5683
  5
5687
331
568B
  5
568C
331
5665
  5
5666
331
5682
  5
5683
331
568A
  5
568B
331
5664
  5
5665
331
5681
  5
5682
331
5689
  5
568A
331
5663
  5
5664
331
5680
  5
5681
331
5688
  5
5689
331
5662
  5
5663
331
567F
  5
5680
331
5661
  5
5662
331
567E
  5
567F
331
5660
  5
5661
331
565F
  5
5660
331
567C
  5
567E
331
567B
  5
567C
331
565E
  5
565F
331
5756
  5
5653
331
565D
  5
565E
331
567A
  5
567B
331
5679
  5
567A
331
565C
  5
565D
331
565B
  5
565C
331
5678
  5
5679
331
5677
  5
5678
331
565A
  5
565B
  0
SORTENTSTABLE
  5
A6F2
102
{ACAD_REACTORS
330
5A49
102
}
330
5A49
100
AcDbSortentsTable
330
5821
331
584E
  5
5851
331
5843
  5
5844
331
5854
  5
5856
331
5836
  5
5837
331
5849
  5
584A
331
582B
  5
582C
331
5825
  5
5826
331
583C
  5
583D
331
5844
  5
5845
331
5837
  5
5838
331
584A
  5
584B
331
582C
  5
582D
331
5A1B
  5
5824
331
583D
  5
583E
331
5826
  5
5827
331
5832
  5
5833
331
5845
  5
5846
331
5856
  5
5857
331
5838
  5
5839
331
584B
  5
584C
331
582D
  5
582E
331
5827
  5
5828
331
583E
  5
5841
331
5851
  5
5852
331
5833
  5
5834
331
5846
  5
5847
331
5828
  5
5829
331
5857
  5
5A1B
331
5839
  5
583A
331
584C
  5
584E
331
582E
  5
582F
331
5841
  5
5842
331
5852
  5
5853
331
5834
  5
5835
331
5847
  5
5848
331
5829
  5
582A
331
583A
  5
583B
331
582F
  5
5832
331
5842
  5
5843
331
5853
  5
5854
331
5835
  5
5836
331
5848
  5
5849
331
582A
  5
582B
331
583B
  5
583C
331
5824
  5
5825
  0
SORTENTSTABLE
  5
B16D
102
{ACAD_REACTORS
330
5B78
102
}
330
5B78
100
AcDbSortentsTable
330
5B26
331
5B36
  5
5B38
331
5B35
  5
5B37
331
5B34
  5
5B36
331
5B33
  5
5B35
331
5B32
  5
5B34
331
5B31
  5
5B33
331
5B30
  5
5B32
331
B061
  5
5B2A
331
5B3B
  5
B061
331
5B3A
  5
B060
331
B060
  5
5B29
331
5B39
  5
5B3B
331
5B2D
  5
5B31
331
5B38
  5
5B3A
331
5B2C
  5
5B30
331
5B2B
  5
5B2D
331
5B2A
  5
5B2C
331
5B29
  5
5B2B
331
5B37
  5
5B39
  0
SORTENTSTABLE
  5
B13F
102
{ACAD_REACTORS
330
5C2E
102
}
330
5C2E
100
AcDbSortentsTable
330
5BDF
331
5BE9
  5
5BED
331
ADD4
  5
5BE2
331
5BE8
  5
5BEC
331
5BE7
  5
5BE9
331
5BE6
  5
5BE8
331
5BE5
  5
5BE7
331
5BE4
  5
5BE6
331
5BE3
  5
5BE5
331
5BF6
  5
ADD5
331
5BE2
  5
5BE4
331
5BF4
  5
ADD4
331
5BF2
  5
5BF6
331
5BF1
  5
5BF4
331
5BF0
  5
5BF2
331
5BEF
  5
5BF1
331
5BEE
  5
5BF0
331
5BED
  5
5BEF
331
5BEC
  5
5BEE
331
ADD5
  5
5BE3
  0
SORTENTSTABLE
  5
A65D
102
{ACAD_REACTORS
330
5FB1
102
}
330
5FB1
100
AcDbSortentsTable
330
5EB9
  0
SORTENTSTABLE
  5
B373
102
{ACAD_REACTORS
330
B2F8
102
}
330
B2F8
100
AcDbSortentsTable
330
B2B3
  0
DIMASSOC
  5
93B6
102
{ACAD_REACTORS
330
93AC
102
}
330
93AC
100
AcDbDimAssoc
330
939F
 90
        3
 70
     0
 71
     0
  1
AcDbOsnapPointRef
 72
    13
331
5BFA
331
5BE2
 73
     2
 91
        0
 40
0.0
 10
0.0
 20
0.0
 30
2.000000000000000E+50
 75
     0
  1
AcDbOsnapPointRef
 72
     1
331
5BFA
331
5BE4
 73
     2
 91
        0
 40
1.0
 10
0.0
 20
0.0
 30
2.000000000000000E+50
 75
     0
  0
DIMASSOC
  5
94C1
102
{ACAD_REACTORS
330
94B7
102
}
330
94B7
100
AcDbDimAssoc
330
94AA
 90
        3
 70
     0
 71
     0
  1
AcDbOsnapPointRef
 72
    13
331
5F79
331
5824
 73
     2
 91
        0
 40
0.0
 10
0.0
 20
0.0
 30
2.000000000000000E+50
 75
     0
  1
AcDbOsnapPointRef
 72
     1
331
568F
331
5653
 73
     2
 91
        0
 40
1.0
 10
0.0
 20
0.0
 30
2.000000000000000E+50
 75
     0
  0
DIMASSOC
  5
94E2
102
{ACAD_REACTORS
330
94D8
102
}
330
94D8
100
AcDbDimAssoc
330
94CB
 90
        3
 70
     0
 71
     0
  1
AcDbOsnapPointRef
 72
     1
331
568F
331
5653
 73
     2
 91
        0
 40
1.0
 10
0.0
 20
0.0
 30
2.000000000000000E+50
 75
     0
  1
AcDbOsnapPointRef
 72
     8
331
568F
331
5654
 73
     2
 91
        0
 40
0.0
 10
0.0
 20
0.0
 30
0.0
 75
     1
  1
AcDbOsnapPointRef
 72
     1
331
568F
331
5653
 73
     2
 91
        0
 40
1.0
 10
0.0
 20
0.0
 30
2.000000000000000E+50
 75
     0
  0
DIMASSOC
  5
9530
102
{ACAD_REACTORS
330
9526
102
}
330
9526
100
AcDbDimAssoc
330
9519
 90
        2
 70
     0
 71
     0
  1
AcDbOsnapPointRef
 72
    13
331
568F
331
5659
 73
     2
 91
        0
 40
0.0
 10
0.0
 20
0.0
 30
2.000000000000000E+50
 75
     0
  0
DIMASSOC
  5
9566
102
{ACAD_REACTORS
330
955C
102
}
330
955C
100
AcDbDimAssoc
330
954F
 90
        3
 70
     0
 71
     0
  1
AcDbOsnapPointRef
 72
    13
331
5BFA
331
5BE3
 73
     2
 91
        0
 40
0.0
 10
0.0
 20
0.0
 30
2.000000000000000E+50
 75
     0
  1
AcDbOsnapPointRef
 72
    13
331
5B3F
331
5B2A
 73
     2
 91
        0
 40
0.0
 10
0.0
 20
0.0
 30
2.000000000000000E+50
 75
     0
  0
DIMASSOC
  5
964D
102
{ACAD_REACTORS
330
9643
102
}
330
9643
100
AcDbDimAssoc
330
9636
 90
        3
 70
     0
 71
     0
  1
AcDbOsnapPointRef
 72
    13
331
5B3F
331
5B35
 73
     2
 91
        0
 40
0.0
 10
0.0
 20
0.0
 30
2.000000000000000E+50
 75
     0
  1
AcDbOsnapPointRef
 72
     1
331
5B3F
331
5B2B
 73
     2
 91
        0
 40
1.0
 10
0.0
 20
0.0
 30
2.000000000000000E+50
 75
     0
  0
DIMASSOC
  5
9665
102
{ACAD_REACTORS
330
965B
102
}
330
965B
100
AcDbDimAssoc
330
964E
 90
        3
 70
     0
 71
     0
  1
AcDbOsnapPointRef
 72
     1
331
568F
331
5679
 73
     2
 91
        0
 40
1.570796326794896
 10
0.0
 20
0.0
 30
2.000000000000000E+50
 75
     0
  1
AcDbOsnapPointRef
 72
    13
331
568F
331
565A
 73
     2
 91
        0
 40
4.712388980384688
 10
0.0
 20
0.0
 30
2.000000000000000E+50
 75
     0
  0
DIMASSOC
  5
967D
102
{ACAD_REACTORS
330
9673
102
}
330
9673
100
AcDbDimAssoc
330
9666
 90
        3
 70
     0
 71
     0
  1
AcDbOsnapPointRef
 72
     1
331
568F
331
566E
 73
     2
 91
        0
 40
1.0
 10
0.0
 20
0.0
 30
2.000000000000000E+50
 75
     0
  1
AcDbOsnapPointRef
 72
     1
331
568F
331
5655
 73
     2
 91
        0
 40
1.0
 10
0.0
 20
0.0
 30
2.000000000000000E+50
 75
     0
  0
DIMASSOC
  5
9762
102
{ACAD_REACTORS
330
9758
102
}
330
9758
100
AcDbDimAssoc
330
974B
 90
        1
 70
     0
 71
     0
  1
AcDbOsnapPointRef
 72
    10
331
5BFA
331
5BE3
 73
     2
 91
        0
 40
0.7188507575844047
 10
0.0
 20
0.0
 30
0.0
 75
     0
  0
DIMASSOC
  5
9796
102
{ACAD_REACTORS
330
978C
102
}
330
978C
100
AcDbDimAssoc
330
977F
 90
        2
 70
     0
 71
     0
  1
AcDbOsnapPointRef
 72
     8
331
5B3F
331
5B2A
 73
     2
 91
        0
 40
0.7297219825920429
 10
0.0
 20
0.0
 30
0.0
 75
     1
  1
AcDbOsnapPointRef
 72
     0
 40
0.0
 10
299.3004436770783
 20
333.9230767817067
 30
0.0
 75
     0
  0
DIMASSOC
  5
97CE
102
{ACAD_REACTORS
330
97C2
102
}
330
97C2
100
AcDbDimAssoc
330
97B3
 90
        3
 70
     0
 71
     0
  1
AcDbOsnapPointRef
 72
     1
331
5F79
331
5842
 73
     2
 91
        0
 40
1.0
 10
0.0
 20
0.0
 30
2.000000000000000E+50
 75
     0
  1
AcDbOsnapPointRef
 72
    13
331
5BFA
331
5BEC
 73
     2
 91
        0
 40
0.0
 10
0.0
 20
0.0
 30
2.000000000000000E+50
 75
     0
  0
DIMASSOC
  5
A83E
102
{ACAD_REACTORS
330
A83D
102
}
330
A83D
100
AcDbDimAssoc
330
A82E
 90
        3
 70
     0
 71
     0
  1
AcDbOsnapPointRef
 72
    13
331
974B
331
975A
 73
     0
 91
        0
 40
0.0
 10
0.0
 20
0.0
 30
2.000000000000000E+50
 75
     0
  1
AcDbOsnapPointRef
 72
     8
331
5B3F
331
5B29
 73
     0
 91
        0
 40
0.5809082216252584
 10
0.0
 20
0.0
 30
0.0
 75
     1
  1
AcDbOsnapPointRef
 72
    13
331
974B
331
975A
 73
     0
 91
        0
 40
0.0
 10
0.0
 20
0.0
 30
2.000000000000000E+50
 75
     0
  0
DIMASSOC
  5
AD95
102
{ACAD_REACTORS
330
AD94
102
}
330
AD94
100
AcDbDimAssoc
330
AD87
 90
        1
 70
     0
 71
     0
  1
AcDbOsnapPointRef
 72
     1
331
5BFA
331
5BE3
 73
     0
 91
        0
 40
0.0
 10
0.0
 20
0.0
 30
2.000000000000000E+50
 75
     0
  0
DIMASSOC
  5
AE68
102
{ACAD_REACTORS
330
AE67
102
}
330
AE67
100
AcDbDimAssoc
330
AE58
 90
        2
 70
     0
 71
     0
  1
AcDbOsnapPointRef
 72
     1
331
5BFA
331
5BEF
 73
     0
 91
        0
 40
0.0
 10
0.0
 20
0.0
 30
2.000000000000000E+50
 75
     0
  0
DIMASSOC
  5
AEC2
102
{ACAD_REACTORS
330
AEC1
102
}
330
AEC1
100
AcDbDimAssoc
330
AEB2
 90
        2
 70
     0
 71
     0
  1
AcDbOsnapPointRef
 72
    13
331
5BFA
331
5BE7
 73
     0
 91
        0
 40
0.0
 10
0.0
 20
0.0
 30
2.000000000000000E+50
 75
     0
  0
LAYOUT
  5
22
102
{ACAD_REACTORS
330
1A
102
}
330
1A
100
AcDbPlotSettings
  1

  2
KONICA MINOLTA 501 PCL
  4
A4
  6

 40
5.027082920074462
 41
5.027085781097412
 42
5.027069091796875
 43
5.027069091796875
 44
209.9733276367186
 45
296.9259948730469
 46
0.0
 47
13.94085541339421
 48
0.0
 49
0.0
140
0.0
141
0.0
142
1.0
143
0.8529575741063052
 70
 11956
 72
     1
 73
     1
 74
     1
  7
SEISA.ctb
 75
     0
147
1.172391254099313
 76
     0
 77
     2
 78
   300
148
-209.1604634232597
149
-217.957559523292
100
AcDbLayout
  1
Model
 70
     1
 71
     0
 10
0.0
 20
0.0
 11
12.0
 21
9.0
 12
0.0
 22
0.0
 32
0.0
 14
0.0
 24
0.0
 34
0.0
 15
0.0
 25
0.0
 35
0.0
146
0.0
 13
0.0
 23
0.0
 33
0.0
 16
1.0
 26
0.0
 36
0.0
 17
0.0
 27
1.0
 37
0.0
 76
     0
330
1F
331
27A
1001
ACAD_PSEXT
1000
KONICA MINOLTA 501 PCL
1000
KONICA MINOLTA 501/421/361PCL
1000
IP_192.168.20.231_(1)
1000

1070
     0
  0
LAYOUT
  5
1E
102
{ACAD_REACTORS
330
1A
102
}
330
1A
100
AcDbPlotSettings
  1

  2
none_device
  4
Letter_(8.50_x_11.00_Inches)
  6

 40
6.349999904632567
 41
6.349999904632567
 42
6.350006103515625
 43
6.350006103515625
 44
215.8999938964844
 45
279.3999938964844
 46
0.0
 47
0.0
 48
0.0
 49
0.0
140
0.0
141
0.0
142
1.0
143
1.0
 70
 15024
 72
     1
 73
     1
 74
     5
  7
SEISA.ctb
 75
    16
147
1.0
 76
     0
 77
     2
 78
   300
148
0.0
149
0.0
100
AcDbLayout
  1
レイアウト1
 70
     1
 71
     1
 10
0.0
 20
0.0
 11
420.0
 21
297.0
 12
0.0
 22
0.0
 32
0.0
 14
1.000000000000000E+20
 24
1.000000000000000E+20
 34
1.000000000000000E+20
 15
-1.000000000000000E+20
 25
-1.000000000000000E+20
 35
-1.000000000000000E+20
146
0.0
 13
0.0
 23
0.0
 33
0.0
 16
1.0
 26
0.0
 36
0.0
 17
0.0
 27
1.0
 37
0.0
 76
     0
330
1B
  0
LAYOUT
  5
26
102
{ACAD_REACTORS
330
1A
102
}
330
1A
100
AcDbPlotSettings
  1

  2
none_device
  4
Letter_(8.50_x_11.00_Inches)
  6

 40
6.349999904632567
 41
6.349999904632567
 42
6.350006103515625
 43
6.350006103515625
 44
215.8999938964844
 45
279.3999938964844
 46
0.0
 47
0.0
 48
0.0
 49
0.0
140
0.0
141
0.0
142
1.0
143
1.0
 70
 15024
 72
     1
 73
     1
 74
     5
  7
SEISA.ctb
 75
    16
147
1.0
 76
     0
 77
     2
 78
   300
148
0.0
149
0.0
100
AcDbLayout
  1
レイアウト2
 70
     1
 71
     2
 10
0.0
 20
0.0
 11
12.0
 21
9.0
 12
0.0
 22
0.0
 32
0.0
 14
0.0
 24
0.0
 34
0.0
 15
0.0
 25
0.0
 35
0.0
146
0.0
 13
0.0
 23
0.0
 33
0.0
 16
1.0
 26
0.0
 36
0.0
 17
0.0
 27
1.0
 37
0.0
 76
     0
330
23
  0
MATERIAL
  5
27D
102
{ACAD_REACTORS
330
C4
102
}
330
C4
100
AcDbMaterial
  1
ByBlock
 73
     1
 78
     1
172
     1
176
     1
270
     1
274
     1
 94
       63
  0
MATERIAL
  5
27C
102
{ACAD_REACTORS
330
C4
102
}
330
C4
100
AcDbMaterial
  1
ByLayer
 73
     1
 78
     1
172
     1
176
     1
270
     1
274
     1
 94
       63
  0
MATERIAL
  5
27E
102
{ACAD_REACTORS
330
C4
102
}
330
C4
100
AcDbMaterial
  1
Global
 73
     1
 78
     1
172
     1
176
     1
270
     1
274
     1
 94
       63
  0
MLEADERSTYLE
  5
2D6
102
{ACAD_REACTORS
330
2D5
102
}
330
2D5
100
AcDbMLeaderStyle
170
     2
171
     1
172
     0
 90
        2
 40
0.0
 41
0.0
173
     1
 91
-1056964608
340
14
 92
       -2
290
     1
 42
2.0
291
     1
 43
0.36
  3
Standard
 44
4.0
300

342
11
174
     1
178
     6
175
     1
176
     0
 93
-1056964608
 45
4.0
292
     0
297
     0
 46
4.0
 94
-1056964608
 47
1.0
 49
1.0
140
1.0
293
     1
141
0.0
294
     1
177
     0
142
1.0
295
     0
296
     0
143
0.125
1001
ACAD_MLEADERVER
1070
     2
  0
MLINESTYLE
  5
18
102
{ACAD_REACTORS
330
17
102
}
330
17
100
AcDbMlineStyle
  2
STANDARD
 70
     0
  3

 62
   256
 51
90.0
 52
90.0
 71
     2
 49
0.5
 62
   256
  6
BYLAYER
 49
-0.5
 62
   256
  6
BYLAYER
  0
PLOTSETTINGS
  5
1C7E
102
{ACAD_REACTORS
330
19
102
}
330
19
100
AcDbPlotSettings
  1
SEISA基本
  2
none_device
  4
Letter_(8.50_x_11.00_Inches)
  6

 40
6.349999904632567
 41
6.349999904632567
 42
6.350006103515625
 43
6.350006103515625
 44
215.8999938964844
 45
279.3999938964844
 46
7.302498226506357
 47
0.0
 48
0.0
 49
0.0
140
0.0
141
0.0
142
1.0
143
1.574803221122935
 70
 11956
 72
     1
 73
     1
 74
     2
  7
SEISA.ctb
 75
     0
147
0.6349999711627054
 76
     0
 77
     2
 78
   300
148
0.0
149
0.0
1001
ACAD_PSEXT
1000
なし
1000
なし
1000
適切ではありません
1000
新しいプロッタ環境設定名を選択しない限り、レイアウトは印刷されません。
1070
     0
  0
ACDBPLACEHOLDER
  5
F
102
{ACAD_REACTORS
330
E
102
}
330
E
  0
SCALE
  5
2AB3
102
{ACAD_REACTORS
330
2B3
102
}
330
2B3
100
AcDbScale
 70
     0
300
1:1.5
140
1.0
141
1.5
290
     0
  0
SCALE
  5
2B4
102
{ACAD_REACTORS
330
2B3
102
}
330
2B3
100
AcDbScale
 70
     0
300
1:1
140
1.0
141
1.0
290
     1
  0
SCALE
  5
2B5
102
{ACAD_REACTORS
330
2B3
102
}
330
2B3
100
AcDbScale
 70
     0
300
1:2
140
1.0
141
2.0
290
     0
  0
SCALE
  5
2B6
102
{ACAD_REACTORS
330
2B3
102
}
330
2B3
100
AcDbScale
 70
     0
300
1:4
140
1.0
141
4.0
290
     0
  0
SCALE
  5
2B7
102
{ACAD_REACTORS
330
2B3
102
}
330
2B3
100
AcDbScale
 70
     0
300
1:5
140
1.0
141
5.0
290
     0
  0
SCALE
  5
2B8
102
{ACAD_REACTORS
330
2B3
102
}
330
2B3
100
AcDbScale
 70
     0
300
1:8
140
1.0
141
8.0
290
     0
  0
SCALE
  5
2B9
102
{ACAD_REACTORS
330
2B3
102
}
330
2B3
100
AcDbScale
 70
     0
300
1:10
140
1.0
141
10.0
290
     0
  0
SCALE
  5
2BA
102
{ACAD_REACTORS
330
2B3
102
}
330
2B3
100
AcDbScale
 70
     0
300
1:16
140
1.0
141
16.0
290
     0
  0
SCALE
  5
2BB
102
{ACAD_REACTORS
330
2B3
102
}
330
2B3
100
AcDbScale
 70
     0
300
1:20
140
1.0
141
20.0
290
     0
  0
SCALE
  5
2BC
102
{ACAD_REACTORS
330
2B3
102
}
330
2B3
100
AcDbScale
 70
     0
300
1:30
140
1.0
141
30.0
290
     0
  0
SCALE
  5
2BD
102
{ACAD_REACTORS
330
2B3
102
}
330
2B3
100
AcDbScale
 70
     0
300
1:40
140
1.0
141
40.0
290
     0
  0
SCALE
  5
2BE
102
{ACAD_REACTORS
330
2B3
102
}
330
2B3
100
AcDbScale
 70
     0
300
1:50
140
1.0
141
50.0
290
     0
  0
SCALE
  5
2BF
102
{ACAD_REACTORS
330
2B3
102
}
330
2B3
100
AcDbScale
 70
     0
300
1:100
140
1.0
141
100.0
290
     0
  0
SCALE
  5
2C0
102
{ACAD_REACTORS
330
2B3
102
}
330
2B3
100
AcDbScale
 70
     0
300
2:1
140
2.0
141
1.0
290
     0
  0
SCALE
  5
2C1
102
{ACAD_REACTORS
330
2B3
102
}
330
2B3
100
AcDbScale
 70
     0
300
4:1
140
4.0
141
1.0
290
     0
  0
SCALE
  5
2C2
102
{ACAD_REACTORS
330
2B3
102
}
330
2B3
100
AcDbScale
 70
     0
300
8:1
140
8.0
141
1.0
290
     0
  0
SCALE
  5
2C3
102
{ACAD_REACTORS
330
2B3
102
}
330
2B3
100
AcDbScale
 70
     0
300
10:1
140
10.0
141
1.0
290
     0
  0
SCALE
  5
2C4
102
{ACAD_REACTORS
330
2B3
102
}
330
2B3
100
AcDbScale
 70
     0
300
100:1
140
100.0
141
1.0
290
     0
  0
SCALE
  5
2C5
102
{ACAD_REACTORS
330
2B3
102
}
330
2B3
100
AcDbScale
 70
     0
300
1/128" = 1'-0"
140
0.0078125
141
12.0
290
     0
  0
SCALE
  5
2C6
102
{ACAD_REACTORS
330
2B3
102
}
330
2B3
100
AcDbScale
 70
     0
300
1/64" = 1'-0"
140
0.015625
141
12.0
290
     0
  0
SCALE
  5
2C7
102
{ACAD_REACTORS
330
2B3
102
}
330
2B3
100
AcDbScale
 70
     0
300
1/32" = 1'-0"
140
0.03125
141
12.0
290
     0
  0
SCALE
  5
2C8
102
{ACAD_REACTORS
330
2B3
102
}
330
2B3
100
AcDbScale
 70
     0
300
1/16" = 1'-0"
140
0.0625
141
12.0
290
     0
  0
SCALE
  5
2C9
102
{ACAD_REACTORS
330
2B3
102
}
330
2B3
100
AcDbScale
 70
     0
300
3/32" = 1'-0"
140
0.09375
141
12.0
290
     0
  0
SCALE
  5
2CA
102
{ACAD_REACTORS
330
2B3
102
}
330
2B3
100
AcDbScale
 70
     0
300
1/8" = 1'-0"
140
0.125
141
12.0
290
     0
  0
SCALE
  5
2CB
102
{ACAD_REACTORS
330
2B3
102
}
330
2B3
100
AcDbScale
 70
     0
300
3/16" = 1'-0"
140
0.1875
141
12.0
290
     0
  0
SCALE
  5
2CC
102
{ACAD_REACTORS
330
2B3
102
}
330
2B3
100
AcDbScale
 70
     0
300
1/4" = 1'-0"
140
0.25
141
12.0
290
     0
  0
SCALE
  5
2CD
102
{ACAD_REACTORS
330
2B3
102
}
330
2B3
100
AcDbScale
 70
     0
300
3/8" = 1'-0"
140
0.375
141
12.0
290
     0
  0
SCALE
  5
2CE
102
{ACAD_REACTORS
330
2B3
102
}
330
2B3
100
AcDbScale
 70
     0
300
1/2" = 1'-0"
140
0.5
141
12.0
290
     0
  0
SCALE
  5
2CF
102
{ACAD_REACTORS
330
2B3
102
}
330
2B3
100
AcDbScale
 70
     0
300
3/4" = 1'-0"
140
0.75
141
12.0
290
     0
  0
SCALE
  5
2D0
102
{ACAD_REACTORS
330
2B3
102
}
330
2B3
100
AcDbScale
 70
     0
300
1" = 1'-0"
140
1.0
141
12.0
290
     0
  0
SCALE
  5
2D1
102
{ACAD_REACTORS
330
2B3
102
}
330
2B3
100
AcDbScale
 70
     0
300
1-1/2" = 1'-0"
140
1.5
141
12.0
290
     0
  0
SCALE
  5
2D2
102
{ACAD_REACTORS
330
2B3
102
}
330
2B3
100
AcDbScale
 70
     0
300
3" = 1'-0"
140
3.0
141
12.0
290
     0
  0
SCALE
  5
2D3
102
{ACAD_REACTORS
330
2B3
102
}
330
2B3
100
AcDbScale
 70
     0
300
6" = 1'-0"
140
6.0
141
12.0
290
     0
  0
SCALE
  5
2D4
102
{ACAD_REACTORS
330
2B3
102
}
330
2B3
100
AcDbScale
 70
     0
300
1'-0" = 1'-0"
140
12.0
141
12.0
290
     0
  0
TABLESTYLE
  5
122
102
{ACAD_XDICTIONARY
360
2F5
102
}
102
{ACAD_REACTORS
330
121
102
}
330
121
100
AcDbTableStyle
  3
Standard
 70
     0
 71
     0
 40
1.5
 41
1.5
280
     0
281
     0
  7
STANDARD
140
4.5
170
     2
 62
     0
 63
     7
283
     0
 90
      512
 91
        0
  1

274
    -2
284
     1
 64
     0
275
    -2
285
     1
 65
     0
276
    -2
286
     1
 66
     0
277
    -2
287
     1
 67
     0
278
    -2
288
     1
 68
     0
279
    -2
289
     1
 69
     0
  7
STANDARD
140
6.0
170
     5
 62
     0
 63
     7
283
     0
 90
      512
 91
        0
  1

274
    -2
284
     1
 64
     0
275
    -2
285
     1
 65
     0
276
    -2
286
     1
 66
     0
277
    -2
287
     1
 67
     0
278
    -2
288
     1
 68
     0
279
    -2
289
     1
 69
     0
  7
STANDARD
140
4.5
170
     5
 62
     0
 63
     7
283
     0
 90
      512
 91
        0
  1

274
    -2
284
     1
 64
     0
275
    -2
285
     1
 65
     0
276
    -2
286
     1
 66
     0
277
    -2
287
     1
 67
     0
278
    -2
288
     1
 68
     0
279
    -2
289
     1
 69
     0
  0
VISUALSTYLE
  5
285
102
{ACAD_REACTORS
330
27F
102
}
330
27F
100
AcDbVisualStyle
  2
2dWireframe
 70
     4
 71
     0
 72
     2
 73
     0
 90
        0
 40
-0.6
 41
-30.0
 62
     5
 63
     7
421
 16777215
 74
     1
 91
        4
 64
     7
 65
   257
 75
     1
175
     1
 42
1.0
 92
        0
 66
   257
 43
1.0
 76
     1
 77
     6
 78
     2
 67
     7
 79
     5
170
     0
171
     0
290
     0
174
     0
 93
        1
 44
0.0
173
     0
291
     0
 45
0.0
  0
VISUALSTYLE
  5
287
102
{ACAD_REACTORS
330
27F
102
}
330
27F
100
AcDbVisualStyle
  2
3D Hidden
 70
     6
 71
     1
 72
     2
 73
     2
 90
        0
 40
-0.6
 41
-30.0
 62
     5
 63
     7
421
 16777215
 74
     2
 91
        2
 64
     7
 65
   257
 75
     2
175
     1
 42
40.0
 92
        0
 66
   257
 43
1.0
 76
     1
 77
     6
 78
     2
 67
     7
 79
     3
170
     0
171
     0
290
     0
174
     0
 93
        1
 44
0.0
173
     0
291
     0
 45
0.0
  0
VISUALSTYLE
  5
286
102
{ACAD_REACTORS
330
27F
102
}
330
27F
100
AcDbVisualStyle
  2
3dWireframe
 70
     5
 71
     0
 72
     2
 73
     0
 90
        0
 40
-0.6
 41
-30.0
 62
     5
 63
     7
421
 16777215
 74
     1
 91
        4
 64
     7
 65
   257
 75
     1
175
     1
 42
1.0
 92
        0
 66
   257
 43
1.0
 76
     1
 77
     6
 78
     2
 67
     7
 79
     5
170
     0
171
     0
290
     0
174
     0
 93
        1
 44
0.0
173
     0
291
     0
 45
0.0
  0
VISUALSTYLE
  5
284
102
{ACAD_REACTORS
330
27F
102
}
330
27F
100
AcDbVisualStyle
  2
Basic
 70
     7
 71
     1
 72
     0
 73
     1
 90
        0
 40
-0.6
 41
-30.0
 62
     5
 63
     7
421
 16777215
 74
     0
 91
        4
 64
     7
 65
   257
 75
     1
175
     1
 42
1.0
 92
        8
 66
     7
 43
1.0
 76
     1
 77
     6
 78
     2
 67
     7
 79
     5
170
     0
171
     0
290
     0
174
     0
 93
        1
 44
0.0
173
     0
291
     1
 45
0.0
  0
VISUALSTYLE
  5
28B
102
{ACAD_REACTORS
330
27F
102
}
330
27F
100
AcDbVisualStyle
  2
Brighten
 70
    12
 71
     2
 72
     2
 73
     0
 90
        0
 40
-0.6
 41
-30.0
 62
     5
 63
     7
421
 16777215
 74
     1
 91
        4
 64
     7
 65
   257
 75
     1
175
     1
 42
1.0
 92
        8
 66
     7
 43
1.0
 76
     1
 77
     6
 78
     2
 67
     7
 79
     5
170
     0
171
     0
290
     0
174
     0
 93
        1
 44
50.0
173
     0
291
     1
 45
0.0
  0
VISUALSTYLE
  5
28F
102
{ACAD_REACTORS
330
27F
102
}
330
27F
100
AcDbVisualStyle
  2
ColorChange
 70
    16
 71
     2
 72
     2
 73
     3
 90
        0
 40
-0.6
 41
-30.0
 62
     5
 63
     8
421
  8421504
 74
     1
 91
        4
 64
     7
 65
   257
 75
     1
175
     1
 42
1.0
 92
        8
 66
     8
424
  8421504
 43
1.0
 76
     1
 77
     6
 78
     2
 67
     7
 79
     5
170
     0
171
     0
290
     0
174
     0
 93
        1
 44
0.0
173
     0
291
     1
 45
0.0
  0
VISUALSTYLE
  5
288
102
{ACAD_REACTORS
330
27F
102
}
330
27F
100
AcDbVisualStyle
  2
Conceptual
 70
     9
 71
     3
 72
     2
 73
     0
 90
        0
 40
-0.6
 41
-30.0
 62
     5
 63
     7
421
 16777215
 74
     2
 91
        2
 64
     7
 65
   257
 75
     1
175
     1
 42
40.0
 92
        8
 66
     7
 43
1.0
 76
     1
 77
     6
 78
     2
 67
     7
 79
     3
170
     0
171
     0
290
     0
174
     0
 93
        1
 44
0.0
173
     0
291
     0
 45
0.0
  0
VISUALSTYLE
  5
28A
102
{ACAD_REACTORS
330
27F
102
}
330
27F
100
AcDbVisualStyle
  2
Dim
 70
    11
 71
     2
 72
     2
 73
     0
 90
        0
 40
-0.6
 41
-30.0
 62
     5
 63
     7
421
 16777215
 74
     1
 91
        4
 64
     7
 65
   257
 75
     1
175
     1
 42
1.0
 92
        8
 66
     7
 43
1.0
 76
     1
 77
     6
 78
     2
 67
     7
 79
     5
170
     0
171
     0
290
     0
174
     0
 93
        1
 44
-50.0
173
     0
291
     1
 45
0.0
  0
VISUALSTYLE
  5
28E
102
{ACAD_REACTORS
330
27F
102
}
330
27F
100
AcDbVisualStyle
  2
Facepattern
 70
    15
 71
     2
 72
     2
 73
     0
 90
        0
 40
-0.6
 41
-30.0
 62
     5
 63
     7
421
 16777215
 74
     1
 91
        4
 64
     7
 65
   257
 75
     1
175
     1
 42
1.0
 92
        8
 66
     7
 43
1.0
 76
     1
 77
     6
 78
     2
 67
     7
 79
     5
170
     0
171
     0
290
     0
174
     0
 93
        1
 44
0.0
173
     0
291
     1
 45
0.0
  0
VISUALSTYLE
  5
280
102
{ACAD_REACTORS
330
27F
102
}
330
27F
100
AcDbVisualStyle
  2
Flat
 70
     0
 71
     2
 72
     1
 73
     1
 90
        2
 40
-0.6
 41
30.0
 62
     5
 63
     7
421
 16777215
 74
     0
 91
        4
 64
     7
 65
   257
 75
     1
175
     1
 42
1.0
 92
        8
 66
     7
 43
1.0
 76
     1
 77
     6
 78
     2
 67
     7
 79
     5
170
     0
171
     0
290
     0
174
     0
 93
       13
 44
0.0
173
     0
291
     1
 45
0.0
  0
VISUALSTYLE
  5
281
102
{ACAD_REACTORS
330
27F
102
}
330
27F
100
AcDbVisualStyle
  2
FlatWithEdges
 70
     1
 71
     2
 72
     1
 73
     1
 90
        2
 40
-0.6
 41
30.0
 62
     5
 63
     7
421
 16777215
 74
     1
 91
        4
 64
     7
 65
   257
 75
     1
175
     1
 42
1.0
 92
        0
 66
   257
 43
1.0
 76
     1
 77
     6
 78
     2
 67
     7
 79
     5
170
     0
171
     0
290
     0
174
     0
 93
       13
 44
0.0
173
     0
291
     1
 45
0.0
  0
VISUALSTYLE
  5
282
102
{ACAD_REACTORS
330
27F
102
}
330
27F
100
AcDbVisualStyle
  2
Gouraud
 70
     2
 71
     2
 72
     2
 73
     1
 90
        2
 40
-0.6
 41
30.0
 62
     5
 63
     7
421
 16777215
 74
     0
 91
        4
 64
     7
 65
   257
 75
     1
175
     1
 42
1.0
 92
        0
 66
     7
 43
1.0
 76
     1
 77
     6
 78
     2
 67
     7
 79
     5
170
     0
171
     0
290
     0
174
     0
 93
       13
 44
0.0
173
     0
291
     1
 45
0.0
  0
VISUALSTYLE
  5
283
102
{ACAD_REACTORS
330
27F
102
}
330
27F
100
AcDbVisualStyle
  2
GouraudWithEdges
 70
     3
 71
     2
 72
     2
 73
     1
 90
        2
 40
-0.6
 41
30.0
 62
     5
 63
     7
421
 16777215
 74
     1
 91
        4
 64
     7
 65
   257
 75
     1
175
     1
 42
1.0
 92
        0
 66
   257
 43
1.0
 76
     1
 77
     6
 78
     2
 67
     7
 79
     5
170
     0
171
     0
290
     0
174
     0
 93
       13
 44
0.0
173
     0
291
     1
 45
0.0
  0
VISUALSTYLE
  5
28D
102
{ACAD_REACTORS
330
27F
102
}
330
27F
100
AcDbVisualStyle
  2
Linepattern
 70
    14
 71
     2
 72
     2
 73
     0
 90
        0
 40
-0.6
 41
-30.0
 62
     5
 63
     7
421
 16777215
 74
     1
 91
        4
 64
     7
 65
   257
 75
     7
175
     7
 42
1.0
 92
        8
 66
     7
 43
1.0
 76
     1
 77
     6
 78
     2
 67
     7
 79
     5
170
     0
171
     0
290
     0
174
     0
 93
        1
 44
0.0
173
     0
291
     1
 45
0.0
  0
VISUALSTYLE
  5
289
102
{ACAD_REACTORS
330
27F
102
}
330
27F
100
AcDbVisualStyle
  2
Realistic
 70
     8
 71
     2
 72
     2
 73
     0
 90
        0
 40
-0.6
 41
-30.0
 62
     5
 63
     7
421
 16777215
 74
     1
 91
        0
 64
     7
 65
   257
 75
     1
175
     1
 42
1.0
 92
        8
 66
     8
424
  7895160
 43
1.0
 76
     1
 77
     6
 78
     2
 67
     7
 79
     5
170
     0
171
     0
290
     0
174
     0
 93
       13
 44
0.0
173
     0
291
     0
 45
0.0
  0
VISUALSTYLE
  5
28C
102
{ACAD_REACTORS
330
27F
102
}
330
27F
100
AcDbVisualStyle
  2
Thicken
 70
    13
 71
     2
 72
     2
 73
     0
 90
        0
 40
-0.6
 41
-30.0
 62
     5
 63
     7
421
 16777215
 74
     1
 91
        4
 64
     7
 65
   257
 75
     1
175
     1
 42
1.0
 92
       12
 66
     7
 43
1.0
 76
     1
 77
     6
 78
     2
 67
     7
 79
     5
170
     0
171
     0
290
     0
174
     0
 93
        1
 44
0.0
173
     0
291
     1
 45
0.0
  0
DICTIONARYVAR
  5
2FA
102
{ACAD_REACTORS
330
34
102
}
330
34
100
DictionaryVariables
280
     0
  1
1:1.5
  0
DICTIONARYVAR
  5
2F8
102
{ACAD_REACTORS
330
34
102
}
330
34
100
DictionaryVariables
280
     0
  1
STANDARD
  0
DICTIONARYVAR
  5
140
102
{ACAD_REACTORS
330
34
102
}
330
34
100
DictionaryVariables
280
     0
  1
STANDARD
  0
DICTIONARYVAR
  5
AC
102
{ACAD_REACTORS
330
34
102
}
330
34
100
DictionaryVariables
280
     0
  1
1
  0
DICTIONARYVAR
  5
35
102
{ACAD_REACTORS
330
34
102
}
330
34
100
DictionaryVariables
280
     0
  1
1
  0
DICTIONARYVAR
  5
80EB
102
{ACAD_REACTORS
330
34
102
}
330
34
100
DictionaryVariables
280
     0
  1
1
  0
DICTIONARYVAR
  5
80EC
102
{ACAD_REACTORS
330
34
102
}
330
34
100
DictionaryVariables
280
     0
  1
15
  0
DICTIONARYVAR
  5
2FB
102
{ACAD_REACTORS
330
34
102
}
330
34
100
DictionaryVariables
280
     0
  1
0
  0
DICTIONARYVAR
  5
2F9
102
{ACAD_REACTORS
330
34
102
}
330
34
100
DictionaryVariables
280
     0
  1
0
  0
DICTIONARY
  5
161B
102
{ACAD_REACTORS
330
49
102
}
330
49
100
AcDbDictionary
281
     1
  0
DICTIONARY
  5
4A
102
{ACAD_REACTORS
330
49
102
}
330
49
100
AcDbDictionary
281
     1
  0
XRECORD
  5
12B
102
{ACAD_REACTORS
330
49
102
}
330
49
100
AcDbXrecord
280
     1
 90
-1023410169
  0
DICTIONARY
  5
2F5
330
122
100
AcDbDictionary
280
     1
281
     1
  3
ACAD_ROUNDTRIP_2008_TABLESTYLE_CELLSTYLEMAP
360
B422
  0
CELLSTYLEMAP
  5
B422
102
{ACAD_REACTORS
330
2F5
102
}
330
2F5
100
AcDbCellStyleMap
 90
        3
300
CELLSTYLE
  1
TABLEFORMAT_BEGIN
 90
        5
170
     1
 91
        0
 92
    32768
 62
   257
 93
        1
300
CONTENTFORMAT
  1
CONTENTFORMAT_BEGIN
 90
        0
 91
        0
 92
      512
 93
        0
300

 40
0.0
140
1.0
 94
        5
 62
     0
340
11
144
6.0
309
CONTENTFORMAT_END
171
     1
301
MARGIN
  1
CELLMARGIN_BEGIN
 40
1.5
 40
1.5
 40
1.5
 40
1.5
 40
0.18
 40
0.18
309
CELLMARGIN_END
 94
        6
 95
        1
302
GRIDFORMAT
  1
GRIDFORMAT_BEGIN
 90
        0
 91
        1
 62
     0
 92
       -2
340
0
 93
        0
 40
0.045
309
GRIDFORMAT_END
 95
        2
302
GRIDFORMAT
  1
GRIDFORMAT_BEGIN
 90
        0
 91
        1
 62
     0
 92
       -2
340
0
 93
        0
 40
0.045
309
GRIDFORMAT_END
 95
        4
302
GRIDFORMAT
  1
GRIDFORMAT_BEGIN
 90
        0
 91
        1
 62
     0
 92
       -2
340
0
 93
        0
 40
0.045
309
GRIDFORMAT_END
 95
        8
302
GRIDFORMAT
  1
GRIDFORMAT_BEGIN
 90
        0
 91
        1
 62
     0
 92
       -2
340
0
 93
        0
 40
0.045
309
GRIDFORMAT_END
 95
       16
302
GRIDFORMAT
  1
GRIDFORMAT_BEGIN
 90
        0
 91
        1
 62
     0
 92
       -2
340
0
 93
        0
 40
0.045
309
GRIDFORMAT_END
 95
       32
302
GRIDFORMAT
  1
GRIDFORMAT_BEGIN
 90
        0
 91
        1
 62
     0
 92
       -2
340
0
 93
        0
 40
0.045
309
GRIDFORMAT_END
309
TABLEFORMAT_END
  1
CELLSTYLE_BEGIN
 90
        1
 91
        1
300
_TITLE
309
CELLSTYLE_END
300
CELLSTYLE
  1
TABLEFORMAT_BEGIN
 90
        5
170
     1
 91
        0
 92
        0
 62
   257
 93
        1
300
CONTENTFORMAT
  1
CONTENTFORMAT_BEGIN
 90
        0
 91
        0
 92
      512
 93
        0
300

 40
0.0
140
1.0
 94
        5
 62
     0
340
11
144
4.5
309
CONTENTFORMAT_END
171
     1
301
MARGIN
  1
CELLMARGIN_BEGIN
 40
1.5
 40
1.5
 40
1.5
 40
1.5
 40
0.18
 40
0.18
309
CELLMARGIN_END
 94
        6
 95
        1
302
GRIDFORMAT
  1
GRIDFORMAT_BEGIN
 90
        0
 91
        1
 62
     0
 92
       -2
340
0
 93
        0
 40
0.045
309
GRIDFORMAT_END
 95
        2
302
GRIDFORMAT
  1
GRIDFORMAT_BEGIN
 90
        0
 91
        1
 62
     0
 92
       -2
340
0
 93
        0
 40
0.045
309
GRIDFORMAT_END
 95
        4
302
GRIDFORMAT
  1
GRIDFORMAT_BEGIN
 90
        0
 91
        1
 62
     0
 92
       -2
340
0
 93
        0
 40
0.045
309
GRIDFORMAT_END
 95
        8
302
GRIDFORMAT
  1
GRIDFORMAT_BEGIN
 90
        0
 91
        1
 62
     0
 92
       -2
340
0
 93
        0
 40
0.045
309
GRIDFORMAT_END
 95
       16
302
GRIDFORMAT
  1
GRIDFORMAT_BEGIN
 90
        0
 91
        1
 62
     0
 92
       -2
340
0
 93
        0
 40
0.045
309
GRIDFORMAT_END
 95
       32
302
GRIDFORMAT
  1
GRIDFORMAT_BEGIN
 90
        0
 91
        1
 62
     0
 92
       -2
340
0
 93
        0
 40
0.045
309
GRIDFORMAT_END
309
TABLEFORMAT_END
  1
CELLSTYLE_BEGIN
 90
        2
 91
        1
300
_HEADER
309
CELLSTYLE_END
300
CELLSTYLE
  1
TABLEFORMAT_BEGIN
 90
        5
170
     1
 91
        0
 92
        0
 62
   257
 93
        1
300
CONTENTFORMAT
  1
CONTENTFORMAT_BEGIN
 90
        0
 91
        0
 92
      512
 93
        0
300

 40
0.0
140
1.0
 94
        2
 62
     0
340
11
144
4.5
309
CONTENTFORMAT_END
171
     1
301
MARGIN
  1
CELLMARGIN_BEGIN
 40
1.5
 40
1.5
 40
1.5
 40
1.5
 40
0.18
 40
0.18
309
CELLMARGIN_END
 94
        6
 95
        1
302
GRIDFORMAT
  1
GRIDFORMAT_BEGIN
 90
        0
 91
        1
 62
     0
 92
       -2
340
0
 93
        0
 40
0.045
309
GRIDFORMAT_END
 95
        2
302
GRIDFORMAT
  1
GRIDFORMAT_BEGIN
 90
        0
 91
        1
 62
     0
 92
       -2
340
0
 93
        0
 40
0.045
309
GRIDFORMAT_END
 95
        4
302
GRIDFORMAT
  1
GRIDFORMAT_BEGIN
 90
        0
 91
        1
 62
     0
 92
       -2
340
0
 93
        0
 40
0.045
309
GRIDFORMAT_END
 95
        8
302
GRIDFORMAT
  1
GRIDFORMAT_BEGIN
 90
        0
 91
        1
 62
     0
 92
       -2
340
0
 93
        0
 40
0.045
309
GRIDFORMAT_END
 95
       16
302
GRIDFORMAT
  1
GRIDFORMAT_BEGIN
 90
        0
 91
        1
 62
     0
 92
       -2
340
0
 93
        0
 40
0.045
309
GRIDFORMAT_END
 95
       32
302
GRIDFORMAT
  1
GRIDFORMAT_BEGIN
 90
        0
 91
        1
 62
     0
 92
       -2
340
0
 93
        0
 40
0.045
309
GRIDFORMAT_END
309
TABLEFORMAT_END
  1
CELLSTYLE_BEGIN
 90
        3
 91
        2
300
_DATA
309
CELLSTYLE_END
  0
ENDSEC
  0
EOF
