  0
SECTION
  2
HEADER
  9
$ACADVER
  1
AC1021
  9
$ACADMAINTVER
 70
    26
  9
$DWGCODEPAGE
  3
ANSI_932
  9
$LASTSAVEDBY
  1
Htm_Terada
  9
$CUSTOMPROPERTYTAG
  1
AmdtFileType
  9
$CUSTOMPROPERTY
  1
84
  9
$INSBASE
 10
0.0
 20
0.0
 30
0.0
  9
$EXTMIN
 10
112.7481092107348
 20
119.156205423238
 30
-0.0015258207003583
  9
$EXTMAX
 10
283.796082553729
 20
259.8478098555289
 30
0.0000000349246037
  9
$LIMMIN
 10
0.0000001914338554
 20
0.0000003693820645
  9
$LIMMAX
 10
420.0000001914338
 20
297.0000003693821
  9
$ORTHOMODE
 70
     0
  9
$REGENMODE
 70
     1
  9
$FILLMODE
 70
     1
  9
$QTEXTMODE
 70
     0
  9
$MIRRTEXT
 70
     1
  9
$LTSCALE
 40
1.0
  9
$ATTMODE
 70
     1
  9
$TEXTSIZE
 40
25.0
  9
$TRACEWID
 40
1.0
  9
$TEXTSTYLE
  7
SEISA
  9
$CLAYER
  8
AM_0 外形線1
  9
$CELTYPE
  6
ByLayer
  9
$CECOLOR
 62
   256
  9
$CELTSCALE
 40
1.0
  9
$DISPSILH
 70
     0
  9
$DIMSCALE
 40
1.0
  9
$DIMASZ
 40
2.5
  9
$DIMEXO
 40
0.625
  9
$DIMDLI
 40
10.0
  9
$DIMRND
 40
0.0
  9
$DIMDLE
 40
0.0
  9
$DIMEXE
 40
0.625
  9
$DIMTP
 40
0.1
  9
$DIMTM
 40
0.1
  9
$DIMTXT
 40
3.5
  9
$DIMCEN
 40
0.0
  9
$DIMTSZ
 40
0.0
  9
$DIMTOL
 70
     0
  9
$DIMLIM
 70
     0
  9
$DIMTIH
 70
     0
  9
$DIMTOH
 70
     0
  9
$DIMSE1
 70
     0
  9
$DIMSE2
 70
     0
  9
$DIMTAD
 70
     3
  9
$DIMZIN
 70
     8
  9
$DIMBLK
  1
Open30
  9
$DIMASO
 70
     1
  9
$DIMSHO
 70
     1
  9
$DIMPOST
  1

  9
$DIMAPOST
  1
"
  9
$DIMALT
 70
     0
  9
$DIMALTD
 70
     2
  9
$DIMALTF
 40
0.0393701
  9
$DIMLFAC
 40
1.0
  9
$DIMTOFL
 70
     1
  9
$DIMTVP
 40
0.0
  9
$DIMTIX
 70
     0
  9
$DIMSOXD
 70
     0
  9
$DIMSAH
 70
     0
  9
$DIMBLK1
  1

  9
$DIMBLK2
  1

  9
$DIMSTYLE
  2
SEISA
  9
$DIMCLRD
 70
     3
  9
$DIMCLRE
 70
     3
  9
$DIMCLRT
 70
     3
  9
$DIMTFAC
 40
0.71
  9
$DIMGAP
 40
1.5
  9
$DIMJUST
 70
     0
  9
$DIMSD1
 70
     0
  9
$DIMSD2
 70
     0
  9
$DIMTOLJ
 70
     0
  9
$DIMTZIN
 70
     0
  9
$DIMALTZ
 70
     0
  9
$DIMALTTZ
 70
     8
  9
$DIMUPT
 70
     0
  9
$DIMDEC
 70
     2
  9
$DIMTDEC
 70
     3
  9
$DIMALTU
 70
     2
  9
$DIMALTTD
 70
     2
  9
$DIMTXSTY
  7
SEISA
  9
$DIMAUNIT
 70
     0
  9
$DIMADEC
 70
     0
  9
$DIMALTRND
 40
0.0
  9
$DIMAZIN
 70
     2
  9
$DIMDSEP
 70
    46
  9
$DIMATFIT
 70
     3
  9
$DIMFRAC
 70
     0
  9
$DIMLDRBLK
  1
Open30
  9
$DIMLUNIT
 70
     2
  9
$DIMLWD
 70
    -1
  9
$DIMLWE
 70
    -1
  9
$DIMTMOVE
 70
     0
  9
$DIMFXL
 40
1.0
  9
$DIMFXLON
 70
     0
  9
$DIMJOGANG
 40
0.7853981633974483
  9
$DIMTFILL
 70
     0
  9
$DIMTFILLCLR
 70
     0
  9
$DIMARCSYM
 70
     1
  9
$DIMLTYPE
  6

  9
$DIMLTEX1
  6

  9
$DIMLTEX2
  6

  9
$LUNITS
 70
     2
  9
$LUPREC
 70
     2
  9
$SKETCHINC
 40
1.0
  9
$FILLETRAD
 40
2.5
  9
$AUNITS
 70
     0
  9
$AUPREC
 70
     0
  9
$MENU
  1
.
  9
$ELEVATION
 40
0.0
  9
$PELEVATION
 40
0.0
  9
$THICKNESS
 40
0.0
  9
$LIMCHECK
 70
     0
  9
$CHAMFERA
 40
1.000000000000027
  9
$CHAMFERB
 40
1.000000000000027
  9
$CHAMFERC
 40
1.000000000000027
  9
$CHAMFERD
 40
0.7853981633974625
  9
$SKPOLY
 70
     0
  9
$TDCREATE
 40
2454914.704792697
  9
$TDUCREATE
 40
2454914.329792697
  9
$TDUPDATE
 40
2456478.688616713
  9
$TDUUPDATE
 40
2456478.313616713
  9
$TDINDWG
 40
0.3978973495
  9
$TDUSRTIMER
 40
0.3978964468
  9
$USRTIMER
 70
     1
  9
$ANGBASE
 50
0.0
  9
$ANGDIR
 70
     0
  9
$PDMODE
 70
     0
  9
$PDSIZE
 40
0.0
  9
$PLINEWID
 40
0.0
  9
$SPLFRAME
 70
     0
  9
$SPLINETYPE
 70
     6
  9
$SPLINESEGS
 70
     8
  9
$HANDSEED
  5
6FFA
  9
$SURFTAB1
 70
     6
  9
$SURFTAB2
 70
     6
  9
$SURFTYPE
 70
     6
  9
$SURFU
 70
     6
  9
$SURFV
 70
     6
  9
$UCSBASE
  2

  9
$UCSNAME
  2

  9
$UCSORG
 10
0.0
 20
0.0
 30
0.0
  9
$UCSXDIR
 10
1.0
 20
0.0
 30
0.0
  9
$UCSYDIR
 10
0.0
 20
1.0
 30
0.0
  9
$UCSORTHOREF
  2

  9
$UCSORTHOVIEW
 70
     0
  9
$UCSORGTOP
 10
0.0
 20
0.0
 30
0.0
  9
$UCSORGBOTTOM
 10
0.0
 20
0.0
 30
0.0
  9
$UCSORGLEFT
 10
0.0
 20
0.0
 30
0.0
  9
$UCSORGRIGHT
 10
0.0
 20
0.0
 30
0.0
  9
$UCSORGFRONT
 10
0.0
 20
0.0
 30
0.0
  9
$UCSORGBACK
 10
0.0
 20
0.0
 30
0.0
  9
$PUCSBASE
  2

  9
$PUCSNAME
  2

  9
$PUCSORG
 10
0.0
 20
0.0
 30
0.0
  9
$PUCSXDIR
 10
1.0
 20
0.0
 30
0.0
  9
$PUCSYDIR
 10
0.0
 20
1.0
 30
0.0
  9
$PUCSORTHOREF
  2

  9
$PUCSORTHOVIEW
 70
     0
  9
$PUCSORGTOP
 10
0.0
 20
0.0
 30
0.0
  9
$PUCSORGBOTTOM
 10
0.0
 20
0.0
 30
0.0
  9
$PUCSORGLEFT
 10
0.0
 20
0.0
 30
0.0
  9
$PUCSORGRIGHT
 10
0.0
 20
0.0
 30
0.0
  9
$PUCSORGFRONT
 10
0.0
 20
0.0
 30
0.0
  9
$PUCSORGBACK
 10
0.0
 20
0.0
 30
0.0
  9
$USERI1
 70
     0
  9
$USERI2
 70
     0
  9
$USERI3
 70
     0
  9
$USERI4
 70
     0
  9
$USERI5
 70
     0
  9
$USERR1
 40
0.0
  9
$USERR2
 40
0.0
  9
$USERR3
 40
0.0
  9
$USERR4
 40
0.0
  9
$USERR5
 40
0.0
  9
$WORLDVIEW
 70
     1
  9
$SHADEDGE
 70
     3
  9
$SHADEDIF
 70
    70
  9
$TILEMODE
 70
     1
  9
$MAXACTVP
 70
    64
  9
$PINSBASE
 10
0.0
 20
0.0
 30
0.0
  9
$PLIMCHECK
 70
     0
  9
$PEXTMIN
 10
1.000000000000000E+20
 20
1.000000000000000E+20
 30
1.000000000000000E+20
  9
$PEXTMAX
 10
-1.000000000000000E+20
 20
-1.000000000000000E+20
 30
-1.000000000000000E+20
  9
$PLIMMIN
 10
0.0
 20
0.0
  9
$PLIMMAX
 10
420.0
 20
297.0
  9
$UNITMODE
 70
     0
  9
$VISRETAIN
 70
     1
  9
$PLINEGEN
 70
     0
  9
$PSLTSCALE
 70
     1
  9
$TREEDEPTH
 70
  3020
  9
$CMLSTYLE
  2
Standard
  9
$CMLJUST
 70
     0
  9
$CMLSCALE
 40
20.0
  9
$PROXYGRAPHICS
 70
     1
  9
$MEASUREMENT
 70
     1
  9
$CELWEIGHT
370
    -1
  9
$ENDCAPS
280
     0
  9
$JOINSTYLE
280
     0
  9
$LWDISPLAY
290
     0
  9
$INSUNITS
 70
     4
  9
$HYPERLINKBASE
  1

  9
$STYLESHEET
  1
SEISA.CTB
  9
$XEDIT
290
     1
  9
$CEPSNTYPE
380
     0
  9
$PSTYLEMODE
290
     1
  9
$FINGERPRINTGUID
  2
{845C0921-BD0C-48DE-9339-DEA0BA34624A}
  9
$VERSIONGUID
  2
{2645D0FA-1A9E-47C0-AB33-3A88A6A5A080}
  9
$EXTNAMES
290
     1
  9
$PSVPSCALE
 40
0.0
  9
$OLESTARTUP
290
     0
  9
$SORTENTS
280
   127
  9
$INDEXCTL
280
     0
  9
$HIDETEXT
280
     0
  9
$XCLIPFRAME
290
     0
  9
$HALOGAP
280
     0
  9
$OBSCOLOR
 70
   257
  9
$OBSLTYPE
280
     0
  9
$INTERSECTIONDISPLAY
280
     0
  9
$INTERSECTIONCOLOR
 70
   257
  9
$DIMASSOC
280
     2
  9
$PROJECTNAME
  1

  9
$CAMERADISPLAY
290
     0
  9
$LENSLENGTH
 40
50.0
  9
$CAMERAHEIGHT
 40
0.0
  9
$STEPSPERSEC
 40
2.0
  9
$STEPSIZE
 40
6.0
  9
$3DDWFPREC
 40
2.0
  9
$PSOLWIDTH
 40
0.25
  9
$PSOLHEIGHT
 40
4.0
  9
$LOFTANG1
 40
1.570796326794896
  9
$LOFTANG2
 40
1.570796326794896
  9
$LOFTMAG1
 40
0.0
  9
$LOFTMAG2
 40
0.0
  9
$LOFTPARAM
 70
     7
  9
$LOFTNORMALS
280
     1
  9
$LATITUDE
 40
37.795
  9
$LONGITUDE
 40
-122.394
  9
$NORTHDIRECTION
 40
0.0
  9
$TIMEZONE
 70
 -8000
  9
$LIGHTGLYPHDISPLAY
280
     1
  9
$TILEMODELIGHTSYNCH
280
     1
  9
$CMATERIAL
347
27C
  9
$SOLIDHIST
280
     1
  9
$SHOWHIST
280
     1
  9
$DWFFRAME
280
     2
  9
$DGNFRAME
280
     0
  9
$REALWORLDSCALE
290
     1
  9
$INTERFERECOLOR
 62
     1
  9
$INTERFEREOBJVS
345
289
  9
$INTERFEREVPVS
346
286
  9
$CSHADOW
280
     0
  9
$SHADOWPLANELOCATION
 40
0.0
  0
ENDSEC
  0
SECTION
  2
CLASSES
  0
CLASS
  1
ACDBDICTIONARYWDFLT
  2
AcDbDictionaryWithDefault
  3
ObjectDBX Classes
 90
        0
 91
        1
280
     0
281
     0
  0
CLASS
  1
AMGSETTINGSOBJ
  2
AmgSettingsObj
  3
"AcadM|Product Description: AutoCAD Mechanical|Company: Autodesk, Inc."
 90
     1024
 91
        2
280
     0
281
     0
  0
CLASS
  1
ACME_DOCUMENT
  2
AcMeDbDoc
  3
AcMeServices
 90
     1024
 91
        1
280
     0
281
     0
  0
CLASS
  1
ACMESCOPE
  2
AcMeScope
  3
AcMeServices
 90
     1024
 91
        1
280
     0
281
     0
  0
CLASS
  1
ACMECOMMANDHISTORY
  2
AcMeCommandHistory
  3
AcMeServices
 90
     1024
 91
        1
280
     0
281
     0
  0
CLASS
  1
DICTIONARYVAR
  2
AcDbDictionaryVar
  3
ObjectDBX Classes
 90
        0
 91
        9
280
     0
281
     0
  0
CLASS
  1
ACIMSYSVARMAN
  2
AcImSysVarManager
  3
AcMeServices
 90
     1024
 91
        5
280
     0
281
     0
  0
CLASS
  1
ACIMREALSYSVAR
  2
AcImRealSysVar
  3
AcMeServices
 90
     1024
 91
        1
280
     0
281
     0
  0
CLASS
  1
ACIMINTSYSVAR
  2
AcImIntSysVar
  3
AcMeServices
 90
     1024
 91
       27
280
     0
281
     0
  0
CLASS
  1
ACMEDRAWINGMAN
  2
AcMeDrawingMan
  3
AcMeServices
 90
     1024
 91
        1
280
     0
281
     0
  0
CLASS
  1
ACMEVIEW
  2
AcMeView
  3
AcMeServices
 90
     1024
 91
        1
280
     0
281
     0
  0
CLASS
  1
ACDBENTITYCACHE
  2
AcMeEntityCache
  3
AcMeServices
 90
     1024
 91
        1
280
     0
281
     0
  0
CLASS
  1
GSMANAGER
  2
AcMeGSManager
  3
AcMeServices
 90
     1024
 91
        1
280
     0
281
     0
  0
CLASS
  1
AMDTINTERNALREACTOR
  2
AmdtInternalReactor
  3
AcMeServices
 90
     1024
 91
        2
280
     0
281
     0
  0
CLASS
  1
ACMESTATEMGR
  2
AcMeStateMgr
  3
AcMeServices
 90
     1024
 91
        1
280
     0
281
     0
  0
CLASS
  1
ACGREFMASTER
  2
AcGrefMaster
  3
AcAttribServices
 90
     1024
 91
        1
280
     0
281
     0
  0
CLASS
  1
ACME_DATABASE
  2
AcMeDbDatabase
  3
AcMeServices
 90
     1024
 91
        1
280
     0
281
     0
  0
CLASS
  1
ACRFINSADJUSTERMGR
  2
AcRfInsAdjusterMgr
  3
AcMeServices
 90
     1024
 91
        1
280
     0
281
     0
  0
CLASS
  1
ACGREFACADMASTER
  2
AcGrefacadMaster
  3
AcGrefServices
 90
     1024
 91
        1
280
     0
281
     0
  0
CLASS
  1
AMIMASTER
  2
AmiMaster
  3
AmiServices
 90
     1024
 91
        1
280
     0
281
     0
  0
CLASS
  1
ACIMSTRSYSVAR
  2
AcImStrSysVar
  3
AcMeServices
 90
     1024
 91
        5
280
     0
281
     0
  0
CLASS
  1
ACMSTANDARDJIS
  2
AcmStandardJIS
  3
"Amdt_StdImp|Product Description: AutoCAD Mechanical|Company: Autodesk, Inc."
 90
     1024
 91
        0
280
     0
281
     0
  0
CLASS
  1
AMGOBJPROPCFG
  2
AmgObjPropCfg
  3
"AmgLay|Product Description: AutoCAD Mechanical|Company: Autodesk, Inc."
 90
     1025
 91
        1
280
     0
281
     0
  0
CLASS
  1
ACMSURFSTANDARDJIS
  2
AcmSurfTextStdJIS
  3
"Amdt_StdImp|Product Description: AutoCAD Mechanical|Company: Autodesk, Inc."
 90
     1024
 91
        0
280
     0
281
     0
  0
CLASS
  1
ACMFCFSTANDARDJIS
  2
AcmFCFStdJIS
  3
"Amdt_StdImp|Product Description: AutoCAD Mechanical|Company: Autodesk, Inc."
 90
     1024
 91
        0
280
     0
281
     0
  0
CLASS
  1
ACMWELDSTANDARDJIS
  2
AcmWeldingStdJIS
  3
"Amdt_StdImp|Product Description: AutoCAD Mechanical|Company: Autodesk, Inc."
 90
     1024
 91
        0
280
     0
281
     0
  0
CLASS
  1
ACMIDSTANDARDJIS
  2
AcmIdStdJIS
  3
"Amdt_StdImp|Product Description: AutoCAD Mechanical|Company: Autodesk, Inc."
 90
     1024
 91
        0
280
     0
281
     0
  0
CLASS
  1
ACMDATUMSTANDARDJIS
  2
AcmDatumStdJIS
  3
"Amdt_StdImp|Product Description: AutoCAD Mechanical|Company: Autodesk, Inc."
 90
     1024
 91
        0
280
     0
281
     0
  0
CLASS
  1
ACMBOMSTANDARDJIS
  2
AcmBOMStdJIS
  3
"Amdt_StdImp|Product Description: AutoCAD Mechanical|Company: Autodesk, Inc."
 90
     1024
 91
        0
280
     0
281
     0
  0
CLASS
  1
ACMDETAILSTANDARDJIS
  2
AmdtDetailSymStdJIS
  3
"Amdt_StdImp|Product Description: AutoCAD Mechanical|Company: Autodesk, Inc."
 90
     1024
 91
        0
280
     0
281
     0
  0
CLASS
  1
ACMSECTIONSTANDARDJIS
  2
AmdtSectionSymStdJIS
  3
"Amdt_StdImp|Product Description: AutoCAD Mechanical|Company: Autodesk, Inc."
 90
     1024
 91
        0
280
     0
281
     0
  0
CLASS
  1
ACMCENTERLINESTANDARDJIS
  2
AmdtCenterLineStdJIS
  3
"Amdt_StdImp|Product Description: AutoCAD Mechanical|Company: Autodesk, Inc."
 90
     1024
 91
        0
280
     0
281
     0
  0
CLASS
  1
ACMTHREADLINESTANDARDJIS
  2
AmdtThreadLineStdJIS
  3
"Amdt_StdImp|Product Description: AutoCAD Mechanical|Company: Autodesk, Inc."
 90
     1024
 91
        0
280
     0
281
     0
  0
CLASS
  1
ACAMGLAYSTD
  2
AcAmgLayStd
  3
"AmgLay|Product Description: AutoCAD Mechanical|Company: Autodesk, Inc."
 90
     1024
 91
        1
280
     0
281
     0
  0
CLASS
  1
ACAMGDIMSTD
  2
AcAmgDimStd
  3
"AmgDim|Product Description: AutoCAD Mechanical|Company: Autodesk, Inc."
 90
     1024
 91
        1
280
     0
281
     0
  0
CLASS
  1
ACAMGTITLESTD
  2
AcAmgTitleStd
  3
"AmgTitle|Product Description: AutoCAD Mechanical|Company: Autodesk, Inc."
 90
     4095
 91
        1
280
     0
281
     0
  0
CLASS
  1
ACMDATADICTIONARY
  2
AcmDataDictionary
  3
"AcmSymBB|Product Description: AutoCAD Mechanical|Company: Autodesk, Inc."
 90
     1024
 91
        1
280
     0
281
     0
  0
CLASS
  1
ACMDATAENTRYBLOCK
  2
AcmDataEntryBlock
  3
AcmSymBB|Product Description: AutoCAD Mechanical|Company: Autodesk, Inc.
 90
     1024
 91
        0
280
     0
281
     0
  0
CLASS
  1
LAYER_INDEX
  2
AcDbLayerIndex
  3
ObjectDBX Classes
 90
        0
 91
        0
280
     0
281
     0
  0
CLASS
  1
IDBUFFER
  2
AcDbIdBuffer
  3
ObjectDBX Classes
 90
        0
 91
        0
280
     0
281
     0
  0
CLASS
  1
ACMNOTESTANDARDJIS
  2
AmdtNoteStdJIS
  3
"Amdt_StdImp|Product Description: AutoCAD Mechanical|Company: Autodesk, Inc."
 90
     1024
 91
        0
280
     0
281
     0
  0
CLASS
  1
ACAMGHOLECHARTSTDJIS
  2
AcAmgHoleChartStdJIS
  3
AmgDim|Product Description: AutoCAD Mechanical|Company: Autodesk, Inc.
 90
     1024
 91
        0
280
     0
281
     0
  0
CLASS
  1
AM_DRAWING_MGR
  2
AcDmDwgMgr
  3
AcMechDwgViewMgmt
 90
     1024
 91
        1
280
     0
281
     0
  0
CLASS
  1
AM_DWG_DOCUMENT
  2
AcDmDwgDocument
  3
AcMechDwgViewMgmt
 90
     1024
 91
        1
280
     0
281
     0
  0
CLASS
  1
AM_DWG_SHEET
  2
AcDmSheet
  3
AcMechDwgViewMgmt
 90
     1024
 91
        2
280
     0
281
     0
  0
CLASS
  1
AM_VIEWDIMPARMAP
  2
AcDmViewDimParMap
  3
AcMechDwgViewMgmt
 90
     1024
 91
        2
280
     0
281
     0
  0
CLASS
  1
AM_DWGMGR_NAME
  2
AcDmDwgMgrName
  3
AcMechDwgViewMgmt
 90
     1024
 91
        1
280
     0
281
     0
  0
CLASS
  1
AMDTMENUSTATEMGR
  2
AmdtMenuStateMgr
  3
McadcomServices
 90
     1024
 91
        1
280
     0
281
     0
  0
CLASS
  1
AMDTMCOMMENUSTATE
  2
AmdtMcomMenuState
  3
McadcomServices
 90
     1024
 91
        1
280
     0
281
     0
  0
CLASS
  1
MAPIAMMOUDLE
  2
MApiAmModule
  3
MApiAmServices
 90
     1024
 91
        1
280
     0
281
     0
  0
CLASS
  1
AMDTADMENUSTATE
  2
AmdtAdMenuState
  3
DesignerServices
 90
     1024
 91
        1
280
     0
281
     0
  0
CLASS
  1
ADAPPL
  2
AcAdAppl
  3
DesignerServices
 90
     1024
 91
        1
280
     0
281
     0
  0
CLASS
  1
DEPMGR
  2
AcAdDepMgr
  3
DesignerServices
 90
     1024
 91
        1
280
     0
281
     0
  0
CLASS
  1
PARAMMGR
  2
AcAdParamMgr
  3
DesignerServices
 90
     1024
 91
        1
280
     0
281
     0
  0
CLASS
  1
PARAMSCOPE
  2
AcAdParamScope
  3
DesignerServices
 90
     1024
 91
        1
280
     0
281
     0
  0
CLASS
  1
NAMEDAPPL
  2
AcAdNamedAppl
  3
DesignerServices
 90
     1024
 91
        1
280
     0
281
     0
  0
CLASS
  1
AMDTDMMENUSTATE
  2
AmdtDmMenuState
  3
AcMechDwgViewMgmt
 90
     1024
 91
        1
280
     0
281
     0
  0
CLASS
  1
AMDTAMMENUSTATE
  2
AmdtAmMenuState
  3
DesignerAssemblies
 90
     1024
 91
        1
280
     0
281
     0
  0
CLASS
  1
ACAMPROJECT
  2
AcAmProject
  3
DesignerAssemblies
 90
     1024
 91
        1
280
     0
281
     0
  0
CLASS
  1
ACAMGRCOMPDEF
  2
AcAmGrCompDef
  3
DesignerAssemblies
 90
     1024
 91
        1
280
     0
281
     0
  0
CLASS
  1
ACCMCONTEXT
  2
AcCmContext
  3
DesignerAssemblies
 90
     1024
 91
        1
280
     0
281
     0
  0
CLASS
  1
ACAMCOMPDEF
  2
AcAmCompDef
  3
DesignerAssemblies
 90
     1024
 91
        1
280
     0
281
     0
  0
CLASS
  1
ACAMCOMPDEFMGR
  2
AcAmCompDefMgr
  3
DesignerAssemblies
 90
     1024
 91
        1
280
     0
281
     0
  0
CLASS
  1
AMCONTEXTMGR
  2
AcAmContextMgr
  3
DesignerAssemblies
 90
     1024
 91
        1
280
     0
281
     0
  0
CLASS
  1
ACAMCONTEXTMODELER
  2
AcAmContextModeler
  3
DesignerAssemblies
 90
     1024
 91
        1
280
     0
281
     0
  0
CLASS
  1
CATALOGSTATE
  2
AcAmCatalogState
  3
DesignerAssemblies
 90
     1024
 91
        1
280
     0
281
     0
  0
CLASS
  1
ACAMGRCOMPDEFSET
  2
AcAmGrCompDefSet
  3
DesignerAssemblies
 90
     1024
 91
        1
280
     0
281
     0
  0
CLASS
  1
AMDTBROWSERDBTAB
  2
AmdtBrowserDbTab
  3
McadcomServices
 90
     1024
 91
        1
280
     0
281
     0
  0
CLASS
  1
CBROWSERAPPOBJECT
  2
CBrowserAppObject
  3
McadcomServices
 90
     1024
 91
        3
280
     0
281
     0
  0
CLASS
  1
DM_PLACEHOLDER
  2
AcDmSelsetPlaceholder
  3
AcMechDwgViewMgmt
 90
     1024
 91
        1
280
     0
281
     0
  0
CLASS
  1
TABLESTYLE
  2
AcDbTableStyle
  3
ObjectDBX Classes
 90
     4095
 91
        1
280
     0
281
     0
  0
CLASS
  1
VAACXREFPANELOBJECT
  2
VaAcXREFPanelObject
  3
VAAC_ADDIN
 90
        0
 91
        0
280
     0
281
     0
  0
CLASS
  1
VAACIMAGEINVENTORY
  2
VaAcImageInventory
  3
VAAC_ADDIN
 90
        0
 91
        0
280
     0
281
     0
  0
CLASS
  1
AMDTNOTETEMPLATEDB
  2
AmdtNoteTemplateDB
  3
AcmSymBB|Product Description: AutoCAD Mechanical|Company: Autodesk, Inc.
 90
     1024
 91
        6
280
     0
281
     0
  0
CLASS
  1
ACAMGFILTERDAT
  2
AcAmgFilterDat
  3
"AcadM|Product Description: AutoCAD Mechanical|Company: Autodesk, Inc."
 90
     1024
 91
        0
280
     0
281
     0
  0
CLASS
  1
MATERIAL
  2
AcDbMaterial
  3
ObjectDBX Classes
 90
     1153
 91
        3
280
     0
281
     0
  0
CLASS
  1
VISUALSTYLE
  2
AcDbVisualStyle
  3
ObjectDBX Classes
 90
     4095
 91
       16
280
     0
281
     0
  0
CLASS
  1
ACRFATTGENMGR
  2
AcRfAttGeneralMgr
  3
AcAttribServices
 90
     1024
 91
        0
280
     0
281
     0
  0
CLASS
  1
ACRFOBJATTMGR
  2
AcRfObjAttGroupMgr
  3
AcAttribServices
 90
     1024
 91
        0
280
     0
281
     0
  0
CLASS
  1
ACRFMCADAPIATTHOLDER
  2
AcRfMCADAPIAttHolder
  3
AcAttribServices
 90
     1024
 91
        0
280
     0
281
     0
  0
CLASS
  1
AMDTSYSATTR
  2
AmdtSystemAttribute
  3
AcAttribServices
 90
     1024
 91
        0
280
     0
281
     0
  0
CLASS
  1
ACMTAPERSTANDARDJIS
  2
AcmTaperStdJIS
  3
"Amdt_StdImp|Product Description: AutoCAD Mechanical|Company: Autodesk, Inc."
 90
     1024
 91
        0
280
     0
281
     0
  0
CLASS
  1
CAMSSTRUCTBTNSTATE
  2
StructBtnState
  3
DesignerAssemblies
 90
     1024
 91
        0
280
     0
281
     0
  0
CLASS
  1
SCALE
  2
AcDbScale
  3
ObjectDBX Classes
 90
     1153
 91
       34
280
     0
281
     0
  0
CLASS
  1
MLEADERSTYLE
  2
AcDbMLeaderStyle
  3
ACDB_MLEADERSTYLE_CLASS
 90
     4095
 91
        1
280
     0
281
     0
  0
CLASS
  1
ACMANOOTATIONVIEWSTANDARDJIS
  2
AmdtAnViewStdJIS
  3
"Amdt_StdImp|Product Description: AutoCAD Mechanical|Company: Autodesk, Inc."
 90
     1024
 91
        0
280
     0
281
     0
  0
CLASS
  1
ACMSURFSTANDARDJIS2003
  2
AcmSurfTextStdJIS2003
  3
"Amdt_StdImp|Product Description: AutoCAD Mechanical|Company: Autodesk, Inc."
 90
     1024
 91
        0
280
     0
281
     0
  0
CLASS
  1
CELLSTYLEMAP
  2
AcDbCellStyleMap
  3
ObjectDBX Classes
 90
     1152
 91
        2
280
     0
281
     0
  0
CLASS
  1
ACMFCFSTANDARDJIS98
  2
AcmFCFStdJIS98
  3
"Amdt_StdImp|Product Description: AutoCAD Mechanical|Company: Autodesk, Inc."
 90
     1024
 91
        0
280
     0
281
     0
  0
CLASS
  1
SORTENTSTABLE
  2
AcDbSortentsTable
  3
ObjectDBX Classes
 90
        0
 91
       10
280
     0
281
     0
  0
CLASS
  1
DIMASSOC
  2
AcDbDimAssoc
  3
"AcDbDimAssoc|Product Desc:     AcDim ARX App For Dimension|Company:          Autodesk, Inc.|WEB Address:      www.autodesk.com"
 90
        0
 91
       12
280
     0
281
     0
  0
CLASS
  1
STDPART2D
  2
AmgStdPart
  3
AmgStdPart|Product Description: AutoCAD Mechanical|Company: Autodesk, Inc.
 90
     4095
 91
        0
280
     0
281
     1
  0
CLASS
  1
ACMDATAENTRYPART
  2
AcmDataEntryPart
  3
AcmSymBB|Product Description: AutoCAD Mechanical|Company: Autodesk, Inc.
 90
     1024
 91
        0
280
     0
281
     0
  0
CLASS
  1
ACMPARTREF
  2
AcmPartRef
  3
"AcmSymBB|Product Description: AutoCAD Mechanical|Company: Autodesk, Inc."
 90
     4095
 91
        0
280
     0
281
     1
  0
CLASS
  1
ACDBSTDPARTRES_LINE
  2
AcDbStdPartRes_Line
  3
AmgStdPart|Product Description: AutoCAD Mechanical|Company: Autodesk, Inc.
 90
     1024
 91
        0
280
     0
281
     0
  0
CLASS
  1
ACMBOM
  2
AcmBom
  3
"AcmSymBB|Product Description: AutoCAD Mechanical|Company: Autodesk, Inc."
 90
     1024
 91
        0
280
     0
281
     0
  0
CLASS
  1
AMDTFORMULAUPDATEDISPATCHER
  2
AmdtFormulaUpdateDispatcher
  3
AcMeServices
 90
     1024
 91
        0
280
     0
281
     0
  0
CLASS
  1
ACMBOMROW
  2
AcmBomRow
  3
"AcmSymBB|Product Description: AutoCAD Mechanical|Company: Autodesk, Inc."
 90
     1024
 91
        0
280
     0
281
     0
  0
CLASS
  1
ACMPARTLIST
  2
AcmPartList
  3
"AcmSymBB|Product Description: AutoCAD Mechanical|Company: Autodesk, Inc."
 90
     4095
 91
        0
280
     0
281
     1
  0
CLASS
  1
ACDBLINERES
  2
AcDbLineRes
  3
AcGrefServices
 90
     1024
 91
        0
280
     0
281
     0
  0
CLASS
  1
ACRFINSADJ
  2
AcRfInsAdjuster
  3
AcMeServices
 90
     1024
 91
        0
280
     0
281
     0
  0
CLASS
  1
ACMSTANDARDISO
  2
AcmStandardISO
  3
"Amdt_StdImp|Product Description: AutoCAD Mechanical|Company: Autodesk, Inc."
 90
     1024
 91
        1
280
     0
281
     0
  0
CLASS
  1
AMDTEDGESTANDARDISO13715
  2
AmdtEdgeStdISO13715
  3
"Amdt_StdImp|Product Description: AutoCAD Mechanical|Company: Autodesk, Inc."
 90
     1024
 91
        1
280
     0
281
     0
  0
CLASS
  1
ACMSURFSTANDARDISO2002
  2
AcmSurfTextStdISO2002
  3
"Amdt_StdImp|Product Description: AutoCAD Mechanical|Company: Autodesk, Inc."
 90
     1024
 91
        1
280
     0
281
     0
  0
CLASS
  1
ACMFCFSTANDARDISO
  2
AcmFCFStdISO
  3
"Amdt_StdImp|Product Description: AutoCAD Mechanical|Company: Autodesk, Inc."
 90
     1024
 91
        1
280
     0
281
     0
  0
CLASS
  1
ACMWELDSTANDARDISO
  2
AcmWeldingStdISO
  3
"Amdt_StdImp|Product Description: AutoCAD Mechanical|Company: Autodesk, Inc."
 90
     1024
 91
        1
280
     0
281
     0
  0
CLASS
  1
ACMIDSTANDARDISO
  2
AcmIdStdISO
  3
"Amdt_StdImp|Product Description: AutoCAD Mechanical|Company: Autodesk, Inc."
 90
     1024
 91
        1
280
     0
281
     0
  0
CLASS
  1
ACMDATUMSTANDARDISO
  2
AcmDatumStdISO
  3
"Amdt_StdImp|Product Description: AutoCAD Mechanical|Company: Autodesk, Inc."
 90
     1024
 91
        1
280
     0
281
     0
  0
CLASS
  1
ACMBOMSTANDARDISO
  2
AcmBOMStdISO
  3
"Amdt_StdImp|Product Description: AutoCAD Mechanical|Company: Autodesk, Inc."
 90
     1024
 91
        1
280
     0
281
     0
  0
CLASS
  1
ACMDETAILSTANDARDISO
  2
AmdtDetailSymStdISO
  3
"Amdt_StdImp|Product Description: AutoCAD Mechanical|Company: Autodesk, Inc."
 90
     1024
 91
        1
280
     0
281
     0
  0
CLASS
  1
ACMSECTIONSTANDARDISO2001
  2
AmdtSectionSymStdISO2001
  3
"Amdt_StdImp|Product Description: AutoCAD Mechanical|Company: Autodesk, Inc."
 90
     1024
 91
        1
280
     0
281
     0
  0
CLASS
  1
ACMCENTERLINESTANDARDISO
  2
AmdtCenterLineStdISO
  3
"Amdt_StdImp|Product Description: AutoCAD Mechanical|Company: Autodesk, Inc."
 90
     1024
 91
        1
280
     0
281
     0
  0
CLASS
  1
ACMTHREADLINESTANDARDISO
  2
AmdtThreadLineStdISO
  3
"Amdt_StdImp|Product Description: AutoCAD Mechanical|Company: Autodesk, Inc."
 90
     1024
 91
        1
280
     0
281
     0
  0
CLASS
  1
ACMNOTESTANDARDISO
  2
AmdtNoteStdISO
  3
"Amdt_StdImp|Product Description: AutoCAD Mechanical|Company: Autodesk, Inc."
 90
     1024
 91
        1
280
     0
281
     0
  0
CLASS
  1
ACMTAPERSTANDARDISO
  2
AcmTaperStdISO
  3
"Amdt_StdImp|Product Description: AutoCAD Mechanical|Company: Autodesk, Inc."
 90
     1024
 91
        1
280
     0
281
     0
  0
CLASS
  1
ACMANOOTATIONVIEWSTANDARDISO
  2
AmdtAnViewStdISO
  3
"Amdt_StdImp|Product Description: AutoCAD Mechanical|Company: Autodesk, Inc."
 90
     1024
 91
        1
280
     0
281
     0
  0
CLASS
  1
ACAMGHOLECHARTSTDISO
  2
AcAmgHoleChartStdISO
  3
AmgDim|Product Description: AutoCAD Mechanical|Company: Autodesk, Inc.
 90
     1024
 91
        1
280
     0
281
     0
  0
CLASS
  1
EXACXREFPANELOBJECT
  2
ExAcXREFPanelObject
  3
EXAC_ESW
 90
     1025
 91
        0
280
     0
281
     0
  0
CLASS
  1
NPOCOLLECTION
  2
AcDbImpNonPersistentObjectsCollection
  3
ObjectDBX Classes
 90
     1153
 91
        0
280
     0
281
     0
  0
CLASS
  1
ACDBSTDPARTRES_ARC
  2
AcDbStdPartRes_Arc
  3
AmgStdPart|Product Description: AutoCAD Mechanical|Company: Autodesk, Inc.
 90
     1024
 91
        0
280
     0
281
     0
  0
CLASS
  1
AMDTNOTE
  2
AmdtNote
  3
"AcmSymBB|Product Description: AutoCAD Mechanical|Company: Autodesk, Inc."
 90
     4095
 91
        0
280
     0
281
     1
  0
CLASS
  1
PLOTSETTINGS
  2
AcDbPlotSettings
  3
ObjectDBX Classes
 90
        0
 91
        1
280
     0
281
     0
  0
CLASS
  1
ACMSTANDARDANSI
  2
AcmStandardANSI
  3
"Amdt_StdImp|Product Description: AutoCAD Mechanical|Company: Autodesk, Inc."
 90
     1024
 91
        0
280
     0
281
     0
  0
CLASS
  1
ACMSURFSTANDARDANSI
  2
AcmSurfTextStdANSI
  3
"Amdt_StdImp|Product Description: AutoCAD Mechanical|Company: Autodesk, Inc."
 90
     1024
 91
        0
280
     0
281
     0
  0
CLASS
  1
ACMFCFSTANDARDANSI
  2
AcmFCFStdANSI
  3
"Amdt_StdImp|Product Description: AutoCAD Mechanical|Company: Autodesk, Inc."
 90
     1024
 91
        0
280
     0
281
     0
  0
CLASS
  1
ACMWELDSTANDARDANSI
  2
AcmWeldingStdANSI
  3
"Amdt_StdImp|Product Description: AutoCAD Mechanical|Company: Autodesk, Inc."
 90
     1024
 91
        0
280
     0
281
     0
  0
CLASS
  1
ACMIDSTANDARDANSI
  2
AcmIdStdANSI
  3
"Amdt_StdImp|Product Description: AutoCAD Mechanical|Company: Autodesk, Inc."
 90
     1024
 91
        0
280
     0
281
     0
  0
CLASS
  1
ACMDATUMSTANDARDANSI
  2
AcmDatumStdANSI
  3
"Amdt_StdImp|Product Description: AutoCAD Mechanical|Company: Autodesk, Inc."
 90
     1024
 91
        0
280
     0
281
     0
  0
CLASS
  1
ACMBOMSTANDARDANSI
  2
AcmBOMStdANSI
  3
"Amdt_StdImp|Product Description: AutoCAD Mechanical|Company: Autodesk, Inc."
 90
     1024
 91
        0
280
     0
281
     0
  0
CLASS
  1
ACMDETAILSTANDARDANSI
  2
AmdtDetailSymStdANSI
  3
"Amdt_StdImp|Product Description: AutoCAD Mechanical|Company: Autodesk, Inc."
 90
     1024
 91
        0
280
     0
281
     0
  0
CLASS
  1
ACMSECTIONSTANDARDANSI
  2
AmdtSectionSymStdANSI
  3
"Amdt_StdImp|Product Description: AutoCAD Mechanical|Company: Autodesk, Inc."
 90
     1024
 91
        0
280
     0
281
     0
  0
CLASS
  1
ACMCENTERLINESTANDARDANSI
  2
AmdtCenterLineStdANSI
  3
"Amdt_StdImp|Product Description: AutoCAD Mechanical|Company: Autodesk, Inc."
 90
     1024
 91
        0
280
     0
281
     0
  0
CLASS
  1
ACMTHREADLINESTANDARDANSI
  2
AmdtThreadLineStdANSI
  3
"Amdt_StdImp|Product Description: AutoCAD Mechanical|Company: Autodesk, Inc."
 90
     1024
 91
        0
280
     0
281
     0
  0
CLASS
  1
ACMNOTESTANDARDANSI
  2
AmdtNoteStdANSI
  3
"Amdt_StdImp|Product Description: AutoCAD Mechanical|Company: Autodesk, Inc."
 90
     1024
 91
        0
280
     0
281
     0
  0
CLASS
  1
ACMTAPERSTANDARDANSI
  2
AcmTaperStdANSI
  3
"Amdt_StdImp|Product Description: AutoCAD Mechanical|Company: Autodesk, Inc."
 90
     1024
 91
        0
280
     0
281
     0
  0
CLASS
  1
ACMANOOTATIONVIEWSTANDARDANSI
  2
AmdtAnViewStdANSI
  3
"Amdt_StdImp|Product Description: AutoCAD Mechanical|Company: Autodesk, Inc."
 90
     1024
 91
        0
280
     0
281
     0
  0
CLASS
  1
ACAMGHOLECHARTSTDANSI
  2
AcAmgHoleChartStdANSI
  3
AmgDim|Product Description: AutoCAD Mechanical|Company: Autodesk, Inc.
 90
     1024
 91
        0
280
     0
281
     0
  0
CLASS
  1
ACMSTANDARDBSI
  2
AcmStandardBSI
  3
"Amdt_StdImp|Product Description: AutoCAD Mechanical|Company: Autodesk, Inc."
 90
     1024
 91
        0
280
     0
281
     0
  0
CLASS
  1
ACMSURFSTANDARDBSI2002
  2
AcmSurfTextStdBSI2002
  3
"Amdt_StdImp|Product Description: AutoCAD Mechanical|Company: Autodesk, Inc."
 90
     1024
 91
        0
280
     0
281
     0
  0
CLASS
  1
ACMFCFSTANDARDBSI
  2
AcmFCFStdBSI
  3
"Amdt_StdImp|Product Description: AutoCAD Mechanical|Company: Autodesk, Inc."
 90
     1024
 91
        0
280
     0
281
     0
  0
CLASS
  1
ACMWELDSTANDARDBSI
  2
AcmWeldingStdBSI
  3
"Amdt_StdImp|Product Description: AutoCAD Mechanical|Company: Autodesk, Inc."
 90
     1024
 91
        0
280
     0
281
     0
  0
CLASS
  1
ACMIDSTANDARDBSI
  2
AcmIdStdBSI
  3
"Amdt_StdImp|Product Description: AutoCAD Mechanical|Company: Autodesk, Inc."
 90
     1024
 91
        0
280
     0
281
     0
  0
CLASS
  1
ACMDATUMSTANDARDBSI
  2
AcmDatumStdBSI
  3
"Amdt_StdImp|Product Description: AutoCAD Mechanical|Company: Autodesk, Inc."
 90
     1024
 91
        0
280
     0
281
     0
  0
CLASS
  1
ACMBOMSTANDARDBSI
  2
AcmBOMStdBSI
  3
"Amdt_StdImp|Product Description: AutoCAD Mechanical|Company: Autodesk, Inc."
 90
     1024
 91
        0
280
     0
281
     0
  0
CLASS
  1
ACMDETAILSTANDARDBSI
  2
AmdtDetailSymStdBSI
  3
"Amdt_StdImp|Product Description: AutoCAD Mechanical|Company: Autodesk, Inc."
 90
     1024
 91
        0
280
     0
281
     0
  0
CLASS
  1
ACMSECTIONSTANDARDBSI2001
  2
AmdtSectionSymStdBSI2001
  3
"Amdt_StdImp|Product Description: AutoCAD Mechanical|Company: Autodesk, Inc."
 90
     1024
 91
        0
280
     0
281
     0
  0
CLASS
  1
ACMCENTERLINESTANDARDBSI
  2
AmdtCenterLineStdBSI
  3
"Amdt_StdImp|Product Description: AutoCAD Mechanical|Company: Autodesk, Inc."
 90
     1024
 91
        0
280
     0
281
     0
  0
CLASS
  1
ACMTHREADLINESTANDARDBSI
  2
AmdtThreadLineStdBSI
  3
"Amdt_StdImp|Product Description: AutoCAD Mechanical|Company: Autodesk, Inc."
 90
     1024
 91
        0
280
     0
281
     0
  0
CLASS
  1
ACMNOTESTANDARDBSI
  2
AmdtNoteStdBSI
  3
"Amdt_StdImp|Product Description: AutoCAD Mechanical|Company: Autodesk, Inc."
 90
     1024
 91
        0
280
     0
281
     0
  0
CLASS
  1
ACMTAPERSTANDARDBSI
  2
AcmTaperStdBSI
  3
"Amdt_StdImp|Product Description: AutoCAD Mechanical|Company: Autodesk, Inc."
 90
     1024
 91
        0
280
     0
281
     0
  0
CLASS
  1
ACMANOOTATIONVIEWSTANDARDBSI
  2
AmdtAnViewStdBSI
  3
"Amdt_StdImp|Product Description: AutoCAD Mechanical|Company: Autodesk, Inc."
 90
     1024
 91
        0
280
     0
281
     0
  0
CLASS
  1
ACAMGHOLECHARTSTDBSI
  2
AcAmgHoleChartStdBSI
  3
AmgDim|Product Description: AutoCAD Mechanical|Company: Autodesk, Inc.
 90
     1024
 91
        0
280
     0
281
     0
  0
CLASS
  1
AMDTEDGESTANDARDJIS
  2
AmdtEdgeStdJIS
  3
"Amdt_StdImp|Product Description: AutoCAD Mechanical|Company: Autodesk, Inc."
 90
     1024
 91
        0
280
     0
281
     0
  0
CLASS
  1
ACMSURFSYM
  2
AcmSurfaceTexture
  3
"AcmSymBB|Product Description: AutoCAD Mechanical|Company: Autodesk, Inc."
 90
     4095
 91
        0
280
     0
281
     1
  0
CLASS
  1
ACDBDIMENSIONRES
  2
AcDbDimensionRes
  3
AcmSymBB|Product Description: AutoCAD Mechanical|Company: Autodesk, Inc.
 90
     1024
 91
        0
280
     0
281
     0
  0
CLASS
  1
ACDBCIRCARCRES
  2
AcDbCircArcRes
  3
AcGrefServices
 90
     1024
 91
        0
280
     0
281
     0
  0
CLASS
  1
AMDTACMWBLOCKBOMENTITY
  2
AmdtAcmWblockBomEntity
  3
"AcmSymBB|Product Description: AutoCAD Mechanical|Company: Autodesk, Inc."
 90
     4095
 91
        0
280
     0
281
     1
  0
CLASS
  1
ACDBOPPOLYLINERES
  2
AcDbOpPolylineRes
  3
AcGrefServices
 90
     1024
 91
        0
280
     0
281
     0
  0
CLASS
  1
ACDB_BLKREFOBJECTCONTEXTDATA_CLASS
  2
AcDbBlkRefObjectContextData
  3
ObjectDBX Classes
 90
     1153
 91
        0
280
     0
281
     0
  0
CLASS
  1
ACMPICKOBJ
  2
AcmPickEnt
  3
"AcmSymBB|Product Description: AutoCAD Mechanical|Company: Autodesk, Inc."
 90
     1024
 91
        0
280
     0
281
     1
  0
CLASS
  1
ACMBALLOON
  2
AcmBalloon
  3
"AcmSymBB|Product Description: AutoCAD Mechanical|Company: Autodesk, Inc."
 90
     4095
 91
        0
280
     0
281
     1
  0
ENDSEC
  0
SECTION
  2
TABLES
  0
TABLE
  2
VPORT
  5
8
330
0
100
AcDbSymbolTable
 70
     1
  0
VPORT
  5
27A
330
8
100
AcDbSymbolTableRecord
100
AcDbViewportTableRecord
  2
*Active
 70
     0
 10
0.0
 20
0.0
 11
1.0
 21
1.0
 12
198.2720958822319
 22
189.5020076393834
 13
0.0
 23
0.0
 14
2.5
 24
2.5
 15
10.0
 25
10.0
 16
0.0
 26
0.0
 36
1.0
 17
0.0
 27
0.0
 37
0.0
 40
141.7669542750854
 41
1.285714285714285
 42
50.0
 43
0.0
 44
0.0
 50
0.0
 51
0.0
 71
    16
 72
 20000
 73
     1
 74
     3
 75
     0
 76
     0
 77
     0
 78
     0
281
     0
 65
     0
110
0.0
120
0.0
130
0.0
111
1.0
121
0.0
131
0.0
112
0.0
122
1.0
132
0.0
 79
     0
146
0.0
348
285
 60
     3
 61
     5
292
     1
282
     0
141
0.0
142
0.0
 63
   250
421
  3355443
  0
ENDTAB
  0
TABLE
  2
LTYPE
  5
5
330
0
100
AcDbSymbolTable
 70
    22
  0
LTYPE
  5
14
330
5
100
AcDbSymbolTableRecord
100
AcDbLinetypeTableRecord
  2
ByBlock
 70
     0
  3

 72
    65
 73
     0
 40
0.0
  0
LTYPE
  5
15
330
5
100
AcDbSymbolTableRecord
100
AcDbLinetypeTableRecord
  2
ByLayer
 70
     0
  3

 72
    65
 73
     0
 40
0.0
  0
LTYPE
  5
16
330
5
100
AcDbSymbolTableRecord
100
AcDbLinetypeTableRecord
  2
Continuous
 70
     0
  3
Solid line
 72
    65
 73
     0
 40
0.0
  0
LTYPE
  5
4D
330
5
100
AcDbSymbolTableRecord
100
AcDbLinetypeTableRecord
  2
AM_ISO02W050
 70
     0
  3
__ __ __ __ __ __ __ __ __ __ __ __ __ __ __
 72
    65
 73
     2
 40
7.5
 49
6.0
 74
     0
 49
-1.5
 74
     0
  0
LTYPE
  5
4E
330
5
100
AcDbSymbolTableRecord
100
AcDbLinetypeTableRecord
  2
AM_ISO08W050
 70
     0
  3
____ . ____ . ____ . ____ . ____ . ____ . ____
 72
    65
 73
     4
 40
18.0
 49
12.0
 74
     0
 49
-1.5
 74
     0
 49
3.0
 74
     0
 49
-1.5
 74
     0
  0
LTYPE
  5
4F
330
5
100
AcDbSymbolTableRecord
100
AcDbLinetypeTableRecord
  2
AM_ISO09W050
 70
     0
  3
_____ . . _____ . . _____ . . ____ .. ____
 72
    65
 73
     6
 40
22.5
 49
12.0
 74
     0
 49
-1.5
 74
     0
 49
3.0
 74
     0
 49
-1.5
 74
     0
 49
3.0
 74
     0
 49
-1.5
 74
     0
  0
LTYPE
  5
50
330
5
100
AcDbSymbolTableRecord
100
AcDbLinetypeTableRecord
  2
Amconstr
 70
     0
  3
_______________________
 72
    65
 73
     2
 40
9999.0
 49
9999.0
 74
     0
 49
0.0
 74
     0
  0
LTYPE
  5
51
330
5
100
AcDbSymbolTableRecord
100
AcDbLinetypeTableRecord
  2
AM_ISO08W050x2
 70
     0
  3
__ . __ . __ . __ . __ . __
 72
    65
 73
     4
 40
9.0
 49
6.0
 74
     0
 49
-0.75
 74
     0
 49
1.5
 74
     0
 49
-0.75
 74
     0
  0
LTYPE
  5
52
330
5
100
AcDbSymbolTableRecord
100
AcDbLinetypeTableRecord
  2
AM_ISO02W050x2
 70
     0
  3
 _ _ _ _ _ _ _ _ _ _ _ _
 72
    65
 73
     2
 40
3.75
 49
3.0
 74
     0
 49
-0.75
 74
     0
  0
LTYPE
  5
55
330
5
100
AcDbSymbolTableRecord
100
AcDbLinetypeTableRecord
  2
Amzigzag
 70
     0
  3
/\/-/\/-/\/-/\/-/\/-/\/
 72
    65
 73
     2
 40
11.0001
 49
0.0001
 74
     4
 75
   136
340
23D
 46
0.04
 50
0.0
 44
0.0
 45
0.0
 49
-11.0
 74
     0
  0
LTYPE
  5
65
330
5
100
AcDbSymbolTableRecord
100
AcDbLinetypeTableRecord
  2
CENTER
 70
     0
  3
__ . __
 72
    65
 73
     4
 40
7.0
 49
4.0
 74
     0
 49
-1.0
 74
     0
 49
1.0
 74
     0
 49
-1.0
 74
     0
  0
LTYPE
  5
E0
330
5
100
AcDbSymbolTableRecord
100
AcDbLinetypeTableRecord
  2
HIDDEN
 70
     0
  3
Hidden __ __ __ __ __ __ __ __ __ __ __ __ __ _
 72
    65
 73
     2
 40
9.524999999999996
 49
6.349999999999998
 74
     0
 49
-3.174999999999998
 74
     0
  0
LTYPE
  5
E1
330
5
100
AcDbSymbolTableRecord
100
AcDbLinetypeTableRecord
  2
PHANTOM2
 70
     0
  3
Phantom (.5x) ___ _ _ ___ _ _ ___ _ _ ___ _ _
 72
    65
 73
     6
 40
31.75
 49
15.875
 74
     0
 49
-3.174999999999998
 74
     0
 49
3.174999999999998
 74
     0
 49
-3.174999999999998
 74
     0
 49
3.174999999999998
 74
     0
 49
-3.174999999999998
 74
     0
  0
LTYPE
  5
5A2
330
5
100
AcDbSymbolTableRecord
100
AcDbLinetypeTableRecord
  2
ACJISWELD
 70
     0
  3
_ _ _ _ _
 72
    65
 73
     2
 40
2.0
 49
2.0
 74
     0
 49
-1.0
 74
     0
  0
LTYPE
  5
6FDC
330
5
100
AcDbSymbolTableRecord
100
AcDbLinetypeTableRecord
  2
ACISOWELD
 70
     0
  3
_ _ _ _ _
 72
    65
 73
     2
 40
2.0
 49
2.0
 74
     0
 49
-1.0
 74
     0
  0
LTYPE
  5
6FDD
330
5
100
AcDbSymbolTableRecord
100
AcDbLinetypeTableRecord
  2
ACISOTGB
 70
     0
  3
__ . . __ . .
 72
    65
 73
     6
 40
9.0
 49
4.0
 74
     0
 49
-1.0
 74
     0
 49
1.0
 74
     0
 49
-1.0
 74
     0
 49
1.0
 74
     0
 49
-1.0
 74
     0
  0
LTYPE
  5
6FDE
330
5
100
AcDbSymbolTableRecord
100
AcDbLinetypeTableRecord
  2
ACISOTGL
 70
     0
  3
_ _ _ _ _
 72
    65
 73
     2
 40
3.0
 49
2.0
 74
     0
 49
-1.0
 74
     0
  0
ENDTAB
  0
TABLE
  2
LAYER
  5
2
102
{ACAD_XDICTIONARY
360
BF
102
}
330
0
100
AcDbSymbolTable
 70
    10
  0
LAYER
  5
10
102
{ACAD_XDICTIONARY
360
29F7
102
}
330
2
100
AcDbSymbolTableRecord
100
AcDbLayerTableRecord
  2
0
 70
     0
 62
     7
  6
Continuous
370
    -3
390
F
347
27E
  0
LAYER
  5
81
102
{ACAD_XDICTIONARY
360
29F9
102
}
330
2
100
AcDbSymbolTableRecord
100
AcDbLayerTableRecord
  2
AM_0 外形線1
 70
     0
 62
     7
  6
Continuous
370
    25
390
F
347
27E
  0
LAYER
  5
427
330
2
100
AcDbSymbolTableRecord
100
AcDbLayerTableRecord
  2
Defpoints
 70
     0
 62
     7
  6
Continuous
290
     0
370
    -3
390
F
347
27E
  0
LAYER
  5
3700
330
2
100
AcDbSymbolTableRecord
100
AcDbLayerTableRecord
  2
AM_5 寸法線
 70
     0
 62
     3
  6
Continuous
370
    13
390
F
347
27E
1001
AcAecLayerStandard
1000

1000

  0
LAYER
  5
3701
330
2
100
AcDbSymbolTableRecord
100
AcDbLayerTableRecord
  2
AM_4 細線
 70
     0
 62
     4
  6
Continuous
370
    13
390
F
347
27E
1001
AcAecLayerStandard
1000

1000

  0
LAYER
  5
3702
330
2
100
AcDbSymbolTableRecord
100
AcDbLayerTableRecord
  2
AM_7 中心線
 70
     0
 62
     1
  6
AM_ISO08W050
370
    13
390
F
347
27E
1001
AcAecLayerStandard
1000

1000

  0
LAYER
  5
3703
330
2
100
AcDbSymbolTableRecord
100
AcDbLayerTableRecord
  2
AM_3 隠れ線
 70
     0
 62
     8
  6
ACJISWELD
370
    13
390
F
347
27E
1001
AcAecLayerStandard
1000

1000

  0
LAYER
  5
3706
330
2
100
AcDbSymbolTableRecord
100
AcDbLayerTableRecord
  2
AM_6 文字
 70
     0
 62
     2
  6
Continuous
370
    13
390
F
347
27E
1001
AcAecLayerStandard
1000

1000

  0
LAYER
  5
6778
330
2
100
AcDbSymbolTableRecord
100
AcDbLayerTableRecord
  2
AM_11 想像線
 70
     0
 62
     5
  6
AM_ISO09W050
370
    13
390
F
347
27E
1001
AcAecLayerStandard
1000

1000

  0
ENDTAB
  0
TABLE
  2
STYLE
  5
3
330
0
100
AcDbSymbolTable
 70
    11
  0
STYLE
  5
11
330
3
100
AcDbSymbolTableRecord
100
AcDbTextStyleTableRecord
  2
STANDARD
 70
     0
 40
0.0
 41
1.0
 50
0.0
 71
     0
 42
25.0
  3
ISOCP.SHX
  4
EXTFONT.SHX
  0
STYLE
  5
23D
330
3
100
AcDbSymbolTableRecord
100
AcDbTextStyleTableRecord
  2

 70
     1
 40
0.0
 41
1.0
 50
0.0
 71
     0
 42
2.5
  3
genltshp.shx
  4

  0
STYLE
  5
5D5
330
3
100
AcDbSymbolTableRecord
100
AcDbTextStyleTableRecord
  2
SEISA
 70
     0
 40
0.0
 41
0.9
 50
0.0
 71
     0
 42
25.0
  3
romans.shx
  4
extfont2.shx
  0
STYLE
  5
6FCC
330
3
100
AcDbSymbolTableRecord
100
AcDbTextStyleTableRecord
  2
ACISOTS
 70
     0
 40
1.0
 41
1.0
 50
0.0
 71
     0
 42
25.0
  3
isocp.shx
  4
extfont.shx
  0
STYLE
  5
6FDB
330
3
100
AcDbSymbolTableRecord
100
AcDbTextStyleTableRecord
  2
ACISOGDT
 70
     0
 40
0.0
 41
1.0
 50
0.0
 71
     0
 42
25.0
  3
amgdt.shx
  4

  0
ENDTAB
  0
TABLE
  2
VIEW
  5
6
330
0
100
AcDbSymbolTable
 70
     6
  0
VIEW
  5
91B
330
6
100
AcDbSymbolTableRecord
100
AcDbViewTableRecord
  2
AM_VIEW1
 70
     0
 40
148.5
 10
146.1225371372467
 20
222.7500003693821
 41
292.2450738916257
 11
0.0
 21
0.0
 31
1.0
 12
0.0
 22
0.0
 32
0.0
 42
50.0
 43
0.0
 44
0.0
 50
0.0
 71
    16
281
     0
 72
     0
 73
     0
  0
VIEW
  5
91C
330
6
100
AcDbSymbolTableRecord
100
AcDbViewTableRecord
  2
AM_VIEW2
 70
     0
 40
148.5
 10
273.877463245621
 20
222.7500003693821
 41
292.2450738916257
 11
0.0
 21
0.0
 31
1.0
 12
0.0
 22
0.0
 32
0.0
 42
50.0
 43
0.0
 44
0.0
 50
0.0
 71
    16
281
     0
 72
     0
 73
     0
  0
VIEW
  5
91D
330
6
100
AcDbSymbolTableRecord
100
AcDbViewTableRecord
  2
AM_VIEW3
 70
     0
 40
148.5
 10
146.1225371372467
 20
74.25000036938206
 41
292.2450738916257
 11
0.0
 21
0.0
 31
1.0
 12
0.0
 22
0.0
 32
0.0
 42
50.0
 43
0.0
 44
0.0
 50
0.0
 71
    16
281
     0
 72
     0
 73
     0
  0
VIEW
  5
91E
330
6
100
AcDbSymbolTableRecord
100
AcDbViewTableRecord
  2
AM_VIEW4
 70
     0
 40
148.5
 10
273.877463245621
 20
74.25000036938206
 41
292.2450738916257
 11
0.0
 21
0.0
 31
1.0
 12
0.0
 22
0.0
 32
0.0
 42
50.0
 43
0.0
 44
0.0
 50
0.0
 71
    16
281
     0
 72
     0
 73
     0
  0
VIEW
  5
91F
330
6
100
AcDbSymbolTableRecord
100
AcDbViewTableRecord
  2
AM_VIEW5
 70
     0
 40
148.5
 10
210.0000001914338
 20
148.5000003693821
 41
292.2450738916257
 11
0.0
 21
0.0
 31
1.0
 12
0.0
 22
0.0
 32
0.0
 42
50.0
 43
0.0
 44
0.0
 50
0.0
 71
    16
281
     0
 72
     0
 73
     0
  0
VIEW
  5
920
330
6
100
AcDbSymbolTableRecord
100
AcDbViewTableRecord
  2
AM_VIEW6
 70
     0
 40
296.99703
 10
210.0000001914338
 20
148.5000003693821
 41
584.4843028817734
 11
0.0
 21
0.0
 31
1.0
 12
0.0
 22
0.0
 32
0.0
 42
50.0
 43
0.0
 44
0.0
 50
0.0
 71
    16
281
     0
 72
     0
 73
     0
  0
ENDTAB
  0
TABLE
  2
UCS
  5
7
330
0
100
AcDbSymbolTable
 70
     0
  0
ENDTAB
  0
TABLE
  2
APPID
  5
9
330
0
100
AcDbSymbolTable
 70
   392
  0
APPID
  5
12
330
9
100
AcDbSymbolTableRecord
100
AcDbRegAppTableRecord
  2
ACAD
 70
     0
  0
APPID
  5
30
330
9
100
AcDbSymbolTableRecord
100
AcDbRegAppTableRecord
  2
MCAD_NO_VIS
 70
     0
  0
APPID
  5
31
330
9
100
AcDbSymbolTableRecord
100
AcDbRegAppTableRecord
  2
ACAD_TEMP_GRAPHIC
 70
     0
  0
APPID
  5
44
330
9
100
AcDbSymbolTableRecord
100
AcDbRegAppTableRecord
  2
ACATTRIBSERVICES
 70
     0
  0
APPID
  5
F6
330
9
100
AcDbSymbolTableRecord
100
AcDbRegAppTableRecord
  2
AD_DRAW
 70
     0
  0
APPID
  5
114
330
9
100
AcDbSymbolTableRecord
100
AcDbRegAppTableRecord
  2
DESIGNERASSEMBLIES
 70
     0
  0
APPID
  5
118
330
9
100
AcDbSymbolTableRecord
100
AcDbRegAppTableRecord
  2
ACADM_DIM_EDIT
 70
     0
  0
APPID
  5
119
330
9
100
AcDbSymbolTableRecord
100
AcDbRegAppTableRecord
  2
AMDT_DM_ADJ
 70
     0
  0
APPID
  5
1AF
330
9
100
AcDbSymbolTableRecord
100
AcDbRegAppTableRecord
  2
ACAD_DSTYLE_DIMARC_LENGTH_SYMBOL
 70
     0
  0
APPID
  5
1B0
330
9
100
AcDbSymbolTableRecord
100
AcDbRegAppTableRecord
  2
ACAD_DSTYLE_DIMJOGGED_JOGANGLE_SYMBOL
 70
     0
  0
APPID
  5
2D7
330
9
100
AcDbSymbolTableRecord
100
AcDbRegAppTableRecord
  2
ACAD_MLEADERVER
 70
     0
  0
APPID
  5
355
330
9
100
AcDbSymbolTableRecord
100
AcDbRegAppTableRecord
  2
AcadAnnoPO
 70
     0
  0
APPID
  5
428
330
9
100
AcDbSymbolTableRecord
100
AcDbRegAppTableRecord
  2
ACAD_DSTYLE_DIMTEXT_FILL
 70
     0
  0
APPID
  5
429
330
9
100
AcDbSymbolTableRecord
100
AcDbRegAppTableRecord
  2
GENIUS_GENSCREG_15
 70
     0
  0
APPID
  5
42A
330
9
100
AcDbSymbolTableRecord
100
AcDbRegAppTableRecord
  2
GENIUS_GENOBJ-N-SDF_13
 70
     0
  0
APPID
  5
42B
330
9
100
AcDbSymbolTableRecord
100
AcDbRegAppTableRecord
  2
GENIUS_GENODEF_13
 70
     0
  0
APPID
  5
42C
330
9
100
AcDbSymbolTableRecord
100
AcDbRegAppTableRecord
  2
ACAD_EXEMPT_FROM_CAD_STANDARDS
 70
     0
  0
APPID
  5
42D
330
9
100
AcDbSymbolTableRecord
100
AcDbRegAppTableRecord
  2
AcAecLayerStandard
 70
     0
  0
APPID
  5
42E
330
9
100
AcDbSymbolTableRecord
100
AcDbRegAppTableRecord
  2
GENIUS_GENOBJ-N-CEN_13
 70
     0
  0
APPID
  5
42F
330
9
100
AcDbSymbolTableRecord
100
AcDbRegAppTableRecord
  2
GENIUS_GENCEN_19
 70
     0
  0
APPID
  5
430
330
9
100
AcDbSymbolTableRecord
100
AcDbRegAppTableRecord
  2
ACAD_DSTYLE_DIMINSPECT
 70
     0
  0
APPID
  5
431
330
9
100
AcDbSymbolTableRecord
100
AcDbRegAppTableRecord
  2
GENIUS_AMGTXT_16
 70
     0
  0
APPID
  5
432
330
9
100
AcDbSymbolTableRecord
100
AcDbRegAppTableRecord
  2
GENIUS_GENFIL_13
 70
     0
  0
APPID
  5
433
330
9
100
AcDbSymbolTableRecord
100
AcDbRegAppTableRecord
  2
GENIUS_GENOLIS_13
 70
     0
  0
APPID
  5
434
330
9
100
AcDbSymbolTableRecord
100
AcDbRegAppTableRecord
  2
GENIUS_GENOBJ-N-CHA_13
 70
     0
  0
APPID
  5
435
330
9
100
AcDbSymbolTableRecord
100
AcDbRegAppTableRecord
  2
GENIUS_GENOENT_13
 70
     0
  0
APPID
  5
436
330
9
100
AcDbSymbolTableRecord
100
AcDbRegAppTableRecord
  2
GENIUS_GENOREF_13
 70
     0
  0
APPID
  5
437
330
9
100
AcDbSymbolTableRecord
100
AcDbRegAppTableRecord
  2
GENIUS_GENOBJ-N-FIL_13
 70
     0
  0
APPID
  5
438
330
9
100
AcDbSymbolTableRecord
100
AcDbRegAppTableRecord
  2
GEVID1208829536
 70
     0
  0
APPID
  5
439
330
9
100
AcDbSymbolTableRecord
100
AcDbRegAppTableRecord
  2
GEVDC
 70
     0
  0
APPID
  5
43A
330
9
100
AcDbSymbolTableRecord
100
AcDbRegAppTableRecord
  2
GEVRADREF
 70
     0
  0
APPID
  5
43B
330
9
100
AcDbSymbolTableRecord
100
AcDbRegAppTableRecord
  2
GENIUS_GENBH_13
 70
     0
  0
APPID
  5
43C
330
9
100
AcDbSymbolTableRecord
100
AcDbRegAppTableRecord
  2
GENIUS_GENOBJ-NBEHI-BHF_13
 70
     0
  0
APPID
  5
43D
330
9
100
AcDbSymbolTableRecord
100
AcDbRegAppTableRecord
  2
GENIUS_GENOBJ-NBEHI-BHB_13
 70
     0
  0
APPID
  5
43E
330
9
100
AcDbSymbolTableRecord
100
AcDbRegAppTableRecord
  2
GEVID1208829537
 70
     0
  0
APPID
  5
43F
330
9
100
AcDbSymbolTableRecord
100
AcDbRegAppTableRecord
  2
ACAD_DSTYLE_DIMJAG
 70
     0
  0
APPID
  5
440
330
9
100
AcDbSymbolTableRecord
100
AcDbRegAppTableRecord
  2
ACAD_DSTYLE_DIMTALN
 70
     0
  0
APPID
  5
441
330
9
100
AcDbSymbolTableRecord
100
AcDbRegAppTableRecord
  2
AMG_2DHIDE
 70
     0
  0
APPID
  5
442
330
9
100
AcDbSymbolTableRecord
100
AcDbRegAppTableRecord
  2
AMG_2DSTRUCT_BTR
 70
     0
  0
APPID
  5
443
330
9
100
AcDbSymbolTableRecord
100
AcDbRegAppTableRecord
  2
GEVID1208845772
 70
     0
  0
APPID
  5
444
330
9
100
AcDbSymbolTableRecord
100
AcDbRegAppTableRecord
  2
GEVID1208845773
 70
     0
  0
APPID
  5
445
330
9
100
AcDbSymbolTableRecord
100
AcDbRegAppTableRecord
  2
ACADM_2DVIEW_IGN_NOTIFY
 70
     0
  0
APPID
  5
446
330
9
100
AcDbSymbolTableRecord
100
AcDbRegAppTableRecord
  2
GEVID1208845774
 70
     0
  0
APPID
  5
447
330
9
100
AcDbSymbolTableRecord
100
AcDbRegAppTableRecord
  2
GEVID1208845775
 70
     0
  0
APPID
  5
448
330
9
100
AcDbSymbolTableRecord
100
AcDbRegAppTableRecord
  2
GEVID1208845776
 70
     0
  0
APPID
  5
449
330
9
100
AcDbSymbolTableRecord
100
AcDbRegAppTableRecord
  2
GEVID1208845777
 70
     0
  0
APPID
  5
44A
330
9
100
AcDbSymbolTableRecord
100
AcDbRegAppTableRecord
  2
GEVCON
 70
     0
  0
APPID
  5
44B
330
9
100
AcDbSymbolTableRecord
100
AcDbRegAppTableRecord
  2
GENIUS_GENOBJ-F-SCPASSM_13
 70
     0
  0
APPID
  5
44C
330
9
100
AcDbSymbolTableRecord
100
AcDbRegAppTableRecord
  2
GEVID1208845778
 70
     0
  0
APPID
  5
44D
330
9
100
AcDbSymbolTableRecord
100
AcDbRegAppTableRecord
  2
GEVID1208845779
 70
     0
  0
APPID
  5
44E
330
9
100
AcDbSymbolTableRecord
100
AcDbRegAppTableRecord
  2
GEVID1208845780
 70
     0
  0
APPID
  5
44F
330
9
100
AcDbSymbolTableRecord
100
AcDbRegAppTableRecord
  2
GEVID1208845781
 70
     0
  0
APPID
  5
450
330
9
100
AcDbSymbolTableRecord
100
AcDbRegAppTableRecord
  2
GEVID1208845782
 70
     0
  0
APPID
  5
451
330
9
100
AcDbSymbolTableRecord
100
AcDbRegAppTableRecord
  2
GEVID1208845783
 70
     0
  0
APPID
  5
452
330
9
100
AcDbSymbolTableRecord
100
AcDbRegAppTableRecord
  2
GEVID1208845784
 70
     0
  0
APPID
  5
453
330
9
100
AcDbSymbolTableRecord
100
AcDbRegAppTableRecord
  2
GEVID1208845785
 70
     0
  0
APPID
  5
454
330
9
100
AcDbSymbolTableRecord
100
AcDbRegAppTableRecord
  2
GEVID1208845787
 70
     0
  0
APPID
  5
455
330
9
100
AcDbSymbolTableRecord
100
AcDbRegAppTableRecord
  2
GEVID1208845788
 70
     0
  0
APPID
  5
456
330
9
100
AcDbSymbolTableRecord
100
AcDbRegAppTableRecord
  2
GEVID1208845789
 70
     0
  0
APPID
  5
457
330
9
100
AcDbSymbolTableRecord
100
AcDbRegAppTableRecord
  2
GEVID1208845790
 70
     0
  0
APPID
  5
458
330
9
100
AcDbSymbolTableRecord
100
AcDbRegAppTableRecord
  2
GEVID1208845791
 70
     0
  0
APPID
  5
459
330
9
100
AcDbSymbolTableRecord
100
AcDbRegAppTableRecord
  2
GEVID1208845792
 70
     0
  0
APPID
  5
45A
330
9
100
AcDbSymbolTableRecord
100
AcDbRegAppTableRecord
  2
GEVID1208845793
 70
     0
  0
APPID
  5
45B
330
9
100
AcDbSymbolTableRecord
100
AcDbRegAppTableRecord
  2
GEVID1208845794
 70
     0
  0
APPID
  5
45C
330
9
100
AcDbSymbolTableRecord
100
AcDbRegAppTableRecord
  2
GEVID1208845795
 70
     0
  0
APPID
  5
45D
330
9
100
AcDbSymbolTableRecord
100
AcDbRegAppTableRecord
  2
GEVID1208845796
 70
     0
  0
APPID
  5
45E
330
9
100
AcDbSymbolTableRecord
100
AcDbRegAppTableRecord
  2
GEVID1208845797
 70
     0
  0
APPID
  5
45F
330
9
100
AcDbSymbolTableRecord
100
AcDbRegAppTableRecord
  2
GEVID1208845798
 70
     0
  0
APPID
  5
460
330
9
100
AcDbSymbolTableRecord
100
AcDbRegAppTableRecord
  2
GEVID1208845799
 70
     0
  0
APPID
  5
461
330
9
100
AcDbSymbolTableRecord
100
AcDbRegAppTableRecord
  2
GEVID1208845800
 70
     0
  0
APPID
  5
462
330
9
100
AcDbSymbolTableRecord
100
AcDbRegAppTableRecord
  2
GEVID1208845801
 70
     0
  0
APPID
  5
463
330
9
100
AcDbSymbolTableRecord
100
AcDbRegAppTableRecord
  2
GEVID1208845802
 70
     0
  0
APPID
  5
464
330
9
100
AcDbSymbolTableRecord
100
AcDbRegAppTableRecord
  2
GENIUS_GENOBJ-N-DIM_13
 70
     0
  0
APPID
  5
465
330
9
100
AcDbSymbolTableRecord
100
AcDbRegAppTableRecord
  2
GENIUS_GENDIM_13
 70
     0
  0
APPID
  5
466
330
9
100
AcDbSymbolTableRecord
100
AcDbRegAppTableRecord
  2
GENIUS_GENDIMSH_14
 70
     0
  0
APPID
  5
467
330
9
100
AcDbSymbolTableRecord
100
AcDbRegAppTableRecord
  2
GEVID1208845803
 70
     0
  0
APPID
  5
468
330
9
100
AcDbSymbolTableRecord
100
AcDbRegAppTableRecord
  2
GEVID1208845804
 70
     0
  0
APPID
  5
469
330
9
100
AcDbSymbolTableRecord
100
AcDbRegAppTableRecord
  2
GEVID1208845805
 70
     0
  0
APPID
  5
46A
330
9
100
AcDbSymbolTableRecord
100
AcDbRegAppTableRecord
  2
GEVID1208845806
 70
     0
  0
APPID
  5
46B
330
9
100
AcDbSymbolTableRecord
100
AcDbRegAppTableRecord
  2
GEVID1208845807
 70
     0
  0
APPID
  5
46C
330
9
100
AcDbSymbolTableRecord
100
AcDbRegAppTableRecord
  2
GEVID1208845808
 70
     0
  0
APPID
  5
46D
330
9
100
AcDbSymbolTableRecord
100
AcDbRegAppTableRecord
  2
GEVID1208845809
 70
     0
  0
APPID
  5
46E
330
9
100
AcDbSymbolTableRecord
100
AcDbRegAppTableRecord
  2
GEVID1208845810
 70
     0
  0
APPID
  5
46F
330
9
100
AcDbSymbolTableRecord
100
AcDbRegAppTableRecord
  2
GEVID1208845811
 70
     0
  0
APPID
  5
470
330
9
100
AcDbSymbolTableRecord
100
AcDbRegAppTableRecord
  2
GEVID1208845813
 70
     0
  0
APPID
  5
471
330
9
100
AcDbSymbolTableRecord
100
AcDbRegAppTableRecord
  2
GEVID1208845814
 70
     0
  0
APPID
  5
472
330
9
100
AcDbSymbolTableRecord
100
AcDbRegAppTableRecord
  2
GEVID1208845815
 70
     0
  0
APPID
  5
473
330
9
100
AcDbSymbolTableRecord
100
AcDbRegAppTableRecord
  2
GEVID1208845816
 70
     0
  0
APPID
  5
474
330
9
100
AcDbSymbolTableRecord
100
AcDbRegAppTableRecord
  2
GEVID1208845817
 70
     0
  0
APPID
  5
475
330
9
100
AcDbSymbolTableRecord
100
AcDbRegAppTableRecord
  2
GEVID1208845818
 70
     0
  0
APPID
  5
476
330
9
100
AcDbSymbolTableRecord
100
AcDbRegAppTableRecord
  2
GEVID1208845819
 70
     0
  0
APPID
  5
477
330
9
100
AcDbSymbolTableRecord
100
AcDbRegAppTableRecord
  2
GEVID1208845820
 70
     0
  0
APPID
  5
478
330
9
100
AcDbSymbolTableRecord
100
AcDbRegAppTableRecord
  2
GENIUS_GENOBJ-F-SHCL_13
 70
     0
  0
APPID
  5
479
330
9
100
AcDbSymbolTableRecord
100
AcDbRegAppTableRecord
  2
GENIUS_GEFMSH_13
 70
     0
  0
APPID
  5
47A
330
9
100
AcDbSymbolTableRecord
100
AcDbRegAppTableRecord
  2
GENIUS_GENOBJ-F-SHCA_13
 70
     0
  0
APPID
  5
47B
330
9
100
AcDbSymbolTableRecord
100
AcDbRegAppTableRecord
  2
GENIUS_GEFSH_13
 70
     0
  0
APPID
  5
47C
330
9
100
AcDbSymbolTableRecord
100
AcDbRegAppTableRecord
  2
GENIUS_GEFSHP_13
 70
     0
  0
APPID
  5
47D
330
9
100
AcDbSymbolTableRecord
100
AcDbRegAppTableRecord
  2
GENIUS_GEFSHP0_13
 70
     0
  0
APPID
  5
47E
330
9
100
AcDbSymbolTableRecord
100
AcDbRegAppTableRecord
  2
GENIUS_GEFSH0_13
 70
     0
  0
APPID
  5
47F
330
9
100
AcDbSymbolTableRecord
100
AcDbRegAppTableRecord
  2
GENIUS_GEFSHP1_13
 70
     0
  0
APPID
  5
480
330
9
100
AcDbSymbolTableRecord
100
AcDbRegAppTableRecord
  2
GENIUS_GEFSH1_13
 70
     0
  0
APPID
  5
481
330
9
100
AcDbSymbolTableRecord
100
AcDbRegAppTableRecord
  2
GEVID1208866337
 70
     0
  0
APPID
  5
482
330
9
100
AcDbSymbolTableRecord
100
AcDbRegAppTableRecord
  2
GEVID1208866338
 70
     0
  0
APPID
  5
483
330
9
100
AcDbSymbolTableRecord
100
AcDbRegAppTableRecord
  2
GEVID1208866339
 70
     0
  0
APPID
  5
484
330
9
100
AcDbSymbolTableRecord
100
AcDbRegAppTableRecord
  2
GEVID1208866340
 70
     0
  0
APPID
  5
485
330
9
100
AcDbSymbolTableRecord
100
AcDbRegAppTableRecord
  2
GEVID1208866341
 70
     0
  0
APPID
  5
486
330
9
100
AcDbSymbolTableRecord
100
AcDbRegAppTableRecord
  2
ACAD_PSEXT
 70
     0
  0
APPID
  5
487
330
9
100
AcDbSymbolTableRecord
100
AcDbRegAppTableRecord
  2
GEVID1208866342
 70
     0
  0
APPID
  5
488
330
9
100
AcDbSymbolTableRecord
100
AcDbRegAppTableRecord
  2
GEVID1208913836
 70
     0
  0
APPID
  5
489
330
9
100
AcDbSymbolTableRecord
100
AcDbRegAppTableRecord
  2
GEVID1208913837
 70
     0
  0
APPID
  5
48A
330
9
100
AcDbSymbolTableRecord
100
AcDbRegAppTableRecord
  2
GEVID1208913838
 70
     0
  0
APPID
  5
48B
330
9
100
AcDbSymbolTableRecord
100
AcDbRegAppTableRecord
  2
GEVID1208913839
 70
     0
  0
APPID
  5
48C
330
9
100
AcDbSymbolTableRecord
100
AcDbRegAppTableRecord
  2
GENIUS_GENDTOL_13
 70
     0
  0
APPID
  5
48D
330
9
100
AcDbSymbolTableRecord
100
AcDbRegAppTableRecord
  2
GEVID1208928889
 70
     0
  0
APPID
  5
48E
330
9
100
AcDbSymbolTableRecord
100
AcDbRegAppTableRecord
  2
GEVID1208928890
 70
     0
  0
APPID
  5
48F
330
9
100
AcDbSymbolTableRecord
100
AcDbRegAppTableRecord
  2
GEVID1208928891
 70
     0
  0
APPID
  5
490
330
9
100
AcDbSymbolTableRecord
100
AcDbRegAppTableRecord
  2
GEVID1208928892
 70
     0
  0
APPID
  5
491
330
9
100
AcDbSymbolTableRecord
100
AcDbRegAppTableRecord
  2
GEVID1208933827
 70
     0
  0
APPID
  5
492
330
9
100
AcDbSymbolTableRecord
100
AcDbRegAppTableRecord
  2
GEVID1208933829
 70
     0
  0
APPID
  5
493
330
9
100
AcDbSymbolTableRecord
100
AcDbRegAppTableRecord
  2
GEVID1208933830
 70
     0
  0
APPID
  5
494
330
9
100
AcDbSymbolTableRecord
100
AcDbRegAppTableRecord
  2
GEVID1208933831
 70
     0
  0
APPID
  5
495
330
9
100
AcDbSymbolTableRecord
100
AcDbRegAppTableRecord
  2
GEVID1208933832
 70
     0
  0
APPID
  5
496
330
9
100
AcDbSymbolTableRecord
100
AcDbRegAppTableRecord
  2
GEVID1208933833
 70
     0
  0
APPID
  5
497
330
9
100
AcDbSymbolTableRecord
100
AcDbRegAppTableRecord
  2
GEVID1208933834
 70
     0
  0
APPID
  5
498
330
9
100
AcDbSymbolTableRecord
100
AcDbRegAppTableRecord
  2
GEVID1208933835
 70
     0
  0
APPID
  5
499
330
9
100
AcDbSymbolTableRecord
100
AcDbRegAppTableRecord
  2
GEVID1208933836
 70
     0
  0
APPID
  5
49A
330
9
100
AcDbSymbolTableRecord
100
AcDbRegAppTableRecord
  2
GEVID1208933837
 70
     0
  0
APPID
  5
49B
330
9
100
AcDbSymbolTableRecord
100
AcDbRegAppTableRecord
  2
GEVID1208933838
 70
     0
  0
APPID
  5
49C
330
9
100
AcDbSymbolTableRecord
100
AcDbRegAppTableRecord
  2
GEVID1208933840
 70
     0
  0
APPID
  5
49D
330
9
100
AcDbSymbolTableRecord
100
AcDbRegAppTableRecord
  2
GEVID1208933842
 70
     0
  0
APPID
  5
49E
330
9
100
AcDbSymbolTableRecord
100
AcDbRegAppTableRecord
  2
GEVID1208933843
 70
     0
  0
APPID
  5
49F
330
9
100
AcDbSymbolTableRecord
100
AcDbRegAppTableRecord
  2
GEVID1208933844
 70
     0
  0
APPID
  5
4A0
330
9
100
AcDbSymbolTableRecord
100
AcDbRegAppTableRecord
  2
GEVID1208933845
 70
     0
  0
APPID
  5
4A1
330
9
100
AcDbSymbolTableRecord
100
AcDbRegAppTableRecord
  2
GEVID1208933846
 70
     0
  0
APPID
  5
4A2
330
9
100
AcDbSymbolTableRecord
100
AcDbRegAppTableRecord
  2
GEVID1208933847
 70
     0
  0
APPID
  5
4A3
330
9
100
AcDbSymbolTableRecord
100
AcDbRegAppTableRecord
  2
GEVID1208933848
 70
     0
  0
APPID
  5
4A4
330
9
100
AcDbSymbolTableRecord
100
AcDbRegAppTableRecord
  2
GEVID1208933849
 70
     0
  0
APPID
  5
4A5
330
9
100
AcDbSymbolTableRecord
100
AcDbRegAppTableRecord
  2
GEVID1208933850
 70
     0
  0
APPID
  5
4A6
330
9
100
AcDbSymbolTableRecord
100
AcDbRegAppTableRecord
  2
GEVID1208933851
 70
     0
  0
APPID
  5
4A7
330
9
100
AcDbSymbolTableRecord
100
AcDbRegAppTableRecord
  2
GEVID1208933852
 70
     0
  0
APPID
  5
4A8
330
9
100
AcDbSymbolTableRecord
100
AcDbRegAppTableRecord
  2
GEVID1208933853
 70
     0
  0
APPID
  5
4A9
330
9
100
AcDbSymbolTableRecord
100
AcDbRegAppTableRecord
  2
GEVID1208933854
 70
     0
  0
APPID
  5
4AA
330
9
100
AcDbSymbolTableRecord
100
AcDbRegAppTableRecord
  2
GEVID1208933855
 70
     0
  0
APPID
  5
4AB
330
9
100
AcDbSymbolTableRecord
100
AcDbRegAppTableRecord
  2
GEVID1208933856
 70
     0
  0
APPID
  5
4AC
330
9
100
AcDbSymbolTableRecord
100
AcDbRegAppTableRecord
  2
GEVID1208933857
 70
     0
  0
APPID
  5
4AD
330
9
100
AcDbSymbolTableRecord
100
AcDbRegAppTableRecord
  2
GEVID1208933858
 70
     0
  0
APPID
  5
4AE
330
9
100
AcDbSymbolTableRecord
100
AcDbRegAppTableRecord
  2
GEVID1208933859
 70
     0
  0
APPID
  5
4AF
330
9
100
AcDbSymbolTableRecord
100
AcDbRegAppTableRecord
  2
GEVID1208933860
 70
     0
  0
APPID
  5
4B0
330
9
100
AcDbSymbolTableRecord
100
AcDbRegAppTableRecord
  2
GEVID1208933861
 70
     0
  0
APPID
  5
4B1
330
9
100
AcDbSymbolTableRecord
100
AcDbRegAppTableRecord
  2
GEVID1208933862
 70
     0
  0
APPID
  5
4B2
330
9
100
AcDbSymbolTableRecord
100
AcDbRegAppTableRecord
  2
GEVID1208933863
 70
     0
  0
APPID
  5
4B3
330
9
100
AcDbSymbolTableRecord
100
AcDbRegAppTableRecord
  2
GEVID1208933864
 70
     0
  0
APPID
  5
4B4
330
9
100
AcDbSymbolTableRecord
100
AcDbRegAppTableRecord
  2
GEVID1208933865
 70
     0
  0
APPID
  5
4B5
330
9
100
AcDbSymbolTableRecord
100
AcDbRegAppTableRecord
  2
GEVID1208933866
 70
     0
  0
APPID
  5
4B6
330
9
100
AcDbSymbolTableRecord
100
AcDbRegAppTableRecord
  2
GEVID1208933867
 70
     0
  0
APPID
  5
4B7
330
9
100
AcDbSymbolTableRecord
100
AcDbRegAppTableRecord
  2
GEVID1208933868
 70
     0
  0
APPID
  5
4B8
330
9
100
AcDbSymbolTableRecord
100
AcDbRegAppTableRecord
  2
GEVID1208933869
 70
     0
  0
APPID
  5
4B9
330
9
100
AcDbSymbolTableRecord
100
AcDbRegAppTableRecord
  2
GEVID1208933870
 70
     0
  0
APPID
  5
4BA
330
9
100
AcDbSymbolTableRecord
100
AcDbRegAppTableRecord
  2
GEVID1208933871
 70
     0
  0
APPID
  5
4BB
330
9
100
AcDbSymbolTableRecord
100
AcDbRegAppTableRecord
  2
GEVID1208933872
 70
     0
  0
APPID
  5
4BC
330
9
100
AcDbSymbolTableRecord
100
AcDbRegAppTableRecord
  2
GEVID1208933873
 70
     0
  0
APPID
  5
4BD
330
9
100
AcDbSymbolTableRecord
100
AcDbRegAppTableRecord
  2
GEVID1208933874
 70
     0
  0
APPID
  5
4BE
330
9
100
AcDbSymbolTableRecord
100
AcDbRegAppTableRecord
  2
GEVID1208933875
 70
     0
  0
APPID
  5
4BF
330
9
100
AcDbSymbolTableRecord
100
AcDbRegAppTableRecord
  2
GEVID1208933876
 70
     0
  0
APPID
  5
4C0
330
9
100
AcDbSymbolTableRecord
100
AcDbRegAppTableRecord
  2
ACAD_DSTYLE_DIMRADIAL_EXTENSION
 70
     0
  0
APPID
  5
4C1
330
9
100
AcDbSymbolTableRecord
100
AcDbRegAppTableRecord
  2
GEVID1208999100
 70
     0
  0
APPID
  5
4C2
330
9
100
AcDbSymbolTableRecord
100
AcDbRegAppTableRecord
  2
GEVID1208999101
 70
     0
  0
APPID
  5
4C3
330
9
100
AcDbSymbolTableRecord
100
AcDbRegAppTableRecord
  2
GEVID1208999102
 70
     0
  0
APPID
  5
4C4
330
9
100
AcDbSymbolTableRecord
100
AcDbRegAppTableRecord
  2
GEVID1208999103
 70
     0
  0
APPID
  5
4C5
330
9
100
AcDbSymbolTableRecord
100
AcDbRegAppTableRecord
  2
GEVID1208999105
 70
     0
  0
APPID
  5
4C6
330
9
100
AcDbSymbolTableRecord
100
AcDbRegAppTableRecord
  2
GEVID1208999106
 70
     0
  0
APPID
  5
4C7
330
9
100
AcDbSymbolTableRecord
100
AcDbRegAppTableRecord
  2
GEVID1208999108
 70
     0
  0
APPID
  5
4C8
330
9
100
AcDbSymbolTableRecord
100
AcDbRegAppTableRecord
  2
GEVID1208999109
 70
     0
  0
APPID
  5
4C9
330
9
100
AcDbSymbolTableRecord
100
AcDbRegAppTableRecord
  2
GEVID1208999110
 70
     0
  0
APPID
  5
4CA
330
9
100
AcDbSymbolTableRecord
100
AcDbRegAppTableRecord
  2
GEVID1208999111
 70
     0
  0
APPID
  5
4CB
330
9
100
AcDbSymbolTableRecord
100
AcDbRegAppTableRecord
  2
GEVID1208999112
 70
     0
  0
APPID
  5
4CC
330
9
100
AcDbSymbolTableRecord
100
AcDbRegAppTableRecord
  2
GEVID1208999113
 70
     0
  0
APPID
  5
4CD
330
9
100
AcDbSymbolTableRecord
100
AcDbRegAppTableRecord
  2
GEVID1208999114
 70
     0
  0
APPID
  5
4CE
330
9
100
AcDbSymbolTableRecord
100
AcDbRegAppTableRecord
  2
GEVID1210218799
 70
     0
  0
APPID
  5
4CF
330
9
100
AcDbSymbolTableRecord
100
AcDbRegAppTableRecord
  2
GEVID1210218800
 70
     0
  0
APPID
  5
4D0
330
9
100
AcDbSymbolTableRecord
100
AcDbRegAppTableRecord
  2
GENIUS_GEFWELD_13
 70
     0
  0
APPID
  5
4D1
330
9
100
AcDbSymbolTableRecord
100
AcDbRegAppTableRecord
  2
GENIUS_GENOBJ-F-WELS_13
 70
     0
  0
APPID
  5
4D2
330
9
100
AcDbSymbolTableRecord
100
AcDbRegAppTableRecord
  2
AcadAnnotative
 70
     0
  0
APPID
  5
4D3
330
9
100
AcDbSymbolTableRecord
100
AcDbRegAppTableRecord
  2
GEVID1210145339
 70
     0
  0
APPID
  5
4D4
330
9
100
AcDbSymbolTableRecord
100
AcDbRegAppTableRecord
  2
ACAD_DSTYLE_DIMBREAK
 70
     0
  0
APPID
  5
4D5
330
9
100
AcDbSymbolTableRecord
100
AcDbRegAppTableRecord
  2
GEVID1210145340
 70
     0
  0
APPID
  5
4D6
330
9
100
AcDbSymbolTableRecord
100
AcDbRegAppTableRecord
  2
GEVID1210145341
 70
     0
  0
APPID
  5
4D7
330
9
100
AcDbSymbolTableRecord
100
AcDbRegAppTableRecord
  2
GEVID1210145342
 70
     0
  0
APPID
  5
4D8
330
9
100
AcDbSymbolTableRecord
100
AcDbRegAppTableRecord
  2
GEVID1210145343
 70
     0
  0
APPID
  5
4D9
330
9
100
AcDbSymbolTableRecord
100
AcDbRegAppTableRecord
  2
GEVID1210145344
 70
     0
  0
APPID
  5
4DA
330
9
100
AcDbSymbolTableRecord
100
AcDbRegAppTableRecord
  2
GEVID1210145345
 70
     0
  0
APPID
  5
4DB
330
9
100
AcDbSymbolTableRecord
100
AcDbRegAppTableRecord
  2
GEVID1210152816
 70
     0
  0
APPID
  5
4DC
330
9
100
AcDbSymbolTableRecord
100
AcDbRegAppTableRecord
  2
GEVID1210153850
 70
     0
  0
APPID
  5
4DD
330
9
100
AcDbSymbolTableRecord
100
AcDbRegAppTableRecord
  2
GEVID1210153851
 70
     0
  0
APPID
  5
4DE
330
9
100
AcDbSymbolTableRecord
100
AcDbRegAppTableRecord
  2
GEVID1210153852
 70
     0
  0
APPID
  5
4DF
330
9
100
AcDbSymbolTableRecord
100
AcDbRegAppTableRecord
  2
GEVID1210549898
 70
     0
  0
APPID
  5
4E0
330
9
100
AcDbSymbolTableRecord
100
AcDbRegAppTableRecord
  2
GEVID1210549899
 70
     0
  0
APPID
  5
4E1
330
9
100
AcDbSymbolTableRecord
100
AcDbRegAppTableRecord
  2
GEVID1210549900
 70
     0
  0
APPID
  5
4E2
330
9
100
AcDbSymbolTableRecord
100
AcDbRegAppTableRecord
  2
GEVID1210549901
 70
     0
  0
APPID
  5
4E3
330
9
100
AcDbSymbolTableRecord
100
AcDbRegAppTableRecord
  2
GEVID1210549902
 70
     0
  0
APPID
  5
4E4
330
9
100
AcDbSymbolTableRecord
100
AcDbRegAppTableRecord
  2
GEVID1210549903
 70
     0
  0
APPID
  5
4E5
330
9
100
AcDbSymbolTableRecord
100
AcDbRegAppTableRecord
  2
GEVID1210549904
 70
     0
  0
APPID
  5
4E6
330
9
100
AcDbSymbolTableRecord
100
AcDbRegAppTableRecord
  2
GEVID1210549905
 70
     0
  0
APPID
  5
4E7
330
9
100
AcDbSymbolTableRecord
100
AcDbRegAppTableRecord
  2
GEVID1210549906
 70
     0
  0
APPID
  5
4E8
330
9
100
AcDbSymbolTableRecord
100
AcDbRegAppTableRecord
  2
GEVID1210549907
 70
     0
  0
APPID
  5
4E9
330
9
100
AcDbSymbolTableRecord
100
AcDbRegAppTableRecord
  2
GEVID1210549908
 70
     0
  0
APPID
  5
4EA
330
9
100
AcDbSymbolTableRecord
100
AcDbRegAppTableRecord
  2
GEVID1210549909
 70
     0
  0
APPID
  5
4EB
330
9
100
AcDbSymbolTableRecord
100
AcDbRegAppTableRecord
  2
GEVID1210549910
 70
     0
  0
APPID
  5
4EC
330
9
100
AcDbSymbolTableRecord
100
AcDbRegAppTableRecord
  2
GEVID1210549911
 70
     0
  0
APPID
  5
4ED
330
9
100
AcDbSymbolTableRecord
100
AcDbRegAppTableRecord
  2
GEVID1210549912
 70
     0
  0
APPID
  5
4EE
330
9
100
AcDbSymbolTableRecord
100
AcDbRegAppTableRecord
  2
GEVID1210549913
 70
     0
  0
APPID
  5
4EF
330
9
100
AcDbSymbolTableRecord
100
AcDbRegAppTableRecord
  2
GEVID1210549914
 70
     0
  0
APPID
  5
4F0
330
9
100
AcDbSymbolTableRecord
100
AcDbRegAppTableRecord
  2
GEVID1210549915
 70
     0
  0
APPID
  5
4F1
330
9
100
AcDbSymbolTableRecord
100
AcDbRegAppTableRecord
  2
GEVID1210549916
 70
     0
  0
APPID
  5
4F2
330
9
100
AcDbSymbolTableRecord
100
AcDbRegAppTableRecord
  2
GEVID1210549917
 70
     0
  0
APPID
  5
4F3
330
9
100
AcDbSymbolTableRecord
100
AcDbRegAppTableRecord
  2
GENIUS_GENOBJ-N-CRS_13
 70
     0
  0
APPID
  5
4F4
330
9
100
AcDbSymbolTableRecord
100
AcDbRegAppTableRecord
  2
GEVID1210549918
 70
     0
  0
APPID
  5
4F5
330
9
100
AcDbSymbolTableRecord
100
AcDbRegAppTableRecord
  2
GENIUS_GENOBJ-N-CRC_13
 70
     0
  0
APPID
  5
4F6
330
9
100
AcDbSymbolTableRecord
100
AcDbRegAppTableRecord
  2
GENIUS_GENCRC_14
 70
     0
  0
APPID
  5
4F7
330
9
100
AcDbSymbolTableRecord
100
AcDbRegAppTableRecord
  2
GEVID1210549919
 70
     0
  0
APPID
  5
4F8
330
9
100
AcDbSymbolTableRecord
100
AcDbRegAppTableRecord
  2
GEVID1210549921
 70
     0
  0
APPID
  5
4F9
330
9
100
AcDbSymbolTableRecord
100
AcDbRegAppTableRecord
  2
GEVID1210549922
 70
     0
  0
APPID
  5
4FA
330
9
100
AcDbSymbolTableRecord
100
AcDbRegAppTableRecord
  2
GEVID1210635173
 70
     0
  0
APPID
  5
4FB
330
9
100
AcDbSymbolTableRecord
100
AcDbRegAppTableRecord
  2
GEVID1210635174
 70
     0
  0
APPID
  5
4FC
330
9
100
AcDbSymbolTableRecord
100
AcDbRegAppTableRecord
  2
GEVID1210635175
 70
     0
  0
APPID
  5
4FD
330
9
100
AcDbSymbolTableRecord
100
AcDbRegAppTableRecord
  2
GEVID1210635176
 70
     0
  0
APPID
  5
4FE
330
9
100
AcDbSymbolTableRecord
100
AcDbRegAppTableRecord
  2
GEVID1210635177
 70
     0
  0
APPID
  5
4FF
330
9
100
AcDbSymbolTableRecord
100
AcDbRegAppTableRecord
  2
GEVID1210635178
 70
     0
  0
APPID
  5
500
330
9
100
AcDbSymbolTableRecord
100
AcDbRegAppTableRecord
  2
GENIUS_GENIUS_GENBHEDTMP_13
 70
     0
  0
APPID
  5
501
330
9
100
AcDbSymbolTableRecord
100
AcDbRegAppTableRecord
  2
GEVID1210635179
 70
     0
  0
APPID
  5
502
330
9
100
AcDbSymbolTableRecord
100
AcDbRegAppTableRecord
  2
GEVID1210635180
 70
     0
  0
APPID
  5
503
330
9
100
AcDbSymbolTableRecord
100
AcDbRegAppTableRecord
  2
GEVID1210635181
 70
     0
  0
APPID
  5
504
330
9
100
AcDbSymbolTableRecord
100
AcDbRegAppTableRecord
  2
GEVID1210635182
 70
     0
  0
APPID
  5
505
330
9
100
AcDbSymbolTableRecord
100
AcDbRegAppTableRecord
  2
GEVID1210635184
 70
     0
  0
APPID
  5
506
330
9
100
AcDbSymbolTableRecord
100
AcDbRegAppTableRecord
  2
GEVID1210635185
 70
     0
  0
APPID
  5
507
330
9
100
AcDbSymbolTableRecord
100
AcDbRegAppTableRecord
  2
GEVID1210635186
 70
     0
  0
APPID
  5
508
330
9
100
AcDbSymbolTableRecord
100
AcDbRegAppTableRecord
  2
GEVID1210635187
 70
     0
  0
APPID
  5
509
330
9
100
AcDbSymbolTableRecord
100
AcDbRegAppTableRecord
  2
GEVID1210635188
 70
     0
  0
APPID
  5
50A
330
9
100
AcDbSymbolTableRecord
100
AcDbRegAppTableRecord
  2
GEVID1210635189
 70
     0
  0
APPID
  5
50B
330
9
100
AcDbSymbolTableRecord
100
AcDbRegAppTableRecord
  2
GEVID1210635190
 70
     0
  0
APPID
  5
50C
330
9
100
AcDbSymbolTableRecord
100
AcDbRegAppTableRecord
  2
GENIUS_GENREC_14
 70
     0
  0
APPID
  5
50D
330
9
100
AcDbSymbolTableRecord
100
AcDbRegAppTableRecord
  2
GENIUS_GENOBJ-N-REC_13
 70
     0
  0
APPID
  5
50E
330
9
100
AcDbSymbolTableRecord
100
AcDbRegAppTableRecord
  2
GEVID1210676655
 70
     0
  0
APPID
  5
50F
330
9
100
AcDbSymbolTableRecord
100
AcDbRegAppTableRecord
  2
GEVID1210676656
 70
     0
  0
APPID
  5
510
330
9
100
AcDbSymbolTableRecord
100
AcDbRegAppTableRecord
  2
GEVID1210676657
 70
     0
  0
APPID
  5
511
330
9
100
AcDbSymbolTableRecord
100
AcDbRegAppTableRecord
  2
GEVID1210676659
 70
     0
  0
APPID
  5
512
330
9
100
AcDbSymbolTableRecord
100
AcDbRegAppTableRecord
  2
GEVID1210676660
 70
     0
  0
APPID
  5
513
330
9
100
AcDbSymbolTableRecord
100
AcDbRegAppTableRecord
  2
GEVID1210676661
 70
     0
  0
APPID
  5
514
330
9
100
AcDbSymbolTableRecord
100
AcDbRegAppTableRecord
  2
GEVID1210676662
 70
     0
  0
APPID
  5
515
330
9
100
AcDbSymbolTableRecord
100
AcDbRegAppTableRecord
  2
GEVID1210721646
 70
     0
  0
APPID
  5
516
330
9
100
AcDbSymbolTableRecord
100
AcDbRegAppTableRecord
  2
GEVID1210721647
 70
     0
  0
APPID
  5
517
330
9
100
AcDbSymbolTableRecord
100
AcDbRegAppTableRecord
  2
GEVID1210721648
 70
     0
  0
APPID
  5
518
330
9
100
AcDbSymbolTableRecord
100
AcDbRegAppTableRecord
  2
GEVID1210721649
 70
     0
  0
APPID
  5
519
330
9
100
AcDbSymbolTableRecord
100
AcDbRegAppTableRecord
  2
GEVID1210721650
 70
     0
  0
APPID
  5
51A
330
9
100
AcDbSymbolTableRecord
100
AcDbRegAppTableRecord
  2
GEVID1210721651
 70
     0
  0
APPID
  5
51B
330
9
100
AcDbSymbolTableRecord
100
AcDbRegAppTableRecord
  2
GEVID1210721652
 70
     0
  0
APPID
  5
51C
330
9
100
AcDbSymbolTableRecord
100
AcDbRegAppTableRecord
  2
GEVID1210721653
 70
     0
  0
APPID
  5
51D
330
9
100
AcDbSymbolTableRecord
100
AcDbRegAppTableRecord
  2
PE_URL
 70
     0
  0
APPID
  5
51E
330
9
100
AcDbSymbolTableRecord
100
AcDbRegAppTableRecord
  2
GEVID1210825555
 70
     0
  0
APPID
  5
51F
330
9
100
AcDbSymbolTableRecord
100
AcDbRegAppTableRecord
  2
GEVID1210825556
 70
     0
  0
APPID
  5
520
330
9
100
AcDbSymbolTableRecord
100
AcDbRegAppTableRecord
  2
GEVID1210825557
 70
     0
  0
APPID
  5
521
330
9
100
AcDbSymbolTableRecord
100
AcDbRegAppTableRecord
  2
GEVID1210825558
 70
     0
  0
APPID
  5
522
330
9
100
AcDbSymbolTableRecord
100
AcDbRegAppTableRecord
  2
GEVID1210825559
 70
     0
  0
APPID
  5
523
330
9
100
AcDbSymbolTableRecord
100
AcDbRegAppTableRecord
  2
GEVID1210825560
 70
     0
  0
APPID
  5
524
330
9
100
AcDbSymbolTableRecord
100
AcDbRegAppTableRecord
  2
GEVID1210825561
 70
     0
  0
APPID
  5
525
330
9
100
AcDbSymbolTableRecord
100
AcDbRegAppTableRecord
  2
GEVID1210825562
 70
     0
  0
APPID
  5
526
330
9
100
AcDbSymbolTableRecord
100
AcDbRegAppTableRecord
  2
GEVID1210825563
 70
     0
  0
APPID
  5
527
330
9
100
AcDbSymbolTableRecord
100
AcDbRegAppTableRecord
  2
GEVID1210825564
 70
     0
  0
APPID
  5
528
330
9
100
AcDbSymbolTableRecord
100
AcDbRegAppTableRecord
  2
GEVID1210825565
 70
     0
  0
APPID
  5
529
330
9
100
AcDbSymbolTableRecord
100
AcDbRegAppTableRecord
  2
GEVID1210825566
 70
     0
  0
APPID
  5
52A
330
9
100
AcDbSymbolTableRecord
100
AcDbRegAppTableRecord
  2
GEVID1210825567
 70
     0
  0
APPID
  5
52B
330
9
100
AcDbSymbolTableRecord
100
AcDbRegAppTableRecord
  2
GENIUS_GENOBJ-N-ZOO_13
 70
     0
  0
APPID
  5
52C
330
9
100
AcDbSymbolTableRecord
100
AcDbRegAppTableRecord
  2
GENIUS_GENZOO_17
 70
     0
  0
APPID
  5
52D
330
9
100
AcDbSymbolTableRecord
100
AcDbRegAppTableRecord
  2
ACADANNOTATIVEDECOMPOSITION
 70
     0
  0
APPID
  5
52E
330
9
100
AcDbSymbolTableRecord
100
AcDbRegAppTableRecord
  2
GENIUS_GENOBJ-N-HTC_13
 70
     0
  0
APPID
  5
52F
330
9
100
AcDbSymbolTableRecord
100
AcDbRegAppTableRecord
  2
GENIUS_GENHATCH_13
 70
     0
  0
APPID
  5
530
330
9
100
AcDbSymbolTableRecord
100
AcDbRegAppTableRecord
  2
GEVID1210896020
 70
     0
  0
APPID
  5
531
330
9
100
AcDbSymbolTableRecord
100
AcDbRegAppTableRecord
  2
GEVID1210896021
 70
     0
  0
APPID
  5
532
330
9
100
AcDbSymbolTableRecord
100
AcDbRegAppTableRecord
  2
GEVID1209083540
 70
     0
  0
APPID
  5
533
330
9
100
AcDbSymbolTableRecord
100
AcDbRegAppTableRecord
  2
GEVMK
 70
     0
  0
APPID
  5
534
330
9
100
AcDbSymbolTableRecord
100
AcDbRegAppTableRecord
  2
GEVID1209083542
 70
     0
  0
APPID
  5
535
330
9
100
AcDbSymbolTableRecord
100
AcDbRegAppTableRecord
  2
GEVID1209083543
 70
     0
  0
APPID
  5
536
330
9
100
AcDbSymbolTableRecord
100
AcDbRegAppTableRecord
  2
GEVID1209083544
 70
     0
  0
APPID
  5
537
330
9
100
AcDbSymbolTableRecord
100
AcDbRegAppTableRecord
  2
GEVID1209083545
 70
     0
  0
APPID
  5
538
330
9
100
AcDbSymbolTableRecord
100
AcDbRegAppTableRecord
  2
GEVID1209083546
 70
     0
  0
APPID
  5
539
330
9
100
AcDbSymbolTableRecord
100
AcDbRegAppTableRecord
  2
GEVID1209083547
 70
     0
  0
APPID
  5
53A
330
9
100
AcDbSymbolTableRecord
100
AcDbRegAppTableRecord
  2
GEVID1209083548
 70
     0
  0
APPID
  5
53B
330
9
100
AcDbSymbolTableRecord
100
AcDbRegAppTableRecord
  2
GEVID1209083549
 70
     0
  0
APPID
  5
53C
330
9
100
AcDbSymbolTableRecord
100
AcDbRegAppTableRecord
  2
GEVID1209083550
 70
     0
  0
APPID
  5
53D
330
9
100
AcDbSymbolTableRecord
100
AcDbRegAppTableRecord
  2
GEVID1209083551
 70
     0
  0
APPID
  5
53E
330
9
100
AcDbSymbolTableRecord
100
AcDbRegAppTableRecord
  2
GEVID1209083552
 70
     0
  0
APPID
  5
53F
330
9
100
AcDbSymbolTableRecord
100
AcDbRegAppTableRecord
  2
GEVID1209083553
 70
     0
  0
APPID
  5
540
330
9
100
AcDbSymbolTableRecord
100
AcDbRegAppTableRecord
  2
GEVID1210896022
 70
     0
  0
APPID
  5
541
330
9
100
AcDbSymbolTableRecord
100
AcDbRegAppTableRecord
  2
GEVID1211508364
 70
     0
  0
APPID
  5
542
330
9
100
AcDbSymbolTableRecord
100
AcDbRegAppTableRecord
  2
GEVID1211414908
 70
     0
  0
APPID
  5
543
330
9
100
AcDbSymbolTableRecord
100
AcDbRegAppTableRecord
  2
GEVID1211414909
 70
     0
  0
APPID
  5
544
330
9
100
AcDbSymbolTableRecord
100
AcDbRegAppTableRecord
  2
GEVID1211508359
 70
     0
  0
APPID
  5
545
330
9
100
AcDbSymbolTableRecord
100
AcDbRegAppTableRecord
  2
GEVID1211508360
 70
     0
  0
APPID
  5
546
330
9
100
AcDbSymbolTableRecord
100
AcDbRegAppTableRecord
  2
GEVID1211508361
 70
     0
  0
APPID
  5
547
330
9
100
AcDbSymbolTableRecord
100
AcDbRegAppTableRecord
  2
GEVID1211508362
 70
     0
  0
APPID
  5
548
330
9
100
AcDbSymbolTableRecord
100
AcDbRegAppTableRecord
  2
GEVID1211508363
 70
     0
  0
APPID
  5
549
330
9
100
AcDbSymbolTableRecord
100
AcDbRegAppTableRecord
  2
GEVID1211878469
 70
     0
  0
APPID
  5
54A
330
9
100
AcDbSymbolTableRecord
100
AcDbRegAppTableRecord
  2
GEVID1212642819
 70
     0
  0
APPID
  5
54B
330
9
100
AcDbSymbolTableRecord
100
AcDbRegAppTableRecord
  2
GEVID1212642820
 70
     0
  0
APPID
  5
54C
330
9
100
AcDbSymbolTableRecord
100
AcDbRegAppTableRecord
  2
GEVID1212642821
 70
     0
  0
APPID
  5
54D
330
9
100
AcDbSymbolTableRecord
100
AcDbRegAppTableRecord
  2
GEVID1212642822
 70
     0
  0
APPID
  5
54E
330
9
100
AcDbSymbolTableRecord
100
AcDbRegAppTableRecord
  2
GEVID1212642823
 70
     0
  0
APPID
  5
54F
330
9
100
AcDbSymbolTableRecord
100
AcDbRegAppTableRecord
  2
GEVID1212642825
 70
     0
  0
APPID
  5
550
330
9
100
AcDbSymbolTableRecord
100
AcDbRegAppTableRecord
  2
GEVID1212642826
 70
     0
  0
APPID
  5
551
330
9
100
AcDbSymbolTableRecord
100
AcDbRegAppTableRecord
  2
GEVID1212642827
 70
     0
  0
APPID
  5
552
330
9
100
AcDbSymbolTableRecord
100
AcDbRegAppTableRecord
  2
GEVID1212642828
 70
     0
  0
APPID
  5
553
330
9
100
AcDbSymbolTableRecord
100
AcDbRegAppTableRecord
  2
GEVID1212642831
 70
     0
  0
APPID
  5
554
330
9
100
AcDbSymbolTableRecord
100
AcDbRegAppTableRecord
  2
GEVID1212642834
 70
     0
  0
APPID
  5
555
330
9
100
AcDbSymbolTableRecord
100
AcDbRegAppTableRecord
  2
GEVID1212642835
 70
     0
  0
APPID
  5
556
330
9
100
AcDbSymbolTableRecord
100
AcDbRegAppTableRecord
  2
GEVID1212642836
 70
     0
  0
APPID
  5
557
330
9
100
AcDbSymbolTableRecord
100
AcDbRegAppTableRecord
  2
GEVID1212642837
 70
     0
  0
APPID
  5
558
330
9
100
AcDbSymbolTableRecord
100
AcDbRegAppTableRecord
  2
GEVID1212642839
 70
     0
  0
APPID
  5
559
330
9
100
AcDbSymbolTableRecord
100
AcDbRegAppTableRecord
  2
GEVID1212642840
 70
     0
  0
APPID
  5
55A
330
9
100
AcDbSymbolTableRecord
100
AcDbRegAppTableRecord
  2
GEVID1212642841
 70
     0
  0
APPID
  5
55B
330
9
100
AcDbSymbolTableRecord
100
AcDbRegAppTableRecord
  2
GEVID1212655312
 70
     0
  0
APPID
  5
55C
330
9
100
AcDbSymbolTableRecord
100
AcDbRegAppTableRecord
  2
GEVID1212655313
 70
     0
  0
APPID
  5
55D
330
9
100
AcDbSymbolTableRecord
100
AcDbRegAppTableRecord
  2
GEVID1212656533
 70
     0
  0
APPID
  5
55E
330
9
100
AcDbSymbolTableRecord
100
AcDbRegAppTableRecord
  2
GEVID1212656534
 70
     0
  0
APPID
  5
55F
330
9
100
AcDbSymbolTableRecord
100
AcDbRegAppTableRecord
  2
GEVID1212656535
 70
     0
  0
APPID
  5
560
330
9
100
AcDbSymbolTableRecord
100
AcDbRegAppTableRecord
  2
GEVID1212656536
 70
     0
  0
APPID
  5
561
330
9
100
AcDbSymbolTableRecord
100
AcDbRegAppTableRecord
  2
GEVID1212656538
 70
     0
  0
APPID
  5
562
330
9
100
AcDbSymbolTableRecord
100
AcDbRegAppTableRecord
  2
GEVID1212656541
 70
     0
  0
APPID
  5
563
330
9
100
AcDbSymbolTableRecord
100
AcDbRegAppTableRecord
  2
GEVID1212656543
 70
     0
  0
APPID
  5
564
330
9
100
AcDbSymbolTableRecord
100
AcDbRegAppTableRecord
  2
GENIUS_GENOBJ-F-PFASSM_13
 70
     0
  0
APPID
  5
565
330
9
100
AcDbSymbolTableRecord
100
AcDbRegAppTableRecord
  2
GEVID1212656544
 70
     0
  0
APPID
  5
566
330
9
100
AcDbSymbolTableRecord
100
AcDbRegAppTableRecord
  2
GEVID1212656545
 70
     0
  0
APPID
  5
567
330
9
100
AcDbSymbolTableRecord
100
AcDbRegAppTableRecord
  2
GEVID1212656546
 70
     0
  0
APPID
  5
568
330
9
100
AcDbSymbolTableRecord
100
AcDbRegAppTableRecord
  2
GEVID1212656547
 70
     0
  0
APPID
  5
569
330
9
100
AcDbSymbolTableRecord
100
AcDbRegAppTableRecord
  2
GEVID1212656548
 70
     0
  0
APPID
  5
56A
330
9
100
AcDbSymbolTableRecord
100
AcDbRegAppTableRecord
  2
GEVID1212656549
 70
     0
  0
APPID
  5
56B
330
9
100
AcDbSymbolTableRecord
100
AcDbRegAppTableRecord
  2
GEVID1212656550
 70
     0
  0
APPID
  5
56C
330
9
100
AcDbSymbolTableRecord
100
AcDbRegAppTableRecord
  2
GEVID1212656552
 70
     0
  0
APPID
  5
56D
330
9
100
AcDbSymbolTableRecord
100
AcDbRegAppTableRecord
  2
GEVID1212656553
 70
     0
  0
APPID
  5
56E
330
9
100
AcDbSymbolTableRecord
100
AcDbRegAppTableRecord
  2
GEVID1212656554
 70
     0
  0
APPID
  5
56F
330
9
100
AcDbSymbolTableRecord
100
AcDbRegAppTableRecord
  2
GEVID1212656555
 70
     0
  0
APPID
  5
570
330
9
100
AcDbSymbolTableRecord
100
AcDbRegAppTableRecord
  2
GEVID1212656556
 70
     0
  0
APPID
  5
571
330
9
100
AcDbSymbolTableRecord
100
AcDbRegAppTableRecord
  2
GEVID1212656557
 70
     0
  0
APPID
  5
572
330
9
100
AcDbSymbolTableRecord
100
AcDbRegAppTableRecord
  2
GEVID1212656559
 70
     0
  0
APPID
  5
573
330
9
100
AcDbSymbolTableRecord
100
AcDbRegAppTableRecord
  2
GEVID1212656560
 70
     0
  0
APPID
  5
574
330
9
100
AcDbSymbolTableRecord
100
AcDbRegAppTableRecord
  2
GEVID1212656561
 70
     0
  0
APPID
  5
575
330
9
100
AcDbSymbolTableRecord
100
AcDbRegAppTableRecord
  2
GEVID1212656562
 70
     0
  0
APPID
  5
576
330
9
100
AcDbSymbolTableRecord
100
AcDbRegAppTableRecord
  2
GEVID1212656563
 70
     0
  0
APPID
  5
577
330
9
100
AcDbSymbolTableRecord
100
AcDbRegAppTableRecord
  2
GEVID1212711781
 70
     0
  0
APPID
  5
578
330
9
100
AcDbSymbolTableRecord
100
AcDbRegAppTableRecord
  2
GEVID1212711782
 70
     0
  0
APPID
  5
579
330
9
100
AcDbSymbolTableRecord
100
AcDbRegAppTableRecord
  2
GEVID1212711783
 70
     0
  0
APPID
  5
57A
330
9
100
AcDbSymbolTableRecord
100
AcDbRegAppTableRecord
  2
GEVID1212711784
 70
     0
  0
APPID
  5
57B
330
9
100
AcDbSymbolTableRecord
100
AcDbRegAppTableRecord
  2
GEVID1212711788
 70
     0
  0
APPID
  5
57C
330
9
100
AcDbSymbolTableRecord
100
AcDbRegAppTableRecord
  2
GEVID1212711789
 70
     0
  0
APPID
  5
57D
330
9
100
AcDbSymbolTableRecord
100
AcDbRegAppTableRecord
  2
GEVID1212711790
 70
     0
  0
APPID
  5
57E
330
9
100
AcDbSymbolTableRecord
100
AcDbRegAppTableRecord
  2
GEVID1212711791
 70
     0
  0
APPID
  5
57F
330
9
100
AcDbSymbolTableRecord
100
AcDbRegAppTableRecord
  2
GEVID1212711792
 70
     0
  0
APPID
  5
580
330
9
100
AcDbSymbolTableRecord
100
AcDbRegAppTableRecord
  2
GEVID1212711793
 70
     0
  0
APPID
  5
581
330
9
100
AcDbSymbolTableRecord
100
AcDbRegAppTableRecord
  2
GEVID1212711794
 70
     0
  0
APPID
  5
582
330
9
100
AcDbSymbolTableRecord
100
AcDbRegAppTableRecord
  2
GEVID1212711795
 70
     0
  0
APPID
  5
583
330
9
100
AcDbSymbolTableRecord
100
AcDbRegAppTableRecord
  2
GEVID1212711797
 70
     0
  0
APPID
  5
584
330
9
100
AcDbSymbolTableRecord
100
AcDbRegAppTableRecord
  2
GEVID1212711798
 70
     0
  0
APPID
  5
585
330
9
100
AcDbSymbolTableRecord
100
AcDbRegAppTableRecord
  2
GEVID1212711799
 70
     0
  0
APPID
  5
586
330
9
100
AcDbSymbolTableRecord
100
AcDbRegAppTableRecord
  2
GEVID1212711800
 70
     0
  0
APPID
  5
587
330
9
100
AcDbSymbolTableRecord
100
AcDbRegAppTableRecord
  2
GEVID1212711801
 70
     0
  0
APPID
  5
588
330
9
100
AcDbSymbolTableRecord
100
AcDbRegAppTableRecord
  2
GEVID1212711802
 70
     0
  0
APPID
  5
589
330
9
100
AcDbSymbolTableRecord
100
AcDbRegAppTableRecord
  2
GEVID1212711803
 70
     0
  0
APPID
  5
58A
330
9
100
AcDbSymbolTableRecord
100
AcDbRegAppTableRecord
  2
GEVID1212711804
 70
     0
  0
APPID
  5
58B
330
9
100
AcDbSymbolTableRecord
100
AcDbRegAppTableRecord
  2
GEVID1212711805
 70
     0
  0
APPID
  5
58C
330
9
100
AcDbSymbolTableRecord
100
AcDbRegAppTableRecord
  2
GEVID1212711806
 70
     0
  0
APPID
  5
58D
330
9
100
AcDbSymbolTableRecord
100
AcDbRegAppTableRecord
  2
GEVID1212711807
 70
     0
  0
APPID
  5
58E
330
9
100
AcDbSymbolTableRecord
100
AcDbRegAppTableRecord
  2
GEVID1212711808
 70
     0
  0
APPID
  5
58F
330
9
100
AcDbSymbolTableRecord
100
AcDbRegAppTableRecord
  2
GEVID1212711809
 70
     0
  0
APPID
  5
590
330
9
100
AcDbSymbolTableRecord
100
AcDbRegAppTableRecord
  2
GEVID1212711810
 70
     0
  0
APPID
  5
591
330
9
100
AcDbSymbolTableRecord
100
AcDbRegAppTableRecord
  2
GEVID1212711811
 70
     0
  0
APPID
  5
90A
330
9
100
AcDbSymbolTableRecord
100
AcDbRegAppTableRecord
  2
GENIUS_GENTRA_14
 70
     0
  0
APPID
  5
919
330
9
100
AcDbSymbolTableRecord
100
AcDbRegAppTableRecord
  2
GENIUS_GENOBJ-N-TIT_13
 70
     0
  0
APPID
  5
91A
330
9
100
AcDbSymbolTableRecord
100
AcDbRegAppTableRecord
  2
GENIUS_GENTITLE_13
 70
     0
  0
APPID
  5
949
330
9
100
AcDbSymbolTableRecord
100
AcDbRegAppTableRecord
  2
GENIUS_GENBLLY_14
 70
     0
  0
APPID
  5
DDD
330
9
100
AcDbSymbolTableRecord
100
AcDbRegAppTableRecord
  2
GEVID1213165152
 70
     0
  0
APPID
  5
12F9
330
9
100
AcDbSymbolTableRecord
100
AcDbRegAppTableRecord
  2
AcDbDynamicBlockTrueName
 70
     0
  0
APPID
  5
12FA
330
9
100
AcDbSymbolTableRecord
100
AcDbRegAppTableRecord
  2
ACDBBLOCKREPETAG
 70
     0
  0
APPID
  5
1C15
330
9
100
AcDbSymbolTableRecord
100
AcDbRegAppTableRecord
  2
GEVID1214872427
 70
     0
  0
APPID
  5
1C2A
330
9
100
AcDbSymbolTableRecord
100
AcDbRegAppTableRecord
  2
GEVID1214872428
 70
     0
  0
APPID
  5
1C2F
330
9
100
AcDbSymbolTableRecord
100
AcDbRegAppTableRecord
  2
GEVID1214872429
 70
     0
  0
APPID
  5
1C33
330
9
100
AcDbSymbolTableRecord
100
AcDbRegAppTableRecord
  2
GEVID1214872430
 70
     0
  0
APPID
  5
1C3F
330
9
100
AcDbSymbolTableRecord
100
AcDbRegAppTableRecord
  2
GEVID1214872432
 70
     0
  0
APPID
  5
1C4E
330
9
100
AcDbSymbolTableRecord
100
AcDbRegAppTableRecord
  2
GEVID1214872433
 70
     0
  0
APPID
  5
20DC
330
9
100
AcDbSymbolTableRecord
100
AcDbRegAppTableRecord
  2
AcDbDynamicBlockGUID
 70
     0
  0
APPID
  5
20FD
330
9
100
AcDbSymbolTableRecord
100
AcDbRegAppTableRecord
  2
GENIUS_GENOBJ-N-REV_13
 70
     0
  0
APPID
  5
20FE
330
9
100
AcDbSymbolTableRecord
100
AcDbRegAppTableRecord
  2
GENIUS_GENOBJ-N-RSSYM_13
 70
     0
  0
APPID
  5
20FF
330
9
100
AcDbSymbolTableRecord
100
AcDbRegAppTableRecord
  2
GENIUS_GENSYMENT_13
 70
     0
  0
APPID
  5
2100
330
9
100
AcDbSymbolTableRecord
100
AcDbRegAppTableRecord
  2
GENIUS_GENSCSYM_13
 70
     0
  0
ENDTAB
  0
TABLE
  2
DIMSTYLE
  5
A
330
0
100
AcDbSymbolTable
 70
    30
100
AcDbDimStyleTable
 71
     1
340
5AB
  0
DIMSTYLE
105
5AB
330
A
100
AcDbSymbolTableRecord
100
AcDbDimStyleTableRecord
  2
SEISA
 70
     0
  4
"
 41
2.5
 42
0.625
 43
10.0
 44
0.625
 47
0.1
 48
0.1
 73
     0
 74
     0
 77
     3
 78
     8
 79
     2
 90
     1
140
3.5
141
0.0
143
0.0393701
146
0.71
147
1.5
172
     1
176
     3
177
     3
178
     3
271
     2
272
     3
283
     0
286
     8
340
5D5
341
69
342
69
371
    -1
372
    -1
1001
ACAD_DSTYLE_DIMJAG
1070
   388
1040
1.5
1001
ACAD_DSTYLE_DIMTALN
1070
   392
1070
     1
  0
DIMSTYLE
105
5E9
102
{ACAD_REACTORS
330
4BE1
330
4C86
330
4C9E
330
4CBA
330
4D3A
330
4D64
330
4D7C
330
4E12
330
4E34
330
4E88
330
4ED0
330
677D
330
6824
330
6CDB
330
6D05
102
}
330
A
100
AcDbSymbolTableRecord
100
AcDbDimStyleTableRecord
  2
SEISA$0
 70
     0
  4
"
 41
2.5
 42
0.625
 43
10.0
 44
0.625
 47
0.1
 48
0.1
 73
     0
 74
     0
 77
     3
 78
     8
 79
     2
 90
     1
140
3.5
141
0.0
143
0.0393701
146
0.71
147
1.5
172
     1
176
     3
177
     3
178
     3
271
     2
272
     3
283
     0
286
     8
340
5D5
341
69
342
69
371
    -1
372
    -1
  0
DIMSTYLE
105
6FE7
330
A
100
AcDbSymbolTableRecord
100
AcDbDimStyleTableRecord
  2
AM_ISO
 70
     0
  4
"
 41
2.5
 42
1.0
 43
10.0
 44
1.0
 47
0.1
 48
0.1
 73
     0
 74
     0
 77
     1
 78
     8
 79
     2
 90
     1
140
3.5
141
0.0
143
0.0393701
146
0.71
147
1.5
172
     1
176
   256
177
   256
178
     2
271
     2
272
     3
274
     4
283
     0
284
     8
340
11
371
    -1
372
    -1
  0
DIMSTYLE
105
6FE8
330
A
100
AcDbSymbolTableRecord
100
AcDbDimStyleTableRecord
  2
AM_ISO$3
 70
     0
  4
"
 41
2.5
 42
1.0
 43
10.0
 44
1.0
 47
0.1
 48
0.1
 73
     0
 77
     1
 78
     8
 79
     2
 90
     1
140
3.5
141
0.0
143
0.0393701
146
0.71
147
1.5
176
   256
177
   256
178
     2
271
     2
272
     3
274
     4
283
     0
284
     8
288
     1
289
     0
340
11
371
    -1
372
    -1
  0
DIMSTYLE
105
6FE9
330
A
100
AcDbSymbolTableRecord
100
AcDbDimStyleTableRecord
  2
AM_ISO$4
 70
     0
  4
"
 41
2.5
 42
1.0
 43
10.0
 44
1.0
 47
0.1
 48
0.1
 73
     0
 77
     1
 78
     8
 79
     2
 90
     1
140
3.5
141
0.0
143
0.0393701
146
0.71
147
1.5
176
   256
177
   256
178
     2
271
     2
272
     3
274
     4
283
     0
284
     8
288
     1
289
     0
340
11
371
    -1
372
    -1
  0
DIMSTYLE
105
6FEA
330
A
100
AcDbSymbolTableRecord
100
AcDbDimStyleTableRecord
  2
AM_ISO$6
 70
     0
  4
"
 41
2.5
 42
1.0
 43
10.0
 44
1.0
 47
0.1
 48
0.1
 73
     0
 74
     0
 78
     8
 79
     2
 90
     1
140
3.5
141
0.0
143
0.0393701
146
0.71
147
1.5
172
     1
176
   256
177
   256
178
     2
271
     2
272
     3
274
     4
283
     0
284
     8
340
11
371
    -1
372
    -1
  0
DIMSTYLE
105
6FEB
330
A
100
AcDbSymbolTableRecord
100
AcDbDimStyleTableRecord
  2
AM_ISO$7
 70
     0
  4
"
 41
2.5
 42
1.0
 43
10.0
 44
1.0
 47
0.1
 48
0.1
 73
     0
 74
     0
 77
     1
 78
     8
 79
     2
 90
     1
140
5.0
141
0.0
143
0.0393701
146
0.71
147
1.5
172
     1
176
   256
177
   256
178
     2
271
     2
272
     3
274
     4
283
     0
284
     8
340
11
371
    -1
372
    -1
  0
DIMSTYLE
105
6FEC
330
A
100
AcDbSymbolTableRecord
100
AcDbDimStyleTableRecord
  2
AM_ISO$SF
 70
     0
  4
"
 41
2.5
 42
1.0
 43
10.0
 44
1.0
 47
0.1
 48
0.1
 73
     0
 74
     0
 75
     1
 76
     1
 77
     1
 78
     8
 79
     2
 90
     1
140
3.5
141
0.0
143
0.0393701
146
0.71
147
1.5
172
     1
176
   256
177
   256
178
     2
271
     2
272
     3
274
     4
283
     0
284
     8
340
11
371
    -1
372
    -1
  0
DIMSTYLE
105
6FED
330
A
100
AcDbSymbolTableRecord
100
AcDbDimStyleTableRecord
  2
AM_ISO$SH
 70
     0
  4
"
 41
2.5
 42
1.0
 43
10.0
 44
1.0
 47
0.1
 48
0.1
 73
     0
 74
     0
 75
     1
 76
     1
 77
     1
 78
     8
 79
     2
 90
     1
140
3.5
141
0.0
143
0.0393701
144
2.0
146
0.71
147
1.5
172
     1
173
     1
176
   256
177
   256
178
     2
271
     2
272
     3
274
     4
283
     0
284
     8
340
11
343
74
371
    -1
372
    -1
  0
ENDTAB
  0
TABLE
  2
BLOCK_RECORD
  5
1
330
0
100
AcDbSymbolTable
 70
    30
  0
BLOCK_RECORD
  5
1F
102
{ACAD_XDICTIONARY
360
82
102
}
330
1
100
AcDbSymbolTableRecord
100
AcDbBlockTableRecord
  2
*Model_Space
340
22
 70
     0
280
     1
281
     0
  0
BLOCK_RECORD
  5
1B
330
1
100
AcDbSymbolTableRecord
100
AcDbBlockTableRecord
  2
*Paper_Space
340
1E
 70
     0
280
     1
281
     0
  0
BLOCK_RECORD
  5
23
330
1
100
AcDbSymbolTableRecord
100
AcDbBlockTableRecord
  2
*Paper_Space0
340
26
 70
     0
280
     1
281
     0
  0
BLOCK_RECORD
  5
69
330
1
100
AcDbSymbolTableRecord
100
AcDbBlockTableRecord
  2
_Open30
340
0
102
{BLKREFS
331
5701
331
5702
331
5720
331
5721
331
572B
331
572C
331
5734
331
5735
331
5744
331
5745
331
574D
331
574E
331
5756
331
5757
331
575F
331
5760
331
5768
331
5769
331
5795
331
5796
331
67BC
331
67BD
331
6C1E
331
6C1F
331
6D44
331
6D45
331
6D50
331
6D51
331
6D58
331
6D59
102
}
 70
     0
280
     1
281
     0
  0
BLOCK_RECORD
  5
74
330
1
100
AcDbSymbolTableRecord
100
AcDbBlockTableRecord
  2
GENAXEH
340
0
 70
     0
280
     1
281
     0
  0
BLOCK_RECORD
  5
44DC
102
{ACAD_XDICTIONARY
360
45D9
102
}
330
1
100
AcDbSymbolTableRecord
100
AcDbBlockTableRecord
  2
ロッカクアナツキプラグ R1／8
340
0
310
2800000020000000200000000100080000000000000400000000000000000000000000000000000000000000000080000080000000808000800000008000800080800000C0C0C000C0DCC000F0CAA6000020400000206000002080000020A0000020C0000020E00000400000004020000040400000406000004080000040A0
310
000040C0000040E00000600000006020000060400000606000006080000060A0000060C0000060E00000800000008020000080400000806000008080000080A0000080C0000080E00000A0000000A0200000A0400000A0600000A0800000A0A00000A0C00000A0E00000C0000000C0200000C0400000C0600000C0800000C0
310
A00000C0C00000C0E00000E0000000E0200000E0400000E0600000E0800000E0A00000E0C00000E0E00040000000400020004000400040006000400080004000A0004000C0004000E00040200000402020004020400040206000402080004020A0004020C0004020E000404000004040200040404000404060004040800040
310
40A0004040C0004040E00040600000406020004060400040606000406080004060A0004060C0004060E00040800000408020004080400040806000408080004080A0004080C0004080E00040A0000040A0200040A0400040A0600040A0800040A0A00040A0C00040A0E00040C0000040C0200040C0400040C0600040C08000
310
40C0A00040C0C00040C0E00040E0000040E0200040E0400040E0600040E0800040E0A00040E0C00040E0E00080000000800020008000400080006000800080008000A0008000C0008000E00080200000802020008020400080206000802080008020A0008020C0008020E00080400000804020008040400080406000804080
310
008040A0008040C0008040E00080600000806020008060400080606000806080008060A0008060C0008060E00080800000808020008080400080806000808080008080A0008080C0008080E00080A0000080A0200080A0400080A0600080A0800080A0A00080A0C00080A0E00080C0000080C0200080C0400080C0600080C0
310
800080C0A00080C0C00080C0E00080E0000080E0200080E0400080E0600080E0800080E0A00080E0C00080E0E000C0000000C0002000C0004000C0006000C0008000C000A000C000C000C000E000C0200000C0202000C0204000C0206000C0208000C020A000C020C000C020E000C0400000C0402000C0404000C0406000C0
310
408000C040A000C040C000C040E000C0600000C0602000C0604000C0606000C0608000C060A000C060C000C060E000C0800000C0802000C0804000C0806000C0808000C080A000C080C000C080E000C0A00000C0A02000C0A04000C0A06000C0A08000C0A0A000C0A0C000C0A0E000C0C00000C0C02000C0C04000C0C06000
310
C0C08000C0C0A000F0FBFF00A4A0A000808080000000FF0000FF000000FFFF00FF000000FF00FF00FFFF0000FFFFFF00000000000000000000000000000000000000000000000000000000000000000000000000000000000000000000000000F9000000000000000000000000000000000000000000000000000000000000
310
00F900000000000000000000000000000000000000000000000000000000000000F900000000000000000000000000000000000000000000000000000000000000F900000000000000000000000000000000000000000000000000000000000000F90000000000000000000000000000000000000000000000000000000000
310
0000F900000000000000000000000000000000000000000000000000000000FFFFFFFFFFFF000000000000000000000000000000000000000000000000FFFFFEFEFEFEFEFEFFFF0000000000000000000000000000000000000000FFFFFEFE000000F9000000FEFFFF000000000000000000000000000000000000FFFE0000
310
000000F900000000FE00FF00000000000000000000000000000000FFFE000000000000FF0000000000FEFF00000000000000000000000000000000FF0000000000FFFFF9FFFF00000000FEFF0000000000000000000000000000FFFE000000FFFF0000F90000FF000000FEFF0000000000000000000000000000FFFE000000
310
FF000000F90000FF000000FEFF0000000000000000000000000000FFFE000000FF000000F90000FF000000FEFF0000000000000000F9F9F9F9F9F9FFF9F9F9F9FFF9F9F9F9F9F9FFF9F9F9F9FFF9F9F9F9F9F90000000000000000FFFE000000FF000000F90000FF000000FEFF0000000000000000000000000000FFFE0000
310
00FF000000F90000FF000000FEFF000000000000000000000000000000FF00000000FFFF00F9FFFF00000000FEFF000000000000000000000000000000FFFE0000000000FFFF0000000000FEFF0000000000000000000000000000000000FFFE0000000000F900000000FE00FF0000000000000000000000000000000000FF
310
00FE00000000F9000000FE00FF00000000000000000000000000000000000000FFFFFEFEFEFEFEFEFEFEFFFF00000000000000000000000000000000000000000000FFFFFFFFFFFFFFFF00000000000000000000000000000000000000000000000000000000F9000000000000000000000000000000000000000000000000
310
00000000000000F900000000000000000000000000000000000000000000000000000000000000F900000000000000000000000000000000000000000000000000000000000000F900000000000000000000000000000000000000000000000000000000000000F90000000000000000000000000000000000000000000000
310
0000000000000000F90000000000000000000000000000000000000000000000000000000000000000000000000000000000000000000000
102
{BLKREFS
331
45B7
102
}
 70
     4
280
     1
281
     0
  0
BLOCK_RECORD
  5
4575
102
{ACAD_XDICTIONARY
360
465D
102
}
330
1
100
AcDbSymbolTableRecord
100
AcDbBlockTableRecord
  2
ケースＡ SSM100
340
0
310
2800000020000000200000000100080000000000000400000000000000000000000000000000000000000000000080000080000000808000800000008000800080800000C0C0C000C0DCC000F0CAA6000020400000206000002080000020A0000020C0000020E00000400000004020000040400000406000004080000040A0
310
000040C0000040E00000600000006020000060400000606000006080000060A0000060C0000060E00000800000008020000080400000806000008080000080A0000080C0000080E00000A0000000A0200000A0400000A0600000A0800000A0A00000A0C00000A0E00000C0000000C0200000C0400000C0600000C0800000C0
310
A00000C0C00000C0E00000E0000000E0200000E0400000E0600000E0800000E0A00000E0C00000E0E00040000000400020004000400040006000400080004000A0004000C0004000E00040200000402020004020400040206000402080004020A0004020C0004020E000404000004040200040404000404060004040800040
310
40A0004040C0004040E00040600000406020004060400040606000406080004060A0004060C0004060E00040800000408020004080400040806000408080004080A0004080C0004080E00040A0000040A0200040A0400040A0600040A0800040A0A00040A0C00040A0E00040C0000040C0200040C0400040C0600040C08000
310
40C0A00040C0C00040C0E00040E0000040E0200040E0400040E0600040E0800040E0A00040E0C00040E0E00080000000800020008000400080006000800080008000A0008000C0008000E00080200000802020008020400080206000802080008020A0008020C0008020E00080400000804020008040400080406000804080
310
008040A0008040C0008040E00080600000806020008060400080606000806080008060A0008060C0008060E00080800000808020008080400080806000808080008080A0008080C0008080E00080A0000080A0200080A0400080A0600080A0800080A0A00080A0C00080A0E00080C0000080C0200080C0400080C0600080C0
310
800080C0A00080C0C00080C0E00080E0000080E0200080E0400080E0600080E0800080E0A00080E0C00080E0E000C0000000C0002000C0004000C0006000C0008000C000A000C000C000C000E000C0200000C0202000C0204000C0206000C0208000C020A000C020C000C020E000C0400000C0402000C0404000C0406000C0
310
408000C040A000C040C000C040E000C0600000C0602000C0604000C0606000C0608000C060A000C060C000C060E000C0800000C0802000C0804000C0806000C0808000C080A000C080C000C080E000C0A00000C0A02000C0A04000C0A06000C0A08000C0A0A000C0A0C000C0A0E000C0C00000C0C02000C0C04000C0C06000
310
C0C08000C0C0A000F0FBFF00A4A0A000808080000000FF0000FF000000FFFF00FF000000FF00FF00FFFF0000FFFFFF000000000000000000000000000000000000000000000000000000000000000000000000000000000000000000FFFFFFFFFFFF0000000000000000000000000000000000000000000000000000FF0000
310
0000FF0000000000000000000000000000000000000000000000000000FF00000000FF0000000000000000000000000000000000000000000000000000FF00000000FF0000000000000000000000000000000000000000000000000000FF00000000FF0000000000000000000000000000000000000000000000000000FF00
310
000000FFFFFFFFFF00000000000000000000000000000000000000000000FF0000F900FF00000000FF000000000000000000000000000000000000000000FFFFFFFFFFFF00000000FF000000000000000000000000000000000000000000F9FFFFFFFFF900000000FFFFFFFF000000000000000000000000000000000000FF
310
FFFFFFFFFF00000000FF000000000000000000000000000000000000000000FF00FFFF00FF00000000FF000000000000000000000000000000000000000000FF0000F900FF00000000FF000000000000000000000000000000000000000000FF00000000FF00000000FF000000000000000000000000000000000000000000
310
FF00000000FF00000000FF000000000000000000000000000000000000000000FF00000000FF00000000FF000000000000000000000000000000000000000000000000000000000000000000000000000000000000000000000000000000000000000000000000000000000000000000000000000000000000000000000000
310
00000000000000000000000000000000000000000000000000000000000000000000000000000000000000000000000000000000000000000000000000000000000000000000000000000000000000000000000000000000000000000000000000000000000000000000000000000000000000000000000000000000000000
310
000000000000FF0000FFFFFFFF000000000000000000000000000000000000000000FF0000F9FFF9A4FFFFFFFF000000000000000000000000000000000000000000FFFFFFFFFFFFFFFF0000FF000000000000000000000000000000000000000000FFFF000000FFFFFFFFFF00000000000000000000000000000000000000
310
000000FFFF000000FF0000000000000000000000000000000000000000000000000000FFFFFFFFFFFF0000000000000000000000000000000000000000F9F9F9F9F9F9F9F9F9F9F9FFF9F9F9F900000000000000000000000000000000000000000000FFFFFFFFFFFF00000000000000000000000000000000000000000000
310
00000000FFFFFFFFFFFF00000000000000000000000000000000000000000000000000000000000000000000000000000000000000000000
102
{BLKREFS
331
45B8
102
}
 70
     4
280
     1
281
     0
  0
BLOCK_RECORD
  5
46D4
102
{ACAD_XDICTIONARY
360
4788
102
}
330
1
100
AcDbSymbolTableRecord
100
AcDbBlockTableRecord
  2
ケースＢ SSM100
340
0
310
2800000020000000200000000100080000000000000400000000000000000000000000000000000000000000000080000080000000808000800000008000800080800000C0C0C000C0DCC000F0CAA6000020400000206000002080000020A0000020C0000020E00000400000004020000040400000406000004080000040A0
310
000040C0000040E00000600000006020000060400000606000006080000060A0000060C0000060E00000800000008020000080400000806000008080000080A0000080C0000080E00000A0000000A0200000A0400000A0600000A0800000A0A00000A0C00000A0E00000C0000000C0200000C0400000C0600000C0800000C0
310
A00000C0C00000C0E00000E0000000E0200000E0400000E0600000E0800000E0A00000E0C00000E0E00040000000400020004000400040006000400080004000A0004000C0004000E00040200000402020004020400040206000402080004020A0004020C0004020E000404000004040200040404000404060004040800040
310
40A0004040C0004040E00040600000406020004060400040606000406080004060A0004060C0004060E00040800000408020004080400040806000408080004080A0004080C0004080E00040A0000040A0200040A0400040A0600040A0800040A0A00040A0C00040A0E00040C0000040C0200040C0400040C0600040C08000
310
40C0A00040C0C00040C0E00040E0000040E0200040E0400040E0600040E0800040E0A00040E0C00040E0E00080000000800020008000400080006000800080008000A0008000C0008000E00080200000802020008020400080206000802080008020A0008020C0008020E00080400000804020008040400080406000804080
310
008040A0008040C0008040E00080600000806020008060400080606000806080008060A0008060C0008060E00080800000808020008080400080806000808080008080A0008080C0008080E00080A0000080A0200080A0400080A0600080A0800080A0A00080A0C00080A0E00080C0000080C0200080C0400080C0600080C0
310
800080C0A00080C0C00080C0E00080E0000080E0200080E0400080E0600080E0800080E0A00080E0C00080E0E000C0000000C0002000C0004000C0006000C0008000C000A000C000C000C000E000C0200000C0202000C0204000C0206000C0208000C020A000C020C000C020E000C0400000C0402000C0404000C0406000C0
310
408000C040A000C040C000C040E000C0600000C0602000C0604000C0606000C0608000C060A000C060C000C060E000C0800000C0802000C0804000C0806000C0808000C080A000C080C000C080E000C0A00000C0A02000C0A04000C0A06000C0A08000C0A0A000C0A0C000C0A0E000C0C00000C0C02000C0C04000C0C06000
310
C0C08000C0C0A000F0FBFF00A4A0A000808080000000FF0000FF000000FFFF00FF000000FF00FF00FFFF0000FFFFFF00000000000000000000000000000000000000000000000000000000000000000000000000000000000000000000000000FFFFFFFFFF0000000000000000000000000000000000000000000000000000
310
00FF000000000000000000000000000000000000000000000000000000000000F9F9F9F9F9F9000000000000000000000000000000000000000000000000000000FF00000000000000000000000000000000000000000000000000000000000000FF000000000000000000000000000000000000000000000000000000FFFF
310
FFFFFF0000000000000000000000000000000000000000000000000000FF00000000FF0000000000000000000000000000000000000000000000000000FF00000000FF0000000000000000000000000000000000000000000000000000FF00000000FF0000000000000000000000000000000000000000000000000000FF00
310
000000FF0000000000000000000000000000000000000000000000000000FF00000000FF0000000000000000000000000000000000000000000000000000FF00000000FF0000000000000000000000000000000000000000000000000000FF00000000FF0000000000000000000000000000000000000000000000000000FF
310
00000000FF0000000000000000000000000000000000000000000000000000FF00000000FF000000000000000000000000000000000000000000000000000000000000000000000000000000000000000000000000000000000000000000000000000000000000000000000000000000000000000000000000000000000000
310
00000000000000000000000000000000000000000000000000000000000000000000000000000000000000000000000000000000000000000000000000000000000000000000000000000000000000000000000000000000000000000000000000000000000000000000000000000000000000000000000000000000000000
310
00FFFFFF000000FF00000000000000000000000000000000000000000000000000FFFFFFFFA4FFFF00FF0000000000000000000000000000000000000000000000FF0000FFFFFFFFFFFF000000000000000000000000000000000000000000000000FFFFFFFF000000FFFF0000000000000000000000000000000000000000
310
00000000000000FF000000FF000000000000000000000000000000000000000000000000000000FFFFFFFFFF000000000000000000000000000000000000000000000000000000FF00000000000000000000000000000000000000000000000000000000000000FFFFFFFFFF00000000000000000000000000000000000000
310
0000000000000000FFFFFFFFFF00000000000000000000000000000000000000000000000000000000000000000000000000000000000000
102
{BLKREFS
331
4939
102
}
 70
     4
280
     1
281
     0
  0
BLOCK_RECORD
  5
47DD
102
{ACAD_XDICTIONARY
360
48AA
102
}
330
1
100
AcDbSymbolTableRecord
100
AcDbBlockTableRecord
  2
センタＡ SSM100
340
0
310
2800000020000000200000000100080000000000000400000000000000000000000000000000000000000000000080000080000000808000800000008000800080800000C0C0C000C0DCC000F0CAA6000020400000206000002080000020A0000020C0000020E00000400000004020000040400000406000004080000040A0
310
000040C0000040E00000600000006020000060400000606000006080000060A0000060C0000060E00000800000008020000080400000806000008080000080A0000080C0000080E00000A0000000A0200000A0400000A0600000A0800000A0A00000A0C00000A0E00000C0000000C0200000C0400000C0600000C0800000C0
310
A00000C0C00000C0E00000E0000000E0200000E0400000E0600000E0800000E0A00000E0C00000E0E00040000000400020004000400040006000400080004000A0004000C0004000E00040200000402020004020400040206000402080004020A0004020C0004020E000404000004040200040404000404060004040800040
310
40A0004040C0004040E00040600000406020004060400040606000406080004060A0004060C0004060E00040800000408020004080400040806000408080004080A0004080C0004080E00040A0000040A0200040A0400040A0600040A0800040A0A00040A0C00040A0E00040C0000040C0200040C0400040C0600040C08000
310
40C0A00040C0C00040C0E00040E0000040E0200040E0400040E0600040E0800040E0A00040E0C00040E0E00080000000800020008000400080006000800080008000A0008000C0008000E00080200000802020008020400080206000802080008020A0008020C0008020E00080400000804020008040400080406000804080
310
008040A0008040C0008040E00080600000806020008060400080606000806080008060A0008060C0008060E00080800000808020008080400080806000808080008080A0008080C0008080E00080A0000080A0200080A0400080A0600080A0800080A0A00080A0C00080A0E00080C0000080C0200080C0400080C0600080C0
310
800080C0A00080C0C00080C0E00080E0000080E0200080E0400080E0600080E0800080E0A00080E0C00080E0E000C0000000C0002000C0004000C0006000C0008000C000A000C000C000C000E000C0200000C0202000C0204000C0206000C0208000C020A000C020C000C020E000C0400000C0402000C0404000C0406000C0
310
408000C040A000C040C000C040E000C0600000C0602000C0604000C0606000C0608000C060A000C060C000C060E000C0800000C0802000C0804000C0806000C0808000C080A000C080C000C080E000C0A00000C0A02000C0A04000C0A06000C0A08000C0A0A000C0A0C000C0A0E000C0C00000C0C02000C0C04000C0C06000
310
C0C08000C0C0A000F0FBFF00A4A0A000808080000000FF0000FF000000FFFF00FF000000FF00FF00FFFF0000FFFFFF00000000000000000000000000000000000000000000000000000000000000000000000000000000000000000000000000000000FFFFFFFFFFFFFF000000000000000000000000000000000000000000
310
0000000000000000000000FF0000000000000000000000000000000000000000000000000000000000000000FF00000000000000000000000000000000000000000000000000000000000000FF00000000000000000000000000000000000000000000000000000000000000FF000000000000000000000000000000000000
310
00000000000000000000000000FF00000000000000000000000000000000000000000000000000000000000000FF00000000000000000000000000000000000000000000000000000000000000FF00000000000000000000000000000000000000000000000000000000000000FF0000000000000000000000000000000000
310
0000000000000000000000000000FF00000000000000000000000000000000000000000000000000000000000000FF00000000000000000000000000000000000000000000000000000000000000FF0000000000000000FF000000000000000000000000000000000000000000FFFF0000000000000000FF00000000000000
310
0000000000000000000000000000FFFF0000000000000000FF000000000000000000000000000000000000000000FFFF0000000000000000FF000000000000000000000000000000000000000000FFFF0000000000000000FF000000000000000000000000000000000000000000FFFF0000000000000000FF000000000000
310
000000000000000000000000000000FFFF0000000000000000FFFFFFFFFFFFFFFFFFFFFFFFFFFFFFFFFFFFFFFFFFFFFFFF0000000000000000FF00000000000000000000000000000000000000000000FF0000000000000000FFFFFFFFFFFFFFFFFFFFFFFFFFFFFFFFFFFFFFFFFFFFFFFF0000000000000000FF0000000000
310
0000000000000000000000000000000000FF0000000000000000FF000000000000F9000000000000000000000000000000FF0000000000000000FFFFFFFFFFFF00F90000FFFFFFFFFFFFFFFFFFFFFFFFFF0000000000000000000000000000FFFFF9FFFFFF00000000000000000000000000000000000000000000000000F9
310
FFF9F9F9F9FFF900000000000000000000000000000000000000000000000000FFFFF9FFFFFF00000000000000000000000000000000000000000000000000000000F900000000000000000000000000000000000000000000000000000000000000F900000000000000000000000000000000000000000000000000000000
310
000000F900000000000000000000000000000000000000000000000000000000000000000000000000000000000000000000000000000000
102
{BLKREFS
331
47F6
102
}
 70
     4
280
     1
281
     0
  0
BLOCK_RECORD
  5
48F9
102
{ACAD_XDICTIONARY
360
4981
102
}
330
1
100
AcDbSymbolTableRecord
100
AcDbBlockTableRecord
  2
センタＢ SSM100
340
0
310
2800000020000000200000000100080000000000000400000000000000000000000000000000000000000000000080000080000000808000800000008000800080800000C0C0C000C0DCC000F0CAA6000020400000206000002080000020A0000020C0000020E00000400000004020000040400000406000004080000040A0
310
000040C0000040E00000600000006020000060400000606000006080000060A0000060C0000060E00000800000008020000080400000806000008080000080A0000080C0000080E00000A0000000A0200000A0400000A0600000A0800000A0A00000A0C00000A0E00000C0000000C0200000C0400000C0600000C0800000C0
310
A00000C0C00000C0E00000E0000000E0200000E0400000E0600000E0800000E0A00000E0C00000E0E00040000000400020004000400040006000400080004000A0004000C0004000E00040200000402020004020400040206000402080004020A0004020C0004020E000404000004040200040404000404060004040800040
310
40A0004040C0004040E00040600000406020004060400040606000406080004060A0004060C0004060E00040800000408020004080400040806000408080004080A0004080C0004080E00040A0000040A0200040A0400040A0600040A0800040A0A00040A0C00040A0E00040C0000040C0200040C0400040C0600040C08000
310
40C0A00040C0C00040C0E00040E0000040E0200040E0400040E0600040E0800040E0A00040E0C00040E0E00080000000800020008000400080006000800080008000A0008000C0008000E00080200000802020008020400080206000802080008020A0008020C0008020E00080400000804020008040400080406000804080
310
008040A0008040C0008040E00080600000806020008060400080606000806080008060A0008060C0008060E00080800000808020008080400080806000808080008080A0008080C0008080E00080A0000080A0200080A0400080A0600080A0800080A0A00080A0C00080A0E00080C0000080C0200080C0400080C0600080C0
310
800080C0A00080C0C00080C0E00080E0000080E0200080E0400080E0600080E0800080E0A00080E0C00080E0E000C0000000C0002000C0004000C0006000C0008000C000A000C000C000C000E000C0200000C0202000C0204000C0206000C0208000C020A000C020C000C020E000C0400000C0402000C0404000C0406000C0
310
408000C040A000C040C000C040E000C0600000C0602000C0604000C0606000C0608000C060A000C060C000C060E000C0800000C0802000C0804000C0806000C0808000C080A000C080C000C080E000C0A00000C0A02000C0A04000C0A06000C0A08000C0A0A000C0A0C000C0A0E000C0C00000C0C02000C0C04000C0C06000
310
C0C08000C0C0A000F0FBFF00A4A0A000808080000000FF0000FF000000FFFF00FF000000FF00FF00FFFF0000FFFFFF00000000000000000000000000000000000000000000000000000000000000000000000000000000000000000000000000FFFFFFFFFF0000000000000000000000000000000000000000000000000000
310
00FF000000FF0000000000000000000000000000000000000000000000000000F9F9F9F9F9F9F9F9F9F9F9F9000000000000000000000000000000000000000000FF000000FF000000000000000000000000000000000000000000000000000000FF000000FF0000000000000000000000000000000000000000000000FFFF
310
FFFFFF000000FF00000000000000000000000000000000000000000000FF00000000FF000000FF00000000000000000000000000000000000000000000FF00000000FF000000FF00000000000000000000000000000000000000FFFFFFFF00000000FF000000FF000000000000000000000000000000000000FF000000FF00
310
000000FF000000FF000000000000000000000000000000000000FF000000FF00000000FF000000FF000000000000000000000000000000000000FF000000FF00000000FF000000FF000000000000000000000000000000000000FF000000FF00000000FF000000FF000000000000000000000000000000000000FF000000FF
310
00000000FF000000FF000000000000000000000000000000000000FF000000FF00000000FF0000FFFF000000000000000000000000000000000000FF0000000000000000000000FF00000000000000000000000000000000000000FFFAFAFAFAFAFAFAFAFAFAFAFF000000000000000000000000000000FAFAFAFAFF000000
310
0000FAFA00000000FF000000000000000000000000000000000000FAFAFFFFFFFFFFFFFFFFFFFFFFFF00000000000000000000000000000000000000FFFFFFFFFFFFFFFFFFFFFFFFFF00000000000000000000000000000000000000FF000000FAFAFAFAFA000000FF0000000000000000000000000000000000000000FFFF
310
FFFFFFFFFFF900FFFFFF0000000000000000000000000000000000000000000000FFFFFFFFA4A4FFF900FF00000000000000000000000000000000000000000000FF0000FFFFFFFFFFFFFF0000000000000000000000000000000000000000000000FFFFFFFF00000000FF0000000000000000000000000000000000000000
310
00000000000000FF000000FF000000000000000000000000000000000000000000000000000000FFFFFFFFFF000000000000000000000000000000000000000000000000000000FF00000000000000000000000000000000000000000000000000000000000000FFFFFFFFFF00000000000000000000000000000000000000
310
0000000000000000FFFFFFFFFF00000000000000000000000000000000000000000000000000000000000000000000000000000000000000
102
{BLKREFS
331
4916
102
}
 70
     4
280
     1
281
     0
  0
BLOCK_RECORD
  5
4A06
102
{ACAD_XDICTIONARY
360
4AAF
102
}
330
1
100
AcDbSymbolTableRecord
100
AcDbBlockTableRecord
  2
リーマボルト SSM100 M6
340
0
310
2800000020000000200000000100080000000000000400000000000000000000000000000000000000000000000080000080000000808000800000008000800080800000C0C0C000C0DCC000F0CAA6000020400000206000002080000020A0000020C0000020E00000400000004020000040400000406000004080000040A0
310
000040C0000040E00000600000006020000060400000606000006080000060A0000060C0000060E00000800000008020000080400000806000008080000080A0000080C0000080E00000A0000000A0200000A0400000A0600000A0800000A0A00000A0C00000A0E00000C0000000C0200000C0400000C0600000C0800000C0
310
A00000C0C00000C0E00000E0000000E0200000E0400000E0600000E0800000E0A00000E0C00000E0E00040000000400020004000400040006000400080004000A0004000C0004000E00040200000402020004020400040206000402080004020A0004020C0004020E000404000004040200040404000404060004040800040
310
40A0004040C0004040E00040600000406020004060400040606000406080004060A0004060C0004060E00040800000408020004080400040806000408080004080A0004080C0004080E00040A0000040A0200040A0400040A0600040A0800040A0A00040A0C00040A0E00040C0000040C0200040C0400040C0600040C08000
310
40C0A00040C0C00040C0E00040E0000040E0200040E0400040E0600040E0800040E0A00040E0C00040E0E00080000000800020008000400080006000800080008000A0008000C0008000E00080200000802020008020400080206000802080008020A0008020C0008020E00080400000804020008040400080406000804080
310
008040A0008040C0008040E00080600000806020008060400080606000806080008060A0008060C0008060E00080800000808020008080400080806000808080008080A0008080C0008080E00080A0000080A0200080A0400080A0600080A0800080A0A00080A0C00080A0E00080C0000080C0200080C0400080C0600080C0
310
800080C0A00080C0C00080C0E00080E0000080E0200080E0400080E0600080E0800080E0A00080E0C00080E0E000C0000000C0002000C0004000C0006000C0008000C000A000C000C000C000E000C0200000C0202000C0204000C0206000C0208000C020A000C020C000C020E000C0400000C0402000C0404000C0406000C0
310
408000C040A000C040C000C040E000C0600000C0602000C0604000C0606000C0608000C060A000C060C000C060E000C0800000C0802000C0804000C0806000C0808000C080A000C080C000C080E000C0A00000C0A02000C0A04000C0A06000C0A08000C0A0A000C0A0C000C0A0E000C0C00000C0C02000C0C04000C0C06000
310
C0C08000C0C0A000F0FBFF00A4A0A000808080000000FF0000FF000000FFFF00FF000000FF00FF00FFFF0000FFFFFF0000000000000000000000000000000000000000000000000000000000000000000000000000000000000000000000000000000000000000000000000000000000000000000000000000000000000000
310
00000000000000000000000000000000000000000000000000000000000000000000000000000000000000000000000000000000000000000000000000000000000000000000000000000000000000000000000000000000000000000000000000000000000000000000000000000000000000000000000000000000000000
310
00000000000000000000000000000000000000000000000000000000000000000000000000000000000000000000000000000000000000000000000000000000000000000000000000000000000000000000000000000000000000000000000000000000000000000000000000000000000000000000000000000000000000
310
00000000000000000000000000000000000000000000000000000000000000000000000000000000000000000000000000000000FFFFFFFF00000000000000000000000000000000000000FFFFFFFFFF00000000FFFF00FFFF000000000000000000000000000000FF000000FF0000FF00000000FFFFFFFFFF000000000000
310
000000000000000000FFFEFEFFFFFFFFFEFEFF0000FFFF0000FF000000000000000000000000000000FFFFFEFFFF0000FFFFFF0000FFFF0000FF000000000000000000000000000000FFFFFE00FF0000FFFFFF0000FFFFFFFFFF000000000000000000000000000000FFFEFEFFFFFFFFFEFEFF0000FFFF00FFFF0000000000
310
00000000000000000000FF000000FF0000FF00000000FFFFFFFF00000000000000000000000000000000000000FFFFFFFFFF0000000000000000000000000000000000000000000000000000000000000000000000000000000000000000000000000000000000000000000000000000000000000000000000000000000000
310
00000000000000000000000000000000000000000000000000000000000000000000000000000000000000000000000000000000000000000000000000000000000000000000000000000000000000000000000000000000000000000000000000000000000000000000000000000000000000000000000000000000000000
310
00000000000000000000000000000000000000000000000000000000000000000000000000000000000000000000000000000000000000000000000000000000000000000000000000000000000000000000000000000000000000000000000000000000000000000000000000000000000000000000000000000000000000
310
0000000000000000000000000000000000000000000000000000000000000000000000000000000000000000000000000000000000000000
102
{BLKREFS
331
4A3A
102
}
 70
     4
280
     1
281
     0
  0
BLOCK_RECORD
  5
4BE2
330
1
100
AcDbSymbolTableRecord
100
AcDbBlockTableRecord
  2
*D12
340
0
 70
     0
280
     1
281
     0
  0
BLOCK_RECORD
  5
4C87
330
1
100
AcDbSymbolTableRecord
100
AcDbBlockTableRecord
  2
*D13
340
0
 70
     0
280
     1
281
     0
  0
BLOCK_RECORD
  5
4C9F
330
1
100
AcDbSymbolTableRecord
100
AcDbBlockTableRecord
  2
*D14
340
0
 70
     0
280
     1
281
     0
  0
BLOCK_RECORD
  5
4CBB
330
1
100
AcDbSymbolTableRecord
100
AcDbBlockTableRecord
  2
*D15
340
0
 70
     0
280
     1
281
     0
  0
BLOCK_RECORD
  5
4D3B
330
1
100
AcDbSymbolTableRecord
100
AcDbBlockTableRecord
  2
*D16
340
0
 70
     0
280
     1
281
     0
  0
BLOCK_RECORD
  5
4D65
330
1
100
AcDbSymbolTableRecord
100
AcDbBlockTableRecord
  2
*D17
340
0
 70
     0
280
     1
281
     0
  0
BLOCK_RECORD
  5
4D7D
330
1
100
AcDbSymbolTableRecord
100
AcDbBlockTableRecord
  2
*D18
340
0
 70
     0
280
     1
281
     0
  0
BLOCK_RECORD
  5
4E13
330
1
100
AcDbSymbolTableRecord
100
AcDbBlockTableRecord
  2
*D19
340
0
 70
     0
280
     1
281
     0
  0
BLOCK_RECORD
  5
4E35
330
1
100
AcDbSymbolTableRecord
100
AcDbBlockTableRecord
  2
*D20
340
0
 70
     0
280
     1
281
     0
  0
BLOCK_RECORD
  5
4E89
330
1
100
AcDbSymbolTableRecord
100
AcDbBlockTableRecord
  2
*D21
340
0
 70
     0
280
     1
281
     0
  0
BLOCK_RECORD
  5
4ED1
330
1
100
AcDbSymbolTableRecord
100
AcDbBlockTableRecord
  2
*D22
340
0
 70
     0
280
     1
281
     0
  0
BLOCK_RECORD
  5
677E
330
1
100
AcDbSymbolTableRecord
100
AcDbBlockTableRecord
  2
*D23
340
0
 70
     0
280
     1
281
     0
  0
BLOCK_RECORD
  5
6825
330
1
100
AcDbSymbolTableRecord
100
AcDbBlockTableRecord
  2
*D24
340
0
 70
     0
280
     1
281
     0
  0
BLOCK_RECORD
  5
6CDC
330
1
100
AcDbSymbolTableRecord
100
AcDbBlockTableRecord
  2
*D25
340
0
 70
     0
280
     1
281
     0
  0
BLOCK_RECORD
  5
6D06
330
1
100
AcDbSymbolTableRecord
100
AcDbBlockTableRecord
  2
*D26
340
0
 70
     0
280
     1
281
     0
  0
BLOCK_RECORD
  5
6F09
330
1
100
AcDbSymbolTableRecord
100
AcDbBlockTableRecord
  2
ケース
340
0
310
2800000020000000200000000100080000000000000400000000000000000000000000000000000000000000000080000080000000808000800000008000800080800000C0C0C000C0DCC000F0CAA6000020400000206000002080000020A0000020C0000020E00000400000004020000040400000406000004080000040A0
310
000040C0000040E00000600000006020000060400000606000006080000060A0000060C0000060E00000800000008020000080400000806000008080000080A0000080C0000080E00000A0000000A0200000A0400000A0600000A0800000A0A00000A0C00000A0E00000C0000000C0200000C0400000C0600000C0800000C0
310
A00000C0C00000C0E00000E0000000E0200000E0400000E0600000E0800000E0A00000E0C00000E0E00040000000400020004000400040006000400080004000A0004000C0004000E00040200000402020004020400040206000402080004020A0004020C0004020E000404000004040200040404000404060004040800040
310
40A0004040C0004040E00040600000406020004060400040606000406080004060A0004060C0004060E00040800000408020004080400040806000408080004080A0004080C0004080E00040A0000040A0200040A0400040A0600040A0800040A0A00040A0C00040A0E00040C0000040C0200040C0400040C0600040C08000
310
40C0A00040C0C00040C0E00040E0000040E0200040E0400040E0600040E0800040E0A00040E0C00040E0E00080000000800020008000400080006000800080008000A0008000C0008000E00080200000802020008020400080206000802080008020A0008020C0008020E00080400000804020008040400080406000804080
310
008040A0008040C0008040E00080600000806020008060400080606000806080008060A0008060C0008060E00080800000808020008080400080806000808080008080A0008080C0008080E00080A0000080A0200080A0400080A0600080A0800080A0A00080A0C00080A0E00080C0000080C0200080C0400080C0600080C0
310
800080C0A00080C0C00080C0E00080E0000080E0200080E0400080E0600080E0800080E0A00080E0C00080E0E000C0000000C0002000C0004000C0006000C0008000C000A000C000C000C000E000C0200000C0202000C0204000C0206000C0208000C020A000C020C000C020E000C0400000C0402000C0404000C0406000C0
310
408000C040A000C040C000C040E000C0600000C0602000C0604000C0606000C0608000C060A000C060C000C060E000C0800000C0802000C0804000C0806000C0808000C080A000C080C000C080E000C0A00000C0A02000C0A04000C0A06000C0A08000C0A0A000C0A0C000C0A0E000C0C00000C0C02000C0C04000C0C06000
310
C0C08000C0C0A000F0FBFF00A4A0A000808080000000FF0000FF000000FFFF00FF000000FF00FF00FFFF0000FFFFFF0000000000000000000000000000000000000000000000000000000000000000000000000000000000000000000000000000000000000000000000000000000000000000000000000000000000000000
310
00000000000000000000000000000000000000000000000000000000000000000000000000000000000000000000000000000000000000000000000000000000000000000000000000000000000000000000FC00000000FC0000000000000000FC000000FC00000000000000000000000000FC00000000FC00000000000000
310
00FC000000FC00000000000000000000000000FCFCFCFCFCFC0000000000000000FCFCFCFCFC00000000000000000000000000FC00000000FC0000000000000000FC000000FC00000000000000000000000000FC00000000FC0000000000000000FC000000FC00000000000000000000000000FC00000000FC000000000000
310
0000FC000000FC00000000000000000000000000FC0000000000FCFCFCFCFCFCFCFC00000000FC000000000000FCFCFCFCFC0000FC0000000000000000000000000000000000FC0000000000FC00000000000000FC0000000000000000000000000000000000FC00FCFCFCFCFCFCFCFCFCFC0000FC00000000000000000000
310
00000000000000FC0000000000FC00000000000000FC0000000000000000000000000000000000FC0000000000FC00000000000000FC000000000000000000000000000000000000FC000000FCFCFCFCFCFCFC0000FC00000000000000000000000000000000000000FCFCFC000000000000000000FC000000000000000000
310
00000000000000000000000000000000000000000000FC00000000000000000000000000000000000000000000000000000000000000FC0000000000000000000000000000000000000000000000000000000000000000FC0000000000000000000000000000000000000000000000000000000000000000FC000000000000
310
0000000000000000000000000000000000000000000000000000FC0000000000000000000000000000000000000000000000000000000000000000FC0000000000000000000000000000000000000000000000000000000000000000FC0000000000000000000000000000000000000000000000000000000000000000FCFC
310
FCFCFCFCFCFCFCFCFCFCFCFCFCFCFCFCFCFCFCFCFCFC000000000000000000000000000000000000000000000000000000000000000000000000000000000000000000000000000000000000000000000000000000000000000000000000000000000000000000000000000000000000000000000000000000000000000000
310
0000000000000000000000000000000000000000000000000000000000000000000000000000000000000000000000000000000000000000
102
{BLKREFS
331
6F23
102
}
 70
     4
280
     1
281
     1
  0
ENDTAB
  0
ENDSEC
  0
SECTION
  2
BLOCKS
  0
BLOCK
  5
20
330
1F
100
AcDbEntity
  8
0
100
AcDbBlockBegin
  2
*Model_Space
 70
     0
 10
0.0
 20
0.0
 30
0.0
  3
*Model_Space
  1

  0
ENDBLK
  5
21
330
1F
100
AcDbEntity
  8
0
100
AcDbBlockEnd
  0
BLOCK
  5
1C
330
1B
100
AcDbEntity
 67
     1
  8
0
100
AcDbBlockBegin
  2
*Paper_Space
 70
     0
 10
0.0
 20
0.0
 30
0.0
  3
*Paper_Space
  1

  0
ENDBLK
  5
1D
330
1B
100
AcDbEntity
 67
     1
  8
0
100
AcDbBlockEnd
  0
BLOCK
  5
24
330
23
100
AcDbEntity
 67
     1
  8
0
100
AcDbBlockBegin
  2
*Paper_Space0
 70
     0
 10
0.0
 20
0.0
 30
0.0
  3
*Paper_Space0
  1

  0
ENDBLK
  5
25
330
23
100
AcDbEntity
 67
     1
  8
0
100
AcDbBlockEnd
  0
BLOCK
  5
6D
330
69
100
AcDbEntity
  8
0
100
AcDbBlockBegin
  2
_Open30
 70
     0
 10
0.0
 20
0.0
 30
0.0
  3
_Open30
  1

  0
LINE
  5
6A
330
69
100
AcDbEntity
  8
0
  6
ByBlock
 62
     0
370
    -2
100
AcDbLine
 10
-1.0
 20
0.26794919
 30
0.0
 11
0.0
 21
0.0
 31
0.0
  0
LINE
  5
6B
330
69
100
AcDbEntity
  8
0
  6
ByBlock
 62
     0
370
    -2
100
AcDbLine
 10
0.0
 20
0.0
 30
0.0
 11
-1.0
 21
-0.26794919
 31
0.0
  0
LINE
  5
6C
330
69
100
AcDbEntity
  8
0
  6
ByBlock
 62
     0
370
    -2
100
AcDbLine
 10
0.0
 20
0.0
 30
0.0
 11
-1.0
 21
0.0
 31
0.0
  0
ENDBLK
  5
6E
330
69
100
AcDbEntity
  8
0
100
AcDbBlockEnd
  0
BLOCK
  5
76
330
74
100
AcDbEntity
  8
0
100
AcDbBlockBegin
  2
GENAXEH
 70
     0
 10
0.0
 20
0.0
 30
0.0
  3
GENAXEH
  1

  0
LINE
  5
75
330
74
100
AcDbEntity
  8
0
100
AcDbLine
 10
-1.0
 20
0.0
 30
0.0
 11
1.0
 21
0.0
 31
0.0
  0
ENDBLK
  5
77
330
74
100
AcDbEntity
  8
0
100
AcDbBlockEnd
  0
BLOCK
  5
44DD
330
44DC
100
AcDbEntity
  8
0
100
AcDbBlockBegin
  2
ロッカクアナツキプラグ R1／8
 70
     0
 10
0.0
 20
0.0
 30
0.0
  3
ロッカクアナツキプラグ R1／8
  1

  0
LINE
  5
44DF
330
44DC
100
AcDbEntity
  8
AM_7 中心線
100
AcDbLine
 10
0.0372929999999769
 20
8.606535000000008
 30
0.0
 11
0.0372929999999769
 21
-8.606536000000005
 31
0.0
  0
CIRCLE
  5
44E0
330
44DC
100
AcDbEntity
  8
AM_4 細線
100
AcDbCircle
 10
0.0
 20
0.0
 30
0.0
 40
4.816232
  0
LINE
  5
44E1
330
44DC
100
AcDbEntity
  8
AM_7 中心線
100
AcDbLine
 10
8.606616000000029
 20
0.0
 30
0.0
 11
-8.606616000000029
 21
0.0
 31
0.0
  0
CIRCLE
  5
44E2
330
44DC
100
AcDbEntity
  8
AM_0 外形線1
100
AcDbCircle
 10
0.0
 20
0.0
 30
0.0
 40
5.271232
  0
LINE
  5
44E3
330
44DC
100
AcDbEntity
  8
AM_0 外形線1
100
AcDbLine
 10
0.0
 20
-2.514999999999985
 30
0.0
 11
2.178053999999974
 21
-1.25750000000005
 31
0.0
  0
LINE
  5
44E4
330
44DC
100
AcDbEntity
  8
AM_0 外形線1
100
AcDbLine
 10
2.178053999999974
 20
1.257499999999936
 30
0.0
 11
0.0
 21
2.514999999999985
 31
0.0
  0
LINE
  5
44E5
330
44DC
100
AcDbEntity
  8
AM_0 外形線1
100
AcDbLine
 10
-2.178053999999974
 20
-1.25750000000005
 30
0.0
 11
0.0
 21
-2.514999999999985
 31
0.0
  0
LINE
  5
44E6
330
44DC
100
AcDbEntity
  8
AM_0 外形線1
100
AcDbLine
 10
-2.178053999999974
 20
1.257499999999936
 30
0.0
 11
-2.178053999999974
 21
-1.25750000000005
 31
0.0
  0
LINE
  5
44E7
330
44DC
100
AcDbEntity
  8
AM_0 外形線1
100
AcDbLine
 10
0.0
 20
2.514999999999985
 30
0.0
 11
-2.178053999999974
 21
1.257499999999936
 31
0.0
  0
LINE
  5
44E8
330
44DC
100
AcDbEntity
  8
AM_0 外形線1
100
AcDbLine
 10
2.178053999999974
 20
-1.25750000000005
 30
0.0
 11
2.178053999999974
 21
1.257499999999936
 31
0.0
  0
ENDBLK
  5
44DE
330
44DC
100
AcDbEntity
  8
0
100
AcDbBlockEnd
  0
BLOCK
  5
4576
330
4575
100
AcDbEntity
  8
0
100
AcDbBlockBegin
  2
ケースＡ SSM100
 70
     0
 10
0.0
 20
0.0
 30
0.0
  3
ケースＡ SSM100
  1

  0
LINE
  5
4578
330
4575
100
AcDbEntity
  8
AM_0 外形線1
100
AcDbLine
 10
0.0
 20
0.0
 30
0.0
 11
0.0
 21
-49.80000000000001
 31
0.0
  0
ARC
  5
457A
330
4575
100
AcDbEntity
  8
AM_0 外形線1
100
AcDbCircle
 10
18.0
 20
-36.5
 30
0.0
 40
3.0
100
AcDbArc
 50
90.0
 51
180.0
  0
LINE
  5
457B
330
4575
100
AcDbEntity
  8
AM_0 外形線1
100
AcDbLine
 10
15.0
 20
-49.80000000000001
 30
0.0
 11
15.0
 21
0.0
 31
0.0
  0
LINE
  5
457C
330
4575
100
AcDbEntity
  8
AM_0 外形線1
100
AcDbLine
 10
0.1999999999999886
 20
-50.0
 30
0.0
 11
14.80000000000001
 21
-50.0
 31
0.0
  0
LINE
  5
457D
330
4575
100
AcDbEntity
  8
AM_0 外形線1
100
AcDbLine
 10
0.0
 20
-49.80000000000001
 30
0.0
 11
0.1999999999999886
 21
-50.0
 31
0.0
  0
LINE
  5
457E
330
4575
100
AcDbEntity
  8
AM_7 中心線
100
AcDbLine
 10
-24.0
 20
43.5
 30
0.0
 11
29.0
 21
43.5
 31
0.0
  0
LINE
  5
457F
330
4575
100
AcDbEntity
  8
AM_0 外形線1
100
AcDbLine
 10
29.370161
 20
-33.5
 30
0.0
 11
18.0
 21
-33.5
 31
0.0
  0
LINE
  5
4580
330
4575
100
AcDbEntity
  8
AM_0 外形線1
100
AcDbLine
 10
34.0
 20
0.0
 30
0.0
 11
34.0
 21
-26.79905500000007
 31
0.0
  0
ARC
  5
4582
330
4575
100
AcDbEntity
  8
AM_0 外形線1
100
AcDbCircle
 10
31.0
 20
-30.5
 30
0.0
 40
3.0
100
AcDbArc
 50
270.0
 51
0.0
  0
LINE
  5
4583
330
4575
100
AcDbEntity
  8
AM_0 外形線1
100
AcDbLine
 10
31.0
 20
-33.5
 30
0.0
 11
29.370161
 21
-33.5
 31
0.0
  0
LINE
  5
4584
330
4575
100
AcDbEntity
  8
AM_0 外形線1
100
AcDbLine
 10
34.0
 20
-26.79905500000007
 30
0.0
 11
34.0
 21
-30.5
 31
0.0
  0
LINE
  5
4585
330
4575
100
AcDbEntity
  8
AM_3 隠れ線
100
AcDbLine
 10
14.0
 20
25.79999999999996
 30
0.0
 11
21.5
 21
25.79999999999996
 31
0.0
  0
LINE
  5
4586
330
4575
100
AcDbEntity
  8
AM_0 外形線1
100
AcDbLine
 10
18.0
 20
33.5
 30
0.0
 11
31.0
 21
33.5
 31
0.0
  0
LINE
  5
4587
330
4575
100
AcDbEntity
  8
AM_0 外形線1
100
AcDbLine
 10
12.0
 20
28.5
 30
0.0
 11
22.0
 21
28.5
 31
0.0
  0
LINE
  5
4588
330
4575
100
AcDbEntity
  8
AM_7 中心線
100
AcDbLine
 10
10.0
 20
27.0
 30
0.0
 11
24.0
 21
27.0
 31
0.0
  0
LWPOLYLINE
  5
4589
330
4575
100
AcDbEntity
  8
AM_0 外形線1
100
AcDbPolyline
 90
       73
 70
     0
 43
0.0
 10
1.199999999999988
 20
32.49999999999996
 10
1.304586999999969
 20
32.50741999999997
 10
1.408377999999969
 20
32.52962499999998
 10
1.510582999999995
 20
32.56644399999996
 10
1.610424000000023
 20
32.61759899999999
 10
1.707141999999976
 20
32.68269899999999
 10
1.800000000000011
 20
32.76124999999996
 10
1.888291999999977
 20
32.85265299999998
 10
1.971345000000042
 20
32.95621299999996
 10
2.048527999999975
 20
33.07114099999996
 10
2.119252999999956
 20
33.19656399999997
 10
2.18298199999998
 20
33.33152599999997
 10
2.23923000000002
 20
33.47499999999997
 10
2.287568999999961
 20
33.62589399999996
 10
2.327630999999996
 20
33.78305999999998
 10
2.359110999999983
 20
33.94530199999997
 10
2.381768999999962
 20
34.11138599999996
 10
2.395434000000022
 20
34.28004599999996
 10
2.399999999999977
 20
34.44999999999996
 10
2.395434000000022
 20
34.61995299999998
 10
2.381768999999962
 20
34.78861399999997
 10
2.359110999999983
 20
34.95469699999998
 10
2.327630999999996
 20
35.11693899999997
 10
2.287568999999961
 20
35.27410499999999
 10
2.23923000000002
 20
35.42499999999999
 10
2.18298199999998
 20
35.56847399999997
 10
2.119252999999956
 20
35.70343499999999
 10
2.048527999999975
 20
35.82885799999997
 10
1.971345000000042
 20
35.94378599999996
 10
1.888291999999977
 20
36.04734599999998
 10
1.800000000000011
 20
36.13874899999996
 10
1.707141999999976
 20
36.21729999999997
 10
1.610424000000023
 20
36.28239999999997
 10
1.510582999999995
 20
36.33355499999999
 10
1.408377999999969
 20
36.37037499999997
 10
1.304586999999969
 20
36.39257899999999
 10
1.199999999999988
 20
36.39999999999998
 10
1.095413000000007
 20
36.39257899999999
 10
0.9916220000000064
 20
36.37037499999997
 10
0.8894169999999801
 20
36.33355499999999
 10
0.7895760000000111
 20
36.28239999999997
 10
0.6928580000000011
 20
36.21729999999997
 10
0.6000000000000229
 20
36.13874899999996
 10
0.5117079999999988
 20
36.04734599999998
 10
0.4286549999999921
 20
35.94378599999996
 10
0.351472000000058
 20
35.82885799999997
 10
0.2807470000000194
 20
35.70343499999999
 10
0.2170180000000528
 20
35.56847399999997
 10
0.1607700000000136
 20
35.42499999999999
 10
0.112431000000015
 20
35.27410499999999
 10
0.0723689999999806
 20
35.11693899999997
 10
0.0408889999999929
 20
34.95469699999998
 10
0.0182310000000143
 20
34.78861399999997
 10
0.0045660000000112
 20
34.61995299999998
 10
0.0
 20
34.44999999999996
 10
0.0045660000000112
 20
34.28004599999996
 10
0.0182310000000143
 20
34.11138599999996
 10
0.0408889999999929
 20
33.94530199999997
 10
0.0723689999999806
 20
33.78305999999998
 10
0.112431000000015
 20
33.62589399999996
 10
0.1607700000000136
 20
33.47499999999997
 10
0.2170180000000528
 20
33.33152599999997
 10
0.2807470000000194
 20
33.19656399999997
 10
0.351472000000058
 20
33.07114099999996
 10
0.4286549999999921
 20
32.95621299999996
 10
0.5117079999999988
 20
32.85265299999998
 10
0.6000000000000229
 20
32.76124999999996
 10
0.6928580000000011
 20
32.68269899999999
 10
0.7895760000000111
 20
32.61759899999999
 10
0.8894169999999801
 20
32.56644399999996
 10
0.9916220000000064
 20
32.52962499999998
 10
1.095413000000007
 20
32.50741999999997
 10
1.199999999999988
 20
32.49999999999996
  0
LINE
  5
458A
330
4575
100
AcDbEntity
  8
AM_0 外形線1
100
AcDbLine
 10
2.399999999999977
 20
33.0
 30
0.0
 11
2.399999999999977
 21
35.89999999999998
 31
0.0
  0
ARC
  5
458B
330
4575
100
AcDbEntity
  8
AM_0 外形線1
100
AcDbCircle
 10
18.0
 20
36.5
 30
0.0
 40
3.0
100
AcDbArc
 50
180.0
 51
270.0
  0
LINE
  5
458C
330
4575
100
AcDbEntity
  8
AM_0 外形線1
100
AcDbLine
 10
11.0
 20
29.0
 30
0.0
 11
-2.0
 21
29.0
 31
0.0
  0
LINE
  5
458D
330
4575
100
AcDbEntity
  8
AM_0 外形線1
100
AcDbLine
 10
-2.0
 20
29.0
 30
0.0
 11
-2.0
 21
25.69999999999993
 31
0.0
  0
LINE
  5
458E
330
4575
100
AcDbEntity
  8
AM_0 外形線1
100
AcDbLine
 10
-1.800000000000011
 20
32.5
 30
0.0
 11
1.899999999999976
 21
32.5
 31
0.0
  0
LINE
  5
458F
330
4575
100
AcDbEntity
  8
AM_0 外形線1
100
AcDbLine
 10
-2.0
 20
32.29999999999995
 30
0.0
 11
-1.800000000000011
 21
32.5
 31
0.0
  0
LINE
  5
4590
330
4575
100
AcDbEntity
  8
AM_0 外形線1
100
AcDbLine
 10
-2.0
 20
29.0
 30
0.0
 11
-2.0
 21
32.29999999999995
 31
0.0
  0
ARC
  5
4591
330
4575
100
AcDbEntity
  8
AM_0 外形線1
100
AcDbCircle
 10
1.899999999999976
 20
33.0
 30
0.0
 40
0.5
100
AcDbArc
 50
270.0
 51
0.0
  0
LINE
  5
4592
330
4575
100
AcDbEntity
  8
AM_0 外形線1
100
AcDbLine
 10
14.0
 20
25.79999999999996
 30
0.0
 11
12.5
 21
25.79999999999996
 31
0.0
  0
LINE
  5
4593
330
4575
100
AcDbEntity
  8
AM_0 外形線1
100
AcDbLine
 10
12.0
 20
26.29999999999995
 30
0.0
 11
12.0
 21
28.0
 31
0.0
  0
LINE
  5
4594
330
4575
100
AcDbEntity
  8
AM_0 外形線1
100
AcDbLine
 10
12.5
 20
25.79999999999996
 30
0.0
 11
12.0
 21
26.29999999999995
 31
0.0
  0
LINE
  5
4595
330
4575
100
AcDbEntity
  8
AM_0 外形線1
100
AcDbLine
 10
12.0
 20
26.29999999999995
 30
0.0
 11
12.0
 21
23.97632099999999
 31
0.0
  0
ARC
  5
4596
330
4575
100
AcDbEntity
  8
AM_0 外形線1
100
AcDbCircle
 10
11.0
 20
28.0
 30
0.0
 40
1.0
100
AcDbArc
 50
0.0
 51
90.0
  0
LINE
  5
4597
330
4575
100
AcDbEntity
  8
AM_0 外形線1
100
AcDbLine
 10
0.0
 20
40.0
 30
0.0
 11
15.0
 21
40.0
 31
0.0
  0
LINE
  5
4598
330
4575
100
AcDbEntity
  8
AM_0 外形線1
100
AcDbLine
 10
15.0
 20
47.0
 30
0.0
 11
0.0
 21
47.0
 31
0.0
  0
LINE
  5
4599
330
4575
100
AcDbEntity
  8
AM_0 外形線1
100
AcDbLine
 10
0.1999999999999886
 20
50.0
 30
0.0
 11
14.80000000000001
 21
50.0
 31
0.0
  0
LINE
  5
459A
330
4575
100
AcDbEntity
  8
AM_0 外形線1
100
AcDbLine
 10
0.0
 20
36.39999999999998
 30
0.0
 11
0.0
 21
40.0
 31
0.0
  0
LINE
  5
459B
330
4575
100
AcDbEntity
  8
AM_0 外形線1
100
AcDbLine
 10
1.899999999999976
 20
36.39999999999998
 30
0.0
 11
0.0
 21
36.39999999999998
 31
0.0
  0
ARC
  5
459C
330
4575
100
AcDbEntity
  8
AM_0 外形線1
100
AcDbCircle
 10
1.899999999999976
 20
35.89999999999998
 30
0.0
 40
0.5
100
AcDbArc
 50
0.0
 51
90.0
  0
LINE
  5
459D
330
4575
100
AcDbEntity
  8
AM_0 外形線1
100
AcDbLine
 10
0.0
 20
49.79999999999995
 30
0.0
 11
0.1999999999999886
 21
50.0
 31
0.0
  0
LINE
  5
459E
330
4575
100
AcDbEntity
  8
AM_0 外形線1
100
AcDbLine
 10
0.0
 20
47.0
 30
0.0
 11
0.0
 21
49.79999999999995
 31
0.0
  0
LINE
  5
459F
330
4575
100
AcDbEntity
  8
AM_0 外形線1
100
AcDbLine
 10
15.0
 20
49.59999999999997
 30
0.0
 11
15.0
 21
37.39999999999998
 31
0.0
  0
LINE
  5
45A0
330
4575
100
AcDbEntity
  8
AM_0 外形線1
100
AcDbLine
 10
15.0
 20
40.0
 30
0.0
 11
15.0
 21
36.5
 31
0.0
  0
LINE
  5
45A1
330
4575
100
AcDbEntity
  8
AM_0 外形線1
100
AcDbLine
 10
15.0
 20
49.79999999999995
 30
0.0
 11
15.0
 21
47.0
 31
0.0
  0
LINE
  5
45A2
330
4575
100
AcDbEntity
  8
AM_0 外形線1
100
AcDbLine
 10
14.80000000000001
 20
50.0
 30
0.0
 11
15.0
 21
49.79999999999995
 31
0.0
  0
ARC
  5
45A3
330
4575
100
AcDbEntity
  8
AM_0 外形線1
100
AcDbCircle
 10
31.0
 20
30.5
 30
0.0
 40
3.0
100
AcDbArc
 50
0.0
 51
90.0
  0
LWPOLYLINE
  5
45A4
330
4575
100
AcDbEntity
  8
AM_0 外形線1
100
AcDbPolyline
 90
       73
 70
     0
 43
0.0
 10
27.19999999999999
 20
24.49999999999997
 10
27.208752
 20
24.36926599999996
 10
27.23494199999999
 20
24.23952699999998
 10
27.27837099999999
 20
24.11177099999998
 10
27.338707
 20
23.98696899999996
 10
27.41549199999997
 20
23.86607199999998
 10
27.50814200000002
 20
23.74999999999997
 10
27.61595
 20
23.63963499999996
 10
27.73809800000004
 20
23.53581799999998
 10
27.87365399999999
 20
23.43933899999996
 10
28.02158799999995
 20
23.35093299999996
 10
28.18077400000004
 20
23.27127199999998
 10
28.35000000000002
 20
23.20096199999995
 10
28.52797799999996
 20
23.14053799999996
 10
28.71335399999998
 20
23.09046099999995
 10
28.90471600000001
 20
23.05111099999996
 10
29.10060899999996
 20
23.02278799999996
 10
29.29954199999997
 20
23.00570799999997
 10
29.5
 20
22.99999999999997
 10
29.70045800000003
 20
23.00570799999997
 10
29.89939100000004
 20
23.02278799999996
 10
30.09528399999999
 20
23.05111099999996
 10
30.28664600000002
 20
23.09046099999995
 10
30.47202200000004
 20
23.14053799999996
 10
30.64999999999998
 20
23.20096199999995
 10
30.81922599999996
 20
23.27127199999998
 10
30.97841200000005
 20
23.35093299999996
 10
31.12634600000002
 20
23.43933899999996
 10
31.26190199999996
 20
23.53581799999998
 10
31.38405
 20
23.63963499999996
 10
31.49185799999998
 20
23.74999999999997
 10
31.58450800000004
 20
23.86607199999998
 10
31.661293
 20
23.98696899999996
 10
31.72162900000001
 20
24.11177099999998
 10
31.76505800000001
 20
24.23952699999998
 10
31.791248
 20
24.36926599999996
 10
31.80000000000001
 20
24.49999999999997
 10
31.791248
 20
24.630733
 10
31.76505800000001
 20
24.76047199999996
 10
31.72162900000001
 20
24.88822799999997
 10
31.661293
 20
25.01302999999999
 10
31.58450800000004
 20
25.13392699999997
 10
31.49185799999998
 20
25.24999999999997
 10
31.38405
 20
25.36036399999998
 10
31.26190199999996
 20
25.46418099999997
 10
31.12634600000002
 20
25.56065999999999
 10
30.97841200000005
 20
25.64906599999998
 10
30.81922599999996
 20
25.72872799999999
 10
30.64999999999998
 20
25.79903799999997
 10
30.47202200000004
 20
25.85946099999996
 10
30.28664600000002
 20
25.90953899999997
 10
30.09528399999999
 20
25.94888799999996
 10
29.89939100000004
 20
25.97721099999996
 10
29.70045800000003
 20
25.99429199999998
 10
29.5
 20
25.99999999999997
 10
29.29954199999997
 20
25.99429199999998
 10
29.10060899999996
 20
25.97721099999996
 10
28.90471600000001
 20
25.94888799999996
 10
28.71335399999998
 20
25.90953899999997
 10
28.52797799999996
 20
25.85946099999996
 10
28.35000000000002
 20
25.79903799999997
 10
28.18077400000004
 20
25.72872799999999
 10
28.02158799999995
 20
25.64906599999998
 10
27.87365399999999
 20
25.56065999999999
 10
27.73809800000004
 20
25.46418099999997
 10
27.61595
 20
25.36036399999998
 10
27.50814200000002
 20
25.24999999999997
 10
27.41549199999997
 20
25.13392699999997
 10
27.338707
 20
25.01302999999999
 10
27.27837099999999
 20
24.88822799999997
 10
27.23494199999999
 20
24.76047199999996
 10
27.208752
 20
24.630733
 10
27.19999999999999
 20
24.49999999999997
  0
LINE
  5
45A5
330
4575
100
AcDbEntity
  8
AM_0 外形線1
100
AcDbLine
 10
31.30000000000001
 20
26.0
 30
0.0
 11
27.7
 21
26.0
 31
0.0
  0
LINE
  5
45A6
330
4575
100
AcDbEntity
  8
AM_3 隠れ線
100
AcDbLine
 10
22.0
 20
28.0
 30
0.0
 11
22.0
 21
26.29999999999995
 31
0.0
  0
LINE
  5
45A7
330
4575
100
AcDbEntity
  8
AM_0 外形線1
100
AcDbLine
 10
25.0
 20
24.0
 30
0.0
 11
25.0
 21
28.0
 31
0.0
  0
LINE
  5
45A8
330
4575
100
AcDbEntity
  8
AM_0 外形線1
100
AcDbLine
 10
27.19999999999999
 20
24.0
 30
0.0
 11
25.0
 21
24.0
 31
0.0
  0
LINE
  5
45A9
330
4575
100
AcDbEntity
  8
AM_3 隠れ線
100
AcDbLine
 10
22.0
 20
26.29999999999995
 30
0.0
 11
21.5
 21
25.79999999999996
 31
0.0
  0
LINE
  5
45AA
330
4575
100
AcDbEntity
  8
AM_0 外形線1
100
AcDbLine
 10
25.0
 20
24.0
 30
0.0
 11
25.0
 21
23.0
 31
0.0
  0
LINE
  5
45AB
330
4575
100
AcDbEntity
  8
AM_0 外形線1
100
AcDbLine
 10
27.19999999999999
 20
25.5
 30
0.0
 11
27.19999999999999
 21
24.0
 31
0.0
  0
ARC
  5
45AC
330
4575
100
AcDbEntity
  8
AM_0 外形線1
100
AcDbCircle
 10
27.7
 20
25.5
 30
0.0
 40
0.5
100
AcDbArc
 50
90.0
 51
180.0
  0
LINE
  5
45AD
330
4575
100
AcDbEntity
  8
AM_0 外形線1
100
AcDbLine
 10
27.19999999999999
 20
24.0
 30
0.0
 11
27.19999999999999
 21
23.0
 31
0.0
  0
ARC
  5
45AE
330
4575
100
AcDbEntity
  8
AM_0 外形線1
100
AcDbCircle
 10
24.0
 20
28.0
 30
0.0
 40
1.0
100
AcDbArc
 50
0.0
 51
90.0
  0
ARC
  5
45AF
330
4575
100
AcDbEntity
  8
AM_0 外形線1
100
AcDbCircle
 10
23.0
 20
28.0
 30
0.0
 40
1.0
100
AcDbArc
 50
90.0
 51
174.002604526211
  0
LINE
  5
45B0
330
4575
100
AcDbEntity
  8
AM_0 外形線1
100
AcDbLine
 10
24.0
 20
29.0
 30
0.0
 11
23.0
 21
29.0
 31
0.0
  0
LINE
  5
45B1
330
4575
100
AcDbEntity
  8
AM_0 外形線1
100
AcDbLine
 10
34.0
 20
30.5
 30
0.0
 11
34.0
 21
24.0
 31
0.0
  0
LINE
  5
45B2
330
4575
100
AcDbEntity
  8
AM_0 外形線1
100
AcDbLine
 10
34.0
 20
24.0
 30
0.0
 11
31.80000000000001
 21
24.0
 31
0.0
  0
ARC
  5
45B3
330
4575
100
AcDbEntity
  8
AM_0 外形線1
100
AcDbCircle
 10
31.30000000000001
 20
25.5
 30
0.0
 40
0.5
100
AcDbArc
 50
0.0
 51
90.0
  0
LINE
  5
45B4
330
4575
100
AcDbEntity
  8
AM_0 外形線1
100
AcDbLine
 10
31.80000000000001
 20
24.0
 30
0.0
 11
31.80000000000001
 21
25.5
 31
0.0
  0
LINE
  5
45B5
330
4575
100
AcDbEntity
  8
AM_0 外形線1
100
AcDbLine
 10
31.80000000000001
 20
24.0
 30
0.0
 11
31.80000000000001
 21
23.0
 31
0.0
  0
LINE
  5
45B6
330
4575
100
AcDbEntity
  8
AM_0 外形線1
100
AcDbLine
 10
34.0
 20
24.0
 30
0.0
 11
34.0
 21
23.0
 31
0.0
  0
INSERT
  5
45B7
330
4575
100
AcDbEntity
  8
AM_0 外形線1
100
AcDbBlockReference
  2
ロッカクアナツキプラグ R1／8
 10
7.5
 20
-21.75
 30
0.0
  0
ARC
  5
4878
330
4575
100
AcDbEntity
  8
AM_3 隠れ線
100
AcDbCircle
 10
23.0
 20
28.0
 30
0.0
 40
1.0
100
AcDbArc
 50
173.9929267328567
 51
180.0
  0
ENDBLK
  5
4577
330
4575
100
AcDbEntity
  8
0
100
AcDbBlockEnd
  0
BLOCK
  5
46D5
330
46D4
100
AcDbEntity
  8
0
100
AcDbBlockBegin
  2
ケースＢ SSM100
 70
     0
 10
0.0
 20
0.0
 30
0.0
  3
ケースＢ SSM100
  1

  0
ARC
  5
46D7
330
46D4
100
AcDbEntity
  8
AM_0 外形線1
100
AcDbCircle
 10
-18.0
 20
-36.5
 30
0.0
 40
3.0
100
AcDbArc
 50
0.0
 51
90.0
  0
LINE
  5
46D8
330
46D4
100
AcDbEntity
  8
AM_0 外形線1
100
AcDbLine
 10
-15.0
 20
-49.80000000000001
 30
0.0
 11
-15.0
 21
0.0
 31
0.0
  0
LINE
  5
46D9
330
46D4
100
AcDbEntity
  8
AM_0 外形線1
100
AcDbLine
 10
-0.1999999999999886
 20
-50.0
 30
0.0
 11
-14.80000000000001
 21
-50.0
 31
0.0
  0
LINE
  5
46DB
330
46D4
100
AcDbEntity
  8
AM_0 外形線1
100
AcDbLine
 10
-14.80000000000001
 20
-50.0
 30
0.0
 11
-15.0
 21
-49.80000000000001
 31
0.0
  0
LINE
  5
46DC
330
46D4
100
AcDbEntity
  8
AM_0 外形線1
100
AcDbLine
 10
0.0
 20
-49.80000000000001
 30
0.0
 11
-0.1999999999999886
 21
-50.0
 31
0.0
  0
ARC
  5
46DD
330
46D4
100
AcDbEntity
  8
AM_0 外形線1
100
AcDbCircle
 10
-11.0
 20
28.0
 30
0.0
 40
1.0
100
AcDbArc
 50
90.0
 51
180.0
  0
LINE
  5
46DE
330
46D4
100
AcDbEntity
  8
AM_0 外形線1
100
AcDbLine
 10
0.0
 20
40.0
 30
0.0
 11
-15.0
 21
40.0
 31
0.0
  0
LINE
  5
46DF
330
46D4
100
AcDbEntity
  8
AM_0 外形線1
100
AcDbLine
 10
-15.0
 20
47.0
 30
0.0
 11
0.0
 21
47.0
 31
0.0
  0
LINE
  5
46E0
330
46D4
100
AcDbEntity
  8
AM_0 外形線1
100
AcDbLine
 10
-0.1999999999999886
 20
50.0
 30
0.0
 11
-14.80000000000001
 21
50.0
 31
0.0
  0
LINE
  5
46E1
330
46D4
100
AcDbEntity
  8
AM_7 中心線
100
AcDbLine
 10
-10.0
 20
27.0
 30
0.0
 11
-24.0
 21
27.0
 31
0.0
  0
LINE
  5
46E2
330
46D4
100
AcDbEntity
  8
AM_0 外形線1
100
AcDbLine
 10
-34.0
 20
-30.5
 30
0.0
 11
-34.0
 21
0.0
 31
0.0
  0
LINE
  5
46E3
330
46D4
100
AcDbEntity
  8
AM_0 外形線1
100
AcDbLine
 10
-18.0
 20
-33.5
 30
0.0
 11
-31.0
 21
-33.5
 31
0.0
  0
ARC
  5
46E4
330
46D4
100
AcDbEntity
  8
AM_0 外形線1
100
AcDbCircle
 10
-31.0
 20
-30.5
 30
0.0
 40
3.0
100
AcDbArc
 50
180.0
 51
270.0
  0
ARC
  5
46E5
330
46D4
100
AcDbEntity
  8
AM_0 外形線1
100
AcDbCircle
 10
-31.0
 20
30.5
 30
0.0
 40
3.0
100
AcDbArc
 50
90.0
 51
180.0
  0
ARC
  5
46E6
330
46D4
100
AcDbEntity
  8
AM_0 外形線1
100
AcDbCircle
 10
-18.0
 20
36.5
 30
0.0
 40
3.0
100
AcDbArc
 50
270.0
 51
0.0
  0
LWPOLYLINE
  5
46E7
330
46D4
100
AcDbEntity
  8
AM_0 外形線1
100
AcDbPolyline
 90
       73
 70
     0
 43
0.0
 10
-27.19999999999999
 20
24.49999999999997
 10
-27.208752
 20
24.630733
 10
-27.23494199999999
 20
24.76047199999996
 10
-27.27837099999999
 20
24.88822799999997
 10
-27.338707
 20
25.01302999999999
 10
-27.41549199999997
 20
25.13392699999997
 10
-27.50814200000002
 20
25.24999999999997
 10
-27.61595
 20
25.36036399999998
 10
-27.73809799999998
 20
25.46418099999997
 10
-27.87365399999999
 20
25.56065999999999
 10
-28.02158800000001
 20
25.64906599999998
 10
-28.18077400000004
 20
25.72872799999999
 10
-28.35000000000002
 20
25.79903799999997
 10
-28.52797799999996
 20
25.85946099999996
 10
-28.71335399999998
 20
25.90953899999997
 10
-28.90471600000001
 20
25.94888799999996
 10
-29.10060899999996
 20
25.97721099999996
 10
-29.29954199999997
 20
25.99429199999998
 10
-29.5
 20
25.99999999999997
 10
-29.70045800000003
 20
25.99429199999998
 10
-29.89939100000004
 20
25.97721099999996
 10
-30.09528399999999
 20
25.94888799999996
 10
-30.28664600000002
 20
25.90953899999997
 10
-30.47202200000004
 20
25.85946099999996
 10
-30.64999999999998
 20
25.79903799999997
 10
-30.81922599999996
 20
25.72872799999999
 10
-30.97841199999999
 20
25.64906599999998
 10
-31.12634600000002
 20
25.56065999999999
 10
-31.26190200000002
 20
25.46418099999997
 10
-31.38405
 20
25.36036399999998
 10
-31.49185799999998
 20
25.24999999999997
 10
-31.58450800000004
 20
25.13392699999997
 10
-31.661293
 20
25.01302999999999
 10
-31.72162900000001
 20
24.88822799999997
 10
-31.76505800000001
 20
24.76047199999996
 10
-31.791248
 20
24.630733
 10
-31.80000000000001
 20
24.49999999999997
 10
-31.791248
 20
24.36926599999996
 10
-31.76505800000001
 20
24.23952699999998
 10
-31.72162900000001
 20
24.11177099999998
 10
-31.661293
 20
23.98696899999996
 10
-31.58450800000004
 20
23.86607199999998
 10
-31.49185799999998
 20
23.74999999999997
 10
-31.38405
 20
23.63963499999996
 10
-31.26190200000002
 20
23.53581799999998
 10
-31.12634600000002
 20
23.43933899999996
 10
-30.97841199999999
 20
23.35093299999996
 10
-30.81922599999996
 20
23.27127199999998
 10
-30.64999999999998
 20
23.20096199999995
 10
-30.47202200000004
 20
23.14053799999996
 10
-30.28664600000002
 20
23.09046099999995
 10
-30.09528399999999
 20
23.05111099999996
 10
-29.89939100000004
 20
23.02278799999996
 10
-29.70045800000003
 20
23.00570799999997
 10
-29.5
 20
22.99999999999997
 10
-29.29954199999997
 20
23.00570799999997
 10
-29.10060899999996
 20
23.02278799999996
 10
-28.90471600000001
 20
23.05111099999996
 10
-28.71335399999998
 20
23.09046099999995
 10
-28.52797799999996
 20
23.14053799999996
 10
-28.35000000000002
 20
23.20096199999995
 10
-28.18077400000004
 20
23.27127199999998
 10
-28.02158800000001
 20
23.35093299999996
 10
-27.87365399999999
 20
23.43933899999996
 10
-27.73809799999998
 20
23.53581799999998
 10
-27.61595
 20
23.63963499999996
 10
-27.50814200000002
 20
23.74999999999997
 10
-27.41549199999997
 20
23.86607199999998
 10
-27.338707
 20
23.98696899999996
 10
-27.27837099999999
 20
24.11177099999998
 10
-27.23494199999999
 20
24.23952699999998
 10
-27.208752
 20
24.36926599999996
 10
-27.19999999999999
 20
24.49999999999997
  0
LINE
  5
46E8
330
46D4
100
AcDbEntity
  8
AM_0 外形線1
100
AcDbLine
 10
-31.30000000000001
 20
26.0
 30
0.0
 11
-27.7
 21
26.0
 31
0.0
  0
LINE
  5
46E9
330
46D4
100
AcDbEntity
  8
AM_0 外形線1
100
AcDbLine
 10
-34.0
 20
30.5
 30
0.0
 11
-34.0
 21
24.0
 31
0.0
  0
LINE
  5
46EA
330
46D4
100
AcDbEntity
  8
AM_0 外形線1
100
AcDbLine
 10
-34.0
 20
24.0
 30
0.0
 11
-31.80000000000001
 21
24.0
 31
0.0
  0
LINE
  5
46EB
330
46D4
100
AcDbEntity
  8
AM_0 外形線1
100
AcDbLine
 10
-34.0
 20
24.0
 30
0.0
 11
-34.0
 21
23.0
 31
0.0
  0
ARC
  5
46EC
330
46D4
100
AcDbEntity
  8
AM_0 外形線1
100
AcDbCircle
 10
-31.30000000000001
 20
25.5
 30
0.0
 40
0.5
100
AcDbArc
 50
90.0
 51
180.0
  0
LINE
  5
46ED
330
46D4
100
AcDbEntity
  8
AM_0 外形線1
100
AcDbLine
 10
-31.80000000000001
 20
24.0
 30
0.0
 11
-31.80000000000001
 21
25.5
 31
0.0
  0
LINE
  5
46EE
330
46D4
100
AcDbEntity
  8
AM_0 外形線1
100
AcDbLine
 10
-31.80000000000001
 20
24.0
 30
0.0
 11
-31.80000000000001
 21
23.0
 31
0.0
  0
LINE
  5
46EF
330
46D4
100
AcDbEntity
  8
AM_3 隠れ線
100
AcDbLine
 10
-14.0
 20
25.79999999999996
 30
0.0
 11
-21.5
 21
25.79999999999996
 31
0.0
  0
LINE
  5
46F0
330
46D4
100
AcDbEntity
  8
AM_0 外形線1
100
AcDbLine
 10
-12.0
 20
28.5
 30
0.0
 11
-22.0
 21
28.5
 31
0.0
  0
LINE
  5
46F1
330
46D4
100
AcDbEntity
  8
AM_3 隠れ線
100
AcDbLine
 10
-22.0
 20
28.0
 30
0.0
 11
-22.0
 21
26.29999999999995
 31
0.0
  0
LINE
  5
46F2
330
46D4
100
AcDbEntity
  8
AM_0 外形線1
100
AcDbLine
 10
-25.0
 20
24.0
 30
0.0
 11
-25.0
 21
28.0
 31
0.0
  0
LINE
  5
46F3
330
46D4
100
AcDbEntity
  8
AM_0 外形線1
100
AcDbLine
 10
-27.19999999999999
 20
24.0
 30
0.0
 11
-25.0
 21
24.0
 31
0.0
  0
LINE
  5
46F4
330
46D4
100
AcDbEntity
  8
AM_0 外形線1
100
AcDbLine
 10
-27.19999999999999
 20
25.5
 30
0.0
 11
-27.19999999999999
 21
24.0
 31
0.0
  0
ARC
  5
46F5
330
46D4
100
AcDbEntity
  8
AM_0 外形線1
100
AcDbCircle
 10
-27.7
 20
25.5
 30
0.0
 40
0.5
100
AcDbArc
 50
0.0
 51
90.0
  0
LINE
  5
46F6
330
46D4
100
AcDbEntity
  8
AM_0 外形線1
100
AcDbLine
 10
-25.0
 20
24.0
 30
0.0
 11
-25.0
 21
23.0
 31
0.0
  0
LINE
  5
46F7
330
46D4
100
AcDbEntity
  8
AM_0 外形線1
100
AcDbLine
 10
-27.19999999999999
 20
24.0
 30
0.0
 11
-27.19999999999999
 21
23.0
 31
0.0
  0
LINE
  5
46F8
330
46D4
100
AcDbEntity
  8
AM_3 隠れ線
100
AcDbLine
 10
-22.0
 20
26.29999999999995
 30
0.0
 11
-21.5
 21
25.79999999999996
 31
0.0
  0
ARC
  5
46F9
330
46D4
100
AcDbEntity
  8
AM_0 外形線1
100
AcDbCircle
 10
-24.0
 20
28.0
 30
0.0
 40
1.0
100
AcDbArc
 50
90.0
 51
180.0
  0
ARC
  5
46FA
330
46D4
100
AcDbEntity
  8
AM_0 外形線1
100
AcDbCircle
 10
-23.0
 20
28.0
 30
0.0
 40
1.0
100
AcDbArc
 50
0.0
 51
90.0
  0
LINE
  5
46FB
330
46D4
100
AcDbEntity
  8
AM_0 外形線1
100
AcDbLine
 10
-24.0
 20
29.0
 30
0.0
 11
-23.0
 21
29.0
 31
0.0
  0
LINE
  5
46FC
330
46D4
100
AcDbEntity
  8
AM_0 外形線1
100
AcDbLine
 10
-12.0
 20
26.29999999999995
 30
0.0
 11
-12.0
 21
28.0
 31
0.0
  0
LINE
  5
46FD
330
46D4
100
AcDbEntity
  8
AM_0 外形線1
100
AcDbLine
 10
-14.0
 20
25.79999999999996
 30
0.0
 11
-12.5
 21
25.79999999999996
 31
0.0
  0
LINE
  5
46FE
330
46D4
100
AcDbEntity
  8
AM_0 外形線1
100
AcDbLine
 10
-12.5
 20
25.79999999999996
 30
0.0
 11
-12.0
 21
26.29999999999995
 31
0.0
  0
LINE
  5
46FF
330
46D4
100
AcDbEntity
  8
AM_0 外形線1
100
AcDbLine
 10
-12.0
 20
26.59278999999993
 30
0.0
 11
-12.0
 21
24.38973499999998
 31
0.0
  0
LINE
  5
4700
330
46D4
100
AcDbEntity
  8
AM_0 外形線1
100
AcDbLine
 10
-18.0
 20
33.5
 30
0.0
 11
-31.0
 21
33.5
 31
0.0
  0
LINE
  5
4701
330
46D4
100
AcDbEntity
  8
AM_0 外形線1
100
AcDbLine
 10
-15.0
 20
37.75
 30
0.0
 11
-15.0
 21
49.25
 31
0.0
  0
LINE
  5
4702
330
46D4
100
AcDbEntity
  8
AM_0 外形線1
100
AcDbLine
 10
-15.0
 20
40.0
 30
0.0
 11
-15.0
 21
36.5
 31
0.0
  0
LINE
  5
4703
330
46D4
100
AcDbEntity
  8
AM_0 外形線1
100
AcDbLine
 10
-15.0
 20
49.79999999999995
 30
0.0
 11
-15.0
 21
47.0
 31
0.0
  0
LINE
  5
4704
330
46D4
100
AcDbEntity
  8
AM_0 外形線1
100
AcDbLine
 10
-14.80000000000001
 20
50.0
 30
0.0
 11
-15.0
 21
49.79999999999995
 31
0.0
  0
LINE
  5
4705
330
46D4
100
AcDbEntity
  8
AM_0 外形線1
100
AcDbLine
 10
0.0
 20
32.69999999999993
 30
0.0
 11
0.0
 21
40.0
 31
0.0
  0
LINE
  5
4706
330
46D4
100
AcDbEntity
  8
AM_0 外形線1
100
AcDbLine
 10
0.0
 20
32.69999999999993
 30
0.0
 11
0.0
 21
40.0
 31
0.0
  0
LINE
  5
4707
330
46D4
100
AcDbEntity
  8
AM_0 外形線1
100
AcDbLine
 10
-11.0
 20
29.0
 30
0.0
 11
-3.0
 21
29.0
 31
0.0
  0
LINE
  5
4708
330
46D4
100
AcDbEntity
  8
AM_0 外形線1
100
AcDbLine
 10
-3.0
 20
29.0
 30
0.0
 11
-3.0
 21
25.5
 31
0.0
  0
LINE
  5
4709
330
46D4
100
AcDbEntity
  8
AM_0 外形線1
100
AcDbLine
 10
-0.1999999999999886
 20
32.5
 30
0.0
 11
0.0
 21
32.69999999999993
 31
0.0
  0
LINE
  5
470A
330
46D4
100
AcDbEntity
  8
AM_0 外形線1
100
AcDbLine
 10
-3.0
 20
32.5
 30
0.0
 11
-0.1999999999999886
 21
32.5
 31
0.0
  0
LINE
  5
470B
330
46D4
100
AcDbEntity
  8
AM_0 外形線1
100
AcDbLine
 10
-3.0
 20
29.0
 30
0.0
 11
-3.0
 21
32.5
 31
0.0
  0
LINE
  5
470C
330
46D4
100
AcDbEntity
  8
AM_0 外形線1
100
AcDbLine
 10
0.0
 20
49.79999999999995
 30
0.0
 11
-0.1999999999999886
 21
50.0
 31
0.0
  0
LINE
  5
4786
330
46D4
100
AcDbEntity
  8
AM_0 外形線1
100
AcDbLine
 10
0.0
 20
0.0
 30
0.0
 11
0.0
 21
-49.80000000000001
 31
0.0
  0
LINE
  5
4787
330
46D4
100
AcDbEntity
  8
AM_7 中心線
100
AcDbLine
 10
-20.0
 20
-43.5
 30
0.0
 11
20.0
 21
-43.5
 31
0.0
  0
LINE
  5
5919
330
46D4
100
AcDbEntity
  8
AM_0 外形線1
100
AcDbLine
 10
0.0
 20
49.79999999999995
 30
0.0
 11
0.0
 21
47.0
 31
0.0
  0
ENDBLK
  5
46D6
330
46D4
100
AcDbEntity
  8
0
100
AcDbBlockEnd
  0
BLOCK
  5
47DE
330
47DD
100
AcDbEntity
  8
0
100
AcDbBlockBegin
  2
センタＡ SSM100
 70
     0
 10
0.0
 20
0.0
 30
0.0
  3
センタＡ SSM100
  1

  0
LINE
  5
47E0
330
47DD
100
AcDbEntity
  8
AM_0 外形線1
100
AcDbLine
 10
0.0
 20
22.0
 30
0.0
 11
0.0
 21
0.0
 31
0.0
  0
LINE
  5
47E1
330
47DD
100
AcDbEntity
  8
AM_0 外形線1
100
AcDbLine
 10
45.0
 20
-20.0
 30
0.0
 11
45.0
 21
20.0
 31
0.0
  0
ARC
  5
47E2
330
47DD
100
AcDbEntity
  8
AM_0 外形線1
100
AcDbCircle
 10
42.0
 20
-20.0
 30
0.0
 40
3.0
100
AcDbArc
 50
270.0
 51
0.0
  0
ARC
  5
47E4
330
47DD
100
AcDbEntity
  8
AM_0 外形線1
100
AcDbCircle
 10
13.75
 20
0.0
 30
0.0
 40
28.425
100
AcDbArc
 50
80.38037700000044
 51
96.56532599999987
  0
LINE
  5
47E6
330
47DD
100
AcDbEntity
  8
AM_7 中心線
100
AcDbLine
 10
13.75
 20
33.42499999999996
 30
0.0
 11
13.75
 21
20.34999999999997
 31
0.0
  0
LINE
  5
47E7
330
47DD
100
AcDbEntity
  8
AM_0 外形線1
100
AcDbLine
 10
9.5
 20
22.5
 30
0.0
 11
0.5
 21
22.5
 31
0.0
  0
LINE
  5
47E8
330
47DD
100
AcDbEntity
  8
AM_0 外形線1
100
AcDbLine
 10
0.5
 20
22.5
 30
0.0
 11
0.0
 21
22.0
 31
0.0
  0
LINE
  5
47E9
330
47DD
100
AcDbEntity
  8
AM_0 外形線1
100
AcDbLine
 10
10.0
 20
27.67655200000002
 30
0.0
 11
10.0
 21
23.0
 31
0.0
  0
ARC
  5
47EA
330
47DD
100
AcDbEntity
  8
AM_0 外形線1
100
AcDbCircle
 10
9.5
 20
23.0
 30
0.0
 40
0.5
100
AcDbArc
 50
270.0
 51
0.0
  0
LINE
  5
47EB
330
47DD
100
AcDbEntity
  8
AM_0 外形線1
100
AcDbLine
 10
10.5
 20
28.23859199999993
 30
0.0
 11
10.0
 21
27.67655200000002
 31
0.0
  0
LINE
  5
47EC
330
47DD
100
AcDbEntity
  8
AM_0 外形線1
100
AcDbLine
 10
42.0
 20
23.0
 30
0.0
 11
19.5
 21
23.0
 31
0.0
  0
LINE
  5
47ED
330
47DD
100
AcDbEntity
  8
AM_0 外形線1
100
AcDbLine
 10
19.0
 20
23.5
 30
0.0
 11
19.0
 21
27.43596399999996
 31
0.0
  0
ARC
  5
47EE
330
47DD
100
AcDbEntity
  8
AM_0 外形線1
100
AcDbCircle
 10
19.5
 20
23.5
 30
0.0
 40
0.5
100
AcDbArc
 50
180.0
 51
270.0
  0
LINE
  5
47EF
330
47DD
100
AcDbEntity
  8
AM_0 外形線1
100
AcDbLine
 10
19.0
 20
27.43596399999996
 30
0.0
 11
18.5
 21
28.02531199999999
 31
0.0
  0
ARC
  5
47F0
330
47DD
100
AcDbEntity
  8
AM_0 外形線1
100
AcDbCircle
 10
42.0
 20
20.0
 30
0.0
 40
3.0
100
AcDbArc
 50
0.0
 51
90.0
  0
LINE
  5
47F1
330
47DD
100
AcDbEntity
  8
AM_0 外形線1
100
AcDbLine
 10
0.0
 20
12.49999999999997
 30
0.0
 11
45.0
 21
12.49999999999994
 31
0.0
  0
LINE
  5
47F5
330
47DD
100
AcDbEntity
  8
AM_0 外形線1
100
AcDbLine
 10
30.0
 20
-23.0
 30
0.0
 11
42.0
 21
-23.0
 31
0.0
  0
ARC
  5
6B01
330
47DD
100
AcDbEntity
  8
AM_7 中心線
100
AcDbCircle
 10
13.75
 20
0.0
 30
0.0
 40
27.0
100
AcDbArc
 50
74.42387092342889
 51
102.439706537219
  0
ARC
  5
6B02
330
47DD
100
AcDbEntity
  8
AM_0 外形線1
100
AcDbCircle
 10
13.75
 20
0.0
 30
0.0
 40
25.34999999999994
100
AcDbArc
 50
78.04750659897877
 51
98.50692775586129
  0
ENDBLK
  5
47DF
330
47DD
100
AcDbEntity
  8
0
100
AcDbBlockEnd
  0
BLOCK
  5
48FA
330
48F9
100
AcDbEntity
  8
0
100
AcDbBlockBegin
  2
センタＢ SSM100
 70
     0
 10
0.0
 20
0.0
 30
0.0
  3
センタＢ SSM100
  1

  0
LINE
  5
48FC
330
48F9
100
AcDbEntity
  8
AM_0 外形線1
100
AcDbLine
 10
-9.5
 20
22.5
 30
0.0
 11
-0.5
 21
22.5
 31
0.0
  0
LINE
  5
48FE
330
48F9
100
AcDbEntity
  8
AM_0 外形線1
100
AcDbLine
 10
-45.0
 20
-20.0
 30
0.0
 11
-45.0
 21
20.0
 31
0.0
  0
LINE
  5
48FF
330
48F9
100
AcDbEntity
  8
AM_0 外形線1
100
AcDbLine
 10
-30.0
 20
-23.0
 30
0.0
 11
-42.0
 21
-23.0
 31
0.0
  0
ARC
  5
4900
330
48F9
100
AcDbEntity
  8
AM_0 外形線1
100
AcDbCircle
 10
-42.0
 20
-20.0
 30
0.0
 40
3.0
100
AcDbArc
 50
180.0
 51
270.0
  0
LINE
  5
4901
330
48F9
100
AcDbEntity
  8
AM_0 外形線1
100
AcDbLine
 10
-42.0
 20
23.0
 30
0.0
 11
-19.5
 21
23.0
 31
0.0
  0
ARC
  5
4902
330
48F9
100
AcDbEntity
  8
AM_0 外形線1
100
AcDbCircle
 10
-42.0
 20
20.0
 30
0.0
 40
3.0
100
AcDbArc
 50
90.0
 51
180.0
  0
LINE
  5
4903
330
48F9
100
AcDbEntity
  8
AM_7 中心線
100
AcDbLine
 10
-13.75
 20
33.42499999999996
 30
0.0
 11
-13.75
 21
22.20402731576354
 31
0.0
  0
ARC
  5
4906
330
48F9
100
AcDbEntity
  8
AM_0 外形線1
100
AcDbCircle
 10
-13.75
 20
0.0
 30
0.0
 40
28.425
100
AcDbArc
 50
83.43467400000013
 51
99.61962299999957
  0
LINE
  5
4908
330
48F9
100
AcDbEntity
  8
AM_0 外形線1
100
AcDbLine
 10
-19.0
 20
23.5
 30
0.0
 11
-19.0
 21
27.43596399999996
 31
0.0
  0
ARC
  5
4909
330
48F9
100
AcDbEntity
  8
AM_0 外形線1
100
AcDbCircle
 10
-19.5
 20
23.5
 30
0.0
 40
0.5
100
AcDbArc
 50
270.0
 51
0.0
  0
LINE
  5
490A
330
48F9
100
AcDbEntity
  8
AM_0 外形線1
100
AcDbLine
 10
-19.0
 20
27.43596399999996
 30
0.0
 11
-18.5
 21
28.02531199999999
 31
0.0
  0
LINE
  5
490B
330
48F9
100
AcDbEntity
  8
AM_0 外形線1
100
AcDbLine
 10
-10.0
 20
27.67655200000002
 30
0.0
 11
-10.0
 21
23.0
 31
0.0
  0
ARC
  5
490C
330
48F9
100
AcDbEntity
  8
AM_0 外形線1
100
AcDbCircle
 10
-9.5
 20
23.0
 30
0.0
 40
0.5
100
AcDbArc
 50
180.0
 51
270.0
  0
LINE
  5
490D
330
48F9
100
AcDbEntity
  8
AM_0 外形線1
100
AcDbLine
 10
-10.5
 20
28.23859199999993
 30
0.0
 11
-10.0
 21
27.67655200000002
 31
0.0
  0
LINE
  5
490E
330
48F9
100
AcDbEntity
  8
AM_0 外形線1
100
AcDbLine
 10
0.0
 20
22.0
 30
0.0
 11
0.0
 21
0.0
 31
0.0
  0
LINE
  5
490F
330
48F9
100
AcDbEntity
  8
AM_0 外形線1
100
AcDbLine
 10
-0.5
 20
22.5
 30
0.0
 11
0.0
 21
22.0
 31
0.0
  0
LINE
  5
4910
330
48F9
100
AcDbEntity
  8
AM_0 外形線1
100
AcDbLine
 10
-45.0
 20
12.50000000000003
 30
0.0
 11
0.0
 21
12.49999999999997
 31
0.0
  0
ARC
  5
67EC
330
48F9
100
AcDbEntity
  8
AM_7 中心線
100
AcDbCircle
 10
-13.75
 20
0.0000000000000284
 30
0.0
 40
26.99999999999997
100
AcDbArc
 50
77.56029346278102
 51
105.5761290765711
  0
ARC
  5
6801
330
48F9
100
AcDbEntity
  8
AM_0 外形線1
100
AcDbCircle
 10
-13.75
 20
0.0000000000000284
 30
0.0
 40
25.34999999999991
100
AcDbArc
 50
81.49307224413872
 51
101.9524934010212
  0
ENDBLK
  5
48FB
330
48F9
100
AcDbEntity
  8
0
100
AcDbBlockEnd
  0
BLOCK
  5
4A07
330
4A06
100
AcDbEntity
  8
0
100
AcDbBlockBegin
  2
リーマボルト SSM100 M6
 70
     0
 10
0.0
 20
0.0
 30
0.0
  3
リーマボルト SSM100 M6
  1

  0
LINE
  5
4A09
330
4A06
100
AcDbEntity
  8
AM_0 外形線1
100
AcDbLine
 10
1.0
 20
-3.5
 30
0.0
 11
1.0
 21
3.5
 31
0.0
  0
ARC
  5
4A0A
330
4A06
100
AcDbEntity
  8
AM_0 外形線1
100
AcDbCircle
 10
5.839011000000027
 20
0.0
 30
0.0
 40
9.839010999999999
100
AcDbArc
 50
162.9384689999997
 51
197.0615310000002
  0
LINE
  5
4A0B
330
4A06
100
AcDbEntity
  8
AM_0 外形線1
100
AcDbLine
 10
-4.0
 20
5.0
 30
0.0
 11
-4.0
 21
-5.0
 31
0.0
  0
ARC
  5
4A0C
330
4A06
100
AcDbEntity
  8
AM_0 外形線1
100
AcDbCircle
 10
-1.416878999999994
 20
-4.318376000000056
 30
0.0
 40
2.583120999999998
100
AcDbArc
 50
146.3428029999991
 51
213.6571970000009
  0
LINE
  5
4A0D
330
4A06
100
AcDbEntity
  8
AM_0 外形線1
100
AcDbLine
 10
-3.566986999999982
 20
-5.75
 30
0.0
 11
0.0
 21
-5.75
 31
0.0
  0
LINE
  5
4A0E
330
4A06
100
AcDbEntity
  8
AM_0 外形線1
100
AcDbLine
 10
-4.0
 20
-5.0
 30
0.0
 11
-3.566986999999982
 21
-5.75
 31
0.0
  0
LINE
  5
4A0F
330
4A06
100
AcDbEntity
  8
AM_0 外形線1
100
AcDbLine
 10
0.0
 20
-2.886752000000001
 30
0.0
 11
-3.566986999999982
 21
-2.886752000000001
 31
0.0
  0
ARC
  5
4A10
330
4A06
100
AcDbEntity
  8
AM_0 外形線1
100
AcDbCircle
 10
0.5
 20
-3.5
 30
0.0
 40
0.5
100
AcDbArc
 50
0.0
 51
180.0
  0
LINE
  5
4A11
330
4A06
100
AcDbEntity
  8
AM_0 外形線1
100
AcDbLine
 10
0.0
 20
2.886750999999946
 30
0.0
 11
-3.566986999999982
 21
2.886750999999946
 31
0.0
  0
LINE
  5
4A12
330
4A06
100
AcDbEntity
  8
AM_0 外形線1
100
AcDbLine
 10
0.0
 20
5.75
 30
0.0
 11
-3.566986999999982
 21
5.75
 31
0.0
  0
ARC
  5
4A13
330
4A06
100
AcDbEntity
  8
AM_0 外形線1
100
AcDbCircle
 10
-1.416878999999994
 20
4.318374999999946
 30
0.0
 40
2.583120999999998
100
AcDbArc
 50
146.3428029999991
 51
213.6571970000009
  0
LINE
  5
4A14
330
4A06
100
AcDbEntity
  8
AM_0 外形線1
100
AcDbLine
 10
-3.566986999999982
 20
5.75
 30
0.0
 11
-4.0
 21
5.0
 31
0.0
  0
ARC
  5
4A15
330
4A06
100
AcDbEntity
  8
AM_0 外形線1
100
AcDbCircle
 10
0.5
 20
3.5
 30
0.0
 40
0.5
100
AcDbArc
 50
180.0
 51
0.0
  0
LINE
  5
4A16
330
4A06
100
AcDbEntity
  8
AM_0 外形線1
100
AcDbLine
 10
31.5
 20
-2.886752000000001
 30
0.0
 11
36.06698700000004
 21
-2.886752000000001
 31
0.0
  0
LINE
  5
4A17
330
4A06
100
AcDbEntity
  8
AM_0 外形線1
100
AcDbLine
 10
31.5
 20
2.886750999999946
 30
0.0
 11
36.06698700000004
 21
2.886750999999946
 31
0.0
  0
LINE
  5
4A18
330
4A06
100
AcDbEntity
  8
AM_0 外形線1
100
AcDbLine
 10
36.06698700000004
 20
-5.75
 30
0.0
 11
31.5
 21
-5.75
 31
0.0
  0
LINE
  5
4A19
330
4A06
100
AcDbEntity
  8
AM_0 外形線1
100
AcDbLine
 10
31.5
 20
5.75
 30
0.0
 11
36.06698700000004
 21
5.75
 31
0.0
  0
LINE
  5
4A1A
330
4A06
100
AcDbEntity
  8
AM_0 外形線1
100
AcDbLine
 10
31.5
 20
-5.75
 30
0.0
 11
31.5
 21
5.75
 31
0.0
  0
LINE
  5
4A1B
330
4A06
100
AcDbEntity
  8
AM_0 外形線1
100
AcDbLine
 10
26.1339745962157
 20
3.5
 30
0.0
 11
26.1339745962157
 21
-3.5
 31
0.0
  0
LINE
  5
4A1C
330
4A06
100
AcDbEntity
  8
AM_0 外形線1
100
AcDbLine
 10
27.0
 20
3.000000000000028
 30
0.0
 11
27.00000000000006
 21
-3.0
 31
0.0
  0
LINE
  5
4A1D
330
4A06
100
AcDbEntity
  8
AM_0 外形線1
100
AcDbLine
 10
31.5
 20
-6.100000000000022
 30
0.0
 11
31.5
 21
-5.75
 31
0.0
  0
LINE
  5
4A1E
330
4A06
100
AcDbEntity
  8
AM_0 外形線1
100
AcDbLine
 10
30.0
 20
-6.100000000000022
 30
0.0
 11
31.5
 21
-6.100000000000022
 31
0.0
  0
LINE
  5
4A1F
330
4A06
100
AcDbEntity
  8
AM_0 外形線1
100
AcDbLine
 10
31.5
 20
0.5
 30
0.0
 11
30.0
 21
-1.0
 31
0.0
  0
LINE
  5
4A20
330
4A06
100
AcDbEntity
  8
AM_0 外形線1
100
AcDbLine
 10
31.5
 20
1.0
 30
0.0
 11
30.0
 21
-0.5
 31
0.0
  0
LINE
  5
4A21
330
4A06
100
AcDbEntity
  8
AM_0 外形線1
100
AcDbLine
 10
31.5
 20
6.099999999999965
 30
0.0
 11
30.0
 21
6.099999999999965
 31
0.0
  0
LINE
  5
4A22
330
4A06
100
AcDbEntity
  8
AM_0 外形線1
100
AcDbLine
 10
31.5
 20
5.75
 30
0.0
 11
31.5
 21
6.099999999999965
 31
0.0
  0
LINE
  5
4A23
330
4A06
100
AcDbEntity
  8
AM_0 外形線1
100
AcDbLine
 10
38.0
 20
3.0
 30
0.0
 11
38.0
 21
-3.0
 31
0.0
  0
LINE
  5
4A24
330
4A06
100
AcDbEntity
  8
AM_0 外形線1
100
AcDbLine
 10
39.0
 20
2.0
 30
0.0
 11
39.0
 21
-2.0
 31
0.0
  0
ARC
  5
4A25
330
4A06
100
AcDbEntity
  8
AM_0 外形線1
100
AcDbCircle
 10
26.66098899999997
 20
0.0
 30
0.0
 40
9.839010999999999
100
AcDbArc
 50
342.9384689999998
 51
17.06153100000025
  0
LINE
  5
4A26
330
4A06
100
AcDbEntity
  8
AM_0 外形線1
100
AcDbLine
 10
36.5
 20
5.0
 30
0.0
 11
36.5
 21
-5.0
 31
0.0
  0
ARC
  5
4A27
330
4A06
100
AcDbEntity
  8
AM_0 外形線1
100
AcDbCircle
 10
33.91687899999999
 20
-4.318376000000056
 30
0.0
 40
2.583120999999998
100
AcDbArc
 50
326.3428029999992
 51
33.65719700000087
  0
LINE
  5
4A28
330
4A06
100
AcDbEntity
  8
AM_0 外形線1
100
AcDbLine
 10
36.5
 20
-5.0
 30
0.0
 11
36.06698700000004
 21
-5.75
 31
0.0
  0
LINE
  5
4A29
330
4A06
100
AcDbEntity
  8
AM_4 細線
100
AcDbLine
 10
29.0
 20
-2.5
 30
0.0
 11
30.0
 21
-2.5
 31
0.0
  0
LINE
  5
4A2A
330
4A06
100
AcDbEntity
  8
AM_0 外形線1
100
AcDbLine
 10
38.0
 20
-3.0
 30
0.0
 11
36.5
 21
-3.0
 31
0.0
  0
LINE
  5
4A2B
330
4A06
100
AcDbEntity
  8
AM_0 外形線1
100
AcDbLine
 10
39.0
 20
-2.0
 30
0.0
 11
38.0
 21
-3.0
 31
0.0
  0
LINE
  5
4A2C
330
4A06
100
AcDbEntity
  8
AM_4 細線
100
AcDbLine
 10
29.0
 20
2.49999999999997
 30
0.0
 11
30.0
 21
2.49999999999997
 31
0.0
  0
LINE
  5
4A2D
330
4A06
100
AcDbEntity
  8
AM_0 外形線1
100
AcDbLine
 10
38.0
 20
3.0
 30
0.0
 11
39.0
 21
2.0
 31
0.0
  0
LINE
  5
4A2E
330
4A06
100
AcDbEntity
  8
AM_0 外形線1
100
AcDbLine
 10
27.0
 20
3.000000000000028
 30
0.0
 11
30.0
 21
3.000000000000028
 31
0.0
  0
ARC
  5
4A2F
330
4A06
100
AcDbEntity
  8
AM_0 外形線1
100
AcDbCircle
 10
33.91687899999999
 20
4.318374999999946
 30
0.0
 40
2.583120999999998
100
AcDbArc
 50
326.3428029999992
 51
33.65719700000087
  0
LINE
  5
4A30
330
4A06
100
AcDbEntity
  8
AM_0 外形線1
100
AcDbLine
 10
36.06698700000004
 20
5.75
 30
0.0
 11
36.5
 21
5.0
 31
0.0
  0
LINE
  5
4A31
330
4A06
100
AcDbEntity
  8
AM_4 細線
100
AcDbLine
 10
29.0
 20
2.999999999999971
 30
0.0
 11
29.0
 21
-3.0
 31
0.0
  0
LINE
  5
4A32
330
4A06
100
AcDbEntity
  8
AM_0 外形線1
100
AcDbLine
 10
27.0
 20
3.0
 30
0.0
 11
26.1339745962157
 21
3.5
 31
0.0
  0
LINE
  5
4A33
330
4A06
100
AcDbEntity
  8
AM_0 外形線1
100
AcDbLine
 10
27.0
 20
-3.0
 30
0.0
 11
26.13397459621558
 21
-3.5
 31
0.0
  0
LINE
  5
4A34
330
4A06
100
AcDbEntity
  8
AM_0 外形線1
100
AcDbLine
 10
36.5
 20
3.0
 30
0.0
 11
38.0
 21
3.0
 31
0.0
  0
LINE
  5
4A35
330
4A06
100
AcDbEntity
  8
AM_0 外形線1
100
AcDbLine
 10
30.0
 20
-3.000000000000028
 30
0.0
 11
27.00000000000006
 21
-3.0
 31
0.0
  0
LINE
  5
4A36
330
4A06
100
AcDbEntity
  8
AM_4 細線
100
AcDbLine
 10
36.5
 20
2.49999999999997
 30
0.0
 11
38.5
 21
2.5
 31
0.0
  0
LINE
  5
4A37
330
4A06
100
AcDbEntity
  8
AM_4 細線
100
AcDbLine
 10
36.5
 20
-2.5
 30
0.0
 11
38.5
 21
-2.5
 31
0.0
  0
LINE
  5
4A38
330
4A06
100
AcDbEntity
  8
AM_4 細線
100
AcDbLine
 10
29.0
 20
2.49999999999997
 30
0.0
 11
28.13397459621547
 21
3.000000000000028
 31
0.0
  0
LINE
  5
4A39
330
4A06
100
AcDbEntity
  8
AM_4 細線
100
AcDbLine
 10
29.0
 20
-2.5
 30
0.0
 11
28.13397459621547
 21
-3.000000000000055
 31
0.0
  0
LINE
  5
4AAB
330
4A06
100
AcDbEntity
  8
AM_0 外形線1
100
AcDbLine
 10
0.0
 20
5.75
 30
0.0
 11
0.0
 21
-5.75
 31
0.0
  0
LINE
  5
4AAC
330
4A06
100
AcDbEntity
  8
AM_0 外形線1
100
AcDbLine
 10
1.0
 20
-3.5
 30
0.0
 11
26.1339745962157
 21
-3.5
 31
0.0
  0
LINE
  5
4AAD
330
4A06
100
AcDbEntity
  8
AM_0 外形線1
100
AcDbLine
 10
26.1339745962157
 20
3.5
 30
0.0
 11
1.0
 21
3.5
 31
0.0
  0
LINE
  5
4AAE
330
4A06
100
AcDbEntity
  8
AM_0 外形線1
100
AcDbLine
 10
30.0
 20
6.099999999999965
 30
0.0
 11
30.0
 21
-6.100000000000022
 31
0.0
  0
ENDBLK
  5
4A08
330
4A06
100
AcDbEntity
  8
0
100
AcDbBlockEnd
  0
BLOCK
  5
4BE3
330
4BE2
100
AcDbEntity
  8
0
100
AcDbBlockBegin
  2
*D12
 70
     1
 10
0.0
 20
0.0
 30
0.0
  3
*D12
  1

  0
LINE
  5
56FE
330
4BE2
100
AcDbEntity
  8
AM_5 寸法線
 62
     3
100
AcDbLine
 10
135.4602308223354
 20
227.8426395263247
 30
0.0
 11
117.1377749371934
 21
227.8426395263247
 31
0.0
  0
LINE
  5
56FF
330
4BE2
100
AcDbEntity
  8
AM_5 寸法線
 62
     3
100
AcDbLine
 10
135.4602308223354
 20
181.8426395263247
 30
0.0
 11
117.1377749371934
 21
181.8426395263247
 31
0.0
  0
LINE
  5
5700
330
4BE2
100
AcDbEntity
  8
AM_5 寸法線
 62
     3
100
AcDbLine
 10
117.7627749371934
 20
225.3426395263247
 30
0.0
 11
117.7627749371934
 21
184.3426395263247
 31
0.0
  0
INSERT
  5
5701
330
4BE2
100
AcDbEntity
  8
AM_5 寸法線
 62
     3
100
AcDbBlockReference
  2
_Open30
 10
117.7627749371934
 20
227.8426395263247
 30
0.0
 41
2.5
 42
2.5
 43
2.5
 50
90.0
  0
INSERT
  5
5702
330
4BE2
100
AcDbEntity
  8
AM_5 寸法線
 62
     3
100
AcDbBlockReference
  2
_Open30
 10
117.7627749371934
 20
181.8426395263247
 30
0.0
 41
2.5
 42
2.5
 43
2.5
 50
270.0
  0
MTEXT
  5
5703
330
4BE2
100
AcDbEntity
  8
AM_5 寸法線
 62
     3
100
AcDbMText
 10
114.5127749371934
 20
204.8426395263247
 30
0.0
 40
3.5
 41
0.0
 46
0.0
 71
     5
 72
     1
  1
%%c46
  7
SEISA
 11
0.0000000000000001
 21
1.0
 31
0.0
 73
     1
 44
1.0
  0
POINT
  5
5704
330
4BE2
100
AcDbEntity
  8
Defpoints
 62
     0
100
AcDbPoint
 10
136.0852308223354
 20
227.8426395263247
 30
0.0
  0
POINT
  5
5705
330
4BE2
100
AcDbEntity
  8
Defpoints
 62
     0
100
AcDbPoint
 10
136.0852308223354
 20
181.8426395263247
 30
0.0
  0
POINT
  5
5706
330
4BE2
100
AcDbEntity
  8
Defpoints
 62
     0
100
AcDbPoint
 10
117.7627749371934
 20
181.8426395263247
 30
0.0
  0
ENDBLK
  5
4BE4
330
4BE2
100
AcDbEntity
  8
0
100
AcDbBlockEnd
  0
BLOCK
  5
4C88
330
4C87
100
AcDbEntity
  8
0
100
AcDbBlockBegin
  2
*D13
 70
     1
 10
0.0
 20
0.0
 30
0.0
  3
*D13
  1

  0
LINE
  5
571D
330
4C87
100
AcDbEntity
  8
AM_5 寸法線
 62
     3
100
AcDbLine
 10
178.0852308223354
 20
205.4676395263247
 30
0.0
 11
178.0852308223354
 21
209.9897655263247
 31
0.0
  0
LINE
  5
571E
330
4C87
100
AcDbEntity
  8
AM_5 寸法線
 62
     3
100
AcDbLine
 10
133.0852308223354
 20
205.4676395263247
 30
0.0
 11
133.0852308223354
 21
209.9897655263247
 31
0.0
  0
LINE
  5
571F
330
4C87
100
AcDbEntity
  8
AM_5 寸法線
 62
     3
100
AcDbLine
 10
175.5852308223354
 20
209.3647655263247
 30
0.0
 11
135.5852308223354
 21
209.3647655263247
 31
0.0
  0
INSERT
  5
5720
330
4C87
100
AcDbEntity
  8
AM_5 寸法線
 62
     3
100
AcDbBlockReference
  2
_Open30
 10
178.0852308223354
 20
209.3647655263247
 30
0.0
 41
2.5
 42
2.5
 43
2.5
  0
INSERT
  5
5721
330
4C87
100
AcDbEntity
  8
AM_5 寸法線
 62
     3
100
AcDbBlockReference
  2
_Open30
 10
133.0852308223354
 20
209.3647655263247
 30
0.0
 41
2.5
 42
2.5
 43
2.5
 50
180.0
  0
MTEXT
  5
5722
330
4C87
100
AcDbEntity
  8
AM_5 寸法線
 62
     3
100
AcDbMText
 10
155.5852308223354
 20
212.6147655263247
 30
0.0
 40
3.5
 41
0.0
 46
0.0
 71
     5
 72
     1
  1
45
  7
SEISA
 73
     1
 44
1.0
  0
POINT
  5
5723
330
4C87
100
AcDbEntity
  8
Defpoints
 62
     0
100
AcDbPoint
 10
178.0852308223354
 20
204.8426395263247
 30
0.0
  0
POINT
  5
5724
330
4C87
100
AcDbEntity
  8
Defpoints
 62
     0
100
AcDbPoint
 10
133.0852308223354
 20
204.8426395263247
 30
0.0
  0
POINT
  5
5725
330
4C87
100
AcDbEntity
  8
Defpoints
 62
     0
100
AcDbPoint
 10
133.0852308223354
 20
209.3647655263247
 30
0.0
  0
ENDBLK
  5
4C89
330
4C87
100
AcDbEntity
  8
0
100
AcDbBlockEnd
  0
BLOCK
  5
4CA0
330
4C9F
100
AcDbEntity
  8
0
100
AcDbBlockBegin
  2
*D14
 70
     1
 10
0.0
 20
0.0
 30
0.0
  3
*D14
  1

  0
LINE
  5
5726
330
4C9F
100
AcDbEntity
  8
AM_5 寸法線
 62
     3
100
AcDbLine
 10
186.0852308223354
 20
205.4676395263247
 30
0.0
 11
186.0852308223354
 21
209.9897655263247
 31
0.0
  0
LINE
  5
5727
330
4C9F
100
AcDbEntity
  8
AM_5 寸法線
 62
     3
100
AcDbLine
 10
178.0852308223354
 20
205.4676395263247
 30
0.0
 11
178.0852308223354
 21
209.9897655263247
 31
0.0
  0
LINE
  5
5728
330
4C9F
100
AcDbEntity
  8
AM_5 寸法線
 62
     3
100
AcDbLine
 10
188.5852308223354
 20
209.3647655263247
 30
0.0
 11
191.0852308223354
 21
209.3647655263247
 31
0.0
  0
LINE
  5
5729
330
4C9F
100
AcDbEntity
  8
AM_5 寸法線
 62
     3
100
AcDbLine
 10
175.5852308223354
 20
209.3647655263247
 30
0.0
 11
173.0852308223354
 21
209.3647655263247
 31
0.0
  0
LINE
  5
572A
330
4C9F
100
AcDbEntity
  8
AM_5 寸法線
 62
     3
100
AcDbLine
 10
186.0852308223354
 20
209.3647655263247
 30
0.0
 11
178.0852308223354
 21
209.3647655263247
 31
0.0
  0
INSERT
  5
572B
330
4C9F
100
AcDbEntity
  8
AM_5 寸法線
 62
     3
100
AcDbBlockReference
  2
_Open30
 10
186.0852308223354
 20
209.3647655263247
 30
0.0
 41
2.5
 42
2.5
 43
2.5
 50
180.0
  0
INSERT
  5
572C
330
4C9F
100
AcDbEntity
  8
AM_5 寸法線
 62
     3
100
AcDbBlockReference
  2
_Open30
 10
178.0852308223354
 20
209.3647655263247
 30
0.0
 41
2.5
 42
2.5
 43
2.5
  0
MTEXT
  5
572D
330
4C9F
100
AcDbEntity
  8
AM_5 寸法線
 62
     3
100
AcDbMText
 10
182.0852308223354
 20
212.6147655263247
 30
0.0
 40
3.5
 41
0.0
 46
0.0
 71
     5
 72
     1
  1
8
  7
SEISA
 73
     1
 44
1.0
  0
POINT
  5
572E
330
4C9F
100
AcDbEntity
  8
Defpoints
 62
     0
100
AcDbPoint
 10
186.0852308223354
 20
204.8426395263247
 30
0.0
  0
POINT
  5
572F
330
4C9F
100
AcDbEntity
  8
Defpoints
 62
     0
100
AcDbPoint
 10
178.0852308223354
 20
204.8426395263247
 30
0.0
  0
POINT
  5
5730
330
4C9F
100
AcDbEntity
  8
Defpoints
 62
     0
100
AcDbPoint
 10
178.0852308223354
 20
209.3647655263247
 30
0.0
  0
ENDBLK
  5
4CA1
330
4C9F
100
AcDbEntity
  8
0
100
AcDbBlockEnd
  0
BLOCK
  5
4CBC
330
4CBB
100
AcDbEntity
  8
0
100
AcDbBlockBegin
  2
*D15
 70
     1
 10
0.0
 20
0.0
 30
0.0
  3
*D15
  1

  0
LINE
  5
5731
330
4CBB
100
AcDbEntity
  8
AM_5 寸法線
 62
     3
100
AcDbLine
 10
231.0852308223354
 20
205.4676395263247
 30
0.0
 11
231.0852308223354
 21
209.9897655263247
 31
0.0
  0
LINE
  5
5732
330
4CBB
100
AcDbEntity
  8
AM_5 寸法線
 62
     3
100
AcDbLine
 10
186.0852308223354
 20
205.4676395263247
 30
0.0
 11
186.0852308223354
 21
209.9897655263247
 31
0.0
  0
LINE
  5
5733
330
4CBB
100
AcDbEntity
  8
AM_5 寸法線
 62
     3
100
AcDbLine
 10
228.5852308223355
 20
209.3647655263247
 30
0.0
 11
188.5852308223354
 21
209.3647655263247
 31
0.0
  0
INSERT
  5
5734
330
4CBB
100
AcDbEntity
  8
AM_5 寸法線
 62
     3
100
AcDbBlockReference
  2
_Open30
 10
231.0852308223354
 20
209.3647655263247
 30
0.0
 41
2.5
 42
2.5
 43
2.5
  0
INSERT
  5
5735
330
4CBB
100
AcDbEntity
  8
AM_5 寸法線
 62
     3
100
AcDbBlockReference
  2
_Open30
 10
186.0852308223354
 20
209.3647655263247
 30
0.0
 41
2.5
 42
2.5
 43
2.5
 50
180.0
  0
MTEXT
  5
5736
330
4CBB
100
AcDbEntity
  8
AM_5 寸法線
 62
     3
100
AcDbMText
 10
208.5852308223354
 20
212.6147655263247
 30
0.0
 40
3.5
 41
0.0
 46
0.0
 71
     5
 72
     1
  1
45
  7
SEISA
 73
     1
 44
1.0
  0
POINT
  5
5737
330
4CBB
100
AcDbEntity
  8
Defpoints
 62
     0
100
AcDbPoint
 10
231.0852308223354
 20
204.8426395263247
 30
0.0
  0
POINT
  5
5738
330
4CBB
100
AcDbEntity
  8
Defpoints
 62
     0
100
AcDbPoint
 10
186.0852308223354
 20
204.8426395263247
 30
0.0
  0
POINT
  5
5739
330
4CBB
100
AcDbEntity
  8
Defpoints
 62
     0
100
AcDbPoint
 10
186.0852308223354
 20
209.3647655263247
 30
0.0
  0
ENDBLK
  5
4CBD
330
4CBB
100
AcDbEntity
  8
0
100
AcDbBlockEnd
  0
BLOCK
  5
4D3C
330
4D3B
100
AcDbEntity
  8
0
100
AcDbBlockBegin
  2
*D16
 70
     1
 10
0.0
 20
0.0
 30
0.0
  3
*D16
  1

  0
LINE
  5
5741
330
4D3B
100
AcDbEntity
  8
AM_5 寸法線
 62
     3
100
AcDbLine
 10
228.7102308223355
 20
227.8426395263247
 30
0.0
 11
252.0669868252535
 21
227.8426395263247
 31
0.0
  0
LINE
  5
5742
330
4D3B
100
AcDbEntity
  8
AM_5 寸法線
 62
     3
100
AcDbLine
 10
228.7102308223355
 20
181.8426395263247
 30
0.0
 11
252.0669868252535
 21
181.8426395263247
 31
0.0
  0
LINE
  5
5743
330
4D3B
100
AcDbEntity
  8
AM_5 寸法線
 62
     3
100
AcDbLine
 10
251.4419868252535
 20
225.3426395263247
 30
0.0
 11
251.4419868252534
 21
184.3426395263247
 31
0.0
  0
INSERT
  5
5744
330
4D3B
100
AcDbEntity
  8
AM_5 寸法線
 62
     3
100
AcDbBlockReference
  2
_Open30
 10
251.4419868252535
 20
227.8426395263247
 30
0.0
 41
2.5
 42
2.5
 43
2.5
 50
90.0
  0
INSERT
  5
5745
330
4D3B
100
AcDbEntity
  8
AM_5 寸法線
 62
     3
100
AcDbBlockReference
  2
_Open30
 10
251.4419868252534
 20
181.8426395263247
 30
0.0
 41
2.5
 42
2.5
 43
2.5
 50
270.0
  0
MTEXT
  5
5746
330
4D3B
100
AcDbEntity
  8
AM_5 寸法線
 62
     3
100
AcDbMText
 10
248.1919868252534
 20
204.8426395263247
 30
0.0
 40
3.5
 41
0.0
 46
0.0
 71
     5
 72
     1
  1
%%c46
  7
SEISA
 11
0.0000000000000001
 21
1.0
 31
0.0
 73
     1
 44
1.0
  0
POINT
  5
5747
330
4D3B
100
AcDbEntity
  8
Defpoints
 62
     0
100
AcDbPoint
 10
228.0852308223355
 20
227.8426395263247
 30
0.0
  0
POINT
  5
5748
330
4D3B
100
AcDbEntity
  8
Defpoints
 62
     0
100
AcDbPoint
 10
228.0852308223355
 20
181.8426395263247
 30
0.0
  0
POINT
  5
5749
330
4D3B
100
AcDbEntity
  8
Defpoints
 62
     0
100
AcDbPoint
 10
251.4419868252534
 20
181.8426395263247
 30
0.0
  0
ENDBLK
  5
4D3D
330
4D3B
100
AcDbEntity
  8
0
100
AcDbBlockEnd
  0
BLOCK
  5
4D66
330
4D65
100
AcDbEntity
  8
0
100
AcDbBlockBegin
  2
*D17
 70
     1
 10
0.0
 20
0.0
 30
0.0
  3
*D17
  1

  0
LINE
  5
574A
330
4D65
100
AcDbEntity
  8
AM_5 寸法線
 62
     3
100
AcDbLine
 10
213.7102308223354
 20
238.3426395263247
 30
0.0
 11
262.0669868252536
 21
238.3426395263247
 31
0.0
  0
LINE
  5
574B
330
4D65
100
AcDbEntity
  8
AM_5 寸法線
 62
     3
100
AcDbLine
 10
212.8953113223355
 20
171.3426395263247
 30
0.0
 11
262.0669868252536
 21
171.3426395263247
 31
0.0
  0
LINE
  5
574C
330
4D65
100
AcDbEntity
  8
AM_5 寸法線
 62
     3
100
AcDbLine
 10
261.4419868252535
 20
235.8426395263247
 30
0.0
 11
261.4419868252535
 21
173.8426395263247
 31
0.0
  0
INSERT
  5
574D
330
4D65
100
AcDbEntity
  8
AM_5 寸法線
 62
     3
100
AcDbBlockReference
  2
_Open30
 10
261.4419868252535
 20
238.3426395263247
 30
0.0
 41
2.5
 42
2.5
 43
2.5
 50
90.0
  0
INSERT
  5
574E
330
4D65
100
AcDbEntity
  8
AM_5 寸法線
 62
     3
100
AcDbBlockReference
  2
_Open30
 10
261.4419868252535
 20
171.3426395263247
 30
0.0
 41
2.5
 42
2.5
 43
2.5
 50
270.0
  0
MTEXT
  5
574F
330
4D65
100
AcDbEntity
  8
AM_5 寸法線
 62
     3
100
AcDbMText
 10
258.1919868252535
 20
204.8426395263247
 30
0.0
 40
3.5
 41
0.0
 46
0.0
 71
     5
 72
     1
  1
%%c67
  7
SEISA
 11
0.0000000000000001
 21
1.0
 31
0.0
 73
     1
 44
1.0
  0
POINT
  5
5750
330
4D65
100
AcDbEntity
  8
Defpoints
 62
     0
100
AcDbPoint
 10
213.0852308223355
 20
238.3426395263247
 30
0.0
  0
POINT
  5
5751
330
4D65
100
AcDbEntity
  8
Defpoints
 62
     0
100
AcDbPoint
 10
212.2703113223355
 20
171.3426395263247
 30
0.0
  0
POINT
  5
5752
330
4D65
100
AcDbEntity
  8
Defpoints
 62
     0
100
AcDbPoint
 10
261.4419868252535
 20
171.3426395263247
 30
0.0
  0
ENDBLK
  5
4D67
330
4D65
100
AcDbEntity
  8
0
100
AcDbBlockEnd
  0
BLOCK
  5
4D7E
330
4D7D
100
AcDbEntity
  8
0
100
AcDbBlockBegin
  2
*D18
 70
     1
 10
0.0
 20
0.0
 30
0.0
  3
*D18
  1

  0
LINE
  5
5753
330
4D7D
100
AcDbEntity
  8
AM_5 寸法線
 62
     3
100
AcDbLine
 10
197.5102308223354
 20
254.8426395263247
 30
0.0
 11
272.0669868252535
 21
254.8426395263247
 31
0.0
  0
LINE
  5
5754
330
4D7D
100
AcDbEntity
  8
AM_5 寸法線
 62
     3
100
AcDbLine
 10
197.5102308223354
 20
154.8426395263247
 30
0.0
 11
272.0669868252535
 21
154.8426395263247
 31
0.0
  0
LINE
  5
5755
330
4D7D
100
AcDbEntity
  8
AM_5 寸法線
 62
     3
100
AcDbLine
 10
271.4419868252536
 20
252.3426395263247
 30
0.0
 11
271.4419868252536
 21
157.3426395263247
 31
0.0
  0
INSERT
  5
5756
330
4D7D
100
AcDbEntity
  8
AM_5 寸法線
 62
     3
100
AcDbBlockReference
  2
_Open30
 10
271.4419868252536
 20
254.8426395263247
 30
0.0
 41
2.5
 42
2.5
 43
2.5
 50
90.0
  0
INSERT
  5
5757
330
4D7D
100
AcDbEntity
  8
AM_5 寸法線
 62
     3
100
AcDbBlockReference
  2
_Open30
 10
271.4419868252536
 20
154.8426395263247
 30
0.0
 41
2.5
 42
2.5
 43
2.5
 50
270.0
  0
MTEXT
  5
5758
330
4D7D
100
AcDbEntity
  8
AM_5 寸法線
 62
     3
100
AcDbMText
 10
268.1919868252535
 20
204.8426395263247
 30
0.0
 40
3.5
 41
0.0
 46
0.0
 71
     5
 72
     1
  1
%%c100
  7
SEISA
 11
0.0000000000000001
 21
1.0
 31
0.0
 73
     1
 44
1.0
  0
POINT
  5
5759
330
4D7D
100
AcDbEntity
  8
Defpoints
 62
     0
100
AcDbPoint
 10
196.8852308223354
 20
254.8426395263247
 30
0.0
  0
POINT
  5
575A
330
4D7D
100
AcDbEntity
  8
Defpoints
 62
     0
100
AcDbPoint
 10
196.8852308223354
 20
154.8426395263247
 30
0.0
  0
POINT
  5
575B
330
4D7D
100
AcDbEntity
  8
Defpoints
 62
     0
100
AcDbPoint
 10
271.4419868252536
 20
154.8426395263247
 30
0.0
  0
ENDBLK
  5
4D7F
330
4D7D
100
AcDbEntity
  8
0
100
AcDbBlockEnd
  0
BLOCK
  5
4E14
330
4E13
100
AcDbEntity
  8
0
100
AcDbBlockBegin
  2
*D19
 70
     1
 10
0.0
 20
0.0
 30
0.0
  3
*D19
  1

  0
LINE
  5
575C
330
4E13
100
AcDbEntity
  8
AM_5 寸法線
 62
     3
100
AcDbLine
 10
182.0852308223354
 20
154.4176395263247
 30
0.0
 11
182.0852308223354
 21
139.2176395263247
 31
0.0
  0
LINE
  5
575D
330
4E13
100
AcDbEntity
  8
AM_5 寸法線
 62
     3
100
AcDbLine
 10
167.0852308223354
 20
154.4176395263247
 30
0.0
 11
167.0852308223354
 21
139.2176395263247
 31
0.0
  0
LINE
  5
575E
330
4E13
100
AcDbEntity
  8
AM_5 寸法線
 62
     3
100
AcDbLine
 10
179.5852308223354
 20
139.8426395263247
 30
0.0
 11
169.5852308223354
 21
139.8426395263247
 31
0.0
  0
INSERT
  5
575F
330
4E13
100
AcDbEntity
  8
AM_5 寸法線
 62
     3
100
AcDbBlockReference
  2
_Open30
 10
182.0852308223354
 20
139.8426395263247
 30
0.0
 41
2.5
 42
2.5
 43
2.5
  0
INSERT
  5
5760
330
4E13
100
AcDbEntity
  8
AM_5 寸法線
 62
     3
100
AcDbBlockReference
  2
_Open30
 10
167.0852308223354
 20
139.8426395263247
 30
0.0
 41
2.5
 42
2.5
 43
2.5
 50
180.0
  0
MTEXT
  5
5761
330
4E13
100
AcDbEntity
  8
AM_5 寸法線
 62
     3
100
AcDbMText
 10
174.5852308223354
 20
143.0926395263247
 30
0.0
 40
3.5
 41
0.0
 46
0.0
 71
     5
 72
     1
  1
15
  7
SEISA
 73
     1
 44
1.0
  0
POINT
  5
5762
330
4E13
100
AcDbEntity
  8
Defpoints
 62
     0
100
AcDbPoint
 10
182.0852308223354
 20
155.0426395263247
 30
0.0
  0
POINT
  5
5763
330
4E13
100
AcDbEntity
  8
Defpoints
 62
     0
100
AcDbPoint
 10
167.0852308223354
 20
155.0426395263247
 30
0.0
  0
POINT
  5
5764
330
4E13
100
AcDbEntity
  8
Defpoints
 62
     0
100
AcDbPoint
 10
167.0852308223354
 20
139.8426395263247
 30
0.0
  0
ENDBLK
  5
4E15
330
4E13
100
AcDbEntity
  8
0
100
AcDbBlockEnd
  0
BLOCK
  5
4E36
330
4E35
100
AcDbEntity
  8
0
100
AcDbBlockBegin
  2
*D20
 70
     1
 10
0.0
 20
0.0
 30
0.0
  3
*D20
  1

  0
LINE
  5
5765
330
4E35
100
AcDbEntity
  8
AM_5 寸法線
 62
     3
100
AcDbLine
 10
182.0852308223354
 20
154.4176395263247
 30
0.0
 11
182.0852308223354
 21
139.2176395263247
 31
0.0
  0
LINE
  5
5766
330
4E35
100
AcDbEntity
  8
AM_5 寸法線
 62
     3
100
AcDbLine
 10
197.0852308223354
 20
154.4176395263247
 30
0.0
 11
197.0852308223354
 21
139.2176395263247
 31
0.0
  0
LINE
  5
5767
330
4E35
100
AcDbEntity
  8
AM_5 寸法線
 62
     3
100
AcDbLine
 10
184.5852308223354
 20
139.8426395263247
 30
0.0
 11
194.5852308223354
 21
139.8426395263247
 31
0.0
  0
INSERT
  5
5768
330
4E35
100
AcDbEntity
  8
AM_5 寸法線
 62
     3
100
AcDbBlockReference
  2
_Open30
 10
182.0852308223354
 20
139.8426395263247
 30
0.0
 41
2.5
 42
2.5
 43
2.5
 50
180.0
  0
INSERT
  5
5769
330
4E35
100
AcDbEntity
  8
AM_5 寸法線
 62
     3
100
AcDbBlockReference
  2
_Open30
 10
197.0852308223354
 20
139.8426395263247
 30
0.0
 41
2.5
 42
2.5
 43
2.5
  0
MTEXT
  5
576A
330
4E35
100
AcDbEntity
  8
AM_5 寸法線
 62
     3
100
AcDbMText
 10
189.5852308223354
 20
143.0926395263247
 30
0.0
 40
3.5
 41
0.0
 46
0.0
 71
     5
 72
     1
  1
15
  7
SEISA
 73
     1
 44
1.0
  0
POINT
  5
576B
330
4E35
100
AcDbEntity
  8
Defpoints
 62
     0
100
AcDbPoint
 10
182.0852308223354
 20
155.0426395263247
 30
0.0
  0
POINT
  5
576C
330
4E35
100
AcDbEntity
  8
Defpoints
 62
     0
100
AcDbPoint
 10
197.0852308223354
 20
155.0426395263247
 30
0.0
  0
POINT
  5
576D
330
4E35
100
AcDbEntity
  8
Defpoints
 62
     0
100
AcDbPoint
 10
197.0852308223354
 20
139.8426395263247
 30
0.0
  0
ENDBLK
  5
4E37
330
4E35
100
AcDbEntity
  8
0
100
AcDbBlockEnd
  0
BLOCK
  5
4E8A
330
4E89
100
AcDbEntity
  8
0
100
AcDbBlockBegin
  2
*D21
 70
     1
 10
0.0
 20
0.0
 30
0.0
  3
*D21
  1

  0
LINE
  5
67B9
330
4E89
100
AcDbEntity
  8
AM_5 寸法線
 62
     3
100
AcDbLine
 10
148.0852308223354
 20
173.0926395263247
 30
0.0
 11
148.0852308223354
 21
129.2176395263247
 31
0.0
  0
LINE
  5
67BA
330
4E89
100
AcDbEntity
  8
AM_5 寸法線
 62
     3
100
AcDbLine
 10
216.0852308223355
 20
173.7176395263247
 30
0.0
 11
216.0852308223355
 21
129.2176395263247
 31
0.0
  0
LINE
  5
67BB
330
4E89
100
AcDbEntity
  8
AM_5 寸法線
 62
     3
100
AcDbLine
 10
150.5852308223354
 20
129.8426395263247
 30
0.0
 11
213.5852308223355
 21
129.8426395263247
 31
0.0
  0
INSERT
  5
67BC
330
4E89
100
AcDbEntity
  8
AM_5 寸法線
 62
     3
100
AcDbBlockReference
  2
_Open30
 10
148.0852308223354
 20
129.8426395263247
 30
0.0
 41
2.5
 42
2.5
 43
2.5
 50
180.0
  0
INSERT
  5
67BD
330
4E89
100
AcDbEntity
  8
AM_5 寸法線
 62
     3
100
AcDbBlockReference
  2
_Open30
 10
216.0852308223355
 20
129.8426395263247
 30
0.0
 41
2.5
 42
2.5
 43
2.5
  0
MTEXT
  5
67BE
330
4E89
100
AcDbEntity
  8
AM_5 寸法線
 62
     3
100
AcDbMText
 10
182.0852308223354
 20
133.0926395263247
 30
0.0
 40
3.5
 41
0.0
 46
0.0
 71
     5
 72
     1
  1
68
  7
SEISA
 73
     1
 44
1.0
  0
POINT
  5
67BF
330
4E89
100
AcDbEntity
  8
Defpoints
 62
     0
100
AcDbPoint
 10
148.0852308223354
 20
173.7176395263247
 30
0.0
  0
POINT
  5
67C0
330
4E89
100
AcDbEntity
  8
Defpoints
 62
     0
100
AcDbPoint
 10
216.0852308223355
 20
174.3426395263247
 30
0.0
  0
POINT
  5
67C1
330
4E89
100
AcDbEntity
  8
Defpoints
 62
     0
100
AcDbPoint
 10
216.0852308223355
 20
129.8426395263247
 30
0.0
  0
ENDBLK
  5
4E8B
330
4E89
100
AcDbEntity
  8
0
100
AcDbBlockEnd
  0
BLOCK
  5
4ED2
330
4ED1
100
AcDbEntity
  8
0
100
AcDbBlockBegin
  2
*D22
 70
     1
 10
0.0
 20
0.0
 30
0.0
  3
*D22
  1

  0
LINE
  5
5792
330
4ED1
100
AcDbEntity
  8
AM_5 寸法線
 62
     3
100
AcDbLine
 10
133.0852308223354
 20
184.2176395263247
 30
0.0
 11
133.0852308223354
 21
119.2176395263247
 31
0.0
  0
LINE
  5
5793
330
4ED1
100
AcDbEntity
  8
AM_5 寸法線
 62
     3
100
AcDbLine
 10
231.0852308223354
 20
184.2176395263247
 30
0.0
 11
231.0852308223354
 21
119.2176395263247
 31
0.0
  0
LINE
  5
5794
330
4ED1
100
AcDbEntity
  8
AM_5 寸法線
 62
     3
100
AcDbLine
 10
135.5852308223354
 20
119.8426395263247
 30
0.0
 11
228.5852308223354
 21
119.8426395263247
 31
0.0
  0
INSERT
  5
5795
330
4ED1
100
AcDbEntity
  8
AM_5 寸法線
 62
     3
100
AcDbBlockReference
  2
_Open30
 10
133.0852308223354
 20
119.8426395263247
 30
0.0
 41
2.5
 42
2.5
 43
2.5
 50
180.0
  0
INSERT
  5
5796
330
4ED1
100
AcDbEntity
  8
AM_5 寸法線
 62
     3
100
AcDbBlockReference
  2
_Open30
 10
231.0852308223354
 20
119.8426395263247
 30
0.0
 41
2.5
 42
2.5
 43
2.5
  0
MTEXT
  5
5797
330
4ED1
100
AcDbEntity
  8
AM_5 寸法線
 62
     3
100
AcDbMText
 10
182.0852308223354
 20
123.0926395263247
 30
0.0
 40
3.5
 41
0.0
 46
0.0
 71
     5
 72
     1
  1
98
  7
SEISA
 73
     1
 44
1.0
  0
POINT
  5
5798
330
4ED1
100
AcDbEntity
  8
Defpoints
 62
     0
100
AcDbPoint
 10
133.0852308223354
 20
184.8426395263247
 30
0.0
  0
POINT
  5
5799
330
4ED1
100
AcDbEntity
  8
Defpoints
 62
     0
100
AcDbPoint
 10
231.0852308223354
 20
184.8426395263247
 30
0.0
  0
POINT
  5
579A
330
4ED1
100
AcDbEntity
  8
Defpoints
 62
     0
100
AcDbPoint
 10
231.0852308223354
 20
119.8426395263247
 30
0.0
  0
ENDBLK
  5
4ED3
330
4ED1
100
AcDbEntity
  8
0
100
AcDbBlockEnd
  0
BLOCK
  5
677F
330
677E
100
AcDbEntity
  8
0
100
AcDbBlockBegin
  2
*D23
 70
     1
 10
0.0
 20
0.0
 30
0.0
  3
*D23
  1

  0
LINE
  5
6C1B
330
677E
100
AcDbEntity
  8
AM_5 寸法線
 62
     3
100
AcDbLine
 10
123.0852308223354
 20
235.9676395263247
 30
0.0
 11
123.0852308223354
 21
255.4676395263247
 31
0.0
  0
LINE
  5
6C1C
330
677E
100
AcDbEntity
  8
AM_5 寸法線
 62
     3
100
AcDbLine
 10
133.0852308223354
 20
225.4676395263247
 30
0.0
 11
133.0852308223354
 21
255.4676395263247
 31
0.0
  0
LINE
  5
6C1D
330
677E
100
AcDbEntity
  8
AM_5 寸法線
 62
     3
100
AcDbLine
 10
125.5852308223354
 20
254.8426395263247
 30
0.0
 11
130.5852308223354
 21
254.8426395263247
 31
0.0
  0
INSERT
  5
6C1E
330
677E
100
AcDbEntity
  8
AM_5 寸法線
 62
     3
100
AcDbBlockReference
  2
_Open30
 10
123.0852308223354
 20
254.8426395263247
 30
0.0
 41
2.5
 42
2.5
 43
2.5
 50
180.0
  0
INSERT
  5
6C1F
330
677E
100
AcDbEntity
  8
AM_5 寸法線
 62
     3
100
AcDbBlockReference
  2
_Open30
 10
133.0852308223354
 20
254.8426395263247
 30
0.0
 41
2.5
 42
2.5
 43
2.5
  0
MTEXT
  5
6C20
330
677E
100
AcDbEntity
  8
AM_5 寸法線
 62
     3
100
AcDbMText
 10
128.0852308223354
 20
258.0926395263247
 30
0.0
 40
3.5
 41
0.0
 46
0.0
 71
     5
 72
     1
  1
10
  7
SEISA
 73
     1
 44
1.0
  0
POINT
  5
6C21
330
677E
100
AcDbEntity
  8
Defpoints
 62
     0
100
AcDbPoint
 10
123.0852308223354
 20
235.3426395263247
 30
0.0
  0
POINT
  5
6C22
330
677E
100
AcDbEntity
  8
Defpoints
 62
     0
100
AcDbPoint
 10
133.0852308223354
 20
224.8426395263247
 30
0.0
  0
POINT
  5
6C23
330
677E
100
AcDbEntity
  8
Defpoints
 62
     0
100
AcDbPoint
 10
133.0852308223354
 20
254.8426395263247
 30
0.0
  0
ENDBLK
  5
6780
330
677E
100
AcDbEntity
  8
0
100
AcDbBlockEnd
  0
BLOCK
  5
6826
330
6825
100
AcDbEntity
  8
0
100
AcDbBlockBegin
  2
*D24
 70
     1
 10
0.0
 20
0.0
 30
0.0
  3
*D24
  1

  0
LINE
  5
6D4A
330
6825
100
AcDbEntity
  8
AM_5 寸法線
 62
     3
100
AcDbLine
 10
157.0852308223354
 20
227.2176395263247
 30
0.0
 11
157.0852308223354
 21
219.8106158781369
 31
0.0
  0
LINE
  5
6D4B
330
6825
100
AcDbEntity
  8
AM_5 寸法線
 62
     3
100
AcDbLine
 10
159.0852308223354
 20
227.7176395263247
 30
0.0
 11
159.0852308223354
 21
219.8106158781369
 31
0.0
  0
LINE
  5
6D4C
330
6825
100
AcDbEntity
  8
AM_5 寸法線
 62
     3
100
AcDbLine
 10
154.5852308223354
 20
220.4356158781369
 30
0.0
 11
152.0852308223354
 21
220.4356158781369
 31
0.0
  0
LINE
  5
6D4D
330
6825
100
AcDbEntity
  8
AM_5 寸法線
 62
     3
100
AcDbLine
 10
161.5852308223354
 20
220.4356158781369
 30
0.0
 11
164.0852308223354
 21
220.4356158781369
 31
0.0
  0
MTEXT
  5
6D4E
330
6825
100
AcDbEntity
  8
AM_5 寸法線
 62
     3
100
AcDbMText
 10
153.3279051799975
 20
224.5769350543668
 30
0.0
 40
3.5
 41
0.0
 46
0.0
 71
     5
 72
     1
  1
2
  7
SEISA
 73
     1
 44
1.0
  0
LINE
  5
6D4F
330
6825
100
AcDbEntity
  8
AM_5 寸法線
 62
     3
100
AcDbLine
 10
157.0852308223354
 20
220.4356158781369
 30
0.0
 11
159.0852308223354
 21
220.4356158781369
 31
0.0
  0
INSERT
  5
6D50
330
6825
100
AcDbEntity
  8
AM_5 寸法線
 62
     3
100
AcDbBlockReference
  2
_Open30
 10
157.0852308223354
 20
220.4356158781369
 30
0.0
 41
2.5
 42
2.5
 43
2.5
  0
INSERT
  5
6D51
330
6825
100
AcDbEntity
  8
AM_5 寸法線
 62
     3
100
AcDbBlockReference
  2
_Open30
 10
159.0852308223354
 20
220.4356158781369
 30
0.0
 41
2.5
 42
2.5
 43
2.5
 50
180.0
  0
POINT
  5
6D52
330
6825
100
AcDbEntity
  8
Defpoints
 62
     0
100
AcDbPoint
 10
157.0852308223354
 20
227.8426395263247
 30
0.0
  0
POINT
  5
6D53
330
6825
100
AcDbEntity
  8
Defpoints
 62
     0
100
AcDbPoint
 10
159.0852308223354
 20
228.3426395263247
 30
0.0
  0
POINT
  5
6D54
330
6825
100
AcDbEntity
  8
Defpoints
 62
     0
100
AcDbPoint
 10
159.0852308223354
 20
220.4356158781369
 30
0.0
  0
ENDBLK
  5
6827
330
6825
100
AcDbEntity
  8
0
100
AcDbBlockEnd
  0
BLOCK
  5
6CDD
330
6CDC
100
AcDbEntity
  8
0
100
AcDbBlockBegin
  2
*D25
 70
     1
 10
0.0
 20
0.0
 30
0.0
  3
*D25
  1

  0
LINE
  5
6D41
330
6CDC
100
AcDbEntity
  8
AM_5 寸法線
 62
     3
100
AcDbLine
 10
159.0852308223354
 20
227.7176395263247
 30
0.0
 11
159.0852308223354
 21
219.8106158781369
 31
0.0
  0
LINE
  5
6D42
330
6CDC
100
AcDbEntity
  8
AM_5 寸法線
 62
     3
100
AcDbLine
 10
168.0852308223354
 20
227.2176395263247
 30
0.0
 11
168.0852308223354
 21
219.8106158781369
 31
0.0
  0
LINE
  5
6D43
330
6CDC
100
AcDbEntity
  8
AM_5 寸法線
 62
     3
100
AcDbLine
 10
161.5852308223354
 20
220.4356158781369
 30
0.0
 11
165.5852308223354
 21
220.4356158781369
 31
0.0
  0
INSERT
  5
6D44
330
6CDC
100
AcDbEntity
  8
AM_5 寸法線
 62
     3
100
AcDbBlockReference
  2
_Open30
 10
159.0852308223354
 20
220.4356158781369
 30
0.0
 41
2.5
 42
2.5
 43
2.5
 50
180.0
  0
INSERT
  5
6D45
330
6CDC
100
AcDbEntity
  8
AM_5 寸法線
 62
     3
100
AcDbBlockReference
  2
_Open30
 10
168.0852308223354
 20
220.4356158781369
 30
0.0
 41
2.5
 42
2.5
 43
2.5
  0
MTEXT
  5
6D46
330
6CDC
100
AcDbEntity
  8
AM_5 寸法線
 62
     3
100
AcDbMText
 10
163.5852308223354
 20
223.6856158781369
 30
0.0
 40
3.5
 41
0.0
 46
0.0
 71
     5
 72
     1
  1
9
  7
SEISA
 73
     1
 44
1.0
  0
POINT
  5
6D47
330
6CDC
100
AcDbEntity
  8
Defpoints
 62
     0
100
AcDbPoint
 10
159.0852308223354
 20
228.3426395263247
 30
0.0
  0
POINT
  5
6D48
330
6CDC
100
AcDbEntity
  8
Defpoints
 62
     0
100
AcDbPoint
 10
168.0852308223354
 20
227.8426395263247
 30
0.0
  0
POINT
  5
6D49
330
6CDC
100
AcDbEntity
  8
Defpoints
 62
     0
100
AcDbPoint
 10
168.0852308223354
 20
220.4356158781369
 30
0.0
  0
ENDBLK
  5
6CDE
330
6CDC
100
AcDbEntity
  8
0
100
AcDbBlockEnd
  0
BLOCK
  5
6D07
330
6D06
100
AcDbEntity
  8
0
100
AcDbBlockBegin
  2
*D26
 70
     1
 10
0.0
 20
0.0
 30
0.0
  3
*D26
  1

  0
LINE
  5
6D55
330
6D06
100
AcDbEntity
  8
AM_5 寸法線
 62
     3
100
AcDbLine
 10
168.0852308223354
 20
227.2176395263247
 30
0.0
 11
168.0852308223354
 21
219.8106158781369
 31
0.0
  0
LINE
  5
6D56
330
6D06
100
AcDbEntity
  8
AM_5 寸法線
 62
     3
100
AcDbLine
 10
178.0852308223354
 20
226.2176395263247
 30
0.0
 11
178.0852308223354
 21
219.8106158781369
 31
0.0
  0
LINE
  5
6D57
330
6D06
100
AcDbEntity
  8
AM_5 寸法線
 62
     3
100
AcDbLine
 10
170.5852308223354
 20
220.435615878137
 30
0.0
 11
175.5852308223354
 21
220.435615878137
 31
0.0
  0
INSERT
  5
6D58
330
6D06
100
AcDbEntity
  8
AM_5 寸法線
 62
     3
100
AcDbBlockReference
  2
_Open30
 10
168.0852308223354
 20
220.435615878137
 30
0.0
 41
2.5
 42
2.5
 43
2.5
 50
180.0
  0
INSERT
  5
6D59
330
6D06
100
AcDbEntity
  8
AM_5 寸法線
 62
     3
100
AcDbBlockReference
  2
_Open30
 10
178.0852308223354
 20
220.435615878137
 30
0.0
 41
2.5
 42
2.5
 43
2.5
  0
MTEXT
  5
6D5A
330
6D06
100
AcDbEntity
  8
AM_5 寸法線
 62
     3
100
AcDbMText
 10
173.0852308223354
 20
223.685615878137
 30
0.0
 40
3.5
 41
0.0
 46
0.0
 71
     5
 72
     1
  1
10
  7
SEISA
 73
     1
 44
1.0
  0
POINT
  5
6D5B
330
6D06
100
AcDbEntity
  8
Defpoints
 62
     0
100
AcDbPoint
 10
168.0852308223354
 20
227.8426395263247
 30
0.0
  0
POINT
  5
6D5C
330
6D06
100
AcDbEntity
  8
Defpoints
 62
     0
100
AcDbPoint
 10
178.0852308223354
 20
226.8426395263247
 30
0.0
  0
POINT
  5
6D5D
330
6D06
100
AcDbEntity
  8
Defpoints
 62
     0
100
AcDbPoint
 10
178.0852308223354
 20
220.435615878137
 30
0.0
  0
ENDBLK
  5
6D08
330
6D06
100
AcDbEntity
  8
0
100
AcDbBlockEnd
  0
BLOCK
  5
6F0A
330
6F09
100
AcDbEntity
  8
0
100
AcDbBlockBegin
  2
ケース
 70
     0
 10
0.0
 20
0.0
 30
0.0
  3
ケース
  1

  0
LINE
  5
6F0C
330
6F09
100
AcDbEntity
  8
AM_11 想像線
 48
0.2
100
AcDbLine
 10
137.2904307789535
 20
231.8426395263247
 30
0.0
 11
133.0852308223354
 21
231.8426395263247
 31
0.0
  0
ARC
  5
6F0D
330
6F09
100
AcDbEntity
  8
AM_11 想像線
 48
0.2
100
AcDbCircle
 10
126.0852308223354
 20
235.3426395263247
 30
0.0
 40
3.0
100
AcDbArc
 50
90.0
 51
180.0
  0
LINE
  5
6F0E
330
6F09
100
AcDbEntity
  8
AM_11 想像線
 48
0.2
100
AcDbLine
 10
125.7852308223354
 20
230.8426395263247
 30
0.0
 11
129.3852308223355
 21
230.8426395263247
 31
0.0
  0
LINE
  5
6F0F
102
{ACAD_REACTORS
330
678B
102
}
330
6F09
100
AcDbEntity
  8
AM_11 想像線
 48
0.2
100
AcDbLine
 10
123.0852308223354
 20
235.3426395263247
 30
0.0
 11
123.0852308223354
 21
228.8426395263247
 31
0.0
  0
LINE
  5
6F10
330
6F09
100
AcDbEntity
  8
AM_11 想像線
 48
0.3
100
AcDbLine
 10
123.0852308223354
 20
228.8426395263247
 30
0.0
 11
125.2852308223354
 21
228.8426395263247
 31
0.0
  0
LINE
  5
6F11
330
6F09
100
AcDbEntity
  8
AM_11 想像線
 48
0.2
100
AcDbLine
 10
123.0852308223354
 20
228.8426395263247
 30
0.0
 11
123.0852308223354
 21
227.8426395263247
 31
0.0
  0
ARC
  5
6F12
330
6F09
100
AcDbEntity
  8
AM_11 想像線
 48
0.2
100
AcDbCircle
 10
125.7852308223354
 20
230.3426395263247
 30
0.0
 40
0.5
100
AcDbArc
 50
90.0
 51
180.0
  0
LINE
  5
6F13
330
6F09
100
AcDbEntity
  8
AM_11 想像線
 48
0.2
100
AcDbLine
 10
125.2852308223354
 20
228.8426395263247
 30
0.0
 11
125.2852308223354
 21
230.3426395263247
 31
0.0
  0
LINE
  5
6F14
330
6F09
100
AcDbEntity
  8
AM_11 想像線
 48
0.2
100
AcDbLine
 10
125.2852308223354
 20
228.8426395263247
 30
0.0
 11
125.2852308223354
 21
227.8426395263247
 31
0.0
  0
LINE
  5
6F15
330
6F09
100
AcDbEntity
  8
AM_11 想像線
 48
0.2
100
AcDbLine
 10
137.2904307789535
 20
230.6426395263247
 30
0.0
 11
135.5852308223354
 21
230.6426395263247
 31
0.0
  0
LINE
  5
6F16
330
6F09
100
AcDbEntity
  8
AM_11 想像線
 48
0.2
100
AcDbLine
 10
137.2904307789535
 20
233.3426395263247
 30
0.0
 11
135.0852308223354
 21
233.3426395263247
 31
0.0
  0
LINE
  5
6F17
330
6F09
100
AcDbEntity
  8
AM_11 想像線
 48
0.2
100
AcDbLine
 10
135.0852308223354
 20
232.8426395263247
 30
0.0
 11
135.0852308223354
 21
231.1426395263247
 31
0.0
  0
LINE
  5
6F18
330
6F09
100
AcDbEntity
  8
AM_11 想像線
 48
0.2
100
AcDbLine
 10
132.0852308223354
 20
228.8426395263247
 30
0.0
 11
132.0852308223354
 21
232.8426395263247
 31
0.0
  0
LINE
  5
6F19
330
6F09
100
AcDbEntity
  8
AM_11 想像線
 48
0.2
100
AcDbLine
 10
129.8852308223354
 20
228.8426395263247
 30
0.0
 11
132.0852308223354
 21
228.8426395263247
 31
0.0
  0
LINE
  5
6F1A
330
6F09
100
AcDbEntity
  8
AM_11 想像線
 48
0.2
100
AcDbLine
 10
129.8852308223354
 20
230.3426395263247
 30
0.0
 11
129.8852308223354
 21
228.8426395263247
 31
0.0
  0
ARC
  5
6F1B
330
6F09
100
AcDbEntity
  8
AM_11 想像線
 48
0.2
100
AcDbCircle
 10
129.3852308223355
 20
230.3426395263247
 30
0.0
 40
0.5
100
AcDbArc
 50
0.0
 51
90.0
  0
LINE
  5
6F1C
330
6F09
100
AcDbEntity
  8
AM_11 想像線
 48
0.2
100
AcDbLine
 10
132.0852308223354
 20
228.8426395263247
 30
0.0
 11
132.0852308223354
 21
227.8426395263247
 31
0.0
  0
LINE
  5
6F1D
330
6F09
100
AcDbEntity
  8
AM_11 想像線
 48
0.2
100
AcDbLine
 10
129.8852308223354
 20
228.8426395263247
 30
0.0
 11
129.8852308223354
 21
227.8426395263247
 31
0.0
  0
LINE
  5
6F1E
330
6F09
100
AcDbEntity
  8
AM_11 想像線
 48
0.2
100
AcDbLine
 10
135.0852308223354
 20
231.1426395263247
 30
0.0
 11
135.5852308223354
 21
230.6426395263247
 31
0.0
  0
ARC
  5
6F1F
330
6F09
100
AcDbEntity
  8
AM_11 想像線
 48
0.2
100
AcDbCircle
 10
133.0852308223354
 20
232.8426395263247
 30
0.0
 40
1.0
100
AcDbArc
 50
90.0
 51
180.0
  0
ARC
  5
6F20
330
6F09
100
AcDbEntity
  8
AM_11 想像線
 48
0.2
100
AcDbCircle
 10
134.0852308223354
 20
232.8426395263247
 30
0.0
 40
1.0
100
AcDbArc
 50
0.0
 51
90.0
  0
LINE
  5
6F21
330
6F09
100
AcDbEntity
  8
AM_11 想像線
 48
0.2
100
AcDbLine
 10
133.0852308223354
 20
233.8426395263247
 30
0.0
 11
134.0852308223354
 21
233.8426395263247
 31
0.0
  0
LINE
  5
6F22
330
6F09
100
AcDbEntity
  8
AM_11 想像線
 48
0.2
100
AcDbLine
 10
137.2904307789535
 20
238.3426395263247
 30
0.0
 11
126.0852308223354
 21
238.3426395263247
 31
0.0
  0
ENDBLK
  5
6F0B
330
6F09
100
AcDbEntity
  8
0
100
AcDbBlockEnd
  0
ENDSEC
  0
SECTION
  2
ENTITIES
  0
LINE
  5
3F17
330
1F
100
AcDbEntity
  8
AM_0 外形線1
100
AcDbLine
 10
196.8852308223354
 20
154.8426395263247
 30
0.0
 11
197.0852308223354
 21
155.0426395263247
 31
0.0
  0
LINE
  5
3F1A
330
1F
100
AcDbEntity
  8
AM_0 外形線1
100
AcDbLine
 10
193.0852308223354
 20
244.8426395263247
 30
0.0
 11
168.0852308223354
 21
244.8426395263247
 31
0.0
  0
LINE
  5
3F1B
330
1F
100
AcDbEntity
  8
AM_0 外形線1
100
AcDbLine
 10
168.0852308223354
 20
251.8426395263247
 30
0.0
 11
193.0852308223354
 21
251.8426395263247
 31
0.0
  0
LINE
  5
3F21
330
1F
100
AcDbEntity
  8
AM_7 中心線
100
AcDbLine
 10
130.0852308223354
 20
204.8426395263247
 30
0.0
 11
234.0852308223355
 21
204.8426395263247
 31
0.0
  0
LINE
  5
3FAA
330
1F
100
AcDbEntity
  8
AM_0 外形線1
100
AcDbLine
 10
182.0852308223354
 20
251.8426395263247
 30
0.0
 11
182.0852308223354
 21
254.6426395263247
 31
0.0
  0
INSERT
  5
45B8
102
{ACAD_REACTORS
330
4D7B
330
4D93
330
4E4B
102
}
330
1F
100
AcDbEntity
  8
AM_0 外形線1
100
AcDbBlockReference
  2
ケースＡ SSM100
 10
182.0852308223354
 20
204.8426395263247
 30
0.0
  0
INSERT
  5
47F6
102
{ACAD_REACTORS
330
4CB9
330
4CD1
330
4D51
330
4EE7
102
}
330
1F
100
AcDbEntity
  8
AM_0 外形線1
100
AcDbBlockReference
  2
センタＡ SSM100
 10
186.0852308223354
 20
204.8426395263247
 30
0.0
  0
INSERT
  5
4916
102
{ACAD_REACTORS
330
4BF8
330
4C9D
330
4CB9
330
4EE7
330
678B
102
}
330
1F
100
AcDbEntity
  8
AM_0 外形線1
100
AcDbBlockReference
  2
センタＢ SSM100
 10
178.0852308223354
 20
204.8426395263247
 30
0.0
  0
INSERT
  5
4939
102
{ACAD_REACTORS
330
4E29
330
4E4B
330
6834
102
}
330
1F
100
AcDbEntity
  8
AM_0 外形線1
100
AcDbBlockReference
  2
ケースＢ SSM100
 10
182.0852308223354
 20
204.8426395263247
 30
0.0
  0
INSERT
  5
4A3A
330
1F
100
AcDbEntity
  8
AM_0 外形線1
100
AcDbBlockReference
  2
リーマボルト SSM100 M6
 10
167.0852308223354
 20
248.3426395263247
 30
0.0
  0
DIMENSION
  5
4BE1
102
{ACAD_XDICTIONARY
360
4BEE
102
}
102
{ACAD_REACTORS
330
4BF8
102
}
330
1F
100
AcDbEntity
  8
AM_5 寸法線
100
AcDbDimension
  2
*D12
 10
117.7627749371934
 20
181.8426395263247
 30
0.0
 11
114.5127749371934
 21
204.8426395263247
 31
0.0
 70
    32
  1
%%c<>
 71
     5
 42
46.0
 73
     0
 74
     0
 75
     0
  3
SEISA$0
100
AcDbAlignedDimension
 13
136.0852308223354
 23
227.8426395263247
 33
0.0
 14
136.0852308223354
 24
181.8426395263247
 34
0.0
 50
90.0
100
AcDbRotatedDimension
1001
ACAD_DSTYLE_DIMINSPECT
1070
   396
1000
100%
1070
   395
1000

1070
   394
1070
    33
1070
   393
1070
     0
  0
DIMENSION
  5
4C86
102
{ACAD_XDICTIONARY
360
4C93
102
}
102
{ACAD_REACTORS
330
4C9D
102
}
330
1F
100
AcDbEntity
  8
AM_5 寸法線
100
AcDbDimension
  2
*D13
 10
133.0852308223354
 20
209.3647655263247
 30
0.0
 11
155.5852308223354
 21
212.6147655263247
 31
0.0
 70
    32
 71
     5
 42
45.0
 73
     0
 74
     0
 75
     0
  3
SEISA$0
100
AcDbAlignedDimension
 13
178.0852308223354
 23
204.8426395263247
 33
0.0
 14
133.0852308223354
 24
204.8426395263247
 34
0.0
100
AcDbRotatedDimension
  0
DIMENSION
  5
4C9E
102
{ACAD_XDICTIONARY
360
4CAD
102
}
102
{ACAD_REACTORS
330
4CB9
102
}
330
1F
100
AcDbEntity
  8
AM_5 寸法線
100
AcDbDimension
  2
*D14
 10
178.0852308223354
 20
209.3647655263247
 30
0.0
 11
182.0852308223354
 21
212.6147655263247
 31
0.0
 70
    32
 71
     5
 42
8.0
 73
     0
 74
     0
 75
     0
  3
SEISA$0
100
AcDbAlignedDimension
 13
186.0852308223354
 23
204.8426395263247
 33
0.0
 14
178.0852308223354
 24
204.8426395263247
 34
0.0
100
AcDbRotatedDimension
  0
DIMENSION
  5
4CBA
102
{ACAD_XDICTIONARY
360
4CC7
102
}
102
{ACAD_REACTORS
330
4CD1
102
}
330
1F
100
AcDbEntity
  8
AM_5 寸法線
100
AcDbDimension
  2
*D15
 10
186.0852308223354
 20
209.3647655263247
 30
0.0
 11
208.5852308223354
 21
212.6147655263247
 31
0.0
 70
    32
 71
     5
 42
45.0
 73
     0
 74
     0
 75
     0
  3
SEISA$0
100
AcDbAlignedDimension
 13
231.0852308223354
 23
204.8426395263247
 33
0.0
 14
186.0852308223354
 24
204.8426395263247
 34
0.0
100
AcDbRotatedDimension
  0
DIMENSION
  5
4D3A
102
{ACAD_XDICTIONARY
360
4D47
102
}
102
{ACAD_REACTORS
330
4D51
102
}
330
1F
100
AcDbEntity
  8
AM_5 寸法線
100
AcDbDimension
  2
*D16
 10
251.4419868252534
 20
181.8426395263247
 30
0.0
 11
248.1919868252534
 21
204.8426395263247
 31
0.0
 70
    32
  1
%%c<>
 71
     5
 42
46.0
 73
     0
 74
     0
 75
     0
  3
SEISA$0
100
AcDbAlignedDimension
 13
228.0852308223355
 23
227.8426395263247
 33
0.0
 14
228.0852308223355
 24
181.8426395263247
 34
0.0
 50
90.0
100
AcDbRotatedDimension
1001
ACAD_DSTYLE_DIMINSPECT
1070
   396
1000
100%
1070
   395
1000

1070
   394
1070
    33
1070
   393
1070
     0
1001
ACAD
1000
DSTYLE
1002
{
1070
   279
1070
     0
1002
}
  0
DIMENSION
  5
4D64
102
{ACAD_XDICTIONARY
360
4D71
102
}
102
{ACAD_REACTORS
330
4D7B
102
}
330
1F
100
AcDbEntity
  8
AM_5 寸法線
100
AcDbDimension
  2
*D17
 10
261.4419868252535
 20
171.3426395263247
 30
0.0
 11
261.4419868252535
 21
204.8426395263247
 31
0.0
 70
   160
  1
%%c<>
 71
     5
 42
67.0
 73
     0
 74
     0
 75
     0
  3
SEISA$0
100
AcDbAlignedDimension
 13
213.0852308223355
 23
238.3426395263247
 33
0.0
 14
212.2703113223355
 24
171.3426395263247
 34
0.0
 50
90.0
100
AcDbRotatedDimension
1001
ACAD_DSTYLE_DIMINSPECT
1070
   396
1000
100%
1070
   395
1000

1070
   394
1070
    33
1070
   393
1070
     0
1001
ACAD
1000
DSTYLE
1002
{
1070
   279
1070
     0
1002
}
  0
DIMENSION
  5
4D7C
102
{ACAD_XDICTIONARY
360
4D89
102
}
102
{ACAD_REACTORS
330
4D93
102
}
330
1F
100
AcDbEntity
  8
AM_5 寸法線
100
AcDbDimension
  2
*D18
 10
271.4419868252536
 20
154.8426395263247
 30
0.0
 11
271.4419868252535
 21
204.8426395263247
 31
0.0
 70
   160
  1
%%c<>
 71
     5
 42
100.0
 73
     0
 74
     0
 75
     0
  3
SEISA$0
100
AcDbAlignedDimension
 13
196.8852308223354
 23
254.8426395263247
 33
0.0
 14
196.8852308223354
 24
154.8426395263247
 34
0.0
 50
90.0
100
AcDbRotatedDimension
1001
ACAD_DSTYLE_DIMINSPECT
1070
   396
1000
100%
1070
   395
1000

1070
   394
1070
    33
1070
   393
1070
     0
1001
ACAD
1000
DSTYLE
1002
{
1070
   279
1070
     0
1002
}
  0
DIMENSION
  5
4E12
102
{ACAD_XDICTIONARY
360
4E1F
102
}
102
{ACAD_REACTORS
330
4E29
102
}
330
1F
100
AcDbEntity
  8
AM_5 寸法線
100
AcDbDimension
  2
*D19
 10
167.0852308223354
 20
139.8426395263247
 30
0.0
 11
174.5852308223354
 21
143.0926395263247
 31
0.0
 70
    32
 71
     5
 42
15.0
 73
     0
 74
     0
 75
     0
  3
SEISA$0
100
AcDbAlignedDimension
 13
182.0852308223354
 23
155.0426395263247
 33
0.0
 14
167.0852308223354
 24
155.0426395263247
 34
0.0
100
AcDbRotatedDimension
1001
ACAD
1000
DSTYLE
1002
{
1070
   279
1070
     0
1002
}
  0
DIMENSION
  5
4E34
102
{ACAD_XDICTIONARY
360
4E41
102
}
102
{ACAD_REACTORS
330
4E4B
102
}
330
1F
100
AcDbEntity
  8
AM_5 寸法線
100
AcDbDimension
  2
*D20
 10
197.0852308223354
 20
139.8426395263247
 30
0.0
 11
189.5852308223354
 21
143.0926395263247
 31
0.0
 70
    32
 71
     5
 42
15.0
 73
     0
 74
     0
 75
     0
  3
SEISA$0
100
AcDbAlignedDimension
 13
182.0852308223354
 23
155.0426395263247
 33
0.0
 14
197.0852308223354
 24
155.0426395263247
 34
0.0
100
AcDbRotatedDimension
  0
DIMENSION
  5
4E88
330
1F
100
AcDbEntity
  8
AM_5 寸法線
100
AcDbDimension
  2
*D21
 10
216.0852308223355
 20
129.8426395263247
 30
0.0
 11
182.0852308223354
 21
133.0926395263247
 31
0.0
 70
    32
 71
     5
 42
68.0
 73
     0
 74
     0
 75
     0
  3
SEISA$0
100
AcDbAlignedDimension
 13
148.0852308223354
 23
173.7176395263247
 33
0.0
 14
216.0852308223355
 24
174.3426395263247
 34
0.0
100
AcDbRotatedDimension
1001
ACAD
1000
DSTYLE
1002
{
1070
   279
1070
     0
1002
}
  0
DIMENSION
  5
4ED0
102
{ACAD_XDICTIONARY
360
4EDD
102
}
102
{ACAD_REACTORS
330
4EE7
102
}
330
1F
100
AcDbEntity
  8
AM_5 寸法線
100
AcDbDimension
  2
*D22
 10
231.0852308223354
 20
119.8426395263247
 30
0.0
 11
182.0852308223354
 21
119.8426395263247
 31
0.0
 70
   160
 71
     5
 42
97.99999999999997
 73
     0
 74
     0
 75
     0
  3
SEISA$0
100
AcDbAlignedDimension
 13
133.0852308223354
 23
184.8426395263247
 33
0.0
 14
231.0852308223354
 24
184.8426395263247
 34
0.0
100
AcDbRotatedDimension
1001
ACAD
1000
DSTYLE
1002
{
1070
   279
1070
     0
1002
}
  0
DIMENSION
  5
677D
102
{ACAD_XDICTIONARY
360
678A
102
}
102
{ACAD_REACTORS
330
678B
102
}
330
1F
100
AcDbEntity
  8
AM_5 寸法線
100
AcDbDimension
  2
*D23
 10
133.0852308223354
 20
254.8426395263247
 30
0.0
 11
128.0852308223354
 21
258.0926395263247
 31
0.0
 70
    32
 71
     5
 42
10.0
 73
     0
 74
     0
 75
     0
  3
SEISA$0
100
AcDbAlignedDimension
 13
123.0852308223354
 23
235.3426395263247
 33
0.0
 14
133.0852308223354
 24
224.8426395263247
 34
0.0
100
AcDbRotatedDimension
1001
ACAD_DSTYLE_DIMINSPECT
1070
   396
1000
100%
1070
   395
1000

1070
   394
1070
    33
1070
   393
1070
     0
  0
DIMENSION
  5
6824
102
{ACAD_XDICTIONARY
360
6833
102
}
102
{ACAD_REACTORS
330
6834
102
}
330
1F
100
AcDbEntity
  8
AM_5 寸法線
100
AcDbDimension
  2
*D24
 10
159.0852308223354
 20
220.4356158781369
 30
0.0
 11
153.3279051799975
 21
221.3269350543668
 31
0.0
 70
   160
 71
     5
 42
2.0
 73
     0
 74
     0
 75
     0
  3
SEISA$0
100
AcDbAlignedDimension
 13
157.0852308223354
 23
227.8426395263247
 33
0.0
 14
159.0852308223354
 24
228.3426395263247
 34
0.0
100
AcDbRotatedDimension
1001
ACAD
1000
DSTYLE
1002
{
1070
   343
1005
69
1070
   342
1005
0
1070
   173
1070
     1
1070
   344
1005
69
1070
   279
1070
     1
1002
}
  0
MTEXT
  5
6923
330
1F
100
AcDbEntity
  8
AM_6 文字
100
AcDbMText
 10
236.030288186435
 20
148.105611245144
 30
0.0
 40
3.5
 41
77.19371837448045
 46
0.0
 71
     1
 72
     5
  1
{\W0.6;TYPE:SSM100/SSMH100\PSHAFT DIA:MAX/MIN φ32/φ17}
  7
SEISA
 73
     1
 44
1.0
  0
DIMENSION
  5
6CDB
330
1F
100
AcDbEntity
  8
AM_5 寸法線
100
AcDbDimension
  2
*D25
 10
168.0852308223354
 20
220.4356158781369
 30
0.0
 11
163.5852308223354
 21
223.6856158781369
 31
0.0
 70
    32
 71
     5
 42
9.0
 73
     0
 74
     0
 75
     0
  3
SEISA$0
100
AcDbAlignedDimension
 13
159.0852308223354
 23
228.3426395263247
 33
0.0
 14
168.0852308223354
 24
227.8426395263247
 34
0.0
 50
0.0000000000001132
100
AcDbRotatedDimension
1001
ACAD_DSTYLE_DIMINSPECT
1070
   396
1000
100%
1070
   395
1000

1070
   394
1070
    33
1070
   393
1070
     0
  0
DIMENSION
  5
6D05
330
1F
100
AcDbEntity
  8
AM_5 寸法線
100
AcDbDimension
  2
*D26
 10
178.0852308223354
 20
220.435615878137
 30
0.0
 11
173.0852308223354
 21
223.685615878137
 31
0.0
 70
    32
 71
     5
 42
10.0
 73
     0
 74
     0
 75
     0
  3
SEISA$0
100
AcDbAlignedDimension
 13
168.0852308223354
 23
227.8426395263247
 33
0.0
 14
178.0852308223354
 24
226.8426395263247
 34
0.0
 50
0.0000000000001132
100
AcDbRotatedDimension
1001
ACAD_DSTYLE_DIMINSPECT
1070
   396
1000
100%
1070
   395
1000

1070
   394
1070
    33
1070
   393
1070
     0
  0
INSERT
  5
6F23
330
1F
100
AcDbEntity
  8
AM_0 外形線1
100
AcDbBlockReference
  2
ケース
 10
0.0
 20
0.0
 30
0.0
  0
ENDSEC
  0
SECTION
  2
OBJECTS
  0
DICTIONARY
  5
C
330
0
100
AcDbDictionary
281
     1
  3
ACAD_COLOR
350
C5
  3
ACAD_GROUP
350
D
  3
ACAD_LAYOUT
350
1A
  3
ACAD_MATERIAL
350
C4
  3
ACAD_MLEADERSTYLE
350
2D5
  3
ACAD_MLINESTYLE
350
17
  3
ACAD_PLOTSETTINGS
350
19
  3
ACAD_PLOTSTYLENAME
350
E
  3
ACAD_SCALELIST
350
2B3
  3
ACAD_TABLESTYLE
350
121
  3
ACAD_VISUALSTYLE
350
27F
  3
ACDB_RECOMPOSE_DATA
350
2F7
  3
AcDbVariableDictionary
350
34
  3
AcmDictionary
350
49
  3
AMG
350
2B
  3
AMGSNAPSETTINGS
350
1DE
  0
DICTIONARY
  5
BF
330
2
100
AcDbDictionary
280
     1
281
     1
  3
ACAD_LAYERSTATES
360
691A
  3
AMLAYER_GROUPCOLORS
360
C0
  0
DICTIONARY
  5
29F7
330
10
100
AcDbDictionary
280
     1
281
     1
  3
ADSK_XREC_LAYER_RECONCILED
360
29F8
  0
DICTIONARY
  5
29F9
330
81
100
AcDbDictionary
280
     1
281
     1
  3
ADSK_XREC_LAYER_RECONCILED
360
29FA
  0
DICTIONARY
  5
82
330
1F
100
AcDbDictionary
280
     1
281
     1
  3
ACAD_SORTENTS
360
A41
  0
DICTIONARY
  5
45D9
330
44DC
100
AcDbDictionary
280
     1
281
     1
  3
ACAD_SORTENTS
360
5881
  0
DICTIONARY
  5
465D
330
4575
100
AcDbDictionary
280
     1
281
     1
  3
ACAD_SORTENTS
360
621E
  0
DICTIONARY
  5
4788
330
46D4
100
AcDbDictionary
280
     1
281
     1
  3
ACAD_SORTENTS
360
6F08
  0
DICTIONARY
  5
48AA
330
47DD
100
AcDbDictionary
280
     1
281
     1
  3
ACAD_SORTENTS
360
6BCC
  0
DICTIONARY
  5
4981
330
48F9
100
AcDbDictionary
280
     1
281
     1
  3
ACAD_SORTENTS
360
6DD6
  0
DICTIONARY
  5
4AAF
330
4A06
100
AcDbDictionary
280
     1
281
     1
  3
ACAD_SORTENTS
360
60A9
  0
DICTIONARY
  5
4BEE
330
4BE1
100
AcDbDictionary
280
     1
281
     1
  3
ACAD_DIMASSOC
360
4BF8
  0
DICTIONARY
  5
4C93
330
4C86
100
AcDbDictionary
280
     1
281
     1
  3
ACAD_DIMASSOC
360
4C9D
  0
DICTIONARY
  5
4CAD
330
4C9E
100
AcDbDictionary
280
     1
281
     1
  3
ACAD_DIMASSOC
360
4CB9
  0
DICTIONARY
  5
4CC7
330
4CBA
100
AcDbDictionary
280
     1
281
     1
  3
ACAD_DIMASSOC
360
4CD1
  0
DICTIONARY
  5
4D47
330
4D3A
100
AcDbDictionary
280
     1
281
     1
  3
ACAD_DIMASSOC
360
4D51
  0
DICTIONARY
  5
4D71
330
4D64
100
AcDbDictionary
280
     1
281
     1
  3
ACAD_DIMASSOC
360
4D7B
  0
DICTIONARY
  5
4D89
330
4D7C
100
AcDbDictionary
280
     1
281
     1
  3
ACAD_DIMASSOC
360
4D93
  0
DICTIONARY
  5
4E1F
330
4E12
100
AcDbDictionary
280
     1
281
     1
  3
ACAD_DIMASSOC
360
4E29
  0
DICTIONARY
  5
4E41
330
4E34
100
AcDbDictionary
280
     1
281
     1
  3
ACAD_DIMASSOC
360
4E4B
  0
DICTIONARY
  5
4EDD
330
4ED0
100
AcDbDictionary
280
     1
281
     1
  3
ACAD_DIMASSOC
360
4EE7
  0
DICTIONARY
  5
678A
330
677D
100
AcDbDictionary
280
     1
281
     1
  3
ACAD_DIMASSOC
360
678B
  0
DICTIONARY
  5
6833
330
6824
100
AcDbDictionary
280
     1
281
     1
  3
ACAD_DIMASSOC
360
6834
  0
DICTIONARY
  5
C5
102
{ACAD_REACTORS
330
C
102
}
330
C
100
AcDbDictionary
281
     1
  0
DICTIONARY
  5
D
102
{ACAD_REACTORS
330
C
102
}
330
C
100
AcDbDictionary
281
     1
  0
DICTIONARY
  5
1A
102
{ACAD_REACTORS
330
C
102
}
330
C
100
AcDbDictionary
281
     1
  3
Model
350
22
  3
レイアウト1
350
1E
  3
レイアウト2
350
26
  0
DICTIONARY
  5
C4
102
{ACAD_REACTORS
330
C
102
}
330
C
100
AcDbDictionary
281
     1
  3
ByBlock
350
27D
  3
ByLayer
350
27C
  3
Global
350
27E
  0
DICTIONARY
  5
2D5
102
{ACAD_REACTORS
330
C
102
}
330
C
100
AcDbDictionary
281
     1
  3
Standard
350
2D6
  0
DICTIONARY
  5
17
102
{ACAD_REACTORS
330
C
102
}
330
C
100
AcDbDictionary
281
     1
  3
Standard
350
18
  0
DICTIONARY
  5
19
102
{ACAD_REACTORS
330
C
102
}
330
C
100
AcDbDictionary
281
     1
  3
SEISA基本
350
1C7E
  0
ACDBDICTIONARYWDFLT
  5
E
102
{ACAD_REACTORS
330
C
102
}
330
C
100
AcDbDictionary
281
     1
  3
Normal
350
F
100
AcDbDictionaryWithDefault
340
F
  0
DICTIONARY
  5
2B3
102
{ACAD_REACTORS
330
C
102
}
330
C
100
AcDbDictionary
281
     1
  3
*A1
350
6919
  3
A0
350
2B4
  3
A1
350
2B5
  3
A2
350
2B6
  3
A3
350
2B7
  3
A4
350
2B8
  3
A5
350
2B9
  3
A6
350
2BA
  3
A7
350
2BB
  3
A8
350
2BC
  3
A9
350
2BD
  3
B0
350
2BE
  3
B1
350
2BF
  3
B2
350
2C0
  3
B3
350
2C1
  3
B4
350
2C2
  3
B5
350
2C3
  3
B6
350
2C4
  3
B7
350
2C5
  3
B8
350
2C6
  3
B9
350
2C7
  3
C0
350
2C8
  3
C1
350
2C9
  3
C2
350
2CA
  3
C3
350
2CB
  3
C4
350
2CC
  3
C5
350
2CD
  3
C6
350
2CE
  3
C7
350
2CF
  3
C8
350
2D0
  3
C9
350
2D1
  3
D0
350
2D2
  3
D1
350
2D3
  3
D2
350
2D4
  0
DICTIONARY
  5
121
102
{ACAD_REACTORS
330
C
102
}
330
C
100
AcDbDictionary
281
     1
  3
Standard
350
122
  0
DICTIONARY
  5
27F
102
{ACAD_REACTORS
330
C
102
}
330
C
100
AcDbDictionary
281
     1
  3
2dWireframe
350
285
  3
3D Hidden
350
287
  3
3dWireframe
350
286
  3
Basic
350
284
  3
Brighten
350
28B
  3
ColorChange
350
28F
  3
Conceptual
350
288
  3
Dim
350
28A
  3
Facepattern
350
28E
  3
Flat
350
280
  3
FlatWithEdges
350
281
  3
Gouraud
350
282
  3
GouraudWithEdges
350
283
  3
Linepattern
350
28D
  3
Realistic
350
289
  3
Thicken
350
28C
  0
XRECORD
  5
2F7
102
{ACAD_REACTORS
330
C
102
}
330
C
100
AcDbXrecord
280
     1
 90
        1
330
122
  0
DICTIONARY
  5
34
102
{ACAD_REACTORS
330
C
102
}
330
C
100
AcDbDictionary
281
     1
  3
CANNOSCALE
350
2FA
  3
CMLEADERSTYLE
350
2F8
  3
CTABLESTYLE
350
140
  3
DIMASSOC
350
AC
  3
INDEXCTL
350
35
  3
LAYEREVAL
350
56BD
  3
LAYERNOTIFY
350
56BE
  3
LIGHTINGUNITS
350
2FB
  3
MSLTSCALE
350
2F9
  0
DICTIONARY
  5
49
102
{ACAD_REACTORS
330
C
102
}
330
C
100
AcDbDictionary
281
     1
  3
AcmBOM
350
161B
  3
AcmStdDictionary
350
4A
  3
AMDTSECTSYM_ARROWCOLOR
350
12B
  0
DICTIONARY
  5
2B
102
{ACAD_REACTORS
330
C
102
}
330
C
100
AcDbDictionary
281
     1
  0
DICTIONARY
  5
1DE
102
{ACAD_REACTORS
330
C
102
}
330
C
100
AcDbDictionary
281
     1
  0
DICTIONARY
  5
691A
102
{ACAD_REACTORS
330
BF
102
}
330
BF
100
AcDbDictionary
281
     1
  0
DICTIONARY
  5
C0
102
{ACAD_REACTORS
330
BF
102
}
330
BF
100
AcDbDictionary
280
     1
281
     1
  0
XRECORD
  5
29F8
102
{ACAD_REACTORS
330
29F7
102
}
330
29F7
100
AcDbXrecord
280
     1
290
     1
  0
XRECORD
  5
29FA
102
{ACAD_REACTORS
330
29F9
102
}
330
29F9
100
AcDbXrecord
280
     1
290
     1
  0
SORTENTSTABLE
  5
A41
102
{ACAD_REACTORS
330
82
102
}
330
82
100
AcDbSortentsTable
330
1F
331
4939
  5
4A3A
331
4E88
  5
4EA0
331
3F17
  5
3F17
331
4C86
  5
4C9E
331
677D
  5
677D
331
4D3A
  5
4D64
331
3F21
  5
3F21
331
3F1B
  5
3F1B
331
47F6
  5
4916
331
4D64
  5
4D7C
331
4BE1
  5
4C26
331
4A3A
  5
4B0C
331
3F1A
  5
3F1A
331
4ED0
  5
4F68
331
4C9E
  5
4CBA
331
3FAA
  5
3FAA
331
4E34
  5
4E70
331
4916
  5
4939
331
4E12
  5
4E4C
331
45B8
  5
47F6
331
4D7C
  5
4E34
331
4CBA
  5
4CDA
  0
SORTENTSTABLE
  5
5881
102
{ACAD_REACTORS
330
45D9
102
}
330
45D9
100
AcDbSortentsTable
330
44DC
  0
SORTENTSTABLE
  5
621E
102
{ACAD_REACTORS
330
465D
102
}
330
465D
100
AcDbSortentsTable
330
4575
331
45B7
  5
4878
331
45B5
  5
45B6
331
45B3
  5
45B4
331
45B1
  5
45B2
331
45B6
  5
45B7
331
45B4
  5
45B5
331
45B2
  5
45B3
331
45B0
  5
45B1
331
4878
  5
45B0
  0
SORTENTSTABLE
  5
6F08
102
{ACAD_REACTORS
330
4788
102
}
330
4788
100
AcDbSortentsTable
330
46D4
331
470B
  5
470C
331
4787
  5
46D7
331
4708
  5
4709
331
4705
  5
4706
331
4702
  5
4703
331
46FF
  5
4700
331
46FC
  5
46FD
331
46F9
  5
46FA
331
46F6
  5
46F7
331
46F3
  5
46F4
331
46ED
  5
46EE
331
46F0
  5
46F1
331
46EA
  5
46EB
331
46E7
  5
46E8
331
46E4
  5
46E5
331
46E1
  5
46E2
331
46DE
  5
46DF
331
46DB
  5
46DC
331
46D8
  5
46D9
331
46D7
  5
46D8
331
470C
  5
4786
331
4709
  5
470A
331
4706
  5
4707
331
4703
  5
4704
331
4700
  5
4701
331
46FD
  5
46FE
331
46FA
  5
46FB
331
46F7
  5
46F8
331
46EE
  5
46EF
331
46F4
  5
46F5
331
46EB
  5
46EC
331
46F1
  5
46F2
331
46E8
  5
46E9
331
46E5
  5
46E6
331
46E2
  5
46E3
331
46DF
  5
46E0
331
46DC
  5
46DD
331
46D9
  5
46DB
331
470A
  5
470B
331
4786
  5
4787
331
4707
  5
4708
331
4704
  5
4705
331
4701
  5
4702
331
46FE
  5
46FF
331
46FB
  5
46FC
331
46F8
  5
46F9
331
46F5
  5
46F6
331
46EF
  5
46F0
331
46F2
  5
46F3
331
46EC
  5
46ED
331
46E9
  5
46EA
331
46E6
  5
46E7
331
46E3
  5
46E4
331
46E0
  5
46E1
331
46DD
  5
46DE
  0
SORTENTSTABLE
  5
6BCC
102
{ACAD_REACTORS
330
48AA
102
}
330
48AA
100
AcDbSortentsTable
330
47DD
331
47EF
  5
47F1
331
47EE
  5
47F0
331
47ED
  5
47EF
331
47EC
  5
47EE
331
47EB
  5
47ED
331
47EA
  5
47EC
331
47E9
  5
47EB
331
47E8
  5
47EA
331
47E7
  5
47E9
331
47E6
  5
47E8
331
47E4
  5
47E7
331
47F5
  5
6B02
331
47E2
  5
47E6
331
47E1
  5
47E4
331
6B02
  5
47E0
331
47E0
  5
47E2
331
47F1
  5
6B01
331
6B01
  5
47E1
331
47F0
  5
47F5
  0
SORTENTSTABLE
  5
6DD6
102
{ACAD_REACTORS
330
4981
102
}
330
4981
100
AcDbSortentsTable
330
48F9
331
4909
  5
490B
331
4908
  5
490A
331
6801
  5
48FC
331
4906
  5
4909
331
4903
  5
4908
331
4902
  5
4906
331
4901
  5
4903
331
67EC
  5
48FE
331
4900
  5
4902
331
4910
  5
6801
331
490F
  5
67EC
331
490E
  5
4910
331
490D
  5
490F
331
48FF
  5
4901
331
48FE
  5
4900
331
490C
  5
490E
331
490B
  5
490D
331
48FC
  5
48FF
331
490A
  5
490C
  0
SORTENTSTABLE
  5
60A9
102
{ACAD_REACTORS
330
4AAF
102
}
330
4AAF
100
AcDbSortentsTable
330
4A06
  0
DIMASSOC
  5
4BF8
102
{ACAD_REACTORS
330
4BEE
102
}
330
4BEE
100
AcDbDimAssoc
330
4BE1
 90
        3
 70
     0
 71
     0
  1
AcDbOsnapPointRef
 72
    13
331
4916
331
4901
 73
     2
 91
        0
 40
0.0
 10
0.0
 20
0.0
 30
2.000000000000000E+50
 75
     0
  1
AcDbOsnapPointRef
 72
     1
331
4916
331
48FF
 73
     2
 91
        0
 40
1.0
 10
0.0
 20
0.0
 30
2.000000000000000E+50
 75
     0
  0
DIMASSOC
  5
4C9D
102
{ACAD_REACTORS
330
4C93
102
}
330
4C93
100
AcDbDimAssoc
330
4C86
 90
        3
 70
     0
 71
     0
  1
AcDbOsnapPointRef
 72
     1
331
4916
331
490E
 73
     2
 91
        0
 40
1.0
 10
0.0
 20
0.0
 30
2.000000000000000E+50
 75
     0
  1
AcDbOsnapPointRef
 72
     2
331
4916
331
48FE
 73
     2
 91
        0
 40
0.5
 10
0.0
 20
0.0
 30
0.0
 75
     0
  0
DIMASSOC
  5
4CB9
102
{ACAD_REACTORS
330
4CAD
102
}
330
4CAD
100
AcDbDimAssoc
330
4C9E
 90
        3
 70
     0
 71
     0
  1
AcDbOsnapPointRef
 72
     1
331
47F6
331
47E0
 73
     2
 91
        0
 40
1.0
 10
0.0
 20
0.0
 30
2.000000000000000E+50
 75
     0
  1
AcDbOsnapPointRef
 72
     1
331
4916
331
490E
 73
     2
 91
        0
 40
1.0
 10
0.0
 20
0.0
 30
2.000000000000000E+50
 75
     0
  0
DIMASSOC
  5
4CD1
102
{ACAD_REACTORS
330
4CC7
102
}
330
4CC7
100
AcDbDimAssoc
330
4CBA
 90
        3
 70
     0
 71
     0
  1
AcDbOsnapPointRef
 72
     2
331
47F6
331
47E1
 73
     2
 91
        0
 40
0.5
 10
0.0
 20
0.0
 30
0.0
 75
     0
  1
AcDbOsnapPointRef
 72
     1
331
47F6
331
47E0
 73
     2
 91
        0
 40
1.0
 10
0.0
 20
0.0
 30
2.000000000000000E+50
 75
     0
  0
DIMASSOC
  5
4D51
102
{ACAD_REACTORS
330
4D47
102
}
330
4D47
100
AcDbDimAssoc
330
4D3A
 90
        3
 70
     0
 71
     0
  1
AcDbOsnapPointRef
 72
    13
331
47F6
331
47EC
 73
     2
 91
        0
 40
0.0
 10
0.0
 20
0.0
 30
2.000000000000000E+50
 75
     0
  1
AcDbOsnapPointRef
 72
    13
331
47F6
331
47E2
 73
     2
 91
        0
 40
4.712388980384688
 10
0.0
 20
0.0
 30
2.000000000000000E+50
 75
     0
  0
DIMASSOC
  5
4D7B
102
{ACAD_REACTORS
330
4D71
102
}
330
4D71
100
AcDbDimAssoc
330
4D64
 90
        3
 70
     0
 71
     0
  1
AcDbOsnapPointRef
 72
     1
331
45B8
331
4586
 73
     2
 91
        0
 40
1.0
 10
0.0
 20
0.0
 30
2.000000000000000E+50
 75
     0
  1
AcDbOsnapPointRef
 72
     2
331
45B8
331
4583
 73
     2
 91
        0
 40
0.5
 10
0.0
 20
0.0
 30
0.0
 75
     0
  0
DIMASSOC
  5
4D93
102
{ACAD_REACTORS
330
4D89
102
}
330
4D89
100
AcDbDimAssoc
330
4D7C
 90
        3
 70
     0
 71
     0
  1
AcDbOsnapPointRef
 72
     1
331
45B8
331
4599
 73
     2
 91
        0
 40
0.9999999999999998
 10
0.0
 20
0.0
 30
2.000000000000000E+50
 75
     0
  1
AcDbOsnapPointRef
 72
     1
331
45B8
331
457C
 73
     2
 91
        0
 40
0.9999999999999998
 10
0.0
 20
0.0
 30
2.000000000000000E+50
 75
     0
  0
DIMASSOC
  5
4E29
102
{ACAD_REACTORS
330
4E1F
102
}
330
4E1F
100
AcDbDimAssoc
330
4E12
 90
        3
 70
     0
 71
     0
  1
AcDbOsnapPointRef
 72
    13
331
4939
331
46DC
 73
     2
 91
        0
 40
0.0
 10
0.0
 20
0.0
 30
2.000000000000000E+50
 75
     0
  1
AcDbOsnapPointRef
 72
    13
331
4939
331
46D8
 73
     2
 91
        0
 40
0.0
 10
0.0
 20
0.0
 30
2.000000000000000E+50
 75
     0
  0
DIMASSOC
  5
4E4B
102
{ACAD_REACTORS
330
4E41
102
}
330
4E41
100
AcDbDimAssoc
330
4E34
 90
        3
 70
     0
 71
     0
  1
AcDbOsnapPointRef
 72
    13
331
4939
331
46DC
 73
     2
 91
        0
 40
0.0
 10
0.0
 20
0.0
 30
2.000000000000000E+50
 75
     0
  1
AcDbOsnapPointRef
 72
    13
331
45B8
331
457B
 73
     2
 91
        0
 40
0.0
 10
0.0
 20
0.0
 30
2.000000000000000E+50
 75
     0
  0
DIMASSOC
  5
4EE7
102
{ACAD_REACTORS
330
4EDD
102
}
330
4EDD
100
AcDbDimAssoc
330
4ED0
 90
        3
 70
     0
 71
     0
  1
AcDbOsnapPointRef
 72
    13
331
4916
331
48FE
 73
     2
 91
        0
 40
0.0
 10
0.0
 20
0.0
 30
2.000000000000000E+50
 75
     0
  1
AcDbOsnapPointRef
 72
     8
331
47F6
331
47E1
 73
     2
 91
        0
 40
0.0
 10
0.0
 20
0.0
 30
0.0
 75
     1
  1
AcDbOsnapPointRef
 72
    13
331
4916
331
48FE
 73
     2
 91
        0
 40
0.0
 10
0.0
 20
0.0
 30
2.000000000000000E+50
 75
     0
  0
DIMASSOC
  5
678B
102
{ACAD_REACTORS
330
678A
102
}
330
678A
100
AcDbDimAssoc
330
677D
 90
        2
 70
     0
 71
     0
  1
AcDbOsnapPointRef
 72
     1
331
4916
331
48FE
 73
     0
 91
        0
 40
0.0
 10
0.0
 20
0.0
 30
2.000000000000000E+50
 75
     0
  0
DIMASSOC
  5
6834
102
{ACAD_REACTORS
330
6833
102
}
330
6833
100
AcDbDimAssoc
330
6824
 90
        1
 70
     0
 71
     0
  1
AcDbOsnapPointRef
 72
     1
331
4939
331
46F6
 73
     2
 91
        0
 40
1.0
 10
0.0
 20
0.0
 30
2.000000000000000E+50
 75
     0
  0
LAYOUT
  5
22
102
{ACAD_REACTORS
330
1A
102
}
330
1A
100
AcDbPlotSettings
  1

  2
KONICA MINOLTA 501 PCL
  4
A4
  6

 40
5.027082920074462
 41
5.027085781097412
 42
5.027069091796875
 43
5.027069091796875
 44
209.9733276367186
 45
296.9259948730469
 46
0.0
 47
4.947501968117165
 48
0.0
 49
0.0
140
0.0
141
0.0
142
1.0
143
0.7037424198682256
 70
 11956
 72
     1
 73
     1
 74
     1
  7
SEISA.ctb
 75
     0
147
1.420974452822167
 76
     0
 77
     2
 78
   300
148
-112.7481092107349
149
-119.156205423238
100
AcDbLayout
  1
Model
 70
     1
 71
     0
 10
0.0
 20
0.0
 11
12.0
 21
9.0
 12
0.0
 22
0.0
 32
0.0
 14
0.0
 24
0.0
 34
0.0
 15
0.0
 25
0.0
 35
0.0
146
0.0
 13
0.0
 23
0.0
 33
0.0
 16
1.0
 26
0.0
 36
0.0
 17
0.0
 27
1.0
 37
0.0
 76
     0
330
1F
331
27A
1001
ACAD_PSEXT
1000
KONICA MINOLTA 501 PCL
1000
KONICA MINOLTA 501/421/361PCL
1000
IP_192.168.20.231_(1)
1000

1070
     0
  0
LAYOUT
  5
1E
102
{ACAD_REACTORS
330
1A
102
}
330
1A
100
AcDbPlotSettings
  1

  2
none_device
  4
Letter_(8.50_x_11.00_Inches)
  6

 40
6.349999904632567
 41
6.349999904632567
 42
6.350006103515625
 43
6.350006103515625
 44
215.8999938964844
 45
279.3999938964844
 46
0.0
 47
0.0
 48
0.0
 49
0.0
140
0.0
141
0.0
142
1.0
143
1.0
 70
 15024
 72
     1
 73
     1
 74
     5
  7
SEISA.ctb
 75
    16
147
1.0
 76
     0
 77
     2
 78
   300
148
0.0
149
0.0
100
AcDbLayout
  1
レイアウト1
 70
     1
 71
     1
 10
0.0
 20
0.0
 11
420.0
 21
297.0
 12
0.0
 22
0.0
 32
0.0
 14
1.000000000000000E+20
 24
1.000000000000000E+20
 34
1.000000000000000E+20
 15
-1.000000000000000E+20
 25
-1.000000000000000E+20
 35
-1.000000000000000E+20
146
0.0
 13
0.0
 23
0.0
 33
0.0
 16
1.0
 26
0.0
 36
0.0
 17
0.0
 27
1.0
 37
0.0
 76
     0
330
1B
  0
LAYOUT
  5
26
102
{ACAD_REACTORS
330
1A
102
}
330
1A
100
AcDbPlotSettings
  1

  2
none_device
  4
Letter_(8.50_x_11.00_Inches)
  6

 40
6.349999904632567
 41
6.349999904632567
 42
6.350006103515625
 43
6.350006103515625
 44
215.8999938964844
 45
279.3999938964844
 46
0.0
 47
0.0
 48
0.0
 49
0.0
140
0.0
141
0.0
142
1.0
143
1.0
 70
 15024
 72
     1
 73
     1
 74
     5
  7
SEISA.ctb
 75
    16
147
1.0
 76
     0
 77
     2
 78
   300
148
0.0
149
0.0
100
AcDbLayout
  1
レイアウト2
 70
     1
 71
     2
 10
0.0
 20
0.0
 11
12.0
 21
9.0
 12
0.0
 22
0.0
 32
0.0
 14
0.0
 24
0.0
 34
0.0
 15
0.0
 25
0.0
 35
0.0
146
0.0
 13
0.0
 23
0.0
 33
0.0
 16
1.0
 26
0.0
 36
0.0
 17
0.0
 27
1.0
 37
0.0
 76
     0
330
23
  0
MATERIAL
  5
27D
102
{ACAD_REACTORS
330
C4
102
}
330
C4
100
AcDbMaterial
  1
ByBlock
 73
     1
 78
     1
172
     1
176
     1
270
     1
274
     1
 94
       63
  0
MATERIAL
  5
27C
102
{ACAD_REACTORS
330
C4
102
}
330
C4
100
AcDbMaterial
  1
ByLayer
 73
     1
 78
     1
172
     1
176
     1
270
     1
274
     1
 94
       63
  0
MATERIAL
  5
27E
102
{ACAD_REACTORS
330
C4
102
}
330
C4
100
AcDbMaterial
  1
Global
 73
     1
 78
     1
172
     1
176
     1
270
     1
274
     1
 94
       63
  0
MLEADERSTYLE
  5
2D6
102
{ACAD_REACTORS
330
2D5
102
}
330
2D5
100
AcDbMLeaderStyle
170
     2
171
     1
172
     0
 90
        2
 40
0.0
 41
0.0
173
     1
 91
-1056964608
340
14
 92
       -2
290
     1
 42
2.0
291
     1
 43
0.36
  3
Standard
 44
4.0
300

342
11
174
     1
178
     6
175
     1
176
     0
 93
-1056964608
 45
4.0
292
     0
297
     0
 46
4.0
 94
-1056964608
 47
1.0
 49
1.0
140
1.0
293
     1
141
0.0
294
     1
177
     0
142
1.0
295
     0
296
     0
143
0.125
1001
ACAD_MLEADERVER
1070
     2
  0
MLINESTYLE
  5
18
102
{ACAD_REACTORS
330
17
102
}
330
17
100
AcDbMlineStyle
  2
STANDARD
 70
     0
  3

 62
   256
 51
90.0
 52
90.0
 71
     2
 49
0.5
 62
   256
  6
BYLAYER
 49
-0.5
 62
   256
  6
BYLAYER
  0
PLOTSETTINGS
  5
1C7E
102
{ACAD_REACTORS
330
19
102
}
330
19
100
AcDbPlotSettings
  1
SEISA基本
  2
none_device
  4
Letter_(8.50_x_11.00_Inches)
  6

 40
6.349999904632567
 41
6.349999904632567
 42
6.350006103515625
 43
6.350006103515625
 44
215.8999938964844
 45
279.3999938964844
 46
7.302498226506357
 47
0.0
 48
0.0
 49
0.0
140
0.0
141
0.0
142
1.0
143
1.574803221122935
 70
 11956
 72
     1
 73
     1
 74
     2
  7
SEISA.ctb
 75
     0
147
0.6349999711627054
 76
     0
 77
     2
 78
   300
148
0.0
149
0.0
1001
ACAD_PSEXT
1000
なし
1000
なし
1000
適切ではありません
1000
新しいプロッタ環境設定名を選択しない限り、レイアウトは印刷されません。
1070
     0
  0
ACDBPLACEHOLDER
  5
F
102
{ACAD_REACTORS
330
E
102
}
330
E
  0
SCALE
  5
6919
102
{ACAD_REACTORS
330
2B3
102
}
330
2B3
100
AcDbScale
 70
     0
300
1:1.5
140
1.0
141
1.5
290
     0
  0
SCALE
  5
2B4
102
{ACAD_REACTORS
330
2B3
102
}
330
2B3
100
AcDbScale
 70
     0
300
1:1
140
1.0
141
1.0
290
     1
  0
SCALE
  5
2B5
102
{ACAD_REACTORS
330
2B3
102
}
330
2B3
100
AcDbScale
 70
     0
300
1:2
140
1.0
141
2.0
290
     0
  0
SCALE
  5
2B6
102
{ACAD_REACTORS
330
2B3
102
}
330
2B3
100
AcDbScale
 70
     0
300
1:4
140
1.0
141
4.0
290
     0
  0
SCALE
  5
2B7
102
{ACAD_REACTORS
330
2B3
102
}
330
2B3
100
AcDbScale
 70
     0
300
1:5
140
1.0
141
5.0
290
     0
  0
SCALE
  5
2B8
102
{ACAD_REACTORS
330
2B3
102
}
330
2B3
100
AcDbScale
 70
     0
300
1:8
140
1.0
141
8.0
290
     0
  0
SCALE
  5
2B9
102
{ACAD_REACTORS
330
2B3
102
}
330
2B3
100
AcDbScale
 70
     0
300
1:10
140
1.0
141
10.0
290
     0
  0
SCALE
  5
2BA
102
{ACAD_REACTORS
330
2B3
102
}
330
2B3
100
AcDbScale
 70
     0
300
1:16
140
1.0
141
16.0
290
     0
  0
SCALE
  5
2BB
102
{ACAD_REACTORS
330
2B3
102
}
330
2B3
100
AcDbScale
 70
     0
300
1:20
140
1.0
141
20.0
290
     0
  0
SCALE
  5
2BC
102
{ACAD_REACTORS
330
2B3
102
}
330
2B3
100
AcDbScale
 70
     0
300
1:30
140
1.0
141
30.0
290
     0
  0
SCALE
  5
2BD
102
{ACAD_REACTORS
330
2B3
102
}
330
2B3
100
AcDbScale
 70
     0
300
1:40
140
1.0
141
40.0
290
     0
  0
SCALE
  5
2BE
102
{ACAD_REACTORS
330
2B3
102
}
330
2B3
100
AcDbScale
 70
     0
300
1:50
140
1.0
141
50.0
290
     0
  0
SCALE
  5
2BF
102
{ACAD_REACTORS
330
2B3
102
}
330
2B3
100
AcDbScale
 70
     0
300
1:100
140
1.0
141
100.0
290
     0
  0
SCALE
  5
2C0
102
{ACAD_REACTORS
330
2B3
102
}
330
2B3
100
AcDbScale
 70
     0
300
2:1
140
2.0
141
1.0
290
     0
  0
SCALE
  5
2C1
102
{ACAD_REACTORS
330
2B3
102
}
330
2B3
100
AcDbScale
 70
     0
300
4:1
140
4.0
141
1.0
290
     0
  0
SCALE
  5
2C2
102
{ACAD_REACTORS
330
2B3
102
}
330
2B3
100
AcDbScale
 70
     0
300
8:1
140
8.0
141
1.0
290
     0
  0
SCALE
  5
2C3
102
{ACAD_REACTORS
330
2B3
102
}
330
2B3
100
AcDbScale
 70
     0
300
10:1
140
10.0
141
1.0
290
     0
  0
SCALE
  5
2C4
102
{ACAD_REACTORS
330
2B3
102
}
330
2B3
100
AcDbScale
 70
     0
300
100:1
140
100.0
141
1.0
290
     0
  0
SCALE
  5
2C5
102
{ACAD_REACTORS
330
2B3
102
}
330
2B3
100
AcDbScale
 70
     0
300
1/128" = 1'-0"
140
0.0078125
141
12.0
290
     0
  0
SCALE
  5
2C6
102
{ACAD_REACTORS
330
2B3
102
}
330
2B3
100
AcDbScale
 70
     0
300
1/64" = 1'-0"
140
0.015625
141
12.0
290
     0
  0
SCALE
  5
2C7
102
{ACAD_REACTORS
330
2B3
102
}
330
2B3
100
AcDbScale
 70
     0
300
1/32" = 1'-0"
140
0.03125
141
12.0
290
     0
  0
SCALE
  5
2C8
102
{ACAD_REACTORS
330
2B3
102
}
330
2B3
100
AcDbScale
 70
     0
300
1/16" = 1'-0"
140
0.0625
141
12.0
290
     0
  0
SCALE
  5
2C9
102
{ACAD_REACTORS
330
2B3
102
}
330
2B3
100
AcDbScale
 70
     0
300
3/32" = 1'-0"
140
0.09375
141
12.0
290
     0
  0
SCALE
  5
2CA
102
{ACAD_REACTORS
330
2B3
102
}
330
2B3
100
AcDbScale
 70
     0
300
1/8" = 1'-0"
140
0.125
141
12.0
290
     0
  0
SCALE
  5
2CB
102
{ACAD_REACTORS
330
2B3
102
}
330
2B3
100
AcDbScale
 70
     0
300
3/16" = 1'-0"
140
0.1875
141
12.0
290
     0
  0
SCALE
  5
2CC
102
{ACAD_REACTORS
330
2B3
102
}
330
2B3
100
AcDbScale
 70
     0
300
1/4" = 1'-0"
140
0.25
141
12.0
290
     0
  0
SCALE
  5
2CD
102
{ACAD_REACTORS
330
2B3
102
}
330
2B3
100
AcDbScale
 70
     0
300
3/8" = 1'-0"
140
0.375
141
12.0
290
     0
  0
SCALE
  5
2CE
102
{ACAD_REACTORS
330
2B3
102
}
330
2B3
100
AcDbScale
 70
     0
300
1/2" = 1'-0"
140
0.5
141
12.0
290
     0
  0
SCALE
  5
2CF
102
{ACAD_REACTORS
330
2B3
102
}
330
2B3
100
AcDbScale
 70
     0
300
3/4" = 1'-0"
140
0.75
141
12.0
290
     0
  0
SCALE
  5
2D0
102
{ACAD_REACTORS
330
2B3
102
}
330
2B3
100
AcDbScale
 70
     0
300
1" = 1'-0"
140
1.0
141
12.0
290
     0
  0
SCALE
  5
2D1
102
{ACAD_REACTORS
330
2B3
102
}
330
2B3
100
AcDbScale
 70
     0
300
1-1/2" = 1'-0"
140
1.5
141
12.0
290
     0
  0
SCALE
  5
2D2
102
{ACAD_REACTORS
330
2B3
102
}
330
2B3
100
AcDbScale
 70
     0
300
3" = 1'-0"
140
3.0
141
12.0
290
     0
  0
SCALE
  5
2D3
102
{ACAD_REACTORS
330
2B3
102
}
330
2B3
100
AcDbScale
 70
     0
300
6" = 1'-0"
140
6.0
141
12.0
290
     0
  0
SCALE
  5
2D4
102
{ACAD_REACTORS
330
2B3
102
}
330
2B3
100
AcDbScale
 70
     0
300
1'-0" = 1'-0"
140
12.0
141
12.0
290
     0
  0
TABLESTYLE
  5
122
102
{ACAD_XDICTIONARY
360
2F5
102
}
102
{ACAD_REACTORS
330
121
102
}
330
121
100
AcDbTableStyle
  3
Standard
 70
     0
 71
     0
 40
1.5
 41
1.5
280
     0
281
     0
  7
STANDARD
140
4.5
170
     2
 62
     0
 63
     7
283
     0
 90
      512
 91
        0
  1

274
    -2
284
     1
 64
     0
275
    -2
285
     1
 65
     0
276
    -2
286
     1
 66
     0
277
    -2
287
     1
 67
     0
278
    -2
288
     1
 68
     0
279
    -2
289
     1
 69
     0
  7
STANDARD
140
6.0
170
     5
 62
     0
 63
     7
283
     0
 90
      512
 91
        0
  1

274
    -2
284
     1
 64
     0
275
    -2
285
     1
 65
     0
276
    -2
286
     1
 66
     0
277
    -2
287
     1
 67
     0
278
    -2
288
     1
 68
     0
279
    -2
289
     1
 69
     0
  7
STANDARD
140
4.5
170
     5
 62
     0
 63
     7
283
     0
 90
      512
 91
        0
  1

274
    -2
284
     1
 64
     0
275
    -2
285
     1
 65
     0
276
    -2
286
     1
 66
     0
277
    -2
287
     1
 67
     0
278
    -2
288
     1
 68
     0
279
    -2
289
     1
 69
     0
  0
VISUALSTYLE
  5
285
102
{ACAD_REACTORS
330
27F
102
}
330
27F
100
AcDbVisualStyle
  2
2dWireframe
 70
     4
 71
     0
 72
     2
 73
     0
 90
        0
 40
-0.6
 41
-30.0
 62
     5
 63
     7
421
 16777215
 74
     1
 91
        4
 64
     7
 65
   257
 75
     1
175
     1
 42
1.0
 92
        0
 66
   257
 43
1.0
 76
     1
 77
     6
 78
     2
 67
     7
 79
     5
170
     0
171
     0
290
     0
174
     0
 93
        1
 44
0.0
173
     0
291
     0
 45
0.0
  0
VISUALSTYLE
  5
287
102
{ACAD_REACTORS
330
27F
102
}
330
27F
100
AcDbVisualStyle
  2
3D Hidden
 70
     6
 71
     1
 72
     2
 73
     2
 90
        0
 40
-0.6
 41
-30.0
 62
     5
 63
     7
421
 16777215
 74
     2
 91
        2
 64
     7
 65
   257
 75
     2
175
     1
 42
40.0
 92
        0
 66
   257
 43
1.0
 76
     1
 77
     6
 78
     2
 67
     7
 79
     3
170
     0
171
     0
290
     0
174
     0
 93
        1
 44
0.0
173
     0
291
     0
 45
0.0
  0
VISUALSTYLE
  5
286
102
{ACAD_REACTORS
330
27F
102
}
330
27F
100
AcDbVisualStyle
  2
3dWireframe
 70
     5
 71
     0
 72
     2
 73
     0
 90
        0
 40
-0.6
 41
-30.0
 62
     5
 63
     7
421
 16777215
 74
     1
 91
        4
 64
     7
 65
   257
 75
     1
175
     1
 42
1.0
 92
        0
 66
   257
 43
1.0
 76
     1
 77
     6
 78
     2
 67
     7
 79
     5
170
     0
171
     0
290
     0
174
     0
 93
        1
 44
0.0
173
     0
291
     0
 45
0.0
  0
VISUALSTYLE
  5
284
102
{ACAD_REACTORS
330
27F
102
}
330
27F
100
AcDbVisualStyle
  2
Basic
 70
     7
 71
     1
 72
     0
 73
     1
 90
        0
 40
-0.6
 41
-30.0
 62
     5
 63
     7
421
 16777215
 74
     0
 91
        4
 64
     7
 65
   257
 75
     1
175
     1
 42
1.0
 92
        8
 66
     7
 43
1.0
 76
     1
 77
     6
 78
     2
 67
     7
 79
     5
170
     0
171
     0
290
     0
174
     0
 93
        1
 44
0.0
173
     0
291
     1
 45
0.0
  0
VISUALSTYLE
  5
28B
102
{ACAD_REACTORS
330
27F
102
}
330
27F
100
AcDbVisualStyle
  2
Brighten
 70
    12
 71
     2
 72
     2
 73
     0
 90
        0
 40
-0.6
 41
-30.0
 62
     5
 63
     7
421
 16777215
 74
     1
 91
        4
 64
     7
 65
   257
 75
     1
175
     1
 42
1.0
 92
        8
 66
     7
 43
1.0
 76
     1
 77
     6
 78
     2
 67
     7
 79
     5
170
     0
171
     0
290
     0
174
     0
 93
        1
 44
50.0
173
     0
291
     1
 45
0.0
  0
VISUALSTYLE
  5
28F
102
{ACAD_REACTORS
330
27F
102
}
330
27F
100
AcDbVisualStyle
  2
ColorChange
 70
    16
 71
     2
 72
     2
 73
     3
 90
        0
 40
-0.6
 41
-30.0
 62
     5
 63
     8
421
  8421504
 74
     1
 91
        4
 64
     7
 65
   257
 75
     1
175
     1
 42
1.0
 92
        8
 66
     8
424
  8421504
 43
1.0
 76
     1
 77
     6
 78
     2
 67
     7
 79
     5
170
     0
171
     0
290
     0
174
     0
 93
        1
 44
0.0
173
     0
291
     1
 45
0.0
  0
VISUALSTYLE
  5
288
102
{ACAD_REACTORS
330
27F
102
}
330
27F
100
AcDbVisualStyle
  2
Conceptual
 70
     9
 71
     3
 72
     2
 73
     0
 90
        0
 40
-0.6
 41
-30.0
 62
     5
 63
     7
421
 16777215
 74
     2
 91
        2
 64
     7
 65
   257
 75
     1
175
     1
 42
40.0
 92
        8
 66
     7
 43
1.0
 76
     1
 77
     6
 78
     2
 67
     7
 79
     3
170
     0
171
     0
290
     0
174
     0
 93
        1
 44
0.0
173
     0
291
     0
 45
0.0
  0
VISUALSTYLE
  5
28A
102
{ACAD_REACTORS
330
27F
102
}
330
27F
100
AcDbVisualStyle
  2
Dim
 70
    11
 71
     2
 72
     2
 73
     0
 90
        0
 40
-0.6
 41
-30.0
 62
     5
 63
     7
421
 16777215
 74
     1
 91
        4
 64
     7
 65
   257
 75
     1
175
     1
 42
1.0
 92
        8
 66
     7
 43
1.0
 76
     1
 77
     6
 78
     2
 67
     7
 79
     5
170
     0
171
     0
290
     0
174
     0
 93
        1
 44
-50.0
173
     0
291
     1
 45
0.0
  0
VISUALSTYLE
  5
28E
102
{ACAD_REACTORS
330
27F
102
}
330
27F
100
AcDbVisualStyle
  2
Facepattern
 70
    15
 71
     2
 72
     2
 73
     0
 90
        0
 40
-0.6
 41
-30.0
 62
     5
 63
     7
421
 16777215
 74
     1
 91
        4
 64
     7
 65
   257
 75
     1
175
     1
 42
1.0
 92
        8
 66
     7
 43
1.0
 76
     1
 77
     6
 78
     2
 67
     7
 79
     5
170
     0
171
     0
290
     0
174
     0
 93
        1
 44
0.0
173
     0
291
     1
 45
0.0
  0
VISUALSTYLE
  5
280
102
{ACAD_REACTORS
330
27F
102
}
330
27F
100
AcDbVisualStyle
  2
Flat
 70
     0
 71
     2
 72
     1
 73
     1
 90
        2
 40
-0.6
 41
30.0
 62
     5
 63
     7
421
 16777215
 74
     0
 91
        4
 64
     7
 65
   257
 75
     1
175
     1
 42
1.0
 92
        8
 66
     7
 43
1.0
 76
     1
 77
     6
 78
     2
 67
     7
 79
     5
170
     0
171
     0
290
     0
174
     0
 93
       13
 44
0.0
173
     0
291
     1
 45
0.0
  0
VISUALSTYLE
  5
281
102
{ACAD_REACTORS
330
27F
102
}
330
27F
100
AcDbVisualStyle
  2
FlatWithEdges
 70
     1
 71
     2
 72
     1
 73
     1
 90
        2
 40
-0.6
 41
30.0
 62
     5
 63
     7
421
 16777215
 74
     1
 91
        4
 64
     7
 65
   257
 75
     1
175
     1
 42
1.0
 92
        0
 66
   257
 43
1.0
 76
     1
 77
     6
 78
     2
 67
     7
 79
     5
170
     0
171
     0
290
     0
174
     0
 93
       13
 44
0.0
173
     0
291
     1
 45
0.0
  0
VISUALSTYLE
  5
282
102
{ACAD_REACTORS
330
27F
102
}
330
27F
100
AcDbVisualStyle
  2
Gouraud
 70
     2
 71
     2
 72
     2
 73
     1
 90
        2
 40
-0.6
 41
30.0
 62
     5
 63
     7
421
 16777215
 74
     0
 91
        4
 64
     7
 65
   257
 75
     1
175
     1
 42
1.0
 92
        0
 66
     7
 43
1.0
 76
     1
 77
     6
 78
     2
 67
     7
 79
     5
170
     0
171
     0
290
     0
174
     0
 93
       13
 44
0.0
173
     0
291
     1
 45
0.0
  0
VISUALSTYLE
  5
283
102
{ACAD_REACTORS
330
27F
102
}
330
27F
100
AcDbVisualStyle
  2
GouraudWithEdges
 70
     3
 71
     2
 72
     2
 73
     1
 90
        2
 40
-0.6
 41
30.0
 62
     5
 63
     7
421
 16777215
 74
     1
 91
        4
 64
     7
 65
   257
 75
     1
175
     1
 42
1.0
 92
        0
 66
   257
 43
1.0
 76
     1
 77
     6
 78
     2
 67
     7
 79
     5
170
     0
171
     0
290
     0
174
     0
 93
       13
 44
0.0
173
     0
291
     1
 45
0.0
  0
VISUALSTYLE
  5
28D
102
{ACAD_REACTORS
330
27F
102
}
330
27F
100
AcDbVisualStyle
  2
Linepattern
 70
    14
 71
     2
 72
     2
 73
     0
 90
        0
 40
-0.6
 41
-30.0
 62
     5
 63
     7
421
 16777215
 74
     1
 91
        4
 64
     7
 65
   257
 75
     7
175
     7
 42
1.0
 92
        8
 66
     7
 43
1.0
 76
     1
 77
     6
 78
     2
 67
     7
 79
     5
170
     0
171
     0
290
     0
174
     0
 93
        1
 44
0.0
173
     0
291
     1
 45
0.0
  0
VISUALSTYLE
  5
289
102
{ACAD_REACTORS
330
27F
102
}
330
27F
100
AcDbVisualStyle
  2
Realistic
 70
     8
 71
     2
 72
     2
 73
     0
 90
        0
 40
-0.6
 41
-30.0
 62
     5
 63
     7
421
 16777215
 74
     1
 91
        0
 64
     7
 65
   257
 75
     1
175
     1
 42
1.0
 92
        8
 66
     8
424
  7895160
 43
1.0
 76
     1
 77
     6
 78
     2
 67
     7
 79
     5
170
     0
171
     0
290
     0
174
     0
 93
       13
 44
0.0
173
     0
291
     0
 45
0.0
  0
VISUALSTYLE
  5
28C
102
{ACAD_REACTORS
330
27F
102
}
330
27F
100
AcDbVisualStyle
  2
Thicken
 70
    13
 71
     2
 72
     2
 73
     0
 90
        0
 40
-0.6
 41
-30.0
 62
     5
 63
     7
421
 16777215
 74
     1
 91
        4
 64
     7
 65
   257
 75
     1
175
     1
 42
1.0
 92
       12
 66
     7
 43
1.0
 76
     1
 77
     6
 78
     2
 67
     7
 79
     5
170
     0
171
     0
290
     0
174
     0
 93
        1
 44
0.0
173
     0
291
     1
 45
0.0
  0
DICTIONARYVAR
  5
2FA
102
{ACAD_REACTORS
330
34
102
}
330
34
100
DictionaryVariables
280
     0
  1
1:1
  0
DICTIONARYVAR
  5
2F8
102
{ACAD_REACTORS
330
34
102
}
330
34
100
DictionaryVariables
280
     0
  1
STANDARD
  0
DICTIONARYVAR
  5
140
102
{ACAD_REACTORS
330
34
102
}
330
34
100
DictionaryVariables
280
     0
  1
STANDARD
  0
DICTIONARYVAR
  5
AC
102
{ACAD_REACTORS
330
34
102
}
330
34
100
DictionaryVariables
280
     0
  1
1
  0
DICTIONARYVAR
  5
35
102
{ACAD_REACTORS
330
34
102
}
330
34
100
DictionaryVariables
280
     0
  1
1
  0
DICTIONARYVAR
  5
56BD
102
{ACAD_REACTORS
330
34
102
}
330
34
100
DictionaryVariables
280
     0
  1
1
  0
DICTIONARYVAR
  5
56BE
102
{ACAD_REACTORS
330
34
102
}
330
34
100
DictionaryVariables
280
     0
  1
15
  0
DICTIONARYVAR
  5
2FB
102
{ACAD_REACTORS
330
34
102
}
330
34
100
DictionaryVariables
280
     0
  1
0
  0
DICTIONARYVAR
  5
2F9
102
{ACAD_REACTORS
330
34
102
}
330
34
100
DictionaryVariables
280
     0
  1
0
  0
DICTIONARY
  5
161B
102
{ACAD_REACTORS
330
49
102
}
330
49
100
AcDbDictionary
281
     1
  0
DICTIONARY
  5
4A
102
{ACAD_REACTORS
330
49
102
}
330
49
100
AcDbDictionary
281
     1
  0
XRECORD
  5
12B
102
{ACAD_REACTORS
330
49
102
}
330
49
100
AcDbXrecord
280
     1
 90
-1023410169
  0
DICTIONARY
  5
2F5
330
122
100
AcDbDictionary
280
     1
281
     1
  3
ACAD_ROUNDTRIP_2008_TABLESTYLE_CELLSTYLEMAP
360
6FF9
  0
CELLSTYLEMAP
  5
6FF9
102
{ACAD_REACTORS
330
2F5
102
}
330
2F5
100
AcDbCellStyleMap
 90
        3
300
CELLSTYLE
  1
TABLEFORMAT_BEGIN
 90
        5
170
     1
 91
        0
 92
    32768
 62
   257
 93
        1
300
CONTENTFORMAT
  1
CONTENTFORMAT_BEGIN
 90
        0
 91
        0
 92
      512
 93
        0
300

 40
0.0
140
1.0
 94
        5
 62
     0
340
11
144
6.0
309
CONTENTFORMAT_END
171
     1
301
MARGIN
  1
CELLMARGIN_BEGIN
 40
1.5
 40
1.5
 40
1.5
 40
1.5
 40
0.18
 40
0.18
309
CELLMARGIN_END
 94
        6
 95
        1
302
GRIDFORMAT
  1
GRIDFORMAT_BEGIN
 90
        0
 91
        1
 62
     0
 92
       -2
340
0
 93
        0
 40
0.045
309
GRIDFORMAT_END
 95
        2
302
GRIDFORMAT
  1
GRIDFORMAT_BEGIN
 90
        0
 91
        1
 62
     0
 92
       -2
340
0
 93
        0
 40
0.045
309
GRIDFORMAT_END
 95
        4
302
GRIDFORMAT
  1
GRIDFORMAT_BEGIN
 90
        0
 91
        1
 62
     0
 92
       -2
340
0
 93
        0
 40
0.045
309
GRIDFORMAT_END
 95
        8
302
GRIDFORMAT
  1
GRIDFORMAT_BEGIN
 90
        0
 91
        1
 62
     0
 92
       -2
340
0
 93
        0
 40
0.045
309
GRIDFORMAT_END
 95
       16
302
GRIDFORMAT
  1
GRIDFORMAT_BEGIN
 90
        0
 91
        1
 62
     0
 92
       -2
340
0
 93
        0
 40
0.045
309
GRIDFORMAT_END
 95
       32
302
GRIDFORMAT
  1
GRIDFORMAT_BEGIN
 90
        0
 91
        1
 62
     0
 92
       -2
340
0
 93
        0
 40
0.045
309
GRIDFORMAT_END
309
TABLEFORMAT_END
  1
CELLSTYLE_BEGIN
 90
        1
 91
        1
300
_TITLE
309
CELLSTYLE_END
300
CELLSTYLE
  1
TABLEFORMAT_BEGIN
 90
        5
170
     1
 91
        0
 92
        0
 62
   257
 93
        1
300
CONTENTFORMAT
  1
CONTENTFORMAT_BEGIN
 90
        0
 91
        0
 92
      512
 93
        0
300

 40
0.0
140
1.0
 94
        5
 62
     0
340
11
144
4.5
309
CONTENTFORMAT_END
171
     1
301
MARGIN
  1
CELLMARGIN_BEGIN
 40
1.5
 40
1.5
 40
1.5
 40
1.5
 40
0.18
 40
0.18
309
CELLMARGIN_END
 94
        6
 95
        1
302
GRIDFORMAT
  1
GRIDFORMAT_BEGIN
 90
        0
 91
        1
 62
     0
 92
       -2
340
0
 93
        0
 40
0.045
309
GRIDFORMAT_END
 95
        2
302
GRIDFORMAT
  1
GRIDFORMAT_BEGIN
 90
        0
 91
        1
 62
     0
 92
       -2
340
0
 93
        0
 40
0.045
309
GRIDFORMAT_END
 95
        4
302
GRIDFORMAT
  1
GRIDFORMAT_BEGIN
 90
        0
 91
        1
 62
     0
 92
       -2
340
0
 93
        0
 40
0.045
309
GRIDFORMAT_END
 95
        8
302
GRIDFORMAT
  1
GRIDFORMAT_BEGIN
 90
        0
 91
        1
 62
     0
 92
       -2
340
0
 93
        0
 40
0.045
309
GRIDFORMAT_END
 95
       16
302
GRIDFORMAT
  1
GRIDFORMAT_BEGIN
 90
        0
 91
        1
 62
     0
 92
       -2
340
0
 93
        0
 40
0.045
309
GRIDFORMAT_END
 95
       32
302
GRIDFORMAT
  1
GRIDFORMAT_BEGIN
 90
        0
 91
        1
 62
     0
 92
       -2
340
0
 93
        0
 40
0.045
309
GRIDFORMAT_END
309
TABLEFORMAT_END
  1
CELLSTYLE_BEGIN
 90
        2
 91
        1
300
_HEADER
309
CELLSTYLE_END
300
CELLSTYLE
  1
TABLEFORMAT_BEGIN
 90
        5
170
     1
 91
        0
 92
        0
 62
   257
 93
        1
300
CONTENTFORMAT
  1
CONTENTFORMAT_BEGIN
 90
        0
 91
        0
 92
      512
 93
        0
300

 40
0.0
140
1.0
 94
        2
 62
     0
340
11
144
4.5
309
CONTENTFORMAT_END
171
     1
301
MARGIN
  1
CELLMARGIN_BEGIN
 40
1.5
 40
1.5
 40
1.5
 40
1.5
 40
0.18
 40
0.18
309
CELLMARGIN_END
 94
        6
 95
        1
302
GRIDFORMAT
  1
GRIDFORMAT_BEGIN
 90
        0
 91
        1
 62
     0
 92
       -2
340
0
 93
        0
 40
0.045
309
GRIDFORMAT_END
 95
        2
302
GRIDFORMAT
  1
GRIDFORMAT_BEGIN
 90
        0
 91
        1
 62
     0
 92
       -2
340
0
 93
        0
 40
0.045
309
GRIDFORMAT_END
 95
        4
302
GRIDFORMAT
  1
GRIDFORMAT_BEGIN
 90
        0
 91
        1
 62
     0
 92
       -2
340
0
 93
        0
 40
0.045
309
GRIDFORMAT_END
 95
        8
302
GRIDFORMAT
  1
GRIDFORMAT_BEGIN
 90
        0
 91
        1
 62
     0
 92
       -2
340
0
 93
        0
 40
0.045
309
GRIDFORMAT_END
 95
       16
302
GRIDFORMAT
  1
GRIDFORMAT_BEGIN
 90
        0
 91
        1
 62
     0
 92
       -2
340
0
 93
        0
 40
0.045
309
GRIDFORMAT_END
 95
       32
302
GRIDFORMAT
  1
GRIDFORMAT_BEGIN
 90
        0
 91
        1
 62
     0
 92
       -2
340
0
 93
        0
 40
0.045
309
GRIDFORMAT_END
309
TABLEFORMAT_END
  1
CELLSTYLE_BEGIN
 90
        3
 91
        2
300
_DATA
309
CELLSTYLE_END
  0
ENDSEC
  0
EOF
