  0
SECTION
  2
HEADER
  9
$ACADVER
  1
AC1021
  9
$ACADMAINTVER
 70
    26
  9
$DWGCODEPAGE
  3
ANSI_932
  9
$LASTSAVEDBY
  1
Htm_Terada
  9
$CUSTOMPROPERTYTAG
  1
AmdtFileType
  9
$CUSTOMPROPERTY
  1
84
  9
$INSBASE
 10
0.0
 20
0.0
 30
0.0
  9
$EXTMIN
 10
651.7447698193385
 20
435.0367464130133
 30
0.0
  9
$EXTMAX
 10
1266.276784703551
 20
1155.716238313013
 30
0.0
  9
$LIMMIN
 10
-0.0000002271699202
 20
0.0
  9
$LIMMAX
 10
2376.00000068151
 20
1680.0
  9
$ORTHOMODE
 70
     1
  9
$REGENMODE
 70
     1
  9
$FILLMODE
 70
     1
  9
$QTEXTMODE
 70
     0
  9
$MIRRTEXT
 70
     1
  9
$LTSCALE
 40
4.0
  9
$ATTMODE
 70
     1
  9
$TEXTSIZE
 40
25.0
  9
$TRACEWID
 40
1.0
  9
$TEXTSTYLE
  7
SEISA
  9
$CLAYER
  8
AM_11 想像線
  9
$CELTYPE
  6
ByLayer
  9
$CECOLOR
 62
   256
  9
$CELTSCALE
 40
1.0
  9
$DISPSILH
 70
     0
  9
$DIMSCALE
 40
4.0
  9
$DIMASZ
 40
2.5
  9
$DIMEXO
 40
0.625
  9
$DIMDLI
 40
10.0
  9
$DIMRND
 40
0.0
  9
$DIMDLE
 40
0.0
  9
$DIMEXE
 40
0.625
  9
$DIMTP
 40
0.1
  9
$DIMTM
 40
0.1
  9
$DIMTXT
 40
3.5
  9
$DIMCEN
 40
0.0
  9
$DIMTSZ
 40
0.0
  9
$DIMTOL
 70
     0
  9
$DIMLIM
 70
     0
  9
$DIMTIH
 70
     0
  9
$DIMTOH
 70
     0
  9
$DIMSE1
 70
     0
  9
$DIMSE2
 70
     0
  9
$DIMTAD
 70
     3
  9
$DIMZIN
 70
     8
  9
$DIMBLK
  1
Open30
  9
$DIMASO
 70
     1
  9
$DIMSHO
 70
     1
  9
$DIMPOST
  1

  9
$DIMAPOST
  1
"
  9
$DIMALT
 70
     0
  9
$DIMALTD
 70
     2
  9
$DIMALTF
 40
0.0393701
  9
$DIMLFAC
 40
1.0
  9
$DIMTOFL
 70
     1
  9
$DIMTVP
 40
0.0
  9
$DIMTIX
 70
     0
  9
$DIMSOXD
 70
     0
  9
$DIMSAH
 70
     0
  9
$DIMBLK1
  1

  9
$DIMBLK2
  1

  9
$DIMSTYLE
  2
SEISA
  9
$DIMCLRD
 70
     3
  9
$DIMCLRE
 70
     3
  9
$DIMCLRT
 70
     3
  9
$DIMTFAC
 40
0.71
  9
$DIMGAP
 40
1.5
  9
$DIMJUST
 70
     0
  9
$DIMSD1
 70
     0
  9
$DIMSD2
 70
     0
  9
$DIMTOLJ
 70
     0
  9
$DIMTZIN
 70
     0
  9
$DIMALTZ
 70
     0
  9
$DIMALTTZ
 70
     8
  9
$DIMUPT
 70
     0
  9
$DIMDEC
 70
     2
  9
$DIMTDEC
 70
     2
  9
$DIMALTU
 70
     2
  9
$DIMALTTD
 70
     2
  9
$DIMTXSTY
  7
SEISA
  9
$DIMAUNIT
 70
     0
  9
$DIMADEC
 70
     0
  9
$DIMALTRND
 40
0.0
  9
$DIMAZIN
 70
     2
  9
$DIMDSEP
 70
    46
  9
$DIMATFIT
 70
     3
  9
$DIMFRAC
 70
     0
  9
$DIMLDRBLK
  1
Open30
  9
$DIMLUNIT
 70
     2
  9
$DIMLWD
 70
    -1
  9
$DIMLWE
 70
    -1
  9
$DIMTMOVE
 70
     0
  9
$DIMFXL
 40
1.0
  9
$DIMFXLON
 70
     0
  9
$DIMJOGANG
 40
0.7853981633974483
  9
$DIMTFILL
 70
     0
  9
$DIMTFILLCLR
 70
     0
  9
$DIMARCSYM
 70
     1
  9
$DIMLTYPE
  6

  9
$DIMLTEX1
  6

  9
$DIMLTEX2
  6

  9
$LUNITS
 70
     2
  9
$LUPREC
 70
     2
  9
$SKETCHINC
 40
1.0
  9
$FILLETRAD
 40
1.0
  9
$AUNITS
 70
     0
  9
$AUPREC
 70
     0
  9
$MENU
  1
.
  9
$ELEVATION
 40
0.0
  9
$PELEVATION
 40
0.0
  9
$THICKNESS
 40
0.0
  9
$LIMCHECK
 70
     0
  9
$CHAMFERA
 40
2.0
  9
$CHAMFERB
 40
2.0
  9
$CHAMFERC
 40
2.0
  9
$CHAMFERD
 40
0.7853981633975904
  9
$SKPOLY
 70
     0
  9
$TDCREATE
 40
2454970.605456054
  9
$TDUCREATE
 40
2454970.230456054
  9
$TDUPDATE
 40
2456479.554672847
  9
$TDUUPDATE
 40
2456479.179672847
  9
$TDINDWG
 40
0.2092783565
  9
$TDUSRTIMER
 40
0.2092763773
  9
$USRTIMER
 70
     1
  9
$ANGBASE
 50
0.0
  9
$ANGDIR
 70
     0
  9
$PDMODE
 70
     0
  9
$PDSIZE
 40
0.0
  9
$PLINEWID
 40
0.0
  9
$SPLFRAME
 70
     0
  9
$SPLINETYPE
 70
     6
  9
$SPLINESEGS
 70
     8
  9
$HANDSEED
  5
5EDC
  9
$SURFTAB1
 70
     6
  9
$SURFTAB2
 70
     6
  9
$SURFTYPE
 70
     6
  9
$SURFU
 70
     6
  9
$SURFV
 70
     6
  9
$UCSBASE
  2

  9
$UCSNAME
  2

  9
$UCSORG
 10
0.0
 20
0.0
 30
0.0
  9
$UCSXDIR
 10
1.0
 20
0.0
 30
0.0
  9
$UCSYDIR
 10
0.0
 20
1.0
 30
0.0
  9
$UCSORTHOREF
  2

  9
$UCSORTHOVIEW
 70
     0
  9
$UCSORGTOP
 10
0.0
 20
0.0
 30
0.0
  9
$UCSORGBOTTOM
 10
0.0
 20
0.0
 30
0.0
  9
$UCSORGLEFT
 10
0.0
 20
0.0
 30
0.0
  9
$UCSORGRIGHT
 10
0.0
 20
0.0
 30
0.0
  9
$UCSORGFRONT
 10
0.0
 20
0.0
 30
0.0
  9
$UCSORGBACK
 10
0.0
 20
0.0
 30
0.0
  9
$PUCSBASE
  2

  9
$PUCSNAME
  2

  9
$PUCSORG
 10
0.0
 20
0.0
 30
0.0
  9
$PUCSXDIR
 10
1.0
 20
0.0
 30
0.0
  9
$PUCSYDIR
 10
0.0
 20
1.0
 30
0.0
  9
$PUCSORTHOREF
  2

  9
$PUCSORTHOVIEW
 70
     0
  9
$PUCSORGTOP
 10
0.0
 20
0.0
 30
0.0
  9
$PUCSORGBOTTOM
 10
0.0
 20
0.0
 30
0.0
  9
$PUCSORGLEFT
 10
0.0
 20
0.0
 30
0.0
  9
$PUCSORGRIGHT
 10
0.0
 20
0.0
 30
0.0
  9
$PUCSORGFRONT
 10
0.0
 20
0.0
 30
0.0
  9
$PUCSORGBACK
 10
0.0
 20
0.0
 30
0.0
  9
$USERI1
 70
     0
  9
$USERI2
 70
     0
  9
$USERI3
 70
     0
  9
$USERI4
 70
     0
  9
$USERI5
 70
     0
  9
$USERR1
 40
0.0
  9
$USERR2
 40
0.0
  9
$USERR3
 40
0.0
  9
$USERR4
 40
0.0
  9
$USERR5
 40
0.0
  9
$WORLDVIEW
 70
     1
  9
$SHADEDGE
 70
     3
  9
$SHADEDIF
 70
    70
  9
$TILEMODE
 70
     1
  9
$MAXACTVP
 70
    64
  9
$PINSBASE
 10
0.0
 20
0.0
 30
0.0
  9
$PLIMCHECK
 70
     0
  9
$PEXTMIN
 10
1.000000000000000E+20
 20
1.000000000000000E+20
 30
1.000000000000000E+20
  9
$PEXTMAX
 10
-1.000000000000000E+20
 20
-1.000000000000000E+20
 30
-1.000000000000000E+20
  9
$PLIMMIN
 10
0.0
 20
0.0
  9
$PLIMMAX
 10
420.0
 20
297.0
  9
$UNITMODE
 70
     0
  9
$VISRETAIN
 70
     1
  9
$PLINEGEN
 70
     0
  9
$PSLTSCALE
 70
     1
  9
$TREEDEPTH
 70
  3020
  9
$CMLSTYLE
  2
Standard
  9
$CMLJUST
 70
     0
  9
$CMLSCALE
 40
20.0
  9
$PROXYGRAPHICS
 70
     1
  9
$MEASUREMENT
 70
     1
  9
$CELWEIGHT
370
    -1
  9
$ENDCAPS
280
     0
  9
$JOINSTYLE
280
     0
  9
$LWDISPLAY
290
     0
  9
$INSUNITS
 70
     4
  9
$HYPERLINKBASE
  1

  9
$STYLESHEET
  1
SEISA.CTB
  9
$XEDIT
290
     1
  9
$CEPSNTYPE
380
     0
  9
$PSTYLEMODE
290
     1
  9
$FINGERPRINTGUID
  2
{6AC5993E-EC30-4AF5-BF27-7C89A232ECF1}
  9
$VERSIONGUID
  2
{4314E5B0-3E07-4181-8F90-8CFB2C52EA6F}
  9
$EXTNAMES
290
     1
  9
$PSVPSCALE
 40
0.0
  9
$OLESTARTUP
290
     0
  9
$SORTENTS
280
   127
  9
$INDEXCTL
280
     0
  9
$HIDETEXT
280
     0
  9
$XCLIPFRAME
290
     0
  9
$HALOGAP
280
     0
  9
$OBSCOLOR
 70
   257
  9
$OBSLTYPE
280
     0
  9
$INTERSECTIONDISPLAY
280
     0
  9
$INTERSECTIONCOLOR
 70
   257
  9
$DIMASSOC
280
     2
  9
$PROJECTNAME
  1

  9
$CAMERADISPLAY
290
     0
  9
$LENSLENGTH
 40
50.0
  9
$CAMERAHEIGHT
 40
0.0
  9
$STEPSPERSEC
 40
2.0
  9
$STEPSIZE
 40
6.0
  9
$3DDWFPREC
 40
2.0
  9
$PSOLWIDTH
 40
0.25
  9
$PSOLHEIGHT
 40
4.0
  9
$LOFTANG1
 40
1.570796326794896
  9
$LOFTANG2
 40
1.570796326794896
  9
$LOFTMAG1
 40
0.0
  9
$LOFTMAG2
 40
0.0
  9
$LOFTPARAM
 70
     7
  9
$LOFTNORMALS
280
     1
  9
$LATITUDE
 40
37.795
  9
$LONGITUDE
 40
-122.394
  9
$NORTHDIRECTION
 40
0.0
  9
$TIMEZONE
 70
 -8000
  9
$LIGHTGLYPHDISPLAY
280
     1
  9
$TILEMODELIGHTSYNCH
280
     1
  9
$CMATERIAL
347
27C
  9
$SOLIDHIST
280
     1
  9
$SHOWHIST
280
     1
  9
$DWFFRAME
280
     2
  9
$DGNFRAME
280
     0
  9
$REALWORLDSCALE
290
     1
  9
$INTERFERECOLOR
 62
     1
  9
$INTERFEREOBJVS
345
289
  9
$INTERFEREVPVS
346
286
  9
$CSHADOW
280
     0
  9
$SHADOWPLANELOCATION
 40
0.0
  0
ENDSEC
  0
SECTION
  2
CLASSES
  0
CLASS
  1
ACDBDICTIONARYWDFLT
  2
AcDbDictionaryWithDefault
  3
ObjectDBX Classes
 90
        0
 91
        1
280
     0
281
     0
  0
CLASS
  1
AMGSETTINGSOBJ
  2
AmgSettingsObj
  3
"AcadM|Product Description: AutoCAD Mechanical|Company: Autodesk, Inc."
 90
     1024
 91
        2
280
     0
281
     0
  0
CLASS
  1
ACME_DOCUMENT
  2
AcMeDbDoc
  3
AcMeServices
 90
     1024
 91
        1
280
     0
281
     0
  0
CLASS
  1
ACMESCOPE
  2
AcMeScope
  3
AcMeServices
 90
     1024
 91
        1
280
     0
281
     0
  0
CLASS
  1
ACMECOMMANDHISTORY
  2
AcMeCommandHistory
  3
AcMeServices
 90
     1024
 91
        1
280
     0
281
     0
  0
CLASS
  1
DICTIONARYVAR
  2
AcDbDictionaryVar
  3
ObjectDBX Classes
 90
        0
 91
        9
280
     0
281
     0
  0
CLASS
  1
ACIMSYSVARMAN
  2
AcImSysVarManager
  3
AcMeServices
 90
     1024
 91
        5
280
     0
281
     0
  0
CLASS
  1
ACIMREALSYSVAR
  2
AcImRealSysVar
  3
AcMeServices
 90
     1024
 91
        1
280
     0
281
     0
  0
CLASS
  1
ACIMINTSYSVAR
  2
AcImIntSysVar
  3
AcMeServices
 90
     1024
 91
       27
280
     0
281
     0
  0
CLASS
  1
ACMEDRAWINGMAN
  2
AcMeDrawingMan
  3
AcMeServices
 90
     1024
 91
        1
280
     0
281
     0
  0
CLASS
  1
ACMEVIEW
  2
AcMeView
  3
AcMeServices
 90
     1024
 91
        1
280
     0
281
     0
  0
CLASS
  1
ACDBENTITYCACHE
  2
AcMeEntityCache
  3
AcMeServices
 90
     1024
 91
        1
280
     0
281
     0
  0
CLASS
  1
GSMANAGER
  2
AcMeGSManager
  3
AcMeServices
 90
     1024
 91
        1
280
     0
281
     0
  0
CLASS
  1
AMDTINTERNALREACTOR
  2
AmdtInternalReactor
  3
AcMeServices
 90
     1024
 91
        2
280
     0
281
     0
  0
CLASS
  1
ACMESTATEMGR
  2
AcMeStateMgr
  3
AcMeServices
 90
     1024
 91
        1
280
     0
281
     0
  0
CLASS
  1
ACGREFMASTER
  2
AcGrefMaster
  3
AcAttribServices
 90
     1024
 91
        1
280
     0
281
     0
  0
CLASS
  1
ACME_DATABASE
  2
AcMeDbDatabase
  3
AcMeServices
 90
     1024
 91
        1
280
     0
281
     0
  0
CLASS
  1
ACRFINSADJUSTERMGR
  2
AcRfInsAdjusterMgr
  3
AcMeServices
 90
     1024
 91
        1
280
     0
281
     0
  0
CLASS
  1
ACGREFACADMASTER
  2
AcGrefacadMaster
  3
AcGrefServices
 90
     1024
 91
        1
280
     0
281
     0
  0
CLASS
  1
AMIMASTER
  2
AmiMaster
  3
AmiServices
 90
     1024
 91
        1
280
     0
281
     0
  0
CLASS
  1
ACIMSTRSYSVAR
  2
AcImStrSysVar
  3
AcMeServices
 90
     1024
 91
        5
280
     0
281
     0
  0
CLASS
  1
ACMSTANDARDJIS
  2
AcmStandardJIS
  3
"Amdt_StdImp|Product Description: AutoCAD Mechanical|Company: Autodesk, Inc."
 90
     1024
 91
        0
280
     0
281
     0
  0
CLASS
  1
AMGOBJPROPCFG
  2
AmgObjPropCfg
  3
"AmgLay|Product Description: AutoCAD Mechanical|Company: Autodesk, Inc."
 90
     1025
 91
        1
280
     0
281
     0
  0
CLASS
  1
ACMSURFSTANDARDJIS
  2
AcmSurfTextStdJIS
  3
"Amdt_StdImp|Product Description: AutoCAD Mechanical|Company: Autodesk, Inc."
 90
     1024
 91
        0
280
     0
281
     0
  0
CLASS
  1
ACMFCFSTANDARDJIS
  2
AcmFCFStdJIS
  3
"Amdt_StdImp|Product Description: AutoCAD Mechanical|Company: Autodesk, Inc."
 90
     1024
 91
        0
280
     0
281
     0
  0
CLASS
  1
ACMWELDSTANDARDJIS
  2
AcmWeldingStdJIS
  3
"Amdt_StdImp|Product Description: AutoCAD Mechanical|Company: Autodesk, Inc."
 90
     1024
 91
        0
280
     0
281
     0
  0
CLASS
  1
ACMIDSTANDARDJIS
  2
AcmIdStdJIS
  3
"Amdt_StdImp|Product Description: AutoCAD Mechanical|Company: Autodesk, Inc."
 90
     1024
 91
        0
280
     0
281
     0
  0
CLASS
  1
ACMDATUMSTANDARDJIS
  2
AcmDatumStdJIS
  3
"Amdt_StdImp|Product Description: AutoCAD Mechanical|Company: Autodesk, Inc."
 90
     1024
 91
        0
280
     0
281
     0
  0
CLASS
  1
ACMBOMSTANDARDJIS
  2
AcmBOMStdJIS
  3
"Amdt_StdImp|Product Description: AutoCAD Mechanical|Company: Autodesk, Inc."
 90
     1024
 91
        0
280
     0
281
     0
  0
CLASS
  1
ACMDETAILSTANDARDJIS
  2
AmdtDetailSymStdJIS
  3
"Amdt_StdImp|Product Description: AutoCAD Mechanical|Company: Autodesk, Inc."
 90
     1024
 91
        0
280
     0
281
     0
  0
CLASS
  1
ACMSECTIONSTANDARDJIS
  2
AmdtSectionSymStdJIS
  3
"Amdt_StdImp|Product Description: AutoCAD Mechanical|Company: Autodesk, Inc."
 90
     1024
 91
        0
280
     0
281
     0
  0
CLASS
  1
ACMCENTERLINESTANDARDJIS
  2
AmdtCenterLineStdJIS
  3
"Amdt_StdImp|Product Description: AutoCAD Mechanical|Company: Autodesk, Inc."
 90
     1024
 91
        0
280
     0
281
     0
  0
CLASS
  1
ACMTHREADLINESTANDARDJIS
  2
AmdtThreadLineStdJIS
  3
"Amdt_StdImp|Product Description: AutoCAD Mechanical|Company: Autodesk, Inc."
 90
     1024
 91
        0
280
     0
281
     0
  0
CLASS
  1
ACAMGLAYSTD
  2
AcAmgLayStd
  3
"AmgLay|Product Description: AutoCAD Mechanical|Company: Autodesk, Inc."
 90
     1024
 91
        1
280
     0
281
     0
  0
CLASS
  1
ACAMGDIMSTD
  2
AcAmgDimStd
  3
"AmgDim|Product Description: AutoCAD Mechanical|Company: Autodesk, Inc."
 90
     1024
 91
        1
280
     0
281
     0
  0
CLASS
  1
ACAMGTITLESTD
  2
AcAmgTitleStd
  3
"AmgTitle|Product Description: AutoCAD Mechanical|Company: Autodesk, Inc."
 90
     4095
 91
        1
280
     0
281
     0
  0
CLASS
  1
ACMDATADICTIONARY
  2
AcmDataDictionary
  3
"AcmSymBB|Product Description: AutoCAD Mechanical|Company: Autodesk, Inc."
 90
     1024
 91
        1
280
     0
281
     0
  0
CLASS
  1
ACMDATAENTRYBLOCK
  2
AcmDataEntryBlock
  3
AcmSymBB|Product Description: AutoCAD Mechanical|Company: Autodesk, Inc.
 90
     1024
 91
        0
280
     0
281
     0
  0
CLASS
  1
LAYER_INDEX
  2
AcDbLayerIndex
  3
ObjectDBX Classes
 90
        0
 91
        0
280
     0
281
     0
  0
CLASS
  1
IDBUFFER
  2
AcDbIdBuffer
  3
ObjectDBX Classes
 90
        0
 91
        0
280
     0
281
     0
  0
CLASS
  1
ACMNOTESTANDARDJIS
  2
AmdtNoteStdJIS
  3
"Amdt_StdImp|Product Description: AutoCAD Mechanical|Company: Autodesk, Inc."
 90
     1024
 91
        0
280
     0
281
     0
  0
CLASS
  1
ACAMGHOLECHARTSTDJIS
  2
AcAmgHoleChartStdJIS
  3
AmgDim|Product Description: AutoCAD Mechanical|Company: Autodesk, Inc.
 90
     1024
 91
        0
280
     0
281
     0
  0
CLASS
  1
AM_DRAWING_MGR
  2
AcDmDwgMgr
  3
AcMechDwgViewMgmt
 90
     1024
 91
        1
280
     0
281
     0
  0
CLASS
  1
AM_DWG_DOCUMENT
  2
AcDmDwgDocument
  3
AcMechDwgViewMgmt
 90
     1024
 91
        1
280
     0
281
     0
  0
CLASS
  1
AM_DWG_SHEET
  2
AcDmSheet
  3
AcMechDwgViewMgmt
 90
     1024
 91
        2
280
     0
281
     0
  0
CLASS
  1
AM_VIEWDIMPARMAP
  2
AcDmViewDimParMap
  3
AcMechDwgViewMgmt
 90
     1024
 91
        2
280
     0
281
     0
  0
CLASS
  1
AM_DWGMGR_NAME
  2
AcDmDwgMgrName
  3
AcMechDwgViewMgmt
 90
     1024
 91
        1
280
     0
281
     0
  0
CLASS
  1
AMDTMENUSTATEMGR
  2
AmdtMenuStateMgr
  3
McadcomServices
 90
     1024
 91
        1
280
     0
281
     0
  0
CLASS
  1
AMDTMCOMMENUSTATE
  2
AmdtMcomMenuState
  3
McadcomServices
 90
     1024
 91
        1
280
     0
281
     0
  0
CLASS
  1
MAPIAMMOUDLE
  2
MApiAmModule
  3
MApiAmServices
 90
     1024
 91
        1
280
     0
281
     0
  0
CLASS
  1
AMDTADMENUSTATE
  2
AmdtAdMenuState
  3
DesignerServices
 90
     1024
 91
        1
280
     0
281
     0
  0
CLASS
  1
ADAPPL
  2
AcAdAppl
  3
DesignerServices
 90
     1024
 91
        1
280
     0
281
     0
  0
CLASS
  1
DEPMGR
  2
AcAdDepMgr
  3
DesignerServices
 90
     1024
 91
        1
280
     0
281
     0
  0
CLASS
  1
PARAMMGR
  2
AcAdParamMgr
  3
DesignerServices
 90
     1024
 91
        1
280
     0
281
     0
  0
CLASS
  1
PARAMSCOPE
  2
AcAdParamScope
  3
DesignerServices
 90
     1024
 91
        1
280
     0
281
     0
  0
CLASS
  1
NAMEDAPPL
  2
AcAdNamedAppl
  3
DesignerServices
 90
     1024
 91
        1
280
     0
281
     0
  0
CLASS
  1
AMDTDMMENUSTATE
  2
AmdtDmMenuState
  3
AcMechDwgViewMgmt
 90
     1024
 91
        1
280
     0
281
     0
  0
CLASS
  1
AMDTAMMENUSTATE
  2
AmdtAmMenuState
  3
DesignerAssemblies
 90
     1024
 91
        1
280
     0
281
     0
  0
CLASS
  1
ACAMPROJECT
  2
AcAmProject
  3
DesignerAssemblies
 90
     1024
 91
        1
280
     0
281
     0
  0
CLASS
  1
ACAMGRCOMPDEF
  2
AcAmGrCompDef
  3
DesignerAssemblies
 90
     1024
 91
        1
280
     0
281
     0
  0
CLASS
  1
ACCMCONTEXT
  2
AcCmContext
  3
DesignerAssemblies
 90
     1024
 91
        1
280
     0
281
     0
  0
CLASS
  1
ACAMCOMPDEF
  2
AcAmCompDef
  3
DesignerAssemblies
 90
     1024
 91
        1
280
     0
281
     0
  0
CLASS
  1
ACAMCOMPDEFMGR
  2
AcAmCompDefMgr
  3
DesignerAssemblies
 90
     1024
 91
        1
280
     0
281
     0
  0
CLASS
  1
AMCONTEXTMGR
  2
AcAmContextMgr
  3
DesignerAssemblies
 90
     1024
 91
        1
280
     0
281
     0
  0
CLASS
  1
ACAMCONTEXTMODELER
  2
AcAmContextModeler
  3
DesignerAssemblies
 90
     1024
 91
        1
280
     0
281
     0
  0
CLASS
  1
CATALOGSTATE
  2
AcAmCatalogState
  3
DesignerAssemblies
 90
     1024
 91
        1
280
     0
281
     0
  0
CLASS
  1
ACAMGRCOMPDEFSET
  2
AcAmGrCompDefSet
  3
DesignerAssemblies
 90
     1024
 91
        1
280
     0
281
     0
  0
CLASS
  1
AMDTBROWSERDBTAB
  2
AmdtBrowserDbTab
  3
McadcomServices
 90
     1024
 91
        1
280
     0
281
     0
  0
CLASS
  1
CBROWSERAPPOBJECT
  2
CBrowserAppObject
  3
McadcomServices
 90
     1024
 91
        3
280
     0
281
     0
  0
CLASS
  1
DM_PLACEHOLDER
  2
AcDmSelsetPlaceholder
  3
AcMechDwgViewMgmt
 90
     1024
 91
        1
280
     0
281
     0
  0
CLASS
  1
TABLESTYLE
  2
AcDbTableStyle
  3
ObjectDBX Classes
 90
     4095
 91
        1
280
     0
281
     0
  0
CLASS
  1
VAACXREFPANELOBJECT
  2
VaAcXREFPanelObject
  3
VAAC_ADDIN
 90
        0
 91
        0
280
     0
281
     0
  0
CLASS
  1
VAACIMAGEINVENTORY
  2
VaAcImageInventory
  3
VAAC_ADDIN
 90
        0
 91
        0
280
     0
281
     0
  0
CLASS
  1
AMDTNOTETEMPLATEDB
  2
AmdtNoteTemplateDB
  3
AcmSymBB|Product Description: AutoCAD Mechanical|Company: Autodesk, Inc.
 90
     1024
 91
        6
280
     0
281
     0
  0
CLASS
  1
ACAMGFILTERDAT
  2
AcAmgFilterDat
  3
"AcadM|Product Description: AutoCAD Mechanical|Company: Autodesk, Inc."
 90
     1024
 91
        0
280
     0
281
     0
  0
CLASS
  1
MATERIAL
  2
AcDbMaterial
  3
ObjectDBX Classes
 90
     1153
 91
        3
280
     0
281
     0
  0
CLASS
  1
VISUALSTYLE
  2
AcDbVisualStyle
  3
ObjectDBX Classes
 90
     4095
 91
       16
280
     0
281
     0
  0
CLASS
  1
ACRFATTGENMGR
  2
AcRfAttGeneralMgr
  3
AcAttribServices
 90
     1024
 91
        0
280
     0
281
     0
  0
CLASS
  1
ACRFOBJATTMGR
  2
AcRfObjAttGroupMgr
  3
AcAttribServices
 90
     1024
 91
        0
280
     0
281
     0
  0
CLASS
  1
ACRFMCADAPIATTHOLDER
  2
AcRfMCADAPIAttHolder
  3
AcAttribServices
 90
     1024
 91
        0
280
     0
281
     0
  0
CLASS
  1
AMDTSYSATTR
  2
AmdtSystemAttribute
  3
AcAttribServices
 90
     1024
 91
        0
280
     0
281
     0
  0
CLASS
  1
ACMTAPERSTANDARDJIS
  2
AcmTaperStdJIS
  3
"Amdt_StdImp|Product Description: AutoCAD Mechanical|Company: Autodesk, Inc."
 90
     1024
 91
        0
280
     0
281
     0
  0
CLASS
  1
CAMSSTRUCTBTNSTATE
  2
StructBtnState
  3
DesignerAssemblies
 90
     1024
 91
        0
280
     0
281
     0
  0
CLASS
  1
SCALE
  2
AcDbScale
  3
ObjectDBX Classes
 90
     1153
 91
       36
280
     0
281
     0
  0
CLASS
  1
MLEADERSTYLE
  2
AcDbMLeaderStyle
  3
ACDB_MLEADERSTYLE_CLASS
 90
     4095
 91
        1
280
     0
281
     0
  0
CLASS
  1
ACMANOOTATIONVIEWSTANDARDJIS
  2
AmdtAnViewStdJIS
  3
"Amdt_StdImp|Product Description: AutoCAD Mechanical|Company: Autodesk, Inc."
 90
     1024
 91
        0
280
     0
281
     0
  0
CLASS
  1
ACMSURFSTANDARDJIS2003
  2
AcmSurfTextStdJIS2003
  3
"Amdt_StdImp|Product Description: AutoCAD Mechanical|Company: Autodesk, Inc."
 90
     1024
 91
        0
280
     0
281
     0
  0
CLASS
  1
CELLSTYLEMAP
  2
AcDbCellStyleMap
  3
ObjectDBX Classes
 90
     1152
 91
        2
280
     0
281
     0
  0
CLASS
  1
ACMFCFSTANDARDJIS98
  2
AcmFCFStdJIS98
  3
"Amdt_StdImp|Product Description: AutoCAD Mechanical|Company: Autodesk, Inc."
 90
     1024
 91
        0
280
     0
281
     0
  0
CLASS
  1
SORTENTSTABLE
  2
AcDbSortentsTable
  3
ObjectDBX Classes
 90
        0
 91
       11
280
     0
281
     0
  0
CLASS
  1
DIMASSOC
  2
AcDbDimAssoc
  3
"AcDbDimAssoc|Product Desc:     AcDim ARX App For Dimension|Company:          Autodesk, Inc.|WEB Address:      www.autodesk.com"
 90
        0
 91
       15
280
     0
281
     0
  0
CLASS
  1
STDPART2D
  2
AmgStdPart
  3
AmgStdPart|Product Description: AutoCAD Mechanical|Company: Autodesk, Inc.
 90
     4095
 91
        0
280
     0
281
     1
  0
CLASS
  1
ACMDATAENTRYPART
  2
AcmDataEntryPart
  3
AcmSymBB|Product Description: AutoCAD Mechanical|Company: Autodesk, Inc.
 90
     1024
 91
        0
280
     0
281
     0
  0
CLASS
  1
ACMPARTREF
  2
AcmPartRef
  3
"AcmSymBB|Product Description: AutoCAD Mechanical|Company: Autodesk, Inc."
 90
     4095
 91
        0
280
     0
281
     1
  0
CLASS
  1
ACDBSTDPARTRES_LINE
  2
AcDbStdPartRes_Line
  3
AmgStdPart|Product Description: AutoCAD Mechanical|Company: Autodesk, Inc.
 90
     1024
 91
        0
280
     0
281
     0
  0
CLASS
  1
ACMBOM
  2
AcmBom
  3
"AcmSymBB|Product Description: AutoCAD Mechanical|Company: Autodesk, Inc."
 90
     1024
 91
        0
280
     0
281
     0
  0
CLASS
  1
AMDTFORMULAUPDATEDISPATCHER
  2
AmdtFormulaUpdateDispatcher
  3
AcMeServices
 90
     1024
 91
        0
280
     0
281
     0
  0
CLASS
  1
ACMBOMROW
  2
AcmBomRow
  3
"AcmSymBB|Product Description: AutoCAD Mechanical|Company: Autodesk, Inc."
 90
     1024
 91
        0
280
     0
281
     0
  0
CLASS
  1
ACMPARTLIST
  2
AcmPartList
  3
"AcmSymBB|Product Description: AutoCAD Mechanical|Company: Autodesk, Inc."
 90
     4095
 91
        0
280
     0
281
     1
  0
CLASS
  1
ACDBLINERES
  2
AcDbLineRes
  3
AcGrefServices
 90
     1024
 91
        0
280
     0
281
     0
  0
CLASS
  1
ACRFINSADJ
  2
AcRfInsAdjuster
  3
AcMeServices
 90
     1024
 91
        0
280
     0
281
     0
  0
CLASS
  1
ACMSTANDARDISO
  2
AcmStandardISO
  3
"Amdt_StdImp|Product Description: AutoCAD Mechanical|Company: Autodesk, Inc."
 90
     1024
 91
        1
280
     0
281
     0
  0
CLASS
  1
AMDTEDGESTANDARDISO13715
  2
AmdtEdgeStdISO13715
  3
"Amdt_StdImp|Product Description: AutoCAD Mechanical|Company: Autodesk, Inc."
 90
     1024
 91
        1
280
     0
281
     0
  0
CLASS
  1
ACMSURFSTANDARDISO2002
  2
AcmSurfTextStdISO2002
  3
"Amdt_StdImp|Product Description: AutoCAD Mechanical|Company: Autodesk, Inc."
 90
     1024
 91
        1
280
     0
281
     0
  0
CLASS
  1
ACMFCFSTANDARDISO
  2
AcmFCFStdISO
  3
"Amdt_StdImp|Product Description: AutoCAD Mechanical|Company: Autodesk, Inc."
 90
     1024
 91
        1
280
     0
281
     0
  0
CLASS
  1
ACMWELDSTANDARDISO
  2
AcmWeldingStdISO
  3
"Amdt_StdImp|Product Description: AutoCAD Mechanical|Company: Autodesk, Inc."
 90
     1024
 91
        1
280
     0
281
     0
  0
CLASS
  1
ACMIDSTANDARDISO
  2
AcmIdStdISO
  3
"Amdt_StdImp|Product Description: AutoCAD Mechanical|Company: Autodesk, Inc."
 90
     1024
 91
        1
280
     0
281
     0
  0
CLASS
  1
ACMDATUMSTANDARDISO
  2
AcmDatumStdISO
  3
"Amdt_StdImp|Product Description: AutoCAD Mechanical|Company: Autodesk, Inc."
 90
     1024
 91
        1
280
     0
281
     0
  0
CLASS
  1
ACMBOMSTANDARDISO
  2
AcmBOMStdISO
  3
"Amdt_StdImp|Product Description: AutoCAD Mechanical|Company: Autodesk, Inc."
 90
     1024
 91
        1
280
     0
281
     0
  0
CLASS
  1
ACMDETAILSTANDARDISO
  2
AmdtDetailSymStdISO
  3
"Amdt_StdImp|Product Description: AutoCAD Mechanical|Company: Autodesk, Inc."
 90
     1024
 91
        1
280
     0
281
     0
  0
CLASS
  1
ACMSECTIONSTANDARDISO2001
  2
AmdtSectionSymStdISO2001
  3
"Amdt_StdImp|Product Description: AutoCAD Mechanical|Company: Autodesk, Inc."
 90
     1024
 91
        1
280
     0
281
     0
  0
CLASS
  1
ACMCENTERLINESTANDARDISO
  2
AmdtCenterLineStdISO
  3
"Amdt_StdImp|Product Description: AutoCAD Mechanical|Company: Autodesk, Inc."
 90
     1024
 91
        1
280
     0
281
     0
  0
CLASS
  1
ACMTHREADLINESTANDARDISO
  2
AmdtThreadLineStdISO
  3
"Amdt_StdImp|Product Description: AutoCAD Mechanical|Company: Autodesk, Inc."
 90
     1024
 91
        1
280
     0
281
     0
  0
CLASS
  1
ACMNOTESTANDARDISO
  2
AmdtNoteStdISO
  3
"Amdt_StdImp|Product Description: AutoCAD Mechanical|Company: Autodesk, Inc."
 90
     1024
 91
        1
280
     0
281
     0
  0
CLASS
  1
ACMTAPERSTANDARDISO
  2
AcmTaperStdISO
  3
"Amdt_StdImp|Product Description: AutoCAD Mechanical|Company: Autodesk, Inc."
 90
     1024
 91
        1
280
     0
281
     0
  0
CLASS
  1
ACMANOOTATIONVIEWSTANDARDISO
  2
AmdtAnViewStdISO
  3
"Amdt_StdImp|Product Description: AutoCAD Mechanical|Company: Autodesk, Inc."
 90
     1024
 91
        1
280
     0
281
     0
  0
CLASS
  1
ACAMGHOLECHARTSTDISO
  2
AcAmgHoleChartStdISO
  3
AmgDim|Product Description: AutoCAD Mechanical|Company: Autodesk, Inc.
 90
     1024
 91
        1
280
     0
281
     0
  0
CLASS
  1
EXACXREFPANELOBJECT
  2
ExAcXREFPanelObject
  3
EXAC_ESW
 90
     1025
 91
        0
280
     0
281
     0
  0
CLASS
  1
NPOCOLLECTION
  2
AcDbImpNonPersistentObjectsCollection
  3
ObjectDBX Classes
 90
     1153
 91
        0
280
     0
281
     0
  0
CLASS
  1
ACDBSTDPARTRES_ARC
  2
AcDbStdPartRes_Arc
  3
AmgStdPart|Product Description: AutoCAD Mechanical|Company: Autodesk, Inc.
 90
     1024
 91
        0
280
     0
281
     0
  0
CLASS
  1
AMDTNOTE
  2
AmdtNote
  3
"AcmSymBB|Product Description: AutoCAD Mechanical|Company: Autodesk, Inc."
 90
     4095
 91
        0
280
     0
281
     1
  0
CLASS
  1
PLOTSETTINGS
  2
AcDbPlotSettings
  3
ObjectDBX Classes
 90
        0
 91
        1
280
     0
281
     0
  0
CLASS
  1
ACMSTANDARDANSI
  2
AcmStandardANSI
  3
"Amdt_StdImp|Product Description: AutoCAD Mechanical|Company: Autodesk, Inc."
 90
     1024
 91
        0
280
     0
281
     0
  0
CLASS
  1
ACMSURFSTANDARDANSI
  2
AcmSurfTextStdANSI
  3
"Amdt_StdImp|Product Description: AutoCAD Mechanical|Company: Autodesk, Inc."
 90
     1024
 91
        0
280
     0
281
     0
  0
CLASS
  1
ACMFCFSTANDARDANSI
  2
AcmFCFStdANSI
  3
"Amdt_StdImp|Product Description: AutoCAD Mechanical|Company: Autodesk, Inc."
 90
     1024
 91
        0
280
     0
281
     0
  0
CLASS
  1
ACMWELDSTANDARDANSI
  2
AcmWeldingStdANSI
  3
"Amdt_StdImp|Product Description: AutoCAD Mechanical|Company: Autodesk, Inc."
 90
     1024
 91
        0
280
     0
281
     0
  0
CLASS
  1
ACMIDSTANDARDANSI
  2
AcmIdStdANSI
  3
"Amdt_StdImp|Product Description: AutoCAD Mechanical|Company: Autodesk, Inc."
 90
     1024
 91
        0
280
     0
281
     0
  0
CLASS
  1
ACMDATUMSTANDARDANSI
  2
AcmDatumStdANSI
  3
"Amdt_StdImp|Product Description: AutoCAD Mechanical|Company: Autodesk, Inc."
 90
     1024
 91
        0
280
     0
281
     0
  0
CLASS
  1
ACMBOMSTANDARDANSI
  2
AcmBOMStdANSI
  3
"Amdt_StdImp|Product Description: AutoCAD Mechanical|Company: Autodesk, Inc."
 90
     1024
 91
        0
280
     0
281
     0
  0
CLASS
  1
ACMDETAILSTANDARDANSI
  2
AmdtDetailSymStdANSI
  3
"Amdt_StdImp|Product Description: AutoCAD Mechanical|Company: Autodesk, Inc."
 90
     1024
 91
        0
280
     0
281
     0
  0
CLASS
  1
ACMSECTIONSTANDARDANSI
  2
AmdtSectionSymStdANSI
  3
"Amdt_StdImp|Product Description: AutoCAD Mechanical|Company: Autodesk, Inc."
 90
     1024
 91
        0
280
     0
281
     0
  0
CLASS
  1
ACMCENTERLINESTANDARDANSI
  2
AmdtCenterLineStdANSI
  3
"Amdt_StdImp|Product Description: AutoCAD Mechanical|Company: Autodesk, Inc."
 90
     1024
 91
        0
280
     0
281
     0
  0
CLASS
  1
ACMTHREADLINESTANDARDANSI
  2
AmdtThreadLineStdANSI
  3
"Amdt_StdImp|Product Description: AutoCAD Mechanical|Company: Autodesk, Inc."
 90
     1024
 91
        0
280
     0
281
     0
  0
CLASS
  1
ACMNOTESTANDARDANSI
  2
AmdtNoteStdANSI
  3
"Amdt_StdImp|Product Description: AutoCAD Mechanical|Company: Autodesk, Inc."
 90
     1024
 91
        0
280
     0
281
     0
  0
CLASS
  1
ACMTAPERSTANDARDANSI
  2
AcmTaperStdANSI
  3
"Amdt_StdImp|Product Description: AutoCAD Mechanical|Company: Autodesk, Inc."
 90
     1024
 91
        0
280
     0
281
     0
  0
CLASS
  1
ACMANOOTATIONVIEWSTANDARDANSI
  2
AmdtAnViewStdANSI
  3
"Amdt_StdImp|Product Description: AutoCAD Mechanical|Company: Autodesk, Inc."
 90
     1024
 91
        0
280
     0
281
     0
  0
CLASS
  1
ACAMGHOLECHARTSTDANSI
  2
AcAmgHoleChartStdANSI
  3
AmgDim|Product Description: AutoCAD Mechanical|Company: Autodesk, Inc.
 90
     1024
 91
        0
280
     0
281
     0
  0
CLASS
  1
ACMSTANDARDBSI
  2
AcmStandardBSI
  3
"Amdt_StdImp|Product Description: AutoCAD Mechanical|Company: Autodesk, Inc."
 90
     1024
 91
        0
280
     0
281
     0
  0
CLASS
  1
ACMSURFSTANDARDBSI2002
  2
AcmSurfTextStdBSI2002
  3
"Amdt_StdImp|Product Description: AutoCAD Mechanical|Company: Autodesk, Inc."
 90
     1024
 91
        0
280
     0
281
     0
  0
CLASS
  1
ACMFCFSTANDARDBSI
  2
AcmFCFStdBSI
  3
"Amdt_StdImp|Product Description: AutoCAD Mechanical|Company: Autodesk, Inc."
 90
     1024
 91
        0
280
     0
281
     0
  0
CLASS
  1
ACMWELDSTANDARDBSI
  2
AcmWeldingStdBSI
  3
"Amdt_StdImp|Product Description: AutoCAD Mechanical|Company: Autodesk, Inc."
 90
     1024
 91
        0
280
     0
281
     0
  0
CLASS
  1
ACMIDSTANDARDBSI
  2
AcmIdStdBSI
  3
"Amdt_StdImp|Product Description: AutoCAD Mechanical|Company: Autodesk, Inc."
 90
     1024
 91
        0
280
     0
281
     0
  0
CLASS
  1
ACMDATUMSTANDARDBSI
  2
AcmDatumStdBSI
  3
"Amdt_StdImp|Product Description: AutoCAD Mechanical|Company: Autodesk, Inc."
 90
     1024
 91
        0
280
     0
281
     0
  0
CLASS
  1
ACMBOMSTANDARDBSI
  2
AcmBOMStdBSI
  3
"Amdt_StdImp|Product Description: AutoCAD Mechanical|Company: Autodesk, Inc."
 90
     1024
 91
        0
280
     0
281
     0
  0
CLASS
  1
ACMDETAILSTANDARDBSI
  2
AmdtDetailSymStdBSI
  3
"Amdt_StdImp|Product Description: AutoCAD Mechanical|Company: Autodesk, Inc."
 90
     1024
 91
        0
280
     0
281
     0
  0
CLASS
  1
ACMSECTIONSTANDARDBSI2001
  2
AmdtSectionSymStdBSI2001
  3
"Amdt_StdImp|Product Description: AutoCAD Mechanical|Company: Autodesk, Inc."
 90
     1024
 91
        0
280
     0
281
     0
  0
CLASS
  1
ACMCENTERLINESTANDARDBSI
  2
AmdtCenterLineStdBSI
  3
"Amdt_StdImp|Product Description: AutoCAD Mechanical|Company: Autodesk, Inc."
 90
     1024
 91
        0
280
     0
281
     0
  0
CLASS
  1
ACMTHREADLINESTANDARDBSI
  2
AmdtThreadLineStdBSI
  3
"Amdt_StdImp|Product Description: AutoCAD Mechanical|Company: Autodesk, Inc."
 90
     1024
 91
        0
280
     0
281
     0
  0
CLASS
  1
ACMNOTESTANDARDBSI
  2
AmdtNoteStdBSI
  3
"Amdt_StdImp|Product Description: AutoCAD Mechanical|Company: Autodesk, Inc."
 90
     1024
 91
        0
280
     0
281
     0
  0
CLASS
  1
ACMTAPERSTANDARDBSI
  2
AcmTaperStdBSI
  3
"Amdt_StdImp|Product Description: AutoCAD Mechanical|Company: Autodesk, Inc."
 90
     1024
 91
        0
280
     0
281
     0
  0
CLASS
  1
ACMANOOTATIONVIEWSTANDARDBSI
  2
AmdtAnViewStdBSI
  3
"Amdt_StdImp|Product Description: AutoCAD Mechanical|Company: Autodesk, Inc."
 90
     1024
 91
        0
280
     0
281
     0
  0
CLASS
  1
ACAMGHOLECHARTSTDBSI
  2
AcAmgHoleChartStdBSI
  3
AmgDim|Product Description: AutoCAD Mechanical|Company: Autodesk, Inc.
 90
     1024
 91
        0
280
     0
281
     0
  0
CLASS
  1
AMDTEDGESTANDARDJIS
  2
AmdtEdgeStdJIS
  3
"Amdt_StdImp|Product Description: AutoCAD Mechanical|Company: Autodesk, Inc."
 90
     1024
 91
        0
280
     0
281
     0
  0
CLASS
  1
ACDB_BLKREFOBJECTCONTEXTDATA_CLASS
  2
AcDbBlkRefObjectContextData
  3
ObjectDBX Classes
 90
     1153
 91
        0
280
     0
281
     0
  0
CLASS
  1
ACDBOPPOLYLINERES
  2
AcDbOpPolylineRes
  3
AcGrefServices
 90
     1024
 91
        0
280
     0
281
     0
  0
CLASS
  1
AMDTACMWBLOCKBOMENTITY
  2
AmdtAcmWblockBomEntity
  3
"AcmSymBB|Product Description: AutoCAD Mechanical|Company: Autodesk, Inc."
 90
     4095
 91
        0
280
     0
281
     1
  0
CLASS
  1
ACMSURFSYM
  2
AcmSurfaceTexture
  3
"AcmSymBB|Product Description: AutoCAD Mechanical|Company: Autodesk, Inc."
 90
     4095
 91
        0
280
     0
281
     1
  0
CLASS
  1
ACDBCIRCARCRES
  2
AcDbCircArcRes
  3
AcGrefServices
 90
     1024
 91
        0
280
     0
281
     0
  0
CLASS
  1
ACDBDIMENSIONRES
  2
AcDbDimensionRes
  3
AcmSymBB|Product Description: AutoCAD Mechanical|Company: Autodesk, Inc.
 90
     1024
 91
        0
280
     0
281
     0
  0
CLASS
  1
ACMPICKOBJ
  2
AcmPickEnt
  3
"AcmSymBB|Product Description: AutoCAD Mechanical|Company: Autodesk, Inc."
 90
     1024
 91
        0
280
     0
281
     1
  0
CLASS
  1
ACDBELLIPSERES
  2
AcDbEllipseRes
  3
AcGrefServices
 90
     1024
 91
        0
280
     0
281
     0
  0
CLASS
  1
ACMBALLOON
  2
AcmBalloon
  3
"AcmSymBB|Product Description: AutoCAD Mechanical|Company: Autodesk, Inc."
 90
     4095
 91
        0
280
     0
281
     1
  0
ENDSEC
  0
SECTION
  2
TABLES
  0
TABLE
  2
VPORT
  5
8
330
0
100
AcDbSymbolTable
 70
     1
  0
VPORT
  5
27A
330
8
100
AcDbSymbolTableRecord
100
AcDbViewportTableRecord
  2
*Active
 70
     0
 10
0.0
 20
0.0
 11
1.0
 21
1.0
 12
958.9597832370252
 22
795.3955116721283
 13
0.0
 23
0.0
 14
10.0
 24
10.0
 15
40.0
 25
40.0
 16
0.0
 26
0.0
 36
1.0
 17
0.0
 27
0.0
 37
0.0
 40
726.3592867928609
 41
1.571428571428571
 42
50.0
 43
0.0
 44
0.0
 50
0.0
 51
0.0
 71
    16
 72
 20000
 73
     1
 74
     3
 75
     0
 76
     0
 77
     0
 78
     0
281
     0
 65
     0
110
0.0
120
0.0
130
0.0
111
1.0
121
0.0
131
0.0
112
0.0
122
1.0
132
0.0
 79
     0
146
0.0
348
285
 60
     3
 61
     5
292
     1
282
     0
141
0.0
142
0.0
 63
   250
421
  3355443
  0
ENDTAB
  0
TABLE
  2
LTYPE
  5
5
330
0
100
AcDbSymbolTable
 70
    20
  0
LTYPE
  5
14
330
5
100
AcDbSymbolTableRecord
100
AcDbLinetypeTableRecord
  2
ByBlock
 70
     0
  3

 72
    65
 73
     0
 40
0.0
  0
LTYPE
  5
15
330
5
100
AcDbSymbolTableRecord
100
AcDbLinetypeTableRecord
  2
ByLayer
 70
     0
  3

 72
    65
 73
     0
 40
0.0
  0
LTYPE
  5
16
330
5
100
AcDbSymbolTableRecord
100
AcDbLinetypeTableRecord
  2
Continuous
 70
     0
  3
Solid line
 72
    65
 73
     0
 40
0.0
  0
LTYPE
  5
4D
330
5
100
AcDbSymbolTableRecord
100
AcDbLinetypeTableRecord
  2
AM_ISO02W050
 70
     0
  3
__ __ __ __ __ __ __ __ __ __ __ __ __ __ __
 72
    65
 73
     2
 40
7.5
 49
6.0
 74
     0
 49
-1.5
 74
     0
  0
LTYPE
  5
4E
330
5
100
AcDbSymbolTableRecord
100
AcDbLinetypeTableRecord
  2
AM_ISO08W050
 70
     0
  3
____ . ____ . ____ . ____ . ____ . ____ . ____
 72
    65
 73
     4
 40
18.0
 49
12.0
 74
     0
 49
-1.5
 74
     0
 49
3.0
 74
     0
 49
-1.5
 74
     0
  0
LTYPE
  5
4F
330
5
100
AcDbSymbolTableRecord
100
AcDbLinetypeTableRecord
  2
AM_ISO09W050
 70
     0
  3
_____ . . _____ . . _____ . . ____ .. ____
 72
    65
 73
     6
 40
22.5
 49
12.0
 74
     0
 49
-1.5
 74
     0
 49
3.0
 74
     0
 49
-1.5
 74
     0
 49
3.0
 74
     0
 49
-1.5
 74
     0
  0
LTYPE
  5
50
330
5
100
AcDbSymbolTableRecord
100
AcDbLinetypeTableRecord
  2
Amconstr
 70
     0
  3
_______________________
 72
    65
 73
     2
 40
9999.0
 49
9999.0
 74
     0
 49
0.0
 74
     0
  0
LTYPE
  5
51
330
5
100
AcDbSymbolTableRecord
100
AcDbLinetypeTableRecord
  2
AM_ISO08W050x2
 70
     0
  3
__ . __ . __ . __ . __ . __
 72
    65
 73
     4
 40
9.0
 49
6.0
 74
     0
 49
-0.75
 74
     0
 49
1.5
 74
     0
 49
-0.75
 74
     0
  0
LTYPE
  5
52
330
5
100
AcDbSymbolTableRecord
100
AcDbLinetypeTableRecord
  2
AM_ISO02W050x2
 70
     0
  3
 _ _ _ _ _ _ _ _ _ _ _ _
 72
    65
 73
     2
 40
3.75
 49
3.0
 74
     0
 49
-0.75
 74
     0
  0
LTYPE
  5
55
330
5
100
AcDbSymbolTableRecord
100
AcDbLinetypeTableRecord
  2
Amzigzag
 70
     0
  3
/\/-/\/-/\/-/\/-/\/-/\/
 72
    65
 73
     2
 40
11.0001
 49
0.0001
 74
     4
 75
   136
340
23D
 46
0.04
 50
0.0
 44
0.0
 45
0.0
 49
-11.0
 74
     0
  0
LTYPE
  5
65
330
5
100
AcDbSymbolTableRecord
100
AcDbLinetypeTableRecord
  2
CENTER
 70
     0
  3
__ . __
 72
    65
 73
     4
 40
7.0
 49
4.0
 74
     0
 49
-1.0
 74
     0
 49
1.0
 74
     0
 49
-1.0
 74
     0
  0
LTYPE
  5
E0
330
5
100
AcDbSymbolTableRecord
100
AcDbLinetypeTableRecord
  2
HIDDEN
 70
     0
  3
Hidden __ __ __ __ __ __ __ __ __ __ __ __ __ _
 72
    65
 73
     2
 40
9.524999999999996
 49
6.349999999999998
 74
     0
 49
-3.174999999999998
 74
     0
  0
LTYPE
  5
E1
330
5
100
AcDbSymbolTableRecord
100
AcDbLinetypeTableRecord
  2
PHANTOM2
 70
     0
  3
Phantom (.5x) ___ _ _ ___ _ _ ___ _ _ ___ _ _
 72
    65
 73
     6
 40
31.75
 49
15.875
 74
     0
 49
-3.174999999999998
 74
     0
 49
3.174999999999998
 74
     0
 49
-3.174999999999998
 74
     0
 49
3.174999999999998
 74
     0
 49
-3.174999999999998
 74
     0
  0
LTYPE
  5
5A2
330
5
100
AcDbSymbolTableRecord
100
AcDbLinetypeTableRecord
  2
ACJISWELD
 70
     0
  3
_ _ _ _ _
 72
    65
 73
     2
 40
2.0
 49
2.0
 74
     0
 49
-1.0
 74
     0
  0
LTYPE
  5
5EC7
330
5
100
AcDbSymbolTableRecord
100
AcDbLinetypeTableRecord
  2
ACISOWELD
 70
     0
  3
_ _ _ _ _
 72
    65
 73
     2
 40
2.0
 49
2.0
 74
     0
 49
-1.0
 74
     0
  0
LTYPE
  5
5EC8
330
5
100
AcDbSymbolTableRecord
100
AcDbLinetypeTableRecord
  2
ACISOTGB
 70
     0
  3
__ . . __ . .
 72
    65
 73
     6
 40
9.0
 49
4.0
 74
     0
 49
-1.0
 74
     0
 49
1.0
 74
     0
 49
-1.0
 74
     0
 49
1.0
 74
     0
 49
-1.0
 74
     0
  0
LTYPE
  5
5EC9
330
5
100
AcDbSymbolTableRecord
100
AcDbLinetypeTableRecord
  2
ACISOTGL
 70
     0
  3
_ _ _ _ _
 72
    65
 73
     2
 40
3.0
 49
2.0
 74
     0
 49
-1.0
 74
     0
  0
ENDTAB
  0
TABLE
  2
LAYER
  5
2
102
{ACAD_XDICTIONARY
360
BF
102
}
330
0
100
AcDbSymbolTable
 70
    10
  0
LAYER
  5
10
102
{ACAD_XDICTIONARY
360
29D7
102
}
330
2
100
AcDbSymbolTableRecord
100
AcDbLayerTableRecord
  2
0
 70
     0
 62
     7
  6
Continuous
370
    -3
390
F
347
27E
  0
LAYER
  5
81
102
{ACAD_XDICTIONARY
360
29D9
102
}
330
2
100
AcDbSymbolTableRecord
100
AcDbLayerTableRecord
  2
AM_0 外形線1
 70
     0
 62
     7
  6
Continuous
370
    25
390
F
347
27E
  0
LAYER
  5
427
330
2
100
AcDbSymbolTableRecord
100
AcDbLayerTableRecord
  2
Defpoints
 70
     0
 62
     7
  6
Continuous
290
     0
370
    -3
390
F
347
27E
  0
LAYER
  5
25C9
102
{ACAD_XDICTIONARY
360
29E0
102
}
330
2
100
AcDbSymbolTableRecord
100
AcDbLayerTableRecord
  2
AM_3 隠れ線
 70
     0
 62
     8
  6
ACJISWELD
370
    13
390
F
347
27E
1001
AcAecLayerStandard
1000

1000

  0
LAYER
  5
25CA
102
{ACAD_XDICTIONARY
360
29E2
102
}
330
2
100
AcDbSymbolTableRecord
100
AcDbLayerTableRecord
  2
AM_4 細線
 70
     0
 62
     4
  6
Continuous
370
    13
390
F
347
27E
1001
AcAecLayerStandard
1000

1000

  0
LAYER
  5
26B3
102
{ACAD_XDICTIONARY
360
29E8
102
}
330
2
100
AcDbSymbolTableRecord
100
AcDbLayerTableRecord
  2
AM_5 寸法線
 70
     0
 62
     3
  6
Continuous
370
    13
390
F
347
27E
1001
AcAecLayerStandard
1000

1000

  0
LAYER
  5
363A
330
2
100
AcDbSymbolTableRecord
100
AcDbLayerTableRecord
  2
AM_7 中心線
 70
     0
 62
     1
  6
AM_ISO08W050
370
    13
390
F
347
27E
1001
AcAecLayerStandard
1000

1000

  0
LAYER
  5
363C
330
2
100
AcDbSymbolTableRecord
100
AcDbLayerTableRecord
  2
AM_6 文字
 70
     0
 62
     2
  6
Continuous
370
    13
390
F
347
27E
1001
AcAecLayerStandard
1000

1000

  0
LAYER
  5
5CC5
330
2
100
AcDbSymbolTableRecord
100
AcDbLayerTableRecord
  2
AM_11 想像線
 70
     0
 62
     5
  6
AM_ISO09W050
370
    13
390
F
347
27E
1001
AcAecLayerStandard
1000

1000

  0
ENDTAB
  0
TABLE
  2
STYLE
  5
3
330
0
100
AcDbSymbolTable
 70
    11
  0
STYLE
  5
11
330
3
100
AcDbSymbolTableRecord
100
AcDbTextStyleTableRecord
  2
STANDARD
 70
     0
 40
0.0
 41
1.0
 50
0.0
 71
     0
 42
25.0
  3
ISOCP.SHX
  4
EXTFONT.SHX
  0
STYLE
  5
23D
330
3
100
AcDbSymbolTableRecord
100
AcDbTextStyleTableRecord
  2

 70
     1
 40
0.0
 41
1.0
 50
0.0
 71
     0
 42
2.5
  3
genltshp.shx
  4

  0
STYLE
  5
5D5
330
3
100
AcDbSymbolTableRecord
100
AcDbTextStyleTableRecord
  2
SEISA
 70
     0
 40
0.0
 41
0.9
 50
0.0
 71
     0
 42
25.0
  3
romans.shx
  4
extfont2.shx
  0
STYLE
  5
5EB7
330
3
100
AcDbSymbolTableRecord
100
AcDbTextStyleTableRecord
  2
ACISOTS
 70
     0
 40
1.0
 41
1.0
 50
0.0
 71
     0
 42
25.0
  3
isocp.shx
  4
extfont.shx
  0
STYLE
  5
5EC6
330
3
100
AcDbSymbolTableRecord
100
AcDbTextStyleTableRecord
  2
ACISOGDT
 70
     0
 40
0.0
 41
1.0
 50
0.0
 71
     0
 42
25.0
  3
amgdt.shx
  4

  0
ENDTAB
  0
TABLE
  2
VIEW
  5
6
330
0
100
AcDbSymbolTable
 70
     6
  0
VIEW
  5
91B
330
6
100
AcDbSymbolTableRecord
100
AcDbViewTableRecord
  2
AM_VIEW1
 70
     0
 40
840.0000000000003
 10
762.1702835791742
 20
1260.0
 41
1524.340567612688
 11
0.0
 21
0.0
 31
1.0
 12
0.0
 22
0.0
 32
0.0
 42
50.0
 43
0.0
 44
0.0
 50
0.0
 71
    16
281
     0
 72
     0
 73
     0
  0
VIEW
  5
91C
330
6
100
AcDbSymbolTableRecord
100
AcDbViewTableRecord
  2
AM_VIEW2
 70
     0
 40
840.0000000000003
 10
1613.829716875165
 20
1260.0
 41
1524.340567612688
 11
0.0
 21
0.0
 31
1.0
 12
0.0
 22
0.0
 32
0.0
 42
50.0
 43
0.0
 44
0.0
 50
0.0
 71
    16
281
     0
 72
     0
 73
     0
  0
VIEW
  5
91D
330
6
100
AcDbSymbolTableRecord
100
AcDbViewTableRecord
  2
AM_VIEW3
 70
     0
 40
840.0000000000003
 10
762.1702835791742
 20
420.0000000000001
 41
1524.340567612688
 11
0.0
 21
0.0
 31
1.0
 12
0.0
 22
0.0
 32
0.0
 42
50.0
 43
0.0
 44
0.0
 50
0.0
 71
    16
281
     0
 72
     0
 73
     0
  0
VIEW
  5
91E
330
6
100
AcDbSymbolTableRecord
100
AcDbViewTableRecord
  2
AM_VIEW4
 70
     0
 40
840.0000000000003
 10
1613.829716875165
 20
420.0000000000001
 41
1524.340567612688
 11
0.0
 21
0.0
 31
1.0
 12
0.0
 22
0.0
 32
0.0
 42
50.0
 43
0.0
 44
0.0
 50
0.0
 71
    16
281
     0
 72
     0
 73
     0
  0
VIEW
  5
91F
330
6
100
AcDbSymbolTableRecord
100
AcDbViewTableRecord
  2
AM_VIEW5
 70
     0
 40
840.0000000000003
 10
1188.00000022717
 20
840.0000000000003
 41
1524.340567612688
 11
0.0
 21
0.0
 31
1.0
 12
0.0
 22
0.0
 32
0.0
 42
50.0
 43
0.0
 44
0.0
 50
0.0
 71
    16
281
     0
 72
     0
 73
     0
  0
VIEW
  5
920
330
6
100
AcDbSymbolTableRecord
100
AcDbViewTableRecord
  2
AM_VIEW6
 70
     0
 40
1679.9832
 10
1188.00000022717
 20
840.0000000000003
 41
3048.650648414025
 11
0.0
 21
0.0
 31
1.0
 12
0.0
 22
0.0
 32
0.0
 42
50.0
 43
0.0
 44
0.0
 50
0.0
 71
    16
281
     0
 72
     0
 73
     0
  0
ENDTAB
  0
TABLE
  2
UCS
  5
7
330
0
100
AcDbSymbolTable
 70
     0
  0
ENDTAB
  0
TABLE
  2
APPID
  5
9
330
0
100
AcDbSymbolTable
 70
   396
  0
APPID
  5
12
330
9
100
AcDbSymbolTableRecord
100
AcDbRegAppTableRecord
  2
ACAD
 70
     0
  0
APPID
  5
30
330
9
100
AcDbSymbolTableRecord
100
AcDbRegAppTableRecord
  2
MCAD_NO_VIS
 70
     0
  0
APPID
  5
31
330
9
100
AcDbSymbolTableRecord
100
AcDbRegAppTableRecord
  2
ACAD_TEMP_GRAPHIC
 70
     0
  0
APPID
  5
44
330
9
100
AcDbSymbolTableRecord
100
AcDbRegAppTableRecord
  2
ACATTRIBSERVICES
 70
     0
  0
APPID
  5
F6
330
9
100
AcDbSymbolTableRecord
100
AcDbRegAppTableRecord
  2
AD_DRAW
 70
     0
  0
APPID
  5
114
330
9
100
AcDbSymbolTableRecord
100
AcDbRegAppTableRecord
  2
DESIGNERASSEMBLIES
 70
     0
  0
APPID
  5
118
330
9
100
AcDbSymbolTableRecord
100
AcDbRegAppTableRecord
  2
ACADM_DIM_EDIT
 70
     0
  0
APPID
  5
119
330
9
100
AcDbSymbolTableRecord
100
AcDbRegAppTableRecord
  2
AMDT_DM_ADJ
 70
     0
  0
APPID
  5
1AF
330
9
100
AcDbSymbolTableRecord
100
AcDbRegAppTableRecord
  2
ACAD_DSTYLE_DIMARC_LENGTH_SYMBOL
 70
     0
  0
APPID
  5
1B0
330
9
100
AcDbSymbolTableRecord
100
AcDbRegAppTableRecord
  2
ACAD_DSTYLE_DIMJOGGED_JOGANGLE_SYMBOL
 70
     0
  0
APPID
  5
2D7
330
9
100
AcDbSymbolTableRecord
100
AcDbRegAppTableRecord
  2
ACAD_MLEADERVER
 70
     0
  0
APPID
  5
355
330
9
100
AcDbSymbolTableRecord
100
AcDbRegAppTableRecord
  2
AcadAnnoPO
 70
     0
  0
APPID
  5
428
330
9
100
AcDbSymbolTableRecord
100
AcDbRegAppTableRecord
  2
ACAD_DSTYLE_DIMTEXT_FILL
 70
     0
  0
APPID
  5
429
330
9
100
AcDbSymbolTableRecord
100
AcDbRegAppTableRecord
  2
GENIUS_GENSCREG_15
 70
     0
  0
APPID
  5
42A
330
9
100
AcDbSymbolTableRecord
100
AcDbRegAppTableRecord
  2
GENIUS_GENOBJ-N-SDF_13
 70
     0
  0
APPID
  5
42B
330
9
100
AcDbSymbolTableRecord
100
AcDbRegAppTableRecord
  2
GENIUS_GENODEF_13
 70
     0
  0
APPID
  5
42C
330
9
100
AcDbSymbolTableRecord
100
AcDbRegAppTableRecord
  2
ACAD_EXEMPT_FROM_CAD_STANDARDS
 70
     0
  0
APPID
  5
42D
330
9
100
AcDbSymbolTableRecord
100
AcDbRegAppTableRecord
  2
AcAecLayerStandard
 70
     0
  0
APPID
  5
42E
330
9
100
AcDbSymbolTableRecord
100
AcDbRegAppTableRecord
  2
GENIUS_GENOBJ-N-CEN_13
 70
     0
  0
APPID
  5
42F
330
9
100
AcDbSymbolTableRecord
100
AcDbRegAppTableRecord
  2
GENIUS_GENCEN_19
 70
     0
  0
APPID
  5
430
330
9
100
AcDbSymbolTableRecord
100
AcDbRegAppTableRecord
  2
ACAD_DSTYLE_DIMINSPECT
 70
     0
  0
APPID
  5
431
330
9
100
AcDbSymbolTableRecord
100
AcDbRegAppTableRecord
  2
GENIUS_AMGTXT_16
 70
     0
  0
APPID
  5
432
330
9
100
AcDbSymbolTableRecord
100
AcDbRegAppTableRecord
  2
GENIUS_GENFIL_13
 70
     0
  0
APPID
  5
433
330
9
100
AcDbSymbolTableRecord
100
AcDbRegAppTableRecord
  2
GENIUS_GENOLIS_13
 70
     0
  0
APPID
  5
434
330
9
100
AcDbSymbolTableRecord
100
AcDbRegAppTableRecord
  2
GENIUS_GENOBJ-N-CHA_13
 70
     0
  0
APPID
  5
435
330
9
100
AcDbSymbolTableRecord
100
AcDbRegAppTableRecord
  2
GENIUS_GENOENT_13
 70
     0
  0
APPID
  5
436
330
9
100
AcDbSymbolTableRecord
100
AcDbRegAppTableRecord
  2
GENIUS_GENOREF_13
 70
     0
  0
APPID
  5
437
330
9
100
AcDbSymbolTableRecord
100
AcDbRegAppTableRecord
  2
GENIUS_GENOBJ-N-FIL_13
 70
     0
  0
APPID
  5
438
330
9
100
AcDbSymbolTableRecord
100
AcDbRegAppTableRecord
  2
GEVID1208829536
 70
     0
  0
APPID
  5
439
330
9
100
AcDbSymbolTableRecord
100
AcDbRegAppTableRecord
  2
GEVDC
 70
     0
  0
APPID
  5
43A
330
9
100
AcDbSymbolTableRecord
100
AcDbRegAppTableRecord
  2
GEVRADREF
 70
     0
  0
APPID
  5
43B
330
9
100
AcDbSymbolTableRecord
100
AcDbRegAppTableRecord
  2
GENIUS_GENBH_13
 70
     0
  0
APPID
  5
43C
330
9
100
AcDbSymbolTableRecord
100
AcDbRegAppTableRecord
  2
GENIUS_GENOBJ-NBEHI-BHF_13
 70
     0
  0
APPID
  5
43D
330
9
100
AcDbSymbolTableRecord
100
AcDbRegAppTableRecord
  2
GENIUS_GENOBJ-NBEHI-BHB_13
 70
     0
  0
APPID
  5
43E
330
9
100
AcDbSymbolTableRecord
100
AcDbRegAppTableRecord
  2
GEVID1208829537
 70
     0
  0
APPID
  5
43F
330
9
100
AcDbSymbolTableRecord
100
AcDbRegAppTableRecord
  2
ACAD_DSTYLE_DIMJAG
 70
     0
  0
APPID
  5
440
330
9
100
AcDbSymbolTableRecord
100
AcDbRegAppTableRecord
  2
ACAD_DSTYLE_DIMTALN
 70
     0
  0
APPID
  5
441
330
9
100
AcDbSymbolTableRecord
100
AcDbRegAppTableRecord
  2
AMG_2DHIDE
 70
     0
  0
APPID
  5
442
330
9
100
AcDbSymbolTableRecord
100
AcDbRegAppTableRecord
  2
AMG_2DSTRUCT_BTR
 70
     0
  0
APPID
  5
443
330
9
100
AcDbSymbolTableRecord
100
AcDbRegAppTableRecord
  2
GEVID1208845772
 70
     0
  0
APPID
  5
444
330
9
100
AcDbSymbolTableRecord
100
AcDbRegAppTableRecord
  2
GEVID1208845773
 70
     0
  0
APPID
  5
445
330
9
100
AcDbSymbolTableRecord
100
AcDbRegAppTableRecord
  2
ACADM_2DVIEW_IGN_NOTIFY
 70
     0
  0
APPID
  5
446
330
9
100
AcDbSymbolTableRecord
100
AcDbRegAppTableRecord
  2
GEVID1208845774
 70
     0
  0
APPID
  5
447
330
9
100
AcDbSymbolTableRecord
100
AcDbRegAppTableRecord
  2
GEVID1208845775
 70
     0
  0
APPID
  5
448
330
9
100
AcDbSymbolTableRecord
100
AcDbRegAppTableRecord
  2
GEVID1208845776
 70
     0
  0
APPID
  5
449
330
9
100
AcDbSymbolTableRecord
100
AcDbRegAppTableRecord
  2
GEVID1208845777
 70
     0
  0
APPID
  5
44A
330
9
100
AcDbSymbolTableRecord
100
AcDbRegAppTableRecord
  2
GEVCON
 70
     0
  0
APPID
  5
44B
330
9
100
AcDbSymbolTableRecord
100
AcDbRegAppTableRecord
  2
GENIUS_GENOBJ-F-SCPASSM_13
 70
     0
  0
APPID
  5
44C
330
9
100
AcDbSymbolTableRecord
100
AcDbRegAppTableRecord
  2
GEVID1208845778
 70
     0
  0
APPID
  5
44D
330
9
100
AcDbSymbolTableRecord
100
AcDbRegAppTableRecord
  2
GEVID1208845779
 70
     0
  0
APPID
  5
44E
330
9
100
AcDbSymbolTableRecord
100
AcDbRegAppTableRecord
  2
GEVID1208845780
 70
     0
  0
APPID
  5
44F
330
9
100
AcDbSymbolTableRecord
100
AcDbRegAppTableRecord
  2
GEVID1208845781
 70
     0
  0
APPID
  5
450
330
9
100
AcDbSymbolTableRecord
100
AcDbRegAppTableRecord
  2
GEVID1208845782
 70
     0
  0
APPID
  5
451
330
9
100
AcDbSymbolTableRecord
100
AcDbRegAppTableRecord
  2
GEVID1208845783
 70
     0
  0
APPID
  5
452
330
9
100
AcDbSymbolTableRecord
100
AcDbRegAppTableRecord
  2
GEVID1208845784
 70
     0
  0
APPID
  5
453
330
9
100
AcDbSymbolTableRecord
100
AcDbRegAppTableRecord
  2
GEVID1208845785
 70
     0
  0
APPID
  5
454
330
9
100
AcDbSymbolTableRecord
100
AcDbRegAppTableRecord
  2
GEVID1208845787
 70
     0
  0
APPID
  5
455
330
9
100
AcDbSymbolTableRecord
100
AcDbRegAppTableRecord
  2
GEVID1208845788
 70
     0
  0
APPID
  5
456
330
9
100
AcDbSymbolTableRecord
100
AcDbRegAppTableRecord
  2
GEVID1208845789
 70
     0
  0
APPID
  5
457
330
9
100
AcDbSymbolTableRecord
100
AcDbRegAppTableRecord
  2
GEVID1208845790
 70
     0
  0
APPID
  5
458
330
9
100
AcDbSymbolTableRecord
100
AcDbRegAppTableRecord
  2
GEVID1208845791
 70
     0
  0
APPID
  5
459
330
9
100
AcDbSymbolTableRecord
100
AcDbRegAppTableRecord
  2
GEVID1208845792
 70
     0
  0
APPID
  5
45A
330
9
100
AcDbSymbolTableRecord
100
AcDbRegAppTableRecord
  2
GEVID1208845793
 70
     0
  0
APPID
  5
45B
330
9
100
AcDbSymbolTableRecord
100
AcDbRegAppTableRecord
  2
GEVID1208845794
 70
     0
  0
APPID
  5
45C
330
9
100
AcDbSymbolTableRecord
100
AcDbRegAppTableRecord
  2
GEVID1208845795
 70
     0
  0
APPID
  5
45D
330
9
100
AcDbSymbolTableRecord
100
AcDbRegAppTableRecord
  2
GEVID1208845796
 70
     0
  0
APPID
  5
45E
330
9
100
AcDbSymbolTableRecord
100
AcDbRegAppTableRecord
  2
GEVID1208845797
 70
     0
  0
APPID
  5
45F
330
9
100
AcDbSymbolTableRecord
100
AcDbRegAppTableRecord
  2
GEVID1208845798
 70
     0
  0
APPID
  5
460
330
9
100
AcDbSymbolTableRecord
100
AcDbRegAppTableRecord
  2
GEVID1208845799
 70
     0
  0
APPID
  5
461
330
9
100
AcDbSymbolTableRecord
100
AcDbRegAppTableRecord
  2
GEVID1208845800
 70
     0
  0
APPID
  5
462
330
9
100
AcDbSymbolTableRecord
100
AcDbRegAppTableRecord
  2
GEVID1208845801
 70
     0
  0
APPID
  5
463
330
9
100
AcDbSymbolTableRecord
100
AcDbRegAppTableRecord
  2
GEVID1208845802
 70
     0
  0
APPID
  5
464
330
9
100
AcDbSymbolTableRecord
100
AcDbRegAppTableRecord
  2
GENIUS_GENOBJ-N-DIM_13
 70
     0
  0
APPID
  5
465
330
9
100
AcDbSymbolTableRecord
100
AcDbRegAppTableRecord
  2
GENIUS_GENDIM_13
 70
     0
  0
APPID
  5
466
330
9
100
AcDbSymbolTableRecord
100
AcDbRegAppTableRecord
  2
GENIUS_GENDIMSH_14
 70
     0
  0
APPID
  5
467
330
9
100
AcDbSymbolTableRecord
100
AcDbRegAppTableRecord
  2
GEVID1208845803
 70
     0
  0
APPID
  5
468
330
9
100
AcDbSymbolTableRecord
100
AcDbRegAppTableRecord
  2
GEVID1208845804
 70
     0
  0
APPID
  5
469
330
9
100
AcDbSymbolTableRecord
100
AcDbRegAppTableRecord
  2
GEVID1208845805
 70
     0
  0
APPID
  5
46A
330
9
100
AcDbSymbolTableRecord
100
AcDbRegAppTableRecord
  2
GEVID1208845806
 70
     0
  0
APPID
  5
46B
330
9
100
AcDbSymbolTableRecord
100
AcDbRegAppTableRecord
  2
GEVID1208845807
 70
     0
  0
APPID
  5
46C
330
9
100
AcDbSymbolTableRecord
100
AcDbRegAppTableRecord
  2
GEVID1208845808
 70
     0
  0
APPID
  5
46D
330
9
100
AcDbSymbolTableRecord
100
AcDbRegAppTableRecord
  2
GEVID1208845809
 70
     0
  0
APPID
  5
46E
330
9
100
AcDbSymbolTableRecord
100
AcDbRegAppTableRecord
  2
GEVID1208845810
 70
     0
  0
APPID
  5
46F
330
9
100
AcDbSymbolTableRecord
100
AcDbRegAppTableRecord
  2
GEVID1208845811
 70
     0
  0
APPID
  5
470
330
9
100
AcDbSymbolTableRecord
100
AcDbRegAppTableRecord
  2
GEVID1208845813
 70
     0
  0
APPID
  5
471
330
9
100
AcDbSymbolTableRecord
100
AcDbRegAppTableRecord
  2
GEVID1208845814
 70
     0
  0
APPID
  5
472
330
9
100
AcDbSymbolTableRecord
100
AcDbRegAppTableRecord
  2
GEVID1208845815
 70
     0
  0
APPID
  5
473
330
9
100
AcDbSymbolTableRecord
100
AcDbRegAppTableRecord
  2
GEVID1208845816
 70
     0
  0
APPID
  5
474
330
9
100
AcDbSymbolTableRecord
100
AcDbRegAppTableRecord
  2
GEVID1208845817
 70
     0
  0
APPID
  5
475
330
9
100
AcDbSymbolTableRecord
100
AcDbRegAppTableRecord
  2
GEVID1208845818
 70
     0
  0
APPID
  5
476
330
9
100
AcDbSymbolTableRecord
100
AcDbRegAppTableRecord
  2
GEVID1208845819
 70
     0
  0
APPID
  5
477
330
9
100
AcDbSymbolTableRecord
100
AcDbRegAppTableRecord
  2
GEVID1208845820
 70
     0
  0
APPID
  5
478
330
9
100
AcDbSymbolTableRecord
100
AcDbRegAppTableRecord
  2
GENIUS_GENOBJ-F-SHCL_13
 70
     0
  0
APPID
  5
479
330
9
100
AcDbSymbolTableRecord
100
AcDbRegAppTableRecord
  2
GENIUS_GEFMSH_13
 70
     0
  0
APPID
  5
47A
330
9
100
AcDbSymbolTableRecord
100
AcDbRegAppTableRecord
  2
GENIUS_GENOBJ-F-SHCA_13
 70
     0
  0
APPID
  5
47B
330
9
100
AcDbSymbolTableRecord
100
AcDbRegAppTableRecord
  2
GENIUS_GEFSH_13
 70
     0
  0
APPID
  5
47C
330
9
100
AcDbSymbolTableRecord
100
AcDbRegAppTableRecord
  2
GENIUS_GEFSHP_13
 70
     0
  0
APPID
  5
47D
330
9
100
AcDbSymbolTableRecord
100
AcDbRegAppTableRecord
  2
GENIUS_GEFSHP0_13
 70
     0
  0
APPID
  5
47E
330
9
100
AcDbSymbolTableRecord
100
AcDbRegAppTableRecord
  2
GENIUS_GEFSH0_13
 70
     0
  0
APPID
  5
47F
330
9
100
AcDbSymbolTableRecord
100
AcDbRegAppTableRecord
  2
GENIUS_GEFSHP1_13
 70
     0
  0
APPID
  5
480
330
9
100
AcDbSymbolTableRecord
100
AcDbRegAppTableRecord
  2
GENIUS_GEFSH1_13
 70
     0
  0
APPID
  5
481
330
9
100
AcDbSymbolTableRecord
100
AcDbRegAppTableRecord
  2
GEVID1208866337
 70
     0
  0
APPID
  5
482
330
9
100
AcDbSymbolTableRecord
100
AcDbRegAppTableRecord
  2
GEVID1208866338
 70
     0
  0
APPID
  5
483
330
9
100
AcDbSymbolTableRecord
100
AcDbRegAppTableRecord
  2
GEVID1208866339
 70
     0
  0
APPID
  5
484
330
9
100
AcDbSymbolTableRecord
100
AcDbRegAppTableRecord
  2
GEVID1208866340
 70
     0
  0
APPID
  5
485
330
9
100
AcDbSymbolTableRecord
100
AcDbRegAppTableRecord
  2
GEVID1208866341
 70
     0
  0
APPID
  5
486
330
9
100
AcDbSymbolTableRecord
100
AcDbRegAppTableRecord
  2
ACAD_PSEXT
 70
     0
  0
APPID
  5
487
330
9
100
AcDbSymbolTableRecord
100
AcDbRegAppTableRecord
  2
GEVID1208866342
 70
     0
  0
APPID
  5
488
330
9
100
AcDbSymbolTableRecord
100
AcDbRegAppTableRecord
  2
GEVID1208913836
 70
     0
  0
APPID
  5
489
330
9
100
AcDbSymbolTableRecord
100
AcDbRegAppTableRecord
  2
GEVID1208913837
 70
     0
  0
APPID
  5
48A
330
9
100
AcDbSymbolTableRecord
100
AcDbRegAppTableRecord
  2
GEVID1208913838
 70
     0
  0
APPID
  5
48B
330
9
100
AcDbSymbolTableRecord
100
AcDbRegAppTableRecord
  2
GEVID1208913839
 70
     0
  0
APPID
  5
48C
330
9
100
AcDbSymbolTableRecord
100
AcDbRegAppTableRecord
  2
GENIUS_GENDTOL_13
 70
     0
  0
APPID
  5
48D
330
9
100
AcDbSymbolTableRecord
100
AcDbRegAppTableRecord
  2
GEVID1208928889
 70
     0
  0
APPID
  5
48E
330
9
100
AcDbSymbolTableRecord
100
AcDbRegAppTableRecord
  2
GEVID1208928890
 70
     0
  0
APPID
  5
48F
330
9
100
AcDbSymbolTableRecord
100
AcDbRegAppTableRecord
  2
GEVID1208928891
 70
     0
  0
APPID
  5
490
330
9
100
AcDbSymbolTableRecord
100
AcDbRegAppTableRecord
  2
GEVID1208928892
 70
     0
  0
APPID
  5
491
330
9
100
AcDbSymbolTableRecord
100
AcDbRegAppTableRecord
  2
GEVID1208933827
 70
     0
  0
APPID
  5
492
330
9
100
AcDbSymbolTableRecord
100
AcDbRegAppTableRecord
  2
GEVID1208933829
 70
     0
  0
APPID
  5
493
330
9
100
AcDbSymbolTableRecord
100
AcDbRegAppTableRecord
  2
GEVID1208933830
 70
     0
  0
APPID
  5
494
330
9
100
AcDbSymbolTableRecord
100
AcDbRegAppTableRecord
  2
GEVID1208933831
 70
     0
  0
APPID
  5
495
330
9
100
AcDbSymbolTableRecord
100
AcDbRegAppTableRecord
  2
GEVID1208933832
 70
     0
  0
APPID
  5
496
330
9
100
AcDbSymbolTableRecord
100
AcDbRegAppTableRecord
  2
GEVID1208933833
 70
     0
  0
APPID
  5
497
330
9
100
AcDbSymbolTableRecord
100
AcDbRegAppTableRecord
  2
GEVID1208933834
 70
     0
  0
APPID
  5
498
330
9
100
AcDbSymbolTableRecord
100
AcDbRegAppTableRecord
  2
GEVID1208933835
 70
     0
  0
APPID
  5
499
330
9
100
AcDbSymbolTableRecord
100
AcDbRegAppTableRecord
  2
GEVID1208933836
 70
     0
  0
APPID
  5
49A
330
9
100
AcDbSymbolTableRecord
100
AcDbRegAppTableRecord
  2
GEVID1208933837
 70
     0
  0
APPID
  5
49B
330
9
100
AcDbSymbolTableRecord
100
AcDbRegAppTableRecord
  2
GEVID1208933838
 70
     0
  0
APPID
  5
49C
330
9
100
AcDbSymbolTableRecord
100
AcDbRegAppTableRecord
  2
GEVID1208933840
 70
     0
  0
APPID
  5
49D
330
9
100
AcDbSymbolTableRecord
100
AcDbRegAppTableRecord
  2
GEVID1208933842
 70
     0
  0
APPID
  5
49E
330
9
100
AcDbSymbolTableRecord
100
AcDbRegAppTableRecord
  2
GEVID1208933843
 70
     0
  0
APPID
  5
49F
330
9
100
AcDbSymbolTableRecord
100
AcDbRegAppTableRecord
  2
GEVID1208933844
 70
     0
  0
APPID
  5
4A0
330
9
100
AcDbSymbolTableRecord
100
AcDbRegAppTableRecord
  2
GEVID1208933845
 70
     0
  0
APPID
  5
4A1
330
9
100
AcDbSymbolTableRecord
100
AcDbRegAppTableRecord
  2
GEVID1208933846
 70
     0
  0
APPID
  5
4A2
330
9
100
AcDbSymbolTableRecord
100
AcDbRegAppTableRecord
  2
GEVID1208933847
 70
     0
  0
APPID
  5
4A3
330
9
100
AcDbSymbolTableRecord
100
AcDbRegAppTableRecord
  2
GEVID1208933848
 70
     0
  0
APPID
  5
4A4
330
9
100
AcDbSymbolTableRecord
100
AcDbRegAppTableRecord
  2
GEVID1208933849
 70
     0
  0
APPID
  5
4A5
330
9
100
AcDbSymbolTableRecord
100
AcDbRegAppTableRecord
  2
GEVID1208933850
 70
     0
  0
APPID
  5
4A6
330
9
100
AcDbSymbolTableRecord
100
AcDbRegAppTableRecord
  2
GEVID1208933851
 70
     0
  0
APPID
  5
4A7
330
9
100
AcDbSymbolTableRecord
100
AcDbRegAppTableRecord
  2
GEVID1208933852
 70
     0
  0
APPID
  5
4A8
330
9
100
AcDbSymbolTableRecord
100
AcDbRegAppTableRecord
  2
GEVID1208933853
 70
     0
  0
APPID
  5
4A9
330
9
100
AcDbSymbolTableRecord
100
AcDbRegAppTableRecord
  2
GEVID1208933854
 70
     0
  0
APPID
  5
4AA
330
9
100
AcDbSymbolTableRecord
100
AcDbRegAppTableRecord
  2
GEVID1208933855
 70
     0
  0
APPID
  5
4AB
330
9
100
AcDbSymbolTableRecord
100
AcDbRegAppTableRecord
  2
GEVID1208933856
 70
     0
  0
APPID
  5
4AC
330
9
100
AcDbSymbolTableRecord
100
AcDbRegAppTableRecord
  2
GEVID1208933857
 70
     0
  0
APPID
  5
4AD
330
9
100
AcDbSymbolTableRecord
100
AcDbRegAppTableRecord
  2
GEVID1208933858
 70
     0
  0
APPID
  5
4AE
330
9
100
AcDbSymbolTableRecord
100
AcDbRegAppTableRecord
  2
GEVID1208933859
 70
     0
  0
APPID
  5
4AF
330
9
100
AcDbSymbolTableRecord
100
AcDbRegAppTableRecord
  2
GEVID1208933860
 70
     0
  0
APPID
  5
4B0
330
9
100
AcDbSymbolTableRecord
100
AcDbRegAppTableRecord
  2
GEVID1208933861
 70
     0
  0
APPID
  5
4B1
330
9
100
AcDbSymbolTableRecord
100
AcDbRegAppTableRecord
  2
GEVID1208933862
 70
     0
  0
APPID
  5
4B2
330
9
100
AcDbSymbolTableRecord
100
AcDbRegAppTableRecord
  2
GEVID1208933863
 70
     0
  0
APPID
  5
4B3
330
9
100
AcDbSymbolTableRecord
100
AcDbRegAppTableRecord
  2
GEVID1208933864
 70
     0
  0
APPID
  5
4B4
330
9
100
AcDbSymbolTableRecord
100
AcDbRegAppTableRecord
  2
GEVID1208933865
 70
     0
  0
APPID
  5
4B5
330
9
100
AcDbSymbolTableRecord
100
AcDbRegAppTableRecord
  2
GEVID1208933866
 70
     0
  0
APPID
  5
4B6
330
9
100
AcDbSymbolTableRecord
100
AcDbRegAppTableRecord
  2
GEVID1208933867
 70
     0
  0
APPID
  5
4B7
330
9
100
AcDbSymbolTableRecord
100
AcDbRegAppTableRecord
  2
GEVID1208933868
 70
     0
  0
APPID
  5
4B8
330
9
100
AcDbSymbolTableRecord
100
AcDbRegAppTableRecord
  2
GEVID1208933869
 70
     0
  0
APPID
  5
4B9
330
9
100
AcDbSymbolTableRecord
100
AcDbRegAppTableRecord
  2
GEVID1208933870
 70
     0
  0
APPID
  5
4BA
330
9
100
AcDbSymbolTableRecord
100
AcDbRegAppTableRecord
  2
GEVID1208933871
 70
     0
  0
APPID
  5
4BB
330
9
100
AcDbSymbolTableRecord
100
AcDbRegAppTableRecord
  2
GEVID1208933872
 70
     0
  0
APPID
  5
4BC
330
9
100
AcDbSymbolTableRecord
100
AcDbRegAppTableRecord
  2
GEVID1208933873
 70
     0
  0
APPID
  5
4BD
330
9
100
AcDbSymbolTableRecord
100
AcDbRegAppTableRecord
  2
GEVID1208933874
 70
     0
  0
APPID
  5
4BE
330
9
100
AcDbSymbolTableRecord
100
AcDbRegAppTableRecord
  2
GEVID1208933875
 70
     0
  0
APPID
  5
4BF
330
9
100
AcDbSymbolTableRecord
100
AcDbRegAppTableRecord
  2
GEVID1208933876
 70
     0
  0
APPID
  5
4C0
330
9
100
AcDbSymbolTableRecord
100
AcDbRegAppTableRecord
  2
ACAD_DSTYLE_DIMRADIAL_EXTENSION
 70
     0
  0
APPID
  5
4C1
330
9
100
AcDbSymbolTableRecord
100
AcDbRegAppTableRecord
  2
GEVID1208999100
 70
     0
  0
APPID
  5
4C2
330
9
100
AcDbSymbolTableRecord
100
AcDbRegAppTableRecord
  2
GEVID1208999101
 70
     0
  0
APPID
  5
4C3
330
9
100
AcDbSymbolTableRecord
100
AcDbRegAppTableRecord
  2
GEVID1208999102
 70
     0
  0
APPID
  5
4C4
330
9
100
AcDbSymbolTableRecord
100
AcDbRegAppTableRecord
  2
GEVID1208999103
 70
     0
  0
APPID
  5
4C5
330
9
100
AcDbSymbolTableRecord
100
AcDbRegAppTableRecord
  2
GEVID1208999105
 70
     0
  0
APPID
  5
4C6
330
9
100
AcDbSymbolTableRecord
100
AcDbRegAppTableRecord
  2
GEVID1208999106
 70
     0
  0
APPID
  5
4C7
330
9
100
AcDbSymbolTableRecord
100
AcDbRegAppTableRecord
  2
GEVID1208999108
 70
     0
  0
APPID
  5
4C8
330
9
100
AcDbSymbolTableRecord
100
AcDbRegAppTableRecord
  2
GEVID1208999109
 70
     0
  0
APPID
  5
4C9
330
9
100
AcDbSymbolTableRecord
100
AcDbRegAppTableRecord
  2
GEVID1208999110
 70
     0
  0
APPID
  5
4CA
330
9
100
AcDbSymbolTableRecord
100
AcDbRegAppTableRecord
  2
GEVID1208999111
 70
     0
  0
APPID
  5
4CB
330
9
100
AcDbSymbolTableRecord
100
AcDbRegAppTableRecord
  2
GEVID1208999112
 70
     0
  0
APPID
  5
4CC
330
9
100
AcDbSymbolTableRecord
100
AcDbRegAppTableRecord
  2
GEVID1208999113
 70
     0
  0
APPID
  5
4CD
330
9
100
AcDbSymbolTableRecord
100
AcDbRegAppTableRecord
  2
GEVID1208999114
 70
     0
  0
APPID
  5
4CE
330
9
100
AcDbSymbolTableRecord
100
AcDbRegAppTableRecord
  2
GEVID1210218799
 70
     0
  0
APPID
  5
4CF
330
9
100
AcDbSymbolTableRecord
100
AcDbRegAppTableRecord
  2
GEVID1210218800
 70
     0
  0
APPID
  5
4D0
330
9
100
AcDbSymbolTableRecord
100
AcDbRegAppTableRecord
  2
GENIUS_GEFWELD_13
 70
     0
  0
APPID
  5
4D1
330
9
100
AcDbSymbolTableRecord
100
AcDbRegAppTableRecord
  2
GENIUS_GENOBJ-F-WELS_13
 70
     0
  0
APPID
  5
4D2
330
9
100
AcDbSymbolTableRecord
100
AcDbRegAppTableRecord
  2
AcadAnnotative
 70
     0
  0
APPID
  5
4D3
330
9
100
AcDbSymbolTableRecord
100
AcDbRegAppTableRecord
  2
GEVID1210145339
 70
     0
  0
APPID
  5
4D4
330
9
100
AcDbSymbolTableRecord
100
AcDbRegAppTableRecord
  2
ACAD_DSTYLE_DIMBREAK
 70
     0
  0
APPID
  5
4D5
330
9
100
AcDbSymbolTableRecord
100
AcDbRegAppTableRecord
  2
GEVID1210145340
 70
     0
  0
APPID
  5
4D6
330
9
100
AcDbSymbolTableRecord
100
AcDbRegAppTableRecord
  2
GEVID1210145341
 70
     0
  0
APPID
  5
4D7
330
9
100
AcDbSymbolTableRecord
100
AcDbRegAppTableRecord
  2
GEVID1210145342
 70
     0
  0
APPID
  5
4D8
330
9
100
AcDbSymbolTableRecord
100
AcDbRegAppTableRecord
  2
GEVID1210145343
 70
     0
  0
APPID
  5
4D9
330
9
100
AcDbSymbolTableRecord
100
AcDbRegAppTableRecord
  2
GEVID1210145344
 70
     0
  0
APPID
  5
4DA
330
9
100
AcDbSymbolTableRecord
100
AcDbRegAppTableRecord
  2
GEVID1210145345
 70
     0
  0
APPID
  5
4DB
330
9
100
AcDbSymbolTableRecord
100
AcDbRegAppTableRecord
  2
GEVID1210152816
 70
     0
  0
APPID
  5
4DC
330
9
100
AcDbSymbolTableRecord
100
AcDbRegAppTableRecord
  2
GEVID1210153850
 70
     0
  0
APPID
  5
4DD
330
9
100
AcDbSymbolTableRecord
100
AcDbRegAppTableRecord
  2
GEVID1210153851
 70
     0
  0
APPID
  5
4DE
330
9
100
AcDbSymbolTableRecord
100
AcDbRegAppTableRecord
  2
GEVID1210153852
 70
     0
  0
APPID
  5
4DF
330
9
100
AcDbSymbolTableRecord
100
AcDbRegAppTableRecord
  2
GEVID1210549898
 70
     0
  0
APPID
  5
4E0
330
9
100
AcDbSymbolTableRecord
100
AcDbRegAppTableRecord
  2
GEVID1210549899
 70
     0
  0
APPID
  5
4E1
330
9
100
AcDbSymbolTableRecord
100
AcDbRegAppTableRecord
  2
GEVID1210549900
 70
     0
  0
APPID
  5
4E2
330
9
100
AcDbSymbolTableRecord
100
AcDbRegAppTableRecord
  2
GEVID1210549901
 70
     0
  0
APPID
  5
4E3
330
9
100
AcDbSymbolTableRecord
100
AcDbRegAppTableRecord
  2
GEVID1210549902
 70
     0
  0
APPID
  5
4E4
330
9
100
AcDbSymbolTableRecord
100
AcDbRegAppTableRecord
  2
GEVID1210549903
 70
     0
  0
APPID
  5
4E5
330
9
100
AcDbSymbolTableRecord
100
AcDbRegAppTableRecord
  2
GEVID1210549904
 70
     0
  0
APPID
  5
4E6
330
9
100
AcDbSymbolTableRecord
100
AcDbRegAppTableRecord
  2
GEVID1210549905
 70
     0
  0
APPID
  5
4E7
330
9
100
AcDbSymbolTableRecord
100
AcDbRegAppTableRecord
  2
GEVID1210549906
 70
     0
  0
APPID
  5
4E8
330
9
100
AcDbSymbolTableRecord
100
AcDbRegAppTableRecord
  2
GEVID1210549907
 70
     0
  0
APPID
  5
4E9
330
9
100
AcDbSymbolTableRecord
100
AcDbRegAppTableRecord
  2
GEVID1210549908
 70
     0
  0
APPID
  5
4EA
330
9
100
AcDbSymbolTableRecord
100
AcDbRegAppTableRecord
  2
GEVID1210549909
 70
     0
  0
APPID
  5
4EB
330
9
100
AcDbSymbolTableRecord
100
AcDbRegAppTableRecord
  2
GEVID1210549910
 70
     0
  0
APPID
  5
4EC
330
9
100
AcDbSymbolTableRecord
100
AcDbRegAppTableRecord
  2
GEVID1210549911
 70
     0
  0
APPID
  5
4ED
330
9
100
AcDbSymbolTableRecord
100
AcDbRegAppTableRecord
  2
GEVID1210549912
 70
     0
  0
APPID
  5
4EE
330
9
100
AcDbSymbolTableRecord
100
AcDbRegAppTableRecord
  2
GEVID1210549913
 70
     0
  0
APPID
  5
4EF
330
9
100
AcDbSymbolTableRecord
100
AcDbRegAppTableRecord
  2
GEVID1210549914
 70
     0
  0
APPID
  5
4F0
330
9
100
AcDbSymbolTableRecord
100
AcDbRegAppTableRecord
  2
GEVID1210549915
 70
     0
  0
APPID
  5
4F1
330
9
100
AcDbSymbolTableRecord
100
AcDbRegAppTableRecord
  2
GEVID1210549916
 70
     0
  0
APPID
  5
4F2
330
9
100
AcDbSymbolTableRecord
100
AcDbRegAppTableRecord
  2
GEVID1210549917
 70
     0
  0
APPID
  5
4F3
330
9
100
AcDbSymbolTableRecord
100
AcDbRegAppTableRecord
  2
GENIUS_GENOBJ-N-CRS_13
 70
     0
  0
APPID
  5
4F4
330
9
100
AcDbSymbolTableRecord
100
AcDbRegAppTableRecord
  2
GEVID1210549918
 70
     0
  0
APPID
  5
4F5
330
9
100
AcDbSymbolTableRecord
100
AcDbRegAppTableRecord
  2
GENIUS_GENOBJ-N-CRC_13
 70
     0
  0
APPID
  5
4F6
330
9
100
AcDbSymbolTableRecord
100
AcDbRegAppTableRecord
  2
GENIUS_GENCRC_14
 70
     0
  0
APPID
  5
4F7
330
9
100
AcDbSymbolTableRecord
100
AcDbRegAppTableRecord
  2
GEVID1210549919
 70
     0
  0
APPID
  5
4F8
330
9
100
AcDbSymbolTableRecord
100
AcDbRegAppTableRecord
  2
GEVID1210549921
 70
     0
  0
APPID
  5
4F9
330
9
100
AcDbSymbolTableRecord
100
AcDbRegAppTableRecord
  2
GEVID1210549922
 70
     0
  0
APPID
  5
4FA
330
9
100
AcDbSymbolTableRecord
100
AcDbRegAppTableRecord
  2
GEVID1210635173
 70
     0
  0
APPID
  5
4FB
330
9
100
AcDbSymbolTableRecord
100
AcDbRegAppTableRecord
  2
GEVID1210635174
 70
     0
  0
APPID
  5
4FC
330
9
100
AcDbSymbolTableRecord
100
AcDbRegAppTableRecord
  2
GEVID1210635175
 70
     0
  0
APPID
  5
4FD
330
9
100
AcDbSymbolTableRecord
100
AcDbRegAppTableRecord
  2
GEVID1210635176
 70
     0
  0
APPID
  5
4FE
330
9
100
AcDbSymbolTableRecord
100
AcDbRegAppTableRecord
  2
GEVID1210635177
 70
     0
  0
APPID
  5
4FF
330
9
100
AcDbSymbolTableRecord
100
AcDbRegAppTableRecord
  2
GEVID1210635178
 70
     0
  0
APPID
  5
500
330
9
100
AcDbSymbolTableRecord
100
AcDbRegAppTableRecord
  2
GENIUS_GENIUS_GENBHEDTMP_13
 70
     0
  0
APPID
  5
501
330
9
100
AcDbSymbolTableRecord
100
AcDbRegAppTableRecord
  2
GEVID1210635179
 70
     0
  0
APPID
  5
502
330
9
100
AcDbSymbolTableRecord
100
AcDbRegAppTableRecord
  2
GEVID1210635180
 70
     0
  0
APPID
  5
503
330
9
100
AcDbSymbolTableRecord
100
AcDbRegAppTableRecord
  2
GEVID1210635181
 70
     0
  0
APPID
  5
504
330
9
100
AcDbSymbolTableRecord
100
AcDbRegAppTableRecord
  2
GEVID1210635182
 70
     0
  0
APPID
  5
505
330
9
100
AcDbSymbolTableRecord
100
AcDbRegAppTableRecord
  2
GEVID1210635184
 70
     0
  0
APPID
  5
506
330
9
100
AcDbSymbolTableRecord
100
AcDbRegAppTableRecord
  2
GEVID1210635185
 70
     0
  0
APPID
  5
507
330
9
100
AcDbSymbolTableRecord
100
AcDbRegAppTableRecord
  2
GEVID1210635186
 70
     0
  0
APPID
  5
508
330
9
100
AcDbSymbolTableRecord
100
AcDbRegAppTableRecord
  2
GEVID1210635187
 70
     0
  0
APPID
  5
509
330
9
100
AcDbSymbolTableRecord
100
AcDbRegAppTableRecord
  2
GEVID1210635188
 70
     0
  0
APPID
  5
50A
330
9
100
AcDbSymbolTableRecord
100
AcDbRegAppTableRecord
  2
GEVID1210635189
 70
     0
  0
APPID
  5
50B
330
9
100
AcDbSymbolTableRecord
100
AcDbRegAppTableRecord
  2
GEVID1210635190
 70
     0
  0
APPID
  5
50C
330
9
100
AcDbSymbolTableRecord
100
AcDbRegAppTableRecord
  2
GENIUS_GENREC_14
 70
     0
  0
APPID
  5
50D
330
9
100
AcDbSymbolTableRecord
100
AcDbRegAppTableRecord
  2
GENIUS_GENOBJ-N-REC_13
 70
     0
  0
APPID
  5
50E
330
9
100
AcDbSymbolTableRecord
100
AcDbRegAppTableRecord
  2
GEVID1210676655
 70
     0
  0
APPID
  5
50F
330
9
100
AcDbSymbolTableRecord
100
AcDbRegAppTableRecord
  2
GEVID1210676656
 70
     0
  0
APPID
  5
510
330
9
100
AcDbSymbolTableRecord
100
AcDbRegAppTableRecord
  2
GEVID1210676657
 70
     0
  0
APPID
  5
511
330
9
100
AcDbSymbolTableRecord
100
AcDbRegAppTableRecord
  2
GEVID1210676659
 70
     0
  0
APPID
  5
512
330
9
100
AcDbSymbolTableRecord
100
AcDbRegAppTableRecord
  2
GEVID1210676660
 70
     0
  0
APPID
  5
513
330
9
100
AcDbSymbolTableRecord
100
AcDbRegAppTableRecord
  2
GEVID1210676661
 70
     0
  0
APPID
  5
514
330
9
100
AcDbSymbolTableRecord
100
AcDbRegAppTableRecord
  2
GEVID1210676662
 70
     0
  0
APPID
  5
515
330
9
100
AcDbSymbolTableRecord
100
AcDbRegAppTableRecord
  2
GEVID1210721646
 70
     0
  0
APPID
  5
516
330
9
100
AcDbSymbolTableRecord
100
AcDbRegAppTableRecord
  2
GEVID1210721647
 70
     0
  0
APPID
  5
517
330
9
100
AcDbSymbolTableRecord
100
AcDbRegAppTableRecord
  2
GEVID1210721648
 70
     0
  0
APPID
  5
518
330
9
100
AcDbSymbolTableRecord
100
AcDbRegAppTableRecord
  2
GEVID1210721649
 70
     0
  0
APPID
  5
519
330
9
100
AcDbSymbolTableRecord
100
AcDbRegAppTableRecord
  2
GEVID1210721650
 70
     0
  0
APPID
  5
51A
330
9
100
AcDbSymbolTableRecord
100
AcDbRegAppTableRecord
  2
GEVID1210721651
 70
     0
  0
APPID
  5
51B
330
9
100
AcDbSymbolTableRecord
100
AcDbRegAppTableRecord
  2
GEVID1210721652
 70
     0
  0
APPID
  5
51C
330
9
100
AcDbSymbolTableRecord
100
AcDbRegAppTableRecord
  2
GEVID1210721653
 70
     0
  0
APPID
  5
51D
330
9
100
AcDbSymbolTableRecord
100
AcDbRegAppTableRecord
  2
PE_URL
 70
     0
  0
APPID
  5
51E
330
9
100
AcDbSymbolTableRecord
100
AcDbRegAppTableRecord
  2
GEVID1210825555
 70
     0
  0
APPID
  5
51F
330
9
100
AcDbSymbolTableRecord
100
AcDbRegAppTableRecord
  2
GEVID1210825556
 70
     0
  0
APPID
  5
520
330
9
100
AcDbSymbolTableRecord
100
AcDbRegAppTableRecord
  2
GEVID1210825557
 70
     0
  0
APPID
  5
521
330
9
100
AcDbSymbolTableRecord
100
AcDbRegAppTableRecord
  2
GEVID1210825558
 70
     0
  0
APPID
  5
522
330
9
100
AcDbSymbolTableRecord
100
AcDbRegAppTableRecord
  2
GEVID1210825559
 70
     0
  0
APPID
  5
523
330
9
100
AcDbSymbolTableRecord
100
AcDbRegAppTableRecord
  2
GEVID1210825560
 70
     0
  0
APPID
  5
524
330
9
100
AcDbSymbolTableRecord
100
AcDbRegAppTableRecord
  2
GEVID1210825561
 70
     0
  0
APPID
  5
525
330
9
100
AcDbSymbolTableRecord
100
AcDbRegAppTableRecord
  2
GEVID1210825562
 70
     0
  0
APPID
  5
526
330
9
100
AcDbSymbolTableRecord
100
AcDbRegAppTableRecord
  2
GEVID1210825563
 70
     0
  0
APPID
  5
527
330
9
100
AcDbSymbolTableRecord
100
AcDbRegAppTableRecord
  2
GEVID1210825564
 70
     0
  0
APPID
  5
528
330
9
100
AcDbSymbolTableRecord
100
AcDbRegAppTableRecord
  2
GEVID1210825565
 70
     0
  0
APPID
  5
529
330
9
100
AcDbSymbolTableRecord
100
AcDbRegAppTableRecord
  2
GEVID1210825566
 70
     0
  0
APPID
  5
52A
330
9
100
AcDbSymbolTableRecord
100
AcDbRegAppTableRecord
  2
GEVID1210825567
 70
     0
  0
APPID
  5
52B
330
9
100
AcDbSymbolTableRecord
100
AcDbRegAppTableRecord
  2
GENIUS_GENOBJ-N-ZOO_13
 70
     0
  0
APPID
  5
52C
330
9
100
AcDbSymbolTableRecord
100
AcDbRegAppTableRecord
  2
GENIUS_GENZOO_17
 70
     0
  0
APPID
  5
52D
330
9
100
AcDbSymbolTableRecord
100
AcDbRegAppTableRecord
  2
ACADANNOTATIVEDECOMPOSITION
 70
     0
  0
APPID
  5
52E
330
9
100
AcDbSymbolTableRecord
100
AcDbRegAppTableRecord
  2
GENIUS_GENOBJ-N-HTC_13
 70
     0
  0
APPID
  5
52F
330
9
100
AcDbSymbolTableRecord
100
AcDbRegAppTableRecord
  2
GENIUS_GENHATCH_13
 70
     0
  0
APPID
  5
530
330
9
100
AcDbSymbolTableRecord
100
AcDbRegAppTableRecord
  2
GEVID1210896020
 70
     0
  0
APPID
  5
531
330
9
100
AcDbSymbolTableRecord
100
AcDbRegAppTableRecord
  2
GEVID1210896021
 70
     0
  0
APPID
  5
532
330
9
100
AcDbSymbolTableRecord
100
AcDbRegAppTableRecord
  2
GEVID1209083540
 70
     0
  0
APPID
  5
533
330
9
100
AcDbSymbolTableRecord
100
AcDbRegAppTableRecord
  2
GEVMK
 70
     0
  0
APPID
  5
534
330
9
100
AcDbSymbolTableRecord
100
AcDbRegAppTableRecord
  2
GEVID1209083542
 70
     0
  0
APPID
  5
535
330
9
100
AcDbSymbolTableRecord
100
AcDbRegAppTableRecord
  2
GEVID1209083543
 70
     0
  0
APPID
  5
536
330
9
100
AcDbSymbolTableRecord
100
AcDbRegAppTableRecord
  2
GEVID1209083544
 70
     0
  0
APPID
  5
537
330
9
100
AcDbSymbolTableRecord
100
AcDbRegAppTableRecord
  2
GEVID1209083545
 70
     0
  0
APPID
  5
538
330
9
100
AcDbSymbolTableRecord
100
AcDbRegAppTableRecord
  2
GEVID1209083546
 70
     0
  0
APPID
  5
539
330
9
100
AcDbSymbolTableRecord
100
AcDbRegAppTableRecord
  2
GEVID1209083547
 70
     0
  0
APPID
  5
53A
330
9
100
AcDbSymbolTableRecord
100
AcDbRegAppTableRecord
  2
GEVID1209083548
 70
     0
  0
APPID
  5
53B
330
9
100
AcDbSymbolTableRecord
100
AcDbRegAppTableRecord
  2
GEVID1209083549
 70
     0
  0
APPID
  5
53C
330
9
100
AcDbSymbolTableRecord
100
AcDbRegAppTableRecord
  2
GEVID1209083550
 70
     0
  0
APPID
  5
53D
330
9
100
AcDbSymbolTableRecord
100
AcDbRegAppTableRecord
  2
GEVID1209083551
 70
     0
  0
APPID
  5
53E
330
9
100
AcDbSymbolTableRecord
100
AcDbRegAppTableRecord
  2
GEVID1209083552
 70
     0
  0
APPID
  5
53F
330
9
100
AcDbSymbolTableRecord
100
AcDbRegAppTableRecord
  2
GEVID1209083553
 70
     0
  0
APPID
  5
540
330
9
100
AcDbSymbolTableRecord
100
AcDbRegAppTableRecord
  2
GEVID1210896022
 70
     0
  0
APPID
  5
541
330
9
100
AcDbSymbolTableRecord
100
AcDbRegAppTableRecord
  2
GEVID1211508364
 70
     0
  0
APPID
  5
542
330
9
100
AcDbSymbolTableRecord
100
AcDbRegAppTableRecord
  2
GEVID1211414908
 70
     0
  0
APPID
  5
543
330
9
100
AcDbSymbolTableRecord
100
AcDbRegAppTableRecord
  2
GEVID1211414909
 70
     0
  0
APPID
  5
544
330
9
100
AcDbSymbolTableRecord
100
AcDbRegAppTableRecord
  2
GEVID1211508359
 70
     0
  0
APPID
  5
545
330
9
100
AcDbSymbolTableRecord
100
AcDbRegAppTableRecord
  2
GEVID1211508360
 70
     0
  0
APPID
  5
546
330
9
100
AcDbSymbolTableRecord
100
AcDbRegAppTableRecord
  2
GEVID1211508361
 70
     0
  0
APPID
  5
547
330
9
100
AcDbSymbolTableRecord
100
AcDbRegAppTableRecord
  2
GEVID1211508362
 70
     0
  0
APPID
  5
548
330
9
100
AcDbSymbolTableRecord
100
AcDbRegAppTableRecord
  2
GEVID1211508363
 70
     0
  0
APPID
  5
549
330
9
100
AcDbSymbolTableRecord
100
AcDbRegAppTableRecord
  2
GEVID1211878469
 70
     0
  0
APPID
  5
54A
330
9
100
AcDbSymbolTableRecord
100
AcDbRegAppTableRecord
  2
GEVID1212642819
 70
     0
  0
APPID
  5
54B
330
9
100
AcDbSymbolTableRecord
100
AcDbRegAppTableRecord
  2
GEVID1212642820
 70
     0
  0
APPID
  5
54C
330
9
100
AcDbSymbolTableRecord
100
AcDbRegAppTableRecord
  2
GEVID1212642821
 70
     0
  0
APPID
  5
54D
330
9
100
AcDbSymbolTableRecord
100
AcDbRegAppTableRecord
  2
GEVID1212642822
 70
     0
  0
APPID
  5
54E
330
9
100
AcDbSymbolTableRecord
100
AcDbRegAppTableRecord
  2
GEVID1212642823
 70
     0
  0
APPID
  5
54F
330
9
100
AcDbSymbolTableRecord
100
AcDbRegAppTableRecord
  2
GEVID1212642825
 70
     0
  0
APPID
  5
550
330
9
100
AcDbSymbolTableRecord
100
AcDbRegAppTableRecord
  2
GEVID1212642826
 70
     0
  0
APPID
  5
551
330
9
100
AcDbSymbolTableRecord
100
AcDbRegAppTableRecord
  2
GEVID1212642827
 70
     0
  0
APPID
  5
552
330
9
100
AcDbSymbolTableRecord
100
AcDbRegAppTableRecord
  2
GEVID1212642828
 70
     0
  0
APPID
  5
553
330
9
100
AcDbSymbolTableRecord
100
AcDbRegAppTableRecord
  2
GEVID1212642831
 70
     0
  0
APPID
  5
554
330
9
100
AcDbSymbolTableRecord
100
AcDbRegAppTableRecord
  2
GEVID1212642834
 70
     0
  0
APPID
  5
555
330
9
100
AcDbSymbolTableRecord
100
AcDbRegAppTableRecord
  2
GEVID1212642835
 70
     0
  0
APPID
  5
556
330
9
100
AcDbSymbolTableRecord
100
AcDbRegAppTableRecord
  2
GEVID1212642836
 70
     0
  0
APPID
  5
557
330
9
100
AcDbSymbolTableRecord
100
AcDbRegAppTableRecord
  2
GEVID1212642837
 70
     0
  0
APPID
  5
558
330
9
100
AcDbSymbolTableRecord
100
AcDbRegAppTableRecord
  2
GEVID1212642839
 70
     0
  0
APPID
  5
559
330
9
100
AcDbSymbolTableRecord
100
AcDbRegAppTableRecord
  2
GEVID1212642840
 70
     0
  0
APPID
  5
55A
330
9
100
AcDbSymbolTableRecord
100
AcDbRegAppTableRecord
  2
GEVID1212642841
 70
     0
  0
APPID
  5
55B
330
9
100
AcDbSymbolTableRecord
100
AcDbRegAppTableRecord
  2
GEVID1212655312
 70
     0
  0
APPID
  5
55C
330
9
100
AcDbSymbolTableRecord
100
AcDbRegAppTableRecord
  2
GEVID1212655313
 70
     0
  0
APPID
  5
55D
330
9
100
AcDbSymbolTableRecord
100
AcDbRegAppTableRecord
  2
GEVID1212656533
 70
     0
  0
APPID
  5
55E
330
9
100
AcDbSymbolTableRecord
100
AcDbRegAppTableRecord
  2
GEVID1212656534
 70
     0
  0
APPID
  5
55F
330
9
100
AcDbSymbolTableRecord
100
AcDbRegAppTableRecord
  2
GEVID1212656535
 70
     0
  0
APPID
  5
560
330
9
100
AcDbSymbolTableRecord
100
AcDbRegAppTableRecord
  2
GEVID1212656536
 70
     0
  0
APPID
  5
561
330
9
100
AcDbSymbolTableRecord
100
AcDbRegAppTableRecord
  2
GEVID1212656538
 70
     0
  0
APPID
  5
562
330
9
100
AcDbSymbolTableRecord
100
AcDbRegAppTableRecord
  2
GEVID1212656541
 70
     0
  0
APPID
  5
563
330
9
100
AcDbSymbolTableRecord
100
AcDbRegAppTableRecord
  2
GEVID1212656543
 70
     0
  0
APPID
  5
564
330
9
100
AcDbSymbolTableRecord
100
AcDbRegAppTableRecord
  2
GENIUS_GENOBJ-F-PFASSM_13
 70
     0
  0
APPID
  5
565
330
9
100
AcDbSymbolTableRecord
100
AcDbRegAppTableRecord
  2
GEVID1212656544
 70
     0
  0
APPID
  5
566
330
9
100
AcDbSymbolTableRecord
100
AcDbRegAppTableRecord
  2
GEVID1212656545
 70
     0
  0
APPID
  5
567
330
9
100
AcDbSymbolTableRecord
100
AcDbRegAppTableRecord
  2
GEVID1212656546
 70
     0
  0
APPID
  5
568
330
9
100
AcDbSymbolTableRecord
100
AcDbRegAppTableRecord
  2
GEVID1212656547
 70
     0
  0
APPID
  5
569
330
9
100
AcDbSymbolTableRecord
100
AcDbRegAppTableRecord
  2
GEVID1212656548
 70
     0
  0
APPID
  5
56A
330
9
100
AcDbSymbolTableRecord
100
AcDbRegAppTableRecord
  2
GEVID1212656549
 70
     0
  0
APPID
  5
56B
330
9
100
AcDbSymbolTableRecord
100
AcDbRegAppTableRecord
  2
GEVID1212656550
 70
     0
  0
APPID
  5
56C
330
9
100
AcDbSymbolTableRecord
100
AcDbRegAppTableRecord
  2
GEVID1212656552
 70
     0
  0
APPID
  5
56D
330
9
100
AcDbSymbolTableRecord
100
AcDbRegAppTableRecord
  2
GEVID1212656553
 70
     0
  0
APPID
  5
56E
330
9
100
AcDbSymbolTableRecord
100
AcDbRegAppTableRecord
  2
GEVID1212656554
 70
     0
  0
APPID
  5
56F
330
9
100
AcDbSymbolTableRecord
100
AcDbRegAppTableRecord
  2
GEVID1212656555
 70
     0
  0
APPID
  5
570
330
9
100
AcDbSymbolTableRecord
100
AcDbRegAppTableRecord
  2
GEVID1212656556
 70
     0
  0
APPID
  5
571
330
9
100
AcDbSymbolTableRecord
100
AcDbRegAppTableRecord
  2
GEVID1212656557
 70
     0
  0
APPID
  5
572
330
9
100
AcDbSymbolTableRecord
100
AcDbRegAppTableRecord
  2
GEVID1212656559
 70
     0
  0
APPID
  5
573
330
9
100
AcDbSymbolTableRecord
100
AcDbRegAppTableRecord
  2
GEVID1212656560
 70
     0
  0
APPID
  5
574
330
9
100
AcDbSymbolTableRecord
100
AcDbRegAppTableRecord
  2
GEVID1212656561
 70
     0
  0
APPID
  5
575
330
9
100
AcDbSymbolTableRecord
100
AcDbRegAppTableRecord
  2
GEVID1212656562
 70
     0
  0
APPID
  5
576
330
9
100
AcDbSymbolTableRecord
100
AcDbRegAppTableRecord
  2
GEVID1212656563
 70
     0
  0
APPID
  5
577
330
9
100
AcDbSymbolTableRecord
100
AcDbRegAppTableRecord
  2
GEVID1212711781
 70
     0
  0
APPID
  5
578
330
9
100
AcDbSymbolTableRecord
100
AcDbRegAppTableRecord
  2
GEVID1212711782
 70
     0
  0
APPID
  5
579
330
9
100
AcDbSymbolTableRecord
100
AcDbRegAppTableRecord
  2
GEVID1212711783
 70
     0
  0
APPID
  5
57A
330
9
100
AcDbSymbolTableRecord
100
AcDbRegAppTableRecord
  2
GEVID1212711784
 70
     0
  0
APPID
  5
57B
330
9
100
AcDbSymbolTableRecord
100
AcDbRegAppTableRecord
  2
GEVID1212711788
 70
     0
  0
APPID
  5
57C
330
9
100
AcDbSymbolTableRecord
100
AcDbRegAppTableRecord
  2
GEVID1212711789
 70
     0
  0
APPID
  5
57D
330
9
100
AcDbSymbolTableRecord
100
AcDbRegAppTableRecord
  2
GEVID1212711790
 70
     0
  0
APPID
  5
57E
330
9
100
AcDbSymbolTableRecord
100
AcDbRegAppTableRecord
  2
GEVID1212711791
 70
     0
  0
APPID
  5
57F
330
9
100
AcDbSymbolTableRecord
100
AcDbRegAppTableRecord
  2
GEVID1212711792
 70
     0
  0
APPID
  5
580
330
9
100
AcDbSymbolTableRecord
100
AcDbRegAppTableRecord
  2
GEVID1212711793
 70
     0
  0
APPID
  5
581
330
9
100
AcDbSymbolTableRecord
100
AcDbRegAppTableRecord
  2
GEVID1212711794
 70
     0
  0
APPID
  5
582
330
9
100
AcDbSymbolTableRecord
100
AcDbRegAppTableRecord
  2
GEVID1212711795
 70
     0
  0
APPID
  5
583
330
9
100
AcDbSymbolTableRecord
100
AcDbRegAppTableRecord
  2
GEVID1212711797
 70
     0
  0
APPID
  5
584
330
9
100
AcDbSymbolTableRecord
100
AcDbRegAppTableRecord
  2
GEVID1212711798
 70
     0
  0
APPID
  5
585
330
9
100
AcDbSymbolTableRecord
100
AcDbRegAppTableRecord
  2
GEVID1212711799
 70
     0
  0
APPID
  5
586
330
9
100
AcDbSymbolTableRecord
100
AcDbRegAppTableRecord
  2
GEVID1212711800
 70
     0
  0
APPID
  5
587
330
9
100
AcDbSymbolTableRecord
100
AcDbRegAppTableRecord
  2
GEVID1212711801
 70
     0
  0
APPID
  5
588
330
9
100
AcDbSymbolTableRecord
100
AcDbRegAppTableRecord
  2
GEVID1212711802
 70
     0
  0
APPID
  5
589
330
9
100
AcDbSymbolTableRecord
100
AcDbRegAppTableRecord
  2
GEVID1212711803
 70
     0
  0
APPID
  5
58A
330
9
100
AcDbSymbolTableRecord
100
AcDbRegAppTableRecord
  2
GEVID1212711804
 70
     0
  0
APPID
  5
58B
330
9
100
AcDbSymbolTableRecord
100
AcDbRegAppTableRecord
  2
GEVID1212711805
 70
     0
  0
APPID
  5
58C
330
9
100
AcDbSymbolTableRecord
100
AcDbRegAppTableRecord
  2
GEVID1212711806
 70
     0
  0
APPID
  5
58D
330
9
100
AcDbSymbolTableRecord
100
AcDbRegAppTableRecord
  2
GEVID1212711807
 70
     0
  0
APPID
  5
58E
330
9
100
AcDbSymbolTableRecord
100
AcDbRegAppTableRecord
  2
GEVID1212711808
 70
     0
  0
APPID
  5
58F
330
9
100
AcDbSymbolTableRecord
100
AcDbRegAppTableRecord
  2
GEVID1212711809
 70
     0
  0
APPID
  5
590
330
9
100
AcDbSymbolTableRecord
100
AcDbRegAppTableRecord
  2
GEVID1212711810
 70
     0
  0
APPID
  5
591
330
9
100
AcDbSymbolTableRecord
100
AcDbRegAppTableRecord
  2
GEVID1212711811
 70
     0
  0
APPID
  5
90A
330
9
100
AcDbSymbolTableRecord
100
AcDbRegAppTableRecord
  2
GENIUS_GENTRA_14
 70
     0
  0
APPID
  5
919
330
9
100
AcDbSymbolTableRecord
100
AcDbRegAppTableRecord
  2
GENIUS_GENOBJ-N-TIT_13
 70
     0
  0
APPID
  5
91A
330
9
100
AcDbSymbolTableRecord
100
AcDbRegAppTableRecord
  2
GENIUS_GENTITLE_13
 70
     0
  0
APPID
  5
949
330
9
100
AcDbSymbolTableRecord
100
AcDbRegAppTableRecord
  2
GENIUS_GENBLLY_14
 70
     0
  0
APPID
  5
DDD
330
9
100
AcDbSymbolTableRecord
100
AcDbRegAppTableRecord
  2
GEVID1213165152
 70
     0
  0
APPID
  5
12F9
330
9
100
AcDbSymbolTableRecord
100
AcDbRegAppTableRecord
  2
AcDbDynamicBlockTrueName
 70
     0
  0
APPID
  5
12FA
330
9
100
AcDbSymbolTableRecord
100
AcDbRegAppTableRecord
  2
ACDBBLOCKREPETAG
 70
     0
  0
APPID
  5
1C15
330
9
100
AcDbSymbolTableRecord
100
AcDbRegAppTableRecord
  2
GEVID1214872427
 70
     0
  0
APPID
  5
1C2A
330
9
100
AcDbSymbolTableRecord
100
AcDbRegAppTableRecord
  2
GEVID1214872428
 70
     0
  0
APPID
  5
1C2F
330
9
100
AcDbSymbolTableRecord
100
AcDbRegAppTableRecord
  2
GEVID1214872429
 70
     0
  0
APPID
  5
1C33
330
9
100
AcDbSymbolTableRecord
100
AcDbRegAppTableRecord
  2
GEVID1214872430
 70
     0
  0
APPID
  5
1C3F
330
9
100
AcDbSymbolTableRecord
100
AcDbRegAppTableRecord
  2
GEVID1214872432
 70
     0
  0
APPID
  5
1C4E
330
9
100
AcDbSymbolTableRecord
100
AcDbRegAppTableRecord
  2
GEVID1214872433
 70
     0
  0
APPID
  5
20DC
330
9
100
AcDbSymbolTableRecord
100
AcDbRegAppTableRecord
  2
AcDbDynamicBlockGUID
 70
     0
  0
APPID
  5
20FD
330
9
100
AcDbSymbolTableRecord
100
AcDbRegAppTableRecord
  2
GENIUS_GENOBJ-N-REV_13
 70
     0
  0
APPID
  5
20FE
330
9
100
AcDbSymbolTableRecord
100
AcDbRegAppTableRecord
  2
GENIUS_GENOBJ-N-RSSYM_13
 70
     0
  0
APPID
  5
20FF
330
9
100
AcDbSymbolTableRecord
100
AcDbRegAppTableRecord
  2
GENIUS_GENSYMENT_13
 70
     0
  0
APPID
  5
2100
330
9
100
AcDbSymbolTableRecord
100
AcDbRegAppTableRecord
  2
GENIUS_GENSCSYM_13
 70
     0
  0
APPID
  5
4DDE
330
9
100
AcDbSymbolTableRecord
100
AcDbRegAppTableRecord
  2
GEVID1242607859
 70
     0
  0
APPID
  5
4DE3
330
9
100
AcDbSymbolTableRecord
100
AcDbRegAppTableRecord
  2
GEVID1242607860
 70
     0
  0
APPID
  5
528E
330
9
100
AcDbSymbolTableRecord
100
AcDbRegAppTableRecord
  2
GEVID1242607861
 70
     0
  0
APPID
  5
5292
330
9
100
AcDbSymbolTableRecord
100
AcDbRegAppTableRecord
  2
GEVID1242607862
 70
     0
  0
ENDTAB
  0
TABLE
  2
DIMSTYLE
  5
A
330
0
100
AcDbSymbolTable
 70
    29
100
AcDbDimStyleTable
 71
     1
340
5AB
  0
DIMSTYLE
105
5AB
330
A
100
AcDbSymbolTableRecord
100
AcDbDimStyleTableRecord
  2
SEISA
 70
     0
  4
"
 40
4.0
 41
2.5
 42
0.625
 43
10.0
 44
0.625
 47
0.1
 48
0.1
 73
     0
 74
     0
 77
     3
 78
     8
 79
     2
 90
     1
140
3.5
141
0.0
143
0.0393701
146
0.71
147
1.5
172
     1
176
     3
177
     3
178
     3
271
     2
272
     2
283
     0
286
     8
340
5D5
341
69
342
69
371
    -1
372
    -1
1001
ACAD_DSTYLE_DIMJAG
1070
   388
1040
1.5
1001
ACAD_DSTYLE_DIMTALN
1070
   392
1070
     1
  0
DIMSTYLE
105
5E9
102
{ACAD_REACTORS
330
47BD
330
494D
330
4969
330
49DF
330
4A30
330
4BB1
330
4BC9
330
4BE1
330
4C1D
330
4C35
330
4C6A
330
4C9E
330
5CC7
330
5CF5
330
5D23
102
}
330
A
100
AcDbSymbolTableRecord
100
AcDbDimStyleTableRecord
  2
SEISA$0
 70
     0
  4
"
 40
4.0
 41
2.5
 42
0.625
 43
10.0
 44
0.625
 47
0.1
 48
0.1
 73
     0
 74
     0
 77
     3
 78
     8
 79
     2
 90
     1
140
3.5
141
0.0
143
0.0393701
146
0.71
147
1.5
172
     1
176
     3
177
     3
178
     3
271
     2
272
     2
283
     0
286
     8
340
5D5
341
69
342
69
371
    -1
372
    -1
  0
DIMSTYLE
105
5ED2
330
A
100
AcDbSymbolTableRecord
100
AcDbDimStyleTableRecord
  2
AM_ISO
 70
     0
  4
"
 41
2.5
 42
1.0
 43
10.0
 44
1.0
 47
0.1
 48
0.1
 73
     0
 74
     0
 77
     1
 78
     8
 79
     2
 90
     1
140
3.5
141
0.0
143
0.0393701
146
0.71
147
1.5
172
     1
176
   256
177
   256
178
     2
271
     2
272
     3
274
     4
283
     0
284
     8
340
11
371
    -1
372
    -1
  0
DIMSTYLE
105
5ED3
330
A
100
AcDbSymbolTableRecord
100
AcDbDimStyleTableRecord
  2
AM_ISO$3
 70
     0
  4
"
 41
2.5
 42
1.0
 43
10.0
 44
1.0
 47
0.1
 48
0.1
 73
     0
 77
     1
 78
     8
 79
     2
 90
     1
140
3.5
141
0.0
143
0.0393701
146
0.71
147
1.5
176
   256
177
   256
178
     2
271
     2
272
     3
274
     4
283
     0
284
     8
288
     1
289
     0
340
11
371
    -1
372
    -1
  0
DIMSTYLE
105
5ED4
330
A
100
AcDbSymbolTableRecord
100
AcDbDimStyleTableRecord
  2
AM_ISO$4
 70
     0
  4
"
 41
2.5
 42
1.0
 43
10.0
 44
1.0
 47
0.1
 48
0.1
 73
     0
 77
     1
 78
     8
 79
     2
 90
     1
140
3.5
141
0.0
143
0.0393701
146
0.71
147
1.5
176
   256
177
   256
178
     2
271
     2
272
     3
274
     4
283
     0
284
     8
288
     1
289
     0
340
11
371
    -1
372
    -1
  0
DIMSTYLE
105
5ED5
330
A
100
AcDbSymbolTableRecord
100
AcDbDimStyleTableRecord
  2
AM_ISO$6
 70
     0
  4
"
 41
2.5
 42
1.0
 43
10.0
 44
1.0
 47
0.1
 48
0.1
 73
     0
 74
     0
 78
     8
 79
     2
 90
     1
140
3.5
141
0.0
143
0.0393701
146
0.71
147
1.5
172
     1
176
   256
177
   256
178
     2
271
     2
272
     3
274
     4
283
     0
284
     8
340
11
371
    -1
372
    -1
  0
DIMSTYLE
105
5ED6
330
A
100
AcDbSymbolTableRecord
100
AcDbDimStyleTableRecord
  2
AM_ISO$7
 70
     0
  4
"
 41
2.5
 42
1.0
 43
10.0
 44
1.0
 47
0.1
 48
0.1
 73
     0
 74
     0
 77
     1
 78
     8
 79
     2
 90
     1
140
5.0
141
0.0
143
0.0393701
146
0.71
147
1.5
172
     1
176
   256
177
   256
178
     2
271
     2
272
     3
274
     4
283
     0
284
     8
340
11
371
    -1
372
    -1
  0
DIMSTYLE
105
5ED7
330
A
100
AcDbSymbolTableRecord
100
AcDbDimStyleTableRecord
  2
AM_ISO$SF
 70
     0
  4
"
 41
2.5
 42
1.0
 43
10.0
 44
1.0
 47
0.1
 48
0.1
 73
     0
 74
     0
 75
     1
 76
     1
 77
     1
 78
     8
 79
     2
 90
     1
140
3.5
141
0.0
143
0.0393701
146
0.71
147
1.5
172
     1
176
   256
177
   256
178
     2
271
     2
272
     3
274
     4
283
     0
284
     8
340
11
371
    -1
372
    -1
  0
DIMSTYLE
105
5ED8
330
A
100
AcDbSymbolTableRecord
100
AcDbDimStyleTableRecord
  2
AM_ISO$SH
 70
     0
  4
"
 41
2.5
 42
1.0
 43
10.0
 44
1.0
 47
0.1
 48
0.1
 73
     0
 74
     0
 75
     1
 76
     1
 77
     1
 78
     8
 79
     2
 90
     1
140
3.5
141
0.0
143
0.0393701
144
2.0
146
0.71
147
1.5
172
     1
173
     1
176
   256
177
   256
178
     2
271
     2
272
     3
274
     4
283
     0
284
     8
340
11
343
74
371
    -1
372
    -1
  0
ENDTAB
  0
TABLE
  2
BLOCK_RECORD
  5
1
330
0
100
AcDbSymbolTable
 70
    31
  0
BLOCK_RECORD
  5
1F
102
{ACAD_XDICTIONARY
360
82
102
}
330
1
100
AcDbSymbolTableRecord
100
AcDbBlockTableRecord
  2
*Model_Space
340
22
 70
     0
280
     1
281
     0
  0
BLOCK_RECORD
  5
1B
330
1
100
AcDbSymbolTableRecord
100
AcDbBlockTableRecord
  2
*Paper_Space
340
1E
 70
     0
280
     1
281
     0
  0
BLOCK_RECORD
  5
23
330
1
100
AcDbSymbolTableRecord
100
AcDbBlockTableRecord
  2
*Paper_Space0
340
26
 70
     0
280
     1
281
     0
  0
BLOCK_RECORD
  5
69
330
1
100
AcDbSymbolTableRecord
100
AcDbBlockTableRecord
  2
_Open30
340
0
102
{BLKREFS
331
50A6
331
50A7
331
50E9
331
50EA
331
5118
331
5119
331
5121
331
5122
331
512A
331
512B
331
5133
331
5134
331
514A
331
514B
331
5160
331
5161
331
55C2
331
55C3
331
55E4
331
55FA
331
5B99
331
5B9A
331
5CEF
331
5CF0
331
5D47
331
5D48
331
5D5D
331
5D5E
102
}
 70
     0
280
     1
281
     0
  0
BLOCK_RECORD
  5
74
330
1
100
AcDbSymbolTableRecord
100
AcDbBlockTableRecord
  2
GENAXEH
340
0
 70
     0
280
     1
281
     0
  0
BLOCK_RECORD
  5
3455
102
{ACAD_XDICTIONARY
360
3456
102
}
330
1
100
AcDbSymbolTableRecord
100
AcDbBlockTableRecord
  2
ジュウジマルコネジ
340
0
310
2800000020000000200000000100080000000000000400000000000000000000000000000000000000000000000080000080000000808000800000008000800080800000C0C0C000C0DCC000F0CAA6000020400000206000002080000020A0000020C0000020E00000400000004020000040400000406000004080000040A0
310
000040C0000040E00000600000006020000060400000606000006080000060A0000060C0000060E00000800000008020000080400000806000008080000080A0000080C0000080E00000A0000000A0200000A0400000A0600000A0800000A0A00000A0C00000A0E00000C0000000C0200000C0400000C0600000C0800000C0
310
A00000C0C00000C0E00000E0000000E0200000E0400000E0600000E0800000E0A00000E0C00000E0E00040000000400020004000400040006000400080004000A0004000C0004000E00040200000402020004020400040206000402080004020A0004020C0004020E000404000004040200040404000404060004040800040
310
40A0004040C0004040E00040600000406020004060400040606000406080004060A0004060C0004060E00040800000408020004080400040806000408080004080A0004080C0004080E00040A0000040A0200040A0400040A0600040A0800040A0A00040A0C00040A0E00040C0000040C0200040C0400040C0600040C08000
310
40C0A00040C0C00040C0E00040E0000040E0200040E0400040E0600040E0800040E0A00040E0C00040E0E00080000000800020008000400080006000800080008000A0008000C0008000E00080200000802020008020400080206000802080008020A0008020C0008020E00080400000804020008040400080406000804080
310
008040A0008040C0008040E00080600000806020008060400080606000806080008060A0008060C0008060E00080800000808020008080400080806000808080008080A0008080C0008080E00080A0000080A0200080A0400080A0600080A0800080A0A00080A0C00080A0E00080C0000080C0200080C0400080C0600080C0
310
800080C0A00080C0C00080C0E00080E0000080E0200080E0400080E0600080E0800080E0A00080E0C00080E0E000C0000000C0002000C0004000C0006000C0008000C000A000C000C000C000E000C0200000C0202000C0204000C0206000C0208000C020A000C020C000C020E000C0400000C0402000C0404000C0406000C0
310
408000C040A000C040C000C040E000C0600000C0602000C0604000C0606000C0608000C060A000C060C000C060E000C0800000C0802000C0804000C0806000C0808000C080A000C080C000C080E000C0A00000C0A02000C0A04000C0A06000C0A08000C0A0A000C0A0C000C0A0E000C0C00000C0C02000C0C04000C0C06000
310
C0C08000C0C0A000F0FBFF00A4A0A000808080000000FF0000FF000000FFFF00FF000000FF00FF00FFFF0000FFFFFF0000000000000000000000000000000000000000000000000000000000000000000000000000000000000000000000000000000000000000000000000000000000000000000000000000000000FFFFFF
310
0000000000000000000000000000000000000000000000000000000000FF00000000000000000000000000000000000000000000000000000000000000FF000000000000000000000000000000000000000000000000000000FFFFFFFFFF0000000000000000000000000000000000000000000000000000FFFF000000FF00
310
000000000000000000000000000000000000000000000000FFFF00000000FF000000000000000000000000000000000000000000000000FFFF0000000000FF000000000000000000000000000000000000000000000000FF000000000000FFFFFFFFFFFFFFFFFFFFFFFFFFFFFFFF0000000000000000FFFF000000000000FF
310
FFFFFFFFFFFFFFFFFFFFFFFFFFFFFFFF00000000000000FF00000000000000FF0000000000000000000000000000FFFF00000000000000FF00000000000000FF0000000000000000000000000000FFFF000000000000FFFF00000000000000FF0000000000000000000000000000FFFF000000000000FF0000000000000000
310
FF0000000000000000000000000000FFFF000000000000FF0000000000000000FF0000000000000000000000000000FFFF00000000F9F9FFF9F9F9F9F9F9F9F9FFF9F9F9F9F9F9F9F9F9F9F9F9F9F9FFFFF9F900000000FF0000000000000000FF0000000000000000000000000000FFFF000000000000FFFF000000000000
310
00FF0000000000000000000000000000FFFF00000000000000FF00000000000000FF0000000000000000000000000000FFFF00000000000000FF00000000000000FF0000000000000000000000000000FFFF00000000000000FFFF000000000000FFFFFFFFFFFFFFFFFFFFFFFFFFFFFFFFFF0000000000000000FF00000000
310
0000FFFFFFFFFFFFFFFFFFFFFFFFFFFFFFFF000000000000000000FFFF0000000000FF00000000000000000000000000000000000000000000000000FFFF00000000FF0000000000000000000000000000000000000000000000000000FFFF000000FF000000000000000000000000000000000000000000000000000000FF
310
FFFFFFFF00000000000000000000000000000000000000000000000000000000000000FF00000000000000000000000000000000000000000000000000000000000000FF00000000000000000000000000000000000000000000000000000000000000FFFFFF00000000000000000000000000000000000000000000000000
310
0000000000000000000000000000000000000000000000000000000000000000000000000000000000000000000000000000000000000000
102
{BLKREFS
331
45F5
102
}
 70
     4
280
     1
281
     1
  0
BLOCK_RECORD
  5
3580
330
1
100
AcDbSymbolTableRecord
100
AcDbBlockTableRecord
  2
GENDOT
340
0
102
{BLKREFS
331
55E3
331
55F9
102
}
 70
     0
280
     1
281
     0
  0
BLOCK_RECORD
  5
424A
102
{ACAD_XDICTIONARY
360
42B0
102
}
330
1
100
AcDbSymbolTableRecord
100
AcDbBlockTableRecord
  2
センタＡ SMVH400
340
0
310
2800000020000000200000000100080000000000000400000000000000000000000000000000000000000000000080000080000000808000800000008000800080800000C0C0C000C0DCC000F0CAA6000020400000206000002080000020A0000020C0000020E00000400000004020000040400000406000004080000040A0
310
000040C0000040E00000600000006020000060400000606000006080000060A0000060C0000060E00000800000008020000080400000806000008080000080A0000080C0000080E00000A0000000A0200000A0400000A0600000A0800000A0A00000A0C00000A0E00000C0000000C0200000C0400000C0600000C0800000C0
310
A00000C0C00000C0E00000E0000000E0200000E0400000E0600000E0800000E0A00000E0C00000E0E00040000000400020004000400040006000400080004000A0004000C0004000E00040200000402020004020400040206000402080004020A0004020C0004020E000404000004040200040404000404060004040800040
310
40A0004040C0004040E00040600000406020004060400040606000406080004060A0004060C0004060E00040800000408020004080400040806000408080004080A0004080C0004080E00040A0000040A0200040A0400040A0600040A0800040A0A00040A0C00040A0E00040C0000040C0200040C0400040C0600040C08000
310
40C0A00040C0C00040C0E00040E0000040E0200040E0400040E0600040E0800040E0A00040E0C00040E0E00080000000800020008000400080006000800080008000A0008000C0008000E00080200000802020008020400080206000802080008020A0008020C0008020E00080400000804020008040400080406000804080
310
008040A0008040C0008040E00080600000806020008060400080606000806080008060A0008060C0008060E00080800000808020008080400080806000808080008080A0008080C0008080E00080A0000080A0200080A0400080A0600080A0800080A0A00080A0C00080A0E00080C0000080C0200080C0400080C0600080C0
310
800080C0A00080C0C00080C0E00080E0000080E0200080E0400080E0600080E0800080E0A00080E0C00080E0E000C0000000C0002000C0004000C0006000C0008000C000A000C000C000C000E000C0200000C0202000C0204000C0206000C0208000C020A000C020C000C020E000C0400000C0402000C0404000C0406000C0
310
408000C040A000C040C000C040E000C0600000C0602000C0604000C0606000C0608000C060A000C060C000C060E000C0800000C0802000C0804000C0806000C0808000C080A000C080C000C080E000C0A00000C0A02000C0A04000C0A06000C0A08000C0A0A000C0A0C000C0A0E000C0C00000C0C02000C0C04000C0C06000
310
C0C08000C0C0A000F0FBFF00A4A0A000808080000000FF0000FF000000FFFF00FF000000FF00FF00FFFF0000FFFFFF0000000000000000000000000000000000000000000000000000000000000000000000000000000000000000000000000000000000000000000000000000000000000000000000000000000000000000
310
000000000000000000000000000000000000000000000000000000000000000000000000000000000000000000000000000000000000000000000000000000000000000000000000000000000000000000000000000000000000000000000000000000000000000000000000000000000000000000FFFFFFFFFFFFFFFFFFFF
310
FFFFFFFFFFFFFFFFFFFFFFFFFFFFFFFF0000000000FF00000000FFFF0000000000000000000000000000000000000000FF00000000FF00000000FFFF0000000000000000000000000000000000000000FF00000000FF00000000FFFF0000000000000000000000000000000000000000FF00000000FF00000000FFFF000000
310
0000000000000000000000000000000000FF00000000FF00000000FFFF0000000000000000000000000000000000000000FF00000000FF00000000FFFF000000000000FFFFFFFFFFFFFFFFFFFFFFFFFFFFFF00000000FF00000000FFFF0000000000000000000000000000000000000000FF00000000FF00000000FFFF0000
310
000000000000000000000000000000000000FF00000000FF00000000FFFF0000000000000000000000000000000000000000FF00000000FF00000000FFFF000000000000000000000000000000000000000000000000FFFF00000000FFFF000000000000000000000000000000000000000000000000FFFF00000000FFFF00
310
0000000000000000000000000000000000000000000000FFFF00000000FFFF0000000000000000000000000000000000000000000000F9FFFF00000000FFFF000000000000000000000000000000000000000000000000FFFF00000000FFFF000000000000000000000000000000000000000000000000FFFF00000000FFFF
310
00000000000000000000000000000000000000000000000000FF00000000FFFF00000000000000000000000000000000000000000000000000FF00000000FFFF00000000000000000000000000000000000000000000000000FFFFFFFFFFFFFFFFFFFFFFFFFFFF000000000000000000000000000000000000000000000000
310
00000000000000000000000000000000000000000000000000000000000000000000000000000000000000000000000000000000000000000000000000000000000000000000000000000000000000000000000000000000000000000000000000000000000000000000000000000000000000000000000000000000000000
310
0000000000000000000000000000000000000000000000000000000000000000000000000000000000000000000000000000000000000000
102
{BLKREFS
331
426A
102
}
 70
     4
280
     1
281
     1
  0
BLOCK_RECORD
  5
432F
102
{ACAD_XDICTIONARY
360
43F1
102
}
330
1
100
AcDbSymbolTableRecord
100
AcDbBlockTableRecord
  2
ケースＡ SMVH400
340
0
310
2800000020000000200000000100080000000000000400000000000000000000000000000000000000000000000080000080000000808000800000008000800080800000C0C0C000C0DCC000F0CAA6000020400000206000002080000020A0000020C0000020E00000400000004020000040400000406000004080000040A0
310
000040C0000040E00000600000006020000060400000606000006080000060A0000060C0000060E00000800000008020000080400000806000008080000080A0000080C0000080E00000A0000000A0200000A0400000A0600000A0800000A0A00000A0C00000A0E00000C0000000C0200000C0400000C0600000C0800000C0
310
A00000C0C00000C0E00000E0000000E0200000E0400000E0600000E0800000E0A00000E0C00000E0E00040000000400020004000400040006000400080004000A0004000C0004000E00040200000402020004020400040206000402080004020A0004020C0004020E000404000004040200040404000404060004040800040
310
40A0004040C0004040E00040600000406020004060400040606000406080004060A0004060C0004060E00040800000408020004080400040806000408080004080A0004080C0004080E00040A0000040A0200040A0400040A0600040A0800040A0A00040A0C00040A0E00040C0000040C0200040C0400040C0600040C08000
310
40C0A00040C0C00040C0E00040E0000040E0200040E0400040E0600040E0800040E0A00040E0C00040E0E00080000000800020008000400080006000800080008000A0008000C0008000E00080200000802020008020400080206000802080008020A0008020C0008020E00080400000804020008040400080406000804080
310
008040A0008040C0008040E00080600000806020008060400080606000806080008060A0008060C0008060E00080800000808020008080400080806000808080008080A0008080C0008080E00080A0000080A0200080A0400080A0600080A0800080A0A00080A0C00080A0E00080C0000080C0200080C0400080C0600080C0
310
800080C0A00080C0C00080C0E00080E0000080E0200080E0400080E0600080E0800080E0A00080E0C00080E0E000C0000000C0002000C0004000C0006000C0008000C000A000C000C000C000E000C0200000C0202000C0204000C0206000C0208000C020A000C020C000C020E000C0400000C0402000C0404000C0406000C0
310
408000C040A000C040C000C040E000C0600000C0602000C0604000C0606000C0608000C060A000C060C000C060E000C0800000C0802000C0804000C0806000C0808000C080A000C080C000C080E000C0A00000C0A02000C0A04000C0A06000C0A08000C0A0A000C0A0C000C0A0E000C0C00000C0C02000C0C04000C0C06000
310
C0C08000C0C0A000F0FBFF00A4A0A000808080000000FF0000FF000000FFFF00FF000000FF00FF00FFFF0000FFFFFF0000000000000000000000000000000000000000000000000000000000000000000000000000000000000000000000000000000000000000000000000000000000000000000000000000000000000000
310
00000000000000000000000000000000000000000000000000000000000000000000000000000000000000000000000000000000000000000000000000000000000000000000000000000000000000000000000000000000000000000000000000000000000000000000000000000000000000000000000000000000000000
310
00000000000000000000000000000000000000000000000000000000000000000000000000000000000000000000000000000000000000000000000000000000000000000000000000000000000000000000000000000000000000000000000000000000000000000000000000000000000000000000FFFFFF000000000000
310
000000FFFFFFFFFFFFFFFFFFFFFFFF0000000000000000FFFFFF0000000000000000000000000000000000000000FF0000000000000000FFA4000000000000000000000000000000000000000000FF0000000000000000FFA4000000000000000000000000000000000000000000FF0000000000000000FFA4000000000000
310
000000000000000000000000000000FF0000000000000000FFFF000000000000000000000000000000000000000000FFF90000000000FFFFFFFF00000000000000000000FFFFFFFFFFFFFFFFFFFFFFFFFFFFFF0000F9FFFFFFFF00000000000000000000000000000000000000000000F900FF000000FF00FFFF0000000000
310
0000000000FFFFFFFFFFFFFFFFFFFFFFFFFFFFFF0000000000000000000000000000000000000000000000000000000000F900000000000000000000000000000000000000000000000000000000000000F900000000000000000000000000000000000000000000000000000000000000F900000000000000000000000000
310
00000000000000000000000000000000000000000000000000000000000000000000000000000000000000000000000000000000000000000000000000000000000000000000000000000000000000000000000000000000000000000000000000000000000000000000000000000000000000000000000000000000000000
310
00000000000000000000000000000000000000000000000000000000000000000000000000000000000000000000000000000000000000000000000000000000000000000000000000000000000000000000000000000000000000000000000000000000000000000000000000000000000000000000000000000000000000
310
0000000000000000000000000000000000000000000000000000000000000000000000000000000000000000000000000000000000000000
102
{BLKREFS
331
436D
102
}
 70
     4
280
     1
281
     1
  0
BLOCK_RECORD
  5
44B4
102
{ACAD_XDICTIONARY
360
4528
102
}
330
1
100
AcDbSymbolTableRecord
100
AcDbBlockTableRecord
  2
センタB SMVH400
340
0
310
2800000020000000200000000100080000000000000400000000000000000000000000000000000000000000000080000080000000808000800000008000800080800000C0C0C000C0DCC000F0CAA6000020400000206000002080000020A0000020C0000020E00000400000004020000040400000406000004080000040A0
310
000040C0000040E00000600000006020000060400000606000006080000060A0000060C0000060E00000800000008020000080400000806000008080000080A0000080C0000080E00000A0000000A0200000A0400000A0600000A0800000A0A00000A0C00000A0E00000C0000000C0200000C0400000C0600000C0800000C0
310
A00000C0C00000C0E00000E0000000E0200000E0400000E0600000E0800000E0A00000E0C00000E0E00040000000400020004000400040006000400080004000A0004000C0004000E00040200000402020004020400040206000402080004020A0004020C0004020E000404000004040200040404000404060004040800040
310
40A0004040C0004040E00040600000406020004060400040606000406080004060A0004060C0004060E00040800000408020004080400040806000408080004080A0004080C0004080E00040A0000040A0200040A0400040A0600040A0800040A0A00040A0C00040A0E00040C0000040C0200040C0400040C0600040C08000
310
40C0A00040C0C00040C0E00040E0000040E0200040E0400040E0600040E0800040E0A00040E0C00040E0E00080000000800020008000400080006000800080008000A0008000C0008000E00080200000802020008020400080206000802080008020A0008020C0008020E00080400000804020008040400080406000804080
310
008040A0008040C0008040E00080600000806020008060400080606000806080008060A0008060C0008060E00080800000808020008080400080806000808080008080A0008080C0008080E00080A0000080A0200080A0400080A0600080A0800080A0A00080A0C00080A0E00080C0000080C0200080C0400080C0600080C0
310
800080C0A00080C0C00080C0E00080E0000080E0200080E0400080E0600080E0800080E0A00080E0C00080E0E000C0000000C0002000C0004000C0006000C0008000C000A000C000C000C000E000C0200000C0202000C0204000C0206000C0208000C020A000C020C000C020E000C0400000C0402000C0404000C0406000C0
310
408000C040A000C040C000C040E000C0600000C0602000C0604000C0606000C0608000C060A000C060C000C060E000C0800000C0802000C0804000C0806000C0808000C080A000C080C000C080E000C0A00000C0A02000C0A04000C0A06000C0A08000C0A0A000C0A0C000C0A0E000C0C00000C0C02000C0C04000C0C06000
310
C0C08000C0C0A000F0FBFF00A4A0A000808080000000FF0000FF000000FFFF00FF000000FF00FF00FFFF0000FFFFFF0000000000000000000000000000000000000000000000000000000000000000000000000000000000000000000000000000000000000000000000000000000000000000000000000000000000000000
310
0000000000000000000000000000000000000000000000000000000000000000000000000000000000000000000000000000000000000000000000000000000000000000000000000000000000000000000000000000000000000000000000000000000000000000000000000000000000000000FFFFFFFFFFFFFFFFFFFFFF
310
FFFFA4000000000000000000000000000000000000FF00000000FFFF000000000000A4000000000000000000000000000000000000FF00000000FFFF000000000000A40000000000000000000000000000000000FFFF00000000FFFF000000000000A40000000000000000000000000000000000FFFF00000000FFFF000000
310
000000A400000000000000000000000000000000F9FFFF00000000FFFF000000000000000000000000000000000000000000000000FFFF00000000FFFF000000000000000000000000000000000000000000000000FFFF00000000FFFF000000000000000000000000000000000000000000000000FFFF00000000FFFF0000
310
0000000000000000000000000000000000000000000000FF00000000FFFF00000000000000000000000000000000000000000000000000FF00000000FFFF0000000000000000000000000000000000000000FF00000000FF00000000FFFF0000000000000000000000000000000000000000FF00000000FF00000000FFFF00
310
00000000000000000000000000000000000000FF00000000FF00000000FFFF000000000000FFFFFFFFFFFFFFFFFFFFFFFFFFFFFF00000000FF00000000FFFF0000000000000000000000000000000000000000FF00000000FF00000000FFFF0000000000000000000000000000000000000000FF00000000FF00000000FFFF
310
0000000000000000000000000000000000000000FF00000000FF00000000FFFF0000000000000000000000000000000000000000FF00000000FF00000000FFFF0000000000000000000000000000000000000000FF0000000000FFFFFFFFFFFFFFFFFFFFFFFFFFFFFFFFFFFFFFFFFFFFFFFFFFFF0000000000000000000000
310
00000000000000000000000000000000000000000000000000000000000000000000000000000000000000000000000000000000000000000000000000000000000000000000000000000000000000000000000000000000000000000000000000000000000000000000000000000000000000000000000000000000000000
310
0000000000000000000000000000000000000000000000000000000000000000000000000000000000000000000000000000000000000000
102
{BLKREFS
331
44DB
102
}
 70
     4
280
     1
281
     1
  0
BLOCK_RECORD
  5
45B1
102
{ACAD_XDICTIONARY
360
4684
102
}
330
1
100
AcDbSymbolTableRecord
100
AcDbBlockTableRecord
  2
ケースＢ SMVH400
340
0
310
2800000020000000200000000100080000000000000400000000000000000000000000000000000000000000000080000080000000808000800000008000800080800000C0C0C000C0DCC000F0CAA6000020400000206000002080000020A0000020C0000020E00000400000004020000040400000406000004080000040A0
310
000040C0000040E00000600000006020000060400000606000006080000060A0000060C0000060E00000800000008020000080400000806000008080000080A0000080C0000080E00000A0000000A0200000A0400000A0600000A0800000A0A00000A0C00000A0E00000C0000000C0200000C0400000C0600000C0800000C0
310
A00000C0C00000C0E00000E0000000E0200000E0400000E0600000E0800000E0A00000E0C00000E0E00040000000400020004000400040006000400080004000A0004000C0004000E00040200000402020004020400040206000402080004020A0004020C0004020E000404000004040200040404000404060004040800040
310
40A0004040C0004040E00040600000406020004060400040606000406080004060A0004060C0004060E00040800000408020004080400040806000408080004080A0004080C0004080E00040A0000040A0200040A0400040A0600040A0800040A0A00040A0C00040A0E00040C0000040C0200040C0400040C0600040C08000
310
40C0A00040C0C00040C0E00040E0000040E0200040E0400040E0600040E0800040E0A00040E0C00040E0E00080000000800020008000400080006000800080008000A0008000C0008000E00080200000802020008020400080206000802080008020A0008020C0008020E00080400000804020008040400080406000804080
310
008040A0008040C0008040E00080600000806020008060400080606000806080008060A0008060C0008060E00080800000808020008080400080806000808080008080A0008080C0008080E00080A0000080A0200080A0400080A0600080A0800080A0A00080A0C00080A0E00080C0000080C0200080C0400080C0600080C0
310
800080C0A00080C0C00080C0E00080E0000080E0200080E0400080E0600080E0800080E0A00080E0C00080E0E000C0000000C0002000C0004000C0006000C0008000C000A000C000C000C000E000C0200000C0202000C0204000C0206000C0208000C020A000C020C000C020E000C0400000C0402000C0404000C0406000C0
310
408000C040A000C040C000C040E000C0600000C0602000C0604000C0606000C0608000C060A000C060C000C060E000C0800000C0802000C0804000C0806000C0808000C080A000C080C000C080E000C0A00000C0A02000C0A04000C0A06000C0A08000C0A0A000C0A0C000C0A0E000C0C00000C0C02000C0C04000C0C06000
310
C0C08000C0C0A000F0FBFF00A4A0A000808080000000FF0000FF000000FFFF00FF000000FF00FF00FFFF0000FFFFFF0000000000000000000000000000000000000000000000000000000000000000000000000000000000000000000000000000000000000000000000000000000000000000000000000000000000000000
310
00000000000000000000000000000000000000000000000000000000000000000000000000000000000000000000000000000000000000000000000000000000000000000000000000000000000000000000000000000000000000000000000000000000000000000000000000000000000000000000000000000000000000
310
00000000000000000000000000000000000000000000000000000000000000000000000000000000000000000000000000000000000000000000000000000000000000000000000000000000000000000000000000000000000000000000000000000000000000000000000000000000000000000000000000000000000000
310
00000000000000000000000000000000000000000000000000000000000000000000000000000000000000000000000000000000F9FFFFFFFF000000000000000000000000000000000000000000000000FF000000FFFFFFFF00000000000000000000FFFFFFFFFFFFFFFFFFFFFFFFFFFFFF0000000000FFFF000000000000
310
000000000000000000000000000000FF0000000000000000FFFF000000000000000000000000000000000000000000FF0000000000000000FFFF000000000000000000000000000000000000000000FF0000000000000000FFFF000000000000000000000000000000000000000000FF0000000000000000FFFFFF00000000
310
00000000000000000000000000000000FF0000000000000000FFFFFF000000000000000000FFFFFFFFFFFFFFFFFFFFFFFF000000000000000000000000000000000000000000000000000000000000000000000000000000000000000000000000000000000000000000000000000000000000000000000000000000000000
310
00000000000000000000000000000000000000000000000000000000000000000000000000000000000000000000000000000000000000000000000000000000000000000000000000000000000000000000000000000000000000000000000000000000000000000000000000000000000000000000000000000000000000
310
00000000000000000000000000000000000000000000000000000000000000000000000000000000000000000000000000000000000000000000000000000000000000000000000000000000000000000000000000000000000000000000000000000000000000000000000000000000000000000000000000000000000000
310
0000000000000000000000000000000000000000000000000000000000000000000000000000000000000000000000000000000000000000
102
{BLKREFS
331
45F6
102
}
 70
     4
280
     1
281
     1
  0
BLOCK_RECORD
  5
46D1
102
{ACAD_XDICTIONARY
360
4746
102
}
330
1
100
AcDbSymbolTableRecord
100
AcDbBlockTableRecord
  2
リーマボルト SMVH400 M16
340
0
310
2800000020000000200000000100080000000000000400000000000000000000000000000000000000000000000080000080000000808000800000008000800080800000C0C0C000C0DCC000F0CAA6000020400000206000002080000020A0000020C0000020E00000400000004020000040400000406000004080000040A0
310
000040C0000040E00000600000006020000060400000606000006080000060A0000060C0000060E00000800000008020000080400000806000008080000080A0000080C0000080E00000A0000000A0200000A0400000A0600000A0800000A0A00000A0C00000A0E00000C0000000C0200000C0400000C0600000C0800000C0
310
A00000C0C00000C0E00000E0000000E0200000E0400000E0600000E0800000E0A00000E0C00000E0E00040000000400020004000400040006000400080004000A0004000C0004000E00040200000402020004020400040206000402080004020A0004020C0004020E000404000004040200040404000404060004040800040
310
40A0004040C0004040E00040600000406020004060400040606000406080004060A0004060C0004060E00040800000408020004080400040806000408080004080A0004080C0004080E00040A0000040A0200040A0400040A0600040A0800040A0A00040A0C00040A0E00040C0000040C0200040C0400040C0600040C08000
310
40C0A00040C0C00040C0E00040E0000040E0200040E0400040E0600040E0800040E0A00040E0C00040E0E00080000000800020008000400080006000800080008000A0008000C0008000E00080200000802020008020400080206000802080008020A0008020C0008020E00080400000804020008040400080406000804080
310
008040A0008040C0008040E00080600000806020008060400080606000806080008060A0008060C0008060E00080800000808020008080400080806000808080008080A0008080C0008080E00080A0000080A0200080A0400080A0600080A0800080A0A00080A0C00080A0E00080C0000080C0200080C0400080C0600080C0
310
800080C0A00080C0C00080C0E00080E0000080E0200080E0400080E0600080E0800080E0A00080E0C00080E0E000C0000000C0002000C0004000C0006000C0008000C000A000C000C000C000E000C0200000C0202000C0204000C0206000C0208000C020A000C020C000C020E000C0400000C0402000C0404000C0406000C0
310
408000C040A000C040C000C040E000C0600000C0602000C0604000C0606000C0608000C060A000C060C000C060E000C0800000C0802000C0804000C0806000C0808000C080A000C080C000C080E000C0A00000C0A02000C0A04000C0A06000C0A08000C0A0A000C0A0C000C0A0E000C0C00000C0C02000C0C04000C0C06000
310
C0C08000C0C0A000F0FBFF00A4A0A000808080000000FF0000FF000000FFFF00FF000000FF00FF00FFFF0000FFFFFF0000000000000000000000000000000000000000000000000000000000000000000000000000000000000000FFFFFFFFFFFFFFFFFFFF000000000000000000000000000000000000000000FFFFFFFFFF
310
FFFFFFFFFFFFFF0000000000000000000000000000000000000000FF0000FF00000000FF0000FF0000000000000000000000000000000000000000FF0000FF00000000FF0000FF0000000000000000000000000000000000000000FF0000FF00000000FF0000FF000000000000000000000000000000000000000000000000
310
00000000000000000000000000000000000000000000000000000000000000000000000000000000000000000000000000000000000000000000000000000000000000000000000000000000000000000000000000000000000000000000000000000000000000000000000000000000000000000000000000000000000000
310
00000000000000000000000000000000000000000000000000000000000000000000000000000000000000000000000000000000000000000000000000000000000000000000000000000000000000000000000000000000000000000000000000000000000000000000000000000000000000000000000000000000000000
310
00000000000000000000000000000000000000000000000000000000000000000000000000000000000000000000000000000000000000000000000000000000000000000000000000000000000000000000000000000000000000000000000000000000000000000000000000000000000000000000000000000000000000
310
0000000000000000000000000000000000000000000000000000000000000000000000000000000000000000000000000000000000000000000000000000000000000000000000000000000000000000000000000000000000000000000000FF0000000000FFFF000000FF0000000000000000000000000000000000000000
310
FFFFFFFFFFFFFFFFFFFFFFFF0000000000000000000000000000000000000000FF0000FF00000000FF0000FF0000000000000000000000000000000000000000FF0000FF00000000FF0000FF0000000000000000000000000000000000000000FF0000FF00000000FF0000FF00000000000000000000000000000000000000
310
00FF0000FF00000000FF0000FF0000000000000000000000000000000000000000FFFFFFFFFFFFFFFFFFFFFFFF00000000000000000000000000000000000000000000FFFF00000000FFFF000000000000000000000000000000000000000000000000FFFFFFFFFFFFFFFF0000000000000000000000000000000000000000
310
0000000000FFFFFFFFFFFF000000000000000000000000000000000000000000000000000000000000000000000000000000000000000000
102
{BLKREFS
331
46F7
102
}
 70
     4
280
     1
281
     1
  0
BLOCK_RECORD
  5
476B
102
{ACAD_XDICTIONARY
360
4792
102
}
330
1
100
AcDbSymbolTableRecord
100
AcDbBlockTableRecord
  2
スラストプレ－ト SMVH400
340
0
310
2800000020000000200000000100080000000000000400000000000000000000000000000000000000000000000080000080000000808000800000008000800080800000C0C0C000C0DCC000F0CAA6000020400000206000002080000020A0000020C0000020E00000400000004020000040400000406000004080000040A0
310
000040C0000040E00000600000006020000060400000606000006080000060A0000060C0000060E00000800000008020000080400000806000008080000080A0000080C0000080E00000A0000000A0200000A0400000A0600000A0800000A0A00000A0C00000A0E00000C0000000C0200000C0400000C0600000C0800000C0
310
A00000C0C00000C0E00000E0000000E0200000E0400000E0600000E0800000E0A00000E0C00000E0E00040000000400020004000400040006000400080004000A0004000C0004000E00040200000402020004020400040206000402080004020A0004020C0004020E000404000004040200040404000404060004040800040
310
40A0004040C0004040E00040600000406020004060400040606000406080004060A0004060C0004060E00040800000408020004080400040806000408080004080A0004080C0004080E00040A0000040A0200040A0400040A0600040A0800040A0A00040A0C00040A0E00040C0000040C0200040C0400040C0600040C08000
310
40C0A00040C0C00040C0E00040E0000040E0200040E0400040E0600040E0800040E0A00040E0C00040E0E00080000000800020008000400080006000800080008000A0008000C0008000E00080200000802020008020400080206000802080008020A0008020C0008020E00080400000804020008040400080406000804080
310
008040A0008040C0008040E00080600000806020008060400080606000806080008060A0008060C0008060E00080800000808020008080400080806000808080008080A0008080C0008080E00080A0000080A0200080A0400080A0600080A0800080A0A00080A0C00080A0E00080C0000080C0200080C0400080C0600080C0
310
800080C0A00080C0C00080C0E00080E0000080E0200080E0400080E0600080E0800080E0A00080E0C00080E0E000C0000000C0002000C0004000C0006000C0008000C000A000C000C000C000E000C0200000C0202000C0204000C0206000C0208000C020A000C020C000C020E000C0400000C0402000C0404000C0406000C0
310
408000C040A000C040C000C040E000C0600000C0602000C0604000C0606000C0608000C060A000C060C000C060E000C0800000C0802000C0804000C0806000C0808000C080A000C080C000C080E000C0A00000C0A02000C0A04000C0A06000C0A08000C0A0A000C0A0C000C0A0E000C0C00000C0C02000C0C04000C0C06000
310
C0C08000C0C0A000F0FBFF00A4A0A000808080000000FF0000FF000000FFFF00FF000000FF00FF00FFFF0000FFFFFF0000000000000000000000000000000000000000000000000000000000000000000000000000000000000000000000000000000000000000000000000000000000000000000000000000000000000000
310
00000000000000000000000000000000000000000000000000000000000000000000000000000000000000000000000000000000000000000000000000000000000000000000000000000000000000000000000000000000000000000000000000000000000000000000000000000000000000000000000000000000000000
310
00000000000000000000000000000000000000000000000000000000000000000000000000000000000000000000000000000000000000000000000000000000000000000000000000000000000000000000000000000000000000000000000000000000000000000000000000000000000000000000000000000000000000
310
00000000000000000000000000000000000000000000000000000000000000000000000000000000000000000000000000000000000000000000000000000000000000000000000000000000000000000000000000000000000000000000000000000000000000000000000000000000000000000000000000FF00FFFFFFFF
310
FFFFFFFFFFFFFFFFFFFFFFFFFFFFFFFFFFFFFF00000000FFFFFFFF0000000000000000000000000000000000000000000000000000FFFFFFFFFFFFFFFFFFFFFFFFFFFFFFFFFFFFFFFFFFFFFFFFFFFFFFFFFFFF0000FFFFFFFFFFFFFFFFFFFFFFFFFFFFFFFFFFFFFFFFFFFFFFFFFFFFFFFFFFFF000000000000000000000000
310
00000000000000000000000000000000000000000000000000000000000000000000000000000000000000000000000000000000000000000000000000000000000000000000000000000000000000000000000000000000000000000000000000000000000000000000000000000000000000000000000000000000000000
310
00000000000000000000000000000000000000000000000000000000000000000000000000000000000000000000000000000000000000000000000000000000000000000000000000000000000000000000000000000000000000000000000000000000000000000000000000000000000000000000000000000000000000
310
00000000000000000000000000000000000000000000000000000000000000000000000000000000000000000000000000000000000000000000000000000000000000000000000000000000000000000000000000000000000000000000000000000000000000000000000000000000000000000000000000000000000000
310
0000000000000000000000000000000000000000000000000000000000000000000000000000000000000000000000000000000000000000
102
{BLKREFS
331
4777
102
}
 70
     4
280
     1
281
     1
  0
BLOCK_RECORD
  5
47BE
330
1
100
AcDbSymbolTableRecord
100
AcDbBlockTableRecord
  2
*D14
340
0
 70
     0
280
     1
281
     0
  0
BLOCK_RECORD
  5
494E
330
1
100
AcDbSymbolTableRecord
100
AcDbBlockTableRecord
  2
*D15
340
0
 70
     0
280
     1
281
     0
  0
BLOCK_RECORD
  5
496A
330
1
100
AcDbSymbolTableRecord
100
AcDbBlockTableRecord
  2
*D16
340
0
 70
     0
280
     1
281
     0
  0
BLOCK_RECORD
  5
49E0
330
1
100
AcDbSymbolTableRecord
100
AcDbBlockTableRecord
  2
*D17
340
0
 70
     0
280
     1
281
     0
  0
BLOCK_RECORD
  5
4A31
330
1
100
AcDbSymbolTableRecord
100
AcDbBlockTableRecord
  2
*D18
340
0
 70
     0
280
     1
281
     0
  0
BLOCK_RECORD
  5
4BB2
330
1
100
AcDbSymbolTableRecord
100
AcDbBlockTableRecord
  2
*D19
340
0
 70
     0
280
     1
281
     0
  0
BLOCK_RECORD
  5
4BCA
330
1
100
AcDbSymbolTableRecord
100
AcDbBlockTableRecord
  2
*D20
340
0
 70
     0
280
     1
281
     0
  0
BLOCK_RECORD
  5
4BE2
330
1
100
AcDbSymbolTableRecord
100
AcDbBlockTableRecord
  2
*D21
340
0
 70
     0
280
     1
281
     0
  0
BLOCK_RECORD
  5
4C1E
330
1
100
AcDbSymbolTableRecord
100
AcDbBlockTableRecord
  2
*D22
340
0
 70
     0
280
     1
281
     0
  0
BLOCK_RECORD
  5
4C36
330
1
100
AcDbSymbolTableRecord
100
AcDbBlockTableRecord
  2
*D23
340
0
 70
     0
280
     1
281
     0
  0
BLOCK_RECORD
  5
4C6B
330
1
100
AcDbSymbolTableRecord
100
AcDbBlockTableRecord
  2
*D24
340
0
 70
     0
280
     1
281
     0
  0
BLOCK_RECORD
  5
4C9F
330
1
100
AcDbSymbolTableRecord
100
AcDbBlockTableRecord
  2
*D25
340
0
 70
     0
280
     1
281
     0
  0
BLOCK_RECORD
  5
5CC8
330
1
100
AcDbSymbolTableRecord
100
AcDbBlockTableRecord
  2
*D26
340
0
 70
     0
280
     1
281
     0
  0
BLOCK_RECORD
  5
5CF6
330
1
100
AcDbSymbolTableRecord
100
AcDbBlockTableRecord
  2
*D27
340
0
 70
     0
280
     1
281
     0
  0
BLOCK_RECORD
  5
5D24
330
1
100
AcDbSymbolTableRecord
100
AcDbBlockTableRecord
  2
*D28
340
0
 70
     0
280
     1
281
     0
  0
BLOCK_RECORD
  5
5DF1
330
1
100
AcDbSymbolTableRecord
100
AcDbBlockTableRecord
  2
ケース
340
0
310
2800000020000000200000000100080000000000000400000000000000000000000000000000000000000000000080000080000000808000800000008000800080800000C0C0C000C0DCC000F0CAA6000020400000206000002080000020A0000020C0000020E00000400000004020000040400000406000004080000040A0
310
000040C0000040E00000600000006020000060400000606000006080000060A0000060C0000060E00000800000008020000080400000806000008080000080A0000080C0000080E00000A0000000A0200000A0400000A0600000A0800000A0A00000A0C00000A0E00000C0000000C0200000C0400000C0600000C0800000C0
310
A00000C0C00000C0E00000E0000000E0200000E0400000E0600000E0800000E0A00000E0C00000E0E00040000000400020004000400040006000400080004000A0004000C0004000E00040200000402020004020400040206000402080004020A0004020C0004020E000404000004040200040404000404060004040800040
310
40A0004040C0004040E00040600000406020004060400040606000406080004060A0004060C0004060E00040800000408020004080400040806000408080004080A0004080C0004080E00040A0000040A0200040A0400040A0600040A0800040A0A00040A0C00040A0E00040C0000040C0200040C0400040C0600040C08000
310
40C0A00040C0C00040C0E00040E0000040E0200040E0400040E0600040E0800040E0A00040E0C00040E0E00080000000800020008000400080006000800080008000A0008000C0008000E00080200000802020008020400080206000802080008020A0008020C0008020E00080400000804020008040400080406000804080
310
008040A0008040C0008040E00080600000806020008060400080606000806080008060A0008060C0008060E00080800000808020008080400080806000808080008080A0008080C0008080E00080A0000080A0200080A0400080A0600080A0800080A0A00080A0C00080A0E00080C0000080C0200080C0400080C0600080C0
310
800080C0A00080C0C00080C0E00080E0000080E0200080E0400080E0600080E0800080E0A00080E0C00080E0E000C0000000C0002000C0004000C0006000C0008000C000A000C000C000C000E000C0200000C0202000C0204000C0206000C0208000C020A000C020C000C020E000C0400000C0402000C0404000C0406000C0
310
408000C040A000C040C000C040E000C0600000C0602000C0604000C0606000C0608000C060A000C060C000C060E000C0800000C0802000C0804000C0806000C0808000C080A000C080C000C080E000C0A00000C0A02000C0A04000C0A06000C0A08000C0A0A000C0A0C000C0A0E000C0C00000C0C02000C0C04000C0C06000
310
C0C08000C0C0A000F0FBFF00A4A0A000808080000000FF0000FF000000FFFF00FF000000FF00FF00FFFF0000FFFFFF0000000000000000000000000000000000000000000000000000000000000000000000000000000000000000FCFCFCFCFCFCFCFCFCFCFCFC00000000000000000000000000000000000000FC00000000
310
000000000000FC0000000000000000000000000000000000000000FC00000000000000FCFCFCFCFC000000000000000000000000000000000000FC0000000000000000FC00000000000000000000000000000000000000000000FC0000000000000000FC00000000000000000000000000000000000000000000FC00000000
310
00000000FC00000000000000000000000000000000000000000000FC0000000000000000FC00000000000000000000000000000000000000000000FC0000000000000000FC00000000000000000000000000000000000000000000FC0000000000000000FC00000000000000000000000000000000000000000000FC000000
310
0000000000FCFCFCFCFC000000000000000000000000000000000000FC0000000000000000000000FC00000000000000000000000000000000000000FC00000000FCFCFCFCFCFCFCFCFC000000000000000000000000000000000000FC000000FC000000000000000000000000000000000000000000000000000000FC0000
310
00FC000000000000000000000000000000000000000000000000000000FC000000FC0000FC000000000000000000000000000000000000000000000000FC000000FCFCFCFCFCFC00000000000000000000000000000000000000000000FC00000000FC00FC00FC00000000000000000000000000000000000000000000FC00
310
000000FC00FC00FC00000000000000000000000000000000000000000000FC00000000FC00FC00FC00000000000000000000000000000000000000000000FC00000000FC00FC00FC00000000000000000000000000000000000000000000FC00000000FC00FC00FC00000000000000000000000000000000000000000000FC
310
00000000FC00FC00FC00000000000000000000000000000000000000000000FC00000000FC00FC00FC00000000000000000000000000000000000000000000FC00000000FC00FC00FC00000000000000000000000000000000000000000000FC00000000FC00FC00FC00000000000000000000000000000000000000000000
310
FC00000000FC00FC00FC00000000000000000000000000000000000000000000FC00000000FC00FC00FC00000000000000000000000000000000000000000000FC00000000FC00FC00FC00000000000000000000000000000000000000000000FC00000000FC00FC00FC000000000000000000000000000000000000000000
310
00FC00000000FC00FC00FC000000000000000000000000000000000000000000000000000000000000000000000000000000000000000000
102
{BLKREFS
331
5E0B
102
}
 70
     4
280
     1
281
     1
  0
ENDTAB
  0
ENDSEC
  0
SECTION
  2
BLOCKS
  0
BLOCK
  5
20
330
1F
100
AcDbEntity
  8
0
100
AcDbBlockBegin
  2
*Model_Space
 70
     0
 10
0.0
 20
0.0
 30
0.0
  3
*Model_Space
  1

  0
ENDBLK
  5
21
330
1F
100
AcDbEntity
  8
0
100
AcDbBlockEnd
  0
BLOCK
  5
1C
330
1B
100
AcDbEntity
 67
     1
  8
0
100
AcDbBlockBegin
  2
*Paper_Space
 70
     0
 10
0.0
 20
0.0
 30
0.0
  3
*Paper_Space
  1

  0
ENDBLK
  5
1D
330
1B
100
AcDbEntity
 67
     1
  8
0
100
AcDbBlockEnd
  0
BLOCK
  5
24
330
23
100
AcDbEntity
 67
     1
  8
0
100
AcDbBlockBegin
  2
*Paper_Space0
 70
     0
 10
0.0
 20
0.0
 30
0.0
  3
*Paper_Space0
  1

  0
ENDBLK
  5
25
330
23
100
AcDbEntity
 67
     1
  8
0
100
AcDbBlockEnd
  0
BLOCK
  5
6D
330
69
100
AcDbEntity
  8
0
100
AcDbBlockBegin
  2
_Open30
 70
     0
 10
0.0
 20
0.0
 30
0.0
  3
_Open30
  1

  0
LINE
  5
6A
330
69
100
AcDbEntity
  8
0
  6
ByBlock
 62
     0
370
    -2
100
AcDbLine
 10
-1.0
 20
0.26794919
 30
0.0
 11
0.0
 21
0.0
 31
0.0
  0
LINE
  5
6B
330
69
100
AcDbEntity
  8
0
  6
ByBlock
 62
     0
370
    -2
100
AcDbLine
 10
0.0
 20
0.0
 30
0.0
 11
-1.0
 21
-0.26794919
 31
0.0
  0
LINE
  5
6C
330
69
100
AcDbEntity
  8
0
  6
ByBlock
 62
     0
370
    -2
100
AcDbLine
 10
0.0
 20
0.0
 30
0.0
 11
-1.0
 21
0.0
 31
0.0
  0
ENDBLK
  5
6E
330
69
100
AcDbEntity
  8
0
100
AcDbBlockEnd
  0
BLOCK
  5
76
330
74
100
AcDbEntity
  8
0
100
AcDbBlockBegin
  2
GENAXEH
 70
     0
 10
0.0
 20
0.0
 30
0.0
  3
GENAXEH
  1

  0
LINE
  5
75
330
74
100
AcDbEntity
  8
0
100
AcDbLine
 10
-1.0
 20
0.0
 30
0.0
 11
1.0
 21
0.0
 31
0.0
  0
ENDBLK
  5
77
330
74
100
AcDbEntity
  8
0
100
AcDbBlockEnd
  0
BLOCK
  5
3458
330
3455
100
AcDbEntity
  8
0
100
AcDbBlockBegin
  2
ジュウジマルコネジ
 70
     0
 10
0.0
 20
0.0
 30
0.0
  3
ジュウジマルコネジ
  1

  0
LINE
  5
4449
330
3455
100
AcDbEntity
  8
AM_7 中心線
100
AcDbLine
 10
8.165249366476016
 20
0.0
 30
0.0
 11
-4.033334633523736
 21
0.0
 31
0.0
  0
LINE
  5
444A
330
3455
100
AcDbEntity
  8
AM_4 細線
100
AcDbLine
 10
0.0
 20
-2.499999999999544
 30
0.0
 11
8.0
 21
-2.5
 31
0.0
  0
LINE
  5
444B
330
3455
100
AcDbEntity
  8
AM_7 中心線
100
AcDbLine
 10
-4.867259369782003
 20
0.0
 30
0.0
 11
8.706539767723825
 21
0.0
 31
0.0
  0
LINE
  5
444C
330
3455
100
AcDbEntity
  8
AM_4 細線
100
AcDbLine
 10
0.0
 20
2.499999999999544
 30
0.0
 11
8.0
 21
2.5
 31
0.0
  0
LINE
  5
444D
330
3455
100
AcDbEntity
  8
AM_0 外形線1
100
AcDbLine
 10
0.0
 20
3.25
 30
0.0
 11
1.0
 21
3.25
 31
0.0
  0
LINE
  5
444E
330
3455
100
AcDbEntity
  8
AM_0 外形線1
100
AcDbLine
 10
0.0
 20
6.5
 30
0.0
 11
1.0
 21
6.5
 31
0.0
  0
LINE
  5
444F
330
3455
100
AcDbEntity
  8
AM_0 外形線1
100
AcDbLine
 10
0.0
 20
-6.5
 30
0.0
 11
0.0
 21
6.5
 31
0.0
  0
ELLIPSE
  5
4450
330
3455
100
AcDbEntity
  8
AM_0 外形線1
100
AcDbEllipse
 10
0.0
 20
0.0
 30
0.0
 11
0.0
 21
5.25
 31
0.0
210
0.0
220
0.0
230
1.0
 40
0.7619047619047619
 41
0.0
 42
3.141592653589792
  0
LINE
  5
4451
330
3455
100
AcDbEntity
  8
AM_0 外形線1
100
AcDbLine
 10
0.0
 20
-6.5
 30
0.0
 11
1.0
 21
-6.5
 31
0.0
  0
LINE
  5
4452
330
3455
100
AcDbEntity
  8
AM_0 外形線1
100
AcDbLine
 10
0.0
 20
-3.25
 30
0.0
 11
1.0
 21
-3.25
 31
0.0
  0
LINE
  5
4453
330
3455
100
AcDbEntity
  8
AM_0 外形線1
100
AcDbLine
 10
8.0
 20
-2.5
 30
0.0
 11
8.0
 21
2.5
 31
0.0
  0
LINE
  5
4454
330
3455
100
AcDbEntity
  8
AM_0 外形線1
100
AcDbLine
 10
7.5
 20
-3.0
 30
0.0
 11
7.5
 21
3.0
 31
0.0
  0
LINE
  5
4455
330
3455
100
AcDbEntity
  8
AM_0 外形線1
100
AcDbLine
 10
7.5
 20
3.0
 30
0.0
 11
8.0
 21
2.5
 31
0.0
  0
LINE
  5
4456
330
3455
100
AcDbEntity
  8
AM_0 外形線1
100
AcDbLine
 10
7.5
 20
-3.0
 30
0.0
 11
8.0
 21
-2.5
 31
0.0
  0
LINE
  5
4457
330
3455
100
AcDbEntity
  8
AM_0 外形線1
100
AcDbLine
 10
7.5
 20
3.000000000000113
 30
0.0
 11
0.0
 21
3.0
 31
0.0
  0
LINE
  5
4458
330
3455
100
AcDbEntity
  8
AM_0 外形線1
100
AcDbLine
 10
7.499999999999544
 20
-3.0
 30
0.0
 11
0.0
 21
-3.0
 31
0.0
  0
LINE
  5
4480
330
3455
100
AcDbEntity
  8
AM_0 外形線1
100
AcDbLine
 10
1.0
 20
-6.5
 30
0.0
 11
1.0
 21
-3.0
 31
0.0
  0
LINE
  5
4481
330
3455
100
AcDbEntity
  8
AM_0 外形線1
100
AcDbLine
 10
1.0
 20
3.0
 30
0.0
 11
1.0
 21
6.5
 31
0.0
  0
ENDBLK
  5
346A
330
3455
100
AcDbEntity
  8
0
100
AcDbBlockEnd
  0
BLOCK
  5
3581
330
3580
100
AcDbEntity
  8
0
100
AcDbBlockBegin
  2
GENDOT
 70
     0
 10
0.0
 20
0.0
 30
0.0
  3
GENDOT
  1

  0
LINE
  5
3582
330
3580
100
AcDbEntity
  8
0
100
AcDbLine
 10
0.0
 20
0.0
 30
0.0
 11
-1.0
 21
0.0
 31
0.0
  0
LWPOLYLINE
  5
3583
330
3580
100
AcDbEntity
  8
0
100
AcDbPolyline
 90
        2
 70
     1
 43
0.25
 10
-0.125
 20
0.0
 42
1.0
 10
0.125
 20
0.0
 42
1.0
  0
ENDBLK
  5
3584
330
3580
100
AcDbEntity
  8
0
100
AcDbBlockEnd
  0
BLOCK
  5
424B
330
424A
100
AcDbEntity
  8
0
100
AcDbBlockBegin
  2
センタＡ SMVH400
 70
     0
 10
0.0
 20
0.0
 30
0.0
  3
センタＡ SMVH400
  1

  0
LINE
  5
424D
330
424A
100
AcDbEntity
  8
AM_0 外形線1
100
AcDbLine
 10
0.0
 20
-200.0
 30
0.0
 11
-137.6999999999998
 21
-200.0
 31
0.0
  0
LINE
  5
424E
330
424A
100
AcDbEntity
  8
AM_0 外形線1
100
AcDbLine
 10
-142.0
 20
-34.5
 30
0.0
 11
-142.0
 21
-1.0
 31
0.0
  0
LINE
  5
424F
330
424A
100
AcDbEntity
  8
AM_0 外形線1
100
AcDbLine
 10
-142.5
 20
-135.5
 30
0.0
 11
-142.5
 21
-81.0
 31
0.0
  0
LINE
  5
4250
330
424A
100
AcDbEntity
  8
AM_0 外形線1
100
AcDbLine
 10
-141.6999999999998
 20
-196.0
 30
0.0
 11
-141.6999999999998
 21
-137.5
 31
0.0
  0
ARC
  5
4251
330
424A
100
AcDbEntity
  8
AM_0 外形線1
100
AcDbCircle
 10
-137.6999999999998
 20
-196.0
 30
0.0
 40
4.0
100
AcDbArc
 50
180.0
 51
270.0
  0
LINE
  5
4252
330
424A
100
AcDbEntity
  8
AM_0 外形線1
100
AcDbLine
 10
-141.6999999999998
 20
-137.5
 30
0.0
 11
-142.5
 21
-135.5
 31
0.0
  0
LINE
  5
4253
330
424A
100
AcDbEntity
  8
AM_7 中心線
100
AcDbLine
 10
-160.8099999999999
 20
-56.0
 30
0.0
 11
-142.5999999999999
 21
-56.0
 31
0.0
  0
LINE
  5
4254
330
424A
100
AcDbEntity
  8
AM_0 外形線1
100
AcDbLine
 10
-143.0
 20
-80.5
 30
0.0
 11
-152.8717189999997
 21
-80.5
 31
0.0
  0
LINE
  5
4255
330
424A
100
AcDbEntity
  8
AM_0 外形線1
100
AcDbLine
 10
-153.3883289999999
 20
-35.0
 30
0.0
 11
-142.5
 21
-35.0
 31
0.0
  0
ARC
  5
4257
330
424A
100
AcDbEntity
  8
AM_0 外形線1
100
AcDbCircle
 10
0.0
 20
-56.0
 30
0.0
 40
155.81
100
AcDbArc
 50
172.6250819999984
 51
188.6747229999997
  0
LINE
  5
4259
330
424A
100
AcDbEntity
  8
AM_0 外形線1
100
AcDbLine
 10
-152.8717189999997
 20
-80.5
 30
0.0
 11
-154.0276139999996
 21
-79.5
 31
0.0
  0
LINE
  5
425A
330
424A
100
AcDbEntity
  8
AM_0 外形線1
100
AcDbLine
 10
-154.5210539999998
 20
-36.0
 30
0.0
 11
-153.3883289999999
 21
-35.0
 31
0.0
  0
ARC
  5
425B
330
424A
100
AcDbEntity
  8
AM_0 外形線1
100
AcDbCircle
 10
-143.0
 20
-81.0
 30
0.0
 40
0.5
100
AcDbArc
 50
0.0
 51
90.0
  0
ARC
  5
425C
330
424A
100
AcDbEntity
  8
AM_0 外形線1
100
AcDbCircle
 10
-142.5
 20
-34.5
 30
0.0
 40
0.5
100
AcDbArc
 50
270.0
 51
0.0
  0
LINE
  5
425D
330
424A
100
AcDbEntity
  8
AM_0 外形線1
100
AcDbLine
 10
0.0
 20
0.0000000000001137
 30
0.0
 11
-141.0
 21
0.0
 31
0.0
  0
LINE
  5
425E
330
424A
100
AcDbEntity
  8
AM_0 外形線1
100
AcDbLine
 10
-142.0
 20
-1.0
 30
0.0
 11
-141.0
 21
0.0
 31
0.0
  0
LINE
  5
425F
330
424A
100
AcDbEntity
  8
AM_0 外形線1
100
AcDbLine
 10
0.0
 20
-200.0
 30
0.0
 11
137.6999999999998
 21
-200.0
 31
0.0
  0
LINE
  5
4260
330
424A
100
AcDbEntity
  8
AM_0 外形線1
100
AcDbLine
 10
141.6999999999998
 20
-137.5
 30
0.0
 11
0.0
 21
-137.5
 31
0.0
  0
LINE
  5
4261
330
424A
100
AcDbEntity
  8
AM_0 外形線1
100
AcDbLine
 10
142.5
 20
-135.5
 30
0.0
 11
0.0
 21
-135.5
 31
0.0
  0
LINE
  5
4262
330
424A
100
AcDbEntity
  8
AM_0 外形線1
100
AcDbLine
 10
142.5
 20
-105.0
 30
0.0
 11
142.5
 21
-135.5
 31
0.0
  0
LINE
  5
4263
330
424A
100
AcDbEntity
  8
AM_0 外形線1
100
AcDbLine
 10
141.6999999999998
 20
-137.5
 30
0.0
 11
141.6999999999998
 21
-196.0
 31
0.0
  0
ARC
  5
4264
330
424A
100
AcDbEntity
  8
AM_0 外形線1
100
AcDbCircle
 10
137.6999999999998
 20
-196.0
 30
0.0
 40
4.0
100
AcDbArc
 50
270.0
 51
0.0
  0
LINE
  5
4265
330
424A
100
AcDbEntity
  8
AM_0 外形線1
100
AcDbLine
 10
142.5
 20
-135.5
 30
0.0
 11
141.6999999999998
 21
-137.5
 31
0.0
  0
LINE
  5
4266
330
424A
100
AcDbEntity
  8
AM_0 外形線1
100
AcDbLine
 10
-77.45966692414834
 20
0.0
 30
0.0
 11
-77.45966692414834
 21
-200.0
 31
0.0
  0
LINE
  5
428C
330
424A
100
AcDbEntity
  8
AM_3 隠れ線
100
AcDbLine
 10
-7.0
 20
0.0
 30
0.0
 11
-7.0
 21
-37.0
 31
0.0
  0
LINE
  5
428D
330
424A
100
AcDbEntity
  8
AM_3 隠れ線
100
AcDbLine
 10
-8.0
 20
-32.0
 30
0.0
 11
-8.0
 21
0.0
 31
0.0
  0
LINE
  5
428E
330
424A
100
AcDbEntity
  8
AM_3 隠れ線
100
AcDbLine
 10
-7.0
 20
-37.0
 30
0.0
 11
0.0
 21
-41.04145100000004
 31
0.0
  0
LINE
  5
428F
330
424A
100
AcDbEntity
  8
AM_3 隠れ線
100
AcDbLine
 10
-7.0
 20
-37.0
 30
0.0
 11
0.0
 21
-37.0
 31
0.0
  0
LINE
  5
4290
330
424A
100
AcDbEntity
  8
AM_3 隠れ線
100
AcDbLine
 10
-8.0
 20
-32.0
 30
0.0
 11
0.0
 21
-32.0
 31
0.0
  0
LINE
  5
4291
330
424A
100
AcDbEntity
  8
AM_3 隠れ線
100
AcDbLine
 10
-7.0
 20
-32.57735000000002
 30
0.0
 11
0.0
 21
-32.57735000000002
 31
0.0
  0
LINE
  5
4292
330
424A
100
AcDbEntity
  8
AM_3 隠れ線
100
AcDbLine
 10
-8.0
 20
-32.0
 30
0.0
 11
-7.0
 21
-32.57735000000002
 31
0.0
  0
ARC
  5
5C20
330
424A
100
AcDbEntity
  8
AM_0 外形線1
100
AcDbCircle
 10
0.0
 20
-56.0
 30
0.0
 40
147.6
100
AcDbArc
 50
171.8204054923765
 51
189.5547015895426
  0
ARC
  5
5C40
330
424A
100
AcDbEntity
  8
AM_7 中心線
100
AcDbCircle
 10
0.0
 20
-56.0
 30
0.0
 40
152.0
100
AcDbArc
 50
171.0771482319747
 51
190.1925356876274
  0
ENDBLK
  5
424C
330
424A
100
AcDbEntity
  8
0
100
AcDbBlockEnd
  0
BLOCK
  5
4330
330
432F
100
AcDbEntity
  8
0
100
AcDbBlockBegin
  2
ケースＡ SMVH400
 70
     0
 10
0.0
 20
0.0
 30
0.0
  3
ケースＡ SMVH400
  1

  0
LINE
  5
4332
330
432F
100
AcDbEntity
  8
AM_0 外形線1
100
AcDbLine
 10
-157.0
 20
-38.0
 30
0.0
 11
-157.0
 21
0.0
 31
0.0
  0
LINE
  5
4333
330
432F
100
AcDbEntity
  8
AM_0 外形線1
100
AcDbLine
 10
-190.5999999999999
 20
-5.215249999999969
 30
0.0
 11
-190.5999999999999
 21
-17.78475000000003
 31
0.0
  0
LINE
  5
4334
330
432F
100
AcDbEntity
  8
AM_0 外形線1
100
AcDbLine
 10
-200.0
 20
-1.0
 30
0.0
 11
-200.0
 21
-20.0
 31
0.0
  0
LWPOLYLINE
  5
4335
330
432F
100
AcDbEntity
  8
AM_0 外形線1
100
AcDbPolyline
 90
       73
 70
     0
 43
0.0
 10
-145.9499999999998
 20
-99.39999999999997
 10
-146.2506869999996
 20
-99.42130900000009
 10
-146.549086
 20
-99.48507599999992
 10
-146.8429249999999
 20
-99.59081500000003
 10
-147.1299689999996
 20
-99.73772099999997
 10
-147.4080329999997
 20
-99.92467599999997
 10
-147.6750000000001
 20
-100.150257
 10
-147.9288379999998
 20
-100.4127479999999
 10
-148.167617
 20
-100.710151
 10
-148.3895179999999
 20
-101.040202
 10
-148.5928530000001
 20
-101.400389
 10
-148.7760739999994
 20
-101.7879719999999
 10
-148.9377869999998
 20
-102.2
 10
-149.0767619999997
 20
-102.633337
 10
-149.1919389999998
 20
-103.084687
 10
-149.2824439999995
 20
-103.550613
 10
-149.3475859999998
 20
-104.02757
 10
-149.3868709999997
 20
-104.511927
 10
-149.3999999999996
 20
-105.0
 10
-149.3868709999997
 20
-105.488072
 10
-149.3475859999998
 20
-105.9724289999999
 10
-149.2824439999995
 20
-106.449386
 10
-149.1919389999998
 20
-106.9153120000001
 10
-149.0767619999997
 20
-107.366662
 10
-148.9377869999998
 20
-107.7999999999999
 10
-148.7760739999994
 20
-108.2120279999999
 10
-148.5928530000001
 20
-108.59961
 10
-148.3895179999999
 20
-108.9597979999999
 10
-148.167617
 20
-109.289848
 10
-147.9288379999998
 20
-109.5872509999999
 10
-147.6750000000001
 20
-109.849742
 10
-147.4080329999997
 20
-110.075323
 10
-147.1299689999996
 20
-110.2622779999999
 10
-146.8429249999999
 20
-110.409184
 10
-146.549086
 20
-110.5149229999999
 10
-146.2506869999996
 20
-110.57869
 10
-145.9499999999998
 20
-110.6
 10
-145.6493119999995
 20
-110.57869
 10
-145.3509139999996
 20
-110.5149229999999
 10
-145.0570739999994
 20
-110.409184
 10
-144.7700299999997
 20
-110.2622779999999
 10
-144.4919669999999
 20
-110.075323
 10
-144.2249999999999
 20
-109.849742
 10
-143.9711609999995
 20
-109.5872509999999
 10
-143.7323819999997
 20
-109.289848
 10
-143.5104809999998
 20
-108.9597979999999
 10
-143.3071460000001
 20
-108.59961
 10
-143.1239249999999
 20
-108.2120279999999
 10
-142.9622119999994
 20
-107.7999999999999
 10
-142.8232379999999
 20
-107.366662
 10
-142.7080599999999
 20
-106.9153120000001
 10
-142.6175559999997
 20
-106.449386
 10
-142.5524129999994
 20
-105.9724289999999
 10
-142.5131279999996
 20
-105.488072
 10
-142.5
 20
-105.0
 10
-142.5131279999996
 20
-104.511927
 10
-142.5524129999994
 20
-104.02757
 10
-142.6175559999997
 20
-103.550613
 10
-142.7080599999999
 20
-103.084687
 10
-142.8232379999999
 20
-102.633337
 10
-142.9622119999994
 20
-102.2
 10
-143.1239249999999
 20
-101.7879719999999
 10
-143.3071460000001
 20
-101.400389
 10
-143.5104809999998
 20
-101.040202
 10
-143.7323819999997
 20
-100.710151
 10
-143.9711609999995
 20
-100.4127479999999
 10
-144.2249999999999
 20
-100.150257
 10
-144.4919669999999
 20
-99.92467599999997
 10
-144.7700299999997
 20
-99.73772099999997
 10
-145.0570739999994
 20
-99.59081500000003
 10
-145.3509139999996
 20
-99.48507599999992
 10
-145.6493119999995
 20
-99.42130900000009
 10
-145.9499999999998
 20
-99.39999999999997
  0
LINE
  5
4336
330
432F
100
AcDbEntity
  8
AM_0 外形線1
100
AcDbLine
 10
-144.0
 20
-96.0
 30
0.0
 11
-156.0
 21
-96.0
 31
0.0
  0
LINE
  5
4337
330
432F
100
AcDbEntity
  8
AM_0 外形線1
100
AcDbLine
 10
-148.8999999999996
 20
-99.39999999999997
 30
0.0
 11
-144.0
 21
-99.39999999999997
 31
0.0
  0
LINE
  5
4338
330
432F
100
AcDbEntity
  8
AM_0 外形線1
100
AcDbLine
 10
-144.0
 20
-110.6
 30
0.0
 11
-148.8999999999996
 21
-110.6
 31
0.0
  0
LINE
  5
4339
330
432F
100
AcDbEntity
  8
AM_0 外形線1
100
AcDbLine
 10
-160.5
 20
-114.0
 30
0.0
 11
-144.0
 21
-114.0
 31
0.0
  0
LINE
  5
433A
330
432F
100
AcDbEntity
  8
AM_7 中心線
100
AcDbLine
 10
-152.0
 20
-37.0
 30
0.0
 11
-152.0
 21
-91.5
 31
0.0
  0
LINE
  5
433B
330
432F
100
AcDbEntity
  8
AM_0 外形線1
100
AcDbLine
 10
-156.0
 20
-39.0
 30
0.0
 11
-156.0
 21
-89.50000000000001
 31
0.0
  0
LINE
  5
433C
330
432F
100
AcDbEntity
  8
AM_3 隠れ線
100
AcDbLine
 10
-148.8000000000002
 20
-44.0
 30
0.0
 11
-148.8000000000002
 21
-88.49999999999999
 31
0.0
  0
LINE
  5
433D
330
432F
100
AcDbEntity
  8
AM_0 外形線1
100
AcDbLine
 10
-164.5
 20
-25.0
 30
0.0
 11
-164.5
 21
-110.0
 31
0.0
  0
LINE
  5
433E
330
432F
100
AcDbEntity
  8
AM_0 外形線1
100
AcDbLine
 10
-149.3999999999996
 20
-110.1
 30
0.0
 11
-149.3999999999996
 21
-99.89999999999998
 31
0.0
  0
ARC
  5
433F
330
432F
100
AcDbEntity
  8
AM_0 外形線1
100
AcDbCircle
 10
-148.8999999999996
 20
-110.1
 30
0.0
 40
0.5
100
AcDbArc
 50
180.0
 51
270.0
  0
ARC
  5
4340
330
432F
100
AcDbEntity
  8
AM_0 外形線1
100
AcDbCircle
 10
-160.5
 20
-110.0
 30
0.0
 40
4.0
100
AcDbArc
 50
180.0
 51
270.0
  0
LINE
  5
4341
330
432F
100
AcDbEntity
  8
AM_3 隠れ線
100
AcDbLine
 10
-149.8000000000001
 20
-89.50000000000001
 30
0.0
 11
-148.8000000000002
 21
-88.49999999999999
 31
0.0
  0
LINE
  5
4342
330
432F
100
AcDbEntity
  8
AM_0 外形線1
100
AcDbLine
 10
-156.0
 20
-89.50000000000001
 30
0.0
 11
-149.8000000000001
 21
-89.50000000000001
 31
0.0
  0
ARC
  5
4343
330
432F
100
AcDbEntity
  8
AM_0 外形線1
100
AcDbCircle
 10
-156.0
 20
-90.5
 30
0.0
 40
1.0
100
AcDbArc
 50
90.0
 51
180.0
  0
LINE
  5
4344
330
432F
100
AcDbEntity
  8
AM_0 外形線1
100
AcDbLine
 10
-157.0
 20
-95.0
 30
0.0
 11
-157.0
 21
-90.5
 31
0.0
  0
ARC
  5
4345
330
432F
100
AcDbEntity
  8
AM_0 外形線1
100
AcDbCircle
 10
-156.0
 20
-95.0
 30
0.0
 40
1.0
100
AcDbArc
 50
180.0
 51
270.0
  0
ARC
  5
4346
330
432F
100
AcDbEntity
  8
AM_0 外形線1
100
AcDbCircle
 10
-148.8999999999996
 20
-99.89999999999998
 30
0.0
 40
0.5
100
AcDbArc
 50
90.0
 51
180.0
  0
LINE
  5
4347
330
432F
100
AcDbEntity
  8
AM_4 細線
100
AcDbLine
 10
-190.5999999999999
 20
-17.78475000000003
 30
0.0
 11
-200.0
 21
-18.07849999999996
 31
0.0
  0
LINE
  5
4348
330
432F
100
AcDbEntity
  8
AM_0 外形線1
100
AcDbLine
 10
-190.5999999999999
 20
-17.25
 30
0.0
 11
-200.0
 21
-17.54374999999993
 31
0.0
  0
LINE
  5
4349
330
432F
100
AcDbEntity
  8
AM_0 外形線1
100
AcDbLine
 10
-199.0
 20
-21.0
 30
0.0
 11
-168.5
 21
-21.0
 31
0.0
  0
LINE
  5
434A
330
432F
100
AcDbEntity
  8
AM_0 外形線1
100
AcDbLine
 10
-200.0
 20
-20.0
 30
0.0
 11
-199.0
 21
-21.0
 31
0.0
  0
LINE
  5
434B
330
432F
100
AcDbEntity
  8
AM_0 外形線1
100
AcDbLine
 10
-157.0
 20
-17.25
 30
0.0
 11
-190.5999999999999
 21
-17.25
 31
0.0
  0
ARC
  5
434C
330
432F
100
AcDbEntity
  8
AM_0 外形線1
100
AcDbCircle
 10
-168.5
 20
-25.0
 30
0.0
 40
4.0
100
AcDbArc
 50
0.0
 51
90.0
  0
ARC
  5
434D
330
432F
100
AcDbEntity
  8
AM_0 外形線1
100
AcDbCircle
 10
-156.0
 20
-38.0
 30
0.0
 40
1.0
100
AcDbArc
 50
180.0
 51
270.0
  0
LINE
  5
434E
330
432F
100
AcDbEntity
  8
AM_0 外形線1
100
AcDbLine
 10
-149.8000000000001
 20
-39.0
 30
0.0
 11
-156.0
 21
-39.0
 31
0.0
  0
LINE
  5
4350
330
432F
100
AcDbEntity
  8
AM_0 外形線1
100
AcDbLine
 10
-148.8000000000002
 20
-40.0
 30
0.0
 11
-149.8000000000001
 21
-39.0
 31
0.0
  0
LINE
  5
4351
330
432F
100
AcDbEntity
  8
AM_0 外形線1
100
AcDbLine
 10
-148.8000000000002
 20
-44.0
 30
0.0
 11
-148.8000000000002
 21
-40.0
 31
0.0
  0
LINE
  5
4352
330
432F
100
AcDbEntity
  8
AM_0 外形線1
100
AcDbLine
 10
-144.0
 20
-114.0
 30
0.0
 11
-144.0
 21
-110.6
 31
0.0
  0
LINE
  5
4353
330
432F
100
AcDbEntity
  8
AM_0 外形線1
100
AcDbLine
 10
-144.0
 20
-110.6
 30
0.0
 11
-142.5
 21
-110.6
 31
0.0
  0
LINE
  5
4354
330
432F
100
AcDbEntity
  8
AM_0 外形線1
100
AcDbLine
 10
-144.0
 20
-114.0
 30
0.0
 11
-142.5
 21
-114.0
 31
0.0
  0
LINE
  5
4355
330
432F
100
AcDbEntity
  8
AM_0 外形線1
100
AcDbLine
 10
-144.0
 20
-99.39999999999997
 30
0.0
 11
-144.0
 21
-96.0
 31
0.0
  0
LINE
  5
4356
330
432F
100
AcDbEntity
  8
AM_0 外形線1
100
AcDbLine
 10
-144.0
 20
-96.0
 30
0.0
 11
-142.5
 21
-96.0
 31
0.0
  0
LINE
  5
4357
330
432F
100
AcDbEntity
  8
AM_0 外形線1
100
AcDbLine
 10
-144.0
 20
-99.39999999999997
 30
0.0
 11
-142.5
 21
-99.39999999999997
 31
0.0
  0
LINE
  5
4358
330
432F
100
AcDbEntity
  8
AM_4 細線
100
AcDbLine
 10
-190.5999999999999
 20
-5.215249999999969
 30
0.0
 11
-200.0
 21
-4.921499999999922
 31
0.0
  0
LINE
  5
4359
330
432F
100
AcDbEntity
  8
AM_0 外形線1
100
AcDbLine
 10
-190.5999999999999
 20
-5.75
 30
0.0
 11
-200.0
 21
-5.456249999999953
 31
0.0
  0
LINE
  5
435A
330
432F
100
AcDbEntity
  8
AM_7 中心線
100
AcDbLine
 10
-154.5
 20
-11.5
 30
0.0
 11
-204.0563739999998
 21
-11.5
 31
0.0
  0
LINE
  5
435B
330
432F
100
AcDbEntity
  8
AM_0 外形線1
100
AcDbLine
 10
-199.0
 20
0.0
 30
0.0
 11
-200.0
 21
-1.0
 31
0.0
  0
LINE
  5
435C
330
432F
100
AcDbEntity
  8
AM_0 外形線1
100
AcDbLine
 10
-157.0
 20
-5.75
 30
0.0
 11
-190.5999999999999
 21
-5.75
 31
0.0
  0
LWPOLYLINE
  5
435D
330
432F
100
AcDbEntity
  8
AM_0 外形線1
100
AcDbPolyline
 90
       73
 70
     0
 43
0.0
 10
-163.0
 20
-1.349999999999909
 10
-163.0083709999999
 20
-1.232339000000024
 10
-163.0334229999998
 20
-1.11557499999992
 10
-163.074963
 20
-1.000593999999978
 10
-163.1326760000002
 20
-0.888272000000029
 10
-163.2061229999999
 20
-0.7794649999999593
 10
-163.2947439999998
 20
-0.6749999999999547
 10
-163.3978649999999
 20
-0.575670999999943
 10
-163.5147019999999
 20
-0.4822359999999435
 10
-163.6443649999996
 20
-0.3954049999999825
 10
-163.7858669999996
 20
-0.3158399999999801
 10
-163.9381319999998
 20
-0.2441440000000057
 10
-164.0999999999999
 20
-0.1808650000000398
 10
-164.2702399999998
 20
-0.1264840000000049
 10
-164.4475549999997
 20
-0.0814149999999927
 10
-164.6305979999997
 20
-0.0459999999999354
 10
-164.8179739999996
 20
-0.020509000000061
 10
-165.0082569999995
 20
-0.0051369999999906
 10
-165.1999999999998
 20
0.0
 10
-165.3917419999998
 20
-0.0051369999999906
 10
-165.582026
 20
-0.020509000000061
 10
-165.7694019999999
 20
-0.0459999999999354
 10
-165.9524439999995
 20
-0.0814149999999927
 10
-166.1297599999998
 20
-0.1264840000000049
 10
-166.3000000000002
 20
-0.1808650000000398
 10
-166.4618679999998
 20
-0.2441440000000057
 10
-166.6141319999997
 20
-0.3158399999999801
 10
-166.7556349999995
 20
-0.3954049999999825
 10
-166.8852969999998
 20
-0.4822359999999435
 10
-167.0021339999998
 20
-0.575670999999943
 10
-167.1052559999998
 20
-0.6749999999999547
 10
-167.1938769999997
 20
-0.7794649999999593
 10
-167.267323
 20
-0.888272000000029
 10
-167.3250369999996
 20
-1.000593999999978
 10
-167.3665769999997
 20
-1.11557499999992
 10
-167.3916279999998
 20
-1.232339000000024
 10
-167.3999999999996
 20
-1.349999999999909
 10
-167.3916279999998
 20
-1.467660000000023
 10
-167.3665769999997
 20
-1.584424999999896
 10
-167.3250369999996
 20
-1.699405000000069
 10
-167.267323
 20
-1.811727000000018
 10
-167.1938769999997
 20
-1.920534000000088
 10
-167.1052559999998
 20
-2.024999999999862
 10
-167.0021339999998
 20
-2.12432799999999
 10
-166.8852969999998
 20
-2.217763000000104
 10
-166.7556349999995
 20
-2.30459399999995
 10
-166.6141319999997
 20
-2.384160000000064
 10
-166.4618679999998
 20
-2.455855000000041
 10
-166.3000000000002
 20
-2.519134000000008
 10
-166.1297599999998
 20
-2.573515000000043
 10
-165.9524439999995
 20
-2.618584999999939
 10
-165.7694019999999
 20
-2.653998999999884
 10
-165.582026
 20
-2.679489999999987
 10
-165.3917419999998
 20
-2.694861999999943
 10
-165.1999999999998
 20
-2.69999999999993
 10
-165.0082569999995
 20
-2.694861999999943
 10
-164.8179739999996
 20
-2.679489999999987
 10
-164.6305979999997
 20
-2.653998999999884
 10
-164.4475549999997
 20
-2.618584999999939
 10
-164.2702399999998
 20
-2.573515000000043
 10
-164.0999999999999
 20
-2.519134000000008
 10
-163.9381319999998
 20
-2.455855000000041
 10
-163.7858669999996
 20
-2.384160000000064
 10
-163.6443649999996
 20
-2.30459399999995
 10
-163.5147019999999
 20
-2.217763000000104
 10
-163.3978649999999
 20
-2.12432799999999
 10
-163.2947439999998
 20
-2.024999999999862
 10
-163.2061229999999
 20
-1.920534000000088
 10
-163.1326760000002
 20
-1.811727000000018
 10
-163.074963
 20
-1.699405000000069
 10
-163.0334229999998
 20
-1.584424999999896
 10
-163.0083709999999
 20
-1.467660000000023
 10
-163.0
 20
-1.349999999999909
  0
LINE
  5
435E
330
432F
100
AcDbEntity
  8
AM_0 外形線1
100
AcDbLine
 10
-167.3999999999996
 20
-2.199999999999931
 30
0.0
 11
-167.3999999999996
 21
0.0
 31
0.0
  0
ARC
  5
435F
330
432F
100
AcDbEntity
  8
AM_0 外形線1
100
AcDbCircle
 10
-166.8999999999996
 20
-2.199999999999931
 30
0.0
 40
0.5
100
AcDbArc
 50
180.0
 51
270.0
  0
LINE
  5
4360
330
432F
100
AcDbEntity
  8
AM_0 外形線1
100
AcDbLine
 10
-163.5
 20
-2.69999999999993
 30
0.0
 11
-166.8999999999996
 21
-2.69999999999993
 31
0.0
  0
ARC
  5
4361
330
432F
100
AcDbEntity
  8
AM_0 外形線1
100
AcDbCircle
 10
-163.5
 20
-2.199999999999931
 30
0.0
 40
0.5
100
AcDbArc
 50
270.0
 51
0.0
  0
LINE
  5
4362
330
432F
100
AcDbEntity
  8
AM_0 外形線1
100
AcDbLine
 10
-163.0
 20
0.0
 30
0.0
 11
-163.0
 21
-2.199999999999931
 31
0.0
  0
LINE
  5
4363
330
432F
100
AcDbEntity
  8
AM_7 中心線
100
AcDbLine
 10
184.0
 20
-36.0
 30
0.0
 11
184.0
 21
51.04545500000007
 31
0.0
  0
LINE
  5
4364
330
432F
100
AcDbEntity
  8
AM_0 外形線1
100
AcDbLine
 10
200.0
 20
-1.0
 30
0.0
 11
200.0
 21
-20.0
 31
0.0
  0
LINE
  5
4365
330
432F
100
AcDbEntity
  8
AM_0 外形線1
100
AcDbLine
 10
160.5
 20
-114.0
 30
0.0
 11
0.0
 21
-114.0
 31
0.0
  0
LINE
  5
4366
330
432F
100
AcDbEntity
  8
AM_0 外形線1
100
AcDbLine
 10
199.0
 20
-21.0
 30
0.0
 11
0.0
 21
-21.0
 31
0.0
  0
LINE
  5
4367
330
432F
100
AcDbEntity
  8
AM_0 外形線1
100
AcDbLine
 10
164.5
 20
-25.0
 30
0.0
 11
164.5
 21
-110.0
 31
0.0
  0
ARC
  5
4368
330
432F
100
AcDbEntity
  8
AM_0 外形線1
100
AcDbCircle
 10
160.5
 20
-110.0
 30
0.0
 40
4.0
100
AcDbArc
 50
270.0
 51
0.0
  0
ARC
  5
4369
330
432F
100
AcDbEntity
  8
AM_0 外形線1
100
AcDbCircle
 10
168.5
 20
-25.0
 30
0.0
 40
4.0
100
AcDbArc
 50
90.0
 51
180.0
  0
LINE
  5
436A
330
432F
100
AcDbEntity
  8
AM_0 外形線1
100
AcDbLine
 10
200.0
 20
-20.0
 30
0.0
 11
199.0
 21
-21.0
 31
0.0
  0
LINE
  5
436B
330
432F
100
AcDbEntity
  8
AM_0 外形線1
100
AcDbLine
 10
0.0
 20
0.0
 30
0.0
 11
199.0
 21
0.0
 31
0.0
  0
LINE
  5
436C
330
432F
100
AcDbEntity
  8
AM_0 外形線1
100
AcDbLine
 10
199.0
 20
0.0
 30
0.0
 11
200.0
 21
-1.0
 31
0.0
  0
LINE
  5
43EF
330
432F
100
AcDbEntity
  8
AM_0 外形線1
100
AcDbLine
 10
-157.0
 20
0.0
 30
0.0
 11
-163.0
 21
0.0
 31
0.0
  0
LINE
  5
43F0
330
432F
100
AcDbEntity
  8
AM_0 外形線1
100
AcDbLine
 10
-167.3999999999996
 20
0.0
 30
0.0
 11
-199.0
 21
0.0
 31
0.0
  0
ENDBLK
  5
4331
330
432F
100
AcDbEntity
  8
0
100
AcDbBlockEnd
  0
BLOCK
  5
44B5
330
44B4
100
AcDbEntity
  8
0
100
AcDbBlockBegin
  2
センタB SMVH400
 70
     0
 10
0.0
 20
0.0
 30
0.0
  3
センタB SMVH400
  1

  0
LINE
  5
44B7
330
44B4
100
AcDbEntity
  8
AM_0 外形線1
100
AcDbLine
 10
-141.0
 20
0.0
 30
0.0
 11
0.0
 21
0.0
 31
0.0
  0
LINE
  5
44B8
330
44B4
100
AcDbEntity
  8
AM_0 外形線1
100
AcDbLine
 10
0.0
 20
200.0
 30
0.0
 11
-137.6999999999998
 21
200.0
 31
0.0
  0
LINE
  5
44B9
330
44B4
100
AcDbEntity
  8
AM_0 外形線1
100
AcDbLine
 10
-142.5
 20
135.5
 30
0.0
 11
-142.5
 21
81.0
 31
0.0
  0
LINE
  5
44BA
330
44B4
100
AcDbEntity
  8
AM_7 中心線
100
AcDbLine
 10
-160.8099999999999
 20
56.0
 30
0.0
 11
-142.5999999999999
 21
56.0
 31
0.0
  0
LINE
  5
44BB
330
44B4
100
AcDbEntity
  8
AM_0 外形線1
100
AcDbLine
 10
-153.3883289999999
 20
35.0
 30
0.0
 11
-142.5
 21
35.0
 31
0.0
  0
LINE
  5
44BC
330
44B4
100
AcDbEntity
  8
AM_0 外形線1
100
AcDbLine
 10
-143.0
 20
80.5
 30
0.0
 11
-152.8717189999997
 21
80.5
 31
0.0
  0
ARC
  5
44BF
330
44B4
100
AcDbEntity
  8
AM_0 外形線1
100
AcDbCircle
 10
0.0
 20
56.0
 30
0.0
 40
155.81
100
AcDbArc
 50
171.3252770000002
 51
187.3749180000015
  0
LINE
  5
44C0
330
44B4
100
AcDbEntity
  8
AM_0 外形線1
100
AcDbLine
 10
-154.5210539999998
 20
36.0
 30
0.0
 11
-153.3883289999999
 21
35.0
 31
0.0
  0
LINE
  5
44C1
330
44B4
100
AcDbEntity
  8
AM_0 外形線1
100
AcDbLine
 10
-152.8717189999997
 20
80.5
 30
0.0
 11
-154.0276139999996
 21
79.5
 31
0.0
  0
LINE
  5
44C2
330
44B4
100
AcDbEntity
  8
AM_0 外形線1
100
AcDbLine
 10
-142.0
 20
34.5
 30
0.0
 11
-142.0
 21
1.0
 31
0.0
  0
LINE
  5
44C3
330
44B4
100
AcDbEntity
  8
AM_0 外形線1
100
AcDbLine
 10
-142.0
 20
1.0
 30
0.0
 11
-141.0
 21
0.0
 31
0.0
  0
ARC
  5
44C4
330
44B4
100
AcDbEntity
  8
AM_0 外形線1
100
AcDbCircle
 10
-142.5
 20
34.5
 30
0.0
 40
0.5
100
AcDbArc
 50
0.0
 51
90.0
  0
ARC
  5
44C5
330
44B4
100
AcDbEntity
  8
AM_0 外形線1
100
AcDbCircle
 10
-143.0
 20
81.0
 30
0.0
 40
0.5
100
AcDbArc
 50
270.0
 51
0.0
  0
LINE
  5
44C6
330
44B4
100
AcDbEntity
  8
AM_0 外形線1
100
AcDbLine
 10
-141.6999999999998
 20
196.0
 30
0.0
 11
-141.6999999999998
 21
137.5
 31
0.0
  0
LINE
  5
44C7
330
44B4
100
AcDbEntity
  8
AM_0 外形線1
100
AcDbLine
 10
-141.6999999999998
 20
137.5
 30
0.0
 11
-142.5
 21
135.5
 31
0.0
  0
ARC
  5
44C8
330
44B4
100
AcDbEntity
  8
AM_0 外形線1
100
AcDbCircle
 10
-137.6999999999998
 20
196.0
 30
0.0
 40
4.0
100
AcDbArc
 50
90.0
 51
180.0
  0
LINE
  5
44C9
330
44B4
100
AcDbEntity
  8
AM_0 外形線1
100
AcDbLine
 10
0.0
 20
200.0
 30
0.0
 11
137.6999999999998
 21
200.0
 31
0.0
  0
LINE
  5
44CA
330
44B4
100
AcDbEntity
  8
AM_0 外形線1
100
AcDbLine
 10
141.6999999999998
 20
137.5
 30
0.0
 11
0.0
 21
137.5
 31
0.0
  0
LINE
  5
44CB
330
44B4
100
AcDbEntity
  8
AM_0 外形線1
100
AcDbLine
 10
142.5
 20
135.5
 30
0.0
 11
0.0
 21
135.5
 31
0.0
  0
LINE
  5
44CC
330
44B4
100
AcDbEntity
  8
AM_3 隠れ線
100
AcDbLine
 10
-7.0
 20
37.0
 30
0.0
 11
0.0
 21
41.04145200000004
 31
0.0
  0
LINE
  5
44CD
330
44B4
100
AcDbEntity
  8
AM_3 隠れ線
100
AcDbLine
 10
-7.0
 20
37.0
 30
0.0
 11
0.0
 21
37.0
 31
0.0
  0
LINE
  5
44CE
330
44B4
100
AcDbEntity
  8
AM_3 隠れ線
100
AcDbLine
 10
-7.0
 20
32.57735100000002
 30
0.0
 11
0.0
 21
32.57735100000002
 31
0.0
  0
LINE
  5
44CF
330
44B4
100
AcDbEntity
  8
AM_3 隠れ線
100
AcDbLine
 10
-8.0
 20
32.0
 30
0.0
 11
0.0
 21
32.0
 31
0.0
  0
LINE
  5
44D0
330
44B4
100
AcDbEntity
  8
AM_3 隠れ線
100
AcDbLine
 10
-7.0
 20
37.0
 30
0.0
 11
-7.0
 21
0.0
 31
0.0
  0
LINE
  5
44D1
330
44B4
100
AcDbEntity
  8
AM_3 隠れ線
100
AcDbLine
 10
-8.0
 20
0.0
 30
0.0
 11
-8.0
 21
32.0
 31
0.0
  0
LINE
  5
44D2
330
44B4
100
AcDbEntity
  8
AM_3 隠れ線
100
AcDbLine
 10
-8.0
 20
32.0
 30
0.0
 11
-7.0
 21
32.57735100000002
 31
0.0
  0
LINE
  5
44D3
330
44B4
100
AcDbEntity
  8
AM_0 外形線1
100
AcDbLine
 10
142.5
 20
105.0
 30
0.0
 11
142.5
 21
135.5
 31
0.0
  0
LINE
  5
44D4
330
44B4
100
AcDbEntity
  8
AM_0 外形線1
100
AcDbLine
 10
141.6999999999998
 20
137.5
 30
0.0
 11
141.6999999999998
 21
196.0
 31
0.0
  0
LINE
  5
44D5
330
44B4
100
AcDbEntity
  8
AM_0 外形線1
100
AcDbLine
 10
142.5
 20
135.5
 30
0.0
 11
141.6999999999998
 21
137.5
 31
0.0
  0
ARC
  5
44D6
330
44B4
100
AcDbEntity
  8
AM_0 外形線1
100
AcDbCircle
 10
137.6999999999998
 20
196.0
 30
0.0
 40
4.0
100
AcDbArc
 50
0.0
 51
90.0
  0
LINE
  5
44D7
330
44B4
100
AcDbEntity
  8
AM_0 外形線1
100
AcDbLine
 10
-82.61355820929109
 20
200.0000000000001
 30
0.0
 11
-82.61355820929157
 21
0.0
 31
0.0
  0
ARC
  5
5C65
330
44B4
100
AcDbEntity
  8
AM_0 外形線1
100
AcDbCircle
 10
0.0
 20
56.0
 30
0.0
 40
147.6
100
AcDbArc
 50
170.4452984104638
 51
188.1795945076308
  0
ARC
  5
5C66
330
44B4
100
AcDbEntity
  8
AM_7 中心線
100
AcDbCircle
 10
0.0
 20
56.0
 30
0.0
 40
152.0
100
AcDbArc
 50
169.8074643123789
 51
188.9228517680188
  0
ENDBLK
  5
44B6
330
44B4
100
AcDbEntity
  8
0
100
AcDbBlockEnd
  0
BLOCK
  5
45B2
330
45B1
100
AcDbEntity
  8
0
100
AcDbBlockBegin
  2
ケースＢ SMVH400
 70
     0
 10
0.0
 20
0.0
 30
0.0
  3
ケースＢ SMVH400
  1

  0
ARC
  5
45B4
330
45B1
100
AcDbEntity
  8
AM_0 外形線1
100
AcDbCircle
 10
-160.5
 20
110.0
 30
0.0
 40
4.0
100
AcDbArc
 50
90.0
 51
180.0
  0
LWPOLYLINE
  5
45B5
330
45B1
100
AcDbEntity
  8
AM_0 外形線1
100
AcDbPolyline
 90
       73
 70
     0
 43
0.0
 10
-145.9499999999998
 20
99.4000000000001
 10
-145.6493119999995
 20
99.42131000000006
 10
-145.3509139999996
 20
99.48507700000003
 10
-145.0570739999994
 20
99.59081600000002
 10
-144.7700299999997
 20
99.73772200000007
 10
-144.4919669999999
 20
99.92467699999998
 10
-144.2249999999999
 20
100.150258
 10
-143.9711609999995
 20
100.4127489999999
 10
-143.7323819999997
 20
100.710152
 10
-143.5104809999998
 20
101.040202
 10
-143.3071460000001
 20
101.40039
 10
-143.1239249999999
 20
101.7879720000001
 10
-142.9622119999994
 20
102.2
 10
-142.8232379999999
 20
102.6333380000001
 10
-142.7080599999999
 20
103.084688
 10
-142.6175559999997
 20
103.550614
 10
-142.5524129999994
 20
104.0275710000001
 10
-142.5131279999996
 20
104.511928
 10
-142.5
 20
105.0
 10
-142.5131279999996
 20
105.488073
 10
-142.5524129999994
 20
105.97243
 10
-142.6175559999997
 20
106.449387
 10
-142.7080599999999
 20
106.9153130000001
 10
-142.8232379999999
 20
107.366663
 10
-142.9622119999994
 20
107.8
 10
-143.1239249999999
 20
108.212028
 10
-143.3071460000001
 20
108.5996109999999
 10
-143.5104809999998
 20
108.9597979999999
 10
-143.7323819999997
 20
109.289849
 10
-143.9711609999995
 20
109.587252
 10
-144.2249999999999
 20
109.849743
 10
-144.4919669999999
 20
110.075324
 10
-144.7700299999997
 20
110.262279
 10
-145.0570739999994
 20
110.409185
 10
-145.3509139999996
 20
110.5149239999999
 10
-145.6493119999995
 20
110.5786909999999
 10
-145.9499999999998
 20
110.6
 10
-146.2506869999996
 20
110.5786909999999
 10
-146.549086
 20
110.5149239999999
 10
-146.8429249999999
 20
110.409185
 10
-147.1299689999996
 20
110.262279
 10
-147.4080329999997
 20
110.075324
 10
-147.6750000000001
 20
109.849743
 10
-147.9288379999998
 20
109.587252
 10
-148.167617
 20
109.289849
 10
-148.3895179999999
 20
108.9597979999999
 10
-148.5928530000001
 20
108.5996109999999
 10
-148.7760739999994
 20
108.212028
 10
-148.9377869999998
 20
107.8
 10
-149.0767619999997
 20
107.366663
 10
-149.1919389999998
 20
106.9153130000001
 10
-149.2824439999995
 20
106.449387
 10
-149.3475859999998
 20
105.97243
 10
-149.3868709999997
 20
105.488073
 10
-149.3999999999996
 20
105.0
 10
-149.3868709999997
 20
104.511928
 10
-149.3475859999998
 20
104.0275710000001
 10
-149.2824439999995
 20
103.550614
 10
-149.1919389999998
 20
103.084688
 10
-149.0767619999997
 20
102.6333380000001
 10
-148.9377869999998
 20
102.2
 10
-148.7760739999994
 20
101.7879720000001
 10
-148.5928530000001
 20
101.40039
 10
-148.3895179999999
 20
101.040202
 10
-148.167617
 20
100.710152
 10
-147.9288379999998
 20
100.4127489999999
 10
-147.6750000000001
 20
100.150258
 10
-147.4080329999997
 20
99.92467699999998
 10
-147.1299689999996
 20
99.73772200000007
 10
-146.8429249999999
 20
99.59081600000002
 10
-146.549086
 20
99.48507700000003
 10
-146.2506869999996
 20
99.42131000000006
 10
-145.9499999999998
 20
99.4000000000001
  0
LINE
  5
45B6
330
45B1
100
AcDbEntity
  8
AM_0 外形線1
100
AcDbLine
 10
-144.0
 20
96.0
 30
0.0
 11
-156.0
 21
96.0
 31
0.0
  0
LINE
  5
45B7
330
45B1
100
AcDbEntity
  8
AM_0 外形線1
100
AcDbLine
 10
-148.8999999999996
 20
99.4000000000001
 30
0.0
 11
-144.0
 21
99.4000000000001
 31
0.0
  0
LINE
  5
45B8
330
45B1
100
AcDbEntity
  8
AM_0 外形線1
100
AcDbLine
 10
-144.0
 20
110.6
 30
0.0
 11
-148.8999999999996
 21
110.6
 31
0.0
  0
LINE
  5
45B9
330
45B1
100
AcDbEntity
  8
AM_0 外形線1
100
AcDbLine
 10
-160.5
 20
114.0
 30
0.0
 11
-144.0
 21
114.0
 31
0.0
  0
LINE
  5
45BA
330
45B1
100
AcDbEntity
  8
AM_0 外形線1
100
AcDbLine
 10
-164.5
 20
86.5
 30
0.0
 11
-164.5
 21
25.0
 31
0.0
  0
LINE
  5
45BB
330
45B1
100
AcDbEntity
  8
AM_3 隠れ線
100
AcDbLine
 10
-148.8000000000002
 20
44.0
 30
0.0
 11
-148.8000000000002
 21
88.49999999999999
 31
0.0
  0
LINE
  5
45BC
330
45B1
100
AcDbEntity
  8
AM_7 中心線
100
AcDbLine
 10
-152.0
 20
37.0
 30
0.0
 11
-152.0
 21
91.5
 31
0.0
  0
LINE
  5
45BD
330
45B1
100
AcDbEntity
  8
AM_0 外形線1
100
AcDbLine
 10
-156.0
 20
39.0
 30
0.0
 11
-156.0
 21
89.50000000000001
 31
0.0
  0
LINE
  5
45BE
330
45B1
100
AcDbEntity
  8
AM_0 外形線1
100
AcDbLine
 10
-163.5
 20
0.0
 30
0.0
 11
-199.0
 21
0.0
 31
0.0
  0
LINE
  5
45BF
330
45B1
100
AcDbEntity
  8
AM_4 細線
100
AcDbLine
 10
-190.5999999999999
 20
5.215250000000081
 30
0.0
 11
-200.0
 21
4.921500000000037
 31
0.0
  0
LINE
  5
45C0
330
45B1
100
AcDbEntity
  8
AM_0 外形線1
100
AcDbLine
 10
-190.5999999999999
 20
5.75
 30
0.0
 11
-200.0
 21
5.456250000000068
 31
0.0
  0
LINE
  5
45C1
330
45B1
100
AcDbEntity
  8
AM_7 中心線
100
AcDbLine
 10
-154.5
 20
11.5
 30
0.0
 11
-204.0563739999998
 21
11.5
 31
0.0
  0
LINE
  5
45C2
330
45B1
100
AcDbEntity
  8
AM_4 細線
100
AcDbLine
 10
-190.5999999999999
 20
17.78475000000003
 30
0.0
 11
-200.0
 21
18.07850000000007
 31
0.0
  0
LINE
  5
45C3
330
45B1
100
AcDbEntity
  8
AM_0 外形線1
100
AcDbLine
 10
-190.5999999999999
 20
17.25
 30
0.0
 11
-200.0
 21
17.54375000000004
 31
0.0
  0
LINE
  5
45C4
330
45B1
100
AcDbEntity
  8
AM_0 外形線1
100
AcDbLine
 10
-199.0
 20
21.0
 30
0.0
 11
-168.5
 21
21.0
 31
0.0
  0
LINE
  5
45C5
330
45B1
100
AcDbEntity
  8
AM_0 外形線1
100
AcDbLine
 10
-163.5
 20
0.0
 30
0.0
 11
-199.0
 21
0.0
 31
0.0
  0
LINE
  5
45C6
330
45B1
100
AcDbEntity
  8
AM_0 外形線1
100
AcDbLine
 10
-200.0
 20
1.0
 30
0.0
 11
-200.0
 21
20.0
 31
0.0
  0
LINE
  5
45C7
330
45B1
100
AcDbEntity
  8
AM_0 外形線1
100
AcDbLine
 10
-199.0
 20
0.0
 30
0.0
 11
-200.0
 21
1.0
 31
0.0
  0
LINE
  5
45C8
330
45B1
100
AcDbEntity
  8
AM_0 外形線1
100
AcDbLine
 10
-200.0
 20
20.0
 30
0.0
 11
-199.0
 21
21.0
 31
0.0
  0
LINE
  5
45C9
330
45B1
100
AcDbEntity
  8
AM_0 外形線1
100
AcDbLine
 10
-157.0
 20
38.0
 30
0.0
 11
-157.0
 21
6.0
 31
0.0
  0
LINE
  5
45CA
330
45B1
100
AcDbEntity
  8
AM_0 外形線1
100
AcDbLine
 10
-163.0
 20
5.75
 30
0.0
 11
-190.5999999999999
 21
5.75
 31
0.0
  0
LINE
  5
45CB
330
45B1
100
AcDbEntity
  8
AM_0 外形線1
100
AcDbLine
 10
-157.0
 20
17.25
 30
0.0
 11
-190.5999999999999
 21
17.25
 31
0.0
  0
LINE
  5
45CC
330
45B1
100
AcDbEntity
  8
AM_0 外形線1
100
AcDbLine
 10
-190.5999999999999
 20
17.78475000000003
 30
0.0
 11
-190.5999999999999
 21
5.215250000000081
 31
0.0
  0
LINE
  5
45CD
330
45B1
100
AcDbEntity
  8
AM_0 外形線1
100
AcDbLine
 10
-163.0
 20
0.5
 30
0.0
 11
-163.5
 21
0.0
 31
0.0
  0
ARC
  5
45CE
330
45B1
100
AcDbEntity
  8
AM_0 外形線1
100
AcDbCircle
 10
-168.5
 20
25.0
 30
0.0
 40
4.0
100
AcDbArc
 50
270.0
 51
0.0
  0
ARC
  5
45CF
330
45B1
100
AcDbEntity
  8
AM_0 外形線1
100
AcDbCircle
 10
-156.0
 20
38.0
 30
0.0
 40
1.0
100
AcDbArc
 50
90.0
 51
180.0
  0
LINE
  5
45D0
330
45B1
100
AcDbEntity
  8
AM_0 外形線1
100
AcDbLine
 10
-149.8000000000001
 20
39.0
 30
0.0
 11
-156.0
 21
39.0
 31
0.0
  0
LINE
  5
45D2
330
45B1
100
AcDbEntity
  8
AM_0 外形線1
100
AcDbLine
 10
-148.8000000000002
 20
40.0
 30
0.0
 11
-149.8000000000001
 21
39.0
 31
0.0
  0
LINE
  5
45D3
330
45B1
100
AcDbEntity
  8
AM_0 外形線1
100
AcDbLine
 10
-148.8000000000002
 20
44.0
 30
0.0
 11
-148.8000000000002
 21
40.0
 31
0.0
  0
LINE
  5
45D4
330
45B1
100
AcDbEntity
  8
AM_0 外形線1
100
AcDbLine
 10
-164.5
 20
99.50000000000001
 30
0.0
 11
-164.5
 21
110.0
 31
0.0
  0
LINE
  5
45D5
330
45B1
100
AcDbEntity
  8
AM_3 隠れ線
100
AcDbLine
 10
-149.8000000000001
 20
89.50000000000001
 30
0.0
 11
-148.8000000000002
 21
88.49999999999999
 31
0.0
  0
LINE
  5
45D6
330
45B1
100
AcDbEntity
  8
AM_0 外形線1
100
AcDbLine
 10
-156.0
 20
89.50000000000001
 30
0.0
 11
-149.8000000000001
 21
89.50000000000001
 31
0.0
  0
ARC
  5
45D7
330
45B1
100
AcDbEntity
  8
AM_3 隠れ線
100
AcDbCircle
 10
-156.0
 20
90.5
 30
0.0
 40
1.0
100
AcDbArc
 50
180.0
 51
196.9395836532149
  0
LINE
  5
45D8
330
45B1
100
AcDbEntity
  8
AM_3 隠れ線
100
AcDbLine
 10
-157.0
 20
95.0
 30
0.0
 11
-157.0
 21
90.5
 31
0.0
  0
ARC
  5
45D9
330
45B1
100
AcDbEntity
  8
AM_0 外形線1
100
AcDbCircle
 10
-156.0
 20
95.0
 30
0.0
 40
1.0
100
AcDbArc
 50
90.0
 51
141.710281031259
  0
ARC
  5
45DA
330
45B1
100
AcDbEntity
  8
AM_0 外形線1
100
AcDbCircle
 10
-148.8999999999996
 20
99.90000000000009
 30
0.0
 40
0.5
100
AcDbArc
 50
180.0
 51
270.0
  0
LINE
  5
45DB
330
45B1
100
AcDbEntity
  8
AM_0 外形線1
100
AcDbLine
 10
-149.3999999999996
 20
110.1
 30
0.0
 11
-149.3999999999996
 21
99.90000000000009
 31
0.0
  0
ARC
  5
45DC
330
45B1
100
AcDbEntity
  8
AM_0 外形線1
100
AcDbCircle
 10
-148.8999999999996
 20
110.1
 30
0.0
 40
0.5
100
AcDbArc
 50
90.0
 51
180.0
  0
LINE
  5
45DD
330
45B1
100
AcDbEntity
  8
AM_0 外形線1
100
AcDbLine
 10
-144.0
 20
99.4000000000001
 30
0.0
 11
-144.0
 21
96.0
 31
0.0
  0
LINE
  5
45DE
330
45B1
100
AcDbEntity
  8
AM_0 外形線1
100
AcDbLine
 10
-144.0
 20
114.0
 30
0.0
 11
-144.0
 21
110.6
 31
0.0
  0
LINE
  5
45DF
330
45B1
100
AcDbEntity
  8
AM_0 外形線1
100
AcDbLine
 10
-144.0
 20
114.0
 30
0.0
 11
-142.5
 21
114.0
 31
0.0
  0
LINE
  5
45E0
330
45B1
100
AcDbEntity
  8
AM_0 外形線1
100
AcDbLine
 10
-144.0
 20
110.6
 30
0.0
 11
-142.5
 21
110.6
 31
0.0
  0
LINE
  5
45E1
330
45B1
100
AcDbEntity
  8
AM_0 外形線1
100
AcDbLine
 10
-144.0
 20
99.4000000000001
 30
0.0
 11
-142.5
 21
99.4000000000001
 31
0.0
  0
LINE
  5
45E2
330
45B1
100
AcDbEntity
  8
AM_0 外形線1
100
AcDbLine
 10
-144.0
 20
96.0
 30
0.0
 11
-142.5
 21
96.0
 31
0.0
  0
LINE
  5
45E3
330
45B1
100
AcDbEntity
  8
AM_0 外形線1
100
AcDbLine
 10
151.196406
 20
114.0
 30
0.0
 11
0.0
 21
114.0
 31
0.0
  0
LINE
  5
45E4
330
45B1
100
AcDbEntity
  8
AM_0 外形線1
100
AcDbLine
 10
199.0
 20
21.0
 30
0.0
 11
0.0
 21
21.0
 31
0.0
  0
ARC
  5
45E5
330
45B1
100
AcDbEntity
  8
AM_0 外形線1
100
AcDbCircle
 10
160.5
 20
110.0
 30
0.0
 40
4.0
100
AcDbArc
 50
0.0
 51
90.0
  0
LINE
  5
45E6
330
45B1
100
AcDbEntity
  8
AM_0 外形線1
100
AcDbLine
 10
164.5
 20
25.0
 30
0.0
 11
164.5
 21
105.579828
 31
0.0
  0
ARC
  5
45E7
330
45B1
100
AcDbEntity
  8
AM_0 外形線1
100
AcDbCircle
 10
168.5
 20
25.0
 30
0.0
 40
4.0
100
AcDbArc
 50
180.0
 51
270.0
  0
LINE
  5
45E8
330
45B1
100
AcDbEntity
  8
AM_0 外形線1
100
AcDbLine
 10
200.0
 20
1.0
 30
0.0
 11
200.0
 21
20.0
 31
0.0
  0
LINE
  5
45E9
330
45B1
100
AcDbEntity
  8
AM_0 外形線1
100
AcDbLine
 10
199.0
 20
0.0
 30
0.0
 11
200.0
 21
1.0
 31
0.0
  0
LINE
  5
45EA
330
45B1
100
AcDbEntity
  8
AM_0 外形線1
100
AcDbLine
 10
200.0
 20
20.0
 30
0.0
 11
199.0
 21
21.0
 31
0.0
  0
LINE
  5
45EB
330
45B1
100
AcDbEntity
  8
AM_0 外形線1
100
AcDbLine
 10
160.5
 20
114.0
 30
0.0
 11
151.196406
 21
114.0
 31
0.0
  0
LINE
  5
45EC
330
45B1
100
AcDbEntity
  8
AM_0 外形線1
100
AcDbLine
 10
164.5
 20
105.579828
 30
0.0
 11
164.5
 21
110.0
 31
0.0
  0
LINE
  5
45ED
330
45B1
100
AcDbEntity
  8
AM_4 細線
100
AcDbLine
 10
-156.8660254037841
 20
90.0
 30
0.0
 11
-157.1652493664764
 21
90.0
 31
0.0
  0
LINE
  5
45EE
330
45B1
100
AcDbEntity
  8
AM_0 外形線1
100
AcDbLine
 10
-163.665249366476
 20
96.0
 30
0.0
 11
-163.665249366476
 21
100.0
 31
0.0
  0
LINE
  5
45EF
330
45B1
100
AcDbEntity
  8
AM_0 外形線1
100
AcDbLine
 10
-164.4652493664762
 20
100.0
 30
0.0
 11
-163.665249366476
 21
100.0
 31
0.0
  0
LINE
  5
45F0
330
45B1
100
AcDbEntity
  8
AM_0 外形線1
100
AcDbLine
 10
-163.665249366476
 20
86.0
 30
0.0
 11
-163.665249366476
 21
89.99999999999989
 31
0.0
  0
LINE
  5
45F1
330
45B1
100
AcDbEntity
  8
AM_0 外形線1
100
AcDbLine
 10
-164.4652493664762
 20
86.0
 30
0.0
 11
-163.665249366476
 21
86.0
 31
0.0
  0
LINE
  5
45F2
330
45B1
100
AcDbEntity
  8
AM_4 細線
100
AcDbLine
 10
-156.0
 20
96.00000000000013
 30
0.0
 11
-157.165249366476
 21
96.00000000000013
 31
0.0
  0
ARC
  5
45F3
330
45B1
100
AcDbEntity
  8
AM_3 隠れ線
100
AcDbCircle
 10
-156.0
 20
95.0
 30
0.0
 40
1.0
100
AcDbArc
 50
141.7920903016118
 51
180.0
  0
ARC
  5
45F4
330
45B1
100
AcDbEntity
  8
AM_0 外形線1
100
AcDbCircle
 10
-156.0
 20
90.5
 30
0.0
 40
1.0
100
AcDbArc
 50
196.9395836532149
 51
270.0
  0
INSERT
  5
45F5
330
45B1
100
AcDbEntity
  8
AM_0 外形線1
100
AcDbBlockReference
  2
ジュウジマルコネジ
 10
-164.665249366476
 20
93.0
 30
0.0
  0
LINE
  5
4681
330
45B1
100
AcDbEntity
  8
AM_0 外形線1
100
AcDbLine
 10
199.0
 20
0.0
 30
0.0
 11
0.0
 21
0.0
 31
0.0
  0
LINE
  5
4682
330
45B1
100
AcDbEntity
  8
AM_0 外形線1
100
AcDbLine
 10
-163.0
 20
0.5
 30
0.0
 11
-163.0
 21
6.0
 31
0.0
  0
LINE
  5
4683
330
45B1
100
AcDbEntity
  8
AM_0 外形線1
100
AcDbLine
 10
-163.0
 20
6.0
 30
0.0
 11
-157.0
 21
6.0
 31
0.0
  0
ENDBLK
  5
45B3
330
45B1
100
AcDbEntity
  8
0
100
AcDbBlockEnd
  0
BLOCK
  5
46D2
330
46D1
100
AcDbEntity
  8
0
100
AcDbBlockBegin
  2
リーマボルト SMVH400 M16
 70
     0
 10
0.0
 20
0.0
 30
0.0
  3
リーマボルト SMVH400 M16
  1

  0
ARC
  5
46D4
330
46D1
100
AcDbEntity
  8
AM_0 外形線1
100
AcDbCircle
 10
0.0
 20
13.00389799999993
 30
0.0
 40
23.003897
100
AcDbArc
 50
252.4717980000064
 51
287.5282019999937
  0
LINE
  5
46D5
330
46D1
100
AcDbEntity
  8
AM_0 外形線1
100
AcDbLine
 10
12.0
 20
-10.0
 30
0.0
 11
-12.0
 21
-10.0
 31
0.0
  0
ARC
  5
46D6
330
46D1
100
AcDbEntity
  8
AM_0 外形線1
100
AcDbCircle
 10
-10.38910099999975
 20
-3.858873000000015
 30
0.0
 40
6.141127
100
AcDbArc
 50
235.6975910000001
 51
304.3024089999999
  0
LINE
  5
46D7
330
46D1
100
AcDbEntity
  8
AM_0 外形線1
100
AcDbLine
 10
-6.928202999999483
 20
0.0
 30
0.0
 11
-6.928202999999483
 21
-8.931902000000036
 31
0.0
  0
LINE
  5
46D8
330
46D1
100
AcDbEntity
  8
AM_0 外形線1
100
AcDbLine
 10
-13.84999999999991
 20
-8.931902000000036
 30
0.0
 11
-13.84999999999991
 21
0.0
 31
0.0
  0
LINE
  5
46D9
330
46D1
100
AcDbEntity
  8
AM_0 外形線1
100
AcDbLine
 10
-12.0
 20
-10.0
 30
0.0
 11
-13.84999999999991
 21
-8.931902000000036
 31
0.0
  0
ARC
  5
46DA
330
46D1
100
AcDbEntity
  8
AM_0 外形線1
100
AcDbCircle
 10
10.38910200000009
 20
-3.858873000000015
 30
0.0
 40
6.141127
100
AcDbArc
 50
235.6975910000001
 51
304.3024089999999
  0
LINE
  5
46DB
330
46D1
100
AcDbEntity
  8
AM_0 外形線1
100
AcDbLine
 10
6.928204000000278
 20
0.0
 30
0.0
 11
6.928204000000278
 21
-8.931902000000036
 31
0.0
  0
LINE
  5
46DC
330
46D1
100
AcDbEntity
  8
AM_0 外形線1
100
AcDbLine
 10
13.85000000000036
 20
-8.931902000000036
 30
0.0
 11
12.0
 21
-10.0
 31
0.0
  0
LINE
  5
46DD
330
46D1
100
AcDbEntity
  8
AM_0 外形線1
100
AcDbLine
 10
13.85000000000036
 20
0.0
 30
0.0
 11
13.85000000000036
 21
-8.931902000000036
 31
0.0
  0
LINE
  5
46DE
330
46D1
100
AcDbEntity
  8
AM_0 外形線1
100
AcDbLine
 10
8.0
 20
63.0
 30
0.0
 11
-8.0
 21
63.0
 31
0.0
  0
LINE
  5
46DF
330
46D1
100
AcDbEntity
  8
AM_0 外形線1
100
AcDbLine
 10
6.0
 20
65.0
 30
0.0
 11
-6.0
 21
65.0
 31
0.0
  0
ARC
  5
46E0
330
46D1
100
AcDbEntity
  8
AM_0 外形線1
100
AcDbCircle
 10
0.0
 20
35.99610299999996
 30
0.0
 40
23.003897
100
AcDbArc
 50
72.47179800000637
 51
107.5282019999936
  0
LINE
  5
46E1
330
46D1
100
AcDbEntity
  8
AM_0 外形線1
100
AcDbLine
 10
-13.84999999999991
 20
46.0
 30
0.0
 11
13.85000000000036
 21
46.0
 31
0.0
  0
LINE
  5
46E2
330
46D1
100
AcDbEntity
  8
AM_0 外形線1
100
AcDbLine
 10
12.0
 20
59.0
 30
0.0
 11
-12.0
 21
59.0
 31
0.0
  0
LINE
  5
46E3
330
46D1
100
AcDbEntity
  8
AM_4 細線
100
AcDbLine
 10
-7.0
 20
59.0
 30
0.0
 11
-7.0
 21
64.0
 31
0.0
  0
LINE
  5
46E4
330
46D1
100
AcDbEntity
  8
AM_0 外形線1
100
AcDbLine
 10
-8.0
 20
63.0
 30
0.0
 11
-8.0
 21
59.0
 31
0.0
  0
LINE
  5
46E5
330
46D1
100
AcDbEntity
  8
AM_0 外形線1
100
AcDbLine
 10
-6.0
 20
65.0
 30
0.0
 11
-8.0
 21
63.0
 31
0.0
  0
LINE
  5
46E6
330
46D1
100
AcDbEntity
  8
AM_0 外形線1
100
AcDbLine
 10
-6.928202999999483
 20
46.0
 30
0.0
 11
-6.928202999999483
 21
57.93190200000004
 31
0.0
  0
ARC
  5
46E7
330
46D1
100
AcDbEntity
  8
AM_0 外形線1
100
AcDbCircle
 10
-10.38910099999975
 20
52.85887300000002
 30
0.0
 40
6.141127
100
AcDbArc
 50
55.69759100000007
 51
124.3024089999999
  0
LINE
  5
46E8
330
46D1
100
AcDbEntity
  8
AM_0 外形線1
100
AcDbLine
 10
-13.84999999999991
 20
57.93190200000004
 30
0.0
 11
-13.84999999999991
 21
46.0
 31
0.0
  0
LINE
  5
46E9
330
46D1
100
AcDbEntity
  8
AM_0 外形線1
100
AcDbLine
 10
-12.0
 20
59.0
 30
0.0
 11
-13.84999999999991
 21
57.93190200000004
 31
0.0
  0
LINE
  5
46EA
330
46D1
100
AcDbEntity
  8
AM_0 外形線1
100
AcDbLine
 10
-14.0
 20
46.0
 30
0.0
 11
-13.84999999999991
 21
46.0
 31
0.0
  0
LINE
  5
46EB
330
46D1
100
AcDbEntity
  8
AM_0 外形線1
100
AcDbLine
 10
-14.0
 20
42.0
 30
0.0
 11
-14.0
 21
46.0
 31
0.0
  0
LINE
  5
46EC
330
46D1
100
AcDbEntity
  8
AM_4 細線
100
AcDbLine
 10
7.0
 20
59.0
 30
0.0
 11
7.0
 21
64.0
 31
0.0
  0
LINE
  5
46ED
330
46D1
100
AcDbEntity
  8
AM_0 外形線1
100
AcDbLine
 10
-1.333332999999583
 20
46.0
 30
0.0
 11
2.666667000000416
 21
42.0
 31
0.0
  0
LINE
  5
46EE
330
46D1
100
AcDbEntity
  8
AM_0 外形線1
100
AcDbLine
 10
-2.666665999999622
 20
46.0
 30
0.0
 11
1.333334000000377
 21
42.0
 31
0.0
  0
LINE
  5
46EF
330
46D1
100
AcDbEntity
  8
AM_0 外形線1
100
AcDbLine
 10
8.0
 20
63.0
 30
0.0
 11
6.0
 21
65.0
 31
0.0
  0
LINE
  5
46F0
330
46D1
100
AcDbEntity
  8
AM_0 外形線1
100
AcDbLine
 10
8.0
 20
59.0
 30
0.0
 11
8.0
 21
63.0
 31
0.0
  0
LINE
  5
46F1
330
46D1
100
AcDbEntity
  8
AM_0 外形線1
100
AcDbLine
 10
6.928204000000278
 20
46.0
 30
0.0
 11
6.928204000000278
 21
57.93190200000004
 31
0.0
  0
ARC
  5
46F2
330
46D1
100
AcDbEntity
  8
AM_0 外形線1
100
AcDbCircle
 10
10.38910200000009
 20
52.85887300000002
 30
0.0
 40
6.141127
100
AcDbArc
 50
55.69759100000007
 51
124.3024089999999
  0
LINE
  5
46F3
330
46D1
100
AcDbEntity
  8
AM_0 外形線1
100
AcDbLine
 10
13.85000000000036
 20
57.93190200000004
 30
0.0
 11
12.0
 21
59.0
 31
0.0
  0
LINE
  5
46F4
330
46D1
100
AcDbEntity
  8
AM_0 外形線1
100
AcDbLine
 10
13.85000000000036
 20
46.0
 30
0.0
 11
13.85000000000036
 21
57.93190200000004
 31
0.0
  0
LINE
  5
46F5
330
46D1
100
AcDbEntity
  8
AM_0 外形線1
100
AcDbLine
 10
14.0
 20
46.0
 30
0.0
 11
14.0
 21
42.0
 31
0.0
  0
LINE
  5
46F6
330
46D1
100
AcDbEntity
  8
AM_0 外形線1
100
AcDbLine
 10
13.85000000000036
 20
46.0
 30
0.0
 11
14.0
 21
46.0
 31
0.0
  0
LINE
  5
4744
330
46D1
100
AcDbEntity
  8
AM_0 外形線1
100
AcDbLine
 10
14.0
 20
42.0
 30
0.0
 11
-14.0
 21
42.0
 31
0.0
  0
LINE
  5
4745
330
46D1
100
AcDbEntity
  8
AM_0 外形線1
100
AcDbLine
 10
13.85000000000036
 20
0.0
 30
0.0
 11
-13.84999999999991
 21
0.0
 31
0.0
  0
ENDBLK
  5
46D3
330
46D1
100
AcDbEntity
  8
0
100
AcDbBlockEnd
  0
BLOCK
  5
476C
330
476B
100
AcDbEntity
  8
0
100
AcDbBlockBegin
  2
スラストプレ－ト SMVH400
 70
     0
 10
0.0
 20
0.0
 30
0.0
  3
スラストプレ－ト SMVH400
  1

  0
LINE
  5
476E
330
476B
100
AcDbEntity
  8
AM_0 外形線1
100
AcDbLine
 10
-147.0
 20
15.0
 30
0.0
 11
-163.0
 21
15.0
 31
0.0
  0
LINE
  5
476F
330
476B
100
AcDbEntity
  8
AM_0 外形線1
100
AcDbLine
 10
-156.5
 20
9.0
 30
0.0
 11
-163.0
 21
9.0
 31
0.0
  0
LINE
  5
4770
330
476B
100
AcDbEntity
  8
AM_0 外形線1
100
AcDbLine
 10
-156.5
 20
9.0
 30
0.0
 11
-156.4999999999995
 21
3.0
 31
0.0
  0
LINE
  5
4771
330
476B
100
AcDbEntity
  8
AM_0 外形線1
100
AcDbLine
 10
-137.0
 20
3.0
 30
0.0
 11
-156.4999999999995
 21
3.0
 31
0.0
  0
LINE
  5
4772
330
476B
100
AcDbEntity
  8
AM_0 外形線1
100
AcDbLine
 10
0.0
 20
11.5
 30
0.0
 11
-147.0
 21
11.5
 31
0.0
  0
LINE
  5
4773
330
476B
100
AcDbEntity
  8
AM_0 外形線1
100
AcDbLine
 10
-147.0
 20
15.0
 30
0.0
 11
-146.9999999999995
 21
11.50000000000011
 31
0.0
  0
LINE
  5
4774
330
476B
100
AcDbEntity
  8
AM_0 外形線1
100
AcDbLine
 10
-126.9999999999995
 20
1.000000000000567
 30
0.0
 11
-126.9999999999995
 21
0.0000000000006821
 31
0.0
  0
ARC
  5
4775
330
476B
100
AcDbEntity
  8
AM_0 外形線1
100
AcDbCircle
 10
-134.0
 20
3.000000000000453
 30
0.0
 40
3.0
100
AcDbArc
 50
180.0
 51
270.0
  0
LINE
  5
4776
330
476B
100
AcDbEntity
  8
AM_0 外形線1
100
AcDbLine
 10
-126.9999999999995
 20
1.000000000000567
 30
0.0
 11
0.0000000000004547
 21
0.9999999999998864
 31
0.0
  0
LINE
  5
4790
330
476B
100
AcDbEntity
  8
AM_0 外形線1
100
AcDbLine
 10
-163.0
 20
15.0
 30
0.0
 11
-163.0
 21
9.0
 31
0.0
  0
LINE
  5
4791
330
476B
100
AcDbEntity
  8
AM_0 外形線1
100
AcDbLine
 10
-134.0
 20
0.0000000000004547
 30
0.0
 11
-126.9999999999995
 21
0.0
 31
0.0
  0
ENDBLK
  5
476D
330
476B
100
AcDbEntity
  8
0
100
AcDbBlockEnd
  0
BLOCK
  5
47BF
330
47BE
100
AcDbEntity
  8
0
100
AcDbBlockBegin
  2
*D14
 70
     1
 10
0.0
 20
0.0
 30
0.0
  3
*D14
  1

  0
LINE
  5
50A3
330
47BE
100
AcDbEntity
  8
AM_5 寸法線
 62
     3
100
AcDbLine
 10
725.3746006608416
 20
599.7162383130135
 30
0.0
 11
725.3746006608416
 21
435.2162383130133
 31
0.0
  0
LINE
  5
50A4
330
47BE
100
AcDbEntity
  8
AM_5 寸法線
 62
     3
100
AcDbLine
 10
1010.374600660841
 20
599.7162383130135
 30
0.0
 11
1010.374600660841
 21
435.2162383130133
 31
0.0
  0
LINE
  5
50A5
330
47BE
100
AcDbEntity
  8
AM_5 寸法線
 62
     3
100
AcDbLine
 10
735.3746006608417
 20
437.7162383130134
 30
0.0
 11
1000.374600660841
 21
437.7162383130134
 31
0.0
  0
INSERT
  5
50A6
330
47BE
100
AcDbEntity
  8
AM_5 寸法線
 62
     3
100
AcDbBlockReference
  2
_Open30
 10
725.3746006608416
 20
437.7162383130134
 30
0.0
 41
10.0
 42
10.0
 43
10.0
 50
180.0
  0
INSERT
  5
50A7
330
47BE
100
AcDbEntity
  8
AM_5 寸法線
 62
     3
100
AcDbBlockReference
  2
_Open30
 10
1010.374600660841
 20
437.7162383130134
 30
0.0
 41
10.0
 42
10.0
 43
10.0
  0
MTEXT
  5
50A8
330
47BE
100
AcDbEntity
  8
AM_5 寸法線
 62
     3
100
AcDbMText
 10
867.8746006608417
 20
450.7162383130133
 30
0.0
 40
14.0
 41
0.0
 46
0.0
 71
     5
 72
     1
  1
%%c285
  7
SEISA
 73
     1
 44
1.0
  0
POINT
  5
50A9
330
47BE
100
AcDbEntity
  8
Defpoints
 62
     0
100
AcDbPoint
 10
725.3746006608416
 20
602.2162383130135
 30
0.0
  0
POINT
  5
50AA
330
47BE
100
AcDbEntity
  8
Defpoints
 62
     0
100
AcDbPoint
 10
1010.374600660841
 20
602.2162383130135
 30
0.0
  0
POINT
  5
50AB
330
47BE
100
AcDbEntity
  8
Defpoints
 62
     0
100
AcDbPoint
 10
1010.374600660841
 20
437.7162383130134
 30
0.0
  0
ENDBLK
  5
47C0
330
47BE
100
AcDbEntity
  8
0
100
AcDbBlockEnd
  0
BLOCK
  5
494F
330
494E
100
AcDbEntity
  8
0
100
AcDbBlockBegin
  2
*D15
 70
     1
 10
0.0
 20
0.0
 30
0.0
  3
*D15
  1

  0
LINE
  5
55F4
330
494E
100
AcDbEntity
  8
AM_5 寸法線
 62
     3
100
AcDbLine
 10
1069.374600660842
 20
725.7162383130133
 30
0.0
 11
1130.374600660842
 21
725.7162383130133
 31
0.0
  0
LINE
  5
55F5
330
494E
100
AcDbEntity
  8
AM_5 寸法線
 62
     3
100
AcDbLine
 10
1069.374600660842
 20
746.7162383130133
 30
0.0
 11
1130.374600660842
 21
746.7162383130133
 31
0.0
  0
LINE
  5
55F6
330
494E
100
AcDbEntity
  8
AM_5 寸法線
 62
     3
100
AcDbLine
 10
1127.874600660842
 20
756.7162383130135
 30
0.0
 11
1127.874600660842
 21
766.7162383130133
 31
0.0
  0
LINE
  5
55F7
330
494E
100
AcDbEntity
  8
AM_5 寸法線
 62
     3
100
AcDbLine
 10
1127.874600660842
 20
715.7162383130135
 30
0.0
 11
1127.874600660842
 21
676.9162383130135
 31
0.0
  0
LINE
  5
55F8
330
494E
100
AcDbEntity
  8
AM_5 寸法線
 62
     3
100
AcDbLine
 10
1127.874600660842
 20
746.7162383130133
 30
0.0
 11
1127.874600660842
 21
725.7162383130133
 31
0.0
  0
INSERT
  5
55F9
330
494E
100
AcDbEntity
  8
AM_5 寸法線
 62
     3
100
AcDbBlockReference
  2
GENDOT
 10
1127.874600660842
 20
746.7162383130133
 30
0.0
 41
10.0
 42
10.0
 43
10.0
 50
270.0
  0
INSERT
  5
55FA
330
494E
100
AcDbEntity
  8
AM_5 寸法線
 62
     3
100
AcDbBlockReference
  2
_Open30
 10
1127.874600660842
 20
725.7162383130133
 30
0.0
 41
10.0
 42
10.0
 43
10.0
 50
90.0
  0
MTEXT
  5
55FB
330
494E
100
AcDbEntity
  8
AM_5 寸法線
 62
     3
100
AcDbMText
 10
1114.874600660842
 20
691.3162383130136
 30
0.0
 40
14.0
 41
0.0
 46
0.0
 71
     5
 72
     1
  1
21
  7
SEISA
 11
0.0000000000000001
 21
1.0
 31
0.0
 73
     1
 44
1.0
  0
POINT
  5
55FC
330
494E
100
AcDbEntity
  8
Defpoints
 62
     0
100
AcDbPoint
 10
1066.874600660842
 20
725.7162383130133
 30
0.0
  0
POINT
  5
55FD
330
494E
100
AcDbEntity
  8
Defpoints
 62
     0
100
AcDbPoint
 10
1066.874600660842
 20
746.7162383130133
 30
0.0
  0
POINT
  5
55FE
330
494E
100
AcDbEntity
  8
Defpoints
 62
     0
100
AcDbPoint
 10
1127.874600660842
 20
746.7162383130133
 30
0.0
  0
ENDBLK
  5
4950
330
494E
100
AcDbEntity
  8
0
100
AcDbBlockEnd
  0
BLOCK
  5
496B
330
496A
100
AcDbEntity
  8
0
100
AcDbBlockBegin
  2
*D16
 70
     1
 10
0.0
 20
0.0
 30
0.0
  3
*D16
  1

  0
LINE
  5
55DE
330
496A
100
AcDbEntity
  8
AM_5 寸法線
 62
     3
100
AcDbLine
 10
1069.374600660842
 20
746.7162383130133
 30
0.0
 11
1130.374600660842
 21
746.7162383130133
 31
0.0
  0
LINE
  5
55DF
330
496A
100
AcDbEntity
  8
AM_5 寸法線
 62
     3
100
AcDbLine
 10
1069.374600660842
 20
767.7162383130132
 30
0.0
 11
1130.374600660842
 21
767.7162383130132
 31
0.0
  0
LINE
  5
55E0
330
496A
100
AcDbEntity
  8
AM_5 寸法線
 62
     3
100
AcDbLine
 10
1127.874600660842
 20
736.7162383130135
 30
0.0
 11
1127.874600660842
 21
726.7162383130132
 31
0.0
  0
LINE
  5
55E1
330
496A
100
AcDbEntity
  8
AM_5 寸法線
 62
     3
100
AcDbLine
 10
1127.874600660842
 20
777.7162383130135
 30
0.0
 11
1127.874600660842
 21
816.5162383130134
 31
0.0
  0
LINE
  5
55E2
330
496A
100
AcDbEntity
  8
AM_5 寸法線
 62
     3
100
AcDbLine
 10
1127.874600660842
 20
746.7162383130133
 30
0.0
 11
1127.874600660842
 21
767.7162383130132
 31
0.0
  0
INSERT
  5
55E3
330
496A
100
AcDbEntity
  8
AM_5 寸法線
 62
     3
100
AcDbBlockReference
  2
GENDOT
 10
1127.874600660842
 20
746.7162383130133
 30
0.0
 41
10.0
 42
10.0
 43
10.0
 50
90.0
  0
INSERT
  5
55E4
330
496A
100
AcDbEntity
  8
AM_5 寸法線
 62
     3
100
AcDbBlockReference
  2
_Open30
 10
1127.874600660842
 20
767.7162383130132
 30
0.0
 41
10.0
 42
10.0
 43
10.0
 50
270.0
  0
MTEXT
  5
55E5
330
496A
100
AcDbEntity
  8
AM_5 寸法線
 62
     3
100
AcDbMText
 10
1114.874600660842
 20
802.1162383130134
 30
0.0
 40
14.0
 41
0.0
 46
0.0
 71
     5
 72
     1
  1
21
  7
SEISA
 11
0.0000000000000001
 21
1.0
 31
0.0
 73
     1
 44
1.0
  0
POINT
  5
55E6
330
496A
100
AcDbEntity
  8
Defpoints
 62
     0
100
AcDbPoint
 10
1066.874600660842
 20
746.7162383130133
 30
0.0
  0
POINT
  5
55E7
330
496A
100
AcDbEntity
  8
Defpoints
 62
     0
100
AcDbPoint
 10
1066.874600660842
 20
767.7162383130132
 30
0.0
  0
POINT
  5
55E8
330
496A
100
AcDbEntity
  8
Defpoints
 62
     0
100
AcDbPoint
 10
1127.874600660842
 20
767.7162383130132
 30
0.0
  0
ENDBLK
  5
496C
330
496A
100
AcDbEntity
  8
0
100
AcDbBlockEnd
  0
BLOCK
  5
49E1
330
49E0
100
AcDbEntity
  8
0
100
AcDbBlockBegin
  2
*D17
 70
     1
 10
0.0
 20
0.0
 30
0.0
  3
*D17
  1

  0
LINE
  5
5B96
330
49E0
100
AcDbEntity
  8
AM_5 寸法線
 62
     3
100
AcDbLine
 10
1030.874600660841
 20
860.7162383130132
 30
0.0
 11
1170.374600660841
 21
860.7162383130132
 31
0.0
  0
LINE
  5
5B97
330
49E0
100
AcDbEntity
  8
AM_5 寸法線
 62
     3
100
AcDbLine
 10
1030.874600660841
 20
632.7162383130135
 30
0.0
 11
1170.374600660841
 21
632.7162383130135
 31
0.0
  0
LINE
  5
5B98
330
49E0
100
AcDbEntity
  8
AM_5 寸法線
 62
     3
100
AcDbLine
 10
1167.874600660842
 20
850.7162383130133
 30
0.0
 11
1167.874600660842
 21
642.7162383130133
 31
0.0
  0
INSERT
  5
5B99
330
49E0
100
AcDbEntity
  8
AM_5 寸法線
 62
     3
100
AcDbBlockReference
  2
_Open30
 10
1167.874600660842
 20
860.7162383130132
 30
0.0
 41
10.0
 42
10.0
 43
10.0
 50
90.0
  0
INSERT
  5
5B9A
330
49E0
100
AcDbEntity
  8
AM_5 寸法線
 62
     3
100
AcDbBlockReference
  2
_Open30
 10
1167.874600660842
 20
632.7162383130135
 30
0.0
 41
10.0
 42
10.0
 43
10.0
 50
270.0
  0
MTEXT
  5
5B9B
330
49E0
100
AcDbEntity
  8
AM_5 寸法線
 62
     3
100
AcDbMText
 10
1154.874600660841
 20
746.7162383130136
 30
0.0
 40
14.0
 41
0.0
 46
0.0
 71
     5
 72
     1
  1
228
  7
SEISA
 11
0.0000000000000001
 21
1.0
 31
0.0
 73
     1
 44
1.0
  0
POINT
  5
5B9C
330
49E0
100
AcDbEntity
  8
Defpoints
 62
     0
100
AcDbPoint
 10
1028.374600660842
 20
860.7162383130132
 30
0.0
  0
POINT
  5
5B9D
330
49E0
100
AcDbEntity
  8
Defpoints
 62
     0
100
AcDbPoint
 10
1028.374600660842
 20
632.7162383130135
 30
0.0
  0
POINT
  5
5B9E
330
49E0
100
AcDbEntity
  8
Defpoints
 62
     0
100
AcDbPoint
 10
1167.874600660842
 20
632.7162383130135
 30
0.0
  0
ENDBLK
  5
49E2
330
49E0
100
AcDbEntity
  8
0
100
AcDbBlockEnd
  0
BLOCK
  5
4A32
330
4A31
100
AcDbEntity
  8
0
100
AcDbBlockBegin
  2
*D18
 70
     1
 10
0.0
 20
0.0
 30
0.0
  3
*D18
  1

  0
LINE
  5
50E6
330
4A31
100
AcDbEntity
  8
AM_5 寸法線
 62
     3
100
AcDbLine
 10
1008.074600660841
 20
537.7162383130134
 30
0.0
 11
1210.374600660842
 21
537.7162383130134
 31
0.0
  0
LINE
  5
50E7
330
4A31
100
AcDbEntity
  8
AM_5 寸法線
 62
     3
100
AcDbLine
 10
1008.074600660841
 20
955.7162383130135
 30
0.0
 11
1210.374600660842
 21
955.7162383130135
 31
0.0
  0
LINE
  5
50E8
330
4A31
100
AcDbEntity
  8
AM_5 寸法線
 62
     3
100
AcDbLine
 10
1207.874600660842
 20
547.7162383130133
 30
0.0
 11
1207.874600660842
 21
945.7162383130135
 31
0.0
  0
INSERT
  5
50E9
330
4A31
100
AcDbEntity
  8
AM_5 寸法線
 62
     3
100
AcDbBlockReference
  2
_Open30
 10
1207.874600660842
 20
537.7162383130134
 30
0.0
 41
10.0
 42
10.0
 43
10.0
 50
270.0
  0
INSERT
  5
50EA
330
4A31
100
AcDbEntity
  8
AM_5 寸法線
 62
     3
100
AcDbBlockReference
  2
_Open30
 10
1207.874600660842
 20
955.7162383130135
 30
0.0
 41
10.0
 42
10.0
 43
10.0
 50
90.0
  0
MTEXT
  5
50EB
330
4A31
100
AcDbEntity
  8
AM_5 寸法線
 62
     3
100
AcDbMText
 10
1194.874600660841
 20
746.7162383130137
 30
0.0
 40
14.0
 41
0.0
 46
0.0
 71
     5
 72
     1
  1
418
  7
SEISA
 11
0.0000000000000001
 21
1.0
 31
0.0
 73
     1
 44
1.0
  0
POINT
  5
50EC
330
4A31
100
AcDbEntity
  8
Defpoints
 62
     0
100
AcDbPoint
 10
1005.574600660841
 20
537.7162383130134
 30
0.0
  0
POINT
  5
50ED
330
4A31
100
AcDbEntity
  8
Defpoints
 62
     0
100
AcDbPoint
 10
1005.574600660841
 20
955.7162383130135
 30
0.0
  0
POINT
  5
50EE
330
4A31
100
AcDbEntity
  8
Defpoints
 62
     0
100
AcDbPoint
 10
1207.874600660842
 20
955.7162383130135
 30
0.0
  0
ENDBLK
  5
4A33
330
4A31
100
AcDbEntity
  8
0
100
AcDbBlockEnd
  0
BLOCK
  5
4BB3
330
4BB2
100
AcDbEntity
  8
0
100
AcDbBlockBegin
  2
*D19
 70
     1
 10
0.0
 20
0.0
 30
0.0
  3
*D19
  1

  0
LINE
  5
5115
330
4BB2
100
AcDbEntity
  8
AM_5 寸法線
 62
     3
100
AcDbLine
 10
667.8746006608418
 20
769.2162383130135
 30
0.0
 11
667.8746006608418
 21
1138.216238313013
 31
0.0
  0
LINE
  5
5116
330
4BB2
100
AcDbEntity
  8
AM_5 寸法線
 62
     3
100
AcDbLine
 10
1067.874600660841
 20
769.2162383130135
 30
0.0
 11
1067.874600660841
 21
1138.216238313013
 31
0.0
  0
LINE
  5
5117
330
4BB2
100
AcDbEntity
  8
AM_5 寸法線
 62
     3
100
AcDbLine
 10
677.8746006608415
 20
1135.716238313013
 30
0.0
 11
1057.874600660841
 21
1135.716238313013
 31
0.0
  0
INSERT
  5
5118
330
4BB2
100
AcDbEntity
  8
AM_5 寸法線
 62
     3
100
AcDbBlockReference
  2
_Open30
 10
667.8746006608418
 20
1135.716238313013
 30
0.0
 41
10.0
 42
10.0
 43
10.0
 50
180.0
  0
INSERT
  5
5119
330
4BB2
100
AcDbEntity
  8
AM_5 寸法線
 62
     3
100
AcDbBlockReference
  2
_Open30
 10
1067.874600660841
 20
1135.716238313013
 30
0.0
 41
10.0
 42
10.0
 43
10.0
  0
MTEXT
  5
511A
330
4BB2
100
AcDbEntity
  8
AM_5 寸法線
 62
     3
100
AcDbMText
 10
867.8746006608417
 20
1148.716238313013
 30
0.0
 40
14.0
 41
0.0
 46
0.0
 71
     5
 72
     1
  1
%%c400
  7
SEISA
 73
     1
 44
1.0
  0
POINT
  5
511B
330
4BB2
100
AcDbEntity
  8
Defpoints
 62
     0
100
AcDbPoint
 10
667.8746006608418
 20
766.7162383130133
 30
0.0
  0
POINT
  5
511C
330
4BB2
100
AcDbEntity
  8
Defpoints
 62
     0
100
AcDbPoint
 10
1067.874600660841
 20
766.7162383130133
 30
0.0
  0
POINT
  5
511D
330
4BB2
100
AcDbEntity
  8
Defpoints
 62
     0
100
AcDbPoint
 10
1067.874600660841
 20
1135.716238313013
 30
0.0
  0
ENDBLK
  5
4BB4
330
4BB2
100
AcDbEntity
  8
0
100
AcDbBlockEnd
  0
BLOCK
  5
4BCB
330
4BCA
100
AcDbEntity
  8
0
100
AcDbBlockBegin
  2
*D20
 70
     1
 10
0.0
 20
0.0
 30
0.0
  3
*D20
  1

  0
LINE
  5
511E
330
4BCA
100
AcDbEntity
  8
AM_5 寸法線
 62
     3
100
AcDbLine
 10
703.3746006608416
 20
858.508455410355
 30
0.0
 11
703.3746006608416
 21
1098.216238313013
 31
0.0
  0
LINE
  5
511F
330
4BCA
100
AcDbEntity
  8
AM_5 寸法線
 62
     3
100
AcDbLine
 10
1032.374600660841
 20
858.5084554103552
 30
0.0
 11
1032.374600660841
 21
1098.216238313013
 31
0.0
  0
LINE
  5
5120
330
4BCA
100
AcDbEntity
  8
AM_5 寸法線
 62
     3
100
AcDbLine
 10
713.3746006608417
 20
1095.716238313013
 30
0.0
 11
1022.374600660842
 21
1095.716238313013
 31
0.0
  0
INSERT
  5
5121
330
4BCA
100
AcDbEntity
  8
AM_5 寸法線
 62
     3
100
AcDbBlockReference
  2
_Open30
 10
703.3746006608416
 20
1095.716238313013
 30
0.0
 41
10.0
 42
10.0
 43
10.0
 50
180.0
  0
INSERT
  5
5122
330
4BCA
100
AcDbEntity
  8
AM_5 寸法線
 62
     3
100
AcDbBlockReference
  2
_Open30
 10
1032.374600660841
 20
1095.716238313013
 30
0.0
 41
10.0
 42
10.0
 43
10.0
  0
MTEXT
  5
5123
330
4BCA
100
AcDbEntity
  8
AM_5 寸法線
 62
     3
100
AcDbMText
 10
867.8746006608417
 20
1108.716238313013
 30
0.0
 40
14.0
 41
0.0
 46
0.0
 71
     5
 72
     1
  1
%%c329
  7
SEISA
 73
     1
 44
1.0
  0
POINT
  5
5124
330
4BCA
100
AcDbEntity
  8
Defpoints
 62
     0
100
AcDbPoint
 10
703.3746006608416
 20
856.008455410355
 30
0.0
  0
POINT
  5
5125
330
4BCA
100
AcDbEntity
  8
Defpoints
 62
     0
100
AcDbPoint
 10
1032.374600660841
 20
856.0084554103552
 30
0.0
  0
POINT
  5
5126
330
4BCA
100
AcDbEntity
  8
Defpoints
 62
     0
100
AcDbPoint
 10
1032.374600660841
 20
1095.716238313013
 30
0.0
  0
ENDBLK
  5
4BCC
330
4BCA
100
AcDbEntity
  8
0
100
AcDbBlockEnd
  0
BLOCK
  5
4BE3
330
4BE2
100
AcDbEntity
  8
0
100
AcDbBlockBegin
  2
*D21
 70
     1
 10
0.0
 20
0.0
 30
0.0
  3
*D21
  1

  0
LINE
  5
5127
330
4BE2
100
AcDbEntity
  8
AM_5 寸法線
 62
     3
100
AcDbLine
 10
725.3746006608416
 20
893.7162383130132
 30
0.0
 11
725.3746006608416
 21
1058.216238313013
 31
0.0
  0
LINE
  5
5128
330
4BE2
100
AcDbEntity
  8
AM_5 寸法線
 62
     3
100
AcDbLine
 10
1010.374600660841
 20
893.7162383130132
 30
0.0
 11
1010.374600660841
 21
1058.216238313013
 31
0.0
  0
LINE
  5
5129
330
4BE2
100
AcDbEntity
  8
AM_5 寸法線
 62
     3
100
AcDbLine
 10
735.3746006608417
 20
1055.716238313013
 30
0.0
 11
1000.374600660841
 21
1055.716238313013
 31
0.0
  0
INSERT
  5
512A
330
4BE2
100
AcDbEntity
  8
AM_5 寸法線
 62
     3
100
AcDbBlockReference
  2
_Open30
 10
725.3746006608416
 20
1055.716238313013
 30
0.0
 41
10.0
 42
10.0
 43
10.0
 50
180.0
  0
INSERT
  5
512B
330
4BE2
100
AcDbEntity
  8
AM_5 寸法線
 62
     3
100
AcDbBlockReference
  2
_Open30
 10
1010.374600660841
 20
1055.716238313013
 30
0.0
 41
10.0
 42
10.0
 43
10.0
  0
MTEXT
  5
512C
330
4BE2
100
AcDbEntity
  8
AM_5 寸法線
 62
     3
100
AcDbMText
 10
867.8746006608417
 20
1068.716238313013
 30
0.0
 40
14.0
 41
0.0
 46
0.0
 71
     5
 72
     1
  1
%%c285
  7
SEISA
 73
     1
 44
1.0
  0
POINT
  5
512D
330
4BE2
100
AcDbEntity
  8
Defpoints
 62
     0
100
AcDbPoint
 10
725.3746006608416
 20
891.2162383130135
 30
0.0
  0
POINT
  5
512E
330
4BE2
100
AcDbEntity
  8
Defpoints
 62
     0
100
AcDbPoint
 10
1010.374600660841
 20
891.2162383130135
 30
0.0
  0
POINT
  5
512F
330
4BE2
100
AcDbEntity
  8
Defpoints
 62
     0
100
AcDbPoint
 10
1010.374600660841
 20
1055.716238313013
 30
0.0
  0
ENDBLK
  5
4BE4
330
4BE2
100
AcDbEntity
  8
0
100
AcDbBlockEnd
  0
BLOCK
  5
4C1F
330
4C1E
100
AcDbEntity
  8
0
100
AcDbBlockBegin
  2
*D22
 70
     1
 10
0.0
 20
0.0
 30
0.0
  3
*D22
  1

  0
LINE
  5
5130
330
4C1E
100
AcDbEntity
  8
AM_5 寸法線
 62
     3
100
AcDbLine
 10
838.1243436669391
 20
537.7162383130134
 30
0.0
 11
823.2878710608417
 21
537.7162383130134
 31
0.0
  0
LINE
  5
5131
330
4C1E
100
AcDbEntity
  8
AM_5 寸法線
 62
     3
100
AcDbLine
 10
838.1243436669389
 20
737.7162383130134
 30
0.0
 11
823.2878710608417
 21
737.7162383130134
 31
0.0
  0
LINE
  5
5132
330
4C1E
100
AcDbEntity
  8
AM_5 寸法線
 62
     3
100
AcDbLine
 10
825.7878710608418
 20
547.7162383130133
 30
0.0
 11
825.7878710608418
 21
727.7162383130136
 31
0.0
  0
INSERT
  5
5133
330
4C1E
100
AcDbEntity
  8
AM_5 寸法線
 62
     3
100
AcDbBlockReference
  2
_Open30
 10
825.7878710608418
 20
537.7162383130134
 30
0.0
 41
10.0
 42
10.0
 43
10.0
 50
270.0
  0
INSERT
  5
5134
330
4C1E
100
AcDbEntity
  8
AM_5 寸法線
 62
     3
100
AcDbBlockReference
  2
_Open30
 10
825.7878710608418
 20
737.7162383130134
 30
0.0
 41
10.0
 42
10.0
 43
10.0
 50
90.0
  0
MTEXT
  5
5135
330
4C1E
100
AcDbEntity
  8
AM_5 寸法線
 62
     3
100
AcDbMText
 10
812.7878710608417
 20
637.7162383130137
 30
0.0
 40
14.0
 41
0.0
 46
0.0
 71
     5
 72
     1
  1
200
  7
SEISA
 11
0.0000000000000001
 21
1.0
 31
0.0
 73
     1
 44
1.0
  0
POINT
  5
5136
330
4C1E
100
AcDbEntity
  8
Defpoints
 62
     0
100
AcDbPoint
 10
840.6243436669392
 20
537.7162383130134
 30
0.0
  0
POINT
  5
5137
330
4C1E
100
AcDbEntity
  8
Defpoints
 62
     0
100
AcDbPoint
 10
840.6243436669388
 20
737.7162383130134
 30
0.0
  0
POINT
  5
5138
330
4C1E
100
AcDbEntity
  8
Defpoints
 62
     0
100
AcDbPoint
 10
825.7878710608418
 20
737.7162383130134
 30
0.0
  0
ENDBLK
  5
4C20
330
4C1E
100
AcDbEntity
  8
0
100
AcDbBlockEnd
  0
BLOCK
  5
4C37
330
4C36
100
AcDbEntity
  8
0
100
AcDbBlockBegin
  2
*D23
 70
     1
 10
0.0
 20
0.0
 30
0.0
  3
*D23
  1

  0
LINE
  5
55BC
330
4C36
100
AcDbEntity
  8
AM_5 寸法線
 62
     3
100
AcDbLine
 10
835.6243436669389
 20
737.7162383130134
 30
0.0
 11
823.2878710608417
 21
737.7162383130134
 31
0.0
  0
LINE
  5
55BD
330
4C36
100
AcDbEntity
  8
AM_5 寸法線
 62
     3
100
AcDbLine
 10
836.8364726060971
 20
755.7162383130132
 30
0.0
 11
823.2878710608417
 21
755.7162383130132
 31
0.0
  0
LINE
  5
55BE
330
4C36
100
AcDbEntity
  8
AM_5 寸法線
 62
     3
100
AcDbLine
 10
825.7878710608418
 20
727.7162383130136
 30
0.0
 11
825.7878710608418
 21
717.7162383130136
 31
0.0
  0
LINE
  5
55BF
330
4C36
100
AcDbEntity
  8
AM_5 寸法線
 62
     3
100
AcDbLine
 10
825.7878710608418
 20
765.7162383130135
 30
0.0
 11
825.7878710608421
 21
775.7162383130133
 31
0.0
  0
MTEXT
  5
55C0
330
4C36
100
AcDbEntity
  8
AM_5 寸法線
 62
     3
100
AcDbMText
 10
813.688098339826
 20
775.2501337697879
 30
0.0
 40
14.0
 41
0.0
 46
0.0
 71
     5
 72
     1
  1
18
  7
SEISA
 11
0.0000000000000001
 21
1.0
 31
0.0
 73
     1
 44
1.0
  0
LINE
  5
55C1
330
4C36
100
AcDbEntity
  8
AM_5 寸法線
 62
     3
100
AcDbLine
 10
825.7878710608418
 20
737.7162383130134
 30
0.0
 11
825.7878710608418
 21
755.7162383130132
 31
0.0
  0
INSERT
  5
55C2
330
4C36
100
AcDbEntity
  8
AM_5 寸法線
 62
     3
100
AcDbBlockReference
  2
_Open30
 10
825.7878710608418
 20
737.7162383130134
 30
0.0
 41
10.0
 42
10.0
 43
10.0
 50
90.0
  0
INSERT
  5
55C3
330
4C36
100
AcDbEntity
  8
AM_5 寸法線
 62
     3
100
AcDbBlockReference
  2
_Open30
 10
825.7878710608418
 20
755.7162383130132
 30
0.0
 41
10.0
 42
10.0
 43
10.0
 50
270.0
  0
POINT
  5
55C4
330
4C36
100
AcDbEntity
  8
Defpoints
 62
     0
100
AcDbPoint
 10
838.1243436669389
 20
737.7162383130134
 30
0.0
  0
POINT
  5
55C5
330
4C36
100
AcDbEntity
  8
Defpoints
 62
     0
100
AcDbPoint
 10
839.3364726060967
 20
755.7162383130132
 30
0.0
  0
POINT
  5
55C6
330
4C36
100
AcDbEntity
  8
Defpoints
 62
     0
100
AcDbPoint
 10
825.7878710608418
 20
755.7162383130132
 30
0.0
  0
ENDBLK
  5
4C38
330
4C36
100
AcDbEntity
  8
0
100
AcDbBlockEnd
  0
BLOCK
  5
4C6C
330
4C6B
100
AcDbEntity
  8
0
100
AcDbBlockBegin
  2
*D24
 70
     1
 10
0.0
 20
0.0
 30
0.0
  3
*D24
  1

  0
LINE
  5
5147
330
4C6B
100
AcDbEntity
  8
AM_5 寸法線
 62
     3
100
AcDbLine
 10
835.1312597130746
 20
755.7162383130132
 30
0.0
 11
823.2878710608417
 21
755.7162383130132
 31
0.0
  0
LINE
  5
5148
330
4C6B
100
AcDbEntity
  8
AM_5 寸法線
 62
     3
100
AcDbLine
 10
835.1312597130746
 20
955.7162383130131
 30
0.0
 11
823.2878710608417
 21
955.7162383130131
 31
0.0
  0
LINE
  5
5149
330
4C6B
100
AcDbEntity
  8
AM_5 寸法線
 62
     3
100
AcDbLine
 10
825.7878710608418
 20
765.7162383130135
 30
0.0
 11
825.7878710608418
 21
945.7162383130132
 31
0.0
  0
INSERT
  5
514A
330
4C6B
100
AcDbEntity
  8
AM_5 寸法線
 62
     3
100
AcDbBlockReference
  2
_Open30
 10
825.7878710608418
 20
755.7162383130132
 30
0.0
 41
10.0
 42
10.0
 43
10.0
 50
270.0
  0
INSERT
  5
514B
330
4C6B
100
AcDbEntity
  8
AM_5 寸法線
 62
     3
100
AcDbBlockReference
  2
_Open30
 10
825.7878710608418
 20
955.7162383130131
 30
0.0
 41
10.0
 42
10.0
 43
10.0
 50
90.0
  0
MTEXT
  5
514C
330
4C6B
100
AcDbEntity
  8
AM_5 寸法線
 62
     3
100
AcDbMText
 10
812.7878710608417
 20
855.7162383130137
 30
0.0
 40
14.0
 41
0.0
 46
0.0
 71
     5
 72
     1
  1
200
  7
SEISA
 11
0.0000000000000001
 21
1.0
 31
0.0
 73
     1
 44
1.0
  0
POINT
  5
514D
330
4C6B
100
AcDbEntity
  8
Defpoints
 62
     0
100
AcDbPoint
 10
837.6312597130747
 20
755.7162383130132
 30
0.0
  0
POINT
  5
514E
330
4C6B
100
AcDbEntity
  8
Defpoints
 62
     0
100
AcDbPoint
 10
837.6312597130747
 20
955.7162383130131
 30
0.0
  0
POINT
  5
514F
330
4C6B
100
AcDbEntity
  8
Defpoints
 62
     0
100
AcDbPoint
 10
825.7878710608418
 20
955.7162383130131
 30
0.0
  0
ENDBLK
  5
4C6D
330
4C6B
100
AcDbEntity
  8
0
100
AcDbBlockEnd
  0
BLOCK
  5
4CA0
330
4C9F
100
AcDbEntity
  8
0
100
AcDbBlockBegin
  2
*D25
 70
     1
 10
0.0
 20
0.0
 30
0.0
  3
*D25
  1

  0
LINE
  5
515B
330
4C9F
100
AcDbEntity
  8
AM_5 寸法線
 62
     3
100
AcDbLine
 10
727.8746006608416
 20
650.7162383130133
 30
0.0
 11
759.2878710608422
 21
650.7162383130133
 31
0.0
  0
LINE
  5
515C
330
4C9F
100
AcDbEntity
  8
AM_5 寸法線
 62
     3
100
AcDbLine
 10
727.3746006608416
 20
657.2162383130135
 30
0.0
 11
759.2878710608422
 21
657.2162383130135
 31
0.0
  0
LINE
  5
515D
330
4C9F
100
AcDbEntity
  8
AM_5 寸法線
 62
     3
100
AcDbLine
 10
756.7878710608422
 20
667.2162383130133
 30
0.0
 11
756.7878710608422
 21
677.2162383130135
 31
0.0
  0
LINE
  5
515E
330
4C9F
100
AcDbEntity
  8
AM_5 寸法線
 62
     3
100
AcDbLine
 10
756.7878710608422
 20
640.7162383130135
 30
0.0
 11
756.7878710608422
 21
592.9162383130135
 31
0.0
  0
LINE
  5
515F
330
4C9F
100
AcDbEntity
  8
AM_5 寸法線
 62
     3
100
AcDbLine
 10
756.7878710608422
 20
657.2162383130135
 30
0.0
 11
756.7878710608422
 21
650.7162383130133
 31
0.0
  0
INSERT
  5
5160
330
4C9F
100
AcDbEntity
  8
AM_5 寸法線
 62
     3
100
AcDbBlockReference
  2
_Open30
 10
756.7878710608422
 20
657.2162383130135
 30
0.0
 41
10.0
 42
10.0
 43
10.0
 50
270.0
  0
INSERT
  5
5161
330
4C9F
100
AcDbEntity
  8
AM_5 寸法線
 62
     3
100
AcDbBlockReference
  2
_Open30
 10
756.7878710608422
 20
650.7162383130133
 30
0.0
 41
10.0
 42
10.0
 43
10.0
 50
90.0
  0
MTEXT
  5
5162
330
4C9F
100
AcDbEntity
  8
AM_5 寸法線
 62
     3
100
AcDbMText
 10
743.7878710608421
 20
611.8162383130136
 30
0.0
 40
14.0
 41
0.0
 46
0.0
 71
     5
 72
     1
  1
6.5
  7
SEISA
 11
0.0000000000000001
 21
1.0
 31
0.0
 73
     1
 44
1.0
  0
POINT
  5
5163
330
4C9F
100
AcDbEntity
  8
Defpoints
 62
     0
100
AcDbPoint
 10
725.3746006608416
 20
650.7162383130133
 30
0.0
  0
POINT
  5
5164
102
{ACAD_REACTORS
330
5D04
102
}
330
4C9F
100
AcDbEntity
  8
Defpoints
 62
     0
100
AcDbPoint
 10
724.8746006608416
 20
657.2162383130135
 30
0.0
  0
POINT
  5
5165
330
4C9F
100
AcDbEntity
  8
Defpoints
 62
     0
100
AcDbPoint
 10
756.7878710608422
 20
657.2162383130135
 30
0.0
  0
ENDBLK
  5
4CA1
330
4C9F
100
AcDbEntity
  8
0
100
AcDbBlockEnd
  0
BLOCK
  5
5CC9
330
5CC8
100
AcDbEntity
  8
0
100
AcDbBlockBegin
  2
*D26
 70
     1
 10
0.0
 20
0.0
 30
0.0
  3
*D26
  1

  0
LINE
  5
5CEB
330
5CC8
100
AcDbEntity
  8
AM_5 寸法線
 62
     3
100
AcDbLine
 10
727.6746006608416
 20
537.7162383130134
 30
0.0
 11
669.2447698193388
 21
537.7162383130134
 31
0.0
  0
LINE
  5
5CEC
330
5CC8
100
AcDbEntity
  8
AM_5 寸法線
 62
     3
100
AcDbLine
 10
704.8746006608417
 20
537.7162383130134
 30
0.0
 11
669.2447698193388
 21
537.7162383130134
 31
0.0
  0
LINE
  5
5CED
330
5CC8
100
AcDbEntity
  8
AM_5 寸法線
 62
     3
100
AcDbLine
 10
671.7447698193385
 20
527.7162383130135
 30
0.0
 11
671.7447698193385
 21
517.7162383130133
 31
0.0
  0
LINE
  5
5CEE
330
5CC8
100
AcDbEntity
  8
AM_5 寸法線
 62
     3
100
AcDbLine
 10
671.7447698193385
 20
547.7162383130133
 30
0.0
 11
671.7447698193385
 21
578.1162383130133
 31
0.0
  0
INSERT
  5
5CEF
330
5CC8
100
AcDbEntity
  8
AM_5 寸法線
 62
     3
100
AcDbBlockReference
  2
_Open30
 10
671.7447698193385
 20
537.7162383130134
 30
0.0
 41
10.0
 42
10.0
 43
10.0
 50
90.0
  0
INSERT
  5
5CF0
330
5CC8
100
AcDbEntity
  8
AM_5 寸法線
 62
     3
100
AcDbBlockReference
  2
_Open30
 10
671.7447698193385
 20
537.7162383130134
 30
0.0
 41
10.0
 42
10.0
 43
10.0
 50
270.0
  0
MTEXT
  5
5CF1
330
5CC8
100
AcDbEntity
  8
AM_5 寸法線
 62
     3
100
AcDbMText
 10
658.7447698193385
 20
567.9162383130136
 30
0.0
 40
14.0
 41
0.0
 46
0.0
 71
     5
 72
     1
  1
0
  7
SEISA
 11
0.0000000000000001
 21
1.0
 31
0.0
 73
     1
 44
1.0
  0
POINT
  5
5CF2
330
5CC8
100
AcDbEntity
  8
Defpoints
 62
     0
100
AcDbPoint
 10
730.1746006608416
 20
537.7162383130134
 30
0.0
  0
POINT
  5
5CF3
330
5CC8
100
AcDbEntity
  8
Defpoints
 62
     0
100
AcDbPoint
 10
707.3746006608416
 20
537.7162383130134
 30
0.0
  0
POINT
  5
5CF4
330
5CC8
100
AcDbEntity
  8
Defpoints
 62
     0
100
AcDbPoint
 10
671.7447698193385
 20
537.7162383130134
 30
0.0
  0
ENDBLK
  5
5CCA
330
5CC8
100
AcDbEntity
  8
0
100
AcDbBlockEnd
  0
BLOCK
  5
5CF7
330
5CF6
100
AcDbEntity
  8
0
100
AcDbBlockBegin
  2
*D27
 70
     1
 10
0.0
 20
0.0
 30
0.0
  3
*D27
  1

  0
LINE
  5
5D57
330
5CF6
100
AcDbEntity
  8
AM_5 寸法線
 62
     3
100
AcDbLine
 10
727.3746006608416
 20
657.2162383130135
 30
0.0
 11
759.2878710608422
 21
657.2162383130135
 31
0.0
  0
LINE
  5
5D58
330
5CF6
100
AcDbEntity
  8
AM_5 寸法線
 62
     3
100
AcDbLine
 10
727.3746006608416
 20
702.7162383130135
 30
0.0
 11
759.2878710608422
 21
702.7162383130135
 31
0.0
  0
LINE
  5
5D59
330
5CF6
100
AcDbEntity
  8
AM_5 寸法線
 62
     3
100
AcDbLine
 10
756.7878710608422
 20
667.2162383130133
 30
0.0
 11
756.7878710608422
 21
692.7162383130132
 31
0.0
  0
LINE
  5
5D5A
330
5CF6
100
AcDbEntity
  8
AM_5 寸法線
 62
     3
100
AcDbLine
 10
756.7878710608422
 20
679.9662383130135
 30
0.0
 11
786.5601614769382
 21
675.1078745414181
 31
0.0
  0
LINE
  5
5D5B
330
5CF6
100
AcDbEntity
  8
AM_5 寸法線
 62
     3
100
AcDbLine
 10
786.5601614769382
 20
675.1078745414181
 30
0.0
 11
786.5601614769382
 21
624.7078745414182
 31
0.0
  0
MTEXT
  5
5D5C
330
5CF6
100
AcDbEntity
  8
AM_5 寸法線
 62
     3
100
AcDbMText
 10
773.560161476938
 20
649.9078745414181
 30
0.0
 40
14.0
 41
0.0
 46
0.0
 71
     5
 72
     1
  1
45.5
  7
SEISA
 11
0.0000000000000001
 21
1.0
 31
0.0
 73
     1
 44
1.0
  0
INSERT
  5
5D5D
330
5CF6
100
AcDbEntity
  8
AM_5 寸法線
 62
     3
100
AcDbBlockReference
  2
_Open30
 10
756.7878710608422
 20
657.2162383130135
 30
0.0
 41
10.0
 42
10.0
 43
10.0
 50
270.0
  0
INSERT
  5
5D5E
330
5CF6
100
AcDbEntity
  8
AM_5 寸法線
 62
     3
100
AcDbBlockReference
  2
_Open30
 10
756.7878710608422
 20
702.7162383130135
 30
0.0
 41
10.0
 42
10.0
 43
10.0
 50
90.0
  0
POINT
  5
5D5F
330
5CF6
100
AcDbEntity
  8
Defpoints
 62
     0
100
AcDbPoint
 10
724.8746006608416
 20
657.2162383130135
 30
0.0
  0
POINT
  5
5D60
330
5CF6
100
AcDbEntity
  8
Defpoints
 62
     0
100
AcDbPoint
 10
724.8746006608416
 20
702.7162383130135
 30
0.0
  0
POINT
  5
5D61
330
5CF6
100
AcDbEntity
  8
Defpoints
 62
     0
100
AcDbPoint
 10
756.7878710608422
 20
702.7162383130135
 30
0.0
  0
ENDBLK
  5
5CF8
330
5CF6
100
AcDbEntity
  8
0
100
AcDbBlockEnd
  0
BLOCK
  5
5D25
330
5D24
100
AcDbEntity
  8
0
100
AcDbBlockBegin
  2
*D28
 70
     1
 10
0.0
 20
0.0
 30
0.0
  3
*D28
  1

  0
LINE
  5
5D44
330
5D24
100
AcDbEntity
  8
AM_5 寸法線
 62
     3
100
AcDbLine
 10
727.3746006608416
 20
702.7162383130135
 30
0.0
 11
759.2878710608427
 21
702.7162383130135
 31
0.0
  0
LINE
  5
5D45
330
5D24
100
AcDbEntity
  8
AM_5 寸法線
 62
     3
100
AcDbLine
 10
729.3746006608416
 20
737.7162383130133
 30
0.0
 11
759.2878710608427
 21
737.7162383130133
 31
0.0
  0
LINE
  5
5D46
330
5D24
100
AcDbEntity
  8
AM_5 寸法線
 62
     3
100
AcDbLine
 10
756.7878710608426
 20
712.7162383130133
 30
0.0
 11
756.7878710608426
 21
727.7162383130135
 31
0.0
  0
INSERT
  5
5D47
330
5D24
100
AcDbEntity
  8
AM_5 寸法線
 62
     3
100
AcDbBlockReference
  2
_Open30
 10
756.7878710608426
 20
702.7162383130135
 30
0.0
 41
10.0
 42
10.0
 43
10.0
 50
270.0
  0
INSERT
  5
5D48
330
5D24
100
AcDbEntity
  8
AM_5 寸法線
 62
     3
100
AcDbBlockReference
  2
_Open30
 10
756.7878710608426
 20
737.7162383130133
 30
0.0
 41
10.0
 42
10.0
 43
10.0
 50
90.0
  0
MTEXT
  5
5D49
330
5D24
100
AcDbEntity
  8
AM_5 寸法線
 62
     3
100
AcDbMText
 10
743.7878710608425
 20
720.2162383130136
 30
0.0
 40
14.0
 41
0.0
 46
0.0
 71
     5
 72
     1
  1
35
  7
SEISA
 11
0.0000000000000001
 21
1.0
 31
0.0
 73
     1
 44
1.0
  0
POINT
  5
5D4A
330
5D24
100
AcDbEntity
  8
Defpoints
 62
     0
100
AcDbPoint
 10
724.8746006608416
 20
702.7162383130135
 30
0.0
  0
POINT
  5
5D4B
330
5D24
100
AcDbEntity
  8
Defpoints
 62
     0
100
AcDbPoint
 10
726.8746006608417
 20
737.7162383130133
 30
0.0
  0
POINT
  5
5D4C
330
5D24
100
AcDbEntity
  8
Defpoints
 62
     0
100
AcDbPoint
 10
756.7878710608426
 20
737.7162383130133
 30
0.0
  0
ENDBLK
  5
5D26
330
5D24
100
AcDbEntity
  8
0
100
AcDbBlockEnd
  0
BLOCK
  5
5DF2
330
5DF1
100
AcDbEntity
  8
0
100
AcDbBlockBegin
  2
ケース
 70
     0
 10
0.0
 20
0.0
 30
0.0
  3
ケース
  1

  0
LINE
  5
5DF4
330
5DF1
100
AcDbEntity
  8
AM_11 想像線
 48
0.1
100
AcDbLine
 10
20.5
 20
-28.03611274067407
 30
0.0
 11
8.5
 21
-28.03611274067407
 31
0.0
  0
LINE
  5
5DF5
330
5DF1
100
AcDbEntity
  8
AM_11 想像線
 48
0.1
100
AcDbLine
 10
15.60000000000036
 20
-31.43611274067405
 30
0.0
 11
20.5
 21
-31.43611274067405
 31
0.0
  0
LINE
  5
5DF6
330
5DF1
100
AcDbEntity
  8
AM_11 想像線
 48
0.1
100
AcDbLine
 10
20.5
 20
-42.63611274067409
 30
0.0
 11
15.60000000000036
 21
-42.63611274067409
 31
0.0
  0
LINE
  5
5DF7
330
5DF1
100
AcDbEntity
  8
AM_11 想像線
 48
0.1
100
AcDbLine
 10
4.0
 20
-46.03611274067406
 30
0.0
 11
20.5
 21
-46.03611274067406
 31
0.0
  0
LINE
  5
5DF8
330
5DF1
100
AcDbEntity
  8
AM_11 想像線
 48
0.1
100
AcDbLine
 10
12.5
 20
0.0
 30
0.0
 11
12.5
 21
-23.53611274067407
 31
0.0
  0
LINE
  5
5DF9
330
5DF1
100
AcDbEntity
  8
AM_11 想像線
 48
0.1
100
AcDbLine
 10
8.5
 20
0.0
 30
0.0
 11
8.5
 21
-21.53611274067407
 31
0.0
  0
LINE
  5
5DFA
330
5DF1
100
AcDbEntity
  8
AM_11 想像線
 48
0.1
100
AcDbLine
 10
15.69999999999982
 20
0.0
 30
0.0
 11
15.69999999999982
 21
-20.53611274067407
 31
0.0
  0
LINE
  5
5DFB
330
5DF1
100
AcDbEntity
  8
AM_11 想像線
 48
0.1
100
AcDbLine
 10
0.0
 20
0.0
 30
0.0
 11
0.0
 21
-42.03611274067407
 31
0.0
  0
LINE
  5
5DFC
330
5DF1
100
AcDbEntity
  8
AM_11 想像線
 48
0.1
100
AcDbLine
 10
15.10000000000036
 20
-42.13611274067409
 30
0.0
 11
15.10000000000036
 21
-31.93611274067405
 31
0.0
  0
ARC
  5
5DFD
330
5DF1
100
AcDbEntity
  8
AM_11 想像線
 48
0.1
100
AcDbCircle
 10
15.60000000000036
 20
-42.13611274067409
 30
0.0
 40
0.5
100
AcDbArc
 50
180.0
 51
270.0
  0
ARC
  5
5DFE
102
{ACAD_REACTORS
330
5CD6
102
}
330
5DF1
100
AcDbEntity
  8
AM_11 想像線
 48
0.1
100
AcDbCircle
 10
4.0
 20
-42.03611274067407
 30
0.0
 40
4.0
100
AcDbArc
 50
180.0
 51
270.0
  0
LINE
  5
5DFF
330
5DF1
100
AcDbEntity
  8
AM_11 想像線
 48
0.1
100
AcDbLine
 10
14.69999999999982
 20
-21.53611274067407
 30
0.0
 11
15.69999999999982
 21
-20.53611274067407
 31
0.0
  0
LINE
  5
5E00
330
5DF1
100
AcDbEntity
  8
AM_11 想像線
 48
0.1
100
AcDbLine
 10
8.5
 20
-21.53611274067407
 30
0.0
 11
14.69999999999982
 21
-21.53611274067407
 31
0.0
  0
ARC
  5
5E01
330
5DF1
100
AcDbEntity
  8
AM_11 想像線
 48
0.1
100
AcDbCircle
 10
8.5
 20
-22.53611274067407
 30
0.0
 40
1.0
100
AcDbArc
 50
90.0
 51
180.0
  0
LINE
  5
5E02
330
5DF1
100
AcDbEntity
  8
AM_11 想像線
 48
0.1
100
AcDbLine
 10
7.5
 20
-27.03611274067407
 30
0.0
 11
7.5
 21
-22.53611274067407
 31
0.0
  0
ARC
  5
5E03
330
5DF1
100
AcDbEntity
  8
AM_11 想像線
 48
0.1
100
AcDbCircle
 10
8.5
 20
-27.03611274067407
 30
0.0
 40
1.0
100
AcDbArc
 50
180.0
 51
270.0
  0
ARC
  5
5E04
330
5DF1
100
AcDbEntity
  8
AM_11 想像線
 48
0.1
100
AcDbCircle
 10
15.60000000000036
 20
-31.93611274067405
 30
0.0
 40
0.5
100
AcDbArc
 50
90.0
 51
180.0
  0
LINE
  5
5E05
330
5DF1
100
AcDbEntity
  8
AM_11 想像線
 48
0.1
100
AcDbLine
 10
20.5
 20
-46.03611274067406
 30
0.0
 11
20.5
 21
-42.63611274067409
 31
0.0
  0
LINE
  5
5E06
330
5DF1
100
AcDbEntity
  8
AM_11 想像線
 48
0.1
100
AcDbLine
 10
20.5
 20
-42.63611274067409
 30
0.0
 11
22.0
 21
-42.63611274067409
 31
0.0
  0
LINE
  5
5E07
330
5DF1
100
AcDbEntity
  8
AM_11 想像線
 48
0.1
100
AcDbLine
 10
20.5
 20
-46.03611274067406
 30
0.0
 11
22.0
 21
-46.03611274067406
 31
0.0
  0
LINE
  5
5E08
330
5DF1
100
AcDbEntity
  8
AM_11 想像線
 48
0.1
100
AcDbLine
 10
20.5
 20
-31.43611274067405
 30
0.0
 11
20.5
 21
-28.03611274067407
 31
0.0
  0
LINE
  5
5E09
330
5DF1
100
AcDbEntity
  8
AM_11 想像線
 48
0.1
100
AcDbLine
 10
20.5
 20
-28.03611274067407
 30
0.0
 11
22.0
 21
-28.03611274067407
 31
0.0
  0
LINE
  5
5E0A
330
5DF1
100
AcDbEntity
  8
AM_11 想像線
 48
0.1
100
AcDbLine
 10
20.5
 20
-31.43611274067405
 30
0.0
 11
22.0
 21
-31.43611274067405
 31
0.0
  0
ENDBLK
  5
5DF3
330
5DF1
100
AcDbEntity
  8
0
100
AcDbBlockEnd
  0
ENDSEC
  0
SECTION
  2
ENTITIES
  0
LINE
  5
3DCC
330
1F
100
AcDbEntity
  8
AM_0 外形線1
100
AcDbLine
 10
700.4746006608419
 20
746.7162383130133
 30
0.0
 11
692.8746006608417
 21
746.7162383130133
 31
0.0
  0
LINE
  5
3DFD
330
1F
100
AcDbEntity
  8
AM_7 中心線
100
AcDbLine
 10
867.8746006608417
 20
746.7162383130133
 30
0.0
 11
867.8746006608417
 21
529.7162383130133
 31
0.0
  0
LINE
  5
3E23
330
1F
100
AcDbEntity
  8
AM_7 中心線
100
AcDbLine
 10
867.8746006608417
 20
746.7162383130133
 30
0.0
 11
867.8746006608417
 21
963.7162383130135
 31
0.0
  0
INSERT
  5
426A
102
{ACAD_REACTORS
330
47D4
330
4A47
330
4C34
330
4CB9
330
5CD6
330
5D04
330
5D31
102
}
330
1F
100
AcDbEntity
  8
AM_0 外形線1
100
AcDbBlockReference
  2
センタＡ SMVH400
 10
867.8746006608417
 20
737.7162383130133
 30
0.0
  0
INSERT
  5
436D
102
{ACAD_REACTORS
330
4968
330
49F6
330
4CB9
102
}
330
1F
100
AcDbEntity
  8
AM_0 外形線1
100
AcDbBlockReference
  2
ケースＡ SMVH400
 10
867.8746006608417
 20
746.7162383130133
 30
0.0
  0
INSERT
  5
44DB
102
{ACAD_REACTORS
330
4A47
330
4BF8
330
4C50
330
4C81
102
}
330
1F
100
AcDbEntity
  8
AM_0 外形線1
100
AcDbBlockReference
  2
センタB SMVH400
 10
867.8746006608417
 20
755.7162383130132
 30
0.0
  0
INSERT
  5
45F6
102
{ACAD_REACTORS
330
4968
330
4984
330
4BC8
330
4BE0
102
}
330
1F
100
AcDbEntity
  8
AM_0 外形線1
100
AcDbBlockReference
  2
ケースＢ SMVH400
 10
867.8746006608417
 20
746.7162383130133
 30
0.0
  0
INSERT
  5
46F7
330
1F
100
AcDbEntity
  8
AM_0 外形線1
100
AcDbBlockReference
  2
リーマボルト SMVH400 M16
 10
1051.874600660841
 20
725.7162383130133
 30
0.0
  0
INSERT
  5
4777
330
1F
100
AcDbEntity
  8
AM_0 外形線1
100
AcDbBlockReference
  2
スラストプレ－ト SMVH400
 10
867.8746006608417
 20
737.7162383130133
 30
0.0
  0
DIMENSION
  5
47BD
102
{ACAD_XDICTIONARY
360
47CA
102
}
102
{ACAD_REACTORS
330
47D4
102
}
330
1F
100
AcDbEntity
  8
AM_5 寸法線
100
AcDbDimension
  2
*D14
 10
1010.374600660841
 20
437.7162383130134
 30
0.0
 11
867.8746006608417
 21
450.7162383130133
 31
0.0
 70
    32
  1
%%c<>
 71
     5
 42
285.0
 73
     0
 74
     0
 75
     0
  3
SEISA$0
100
AcDbAlignedDimension
 13
725.3746006608416
 23
602.2162383130135
 33
0.0
 14
1010.374600660841
 24
602.2162383130135
 34
0.0
100
AcDbRotatedDimension
1001
ACAD_DSTYLE_DIMINSPECT
1070
   396
1000
100%
1070
   395
1000

1070
   394
1070
    33
1070
   393
1070
     0
  0
LINE
  5
493E
330
1F
100
AcDbEntity
  8
AM_0 外形線1
100
AcDbLine
 10
1028.374600660842
 20
537.7162383130134
 30
0.0
 11
1019.071006660841
 21
537.7162383130134
 31
0.0
  0
DIMENSION
  5
494D
102
{ACAD_XDICTIONARY
360
495C
102
}
102
{ACAD_REACTORS
330
4968
102
}
330
1F
100
AcDbEntity
  8
AM_5 寸法線
100
AcDbDimension
  2
*D15
 10
1127.874600660842
 20
746.7162383130133
 30
0.0
 11
1127.874600660842
 21
691.3162383130136
 31
0.0
 70
   160
 71
     5
 42
21.0
 73
     0
 74
     0
 75
     0
  3
SEISA$0
100
AcDbAlignedDimension
 13
1066.874600660842
 23
725.7162383130133
 33
0.0
 14
1066.874600660842
 24
746.7162383130133
 34
0.0
 50
90.0
100
AcDbRotatedDimension
1001
ACAD_DSTYLE_DIMINSPECT
1070
   396
1000
100%
1070
   395
1000

1070
   394
1070
    33
1070
   393
1070
     0
1001
ACAD
1000
DSTYLE
1002
{
1070
   173
1070
     1
1070
   342
1005
0
1070
   343
1005
69
1070
   344
1005
3580
1002
}
  0
DIMENSION
  5
4969
102
{ACAD_XDICTIONARY
360
4978
102
}
102
{ACAD_REACTORS
330
4984
102
}
330
1F
100
AcDbEntity
  8
AM_5 寸法線
100
AcDbDimension
  2
*D16
 10
1127.874600660842
 20
767.7162383130132
 30
0.0
 11
1127.874600660842
 21
802.1162383130134
 31
0.0
 70
   160
 71
     5
 42
21.0
 73
     0
 74
     0
 75
     0
  3
SEISA$0
100
AcDbAlignedDimension
 13
1066.874600660842
 23
746.7162383130133
 33
0.0
 14
1066.874600660842
 24
767.7162383130132
 34
0.0
 50
90.0
100
AcDbRotatedDimension
1001
ACAD_DSTYLE_DIMINSPECT
1070
   396
1000
100%
1070
   395
1000

1070
   394
1070
    33
1070
   393
1070
     0
1001
ACAD
1000
DSTYLE
1002
{
1070
   173
1070
     1
1070
   342
1005
0
1070
   343
1005
3580
1070
   344
1005
69
1002
}
  0
DIMENSION
  5
49DF
102
{ACAD_XDICTIONARY
360
49EC
102
}
102
{ACAD_REACTORS
330
49F6
102
}
330
1F
100
AcDbEntity
  8
AM_5 寸法線
100
AcDbDimension
  2
*D17
 10
1167.874600660842
 20
632.7162383130135
 30
0.0
 11
1154.874600660841
 21
746.7162383130136
 31
0.0
 70
    32
 71
     5
 42
228.0
 73
     0
 74
     0
 75
     0
  3
SEISA$0
100
AcDbAlignedDimension
 13
1028.374600660842
 23
860.7162383130132
 33
0.0
 14
1028.374600660842
 24
632.7162383130135
 34
0.0
 50
90.0
100
AcDbRotatedDimension
  0
DIMENSION
  5
4A30
102
{ACAD_XDICTIONARY
360
4A3D
102
}
102
{ACAD_REACTORS
330
4A47
102
}
330
1F
100
AcDbEntity
  8
AM_5 寸法線
100
AcDbDimension
  2
*D18
 10
1207.874600660842
 20
955.7162383130135
 30
0.0
 11
1194.874600660841
 21
746.7162383130137
 31
0.0
 70
    32
 71
     5
 42
418.0000000000001
 73
     0
 74
     0
 75
     0
  3
SEISA$0
100
AcDbAlignedDimension
 13
1005.574600660841
 23
537.7162383130134
 33
0.0
 14
1005.574600660841
 24
955.7162383130135
 34
0.0
 50
90.0
100
AcDbRotatedDimension
  0
DIMENSION
  5
4BB1
102
{ACAD_XDICTIONARY
360
4BBE
102
}
102
{ACAD_REACTORS
330
4BC8
102
}
330
1F
100
AcDbEntity
  8
AM_5 寸法線
100
AcDbDimension
  2
*D19
 10
1067.874600660841
 20
1135.716238313013
 30
0.0
 11
867.8746006608417
 21
1148.716238313013
 31
0.0
 70
    32
  1
%%c<>
 71
     5
 42
400.0
 73
     0
 74
     0
 75
     0
  3
SEISA$0
100
AcDbAlignedDimension
 13
667.8746006608418
 23
766.7162383130133
 33
0.0
 14
1067.874600660841
 24
766.7162383130133
 34
0.0
100
AcDbRotatedDimension
1001
ACAD_DSTYLE_DIMINSPECT
1070
   396
1000
100%
1070
   395
1000

1070
   394
1070
    33
1070
   393
1070
     0
  0
DIMENSION
  5
4BC9
102
{ACAD_XDICTIONARY
360
4BD6
102
}
102
{ACAD_REACTORS
330
4BE0
102
}
330
1F
100
AcDbEntity
  8
AM_5 寸法線
100
AcDbDimension
  2
*D20
 10
1032.374600660841
 20
1095.716238313013
 30
0.0
 11
867.8746006608417
 21
1108.716238313013
 31
0.0
 70
    32
  1
%%c<>
 71
     5
 42
329.0
 73
     0
 74
     0
 75
     0
  3
SEISA$0
100
AcDbAlignedDimension
 13
703.3746006608416
 23
856.008455410355
 33
0.0
 14
1032.374600660841
 24
856.0084554103552
 34
0.0
100
AcDbRotatedDimension
1001
ACAD_DSTYLE_DIMINSPECT
1070
   396
1000
100%
1070
   395
1000

1070
   394
1070
    33
1070
   393
1070
     0
  0
DIMENSION
  5
4BE1
102
{ACAD_XDICTIONARY
360
4BEE
102
}
102
{ACAD_REACTORS
330
4BF8
102
}
330
1F
100
AcDbEntity
  8
AM_5 寸法線
100
AcDbDimension
  2
*D21
 10
1010.374600660841
 20
1055.716238313013
 30
0.0
 11
867.8746006608417
 21
1068.716238313013
 31
0.0
 70
    32
  1
%%c<>
 71
     5
 42
285.0
 73
     0
 74
     0
 75
     0
  3
SEISA$0
100
AcDbAlignedDimension
 13
725.3746006608416
 23
891.2162383130135
 33
0.0
 14
1010.374600660841
 24
891.2162383130135
 34
0.0
100
AcDbRotatedDimension
1001
ACAD_DSTYLE_DIMINSPECT
1070
   396
1000
100%
1070
   395
1000

1070
   394
1070
    33
1070
   393
1070
     0
  0
DIMENSION
  5
4C1D
102
{ACAD_XDICTIONARY
360
4C2A
102
}
102
{ACAD_REACTORS
330
4C34
102
}
330
1F
100
AcDbEntity
  8
AM_5 寸法線
100
AcDbDimension
  2
*D22
 10
825.7878710608418
 20
737.7162383130134
 30
0.0
 11
812.7878710608417
 21
637.7162383130137
 31
0.0
 70
    32
 71
     5
 42
200.0000000000001
 73
     0
 74
     0
 75
     0
  3
SEISA$0
100
AcDbAlignedDimension
 13
840.6243436669392
 23
537.7162383130134
 33
0.0
 14
840.6243436669388
 24
737.7162383130134
 34
0.0
 50
90.0
100
AcDbRotatedDimension
  0
DIMENSION
  5
4C35
102
{ACAD_XDICTIONARY
360
4C44
102
}
102
{ACAD_REACTORS
330
4C50
102
}
330
1F
100
AcDbEntity
  8
AM_5 寸法線
100
AcDbDimension
  2
*D23
 10
825.7878710608418
 20
755.7162383130132
 30
0.0
 11
813.688098339826
 21
775.2501337697879
 31
0.0
 70
   160
 71
     5
 42
17.99999999999988
 73
     0
 74
     0
 75
     0
  3
SEISA$0
100
AcDbAlignedDimension
 13
838.1243436669389
 23
737.7162383130134
 33
0.0
 14
839.3364726060967
 24
755.7162383130132
 34
0.0
 50
90.0
100
AcDbRotatedDimension
1001
ACAD
1000
DSTYLE
1002
{
1070
   279
1070
     2
1002
}
  0
DIMENSION
  5
4C6A
102
{ACAD_XDICTIONARY
360
4C77
102
}
102
{ACAD_REACTORS
330
4C81
102
}
330
1F
100
AcDbEntity
  8
AM_5 寸法線
100
AcDbDimension
  2
*D24
 10
825.7878710608418
 20
955.7162383130131
 30
0.0
 11
812.7878710608417
 21
855.7162383130137
 31
0.0
 70
    32
 71
     5
 42
199.9999999999999
 73
     0
 74
     0
 75
     0
  3
SEISA$0
100
AcDbAlignedDimension
 13
837.6312597130747
 23
755.7162383130132
 33
0.0
 14
837.6312597130747
 24
955.7162383130131
 34
0.0
 50
90.0
100
AcDbRotatedDimension
  0
DIMENSION
  5
4C9E
102
{ACAD_XDICTIONARY
360
4CAD
102
}
102
{ACAD_REACTORS
330
4CB9
330
5D04
102
}
330
1F
100
AcDbEntity
  8
AM_5 寸法線
100
AcDbDimension
  2
*D25
 10
756.7878710608422
 20
657.2162383130135
 30
0.0
 11
756.7878710608421
 21
611.8162383130136
 31
0.0
 70
   160
 71
     5
 42
6.5
 73
     0
 74
     0
 75
     0
  3
SEISA$0
100
AcDbAlignedDimension
 13
725.3746006608416
 23
650.7162383130133
 33
0.0
 14
724.8746006608416
 24
657.2162383130135
 34
0.0
 50
90.0
100
AcDbRotatedDimension
  0
MTEXT
  5
5B95
330
1F
100
AcDbEntity
  8
AM_6 文字
100
AcDbMText
 10
1059.316784703552
 20
501.2388444563578
 30
0.0
 40
14.0
 41
294.6935946481381
 46
51.40931194123442
 71
     1
 72
     5
  1
{\W0.6;TYPE:SMV400/SMVH400\PSHAFT DIA:MAX/MIN φ200/φ140}
  7
SEISA
 73
     1
 44
1.0
  0
DIMENSION
  5
5CC7
102
{ACAD_XDICTIONARY
360
5CD5
102
}
102
{ACAD_REACTORS
330
5CD6
102
}
330
1F
100
AcDbEntity
  8
AM_5 寸法線
100
AcDbDimension
  2
*D26
 10
671.7447698193385
 20
537.7162383130134
 30
0.0
 11
658.7447698193385
 21
567.9162383130136
 31
0.0
 70
    32
 71
     5
 42
0.0
 73
     0
 74
     0
 75
     0
  3
SEISA$0
100
AcDbAlignedDimension
 13
730.1746006608416
 23
537.7162383130134
 33
0.0
 14
707.3746006608416
 24
537.7162383130134
 34
0.0
 50
90.00000000000005
100
AcDbRotatedDimension
1001
ACAD_DSTYLE_DIMINSPECT
1070
   396
1000
100%
1070
   395
1000

1070
   394
1070
    33
1070
   393
1070
     0
  0
DIMENSION
  5
5CF5
102
{ACAD_XDICTIONARY
360
5D03
102
}
102
{ACAD_REACTORS
330
5D04
330
5D31
102
}
330
1F
100
AcDbEntity
  8
AM_5 寸法線
100
AcDbDimension
  2
*D27
 10
756.7878710608422
 20
702.7162383130135
 30
0.0
 11
786.560161476938
 21
669.1078745414182
 31
0.0
 70
   160
 71
     5
 42
45.49999999999999
 73
     0
 74
     0
 75
     0
  3
SEISA$0
100
AcDbAlignedDimension
 13
724.8746006608416
 23
657.2162383130135
 33
0.0
 14
724.8746006608416
 24
702.7162383130135
 34
0.0
 50
90.00000000000005
100
AcDbRotatedDimension
1001
ACAD_DSTYLE_DIMINSPECT
1070
   396
1000
100%
1070
   395
1000

1070
   394
1070
    33
1070
   393
1070
     0
1001
ACAD
1000
DSTYLE
1002
{
1070
   279
1070
     1
1002
}
  0
DIMENSION
  5
5D23
102
{ACAD_XDICTIONARY
360
5D30
102
}
102
{ACAD_REACTORS
330
5D31
102
}
330
1F
100
AcDbEntity
  8
AM_5 寸法線
100
AcDbDimension
  2
*D28
 10
756.7878710608426
 20
737.7162383130133
 30
0.0
 11
743.7878710608425
 21
720.2162383130136
 31
0.0
 70
    32
 71
     5
 42
35.0
 73
     0
 74
     0
 75
     0
  3
SEISA$0
100
AcDbAlignedDimension
 13
724.8746006608416
 23
702.7162383130135
 33
0.0
 14
726.8746006608417
 24
737.7162383130133
 34
0.0
 50
90.00000000000005
100
AcDbRotatedDimension
1001
ACAD_DSTYLE_DIMINSPECT
1070
   396
1000
100%
1070
   395
1000

1070
   394
1070
    33
1070
   393
1070
     0
  0
INSERT
  5
5E0B
330
1F
100
AcDbEntity
  8
AM_11 想像線
100
AcDbBlockReference
  2
ケース
 10
703.3746006608416
 20
583.7523510536875
 30
0.0
  0
ENDSEC
  0
SECTION
  2
OBJECTS
  0
DICTIONARY
  5
C
330
0
100
AcDbDictionary
281
     1
  3
ACAD_COLOR
350
C5
  3
ACAD_GROUP
350
D
  3
ACAD_LAYOUT
350
1A
  3
ACAD_MATERIAL
350
C4
  3
ACAD_MLEADERSTYLE
350
2D5
  3
ACAD_MLINESTYLE
350
17
  3
ACAD_PLOTSETTINGS
350
19
  3
ACAD_PLOTSTYLENAME
350
E
  3
ACAD_SCALELIST
350
2B3
  3
ACAD_TABLESTYLE
350
121
  3
ACAD_VISUALSTYLE
350
27F
  3
ACDB_RECOMPOSE_DATA
350
2F7
  3
AcDbVariableDictionary
350
34
  3
AcmDictionary
350
49
  3
AMG
350
2B
  3
AMGSNAPSETTINGS
350
1DE
  0
DICTIONARY
  5
BF
330
2
100
AcDbDictionary
280
     1
281
     1
  3
ACAD_LAYERSTATES
360
2786
  3
AMLAYER_GROUPCOLORS
360
C0
  0
DICTIONARY
  5
29D7
330
10
100
AcDbDictionary
280
     1
281
     1
  3
ADSK_XREC_LAYER_RECONCILED
360
29D8
  0
DICTIONARY
  5
29D9
330
81
100
AcDbDictionary
280
     1
281
     1
  3
ADSK_XREC_LAYER_RECONCILED
360
29DA
  0
DICTIONARY
  5
29E0
330
25C9
100
AcDbDictionary
280
     1
281
     1
  3
ADSK_XREC_LAYER_RECONCILED
360
29E1
  0
DICTIONARY
  5
29E2
330
25CA
100
AcDbDictionary
280
     1
281
     1
  3
ADSK_XREC_LAYER_RECONCILED
360
29E3
  0
DICTIONARY
  5
29E8
330
26B3
100
AcDbDictionary
280
     1
281
     1
  3
ADSK_XREC_LAYER_RECONCILED
360
29E9
  0
DICTIONARY
  5
82
330
1F
100
AcDbDictionary
280
     1
281
     1
  3
ACAD_SORTENTS
360
A41
  0
DICTIONARY
  5
3456
330
3455
100
AcDbDictionary
280
     1
281
     1
  3
ACAD_SORTENTS
360
56B2
  0
DICTIONARY
  5
42B0
330
424A
100
AcDbDictionary
280
     1
281
     1
  3
ACAD_SORTENTS
360
5C41
  0
DICTIONARY
  5
43F1
330
432F
100
AcDbDictionary
280
     1
281
     1
  3
ACAD_SORTENTS
360
5682
  0
DICTIONARY
  5
4528
330
44B4
100
AcDbDictionary
280
     1
281
     1
  3
ACAD_SORTENTS
360
5C86
  0
DICTIONARY
  5
4684
330
45B1
100
AcDbDictionary
280
     1
281
     1
  3
ACAD_SORTENTS
360
573F
  0
DICTIONARY
  5
4746
330
46D1
100
AcDbDictionary
280
     1
281
     1
  3
ACAD_SORTENTS
360
5808
  0
DICTIONARY
  5
4792
330
476B
100
AcDbDictionary
280
     1
281
     1
  3
ACAD_SORTENTS
360
5E4C
  0
DICTIONARY
  5
47CA
330
47BD
100
AcDbDictionary
280
     1
281
     1
  3
ACAD_DIMASSOC
360
47D4
  0
DICTIONARY
  5
495C
330
494D
100
AcDbDictionary
280
     1
281
     1
  3
ACAD_DIMASSOC
360
4968
  0
DICTIONARY
  5
4978
330
4969
100
AcDbDictionary
280
     1
281
     1
  3
ACAD_DIMASSOC
360
4984
  0
DICTIONARY
  5
49EC
330
49DF
100
AcDbDictionary
280
     1
281
     1
  3
ACAD_DIMASSOC
360
49F6
  0
DICTIONARY
  5
4A3D
330
4A30
100
AcDbDictionary
280
     1
281
     1
  3
ACAD_DIMASSOC
360
4A47
  0
DICTIONARY
  5
4BBE
330
4BB1
100
AcDbDictionary
280
     1
281
     1
  3
ACAD_DIMASSOC
360
4BC8
  0
DICTIONARY
  5
4BD6
330
4BC9
100
AcDbDictionary
280
     1
281
     1
  3
ACAD_DIMASSOC
360
4BE0
  0
DICTIONARY
  5
4BEE
330
4BE1
100
AcDbDictionary
280
     1
281
     1
  3
ACAD_DIMASSOC
360
4BF8
  0
DICTIONARY
  5
4C2A
330
4C1D
100
AcDbDictionary
280
     1
281
     1
  3
ACAD_DIMASSOC
360
4C34
  0
DICTIONARY
  5
4C44
330
4C35
100
AcDbDictionary
280
     1
281
     1
  3
ACAD_DIMASSOC
360
4C50
  0
DICTIONARY
  5
4C77
330
4C6A
100
AcDbDictionary
280
     1
281
     1
  3
ACAD_DIMASSOC
360
4C81
  0
DICTIONARY
  5
4CAD
330
4C9E
100
AcDbDictionary
280
     1
281
     1
  3
ACAD_DIMASSOC
360
4CB9
  0
DICTIONARY
  5
5CD5
330
5CC7
100
AcDbDictionary
280
     1
281
     1
  3
ACAD_DIMASSOC
360
5CD6
  0
DICTIONARY
  5
5D03
330
5CF5
100
AcDbDictionary
280
     1
281
     1
  3
ACAD_DIMASSOC
360
5D04
  0
DICTIONARY
  5
5D30
330
5D23
100
AcDbDictionary
280
     1
281
     1
  3
ACAD_DIMASSOC
360
5D31
  0
DICTIONARY
  5
C5
102
{ACAD_REACTORS
330
C
102
}
330
C
100
AcDbDictionary
281
     1
  0
DICTIONARY
  5
D
102
{ACAD_REACTORS
330
C
102
}
330
C
100
AcDbDictionary
281
     1
  0
DICTIONARY
  5
1A
102
{ACAD_REACTORS
330
C
102
}
330
C
100
AcDbDictionary
281
     1
  3
Model
350
22
  3
レイアウト1
350
1E
  3
レイアウト2
350
26
  0
DICTIONARY
  5
C4
102
{ACAD_REACTORS
330
C
102
}
330
C
100
AcDbDictionary
281
     1
  3
ByBlock
350
27D
  3
ByLayer
350
27C
  3
Global
350
27E
  0
DICTIONARY
  5
2D5
102
{ACAD_REACTORS
330
C
102
}
330
C
100
AcDbDictionary
281
     1
  3
Standard
350
2D6
  0
DICTIONARY
  5
17
102
{ACAD_REACTORS
330
C
102
}
330
C
100
AcDbDictionary
281
     1
  3
Standard
350
18
  0
DICTIONARY
  5
19
102
{ACAD_REACTORS
330
C
102
}
330
C
100
AcDbDictionary
281
     1
  3
SEISA基本
350
1C7E
  0
ACDBDICTIONARYWDFLT
  5
E
102
{ACAD_REACTORS
330
C
102
}
330
C
100
AcDbDictionary
281
     1
  3
Normal
350
F
100
AcDbDictionaryWithDefault
340
F
  0
DICTIONARY
  5
2B3
102
{ACAD_REACTORS
330
C
102
}
330
C
100
AcDbDictionary
281
     1
  3
*A1
350
5B8A
  3
*A2
350
5B8B
  3
*A3
350
5B8C
  3
A0
350
2B4
  3
A1
350
2B5
  3
A2
350
2B6
  3
A3
350
2B7
  3
A4
350
2B8
  3
A5
350
2B9
  3
A6
350
2BA
  3
A7
350
2BB
  3
A8
350
2BC
  3
A9
350
2BD
  3
B0
350
2BE
  3
B1
350
2BF
  3
B2
350
2C0
  3
B3
350
2C1
  3
B4
350
2C2
  3
B5
350
2C3
  3
B6
350
2C4
  3
B7
350
2C5
  3
B8
350
2C6
  3
B9
350
2C7
  3
C0
350
2C8
  3
C1
350
2C9
  3
C2
350
2CA
  3
C3
350
2CB
  3
C4
350
2CC
  3
C5
350
2CD
  3
C6
350
2CE
  3
C7
350
2CF
  3
C8
350
2D0
  3
C9
350
2D1
  3
D0
350
2D2
  3
D1
350
2D3
  3
D2
350
2D4
  0
DICTIONARY
  5
121
102
{ACAD_REACTORS
330
C
102
}
330
C
100
AcDbDictionary
281
     1
  3
Standard
350
122
  0
DICTIONARY
  5
27F
102
{ACAD_REACTORS
330
C
102
}
330
C
100
AcDbDictionary
281
     1
  3
2dWireframe
350
285
  3
3D Hidden
350
287
  3
3dWireframe
350
286
  3
Basic
350
284
  3
Brighten
350
28B
  3
ColorChange
350
28F
  3
Conceptual
350
288
  3
Dim
350
28A
  3
Facepattern
350
28E
  3
Flat
350
280
  3
FlatWithEdges
350
281
  3
Gouraud
350
282
  3
GouraudWithEdges
350
283
  3
Linepattern
350
28D
  3
Realistic
350
289
  3
Thicken
350
28C
  0
XRECORD
  5
2F7
102
{ACAD_REACTORS
330
C
102
}
330
C
100
AcDbXrecord
280
     1
 90
        1
330
122
  0
DICTIONARY
  5
34
102
{ACAD_REACTORS
330
C
102
}
330
C
100
AcDbDictionary
281
     1
  3
CANNOSCALE
350
2FA
  3
CMLEADERSTYLE
350
2F8
  3
CTABLESTYLE
350
140
  3
DIMASSOC
350
AC
  3
INDEXCTL
350
35
  3
LAYEREVAL
350
4CD6
  3
LAYERNOTIFY
350
4CD7
  3
LIGHTINGUNITS
350
2FB
  3
MSLTSCALE
350
2F9
  0
DICTIONARY
  5
49
102
{ACAD_REACTORS
330
C
102
}
330
C
100
AcDbDictionary
281
     1
  3
AcmBOM
350
161B
  3
AcmStdDictionary
350
4A
  3
AMDTSECTSYM_ARROWCOLOR
350
12B
  0
DICTIONARY
  5
2B
102
{ACAD_REACTORS
330
C
102
}
330
C
100
AcDbDictionary
281
     1
  0
DICTIONARY
  5
1DE
102
{ACAD_REACTORS
330
C
102
}
330
C
100
AcDbDictionary
281
     1
  0
DICTIONARY
  5
2786
102
{ACAD_REACTORS
330
BF
102
}
330
BF
100
AcDbDictionary
281
     1
  0
DICTIONARY
  5
C0
102
{ACAD_REACTORS
330
BF
102
}
330
BF
100
AcDbDictionary
280
     1
281
     1
  0
XRECORD
  5
29D8
102
{ACAD_REACTORS
330
29D7
102
}
330
29D7
100
AcDbXrecord
280
     1
290
     1
  0
XRECORD
  5
29DA
102
{ACAD_REACTORS
330
29D9
102
}
330
29D9
100
AcDbXrecord
280
     1
290
     1
  0
XRECORD
  5
29E1
102
{ACAD_REACTORS
330
29E0
102
}
330
29E0
100
AcDbXrecord
280
     1
290
     1
  0
XRECORD
  5
29E3
102
{ACAD_REACTORS
330
29E2
102
}
330
29E2
100
AcDbXrecord
280
     1
290
     1
  0
XRECORD
  5
29E9
102
{ACAD_REACTORS
330
29E8
102
}
330
29E8
100
AcDbXrecord
280
     1
290
     1
  0
SORTENTSTABLE
  5
A41
102
{ACAD_REACTORS
330
82
102
}
330
82
100
AcDbSortentsTable
330
1F
331
4C35
  5
4D16
331
4BB1
  5
4C1D
331
47BD
  5
493D
331
4777
  5
493C
331
44DB
  5
47BD
331
4BC9
  5
4C35
331
494D
  5
49F7
331
46F7
  5
493B
331
3E23
  5
3E23
331
49DF
  5
4A48
331
426A
  5
46F7
331
4BE1
  5
4C6A
331
3DCC
  5
3DCC
331
493E
  5
4969
331
45F6
  5
493A
331
4A30
  5
4AB8
331
436D
  5
4777
331
4C9E
  5
4D45
331
4969
  5
4A0F
331
4C1D
  5
4C9E
331
5B95
  5
5B95
331
3DFD
  5
3DFD
331
4C6A
  5
4D40
  0
SORTENTSTABLE
  5
56B2
102
{ACAD_REACTORS
330
3456
102
}
330
3456
100
AcDbSortentsTable
330
3455
  0
SORTENTSTABLE
  5
5C41
102
{ACAD_REACTORS
330
42B0
102
}
330
42B0
100
AcDbSortentsTable
330
424A
331
4260
  5
428E
331
428F
  5
4252
331
4257
  5
4261
331
428E
  5
4251
331
425F
  5
428D
331
428D
  5
4250
331
425E
  5
428C
331
4266
  5
5C40
331
4255
  5
4260
331
428C
  5
424F
331
425D
  5
4266
331
4265
  5
5C20
331
4254
  5
425F
331
425C
  5
4265
331
4264
  5
4292
331
424F
  5
425A
331
4253
  5
425E
331
425B
  5
4264
331
4292
  5
4255
331
4263
  5
4291
331
424E
  5
4259
331
4252
  5
425D
331
425A
  5
4263
331
4291
  5
4254
331
4262
  5
4290
331
424D
  5
4257
331
4251
  5
425C
331
4259
  5
4262
331
4290
  5
4253
331
4261
  5
428F
331
5C20
  5
424D
331
4250
  5
425B
331
5C40
  5
424E
  0
SORTENTSTABLE
  5
5682
102
{ACAD_REACTORS
330
43F1
102
}
330
43F1
100
AcDbSortentsTable
330
432F
  0
SORTENTSTABLE
  5
5C86
102
{ACAD_REACTORS
330
4528
102
}
330
4528
100
AcDbSortentsTable
330
44B4
331
44D5
  5
44D7
331
44C6
  5
44C8
331
5C65
  5
44B7
331
44CE
  5
44D0
331
44D4
  5
44D6
331
44C5
  5
44C7
331
44B7
  5
44B9
331
44CD
  5
44CF
331
44BC
  5
44C0
331
44D3
  5
44D5
331
44C4
  5
44C6
331
44CC
  5
44CE
331
44BB
  5
44BF
331
44D2
  5
44D4
331
44C3
  5
44C5
331
44CB
  5
44CD
331
44BA
  5
44BC
331
44D1
  5
44D3
331
44C2
  5
44C4
331
44CA
  5
44CC
331
44B9
  5
44BB
331
44D0
  5
44D2
331
44C1
  5
44C3
331
44C9
  5
44CB
331
44B8
  5
44BA
331
44C0
  5
44C2
331
44D7
  5
5C66
331
44C8
  5
44CA
331
44BF
  5
44C1
331
44D6
  5
5C65
331
44C7
  5
44C9
331
5C66
  5
44B8
331
44CF
  5
44D1
  0
SORTENTSTABLE
  5
573F
102
{ACAD_REACTORS
330
4684
102
}
330
4684
100
AcDbSortentsTable
330
45B1
  0
SORTENTSTABLE
  5
5808
102
{ACAD_REACTORS
330
4746
102
}
330
4746
100
AcDbSortentsTable
330
46D1
  0
SORTENTSTABLE
  5
5E4C
102
{ACAD_REACTORS
330
4792
102
}
330
4792
100
AcDbSortentsTable
330
476B
  0
DIMASSOC
  5
47D4
102
{ACAD_REACTORS
330
47CA
102
}
330
47CA
100
AcDbDimAssoc
330
47BD
 90
        3
 70
     0
 71
     0
  1
AcDbOsnapPointRef
 72
    13
331
426A
331
424F
 73
     2
 91
        0
 40
0.0
 10
0.0
 20
0.0
 30
2.000000000000000E+50
 75
     0
  1
AcDbOsnapPointRef
 72
    13
331
426A
331
4261
 73
     2
 91
        0
 40
0.0
 10
0.0
 20
0.0
 30
2.000000000000000E+50
 75
     0
  0
DIMASSOC
  5
4968
102
{ACAD_REACTORS
330
495C
102
}
330
495C
100
AcDbDimAssoc
330
494D
 90
        3
 70
     0
 71
     0
  1
AcDbOsnapPointRef
 72
    13
331
436D
331
4366
 73
     2
 91
        0
 40
0.0
 10
0.0
 20
0.0
 30
2.000000000000000E+50
 75
     0
  1
AcDbOsnapPointRef
 72
    13
331
45F6
331
45E9
 73
     2
 91
        0
 40
0.0
 10
0.0
 20
0.0
 30
2.000000000000000E+50
 75
     0
  0
DIMASSOC
  5
4984
102
{ACAD_REACTORS
330
4978
102
}
330
4978
100
AcDbDimAssoc
330
4969
 90
        3
 70
     0
 71
     0
  1
AcDbOsnapPointRef
 72
    13
331
45F6
331
45E9
 73
     2
 91
        0
 40
0.0
 10
0.0
 20
0.0
 30
2.000000000000000E+50
 75
     0
  1
AcDbOsnapPointRef
 72
    13
331
45F6
331
45E4
 73
     2
 91
        0
 40
0.0
 10
0.0
 20
0.0
 30
2.000000000000000E+50
 75
     0
  0
DIMASSOC
  5
49F6
102
{ACAD_REACTORS
330
49EC
102
}
330
49EC
100
AcDbDimAssoc
330
49DF
 90
        2
 70
     0
 71
     0
  1
AcDbOsnapPointRef
 72
    13
331
436D
331
4365
 73
     2
 91
        0
 40
0.0
 10
0.0
 20
0.0
 30
2.000000000000000E+50
 75
     0
  0
DIMASSOC
  5
4A47
102
{ACAD_REACTORS
330
4A3D
102
}
330
4A3D
100
AcDbDimAssoc
330
4A30
 90
        3
 70
     0
 71
     0
  1
AcDbOsnapPointRef
 72
     1
331
426A
331
425F
 73
     2
 91
        0
 40
1.0
 10
0.0
 20
0.0
 30
2.000000000000000E+50
 75
     0
  1
AcDbOsnapPointRef
 72
     6
331
44DB
331
44C9
 73
     2
 91
        0
 40
1.0
 10
0.0
 20
0.0
 30
0.0
332
44DB
332
44D6
 74
     2
 92
        0
 75
     0
  0
DIMASSOC
  5
4BC8
102
{ACAD_REACTORS
330
4BBE
102
}
330
4BBE
100
AcDbDimAssoc
330
4BB1
 90
        3
 70
     0
 71
     0
  1
AcDbOsnapPointRef
 72
     1
331
45F6
331
45C6
 73
     2
 91
        0
 40
1.0
 10
0.0
 20
0.0
 30
2.000000000000000E+50
 75
     0
  1
AcDbOsnapPointRef
 72
     1
331
45F6
331
45E8
 73
     2
 91
        0
 40
1.0
 10
0.0
 20
0.0
 30
2.000000000000000E+50
 75
     0
  0
DIMASSOC
  5
4BE0
102
{ACAD_REACTORS
330
4BD6
102
}
330
4BD6
100
AcDbDimAssoc
330
4BC9
 90
        3
 70
     0
 71
     0
  1
AcDbOsnapPointRef
 72
    10
331
45F6
331
45D4
 73
     2
 91
        0
 40
0.9325921045087202
 10
0.0
 20
0.0
 30
0.0
 75
     0
  1
AcDbOsnapPointRef
 72
     8
331
45F6
331
45EC
 73
     2
 91
        0
 40
0.8398743527043006
 10
0.0
 20
0.0
 30
0.0
 75
     1
  1
AcDbOsnapPointRef
 72
    10
331
45F6
331
45D4
 73
     2
 91
        0
 40
0.9325921045087202
 10
0.0
 20
0.0
 30
0.0
 75
     0
  0
DIMASSOC
  5
4BF8
102
{ACAD_REACTORS
330
4BEE
102
}
330
4BEE
100
AcDbDimAssoc
330
4BE1
 90
        3
 70
     0
 71
     0
  1
AcDbOsnapPointRef
 72
    13
331
44DB
331
44B9
 73
     2
 91
        0
 40
0.0
 10
0.0
 20
0.0
 30
2.000000000000000E+50
 75
     0
  1
AcDbOsnapPointRef
 72
    13
331
44DB
331
44CB
 73
     2
 91
        0
 40
0.0
 10
0.0
 20
0.0
 30
2.000000000000000E+50
 75
     0
  0
DIMASSOC
  5
4C34
102
{ACAD_REACTORS
330
4C2A
102
}
330
4C2A
100
AcDbDimAssoc
330
4C1D
 90
        3
 70
     0
 71
     0
  1
AcDbOsnapPointRef
 72
    10
331
426A
331
424D
 73
     2
 91
        0
 40
0.1978958387356752
 10
0.0
 20
0.0
 30
0.0
 75
     0
  1
AcDbOsnapPointRef
 72
     8
331
426A
331
425D
 73
     2
 91
        0
 40
0.1932642339993097
 10
0.0
 20
0.0
 30
0.0
 75
     1
  1
AcDbOsnapPointRef
 72
    10
331
426A
331
424D
 73
     2
 91
        0
 40
0.1978958387356752
 10
0.0
 20
0.0
 30
0.0
 75
     0
  0
DIMASSOC
  5
4C50
102
{ACAD_REACTORS
330
4C44
102
}
330
4C44
100
AcDbDimAssoc
330
4C35
 90
        2
 70
     0
 71
     0
  1
AcDbOsnapPointRef
 72
     8
331
44DB
331
44B7
 73
     2
 91
        0
 40
0.7890052695467898
 10
0.0
 20
0.0
 30
0.0
 75
     1
  1
AcDbOsnapPointRef
 72
     0
 40
0.0
 10
839.3364726060967
 20
820.0199984000002
 30
0.0
 75
     0
  0
DIMASSOC
  5
4C81
102
{ACAD_REACTORS
330
4C77
102
}
330
4C77
100
AcDbDimAssoc
330
4C6A
 90
        3
 70
     0
 71
     0
  1
AcDbOsnapPointRef
 72
    10
331
44DB
331
44B7
 73
     2
 91
        0
 40
0.7855082202286027
 10
0.0
 20
0.0
 30
0.0
 75
     0
  1
AcDbOsnapPointRef
 72
     8
331
44DB
331
44B8
 73
     2
 91
        0
 40
0.2196321056482721
 10
0.0
 20
0.0
 30
0.0
 75
     1
  1
AcDbOsnapPointRef
 72
    10
331
44DB
331
44B7
 73
     2
 91
        0
 40
0.7855082202286027
 10
0.0
 20
0.0
 30
0.0
 75
     0
  0
DIMASSOC
  5
4CB9
102
{ACAD_REACTORS
330
4CAD
102
}
330
4CAD
100
AcDbDimAssoc
330
4C9E
 90
        3
 70
     0
 71
     0
  1
AcDbOsnapPointRef
 72
     1
331
436D
331
4356
 73
     2
 91
        0
 40
1.0
 10
0.0
 20
0.0
 30
2.000000000000000E+50
 75
     0
  1
AcDbOsnapPointRef
 72
    13
331
426A
331
4254
 73
     2
 91
        0
 40
0.0
 10
0.0
 20
0.0
 30
2.000000000000000E+50
 75
     0
  0
DIMASSOC
  5
5CD6
102
{ACAD_REACTORS
330
5CD5
102
}
330
5CD5
100
AcDbDimAssoc
330
5CC7
 90
        1
 70
     0
 71
     0
  1
AcDbOsnapPointRef
 72
     1
331
426A
331
424D
 73
     0
 91
        0
 40
0.0
 10
0.0
 20
0.0
 30
2.000000000000000E+50
 75
     0
  0
DIMASSOC
  5
5D04
102
{ACAD_REACTORS
330
5D03
102
}
330
5D03
100
AcDbDimAssoc
330
5CF5
 90
        3
 70
     0
 71
     0
  1
AcDbOsnapPointRef
 72
     4
331
4C9E
331
5164
 73
     0
 91
        0
 40
0.0
 10
0.0
 20
0.0
 30
0.0
 75
     0
  1
AcDbOsnapPointRef
 72
     8
331
426A
331
4255
 73
     0
 91
        0
 40
0.9540792714841728
 10
0.0
 20
0.0
 30
0.0
 75
     1
  1
AcDbOsnapPointRef
 72
     4
331
4C9E
331
5164
 73
     0
 91
        0
 40
0.0
 10
0.0
 20
0.0
 30
0.0
 75
     0
  0
DIMASSOC
  5
5D31
102
{ACAD_REACTORS
330
5D30
102
}
330
5D30
100
AcDbDimAssoc
330
5D23
 90
        3
 70
     0
 71
     0
  1
AcDbOsnapPointRef
 72
     4
331
5CF5
 73
     0
 91
        0
 40
0.0
 10
0.0
 20
0.0
 30
0.0
 75
     0
  1
AcDbOsnapPointRef
 72
     1
331
426A
331
425D
 73
     0
 91
        0
 40
0.0
 10
0.0
 20
0.0
 30
2.000000000000000E+50
 75
     0
  0
LAYOUT
  5
22
102
{ACAD_REACTORS
330
1A
102
}
330
1A
100
AcDbPlotSettings
  1

  2
KONICA MINOLTA 501 PCL
  4
A4
  6

 40
5.027082920074462
 41
5.027085781097412
 42
5.027069091796875
 43
5.027069091796875
 44
209.9733276367186
 45
296.9259948730469
 46
0.0
 47
26.21508116271147
 48
0.0
 49
0.0
140
0.0
141
0.0
142
1.0
143
3.074750255193646
 70
 11956
 72
     1
 73
     0
 74
     1
  7
SEISA.ctb
 75
     0
147
0.325229666478073
 76
     0
 77
     2
 78
   300
148
-651.6090151017232
149
-434.9707075429273
100
AcDbLayout
  1
Model
 70
     1
 71
     0
 10
0.0
 20
0.0
 11
12.0
 21
9.0
 12
0.0
 22
0.0
 32
0.0
 14
0.0
 24
0.0
 34
0.0
 15
0.0
 25
0.0
 35
0.0
146
0.0
 13
0.0
 23
0.0
 33
0.0
 16
1.0
 26
0.0
 36
0.0
 17
0.0
 27
1.0
 37
0.0
 76
     0
330
1F
331
27A
1001
ACAD_PSEXT
1000
KONICA MINOLTA 501 PCL
1000
KONICA MINOLTA 501/421/361PCL
1000
IP_192.168.20.231_(1)
1000

1070
     0
  0
LAYOUT
  5
1E
102
{ACAD_REACTORS
330
1A
102
}
330
1A
100
AcDbPlotSettings
  1

  2
none_device
  4
Letter_(8.50_x_11.00_Inches)
  6

 40
6.349999904632567
 41
6.349999904632567
 42
6.350006103515625
 43
6.350006103515625
 44
215.8999938964844
 45
279.3999938964844
 46
0.0
 47
0.0
 48
0.0
 49
0.0
140
0.0
141
0.0
142
1.0
143
1.0
 70
 15024
 72
     1
 73
     1
 74
     5
  7
SEISA.ctb
 75
    16
147
1.0
 76
     0
 77
     2
 78
   300
148
0.0
149
0.0
100
AcDbLayout
  1
レイアウト1
 70
     1
 71
     1
 10
0.0
 20
0.0
 11
420.0
 21
297.0
 12
0.0
 22
0.0
 32
0.0
 14
1.000000000000000E+20
 24
1.000000000000000E+20
 34
1.000000000000000E+20
 15
-1.000000000000000E+20
 25
-1.000000000000000E+20
 35
-1.000000000000000E+20
146
0.0
 13
0.0
 23
0.0
 33
0.0
 16
1.0
 26
0.0
 36
0.0
 17
0.0
 27
1.0
 37
0.0
 76
     0
330
1B
  0
LAYOUT
  5
26
102
{ACAD_REACTORS
330
1A
102
}
330
1A
100
AcDbPlotSettings
  1

  2
none_device
  4
Letter_(8.50_x_11.00_Inches)
  6

 40
6.349999904632567
 41
6.349999904632567
 42
6.350006103515625
 43
6.350006103515625
 44
215.8999938964844
 45
279.3999938964844
 46
0.0
 47
0.0
 48
0.0
 49
0.0
140
0.0
141
0.0
142
1.0
143
1.0
 70
 15024
 72
     1
 73
     1
 74
     5
  7
SEISA.ctb
 75
    16
147
1.0
 76
     0
 77
     2
 78
   300
148
0.0
149
0.0
100
AcDbLayout
  1
レイアウト2
 70
     1
 71
     2
 10
0.0
 20
0.0
 11
12.0
 21
9.0
 12
0.0
 22
0.0
 32
0.0
 14
0.0
 24
0.0
 34
0.0
 15
0.0
 25
0.0
 35
0.0
146
0.0
 13
0.0
 23
0.0
 33
0.0
 16
1.0
 26
0.0
 36
0.0
 17
0.0
 27
1.0
 37
0.0
 76
     0
330
23
  0
MATERIAL
  5
27D
102
{ACAD_REACTORS
330
C4
102
}
330
C4
100
AcDbMaterial
  1
ByBlock
 73
     1
 78
     1
172
     1
176
     1
270
     1
274
     1
 94
       63
  0
MATERIAL
  5
27C
102
{ACAD_REACTORS
330
C4
102
}
330
C4
100
AcDbMaterial
  1
ByLayer
 73
     1
 78
     1
172
     1
176
     1
270
     1
274
     1
 94
       63
  0
MATERIAL
  5
27E
102
{ACAD_REACTORS
330
C4
102
}
330
C4
100
AcDbMaterial
  1
Global
 73
     1
 78
     1
172
     1
176
     1
270
     1
274
     1
 94
       63
  0
MLEADERSTYLE
  5
2D6
102
{ACAD_REACTORS
330
2D5
102
}
330
2D5
100
AcDbMLeaderStyle
170
     2
171
     1
172
     0
 90
        2
 40
0.0
 41
0.0
173
     1
 91
-1056964608
340
14
 92
       -2
290
     1
 42
2.0
291
     1
 43
0.36
  3
Standard
 44
4.0
300

342
11
174
     1
178
     6
175
     1
176
     0
 93
-1056964608
 45
4.0
292
     0
297
     0
 46
4.0
 94
-1056964608
 47
1.0
 49
1.0
140
1.0
293
     1
141
0.0
294
     1
177
     0
142
1.0
295
     0
296
     0
143
0.125
1001
ACAD_MLEADERVER
1070
     2
  0
MLINESTYLE
  5
18
102
{ACAD_REACTORS
330
17
102
}
330
17
100
AcDbMlineStyle
  2
STANDARD
 70
     0
  3

 62
   256
 51
90.0
 52
90.0
 71
     2
 49
0.5
 62
   256
  6
BYLAYER
 49
-0.5
 62
   256
  6
BYLAYER
  0
PLOTSETTINGS
  5
1C7E
102
{ACAD_REACTORS
330
19
102
}
330
19
100
AcDbPlotSettings
  1
SEISA基本
  2
none_device
  4
Letter_(8.50_x_11.00_Inches)
  6

 40
6.349999904632567
 41
6.349999904632567
 42
6.350006103515625
 43
6.350006103515625
 44
215.8999938964844
 45
279.3999938964844
 46
7.302498226506357
 47
0.0
 48
0.0
 49
0.0
140
0.0
141
0.0
142
1.0
143
1.574803221122935
 70
 11956
 72
     1
 73
     1
 74
     2
  7
SEISA.ctb
 75
     0
147
0.6349999711627054
 76
     0
 77
     2
 78
   300
148
0.0
149
0.0
1001
ACAD_PSEXT
1000
なし
1000
なし
1000
適切ではありません
1000
新しいプロッタ環境設定名を選択しない限り、レイアウトは印刷されません。
1070
     0
  0
ACDBPLACEHOLDER
  5
F
102
{ACAD_REACTORS
330
E
102
}
330
E
  0
SCALE
  5
5B8A
102
{ACAD_REACTORS
330
2B3
102
}
330
2B3
100
AcDbScale
 70
     0
300
1:3
140
1.0
141
3.0
290
     0
  0
SCALE
  5
5B8B
102
{ACAD_REACTORS
330
2B3
102
}
330
2B3
100
AcDbScale
 70
     0
300
1:2.5
140
1.0
141
2.5
290
     0
  0
SCALE
  5
5B8C
102
{ACAD_REACTORS
330
2B3
102
}
330
2B3
100
AcDbScale
 70
     0
300
1:1.5
140
1.0
141
1.5
290
     0
  0
SCALE
  5
2B4
102
{ACAD_REACTORS
330
2B3
102
}
330
2B3
100
AcDbScale
 70
     0
300
1:1
140
1.0
141
1.0
290
     1
  0
SCALE
  5
2B5
102
{ACAD_REACTORS
330
2B3
102
}
330
2B3
100
AcDbScale
 70
     0
300
1:2
140
1.0
141
2.0
290
     0
  0
SCALE
  5
2B6
102
{ACAD_REACTORS
330
2B3
102
}
330
2B3
100
AcDbScale
 70
     0
300
1:4
140
1.0
141
4.0
290
     0
  0
SCALE
  5
2B7
102
{ACAD_REACTORS
330
2B3
102
}
330
2B3
100
AcDbScale
 70
     0
300
1:5
140
1.0
141
5.0
290
     0
  0
SCALE
  5
2B8
102
{ACAD_REACTORS
330
2B3
102
}
330
2B3
100
AcDbScale
 70
     0
300
1:8
140
1.0
141
8.0
290
     0
  0
SCALE
  5
2B9
102
{ACAD_REACTORS
330
2B3
102
}
330
2B3
100
AcDbScale
 70
     0
300
1:10
140
1.0
141
10.0
290
     0
  0
SCALE
  5
2BA
102
{ACAD_REACTORS
330
2B3
102
}
330
2B3
100
AcDbScale
 70
     0
300
1:16
140
1.0
141
16.0
290
     0
  0
SCALE
  5
2BB
102
{ACAD_REACTORS
330
2B3
102
}
330
2B3
100
AcDbScale
 70
     0
300
1:20
140
1.0
141
20.0
290
     0
  0
SCALE
  5
2BC
102
{ACAD_REACTORS
330
2B3
102
}
330
2B3
100
AcDbScale
 70
     0
300
1:30
140
1.0
141
30.0
290
     0
  0
SCALE
  5
2BD
102
{ACAD_REACTORS
330
2B3
102
}
330
2B3
100
AcDbScale
 70
     0
300
1:40
140
1.0
141
40.0
290
     0
  0
SCALE
  5
2BE
102
{ACAD_REACTORS
330
2B3
102
}
330
2B3
100
AcDbScale
 70
     0
300
1:50
140
1.0
141
50.0
290
     0
  0
SCALE
  5
2BF
102
{ACAD_REACTORS
330
2B3
102
}
330
2B3
100
AcDbScale
 70
     0
300
1:100
140
1.0
141
100.0
290
     0
  0
SCALE
  5
2C0
102
{ACAD_REACTORS
330
2B3
102
}
330
2B3
100
AcDbScale
 70
     0
300
2:1
140
2.0
141
1.0
290
     0
  0
SCALE
  5
2C1
102
{ACAD_REACTORS
330
2B3
102
}
330
2B3
100
AcDbScale
 70
     0
300
4:1
140
4.0
141
1.0
290
     0
  0
SCALE
  5
2C2
102
{ACAD_REACTORS
330
2B3
102
}
330
2B3
100
AcDbScale
 70
     0
300
8:1
140
8.0
141
1.0
290
     0
  0
SCALE
  5
2C3
102
{ACAD_REACTORS
330
2B3
102
}
330
2B3
100
AcDbScale
 70
     0
300
10:1
140
10.0
141
1.0
290
     0
  0
SCALE
  5
2C4
102
{ACAD_REACTORS
330
2B3
102
}
330
2B3
100
AcDbScale
 70
     0
300
100:1
140
100.0
141
1.0
290
     0
  0
SCALE
  5
2C5
102
{ACAD_REACTORS
330
2B3
102
}
330
2B3
100
AcDbScale
 70
     0
300
1/128" = 1'-0"
140
0.0078125
141
12.0
290
     0
  0
SCALE
  5
2C6
102
{ACAD_REACTORS
330
2B3
102
}
330
2B3
100
AcDbScale
 70
     0
300
1/64" = 1'-0"
140
0.015625
141
12.0
290
     0
  0
SCALE
  5
2C7
102
{ACAD_REACTORS
330
2B3
102
}
330
2B3
100
AcDbScale
 70
     0
300
1/32" = 1'-0"
140
0.03125
141
12.0
290
     0
  0
SCALE
  5
2C8
102
{ACAD_REACTORS
330
2B3
102
}
330
2B3
100
AcDbScale
 70
     0
300
1/16" = 1'-0"
140
0.0625
141
12.0
290
     0
  0
SCALE
  5
2C9
102
{ACAD_REACTORS
330
2B3
102
}
330
2B3
100
AcDbScale
 70
     0
300
3/32" = 1'-0"
140
0.09375
141
12.0
290
     0
  0
SCALE
  5
2CA
102
{ACAD_REACTORS
330
2B3
102
}
330
2B3
100
AcDbScale
 70
     0
300
1/8" = 1'-0"
140
0.125
141
12.0
290
     0
  0
SCALE
  5
2CB
102
{ACAD_REACTORS
330
2B3
102
}
330
2B3
100
AcDbScale
 70
     0
300
3/16" = 1'-0"
140
0.1875
141
12.0
290
     0
  0
SCALE
  5
2CC
102
{ACAD_REACTORS
330
2B3
102
}
330
2B3
100
AcDbScale
 70
     0
300
1/4" = 1'-0"
140
0.25
141
12.0
290
     0
  0
SCALE
  5
2CD
102
{ACAD_REACTORS
330
2B3
102
}
330
2B3
100
AcDbScale
 70
     0
300
3/8" = 1'-0"
140
0.375
141
12.0
290
     0
  0
SCALE
  5
2CE
102
{ACAD_REACTORS
330
2B3
102
}
330
2B3
100
AcDbScale
 70
     0
300
1/2" = 1'-0"
140
0.5
141
12.0
290
     0
  0
SCALE
  5
2CF
102
{ACAD_REACTORS
330
2B3
102
}
330
2B3
100
AcDbScale
 70
     0
300
3/4" = 1'-0"
140
0.75
141
12.0
290
     0
  0
SCALE
  5
2D0
102
{ACAD_REACTORS
330
2B3
102
}
330
2B3
100
AcDbScale
 70
     0
300
1" = 1'-0"
140
1.0
141
12.0
290
     0
  0
SCALE
  5
2D1
102
{ACAD_REACTORS
330
2B3
102
}
330
2B3
100
AcDbScale
 70
     0
300
1-1/2" = 1'-0"
140
1.5
141
12.0
290
     0
  0
SCALE
  5
2D2
102
{ACAD_REACTORS
330
2B3
102
}
330
2B3
100
AcDbScale
 70
     0
300
3" = 1'-0"
140
3.0
141
12.0
290
     0
  0
SCALE
  5
2D3
102
{ACAD_REACTORS
330
2B3
102
}
330
2B3
100
AcDbScale
 70
     0
300
6" = 1'-0"
140
6.0
141
12.0
290
     0
  0
SCALE
  5
2D4
102
{ACAD_REACTORS
330
2B3
102
}
330
2B3
100
AcDbScale
 70
     0
300
1'-0" = 1'-0"
140
12.0
141
12.0
290
     0
  0
TABLESTYLE
  5
122
102
{ACAD_XDICTIONARY
360
2F5
102
}
102
{ACAD_REACTORS
330
121
102
}
330
121
100
AcDbTableStyle
  3
Standard
 70
     0
 71
     0
 40
1.5
 41
1.5
280
     0
281
     0
  7
STANDARD
140
4.5
170
     2
 62
     0
 63
     7
283
     0
 90
      512
 91
        0
  1

274
    -2
284
     1
 64
     0
275
    -2
285
     1
 65
     0
276
    -2
286
     1
 66
     0
277
    -2
287
     1
 67
     0
278
    -2
288
     1
 68
     0
279
    -2
289
     1
 69
     0
  7
STANDARD
140
6.0
170
     5
 62
     0
 63
     7
283
     0
 90
      512
 91
        0
  1

274
    -2
284
     1
 64
     0
275
    -2
285
     1
 65
     0
276
    -2
286
     1
 66
     0
277
    -2
287
     1
 67
     0
278
    -2
288
     1
 68
     0
279
    -2
289
     1
 69
     0
  7
STANDARD
140
4.5
170
     5
 62
     0
 63
     7
283
     0
 90
      512
 91
        0
  1

274
    -2
284
     1
 64
     0
275
    -2
285
     1
 65
     0
276
    -2
286
     1
 66
     0
277
    -2
287
     1
 67
     0
278
    -2
288
     1
 68
     0
279
    -2
289
     1
 69
     0
  0
VISUALSTYLE
  5
285
102
{ACAD_REACTORS
330
27F
102
}
330
27F
100
AcDbVisualStyle
  2
2dWireframe
 70
     4
 71
     0
 72
     2
 73
     0
 90
        0
 40
-0.6
 41
-30.0
 62
     5
 63
     7
421
 16777215
 74
     1
 91
        4
 64
     7
 65
   257
 75
     1
175
     1
 42
1.0
 92
        0
 66
   257
 43
1.0
 76
     1
 77
     6
 78
     2
 67
     7
 79
     5
170
     0
171
     0
290
     0
174
     0
 93
        1
 44
0.0
173
     0
291
     0
 45
0.0
  0
VISUALSTYLE
  5
287
102
{ACAD_REACTORS
330
27F
102
}
330
27F
100
AcDbVisualStyle
  2
3D Hidden
 70
     6
 71
     1
 72
     2
 73
     2
 90
        0
 40
-0.6
 41
-30.0
 62
     5
 63
     7
421
 16777215
 74
     2
 91
        2
 64
     7
 65
   257
 75
     2
175
     1
 42
40.0
 92
        0
 66
   257
 43
1.0
 76
     1
 77
     6
 78
     2
 67
     7
 79
     3
170
     0
171
     0
290
     0
174
     0
 93
        1
 44
0.0
173
     0
291
     0
 45
0.0
  0
VISUALSTYLE
  5
286
102
{ACAD_REACTORS
330
27F
102
}
330
27F
100
AcDbVisualStyle
  2
3dWireframe
 70
     5
 71
     0
 72
     2
 73
     0
 90
        0
 40
-0.6
 41
-30.0
 62
     5
 63
     7
421
 16777215
 74
     1
 91
        4
 64
     7
 65
   257
 75
     1
175
     1
 42
1.0
 92
        0
 66
   257
 43
1.0
 76
     1
 77
     6
 78
     2
 67
     7
 79
     5
170
     0
171
     0
290
     0
174
     0
 93
        1
 44
0.0
173
     0
291
     0
 45
0.0
  0
VISUALSTYLE
  5
284
102
{ACAD_REACTORS
330
27F
102
}
330
27F
100
AcDbVisualStyle
  2
Basic
 70
     7
 71
     1
 72
     0
 73
     1
 90
        0
 40
-0.6
 41
-30.0
 62
     5
 63
     7
421
 16777215
 74
     0
 91
        4
 64
     7
 65
   257
 75
     1
175
     1
 42
1.0
 92
        8
 66
     7
 43
1.0
 76
     1
 77
     6
 78
     2
 67
     7
 79
     5
170
     0
171
     0
290
     0
174
     0
 93
        1
 44
0.0
173
     0
291
     1
 45
0.0
  0
VISUALSTYLE
  5
28B
102
{ACAD_REACTORS
330
27F
102
}
330
27F
100
AcDbVisualStyle
  2
Brighten
 70
    12
 71
     2
 72
     2
 73
     0
 90
        0
 40
-0.6
 41
-30.0
 62
     5
 63
     7
421
 16777215
 74
     1
 91
        4
 64
     7
 65
   257
 75
     1
175
     1
 42
1.0
 92
        8
 66
     7
 43
1.0
 76
     1
 77
     6
 78
     2
 67
     7
 79
     5
170
     0
171
     0
290
     0
174
     0
 93
        1
 44
50.0
173
     0
291
     1
 45
0.0
  0
VISUALSTYLE
  5
28F
102
{ACAD_REACTORS
330
27F
102
}
330
27F
100
AcDbVisualStyle
  2
ColorChange
 70
    16
 71
     2
 72
     2
 73
     3
 90
        0
 40
-0.6
 41
-30.0
 62
     5
 63
     8
421
  8421504
 74
     1
 91
        4
 64
     7
 65
   257
 75
     1
175
     1
 42
1.0
 92
        8
 66
     8
424
  8421504
 43
1.0
 76
     1
 77
     6
 78
     2
 67
     7
 79
     5
170
     0
171
     0
290
     0
174
     0
 93
        1
 44
0.0
173
     0
291
     1
 45
0.0
  0
VISUALSTYLE
  5
288
102
{ACAD_REACTORS
330
27F
102
}
330
27F
100
AcDbVisualStyle
  2
Conceptual
 70
     9
 71
     3
 72
     2
 73
     0
 90
        0
 40
-0.6
 41
-30.0
 62
     5
 63
     7
421
 16777215
 74
     2
 91
        2
 64
     7
 65
   257
 75
     1
175
     1
 42
40.0
 92
        8
 66
     7
 43
1.0
 76
     1
 77
     6
 78
     2
 67
     7
 79
     3
170
     0
171
     0
290
     0
174
     0
 93
        1
 44
0.0
173
     0
291
     0
 45
0.0
  0
VISUALSTYLE
  5
28A
102
{ACAD_REACTORS
330
27F
102
}
330
27F
100
AcDbVisualStyle
  2
Dim
 70
    11
 71
     2
 72
     2
 73
     0
 90
        0
 40
-0.6
 41
-30.0
 62
     5
 63
     7
421
 16777215
 74
     1
 91
        4
 64
     7
 65
   257
 75
     1
175
     1
 42
1.0
 92
        8
 66
     7
 43
1.0
 76
     1
 77
     6
 78
     2
 67
     7
 79
     5
170
     0
171
     0
290
     0
174
     0
 93
        1
 44
-50.0
173
     0
291
     1
 45
0.0
  0
VISUALSTYLE
  5
28E
102
{ACAD_REACTORS
330
27F
102
}
330
27F
100
AcDbVisualStyle
  2
Facepattern
 70
    15
 71
     2
 72
     2
 73
     0
 90
        0
 40
-0.6
 41
-30.0
 62
     5
 63
     7
421
 16777215
 74
     1
 91
        4
 64
     7
 65
   257
 75
     1
175
     1
 42
1.0
 92
        8
 66
     7
 43
1.0
 76
     1
 77
     6
 78
     2
 67
     7
 79
     5
170
     0
171
     0
290
     0
174
     0
 93
        1
 44
0.0
173
     0
291
     1
 45
0.0
  0
VISUALSTYLE
  5
280
102
{ACAD_REACTORS
330
27F
102
}
330
27F
100
AcDbVisualStyle
  2
Flat
 70
     0
 71
     2
 72
     1
 73
     1
 90
        2
 40
-0.6
 41
30.0
 62
     5
 63
     7
421
 16777215
 74
     0
 91
        4
 64
     7
 65
   257
 75
     1
175
     1
 42
1.0
 92
        8
 66
     7
 43
1.0
 76
     1
 77
     6
 78
     2
 67
     7
 79
     5
170
     0
171
     0
290
     0
174
     0
 93
       13
 44
0.0
173
     0
291
     1
 45
0.0
  0
VISUALSTYLE
  5
281
102
{ACAD_REACTORS
330
27F
102
}
330
27F
100
AcDbVisualStyle
  2
FlatWithEdges
 70
     1
 71
     2
 72
     1
 73
     1
 90
        2
 40
-0.6
 41
30.0
 62
     5
 63
     7
421
 16777215
 74
     1
 91
        4
 64
     7
 65
   257
 75
     1
175
     1
 42
1.0
 92
        0
 66
   257
 43
1.0
 76
     1
 77
     6
 78
     2
 67
     7
 79
     5
170
     0
171
     0
290
     0
174
     0
 93
       13
 44
0.0
173
     0
291
     1
 45
0.0
  0
VISUALSTYLE
  5
282
102
{ACAD_REACTORS
330
27F
102
}
330
27F
100
AcDbVisualStyle
  2
Gouraud
 70
     2
 71
     2
 72
     2
 73
     1
 90
        2
 40
-0.6
 41
30.0
 62
     5
 63
     7
421
 16777215
 74
     0
 91
        4
 64
     7
 65
   257
 75
     1
175
     1
 42
1.0
 92
        0
 66
     7
 43
1.0
 76
     1
 77
     6
 78
     2
 67
     7
 79
     5
170
     0
171
     0
290
     0
174
     0
 93
       13
 44
0.0
173
     0
291
     1
 45
0.0
  0
VISUALSTYLE
  5
283
102
{ACAD_REACTORS
330
27F
102
}
330
27F
100
AcDbVisualStyle
  2
GouraudWithEdges
 70
     3
 71
     2
 72
     2
 73
     1
 90
        2
 40
-0.6
 41
30.0
 62
     5
 63
     7
421
 16777215
 74
     1
 91
        4
 64
     7
 65
   257
 75
     1
175
     1
 42
1.0
 92
        0
 66
   257
 43
1.0
 76
     1
 77
     6
 78
     2
 67
     7
 79
     5
170
     0
171
     0
290
     0
174
     0
 93
       13
 44
0.0
173
     0
291
     1
 45
0.0
  0
VISUALSTYLE
  5
28D
102
{ACAD_REACTORS
330
27F
102
}
330
27F
100
AcDbVisualStyle
  2
Linepattern
 70
    14
 71
     2
 72
     2
 73
     0
 90
        0
 40
-0.6
 41
-30.0
 62
     5
 63
     7
421
 16777215
 74
     1
 91
        4
 64
     7
 65
   257
 75
     7
175
     7
 42
1.0
 92
        8
 66
     7
 43
1.0
 76
     1
 77
     6
 78
     2
 67
     7
 79
     5
170
     0
171
     0
290
     0
174
     0
 93
        1
 44
0.0
173
     0
291
     1
 45
0.0
  0
VISUALSTYLE
  5
289
102
{ACAD_REACTORS
330
27F
102
}
330
27F
100
AcDbVisualStyle
  2
Realistic
 70
     8
 71
     2
 72
     2
 73
     0
 90
        0
 40
-0.6
 41
-30.0
 62
     5
 63
     7
421
 16777215
 74
     1
 91
        0
 64
     7
 65
   257
 75
     1
175
     1
 42
1.0
 92
        8
 66
     8
424
  7895160
 43
1.0
 76
     1
 77
     6
 78
     2
 67
     7
 79
     5
170
     0
171
     0
290
     0
174
     0
 93
       13
 44
0.0
173
     0
291
     0
 45
0.0
  0
VISUALSTYLE
  5
28C
102
{ACAD_REACTORS
330
27F
102
}
330
27F
100
AcDbVisualStyle
  2
Thicken
 70
    13
 71
     2
 72
     2
 73
     0
 90
        0
 40
-0.6
 41
-30.0
 62
     5
 63
     7
421
 16777215
 74
     1
 91
        4
 64
     7
 65
   257
 75
     1
175
     1
 42
1.0
 92
       12
 66
     7
 43
1.0
 76
     1
 77
     6
 78
     2
 67
     7
 79
     5
170
     0
171
     0
290
     0
174
     0
 93
        1
 44
0.0
173
     0
291
     1
 45
0.0
  0
DICTIONARYVAR
  5
2FA
102
{ACAD_REACTORS
330
34
102
}
330
34
100
DictionaryVariables
280
     0
  1
1:4
  0
DICTIONARYVAR
  5
2F8
102
{ACAD_REACTORS
330
34
102
}
330
34
100
DictionaryVariables
280
     0
  1
STANDARD
  0
DICTIONARYVAR
  5
140
102
{ACAD_REACTORS
330
34
102
}
330
34
100
DictionaryVariables
280
     0
  1
STANDARD
  0
DICTIONARYVAR
  5
AC
102
{ACAD_REACTORS
330
34
102
}
330
34
100
DictionaryVariables
280
     0
  1
1
  0
DICTIONARYVAR
  5
35
102
{ACAD_REACTORS
330
34
102
}
330
34
100
DictionaryVariables
280
     0
  1
1
  0
DICTIONARYVAR
  5
4CD6
102
{ACAD_REACTORS
330
34
102
}
330
34
100
DictionaryVariables
280
     0
  1
1
  0
DICTIONARYVAR
  5
4CD7
102
{ACAD_REACTORS
330
34
102
}
330
34
100
DictionaryVariables
280
     0
  1
15
  0
DICTIONARYVAR
  5
2FB
102
{ACAD_REACTORS
330
34
102
}
330
34
100
DictionaryVariables
280
     0
  1
0
  0
DICTIONARYVAR
  5
2F9
102
{ACAD_REACTORS
330
34
102
}
330
34
100
DictionaryVariables
280
     0
  1
0
  0
DICTIONARY
  5
161B
102
{ACAD_REACTORS
330
49
102
}
330
49
100
AcDbDictionary
281
     1
  0
DICTIONARY
  5
4A
102
{ACAD_REACTORS
330
49
102
}
330
49
100
AcDbDictionary
281
     1
  0
XRECORD
  5
12B
102
{ACAD_REACTORS
330
49
102
}
330
49
100
AcDbXrecord
280
     1
 90
-1023410169
  0
DICTIONARY
  5
2F5
330
122
100
AcDbDictionary
280
     1
281
     1
  3
ACAD_ROUNDTRIP_2008_TABLESTYLE_CELLSTYLEMAP
360
5EDB
  0
CELLSTYLEMAP
  5
5EDB
102
{ACAD_REACTORS
330
2F5
102
}
330
2F5
100
AcDbCellStyleMap
 90
        3
300
CELLSTYLE
  1
TABLEFORMAT_BEGIN
 90
        5
170
     1
 91
        0
 92
    32768
 62
   257
 93
        1
300
CONTENTFORMAT
  1
CONTENTFORMAT_BEGIN
 90
        0
 91
        0
 92
      512
 93
        0
300

 40
0.0
140
1.0
 94
        5
 62
     0
340
11
144
6.0
309
CONTENTFORMAT_END
171
     1
301
MARGIN
  1
CELLMARGIN_BEGIN
 40
1.5
 40
1.5
 40
1.5
 40
1.5
 40
0.18
 40
0.18
309
CELLMARGIN_END
 94
        6
 95
        1
302
GRIDFORMAT
  1
GRIDFORMAT_BEGIN
 90
        0
 91
        1
 62
     0
 92
       -2
340
0
 93
        0
 40
0.045
309
GRIDFORMAT_END
 95
        2
302
GRIDFORMAT
  1
GRIDFORMAT_BEGIN
 90
        0
 91
        1
 62
     0
 92
       -2
340
0
 93
        0
 40
0.045
309
GRIDFORMAT_END
 95
        4
302
GRIDFORMAT
  1
GRIDFORMAT_BEGIN
 90
        0
 91
        1
 62
     0
 92
       -2
340
0
 93
        0
 40
0.045
309
GRIDFORMAT_END
 95
        8
302
GRIDFORMAT
  1
GRIDFORMAT_BEGIN
 90
        0
 91
        1
 62
     0
 92
       -2
340
0
 93
        0
 40
0.045
309
GRIDFORMAT_END
 95
       16
302
GRIDFORMAT
  1
GRIDFORMAT_BEGIN
 90
        0
 91
        1
 62
     0
 92
       -2
340
0
 93
        0
 40
0.045
309
GRIDFORMAT_END
 95
       32
302
GRIDFORMAT
  1
GRIDFORMAT_BEGIN
 90
        0
 91
        1
 62
     0
 92
       -2
340
0
 93
        0
 40
0.045
309
GRIDFORMAT_END
309
TABLEFORMAT_END
  1
CELLSTYLE_BEGIN
 90
        1
 91
        1
300
_TITLE
309
CELLSTYLE_END
300
CELLSTYLE
  1
TABLEFORMAT_BEGIN
 90
        5
170
     1
 91
        0
 92
        0
 62
   257
 93
        1
300
CONTENTFORMAT
  1
CONTENTFORMAT_BEGIN
 90
        0
 91
        0
 92
      512
 93
        0
300

 40
0.0
140
1.0
 94
        5
 62
     0
340
11
144
4.5
309
CONTENTFORMAT_END
171
     1
301
MARGIN
  1
CELLMARGIN_BEGIN
 40
1.5
 40
1.5
 40
1.5
 40
1.5
 40
0.18
 40
0.18
309
CELLMARGIN_END
 94
        6
 95
        1
302
GRIDFORMAT
  1
GRIDFORMAT_BEGIN
 90
        0
 91
        1
 62
     0
 92
       -2
340
0
 93
        0
 40
0.045
309
GRIDFORMAT_END
 95
        2
302
GRIDFORMAT
  1
GRIDFORMAT_BEGIN
 90
        0
 91
        1
 62
     0
 92
       -2
340
0
 93
        0
 40
0.045
309
GRIDFORMAT_END
 95
        4
302
GRIDFORMAT
  1
GRIDFORMAT_BEGIN
 90
        0
 91
        1
 62
     0
 92
       -2
340
0
 93
        0
 40
0.045
309
GRIDFORMAT_END
 95
        8
302
GRIDFORMAT
  1
GRIDFORMAT_BEGIN
 90
        0
 91
        1
 62
     0
 92
       -2
340
0
 93
        0
 40
0.045
309
GRIDFORMAT_END
 95
       16
302
GRIDFORMAT
  1
GRIDFORMAT_BEGIN
 90
        0
 91
        1
 62
     0
 92
       -2
340
0
 93
        0
 40
0.045
309
GRIDFORMAT_END
 95
       32
302
GRIDFORMAT
  1
GRIDFORMAT_BEGIN
 90
        0
 91
        1
 62
     0
 92
       -2
340
0
 93
        0
 40
0.045
309
GRIDFORMAT_END
309
TABLEFORMAT_END
  1
CELLSTYLE_BEGIN
 90
        2
 91
        1
300
_HEADER
309
CELLSTYLE_END
300
CELLSTYLE
  1
TABLEFORMAT_BEGIN
 90
        5
170
     1
 91
        0
 92
        0
 62
   257
 93
        1
300
CONTENTFORMAT
  1
CONTENTFORMAT_BEGIN
 90
        0
 91
        0
 92
      512
 93
        0
300

 40
0.0
140
1.0
 94
        2
 62
     0
340
11
144
4.5
309
CONTENTFORMAT_END
171
     1
301
MARGIN
  1
CELLMARGIN_BEGIN
 40
1.5
 40
1.5
 40
1.5
 40
1.5
 40
0.18
 40
0.18
309
CELLMARGIN_END
 94
        6
 95
        1
302
GRIDFORMAT
  1
GRIDFORMAT_BEGIN
 90
        0
 91
        1
 62
     0
 92
       -2
340
0
 93
        0
 40
0.045
309
GRIDFORMAT_END
 95
        2
302
GRIDFORMAT
  1
GRIDFORMAT_BEGIN
 90
        0
 91
        1
 62
     0
 92
       -2
340
0
 93
        0
 40
0.045
309
GRIDFORMAT_END
 95
        4
302
GRIDFORMAT
  1
GRIDFORMAT_BEGIN
 90
        0
 91
        1
 62
     0
 92
       -2
340
0
 93
        0
 40
0.045
309
GRIDFORMAT_END
 95
        8
302
GRIDFORMAT
  1
GRIDFORMAT_BEGIN
 90
        0
 91
        1
 62
     0
 92
       -2
340
0
 93
        0
 40
0.045
309
GRIDFORMAT_END
 95
       16
302
GRIDFORMAT
  1
GRIDFORMAT_BEGIN
 90
        0
 91
        1
 62
     0
 92
       -2
340
0
 93
        0
 40
0.045
309
GRIDFORMAT_END
 95
       32
302
GRIDFORMAT
  1
GRIDFORMAT_BEGIN
 90
        0
 91
        1
 62
     0
 92
       -2
340
0
 93
        0
 40
0.045
309
GRIDFORMAT_END
309
TABLEFORMAT_END
  1
CELLSTYLE_BEGIN
 90
        3
 91
        2
300
_DATA
309
CELLSTYLE_END
  0
ENDSEC
  0
EOF
