  0
SECTION
  2
HEADER
  9
$ACADVER
  1
AC1021
  9
$ACADMAINTVER
 70
    26
  9
$DWGCODEPAGE
  3
ANSI_932
  9
$LASTSAVEDBY
  1
Htm_Terada
  9
$CUSTOMPROPERTYTAG
  1
AmdtFileType
  9
$CUSTOMPROPERTY
  1
84
  9
$INSBASE
 10
0.0
 20
0.0
 30
0.0
  9
$EXTMIN
 10
676.4436098666956
 20
478.1652876713378
 30
-0.0000000349181948
  9
$EXTMAX
 10
1245.101444894212
 20
1136.97876304502
 30
0.0000000814935747
  9
$LIMMIN
 10
-0.0000002271699202
 20
0.0
  9
$LIMMAX
 10
2376.00000068151
 20
1680.0
  9
$ORTHOMODE
 70
     0
  9
$REGENMODE
 70
     1
  9
$FILLMODE
 70
     1
  9
$QTEXTMODE
 70
     0
  9
$MIRRTEXT
 70
     1
  9
$LTSCALE
 40
4.0
  9
$ATTMODE
 70
     1
  9
$TEXTSIZE
 40
25.0
  9
$TRACEWID
 40
1.0
  9
$TEXTSTYLE
  7
SEISA
  9
$CLAYER
  8
AM_11 想像線
  9
$CELTYPE
  6
ByLayer
  9
$CECOLOR
 62
   256
  9
$CELTSCALE
 40
1.0
  9
$DISPSILH
 70
     0
  9
$DIMSCALE
 40
4.0
  9
$DIMASZ
 40
2.5
  9
$DIMEXO
 40
0.625
  9
$DIMDLI
 40
10.0
  9
$DIMRND
 40
0.0
  9
$DIMDLE
 40
0.0
  9
$DIMEXE
 40
0.625
  9
$DIMTP
 40
0.1
  9
$DIMTM
 40
0.1
  9
$DIMTXT
 40
3.5
  9
$DIMCEN
 40
0.0
  9
$DIMTSZ
 40
0.0
  9
$DIMTOL
 70
     0
  9
$DIMLIM
 70
     0
  9
$DIMTIH
 70
     0
  9
$DIMTOH
 70
     0
  9
$DIMSE1
 70
     0
  9
$DIMSE2
 70
     0
  9
$DIMTAD
 70
     3
  9
$DIMZIN
 70
     8
  9
$DIMBLK
  1
Open30
  9
$DIMASO
 70
     1
  9
$DIMSHO
 70
     1
  9
$DIMPOST
  1

  9
$DIMAPOST
  1
"
  9
$DIMALT
 70
     0
  9
$DIMALTD
 70
     2
  9
$DIMALTF
 40
0.0393701
  9
$DIMLFAC
 40
1.0
  9
$DIMTOFL
 70
     1
  9
$DIMTVP
 40
0.0
  9
$DIMTIX
 70
     0
  9
$DIMSOXD
 70
     0
  9
$DIMSAH
 70
     0
  9
$DIMBLK1
  1

  9
$DIMBLK2
  1

  9
$DIMSTYLE
  2
SEISA
  9
$DIMCLRD
 70
     3
  9
$DIMCLRE
 70
     3
  9
$DIMCLRT
 70
     3
  9
$DIMTFAC
 40
0.71
  9
$DIMGAP
 40
1.5
  9
$DIMJUST
 70
     0
  9
$DIMSD1
 70
     0
  9
$DIMSD2
 70
     0
  9
$DIMTOLJ
 70
     0
  9
$DIMTZIN
 70
     0
  9
$DIMALTZ
 70
     0
  9
$DIMALTTZ
 70
     8
  9
$DIMUPT
 70
     0
  9
$DIMDEC
 70
     2
  9
$DIMTDEC
 70
     2
  9
$DIMALTU
 70
     2
  9
$DIMALTTD
 70
     2
  9
$DIMTXSTY
  7
SEISA
  9
$DIMAUNIT
 70
     0
  9
$DIMADEC
 70
     0
  9
$DIMALTRND
 40
0.0
  9
$DIMAZIN
 70
     2
  9
$DIMDSEP
 70
    46
  9
$DIMATFIT
 70
     3
  9
$DIMFRAC
 70
     0
  9
$DIMLDRBLK
  1
Open30
  9
$DIMLUNIT
 70
     2
  9
$DIMLWD
 70
    -1
  9
$DIMLWE
 70
    -1
  9
$DIMTMOVE
 70
     0
  9
$DIMFXL
 40
1.0
  9
$DIMFXLON
 70
     0
  9
$DIMJOGANG
 40
0.7853981633974483
  9
$DIMTFILL
 70
     0
  9
$DIMTFILLCLR
 70
     0
  9
$DIMARCSYM
 70
     1
  9
$DIMLTYPE
  6

  9
$DIMLTEX1
  6

  9
$DIMLTEX2
  6

  9
$LUNITS
 70
     2
  9
$LUPREC
 70
     2
  9
$SKETCHINC
 40
1.0
  9
$FILLETRAD
 40
0.6
  9
$AUNITS
 70
     0
  9
$AUPREC
 70
     0
  9
$MENU
  1
.
  9
$ELEVATION
 40
0.0
  9
$PELEVATION
 40
0.0
  9
$THICKNESS
 40
0.0
  9
$LIMCHECK
 70
     0
  9
$CHAMFERA
 40
2.000000000000226
  9
$CHAMFERB
 40
1.999999999999885
  9
$CHAMFERC
 40
2.000000000000226
  9
$CHAMFERD
 40
0.7853981633974767
  9
$SKPOLY
 70
     0
  9
$TDCREATE
 40
2454968.704132165
  9
$TDUCREATE
 40
2454968.329132165
  9
$TDUPDATE
 40
2456479.553819977
  9
$TDUUPDATE
 40
2456479.178819977
  9
$TDINDWG
 40
0.1919176620
  9
$TDUSRTIMER
 40
0.1919173032
  9
$USRTIMER
 70
     1
  9
$ANGBASE
 50
0.0
  9
$ANGDIR
 70
     0
  9
$PDMODE
 70
     0
  9
$PDSIZE
 40
0.0
  9
$PLINEWID
 40
0.0
  9
$SPLFRAME
 70
     0
  9
$SPLINETYPE
 70
     6
  9
$SPLINESEGS
 70
     8
  9
$HANDSEED
  5
5D0C
  9
$SURFTAB1
 70
     6
  9
$SURFTAB2
 70
     6
  9
$SURFTYPE
 70
     6
  9
$SURFU
 70
     6
  9
$SURFV
 70
     6
  9
$UCSBASE
  2

  9
$UCSNAME
  2

  9
$UCSORG
 10
0.0
 20
0.0
 30
0.0
  9
$UCSXDIR
 10
1.0
 20
0.0
 30
0.0
  9
$UCSYDIR
 10
0.0
 20
1.0
 30
0.0
  9
$UCSORTHOREF
  2

  9
$UCSORTHOVIEW
 70
     0
  9
$UCSORGTOP
 10
0.0
 20
0.0
 30
0.0
  9
$UCSORGBOTTOM
 10
0.0
 20
0.0
 30
0.0
  9
$UCSORGLEFT
 10
0.0
 20
0.0
 30
0.0
  9
$UCSORGRIGHT
 10
0.0
 20
0.0
 30
0.0
  9
$UCSORGFRONT
 10
0.0
 20
0.0
 30
0.0
  9
$UCSORGBACK
 10
0.0
 20
0.0
 30
0.0
  9
$PUCSBASE
  2

  9
$PUCSNAME
  2

  9
$PUCSORG
 10
0.0
 20
0.0
 30
0.0
  9
$PUCSXDIR
 10
1.0
 20
0.0
 30
0.0
  9
$PUCSYDIR
 10
0.0
 20
1.0
 30
0.0
  9
$PUCSORTHOREF
  2

  9
$PUCSORTHOVIEW
 70
     0
  9
$PUCSORGTOP
 10
0.0
 20
0.0
 30
0.0
  9
$PUCSORGBOTTOM
 10
0.0
 20
0.0
 30
0.0
  9
$PUCSORGLEFT
 10
0.0
 20
0.0
 30
0.0
  9
$PUCSORGRIGHT
 10
0.0
 20
0.0
 30
0.0
  9
$PUCSORGFRONT
 10
0.0
 20
0.0
 30
0.0
  9
$PUCSORGBACK
 10
0.0
 20
0.0
 30
0.0
  9
$USERI1
 70
     0
  9
$USERI2
 70
     0
  9
$USERI3
 70
     0
  9
$USERI4
 70
     0
  9
$USERI5
 70
     0
  9
$USERR1
 40
0.0
  9
$USERR2
 40
0.0
  9
$USERR3
 40
0.0
  9
$USERR4
 40
0.0
  9
$USERR5
 40
0.0
  9
$WORLDVIEW
 70
     1
  9
$SHADEDGE
 70
     3
  9
$SHADEDIF
 70
    70
  9
$TILEMODE
 70
     1
  9
$MAXACTVP
 70
    64
  9
$PINSBASE
 10
0.0
 20
0.0
 30
0.0
  9
$PLIMCHECK
 70
     0
  9
$PEXTMIN
 10
1.000000000000000E+20
 20
1.000000000000000E+20
 30
1.000000000000000E+20
  9
$PEXTMAX
 10
-1.000000000000000E+20
 20
-1.000000000000000E+20
 30
-1.000000000000000E+20
  9
$PLIMMIN
 10
0.0
 20
0.0
  9
$PLIMMAX
 10
420.0
 20
297.0
  9
$UNITMODE
 70
     0
  9
$VISRETAIN
 70
     1
  9
$PLINEGEN
 70
     0
  9
$PSLTSCALE
 70
     1
  9
$TREEDEPTH
 70
  3020
  9
$CMLSTYLE
  2
Standard
  9
$CMLJUST
 70
     0
  9
$CMLSCALE
 40
20.0
  9
$PROXYGRAPHICS
 70
     1
  9
$MEASUREMENT
 70
     1
  9
$CELWEIGHT
370
    -1
  9
$ENDCAPS
280
     0
  9
$JOINSTYLE
280
     0
  9
$LWDISPLAY
290
     0
  9
$INSUNITS
 70
     4
  9
$HYPERLINKBASE
  1

  9
$STYLESHEET
  1
SEISA.CTB
  9
$XEDIT
290
     1
  9
$CEPSNTYPE
380
     0
  9
$PSTYLEMODE
290
     1
  9
$FINGERPRINTGUID
  2
{3502C60A-9D80-4E49-B0E0-A6820F4DC0AD}
  9
$VERSIONGUID
  2
{38E07AE0-CCEB-4DCC-955E-C9F64DDD032F}
  9
$EXTNAMES
290
     1
  9
$PSVPSCALE
 40
0.0
  9
$OLESTARTUP
290
     0
  9
$SORTENTS
280
   127
  9
$INDEXCTL
280
     0
  9
$HIDETEXT
280
     0
  9
$XCLIPFRAME
290
     0
  9
$HALOGAP
280
     0
  9
$OBSCOLOR
 70
   257
  9
$OBSLTYPE
280
     0
  9
$INTERSECTIONDISPLAY
280
     0
  9
$INTERSECTIONCOLOR
 70
   257
  9
$DIMASSOC
280
     2
  9
$PROJECTNAME
  1

  9
$CAMERADISPLAY
290
     0
  9
$LENSLENGTH
 40
50.0
  9
$CAMERAHEIGHT
 40
0.0
  9
$STEPSPERSEC
 40
2.0
  9
$STEPSIZE
 40
6.0
  9
$3DDWFPREC
 40
2.0
  9
$PSOLWIDTH
 40
0.25
  9
$PSOLHEIGHT
 40
4.0
  9
$LOFTANG1
 40
1.570796326794896
  9
$LOFTANG2
 40
1.570796326794896
  9
$LOFTMAG1
 40
0.0
  9
$LOFTMAG2
 40
0.0
  9
$LOFTPARAM
 70
     7
  9
$LOFTNORMALS
280
     1
  9
$LATITUDE
 40
37.795
  9
$LONGITUDE
 40
-122.394
  9
$NORTHDIRECTION
 40
0.0
  9
$TIMEZONE
 70
 -8000
  9
$LIGHTGLYPHDISPLAY
280
     1
  9
$TILEMODELIGHTSYNCH
280
     1
  9
$CMATERIAL
347
27C
  9
$SOLIDHIST
280
     1
  9
$SHOWHIST
280
     1
  9
$DWFFRAME
280
     2
  9
$DGNFRAME
280
     0
  9
$REALWORLDSCALE
290
     1
  9
$INTERFERECOLOR
 62
     1
  9
$INTERFEREOBJVS
345
289
  9
$INTERFEREVPVS
346
286
  9
$CSHADOW
280
     0
  9
$SHADOWPLANELOCATION
 40
0.0
  0
ENDSEC
  0
SECTION
  2
CLASSES
  0
CLASS
  1
ACDBDICTIONARYWDFLT
  2
AcDbDictionaryWithDefault
  3
ObjectDBX Classes
 90
        0
 91
        1
280
     0
281
     0
  0
CLASS
  1
AMGSETTINGSOBJ
  2
AmgSettingsObj
  3
"AcadM|Product Description: AutoCAD Mechanical|Company: Autodesk, Inc."
 90
     1024
 91
        2
280
     0
281
     0
  0
CLASS
  1
ACME_DOCUMENT
  2
AcMeDbDoc
  3
AcMeServices
 90
     1024
 91
        1
280
     0
281
     0
  0
CLASS
  1
ACMESCOPE
  2
AcMeScope
  3
AcMeServices
 90
     1024
 91
        1
280
     0
281
     0
  0
CLASS
  1
ACMECOMMANDHISTORY
  2
AcMeCommandHistory
  3
AcMeServices
 90
     1024
 91
        1
280
     0
281
     0
  0
CLASS
  1
DICTIONARYVAR
  2
AcDbDictionaryVar
  3
ObjectDBX Classes
 90
        0
 91
        9
280
     0
281
     0
  0
CLASS
  1
ACIMSYSVARMAN
  2
AcImSysVarManager
  3
AcMeServices
 90
     1024
 91
        5
280
     0
281
     0
  0
CLASS
  1
ACIMREALSYSVAR
  2
AcImRealSysVar
  3
AcMeServices
 90
     1024
 91
        1
280
     0
281
     0
  0
CLASS
  1
ACIMINTSYSVAR
  2
AcImIntSysVar
  3
AcMeServices
 90
     1024
 91
       27
280
     0
281
     0
  0
CLASS
  1
ACMEDRAWINGMAN
  2
AcMeDrawingMan
  3
AcMeServices
 90
     1024
 91
        1
280
     0
281
     0
  0
CLASS
  1
ACMEVIEW
  2
AcMeView
  3
AcMeServices
 90
     1024
 91
        1
280
     0
281
     0
  0
CLASS
  1
ACDBENTITYCACHE
  2
AcMeEntityCache
  3
AcMeServices
 90
     1024
 91
        1
280
     0
281
     0
  0
CLASS
  1
GSMANAGER
  2
AcMeGSManager
  3
AcMeServices
 90
     1024
 91
        1
280
     0
281
     0
  0
CLASS
  1
AMDTINTERNALREACTOR
  2
AmdtInternalReactor
  3
AcMeServices
 90
     1024
 91
        2
280
     0
281
     0
  0
CLASS
  1
ACMESTATEMGR
  2
AcMeStateMgr
  3
AcMeServices
 90
     1024
 91
        1
280
     0
281
     0
  0
CLASS
  1
ACGREFMASTER
  2
AcGrefMaster
  3
AcAttribServices
 90
     1024
 91
        1
280
     0
281
     0
  0
CLASS
  1
ACME_DATABASE
  2
AcMeDbDatabase
  3
AcMeServices
 90
     1024
 91
        1
280
     0
281
     0
  0
CLASS
  1
ACRFINSADJUSTERMGR
  2
AcRfInsAdjusterMgr
  3
AcMeServices
 90
     1024
 91
        1
280
     0
281
     0
  0
CLASS
  1
ACGREFACADMASTER
  2
AcGrefacadMaster
  3
AcGrefServices
 90
     1024
 91
        1
280
     0
281
     0
  0
CLASS
  1
AMIMASTER
  2
AmiMaster
  3
AmiServices
 90
     1024
 91
        1
280
     0
281
     0
  0
CLASS
  1
ACIMSTRSYSVAR
  2
AcImStrSysVar
  3
AcMeServices
 90
     1024
 91
        5
280
     0
281
     0
  0
CLASS
  1
ACMSTANDARDJIS
  2
AcmStandardJIS
  3
"Amdt_StdImp|Product Description: AutoCAD Mechanical|Company: Autodesk, Inc."
 90
     1024
 91
        0
280
     0
281
     0
  0
CLASS
  1
AMGOBJPROPCFG
  2
AmgObjPropCfg
  3
"AmgLay|Product Description: AutoCAD Mechanical|Company: Autodesk, Inc."
 90
     1025
 91
        1
280
     0
281
     0
  0
CLASS
  1
ACMSURFSTANDARDJIS
  2
AcmSurfTextStdJIS
  3
"Amdt_StdImp|Product Description: AutoCAD Mechanical|Company: Autodesk, Inc."
 90
     1024
 91
        0
280
     0
281
     0
  0
CLASS
  1
ACMFCFSTANDARDJIS
  2
AcmFCFStdJIS
  3
"Amdt_StdImp|Product Description: AutoCAD Mechanical|Company: Autodesk, Inc."
 90
     1024
 91
        0
280
     0
281
     0
  0
CLASS
  1
ACMWELDSTANDARDJIS
  2
AcmWeldingStdJIS
  3
"Amdt_StdImp|Product Description: AutoCAD Mechanical|Company: Autodesk, Inc."
 90
     1024
 91
        0
280
     0
281
     0
  0
CLASS
  1
ACMIDSTANDARDJIS
  2
AcmIdStdJIS
  3
"Amdt_StdImp|Product Description: AutoCAD Mechanical|Company: Autodesk, Inc."
 90
     1024
 91
        0
280
     0
281
     0
  0
CLASS
  1
ACMDATUMSTANDARDJIS
  2
AcmDatumStdJIS
  3
"Amdt_StdImp|Product Description: AutoCAD Mechanical|Company: Autodesk, Inc."
 90
     1024
 91
        0
280
     0
281
     0
  0
CLASS
  1
ACMBOMSTANDARDJIS
  2
AcmBOMStdJIS
  3
"Amdt_StdImp|Product Description: AutoCAD Mechanical|Company: Autodesk, Inc."
 90
     1024
 91
        0
280
     0
281
     0
  0
CLASS
  1
ACMDETAILSTANDARDJIS
  2
AmdtDetailSymStdJIS
  3
"Amdt_StdImp|Product Description: AutoCAD Mechanical|Company: Autodesk, Inc."
 90
     1024
 91
        0
280
     0
281
     0
  0
CLASS
  1
ACMSECTIONSTANDARDJIS
  2
AmdtSectionSymStdJIS
  3
"Amdt_StdImp|Product Description: AutoCAD Mechanical|Company: Autodesk, Inc."
 90
     1024
 91
        0
280
     0
281
     0
  0
CLASS
  1
ACMCENTERLINESTANDARDJIS
  2
AmdtCenterLineStdJIS
  3
"Amdt_StdImp|Product Description: AutoCAD Mechanical|Company: Autodesk, Inc."
 90
     1024
 91
        0
280
     0
281
     0
  0
CLASS
  1
ACMTHREADLINESTANDARDJIS
  2
AmdtThreadLineStdJIS
  3
"Amdt_StdImp|Product Description: AutoCAD Mechanical|Company: Autodesk, Inc."
 90
     1024
 91
        0
280
     0
281
     0
  0
CLASS
  1
ACAMGLAYSTD
  2
AcAmgLayStd
  3
"AmgLay|Product Description: AutoCAD Mechanical|Company: Autodesk, Inc."
 90
     1024
 91
        1
280
     0
281
     0
  0
CLASS
  1
ACAMGDIMSTD
  2
AcAmgDimStd
  3
"AmgDim|Product Description: AutoCAD Mechanical|Company: Autodesk, Inc."
 90
     1024
 91
        1
280
     0
281
     0
  0
CLASS
  1
ACAMGTITLESTD
  2
AcAmgTitleStd
  3
"AmgTitle|Product Description: AutoCAD Mechanical|Company: Autodesk, Inc."
 90
     4095
 91
        1
280
     0
281
     0
  0
CLASS
  1
ACMDATADICTIONARY
  2
AcmDataDictionary
  3
"AcmSymBB|Product Description: AutoCAD Mechanical|Company: Autodesk, Inc."
 90
     1024
 91
        1
280
     0
281
     0
  0
CLASS
  1
ACMDATAENTRYBLOCK
  2
AcmDataEntryBlock
  3
AcmSymBB|Product Description: AutoCAD Mechanical|Company: Autodesk, Inc.
 90
     1024
 91
        0
280
     0
281
     0
  0
CLASS
  1
LAYER_INDEX
  2
AcDbLayerIndex
  3
ObjectDBX Classes
 90
        0
 91
        0
280
     0
281
     0
  0
CLASS
  1
IDBUFFER
  2
AcDbIdBuffer
  3
ObjectDBX Classes
 90
        0
 91
        0
280
     0
281
     0
  0
CLASS
  1
ACMNOTESTANDARDJIS
  2
AmdtNoteStdJIS
  3
"Amdt_StdImp|Product Description: AutoCAD Mechanical|Company: Autodesk, Inc."
 90
     1024
 91
        0
280
     0
281
     0
  0
CLASS
  1
ACAMGHOLECHARTSTDJIS
  2
AcAmgHoleChartStdJIS
  3
AmgDim|Product Description: AutoCAD Mechanical|Company: Autodesk, Inc.
 90
     1024
 91
        0
280
     0
281
     0
  0
CLASS
  1
AM_DRAWING_MGR
  2
AcDmDwgMgr
  3
AcMechDwgViewMgmt
 90
     1024
 91
        1
280
     0
281
     0
  0
CLASS
  1
AM_DWG_DOCUMENT
  2
AcDmDwgDocument
  3
AcMechDwgViewMgmt
 90
     1024
 91
        1
280
     0
281
     0
  0
CLASS
  1
AM_DWG_SHEET
  2
AcDmSheet
  3
AcMechDwgViewMgmt
 90
     1024
 91
        2
280
     0
281
     0
  0
CLASS
  1
AM_VIEWDIMPARMAP
  2
AcDmViewDimParMap
  3
AcMechDwgViewMgmt
 90
     1024
 91
        2
280
     0
281
     0
  0
CLASS
  1
AM_DWGMGR_NAME
  2
AcDmDwgMgrName
  3
AcMechDwgViewMgmt
 90
     1024
 91
        1
280
     0
281
     0
  0
CLASS
  1
AMDTMENUSTATEMGR
  2
AmdtMenuStateMgr
  3
McadcomServices
 90
     1024
 91
        1
280
     0
281
     0
  0
CLASS
  1
AMDTMCOMMENUSTATE
  2
AmdtMcomMenuState
  3
McadcomServices
 90
     1024
 91
        1
280
     0
281
     0
  0
CLASS
  1
MAPIAMMOUDLE
  2
MApiAmModule
  3
MApiAmServices
 90
     1024
 91
        1
280
     0
281
     0
  0
CLASS
  1
AMDTADMENUSTATE
  2
AmdtAdMenuState
  3
DesignerServices
 90
     1024
 91
        1
280
     0
281
     0
  0
CLASS
  1
ADAPPL
  2
AcAdAppl
  3
DesignerServices
 90
     1024
 91
        1
280
     0
281
     0
  0
CLASS
  1
DEPMGR
  2
AcAdDepMgr
  3
DesignerServices
 90
     1024
 91
        1
280
     0
281
     0
  0
CLASS
  1
PARAMMGR
  2
AcAdParamMgr
  3
DesignerServices
 90
     1024
 91
        1
280
     0
281
     0
  0
CLASS
  1
PARAMSCOPE
  2
AcAdParamScope
  3
DesignerServices
 90
     1024
 91
        1
280
     0
281
     0
  0
CLASS
  1
NAMEDAPPL
  2
AcAdNamedAppl
  3
DesignerServices
 90
     1024
 91
        1
280
     0
281
     0
  0
CLASS
  1
AMDTDMMENUSTATE
  2
AmdtDmMenuState
  3
AcMechDwgViewMgmt
 90
     1024
 91
        1
280
     0
281
     0
  0
CLASS
  1
AMDTAMMENUSTATE
  2
AmdtAmMenuState
  3
DesignerAssemblies
 90
     1024
 91
        1
280
     0
281
     0
  0
CLASS
  1
ACAMPROJECT
  2
AcAmProject
  3
DesignerAssemblies
 90
     1024
 91
        1
280
     0
281
     0
  0
CLASS
  1
ACAMGRCOMPDEF
  2
AcAmGrCompDef
  3
DesignerAssemblies
 90
     1024
 91
        1
280
     0
281
     0
  0
CLASS
  1
ACCMCONTEXT
  2
AcCmContext
  3
DesignerAssemblies
 90
     1024
 91
        1
280
     0
281
     0
  0
CLASS
  1
ACAMCOMPDEF
  2
AcAmCompDef
  3
DesignerAssemblies
 90
     1024
 91
        1
280
     0
281
     0
  0
CLASS
  1
ACAMCOMPDEFMGR
  2
AcAmCompDefMgr
  3
DesignerAssemblies
 90
     1024
 91
        1
280
     0
281
     0
  0
CLASS
  1
AMCONTEXTMGR
  2
AcAmContextMgr
  3
DesignerAssemblies
 90
     1024
 91
        1
280
     0
281
     0
  0
CLASS
  1
ACAMCONTEXTMODELER
  2
AcAmContextModeler
  3
DesignerAssemblies
 90
     1024
 91
        1
280
     0
281
     0
  0
CLASS
  1
CATALOGSTATE
  2
AcAmCatalogState
  3
DesignerAssemblies
 90
     1024
 91
        1
280
     0
281
     0
  0
CLASS
  1
ACAMGRCOMPDEFSET
  2
AcAmGrCompDefSet
  3
DesignerAssemblies
 90
     1024
 91
        1
280
     0
281
     0
  0
CLASS
  1
AMDTBROWSERDBTAB
  2
AmdtBrowserDbTab
  3
McadcomServices
 90
     1024
 91
        1
280
     0
281
     0
  0
CLASS
  1
CBROWSERAPPOBJECT
  2
CBrowserAppObject
  3
McadcomServices
 90
     1024
 91
        3
280
     0
281
     0
  0
CLASS
  1
DM_PLACEHOLDER
  2
AcDmSelsetPlaceholder
  3
AcMechDwgViewMgmt
 90
     1024
 91
        1
280
     0
281
     0
  0
CLASS
  1
TABLESTYLE
  2
AcDbTableStyle
  3
ObjectDBX Classes
 90
     4095
 91
        1
280
     0
281
     0
  0
CLASS
  1
VAACXREFPANELOBJECT
  2
VaAcXREFPanelObject
  3
VAAC_ADDIN
 90
        0
 91
        0
280
     0
281
     0
  0
CLASS
  1
VAACIMAGEINVENTORY
  2
VaAcImageInventory
  3
VAAC_ADDIN
 90
        0
 91
        0
280
     0
281
     0
  0
CLASS
  1
AMDTNOTETEMPLATEDB
  2
AmdtNoteTemplateDB
  3
AcmSymBB|Product Description: AutoCAD Mechanical|Company: Autodesk, Inc.
 90
     1024
 91
        6
280
     0
281
     0
  0
CLASS
  1
ACAMGFILTERDAT
  2
AcAmgFilterDat
  3
"AcadM|Product Description: AutoCAD Mechanical|Company: Autodesk, Inc."
 90
     1024
 91
        0
280
     0
281
     0
  0
CLASS
  1
MATERIAL
  2
AcDbMaterial
  3
ObjectDBX Classes
 90
     1153
 91
        3
280
     0
281
     0
  0
CLASS
  1
VISUALSTYLE
  2
AcDbVisualStyle
  3
ObjectDBX Classes
 90
     4095
 91
       16
280
     0
281
     0
  0
CLASS
  1
ACRFATTGENMGR
  2
AcRfAttGeneralMgr
  3
AcAttribServices
 90
     1024
 91
        0
280
     0
281
     0
  0
CLASS
  1
ACRFOBJATTMGR
  2
AcRfObjAttGroupMgr
  3
AcAttribServices
 90
     1024
 91
        0
280
     0
281
     0
  0
CLASS
  1
ACRFMCADAPIATTHOLDER
  2
AcRfMCADAPIAttHolder
  3
AcAttribServices
 90
     1024
 91
        0
280
     0
281
     0
  0
CLASS
  1
AMDTSYSATTR
  2
AmdtSystemAttribute
  3
AcAttribServices
 90
     1024
 91
        0
280
     0
281
     0
  0
CLASS
  1
ACMTAPERSTANDARDJIS
  2
AcmTaperStdJIS
  3
"Amdt_StdImp|Product Description: AutoCAD Mechanical|Company: Autodesk, Inc."
 90
     1024
 91
        0
280
     0
281
     0
  0
CLASS
  1
CAMSSTRUCTBTNSTATE
  2
StructBtnState
  3
DesignerAssemblies
 90
     1024
 91
        0
280
     0
281
     0
  0
CLASS
  1
SCALE
  2
AcDbScale
  3
ObjectDBX Classes
 90
     1153
 91
       36
280
     0
281
     0
  0
CLASS
  1
MLEADERSTYLE
  2
AcDbMLeaderStyle
  3
ACDB_MLEADERSTYLE_CLASS
 90
     4095
 91
        1
280
     0
281
     0
  0
CLASS
  1
ACMANOOTATIONVIEWSTANDARDJIS
  2
AmdtAnViewStdJIS
  3
"Amdt_StdImp|Product Description: AutoCAD Mechanical|Company: Autodesk, Inc."
 90
     1024
 91
        0
280
     0
281
     0
  0
CLASS
  1
ACMSURFSTANDARDJIS2003
  2
AcmSurfTextStdJIS2003
  3
"Amdt_StdImp|Product Description: AutoCAD Mechanical|Company: Autodesk, Inc."
 90
     1024
 91
        0
280
     0
281
     0
  0
CLASS
  1
CELLSTYLEMAP
  2
AcDbCellStyleMap
  3
ObjectDBX Classes
 90
     1152
 91
        2
280
     0
281
     0
  0
CLASS
  1
ACMFCFSTANDARDJIS98
  2
AcmFCFStdJIS98
  3
"Amdt_StdImp|Product Description: AutoCAD Mechanical|Company: Autodesk, Inc."
 90
     1024
 91
        0
280
     0
281
     0
  0
CLASS
  1
SORTENTSTABLE
  2
AcDbSortentsTable
  3
ObjectDBX Classes
 90
        0
 91
       11
280
     0
281
     0
  0
CLASS
  1
DIMASSOC
  2
AcDbDimAssoc
  3
"AcDbDimAssoc|Product Desc:     AcDim ARX App For Dimension|Company:          Autodesk, Inc.|WEB Address:      www.autodesk.com"
 90
        0
 91
       15
280
     0
281
     0
  0
CLASS
  1
STDPART2D
  2
AmgStdPart
  3
AmgStdPart|Product Description: AutoCAD Mechanical|Company: Autodesk, Inc.
 90
     4095
 91
        0
280
     0
281
     1
  0
CLASS
  1
ACMDATAENTRYPART
  2
AcmDataEntryPart
  3
AcmSymBB|Product Description: AutoCAD Mechanical|Company: Autodesk, Inc.
 90
     1024
 91
        0
280
     0
281
     0
  0
CLASS
  1
ACMPARTREF
  2
AcmPartRef
  3
"AcmSymBB|Product Description: AutoCAD Mechanical|Company: Autodesk, Inc."
 90
     4095
 91
        0
280
     0
281
     1
  0
CLASS
  1
ACDBSTDPARTRES_LINE
  2
AcDbStdPartRes_Line
  3
AmgStdPart|Product Description: AutoCAD Mechanical|Company: Autodesk, Inc.
 90
     1024
 91
        0
280
     0
281
     0
  0
CLASS
  1
ACMBOM
  2
AcmBom
  3
"AcmSymBB|Product Description: AutoCAD Mechanical|Company: Autodesk, Inc."
 90
     1024
 91
        0
280
     0
281
     0
  0
CLASS
  1
AMDTFORMULAUPDATEDISPATCHER
  2
AmdtFormulaUpdateDispatcher
  3
AcMeServices
 90
     1024
 91
        0
280
     0
281
     0
  0
CLASS
  1
ACMBOMROW
  2
AcmBomRow
  3
"AcmSymBB|Product Description: AutoCAD Mechanical|Company: Autodesk, Inc."
 90
     1024
 91
        0
280
     0
281
     0
  0
CLASS
  1
ACMPARTLIST
  2
AcmPartList
  3
"AcmSymBB|Product Description: AutoCAD Mechanical|Company: Autodesk, Inc."
 90
     4095
 91
        0
280
     0
281
     1
  0
CLASS
  1
ACDBLINERES
  2
AcDbLineRes
  3
AcGrefServices
 90
     1024
 91
        0
280
     0
281
     0
  0
CLASS
  1
ACRFINSADJ
  2
AcRfInsAdjuster
  3
AcMeServices
 90
     1024
 91
        0
280
     0
281
     0
  0
CLASS
  1
ACMSTANDARDISO
  2
AcmStandardISO
  3
"Amdt_StdImp|Product Description: AutoCAD Mechanical|Company: Autodesk, Inc."
 90
     1024
 91
        1
280
     0
281
     0
  0
CLASS
  1
AMDTEDGESTANDARDISO13715
  2
AmdtEdgeStdISO13715
  3
"Amdt_StdImp|Product Description: AutoCAD Mechanical|Company: Autodesk, Inc."
 90
     1024
 91
        1
280
     0
281
     0
  0
CLASS
  1
ACMSURFSTANDARDISO2002
  2
AcmSurfTextStdISO2002
  3
"Amdt_StdImp|Product Description: AutoCAD Mechanical|Company: Autodesk, Inc."
 90
     1024
 91
        1
280
     0
281
     0
  0
CLASS
  1
ACMFCFSTANDARDISO
  2
AcmFCFStdISO
  3
"Amdt_StdImp|Product Description: AutoCAD Mechanical|Company: Autodesk, Inc."
 90
     1024
 91
        1
280
     0
281
     0
  0
CLASS
  1
ACMWELDSTANDARDISO
  2
AcmWeldingStdISO
  3
"Amdt_StdImp|Product Description: AutoCAD Mechanical|Company: Autodesk, Inc."
 90
     1024
 91
        1
280
     0
281
     0
  0
CLASS
  1
ACMIDSTANDARDISO
  2
AcmIdStdISO
  3
"Amdt_StdImp|Product Description: AutoCAD Mechanical|Company: Autodesk, Inc."
 90
     1024
 91
        1
280
     0
281
     0
  0
CLASS
  1
ACMDATUMSTANDARDISO
  2
AcmDatumStdISO
  3
"Amdt_StdImp|Product Description: AutoCAD Mechanical|Company: Autodesk, Inc."
 90
     1024
 91
        1
280
     0
281
     0
  0
CLASS
  1
ACMBOMSTANDARDISO
  2
AcmBOMStdISO
  3
"Amdt_StdImp|Product Description: AutoCAD Mechanical|Company: Autodesk, Inc."
 90
     1024
 91
        1
280
     0
281
     0
  0
CLASS
  1
ACMDETAILSTANDARDISO
  2
AmdtDetailSymStdISO
  3
"Amdt_StdImp|Product Description: AutoCAD Mechanical|Company: Autodesk, Inc."
 90
     1024
 91
        1
280
     0
281
     0
  0
CLASS
  1
ACMSECTIONSTANDARDISO2001
  2
AmdtSectionSymStdISO2001
  3
"Amdt_StdImp|Product Description: AutoCAD Mechanical|Company: Autodesk, Inc."
 90
     1024
 91
        1
280
     0
281
     0
  0
CLASS
  1
ACMCENTERLINESTANDARDISO
  2
AmdtCenterLineStdISO
  3
"Amdt_StdImp|Product Description: AutoCAD Mechanical|Company: Autodesk, Inc."
 90
     1024
 91
        1
280
     0
281
     0
  0
CLASS
  1
ACMTHREADLINESTANDARDISO
  2
AmdtThreadLineStdISO
  3
"Amdt_StdImp|Product Description: AutoCAD Mechanical|Company: Autodesk, Inc."
 90
     1024
 91
        1
280
     0
281
     0
  0
CLASS
  1
ACMNOTESTANDARDISO
  2
AmdtNoteStdISO
  3
"Amdt_StdImp|Product Description: AutoCAD Mechanical|Company: Autodesk, Inc."
 90
     1024
 91
        1
280
     0
281
     0
  0
CLASS
  1
ACMTAPERSTANDARDISO
  2
AcmTaperStdISO
  3
"Amdt_StdImp|Product Description: AutoCAD Mechanical|Company: Autodesk, Inc."
 90
     1024
 91
        1
280
     0
281
     0
  0
CLASS
  1
ACMANOOTATIONVIEWSTANDARDISO
  2
AmdtAnViewStdISO
  3
"Amdt_StdImp|Product Description: AutoCAD Mechanical|Company: Autodesk, Inc."
 90
     1024
 91
        1
280
     0
281
     0
  0
CLASS
  1
ACAMGHOLECHARTSTDISO
  2
AcAmgHoleChartStdISO
  3
AmgDim|Product Description: AutoCAD Mechanical|Company: Autodesk, Inc.
 90
     1024
 91
        1
280
     0
281
     0
  0
CLASS
  1
EXACXREFPANELOBJECT
  2
ExAcXREFPanelObject
  3
EXAC_ESW
 90
     1025
 91
        0
280
     0
281
     0
  0
CLASS
  1
NPOCOLLECTION
  2
AcDbImpNonPersistentObjectsCollection
  3
ObjectDBX Classes
 90
     1153
 91
        0
280
     0
281
     0
  0
CLASS
  1
ACDBSTDPARTRES_ARC
  2
AcDbStdPartRes_Arc
  3
AmgStdPart|Product Description: AutoCAD Mechanical|Company: Autodesk, Inc.
 90
     1024
 91
        0
280
     0
281
     0
  0
CLASS
  1
AMDTNOTE
  2
AmdtNote
  3
"AcmSymBB|Product Description: AutoCAD Mechanical|Company: Autodesk, Inc."
 90
     4095
 91
        0
280
     0
281
     1
  0
CLASS
  1
PLOTSETTINGS
  2
AcDbPlotSettings
  3
ObjectDBX Classes
 90
        0
 91
        1
280
     0
281
     0
  0
CLASS
  1
ACMSTANDARDANSI
  2
AcmStandardANSI
  3
"Amdt_StdImp|Product Description: AutoCAD Mechanical|Company: Autodesk, Inc."
 90
     1024
 91
        0
280
     0
281
     0
  0
CLASS
  1
ACMSURFSTANDARDANSI
  2
AcmSurfTextStdANSI
  3
"Amdt_StdImp|Product Description: AutoCAD Mechanical|Company: Autodesk, Inc."
 90
     1024
 91
        0
280
     0
281
     0
  0
CLASS
  1
ACMFCFSTANDARDANSI
  2
AcmFCFStdANSI
  3
"Amdt_StdImp|Product Description: AutoCAD Mechanical|Company: Autodesk, Inc."
 90
     1024
 91
        0
280
     0
281
     0
  0
CLASS
  1
ACMWELDSTANDARDANSI
  2
AcmWeldingStdANSI
  3
"Amdt_StdImp|Product Description: AutoCAD Mechanical|Company: Autodesk, Inc."
 90
     1024
 91
        0
280
     0
281
     0
  0
CLASS
  1
ACMIDSTANDARDANSI
  2
AcmIdStdANSI
  3
"Amdt_StdImp|Product Description: AutoCAD Mechanical|Company: Autodesk, Inc."
 90
     1024
 91
        0
280
     0
281
     0
  0
CLASS
  1
ACMDATUMSTANDARDANSI
  2
AcmDatumStdANSI
  3
"Amdt_StdImp|Product Description: AutoCAD Mechanical|Company: Autodesk, Inc."
 90
     1024
 91
        0
280
     0
281
     0
  0
CLASS
  1
ACMBOMSTANDARDANSI
  2
AcmBOMStdANSI
  3
"Amdt_StdImp|Product Description: AutoCAD Mechanical|Company: Autodesk, Inc."
 90
     1024
 91
        0
280
     0
281
     0
  0
CLASS
  1
ACMDETAILSTANDARDANSI
  2
AmdtDetailSymStdANSI
  3
"Amdt_StdImp|Product Description: AutoCAD Mechanical|Company: Autodesk, Inc."
 90
     1024
 91
        0
280
     0
281
     0
  0
CLASS
  1
ACMSECTIONSTANDARDANSI
  2
AmdtSectionSymStdANSI
  3
"Amdt_StdImp|Product Description: AutoCAD Mechanical|Company: Autodesk, Inc."
 90
     1024
 91
        0
280
     0
281
     0
  0
CLASS
  1
ACMCENTERLINESTANDARDANSI
  2
AmdtCenterLineStdANSI
  3
"Amdt_StdImp|Product Description: AutoCAD Mechanical|Company: Autodesk, Inc."
 90
     1024
 91
        0
280
     0
281
     0
  0
CLASS
  1
ACMTHREADLINESTANDARDANSI
  2
AmdtThreadLineStdANSI
  3
"Amdt_StdImp|Product Description: AutoCAD Mechanical|Company: Autodesk, Inc."
 90
     1024
 91
        0
280
     0
281
     0
  0
CLASS
  1
ACMNOTESTANDARDANSI
  2
AmdtNoteStdANSI
  3
"Amdt_StdImp|Product Description: AutoCAD Mechanical|Company: Autodesk, Inc."
 90
     1024
 91
        0
280
     0
281
     0
  0
CLASS
  1
ACMTAPERSTANDARDANSI
  2
AcmTaperStdANSI
  3
"Amdt_StdImp|Product Description: AutoCAD Mechanical|Company: Autodesk, Inc."
 90
     1024
 91
        0
280
     0
281
     0
  0
CLASS
  1
ACMANOOTATIONVIEWSTANDARDANSI
  2
AmdtAnViewStdANSI
  3
"Amdt_StdImp|Product Description: AutoCAD Mechanical|Company: Autodesk, Inc."
 90
     1024
 91
        0
280
     0
281
     0
  0
CLASS
  1
ACAMGHOLECHARTSTDANSI
  2
AcAmgHoleChartStdANSI
  3
AmgDim|Product Description: AutoCAD Mechanical|Company: Autodesk, Inc.
 90
     1024
 91
        0
280
     0
281
     0
  0
CLASS
  1
ACMSTANDARDBSI
  2
AcmStandardBSI
  3
"Amdt_StdImp|Product Description: AutoCAD Mechanical|Company: Autodesk, Inc."
 90
     1024
 91
        0
280
     0
281
     0
  0
CLASS
  1
ACMSURFSTANDARDBSI2002
  2
AcmSurfTextStdBSI2002
  3
"Amdt_StdImp|Product Description: AutoCAD Mechanical|Company: Autodesk, Inc."
 90
     1024
 91
        0
280
     0
281
     0
  0
CLASS
  1
ACMFCFSTANDARDBSI
  2
AcmFCFStdBSI
  3
"Amdt_StdImp|Product Description: AutoCAD Mechanical|Company: Autodesk, Inc."
 90
     1024
 91
        0
280
     0
281
     0
  0
CLASS
  1
ACMWELDSTANDARDBSI
  2
AcmWeldingStdBSI
  3
"Amdt_StdImp|Product Description: AutoCAD Mechanical|Company: Autodesk, Inc."
 90
     1024
 91
        0
280
     0
281
     0
  0
CLASS
  1
ACMIDSTANDARDBSI
  2
AcmIdStdBSI
  3
"Amdt_StdImp|Product Description: AutoCAD Mechanical|Company: Autodesk, Inc."
 90
     1024
 91
        0
280
     0
281
     0
  0
CLASS
  1
ACMDATUMSTANDARDBSI
  2
AcmDatumStdBSI
  3
"Amdt_StdImp|Product Description: AutoCAD Mechanical|Company: Autodesk, Inc."
 90
     1024
 91
        0
280
     0
281
     0
  0
CLASS
  1
ACMBOMSTANDARDBSI
  2
AcmBOMStdBSI
  3
"Amdt_StdImp|Product Description: AutoCAD Mechanical|Company: Autodesk, Inc."
 90
     1024
 91
        0
280
     0
281
     0
  0
CLASS
  1
ACMDETAILSTANDARDBSI
  2
AmdtDetailSymStdBSI
  3
"Amdt_StdImp|Product Description: AutoCAD Mechanical|Company: Autodesk, Inc."
 90
     1024
 91
        0
280
     0
281
     0
  0
CLASS
  1
ACMSECTIONSTANDARDBSI2001
  2
AmdtSectionSymStdBSI2001
  3
"Amdt_StdImp|Product Description: AutoCAD Mechanical|Company: Autodesk, Inc."
 90
     1024
 91
        0
280
     0
281
     0
  0
CLASS
  1
ACMCENTERLINESTANDARDBSI
  2
AmdtCenterLineStdBSI
  3
"Amdt_StdImp|Product Description: AutoCAD Mechanical|Company: Autodesk, Inc."
 90
     1024
 91
        0
280
     0
281
     0
  0
CLASS
  1
ACMTHREADLINESTANDARDBSI
  2
AmdtThreadLineStdBSI
  3
"Amdt_StdImp|Product Description: AutoCAD Mechanical|Company: Autodesk, Inc."
 90
     1024
 91
        0
280
     0
281
     0
  0
CLASS
  1
ACMNOTESTANDARDBSI
  2
AmdtNoteStdBSI
  3
"Amdt_StdImp|Product Description: AutoCAD Mechanical|Company: Autodesk, Inc."
 90
     1024
 91
        0
280
     0
281
     0
  0
CLASS
  1
ACMTAPERSTANDARDBSI
  2
AcmTaperStdBSI
  3
"Amdt_StdImp|Product Description: AutoCAD Mechanical|Company: Autodesk, Inc."
 90
     1024
 91
        0
280
     0
281
     0
  0
CLASS
  1
ACMANOOTATIONVIEWSTANDARDBSI
  2
AmdtAnViewStdBSI
  3
"Amdt_StdImp|Product Description: AutoCAD Mechanical|Company: Autodesk, Inc."
 90
     1024
 91
        0
280
     0
281
     0
  0
CLASS
  1
ACAMGHOLECHARTSTDBSI
  2
AcAmgHoleChartStdBSI
  3
AmgDim|Product Description: AutoCAD Mechanical|Company: Autodesk, Inc.
 90
     1024
 91
        0
280
     0
281
     0
  0
CLASS
  1
AMDTEDGESTANDARDJIS
  2
AmdtEdgeStdJIS
  3
"Amdt_StdImp|Product Description: AutoCAD Mechanical|Company: Autodesk, Inc."
 90
     1024
 91
        0
280
     0
281
     0
  0
CLASS
  1
ACDB_BLKREFOBJECTCONTEXTDATA_CLASS
  2
AcDbBlkRefObjectContextData
  3
ObjectDBX Classes
 90
     1153
 91
        0
280
     0
281
     0
  0
CLASS
  1
ACDBOPPOLYLINERES
  2
AcDbOpPolylineRes
  3
AcGrefServices
 90
     1024
 91
        0
280
     0
281
     0
  0
CLASS
  1
AMDTACMWBLOCKBOMENTITY
  2
AmdtAcmWblockBomEntity
  3
"AcmSymBB|Product Description: AutoCAD Mechanical|Company: Autodesk, Inc."
 90
     4095
 91
        0
280
     0
281
     1
  0
CLASS
  1
ACMSURFSYM
  2
AcmSurfaceTexture
  3
"AcmSymBB|Product Description: AutoCAD Mechanical|Company: Autodesk, Inc."
 90
     4095
 91
        0
280
     0
281
     1
  0
CLASS
  1
ACDBCIRCARCRES
  2
AcDbCircArcRes
  3
AcGrefServices
 90
     1024
 91
        0
280
     0
281
     0
  0
CLASS
  1
ACDBDIMENSIONRES
  2
AcDbDimensionRes
  3
AcmSymBB|Product Description: AutoCAD Mechanical|Company: Autodesk, Inc.
 90
     1024
 91
        0
280
     0
281
     0
  0
CLASS
  1
ACMPICKOBJ
  2
AcmPickEnt
  3
"AcmSymBB|Product Description: AutoCAD Mechanical|Company: Autodesk, Inc."
 90
     1024
 91
        0
280
     0
281
     1
  0
CLASS
  1
ACDBELLIPSERES
  2
AcDbEllipseRes
  3
AcGrefServices
 90
     1024
 91
        0
280
     0
281
     0
  0
CLASS
  1
ACMBALLOON
  2
AcmBalloon
  3
"AcmSymBB|Product Description: AutoCAD Mechanical|Company: Autodesk, Inc."
 90
     4095
 91
        0
280
     0
281
     1
  0
ENDSEC
  0
SECTION
  2
TABLES
  0
TABLE
  2
VPORT
  5
8
330
0
100
AcDbSymbolTable
 70
     1
  0
VPORT
  5
27A
330
8
100
AcDbSymbolTableRecord
100
AcDbViewportTableRecord
  2
*Active
 70
     0
 10
0.0
 20
0.0
 11
1.0
 21
1.0
 12
960.7725273804541
 22
807.5720253581787
 13
0.0
 23
0.0
 14
10.0
 24
10.0
 15
40.0
 25
40.0
 16
0.0
 26
0.0
 36
1.0
 17
0.0
 27
0.0
 37
0.0
 40
663.8489923829084
 41
1.571428571428571
 42
50.0
 43
0.0
 44
0.0
 50
0.0
 51
0.0
 71
     0
 72
 20000
 73
     1
 74
     3
 75
     0
 76
     0
 77
     0
 78
     0
281
     0
 65
     0
110
0.0
120
0.0
130
0.0
111
1.0
121
0.0
131
0.0
112
0.0
122
1.0
132
0.0
 79
     0
146
0.0
348
285
 60
     3
 61
     5
292
     1
282
     0
141
0.0
142
0.0
 63
   250
421
  3355443
  0
ENDTAB
  0
TABLE
  2
LTYPE
  5
5
330
0
100
AcDbSymbolTable
 70
    20
  0
LTYPE
  5
14
330
5
100
AcDbSymbolTableRecord
100
AcDbLinetypeTableRecord
  2
ByBlock
 70
     0
  3

 72
    65
 73
     0
 40
0.0
  0
LTYPE
  5
15
330
5
100
AcDbSymbolTableRecord
100
AcDbLinetypeTableRecord
  2
ByLayer
 70
     0
  3

 72
    65
 73
     0
 40
0.0
  0
LTYPE
  5
16
330
5
100
AcDbSymbolTableRecord
100
AcDbLinetypeTableRecord
  2
Continuous
 70
     0
  3
Solid line
 72
    65
 73
     0
 40
0.0
  0
LTYPE
  5
4D
330
5
100
AcDbSymbolTableRecord
100
AcDbLinetypeTableRecord
  2
AM_ISO02W050
 70
     0
  3
__ __ __ __ __ __ __ __ __ __ __ __ __ __ __
 72
    65
 73
     2
 40
7.5
 49
6.0
 74
     0
 49
-1.5
 74
     0
  0
LTYPE
  5
4E
330
5
100
AcDbSymbolTableRecord
100
AcDbLinetypeTableRecord
  2
AM_ISO08W050
 70
     0
  3
____ . ____ . ____ . ____ . ____ . ____ . ____
 72
    65
 73
     4
 40
18.0
 49
12.0
 74
     0
 49
-1.5
 74
     0
 49
3.0
 74
     0
 49
-1.5
 74
     0
  0
LTYPE
  5
4F
330
5
100
AcDbSymbolTableRecord
100
AcDbLinetypeTableRecord
  2
AM_ISO09W050
 70
     0
  3
_____ . . _____ . . _____ . . ____ .. ____
 72
    65
 73
     6
 40
22.5
 49
12.0
 74
     0
 49
-1.5
 74
     0
 49
3.0
 74
     0
 49
-1.5
 74
     0
 49
3.0
 74
     0
 49
-1.5
 74
     0
  0
LTYPE
  5
50
330
5
100
AcDbSymbolTableRecord
100
AcDbLinetypeTableRecord
  2
Amconstr
 70
     0
  3
_______________________
 72
    65
 73
     2
 40
9999.0
 49
9999.0
 74
     0
 49
0.0
 74
     0
  0
LTYPE
  5
51
330
5
100
AcDbSymbolTableRecord
100
AcDbLinetypeTableRecord
  2
AM_ISO08W050x2
 70
     0
  3
__ . __ . __ . __ . __ . __
 72
    65
 73
     4
 40
9.0
 49
6.0
 74
     0
 49
-0.75
 74
     0
 49
1.5
 74
     0
 49
-0.75
 74
     0
  0
LTYPE
  5
52
330
5
100
AcDbSymbolTableRecord
100
AcDbLinetypeTableRecord
  2
AM_ISO02W050x2
 70
     0
  3
 _ _ _ _ _ _ _ _ _ _ _ _
 72
    65
 73
     2
 40
3.75
 49
3.0
 74
     0
 49
-0.75
 74
     0
  0
LTYPE
  5
55
330
5
100
AcDbSymbolTableRecord
100
AcDbLinetypeTableRecord
  2
Amzigzag
 70
     0
  3
/\/-/\/-/\/-/\/-/\/-/\/
 72
    65
 73
     2
 40
11.0001
 49
0.0001
 74
     4
 75
   136
340
23D
 46
0.04
 50
0.0
 44
0.0
 45
0.0
 49
-11.0
 74
     0
  0
LTYPE
  5
65
330
5
100
AcDbSymbolTableRecord
100
AcDbLinetypeTableRecord
  2
CENTER
 70
     0
  3
__ . __
 72
    65
 73
     4
 40
7.0
 49
4.0
 74
     0
 49
-1.0
 74
     0
 49
1.0
 74
     0
 49
-1.0
 74
     0
  0
LTYPE
  5
E0
330
5
100
AcDbSymbolTableRecord
100
AcDbLinetypeTableRecord
  2
HIDDEN
 70
     0
  3
Hidden __ __ __ __ __ __ __ __ __ __ __ __ __ _
 72
    65
 73
     2
 40
9.524999999999996
 49
6.349999999999998
 74
     0
 49
-3.174999999999998
 74
     0
  0
LTYPE
  5
E1
330
5
100
AcDbSymbolTableRecord
100
AcDbLinetypeTableRecord
  2
PHANTOM2
 70
     0
  3
Phantom (.5x) ___ _ _ ___ _ _ ___ _ _ ___ _ _
 72
    65
 73
     6
 40
31.75
 49
15.875
 74
     0
 49
-3.174999999999998
 74
     0
 49
3.174999999999998
 74
     0
 49
-3.174999999999998
 74
     0
 49
3.174999999999998
 74
     0
 49
-3.174999999999998
 74
     0
  0
LTYPE
  5
5A2
330
5
100
AcDbSymbolTableRecord
100
AcDbLinetypeTableRecord
  2
ACJISWELD
 70
     0
  3
_ _ _ _ _
 72
    65
 73
     2
 40
2.0
 49
2.0
 74
     0
 49
-1.0
 74
     0
  0
LTYPE
  5
5CEE
330
5
100
AcDbSymbolTableRecord
100
AcDbLinetypeTableRecord
  2
ACISOWELD
 70
     0
  3
_ _ _ _ _
 72
    65
 73
     2
 40
2.0
 49
2.0
 74
     0
 49
-1.0
 74
     0
  0
LTYPE
  5
5CEF
330
5
100
AcDbSymbolTableRecord
100
AcDbLinetypeTableRecord
  2
ACISOTGB
 70
     0
  3
__ . . __ . .
 72
    65
 73
     6
 40
9.0
 49
4.0
 74
     0
 49
-1.0
 74
     0
 49
1.0
 74
     0
 49
-1.0
 74
     0
 49
1.0
 74
     0
 49
-1.0
 74
     0
  0
LTYPE
  5
5CF0
330
5
100
AcDbSymbolTableRecord
100
AcDbLinetypeTableRecord
  2
ACISOTGL
 70
     0
  3
_ _ _ _ _
 72
    65
 73
     2
 40
3.0
 49
2.0
 74
     0
 49
-1.0
 74
     0
  0
ENDTAB
  0
TABLE
  2
LAYER
  5
2
102
{ACAD_XDICTIONARY
360
BF
102
}
330
0
100
AcDbSymbolTable
 70
    10
  0
LAYER
  5
10
102
{ACAD_XDICTIONARY
360
29D7
102
}
330
2
100
AcDbSymbolTableRecord
100
AcDbLayerTableRecord
  2
0
 70
     0
 62
     7
  6
Continuous
370
    -3
390
F
347
27E
  0
LAYER
  5
81
102
{ACAD_XDICTIONARY
360
29D9
102
}
330
2
100
AcDbSymbolTableRecord
100
AcDbLayerTableRecord
  2
AM_0 外形線1
 70
     0
 62
     7
  6
Continuous
370
    25
390
F
347
27E
  0
LAYER
  5
427
330
2
100
AcDbSymbolTableRecord
100
AcDbLayerTableRecord
  2
Defpoints
 70
     0
 62
     7
  6
Continuous
290
     0
370
    -3
390
F
347
27E
  0
LAYER
  5
25C9
102
{ACAD_XDICTIONARY
360
29E0
102
}
330
2
100
AcDbSymbolTableRecord
100
AcDbLayerTableRecord
  2
AM_3 隠れ線
 70
     0
 62
     8
  6
ACJISWELD
370
    13
390
F
347
27E
1001
AcAecLayerStandard
1000

1000

  0
LAYER
  5
25CA
102
{ACAD_XDICTIONARY
360
29E2
102
}
330
2
100
AcDbSymbolTableRecord
100
AcDbLayerTableRecord
  2
AM_4 細線
 70
     0
 62
     4
  6
Continuous
370
    13
390
F
347
27E
1001
AcAecLayerStandard
1000

1000

  0
LAYER
  5
26B3
102
{ACAD_XDICTIONARY
360
29E8
102
}
330
2
100
AcDbSymbolTableRecord
100
AcDbLayerTableRecord
  2
AM_5 寸法線
 70
     0
 62
     3
  6
Continuous
370
    13
390
F
347
27E
1001
AcAecLayerStandard
1000

1000

  0
LAYER
  5
361D
330
2
100
AcDbSymbolTableRecord
100
AcDbLayerTableRecord
  2
AM_7 中心線
 70
     0
 62
     1
  6
AM_ISO08W050
370
    13
390
F
347
27E
1001
AcAecLayerStandard
1000

1000

  0
LAYER
  5
361F
330
2
100
AcDbSymbolTableRecord
100
AcDbLayerTableRecord
  2
AM_6 文字
 70
     0
 62
     2
  6
Continuous
370
    13
390
F
347
27E
1001
AcAecLayerStandard
1000

1000

  0
LAYER
  5
5A74
330
2
100
AcDbSymbolTableRecord
100
AcDbLayerTableRecord
  2
AM_11 想像線
 70
     0
 62
     5
  6
AM_ISO09W050
370
    13
390
F
347
27E
1001
AcAecLayerStandard
1000

1000

  0
ENDTAB
  0
TABLE
  2
STYLE
  5
3
330
0
100
AcDbSymbolTable
 70
    12
  0
STYLE
  5
11
330
3
100
AcDbSymbolTableRecord
100
AcDbTextStyleTableRecord
  2
STANDARD
 70
     0
 40
0.0
 41
1.0
 50
0.0
 71
     0
 42
25.0
  3
ISOCP.SHX
  4
EXTFONT.SHX
  0
STYLE
  5
23D
330
3
100
AcDbSymbolTableRecord
100
AcDbTextStyleTableRecord
  2

 70
     1
 40
0.0
 41
1.0
 50
0.0
 71
     0
 42
2.5
  3
genltshp.shx
  4

  0
STYLE
  5
5D5
330
3
100
AcDbSymbolTableRecord
100
AcDbTextStyleTableRecord
  2
SEISA
 70
     0
 40
0.0
 41
0.9
 50
0.0
 71
     0
 42
25.0
  3
romans.shx
  4
extfont2.shx
  0
STYLE
  5
5CDE
330
3
100
AcDbSymbolTableRecord
100
AcDbTextStyleTableRecord
  2
ACISOTS
 70
     0
 40
1.0
 41
1.0
 50
0.0
 71
     0
 42
25.0
  3
isocp.shx
  4
extfont.shx
  0
STYLE
  5
5CED
330
3
100
AcDbSymbolTableRecord
100
AcDbTextStyleTableRecord
  2
ACISOGDT
 70
     0
 40
0.0
 41
1.0
 50
0.0
 71
     0
 42
25.0
  3
amgdt.shx
  4

  0
ENDTAB
  0
TABLE
  2
VIEW
  5
6
330
0
100
AcDbSymbolTable
 70
     6
  0
VIEW
  5
91B
330
6
100
AcDbSymbolTableRecord
100
AcDbViewTableRecord
  2
AM_VIEW1
 70
     0
 40
840.0000000000003
 10
762.1702835791742
 20
1260.0
 41
1524.340567612688
 11
0.0
 21
0.0
 31
1.0
 12
0.0
 22
0.0
 32
0.0
 42
50.0
 43
0.0
 44
0.0
 50
0.0
 71
     0
281
     0
 72
     0
 73
     0
  0
VIEW
  5
91C
330
6
100
AcDbSymbolTableRecord
100
AcDbViewTableRecord
  2
AM_VIEW2
 70
     0
 40
840.0000000000003
 10
1613.829716875165
 20
1260.0
 41
1524.340567612688
 11
0.0
 21
0.0
 31
1.0
 12
0.0
 22
0.0
 32
0.0
 42
50.0
 43
0.0
 44
0.0
 50
0.0
 71
     0
281
     0
 72
     0
 73
     0
  0
VIEW
  5
91D
330
6
100
AcDbSymbolTableRecord
100
AcDbViewTableRecord
  2
AM_VIEW3
 70
     0
 40
840.0000000000003
 10
762.1702835791742
 20
420.0000000000001
 41
1524.340567612688
 11
0.0
 21
0.0
 31
1.0
 12
0.0
 22
0.0
 32
0.0
 42
50.0
 43
0.0
 44
0.0
 50
0.0
 71
     0
281
     0
 72
     0
 73
     0
  0
VIEW
  5
91E
330
6
100
AcDbSymbolTableRecord
100
AcDbViewTableRecord
  2
AM_VIEW4
 70
     0
 40
840.0000000000003
 10
1613.829716875165
 20
420.0000000000001
 41
1524.340567612688
 11
0.0
 21
0.0
 31
1.0
 12
0.0
 22
0.0
 32
0.0
 42
50.0
 43
0.0
 44
0.0
 50
0.0
 71
     0
281
     0
 72
     0
 73
     0
  0
VIEW
  5
91F
330
6
100
AcDbSymbolTableRecord
100
AcDbViewTableRecord
  2
AM_VIEW5
 70
     0
 40
840.0000000000003
 10
1188.00000022717
 20
840.0000000000003
 41
1524.340567612688
 11
0.0
 21
0.0
 31
1.0
 12
0.0
 22
0.0
 32
0.0
 42
50.0
 43
0.0
 44
0.0
 50
0.0
 71
     0
281
     0
 72
     0
 73
     0
  0
VIEW
  5
920
330
6
100
AcDbSymbolTableRecord
100
AcDbViewTableRecord
  2
AM_VIEW6
 70
     0
 40
1679.9832
 10
1188.00000022717
 20
840.0000000000003
 41
3048.650648414025
 11
0.0
 21
0.0
 31
1.0
 12
0.0
 22
0.0
 32
0.0
 42
50.0
 43
0.0
 44
0.0
 50
0.0
 71
     0
281
     0
 72
     0
 73
     0
  0
ENDTAB
  0
TABLE
  2
UCS
  5
7
330
0
100
AcDbSymbolTable
 70
     0
  0
ENDTAB
  0
TABLE
  2
APPID
  5
9
330
0
100
AcDbSymbolTable
 70
   394
  0
APPID
  5
12
330
9
100
AcDbSymbolTableRecord
100
AcDbRegAppTableRecord
  2
ACAD
 70
     0
  0
APPID
  5
30
330
9
100
AcDbSymbolTableRecord
100
AcDbRegAppTableRecord
  2
MCAD_NO_VIS
 70
     0
  0
APPID
  5
31
330
9
100
AcDbSymbolTableRecord
100
AcDbRegAppTableRecord
  2
ACAD_TEMP_GRAPHIC
 70
     0
  0
APPID
  5
44
330
9
100
AcDbSymbolTableRecord
100
AcDbRegAppTableRecord
  2
ACATTRIBSERVICES
 70
     0
  0
APPID
  5
F6
330
9
100
AcDbSymbolTableRecord
100
AcDbRegAppTableRecord
  2
AD_DRAW
 70
     0
  0
APPID
  5
114
330
9
100
AcDbSymbolTableRecord
100
AcDbRegAppTableRecord
  2
DESIGNERASSEMBLIES
 70
     0
  0
APPID
  5
118
330
9
100
AcDbSymbolTableRecord
100
AcDbRegAppTableRecord
  2
ACADM_DIM_EDIT
 70
     0
  0
APPID
  5
119
330
9
100
AcDbSymbolTableRecord
100
AcDbRegAppTableRecord
  2
AMDT_DM_ADJ
 70
     0
  0
APPID
  5
1AF
330
9
100
AcDbSymbolTableRecord
100
AcDbRegAppTableRecord
  2
ACAD_DSTYLE_DIMARC_LENGTH_SYMBOL
 70
     0
  0
APPID
  5
1B0
330
9
100
AcDbSymbolTableRecord
100
AcDbRegAppTableRecord
  2
ACAD_DSTYLE_DIMJOGGED_JOGANGLE_SYMBOL
 70
     0
  0
APPID
  5
2D7
330
9
100
AcDbSymbolTableRecord
100
AcDbRegAppTableRecord
  2
ACAD_MLEADERVER
 70
     0
  0
APPID
  5
355
330
9
100
AcDbSymbolTableRecord
100
AcDbRegAppTableRecord
  2
AcadAnnoPO
 70
     0
  0
APPID
  5
428
330
9
100
AcDbSymbolTableRecord
100
AcDbRegAppTableRecord
  2
ACAD_DSTYLE_DIMTEXT_FILL
 70
     0
  0
APPID
  5
429
330
9
100
AcDbSymbolTableRecord
100
AcDbRegAppTableRecord
  2
GENIUS_GENSCREG_15
 70
     0
  0
APPID
  5
42A
330
9
100
AcDbSymbolTableRecord
100
AcDbRegAppTableRecord
  2
GENIUS_GENOBJ-N-SDF_13
 70
     0
  0
APPID
  5
42B
330
9
100
AcDbSymbolTableRecord
100
AcDbRegAppTableRecord
  2
GENIUS_GENODEF_13
 70
     0
  0
APPID
  5
42C
330
9
100
AcDbSymbolTableRecord
100
AcDbRegAppTableRecord
  2
ACAD_EXEMPT_FROM_CAD_STANDARDS
 70
     0
  0
APPID
  5
42D
330
9
100
AcDbSymbolTableRecord
100
AcDbRegAppTableRecord
  2
AcAecLayerStandard
 70
     0
  0
APPID
  5
42E
330
9
100
AcDbSymbolTableRecord
100
AcDbRegAppTableRecord
  2
GENIUS_GENOBJ-N-CEN_13
 70
     0
  0
APPID
  5
42F
330
9
100
AcDbSymbolTableRecord
100
AcDbRegAppTableRecord
  2
GENIUS_GENCEN_19
 70
     0
  0
APPID
  5
430
330
9
100
AcDbSymbolTableRecord
100
AcDbRegAppTableRecord
  2
ACAD_DSTYLE_DIMINSPECT
 70
     0
  0
APPID
  5
431
330
9
100
AcDbSymbolTableRecord
100
AcDbRegAppTableRecord
  2
GENIUS_AMGTXT_16
 70
     0
  0
APPID
  5
432
330
9
100
AcDbSymbolTableRecord
100
AcDbRegAppTableRecord
  2
GENIUS_GENFIL_13
 70
     0
  0
APPID
  5
433
330
9
100
AcDbSymbolTableRecord
100
AcDbRegAppTableRecord
  2
GENIUS_GENOLIS_13
 70
     0
  0
APPID
  5
434
330
9
100
AcDbSymbolTableRecord
100
AcDbRegAppTableRecord
  2
GENIUS_GENOBJ-N-CHA_13
 70
     0
  0
APPID
  5
435
330
9
100
AcDbSymbolTableRecord
100
AcDbRegAppTableRecord
  2
GENIUS_GENOENT_13
 70
     0
  0
APPID
  5
436
330
9
100
AcDbSymbolTableRecord
100
AcDbRegAppTableRecord
  2
GENIUS_GENOREF_13
 70
     0
  0
APPID
  5
437
330
9
100
AcDbSymbolTableRecord
100
AcDbRegAppTableRecord
  2
GENIUS_GENOBJ-N-FIL_13
 70
     0
  0
APPID
  5
438
330
9
100
AcDbSymbolTableRecord
100
AcDbRegAppTableRecord
  2
GEVID1208829536
 70
     0
  0
APPID
  5
439
330
9
100
AcDbSymbolTableRecord
100
AcDbRegAppTableRecord
  2
GEVDC
 70
     0
  0
APPID
  5
43A
330
9
100
AcDbSymbolTableRecord
100
AcDbRegAppTableRecord
  2
GEVRADREF
 70
     0
  0
APPID
  5
43B
330
9
100
AcDbSymbolTableRecord
100
AcDbRegAppTableRecord
  2
GENIUS_GENBH_13
 70
     0
  0
APPID
  5
43C
330
9
100
AcDbSymbolTableRecord
100
AcDbRegAppTableRecord
  2
GENIUS_GENOBJ-NBEHI-BHF_13
 70
     0
  0
APPID
  5
43D
330
9
100
AcDbSymbolTableRecord
100
AcDbRegAppTableRecord
  2
GENIUS_GENOBJ-NBEHI-BHB_13
 70
     0
  0
APPID
  5
43E
330
9
100
AcDbSymbolTableRecord
100
AcDbRegAppTableRecord
  2
GEVID1208829537
 70
     0
  0
APPID
  5
43F
330
9
100
AcDbSymbolTableRecord
100
AcDbRegAppTableRecord
  2
ACAD_DSTYLE_DIMJAG
 70
     0
  0
APPID
  5
440
330
9
100
AcDbSymbolTableRecord
100
AcDbRegAppTableRecord
  2
ACAD_DSTYLE_DIMTALN
 70
     0
  0
APPID
  5
441
330
9
100
AcDbSymbolTableRecord
100
AcDbRegAppTableRecord
  2
AMG_2DHIDE
 70
     0
  0
APPID
  5
442
330
9
100
AcDbSymbolTableRecord
100
AcDbRegAppTableRecord
  2
AMG_2DSTRUCT_BTR
 70
     0
  0
APPID
  5
443
330
9
100
AcDbSymbolTableRecord
100
AcDbRegAppTableRecord
  2
GEVID1208845772
 70
     0
  0
APPID
  5
444
330
9
100
AcDbSymbolTableRecord
100
AcDbRegAppTableRecord
  2
GEVID1208845773
 70
     0
  0
APPID
  5
445
330
9
100
AcDbSymbolTableRecord
100
AcDbRegAppTableRecord
  2
ACADM_2DVIEW_IGN_NOTIFY
 70
     0
  0
APPID
  5
446
330
9
100
AcDbSymbolTableRecord
100
AcDbRegAppTableRecord
  2
GEVID1208845774
 70
     0
  0
APPID
  5
447
330
9
100
AcDbSymbolTableRecord
100
AcDbRegAppTableRecord
  2
GEVID1208845775
 70
     0
  0
APPID
  5
448
330
9
100
AcDbSymbolTableRecord
100
AcDbRegAppTableRecord
  2
GEVID1208845776
 70
     0
  0
APPID
  5
449
330
9
100
AcDbSymbolTableRecord
100
AcDbRegAppTableRecord
  2
GEVID1208845777
 70
     0
  0
APPID
  5
44A
330
9
100
AcDbSymbolTableRecord
100
AcDbRegAppTableRecord
  2
GEVCON
 70
     0
  0
APPID
  5
44B
330
9
100
AcDbSymbolTableRecord
100
AcDbRegAppTableRecord
  2
GENIUS_GENOBJ-F-SCPASSM_13
 70
     0
  0
APPID
  5
44C
330
9
100
AcDbSymbolTableRecord
100
AcDbRegAppTableRecord
  2
GEVID1208845778
 70
     0
  0
APPID
  5
44D
330
9
100
AcDbSymbolTableRecord
100
AcDbRegAppTableRecord
  2
GEVID1208845779
 70
     0
  0
APPID
  5
44E
330
9
100
AcDbSymbolTableRecord
100
AcDbRegAppTableRecord
  2
GEVID1208845780
 70
     0
  0
APPID
  5
44F
330
9
100
AcDbSymbolTableRecord
100
AcDbRegAppTableRecord
  2
GEVID1208845781
 70
     0
  0
APPID
  5
450
330
9
100
AcDbSymbolTableRecord
100
AcDbRegAppTableRecord
  2
GEVID1208845782
 70
     0
  0
APPID
  5
451
330
9
100
AcDbSymbolTableRecord
100
AcDbRegAppTableRecord
  2
GEVID1208845783
 70
     0
  0
APPID
  5
452
330
9
100
AcDbSymbolTableRecord
100
AcDbRegAppTableRecord
  2
GEVID1208845784
 70
     0
  0
APPID
  5
453
330
9
100
AcDbSymbolTableRecord
100
AcDbRegAppTableRecord
  2
GEVID1208845785
 70
     0
  0
APPID
  5
454
330
9
100
AcDbSymbolTableRecord
100
AcDbRegAppTableRecord
  2
GEVID1208845787
 70
     0
  0
APPID
  5
455
330
9
100
AcDbSymbolTableRecord
100
AcDbRegAppTableRecord
  2
GEVID1208845788
 70
     0
  0
APPID
  5
456
330
9
100
AcDbSymbolTableRecord
100
AcDbRegAppTableRecord
  2
GEVID1208845789
 70
     0
  0
APPID
  5
457
330
9
100
AcDbSymbolTableRecord
100
AcDbRegAppTableRecord
  2
GEVID1208845790
 70
     0
  0
APPID
  5
458
330
9
100
AcDbSymbolTableRecord
100
AcDbRegAppTableRecord
  2
GEVID1208845791
 70
     0
  0
APPID
  5
459
330
9
100
AcDbSymbolTableRecord
100
AcDbRegAppTableRecord
  2
GEVID1208845792
 70
     0
  0
APPID
  5
45A
330
9
100
AcDbSymbolTableRecord
100
AcDbRegAppTableRecord
  2
GEVID1208845793
 70
     0
  0
APPID
  5
45B
330
9
100
AcDbSymbolTableRecord
100
AcDbRegAppTableRecord
  2
GEVID1208845794
 70
     0
  0
APPID
  5
45C
330
9
100
AcDbSymbolTableRecord
100
AcDbRegAppTableRecord
  2
GEVID1208845795
 70
     0
  0
APPID
  5
45D
330
9
100
AcDbSymbolTableRecord
100
AcDbRegAppTableRecord
  2
GEVID1208845796
 70
     0
  0
APPID
  5
45E
330
9
100
AcDbSymbolTableRecord
100
AcDbRegAppTableRecord
  2
GEVID1208845797
 70
     0
  0
APPID
  5
45F
330
9
100
AcDbSymbolTableRecord
100
AcDbRegAppTableRecord
  2
GEVID1208845798
 70
     0
  0
APPID
  5
460
330
9
100
AcDbSymbolTableRecord
100
AcDbRegAppTableRecord
  2
GEVID1208845799
 70
     0
  0
APPID
  5
461
330
9
100
AcDbSymbolTableRecord
100
AcDbRegAppTableRecord
  2
GEVID1208845800
 70
     0
  0
APPID
  5
462
330
9
100
AcDbSymbolTableRecord
100
AcDbRegAppTableRecord
  2
GEVID1208845801
 70
     0
  0
APPID
  5
463
330
9
100
AcDbSymbolTableRecord
100
AcDbRegAppTableRecord
  2
GEVID1208845802
 70
     0
  0
APPID
  5
464
330
9
100
AcDbSymbolTableRecord
100
AcDbRegAppTableRecord
  2
GENIUS_GENOBJ-N-DIM_13
 70
     0
  0
APPID
  5
465
330
9
100
AcDbSymbolTableRecord
100
AcDbRegAppTableRecord
  2
GENIUS_GENDIM_13
 70
     0
  0
APPID
  5
466
330
9
100
AcDbSymbolTableRecord
100
AcDbRegAppTableRecord
  2
GENIUS_GENDIMSH_14
 70
     0
  0
APPID
  5
467
330
9
100
AcDbSymbolTableRecord
100
AcDbRegAppTableRecord
  2
GEVID1208845803
 70
     0
  0
APPID
  5
468
330
9
100
AcDbSymbolTableRecord
100
AcDbRegAppTableRecord
  2
GEVID1208845804
 70
     0
  0
APPID
  5
469
330
9
100
AcDbSymbolTableRecord
100
AcDbRegAppTableRecord
  2
GEVID1208845805
 70
     0
  0
APPID
  5
46A
330
9
100
AcDbSymbolTableRecord
100
AcDbRegAppTableRecord
  2
GEVID1208845806
 70
     0
  0
APPID
  5
46B
330
9
100
AcDbSymbolTableRecord
100
AcDbRegAppTableRecord
  2
GEVID1208845807
 70
     0
  0
APPID
  5
46C
330
9
100
AcDbSymbolTableRecord
100
AcDbRegAppTableRecord
  2
GEVID1208845808
 70
     0
  0
APPID
  5
46D
330
9
100
AcDbSymbolTableRecord
100
AcDbRegAppTableRecord
  2
GEVID1208845809
 70
     0
  0
APPID
  5
46E
330
9
100
AcDbSymbolTableRecord
100
AcDbRegAppTableRecord
  2
GEVID1208845810
 70
     0
  0
APPID
  5
46F
330
9
100
AcDbSymbolTableRecord
100
AcDbRegAppTableRecord
  2
GEVID1208845811
 70
     0
  0
APPID
  5
470
330
9
100
AcDbSymbolTableRecord
100
AcDbRegAppTableRecord
  2
GEVID1208845813
 70
     0
  0
APPID
  5
471
330
9
100
AcDbSymbolTableRecord
100
AcDbRegAppTableRecord
  2
GEVID1208845814
 70
     0
  0
APPID
  5
472
330
9
100
AcDbSymbolTableRecord
100
AcDbRegAppTableRecord
  2
GEVID1208845815
 70
     0
  0
APPID
  5
473
330
9
100
AcDbSymbolTableRecord
100
AcDbRegAppTableRecord
  2
GEVID1208845816
 70
     0
  0
APPID
  5
474
330
9
100
AcDbSymbolTableRecord
100
AcDbRegAppTableRecord
  2
GEVID1208845817
 70
     0
  0
APPID
  5
475
330
9
100
AcDbSymbolTableRecord
100
AcDbRegAppTableRecord
  2
GEVID1208845818
 70
     0
  0
APPID
  5
476
330
9
100
AcDbSymbolTableRecord
100
AcDbRegAppTableRecord
  2
GEVID1208845819
 70
     0
  0
APPID
  5
477
330
9
100
AcDbSymbolTableRecord
100
AcDbRegAppTableRecord
  2
GEVID1208845820
 70
     0
  0
APPID
  5
478
330
9
100
AcDbSymbolTableRecord
100
AcDbRegAppTableRecord
  2
GENIUS_GENOBJ-F-SHCL_13
 70
     0
  0
APPID
  5
479
330
9
100
AcDbSymbolTableRecord
100
AcDbRegAppTableRecord
  2
GENIUS_GEFMSH_13
 70
     0
  0
APPID
  5
47A
330
9
100
AcDbSymbolTableRecord
100
AcDbRegAppTableRecord
  2
GENIUS_GENOBJ-F-SHCA_13
 70
     0
  0
APPID
  5
47B
330
9
100
AcDbSymbolTableRecord
100
AcDbRegAppTableRecord
  2
GENIUS_GEFSH_13
 70
     0
  0
APPID
  5
47C
330
9
100
AcDbSymbolTableRecord
100
AcDbRegAppTableRecord
  2
GENIUS_GEFSHP_13
 70
     0
  0
APPID
  5
47D
330
9
100
AcDbSymbolTableRecord
100
AcDbRegAppTableRecord
  2
GENIUS_GEFSHP0_13
 70
     0
  0
APPID
  5
47E
330
9
100
AcDbSymbolTableRecord
100
AcDbRegAppTableRecord
  2
GENIUS_GEFSH0_13
 70
     0
  0
APPID
  5
47F
330
9
100
AcDbSymbolTableRecord
100
AcDbRegAppTableRecord
  2
GENIUS_GEFSHP1_13
 70
     0
  0
APPID
  5
480
330
9
100
AcDbSymbolTableRecord
100
AcDbRegAppTableRecord
  2
GENIUS_GEFSH1_13
 70
     0
  0
APPID
  5
481
330
9
100
AcDbSymbolTableRecord
100
AcDbRegAppTableRecord
  2
GEVID1208866337
 70
     0
  0
APPID
  5
482
330
9
100
AcDbSymbolTableRecord
100
AcDbRegAppTableRecord
  2
GEVID1208866338
 70
     0
  0
APPID
  5
483
330
9
100
AcDbSymbolTableRecord
100
AcDbRegAppTableRecord
  2
GEVID1208866339
 70
     0
  0
APPID
  5
484
330
9
100
AcDbSymbolTableRecord
100
AcDbRegAppTableRecord
  2
GEVID1208866340
 70
     0
  0
APPID
  5
485
330
9
100
AcDbSymbolTableRecord
100
AcDbRegAppTableRecord
  2
GEVID1208866341
 70
     0
  0
APPID
  5
486
330
9
100
AcDbSymbolTableRecord
100
AcDbRegAppTableRecord
  2
ACAD_PSEXT
 70
     0
  0
APPID
  5
487
330
9
100
AcDbSymbolTableRecord
100
AcDbRegAppTableRecord
  2
GEVID1208866342
 70
     0
  0
APPID
  5
488
330
9
100
AcDbSymbolTableRecord
100
AcDbRegAppTableRecord
  2
GEVID1208913836
 70
     0
  0
APPID
  5
489
330
9
100
AcDbSymbolTableRecord
100
AcDbRegAppTableRecord
  2
GEVID1208913837
 70
     0
  0
APPID
  5
48A
330
9
100
AcDbSymbolTableRecord
100
AcDbRegAppTableRecord
  2
GEVID1208913838
 70
     0
  0
APPID
  5
48B
330
9
100
AcDbSymbolTableRecord
100
AcDbRegAppTableRecord
  2
GEVID1208913839
 70
     0
  0
APPID
  5
48C
330
9
100
AcDbSymbolTableRecord
100
AcDbRegAppTableRecord
  2
GENIUS_GENDTOL_13
 70
     0
  0
APPID
  5
48D
330
9
100
AcDbSymbolTableRecord
100
AcDbRegAppTableRecord
  2
GEVID1208928889
 70
     0
  0
APPID
  5
48E
330
9
100
AcDbSymbolTableRecord
100
AcDbRegAppTableRecord
  2
GEVID1208928890
 70
     0
  0
APPID
  5
48F
330
9
100
AcDbSymbolTableRecord
100
AcDbRegAppTableRecord
  2
GEVID1208928891
 70
     0
  0
APPID
  5
490
330
9
100
AcDbSymbolTableRecord
100
AcDbRegAppTableRecord
  2
GEVID1208928892
 70
     0
  0
APPID
  5
491
330
9
100
AcDbSymbolTableRecord
100
AcDbRegAppTableRecord
  2
GEVID1208933827
 70
     0
  0
APPID
  5
492
330
9
100
AcDbSymbolTableRecord
100
AcDbRegAppTableRecord
  2
GEVID1208933829
 70
     0
  0
APPID
  5
493
330
9
100
AcDbSymbolTableRecord
100
AcDbRegAppTableRecord
  2
GEVID1208933830
 70
     0
  0
APPID
  5
494
330
9
100
AcDbSymbolTableRecord
100
AcDbRegAppTableRecord
  2
GEVID1208933831
 70
     0
  0
APPID
  5
495
330
9
100
AcDbSymbolTableRecord
100
AcDbRegAppTableRecord
  2
GEVID1208933832
 70
     0
  0
APPID
  5
496
330
9
100
AcDbSymbolTableRecord
100
AcDbRegAppTableRecord
  2
GEVID1208933833
 70
     0
  0
APPID
  5
497
330
9
100
AcDbSymbolTableRecord
100
AcDbRegAppTableRecord
  2
GEVID1208933834
 70
     0
  0
APPID
  5
498
330
9
100
AcDbSymbolTableRecord
100
AcDbRegAppTableRecord
  2
GEVID1208933835
 70
     0
  0
APPID
  5
499
330
9
100
AcDbSymbolTableRecord
100
AcDbRegAppTableRecord
  2
GEVID1208933836
 70
     0
  0
APPID
  5
49A
330
9
100
AcDbSymbolTableRecord
100
AcDbRegAppTableRecord
  2
GEVID1208933837
 70
     0
  0
APPID
  5
49B
330
9
100
AcDbSymbolTableRecord
100
AcDbRegAppTableRecord
  2
GEVID1208933838
 70
     0
  0
APPID
  5
49C
330
9
100
AcDbSymbolTableRecord
100
AcDbRegAppTableRecord
  2
GEVID1208933840
 70
     0
  0
APPID
  5
49D
330
9
100
AcDbSymbolTableRecord
100
AcDbRegAppTableRecord
  2
GEVID1208933842
 70
     0
  0
APPID
  5
49E
330
9
100
AcDbSymbolTableRecord
100
AcDbRegAppTableRecord
  2
GEVID1208933843
 70
     0
  0
APPID
  5
49F
330
9
100
AcDbSymbolTableRecord
100
AcDbRegAppTableRecord
  2
GEVID1208933844
 70
     0
  0
APPID
  5
4A0
330
9
100
AcDbSymbolTableRecord
100
AcDbRegAppTableRecord
  2
GEVID1208933845
 70
     0
  0
APPID
  5
4A1
330
9
100
AcDbSymbolTableRecord
100
AcDbRegAppTableRecord
  2
GEVID1208933846
 70
     0
  0
APPID
  5
4A2
330
9
100
AcDbSymbolTableRecord
100
AcDbRegAppTableRecord
  2
GEVID1208933847
 70
     0
  0
APPID
  5
4A3
330
9
100
AcDbSymbolTableRecord
100
AcDbRegAppTableRecord
  2
GEVID1208933848
 70
     0
  0
APPID
  5
4A4
330
9
100
AcDbSymbolTableRecord
100
AcDbRegAppTableRecord
  2
GEVID1208933849
 70
     0
  0
APPID
  5
4A5
330
9
100
AcDbSymbolTableRecord
100
AcDbRegAppTableRecord
  2
GEVID1208933850
 70
     0
  0
APPID
  5
4A6
330
9
100
AcDbSymbolTableRecord
100
AcDbRegAppTableRecord
  2
GEVID1208933851
 70
     0
  0
APPID
  5
4A7
330
9
100
AcDbSymbolTableRecord
100
AcDbRegAppTableRecord
  2
GEVID1208933852
 70
     0
  0
APPID
  5
4A8
330
9
100
AcDbSymbolTableRecord
100
AcDbRegAppTableRecord
  2
GEVID1208933853
 70
     0
  0
APPID
  5
4A9
330
9
100
AcDbSymbolTableRecord
100
AcDbRegAppTableRecord
  2
GEVID1208933854
 70
     0
  0
APPID
  5
4AA
330
9
100
AcDbSymbolTableRecord
100
AcDbRegAppTableRecord
  2
GEVID1208933855
 70
     0
  0
APPID
  5
4AB
330
9
100
AcDbSymbolTableRecord
100
AcDbRegAppTableRecord
  2
GEVID1208933856
 70
     0
  0
APPID
  5
4AC
330
9
100
AcDbSymbolTableRecord
100
AcDbRegAppTableRecord
  2
GEVID1208933857
 70
     0
  0
APPID
  5
4AD
330
9
100
AcDbSymbolTableRecord
100
AcDbRegAppTableRecord
  2
GEVID1208933858
 70
     0
  0
APPID
  5
4AE
330
9
100
AcDbSymbolTableRecord
100
AcDbRegAppTableRecord
  2
GEVID1208933859
 70
     0
  0
APPID
  5
4AF
330
9
100
AcDbSymbolTableRecord
100
AcDbRegAppTableRecord
  2
GEVID1208933860
 70
     0
  0
APPID
  5
4B0
330
9
100
AcDbSymbolTableRecord
100
AcDbRegAppTableRecord
  2
GEVID1208933861
 70
     0
  0
APPID
  5
4B1
330
9
100
AcDbSymbolTableRecord
100
AcDbRegAppTableRecord
  2
GEVID1208933862
 70
     0
  0
APPID
  5
4B2
330
9
100
AcDbSymbolTableRecord
100
AcDbRegAppTableRecord
  2
GEVID1208933863
 70
     0
  0
APPID
  5
4B3
330
9
100
AcDbSymbolTableRecord
100
AcDbRegAppTableRecord
  2
GEVID1208933864
 70
     0
  0
APPID
  5
4B4
330
9
100
AcDbSymbolTableRecord
100
AcDbRegAppTableRecord
  2
GEVID1208933865
 70
     0
  0
APPID
  5
4B5
330
9
100
AcDbSymbolTableRecord
100
AcDbRegAppTableRecord
  2
GEVID1208933866
 70
     0
  0
APPID
  5
4B6
330
9
100
AcDbSymbolTableRecord
100
AcDbRegAppTableRecord
  2
GEVID1208933867
 70
     0
  0
APPID
  5
4B7
330
9
100
AcDbSymbolTableRecord
100
AcDbRegAppTableRecord
  2
GEVID1208933868
 70
     0
  0
APPID
  5
4B8
330
9
100
AcDbSymbolTableRecord
100
AcDbRegAppTableRecord
  2
GEVID1208933869
 70
     0
  0
APPID
  5
4B9
330
9
100
AcDbSymbolTableRecord
100
AcDbRegAppTableRecord
  2
GEVID1208933870
 70
     0
  0
APPID
  5
4BA
330
9
100
AcDbSymbolTableRecord
100
AcDbRegAppTableRecord
  2
GEVID1208933871
 70
     0
  0
APPID
  5
4BB
330
9
100
AcDbSymbolTableRecord
100
AcDbRegAppTableRecord
  2
GEVID1208933872
 70
     0
  0
APPID
  5
4BC
330
9
100
AcDbSymbolTableRecord
100
AcDbRegAppTableRecord
  2
GEVID1208933873
 70
     0
  0
APPID
  5
4BD
330
9
100
AcDbSymbolTableRecord
100
AcDbRegAppTableRecord
  2
GEVID1208933874
 70
     0
  0
APPID
  5
4BE
330
9
100
AcDbSymbolTableRecord
100
AcDbRegAppTableRecord
  2
GEVID1208933875
 70
     0
  0
APPID
  5
4BF
330
9
100
AcDbSymbolTableRecord
100
AcDbRegAppTableRecord
  2
GEVID1208933876
 70
     0
  0
APPID
  5
4C0
330
9
100
AcDbSymbolTableRecord
100
AcDbRegAppTableRecord
  2
ACAD_DSTYLE_DIMRADIAL_EXTENSION
 70
     0
  0
APPID
  5
4C1
330
9
100
AcDbSymbolTableRecord
100
AcDbRegAppTableRecord
  2
GEVID1208999100
 70
     0
  0
APPID
  5
4C2
330
9
100
AcDbSymbolTableRecord
100
AcDbRegAppTableRecord
  2
GEVID1208999101
 70
     0
  0
APPID
  5
4C3
330
9
100
AcDbSymbolTableRecord
100
AcDbRegAppTableRecord
  2
GEVID1208999102
 70
     0
  0
APPID
  5
4C4
330
9
100
AcDbSymbolTableRecord
100
AcDbRegAppTableRecord
  2
GEVID1208999103
 70
     0
  0
APPID
  5
4C5
330
9
100
AcDbSymbolTableRecord
100
AcDbRegAppTableRecord
  2
GEVID1208999105
 70
     0
  0
APPID
  5
4C6
330
9
100
AcDbSymbolTableRecord
100
AcDbRegAppTableRecord
  2
GEVID1208999106
 70
     0
  0
APPID
  5
4C7
330
9
100
AcDbSymbolTableRecord
100
AcDbRegAppTableRecord
  2
GEVID1208999108
 70
     0
  0
APPID
  5
4C8
330
9
100
AcDbSymbolTableRecord
100
AcDbRegAppTableRecord
  2
GEVID1208999109
 70
     0
  0
APPID
  5
4C9
330
9
100
AcDbSymbolTableRecord
100
AcDbRegAppTableRecord
  2
GEVID1208999110
 70
     0
  0
APPID
  5
4CA
330
9
100
AcDbSymbolTableRecord
100
AcDbRegAppTableRecord
  2
GEVID1208999111
 70
     0
  0
APPID
  5
4CB
330
9
100
AcDbSymbolTableRecord
100
AcDbRegAppTableRecord
  2
GEVID1208999112
 70
     0
  0
APPID
  5
4CC
330
9
100
AcDbSymbolTableRecord
100
AcDbRegAppTableRecord
  2
GEVID1208999113
 70
     0
  0
APPID
  5
4CD
330
9
100
AcDbSymbolTableRecord
100
AcDbRegAppTableRecord
  2
GEVID1208999114
 70
     0
  0
APPID
  5
4CE
330
9
100
AcDbSymbolTableRecord
100
AcDbRegAppTableRecord
  2
GEVID1210218799
 70
     0
  0
APPID
  5
4CF
330
9
100
AcDbSymbolTableRecord
100
AcDbRegAppTableRecord
  2
GEVID1210218800
 70
     0
  0
APPID
  5
4D0
330
9
100
AcDbSymbolTableRecord
100
AcDbRegAppTableRecord
  2
GENIUS_GEFWELD_13
 70
     0
  0
APPID
  5
4D1
330
9
100
AcDbSymbolTableRecord
100
AcDbRegAppTableRecord
  2
GENIUS_GENOBJ-F-WELS_13
 70
     0
  0
APPID
  5
4D2
330
9
100
AcDbSymbolTableRecord
100
AcDbRegAppTableRecord
  2
AcadAnnotative
 70
     0
  0
APPID
  5
4D3
330
9
100
AcDbSymbolTableRecord
100
AcDbRegAppTableRecord
  2
GEVID1210145339
 70
     0
  0
APPID
  5
4D4
330
9
100
AcDbSymbolTableRecord
100
AcDbRegAppTableRecord
  2
ACAD_DSTYLE_DIMBREAK
 70
     0
  0
APPID
  5
4D5
330
9
100
AcDbSymbolTableRecord
100
AcDbRegAppTableRecord
  2
GEVID1210145340
 70
     0
  0
APPID
  5
4D6
330
9
100
AcDbSymbolTableRecord
100
AcDbRegAppTableRecord
  2
GEVID1210145341
 70
     0
  0
APPID
  5
4D7
330
9
100
AcDbSymbolTableRecord
100
AcDbRegAppTableRecord
  2
GEVID1210145342
 70
     0
  0
APPID
  5
4D8
330
9
100
AcDbSymbolTableRecord
100
AcDbRegAppTableRecord
  2
GEVID1210145343
 70
     0
  0
APPID
  5
4D9
330
9
100
AcDbSymbolTableRecord
100
AcDbRegAppTableRecord
  2
GEVID1210145344
 70
     0
  0
APPID
  5
4DA
330
9
100
AcDbSymbolTableRecord
100
AcDbRegAppTableRecord
  2
GEVID1210145345
 70
     0
  0
APPID
  5
4DB
330
9
100
AcDbSymbolTableRecord
100
AcDbRegAppTableRecord
  2
GEVID1210152816
 70
     0
  0
APPID
  5
4DC
330
9
100
AcDbSymbolTableRecord
100
AcDbRegAppTableRecord
  2
GEVID1210153850
 70
     0
  0
APPID
  5
4DD
330
9
100
AcDbSymbolTableRecord
100
AcDbRegAppTableRecord
  2
GEVID1210153851
 70
     0
  0
APPID
  5
4DE
330
9
100
AcDbSymbolTableRecord
100
AcDbRegAppTableRecord
  2
GEVID1210153852
 70
     0
  0
APPID
  5
4DF
330
9
100
AcDbSymbolTableRecord
100
AcDbRegAppTableRecord
  2
GEVID1210549898
 70
     0
  0
APPID
  5
4E0
330
9
100
AcDbSymbolTableRecord
100
AcDbRegAppTableRecord
  2
GEVID1210549899
 70
     0
  0
APPID
  5
4E1
330
9
100
AcDbSymbolTableRecord
100
AcDbRegAppTableRecord
  2
GEVID1210549900
 70
     0
  0
APPID
  5
4E2
330
9
100
AcDbSymbolTableRecord
100
AcDbRegAppTableRecord
  2
GEVID1210549901
 70
     0
  0
APPID
  5
4E3
330
9
100
AcDbSymbolTableRecord
100
AcDbRegAppTableRecord
  2
GEVID1210549902
 70
     0
  0
APPID
  5
4E4
330
9
100
AcDbSymbolTableRecord
100
AcDbRegAppTableRecord
  2
GEVID1210549903
 70
     0
  0
APPID
  5
4E5
330
9
100
AcDbSymbolTableRecord
100
AcDbRegAppTableRecord
  2
GEVID1210549904
 70
     0
  0
APPID
  5
4E6
330
9
100
AcDbSymbolTableRecord
100
AcDbRegAppTableRecord
  2
GEVID1210549905
 70
     0
  0
APPID
  5
4E7
330
9
100
AcDbSymbolTableRecord
100
AcDbRegAppTableRecord
  2
GEVID1210549906
 70
     0
  0
APPID
  5
4E8
330
9
100
AcDbSymbolTableRecord
100
AcDbRegAppTableRecord
  2
GEVID1210549907
 70
     0
  0
APPID
  5
4E9
330
9
100
AcDbSymbolTableRecord
100
AcDbRegAppTableRecord
  2
GEVID1210549908
 70
     0
  0
APPID
  5
4EA
330
9
100
AcDbSymbolTableRecord
100
AcDbRegAppTableRecord
  2
GEVID1210549909
 70
     0
  0
APPID
  5
4EB
330
9
100
AcDbSymbolTableRecord
100
AcDbRegAppTableRecord
  2
GEVID1210549910
 70
     0
  0
APPID
  5
4EC
330
9
100
AcDbSymbolTableRecord
100
AcDbRegAppTableRecord
  2
GEVID1210549911
 70
     0
  0
APPID
  5
4ED
330
9
100
AcDbSymbolTableRecord
100
AcDbRegAppTableRecord
  2
GEVID1210549912
 70
     0
  0
APPID
  5
4EE
330
9
100
AcDbSymbolTableRecord
100
AcDbRegAppTableRecord
  2
GEVID1210549913
 70
     0
  0
APPID
  5
4EF
330
9
100
AcDbSymbolTableRecord
100
AcDbRegAppTableRecord
  2
GEVID1210549914
 70
     0
  0
APPID
  5
4F0
330
9
100
AcDbSymbolTableRecord
100
AcDbRegAppTableRecord
  2
GEVID1210549915
 70
     0
  0
APPID
  5
4F1
330
9
100
AcDbSymbolTableRecord
100
AcDbRegAppTableRecord
  2
GEVID1210549916
 70
     0
  0
APPID
  5
4F2
330
9
100
AcDbSymbolTableRecord
100
AcDbRegAppTableRecord
  2
GEVID1210549917
 70
     0
  0
APPID
  5
4F3
330
9
100
AcDbSymbolTableRecord
100
AcDbRegAppTableRecord
  2
GENIUS_GENOBJ-N-CRS_13
 70
     0
  0
APPID
  5
4F4
330
9
100
AcDbSymbolTableRecord
100
AcDbRegAppTableRecord
  2
GEVID1210549918
 70
     0
  0
APPID
  5
4F5
330
9
100
AcDbSymbolTableRecord
100
AcDbRegAppTableRecord
  2
GENIUS_GENOBJ-N-CRC_13
 70
     0
  0
APPID
  5
4F6
330
9
100
AcDbSymbolTableRecord
100
AcDbRegAppTableRecord
  2
GENIUS_GENCRC_14
 70
     0
  0
APPID
  5
4F7
330
9
100
AcDbSymbolTableRecord
100
AcDbRegAppTableRecord
  2
GEVID1210549919
 70
     0
  0
APPID
  5
4F8
330
9
100
AcDbSymbolTableRecord
100
AcDbRegAppTableRecord
  2
GEVID1210549921
 70
     0
  0
APPID
  5
4F9
330
9
100
AcDbSymbolTableRecord
100
AcDbRegAppTableRecord
  2
GEVID1210549922
 70
     0
  0
APPID
  5
4FA
330
9
100
AcDbSymbolTableRecord
100
AcDbRegAppTableRecord
  2
GEVID1210635173
 70
     0
  0
APPID
  5
4FB
330
9
100
AcDbSymbolTableRecord
100
AcDbRegAppTableRecord
  2
GEVID1210635174
 70
     0
  0
APPID
  5
4FC
330
9
100
AcDbSymbolTableRecord
100
AcDbRegAppTableRecord
  2
GEVID1210635175
 70
     0
  0
APPID
  5
4FD
330
9
100
AcDbSymbolTableRecord
100
AcDbRegAppTableRecord
  2
GEVID1210635176
 70
     0
  0
APPID
  5
4FE
330
9
100
AcDbSymbolTableRecord
100
AcDbRegAppTableRecord
  2
GEVID1210635177
 70
     0
  0
APPID
  5
4FF
330
9
100
AcDbSymbolTableRecord
100
AcDbRegAppTableRecord
  2
GEVID1210635178
 70
     0
  0
APPID
  5
500
330
9
100
AcDbSymbolTableRecord
100
AcDbRegAppTableRecord
  2
GENIUS_GENIUS_GENBHEDTMP_13
 70
     0
  0
APPID
  5
501
330
9
100
AcDbSymbolTableRecord
100
AcDbRegAppTableRecord
  2
GEVID1210635179
 70
     0
  0
APPID
  5
502
330
9
100
AcDbSymbolTableRecord
100
AcDbRegAppTableRecord
  2
GEVID1210635180
 70
     0
  0
APPID
  5
503
330
9
100
AcDbSymbolTableRecord
100
AcDbRegAppTableRecord
  2
GEVID1210635181
 70
     0
  0
APPID
  5
504
330
9
100
AcDbSymbolTableRecord
100
AcDbRegAppTableRecord
  2
GEVID1210635182
 70
     0
  0
APPID
  5
505
330
9
100
AcDbSymbolTableRecord
100
AcDbRegAppTableRecord
  2
GEVID1210635184
 70
     0
  0
APPID
  5
506
330
9
100
AcDbSymbolTableRecord
100
AcDbRegAppTableRecord
  2
GEVID1210635185
 70
     0
  0
APPID
  5
507
330
9
100
AcDbSymbolTableRecord
100
AcDbRegAppTableRecord
  2
GEVID1210635186
 70
     0
  0
APPID
  5
508
330
9
100
AcDbSymbolTableRecord
100
AcDbRegAppTableRecord
  2
GEVID1210635187
 70
     0
  0
APPID
  5
509
330
9
100
AcDbSymbolTableRecord
100
AcDbRegAppTableRecord
  2
GEVID1210635188
 70
     0
  0
APPID
  5
50A
330
9
100
AcDbSymbolTableRecord
100
AcDbRegAppTableRecord
  2
GEVID1210635189
 70
     0
  0
APPID
  5
50B
330
9
100
AcDbSymbolTableRecord
100
AcDbRegAppTableRecord
  2
GEVID1210635190
 70
     0
  0
APPID
  5
50C
330
9
100
AcDbSymbolTableRecord
100
AcDbRegAppTableRecord
  2
GENIUS_GENREC_14
 70
     0
  0
APPID
  5
50D
330
9
100
AcDbSymbolTableRecord
100
AcDbRegAppTableRecord
  2
GENIUS_GENOBJ-N-REC_13
 70
     0
  0
APPID
  5
50E
330
9
100
AcDbSymbolTableRecord
100
AcDbRegAppTableRecord
  2
GEVID1210676655
 70
     0
  0
APPID
  5
50F
330
9
100
AcDbSymbolTableRecord
100
AcDbRegAppTableRecord
  2
GEVID1210676656
 70
     0
  0
APPID
  5
510
330
9
100
AcDbSymbolTableRecord
100
AcDbRegAppTableRecord
  2
GEVID1210676657
 70
     0
  0
APPID
  5
511
330
9
100
AcDbSymbolTableRecord
100
AcDbRegAppTableRecord
  2
GEVID1210676659
 70
     0
  0
APPID
  5
512
330
9
100
AcDbSymbolTableRecord
100
AcDbRegAppTableRecord
  2
GEVID1210676660
 70
     0
  0
APPID
  5
513
330
9
100
AcDbSymbolTableRecord
100
AcDbRegAppTableRecord
  2
GEVID1210676661
 70
     0
  0
APPID
  5
514
330
9
100
AcDbSymbolTableRecord
100
AcDbRegAppTableRecord
  2
GEVID1210676662
 70
     0
  0
APPID
  5
515
330
9
100
AcDbSymbolTableRecord
100
AcDbRegAppTableRecord
  2
GEVID1210721646
 70
     0
  0
APPID
  5
516
330
9
100
AcDbSymbolTableRecord
100
AcDbRegAppTableRecord
  2
GEVID1210721647
 70
     0
  0
APPID
  5
517
330
9
100
AcDbSymbolTableRecord
100
AcDbRegAppTableRecord
  2
GEVID1210721648
 70
     0
  0
APPID
  5
518
330
9
100
AcDbSymbolTableRecord
100
AcDbRegAppTableRecord
  2
GEVID1210721649
 70
     0
  0
APPID
  5
519
330
9
100
AcDbSymbolTableRecord
100
AcDbRegAppTableRecord
  2
GEVID1210721650
 70
     0
  0
APPID
  5
51A
330
9
100
AcDbSymbolTableRecord
100
AcDbRegAppTableRecord
  2
GEVID1210721651
 70
     0
  0
APPID
  5
51B
330
9
100
AcDbSymbolTableRecord
100
AcDbRegAppTableRecord
  2
GEVID1210721652
 70
     0
  0
APPID
  5
51C
330
9
100
AcDbSymbolTableRecord
100
AcDbRegAppTableRecord
  2
GEVID1210721653
 70
     0
  0
APPID
  5
51D
330
9
100
AcDbSymbolTableRecord
100
AcDbRegAppTableRecord
  2
PE_URL
 70
     0
  0
APPID
  5
51E
330
9
100
AcDbSymbolTableRecord
100
AcDbRegAppTableRecord
  2
GEVID1210825555
 70
     0
  0
APPID
  5
51F
330
9
100
AcDbSymbolTableRecord
100
AcDbRegAppTableRecord
  2
GEVID1210825556
 70
     0
  0
APPID
  5
520
330
9
100
AcDbSymbolTableRecord
100
AcDbRegAppTableRecord
  2
GEVID1210825557
 70
     0
  0
APPID
  5
521
330
9
100
AcDbSymbolTableRecord
100
AcDbRegAppTableRecord
  2
GEVID1210825558
 70
     0
  0
APPID
  5
522
330
9
100
AcDbSymbolTableRecord
100
AcDbRegAppTableRecord
  2
GEVID1210825559
 70
     0
  0
APPID
  5
523
330
9
100
AcDbSymbolTableRecord
100
AcDbRegAppTableRecord
  2
GEVID1210825560
 70
     0
  0
APPID
  5
524
330
9
100
AcDbSymbolTableRecord
100
AcDbRegAppTableRecord
  2
GEVID1210825561
 70
     0
  0
APPID
  5
525
330
9
100
AcDbSymbolTableRecord
100
AcDbRegAppTableRecord
  2
GEVID1210825562
 70
     0
  0
APPID
  5
526
330
9
100
AcDbSymbolTableRecord
100
AcDbRegAppTableRecord
  2
GEVID1210825563
 70
     0
  0
APPID
  5
527
330
9
100
AcDbSymbolTableRecord
100
AcDbRegAppTableRecord
  2
GEVID1210825564
 70
     0
  0
APPID
  5
528
330
9
100
AcDbSymbolTableRecord
100
AcDbRegAppTableRecord
  2
GEVID1210825565
 70
     0
  0
APPID
  5
529
330
9
100
AcDbSymbolTableRecord
100
AcDbRegAppTableRecord
  2
GEVID1210825566
 70
     0
  0
APPID
  5
52A
330
9
100
AcDbSymbolTableRecord
100
AcDbRegAppTableRecord
  2
GEVID1210825567
 70
     0
  0
APPID
  5
52B
330
9
100
AcDbSymbolTableRecord
100
AcDbRegAppTableRecord
  2
GENIUS_GENOBJ-N-ZOO_13
 70
     0
  0
APPID
  5
52C
330
9
100
AcDbSymbolTableRecord
100
AcDbRegAppTableRecord
  2
GENIUS_GENZOO_17
 70
     0
  0
APPID
  5
52D
330
9
100
AcDbSymbolTableRecord
100
AcDbRegAppTableRecord
  2
ACADANNOTATIVEDECOMPOSITION
 70
     0
  0
APPID
  5
52E
330
9
100
AcDbSymbolTableRecord
100
AcDbRegAppTableRecord
  2
GENIUS_GENOBJ-N-HTC_13
 70
     0
  0
APPID
  5
52F
330
9
100
AcDbSymbolTableRecord
100
AcDbRegAppTableRecord
  2
GENIUS_GENHATCH_13
 70
     0
  0
APPID
  5
530
330
9
100
AcDbSymbolTableRecord
100
AcDbRegAppTableRecord
  2
GEVID1210896020
 70
     0
  0
APPID
  5
531
330
9
100
AcDbSymbolTableRecord
100
AcDbRegAppTableRecord
  2
GEVID1210896021
 70
     0
  0
APPID
  5
532
330
9
100
AcDbSymbolTableRecord
100
AcDbRegAppTableRecord
  2
GEVID1209083540
 70
     0
  0
APPID
  5
533
330
9
100
AcDbSymbolTableRecord
100
AcDbRegAppTableRecord
  2
GEVMK
 70
     0
  0
APPID
  5
534
330
9
100
AcDbSymbolTableRecord
100
AcDbRegAppTableRecord
  2
GEVID1209083542
 70
     0
  0
APPID
  5
535
330
9
100
AcDbSymbolTableRecord
100
AcDbRegAppTableRecord
  2
GEVID1209083543
 70
     0
  0
APPID
  5
536
330
9
100
AcDbSymbolTableRecord
100
AcDbRegAppTableRecord
  2
GEVID1209083544
 70
     0
  0
APPID
  5
537
330
9
100
AcDbSymbolTableRecord
100
AcDbRegAppTableRecord
  2
GEVID1209083545
 70
     0
  0
APPID
  5
538
330
9
100
AcDbSymbolTableRecord
100
AcDbRegAppTableRecord
  2
GEVID1209083546
 70
     0
  0
APPID
  5
539
330
9
100
AcDbSymbolTableRecord
100
AcDbRegAppTableRecord
  2
GEVID1209083547
 70
     0
  0
APPID
  5
53A
330
9
100
AcDbSymbolTableRecord
100
AcDbRegAppTableRecord
  2
GEVID1209083548
 70
     0
  0
APPID
  5
53B
330
9
100
AcDbSymbolTableRecord
100
AcDbRegAppTableRecord
  2
GEVID1209083549
 70
     0
  0
APPID
  5
53C
330
9
100
AcDbSymbolTableRecord
100
AcDbRegAppTableRecord
  2
GEVID1209083550
 70
     0
  0
APPID
  5
53D
330
9
100
AcDbSymbolTableRecord
100
AcDbRegAppTableRecord
  2
GEVID1209083551
 70
     0
  0
APPID
  5
53E
330
9
100
AcDbSymbolTableRecord
100
AcDbRegAppTableRecord
  2
GEVID1209083552
 70
     0
  0
APPID
  5
53F
330
9
100
AcDbSymbolTableRecord
100
AcDbRegAppTableRecord
  2
GEVID1209083553
 70
     0
  0
APPID
  5
540
330
9
100
AcDbSymbolTableRecord
100
AcDbRegAppTableRecord
  2
GEVID1210896022
 70
     0
  0
APPID
  5
541
330
9
100
AcDbSymbolTableRecord
100
AcDbRegAppTableRecord
  2
GEVID1211508364
 70
     0
  0
APPID
  5
542
330
9
100
AcDbSymbolTableRecord
100
AcDbRegAppTableRecord
  2
GEVID1211414908
 70
     0
  0
APPID
  5
543
330
9
100
AcDbSymbolTableRecord
100
AcDbRegAppTableRecord
  2
GEVID1211414909
 70
     0
  0
APPID
  5
544
330
9
100
AcDbSymbolTableRecord
100
AcDbRegAppTableRecord
  2
GEVID1211508359
 70
     0
  0
APPID
  5
545
330
9
100
AcDbSymbolTableRecord
100
AcDbRegAppTableRecord
  2
GEVID1211508360
 70
     0
  0
APPID
  5
546
330
9
100
AcDbSymbolTableRecord
100
AcDbRegAppTableRecord
  2
GEVID1211508361
 70
     0
  0
APPID
  5
547
330
9
100
AcDbSymbolTableRecord
100
AcDbRegAppTableRecord
  2
GEVID1211508362
 70
     0
  0
APPID
  5
548
330
9
100
AcDbSymbolTableRecord
100
AcDbRegAppTableRecord
  2
GEVID1211508363
 70
     0
  0
APPID
  5
549
330
9
100
AcDbSymbolTableRecord
100
AcDbRegAppTableRecord
  2
GEVID1211878469
 70
     0
  0
APPID
  5
54A
330
9
100
AcDbSymbolTableRecord
100
AcDbRegAppTableRecord
  2
GEVID1212642819
 70
     0
  0
APPID
  5
54B
330
9
100
AcDbSymbolTableRecord
100
AcDbRegAppTableRecord
  2
GEVID1212642820
 70
     0
  0
APPID
  5
54C
330
9
100
AcDbSymbolTableRecord
100
AcDbRegAppTableRecord
  2
GEVID1212642821
 70
     0
  0
APPID
  5
54D
330
9
100
AcDbSymbolTableRecord
100
AcDbRegAppTableRecord
  2
GEVID1212642822
 70
     0
  0
APPID
  5
54E
330
9
100
AcDbSymbolTableRecord
100
AcDbRegAppTableRecord
  2
GEVID1212642823
 70
     0
  0
APPID
  5
54F
330
9
100
AcDbSymbolTableRecord
100
AcDbRegAppTableRecord
  2
GEVID1212642825
 70
     0
  0
APPID
  5
550
330
9
100
AcDbSymbolTableRecord
100
AcDbRegAppTableRecord
  2
GEVID1212642826
 70
     0
  0
APPID
  5
551
330
9
100
AcDbSymbolTableRecord
100
AcDbRegAppTableRecord
  2
GEVID1212642827
 70
     0
  0
APPID
  5
552
330
9
100
AcDbSymbolTableRecord
100
AcDbRegAppTableRecord
  2
GEVID1212642828
 70
     0
  0
APPID
  5
553
330
9
100
AcDbSymbolTableRecord
100
AcDbRegAppTableRecord
  2
GEVID1212642831
 70
     0
  0
APPID
  5
554
330
9
100
AcDbSymbolTableRecord
100
AcDbRegAppTableRecord
  2
GEVID1212642834
 70
     0
  0
APPID
  5
555
330
9
100
AcDbSymbolTableRecord
100
AcDbRegAppTableRecord
  2
GEVID1212642835
 70
     0
  0
APPID
  5
556
330
9
100
AcDbSymbolTableRecord
100
AcDbRegAppTableRecord
  2
GEVID1212642836
 70
     0
  0
APPID
  5
557
330
9
100
AcDbSymbolTableRecord
100
AcDbRegAppTableRecord
  2
GEVID1212642837
 70
     0
  0
APPID
  5
558
330
9
100
AcDbSymbolTableRecord
100
AcDbRegAppTableRecord
  2
GEVID1212642839
 70
     0
  0
APPID
  5
559
330
9
100
AcDbSymbolTableRecord
100
AcDbRegAppTableRecord
  2
GEVID1212642840
 70
     0
  0
APPID
  5
55A
330
9
100
AcDbSymbolTableRecord
100
AcDbRegAppTableRecord
  2
GEVID1212642841
 70
     0
  0
APPID
  5
55B
330
9
100
AcDbSymbolTableRecord
100
AcDbRegAppTableRecord
  2
GEVID1212655312
 70
     0
  0
APPID
  5
55C
330
9
100
AcDbSymbolTableRecord
100
AcDbRegAppTableRecord
  2
GEVID1212655313
 70
     0
  0
APPID
  5
55D
330
9
100
AcDbSymbolTableRecord
100
AcDbRegAppTableRecord
  2
GEVID1212656533
 70
     0
  0
APPID
  5
55E
330
9
100
AcDbSymbolTableRecord
100
AcDbRegAppTableRecord
  2
GEVID1212656534
 70
     0
  0
APPID
  5
55F
330
9
100
AcDbSymbolTableRecord
100
AcDbRegAppTableRecord
  2
GEVID1212656535
 70
     0
  0
APPID
  5
560
330
9
100
AcDbSymbolTableRecord
100
AcDbRegAppTableRecord
  2
GEVID1212656536
 70
     0
  0
APPID
  5
561
330
9
100
AcDbSymbolTableRecord
100
AcDbRegAppTableRecord
  2
GEVID1212656538
 70
     0
  0
APPID
  5
562
330
9
100
AcDbSymbolTableRecord
100
AcDbRegAppTableRecord
  2
GEVID1212656541
 70
     0
  0
APPID
  5
563
330
9
100
AcDbSymbolTableRecord
100
AcDbRegAppTableRecord
  2
GEVID1212656543
 70
     0
  0
APPID
  5
564
330
9
100
AcDbSymbolTableRecord
100
AcDbRegAppTableRecord
  2
GENIUS_GENOBJ-F-PFASSM_13
 70
     0
  0
APPID
  5
565
330
9
100
AcDbSymbolTableRecord
100
AcDbRegAppTableRecord
  2
GEVID1212656544
 70
     0
  0
APPID
  5
566
330
9
100
AcDbSymbolTableRecord
100
AcDbRegAppTableRecord
  2
GEVID1212656545
 70
     0
  0
APPID
  5
567
330
9
100
AcDbSymbolTableRecord
100
AcDbRegAppTableRecord
  2
GEVID1212656546
 70
     0
  0
APPID
  5
568
330
9
100
AcDbSymbolTableRecord
100
AcDbRegAppTableRecord
  2
GEVID1212656547
 70
     0
  0
APPID
  5
569
330
9
100
AcDbSymbolTableRecord
100
AcDbRegAppTableRecord
  2
GEVID1212656548
 70
     0
  0
APPID
  5
56A
330
9
100
AcDbSymbolTableRecord
100
AcDbRegAppTableRecord
  2
GEVID1212656549
 70
     0
  0
APPID
  5
56B
330
9
100
AcDbSymbolTableRecord
100
AcDbRegAppTableRecord
  2
GEVID1212656550
 70
     0
  0
APPID
  5
56C
330
9
100
AcDbSymbolTableRecord
100
AcDbRegAppTableRecord
  2
GEVID1212656552
 70
     0
  0
APPID
  5
56D
330
9
100
AcDbSymbolTableRecord
100
AcDbRegAppTableRecord
  2
GEVID1212656553
 70
     0
  0
APPID
  5
56E
330
9
100
AcDbSymbolTableRecord
100
AcDbRegAppTableRecord
  2
GEVID1212656554
 70
     0
  0
APPID
  5
56F
330
9
100
AcDbSymbolTableRecord
100
AcDbRegAppTableRecord
  2
GEVID1212656555
 70
     0
  0
APPID
  5
570
330
9
100
AcDbSymbolTableRecord
100
AcDbRegAppTableRecord
  2
GEVID1212656556
 70
     0
  0
APPID
  5
571
330
9
100
AcDbSymbolTableRecord
100
AcDbRegAppTableRecord
  2
GEVID1212656557
 70
     0
  0
APPID
  5
572
330
9
100
AcDbSymbolTableRecord
100
AcDbRegAppTableRecord
  2
GEVID1212656559
 70
     0
  0
APPID
  5
573
330
9
100
AcDbSymbolTableRecord
100
AcDbRegAppTableRecord
  2
GEVID1212656560
 70
     0
  0
APPID
  5
574
330
9
100
AcDbSymbolTableRecord
100
AcDbRegAppTableRecord
  2
GEVID1212656561
 70
     0
  0
APPID
  5
575
330
9
100
AcDbSymbolTableRecord
100
AcDbRegAppTableRecord
  2
GEVID1212656562
 70
     0
  0
APPID
  5
576
330
9
100
AcDbSymbolTableRecord
100
AcDbRegAppTableRecord
  2
GEVID1212656563
 70
     0
  0
APPID
  5
577
330
9
100
AcDbSymbolTableRecord
100
AcDbRegAppTableRecord
  2
GEVID1212711781
 70
     0
  0
APPID
  5
578
330
9
100
AcDbSymbolTableRecord
100
AcDbRegAppTableRecord
  2
GEVID1212711782
 70
     0
  0
APPID
  5
579
330
9
100
AcDbSymbolTableRecord
100
AcDbRegAppTableRecord
  2
GEVID1212711783
 70
     0
  0
APPID
  5
57A
330
9
100
AcDbSymbolTableRecord
100
AcDbRegAppTableRecord
  2
GEVID1212711784
 70
     0
  0
APPID
  5
57B
330
9
100
AcDbSymbolTableRecord
100
AcDbRegAppTableRecord
  2
GEVID1212711788
 70
     0
  0
APPID
  5
57C
330
9
100
AcDbSymbolTableRecord
100
AcDbRegAppTableRecord
  2
GEVID1212711789
 70
     0
  0
APPID
  5
57D
330
9
100
AcDbSymbolTableRecord
100
AcDbRegAppTableRecord
  2
GEVID1212711790
 70
     0
  0
APPID
  5
57E
330
9
100
AcDbSymbolTableRecord
100
AcDbRegAppTableRecord
  2
GEVID1212711791
 70
     0
  0
APPID
  5
57F
330
9
100
AcDbSymbolTableRecord
100
AcDbRegAppTableRecord
  2
GEVID1212711792
 70
     0
  0
APPID
  5
580
330
9
100
AcDbSymbolTableRecord
100
AcDbRegAppTableRecord
  2
GEVID1212711793
 70
     0
  0
APPID
  5
581
330
9
100
AcDbSymbolTableRecord
100
AcDbRegAppTableRecord
  2
GEVID1212711794
 70
     0
  0
APPID
  5
582
330
9
100
AcDbSymbolTableRecord
100
AcDbRegAppTableRecord
  2
GEVID1212711795
 70
     0
  0
APPID
  5
583
330
9
100
AcDbSymbolTableRecord
100
AcDbRegAppTableRecord
  2
GEVID1212711797
 70
     0
  0
APPID
  5
584
330
9
100
AcDbSymbolTableRecord
100
AcDbRegAppTableRecord
  2
GEVID1212711798
 70
     0
  0
APPID
  5
585
330
9
100
AcDbSymbolTableRecord
100
AcDbRegAppTableRecord
  2
GEVID1212711799
 70
     0
  0
APPID
  5
586
330
9
100
AcDbSymbolTableRecord
100
AcDbRegAppTableRecord
  2
GEVID1212711800
 70
     0
  0
APPID
  5
587
330
9
100
AcDbSymbolTableRecord
100
AcDbRegAppTableRecord
  2
GEVID1212711801
 70
     0
  0
APPID
  5
588
330
9
100
AcDbSymbolTableRecord
100
AcDbRegAppTableRecord
  2
GEVID1212711802
 70
     0
  0
APPID
  5
589
330
9
100
AcDbSymbolTableRecord
100
AcDbRegAppTableRecord
  2
GEVID1212711803
 70
     0
  0
APPID
  5
58A
330
9
100
AcDbSymbolTableRecord
100
AcDbRegAppTableRecord
  2
GEVID1212711804
 70
     0
  0
APPID
  5
58B
330
9
100
AcDbSymbolTableRecord
100
AcDbRegAppTableRecord
  2
GEVID1212711805
 70
     0
  0
APPID
  5
58C
330
9
100
AcDbSymbolTableRecord
100
AcDbRegAppTableRecord
  2
GEVID1212711806
 70
     0
  0
APPID
  5
58D
330
9
100
AcDbSymbolTableRecord
100
AcDbRegAppTableRecord
  2
GEVID1212711807
 70
     0
  0
APPID
  5
58E
330
9
100
AcDbSymbolTableRecord
100
AcDbRegAppTableRecord
  2
GEVID1212711808
 70
     0
  0
APPID
  5
58F
330
9
100
AcDbSymbolTableRecord
100
AcDbRegAppTableRecord
  2
GEVID1212711809
 70
     0
  0
APPID
  5
590
330
9
100
AcDbSymbolTableRecord
100
AcDbRegAppTableRecord
  2
GEVID1212711810
 70
     0
  0
APPID
  5
591
330
9
100
AcDbSymbolTableRecord
100
AcDbRegAppTableRecord
  2
GEVID1212711811
 70
     0
  0
APPID
  5
90A
330
9
100
AcDbSymbolTableRecord
100
AcDbRegAppTableRecord
  2
GENIUS_GENTRA_14
 70
     0
  0
APPID
  5
919
330
9
100
AcDbSymbolTableRecord
100
AcDbRegAppTableRecord
  2
GENIUS_GENOBJ-N-TIT_13
 70
     0
  0
APPID
  5
91A
330
9
100
AcDbSymbolTableRecord
100
AcDbRegAppTableRecord
  2
GENIUS_GENTITLE_13
 70
     0
  0
APPID
  5
949
330
9
100
AcDbSymbolTableRecord
100
AcDbRegAppTableRecord
  2
GENIUS_GENBLLY_14
 70
     0
  0
APPID
  5
DDD
330
9
100
AcDbSymbolTableRecord
100
AcDbRegAppTableRecord
  2
GEVID1213165152
 70
     0
  0
APPID
  5
12F9
330
9
100
AcDbSymbolTableRecord
100
AcDbRegAppTableRecord
  2
AcDbDynamicBlockTrueName
 70
     0
  0
APPID
  5
12FA
330
9
100
AcDbSymbolTableRecord
100
AcDbRegAppTableRecord
  2
ACDBBLOCKREPETAG
 70
     0
  0
APPID
  5
1C15
330
9
100
AcDbSymbolTableRecord
100
AcDbRegAppTableRecord
  2
GEVID1214872427
 70
     0
  0
APPID
  5
1C2A
330
9
100
AcDbSymbolTableRecord
100
AcDbRegAppTableRecord
  2
GEVID1214872428
 70
     0
  0
APPID
  5
1C2F
330
9
100
AcDbSymbolTableRecord
100
AcDbRegAppTableRecord
  2
GEVID1214872429
 70
     0
  0
APPID
  5
1C33
330
9
100
AcDbSymbolTableRecord
100
AcDbRegAppTableRecord
  2
GEVID1214872430
 70
     0
  0
APPID
  5
1C3F
330
9
100
AcDbSymbolTableRecord
100
AcDbRegAppTableRecord
  2
GEVID1214872432
 70
     0
  0
APPID
  5
1C4E
330
9
100
AcDbSymbolTableRecord
100
AcDbRegAppTableRecord
  2
GEVID1214872433
 70
     0
  0
APPID
  5
20DC
330
9
100
AcDbSymbolTableRecord
100
AcDbRegAppTableRecord
  2
AcDbDynamicBlockGUID
 70
     0
  0
APPID
  5
20FD
330
9
100
AcDbSymbolTableRecord
100
AcDbRegAppTableRecord
  2
GENIUS_GENOBJ-N-REV_13
 70
     0
  0
APPID
  5
20FE
330
9
100
AcDbSymbolTableRecord
100
AcDbRegAppTableRecord
  2
GENIUS_GENOBJ-N-RSSYM_13
 70
     0
  0
APPID
  5
20FF
330
9
100
AcDbSymbolTableRecord
100
AcDbRegAppTableRecord
  2
GENIUS_GENSYMENT_13
 70
     0
  0
APPID
  5
2100
330
9
100
AcDbSymbolTableRecord
100
AcDbRegAppTableRecord
  2
GENIUS_GENSCSYM_13
 70
     0
  0
APPID
  5
4D9D
330
9
100
AcDbSymbolTableRecord
100
AcDbRegAppTableRecord
  2
GEVID1242607853
 70
     0
  0
APPID
  5
500E
330
9
100
AcDbSymbolTableRecord
100
AcDbRegAppTableRecord
  2
GEVID1242607854
 70
     0
  0
ENDTAB
  0
TABLE
  2
DIMSTYLE
  5
A
330
0
100
AcDbSymbolTable
 70
    30
100
AcDbDimStyleTable
 71
     1
340
5AB
  0
DIMSTYLE
105
5AB
330
A
100
AcDbSymbolTableRecord
100
AcDbDimStyleTableRecord
  2
SEISA
 70
     0
  4
"
 40
4.0
 41
2.5
 42
0.625
 43
10.0
 44
0.625
 47
0.1
 48
0.1
 73
     0
 74
     0
 77
     3
 78
     8
 79
     2
 90
     1
140
3.5
141
0.0
143
0.0393701
146
0.71
147
1.5
172
     1
176
     3
177
     3
178
     3
271
     2
272
     2
283
     0
286
     8
340
5D5
341
69
342
69
371
    -1
372
    -1
1001
ACAD_DSTYLE_DIMJAG
1070
   388
1040
1.5
1001
ACAD_DSTYLE_DIMTALN
1070
   392
1070
     1
  0
DIMSTYLE
105
5E9
102
{ACAD_REACTORS
330
4721
330
48A0
330
48D9
330
48F5
330
49BF
330
4BA6
330
4BBE
330
4BD6
330
4C2D
330
4C45
330
4C7A
330
4CAE
330
5A75
330
5B36
330
5B79
102
}
330
A
100
AcDbSymbolTableRecord
100
AcDbDimStyleTableRecord
  2
SEISA$0
 70
     0
  4
"
 40
4.0
 41
2.5
 42
0.625
 43
10.0
 44
0.625
 47
0.1
 48
0.1
 73
     0
 74
     0
 77
     3
 78
     8
 79
     2
 90
     1
140
3.5
141
0.0
143
0.0393701
146
0.71
147
1.5
172
     1
176
     3
177
     3
178
     3
271
     2
272
     2
283
     0
286
     8
340
5D5
341
69
342
69
371
    -1
372
    -1
  0
DIMSTYLE
105
5CF9
330
A
100
AcDbSymbolTableRecord
100
AcDbDimStyleTableRecord
  2
AM_ISO
 70
     0
  4
"
 41
2.5
 42
1.0
 43
10.0
 44
1.0
 47
0.1
 48
0.1
 73
     0
 74
     0
 77
     1
 78
     8
 79
     2
 90
     1
140
3.5
141
0.0
143
0.0393701
146
0.71
147
1.5
172
     1
176
   256
177
   256
178
     2
271
     2
272
     3
274
     4
283
     0
284
     8
340
11
371
    -1
372
    -1
  0
DIMSTYLE
105
5CFA
330
A
100
AcDbSymbolTableRecord
100
AcDbDimStyleTableRecord
  2
AM_ISO$3
 70
     0
  4
"
 41
2.5
 42
1.0
 43
10.0
 44
1.0
 47
0.1
 48
0.1
 73
     0
 77
     1
 78
     8
 79
     2
 90
     1
140
3.5
141
0.0
143
0.0393701
146
0.71
147
1.5
176
   256
177
   256
178
     2
271
     2
272
     3
274
     4
283
     0
284
     8
288
     1
289
     0
340
11
371
    -1
372
    -1
  0
DIMSTYLE
105
5CFB
330
A
100
AcDbSymbolTableRecord
100
AcDbDimStyleTableRecord
  2
AM_ISO$4
 70
     0
  4
"
 41
2.5
 42
1.0
 43
10.0
 44
1.0
 47
0.1
 48
0.1
 73
     0
 77
     1
 78
     8
 79
     2
 90
     1
140
3.5
141
0.0
143
0.0393701
146
0.71
147
1.5
176
   256
177
   256
178
     2
271
     2
272
     3
274
     4
283
     0
284
     8
288
     1
289
     0
340
11
371
    -1
372
    -1
  0
DIMSTYLE
105
5CFC
330
A
100
AcDbSymbolTableRecord
100
AcDbDimStyleTableRecord
  2
AM_ISO$6
 70
     0
  4
"
 41
2.5
 42
1.0
 43
10.0
 44
1.0
 47
0.1
 48
0.1
 73
     0
 74
     0
 78
     8
 79
     2
 90
     1
140
3.5
141
0.0
143
0.0393701
146
0.71
147
1.5
172
     1
176
   256
177
   256
178
     2
271
     2
272
     3
274
     4
283
     0
284
     8
340
11
371
    -1
372
    -1
  0
DIMSTYLE
105
5CFD
330
A
100
AcDbSymbolTableRecord
100
AcDbDimStyleTableRecord
  2
AM_ISO$7
 70
     0
  4
"
 41
2.5
 42
1.0
 43
10.0
 44
1.0
 47
0.1
 48
0.1
 73
     0
 74
     0
 77
     1
 78
     8
 79
     2
 90
     1
140
5.0
141
0.0
143
0.0393701
146
0.71
147
1.5
172
     1
176
   256
177
   256
178
     2
271
     2
272
     3
274
     4
283
     0
284
     8
340
11
371
    -1
372
    -1
  0
DIMSTYLE
105
5CFE
330
A
100
AcDbSymbolTableRecord
100
AcDbDimStyleTableRecord
  2
AM_ISO$SF
 70
     0
  4
"
 41
2.5
 42
1.0
 43
10.0
 44
1.0
 47
0.1
 48
0.1
 73
     0
 74
     0
 75
     1
 76
     1
 77
     1
 78
     8
 79
     2
 90
     1
140
3.5
141
0.0
143
0.0393701
146
0.71
147
1.5
172
     1
176
   256
177
   256
178
     2
271
     2
272
     3
274
     4
283
     0
284
     8
340
11
371
    -1
372
    -1
  0
DIMSTYLE
105
5CFF
330
A
100
AcDbSymbolTableRecord
100
AcDbDimStyleTableRecord
  2
AM_ISO$SH
 70
     0
  4
"
 41
2.5
 42
1.0
 43
10.0
 44
1.0
 47
0.1
 48
0.1
 73
     0
 74
     0
 75
     1
 76
     1
 77
     1
 78
     8
 79
     2
 90
     1
140
3.5
141
0.0
143
0.0393701
144
2.0
146
0.71
147
1.5
172
     1
173
     1
176
   256
177
   256
178
     2
271
     2
272
     3
274
     4
283
     0
284
     8
340
11
343
74
371
    -1
372
    -1
  0
ENDTAB
  0
TABLE
  2
BLOCK_RECORD
  5
1
330
0
100
AcDbSymbolTable
 70
    32
  0
BLOCK_RECORD
  5
1F
102
{ACAD_XDICTIONARY
360
82
102
}
330
1
100
AcDbSymbolTableRecord
100
AcDbBlockTableRecord
  2
*Model_Space
340
22
 70
     0
280
     1
281
     0
  0
BLOCK_RECORD
  5
1B
330
1
100
AcDbSymbolTableRecord
100
AcDbBlockTableRecord
  2
*Paper_Space
340
1E
 70
     0
280
     1
281
     0
  0
BLOCK_RECORD
  5
23
330
1
100
AcDbSymbolTableRecord
100
AcDbBlockTableRecord
  2
*Paper_Space0
340
26
 70
     0
280
     1
281
     0
  0
BLOCK_RECORD
  5
69
330
1
100
AcDbSymbolTableRecord
100
AcDbBlockTableRecord
  2
_Open30
340
0
102
{BLKREFS
331
5167
331
5168
331
51B5
331
51B6
331
51D2
331
51D3
331
51DB
331
51DC
331
51E4
331
51E5
331
51ED
331
51EE
331
521A
331
521B
331
522C
331
522D
331
5424
331
543A
331
546F
331
5470
331
5AA1
331
5AA2
331
5AF0
331
5AF1
331
5B74
331
5B75
331
5BA6
331
5BA7
102
}
 70
     0
280
     1
281
     0
  0
BLOCK_RECORD
  5
74
330
1
100
AcDbSymbolTableRecord
100
AcDbBlockTableRecord
  2
GENAXEH
340
0
 70
     0
280
     1
281
     0
  0
BLOCK_RECORD
  5
3438
102
{ACAD_XDICTIONARY
360
3439
102
}
330
1
100
AcDbSymbolTableRecord
100
AcDbBlockTableRecord
  2
ジュウジマルコネジ
340
0
310
2800000020000000200000000100080000000000000400000000000000000000000000000000000000000000000080000080000000808000800000008000800080800000C0C0C000C0DCC000F0CAA6000020400000206000002080000020A0000020C0000020E00000400000004020000040400000406000004080000040A0
310
000040C0000040E00000600000006020000060400000606000006080000060A0000060C0000060E00000800000008020000080400000806000008080000080A0000080C0000080E00000A0000000A0200000A0400000A0600000A0800000A0A00000A0C00000A0E00000C0000000C0200000C0400000C0600000C0800000C0
310
A00000C0C00000C0E00000E0000000E0200000E0400000E0600000E0800000E0A00000E0C00000E0E00040000000400020004000400040006000400080004000A0004000C0004000E00040200000402020004020400040206000402080004020A0004020C0004020E000404000004040200040404000404060004040800040
310
40A0004040C0004040E00040600000406020004060400040606000406080004060A0004060C0004060E00040800000408020004080400040806000408080004080A0004080C0004080E00040A0000040A0200040A0400040A0600040A0800040A0A00040A0C00040A0E00040C0000040C0200040C0400040C0600040C08000
310
40C0A00040C0C00040C0E00040E0000040E0200040E0400040E0600040E0800040E0A00040E0C00040E0E00080000000800020008000400080006000800080008000A0008000C0008000E00080200000802020008020400080206000802080008020A0008020C0008020E00080400000804020008040400080406000804080
310
008040A0008040C0008040E00080600000806020008060400080606000806080008060A0008060C0008060E00080800000808020008080400080806000808080008080A0008080C0008080E00080A0000080A0200080A0400080A0600080A0800080A0A00080A0C00080A0E00080C0000080C0200080C0400080C0600080C0
310
800080C0A00080C0C00080C0E00080E0000080E0200080E0400080E0600080E0800080E0A00080E0C00080E0E000C0000000C0002000C0004000C0006000C0008000C000A000C000C000C000E000C0200000C0202000C0204000C0206000C0208000C020A000C020C000C020E000C0400000C0402000C0404000C0406000C0
310
408000C040A000C040C000C040E000C0600000C0602000C0604000C0606000C0608000C060A000C060C000C060E000C0800000C0802000C0804000C0806000C0808000C080A000C080C000C080E000C0A00000C0A02000C0A04000C0A06000C0A08000C0A0A000C0A0C000C0A0E000C0C00000C0C02000C0C04000C0C06000
310
C0C08000C0C0A000F0FBFF00A4A0A000808080000000FF0000FF000000FFFF00FF000000FF00FF00FFFF0000FFFFFF0000000000000000000000000000000000000000000000000000000000000000000000000000000000000000000000000000000000000000000000000000000000000000000000000000000000FFFFFF
310
0000000000000000000000000000000000000000000000000000000000FF00000000000000000000000000000000000000000000000000000000000000FF000000000000000000000000000000000000000000000000000000FFFFFFFFFF0000000000000000000000000000000000000000000000000000FFFF000000FF00
310
000000000000000000000000000000000000000000000000FFFF00000000FF000000000000000000000000000000000000000000000000FFFF0000000000FF000000000000000000000000000000000000000000000000FF000000000000FEFEFE000000000000000000000000FF0000000000000000FFFF000000000000FF
310
FEFEFEFEFEFEFEFEFEFEFEFEFEFEFFFF00000000000000FF00000000000000FF0000000000000000000000000000FFFF00000000000000FF00000000000000FF0000000000000000000000000000FFFF000000000000FF0000000000000000FF0000000000000000000000000000FFFF000000000000FF0000000000000000
310
FF0000000000000000000000000000FFFF000000000000FF0000000000000000FF0000000000000000000000000000FFFF00000000F9F9FFF9F9F9F9F9F9F9F9FFF9F9F9F9F9F9F9F9F9F9F9F9F9F9FFFFF9F900000000FF0000000000000000FF0000000000000000000000000000FFFF000000000000FF00000000000000
310
00FF0000000000000000000000000000FFFF00000000000000FF00000000000000FF0000000000000000000000000000FFFF00000000000000FF00000000000000FF0000000000000000000000000000FFFF00000000000000FFFF000000000000FFFEFEFEFEFEFEFEFEFEFEFEFEFEFEFFFF0000000000000000FF00000000
310
0000FFFEFE000000000000000000000000FF000000000000000000FFFF0000000000FF00000000000000000000000000000000000000000000000000FFFF00000000FF0000000000000000000000000000000000000000000000000000FFFF000000FF000000000000000000000000000000000000000000000000000000FF
310
FFFFFFFF00000000000000000000000000000000000000000000000000000000000000FF00000000000000000000000000000000000000000000000000000000000000FF00000000000000000000000000000000000000000000000000000000000000FFFFFF00000000000000000000000000000000000000000000000000
310
0000000000000000000000000000000000000000000000000000000000000000000000000000000000000000000000000000000000000000
102
{BLKREFS
331
458D
102
}
 70
     4
280
     1
281
     1
  0
BLOCK_RECORD
  5
3563
330
1
100
AcDbSymbolTableRecord
100
AcDbBlockTableRecord
  2
GENDOT
340
0
102
{BLKREFS
331
5423
331
5439
102
}
 70
     0
280
     1
281
     0
  0
BLOCK_RECORD
  5
420F
102
{ACAD_XDICTIONARY
360
4280
102
}
330
1
100
AcDbSymbolTableRecord
100
AcDbBlockTableRecord
  2
センタＡ SMVH315
340
0
310
2800000020000000200000000100080000000000000400000000000000000000000000000000000000000000000080000080000000808000800000008000800080800000C0C0C000C0DCC000F0CAA6000020400000206000002080000020A0000020C0000020E00000400000004020000040400000406000004080000040A0
310
000040C0000040E00000600000006020000060400000606000006080000060A0000060C0000060E00000800000008020000080400000806000008080000080A0000080C0000080E00000A0000000A0200000A0400000A0600000A0800000A0A00000A0C00000A0E00000C0000000C0200000C0400000C0600000C0800000C0
310
A00000C0C00000C0E00000E0000000E0200000E0400000E0600000E0800000E0A00000E0C00000E0E00040000000400020004000400040006000400080004000A0004000C0004000E00040200000402020004020400040206000402080004020A0004020C0004020E000404000004040200040404000404060004040800040
310
40A0004040C0004040E00040600000406020004060400040606000406080004060A0004060C0004060E00040800000408020004080400040806000408080004080A0004080C0004080E00040A0000040A0200040A0400040A0600040A0800040A0A00040A0C00040A0E00040C0000040C0200040C0400040C0600040C08000
310
40C0A00040C0C00040C0E00040E0000040E0200040E0400040E0600040E0800040E0A00040E0C00040E0E00080000000800020008000400080006000800080008000A0008000C0008000E00080200000802020008020400080206000802080008020A0008020C0008020E00080400000804020008040400080406000804080
310
008040A0008040C0008040E00080600000806020008060400080606000806080008060A0008060C0008060E00080800000808020008080400080806000808080008080A0008080C0008080E00080A0000080A0200080A0400080A0600080A0800080A0A00080A0C00080A0E00080C0000080C0200080C0400080C0600080C0
310
800080C0A00080C0C00080C0E00080E0000080E0200080E0400080E0600080E0800080E0A00080E0C00080E0E000C0000000C0002000C0004000C0006000C0008000C000A000C000C000C000E000C0200000C0202000C0204000C0206000C0208000C020A000C020C000C020E000C0400000C0402000C0404000C0406000C0
310
408000C040A000C040C000C040E000C0600000C0602000C0604000C0606000C0608000C060A000C060C000C060E000C0800000C0802000C0804000C0806000C0808000C080A000C080C000C080E000C0A00000C0A02000C0A04000C0A06000C0A08000C0A0A000C0A0C000C0A0E000C0C00000C0C02000C0C04000C0C06000
310
C0C08000C0C0A000F0FBFF00A4A0A000808080000000FF0000FF000000FFFF00FF000000FF00FF00FFFF0000FFFFFF0000000000000000000000000000000000000000000000000000000000000000000000000000000000000000000000000000000000000000000000000000000000000000000000000000000000000000
310
0000000000000000000000000000000000000000000000000000000000000000000000000000000000000000000000000000000000000000000000000000000000000000000000000000000000000000000000000000000000000000000000000000000000000000000000000000000000000000FFFFFFFFFFFFFFFFFFFFFF
310
FFFFFFFFFFFFFFFFFFFFFFFFFFFFFFFF0000000000FF00000000FF00FF000000000000000000000000000000000000FF0000000000FF00000000FF00FF000000000000000000000000000000000000FF0000000000FF00000000FF00FF000000000000000000000000000000000000FF0000000000FF00000000FF00FF0000
310
00000000000000000000000000000000FF0000000000FF00000000FF00FF000000000000000000000000000000000000FF0000000000FF00000000FF00FF0000000000FFFFFFFFFFFFFFFFFFFFFFFFFFFFFF00000000FF00000000FF00FF00000000000000000000000000000000000000FF00000000FF00000000FF00FF00
310
000000000000000000000000000000000000FF00000000FF00000000FF00FF00000000000000000000000000000000000000FF00000000FF00000000FF00FF0000000000000000000000000000000000000000000000FFFF00000000FF00FF0000000000000000000000000000000000000000000000FFFF00000000FF00FF
310
0000000000000000000000000000000000000000000000F9FF00000000FF00FF00000000000000000000000000000000000000000000F9F9FF00000000FF00FF0000000000000000000000000000000000000000000000F9FF00000000FF00FF0000000000A40000000000000000000000000000000000FFFF00000000FF00
310
FF0000000000A4000000000000000000000000000000000000FF00000000FF00FF0000000000A4000000000000000000000000000000000000FF00000000FF00FF0000000000A4000000000000000000000000000000000000FFFFFFFFFFFFFFFFFFFFFFFFFFA4000000000000000000000000000000000000000000000000
310
00000000000000000000000000000000000000000000000000000000000000000000000000000000000000000000000000000000000000000000000000000000000000000000000000000000000000000000000000000000000000000000000000000000000000000000000000000000000000000000000000000000000000
310
0000000000000000000000000000000000000000000000000000000000000000000000000000000000000000000000000000000000000000
102
{BLKREFS
331
4235
102
}
 70
     4
280
     1
281
     1
  0
BLOCK_RECORD
  5
42FF
102
{ACAD_XDICTIONARY
360
43B6
102
}
330
1
100
AcDbSymbolTableRecord
100
AcDbBlockTableRecord
  2
ケースＡ SMVH315
340
0
310
2800000020000000200000000100080000000000000400000000000000000000000000000000000000000000000080000080000000808000800000008000800080800000C0C0C000C0DCC000F0CAA6000020400000206000002080000020A0000020C0000020E00000400000004020000040400000406000004080000040A0
310
000040C0000040E00000600000006020000060400000606000006080000060A0000060C0000060E00000800000008020000080400000806000008080000080A0000080C0000080E00000A0000000A0200000A0400000A0600000A0800000A0A00000A0C00000A0E00000C0000000C0200000C0400000C0600000C0800000C0
310
A00000C0C00000C0E00000E0000000E0200000E0400000E0600000E0800000E0A00000E0C00000E0E00040000000400020004000400040006000400080004000A0004000C0004000E00040200000402020004020400040206000402080004020A0004020C0004020E000404000004040200040404000404060004040800040
310
40A0004040C0004040E00040600000406020004060400040606000406080004060A0004060C0004060E00040800000408020004080400040806000408080004080A0004080C0004080E00040A0000040A0200040A0400040A0600040A0800040A0A00040A0C00040A0E00040C0000040C0200040C0400040C0600040C08000
310
40C0A00040C0C00040C0E00040E0000040E0200040E0400040E0600040E0800040E0A00040E0C00040E0E00080000000800020008000400080006000800080008000A0008000C0008000E00080200000802020008020400080206000802080008020A0008020C0008020E00080400000804020008040400080406000804080
310
008040A0008040C0008040E00080600000806020008060400080606000806080008060A0008060C0008060E00080800000808020008080400080806000808080008080A0008080C0008080E00080A0000080A0200080A0400080A0600080A0800080A0A00080A0C00080A0E00080C0000080C0200080C0400080C0600080C0
310
800080C0A00080C0C00080C0E00080E0000080E0200080E0400080E0600080E0800080E0A00080E0C00080E0E000C0000000C0002000C0004000C0006000C0008000C000A000C000C000C000E000C0200000C0202000C0204000C0206000C0208000C020A000C020C000C020E000C0400000C0402000C0404000C0406000C0
310
408000C040A000C040C000C040E000C0600000C0602000C0604000C0606000C0608000C060A000C060C000C060E000C0800000C0802000C0804000C0806000C0808000C080A000C080C000C080E000C0A00000C0A02000C0A04000C0A06000C0A08000C0A0A000C0A0C000C0A0E000C0C00000C0C02000C0C04000C0C06000
310
C0C08000C0C0A000F0FBFF00A4A0A000808080000000FF0000FF000000FFFF00FF000000FF00FF00FFFF0000FFFFFF0000000000000000000000000000000000000000000000000000000000000000000000000000000000000000000000000000000000000000000000000000000000000000000000000000000000000000
310
00000000000000000000000000000000000000000000000000000000000000000000000000000000000000000000000000000000000000000000000000000000000000000000000000000000000000000000000000000000000000000000000000000000000000000000000000000000000000000000000000000000000000
310
000000000000000000000000000000000000000000000000000000000000000000000000000000000000000000000000000000000000000000000000000000000000000000000000000000000000000000000000000000FFFF000000000000000000FFFFFFFFFFFFFFFFFFFFFFFF0000000000000000FFFFFF000000000000
310
0000000000000000000000000000FF0000000000000000FFA4FF0000000000000000000000000000000000000000FF0000000000000000FFF9000000000000000000000000000000000000000000FF0000000000000000FFF9000000000000000000000000000000000000000000FF0000000000000000FFFF000000000000
310
000000000000000000000000000000FF0000000000000000FFFF000000000000000000000000000000000000000000FF00F900000000FFFFFFFF00000000000000000000FFFFFFFFFFFFFFFFFFFFFFFFFFFFFF0000F9FFFFFFFF0000000000000000000000000000000000000000000000F9FF000000FF00FFFF0000000000
310
0000000000FFFFFFFFFFFFFFFFFFFFFFFFFFFFFF000000000000000000000000000000000000000000000000000000000000F900000000000000000000000000000000000000000000000000000000000000F900000000000000000000000000000000000000000000000000000000000000F9000000000000000000000000
310
00000000000000000000000000000000000000F90000000000000000000000000000000000000000000000000000000000000000000000000000000000000000000000000000000000000000000000000000000000000000000000000000000000000000000000000000000000000000000000000000000000000000000000
310
00000000000000000000000000000000000000000000000000000000000000000000000000000000000000000000000000000000000000000000000000000000000000000000000000000000000000000000000000000000000000000000000000000000000000000000000000000000000000000000000000000000000000
310
0000000000000000000000000000000000000000000000000000000000000000000000000000000000000000000000000000000000000000
102
{BLKREFS
331
4339
102
}
 70
     4
280
     1
281
     1
  0
BLOCK_RECORD
  5
43F1
102
{ACAD_XDICTIONARY
360
4462
102
}
330
1
100
AcDbSymbolTableRecord
100
AcDbBlockTableRecord
  2
センタB SMVH315
340
0
310
2800000020000000200000000100080000000000000400000000000000000000000000000000000000000000000080000080000000808000800000008000800080800000C0C0C000C0DCC000F0CAA6000020400000206000002080000020A0000020C0000020E00000400000004020000040400000406000004080000040A0
310
000040C0000040E00000600000006020000060400000606000006080000060A0000060C0000060E00000800000008020000080400000806000008080000080A0000080C0000080E00000A0000000A0200000A0400000A0600000A0800000A0A00000A0C00000A0E00000C0000000C0200000C0400000C0600000C0800000C0
310
A00000C0C00000C0E00000E0000000E0200000E0400000E0600000E0800000E0A00000E0C00000E0E00040000000400020004000400040006000400080004000A0004000C0004000E00040200000402020004020400040206000402080004020A0004020C0004020E000404000004040200040404000404060004040800040
310
40A0004040C0004040E00040600000406020004060400040606000406080004060A0004060C0004060E00040800000408020004080400040806000408080004080A0004080C0004080E00040A0000040A0200040A0400040A0600040A0800040A0A00040A0C00040A0E00040C0000040C0200040C0400040C0600040C08000
310
40C0A00040C0C00040C0E00040E0000040E0200040E0400040E0600040E0800040E0A00040E0C00040E0E00080000000800020008000400080006000800080008000A0008000C0008000E00080200000802020008020400080206000802080008020A0008020C0008020E00080400000804020008040400080406000804080
310
008040A0008040C0008040E00080600000806020008060400080606000806080008060A0008060C0008060E00080800000808020008080400080806000808080008080A0008080C0008080E00080A0000080A0200080A0400080A0600080A0800080A0A00080A0C00080A0E00080C0000080C0200080C0400080C0600080C0
310
800080C0A00080C0C00080C0E00080E0000080E0200080E0400080E0600080E0800080E0A00080E0C00080E0E000C0000000C0002000C0004000C0006000C0008000C000A000C000C000C000E000C0200000C0202000C0204000C0206000C0208000C020A000C020C000C020E000C0400000C0402000C0404000C0406000C0
310
408000C040A000C040C000C040E000C0600000C0602000C0604000C0606000C0608000C060A000C060C000C060E000C0800000C0802000C0804000C0806000C0808000C080A000C080C000C080E000C0A00000C0A02000C0A04000C0A06000C0A08000C0A0A000C0A0C000C0A0E000C0C00000C0C02000C0C04000C0C06000
310
C0C08000C0C0A000F0FBFF00A4A0A000808080000000FF0000FF000000FFFF00FF000000FF00FF00FFFF0000FFFFFF0000000000000000000000000000000000000000000000000000000000000000000000000000000000000000000000000000000000000000000000000000000000000000000000000000000000000000
310
0000000000000000000000000000000000000000000000000000000000000000000000000000000000000000000000000000000000000000000000000000000000000000000000000000000000000000000000000000000000000000000000000000000000000000000000000000000000000000FFFFFFFFFFFFFFFFFFFFFF
310
FFFFA4000000000000000000000000000000000000FF00000000FFFF000000000000A4000000000000000000000000000000000000FF00000000FFFF000000000000A40000000000000000000000000000000000FFFF00000000FFFF000000000000A40000000000000000000000000000000000F9FF00000000FFFF000000
310
000000A400000000000000000000000000000000F9F9FF00000000FFFF000000000000000000000000000000000000000000000000F9FF00000000FFFF000000000000000000000000000000000000000000000000FFFF00000000FFFF000000000000000000000000000000000000000000000000FFFF00000000FFFF0000
310
0000000000000000000000000000000000000000000000FF00000000FFFF00000000000000000000000000000000000000000000000000FF00000000FFFF0000000000000000000000000000000000000000FF00000000FF00000000FFFF0000000000000000000000000000000000000000FF00000000FF00000000FFFF00
310
00000000000000000000000000000000000000FF00000000FF00000000FFFF000000000000FFFFFFFFFFFFFFFFFFFFFFFFFFFFFF00000000FF00000000FFFF00000000000000000000000000000000000000FF0000000000FF00000000FFFF00000000000000000000000000000000000000FF0000000000FF00000000FFFF
310
00000000000000000000000000000000000000FF0000000000FF00000000FFFF00000000000000000000000000000000000000FF0000000000FF00000000FFFF00000000000000000000000000000000000000FF0000000000FFFFFFFFFFFFFFFFFFFFFFFFFFFFFFFFFFFFFFFFFFFFFFFFFFFFFF0000000000000000000000
310
00000000000000000000000000000000000000000000000000000000000000000000000000000000000000000000000000000000000000000000000000000000000000000000000000000000000000000000000000000000000000000000000000000000000000000000000000000000000000000000000000000000000000
310
0000000000000000000000000000000000000000000000000000000000000000000000000000000000000000000000000000000000000000
102
{BLKREFS
331
4417
102
}
 70
     4
280
     1
281
     1
  0
BLOCK_RECORD
  5
4552
102
{ACAD_XDICTIONARY
360
460B
102
}
330
1
100
AcDbSymbolTableRecord
100
AcDbBlockTableRecord
  2
ケースＢ SMVH315
340
0
310
2800000020000000200000000100080000000000000400000000000000000000000000000000000000000000000080000080000000808000800000008000800080800000C0C0C000C0DCC000F0CAA6000020400000206000002080000020A0000020C0000020E00000400000004020000040400000406000004080000040A0
310
000040C0000040E00000600000006020000060400000606000006080000060A0000060C0000060E00000800000008020000080400000806000008080000080A0000080C0000080E00000A0000000A0200000A0400000A0600000A0800000A0A00000A0C00000A0E00000C0000000C0200000C0400000C0600000C0800000C0
310
A00000C0C00000C0E00000E0000000E0200000E0400000E0600000E0800000E0A00000E0C00000E0E00040000000400020004000400040006000400080004000A0004000C0004000E00040200000402020004020400040206000402080004020A0004020C0004020E000404000004040200040404000404060004040800040
310
40A0004040C0004040E00040600000406020004060400040606000406080004060A0004060C0004060E00040800000408020004080400040806000408080004080A0004080C0004080E00040A0000040A0200040A0400040A0600040A0800040A0A00040A0C00040A0E00040C0000040C0200040C0400040C0600040C08000
310
40C0A00040C0C00040C0E00040E0000040E0200040E0400040E0600040E0800040E0A00040E0C00040E0E00080000000800020008000400080006000800080008000A0008000C0008000E00080200000802020008020400080206000802080008020A0008020C0008020E00080400000804020008040400080406000804080
310
008040A0008040C0008040E00080600000806020008060400080606000806080008060A0008060C0008060E00080800000808020008080400080806000808080008080A0008080C0008080E00080A0000080A0200080A0400080A0600080A0800080A0A00080A0C00080A0E00080C0000080C0200080C0400080C0600080C0
310
800080C0A00080C0C00080C0E00080E0000080E0200080E0400080E0600080E0800080E0A00080E0C00080E0E000C0000000C0002000C0004000C0006000C0008000C000A000C000C000C000E000C0200000C0202000C0204000C0206000C0208000C020A000C020C000C020E000C0400000C0402000C0404000C0406000C0
310
408000C040A000C040C000C040E000C0600000C0602000C0604000C0606000C0608000C060A000C060C000C060E000C0800000C0802000C0804000C0806000C0808000C080A000C080C000C080E000C0A00000C0A02000C0A04000C0A06000C0A08000C0A0A000C0A0C000C0A0E000C0C00000C0C02000C0C04000C0C06000
310
C0C08000C0C0A000F0FBFF00A4A0A000808080000000FF0000FF000000FFFF00FF000000FF00FF00FFFF0000FFFFFF0000000000000000000000000000000000000000000000000000000000000000000000000000000000000000000000000000000000000000000000000000000000000000000000000000000000000000
310
00000000000000000000000000000000000000000000000000000000000000000000000000000000000000000000000000000000000000000000000000000000000000000000000000000000000000000000000000000000000000000000000000000000000000000000000000000000000000000000000000000000000000
310
00000000000000000000000000000000000000000000000000000000000000000000000000000000000000000000000000000000000000000000000000000000000000000000000000000000000000000000000000000000000000000000000000000000000000000000000000000000000000000000000000000000000000
310
000000000000000000000000000000000000000000FFFFFF00000000000000000000000000000000000000000000000000FF0000F9FFFFFFFF000000000000000000000000000000000000000000000000FF000000FFFFFFFF00000000000000000000FFFFFFFFFFFFFFFFFFFFFFFFFFFFFF0000000000FFFF000000000000
310
000000000000000000000000000000FF0000000000000000FFA4000000000000000000000000000000000000000000FF0000000000000000FFA4000000000000000000000000000000000000000000FF0000000000000000FFA4000000000000000000000000000000000000000000FF0000000000000000FFFFFF00000000
310
00000000000000000000000000000000FF0000000000000000FFFFFF0000000000000000000000000000000000000000FF0000000000000000FFFFFF000000000000000000FFFFFFFFFFFFFFFFFFFFFFFF00000000000000000000000000000000000000000000000000000000000000000000000000000000000000000000
310
00000000000000000000000000000000000000000000000000000000000000000000000000000000000000000000000000000000000000000000000000000000000000000000000000000000000000000000000000000000000000000000000000000000000000000000000000000000000000000000000000000000000000
310
00000000000000000000000000000000000000000000000000000000000000000000000000000000000000000000000000000000000000000000000000000000000000000000000000000000000000000000000000000000000000000000000000000000000000000000000000000000000000000000000000000000000000
310
0000000000000000000000000000000000000000000000000000000000000000000000000000000000000000000000000000000000000000
102
{BLKREFS
331
458E
102
}
 70
     4
280
     1
281
     1
  0
BLOCK_RECORD
  5
4660
102
{ACAD_XDICTIONARY
360
46CF
102
}
330
1
100
AcDbSymbolTableRecord
100
AcDbBlockTableRecord
  2
リーマボルト SMVH315 M12
340
0
310
2800000020000000200000000100080000000000000400000000000000000000000000000000000000000000000080000080000000808000800000008000800080800000C0C0C000C0DCC000F0CAA6000020400000206000002080000020A0000020C0000020E00000400000004020000040400000406000004080000040A0
310
000040C0000040E00000600000006020000060400000606000006080000060A0000060C0000060E00000800000008020000080400000806000008080000080A0000080C0000080E00000A0000000A0200000A0400000A0600000A0800000A0A00000A0C00000A0E00000C0000000C0200000C0400000C0600000C0800000C0
310
A00000C0C00000C0E00000E0000000E0200000E0400000E0600000E0800000E0A00000E0C00000E0E00040000000400020004000400040006000400080004000A0004000C0004000E00040200000402020004020400040206000402080004020A0004020C0004020E000404000004040200040404000404060004040800040
310
40A0004040C0004040E00040600000406020004060400040606000406080004060A0004060C0004060E00040800000408020004080400040806000408080004080A0004080C0004080E00040A0000040A0200040A0400040A0600040A0800040A0A00040A0C00040A0E00040C0000040C0200040C0400040C0600040C08000
310
40C0A00040C0C00040C0E00040E0000040E0200040E0400040E0600040E0800040E0A00040E0C00040E0E00080000000800020008000400080006000800080008000A0008000C0008000E00080200000802020008020400080206000802080008020A0008020C0008020E00080400000804020008040400080406000804080
310
008040A0008040C0008040E00080600000806020008060400080606000806080008060A0008060C0008060E00080800000808020008080400080806000808080008080A0008080C0008080E00080A0000080A0200080A0400080A0600080A0800080A0A00080A0C00080A0E00080C0000080C0200080C0400080C0600080C0
310
800080C0A00080C0C00080C0E00080E0000080E0200080E0400080E0600080E0800080E0A00080E0C00080E0E000C0000000C0002000C0004000C0006000C0008000C000A000C000C000C000E000C0200000C0202000C0204000C0206000C0208000C020A000C020C000C020E000C0400000C0402000C0404000C0406000C0
310
408000C040A000C040C000C040E000C0600000C0602000C0604000C0606000C0608000C060A000C060C000C060E000C0800000C0802000C0804000C0806000C0808000C080A000C080C000C080E000C0A00000C0A02000C0A04000C0A06000C0A08000C0A0A000C0A0C000C0A0E000C0C00000C0C02000C0C04000C0C06000
310
C0C08000C0C0A000F0FBFF00A4A0A000808080000000FF0000FF000000FFFF00FF000000FF00FF00FFFF0000FFFFFF000000000000000000000000000000000000000000000000000000000000000000000000000000000000000000FFFFFFFFFFFFFFFF0000000000000000000000000000000000000000000000FFFFFFFF
310
FFFFFFFFFFFF00000000000000000000000000000000000000000000FF00FF00000000FF00FF00000000000000000000000000000000000000000000FF00FF00000000FF00FF00000000000000000000000000000000000000000000FF00FF00000000FF00FF00000000000000000000000000000000000000000000000000
310
00000000000000000000000000000000000000000000000000000000000000000000000000000000000000000000000000000000000000000000000000000000000000000000000000000000000000000000000000000000000000000000000000000000000000000000000000000000000000000000000000000000000000
310
00000000000000000000000000000000000000000000000000000000000000000000000000000000000000000000000000000000000000000000000000000000000000000000000000000000000000000000000000000000000000000000000000000000000000000000000000000000000000000000000000000000000000
310
00000000000000000000000000000000000000000000000000000000000000000000000000000000000000000000000000000000000000000000000000000000000000000000000000000000000000000000000000000000000000000000000000000000000000000000000000000000000000000000000000000000000000
310
00000000000000000000000000000000000000000000000000000000000000000000000000000000000000000000000000000000000000000000000000000000000000000000000000000000000000000000000000000000000000000000000000000000000000000000000000000000000000000000000000000000000000
310
00FF00000000FF000000FF00000000000000000000000000000000000000000000FFFFFFFFFFFFFFFFFFFF00000000000000000000000000000000000000000000FF00FF00000000FF00FF00000000000000000000000000000000000000000000FF00FF00000000FF00FF0000000000000000000000000000000000000000
310
0000FF00FF00000000FF00FF00000000000000000000000000000000000000000000FFFFFFFFFFFFFFFFFFFF0000000000000000000000000000000000000000000000FFFEFFFFFFFFFFFF00000000000000000000000000000000000000000000000000FEFFFFFFFFFF000000000000000000000000000000000000000000
310
000000000000FFFFFFFF00000000000000000000000000000000000000000000000000000000000000000000000000000000000000000000
102
{BLKREFS
331
4684
102
}
 70
     4
280
     1
281
     1
  0
BLOCK_RECORD
  5
46EC
102
{ACAD_XDICTIONARY
360
4713
102
}
330
1
100
AcDbSymbolTableRecord
100
AcDbBlockTableRecord
  2
スラストプレ－ト SMVH315
340
0
310
2800000020000000200000000100080000000000000400000000000000000000000000000000000000000000000080000080000000808000800000008000800080800000C0C0C000C0DCC000F0CAA6000020400000206000002080000020A0000020C0000020E00000400000004020000040400000406000004080000040A0
310
000040C0000040E00000600000006020000060400000606000006080000060A0000060C0000060E00000800000008020000080400000806000008080000080A0000080C0000080E00000A0000000A0200000A0400000A0600000A0800000A0A00000A0C00000A0E00000C0000000C0200000C0400000C0600000C0800000C0
310
A00000C0C00000C0E00000E0000000E0200000E0400000E0600000E0800000E0A00000E0C00000E0E00040000000400020004000400040006000400080004000A0004000C0004000E00040200000402020004020400040206000402080004020A0004020C0004020E000404000004040200040404000404060004040800040
310
40A0004040C0004040E00040600000406020004060400040606000406080004060A0004060C0004060E00040800000408020004080400040806000408080004080A0004080C0004080E00040A0000040A0200040A0400040A0600040A0800040A0A00040A0C00040A0E00040C0000040C0200040C0400040C0600040C08000
310
40C0A00040C0C00040C0E00040E0000040E0200040E0400040E0600040E0800040E0A00040E0C00040E0E00080000000800020008000400080006000800080008000A0008000C0008000E00080200000802020008020400080206000802080008020A0008020C0008020E00080400000804020008040400080406000804080
310
008040A0008040C0008040E00080600000806020008060400080606000806080008060A0008060C0008060E00080800000808020008080400080806000808080008080A0008080C0008080E00080A0000080A0200080A0400080A0600080A0800080A0A00080A0C00080A0E00080C0000080C0200080C0400080C0600080C0
310
800080C0A00080C0C00080C0E00080E0000080E0200080E0400080E0600080E0800080E0A00080E0C00080E0E000C0000000C0002000C0004000C0006000C0008000C000A000C000C000C000E000C0200000C0202000C0204000C0206000C0208000C020A000C020C000C020E000C0400000C0402000C0404000C0406000C0
310
408000C040A000C040C000C040E000C0600000C0602000C0604000C0606000C0608000C060A000C060C000C060E000C0800000C0802000C0804000C0806000C0808000C080A000C080C000C080E000C0A00000C0A02000C0A04000C0A06000C0A08000C0A0A000C0A0C000C0A0E000C0C00000C0C02000C0C04000C0C06000
310
C0C08000C0C0A000F0FBFF00A4A0A000808080000000FF0000FF000000FFFF00FF000000FF00FF00FFFF0000FFFFFF0000000000000000000000000000000000000000000000000000000000000000000000000000000000000000000000000000000000000000000000000000000000000000000000000000000000000000
310
00000000000000000000000000000000000000000000000000000000000000000000000000000000000000000000000000000000000000000000000000000000000000000000000000000000000000000000000000000000000000000000000000000000000000000000000000000000000000000000000000000000000000
310
00000000000000000000000000000000000000000000000000000000000000000000000000000000000000000000000000000000000000000000000000000000000000000000000000000000000000000000000000000000000000000000000000000000000000000000000000000000000000000000000000000000000000
310
00000000000000000000000000000000000000000000000000000000000000000000000000000000000000000000000000000000000000000000000000000000000000000000000000000000000000000000000000000000000000000000000000000000000000000000000000000000000000000000000000FFFFFFFFFFFF
310
FFFFFFFFFFFFFFFFFFFFFFFFFFFFFFFFFFFFFF00000000FFFFFFFF0000000000000000000000000000000000000000000000000000FFFFFFFFFFFFFFFFFFFFFFFFFFFFFFFFFFFFFFFFFFFFFFFFFFFFFFFFFFFF0000FFFFFFFFFFFFFFFFFFFFFFFFFFFFFFFFFFFFFFFFFFFFFFFFFFFFFFFFFFFF000000000000000000000000
310
00000000000000000000000000000000000000000000000000000000000000000000000000000000000000000000000000000000000000000000000000000000000000000000000000000000000000000000000000000000000000000000000000000000000000000000000000000000000000000000000000000000000000
310
00000000000000000000000000000000000000000000000000000000000000000000000000000000000000000000000000000000000000000000000000000000000000000000000000000000000000000000000000000000000000000000000000000000000000000000000000000000000000000000000000000000000000
310
00000000000000000000000000000000000000000000000000000000000000000000000000000000000000000000000000000000000000000000000000000000000000000000000000000000000000000000000000000000000000000000000000000000000000000000000000000000000000000000000000000000000000
310
0000000000000000000000000000000000000000000000000000000000000000000000000000000000000000000000000000000000000000
102
{BLKREFS
331
46F8
102
}
 70
     4
280
     1
281
     1
  0
BLOCK_RECORD
  5
4722
330
1
100
AcDbSymbolTableRecord
100
AcDbBlockTableRecord
  2
*D14
340
0
 70
     0
280
     1
281
     0
  0
BLOCK_RECORD
  5
48A1
330
1
100
AcDbSymbolTableRecord
100
AcDbBlockTableRecord
  2
*D15
340
0
 70
     0
280
     1
281
     0
  0
BLOCK_RECORD
  5
48DA
330
1
100
AcDbSymbolTableRecord
100
AcDbBlockTableRecord
  2
*D16
340
0
 70
     0
280
     1
281
     0
  0
BLOCK_RECORD
  5
48F6
330
1
100
AcDbSymbolTableRecord
100
AcDbBlockTableRecord
  2
*D17
340
0
 70
     0
280
     1
281
     0
  0
BLOCK_RECORD
  5
49C0
330
1
100
AcDbSymbolTableRecord
100
AcDbBlockTableRecord
  2
*D18
340
0
 70
     0
280
     1
281
     0
  0
BLOCK_RECORD
  5
4BA7
330
1
100
AcDbSymbolTableRecord
100
AcDbBlockTableRecord
  2
*D19
340
0
 70
     0
280
     1
281
     0
  0
BLOCK_RECORD
  5
4BBF
330
1
100
AcDbSymbolTableRecord
100
AcDbBlockTableRecord
  2
*D20
340
0
 70
     0
280
     1
281
     0
  0
BLOCK_RECORD
  5
4BD7
330
1
100
AcDbSymbolTableRecord
100
AcDbBlockTableRecord
  2
*D21
340
0
 70
     0
280
     1
281
     0
  0
BLOCK_RECORD
  5
4C2E
330
1
100
AcDbSymbolTableRecord
100
AcDbBlockTableRecord
  2
*D22
340
0
 70
     0
280
     1
281
     0
  0
BLOCK_RECORD
  5
4C46
330
1
100
AcDbSymbolTableRecord
100
AcDbBlockTableRecord
  2
*D23
340
0
 70
     0
280
     1
281
     0
  0
BLOCK_RECORD
  5
4C7B
330
1
100
AcDbSymbolTableRecord
100
AcDbBlockTableRecord
  2
*D24
340
0
 70
     0
280
     1
281
     0
  0
BLOCK_RECORD
  5
4CAF
330
1
100
AcDbSymbolTableRecord
100
AcDbBlockTableRecord
  2
*D25
340
0
 70
     0
280
     1
281
     0
  0
BLOCK_RECORD
  5
5A76
330
1
100
AcDbSymbolTableRecord
100
AcDbBlockTableRecord
  2
*D26
340
0
 70
     0
280
     1
281
     0
  0
BLOCK_RECORD
  5
5B37
330
1
100
AcDbSymbolTableRecord
100
AcDbBlockTableRecord
  2
*D27
340
0
 70
     0
280
     1
281
     0
  0
BLOCK_RECORD
  5
5B7A
330
1
100
AcDbSymbolTableRecord
100
AcDbBlockTableRecord
  2
*D28
340
0
 70
     0
280
     1
281
     0
  0
BLOCK_RECORD
  5
5C1B
330
1
100
AcDbSymbolTableRecord
100
AcDbBlockTableRecord
  2
ケース
340
0
310
2800000020000000200000000100080000000000000400000000000000000000000000000000000000000000000080000080000000808000800000008000800080800000C0C0C000C0DCC000F0CAA6000020400000206000002080000020A0000020C0000020E00000400000004020000040400000406000004080000040A0
310
000040C0000040E00000600000006020000060400000606000006080000060A0000060C0000060E00000800000008020000080400000806000008080000080A0000080C0000080E00000A0000000A0200000A0400000A0600000A0800000A0A00000A0C00000A0E00000C0000000C0200000C0400000C0600000C0800000C0
310
A00000C0C00000C0E00000E0000000E0200000E0400000E0600000E0800000E0A00000E0C00000E0E00040000000400020004000400040006000400080004000A0004000C0004000E00040200000402020004020400040206000402080004020A0004020C0004020E000404000004040200040404000404060004040800040
310
40A0004040C0004040E00040600000406020004060400040606000406080004060A0004060C0004060E00040800000408020004080400040806000408080004080A0004080C0004080E00040A0000040A0200040A0400040A0600040A0800040A0A00040A0C00040A0E00040C0000040C0200040C0400040C0600040C08000
310
40C0A00040C0C00040C0E00040E0000040E0200040E0400040E0600040E0800040E0A00040E0C00040E0E00080000000800020008000400080006000800080008000A0008000C0008000E00080200000802020008020400080206000802080008020A0008020C0008020E00080400000804020008040400080406000804080
310
008040A0008040C0008040E00080600000806020008060400080606000806080008060A0008060C0008060E00080800000808020008080400080806000808080008080A0008080C0008080E00080A0000080A0200080A0400080A0600080A0800080A0A00080A0C00080A0E00080C0000080C0200080C0400080C0600080C0
310
800080C0A00080C0C00080C0E00080E0000080E0200080E0400080E0600080E0800080E0A00080E0C00080E0E000C0000000C0002000C0004000C0006000C0008000C000A000C000C000C000E000C0200000C0202000C0204000C0206000C0208000C020A000C020C000C020E000C0400000C0402000C0404000C0406000C0
310
408000C040A000C040C000C040E000C0600000C0602000C0604000C0606000C0608000C060A000C060C000C060E000C0800000C0802000C0804000C0806000C0808000C080A000C080C000C080E000C0A00000C0A02000C0A04000C0A06000C0A08000C0A0A000C0A0C000C0A0E000C0C00000C0C02000C0C04000C0C06000
310
C0C08000C0C0A000F0FBFF00A4A0A000808080000000FF0000FF000000FFFF00FF000000FF00FF00FFFF0000FFFFFF000000000000000000000000000000000000000000000000000000000000000000000000000000000000000000FCFCFCFCFCFCFCFCFCFC000000000000000000000000000000000000000000FC000000
310
0000000000FC00000000000000000000000000000000000000000000FC0000000000FCFCFCFCFC0000000000000000000000000000000000000000FC000000000000FC000000000000000000000000000000000000000000000000FC000000000000FC000000000000000000000000000000000000000000000000FC000000
310
000000FC000000000000000000000000000000000000000000000000FC000000000000FC000000000000000000000000000000000000000000000000FC000000000000FC000000000000000000000000000000000000000000000000FC000000000000FC000000000000000000000000000000000000000000000000FC0000
310
00000000FCFCFCFCFC0000000000000000000000000000000000000000FC000000000000000000FC000000000000000000000000000000000000000000FC00000000FCFCFCFCFCFCFC0000000000000000000000000000000000000000FC000000FC000000000000000000000000000000000000000000000000000000FC00
310
0000FC00FC00000000000000000000000000000000000000000000000000FC000000FC00FC00000000000000000000000000000000000000000000000000FC000000FCFCFCFCFC0000000000000000000000000000000000000000000000FC000000FC00FC00FC0000000000000000000000000000000000000000000000FC
310
000000FC00FC00FC0000000000000000000000000000000000000000000000FC000000FC00FC00FC0000000000000000000000000000000000000000000000FC000000FC00FC00FC0000000000000000000000000000000000000000000000FC000000FC00FC00FC0000000000000000000000000000000000000000000000
310
FC000000FC00FC00FC0000000000000000000000000000000000000000000000FC000000FC00FC00FC0000000000000000000000000000000000000000000000FC000000FC00FC00FC0000000000000000000000000000000000000000000000FC000000FC00FC00FC00000000000000000000000000000000000000000000
310
00FC000000FC00FC00FC0000000000000000000000000000000000000000000000FC000000FC00FC00FC0000000000000000000000000000000000000000000000FC000000FC00FC00FC0000000000000000000000000000000000000000000000FC000000FC00FC00FC000000000000000000000000000000000000000000
310
0000FC000000FC00FC00FC000000000000000000000000000000000000000000000000000000000000000000000000000000000000000000
102
{BLKREFS
331
5C32
102
}
 70
     4
280
     1
281
     1
  0
ENDTAB
  0
ENDSEC
  0
SECTION
  2
BLOCKS
  0
BLOCK
  5
20
330
1F
100
AcDbEntity
  8
0
100
AcDbBlockBegin
  2
*Model_Space
 70
     0
 10
0.0
 20
0.0
 30
0.0
  3
*Model_Space
  1

  0
ENDBLK
  5
21
330
1F
100
AcDbEntity
  8
0
100
AcDbBlockEnd
  0
BLOCK
  5
1C
330
1B
100
AcDbEntity
 67
     1
  8
0
100
AcDbBlockBegin
  2
*Paper_Space
 70
     0
 10
0.0
 20
0.0
 30
0.0
  3
*Paper_Space
  1

  0
ENDBLK
  5
1D
330
1B
100
AcDbEntity
 67
     1
  8
0
100
AcDbBlockEnd
  0
BLOCK
  5
24
330
23
100
AcDbEntity
 67
     1
  8
0
100
AcDbBlockBegin
  2
*Paper_Space0
 70
     0
 10
0.0
 20
0.0
 30
0.0
  3
*Paper_Space0
  1

  0
ENDBLK
  5
25
330
23
100
AcDbEntity
 67
     1
  8
0
100
AcDbBlockEnd
  0
BLOCK
  5
6D
330
69
100
AcDbEntity
  8
0
100
AcDbBlockBegin
  2
_Open30
 70
     0
 10
0.0
 20
0.0
 30
0.0
  3
_Open30
  1

  0
LINE
  5
6A
330
69
100
AcDbEntity
  8
0
  6
ByBlock
 62
     0
370
    -2
100
AcDbLine
 10
-1.0
 20
0.26794919
 30
0.0
 11
0.0
 21
0.0
 31
0.0
  0
LINE
  5
6B
330
69
100
AcDbEntity
  8
0
  6
ByBlock
 62
     0
370
    -2
100
AcDbLine
 10
0.0
 20
0.0
 30
0.0
 11
-1.0
 21
-0.26794919
 31
0.0
  0
LINE
  5
6C
330
69
100
AcDbEntity
  8
0
  6
ByBlock
 62
     0
370
    -2
100
AcDbLine
 10
0.0
 20
0.0
 30
0.0
 11
-1.0
 21
0.0
 31
0.0
  0
ENDBLK
  5
6E
330
69
100
AcDbEntity
  8
0
100
AcDbBlockEnd
  0
BLOCK
  5
76
330
74
100
AcDbEntity
  8
0
100
AcDbBlockBegin
  2
GENAXEH
 70
     0
 10
0.0
 20
0.0
 30
0.0
  3
GENAXEH
  1

  0
LINE
  5
75
330
74
100
AcDbEntity
  8
0
100
AcDbLine
 10
-1.0
 20
0.0
 30
0.0
 11
1.0
 21
0.0
 31
0.0
  0
ENDBLK
  5
77
330
74
100
AcDbEntity
  8
0
100
AcDbBlockEnd
  0
BLOCK
  5
343B
330
3438
100
AcDbEntity
  8
0
100
AcDbBlockBegin
  2
ジュウジマルコネジ
 70
     0
 10
0.0
 20
0.0
 30
0.0
  3
ジュウジマルコネジ
  1

  0
LINE
  5
448B
330
3438
100
AcDbEntity
  8
AM_7 中心線
100
AcDbLine
 10
-3.593824999999923
 20
0.0
 30
0.0
 11
8.321355999999468
 21
0.0
 31
0.0
  0
LINE
  5
448C
330
3438
100
AcDbEntity
  8
AM_4 細線
100
AcDbLine
 10
0.0
 20
-2.499999999999658
 30
0.0
 11
8.0
 21
-2.5
 31
0.0
  0
LINE
  5
448D
330
3438
100
AcDbEntity
  8
AM_7 中心線
100
AcDbLine
 10
-4.867259369782003
 20
0.0
 30
0.0
 11
8.706539767723825
 21
0.0
 31
0.0
  0
LINE
  5
448E
330
3438
100
AcDbEntity
  8
AM_4 細線
100
AcDbLine
 10
0.0
 20
2.499999999999544
 30
0.0
 11
8.0
 21
2.5
 31
0.0
  0
LINE
  5
448F
330
3438
100
AcDbEntity
  8
AM_4 細線
100
AcDbLine
 10
0.0
 20
3.25
 30
0.0
 11
1.0
 21
3.25
 31
0.0
  0
LINE
  5
4490
330
3438
100
AcDbEntity
  8
AM_0 外形線1
100
AcDbLine
 10
0.0
 20
6.5
 30
0.0
 11
1.0
 21
6.5
 31
0.0
  0
LINE
  5
4491
330
3438
100
AcDbEntity
  8
AM_0 外形線1
100
AcDbLine
 10
0.0
 20
-6.5
 30
0.0
 11
0.0
 21
6.5
 31
0.0
  0
ELLIPSE
  5
4492
330
3438
100
AcDbEntity
  8
AM_0 外形線1
100
AcDbEllipse
 10
0.0
 20
0.0
 30
0.0
 11
0.0
 21
5.25
 31
0.0
210
0.0
220
0.0
230
1.0
 40
0.7619047619047619
 41
0.0
 42
3.141592653589792
  0
LINE
  5
4493
330
3438
100
AcDbEntity
  8
AM_0 外形線1
100
AcDbLine
 10
0.0
 20
-6.5
 30
0.0
 11
1.0
 21
-6.5
 31
0.0
  0
LINE
  5
4494
330
3438
100
AcDbEntity
  8
AM_4 細線
100
AcDbLine
 10
0.0
 20
-3.250000000000113
 30
0.0
 11
1.0
 21
-3.250000000000113
 31
0.0
  0
LINE
  5
4495
330
3438
100
AcDbEntity
  8
AM_0 外形線1
100
AcDbLine
 10
8.0
 20
-2.5
 30
0.0
 11
8.0
 21
2.5
 31
0.0
  0
LINE
  5
4496
330
3438
100
AcDbEntity
  8
AM_0 外形線1
100
AcDbLine
 10
7.5
 20
-3.0
 30
0.0
 11
7.5
 21
3.0
 31
0.0
  0
LINE
  5
4497
330
3438
100
AcDbEntity
  8
AM_0 外形線1
100
AcDbLine
 10
7.5
 20
3.0
 30
0.0
 11
8.0
 21
2.5
 31
0.0
  0
LINE
  5
4498
330
3438
100
AcDbEntity
  8
AM_0 外形線1
100
AcDbLine
 10
7.5
 20
-3.0
 30
0.0
 11
8.0
 21
-2.5
 31
0.0
  0
LINE
  5
44BE
330
3438
100
AcDbEntity
  8
AM_0 外形線1
100
AcDbLine
 10
7.5
 20
3.0
 30
0.0
 11
0.0
 21
2.999999999999886
 31
0.0
  0
LINE
  5
44BF
330
3438
100
AcDbEntity
  8
AM_0 外形線1
100
AcDbLine
 10
0.0
 20
-3.0
 30
0.0
 11
7.5
 21
-3.0
 31
0.0
  0
LINE
  5
44C0
330
3438
100
AcDbEntity
  8
AM_0 外形線1
100
AcDbLine
 10
1.0
 20
-6.5
 30
0.0
 11
1.0
 21
-3.0
 31
0.0
  0
LINE
  5
44C1
330
3438
100
AcDbEntity
  8
AM_0 外形線1
100
AcDbLine
 10
1.0
 20
2.999999999999886
 30
0.0
 11
1.0
 21
6.5
 31
0.0
  0
ENDBLK
  5
344D
330
3438
100
AcDbEntity
  8
0
100
AcDbBlockEnd
  0
BLOCK
  5
3564
330
3563
100
AcDbEntity
  8
0
100
AcDbBlockBegin
  2
GENDOT
 70
     0
 10
0.0
 20
0.0
 30
0.0
  3
GENDOT
  1

  0
LINE
  5
3565
330
3563
100
AcDbEntity
  8
0
100
AcDbLine
 10
0.0
 20
0.0
 30
0.0
 11
-1.0
 21
0.0
 31
0.0
  0
LWPOLYLINE
  5
3566
330
3563
100
AcDbEntity
  8
0
100
AcDbPolyline
 90
        2
 70
     1
 43
0.25
 10
-0.125
 20
0.0
 42
1.0
 10
0.125
 20
0.0
 42
1.0
  0
ENDBLK
  5
3567
330
3563
100
AcDbEntity
  8
0
100
AcDbBlockEnd
  0
BLOCK
  5
4210
330
420F
100
AcDbEntity
  8
0
100
AcDbBlockBegin
  2
センタＡ SMVH315
 70
     0
 10
0.0
 20
0.0
 30
0.0
  3
センタＡ SMVH315
  1

  0
LINE
  5
4212
330
420F
100
AcDbEntity
  8
AM_0 外形線1
100
AcDbLine
 10
107.7000000000003
 20
-170.0
 30
0.0
 11
-107.6999999999998
 21
-170.0
 31
0.0
  0
LINE
  5
4213
330
420F
100
AcDbEntity
  8
AM_0 外形線1
100
AcDbLine
 10
-112.5
 20
-111.5
 30
0.0
 11
-112.5
 21
-69.0
 31
0.0
  0
LINE
  5
4214
330
420F
100
AcDbEntity
  8
AM_0 外形線1
100
AcDbLine
 10
-111.6999999999998
 20
-166.0
 30
0.0
 11
-111.6999999999998
 21
-113.5
 31
0.0
  0
ARC
  5
4215
330
420F
100
AcDbEntity
  8
AM_0 外形線1
100
AcDbCircle
 10
-107.6999999999998
 20
-166.0
 30
0.0
 40
4.0
100
AcDbArc
 50
180.0
 51
270.0
  0
LINE
  5
4216
330
420F
100
AcDbEntity
  8
AM_0 外形線1
100
AcDbLine
 10
-111.6999999999998
 20
-113.5
 30
0.0
 11
-112.5
 21
-111.5
 31
0.0
  0
LINE
  5
4217
330
420F
100
AcDbEntity
  8
AM_7 中心線
100
AcDbLine
 10
-127.8400000000001
 20
-49.0
 30
0.0
 11
-111.6999999999998
 21
-49.0
 31
0.0
  0
LINE
  5
4218
330
420F
100
AcDbEntity
  8
AM_0 外形線1
100
AcDbLine
 10
-121.9207340000002
 20
-34.0
 30
0.0
 11
-120.7935360000001
 21
-33.0
 31
0.0
  0
ARC
  5
4219
330
420F
100
AcDbEntity
  8
AM_0 外形線1
100
AcDbCircle
 10
0.0
 20
-49.0
 30
0.0
 40
122.84
100
AcDbArc
 50
172.9861039999948
 51
188.6618389999995
  0
LINE
  5
421C
330
420F
100
AcDbEntity
  8
AM_0 外形線1
100
AcDbLine
 10
-120.2823790000002
 20
-68.5
 30
0.0
 11
-121.4389369999999
 21
-67.5
 31
0.0
  0
LINE
  5
421D
330
420F
100
AcDbEntity
  8
AM_0 外形線1
100
AcDbLine
 10
-113.0
 20
-68.5
 30
0.0
 11
-120.2823790000002
 21
-68.5
 31
0.0
  0
ARC
  5
421E
330
420F
100
AcDbEntity
  8
AM_0 外形線1
100
AcDbCircle
 10
-113.0
 20
-69.0
 30
0.0
 40
0.5
100
AcDbArc
 50
0.0
 51
90.0
  0
LINE
  5
421F
330
420F
100
AcDbEntity
  8
AM_0 外形線1
100
AcDbLine
 10
-112.0
 20
-32.5
 30
0.0
 11
-112.0
 21
-1.0
 31
0.0
  0
LINE
  5
4220
330
420F
100
AcDbEntity
  8
AM_0 外形線1
100
AcDbLine
 10
-120.7935360000001
 20
-33.0
 30
0.0
 11
-112.5
 21
-33.0
 31
0.0
  0
ARC
  5
4221
330
420F
100
AcDbEntity
  8
AM_0 外形線1
100
AcDbCircle
 10
-112.5
 20
-32.5
 30
0.0
 40
0.5
100
AcDbArc
 50
270.0
 51
0.0
  0
LINE
  5
4222
330
420F
100
AcDbEntity
  8
AM_0 外形線1
100
AcDbLine
 10
-111.0
 20
0.0
 30
0.0
 11
0.0
 21
0.0
 31
0.0
  0
LINE
  5
4223
330
420F
100
AcDbEntity
  8
AM_0 外形線1
100
AcDbLine
 10
-112.0
 20
-1.0
 30
0.0
 11
-111.0
 21
0.0
 31
0.0
  0
LINE
  5
4224
330
420F
100
AcDbEntity
  8
AM_0 外形線1
100
AcDbLine
 10
111.7000000000002
 20
-113.5
 30
0.0
 11
0.0
 21
-113.5
 31
0.0
  0
LINE
  5
4225
330
420F
100
AcDbEntity
  8
AM_0 外形線1
100
AcDbLine
 10
112.5
 20
-111.5
 30
0.0
 11
0.0
 21
-111.5
 31
0.0
  0
LINE
  5
4226
330
420F
100
AcDbEntity
  8
AM_3 隠れ線
100
AcDbLine
 10
-5.149999999999637
 20
0.0
 30
0.0
 11
-5.149999999999637
 21
-33.0
 31
0.0
  0
LINE
  5
4227
330
420F
100
AcDbEntity
  8
AM_3 隠れ線
100
AcDbLine
 10
-6.0
 20
0.0
 30
0.0
 11
-6.0
 21
-28.0
 31
0.0
  0
LINE
  5
4228
330
420F
100
AcDbEntity
  8
AM_3 隠れ線
100
AcDbLine
 10
-5.149999999999637
 20
-33.0
 30
0.0
 11
0.0
 21
-35.9733530000001
 31
0.0
  0
LINE
  5
4229
330
420F
100
AcDbEntity
  8
AM_3 隠れ線
100
AcDbLine
 10
-5.149999999999637
 20
-33.0
 30
0.0
 11
0.0
 21
-33.0
 31
0.0
  0
LINE
  5
422A
330
420F
100
AcDbEntity
  8
AM_3 隠れ線
100
AcDbLine
 10
-6.0
 20
-28.0
 30
0.0
 11
0.0
 21
-28.0
 31
0.0
  0
LINE
  5
422B
330
420F
100
AcDbEntity
  8
AM_3 隠れ線
100
AcDbLine
 10
-5.149999999999637
 20
-28.49074700000006
 30
0.0
 11
0.0
 21
-28.49074700000006
 31
0.0
  0
LINE
  5
422C
330
420F
100
AcDbEntity
  8
AM_3 隠れ線
100
AcDbLine
 10
-6.0
 20
-28.0
 30
0.0
 11
-5.149999999999637
 21
-28.49074700000006
 31
0.0
  0
LINE
  5
422D
330
420F
100
AcDbEntity
  8
AM_0 外形線1
100
AcDbLine
 10
112.5
 20
-90.0
 30
0.0
 11
112.5
 21
-111.5
 31
0.0
  0
LINE
  5
422E
330
420F
100
AcDbEntity
  8
AM_0 外形線1
100
AcDbLine
 10
111.7000000000002
 20
-113.5
 30
0.0
 11
111.7000000000002
 21
-166.0
 31
0.0
  0
ARC
  5
422F
330
420F
100
AcDbEntity
  8
AM_0 外形線1
100
AcDbCircle
 10
107.7000000000003
 20
-166.0
 30
0.0
 40
4.0
100
AcDbArc
 50
270.0
 51
0.0
  0
LINE
  5
4230
330
420F
100
AcDbEntity
  8
AM_0 外形線1
100
AcDbLine
 10
112.5
 20
-111.5
 30
0.0
 11
111.7000000000002
 21
-113.5
 31
0.0
  0
LINE
  5
4231
330
420F
100
AcDbEntity
  8
AM_0 外形線1
100
AcDbLine
 10
-57.82732917920373
 20
-170.0
 30
0.0
 11
-57.82732917920384
 21
0.0
 31
0.0
  0
ARC
  5
5A17
330
420F
100
AcDbEntity
  8
AM_0 外形線1
100
AcDbCircle
 10
0.0000000000003411
 20
-49.0
 30
0.0
 40
116.6999999999999
100
AcDbArc
 50
172.1197165732015
 51
189.6189656828068
  0
ARC
  5
5A36
330
420F
100
AcDbEntity
  8
AM_7 中心線
100
AcDbCircle
 10
0.0000000000003411
 20
-49.0
 30
0.0
 40
120.0000000000003
100
AcDbArc
 50
171.4493137785557
 51
192.0246991805676
  0
ENDBLK
  5
4211
330
420F
100
AcDbEntity
  8
0
100
AcDbBlockEnd
  0
BLOCK
  5
4300
330
42FF
100
AcDbEntity
  8
0
100
AcDbBlockBegin
  2
ケースＡ SMVH315
 70
     0
 10
0.0
 20
0.0
 30
0.0
  3
ケースＡ SMVH315
  1

  0
LINE
  5
4302
330
42FF
100
AcDbEntity
  8
AM_4 細線
100
AcDbLine
 10
-148.0999999999999
 20
-5.215249999999969
 30
0.0
 11
-148.0999999999999
 21
-17.78475000000003
 31
0.0
  0
LINE
  5
4303
330
42FF
100
AcDbEntity
  8
AM_0 外形線1
100
AcDbLine
 10
-123.5
 20
-36.0
 30
0.0
 11
-123.5
 21
0.0
 31
0.0
  0
LINE
  5
4304
330
42FF
100
AcDbEntity
  8
AM_0 外形線1
100
AcDbLine
 10
-157.5
 20
-1.0
 30
0.0
 11
-157.5
 21
-20.0
 31
0.0
  0
LINE
  5
4305
330
42FF
100
AcDbEntity
  8
AM_7 中心線
100
AcDbLine
 10
-119.5185759999999
 20
-11.5
 30
0.0
 11
-161.1839760000002
 21
-11.5
 31
0.0
  0
LINE
  5
4306
330
42FF
100
AcDbEntity
  8
AM_0 外形線1
100
AcDbLine
 10
-120.8606579999996
 20
-76.0
 30
0.0
 11
-122.5
 21
-76.0
 31
0.0
  0
LINE
  5
4307
330
42FF
100
AcDbEntity
  8
AM_0 外形線1
100
AcDbLine
 10
-118.5999999999999
 20
-37.0
 30
0.0
 11
-122.5
 21
-37.0
 31
0.0
  0
LINE
  5
4308
330
42FF
100
AcDbEntity
  8
AM_0 外形線1
100
AcDbLine
 10
-112.5
 20
-82.0
 30
0.0
 11
-122.5
 21
-82.0
 31
0.0
  0
LINE
  5
4309
330
42FF
100
AcDbEntity
  8
AM_0 外形線1
100
AcDbLine
 10
-126.0
 20
-98.0
 30
0.0
 11
-112.5
 21
-98.0
 31
0.0
  0
LINE
  5
430A
330
42FF
100
AcDbEntity
  8
AM_0 外形線1
100
AcDbLine
 10
-130.0
 20
-25.0
 30
0.0
 11
-130.0
 21
-94.0
 31
0.0
  0
LINE
  5
430B
330
42FF
100
AcDbEntity
  8
AM_0 外形線1
100
AcDbLine
 10
-123.0
 20
-36.86602500000004
 30
0.0
 11
-123.0
 21
-76.13397400000008
 31
0.0
  0
LINE
  5
430C
330
42FF
100
AcDbEntity
  8
AM_0 外形線1
100
AcDbLine
 10
-123.5
 20
-81.0
 30
0.0
 11
-123.5
 21
-77.0
 31
0.0
  0
ARC
  5
430D
330
42FF
100
AcDbEntity
  8
AM_0 外形線1
100
AcDbCircle
 10
-122.5
 20
-81.0
 30
0.0
 40
1.0
100
AcDbArc
 50
180.0
 51
270.0
  0
ARC
  5
430E
330
42FF
100
AcDbEntity
  8
AM_0 外形線1
100
AcDbCircle
 10
-126.0
 20
-94.0
 30
0.0
 40
4.0
100
AcDbArc
 50
180.0
 51
270.0
  0
ARC
  5
430F
330
42FF
100
AcDbEntity
  8
AM_0 外形線1
100
AcDbCircle
 10
-122.5
 20
-77.0
 30
0.0
 40
1.0
100
AcDbArc
 50
90.0
 51
180.0
  0
LINE
  5
4310
330
42FF
100
AcDbEntity
  8
AM_4 細線
100
AcDbLine
 10
-148.0999999999999
 20
-17.78475000000003
 30
0.0
 11
-157.5
 21
-18.07850000000007
 31
0.0
  0
LINE
  5
4311
330
42FF
100
AcDbEntity
  8
AM_0 外形線1
100
AcDbLine
 10
-148.0999999999999
 20
-17.25
 30
0.0
 11
-157.5
 21
-17.54375000000004
 31
0.0
  0
LINE
  5
4312
330
42FF
100
AcDbEntity
  8
AM_0 外形線1
100
AcDbLine
 10
-156.5
 20
-21.0
 30
0.0
 11
-134.0
 21
-21.0
 31
0.0
  0
LINE
  5
4313
330
42FF
100
AcDbEntity
  8
AM_0 外形線1
100
AcDbLine
 10
-157.5
 20
-20.0
 30
0.0
 11
-156.5
 21
-21.0
 31
0.0
  0
ARC
  5
4314
330
42FF
100
AcDbEntity
  8
AM_0 外形線1
100
AcDbCircle
 10
-122.5
 20
-36.0
 30
0.0
 40
1.0
100
AcDbArc
 50
180.0
 51
270.0
  0
LINE
  5
4315
330
42FF
100
AcDbEntity
  8
AM_0 外形線1
100
AcDbLine
 10
-123.5
 20
-17.25
 30
0.0
 11
-148.0999999999999
 21
-17.25
 31
0.0
  0
ARC
  5
4316
330
42FF
100
AcDbEntity
  8
AM_0 外形線1
100
AcDbCircle
 10
-134.0
 20
-25.0
 30
0.0
 40
4.0
100
AcDbArc
 50
0.0
 51
90.0
  0
LINE
  5
4317
330
42FF
100
AcDbEntity
  8
AM_3 隠れ線
100
AcDbLine
 10
-117.5999999999999
 20
-41.0
 30
0.0
 11
-117.5999999999999
 21
-75.0
 31
0.0
  0
LINE
  5
4318
330
42FF
100
AcDbEntity
  8
AM_7 中心線
100
AcDbLine
 10
-120.0
 20
-35.60281400000008
 30
0.0
 11
-120.0
 21
-77.93747900000005
 31
0.0
  0
LWPOLYLINE
  5
4319
330
42FF
100
AcDbEntity
  8
AM_0 外形線1
100
AcDbPolyline
 90
       73
 70
     0
 43
0.0
 10
-115.9499999999998
 20
-84.4000000000001
 10
-116.2506869999997
 20
-84.42130900000007
 10
-116.549086
 20
-84.48507599999993
 10
-116.8429249999999
 20
-84.59081500000001
 10
-117.1299690000001
 20
-84.73772099999996
 10
-117.4080329999997
 20
-84.9246760000001
 10
-117.6750000000001
 20
-85.150257
 10
-117.9288379999998
 20
-85.41274799999994
 10
-118.167617
 20
-85.710151
 10
-118.3895179999999
 20
-86.04020200000002
 10
-118.5928530000001
 20
-86.40038900000002
 10
-118.7760739999998
 20
-86.78797200000008
 10
-118.9377869999998
 20
-87.20000000000004
 10
-119.0767610000002
 20
-87.63333699999998
 10
-119.1919390000002
 20
-88.08468700000004
 10
-119.2824439999999
 20
-88.550613
 10
-119.3475859999998
 20
-89.02756999999997
 10
-119.3868709999997
 20
-89.51192700000001
 10
-119.3999999999996
 20
-90.0
 10
-119.3868709999997
 20
-90.48807200000013
 10
-119.3475859999998
 20
-90.97242900000003
 10
-119.2824439999999
 20
-91.44938600000001
 10
-119.1919390000002
 20
-91.91531200000007
 10
-119.0767610000002
 20
-92.366662
 10
-118.9377869999998
 20
-92.79999999999997
 10
-118.7760739999998
 20
-93.21202800000003
 10
-118.5928530000001
 20
-93.59960999999998
 10
-118.3895179999999
 20
-93.95979800000008
 10
-118.167617
 20
-94.289848
 10
-117.9288379999998
 20
-94.58725099999993
 10
-117.6750000000001
 20
-94.84974200000008
 10
-117.4080329999997
 20
-95.07532300000002
 10
-117.1299690000001
 20
-95.26227800000004
 10
-116.8429249999999
 20
-95.40918400000007
 10
-116.549086
 20
-95.51492299999997
 10
-116.2506869999997
 20
-95.57869000000003
 10
-115.9499999999998
 20
-95.60000000000002
 10
-115.649312
 20
-95.57869000000003
 10
-115.3509130000002
 20
-95.51492299999997
 10
-115.0570739999998
 20
-95.40918400000007
 10
-114.7700299999997
 20
-95.26227800000004
 10
-114.4919669999999
 20
-95.07532300000002
 10
-114.2249999999999
 20
-94.84974200000008
 10
-113.9711609999999
 20
-94.58725099999993
 10
-113.7323820000001
 20
-94.289848
 10
-113.5104810000002
 20
-93.95979800000008
 10
-113.3071460000001
 20
-93.59960999999998
 10
-113.1239249999999
 20
-93.21202800000003
 10
-112.9622119999999
 20
-92.79999999999997
 10
-112.8232379999999
 20
-92.366662
 10
-112.7080599999999
 20
-91.91531200000007
 10
-112.6175549999998
 20
-91.44938600000001
 10
-112.5524129999999
 20
-90.97242900000003
 10
-112.513128
 20
-90.48807200000013
 10
-112.5
 20
-90.0
 10
-112.513128
 20
-89.51192700000001
 10
-112.5524129999999
 20
-89.02756999999997
 10
-112.6175549999998
 20
-88.550613
 10
-112.7080599999999
 20
-88.08468700000004
 10
-112.8232379999999
 20
-87.63333699999998
 10
-112.9622119999999
 20
-87.20000000000004
 10
-113.1239249999999
 20
-86.78797200000008
 10
-113.3071460000001
 20
-86.40038900000002
 10
-113.5104810000002
 20
-86.04020200000002
 10
-113.7323820000001
 20
-85.710151
 10
-113.9711609999999
 20
-85.41274799999994
 10
-114.2249999999999
 20
-85.150257
 10
-114.4919669999999
 20
-84.9246760000001
 10
-114.7700299999997
 20
-84.73772099999996
 10
-115.0570739999998
 20
-84.59081500000001
 10
-115.3509130000002
 20
-84.48507599999993
 10
-115.649312
 20
-84.42130900000007
 10
-115.9499999999998
 20
-84.4000000000001
  0
LINE
  5
431A
330
42FF
100
AcDbEntity
  8
AM_0 外形線1
100
AcDbLine
 10
-114.0
 20
-84.4000000000001
 30
0.0
 11
-114.0
 21
-82.0
 31
0.0
  0
LINE
  5
431B
330
42FF
100
AcDbEntity
  8
AM_0 外形線1
100
AcDbLine
 10
-118.8999999999996
 20
-84.4000000000001
 30
0.0
 11
-112.5
 21
-84.4000000000001
 31
0.0
  0
ARC
  5
431C
330
42FF
100
AcDbEntity
  8
AM_0 外形線1
100
AcDbCircle
 10
-118.8999999999996
 20
-84.90000000000009
 30
0.0
 40
0.5
100
AcDbArc
 50
90.0
 51
180.0
  0
LINE
  5
431D
330
42FF
100
AcDbEntity
  8
AM_0 外形線1
100
AcDbLine
 10
-119.3999999999996
 20
-95.10000000000003
 30
0.0
 11
-119.3999999999996
 21
-84.90000000000009
 31
0.0
  0
ARC
  5
431E
330
42FF
100
AcDbEntity
  8
AM_0 外形線1
100
AcDbCircle
 10
-118.8999999999996
 20
-95.10000000000003
 30
0.0
 40
0.5
100
AcDbArc
 50
180.0
 51
270.0
  0
LINE
  5
431F
330
42FF
100
AcDbEntity
  8
AM_0 外形線1
100
AcDbLine
 10
-112.5
 20
-95.60000000000002
 30
0.0
 11
-118.8999999999996
 21
-95.60000000000002
 31
0.0
  0
LINE
  5
4320
330
42FF
100
AcDbEntity
  8
AM_0 外形線1
100
AcDbLine
 10
-114.0
 20
-98.0
 30
0.0
 11
-114.0
 21
-95.60000000000002
 31
0.0
  0
LINE
  5
4321
330
42FF
100
AcDbEntity
  8
AM_3 隠れ線
100
AcDbLine
 10
-118.5999999999999
 20
-76.0
 30
0.0
 11
-117.5999999999999
 21
-75.0
 31
0.0
  0
LINE
  5
4322
330
42FF
100
AcDbEntity
  8
AM_3 隠れ線
100
AcDbLine
 10
-120.8606579999996
 20
-76.0
 30
0.0
 11
-118.5999999999999
 21
-76.0
 31
0.0
  0
LINE
  5
4323
330
42FF
100
AcDbEntity
  8
AM_0 外形線1
100
AcDbLine
 10
-117.5999999999999
 20
-38.0
 30
0.0
 11
-118.5999999999999
 21
-37.0
 31
0.0
  0
LINE
  5
4324
330
42FF
100
AcDbEntity
  8
AM_0 外形線1
100
AcDbLine
 10
-117.5999999999999
 20
-41.0
 30
0.0
 11
-117.5999999999999
 21
-38.0
 31
0.0
  0
LINE
  5
4325
330
42FF
100
AcDbEntity
  8
AM_4 細線
100
AcDbLine
 10
-148.0999999999999
 20
-5.215249999999969
 30
0.0
 11
-157.5
 21
-4.921500000000037
 31
0.0
  0
LINE
  5
4326
330
42FF
100
AcDbEntity
  8
AM_0 外形線1
100
AcDbLine
 10
-148.0999999999999
 20
-5.75
 30
0.0
 11
-157.5
 21
-5.456249999999953
 31
0.0
  0
LINE
  5
4327
330
42FF
100
AcDbEntity
  8
AM_0 外形線1
100
AcDbLine
 10
-156.5
 20
0.0
 30
0.0
 11
-157.5
 21
-1.0
 31
0.0
  0
LINE
  5
4328
330
42FF
100
AcDbEntity
  8
AM_0 外形線1
100
AcDbLine
 10
-123.5
 20
-5.75
 30
0.0
 11
-148.0999999999999
 21
-5.75
 31
0.0
  0
LINE
  5
4329
330
42FF
100
AcDbEntity
  8
AM_0 外形線1
100
AcDbLine
 10
-129.5
 20
0.0
 30
0.0
 11
-129.5
 21
-2.200000000000045
 31
0.0
  0
LWPOLYLINE
  5
432A
330
42FF
100
AcDbEntity
  8
AM_0 外形線1
100
AcDbPolyline
 90
       73
 70
     0
 43
0.0
 10
-129.5
 20
-1.350000000000022
 10
-129.5083709999999
 20
-1.232339000000024
 10
-129.5334219999999
 20
-1.115575000000034
 10
-129.574963
 20
-1.00059400000009
 10
-129.6326760000001
 20
-0.888272000000029
 10
-129.706122
 20
-0.7794650000000729
 10
-129.7947439999997
 20
-0.6749999999999547
 10
-129.8978649999999
 20
-0.5756710000000567
 10
-130.0147019999999
 20
-0.4822360000000572
 10
-130.1443650000001
 20
-0.3954049999999825
 10
-130.2858669999996
 20
-0.3158399999999801
 10
-130.4381309999999
 20
-0.2441440000000057
 10
-130.5999999999999
 20
-0.1808650000000398
 10
-130.7702389999999
 20
-0.1264840000000049
 10
-130.9475549999997
 20
-0.0814150000001064
 10
-131.1305979999997
 20
-0.0460000000000491
 10
-131.3179739999996
 20
-0.0205089999999473
 10
-131.5082569999999
 20
-0.0051370000001043
 10
-131.6999999999998
 20
0.0
 10
-131.8917419999998
 20
-0.0051370000001043
 10
-132.0820249999997
 20
-0.0205089999999473
 10
-132.269401
 20
-0.0460000000000491
 10
-132.452444
 20
-0.0814150000001064
 10
-132.6297599999997
 20
-0.1264840000000049
 10
-132.8000000000002
 20
-0.1808650000000398
 10
-132.9618680000003
 20
-0.2441440000000057
 10
-133.1141319999997
 20
-0.3158399999999801
 10
-133.2556340000001
 20
-0.3954049999999825
 10
-133.3852969999998
 20
-0.4822360000000572
 10
-133.5021340000003
 20
-0.5756710000000567
 10
-133.6052549999999
 20
-0.6749999999999547
 10
-133.6938769999997
 20
-0.7794650000000729
 10
-133.767323
 20
-0.888272000000029
 10
-133.8250360000001
 20
-1.00059400000009
 10
-133.8665769999997
 20
-1.115575000000034
 10
-133.8916280000003
 20
-1.232339000000024
 10
-133.8999999999996
 20
-1.350000000000022
 10
-133.8916280000003
 20
-1.467660000000023
 10
-133.8665769999997
 20
-1.58442500000001
 10
-133.8250360000001
 20
-1.699405000000069
 10
-133.767323
 20
-1.811727000000018
 10
-133.6938769999997
 20
-1.920534000000088
 10
-133.6052549999999
 20
-2.02500000000009
 10
-133.5021340000003
 20
-2.12432799999999
 10
-133.3852969999998
 20
-2.217763000000104
 10
-133.2556340000001
 20
-2.30459399999995
 10
-133.1141319999997
 20
-2.384160000000064
 10
-132.9618680000003
 20
-2.455854999999928
 10
-132.8000000000002
 20
-2.519134000000008
 10
-132.6297599999997
 20
-2.573515000000043
 10
-132.452444
 20
-2.618585000000051
 10
-132.269401
 20
-2.653999000000111
 10
-132.0820249999997
 20
-2.679489999999987
 10
-131.8917419999998
 20
-2.694862000000056
 10
-131.6999999999998
 20
-2.700000000000044
 10
-131.5082569999999
 20
-2.694862000000056
 10
-131.3179739999996
 20
-2.679489999999987
 10
-131.1305979999997
 20
-2.653999000000111
 10
-130.9475549999997
 20
-2.618585000000051
 10
-130.7702389999999
 20
-2.573515000000043
 10
-130.5999999999999
 20
-2.519134000000008
 10
-130.4381309999999
 20
-2.455854999999928
 10
-130.2858669999996
 20
-2.384160000000064
 10
-130.1443650000001
 20
-2.30459399999995
 10
-130.0147019999999
 20
-2.217763000000104
 10
-129.8978649999999
 20
-2.12432799999999
 10
-129.7947439999997
 20
-2.02500000000009
 10
-129.706122
 20
-1.920534000000088
 10
-129.6326760000001
 20
-1.811727000000018
 10
-129.574963
 20
-1.699405000000069
 10
-129.5334219999999
 20
-1.58442500000001
 10
-129.5083709999999
 20
-1.467660000000023
 10
-129.5
 20
-1.350000000000022
  0
LINE
  5
432B
330
42FF
100
AcDbEntity
  8
AM_0 外形線1
100
AcDbLine
 10
-133.8999999999996
 20
-2.200000000000045
 30
0.0
 11
-133.8999999999996
 21
0.0
 31
0.0
  0
ARC
  5
432C
330
42FF
100
AcDbEntity
  8
AM_0 外形線1
100
AcDbCircle
 10
-133.3999999999996
 20
-2.200000000000045
 30
0.0
 40
0.5
100
AcDbArc
 50
180.0
 51
270.0
  0
LINE
  5
432D
330
42FF
100
AcDbEntity
  8
AM_0 外形線1
100
AcDbLine
 10
-130.0
 20
-2.700000000000044
 30
0.0
 11
-133.3999999999996
 21
-2.700000000000044
 31
0.0
  0
ARC
  5
432E
330
42FF
100
AcDbEntity
  8
AM_0 外形線1
100
AcDbCircle
 10
-130.0
 20
-2.200000000000045
 30
0.0
 40
0.5
100
AcDbArc
 50
270.0
 51
0.0
  0
LINE
  5
432F
330
42FF
100
AcDbEntity
  8
AM_7 中心線
100
AcDbLine
 10
145.5
 20
-32.36291900000003
 30
0.0
 11
145.5
 21
42.33936999999992
 31
0.0
  0
LINE
  5
4330
330
42FF
100
AcDbEntity
  8
AM_0 外形線1
100
AcDbLine
 10
157.5
 20
-1.0
 30
0.0
 11
157.5
 21
-20.0
 31
0.0
  0
LINE
  5
4331
330
42FF
100
AcDbEntity
  8
AM_0 外形線1
100
AcDbLine
 10
126.0
 20
-98.0
 30
0.0
 11
0.0
 21
-98.0
 31
0.0
  0
LINE
  5
4332
330
42FF
100
AcDbEntity
  8
AM_0 外形線1
100
AcDbLine
 10
156.5
 20
-21.0
 30
0.0
 11
0.0
 21
-21.0
 31
0.0
  0
LINE
  5
4333
330
42FF
100
AcDbEntity
  8
AM_0 外形線1
100
AcDbLine
 10
157.5
 20
-20.0
 30
0.0
 11
156.5
 21
-21.0
 31
0.0
  0
LINE
  5
4334
330
42FF
100
AcDbEntity
  8
AM_0 外形線1
100
AcDbLine
 10
130.0
 20
-25.0
 30
0.0
 11
130.0
 21
-94.0
 31
0.0
  0
ARC
  5
4335
330
42FF
100
AcDbEntity
  8
AM_0 外形線1
100
AcDbCircle
 10
126.0
 20
-94.0
 30
0.0
 40
4.0
100
AcDbArc
 50
270.0
 51
0.0
  0
ARC
  5
4336
330
42FF
100
AcDbEntity
  8
AM_0 外形線1
100
AcDbCircle
 10
134.0
 20
-25.0
 30
0.0
 40
4.0
100
AcDbArc
 50
90.0
 51
180.0
  0
LINE
  5
4337
330
42FF
100
AcDbEntity
  8
AM_0 外形線1
100
AcDbLine
 10
0.0
 20
0.0
 30
0.0
 11
156.5
 21
0.0
 31
0.0
  0
LINE
  5
4338
330
42FF
100
AcDbEntity
  8
AM_0 外形線1
100
AcDbLine
 10
156.5
 20
0.0
 30
0.0
 11
157.5
 21
-1.0
 31
0.0
  0
LINE
  5
43B4
330
42FF
100
AcDbEntity
  8
AM_0 外形線1
100
AcDbLine
 10
-156.5
 20
0.0
 30
0.0
 11
-133.8999999999996
 21
0.0
 31
0.0
  0
LINE
  5
43B5
330
42FF
100
AcDbEntity
  8
AM_0 外形線1
100
AcDbLine
 10
-129.5
 20
0.0
 30
0.0
 11
-123.5
 21
0.0
 31
0.0
  0
ENDBLK
  5
4301
330
42FF
100
AcDbEntity
  8
0
100
AcDbBlockEnd
  0
BLOCK
  5
43F2
330
43F1
100
AcDbEntity
  8
0
100
AcDbBlockBegin
  2
センタB SMVH315
 70
     0
 10
0.0
 20
0.0
 30
0.0
  3
センタB SMVH315
  1

  0
LINE
  5
43F4
330
43F1
100
AcDbEntity
  8
AM_0 外形線1
100
AcDbLine
 10
-111.0
 20
0.0
 30
0.0
 11
0.0
 21
0.0
 31
0.0
  0
LINE
  5
43F5
330
43F1
100
AcDbEntity
  8
AM_0 外形線1
100
AcDbLine
 10
107.7000000000003
 20
170.0
 30
0.0
 11
-107.6999999999998
 21
170.0
 31
0.0
  0
LINE
  5
43F6
330
43F1
100
AcDbEntity
  8
AM_0 外形線1
100
AcDbLine
 10
-112.5
 20
111.5
 30
0.0
 11
-112.5
 21
69.0
 31
0.0
  0
LINE
  5
43F7
330
43F1
100
AcDbEntity
  8
AM_7 中心線
100
AcDbLine
 10
-127.8400000000001
 20
49.0
 30
0.0
 11
-111.6999999999998
 21
49.0
 31
0.0
  0
LINE
  5
43F8
330
43F1
100
AcDbEntity
  8
AM_0 外形線1
100
AcDbLine
 10
-121.9207340000002
 20
34.0
 30
0.0
 11
-120.7935360000001
 21
33.0
 31
0.0
  0
ARC
  5
43F9
330
43F1
100
AcDbEntity
  8
AM_0 外形線1
100
AcDbCircle
 10
0.0
 20
49.0
 30
0.0
 40
122.84
100
AcDbArc
 50
171.3381610000005
 51
187.0138960000051
  0
LINE
  5
43FA
330
43F1
100
AcDbEntity
  8
AM_0 外形線1
100
AcDbLine
 10
-112.0
 20
32.5
 30
0.0
 11
-112.0
 21
1.0
 31
0.0
  0
LINE
  5
43FC
330
43F1
100
AcDbEntity
  8
AM_0 外形線1
100
AcDbLine
 10
-112.0
 20
1.0
 30
0.0
 11
-111.0
 21
0.0
 31
0.0
  0
ARC
  5
43FE
330
43F1
100
AcDbEntity
  8
AM_0 外形線1
100
AcDbCircle
 10
-112.5
 20
32.5
 30
0.0
 40
0.5
100
AcDbArc
 50
0.0
 51
90.0
  0
LINE
  5
43FF
330
43F1
100
AcDbEntity
  8
AM_0 外形線1
100
AcDbLine
 10
-120.7935360000001
 20
33.0
 30
0.0
 11
-112.5
 21
33.0
 31
0.0
  0
LINE
  5
4400
330
43F1
100
AcDbEntity
  8
AM_0 外形線1
100
AcDbLine
 10
-120.2823790000002
 20
68.5
 30
0.0
 11
-121.4389369999999
 21
67.5
 31
0.0
  0
LINE
  5
4401
330
43F1
100
AcDbEntity
  8
AM_0 外形線1
100
AcDbLine
 10
-113.0
 20
68.5
 30
0.0
 11
-120.2823790000002
 21
68.5
 31
0.0
  0
ARC
  5
4402
330
43F1
100
AcDbEntity
  8
AM_0 外形線1
100
AcDbCircle
 10
-113.0
 20
69.0
 30
0.0
 40
0.5
100
AcDbArc
 50
270.0
 51
0.0
  0
LINE
  5
4403
330
43F1
100
AcDbEntity
  8
AM_0 外形線1
100
AcDbLine
 10
-111.6999999999998
 20
166.0
 30
0.0
 11
-111.6999999999998
 21
113.5
 31
0.0
  0
LINE
  5
4404
330
43F1
100
AcDbEntity
  8
AM_0 外形線1
100
AcDbLine
 10
-111.6999999999998
 20
113.5
 30
0.0
 11
-112.5
 21
111.5
 31
0.0
  0
ARC
  5
4405
330
43F1
100
AcDbEntity
  8
AM_0 外形線1
100
AcDbCircle
 10
-107.6999999999998
 20
166.0
 30
0.0
 40
4.0
100
AcDbArc
 50
90.0
 51
180.0
  0
LINE
  5
4406
330
43F1
100
AcDbEntity
  8
AM_0 外形線1
100
AcDbLine
 10
111.7000000000002
 20
113.5
 30
0.0
 11
0.0
 21
113.5
 31
0.0
  0
LINE
  5
4407
330
43F1
100
AcDbEntity
  8
AM_0 外形線1
100
AcDbLine
 10
112.5
 20
111.5
 30
0.0
 11
0.0
 21
111.5
 31
0.0
  0
LINE
  5
4408
330
43F1
100
AcDbEntity
  8
AM_3 隠れ線
100
AcDbLine
 10
-5.149999999999637
 20
0.0
 30
0.0
 11
-5.149999999999637
 21
33.0
 31
0.0
  0
LINE
  5
4409
330
43F1
100
AcDbEntity
  8
AM_3 隠れ線
100
AcDbLine
 10
-6.0
 20
0.0
 30
0.0
 11
-6.0
 21
28.0
 31
0.0
  0
LINE
  5
440A
330
43F1
100
AcDbEntity
  8
AM_3 隠れ線
100
AcDbLine
 10
-6.0
 20
28.0
 30
0.0
 11
-5.149999999999637
 21
28.49074799999995
 31
0.0
  0
LINE
  5
440B
330
43F1
100
AcDbEntity
  8
AM_3 隠れ線
100
AcDbLine
 10
-6.0
 20
28.0
 30
0.0
 11
0.0
 21
28.0
 31
0.0
  0
LINE
  5
440C
330
43F1
100
AcDbEntity
  8
AM_3 隠れ線
100
AcDbLine
 10
-5.149999999999637
 20
28.49074799999995
 30
0.0
 11
0.0
 21
28.49074799999995
 31
0.0
  0
LINE
  5
440D
330
43F1
100
AcDbEntity
  8
AM_3 隠れ線
100
AcDbLine
 10
-5.149999999999637
 20
33.0
 30
0.0
 11
0.0
 21
35.97335399999997
 31
0.0
  0
LINE
  5
440E
330
43F1
100
AcDbEntity
  8
AM_3 隠れ線
100
AcDbLine
 10
-5.149999999999637
 20
33.0
 30
0.0
 11
0.0
 21
33.0
 31
0.0
  0
LINE
  5
440F
330
43F1
100
AcDbEntity
  8
AM_0 外形線1
100
AcDbLine
 10
111.7000000000002
 20
113.5
 30
0.0
 11
111.7000000000002
 21
166.0
 31
0.0
  0
LINE
  5
4410
330
43F1
100
AcDbEntity
  8
AM_0 外形線1
100
AcDbLine
 10
112.5
 20
90.0
 30
0.0
 11
112.5
 21
111.5
 31
0.0
  0
LINE
  5
4411
330
43F1
100
AcDbEntity
  8
AM_0 外形線1
100
AcDbLine
 10
112.5
 20
111.5
 30
0.0
 11
111.7000000000002
 21
113.5
 31
0.0
  0
ARC
  5
4412
330
43F1
100
AcDbEntity
  8
AM_0 外形線1
100
AcDbCircle
 10
107.7000000000003
 20
166.0
 30
0.0
 40
4.0
100
AcDbArc
 50
0.0
 51
90.0
  0
LINE
  5
4416
330
43F1
100
AcDbEntity
  8
AM_0 外形線1
100
AcDbLine
 10
-62.99999999999966
 20
170.0
 30
0.0
 11
-63.0
 21
0.0
 31
0.0
  0
ENDBLK
  5
43F3
330
43F1
100
AcDbEntity
  8
0
100
AcDbBlockEnd
  0
BLOCK
  5
4553
330
4552
100
AcDbEntity
  8
0
100
AcDbBlockBegin
  2
ケースＢ SMVH315
 70
     0
 10
0.0
 20
0.0
 30
0.0
  3
ケースＢ SMVH315
  1

  0
LINE
  5
4555
330
4552
100
AcDbEntity
  8
AM_0 外形線1
100
AcDbLine
 10
-130.0000000000002
 20
85.5
 30
0.0
 11
-130.0000000000002
 21
94.0
 31
0.0
  0
LWPOLYLINE
  5
4556
330
4552
100
AcDbEntity
  8
AM_0 外形線1
100
AcDbPolyline
 90
       73
 70
     0
 43
0.0
 10
-115.95
 20
84.39999999999997
 10
-115.6493120000002
 20
84.42130999999994
 10
-115.3509130000004
 20
84.48507699999993
 10
-115.057074
 20
84.5908159999999
 10
-114.7700299999999
 20
84.73772199999997
 10
-114.4919670000001
 20
84.92467699999997
 10
-114.2250000000001
 20
85.15025799999989
 10
-113.9711610000001
 20
85.41274900000008
 10
-113.7323820000003
 20
85.71015199999989
 10
-113.5104810000004
 20
86.04020199999991
 10
-113.3071460000003
 20
86.40039000000001
 10
-113.1239250000001
 20
86.78797199999996
 10
-112.9622120000001
 20
87.20000000000004
 10
-112.8232380000002
 20
87.63333799999998
 10
-112.7080600000001
 20
88.08468799999991
 10
-112.617555
 20
88.550614
 10
-112.5524130000001
 20
89.02757099999996
 10
-112.5131280000003
 20
89.51192800000002
 10
-112.5000000000002
 20
90.0
 10
-112.5131280000003
 20
90.48807299999998
 10
-112.5524130000001
 20
90.97243000000004
 10
-112.617555
 20
91.449387
 10
-112.7080600000001
 20
91.91531299999995
 10
-112.8232380000002
 20
92.36666300000001
 10
-112.9622120000001
 20
92.79999999999997
 10
-113.1239250000001
 20
93.21202799999992
 10
-113.3071460000003
 20
93.59961099999997
 10
-113.5104810000004
 20
93.95979800000008
 10
-113.7323820000003
 20
94.28984900000001
 10
-113.9711610000001
 20
94.58725199999992
 10
-114.2250000000001
 20
94.84974300000001
 10
-114.4919670000001
 20
95.07532399999993
 10
-114.7700299999999
 20
95.26227900000003
 10
-115.057074
 20
95.40918499999998
 10
-115.3509130000004
 20
95.51492400000006
 10
-115.6493120000002
 20
95.57869099999996
 10
-115.95
 20
95.59999999999993
 10
-116.2506869999999
 20
95.57869099999996
 10
-116.5490860000002
 20
95.51492400000006
 10
-116.8429250000001
 20
95.40918499999998
 10
-117.1299690000003
 20
95.26227900000003
 10
-117.4080329999999
 20
95.07532399999993
 10
-117.6750000000004
 20
94.84974300000001
 10
-117.928838
 20
94.58725199999992
 10
-118.1676170000003
 20
94.28984900000001
 10
-118.3895180000002
 20
93.95979800000008
 10
-118.5928530000003
 20
93.59961099999997
 10
-118.7760740000001
 20
93.21202799999992
 10
-118.9377870000001
 20
92.79999999999997
 10
-119.0767610000005
 20
92.36666300000001
 10
-119.1919390000005
 20
91.91531299999995
 10
-119.2824440000001
 20
91.449387
 10
-119.3475860000001
 20
90.97243000000004
 10
-119.3868709999999
 20
90.48807299999998
 10
-119.3999999999998
 20
90.0
 10
-119.3868709999999
 20
89.51192800000002
 10
-119.3475860000001
 20
89.02757099999996
 10
-119.2824440000001
 20
88.550614
 10
-119.1919390000005
 20
88.08468799999991
 10
-119.0767610000005
 20
87.63333799999998
 10
-118.9377870000001
 20
87.20000000000004
 10
-118.7760740000001
 20
86.78797199999996
 10
-118.5928530000003
 20
86.40039000000001
 10
-118.3895180000002
 20
86.04020199999991
 10
-118.1676170000003
 20
85.71015199999989
 10
-117.928838
 20
85.41274900000008
 10
-117.6750000000004
 20
85.15025799999989
 10
-117.4080329999999
 20
84.92467699999997
 10
-117.1299690000003
 20
84.73772199999997
 10
-116.8429250000001
 20
84.5908159999999
 10
-116.5490860000002
 20
84.48507699999993
 10
-116.2506869999999
 20
84.42130999999994
 10
-115.95
 20
84.39999999999997
  0
LINE
  5
4557
330
4552
100
AcDbEntity
  8
AM_0 外形線1
100
AcDbLine
 10
-119.3999999999998
 20
95.0999999999999
 30
0.0
 11
-119.3999999999998
 21
84.89999999999998
 31
0.0
  0
LINE
  5
4558
330
4552
100
AcDbEntity
  8
AM_7 中心線
100
AcDbLine
 10
-120.2115850000002
 20
11.5
 30
0.0
 11
-160.7243270000001
 21
11.5
 31
0.0
  0
LINE
  5
4559
330
4552
100
AcDbEntity
  8
AM_0 外形線1
100
AcDbLine
 10
-120.8606579999998
 20
76.0
 30
0.0
 11
-122.5000000000002
 21
76.0
 31
0.0
  0
LINE
  5
455A
330
4552
100
AcDbEntity
  8
AM_0 外形線1
100
AcDbLine
 10
-118.6000000000001
 20
37.0
 30
0.0
 11
-122.5000000000002
 21
37.0
 31
0.0
  0
LINE
  5
455B
330
4552
100
AcDbEntity
  8
AM_0 外形線1
100
AcDbLine
 10
-112.5000000000002
 20
82.0
 30
0.0
 11
-122.5000000000002
 21
82.0
 31
0.0
  0
LINE
  5
455C
330
4552
100
AcDbEntity
  8
AM_0 外形線1
100
AcDbLine
 10
-130.0000000000002
 20
25.0
 30
0.0
 11
-130.0000000000002
 21
72.0
 31
0.0
  0
LINE
  5
455D
330
4552
100
AcDbEntity
  8
AM_0 外形線1
100
AcDbLine
 10
-123.0000000000002
 20
36.86602599999993
 30
0.0
 11
-123.0000000000002
 21
76.13397499999995
 31
0.0
  0
LINE
  5
455E
330
4552
100
AcDbEntity
  8
AM_4 細線
100
AcDbLine
 10
-148.1000000000001
 20
5.215249999999969
 30
0.0
 11
-157.5000000000002
 21
4.921499999999922
 31
0.0
  0
LINE
  5
455F
330
4552
100
AcDbEntity
  8
AM_0 外形線1
100
AcDbLine
 10
-148.1000000000001
 20
5.75
 30
0.0
 11
-157.5000000000002
 21
5.456249999999953
 31
0.0
  0
LINE
  5
4560
330
4552
100
AcDbEntity
  8
AM_4 細線
100
AcDbLine
 10
-148.1000000000001
 20
17.78475000000003
 30
0.0
 11
-157.5000000000002
 21
18.07849999999996
 31
0.0
  0
LINE
  5
4561
330
4552
100
AcDbEntity
  8
AM_0 外形線1
100
AcDbLine
 10
-148.1000000000001
 20
17.25
 30
0.0
 11
-157.5000000000002
 21
17.54375000000004
 31
0.0
  0
LINE
  5
4562
330
4552
100
AcDbEntity
  8
AM_0 外形線1
100
AcDbLine
 10
-130.0000000000002
 20
0.0
 30
0.0
 11
-156.5000000000002
 21
0.0
 31
0.0
  0
LINE
  5
4563
330
4552
100
AcDbEntity
  8
AM_0 外形線1
100
AcDbLine
 10
-156.5000000000002
 20
21.0
 30
0.0
 11
-134.0000000000002
 21
21.0
 31
0.0
  0
LINE
  5
4564
330
4552
100
AcDbEntity
  8
AM_0 外形線1
100
AcDbLine
 10
-157.5000000000002
 20
1.0
 30
0.0
 11
-157.5000000000002
 21
20.0
 31
0.0
  0
LINE
  5
4565
330
4552
100
AcDbEntity
  8
AM_0 外形線1
100
AcDbLine
 10
-156.5000000000002
 20
0.0
 30
0.0
 11
-157.5000000000002
 21
1.0
 31
0.0
  0
LINE
  5
4566
330
4552
100
AcDbEntity
  8
AM_0 外形線1
100
AcDbLine
 10
-157.5000000000002
 20
20.0
 30
0.0
 11
-156.5000000000002
 21
21.0
 31
0.0
  0
LINE
  5
4567
330
4552
100
AcDbEntity
  8
AM_4 細線
100
AcDbLine
 10
-148.1000000000001
 20
17.78475000000003
 30
0.0
 11
-148.1000000000001
 21
5.215249999999969
 31
0.0
  0
LINE
  5
4568
330
4552
100
AcDbEntity
  8
AM_0 外形線1
100
AcDbLine
 10
-123.5000000000002
 20
36.0
 30
0.0
 11
-123.5000000000002
 21
5.0
 31
0.0
  0
LINE
  5
4569
330
4552
100
AcDbEntity
  8
AM_0 外形線1
100
AcDbLine
 10
-123.5000000000002
 20
5.75
 30
0.0
 11
-148.1000000000001
 21
5.75
 31
0.0
  0
LINE
  5
456A
330
4552
100
AcDbEntity
  8
AM_0 外形線1
100
AcDbLine
 10
-129.5000000000002
 20
0.5
 30
0.0
 11
-130.0000000000002
 21
0.0
 31
0.0
  0
LINE
  5
456B
330
4552
100
AcDbEntity
  8
AM_0 外形線1
100
AcDbLine
 10
-123.5000000000002
 20
17.25
 30
0.0
 11
-148.1000000000001
 21
17.25
 31
0.0
  0
ARC
  5
456C
330
4552
100
AcDbEntity
  8
AM_0 外形線1
100
AcDbCircle
 10
-122.5000000000002
 20
36.0
 30
0.0
 40
1.0
100
AcDbArc
 50
90.0
 51
180.0
  0
ARC
  5
456D
330
4552
100
AcDbEntity
  8
AM_0 外形線1
100
AcDbCircle
 10
-134.0000000000002
 20
25.0
 30
0.0
 40
4.0
100
AcDbArc
 50
270.0
 51
0.0
  0
ARC
  5
456E
330
4552
100
AcDbEntity
  8
AM_3 隠れ線
100
AcDbCircle
 10
-122.5000000000002
 20
77.0
 30
0.0
 40
1.0
100
AcDbArc
 50
180.0
 51
270.0
  0
LINE
  5
456F
330
4552
100
AcDbEntity
  8
AM_3 隠れ線
100
AcDbLine
 10
-123.5000000000002
 20
81.0
 30
0.0
 11
-123.5000000000002
 21
77.0
 31
0.0
  0
ARC
  5
4570
330
4552
100
AcDbEntity
  8
AM_3 隠れ線
100
AcDbCircle
 10
-122.5000000000002
 20
81.0
 30
0.0
 40
1.0
100
AcDbArc
 50
90.0
 51
180.0
  0
LINE
  5
4571
330
4552
100
AcDbEntity
  8
AM_7 中心線
100
AcDbLine
 10
-120.0000000000002
 20
35.0
 30
0.0
 11
-120.0000000000002
 21
78.0
 31
0.0
  0
LINE
  5
4572
330
4552
100
AcDbEntity
  8
AM_0 外形線1
100
AcDbLine
 10
-117.6000000000001
 20
41.0
 30
0.0
 11
-117.6000000000001
 21
38.0
 31
0.0
  0
LINE
  5
4573
330
4552
100
AcDbEntity
  8
AM_0 外形線1
100
AcDbLine
 10
-117.6000000000001
 20
38.0
 30
0.0
 11
-118.6000000000001
 21
37.0
 31
0.0
  0
LINE
  5
4574
330
4552
100
AcDbEntity
  8
AM_3 隠れ線
100
AcDbLine
 10
-117.6000000000001
 20
41.0
 30
0.0
 11
-117.6000000000001
 21
75.0
 31
0.0
  0
LINE
  5
4575
330
4552
100
AcDbEntity
  8
AM_3 隠れ線
100
AcDbLine
 10
-118.6000000000001
 20
76.0
 30
0.0
 11
-117.6000000000001
 21
75.0
 31
0.0
  0
LINE
  5
4576
330
4552
100
AcDbEntity
  8
AM_3 隠れ線
100
AcDbLine
 10
-120.8606579999998
 20
76.0
 30
0.0
 11
-118.6000000000001
 21
76.0
 31
0.0
  0
LINE
  5
4577
330
4552
100
AcDbEntity
  8
AM_0 外形線1
100
AcDbLine
 10
-114.0000000000002
 20
84.39999999999997
 30
0.0
 11
-114.0000000000002
 21
82.0
 31
0.0
  0
LINE
  5
4578
330
4552
100
AcDbEntity
  8
AM_0 外形線1
100
AcDbLine
 10
-118.8999999999998
 20
84.39999999999997
 30
0.0
 11
-112.5000000000002
 21
84.39999999999997
 31
0.0
  0
ARC
  5
4579
330
4552
100
AcDbEntity
  8
AM_0 外形線1
100
AcDbCircle
 10
-118.8999999999998
 20
84.89999999999998
 30
0.0
 40
0.5
100
AcDbArc
 50
180.0
 51
270.0
  0
LINE
  5
457A
330
4552
100
AcDbEntity
  8
AM_0 外形線1
100
AcDbLine
 10
-126.0000000000002
 20
98.0
 30
0.0
 11
-112.5000000000002
 21
98.0
 31
0.0
  0
ARC
  5
457B
330
4552
100
AcDbEntity
  8
AM_0 外形線1
100
AcDbCircle
 10
-126.0000000000002
 20
94.0
 30
0.0
 40
4.0
100
AcDbArc
 50
90.0
 51
180.0
  0
ARC
  5
457C
330
4552
100
AcDbEntity
  8
AM_0 外形線1
100
AcDbCircle
 10
-118.8999999999998
 20
95.0999999999999
 30
0.0
 40
0.5
100
AcDbArc
 50
90.0
 51
180.0
  0
LINE
  5
457D
330
4552
100
AcDbEntity
  8
AM_0 外形線1
100
AcDbLine
 10
-112.5000000000002
 20
95.59999999999993
 30
0.0
 11
-118.8999999999998
 21
95.59999999999993
 31
0.0
  0
LINE
  5
457E
330
4552
100
AcDbEntity
  8
AM_0 外形線1
100
AcDbLine
 10
-114.0000000000002
 20
98.0
 30
0.0
 11
-114.0000000000002
 21
95.59999999999993
 31
0.0
  0
LINE
  5
457F
330
4552
100
AcDbEntity
  8
AM_0 外形線1
100
AcDbLine
 10
125.9999999999998
 20
98.0
 30
0.0
 11
-0.0000000000002274
 21
98.0
 31
0.0
  0
LINE
  5
4580
330
4552
100
AcDbEntity
  8
AM_0 外形線1
100
AcDbLine
 10
156.4999999999997
 20
21.0
 30
0.0
 11
-0.0000000000002274
 21
21.0
 31
0.0
  0
LINE
  5
4581
330
4552
100
AcDbEntity
  8
AM_0 外形線1
100
AcDbLine
 10
129.9999999999998
 20
25.0
 30
0.0
 11
129.9999999999998
 21
94.0
 31
0.0
  0
LINE
  5
4582
330
4552
100
AcDbEntity
  8
AM_0 外形線1
100
AcDbLine
 10
157.4999999999997
 20
20.0
 30
0.0
 11
156.4999999999997
 21
21.0
 31
0.0
  0
LINE
  5
4583
330
4552
100
AcDbEntity
  8
AM_0 外形線1
100
AcDbLine
 10
156.4999999999997
 20
0.0
 30
0.0
 11
157.4999999999997
 21
1.0
 31
0.0
  0
ARC
  5
4584
330
4552
100
AcDbEntity
  8
AM_0 外形線1
100
AcDbCircle
 10
133.9999999999998
 20
25.0
 30
0.0
 40
4.0
100
AcDbArc
 50
180.0
 51
270.0
  0
LINE
  5
4585
330
4552
100
AcDbEntity
  8
AM_0 外形線1
100
AcDbLine
 10
157.4999999999997
 20
1.0
 30
0.0
 11
157.4999999999997
 21
20.0
 31
0.0
  0
ARC
  5
4586
330
4552
100
AcDbEntity
  8
AM_0 外形線1
100
AcDbCircle
 10
125.9999999999998
 20
94.0
 30
0.0
 40
4.0
100
AcDbArc
 50
0.0
 51
90.0
  0
LINE
  5
4587
330
4552
100
AcDbEntity
  8
AM_0 外形線1
100
AcDbLine
 10
-112.5000000000002
 20
82.0
 30
0.0
 11
-130.2
 21
81.99999999999986
 31
0.0
  0
LINE
  5
4588
330
4552
100
AcDbEntity
  8
AM_0 外形線1
100
AcDbLine
 10
-121.9606740000001
 20
76.0
 30
0.0
 11
-130.2
 21
76.0
 31
0.0
  0
LINE
  5
4589
330
4552
100
AcDbEntity
  8
AM_0 外形線1
100
AcDbLine
 10
-129.2
 20
81.99999999999986
 30
0.0
 11
-129.2
 21
86.0
 31
0.0
  0
LINE
  5
458A
330
4552
100
AcDbEntity
  8
AM_0 外形線1
100
AcDbLine
 10
-130.0000000000002
 20
86.0
 30
0.0
 11
-129.2
 21
86.0
 31
0.0
  0
LINE
  5
458B
330
4552
100
AcDbEntity
  8
AM_0 外形線1
100
AcDbLine
 10
-129.2
 20
72.0
 30
0.0
 11
-129.2
 21
75.99999999999976
 31
0.0
  0
LINE
  5
458C
330
4552
100
AcDbEntity
  8
AM_0 外形線1
100
AcDbLine
 10
-130.0000000000002
 20
72.0
 30
0.0
 11
-129.2
 21
72.0
 31
0.0
  0
INSERT
  5
458D
330
4552
100
AcDbEntity
  8
AM_0 外形線1
100
AcDbBlockReference
  2
ジュウジマルコネジ
 10
-130.2
 20
79.0
 30
0.0
  0
LINE
  5
4608
330
4552
100
AcDbEntity
  8
AM_0 外形線1
100
AcDbLine
 10
156.4999999999997
 20
0.0
 30
0.0
 11
0.0
 21
0.0
 31
0.0
  0
LINE
  5
4609
330
4552
100
AcDbEntity
  8
AM_0 外形線1
100
AcDbLine
 10
-129.5000000000002
 20
0.5
 30
0.0
 11
-129.5000000000002
 21
5.0
 31
0.0
  0
LINE
  5
460A
330
4552
100
AcDbEntity
  8
AM_0 外形線1
100
AcDbLine
 10
-129.5000000000002
 20
5.0
 30
0.0
 11
-123.5000000000002
 21
5.0
 31
0.0
  0
ENDBLK
  5
4554
330
4552
100
AcDbEntity
  8
0
100
AcDbBlockEnd
  0
BLOCK
  5
4661
330
4660
100
AcDbEntity
  8
0
100
AcDbBlockBegin
  2
リーマボルト SMVH315 M12
 70
     0
 10
0.0
 20
0.0
 30
0.0
  3
リーマボルト SMVH315 M12
  1

  0
ARC
  5
4663
330
4660
100
AcDbEntity
  8
AM_0 外形線1
100
AcDbCircle
 10
-8.217412999999851
 20
-3.121671999999988
 30
0.0
 40
4.878327999999998
100
AcDbArc
 50
235.9339549999925
 51
304.0660450000075
  0
LINE
  5
4664
330
4660
100
AcDbEntity
  8
AM_0 外形線1
100
AcDbLine
 10
-9.5
 20
-8.0
 30
0.0
 11
9.5
 21
-8.0
 31
0.0
  0
LINE
  5
4665
330
4660
100
AcDbEntity
  8
AM_0 外形線1
100
AcDbLine
 10
-10.94999999999981
 20
-7.162841999999955
 30
0.0
 11
-9.5
 21
-8.0
 31
0.0
  0
LINE
  5
4666
330
4660
100
AcDbEntity
  8
AM_0 外形線1
100
AcDbLine
 10
-10.94999999999981
 20
0.0
 30
0.0
 11
-10.94999999999981
 21
-7.162841999999955
 31
0.0
  0
ARC
  5
4667
330
4660
100
AcDbEntity
  8
AM_0 外形線1
100
AcDbCircle
 10
8.217413999999735
 20
-3.121671999999988
 30
0.0
 40
4.878327999999998
100
AcDbArc
 50
235.9339549999925
 51
304.0660450000075
  0
ARC
  5
4668
330
4660
100
AcDbEntity
  8
AM_0 外形線1
100
AcDbCircle
 10
0.0
 20
10.38611800000001
 30
0.0
 40
18.386117
100
AcDbArc
 50
252.643662000017
 51
287.3563379999829
  0
LINE
  5
4669
330
4660
100
AcDbEntity
  8
AM_0 外形線1
100
AcDbLine
 10
5.484828000000105
 20
0.0
 30
0.0
 11
5.484828000000105
 21
-7.162841999999955
 31
0.0
  0
LINE
  5
466A
330
4660
100
AcDbEntity
  8
AM_0 外形線1
100
AcDbLine
 10
-5.484827000000223
 20
0.0
 30
0.0
 11
-5.484827000000223
 21
-7.162841999999955
 31
0.0
  0
LINE
  5
466B
330
4660
100
AcDbEntity
  8
AM_0 外形線1
100
AcDbLine
 10
10.95000000000027
 20
-7.162841999999955
 30
0.0
 11
10.95000000000027
 21
0.0
 31
0.0
  0
LINE
  5
466C
330
4660
100
AcDbEntity
  8
AM_0 外形線1
100
AcDbLine
 10
9.5
 20
-8.0
 30
0.0
 11
10.95000000000027
 21
-7.162841999999955
 31
0.0
  0
LINE
  5
466D
330
4660
100
AcDbEntity
  8
AM_0 外形線1
100
AcDbLine
 10
-6.0
 20
58.0
 30
0.0
 11
6.0
 21
58.0
 31
0.0
  0
LINE
  5
466E
330
4660
100
AcDbEntity
  8
AM_0 外形線1
100
AcDbLine
 10
-6.0
 20
58.0
 30
0.0
 11
-4.0
 21
60.0
 31
0.0
  0
ARC
  5
466F
330
4660
100
AcDbEntity
  8
AM_0 外形線1
100
AcDbCircle
 10
-8.217412999999851
 20
50.12167299999997
 30
0.0
 40
4.878327999999998
100
AcDbArc
 50
55.93395499999247
 51
124.0660450000075
  0
LINE
  5
4670
330
4660
100
AcDbEntity
  8
AM_0 外形線1
100
AcDbLine
 10
10.95000000000027
 20
45.0
 30
0.0
 11
-10.94999999999981
 21
45.0
 31
0.0
  0
LINE
  5
4671
330
4660
100
AcDbEntity
  8
AM_0 外形線1
100
AcDbLine
 10
-9.5
 20
55.0
 30
0.0
 11
9.5
 21
55.0
 31
0.0
  0
LINE
  5
4672
330
4660
100
AcDbEntity
  8
AM_0 外形線1
100
AcDbLine
 10
-6.0
 20
55.0
 30
0.0
 11
-6.0
 21
58.0
 31
0.0
  0
LINE
  5
4673
330
4660
100
AcDbEntity
  8
AM_0 外形線1
100
AcDbLine
 10
-10.94999999999981
 20
54.16284300000007
 30
0.0
 11
-9.5
 21
55.0
 31
0.0
  0
LINE
  5
4674
330
4660
100
AcDbEntity
  8
AM_0 外形線1
100
AcDbLine
 10
-10.94999999999981
 20
45.0
 30
0.0
 11
-10.94999999999981
 21
54.16284300000007
 31
0.0
  0
LINE
  5
4675
330
4660
100
AcDbEntity
  8
AM_0 外形線1
100
AcDbLine
 10
-10.75
 20
45.0
 30
0.0
 11
-10.75
 21
42.0
 31
0.0
  0
LINE
  5
4676
330
4660
100
AcDbEntity
  8
AM_4 細線
100
AcDbLine
 10
-5.125
 20
55.0
 30
0.0
 11
-5.125
 21
58.875
 31
0.0
  0
LINE
  5
4677
330
4660
100
AcDbEntity
  8
AM_4 細線
100
AcDbLine
 10
5.125
 20
55.0
 30
0.0
 11
5.125
 21
58.875
 31
0.0
  0
LINE
  5
4678
330
4660
100
AcDbEntity
  8
AM_0 外形線1
100
AcDbLine
 10
-1.0
 20
45.0
 30
0.0
 11
2.0
 21
42.0
 31
0.0
  0
LINE
  5
4679
330
4660
100
AcDbEntity
  8
AM_0 外形線1
100
AcDbLine
 10
-2.0
 20
45.0
 30
0.0
 11
1.0
 21
42.0
 31
0.0
  0
LINE
  5
467A
330
4660
100
AcDbEntity
  8
AM_0 外形線1
100
AcDbLine
 10
6.0
 20
58.0
 30
0.0
 11
6.0
 21
55.0
 31
0.0
  0
LINE
  5
467B
330
4660
100
AcDbEntity
  8
AM_0 外形線1
100
AcDbLine
 10
4.0
 20
60.0
 30
0.0
 11
6.0
 21
58.0
 31
0.0
  0
LINE
  5
467C
330
4660
100
AcDbEntity
  8
AM_0 外形線1
100
AcDbLine
 10
-4.0
 20
60.0
 30
0.0
 11
4.0
 21
60.0
 31
0.0
  0
LINE
  5
467D
330
4660
100
AcDbEntity
  8
AM_0 外形線1
100
AcDbLine
 10
5.484828000000105
 20
45.0
 30
0.0
 11
5.484828000000105
 21
54.16284300000007
 31
0.0
  0
LINE
  5
467E
330
4660
100
AcDbEntity
  8
AM_0 外形線1
100
AcDbLine
 10
-5.484827000000223
 20
45.0
 30
0.0
 11
-5.484827000000223
 21
54.16284300000007
 31
0.0
  0
ARC
  5
467F
330
4660
100
AcDbEntity
  8
AM_0 外形線1
100
AcDbCircle
 10
8.217413999999735
 20
50.12167299999997
 30
0.0
 40
4.878327999999998
100
AcDbArc
 50
55.93395499999247
 51
124.0660450000075
  0
ARC
  5
4680
330
4660
100
AcDbEntity
  8
AM_0 外形線1
100
AcDbCircle
 10
0.0
 20
36.61388299999999
 30
0.0
 40
18.386117
100
AcDbArc
 50
72.64366200001703
 51
107.3563379999829
  0
LINE
  5
4681
330
4660
100
AcDbEntity
  8
AM_0 外形線1
100
AcDbLine
 10
10.95000000000027
 20
54.16284300000007
 30
0.0
 11
10.95000000000027
 21
45.0
 31
0.0
  0
LINE
  5
4682
330
4660
100
AcDbEntity
  8
AM_0 外形線1
100
AcDbLine
 10
9.5
 20
55.0
 30
0.0
 11
10.95000000000027
 21
54.16284300000007
 31
0.0
  0
LINE
  5
4683
330
4660
100
AcDbEntity
  8
AM_0 外形線1
100
AcDbLine
 10
10.75
 20
42.0
 30
0.0
 11
10.75
 21
45.0
 31
0.0
  0
LINE
  5
46CD
330
4660
100
AcDbEntity
  8
AM_0 外形線1
100
AcDbLine
 10
10.95000000000027
 20
0.0
 30
0.0
 11
-10.94999999999981
 21
0.0000000000001137
 31
0.0
  0
LINE
  5
46CE
330
4660
100
AcDbEntity
  8
AM_0 外形線1
100
AcDbLine
 10
-10.75
 20
42.0
 30
0.0
 11
10.75
 21
42.0
 31
0.0
  0
ENDBLK
  5
4662
330
4660
100
AcDbEntity
  8
0
100
AcDbBlockEnd
  0
BLOCK
  5
46ED
330
46EC
100
AcDbEntity
  8
0
100
AcDbBlockBegin
  2
スラストプレ－ト SMVH315
 70
     0
 10
0.0
 20
0.0
 30
0.0
  3
スラストプレ－ト SMVH315
  1

  0
LINE
  5
46EF
330
46EC
100
AcDbEntity
  8
AM_0 外形線1
100
AcDbLine
 10
-117.0
 20
13.0
 30
0.0
 11
-129.5
 21
13.0
 31
0.0
  0
LINE
  5
46F0
330
46EC
100
AcDbEntity
  8
AM_0 外形線1
100
AcDbLine
 10
-122.0
 20
8.0
 30
0.0
 11
-129.5
 21
8.0
 31
0.0
  0
LINE
  5
46F1
330
46EC
100
AcDbEntity
  8
AM_0 外形線1
100
AcDbLine
 10
-122.0
 20
8.0
 30
0.0
 11
-121.9999999999995
 21
3.0
 31
0.0
  0
LINE
  5
46F2
330
46EC
100
AcDbEntity
  8
AM_0 外形線1
100
AcDbLine
 10
-107.0
 20
3.0
 30
0.0
 11
-121.9999999999995
 21
3.0
 31
0.0
  0
LINE
  5
46F3
330
46EC
100
AcDbEntity
  8
AM_0 外形線1
100
AcDbLine
 10
-117.0
 20
13.0
 30
0.0
 11
-117.0
 21
10.5
 31
0.0
  0
LINE
  5
46F4
330
46EC
100
AcDbEntity
  8
AM_0 外形線1
100
AcDbLine
 10
0.0
 20
10.5
 30
0.0
 11
-117.0
 21
10.5
 31
0.0
  0
LINE
  5
46F5
330
46EC
100
AcDbEntity
  8
AM_0 外形線1
100
AcDbLine
 10
-97.0
 20
1.0
 30
0.0
 11
0.0
 21
0.9999999999998864
 31
0.0
  0
LINE
  5
46F6
330
46EC
100
AcDbEntity
  8
AM_0 外形線1
100
AcDbLine
 10
-97.0
 20
1.0
 30
0.0
 11
-96.99999999999954
 21
0.0
 31
0.0
  0
ARC
  5
46F7
330
46EC
100
AcDbEntity
  8
AM_0 外形線1
100
AcDbCircle
 10
-104.0
 20
3.000000000000113
 30
0.0
 40
3.0
100
AcDbArc
 50
180.0
 51
270.0
  0
LINE
  5
4711
330
46EC
100
AcDbEntity
  8
AM_0 外形線1
100
AcDbLine
 10
-104.0
 20
0.0
 30
0.0
 11
-96.99999999999954
 21
-0.0000000000441105
 31
0.0
  0
LINE
  5
4712
330
46EC
100
AcDbEntity
  8
AM_0 外形線1
100
AcDbLine
 10
-129.5
 20
8.0
 30
0.0
 11
-129.5
 21
13.0
 31
0.0
  0
ENDBLK
  5
46EE
330
46EC
100
AcDbEntity
  8
0
100
AcDbBlockEnd
  0
BLOCK
  5
4723
330
4722
100
AcDbEntity
  8
0
100
AcDbBlockBegin
  2
*D14
 70
     1
 10
0.0
 20
0.0
 30
0.0
  3
*D14
  1

  0
LINE
  5
5164
330
4722
100
AcDbEntity
  8
AM_5 寸法線
 62
     3
100
AcDbLine
 10
756.5867295999996
 20
636.9691115301333
 30
0.0
 11
756.5867295999996
 21
478.4691115301332
 31
0.0
  0
LINE
  5
5165
330
4722
100
AcDbEntity
  8
AM_5 寸法線
 62
     3
100
AcDbLine
 10
981.5867295999996
 20
636.9691115301333
 30
0.0
 11
981.5867295999996
 21
478.4691115301332
 31
0.0
  0
LINE
  5
5166
330
4722
100
AcDbEntity
  8
AM_5 寸法線
 62
     3
100
AcDbLine
 10
766.5867295999996
 20
480.9691115301331
 30
0.0
 11
971.5867295999997
 21
480.9691115301331
 31
0.0
  0
INSERT
  5
5167
330
4722
100
AcDbEntity
  8
AM_5 寸法線
 62
     3
100
AcDbBlockReference
  2
_Open30
 10
756.5867295999996
 20
480.9691115301331
 30
0.0
 41
10.0
 42
10.0
 43
10.0
 50
180.0
  0
INSERT
  5
5168
330
4722
100
AcDbEntity
  8
AM_5 寸法線
 62
     3
100
AcDbBlockReference
  2
_Open30
 10
981.5867295999996
 20
480.9691115301331
 30
0.0
 41
10.0
 42
10.0
 43
10.0
  0
MTEXT
  5
5169
330
4722
100
AcDbEntity
  8
AM_5 寸法線
 62
     3
100
AcDbMText
 10
869.0867295999996
 20
493.9691115301331
 30
0.0
 40
14.0
 41
0.0
 46
0.0
 71
     5
 72
     1
  1
%%c225
  7
SEISA
 73
     1
 44
1.0
  0
POINT
  5
516A
330
4722
100
AcDbEntity
  8
Defpoints
 62
     0
100
AcDbPoint
 10
756.5867295999996
 20
639.4691115301331
 30
0.0
  0
POINT
  5
516B
330
4722
100
AcDbEntity
  8
Defpoints
 62
     0
100
AcDbPoint
 10
981.5867295999996
 20
639.4691115301331
 30
0.0
  0
POINT
  5
516C
330
4722
100
AcDbEntity
  8
Defpoints
 62
     0
100
AcDbPoint
 10
981.5867295999996
 20
480.9691115301331
 30
0.0
  0
ENDBLK
  5
4724
330
4722
100
AcDbEntity
  8
0
100
AcDbBlockEnd
  0
BLOCK
  5
48A2
330
48A1
100
AcDbEntity
  8
0
100
AcDbBlockBegin
  2
*D15
 70
     1
 10
0.0
 20
0.0
 30
0.0
  3
*D15
  1

  0
LINE
  5
5AED
330
48A1
100
AcDbEntity
  8
AM_5 寸法線
 62
     3
100
AcDbLine
 10
997.5867295999996
 20
660.969111530133
 30
0.0
 11
1129.0867296
 21
660.969111530133
 31
0.0
  0
LINE
  5
5AEE
330
48A1
100
AcDbEntity
  8
AM_5 寸法線
 62
     3
100
AcDbLine
 10
997.5867295999996
 20
856.9691115301331
 30
0.0
 11
1129.0867296
 21
856.9691115301331
 31
0.0
  0
LINE
  5
5AEF
330
48A1
100
AcDbEntity
  8
AM_5 寸法線
 62
     3
100
AcDbLine
 10
1126.586729599999
 20
670.9691115301333
 30
0.0
 11
1126.586729599999
 21
846.9691115301332
 31
0.0
  0
INSERT
  5
5AF0
330
48A1
100
AcDbEntity
  8
AM_5 寸法線
 62
     3
100
AcDbBlockReference
  2
_Open30
 10
1126.586729599999
 20
660.969111530133
 30
0.0
 41
10.0
 42
10.0
 43
10.0
 50
270.0
  0
INSERT
  5
5AF1
330
48A1
100
AcDbEntity
  8
AM_5 寸法線
 62
     3
100
AcDbBlockReference
  2
_Open30
 10
1126.586729599999
 20
856.9691115301331
 30
0.0
 41
10.0
 42
10.0
 43
10.0
 50
90.0
  0
MTEXT
  5
5AF2
330
48A1
100
AcDbEntity
  8
AM_5 寸法線
 62
     3
100
AcDbMText
 10
1113.586729599999
 20
758.9691115301332
 30
0.0
 40
14.0
 41
0.0
 46
0.0
 71
     5
 72
     1
  1
196
  7
SEISA
 11
0.0000000000000001
 21
1.0
 31
0.0
 73
     1
 44
1.0
  0
POINT
  5
5AF3
330
48A1
100
AcDbEntity
  8
Defpoints
 62
     0
100
AcDbPoint
 10
995.0867295999996
 20
660.969111530133
 30
0.0
  0
POINT
  5
5AF4
330
48A1
100
AcDbEntity
  8
Defpoints
 62
     0
100
AcDbPoint
 10
995.0867295999996
 20
856.9691115301331
 30
0.0
  0
POINT
  5
5AF5
330
48A1
100
AcDbEntity
  8
Defpoints
 62
     0
100
AcDbPoint
 10
1126.586729599999
 20
856.9691115301331
 30
0.0
  0
ENDBLK
  5
48A3
330
48A1
100
AcDbEntity
  8
0
100
AcDbBlockEnd
  0
BLOCK
  5
48DB
330
48DA
100
AcDbEntity
  8
0
100
AcDbBlockBegin
  2
*D16
 70
     1
 10
0.0
 20
0.0
 30
0.0
  3
*D16
  1

  0
LINE
  5
541E
330
48DA
100
AcDbEntity
  8
AM_5 寸法線
 62
     3
100
AcDbLine
 10
1028.0867296
 20
758.9691115301332
 30
0.0
 11
1089.0867296
 21
758.9691115301332
 31
0.0
  0
LINE
  5
541F
330
48DA
100
AcDbEntity
  8
AM_5 寸法線
 62
     3
100
AcDbLine
 10
1028.0867296
 20
779.9691115301332
 30
0.0
 11
1089.0867296
 21
779.9691115301332
 31
0.0
  0
LINE
  5
5420
330
48DA
100
AcDbEntity
  8
AM_5 寸法線
 62
     3
100
AcDbLine
 10
1086.5867296
 20
748.9691115301332
 30
0.0
 11
1086.5867296
 21
738.9691115301332
 31
0.0
  0
LINE
  5
5421
330
48DA
100
AcDbEntity
  8
AM_5 寸法線
 62
     3
100
AcDbLine
 10
1086.5867296
 20
789.969111530133
 30
0.0
 11
1086.5867296
 21
828.7691115301329
 31
0.0
  0
LINE
  5
5422
330
48DA
100
AcDbEntity
  8
AM_5 寸法線
 62
     3
100
AcDbLine
 10
1086.5867296
 20
758.9691115301332
 30
0.0
 11
1086.5867296
 21
779.9691115301332
 31
0.0
  0
INSERT
  5
5423
330
48DA
100
AcDbEntity
  8
AM_5 寸法線
 62
     3
100
AcDbBlockReference
  2
GENDOT
 10
1086.5867296
 20
758.9691115301332
 30
0.0
 41
10.0
 42
10.0
 43
10.0
 50
90.0
  0
INSERT
  5
5424
330
48DA
100
AcDbEntity
  8
AM_5 寸法線
 62
     3
100
AcDbBlockReference
  2
_Open30
 10
1086.5867296
 20
779.9691115301332
 30
0.0
 41
10.0
 42
10.0
 43
10.0
 50
270.0
  0
MTEXT
  5
5425
330
48DA
100
AcDbEntity
  8
AM_5 寸法線
 62
     3
100
AcDbMText
 10
1073.5867296
 20
814.3691115301331
 30
0.0
 40
14.0
 41
0.0
 46
0.0
 71
     5
 72
     1
  1
21
  7
SEISA
 11
0.0000000000000001
 21
1.0
 31
0.0
 73
     1
 44
1.0
  0
POINT
  5
5426
330
48DA
100
AcDbEntity
  8
Defpoints
 62
     0
100
AcDbPoint
 10
1025.586729599999
 20
758.9691115301332
 30
0.0
  0
POINT
  5
5427
330
48DA
100
AcDbEntity
  8
Defpoints
 62
     0
100
AcDbPoint
 10
1025.586729599999
 20
779.9691115301332
 30
0.0
  0
POINT
  5
5428
330
48DA
100
AcDbEntity
  8
Defpoints
 62
     0
100
AcDbPoint
 10
1086.5867296
 20
779.9691115301332
 30
0.0
  0
ENDBLK
  5
48DC
330
48DA
100
AcDbEntity
  8
0
100
AcDbBlockEnd
  0
BLOCK
  5
48F7
330
48F6
100
AcDbEntity
  8
0
100
AcDbBlockBegin
  2
*D17
 70
     1
 10
0.0
 20
0.0
 30
0.0
  3
*D17
  1

  0
LINE
  5
5434
330
48F6
100
AcDbEntity
  8
AM_5 寸法線
 62
     3
100
AcDbLine
 10
1028.0867296
 20
737.9691115301332
 30
0.0
 11
1089.0867296
 21
737.9691115301332
 31
0.0
  0
LINE
  5
5435
330
48F6
100
AcDbEntity
  8
AM_5 寸法線
 62
     3
100
AcDbLine
 10
1028.0867296
 20
758.9691115301332
 30
0.0
 11
1089.0867296
 21
758.9691115301332
 31
0.0
  0
LINE
  5
5436
330
48F6
100
AcDbEntity
  8
AM_5 寸法線
 62
     3
100
AcDbLine
 10
1086.5867296
 20
768.969111530133
 30
0.0
 11
1086.5867296
 21
778.9691115301332
 31
0.0
  0
LINE
  5
5437
330
48F6
100
AcDbEntity
  8
AM_5 寸法線
 62
     3
100
AcDbLine
 10
1086.5867296
 20
727.9691115301332
 30
0.0
 11
1086.5867296
 21
689.1691115301332
 31
0.0
  0
LINE
  5
5438
330
48F6
100
AcDbEntity
  8
AM_5 寸法線
 62
     3
100
AcDbLine
 10
1086.5867296
 20
758.9691115301332
 30
0.0
 11
1086.5867296
 21
737.9691115301332
 31
0.0
  0
INSERT
  5
5439
330
48F6
100
AcDbEntity
  8
AM_5 寸法線
 62
     3
100
AcDbBlockReference
  2
GENDOT
 10
1086.5867296
 20
758.9691115301332
 30
0.0
 41
10.0
 42
10.0
 43
10.0
 50
270.0
  0
INSERT
  5
543A
330
48F6
100
AcDbEntity
  8
AM_5 寸法線
 62
     3
100
AcDbBlockReference
  2
_Open30
 10
1086.5867296
 20
737.9691115301332
 30
0.0
 41
10.0
 42
10.0
 43
10.0
 50
90.0
  0
MTEXT
  5
543B
330
48F6
100
AcDbEntity
  8
AM_5 寸法線
 62
     3
100
AcDbMText
 10
1073.5867296
 20
703.5691115301332
 30
0.0
 40
14.0
 41
0.0
 46
0.0
 71
     5
 72
     1
  1
21
  7
SEISA
 11
0.0000000000000001
 21
1.0
 31
0.0
 73
     1
 44
1.0
  0
POINT
  5
543C
330
48F6
100
AcDbEntity
  8
Defpoints
 62
     0
100
AcDbPoint
 10
1025.586729599999
 20
737.9691115301332
 30
0.0
  0
POINT
  5
543D
330
48F6
100
AcDbEntity
  8
Defpoints
 62
     0
100
AcDbPoint
 10
1025.586729599999
 20
758.9691115301332
 30
0.0
  0
POINT
  5
543E
330
48F6
100
AcDbEntity
  8
Defpoints
 62
     0
100
AcDbPoint
 10
1086.5867296
 20
758.9691115301332
 30
0.0
  0
ENDBLK
  5
48F8
330
48F6
100
AcDbEntity
  8
0
100
AcDbBlockEnd
  0
BLOCK
  5
49C1
330
49C0
100
AcDbEntity
  8
0
100
AcDbBlockBegin
  2
*D18
 70
     1
 10
0.0
 20
0.0
 30
0.0
  3
*D18
  1

  0
LINE
  5
51B2
330
49C0
100
AcDbEntity
  8
AM_5 寸法線
 62
     3
100
AcDbLine
 10
979.2867295999997
 20
580.9691115301331
 30
0.0
 11
1169.0867296
 21
580.9691115301331
 31
0.0
  0
LINE
  5
51B3
330
49C0
100
AcDbEntity
  8
AM_5 寸法線
 62
     3
100
AcDbLine
 10
979.2867295999997
 20
936.9691115301332
 30
0.0
 11
1169.0867296
 21
936.9691115301332
 31
0.0
  0
LINE
  5
51B4
330
49C0
100
AcDbEntity
  8
AM_5 寸法線
 62
     3
100
AcDbLine
 10
1166.586729599999
 20
590.9691115301333
 30
0.0
 11
1166.586729599999
 21
926.9691115301332
 31
0.0
  0
INSERT
  5
51B5
330
49C0
100
AcDbEntity
  8
AM_5 寸法線
 62
     3
100
AcDbBlockReference
  2
_Open30
 10
1166.586729599999
 20
580.9691115301331
 30
0.0
 41
10.0
 42
10.0
 43
10.0
 50
270.0
  0
INSERT
  5
51B6
330
49C0
100
AcDbEntity
  8
AM_5 寸法線
 62
     3
100
AcDbBlockReference
  2
_Open30
 10
1166.586729599999
 20
936.9691115301332
 30
0.0
 41
10.0
 42
10.0
 43
10.0
 50
90.0
  0
MTEXT
  5
51B7
330
49C0
100
AcDbEntity
  8
AM_5 寸法線
 62
     3
100
AcDbMText
 10
1153.586729599999
 20
758.9691115301332
 30
0.0
 40
14.0
 41
0.0
 46
0.0
 71
     5
 72
     1
  1
356
  7
SEISA
 11
0.0000000000000001
 21
1.0
 31
0.0
 73
     1
 44
1.0
  0
POINT
  5
51B8
330
49C0
100
AcDbEntity
  8
Defpoints
 62
     0
100
AcDbPoint
 10
976.7867296
 20
580.9691115301331
 30
0.0
  0
POINT
  5
51B9
330
49C0
100
AcDbEntity
  8
Defpoints
 62
     0
100
AcDbPoint
 10
976.7867295999996
 20
936.9691115301332
 30
0.0
  0
POINT
  5
51BA
330
49C0
100
AcDbEntity
  8
Defpoints
 62
     0
100
AcDbPoint
 10
1166.586729599999
 20
936.9691115301332
 30
0.0
  0
ENDBLK
  5
49C2
330
49C0
100
AcDbEntity
  8
0
100
AcDbBlockEnd
  0
BLOCK
  5
4BA8
330
4BA7
100
AcDbEntity
  8
0
100
AcDbBlockBegin
  2
*D19
 70
     1
 10
0.0
 20
0.0
 30
0.0
  3
*D19
  1

  0
LINE
  5
51CF
330
4BA7
100
AcDbEntity
  8
AM_5 寸法線
 62
     3
100
AcDbLine
 10
711.5867295999996
 20
781.469111530133
 30
0.0
 11
711.5867295999996
 21
1119.469111530133
 31
0.0
  0
LINE
  5
51D0
330
4BA7
100
AcDbEntity
  8
AM_5 寸法線
 62
     3
100
AcDbLine
 10
1026.586729599999
 20
781.469111530133
 30
0.0
 11
1026.586729599999
 21
1119.469111530133
 31
0.0
  0
LINE
  5
51D1
330
4BA7
100
AcDbEntity
  8
AM_5 寸法線
 62
     3
100
AcDbLine
 10
721.5867295999997
 20
1116.969111530133
 30
0.0
 11
1016.586729599999
 21
1116.969111530133
 31
0.0
  0
INSERT
  5
51D2
330
4BA7
100
AcDbEntity
  8
AM_5 寸法線
 62
     3
100
AcDbBlockReference
  2
_Open30
 10
711.5867295999996
 20
1116.969111530133
 30
0.0
 41
10.0
 42
10.0
 43
10.0
 50
180.0
  0
INSERT
  5
51D3
330
4BA7
100
AcDbEntity
  8
AM_5 寸法線
 62
     3
100
AcDbBlockReference
  2
_Open30
 10
1026.586729599999
 20
1116.969111530133
 30
0.0
 41
10.0
 42
10.0
 43
10.0
  0
MTEXT
  5
51D4
330
4BA7
100
AcDbEntity
  8
AM_5 寸法線
 62
     3
100
AcDbMText
 10
869.0867295999996
 20
1129.969111530133
 30
0.0
 40
14.0
 41
0.0
 46
0.0
 71
     5
 72
     1
  1
%%c315
  7
SEISA
 73
     1
 44
1.0
  0
POINT
  5
51D5
330
4BA7
100
AcDbEntity
  8
Defpoints
 62
     0
100
AcDbPoint
 10
711.5867295999996
 20
778.9691115301332
 30
0.0
  0
POINT
  5
51D6
330
4BA7
100
AcDbEntity
  8
Defpoints
 62
     0
100
AcDbPoint
 10
1026.586729599999
 20
778.9691115301331
 30
0.0
  0
POINT
  5
51D7
330
4BA7
100
AcDbEntity
  8
Defpoints
 62
     0
100
AcDbPoint
 10
1026.586729599999
 20
1116.969111530133
 30
0.0
  0
ENDBLK
  5
4BA9
330
4BA7
100
AcDbEntity
  8
0
100
AcDbBlockEnd
  0
BLOCK
  5
4BC0
330
4BBF
100
AcDbEntity
  8
0
100
AcDbBlockBegin
  2
*D20
 70
     1
 10
0.0
 20
0.0
 30
0.0
  3
*D20
  1

  0
LINE
  5
51D8
330
4BBF
100
AcDbEntity
  8
AM_5 寸法線
 62
     3
100
AcDbLine
 10
739.0867295999997
 20
855.4691115301332
 30
0.0
 11
739.0867295999997
 21
1079.469111530133
 31
0.0
  0
LINE
  5
51D9
330
4BBF
100
AcDbEntity
  8
AM_5 寸法線
 62
     3
100
AcDbLine
 10
999.0867295999997
 20
855.4691115301332
 30
0.0
 11
999.0867295999997
 21
1079.469111530133
 31
0.0
  0
LINE
  5
51DA
330
4BBF
100
AcDbEntity
  8
AM_5 寸法線
 62
     3
100
AcDbLine
 10
749.0867295999996
 20
1076.969111530133
 30
0.0
 11
989.0867295999996
 21
1076.969111530133
 31
0.0
  0
INSERT
  5
51DB
330
4BBF
100
AcDbEntity
  8
AM_5 寸法線
 62
     3
100
AcDbBlockReference
  2
_Open30
 10
739.0867295999997
 20
1076.969111530133
 30
0.0
 41
10.0
 42
10.0
 43
10.0
 50
180.0
  0
INSERT
  5
51DC
330
4BBF
100
AcDbEntity
  8
AM_5 寸法線
 62
     3
100
AcDbBlockReference
  2
_Open30
 10
999.0867295999997
 20
1076.969111530133
 30
0.0
 41
10.0
 42
10.0
 43
10.0
  0
MTEXT
  5
51DD
330
4BBF
100
AcDbEntity
  8
AM_5 寸法線
 62
     3
100
AcDbMText
 10
869.0867295999996
 20
1089.969111530133
 30
0.0
 40
14.0
 41
0.0
 46
0.0
 71
     5
 72
     1
  1
%%c260
  7
SEISA
 73
     1
 44
1.0
  0
POINT
  5
51DE
330
4BBF
100
AcDbEntity
  8
Defpoints
 62
     0
100
AcDbPoint
 10
739.0867295999997
 20
852.9691115301332
 30
0.0
  0
POINT
  5
51DF
330
4BBF
100
AcDbEntity
  8
Defpoints
 62
     0
100
AcDbPoint
 10
999.0867295999997
 20
852.9691115301332
 30
0.0
  0
POINT
  5
51E0
330
4BBF
100
AcDbEntity
  8
Defpoints
 62
     0
100
AcDbPoint
 10
999.0867295999997
 20
1076.969111530133
 30
0.0
  0
ENDBLK
  5
4BC1
330
4BBF
100
AcDbEntity
  8
0
100
AcDbBlockEnd
  0
BLOCK
  5
4BD8
330
4BD7
100
AcDbEntity
  8
0
100
AcDbBlockBegin
  2
*D21
 70
     1
 10
0.0
 20
0.0
 30
0.0
  3
*D21
  1

  0
LINE
  5
51E1
330
4BD7
100
AcDbEntity
  8
AM_5 寸法線
 62
     3
100
AcDbLine
 10
756.5867295999996
 20
880.9691115301331
 30
0.0
 11
756.5867295999996
 21
1039.469111530133
 31
0.0
  0
LINE
  5
51E2
330
4BD7
100
AcDbEntity
  8
AM_5 寸法線
 62
     3
100
AcDbLine
 10
981.5867295999996
 20
880.9691115301331
 30
0.0
 11
981.5867295999996
 21
1039.469111530133
 31
0.0
  0
LINE
  5
51E3
330
4BD7
100
AcDbEntity
  8
AM_5 寸法線
 62
     3
100
AcDbLine
 10
766.5867295999996
 20
1036.969111530133
 30
0.0
 11
971.5867295999997
 21
1036.969111530133
 31
0.0
  0
INSERT
  5
51E4
330
4BD7
100
AcDbEntity
  8
AM_5 寸法線
 62
     3
100
AcDbBlockReference
  2
_Open30
 10
756.5867295999996
 20
1036.969111530133
 30
0.0
 41
10.0
 42
10.0
 43
10.0
 50
180.0
  0
INSERT
  5
51E5
330
4BD7
100
AcDbEntity
  8
AM_5 寸法線
 62
     3
100
AcDbBlockReference
  2
_Open30
 10
981.5867295999996
 20
1036.969111530133
 30
0.0
 41
10.0
 42
10.0
 43
10.0
  0
MTEXT
  5
51E6
330
4BD7
100
AcDbEntity
  8
AM_5 寸法線
 62
     3
100
AcDbMText
 10
869.0867295999996
 20
1049.969111530133
 30
0.0
 40
14.0
 41
0.0
 46
0.0
 71
     5
 72
     1
  1
%%c225
  7
SEISA
 73
     1
 44
1.0
  0
POINT
  5
51E7
330
4BD7
100
AcDbEntity
  8
Defpoints
 62
     0
100
AcDbPoint
 10
756.5867295999996
 20
878.4691115301331
 30
0.0
  0
POINT
  5
51E8
330
4BD7
100
AcDbEntity
  8
Defpoints
 62
     0
100
AcDbPoint
 10
981.5867295999996
 20
878.4691115301331
 30
0.0
  0
POINT
  5
51E9
330
4BD7
100
AcDbEntity
  8
Defpoints
 62
     0
100
AcDbPoint
 10
981.5867295999996
 20
1036.969111530133
 30
0.0
  0
ENDBLK
  5
4BD9
330
4BD7
100
AcDbEntity
  8
0
100
AcDbBlockEnd
  0
BLOCK
  5
4C2F
330
4C2E
100
AcDbEntity
  8
0
100
AcDbBlockBegin
  2
*D22
 70
     1
 10
0.0
 20
0.0
 30
0.0
  3
*D22
  1

  0
LINE
  5
51EA
330
4C2E
100
AcDbEntity
  8
AM_5 寸法線
 62
     3
100
AcDbLine
 10
866.5867296000001
 20
580.9691115301331
 30
0.0
 11
836.5867295999997
 21
580.9691115301331
 31
0.0
  0
LINE
  5
51EB
330
4C2E
100
AcDbEntity
  8
AM_5 寸法線
 62
     3
100
AcDbLine
 10
866.5867296000001
 20
750.9691115301332
 30
0.0
 11
836.5867295999997
 21
750.9691115301332
 31
0.0
  0
LINE
  5
51EC
330
4C2E
100
AcDbEntity
  8
AM_5 寸法線
 62
     3
100
AcDbLine
 10
839.0867295999996
 20
590.9691115301333
 30
0.0
 11
839.0867295999996
 21
740.9691115301332
 31
0.0
  0
INSERT
  5
51ED
330
4C2E
100
AcDbEntity
  8
AM_5 寸法線
 62
     3
100
AcDbBlockReference
  2
_Open30
 10
839.0867295999996
 20
580.9691115301331
 30
0.0
 41
10.0
 42
10.0
 43
10.0
 50
270.0
  0
INSERT
  5
51EE
330
4C2E
100
AcDbEntity
  8
AM_5 寸法線
 62
     3
100
AcDbBlockReference
  2
_Open30
 10
839.0867295999996
 20
750.9691115301332
 30
0.0
 41
10.0
 42
10.0
 43
10.0
 50
90.0
  0
MTEXT
  5
51EF
330
4C2E
100
AcDbEntity
  8
AM_5 寸法線
 62
     3
100
AcDbMText
 10
826.0867295999997
 20
665.9691115301333
 30
0.0
 40
14.0
 41
0.0
 46
0.0
 71
     5
 72
     1
  1
170
  7
SEISA
 11
0.0000000000000001
 21
1.0
 31
0.0
 73
     1
 44
1.0
  0
POINT
  5
51F0
330
4C2E
100
AcDbEntity
  8
Defpoints
 62
     0
100
AcDbPoint
 10
869.0867296000003
 20
580.9691115301331
 30
0.0
  0
POINT
  5
51F1
330
4C2E
100
AcDbEntity
  8
Defpoints
 62
     0
100
AcDbPoint
 10
869.0867296000003
 20
750.9691115301332
 30
0.0
  0
POINT
  5
51F2
330
4C2E
100
AcDbEntity
  8
Defpoints
 62
     0
100
AcDbPoint
 10
839.0867295999996
 20
750.9691115301332
 30
0.0
  0
ENDBLK
  5
4C30
330
4C2E
100
AcDbEntity
  8
0
100
AcDbBlockEnd
  0
BLOCK
  5
4C47
330
4C46
100
AcDbEntity
  8
0
100
AcDbBlockBegin
  2
*D23
 70
     1
 10
0.0
 20
0.0
 30
0.0
  3
*D23
  1

  0
LINE
  5
5469
330
4C46
100
AcDbEntity
  8
AM_5 寸法線
 62
     3
100
AcDbLine
 10
858.7126215857152
 20
750.9691115301332
 30
0.0
 11
836.5867295999997
 21
750.9691115301332
 31
0.0
  0
LINE
  5
546A
330
4C46
100
AcDbEntity
  8
AM_5 寸法線
 62
     3
100
AcDbLine
 10
857.7394086639177
 20
766.9691115301332
 30
0.0
 11
836.5867295999997
 21
766.9691115301332
 31
0.0
  0
LINE
  5
546B
330
4C46
100
AcDbEntity
  8
AM_5 寸法線
 62
     3
100
AcDbLine
 10
839.0867295999996
 20
740.9691115301332
 30
0.0
 11
839.0867295999996
 21
730.9691115301331
 31
0.0
  0
LINE
  5
546C
330
4C46
100
AcDbEntity
  8
AM_5 寸法線
 62
     3
100
AcDbLine
 10
839.0867295999999
 20
776.9691115301331
 30
0.0
 11
839.0867295999999
 21
786.9691115301332
 31
0.0
  0
MTEXT
  5
546D
330
4C46
100
AcDbEntity
  8
AM_5 寸法線
 62
     3
100
AcDbMText
 10
827.4337725141156
 20
789.7989221541673
 30
0.0
 40
14.0
 41
0.0
 46
0.0
 71
     5
 72
     1
  1
16
  7
SEISA
 11
0.0000000000000001
 21
1.0
 31
0.0
 73
     1
 44
1.0
  0
LINE
  5
546E
330
4C46
100
AcDbEntity
  8
AM_5 寸法線
 62
     3
100
AcDbLine
 10
839.0867295999996
 20
750.9691115301332
 30
0.0
 11
839.0867295999996
 21
766.9691115301332
 31
0.0
  0
INSERT
  5
546F
330
4C46
100
AcDbEntity
  8
AM_5 寸法線
 62
     3
100
AcDbBlockReference
  2
_Open30
 10
839.0867295999996
 20
750.9691115301332
 30
0.0
 41
10.0
 42
10.0
 43
10.0
 50
90.0
  0
INSERT
  5
5470
330
4C46
100
AcDbEntity
  8
AM_5 寸法線
 62
     3
100
AcDbBlockReference
  2
_Open30
 10
839.0867295999996
 20
766.9691115301332
 30
0.0
 41
10.0
 42
10.0
 43
10.0
 50
270.0
  0
POINT
  5
5471
330
4C46
100
AcDbEntity
  8
Defpoints
 62
     0
100
AcDbPoint
 10
861.2126215857152
 20
750.9691115301332
 30
0.0
  0
POINT
  5
5472
330
4C46
100
AcDbEntity
  8
Defpoints
 62
     0
100
AcDbPoint
 10
860.2394086639177
 20
766.9691115301332
 30
0.0
  0
POINT
  5
5473
330
4C46
100
AcDbEntity
  8
Defpoints
 62
     0
100
AcDbPoint
 10
839.0867295999996
 20
766.9691115301332
 30
0.0
  0
ENDBLK
  5
4C48
330
4C46
100
AcDbEntity
  8
0
100
AcDbBlockEnd
  0
BLOCK
  5
4C7C
330
4C7B
100
AcDbEntity
  8
0
100
AcDbBlockBegin
  2
*D24
 70
     1
 10
0.0
 20
0.0
 30
0.0
  3
*D24
  1

  0
LINE
  5
5229
330
4C7B
100
AcDbEntity
  8
AM_5 寸法線
 62
     3
100
AcDbLine
 10
857.8244621465108
 20
766.9691115301332
 30
0.0
 11
836.5867295999995
 21
766.9691115301332
 31
0.0
  0
LINE
  5
522A
330
4C7B
100
AcDbEntity
  8
AM_5 寸法線
 62
     3
100
AcDbLine
 10
859.2324344998958
 20
936.969111530133
 30
0.0
 11
836.5867295999997
 21
936.969111530133
 31
0.0
  0
LINE
  5
522B
330
4C7B
100
AcDbEntity
  8
AM_5 寸法線
 62
     3
100
AcDbLine
 10
839.0867295999996
 20
776.9691115301331
 30
0.0
 11
839.0867295999996
 21
926.9691115301332
 31
0.0
  0
INSERT
  5
522C
330
4C7B
100
AcDbEntity
  8
AM_5 寸法線
 62
     3
100
AcDbBlockReference
  2
_Open30
 10
839.0867295999996
 20
766.9691115301332
 30
0.0
 41
10.0
 42
10.0
 43
10.0
 50
270.0
  0
INSERT
  5
522D
330
4C7B
100
AcDbEntity
  8
AM_5 寸法線
 62
     3
100
AcDbBlockReference
  2
_Open30
 10
839.0867295999996
 20
936.969111530133
 30
0.0
 41
10.0
 42
10.0
 43
10.0
 50
90.0
  0
MTEXT
  5
522E
330
4C7B
100
AcDbEntity
  8
AM_5 寸法線
 62
     3
100
AcDbMText
 10
826.0867295999995
 20
851.9691115301332
 30
0.0
 40
14.0
 41
0.0
 46
0.0
 71
     5
 72
     1
  1
170
  7
SEISA
 11
0.0000000000000001
 21
1.0
 31
0.0
 73
     1
 44
1.0
  0
POINT
  5
522F
330
4C7B
100
AcDbEntity
  8
Defpoints
 62
     0
100
AcDbPoint
 10
860.3244621465108
 20
766.9691115301332
 30
0.0
  0
POINT
  5
5230
330
4C7B
100
AcDbEntity
  8
Defpoints
 62
     0
100
AcDbPoint
 10
861.7324344998959
 20
936.969111530133
 30
0.0
  0
POINT
  5
5231
330
4C7B
100
AcDbEntity
  8
Defpoints
 62
     0
100
AcDbPoint
 10
839.0867295999996
 20
936.969111530133
 30
0.0
  0
ENDBLK
  5
4C7D
330
4C7B
100
AcDbEntity
  8
0
100
AcDbBlockEnd
  0
BLOCK
  5
4CB0
330
4CAF
100
AcDbEntity
  8
0
100
AcDbBlockBegin
  2
*D25
 70
     1
 10
0.0
 20
0.0
 30
0.0
  3
*D25
  1

  0
LINE
  5
5215
330
4CAF
100
AcDbEntity
  8
AM_5 寸法線
 62
     3
100
AcDbLine
 10
759.0867295999997
 20
676.9691115301331
 30
0.0
 11
784.8272067551635
 21
676.9691115301331
 31
0.0
  0
LINE
  5
5216
330
4CAF
100
AcDbEntity
  8
AM_5 寸法線
 62
     3
100
AcDbLine
 10
758.5867295999996
 20
682.4691115301333
 30
0.0
 11
784.8272067551635
 21
682.4691115301329
 31
0.0
  0
LINE
  5
5217
330
4CAF
100
AcDbEntity
  8
AM_5 寸法線
 62
     3
100
AcDbLine
 10
782.3272067551636
 20
692.4691115301331
 30
0.0
 11
782.3272067551636
 21
702.469111530133
 31
0.0
  0
LINE
  5
5218
330
4CAF
100
AcDbEntity
  8
AM_5 寸法線
 62
     3
100
AcDbLine
 10
782.3272067551636
 20
666.9691115301331
 30
0.0
 11
782.3272067551636
 21
618.5691115301331
 31
0.0
  0
LINE
  5
5219
330
4CAF
100
AcDbEntity
  8
AM_5 寸法線
 62
     3
100
AcDbLine
 10
782.3272067551636
 20
682.4691115301329
 30
0.0
 11
782.3272067551636
 21
676.9691115301331
 31
0.0
  0
INSERT
  5
521A
330
4CAF
100
AcDbEntity
  8
AM_5 寸法線
 62
     3
100
AcDbBlockReference
  2
_Open30
 10
782.3272067551636
 20
682.4691115301329
 30
0.0
 41
10.0
 42
10.0
 43
10.0
 50
270.0
  0
INSERT
  5
521B
330
4CAF
100
AcDbEntity
  8
AM_5 寸法線
 62
     3
100
AcDbBlockReference
  2
_Open30
 10
782.3272067551636
 20
676.9691115301331
 30
0.0
 41
10.0
 42
10.0
 43
10.0
 50
90.0
  0
MTEXT
  5
521C
330
4CAF
100
AcDbEntity
  8
AM_5 寸法線
 62
     3
100
AcDbMText
 10
769.3272067551633
 20
637.7691115301332
 30
0.0
 40
14.0
 41
0.0
 46
0.0
 71
     5
 72
     1
  1
5.5
  7
SEISA
 11
0.0000000000000001
 21
1.0
 31
0.0
 73
     1
 44
1.0
  0
POINT
  5
521D
330
4CAF
100
AcDbEntity
  8
Defpoints
 62
     0
100
AcDbPoint
 10
756.5867295999996
 20
676.9691115301331
 30
0.0
  0
POINT
  5
521E
102
{ACAD_REACTORS
330
5B45
102
}
330
4CAF
100
AcDbEntity
  8
Defpoints
 62
     0
100
AcDbPoint
 10
756.0867295999996
 20
682.4691115301333
 30
0.0
  0
POINT
  5
521F
330
4CAF
100
AcDbEntity
  8
Defpoints
 62
     0
100
AcDbPoint
 10
782.3272067551636
 20
682.4691115301329
 30
0.0
  0
ENDBLK
  5
4CB1
330
4CAF
100
AcDbEntity
  8
0
100
AcDbBlockEnd
  0
BLOCK
  5
5A77
330
5A76
100
AcDbEntity
  8
0
100
AcDbBlockBegin
  2
*D26
 70
     1
 10
0.0
 20
0.0
 30
0.0
  3
*D26
  1

  0
LINE
  5
5A9C
330
5A76
100
AcDbEntity
  8
AM_5 寸法線
 62
     3
100
AcDbLine
 10
754.0867295999996
 20
579.9691115301333
 30
0.0
 11
694.0867295999996
 21
579.9691115301333
 31
0.0
  0
LINE
  5
5A9D
330
5A76
100
AcDbEntity
  8
AM_5 寸法線
 62
     3
100
AcDbLine
 10
758.8867295999997
 20
580.9691115301331
 30
0.0
 11
694.0867295999996
 21
580.9691115301331
 31
0.0
  0
LINE
  5
5A9E
330
5A76
100
AcDbEntity
  8
AM_5 寸法線
 62
     3
100
AcDbLine
 10
696.5867295999997
 20
569.9691115301333
 30
0.0
 11
696.5867295999997
 21
559.9691115301332
 31
0.0
  0
LINE
  5
5A9F
330
5A76
100
AcDbEntity
  8
AM_5 寸法線
 62
     3
100
AcDbLine
 10
696.5867295999997
 20
590.9691115301333
 30
0.0
 11
696.5867295999997
 21
615.9691115301333
 31
0.0
  0
LINE
  5
5AA0
330
5A76
100
AcDbEntity
  8
AM_5 寸法線
 62
     3
100
AcDbLine
 10
696.5867295999997
 20
579.9691115301333
 30
0.0
 11
696.5867295999997
 21
580.9691115301331
 31
0.0
  0
INSERT
  5
5AA1
330
5A76
100
AcDbEntity
  8
AM_5 寸法線
 62
     3
100
AcDbBlockReference
  2
_Open30
 10
696.5867295999997
 20
579.9691115301333
 30
0.0
 41
10.0
 42
10.0
 43
10.0
 50
90.0
  0
INSERT
  5
5AA2
330
5A76
100
AcDbEntity
  8
AM_5 寸法線
 62
     3
100
AcDbBlockReference
  2
_Open30
 10
696.5867295999997
 20
580.9691115301331
 30
0.0
 41
10.0
 42
10.0
 43
10.0
 50
270.0
  0
MTEXT
  5
5AA3
330
5A76
100
AcDbEntity
  8
AM_5 寸法線
 62
     3
100
AcDbMText
 10
683.5867295999994
 20
608.4691115301333
 30
0.0
 40
14.0
 41
0.0
 46
0.0
 71
     5
 72
     1
  1
1
  7
SEISA
 11
0.0000000000000001
 21
1.0
 31
0.0
 73
     1
 44
1.0
  0
POINT
  5
5AA4
330
5A76
100
AcDbEntity
  8
Defpoints
 62
     0
100
AcDbPoint
 10
756.5867295999996
 20
579.9691115301333
 30
0.0
  0
POINT
  5
5AA5
330
5A76
100
AcDbEntity
  8
Defpoints
 62
     0
100
AcDbPoint
 10
761.3867295999997
 20
580.9691115301331
 30
0.0
  0
POINT
  5
5AA6
330
5A76
100
AcDbEntity
  8
Defpoints
 62
     0
100
AcDbPoint
 10
696.5867295999997
 20
580.9691115301331
 30
0.0
  0
ENDBLK
  5
5A78
330
5A76
100
AcDbEntity
  8
0
100
AcDbBlockEnd
  0
BLOCK
  5
5B38
330
5B37
100
AcDbEntity
  8
0
100
AcDbBlockBegin
  2
*D27
 70
     1
 10
0.0
 20
0.0
 30
0.0
  3
*D27
  1

  0
LINE
  5
5B6E
330
5B37
100
AcDbEntity
  8
AM_5 寸法線
 62
     3
100
AcDbLine
 10
758.5867295999996
 20
682.4691115301333
 30
0.0
 11
784.8272067551637
 21
682.4691115301329
 31
0.0
  0
LINE
  5
5B6F
330
5B37
100
AcDbEntity
  8
AM_5 寸法線
 62
     3
100
AcDbLine
 10
759.0867295999997
 20
717.9691115301332
 30
0.0
 11
784.8272067551637
 21
717.9691115301331
 31
0.0
  0
LINE
  5
5B70
330
5B37
100
AcDbEntity
  8
AM_5 寸法線
 62
     3
100
AcDbLine
 10
782.3272067551637
 20
692.4691115301331
 30
0.0
 11
782.3272067551637
 21
707.969111530133
 31
0.0
  0
LINE
  5
5B71
330
5B37
100
AcDbEntity
  8
AM_5 寸法線
 62
     3
100
AcDbLine
 10
782.3272067551637
 20
700.219111530133
 30
0.0
 11
808.5366255773282
 21
680.5890918421115
 31
0.0
  0
LINE
  5
5B72
330
5B37
100
AcDbEntity
  8
AM_5 寸法線
 62
     3
100
AcDbLine
 10
808.5366255773282
 20
680.5890918421115
 30
0.0
 11
808.5366255773282
 21
630.1890918421118
 31
0.0
  0
MTEXT
  5
5B73
330
5B37
100
AcDbEntity
  8
AM_5 寸法線
 62
     3
100
AcDbMText
 10
795.5366255773282
 20
655.3890918421117
 30
0.0
 40
14.0
 41
0.0
 46
0.0
 71
     5
 72
     1
  1
35.5
  7
SEISA
 11
0.0000000000000001
 21
1.0
 31
0.0
 73
     1
 44
1.0
  0
INSERT
  5
5B74
330
5B37
100
AcDbEntity
  8
AM_5 寸法線
 62
     3
100
AcDbBlockReference
  2
_Open30
 10
782.3272067551637
 20
682.4691115301329
 30
0.0
 41
10.0
 42
10.0
 43
10.0
 50
270.0
  0
INSERT
  5
5B75
330
5B37
100
AcDbEntity
  8
AM_5 寸法線
 62
     3
100
AcDbBlockReference
  2
_Open30
 10
782.3272067551637
 20
717.9691115301331
 30
0.0
 41
10.0
 42
10.0
 43
10.0
 50
90.0
  0
POINT
  5
5B76
330
5B37
100
AcDbEntity
  8
Defpoints
 62
     0
100
AcDbPoint
 10
756.0867295999996
 20
682.4691115301333
 30
0.0
  0
POINT
  5
5B77
102
{ACAD_REACTORS
330
5B87
102
}
330
5B37
100
AcDbEntity
  8
Defpoints
 62
     0
100
AcDbPoint
 10
756.5867295999996
 20
717.9691115301332
 30
0.0
  0
POINT
  5
5B78
330
5B37
100
AcDbEntity
  8
Defpoints
 62
     0
100
AcDbPoint
 10
782.3272067551637
 20
717.9691115301331
 30
0.0
  0
ENDBLK
  5
5B39
330
5B37
100
AcDbEntity
  8
0
100
AcDbBlockEnd
  0
BLOCK
  5
5B7B
330
5B7A
100
AcDbEntity
  8
0
100
AcDbBlockBegin
  2
*D28
 70
     1
 10
0.0
 20
0.0
 30
0.0
  3
*D28
  1

  0
LINE
  5
5BA3
330
5B7A
100
AcDbEntity
  8
AM_5 寸法線
 62
     3
100
AcDbLine
 10
759.0867295999997
 20
717.9691115301332
 30
0.0
 11
784.8272067551637
 21
717.9691115301331
 31
0.0
  0
LINE
  5
5BA4
330
5B7A
100
AcDbEntity
  8
AM_5 寸法線
 62
     3
100
AcDbLine
 10
760.5867295999996
 20
750.9691115301332
 30
0.0
 11
784.8272067551637
 21
750.9691115301331
 31
0.0
  0
LINE
  5
5BA5
330
5B7A
100
AcDbEntity
  8
AM_5 寸法線
 62
     3
100
AcDbLine
 10
782.3272067551637
 20
727.969111530133
 30
0.0
 11
782.3272067551637
 21
740.969111530133
 31
0.0
  0
INSERT
  5
5BA6
330
5B7A
100
AcDbEntity
  8
AM_5 寸法線
 62
     3
100
AcDbBlockReference
  2
_Open30
 10
782.3272067551637
 20
717.9691115301331
 30
0.0
 41
10.0
 42
10.0
 43
10.0
 50
270.0
  0
INSERT
  5
5BA7
330
5B7A
100
AcDbEntity
  8
AM_5 寸法線
 62
     3
100
AcDbBlockReference
  2
_Open30
 10
782.3272067551637
 20
750.9691115301331
 30
0.0
 41
10.0
 42
10.0
 43
10.0
 50
90.0
  0
MTEXT
  5
5BA8
330
5B7A
100
AcDbEntity
  8
AM_5 寸法線
 62
     3
100
AcDbMText
 10
769.3272067551636
 20
734.4691115301332
 30
0.0
 40
14.0
 41
0.0
 46
0.0
 71
     5
 72
     1
  1
33
  7
SEISA
 11
0.0000000000000001
 21
1.0
 31
0.0
 73
     1
 44
1.0
  0
POINT
  5
5BA9
330
5B7A
100
AcDbEntity
  8
Defpoints
 62
     0
100
AcDbPoint
 10
756.5867295999996
 20
717.9691115301332
 30
0.0
  0
POINT
  5
5BAA
330
5B7A
100
AcDbEntity
  8
Defpoints
 62
     0
100
AcDbPoint
 10
758.0867295999996
 20
750.9691115301332
 30
0.0
  0
POINT
  5
5BAB
330
5B7A
100
AcDbEntity
  8
Defpoints
 62
     0
100
AcDbPoint
 10
782.3272067551637
 20
750.9691115301331
 30
0.0
  0
ENDBLK
  5
5B7C
330
5B7A
100
AcDbEntity
  8
0
100
AcDbBlockEnd
  0
BLOCK
  5
5C1C
330
5C1B
100
AcDbEntity
  8
0
100
AcDbBlockBegin
  2
ケース
 70
     0
 10
0.0
 20
0.0
 30
0.0
  3
ケース
  1

  0
LINE
  5
5C1E
330
5C1B
100
AcDbEntity
  8
AM_11 想像線
 48
0.1
100
AcDbLine
 10
9.139342000000397
 20
-21.19273122672894
 30
0.0
 11
7.5
 21
-21.19273122672894
 31
0.0
  0
LINE
  5
5C1F
330
5C1B
100
AcDbEntity
  8
AM_11 想像線
 48
0.1
100
AcDbLine
 10
17.5
 20
-27.19273122672894
 30
0.0
 11
7.5
 21
-27.19273122672894
 31
0.0
  0
LINE
  5
5C20
102
{ACAD_REACTORS
330
5A85
102
}
330
5C1B
100
AcDbEntity
  8
AM_11 想像線
 48
0.1
100
AcDbLine
 10
4.0
 20
-43.19273122672892
 30
0.0
 11
17.5
 21
-43.19273122672892
 31
0.0
  0
LINE
  5
5C21
330
5C1B
100
AcDbEntity
  8
AM_11 想像線
 48
0.1
100
AcDbLine
 10
0.0
 20
0.0
 30
0.0
 11
0.0
 21
-39.19273122672894
 31
0.0
  0
LINE
  5
5C22
330
5C1B
100
AcDbEntity
  8
AM_11 想像線
 48
0.1
100
AcDbLine
 10
7.0
 20
0.0
 30
0.0
 11
7.0
 21
-21.32670522672902
 31
0.0
  0
LINE
  5
5C23
330
5C1B
100
AcDbEntity
  8
AM_11 想像線
 48
0.1
100
AcDbLine
 10
6.5
 20
-26.19273122672894
 30
0.0
 11
6.5
 21
-22.19273122672894
 31
0.0
  0
ARC
  5
5C24
330
5C1B
100
AcDbEntity
  8
AM_11 想像線
 48
0.1
100
AcDbCircle
 10
7.5
 20
-26.19273122672894
 30
0.0
 40
1.0
100
AcDbArc
 50
180.0
 51
270.0
  0
ARC
  5
5C25
330
5C1B
100
AcDbEntity
  8
AM_11 想像線
 48
0.1
100
AcDbCircle
 10
4.0
 20
-39.19273122672894
 30
0.0
 40
4.0
100
AcDbArc
 50
180.0
 51
270.0
  0
ARC
  5
5C26
330
5C1B
100
AcDbEntity
  8
AM_11 想像線
 48
0.1
100
AcDbCircle
 10
7.5
 20
-22.19273122672894
 30
0.0
 40
1.0
100
AcDbArc
 50
90.0
 51
180.0
  0
LINE
  5
5C27
330
5C1B
100
AcDbEntity
  8
AM_11 想像線
 48
0.1
100
AcDbLine
 10
12.40000000000009
 20
0.0
 30
0.0
 11
12.40000000000009
 21
-20.19273122672894
 31
0.0
  0
LINE
  5
5C28
330
5C1B
100
AcDbEntity
  8
AM_11 想像線
 48
0.1
100
AcDbLine
 10
10.0
 20
0.0
 30
0.0
 11
10.0
 21
-23.13021022672899
 31
0.0
  0
LINE
  5
5C29
330
5C1B
100
AcDbEntity
  8
AM_11 想像線
 48
0.1
100
AcDbLine
 10
16.0
 20
-29.59273122672903
 30
0.0
 11
16.0
 21
-27.19273122672894
 31
0.0
  0
LINE
  5
5C2A
330
5C1B
100
AcDbEntity
  8
AM_11 想像線
 48
0.1
100
AcDbLine
 10
11.10000000000036
 20
-29.59273122672903
 30
0.0
 11
17.5
 21
-29.59273122672903
 31
0.0
  0
ARC
  5
5C2B
330
5C1B
100
AcDbEntity
  8
AM_11 想像線
 48
0.1
100
AcDbCircle
 10
11.10000000000036
 20
-30.09273122672903
 30
0.0
 40
0.5
100
AcDbArc
 50
90.0
 51
180.0
  0
LINE
  5
5C2C
330
5C1B
100
AcDbEntity
  8
AM_11 想像線
 48
0.1
100
AcDbLine
 10
10.60000000000036
 20
-40.29273122672896
 30
0.0
 11
10.60000000000036
 21
-30.09273122672903
 31
0.0
  0
ARC
  5
5C2D
330
5C1B
100
AcDbEntity
  8
AM_11 想像線
 48
0.1
100
AcDbCircle
 10
11.10000000000036
 20
-40.29273122672896
 30
0.0
 40
0.5
100
AcDbArc
 50
180.0
 51
270.0
  0
LINE
  5
5C2E
330
5C1B
100
AcDbEntity
  8
AM_11 想像線
 48
0.1
100
AcDbLine
 10
17.5
 20
-40.79273122672896
 30
0.0
 11
11.10000000000036
 21
-40.79273122672896
 31
0.0
  0
LINE
  5
5C2F
330
5C1B
100
AcDbEntity
  8
AM_11 想像線
 48
0.1
100
AcDbLine
 10
16.0
 20
-43.19273122672892
 30
0.0
 11
16.0
 21
-40.79273122672896
 31
0.0
  0
LINE
  5
5C30
330
5C1B
100
AcDbEntity
  8
AM_11 想像線
 48
0.1
100
AcDbLine
 10
11.40000000000009
 20
-21.19273122672894
 30
0.0
 11
12.40000000000009
 21
-20.19273122672894
 31
0.0
  0
LINE
  5
5C31
330
5C1B
100
AcDbEntity
  8
AM_11 想像線
 48
0.1
100
AcDbLine
 10
9.139342000000397
 20
-21.19273122672894
 30
0.0
 11
11.40000000000009
 21
-21.19273122672894
 31
0.0
  0
ENDBLK
  5
5C1D
330
5C1B
100
AcDbEntity
  8
0
100
AcDbBlockEnd
  0
ENDSEC
  0
SECTION
  2
ENTITIES
  0
LINE
  5
3DCC
102
{ACAD_REACTORS
330
4C44
102
}
330
1F
100
AcDbEntity
  8
AM_7 中心線
100
AcDbLine
 10
869.0867295999996
 20
944.969111530133
 30
0.0
 11
869.0867296000003
 21
572.9691115301333
 31
0.0
  0
INSERT
  5
4235
102
{ACAD_REACTORS
330
4738
330
49D6
330
4C44
330
4CC9
330
5A85
330
5B45
330
5B87
102
}
330
1F
100
AcDbEntity
  8
AM_0 外形線1
100
AcDbBlockReference
  2
センタＡ SMVH315
 10
869.0867295999996
 20
750.9691115301332
 30
0.0
  0
INSERT
  5
4339
102
{ACAD_REACTORS
330
4910
330
4CC9
102
}
330
1F
100
AcDbEntity
  8
AM_0 外形線1
100
AcDbBlockReference
  2
ケースＡ SMVH315
 10
869.0867295999996
 20
758.9691115301332
 30
0.0
  0
INSERT
  5
4417
102
{ACAD_REACTORS
330
49D6
330
4BED
330
4C60
330
4C91
102
}
330
1F
100
AcDbEntity
  8
AM_0 外形線1
100
AcDbBlockReference
  2
センタB SMVH315
 10
869.0867295999996
 20
766.9691115301332
 30
0.0
  0
INSERT
  5
458E
102
{ACAD_REACTORS
330
48F4
330
4910
330
4BBD
330
4BD5
330
48B7
102
}
330
1F
100
AcDbEntity
  8
AM_0 外形線1
100
AcDbBlockReference
  2
ケースＢ SMVH315
 10
869.0867295999996
 20
758.9691115301332
 30
0.0
  0
INSERT
  5
4684
330
1F
100
AcDbEntity
  8
AM_0 外形線1
100
AcDbBlockReference
  2
リーマボルト SMVH315 M12
 10
1014.586729599999
 20
737.9691115301332
 30
0.0
  0
INSERT
  5
46F8
330
1F
100
AcDbEntity
  8
AM_0 外形線1
100
AcDbBlockReference
  2
スラストプレ－ト SMVH315
 10
869.0867295999996
 20
750.9691115301332
 30
0.0
  0
DIMENSION
  5
4721
102
{ACAD_XDICTIONARY
360
472E
102
}
102
{ACAD_REACTORS
330
4738
102
}
330
1F
100
AcDbEntity
  8
AM_5 寸法線
100
AcDbDimension
  2
*D14
 10
981.5867295999996
 20
480.9691115301331
 30
0.0
 11
869.0867295999996
 21
493.9691115301331
 31
0.0
 70
    32
  1
%%c<>
 71
     5
 42
225.0
 73
     0
 74
     0
 75
     0
  3
SEISA$0
100
AcDbAlignedDimension
 13
756.5867295999996
 23
639.4691115301331
 33
0.0
 14
981.5867295999996
 24
639.4691115301331
 34
0.0
100
AcDbRotatedDimension
1001
ACAD_DSTYLE_DIMINSPECT
1070
   396
1000
100%
1070
   395
1000

1070
   394
1070
    33
1070
   393
1070
     0
  0
DIMENSION
  5
48A0
102
{ACAD_XDICTIONARY
360
48AD
102
}
102
{ACAD_REACTORS
330
48B7
102
}
330
1F
100
AcDbEntity
  8
AM_5 寸法線
100
AcDbDimension
  2
*D15
 10
1126.586729599999
 20
856.9691115301331
 30
0.0
 11
1113.586729599999
 21
758.9691115301332
 31
0.0
 70
    32
 71
     5
 42
196.0
 73
     0
 74
     0
 75
     0
  3
SEISA$0
100
AcDbAlignedDimension
 13
995.0867295999996
 23
660.969111530133
 33
0.0
 14
995.0867295999996
 24
856.9691115301331
 34
0.0
 50
90.0
100
AcDbRotatedDimension
  0
DIMENSION
  5
48D9
102
{ACAD_XDICTIONARY
360
48E8
102
}
102
{ACAD_REACTORS
330
48F4
102
}
330
1F
100
AcDbEntity
  8
AM_5 寸法線
100
AcDbDimension
  2
*D16
 10
1086.5867296
 20
779.9691115301332
 30
0.0
 11
1086.5867296
 21
814.3691115301331
 31
0.0
 70
   160
 71
     5
 42
21.0
 73
     0
 74
     0
 75
     0
  3
SEISA$0
100
AcDbAlignedDimension
 13
1025.586729599999
 23
758.9691115301332
 33
0.0
 14
1025.586729599999
 24
779.9691115301332
 34
0.0
 50
90.0
100
AcDbRotatedDimension
1001
ACAD_DSTYLE_DIMINSPECT
1070
   396
1000
100%
1070
   395
1000

1070
   394
1070
    33
1070
   393
1070
     0
1001
ACAD
1000
DSTYLE
1002
{
1070
   173
1070
     1
1070
   342
1005
0
1070
   343
1005
3563
1070
   344
1005
69
1002
}
  0
DIMENSION
  5
48F5
102
{ACAD_XDICTIONARY
360
4904
102
}
102
{ACAD_REACTORS
330
4910
102
}
330
1F
100
AcDbEntity
  8
AM_5 寸法線
100
AcDbDimension
  2
*D17
 10
1086.5867296
 20
758.9691115301332
 30
0.0
 11
1086.5867296
 21
703.5691115301332
 31
0.0
 70
   160
 71
     5
 42
21.0
 73
     0
 74
     0
 75
     0
  3
SEISA$0
100
AcDbAlignedDimension
 13
1025.586729599999
 23
737.9691115301332
 33
0.0
 14
1025.586729599999
 24
758.9691115301332
 34
0.0
 50
90.0
100
AcDbRotatedDimension
1001
ACAD_DSTYLE_DIMINSPECT
1070
   396
1000
100%
1070
   395
1000

1070
   394
1070
    33
1070
   393
1070
     0
1001
ACAD
1000
DSTYLE
1002
{
1070
   173
1070
     1
1070
   342
1005
0
1070
   343
1005
69
1070
   344
1005
3563
1002
}
  0
DIMENSION
  5
49BF
102
{ACAD_XDICTIONARY
360
49CC
102
}
102
{ACAD_REACTORS
330
49D6
102
}
330
1F
100
AcDbEntity
  8
AM_5 寸法線
100
AcDbDimension
  2
*D18
 10
1166.586729599999
 20
936.9691115301332
 30
0.0
 11
1153.586729599999
 21
758.9691115301332
 31
0.0
 70
    32
 71
     5
 42
356.0
 73
     0
 74
     0
 75
     0
  3
SEISA$0
100
AcDbAlignedDimension
 13
976.7867296
 23
580.9691115301331
 33
0.0
 14
976.7867295999996
 24
936.9691115301332
 34
0.0
 50
90.0
100
AcDbRotatedDimension
  0
DIMENSION
  5
4BA6
102
{ACAD_XDICTIONARY
360
4BB3
102
}
102
{ACAD_REACTORS
330
4BBD
102
}
330
1F
100
AcDbEntity
  8
AM_5 寸法線
100
AcDbDimension
  2
*D19
 10
1026.586729599999
 20
1116.969111530133
 30
0.0
 11
869.0867295999996
 21
1129.969111530133
 31
0.0
 70
    32
  1
%%c<>
 71
     5
 42
315.0
 73
     0
 74
     0
 75
     0
  3
SEISA$0
100
AcDbAlignedDimension
 13
711.5867295999996
 23
778.9691115301332
 33
0.0
 14
1026.586729599999
 24
778.9691115301331
 34
0.0
100
AcDbRotatedDimension
1001
ACAD_DSTYLE_DIMINSPECT
1070
   396
1000
100%
1070
   395
1000

1070
   394
1070
    33
1070
   393
1070
     0
  0
DIMENSION
  5
4BBE
102
{ACAD_XDICTIONARY
360
4BCB
102
}
102
{ACAD_REACTORS
330
4BD5
102
}
330
1F
100
AcDbEntity
  8
AM_5 寸法線
100
AcDbDimension
  2
*D20
 10
999.0867295999997
 20
1076.969111530133
 30
0.0
 11
869.0867295999996
 21
1089.969111530133
 31
0.0
 70
    32
  1
%%c<>
 71
     5
 42
260.0
 73
     0
 74
     0
 75
     0
  3
SEISA$0
100
AcDbAlignedDimension
 13
739.0867295999997
 23
852.9691115301332
 33
0.0
 14
999.0867295999997
 24
852.9691115301332
 34
0.0
100
AcDbRotatedDimension
1001
ACAD_DSTYLE_DIMINSPECT
1070
   396
1000
100%
1070
   395
1000

1070
   394
1070
    33
1070
   393
1070
     0
  0
DIMENSION
  5
4BD6
102
{ACAD_XDICTIONARY
360
4BE3
102
}
102
{ACAD_REACTORS
330
4BED
102
}
330
1F
100
AcDbEntity
  8
AM_5 寸法線
100
AcDbDimension
  2
*D21
 10
981.5867295999996
 20
1036.969111530133
 30
0.0
 11
869.0867295999996
 21
1049.969111530133
 31
0.0
 70
    32
  1
%%c<>
 71
     5
 42
225.0
 73
     0
 74
     0
 75
     0
  3
SEISA$0
100
AcDbAlignedDimension
 13
756.5867295999996
 23
878.4691115301331
 33
0.0
 14
981.5867295999996
 24
878.4691115301331
 34
0.0
100
AcDbRotatedDimension
1001
ACAD_DSTYLE_DIMINSPECT
1070
   396
1000
100%
1070
   395
1000

1070
   394
1070
    33
1070
   393
1070
     0
  0
DIMENSION
  5
4C2D
102
{ACAD_XDICTIONARY
360
4C3A
102
}
102
{ACAD_REACTORS
330
4C44
102
}
330
1F
100
AcDbEntity
  8
AM_5 寸法線
100
AcDbDimension
  2
*D22
 10
839.0867295999996
 20
750.9691115301332
 30
0.0
 11
826.0867295999997
 21
665.9691115301333
 31
0.0
 70
    32
 71
     5
 42
170.0
 73
     0
 74
     0
 75
     0
  3
SEISA$0
100
AcDbAlignedDimension
 13
869.0867296000003
 23
580.9691115301331
 33
0.0
 14
869.0867296000003
 24
750.9691115301332
 34
0.0
 50
90.0
100
AcDbRotatedDimension
  0
DIMENSION
  5
4C45
102
{ACAD_XDICTIONARY
360
4C54
102
}
102
{ACAD_REACTORS
330
4C60
102
}
330
1F
100
AcDbEntity
  8
AM_5 寸法線
100
AcDbDimension
  2
*D23
 10
839.0867295999996
 20
766.9691115301332
 30
0.0
 11
827.4337725141156
 21
789.7989221541673
 31
0.0
 70
   160
 71
     5
 42
16.0
 73
     0
 74
     0
 75
     0
  3
SEISA$0
100
AcDbAlignedDimension
 13
861.2126215857152
 23
750.9691115301332
 33
0.0
 14
860.2394086639177
 24
766.9691115301332
 34
0.0
 50
90.0
100
AcDbRotatedDimension
1001
ACAD
1000
DSTYLE
1002
{
1070
   279
1070
     2
1002
}
  0
DIMENSION
  5
4C7A
102
{ACAD_XDICTIONARY
360
4C87
102
}
102
{ACAD_REACTORS
330
4C91
102
}
330
1F
100
AcDbEntity
  8
AM_5 寸法線
100
AcDbDimension
  2
*D24
 10
839.0867295999996
 20
936.969111530133
 30
0.0
 11
826.0867295999995
 21
851.9691115301332
 31
0.0
 70
    32
 71
     5
 42
169.9999999999999
 73
     0
 74
     0
 75
     0
  3
SEISA$0
100
AcDbAlignedDimension
 13
860.3244621465108
 23
766.9691115301332
 33
0.0
 14
861.7324344998959
 24
936.969111530133
 34
0.0
 50
90.0
100
AcDbRotatedDimension
  0
DIMENSION
  5
4CAE
102
{ACAD_XDICTIONARY
360
4CBD
102
}
102
{ACAD_REACTORS
330
4CC9
330
5B45
102
}
330
1F
100
AcDbEntity
  8
AM_5 寸法線
100
AcDbDimension
  2
*D25
 10
782.3272067551636
 20
682.4691115301329
 30
0.0
 11
782.3272067551636
 21
637.7691115301332
 31
0.0
 70
   160
 71
     5
 42
5.5
 73
     0
 74
     0
 75
     0
  3
SEISA$0
100
AcDbAlignedDimension
 13
756.5867295999996
 23
676.9691115301331
 33
0.0
 14
756.0867295999996
 24
682.4691115301333
 34
0.0
 50
90.0
100
AcDbRotatedDimension
  0
MTEXT
  5
59DD
330
1F
100
AcDbEntity
  8
AM_6 文字
100
AcDbMText
 10
1038.078280469779
 20
543.2765941958998
 30
0.0
 40
14.0
 41
294.6935946481381
 46
51.40931194123442
 71
     1
 72
     5
  1
{\W0.6;TYPE:SMV315/SMVH315\PSHAFT DIA:MAX/MIN φ160/φ100}
  7
SEISA
 73
     1
 44
1.0
  0
ARC
  5
5A15
330
1F
100
AcDbEntity
  8
AM_0 外形線1
100
AcDbCircle
 10
869.0867296
 20
815.9691115301331
 30
0.0
 40
116.6999999999999
100
AcDbArc
 50
170.3810343171995
 51
187.8802834267983
  0
ARC
  5
5A16
330
1F
100
AcDbEntity
  8
AM_7 中心線
100
AcDbCircle
 10
869.0867296
 20
815.9691115301331
 30
0.0
 40
120.0000000000003
100
AcDbArc
 50
167.9753008194384
 51
188.5506862214375
  0
DIMENSION
  5
5A75
102
{ACAD_XDICTIONARY
360
5A84
102
}
102
{ACAD_REACTORS
330
5A85
102
}
330
1F
100
AcDbEntity
  8
AM_5 寸法線
100
AcDbDimension
  2
*D26
 10
696.5867295999997
 20
580.9691115301331
 30
0.0
 11
683.5867295999994
 21
608.4691115301333
 31
0.0
 70
    32
 71
     5
 42
-1.0
 73
     0
 74
     0
 75
     0
  3
SEISA$0
100
AcDbAlignedDimension
 13
756.5867295999996
 23
579.9691115301333
 33
0.0
 14
761.3867295999997
 24
580.9691115301331
 34
0.0
 50
90.00000000000005
100
AcDbRotatedDimension
1001
ACAD_DSTYLE_DIMINSPECT
1070
   396
1000
100%
1070
   395
1000

1070
   394
1070
    33
1070
   393
1070
     0
  0
DIMENSION
  5
5B36
102
{ACAD_XDICTIONARY
360
5B44
102
}
102
{ACAD_REACTORS
330
5B45
330
5B87
102
}
330
1F
100
AcDbEntity
  8
AM_5 寸法線
100
AcDbDimension
  2
*D27
 10
782.3272067551637
 20
717.9691115301331
 30
0.0
 11
808.5366255773282
 21
674.5890918421117
 31
0.0
 70
   160
 71
     5
 42
35.5
 73
     0
 74
     0
 75
     0
  3
SEISA$0
100
AcDbAlignedDimension
 13
756.0867295999996
 23
682.4691115301333
 33
0.0
 14
756.5867295999996
 24
717.9691115301332
 34
0.0
 50
90.00000000000005
100
AcDbRotatedDimension
1001
ACAD_DSTYLE_DIMINSPECT
1070
   396
1000
100%
1070
   395
1000

1070
   394
1070
    33
1070
   393
1070
     0
1001
ACAD
1000
DSTYLE
1002
{
1070
   279
1070
     1
1002
}
  0
DIMENSION
  5
5B79
102
{ACAD_XDICTIONARY
360
5B86
102
}
102
{ACAD_REACTORS
330
5B87
102
}
330
1F
100
AcDbEntity
  8
AM_5 寸法線
100
AcDbDimension
  2
*D28
 10
782.3272067551637
 20
750.9691115301331
 30
0.0
 11
769.3272067551636
 21
734.4691115301332
 31
0.0
 70
    32
 71
     5
 42
33.0
 73
     0
 74
     0
 75
     0
  3
SEISA$0
100
AcDbAlignedDimension
 13
756.5867295999996
 23
717.9691115301332
 33
0.0
 14
758.0867295999996
 24
750.9691115301332
 34
0.0
 50
90.00000000000005
100
AcDbRotatedDimension
1001
ACAD_DSTYLE_DIMINSPECT
1070
   396
1000
100%
1070
   395
1000

1070
   394
1070
    33
1070
   393
1070
     0
  0
INSERT
  5
5C32
330
1F
100
AcDbEntity
  8
AM_11 想像線
100
AcDbBlockReference
  2
ケース
 10
739.0867295999997
 20
623.1618427568621
 30
0.0
  0
ENDSEC
  0
SECTION
  2
OBJECTS
  0
DICTIONARY
  5
C
330
0
100
AcDbDictionary
281
     1
  3
ACAD_COLOR
350
C5
  3
ACAD_GROUP
350
D
  3
ACAD_LAYOUT
350
1A
  3
ACAD_MATERIAL
350
C4
  3
ACAD_MLEADERSTYLE
350
2D5
  3
ACAD_MLINESTYLE
350
17
  3
ACAD_PLOTSETTINGS
350
19
  3
ACAD_PLOTSTYLENAME
350
E
  3
ACAD_SCALELIST
350
2B3
  3
ACAD_TABLESTYLE
350
121
  3
ACAD_VISUALSTYLE
350
27F
  3
ACDB_RECOMPOSE_DATA
350
2F7
  3
AcDbVariableDictionary
350
34
  3
AcmDictionary
350
49
  3
AMG
350
2B
  3
AMGSNAPSETTINGS
350
1DE
  0
DICTIONARY
  5
BF
330
2
100
AcDbDictionary
280
     1
281
     1
  3
ACAD_LAYERSTATES
360
2786
  3
AMLAYER_GROUPCOLORS
360
C0
  0
DICTIONARY
  5
29D7
330
10
100
AcDbDictionary
280
     1
281
     1
  3
ADSK_XREC_LAYER_RECONCILED
360
29D8
  0
DICTIONARY
  5
29D9
330
81
100
AcDbDictionary
280
     1
281
     1
  3
ADSK_XREC_LAYER_RECONCILED
360
29DA
  0
DICTIONARY
  5
29E0
330
25C9
100
AcDbDictionary
280
     1
281
     1
  3
ADSK_XREC_LAYER_RECONCILED
360
29E1
  0
DICTIONARY
  5
29E2
330
25CA
100
AcDbDictionary
280
     1
281
     1
  3
ADSK_XREC_LAYER_RECONCILED
360
29E3
  0
DICTIONARY
  5
29E8
330
26B3
100
AcDbDictionary
280
     1
281
     1
  3
ADSK_XREC_LAYER_RECONCILED
360
29E9
  0
DICTIONARY
  5
82
330
1F
100
AcDbDictionary
280
     1
281
     1
  3
ACAD_SORTENTS
360
A41
  0
DICTIONARY
  5
3439
330
3438
100
AcDbDictionary
280
     1
281
     1
  3
ACAD_SORTENTS
360
5522
  0
DICTIONARY
  5
4280
330
420F
100
AcDbDictionary
280
     1
281
     1
  3
ACAD_SORTENTS
360
5A37
  0
DICTIONARY
  5
43B6
330
42FF
100
AcDbDictionary
280
     1
281
     1
  3
ACAD_SORTENTS
360
54F1
  0
DICTIONARY
  5
4462
330
43F1
100
AcDbDictionary
280
     1
281
     1
  3
ACAD_SORTENTS
360
5AEC
  0
DICTIONARY
  5
460B
330
4552
100
AcDbDictionary
280
     1
281
     1
  3
ACAD_SORTENTS
360
559F
  0
DICTIONARY
  5
46CF
330
4660
100
AcDbDictionary
280
     1
281
     1
  3
ACAD_SORTENTS
360
56AB
  0
DICTIONARY
  5
4713
330
46EC
100
AcDbDictionary
280
     1
281
     1
  3
ACAD_SORTENTS
360
5C73
  0
DICTIONARY
  5
472E
330
4721
100
AcDbDictionary
280
     1
281
     1
  3
ACAD_DIMASSOC
360
4738
  0
DICTIONARY
  5
48AD
330
48A0
100
AcDbDictionary
280
     1
281
     1
  3
ACAD_DIMASSOC
360
48B7
  0
DICTIONARY
  5
48E8
330
48D9
100
AcDbDictionary
280
     1
281
     1
  3
ACAD_DIMASSOC
360
48F4
  0
DICTIONARY
  5
4904
330
48F5
100
AcDbDictionary
280
     1
281
     1
  3
ACAD_DIMASSOC
360
4910
  0
DICTIONARY
  5
49CC
330
49BF
100
AcDbDictionary
280
     1
281
     1
  3
ACAD_DIMASSOC
360
49D6
  0
DICTIONARY
  5
4BB3
330
4BA6
100
AcDbDictionary
280
     1
281
     1
  3
ACAD_DIMASSOC
360
4BBD
  0
DICTIONARY
  5
4BCB
330
4BBE
100
AcDbDictionary
280
     1
281
     1
  3
ACAD_DIMASSOC
360
4BD5
  0
DICTIONARY
  5
4BE3
330
4BD6
100
AcDbDictionary
280
     1
281
     1
  3
ACAD_DIMASSOC
360
4BED
  0
DICTIONARY
  5
4C3A
330
4C2D
100
AcDbDictionary
280
     1
281
     1
  3
ACAD_DIMASSOC
360
4C44
  0
DICTIONARY
  5
4C54
330
4C45
100
AcDbDictionary
280
     1
281
     1
  3
ACAD_DIMASSOC
360
4C60
  0
DICTIONARY
  5
4C87
330
4C7A
100
AcDbDictionary
280
     1
281
     1
  3
ACAD_DIMASSOC
360
4C91
  0
DICTIONARY
  5
4CBD
330
4CAE
100
AcDbDictionary
280
     1
281
     1
  3
ACAD_DIMASSOC
360
4CC9
  0
DICTIONARY
  5
5A84
330
5A75
100
AcDbDictionary
280
     1
281
     1
  3
ACAD_DIMASSOC
360
5A85
  0
DICTIONARY
  5
5B44
330
5B36
100
AcDbDictionary
280
     1
281
     1
  3
ACAD_DIMASSOC
360
5B45
  0
DICTIONARY
  5
5B86
330
5B79
100
AcDbDictionary
280
     1
281
     1
  3
ACAD_DIMASSOC
360
5B87
  0
DICTIONARY
  5
C5
102
{ACAD_REACTORS
330
C
102
}
330
C
100
AcDbDictionary
281
     1
  0
DICTIONARY
  5
D
102
{ACAD_REACTORS
330
C
102
}
330
C
100
AcDbDictionary
281
     1
  0
DICTIONARY
  5
1A
102
{ACAD_REACTORS
330
C
102
}
330
C
100
AcDbDictionary
281
     1
  3
Model
350
22
  3
レイアウト1
350
1E
  3
レイアウト2
350
26
  0
DICTIONARY
  5
C4
102
{ACAD_REACTORS
330
C
102
}
330
C
100
AcDbDictionary
281
     1
  3
ByBlock
350
27D
  3
ByLayer
350
27C
  3
Global
350
27E
  0
DICTIONARY
  5
2D5
102
{ACAD_REACTORS
330
C
102
}
330
C
100
AcDbDictionary
281
     1
  3
Standard
350
2D6
  0
DICTIONARY
  5
17
102
{ACAD_REACTORS
330
C
102
}
330
C
100
AcDbDictionary
281
     1
  3
Standard
350
18
  0
DICTIONARY
  5
19
102
{ACAD_REACTORS
330
C
102
}
330
C
100
AcDbDictionary
281
     1
  3
SEISA基本
350
1C7E
  0
ACDBDICTIONARYWDFLT
  5
E
102
{ACAD_REACTORS
330
C
102
}
330
C
100
AcDbDictionary
281
     1
  3
Normal
350
F
100
AcDbDictionaryWithDefault
340
F
  0
DICTIONARY
  5
2B3
102
{ACAD_REACTORS
330
C
102
}
330
C
100
AcDbDictionary
281
     1
  3
*A1
350
29F2
  3
*A2
350
59D3
  3
*A3
350
59D4
  3
A0
350
2B4
  3
A1
350
2B5
  3
A2
350
2B6
  3
A3
350
2B7
  3
A4
350
2B8
  3
A5
350
2B9
  3
A6
350
2BA
  3
A7
350
2BB
  3
A8
350
2BC
  3
A9
350
2BD
  3
B0
350
2BE
  3
B1
350
2BF
  3
B2
350
2C0
  3
B3
350
2C1
  3
B4
350
2C2
  3
B5
350
2C3
  3
B6
350
2C4
  3
B7
350
2C5
  3
B8
350
2C6
  3
B9
350
2C7
  3
C0
350
2C8
  3
C1
350
2C9
  3
C2
350
2CA
  3
C3
350
2CB
  3
C4
350
2CC
  3
C5
350
2CD
  3
C6
350
2CE
  3
C7
350
2CF
  3
C8
350
2D0
  3
C9
350
2D1
  3
D0
350
2D2
  3
D1
350
2D3
  3
D2
350
2D4
  0
DICTIONARY
  5
121
102
{ACAD_REACTORS
330
C
102
}
330
C
100
AcDbDictionary
281
     1
  3
Standard
350
122
  0
DICTIONARY
  5
27F
102
{ACAD_REACTORS
330
C
102
}
330
C
100
AcDbDictionary
281
     1
  3
2dWireframe
350
285
  3
3D Hidden
350
287
  3
3dWireframe
350
286
  3
Basic
350
284
  3
Brighten
350
28B
  3
ColorChange
350
28F
  3
Conceptual
350
288
  3
Dim
350
28A
  3
Facepattern
350
28E
  3
Flat
350
280
  3
FlatWithEdges
350
281
  3
Gouraud
350
282
  3
GouraudWithEdges
350
283
  3
Linepattern
350
28D
  3
Realistic
350
289
  3
Thicken
350
28C
  0
XRECORD
  5
2F7
102
{ACAD_REACTORS
330
C
102
}
330
C
100
AcDbXrecord
280
     1
 90
        1
330
122
  0
DICTIONARY
  5
34
102
{ACAD_REACTORS
330
C
102
}
330
C
100
AcDbDictionary
281
     1
  3
CANNOSCALE
350
2FA
  3
CMLEADERSTYLE
350
2F8
  3
CTABLESTYLE
350
140
  3
DIMASSOC
350
AC
  3
INDEXCTL
350
35
  3
LAYEREVAL
350
4ADB
  3
LAYERNOTIFY
350
4ADC
  3
LIGHTINGUNITS
350
2FB
  3
MSLTSCALE
350
2F9
  0
DICTIONARY
  5
49
102
{ACAD_REACTORS
330
C
102
}
330
C
100
AcDbDictionary
281
     1
  3
AcmBOM
350
161B
  3
AcmStdDictionary
350
4A
  3
AMDTSECTSYM_ARROWCOLOR
350
12B
  0
DICTIONARY
  5
2B
102
{ACAD_REACTORS
330
C
102
}
330
C
100
AcDbDictionary
281
     1
  0
DICTIONARY
  5
1DE
102
{ACAD_REACTORS
330
C
102
}
330
C
100
AcDbDictionary
281
     1
  0
DICTIONARY
  5
2786
102
{ACAD_REACTORS
330
BF
102
}
330
BF
100
AcDbDictionary
281
     1
  0
DICTIONARY
  5
C0
102
{ACAD_REACTORS
330
BF
102
}
330
BF
100
AcDbDictionary
280
     1
281
     1
  0
XRECORD
  5
29D8
102
{ACAD_REACTORS
330
29D7
102
}
330
29D7
100
AcDbXrecord
280
     1
290
     1
  0
XRECORD
  5
29DA
102
{ACAD_REACTORS
330
29D9
102
}
330
29D9
100
AcDbXrecord
280
     1
290
     1
  0
XRECORD
  5
29E1
102
{ACAD_REACTORS
330
29E0
102
}
330
29E0
100
AcDbXrecord
280
     1
290
     1
  0
XRECORD
  5
29E3
102
{ACAD_REACTORS
330
29E2
102
}
330
29E2
100
AcDbXrecord
280
     1
290
     1
  0
XRECORD
  5
29E9
102
{ACAD_REACTORS
330
29E8
102
}
330
29E8
100
AcDbXrecord
280
     1
290
     1
  0
SORTENTSTABLE
  5
A41
102
{ACAD_REACTORS
330
82
102
}
330
82
100
AcDbSortentsTable
330
1F
331
46F8
  5
489B
331
4BD6
  5
4C92
331
4CAE
  5
4D62
331
59DD
  5
59DD
331
4C45
  5
4D32
331
48A0
  5
492F
331
4235
  5
4684
331
4C7A
  5
4D34
331
5A15
  5
5A15
331
49BF
  5
4B9F
331
4339
  5
46F8
331
48F5
  5
49BF
331
4721
  5
489C
331
48D9
  5
49A7
331
4C2D
  5
4CAE
331
4BBE
  5
4C7A
331
4417
  5
4721
331
3DCC
  5
3DCC
331
458E
  5
488D
331
4684
  5
489A
331
5A16
  5
5A16
331
4BA6
  5
4C45
  0
SORTENTSTABLE
  5
5522
102
{ACAD_REACTORS
330
3439
102
}
330
3439
100
AcDbSortentsTable
330
3438
  0
SORTENTSTABLE
  5
5A37
102
{ACAD_REACTORS
330
4280
102
}
330
4280
100
AcDbSortentsTable
330
420F
331
4228
  5
422A
331
4231
  5
5A36
331
422A
  5
422C
331
4229
  5
422B
331
422C
  5
422E
331
422B
  5
422D
331
422E
  5
4230
331
422D
  5
422F
331
4212
  5
4214
331
422F
  5
4231
331
4230
  5
5A17
331
4214
  5
4216
331
4213
  5
4215
331
4217
  5
4219
331
4216
  5
4218
331
4215
  5
4217
331
4219
  5
421D
331
4218
  5
421C
331
421D
  5
421F
331
421C
  5
421E
331
421F
  5
4221
331
5A36
  5
4213
331
421E
  5
4220
331
4221
  5
4223
331
4220
  5
4222
331
4223
  5
4225
331
4222
  5
4224
331
4225
  5
4227
331
4224
  5
4226
331
5A17
  5
4212
331
4227
  5
4229
331
4226
  5
4228
  0
SORTENTSTABLE
  5
54F1
102
{ACAD_REACTORS
330
43B6
102
}
330
43B6
100
AcDbSortentsTable
330
42FF
  0
SORTENTSTABLE
  5
5AEC
102
{ACAD_REACTORS
330
4462
102
}
330
4462
100
AcDbSortentsTable
330
43F1
  0
SORTENTSTABLE
  5
559F
102
{ACAD_REACTORS
330
460B
102
}
330
460B
100
AcDbSortentsTable
330
4552
  0
SORTENTSTABLE
  5
56AB
102
{ACAD_REACTORS
330
46CF
102
}
330
46CF
100
AcDbSortentsTable
330
4660
  0
SORTENTSTABLE
  5
5C73
102
{ACAD_REACTORS
330
4713
102
}
330
4713
100
AcDbSortentsTable
330
46EC
  0
DIMASSOC
  5
4738
102
{ACAD_REACTORS
330
472E
102
}
330
472E
100
AcDbDimAssoc
330
4721
 90
        3
 70
     0
 71
     0
  1
AcDbOsnapPointRef
 72
    13
331
4235
331
4213
 73
     2
 91
        0
 40
0.0
 10
0.0
 20
0.0
 30
2.000000000000000E+50
 75
     0
  1
AcDbOsnapPointRef
 72
    13
331
4235
331
4225
 73
     2
 91
        0
 40
0.0
 10
0.0
 20
0.0
 30
2.000000000000000E+50
 75
     0
  0
DIMASSOC
  5
48B7
102
{ACAD_REACTORS
330
48AD
102
}
330
48AD
100
AcDbDimAssoc
330
48A0
 90
        2
 70
     0
 71
     0
  1
AcDbOsnapPointRef
 72
    13
331
458E
331
457F
 73
     2
 91
        0
 40
0.0
 10
0.0
 20
0.0
 30
2.000000000000000E+50
 75
     0
  0
DIMASSOC
  5
48F4
102
{ACAD_REACTORS
330
48E8
102
}
330
48E8
100
AcDbDimAssoc
330
48D9
 90
        3
 70
     0
 71
     0
  1
AcDbOsnapPointRef
 72
    13
331
458E
331
4583
 73
     2
 91
        0
 40
0.0
 10
0.0
 20
0.0
 30
2.000000000000000E+50
 75
     0
  1
AcDbOsnapPointRef
 72
    13
331
458E
331
4580
 73
     2
 91
        0
 40
0.0
 10
0.0
 20
0.0
 30
2.000000000000000E+50
 75
     0
  0
DIMASSOC
  5
4910
102
{ACAD_REACTORS
330
4904
102
}
330
4904
100
AcDbDimAssoc
330
48F5
 90
        3
 70
     0
 71
     0
  1
AcDbOsnapPointRef
 72
    13
331
4339
331
4332
 73
     2
 91
        0
 40
0.0
 10
0.0
 20
0.0
 30
2.000000000000000E+50
 75
     0
  1
AcDbOsnapPointRef
 72
    13
331
458E
331
4583
 73
     2
 91
        0
 40
0.0
 10
0.0
 20
0.0
 30
2.000000000000000E+50
 75
     0
  0
DIMASSOC
  5
49D6
102
{ACAD_REACTORS
330
49CC
102
}
330
49CC
100
AcDbDimAssoc
330
49BF
 90
        3
 70
     0
 71
     0
  1
AcDbOsnapPointRef
 72
    13
331
4235
331
4212
 73
     2
 91
        0
 40
0.0
 10
0.0
 20
0.0
 30
2.000000000000000E+50
 75
     0
  1
AcDbOsnapPointRef
 72
     8
331
4417
331
43F5
 73
     2
 91
        0
 40
0.0
 10
0.0
 20
0.0
 30
0.0
 75
     1
  1
AcDbOsnapPointRef
 72
    13
331
4235
331
4212
 73
     2
 91
        0
 40
0.0
 10
0.0
 20
0.0
 30
2.000000000000000E+50
 75
     0
  0
DIMASSOC
  5
4BBD
102
{ACAD_REACTORS
330
4BB3
102
}
330
4BB3
100
AcDbDimAssoc
330
4BA6
 90
        3
 70
     0
 71
     0
  1
AcDbOsnapPointRef
 72
     1
331
458E
331
4564
 73
     2
 91
        0
 40
1.0
 10
0.0
 20
0.0
 30
2.000000000000000E+50
 75
     0
  1
AcDbOsnapPointRef
 72
     8
331
458E
331
4585
 73
     2
 91
        0
 40
0.9999999999999939
 10
0.0
 20
0.0
 30
0.0
 75
     1
  1
AcDbOsnapPointRef
 72
     1
331
458E
331
4564
 73
     2
 91
        0
 40
1.0
 10
0.0
 20
0.0
 30
2.000000000000000E+50
 75
     0
  0
DIMASSOC
  5
4BD5
102
{ACAD_REACTORS
330
4BCB
102
}
330
4BCB
100
AcDbDimAssoc
330
4BBE
 90
        3
 70
     0
 71
     0
  1
AcDbOsnapPointRef
 72
     1
331
458E
331
4555
 73
     2
 91
        0
 40
1.0
 10
0.0
 20
0.0
 30
2.000000000000000E+50
 75
     0
  1
AcDbOsnapPointRef
 72
     1
331
458E
331
4581
 73
     2
 91
        0
 40
1.0
 10
0.0
 20
0.0
 30
2.000000000000000E+50
 75
     0
  0
DIMASSOC
  5
4BED
102
{ACAD_REACTORS
330
4BE3
102
}
330
4BE3
100
AcDbDimAssoc
330
4BD6
 90
        3
 70
     0
 71
     0
  1
AcDbOsnapPointRef
 72
    13
331
4417
331
43F6
 73
     2
 91
        0
 40
0.0
 10
0.0
 20
0.0
 30
2.000000000000000E+50
 75
     0
  1
AcDbOsnapPointRef
 72
    13
331
4417
331
4407
 73
     2
 91
        0
 40
0.0
 10
0.0
 20
0.0
 30
2.000000000000000E+50
 75
     0
  0
DIMASSOC
  5
4C44
102
{ACAD_REACTORS
330
4C3A
102
}
330
4C3A
100
AcDbDimAssoc
330
4C2D
 90
        3
 70
     0
 71
     0
  1
AcDbOsnapPointRef
 72
     6
331
4235
331
4212
 73
     2
 91
        0
 40
0.499999999999999
 10
0.0
 20
0.0
 30
0.0
332
3DCC
 74
     2
 92
        0
 75
     0
  1
AcDbOsnapPointRef
 72
     8
331
4235
331
4222
 73
     2
 91
        0
 40
1.0
 10
0.0
 20
0.0
 30
0.0
 75
     1
  1
AcDbOsnapPointRef
 72
     6
331
4235
331
4212
 73
     2
 91
        0
 40
0.499999999999999
 10
0.0
 20
0.0
 30
0.0
332
3DCC
 74
     2
 92
        0
 75
     0
  0
DIMASSOC
  5
4C60
102
{ACAD_REACTORS
330
4C54
102
}
330
4C54
100
AcDbDimAssoc
330
4C45
 90
        2
 70
     0
 71
     0
  1
AcDbOsnapPointRef
 72
    10
331
4417
331
43F4
 73
     2
 91
        0
 40
0.9202944059812438
 10
0.0
 20
0.0
 30
0.0
 75
     0
  0
DIMASSOC
  5
4C91
102
{ACAD_REACTORS
330
4C87
102
}
330
4C87
100
AcDbDimAssoc
330
4C7A
 90
        3
 70
     0
 71
     0
  1
AcDbOsnapPointRef
 72
    10
331
4417
331
43F4
 73
     2
 91
        0
 40
0.9210606535721741
 10
0.0
 20
0.0
 30
0.0
 75
     0
  1
AcDbOsnapPointRef
 72
    10
331
4417
331
43F5
 73
     2
 91
        0
 40
0.5341425027859975
 10
0.0
 20
0.0
 30
0.0
 75
     0
  0
DIMASSOC
  5
4CC9
102
{ACAD_REACTORS
330
4CBD
102
}
330
4CBD
100
AcDbDimAssoc
330
4CAE
 90
        3
 70
     0
 71
     0
  1
AcDbOsnapPointRef
 72
    13
331
4339
331
4308
 73
     2
 91
        0
 40
0.0
 10
0.0
 20
0.0
 30
2.000000000000000E+50
 75
     0
  1
AcDbOsnapPointRef
 72
    13
331
4235
331
421D
 73
     2
 91
        0
 40
0.0
 10
0.0
 20
0.0
 30
2.000000000000000E+50
 75
     0
  0
DIMASSOC
  5
5A85
102
{ACAD_REACTORS
330
5A84
102
}
330
5A84
100
AcDbDimAssoc
330
5A75
 90
        2
 70
     0
 71
     0
  1
AcDbOsnapPointRef
 72
     1
331
4235
331
4215
 73
     0
 91
        0
 40
0.0
 10
0.0
 20
0.0
 30
2.000000000000000E+50
 75
     0
  0
DIMASSOC
  5
5B45
102
{ACAD_REACTORS
330
5B44
102
}
330
5B44
100
AcDbDimAssoc
330
5B36
 90
        3
 70
     0
 71
     0
  1
AcDbOsnapPointRef
 72
     4
331
4CAE
331
521E
 73
     0
 91
        0
 40
0.0
 10
0.0
 20
0.0
 30
0.0
 75
     0
  1
AcDbOsnapPointRef
 72
     1
331
4235
331
4220
 73
     0
 91
        0
 40
0.0
 10
0.0
 20
0.0
 30
2.000000000000000E+50
 75
     0
  0
DIMASSOC
  5
5B87
102
{ACAD_REACTORS
330
5B86
102
}
330
5B86
100
AcDbDimAssoc
330
5B79
 90
        3
 70
     0
 71
     0
  1
AcDbOsnapPointRef
 72
     4
331
5B36
331
5B77
 73
     0
 91
        0
 40
0.0
 10
0.0
 20
0.0
 30
0.0
 75
     0
  1
AcDbOsnapPointRef
 72
    13
331
4235
331
4222
 73
     0
 91
        0
 40
0.0
 10
0.0
 20
0.0
 30
2.000000000000000E+50
 75
     0
  0
LAYOUT
  5
22
102
{ACAD_REACTORS
330
1A
102
}
330
1A
100
AcDbPlotSettings
  1

  2
KONICA MINOLTA 501 PCL
  4
A4
  6

 40
5.027082920074462
 41
5.027085781097412
 42
5.027069091796875
 43
5.027069091796875
 44
209.9733276367186
 45
296.9259948730469
 46
0.0
 47
27.62862888900415
 48
0.0
 49
0.0
140
0.0
141
0.0
142
1.0
143
2.84443867503043
 70
 11956
 72
     1
 73
     0
 74
     1
  7
SEISA.ctb
 75
     0
147
0.3515632130790452
 76
     0
 77
     2
 78
   300
148
-676.4436098666956
149
-478.1652876713373
100
AcDbLayout
  1
Model
 70
     1
 71
     0
 10
0.0
 20
0.0
 11
12.0
 21
9.0
 12
0.0
 22
0.0
 32
0.0
 14
0.0
 24
0.0
 34
0.0
 15
0.0
 25
0.0
 35
0.0
146
0.0
 13
0.0
 23
0.0
 33
0.0
 16
1.0
 26
0.0
 36
0.0
 17
0.0
 27
1.0
 37
0.0
 76
     0
330
1F
331
27A
1001
ACAD_PSEXT
1000
KONICA MINOLTA 501 PCL
1000
KONICA MINOLTA 501/421/361PCL
1000
IP_192.168.20.231_(1)
1000

1070
     0
  0
LAYOUT
  5
1E
102
{ACAD_REACTORS
330
1A
102
}
330
1A
100
AcDbPlotSettings
  1

  2
none_device
  4
Letter_(8.50_x_11.00_Inches)
  6

 40
6.349999904632567
 41
6.349999904632567
 42
6.350006103515625
 43
6.350006103515625
 44
215.8999938964844
 45
279.3999938964844
 46
0.0
 47
0.0
 48
0.0
 49
0.0
140
0.0
141
0.0
142
1.0
143
1.0
 70
 15024
 72
     1
 73
     1
 74
     5
  7
SEISA.ctb
 75
    16
147
1.0
 76
     0
 77
     2
 78
   300
148
0.0
149
0.0
100
AcDbLayout
  1
レイアウト1
 70
     1
 71
     1
 10
0.0
 20
0.0
 11
420.0
 21
297.0
 12
0.0
 22
0.0
 32
0.0
 14
1.000000000000000E+20
 24
1.000000000000000E+20
 34
1.000000000000000E+20
 15
-1.000000000000000E+20
 25
-1.000000000000000E+20
 35
-1.000000000000000E+20
146
0.0
 13
0.0
 23
0.0
 33
0.0
 16
1.0
 26
0.0
 36
0.0
 17
0.0
 27
1.0
 37
0.0
 76
     0
330
1B
  0
LAYOUT
  5
26
102
{ACAD_REACTORS
330
1A
102
}
330
1A
100
AcDbPlotSettings
  1

  2
none_device
  4
Letter_(8.50_x_11.00_Inches)
  6

 40
6.349999904632567
 41
6.349999904632567
 42
6.350006103515625
 43
6.350006103515625
 44
215.8999938964844
 45
279.3999938964844
 46
0.0
 47
0.0
 48
0.0
 49
0.0
140
0.0
141
0.0
142
1.0
143
1.0
 70
 15024
 72
     1
 73
     1
 74
     5
  7
SEISA.ctb
 75
    16
147
1.0
 76
     0
 77
     2
 78
   300
148
0.0
149
0.0
100
AcDbLayout
  1
レイアウト2
 70
     1
 71
     2
 10
0.0
 20
0.0
 11
12.0
 21
9.0
 12
0.0
 22
0.0
 32
0.0
 14
0.0
 24
0.0
 34
0.0
 15
0.0
 25
0.0
 35
0.0
146
0.0
 13
0.0
 23
0.0
 33
0.0
 16
1.0
 26
0.0
 36
0.0
 17
0.0
 27
1.0
 37
0.0
 76
     0
330
23
  0
MATERIAL
  5
27D
102
{ACAD_REACTORS
330
C4
102
}
330
C4
100
AcDbMaterial
  1
ByBlock
 73
     1
 78
     1
172
     1
176
     1
270
     1
274
     1
 94
       63
  0
MATERIAL
  5
27C
102
{ACAD_REACTORS
330
C4
102
}
330
C4
100
AcDbMaterial
  1
ByLayer
 73
     1
 78
     1
172
     1
176
     1
270
     1
274
     1
 94
       63
  0
MATERIAL
  5
27E
102
{ACAD_REACTORS
330
C4
102
}
330
C4
100
AcDbMaterial
  1
Global
 73
     1
 78
     1
172
     1
176
     1
270
     1
274
     1
 94
       63
  0
MLEADERSTYLE
  5
2D6
102
{ACAD_REACTORS
330
2D5
102
}
330
2D5
100
AcDbMLeaderStyle
170
     2
171
     1
172
     0
 90
        2
 40
0.0
 41
0.0
173
     1
 91
-1056964608
340
14
 92
       -2
290
     1
 42
2.0
291
     1
 43
0.36
  3
Standard
 44
4.0
300

342
11
174
     1
178
     6
175
     1
176
     0
 93
-1056964608
 45
4.0
292
     0
297
     0
 46
4.0
 94
-1056964608
 47
1.0
 49
1.0
140
1.0
293
     1
141
0.0
294
     1
177
     0
142
1.0
295
     0
296
     0
143
0.125
1001
ACAD_MLEADERVER
1070
     2
  0
MLINESTYLE
  5
18
102
{ACAD_REACTORS
330
17
102
}
330
17
100
AcDbMlineStyle
  2
STANDARD
 70
     0
  3

 62
   256
 51
90.0
 52
90.0
 71
     2
 49
0.5
 62
   256
  6
BYLAYER
 49
-0.5
 62
   256
  6
BYLAYER
  0
PLOTSETTINGS
  5
1C7E
102
{ACAD_REACTORS
330
19
102
}
330
19
100
AcDbPlotSettings
  1
SEISA基本
  2
none_device
  4
Letter_(8.50_x_11.00_Inches)
  6

 40
6.349999904632567
 41
6.349999904632567
 42
6.350006103515625
 43
6.350006103515625
 44
215.8999938964844
 45
279.3999938964844
 46
7.302498226506357
 47
0.0
 48
0.0
 49
0.0
140
0.0
141
0.0
142
1.0
143
1.574803221122935
 70
 11956
 72
     1
 73
     1
 74
     2
  7
SEISA.ctb
 75
     0
147
0.6349999711627054
 76
     0
 77
     2
 78
   300
148
0.0
149
0.0
1001
ACAD_PSEXT
1000
なし
1000
なし
1000
適切ではありません
1000
新しいプロッタ環境設定名を選択しない限り、レイアウトは印刷されません。
1070
     0
  0
ACDBPLACEHOLDER
  5
F
102
{ACAD_REACTORS
330
E
102
}
330
E
  0
SCALE
  5
29F2
102
{ACAD_REACTORS
330
2B3
102
}
330
2B3
100
AcDbScale
 70
     0
300
1:3
140
1.0
141
3.0
290
     0
  0
SCALE
  5
59D3
102
{ACAD_REACTORS
330
2B3
102
}
330
2B3
100
AcDbScale
 70
     0
300
1:2.5
140
1.0
141
2.5
290
     0
  0
SCALE
  5
59D4
102
{ACAD_REACTORS
330
2B3
102
}
330
2B3
100
AcDbScale
 70
     0
300
1:1.5
140
1.0
141
1.5
290
     0
  0
SCALE
  5
2B4
102
{ACAD_REACTORS
330
2B3
102
}
330
2B3
100
AcDbScale
 70
     0
300
1:1
140
1.0
141
1.0
290
     1
  0
SCALE
  5
2B5
102
{ACAD_REACTORS
330
2B3
102
}
330
2B3
100
AcDbScale
 70
     0
300
1:2
140
1.0
141
2.0
290
     0
  0
SCALE
  5
2B6
102
{ACAD_REACTORS
330
2B3
102
}
330
2B3
100
AcDbScale
 70
     0
300
1:4
140
1.0
141
4.0
290
     0
  0
SCALE
  5
2B7
102
{ACAD_REACTORS
330
2B3
102
}
330
2B3
100
AcDbScale
 70
     0
300
1:5
140
1.0
141
5.0
290
     0
  0
SCALE
  5
2B8
102
{ACAD_REACTORS
330
2B3
102
}
330
2B3
100
AcDbScale
 70
     0
300
1:8
140
1.0
141
8.0
290
     0
  0
SCALE
  5
2B9
102
{ACAD_REACTORS
330
2B3
102
}
330
2B3
100
AcDbScale
 70
     0
300
1:10
140
1.0
141
10.0
290
     0
  0
SCALE
  5
2BA
102
{ACAD_REACTORS
330
2B3
102
}
330
2B3
100
AcDbScale
 70
     0
300
1:16
140
1.0
141
16.0
290
     0
  0
SCALE
  5
2BB
102
{ACAD_REACTORS
330
2B3
102
}
330
2B3
100
AcDbScale
 70
     0
300
1:20
140
1.0
141
20.0
290
     0
  0
SCALE
  5
2BC
102
{ACAD_REACTORS
330
2B3
102
}
330
2B3
100
AcDbScale
 70
     0
300
1:30
140
1.0
141
30.0
290
     0
  0
SCALE
  5
2BD
102
{ACAD_REACTORS
330
2B3
102
}
330
2B3
100
AcDbScale
 70
     0
300
1:40
140
1.0
141
40.0
290
     0
  0
SCALE
  5
2BE
102
{ACAD_REACTORS
330
2B3
102
}
330
2B3
100
AcDbScale
 70
     0
300
1:50
140
1.0
141
50.0
290
     0
  0
SCALE
  5
2BF
102
{ACAD_REACTORS
330
2B3
102
}
330
2B3
100
AcDbScale
 70
     0
300
1:100
140
1.0
141
100.0
290
     0
  0
SCALE
  5
2C0
102
{ACAD_REACTORS
330
2B3
102
}
330
2B3
100
AcDbScale
 70
     0
300
2:1
140
2.0
141
1.0
290
     0
  0
SCALE
  5
2C1
102
{ACAD_REACTORS
330
2B3
102
}
330
2B3
100
AcDbScale
 70
     0
300
4:1
140
4.0
141
1.0
290
     0
  0
SCALE
  5
2C2
102
{ACAD_REACTORS
330
2B3
102
}
330
2B3
100
AcDbScale
 70
     0
300
8:1
140
8.0
141
1.0
290
     0
  0
SCALE
  5
2C3
102
{ACAD_REACTORS
330
2B3
102
}
330
2B3
100
AcDbScale
 70
     0
300
10:1
140
10.0
141
1.0
290
     0
  0
SCALE
  5
2C4
102
{ACAD_REACTORS
330
2B3
102
}
330
2B3
100
AcDbScale
 70
     0
300
100:1
140
100.0
141
1.0
290
     0
  0
SCALE
  5
2C5
102
{ACAD_REACTORS
330
2B3
102
}
330
2B3
100
AcDbScale
 70
     0
300
1/128" = 1'-0"
140
0.0078125
141
12.0
290
     0
  0
SCALE
  5
2C6
102
{ACAD_REACTORS
330
2B3
102
}
330
2B3
100
AcDbScale
 70
     0
300
1/64" = 1'-0"
140
0.015625
141
12.0
290
     0
  0
SCALE
  5
2C7
102
{ACAD_REACTORS
330
2B3
102
}
330
2B3
100
AcDbScale
 70
     0
300
1/32" = 1'-0"
140
0.03125
141
12.0
290
     0
  0
SCALE
  5
2C8
102
{ACAD_REACTORS
330
2B3
102
}
330
2B3
100
AcDbScale
 70
     0
300
1/16" = 1'-0"
140
0.0625
141
12.0
290
     0
  0
SCALE
  5
2C9
102
{ACAD_REACTORS
330
2B3
102
}
330
2B3
100
AcDbScale
 70
     0
300
3/32" = 1'-0"
140
0.09375
141
12.0
290
     0
  0
SCALE
  5
2CA
102
{ACAD_REACTORS
330
2B3
102
}
330
2B3
100
AcDbScale
 70
     0
300
1/8" = 1'-0"
140
0.125
141
12.0
290
     0
  0
SCALE
  5
2CB
102
{ACAD_REACTORS
330
2B3
102
}
330
2B3
100
AcDbScale
 70
     0
300
3/16" = 1'-0"
140
0.1875
141
12.0
290
     0
  0
SCALE
  5
2CC
102
{ACAD_REACTORS
330
2B3
102
}
330
2B3
100
AcDbScale
 70
     0
300
1/4" = 1'-0"
140
0.25
141
12.0
290
     0
  0
SCALE
  5
2CD
102
{ACAD_REACTORS
330
2B3
102
}
330
2B3
100
AcDbScale
 70
     0
300
3/8" = 1'-0"
140
0.375
141
12.0
290
     0
  0
SCALE
  5
2CE
102
{ACAD_REACTORS
330
2B3
102
}
330
2B3
100
AcDbScale
 70
     0
300
1/2" = 1'-0"
140
0.5
141
12.0
290
     0
  0
SCALE
  5
2CF
102
{ACAD_REACTORS
330
2B3
102
}
330
2B3
100
AcDbScale
 70
     0
300
3/4" = 1'-0"
140
0.75
141
12.0
290
     0
  0
SCALE
  5
2D0
102
{ACAD_REACTORS
330
2B3
102
}
330
2B3
100
AcDbScale
 70
     0
300
1" = 1'-0"
140
1.0
141
12.0
290
     0
  0
SCALE
  5
2D1
102
{ACAD_REACTORS
330
2B3
102
}
330
2B3
100
AcDbScale
 70
     0
300
1-1/2" = 1'-0"
140
1.5
141
12.0
290
     0
  0
SCALE
  5
2D2
102
{ACAD_REACTORS
330
2B3
102
}
330
2B3
100
AcDbScale
 70
     0
300
3" = 1'-0"
140
3.0
141
12.0
290
     0
  0
SCALE
  5
2D3
102
{ACAD_REACTORS
330
2B3
102
}
330
2B3
100
AcDbScale
 70
     0
300
6" = 1'-0"
140
6.0
141
12.0
290
     0
  0
SCALE
  5
2D4
102
{ACAD_REACTORS
330
2B3
102
}
330
2B3
100
AcDbScale
 70
     0
300
1'-0" = 1'-0"
140
12.0
141
12.0
290
     0
  0
TABLESTYLE
  5
122
102
{ACAD_XDICTIONARY
360
2F5
102
}
102
{ACAD_REACTORS
330
121
102
}
330
121
100
AcDbTableStyle
  3
Standard
 70
     0
 71
     0
 40
1.5
 41
1.5
280
     0
281
     0
  7
STANDARD
140
4.5
170
     2
 62
     0
 63
     7
283
     0
 90
      512
 91
        0
  1

274
    -2
284
     1
 64
     0
275
    -2
285
     1
 65
     0
276
    -2
286
     1
 66
     0
277
    -2
287
     1
 67
     0
278
    -2
288
     1
 68
     0
279
    -2
289
     1
 69
     0
  7
STANDARD
140
6.0
170
     5
 62
     0
 63
     7
283
     0
 90
      512
 91
        0
  1

274
    -2
284
     1
 64
     0
275
    -2
285
     1
 65
     0
276
    -2
286
     1
 66
     0
277
    -2
287
     1
 67
     0
278
    -2
288
     1
 68
     0
279
    -2
289
     1
 69
     0
  7
STANDARD
140
4.5
170
     5
 62
     0
 63
     7
283
     0
 90
      512
 91
        0
  1

274
    -2
284
     1
 64
     0
275
    -2
285
     1
 65
     0
276
    -2
286
     1
 66
     0
277
    -2
287
     1
 67
     0
278
    -2
288
     1
 68
     0
279
    -2
289
     1
 69
     0
  0
VISUALSTYLE
  5
285
102
{ACAD_REACTORS
330
27F
102
}
330
27F
100
AcDbVisualStyle
  2
2dWireframe
 70
     4
 71
     0
 72
     2
 73
     0
 90
        0
 40
-0.6
 41
-30.0
 62
     5
 63
     7
421
 16777215
 74
     1
 91
        4
 64
     7
 65
   257
 75
     1
175
     1
 42
1.0
 92
        0
 66
   257
 43
1.0
 76
     1
 77
     6
 78
     2
 67
     7
 79
     5
170
     0
171
     0
290
     0
174
     0
 93
        1
 44
0.0
173
     0
291
     0
 45
0.0
  0
VISUALSTYLE
  5
287
102
{ACAD_REACTORS
330
27F
102
}
330
27F
100
AcDbVisualStyle
  2
3D Hidden
 70
     6
 71
     1
 72
     2
 73
     2
 90
        0
 40
-0.6
 41
-30.0
 62
     5
 63
     7
421
 16777215
 74
     2
 91
        2
 64
     7
 65
   257
 75
     2
175
     1
 42
40.0
 92
        0
 66
   257
 43
1.0
 76
     1
 77
     6
 78
     2
 67
     7
 79
     3
170
     0
171
     0
290
     0
174
     0
 93
        1
 44
0.0
173
     0
291
     0
 45
0.0
  0
VISUALSTYLE
  5
286
102
{ACAD_REACTORS
330
27F
102
}
330
27F
100
AcDbVisualStyle
  2
3dWireframe
 70
     5
 71
     0
 72
     2
 73
     0
 90
        0
 40
-0.6
 41
-30.0
 62
     5
 63
     7
421
 16777215
 74
     1
 91
        4
 64
     7
 65
   257
 75
     1
175
     1
 42
1.0
 92
        0
 66
   257
 43
1.0
 76
     1
 77
     6
 78
     2
 67
     7
 79
     5
170
     0
171
     0
290
     0
174
     0
 93
        1
 44
0.0
173
     0
291
     0
 45
0.0
  0
VISUALSTYLE
  5
284
102
{ACAD_REACTORS
330
27F
102
}
330
27F
100
AcDbVisualStyle
  2
Basic
 70
     7
 71
     1
 72
     0
 73
     1
 90
        0
 40
-0.6
 41
-30.0
 62
     5
 63
     7
421
 16777215
 74
     0
 91
        4
 64
     7
 65
   257
 75
     1
175
     1
 42
1.0
 92
        8
 66
     7
 43
1.0
 76
     1
 77
     6
 78
     2
 67
     7
 79
     5
170
     0
171
     0
290
     0
174
     0
 93
        1
 44
0.0
173
     0
291
     1
 45
0.0
  0
VISUALSTYLE
  5
28B
102
{ACAD_REACTORS
330
27F
102
}
330
27F
100
AcDbVisualStyle
  2
Brighten
 70
    12
 71
     2
 72
     2
 73
     0
 90
        0
 40
-0.6
 41
-30.0
 62
     5
 63
     7
421
 16777215
 74
     1
 91
        4
 64
     7
 65
   257
 75
     1
175
     1
 42
1.0
 92
        8
 66
     7
 43
1.0
 76
     1
 77
     6
 78
     2
 67
     7
 79
     5
170
     0
171
     0
290
     0
174
     0
 93
        1
 44
50.0
173
     0
291
     1
 45
0.0
  0
VISUALSTYLE
  5
28F
102
{ACAD_REACTORS
330
27F
102
}
330
27F
100
AcDbVisualStyle
  2
ColorChange
 70
    16
 71
     2
 72
     2
 73
     3
 90
        0
 40
-0.6
 41
-30.0
 62
     5
 63
     8
421
  8421504
 74
     1
 91
        4
 64
     7
 65
   257
 75
     1
175
     1
 42
1.0
 92
        8
 66
     8
424
  8421504
 43
1.0
 76
     1
 77
     6
 78
     2
 67
     7
 79
     5
170
     0
171
     0
290
     0
174
     0
 93
        1
 44
0.0
173
     0
291
     1
 45
0.0
  0
VISUALSTYLE
  5
288
102
{ACAD_REACTORS
330
27F
102
}
330
27F
100
AcDbVisualStyle
  2
Conceptual
 70
     9
 71
     3
 72
     2
 73
     0
 90
        0
 40
-0.6
 41
-30.0
 62
     5
 63
     7
421
 16777215
 74
     2
 91
        2
 64
     7
 65
   257
 75
     1
175
     1
 42
40.0
 92
        8
 66
     7
 43
1.0
 76
     1
 77
     6
 78
     2
 67
     7
 79
     3
170
     0
171
     0
290
     0
174
     0
 93
        1
 44
0.0
173
     0
291
     0
 45
0.0
  0
VISUALSTYLE
  5
28A
102
{ACAD_REACTORS
330
27F
102
}
330
27F
100
AcDbVisualStyle
  2
Dim
 70
    11
 71
     2
 72
     2
 73
     0
 90
        0
 40
-0.6
 41
-30.0
 62
     5
 63
     7
421
 16777215
 74
     1
 91
        4
 64
     7
 65
   257
 75
     1
175
     1
 42
1.0
 92
        8
 66
     7
 43
1.0
 76
     1
 77
     6
 78
     2
 67
     7
 79
     5
170
     0
171
     0
290
     0
174
     0
 93
        1
 44
-50.0
173
     0
291
     1
 45
0.0
  0
VISUALSTYLE
  5
28E
102
{ACAD_REACTORS
330
27F
102
}
330
27F
100
AcDbVisualStyle
  2
Facepattern
 70
    15
 71
     2
 72
     2
 73
     0
 90
        0
 40
-0.6
 41
-30.0
 62
     5
 63
     7
421
 16777215
 74
     1
 91
        4
 64
     7
 65
   257
 75
     1
175
     1
 42
1.0
 92
        8
 66
     7
 43
1.0
 76
     1
 77
     6
 78
     2
 67
     7
 79
     5
170
     0
171
     0
290
     0
174
     0
 93
        1
 44
0.0
173
     0
291
     1
 45
0.0
  0
VISUALSTYLE
  5
280
102
{ACAD_REACTORS
330
27F
102
}
330
27F
100
AcDbVisualStyle
  2
Flat
 70
     0
 71
     2
 72
     1
 73
     1
 90
        2
 40
-0.6
 41
30.0
 62
     5
 63
     7
421
 16777215
 74
     0
 91
        4
 64
     7
 65
   257
 75
     1
175
     1
 42
1.0
 92
        8
 66
     7
 43
1.0
 76
     1
 77
     6
 78
     2
 67
     7
 79
     5
170
     0
171
     0
290
     0
174
     0
 93
       13
 44
0.0
173
     0
291
     1
 45
0.0
  0
VISUALSTYLE
  5
281
102
{ACAD_REACTORS
330
27F
102
}
330
27F
100
AcDbVisualStyle
  2
FlatWithEdges
 70
     1
 71
     2
 72
     1
 73
     1
 90
        2
 40
-0.6
 41
30.0
 62
     5
 63
     7
421
 16777215
 74
     1
 91
        4
 64
     7
 65
   257
 75
     1
175
     1
 42
1.0
 92
        0
 66
   257
 43
1.0
 76
     1
 77
     6
 78
     2
 67
     7
 79
     5
170
     0
171
     0
290
     0
174
     0
 93
       13
 44
0.0
173
     0
291
     1
 45
0.0
  0
VISUALSTYLE
  5
282
102
{ACAD_REACTORS
330
27F
102
}
330
27F
100
AcDbVisualStyle
  2
Gouraud
 70
     2
 71
     2
 72
     2
 73
     1
 90
        2
 40
-0.6
 41
30.0
 62
     5
 63
     7
421
 16777215
 74
     0
 91
        4
 64
     7
 65
   257
 75
     1
175
     1
 42
1.0
 92
        0
 66
     7
 43
1.0
 76
     1
 77
     6
 78
     2
 67
     7
 79
     5
170
     0
171
     0
290
     0
174
     0
 93
       13
 44
0.0
173
     0
291
     1
 45
0.0
  0
VISUALSTYLE
  5
283
102
{ACAD_REACTORS
330
27F
102
}
330
27F
100
AcDbVisualStyle
  2
GouraudWithEdges
 70
     3
 71
     2
 72
     2
 73
     1
 90
        2
 40
-0.6
 41
30.0
 62
     5
 63
     7
421
 16777215
 74
     1
 91
        4
 64
     7
 65
   257
 75
     1
175
     1
 42
1.0
 92
        0
 66
   257
 43
1.0
 76
     1
 77
     6
 78
     2
 67
     7
 79
     5
170
     0
171
     0
290
     0
174
     0
 93
       13
 44
0.0
173
     0
291
     1
 45
0.0
  0
VISUALSTYLE
  5
28D
102
{ACAD_REACTORS
330
27F
102
}
330
27F
100
AcDbVisualStyle
  2
Linepattern
 70
    14
 71
     2
 72
     2
 73
     0
 90
        0
 40
-0.6
 41
-30.0
 62
     5
 63
     7
421
 16777215
 74
     1
 91
        4
 64
     7
 65
   257
 75
     7
175
     7
 42
1.0
 92
        8
 66
     7
 43
1.0
 76
     1
 77
     6
 78
     2
 67
     7
 79
     5
170
     0
171
     0
290
     0
174
     0
 93
        1
 44
0.0
173
     0
291
     1
 45
0.0
  0
VISUALSTYLE
  5
289
102
{ACAD_REACTORS
330
27F
102
}
330
27F
100
AcDbVisualStyle
  2
Realistic
 70
     8
 71
     2
 72
     2
 73
     0
 90
        0
 40
-0.6
 41
-30.0
 62
     5
 63
     7
421
 16777215
 74
     1
 91
        0
 64
     7
 65
   257
 75
     1
175
     1
 42
1.0
 92
        8
 66
     8
424
  7895160
 43
1.0
 76
     1
 77
     6
 78
     2
 67
     7
 79
     5
170
     0
171
     0
290
     0
174
     0
 93
       13
 44
0.0
173
     0
291
     0
 45
0.0
  0
VISUALSTYLE
  5
28C
102
{ACAD_REACTORS
330
27F
102
}
330
27F
100
AcDbVisualStyle
  2
Thicken
 70
    13
 71
     2
 72
     2
 73
     0
 90
        0
 40
-0.6
 41
-30.0
 62
     5
 63
     7
421
 16777215
 74
     1
 91
        4
 64
     7
 65
   257
 75
     1
175
     1
 42
1.0
 92
       12
 66
     7
 43
1.0
 76
     1
 77
     6
 78
     2
 67
     7
 79
     5
170
     0
171
     0
290
     0
174
     0
 93
        1
 44
0.0
173
     0
291
     1
 45
0.0
  0
DICTIONARYVAR
  5
2FA
102
{ACAD_REACTORS
330
34
102
}
330
34
100
DictionaryVariables
280
     0
  1
1:4
  0
DICTIONARYVAR
  5
2F8
102
{ACAD_REACTORS
330
34
102
}
330
34
100
DictionaryVariables
280
     0
  1
STANDARD
  0
DICTIONARYVAR
  5
140
102
{ACAD_REACTORS
330
34
102
}
330
34
100
DictionaryVariables
280
     0
  1
STANDARD
  0
DICTIONARYVAR
  5
AC
102
{ACAD_REACTORS
330
34
102
}
330
34
100
DictionaryVariables
280
     0
  1
1
  0
DICTIONARYVAR
  5
35
102
{ACAD_REACTORS
330
34
102
}
330
34
100
DictionaryVariables
280
     0
  1
1
  0
DICTIONARYVAR
  5
4ADB
102
{ACAD_REACTORS
330
34
102
}
330
34
100
DictionaryVariables
280
     0
  1
1
  0
DICTIONARYVAR
  5
4ADC
102
{ACAD_REACTORS
330
34
102
}
330
34
100
DictionaryVariables
280
     0
  1
15
  0
DICTIONARYVAR
  5
2FB
102
{ACAD_REACTORS
330
34
102
}
330
34
100
DictionaryVariables
280
     0
  1
0
  0
DICTIONARYVAR
  5
2F9
102
{ACAD_REACTORS
330
34
102
}
330
34
100
DictionaryVariables
280
     0
  1
0
  0
DICTIONARY
  5
161B
102
{ACAD_REACTORS
330
49
102
}
330
49
100
AcDbDictionary
281
     1
  0
DICTIONARY
  5
4A
102
{ACAD_REACTORS
330
49
102
}
330
49
100
AcDbDictionary
281
     1
  0
XRECORD
  5
12B
102
{ACAD_REACTORS
330
49
102
}
330
49
100
AcDbXrecord
280
     1
 90
-1023410169
  0
DICTIONARY
  5
2F5
330
122
100
AcDbDictionary
280
     1
281
     1
  3
ACAD_ROUNDTRIP_2008_TABLESTYLE_CELLSTYLEMAP
360
5D0B
  0
CELLSTYLEMAP
  5
5D0B
102
{ACAD_REACTORS
330
2F5
102
}
330
2F5
100
AcDbCellStyleMap
 90
        3
300
CELLSTYLE
  1
TABLEFORMAT_BEGIN
 90
        5
170
     1
 91
        0
 92
    32768
 62
   257
 93
        1
300
CONTENTFORMAT
  1
CONTENTFORMAT_BEGIN
 90
        0
 91
        0
 92
      512
 93
        0
300

 40
0.0
140
1.0
 94
        5
 62
     0
340
11
144
6.0
309
CONTENTFORMAT_END
171
     1
301
MARGIN
  1
CELLMARGIN_BEGIN
 40
1.5
 40
1.5
 40
1.5
 40
1.5
 40
0.18
 40
0.18
309
CELLMARGIN_END
 94
        6
 95
        1
302
GRIDFORMAT
  1
GRIDFORMAT_BEGIN
 90
        0
 91
        1
 62
     0
 92
       -2
340
0
 93
        0
 40
0.045
309
GRIDFORMAT_END
 95
        2
302
GRIDFORMAT
  1
GRIDFORMAT_BEGIN
 90
        0
 91
        1
 62
     0
 92
       -2
340
0
 93
        0
 40
0.045
309
GRIDFORMAT_END
 95
        4
302
GRIDFORMAT
  1
GRIDFORMAT_BEGIN
 90
        0
 91
        1
 62
     0
 92
       -2
340
0
 93
        0
 40
0.045
309
GRIDFORMAT_END
 95
        8
302
GRIDFORMAT
  1
GRIDFORMAT_BEGIN
 90
        0
 91
        1
 62
     0
 92
       -2
340
0
 93
        0
 40
0.045
309
GRIDFORMAT_END
 95
       16
302
GRIDFORMAT
  1
GRIDFORMAT_BEGIN
 90
        0
 91
        1
 62
     0
 92
       -2
340
0
 93
        0
 40
0.045
309
GRIDFORMAT_END
 95
       32
302
GRIDFORMAT
  1
GRIDFORMAT_BEGIN
 90
        0
 91
        1
 62
     0
 92
       -2
340
0
 93
        0
 40
0.045
309
GRIDFORMAT_END
309
TABLEFORMAT_END
  1
CELLSTYLE_BEGIN
 90
        1
 91
        1
300
_TITLE
309
CELLSTYLE_END
300
CELLSTYLE
  1
TABLEFORMAT_BEGIN
 90
        5
170
     1
 91
        0
 92
        0
 62
   257
 93
        1
300
CONTENTFORMAT
  1
CONTENTFORMAT_BEGIN
 90
        0
 91
        0
 92
      512
 93
        0
300

 40
0.0
140
1.0
 94
        5
 62
     0
340
11
144
4.5
309
CONTENTFORMAT_END
171
     1
301
MARGIN
  1
CELLMARGIN_BEGIN
 40
1.5
 40
1.5
 40
1.5
 40
1.5
 40
0.18
 40
0.18
309
CELLMARGIN_END
 94
        6
 95
        1
302
GRIDFORMAT
  1
GRIDFORMAT_BEGIN
 90
        0
 91
        1
 62
     0
 92
       -2
340
0
 93
        0
 40
0.045
309
GRIDFORMAT_END
 95
        2
302
GRIDFORMAT
  1
GRIDFORMAT_BEGIN
 90
        0
 91
        1
 62
     0
 92
       -2
340
0
 93
        0
 40
0.045
309
GRIDFORMAT_END
 95
        4
302
GRIDFORMAT
  1
GRIDFORMAT_BEGIN
 90
        0
 91
        1
 62
     0
 92
       -2
340
0
 93
        0
 40
0.045
309
GRIDFORMAT_END
 95
        8
302
GRIDFORMAT
  1
GRIDFORMAT_BEGIN
 90
        0
 91
        1
 62
     0
 92
       -2
340
0
 93
        0
 40
0.045
309
GRIDFORMAT_END
 95
       16
302
GRIDFORMAT
  1
GRIDFORMAT_BEGIN
 90
        0
 91
        1
 62
     0
 92
       -2
340
0
 93
        0
 40
0.045
309
GRIDFORMAT_END
 95
       32
302
GRIDFORMAT
  1
GRIDFORMAT_BEGIN
 90
        0
 91
        1
 62
     0
 92
       -2
340
0
 93
        0
 40
0.045
309
GRIDFORMAT_END
309
TABLEFORMAT_END
  1
CELLSTYLE_BEGIN
 90
        2
 91
        1
300
_HEADER
309
CELLSTYLE_END
300
CELLSTYLE
  1
TABLEFORMAT_BEGIN
 90
        5
170
     1
 91
        0
 92
        0
 62
   257
 93
        1
300
CONTENTFORMAT
  1
CONTENTFORMAT_BEGIN
 90
        0
 91
        0
 92
      512
 93
        0
300

 40
0.0
140
1.0
 94
        2
 62
     0
340
11
144
4.5
309
CONTENTFORMAT_END
171
     1
301
MARGIN
  1
CELLMARGIN_BEGIN
 40
1.5
 40
1.5
 40
1.5
 40
1.5
 40
0.18
 40
0.18
309
CELLMARGIN_END
 94
        6
 95
        1
302
GRIDFORMAT
  1
GRIDFORMAT_BEGIN
 90
        0
 91
        1
 62
     0
 92
       -2
340
0
 93
        0
 40
0.045
309
GRIDFORMAT_END
 95
        2
302
GRIDFORMAT
  1
GRIDFORMAT_BEGIN
 90
        0
 91
        1
 62
     0
 92
       -2
340
0
 93
        0
 40
0.045
309
GRIDFORMAT_END
 95
        4
302
GRIDFORMAT
  1
GRIDFORMAT_BEGIN
 90
        0
 91
        1
 62
     0
 92
       -2
340
0
 93
        0
 40
0.045
309
GRIDFORMAT_END
 95
        8
302
GRIDFORMAT
  1
GRIDFORMAT_BEGIN
 90
        0
 91
        1
 62
     0
 92
       -2
340
0
 93
        0
 40
0.045
309
GRIDFORMAT_END
 95
       16
302
GRIDFORMAT
  1
GRIDFORMAT_BEGIN
 90
        0
 91
        1
 62
     0
 92
       -2
340
0
 93
        0
 40
0.045
309
GRIDFORMAT_END
 95
       32
302
GRIDFORMAT
  1
GRIDFORMAT_BEGIN
 90
        0
 91
        1
 62
     0
 92
       -2
340
0
 93
        0
 40
0.045
309
GRIDFORMAT_END
309
TABLEFORMAT_END
  1
CELLSTYLE_BEGIN
 90
        3
 91
        2
300
_DATA
309
CELLSTYLE_END
  0
ENDSEC
  0
EOF
