  0
SECTION
  2
HEADER
  9
$ACADVER
  1
AC1021
  9
$ACADMAINTVER
 70
    26
  9
$DWGCODEPAGE
  3
ANSI_932
  9
$LASTSAVEDBY
  1
Htm_Terada
  9
$CUSTOMPROPERTYTAG
  1
AmdtFileType
  9
$CUSTOMPROPERTY
  1
84
  9
$INSBASE
 10
0.0
 20
0.0
 30
0.0
  9
$EXTMIN
 10
496.8150471999996
 20
339.2929789155229
 30
0.0
  9
$EXTMAX
 10
927.0807110642074
 20
860.3025978405231
 30
0.0
  9
$LIMMIN
 10
-0.0000002271699202
 20
0.0
  9
$LIMMAX
 10
1782.00000045434
 20
1260.0
  9
$ORTHOMODE
 70
     1
  9
$REGENMODE
 70
     1
  9
$FILLMODE
 70
     1
  9
$QTEXTMODE
 70
     0
  9
$MIRRTEXT
 70
     1
  9
$LTSCALE
 40
3.0
  9
$ATTMODE
 70
     1
  9
$TEXTSIZE
 40
25.0
  9
$TRACEWID
 40
1.0
  9
$TEXTSTYLE
  7
SEISA
  9
$CLAYER
  8
AM_0 外形線1
  9
$CELTYPE
  6
ByLayer
  9
$CECOLOR
 62
   256
  9
$CELTSCALE
 40
1.0
  9
$DISPSILH
 70
     0
  9
$DIMSCALE
 40
3.0
  9
$DIMASZ
 40
2.5
  9
$DIMEXO
 40
0.625
  9
$DIMDLI
 40
10.0
  9
$DIMRND
 40
0.0
  9
$DIMDLE
 40
0.0
  9
$DIMEXE
 40
0.625
  9
$DIMTP
 40
0.1
  9
$DIMTM
 40
0.1
  9
$DIMTXT
 40
3.5
  9
$DIMCEN
 40
0.0
  9
$DIMTSZ
 40
0.0
  9
$DIMTOL
 70
     0
  9
$DIMLIM
 70
     0
  9
$DIMTIH
 70
     0
  9
$DIMTOH
 70
     0
  9
$DIMSE1
 70
     0
  9
$DIMSE2
 70
     0
  9
$DIMTAD
 70
     3
  9
$DIMZIN
 70
     8
  9
$DIMBLK
  1
Open30
  9
$DIMASO
 70
     1
  9
$DIMSHO
 70
     1
  9
$DIMPOST
  1

  9
$DIMAPOST
  1
"
  9
$DIMALT
 70
     0
  9
$DIMALTD
 70
     2
  9
$DIMALTF
 40
0.0393701
  9
$DIMLFAC
 40
1.0
  9
$DIMTOFL
 70
     1
  9
$DIMTVP
 40
0.0
  9
$DIMTIX
 70
     0
  9
$DIMSOXD
 70
     0
  9
$DIMSAH
 70
     0
  9
$DIMBLK1
  1

  9
$DIMBLK2
  1

  9
$DIMSTYLE
  2
SEISA
  9
$DIMCLRD
 70
     3
  9
$DIMCLRE
 70
     3
  9
$DIMCLRT
 70
     3
  9
$DIMTFAC
 40
0.71
  9
$DIMGAP
 40
1.5
  9
$DIMJUST
 70
     0
  9
$DIMSD1
 70
     0
  9
$DIMSD2
 70
     0
  9
$DIMTOLJ
 70
     0
  9
$DIMTZIN
 70
     0
  9
$DIMALTZ
 70
     0
  9
$DIMALTTZ
 70
     8
  9
$DIMUPT
 70
     0
  9
$DIMDEC
 70
     2
  9
$DIMTDEC
 70
     2
  9
$DIMALTU
 70
     2
  9
$DIMALTTD
 70
     2
  9
$DIMTXSTY
  7
SEISA
  9
$DIMAUNIT
 70
     0
  9
$DIMADEC
 70
     0
  9
$DIMALTRND
 40
0.0
  9
$DIMAZIN
 70
     2
  9
$DIMDSEP
 70
    46
  9
$DIMATFIT
 70
     3
  9
$DIMFRAC
 70
     0
  9
$DIMLDRBLK
  1
Open30
  9
$DIMLUNIT
 70
     2
  9
$DIMLWD
 70
    -1
  9
$DIMLWE
 70
    -1
  9
$DIMTMOVE
 70
     0
  9
$DIMFXL
 40
1.0
  9
$DIMFXLON
 70
     0
  9
$DIMJOGANG
 40
0.7853981633974483
  9
$DIMTFILL
 70
     0
  9
$DIMTFILLCLR
 70
     0
  9
$DIMARCSYM
 70
     1
  9
$DIMLTYPE
  6

  9
$DIMLTEX1
  6

  9
$DIMLTEX2
  6

  9
$LUNITS
 70
     2
  9
$LUPREC
 70
     2
  9
$SKETCHINC
 40
1.0
  9
$FILLETRAD
 40
0.6
  9
$AUNITS
 70
     0
  9
$AUPREC
 70
     0
  9
$MENU
  1
.
  9
$ELEVATION
 40
0.0
  9
$PELEVATION
 40
0.0
  9
$THICKNESS
 40
0.0
  9
$LIMCHECK
 70
     0
  9
$CHAMFERA
 40
2.0
  9
$CHAMFERB
 40
2.0
  9
$CHAMFERC
 40
2.0
  9
$CHAMFERD
 40
0.7853981633974483
  9
$SKPOLY
 70
     0
  9
$TDCREATE
 40
2454968.632481968
  9
$TDUCREATE
 40
2454968.257481968
  9
$TDUPDATE
 40
2456479.553209630
  9
$TDUUPDATE
 40
2456479.178209630
  9
$TDINDWG
 40
0.1463661111
  9
$TDUSRTIMER
 40
0.1463655787
  9
$USRTIMER
 70
     1
  9
$ANGBASE
 50
0.0
  9
$ANGDIR
 70
     0
  9
$PDMODE
 70
     0
  9
$PDSIZE
 40
0.0
  9
$PLINEWID
 40
0.0
  9
$SPLFRAME
 70
     0
  9
$SPLINETYPE
 70
     6
  9
$SPLINESEGS
 70
     8
  9
$HANDSEED
  5
5AD9
  9
$SURFTAB1
 70
     6
  9
$SURFTAB2
 70
     6
  9
$SURFTYPE
 70
     6
  9
$SURFU
 70
     6
  9
$SURFV
 70
     6
  9
$UCSBASE
  2

  9
$UCSNAME
  2

  9
$UCSORG
 10
0.0
 20
0.0
 30
0.0
  9
$UCSXDIR
 10
1.0
 20
0.0
 30
0.0
  9
$UCSYDIR
 10
0.0
 20
1.0
 30
0.0
  9
$UCSORTHOREF
  2

  9
$UCSORTHOVIEW
 70
     0
  9
$UCSORGTOP
 10
0.0
 20
0.0
 30
0.0
  9
$UCSORGBOTTOM
 10
0.0
 20
0.0
 30
0.0
  9
$UCSORGLEFT
 10
0.0
 20
0.0
 30
0.0
  9
$UCSORGRIGHT
 10
0.0
 20
0.0
 30
0.0
  9
$UCSORGFRONT
 10
0.0
 20
0.0
 30
0.0
  9
$UCSORGBACK
 10
0.0
 20
0.0
 30
0.0
  9
$PUCSBASE
  2

  9
$PUCSNAME
  2

  9
$PUCSORG
 10
0.0
 20
0.0
 30
0.0
  9
$PUCSXDIR
 10
1.0
 20
0.0
 30
0.0
  9
$PUCSYDIR
 10
0.0
 20
1.0
 30
0.0
  9
$PUCSORTHOREF
  2

  9
$PUCSORTHOVIEW
 70
     0
  9
$PUCSORGTOP
 10
0.0
 20
0.0
 30
0.0
  9
$PUCSORGBOTTOM
 10
0.0
 20
0.0
 30
0.0
  9
$PUCSORGLEFT
 10
0.0
 20
0.0
 30
0.0
  9
$PUCSORGRIGHT
 10
0.0
 20
0.0
 30
0.0
  9
$PUCSORGFRONT
 10
0.0
 20
0.0
 30
0.0
  9
$PUCSORGBACK
 10
0.0
 20
0.0
 30
0.0
  9
$USERI1
 70
     0
  9
$USERI2
 70
     0
  9
$USERI3
 70
     0
  9
$USERI4
 70
     0
  9
$USERI5
 70
     0
  9
$USERR1
 40
0.0
  9
$USERR2
 40
0.0
  9
$USERR3
 40
0.0
  9
$USERR4
 40
0.0
  9
$USERR5
 40
0.0
  9
$WORLDVIEW
 70
     1
  9
$SHADEDGE
 70
     3
  9
$SHADEDIF
 70
    70
  9
$TILEMODE
 70
     1
  9
$MAXACTVP
 70
    64
  9
$PINSBASE
 10
0.0
 20
0.0
 30
0.0
  9
$PLIMCHECK
 70
     0
  9
$PEXTMIN
 10
1.000000000000000E+20
 20
1.000000000000000E+20
 30
1.000000000000000E+20
  9
$PEXTMAX
 10
-1.000000000000000E+20
 20
-1.000000000000000E+20
 30
-1.000000000000000E+20
  9
$PLIMMIN
 10
0.0
 20
0.0
  9
$PLIMMAX
 10
420.0
 20
297.0
  9
$UNITMODE
 70
     0
  9
$VISRETAIN
 70
     1
  9
$PLINEGEN
 70
     0
  9
$PSLTSCALE
 70
     1
  9
$TREEDEPTH
 70
  3020
  9
$CMLSTYLE
  2
Standard
  9
$CMLJUST
 70
     0
  9
$CMLSCALE
 40
20.0
  9
$PROXYGRAPHICS
 70
     1
  9
$MEASUREMENT
 70
     1
  9
$CELWEIGHT
370
    -1
  9
$ENDCAPS
280
     0
  9
$JOINSTYLE
280
     0
  9
$LWDISPLAY
290
     0
  9
$INSUNITS
 70
     4
  9
$HYPERLINKBASE
  1

  9
$STYLESHEET
  1
SEISA.CTB
  9
$XEDIT
290
     1
  9
$CEPSNTYPE
380
     0
  9
$PSTYLEMODE
290
     1
  9
$FINGERPRINTGUID
  2
{DC0A0326-E554-45E4-B2D9-45B33CC0193A}
  9
$VERSIONGUID
  2
{5CA484F4-FB8B-4236-A46E-B887BCCBC2E4}
  9
$EXTNAMES
290
     1
  9
$PSVPSCALE
 40
0.0
  9
$OLESTARTUP
290
     0
  9
$SORTENTS
280
   127
  9
$INDEXCTL
280
     0
  9
$HIDETEXT
280
     0
  9
$XCLIPFRAME
290
     0
  9
$HALOGAP
280
     0
  9
$OBSCOLOR
 70
   257
  9
$OBSLTYPE
280
     0
  9
$INTERSECTIONDISPLAY
280
     0
  9
$INTERSECTIONCOLOR
 70
   257
  9
$DIMASSOC
280
     2
  9
$PROJECTNAME
  1

  9
$CAMERADISPLAY
290
     0
  9
$LENSLENGTH
 40
50.0
  9
$CAMERAHEIGHT
 40
0.0
  9
$STEPSPERSEC
 40
2.0
  9
$STEPSIZE
 40
6.0
  9
$3DDWFPREC
 40
2.0
  9
$PSOLWIDTH
 40
0.25
  9
$PSOLHEIGHT
 40
4.0
  9
$LOFTANG1
 40
1.570796326794896
  9
$LOFTANG2
 40
1.570796326794896
  9
$LOFTMAG1
 40
0.0
  9
$LOFTMAG2
 40
0.0
  9
$LOFTPARAM
 70
     7
  9
$LOFTNORMALS
280
     1
  9
$LATITUDE
 40
37.795
  9
$LONGITUDE
 40
-122.394
  9
$NORTHDIRECTION
 40
0.0
  9
$TIMEZONE
 70
 -8000
  9
$LIGHTGLYPHDISPLAY
280
     1
  9
$TILEMODELIGHTSYNCH
280
     1
  9
$CMATERIAL
347
27C
  9
$SOLIDHIST
280
     1
  9
$SHOWHIST
280
     1
  9
$DWFFRAME
280
     2
  9
$DGNFRAME
280
     0
  9
$REALWORLDSCALE
290
     1
  9
$INTERFERECOLOR
 62
     1
  9
$INTERFEREOBJVS
345
289
  9
$INTERFEREVPVS
346
286
  9
$CSHADOW
280
     0
  9
$SHADOWPLANELOCATION
 40
0.0
  0
ENDSEC
  0
SECTION
  2
CLASSES
  0
CLASS
  1
ACDBDICTIONARYWDFLT
  2
AcDbDictionaryWithDefault
  3
ObjectDBX Classes
 90
        0
 91
        1
280
     0
281
     0
  0
CLASS
  1
AMGSETTINGSOBJ
  2
AmgSettingsObj
  3
"AcadM|Product Description: AutoCAD Mechanical|Company: Autodesk, Inc."
 90
     1024
 91
        2
280
     0
281
     0
  0
CLASS
  1
ACME_DOCUMENT
  2
AcMeDbDoc
  3
AcMeServices
 90
     1024
 91
        1
280
     0
281
     0
  0
CLASS
  1
ACMESCOPE
  2
AcMeScope
  3
AcMeServices
 90
     1024
 91
        1
280
     0
281
     0
  0
CLASS
  1
ACMECOMMANDHISTORY
  2
AcMeCommandHistory
  3
AcMeServices
 90
     1024
 91
        1
280
     0
281
     0
  0
CLASS
  1
DICTIONARYVAR
  2
AcDbDictionaryVar
  3
ObjectDBX Classes
 90
        0
 91
        9
280
     0
281
     0
  0
CLASS
  1
ACIMSYSVARMAN
  2
AcImSysVarManager
  3
AcMeServices
 90
     1024
 91
        5
280
     0
281
     0
  0
CLASS
  1
ACIMREALSYSVAR
  2
AcImRealSysVar
  3
AcMeServices
 90
     1024
 91
        1
280
     0
281
     0
  0
CLASS
  1
ACIMINTSYSVAR
  2
AcImIntSysVar
  3
AcMeServices
 90
     1024
 91
       27
280
     0
281
     0
  0
CLASS
  1
ACMEDRAWINGMAN
  2
AcMeDrawingMan
  3
AcMeServices
 90
     1024
 91
        1
280
     0
281
     0
  0
CLASS
  1
ACMEVIEW
  2
AcMeView
  3
AcMeServices
 90
     1024
 91
        1
280
     0
281
     0
  0
CLASS
  1
ACDBENTITYCACHE
  2
AcMeEntityCache
  3
AcMeServices
 90
     1024
 91
        1
280
     0
281
     0
  0
CLASS
  1
GSMANAGER
  2
AcMeGSManager
  3
AcMeServices
 90
     1024
 91
        1
280
     0
281
     0
  0
CLASS
  1
AMDTINTERNALREACTOR
  2
AmdtInternalReactor
  3
AcMeServices
 90
     1024
 91
        2
280
     0
281
     0
  0
CLASS
  1
ACMESTATEMGR
  2
AcMeStateMgr
  3
AcMeServices
 90
     1024
 91
        1
280
     0
281
     0
  0
CLASS
  1
ACGREFMASTER
  2
AcGrefMaster
  3
AcAttribServices
 90
     1024
 91
        1
280
     0
281
     0
  0
CLASS
  1
ACME_DATABASE
  2
AcMeDbDatabase
  3
AcMeServices
 90
     1024
 91
        1
280
     0
281
     0
  0
CLASS
  1
ACRFINSADJUSTERMGR
  2
AcRfInsAdjusterMgr
  3
AcMeServices
 90
     1024
 91
        1
280
     0
281
     0
  0
CLASS
  1
ACGREFACADMASTER
  2
AcGrefacadMaster
  3
AcGrefServices
 90
     1024
 91
        1
280
     0
281
     0
  0
CLASS
  1
AMIMASTER
  2
AmiMaster
  3
AmiServices
 90
     1024
 91
        1
280
     0
281
     0
  0
CLASS
  1
ACIMSTRSYSVAR
  2
AcImStrSysVar
  3
AcMeServices
 90
     1024
 91
        5
280
     0
281
     0
  0
CLASS
  1
ACMSTANDARDJIS
  2
AcmStandardJIS
  3
"Amdt_StdImp|Product Description: AutoCAD Mechanical|Company: Autodesk, Inc."
 90
     1024
 91
        0
280
     0
281
     0
  0
CLASS
  1
AMGOBJPROPCFG
  2
AmgObjPropCfg
  3
"AmgLay|Product Description: AutoCAD Mechanical|Company: Autodesk, Inc."
 90
     1025
 91
        1
280
     0
281
     0
  0
CLASS
  1
ACMSURFSTANDARDJIS
  2
AcmSurfTextStdJIS
  3
"Amdt_StdImp|Product Description: AutoCAD Mechanical|Company: Autodesk, Inc."
 90
     1024
 91
        0
280
     0
281
     0
  0
CLASS
  1
ACMFCFSTANDARDJIS
  2
AcmFCFStdJIS
  3
"Amdt_StdImp|Product Description: AutoCAD Mechanical|Company: Autodesk, Inc."
 90
     1024
 91
        0
280
     0
281
     0
  0
CLASS
  1
ACMWELDSTANDARDJIS
  2
AcmWeldingStdJIS
  3
"Amdt_StdImp|Product Description: AutoCAD Mechanical|Company: Autodesk, Inc."
 90
     1024
 91
        0
280
     0
281
     0
  0
CLASS
  1
ACMIDSTANDARDJIS
  2
AcmIdStdJIS
  3
"Amdt_StdImp|Product Description: AutoCAD Mechanical|Company: Autodesk, Inc."
 90
     1024
 91
        0
280
     0
281
     0
  0
CLASS
  1
ACMDATUMSTANDARDJIS
  2
AcmDatumStdJIS
  3
"Amdt_StdImp|Product Description: AutoCAD Mechanical|Company: Autodesk, Inc."
 90
     1024
 91
        0
280
     0
281
     0
  0
CLASS
  1
ACMBOMSTANDARDJIS
  2
AcmBOMStdJIS
  3
"Amdt_StdImp|Product Description: AutoCAD Mechanical|Company: Autodesk, Inc."
 90
     1024
 91
        0
280
     0
281
     0
  0
CLASS
  1
ACMDETAILSTANDARDJIS
  2
AmdtDetailSymStdJIS
  3
"Amdt_StdImp|Product Description: AutoCAD Mechanical|Company: Autodesk, Inc."
 90
     1024
 91
        0
280
     0
281
     0
  0
CLASS
  1
ACMSECTIONSTANDARDJIS
  2
AmdtSectionSymStdJIS
  3
"Amdt_StdImp|Product Description: AutoCAD Mechanical|Company: Autodesk, Inc."
 90
     1024
 91
        0
280
     0
281
     0
  0
CLASS
  1
ACMCENTERLINESTANDARDJIS
  2
AmdtCenterLineStdJIS
  3
"Amdt_StdImp|Product Description: AutoCAD Mechanical|Company: Autodesk, Inc."
 90
     1024
 91
        0
280
     0
281
     0
  0
CLASS
  1
ACMTHREADLINESTANDARDJIS
  2
AmdtThreadLineStdJIS
  3
"Amdt_StdImp|Product Description: AutoCAD Mechanical|Company: Autodesk, Inc."
 90
     1024
 91
        0
280
     0
281
     0
  0
CLASS
  1
ACAMGLAYSTD
  2
AcAmgLayStd
  3
"AmgLay|Product Description: AutoCAD Mechanical|Company: Autodesk, Inc."
 90
     1024
 91
        1
280
     0
281
     0
  0
CLASS
  1
ACAMGDIMSTD
  2
AcAmgDimStd
  3
"AmgDim|Product Description: AutoCAD Mechanical|Company: Autodesk, Inc."
 90
     1024
 91
        1
280
     0
281
     0
  0
CLASS
  1
ACAMGTITLESTD
  2
AcAmgTitleStd
  3
"AmgTitle|Product Description: AutoCAD Mechanical|Company: Autodesk, Inc."
 90
     4095
 91
        1
280
     0
281
     0
  0
CLASS
  1
ACMDATADICTIONARY
  2
AcmDataDictionary
  3
"AcmSymBB|Product Description: AutoCAD Mechanical|Company: Autodesk, Inc."
 90
     1024
 91
        1
280
     0
281
     0
  0
CLASS
  1
ACMDATAENTRYBLOCK
  2
AcmDataEntryBlock
  3
AcmSymBB|Product Description: AutoCAD Mechanical|Company: Autodesk, Inc.
 90
     1024
 91
        0
280
     0
281
     0
  0
CLASS
  1
LAYER_INDEX
  2
AcDbLayerIndex
  3
ObjectDBX Classes
 90
        0
 91
        0
280
     0
281
     0
  0
CLASS
  1
IDBUFFER
  2
AcDbIdBuffer
  3
ObjectDBX Classes
 90
        0
 91
        0
280
     0
281
     0
  0
CLASS
  1
ACMNOTESTANDARDJIS
  2
AmdtNoteStdJIS
  3
"Amdt_StdImp|Product Description: AutoCAD Mechanical|Company: Autodesk, Inc."
 90
     1024
 91
        0
280
     0
281
     0
  0
CLASS
  1
ACAMGHOLECHARTSTDJIS
  2
AcAmgHoleChartStdJIS
  3
AmgDim|Product Description: AutoCAD Mechanical|Company: Autodesk, Inc.
 90
     1024
 91
        0
280
     0
281
     0
  0
CLASS
  1
AM_DRAWING_MGR
  2
AcDmDwgMgr
  3
AcMechDwgViewMgmt
 90
     1024
 91
        1
280
     0
281
     0
  0
CLASS
  1
AM_DWG_DOCUMENT
  2
AcDmDwgDocument
  3
AcMechDwgViewMgmt
 90
     1024
 91
        1
280
     0
281
     0
  0
CLASS
  1
AM_DWG_SHEET
  2
AcDmSheet
  3
AcMechDwgViewMgmt
 90
     1024
 91
        2
280
     0
281
     0
  0
CLASS
  1
AM_VIEWDIMPARMAP
  2
AcDmViewDimParMap
  3
AcMechDwgViewMgmt
 90
     1024
 91
        2
280
     0
281
     0
  0
CLASS
  1
AM_DWGMGR_NAME
  2
AcDmDwgMgrName
  3
AcMechDwgViewMgmt
 90
     1024
 91
        1
280
     0
281
     0
  0
CLASS
  1
AMDTMENUSTATEMGR
  2
AmdtMenuStateMgr
  3
McadcomServices
 90
     1024
 91
        1
280
     0
281
     0
  0
CLASS
  1
AMDTMCOMMENUSTATE
  2
AmdtMcomMenuState
  3
McadcomServices
 90
     1024
 91
        1
280
     0
281
     0
  0
CLASS
  1
MAPIAMMOUDLE
  2
MApiAmModule
  3
MApiAmServices
 90
     1024
 91
        1
280
     0
281
     0
  0
CLASS
  1
AMDTADMENUSTATE
  2
AmdtAdMenuState
  3
DesignerServices
 90
     1024
 91
        1
280
     0
281
     0
  0
CLASS
  1
ADAPPL
  2
AcAdAppl
  3
DesignerServices
 90
     1024
 91
        1
280
     0
281
     0
  0
CLASS
  1
DEPMGR
  2
AcAdDepMgr
  3
DesignerServices
 90
     1024
 91
        1
280
     0
281
     0
  0
CLASS
  1
PARAMMGR
  2
AcAdParamMgr
  3
DesignerServices
 90
     1024
 91
        1
280
     0
281
     0
  0
CLASS
  1
PARAMSCOPE
  2
AcAdParamScope
  3
DesignerServices
 90
     1024
 91
        1
280
     0
281
     0
  0
CLASS
  1
NAMEDAPPL
  2
AcAdNamedAppl
  3
DesignerServices
 90
     1024
 91
        1
280
     0
281
     0
  0
CLASS
  1
AMDTDMMENUSTATE
  2
AmdtDmMenuState
  3
AcMechDwgViewMgmt
 90
     1024
 91
        1
280
     0
281
     0
  0
CLASS
  1
AMDTAMMENUSTATE
  2
AmdtAmMenuState
  3
DesignerAssemblies
 90
     1024
 91
        1
280
     0
281
     0
  0
CLASS
  1
ACAMPROJECT
  2
AcAmProject
  3
DesignerAssemblies
 90
     1024
 91
        1
280
     0
281
     0
  0
CLASS
  1
ACAMGRCOMPDEF
  2
AcAmGrCompDef
  3
DesignerAssemblies
 90
     1024
 91
        1
280
     0
281
     0
  0
CLASS
  1
ACCMCONTEXT
  2
AcCmContext
  3
DesignerAssemblies
 90
     1024
 91
        1
280
     0
281
     0
  0
CLASS
  1
ACAMCOMPDEF
  2
AcAmCompDef
  3
DesignerAssemblies
 90
     1024
 91
        1
280
     0
281
     0
  0
CLASS
  1
ACAMCOMPDEFMGR
  2
AcAmCompDefMgr
  3
DesignerAssemblies
 90
     1024
 91
        1
280
     0
281
     0
  0
CLASS
  1
AMCONTEXTMGR
  2
AcAmContextMgr
  3
DesignerAssemblies
 90
     1024
 91
        1
280
     0
281
     0
  0
CLASS
  1
ACAMCONTEXTMODELER
  2
AcAmContextModeler
  3
DesignerAssemblies
 90
     1024
 91
        1
280
     0
281
     0
  0
CLASS
  1
CATALOGSTATE
  2
AcAmCatalogState
  3
DesignerAssemblies
 90
     1024
 91
        1
280
     0
281
     0
  0
CLASS
  1
ACAMGRCOMPDEFSET
  2
AcAmGrCompDefSet
  3
DesignerAssemblies
 90
     1024
 91
        1
280
     0
281
     0
  0
CLASS
  1
AMDTBROWSERDBTAB
  2
AmdtBrowserDbTab
  3
McadcomServices
 90
     1024
 91
        1
280
     0
281
     0
  0
CLASS
  1
CBROWSERAPPOBJECT
  2
CBrowserAppObject
  3
McadcomServices
 90
     1024
 91
        3
280
     0
281
     0
  0
CLASS
  1
DM_PLACEHOLDER
  2
AcDmSelsetPlaceholder
  3
AcMechDwgViewMgmt
 90
     1024
 91
        1
280
     0
281
     0
  0
CLASS
  1
TABLESTYLE
  2
AcDbTableStyle
  3
ObjectDBX Classes
 90
     4095
 91
        1
280
     0
281
     0
  0
CLASS
  1
VAACXREFPANELOBJECT
  2
VaAcXREFPanelObject
  3
VAAC_ADDIN
 90
        0
 91
        0
280
     0
281
     0
  0
CLASS
  1
VAACIMAGEINVENTORY
  2
VaAcImageInventory
  3
VAAC_ADDIN
 90
        0
 91
        0
280
     0
281
     0
  0
CLASS
  1
AMDTNOTETEMPLATEDB
  2
AmdtNoteTemplateDB
  3
AcmSymBB|Product Description: AutoCAD Mechanical|Company: Autodesk, Inc.
 90
     1024
 91
        6
280
     0
281
     0
  0
CLASS
  1
ACAMGFILTERDAT
  2
AcAmgFilterDat
  3
"AcadM|Product Description: AutoCAD Mechanical|Company: Autodesk, Inc."
 90
     1024
 91
        0
280
     0
281
     0
  0
CLASS
  1
MATERIAL
  2
AcDbMaterial
  3
ObjectDBX Classes
 90
     1153
 91
        3
280
     0
281
     0
  0
CLASS
  1
VISUALSTYLE
  2
AcDbVisualStyle
  3
ObjectDBX Classes
 90
     4095
 91
       16
280
     0
281
     0
  0
CLASS
  1
ACRFATTGENMGR
  2
AcRfAttGeneralMgr
  3
AcAttribServices
 90
     1024
 91
        0
280
     0
281
     0
  0
CLASS
  1
ACRFOBJATTMGR
  2
AcRfObjAttGroupMgr
  3
AcAttribServices
 90
     1024
 91
        0
280
     0
281
     0
  0
CLASS
  1
ACRFMCADAPIATTHOLDER
  2
AcRfMCADAPIAttHolder
  3
AcAttribServices
 90
     1024
 91
        0
280
     0
281
     0
  0
CLASS
  1
AMDTSYSATTR
  2
AmdtSystemAttribute
  3
AcAttribServices
 90
     1024
 91
        0
280
     0
281
     0
  0
CLASS
  1
ACMTAPERSTANDARDJIS
  2
AcmTaperStdJIS
  3
"Amdt_StdImp|Product Description: AutoCAD Mechanical|Company: Autodesk, Inc."
 90
     1024
 91
        0
280
     0
281
     0
  0
CLASS
  1
CAMSSTRUCTBTNSTATE
  2
StructBtnState
  3
DesignerAssemblies
 90
     1024
 91
        0
280
     0
281
     0
  0
CLASS
  1
SCALE
  2
AcDbScale
  3
ObjectDBX Classes
 90
     1153
 91
       36
280
     0
281
     0
  0
CLASS
  1
MLEADERSTYLE
  2
AcDbMLeaderStyle
  3
ACDB_MLEADERSTYLE_CLASS
 90
     4095
 91
        1
280
     0
281
     0
  0
CLASS
  1
ACMANOOTATIONVIEWSTANDARDJIS
  2
AmdtAnViewStdJIS
  3
"Amdt_StdImp|Product Description: AutoCAD Mechanical|Company: Autodesk, Inc."
 90
     1024
 91
        0
280
     0
281
     0
  0
CLASS
  1
ACMSURFSTANDARDJIS2003
  2
AcmSurfTextStdJIS2003
  3
"Amdt_StdImp|Product Description: AutoCAD Mechanical|Company: Autodesk, Inc."
 90
     1024
 91
        0
280
     0
281
     0
  0
CLASS
  1
CELLSTYLEMAP
  2
AcDbCellStyleMap
  3
ObjectDBX Classes
 90
     1152
 91
        2
280
     0
281
     0
  0
CLASS
  1
ACMFCFSTANDARDJIS98
  2
AcmFCFStdJIS98
  3
"Amdt_StdImp|Product Description: AutoCAD Mechanical|Company: Autodesk, Inc."
 90
     1024
 91
        0
280
     0
281
     0
  0
CLASS
  1
SORTENTSTABLE
  2
AcDbSortentsTable
  3
ObjectDBX Classes
 90
        0
 91
       11
280
     0
281
     0
  0
CLASS
  1
DIMASSOC
  2
AcDbDimAssoc
  3
"AcDbDimAssoc|Product Desc:     AcDim ARX App For Dimension|Company:          Autodesk, Inc.|WEB Address:      www.autodesk.com"
 90
        0
 91
       15
280
     0
281
     0
  0
CLASS
  1
STDPART2D
  2
AmgStdPart
  3
AmgStdPart|Product Description: AutoCAD Mechanical|Company: Autodesk, Inc.
 90
     4095
 91
        0
280
     0
281
     1
  0
CLASS
  1
ACMDATAENTRYPART
  2
AcmDataEntryPart
  3
AcmSymBB|Product Description: AutoCAD Mechanical|Company: Autodesk, Inc.
 90
     1024
 91
        0
280
     0
281
     0
  0
CLASS
  1
ACMPARTREF
  2
AcmPartRef
  3
"AcmSymBB|Product Description: AutoCAD Mechanical|Company: Autodesk, Inc."
 90
     4095
 91
        0
280
     0
281
     1
  0
CLASS
  1
ACDBSTDPARTRES_LINE
  2
AcDbStdPartRes_Line
  3
AmgStdPart|Product Description: AutoCAD Mechanical|Company: Autodesk, Inc.
 90
     1024
 91
        0
280
     0
281
     0
  0
CLASS
  1
ACMBOM
  2
AcmBom
  3
"AcmSymBB|Product Description: AutoCAD Mechanical|Company: Autodesk, Inc."
 90
     1024
 91
        0
280
     0
281
     0
  0
CLASS
  1
AMDTFORMULAUPDATEDISPATCHER
  2
AmdtFormulaUpdateDispatcher
  3
AcMeServices
 90
     1024
 91
        0
280
     0
281
     0
  0
CLASS
  1
ACMBOMROW
  2
AcmBomRow
  3
"AcmSymBB|Product Description: AutoCAD Mechanical|Company: Autodesk, Inc."
 90
     1024
 91
        0
280
     0
281
     0
  0
CLASS
  1
ACMPARTLIST
  2
AcmPartList
  3
"AcmSymBB|Product Description: AutoCAD Mechanical|Company: Autodesk, Inc."
 90
     4095
 91
        0
280
     0
281
     1
  0
CLASS
  1
ACDBLINERES
  2
AcDbLineRes
  3
AcGrefServices
 90
     1024
 91
        0
280
     0
281
     0
  0
CLASS
  1
ACRFINSADJ
  2
AcRfInsAdjuster
  3
AcMeServices
 90
     1024
 91
        0
280
     0
281
     0
  0
CLASS
  1
ACMSTANDARDISO
  2
AcmStandardISO
  3
"Amdt_StdImp|Product Description: AutoCAD Mechanical|Company: Autodesk, Inc."
 90
     1024
 91
        1
280
     0
281
     0
  0
CLASS
  1
AMDTEDGESTANDARDISO13715
  2
AmdtEdgeStdISO13715
  3
"Amdt_StdImp|Product Description: AutoCAD Mechanical|Company: Autodesk, Inc."
 90
     1024
 91
        1
280
     0
281
     0
  0
CLASS
  1
ACMSURFSTANDARDISO2002
  2
AcmSurfTextStdISO2002
  3
"Amdt_StdImp|Product Description: AutoCAD Mechanical|Company: Autodesk, Inc."
 90
     1024
 91
        1
280
     0
281
     0
  0
CLASS
  1
ACMFCFSTANDARDISO
  2
AcmFCFStdISO
  3
"Amdt_StdImp|Product Description: AutoCAD Mechanical|Company: Autodesk, Inc."
 90
     1024
 91
        1
280
     0
281
     0
  0
CLASS
  1
ACMWELDSTANDARDISO
  2
AcmWeldingStdISO
  3
"Amdt_StdImp|Product Description: AutoCAD Mechanical|Company: Autodesk, Inc."
 90
     1024
 91
        1
280
     0
281
     0
  0
CLASS
  1
ACMIDSTANDARDISO
  2
AcmIdStdISO
  3
"Amdt_StdImp|Product Description: AutoCAD Mechanical|Company: Autodesk, Inc."
 90
     1024
 91
        1
280
     0
281
     0
  0
CLASS
  1
ACMDATUMSTANDARDISO
  2
AcmDatumStdISO
  3
"Amdt_StdImp|Product Description: AutoCAD Mechanical|Company: Autodesk, Inc."
 90
     1024
 91
        1
280
     0
281
     0
  0
CLASS
  1
ACMBOMSTANDARDISO
  2
AcmBOMStdISO
  3
"Amdt_StdImp|Product Description: AutoCAD Mechanical|Company: Autodesk, Inc."
 90
     1024
 91
        1
280
     0
281
     0
  0
CLASS
  1
ACMDETAILSTANDARDISO
  2
AmdtDetailSymStdISO
  3
"Amdt_StdImp|Product Description: AutoCAD Mechanical|Company: Autodesk, Inc."
 90
     1024
 91
        1
280
     0
281
     0
  0
CLASS
  1
ACMSECTIONSTANDARDISO2001
  2
AmdtSectionSymStdISO2001
  3
"Amdt_StdImp|Product Description: AutoCAD Mechanical|Company: Autodesk, Inc."
 90
     1024
 91
        1
280
     0
281
     0
  0
CLASS
  1
ACMCENTERLINESTANDARDISO
  2
AmdtCenterLineStdISO
  3
"Amdt_StdImp|Product Description: AutoCAD Mechanical|Company: Autodesk, Inc."
 90
     1024
 91
        1
280
     0
281
     0
  0
CLASS
  1
ACMTHREADLINESTANDARDISO
  2
AmdtThreadLineStdISO
  3
"Amdt_StdImp|Product Description: AutoCAD Mechanical|Company: Autodesk, Inc."
 90
     1024
 91
        1
280
     0
281
     0
  0
CLASS
  1
ACMNOTESTANDARDISO
  2
AmdtNoteStdISO
  3
"Amdt_StdImp|Product Description: AutoCAD Mechanical|Company: Autodesk, Inc."
 90
     1024
 91
        1
280
     0
281
     0
  0
CLASS
  1
ACMTAPERSTANDARDISO
  2
AcmTaperStdISO
  3
"Amdt_StdImp|Product Description: AutoCAD Mechanical|Company: Autodesk, Inc."
 90
     1024
 91
        1
280
     0
281
     0
  0
CLASS
  1
ACMANOOTATIONVIEWSTANDARDISO
  2
AmdtAnViewStdISO
  3
"Amdt_StdImp|Product Description: AutoCAD Mechanical|Company: Autodesk, Inc."
 90
     1024
 91
        1
280
     0
281
     0
  0
CLASS
  1
ACAMGHOLECHARTSTDISO
  2
AcAmgHoleChartStdISO
  3
AmgDim|Product Description: AutoCAD Mechanical|Company: Autodesk, Inc.
 90
     1024
 91
        1
280
     0
281
     0
  0
CLASS
  1
EXACXREFPANELOBJECT
  2
ExAcXREFPanelObject
  3
EXAC_ESW
 90
     1025
 91
        0
280
     0
281
     0
  0
CLASS
  1
NPOCOLLECTION
  2
AcDbImpNonPersistentObjectsCollection
  3
ObjectDBX Classes
 90
     1153
 91
        0
280
     0
281
     0
  0
CLASS
  1
ACDBSTDPARTRES_ARC
  2
AcDbStdPartRes_Arc
  3
AmgStdPart|Product Description: AutoCAD Mechanical|Company: Autodesk, Inc.
 90
     1024
 91
        0
280
     0
281
     0
  0
CLASS
  1
AMDTNOTE
  2
AmdtNote
  3
"AcmSymBB|Product Description: AutoCAD Mechanical|Company: Autodesk, Inc."
 90
     4095
 91
        0
280
     0
281
     1
  0
CLASS
  1
PLOTSETTINGS
  2
AcDbPlotSettings
  3
ObjectDBX Classes
 90
        0
 91
        1
280
     0
281
     0
  0
CLASS
  1
ACMSTANDARDANSI
  2
AcmStandardANSI
  3
"Amdt_StdImp|Product Description: AutoCAD Mechanical|Company: Autodesk, Inc."
 90
     1024
 91
        0
280
     0
281
     0
  0
CLASS
  1
ACMSURFSTANDARDANSI
  2
AcmSurfTextStdANSI
  3
"Amdt_StdImp|Product Description: AutoCAD Mechanical|Company: Autodesk, Inc."
 90
     1024
 91
        0
280
     0
281
     0
  0
CLASS
  1
ACMFCFSTANDARDANSI
  2
AcmFCFStdANSI
  3
"Amdt_StdImp|Product Description: AutoCAD Mechanical|Company: Autodesk, Inc."
 90
     1024
 91
        0
280
     0
281
     0
  0
CLASS
  1
ACMWELDSTANDARDANSI
  2
AcmWeldingStdANSI
  3
"Amdt_StdImp|Product Description: AutoCAD Mechanical|Company: Autodesk, Inc."
 90
     1024
 91
        0
280
     0
281
     0
  0
CLASS
  1
ACMIDSTANDARDANSI
  2
AcmIdStdANSI
  3
"Amdt_StdImp|Product Description: AutoCAD Mechanical|Company: Autodesk, Inc."
 90
     1024
 91
        0
280
     0
281
     0
  0
CLASS
  1
ACMDATUMSTANDARDANSI
  2
AcmDatumStdANSI
  3
"Amdt_StdImp|Product Description: AutoCAD Mechanical|Company: Autodesk, Inc."
 90
     1024
 91
        0
280
     0
281
     0
  0
CLASS
  1
ACMBOMSTANDARDANSI
  2
AcmBOMStdANSI
  3
"Amdt_StdImp|Product Description: AutoCAD Mechanical|Company: Autodesk, Inc."
 90
     1024
 91
        0
280
     0
281
     0
  0
CLASS
  1
ACMDETAILSTANDARDANSI
  2
AmdtDetailSymStdANSI
  3
"Amdt_StdImp|Product Description: AutoCAD Mechanical|Company: Autodesk, Inc."
 90
     1024
 91
        0
280
     0
281
     0
  0
CLASS
  1
ACMSECTIONSTANDARDANSI
  2
AmdtSectionSymStdANSI
  3
"Amdt_StdImp|Product Description: AutoCAD Mechanical|Company: Autodesk, Inc."
 90
     1024
 91
        0
280
     0
281
     0
  0
CLASS
  1
ACMCENTERLINESTANDARDANSI
  2
AmdtCenterLineStdANSI
  3
"Amdt_StdImp|Product Description: AutoCAD Mechanical|Company: Autodesk, Inc."
 90
     1024
 91
        0
280
     0
281
     0
  0
CLASS
  1
ACMTHREADLINESTANDARDANSI
  2
AmdtThreadLineStdANSI
  3
"Amdt_StdImp|Product Description: AutoCAD Mechanical|Company: Autodesk, Inc."
 90
     1024
 91
        0
280
     0
281
     0
  0
CLASS
  1
ACMNOTESTANDARDANSI
  2
AmdtNoteStdANSI
  3
"Amdt_StdImp|Product Description: AutoCAD Mechanical|Company: Autodesk, Inc."
 90
     1024
 91
        0
280
     0
281
     0
  0
CLASS
  1
ACMTAPERSTANDARDANSI
  2
AcmTaperStdANSI
  3
"Amdt_StdImp|Product Description: AutoCAD Mechanical|Company: Autodesk, Inc."
 90
     1024
 91
        0
280
     0
281
     0
  0
CLASS
  1
ACMANOOTATIONVIEWSTANDARDANSI
  2
AmdtAnViewStdANSI
  3
"Amdt_StdImp|Product Description: AutoCAD Mechanical|Company: Autodesk, Inc."
 90
     1024
 91
        0
280
     0
281
     0
  0
CLASS
  1
ACAMGHOLECHARTSTDANSI
  2
AcAmgHoleChartStdANSI
  3
AmgDim|Product Description: AutoCAD Mechanical|Company: Autodesk, Inc.
 90
     1024
 91
        0
280
     0
281
     0
  0
CLASS
  1
ACMSTANDARDBSI
  2
AcmStandardBSI
  3
"Amdt_StdImp|Product Description: AutoCAD Mechanical|Company: Autodesk, Inc."
 90
     1024
 91
        0
280
     0
281
     0
  0
CLASS
  1
ACMSURFSTANDARDBSI2002
  2
AcmSurfTextStdBSI2002
  3
"Amdt_StdImp|Product Description: AutoCAD Mechanical|Company: Autodesk, Inc."
 90
     1024
 91
        0
280
     0
281
     0
  0
CLASS
  1
ACMFCFSTANDARDBSI
  2
AcmFCFStdBSI
  3
"Amdt_StdImp|Product Description: AutoCAD Mechanical|Company: Autodesk, Inc."
 90
     1024
 91
        0
280
     0
281
     0
  0
CLASS
  1
ACMWELDSTANDARDBSI
  2
AcmWeldingStdBSI
  3
"Amdt_StdImp|Product Description: AutoCAD Mechanical|Company: Autodesk, Inc."
 90
     1024
 91
        0
280
     0
281
     0
  0
CLASS
  1
ACMIDSTANDARDBSI
  2
AcmIdStdBSI
  3
"Amdt_StdImp|Product Description: AutoCAD Mechanical|Company: Autodesk, Inc."
 90
     1024
 91
        0
280
     0
281
     0
  0
CLASS
  1
ACMDATUMSTANDARDBSI
  2
AcmDatumStdBSI
  3
"Amdt_StdImp|Product Description: AutoCAD Mechanical|Company: Autodesk, Inc."
 90
     1024
 91
        0
280
     0
281
     0
  0
CLASS
  1
ACMBOMSTANDARDBSI
  2
AcmBOMStdBSI
  3
"Amdt_StdImp|Product Description: AutoCAD Mechanical|Company: Autodesk, Inc."
 90
     1024
 91
        0
280
     0
281
     0
  0
CLASS
  1
ACMDETAILSTANDARDBSI
  2
AmdtDetailSymStdBSI
  3
"Amdt_StdImp|Product Description: AutoCAD Mechanical|Company: Autodesk, Inc."
 90
     1024
 91
        0
280
     0
281
     0
  0
CLASS
  1
ACMSECTIONSTANDARDBSI2001
  2
AmdtSectionSymStdBSI2001
  3
"Amdt_StdImp|Product Description: AutoCAD Mechanical|Company: Autodesk, Inc."
 90
     1024
 91
        0
280
     0
281
     0
  0
CLASS
  1
ACMCENTERLINESTANDARDBSI
  2
AmdtCenterLineStdBSI
  3
"Amdt_StdImp|Product Description: AutoCAD Mechanical|Company: Autodesk, Inc."
 90
     1024
 91
        0
280
     0
281
     0
  0
CLASS
  1
ACMTHREADLINESTANDARDBSI
  2
AmdtThreadLineStdBSI
  3
"Amdt_StdImp|Product Description: AutoCAD Mechanical|Company: Autodesk, Inc."
 90
     1024
 91
        0
280
     0
281
     0
  0
CLASS
  1
ACMNOTESTANDARDBSI
  2
AmdtNoteStdBSI
  3
"Amdt_StdImp|Product Description: AutoCAD Mechanical|Company: Autodesk, Inc."
 90
     1024
 91
        0
280
     0
281
     0
  0
CLASS
  1
ACMTAPERSTANDARDBSI
  2
AcmTaperStdBSI
  3
"Amdt_StdImp|Product Description: AutoCAD Mechanical|Company: Autodesk, Inc."
 90
     1024
 91
        0
280
     0
281
     0
  0
CLASS
  1
ACMANOOTATIONVIEWSTANDARDBSI
  2
AmdtAnViewStdBSI
  3
"Amdt_StdImp|Product Description: AutoCAD Mechanical|Company: Autodesk, Inc."
 90
     1024
 91
        0
280
     0
281
     0
  0
CLASS
  1
ACAMGHOLECHARTSTDBSI
  2
AcAmgHoleChartStdBSI
  3
AmgDim|Product Description: AutoCAD Mechanical|Company: Autodesk, Inc.
 90
     1024
 91
        0
280
     0
281
     0
  0
CLASS
  1
AMDTEDGESTANDARDJIS
  2
AmdtEdgeStdJIS
  3
"Amdt_StdImp|Product Description: AutoCAD Mechanical|Company: Autodesk, Inc."
 90
     1024
 91
        0
280
     0
281
     0
  0
CLASS
  1
ACDB_BLKREFOBJECTCONTEXTDATA_CLASS
  2
AcDbBlkRefObjectContextData
  3
ObjectDBX Classes
 90
     1153
 91
        0
280
     0
281
     0
  0
CLASS
  1
ACDBOPPOLYLINERES
  2
AcDbOpPolylineRes
  3
AcGrefServices
 90
     1024
 91
        0
280
     0
281
     0
  0
CLASS
  1
AMDTACMWBLOCKBOMENTITY
  2
AmdtAcmWblockBomEntity
  3
"AcmSymBB|Product Description: AutoCAD Mechanical|Company: Autodesk, Inc."
 90
     4095
 91
        0
280
     0
281
     1
  0
CLASS
  1
ACMSURFSYM
  2
AcmSurfaceTexture
  3
"AcmSymBB|Product Description: AutoCAD Mechanical|Company: Autodesk, Inc."
 90
     4095
 91
        0
280
     0
281
     1
  0
CLASS
  1
ACDBCIRCARCRES
  2
AcDbCircArcRes
  3
AcGrefServices
 90
     1024
 91
        0
280
     0
281
     0
  0
CLASS
  1
ACDBDIMENSIONRES
  2
AcDbDimensionRes
  3
AcmSymBB|Product Description: AutoCAD Mechanical|Company: Autodesk, Inc.
 90
     1024
 91
        0
280
     0
281
     0
  0
CLASS
  1
ACMPICKOBJ
  2
AcmPickEnt
  3
"AcmSymBB|Product Description: AutoCAD Mechanical|Company: Autodesk, Inc."
 90
     1024
 91
        0
280
     0
281
     1
  0
CLASS
  1
ACDBELLIPSERES
  2
AcDbEllipseRes
  3
AcGrefServices
 90
     1024
 91
        0
280
     0
281
     0
  0
CLASS
  1
ACMBALLOON
  2
AcmBalloon
  3
"AcmSymBB|Product Description: AutoCAD Mechanical|Company: Autodesk, Inc."
 90
     4095
 91
        0
280
     0
281
     1
  0
ENDSEC
  0
SECTION
  2
TABLES
  0
TABLE
  2
VPORT
  5
8
330
0
100
AcDbSymbolTable
 70
     1
  0
VPORT
  5
27A
330
8
100
AcDbSymbolTableRecord
100
AcDbViewportTableRecord
  2
*Active
 70
     0
 10
0.0
 20
0.0
 11
1.0
 21
1.0
 12
711.9462014954692
 22
599.7670011894857
 13
0.0
 23
0.0
 14
7.5
 24
7.5
 15
30.0
 25
30.0
 16
0.0
 26
0.0
 36
1.0
 17
0.0
 27
0.0
 37
0.0
 40
525.1058445906886
 41
1.571428571428571
 42
50.0
 43
0.0
 44
0.0
 50
0.0
 51
0.0
 71
    16
 72
 20000
 73
     1
 74
     3
 75
     0
 76
     0
 77
     0
 78
     0
281
     0
 65
     0
110
0.0
120
0.0
130
0.0
111
1.0
121
0.0
131
0.0
112
0.0
122
1.0
132
0.0
 79
     0
146
0.0
348
285
 60
     3
 61
     5
292
     1
282
     0
141
0.0
142
0.0
 63
   250
421
  3355443
  0
ENDTAB
  0
TABLE
  2
LTYPE
  5
5
330
0
100
AcDbSymbolTable
 70
    20
  0
LTYPE
  5
14
330
5
100
AcDbSymbolTableRecord
100
AcDbLinetypeTableRecord
  2
ByBlock
 70
     0
  3

 72
    65
 73
     0
 40
0.0
  0
LTYPE
  5
15
330
5
100
AcDbSymbolTableRecord
100
AcDbLinetypeTableRecord
  2
ByLayer
 70
     0
  3

 72
    65
 73
     0
 40
0.0
  0
LTYPE
  5
16
330
5
100
AcDbSymbolTableRecord
100
AcDbLinetypeTableRecord
  2
Continuous
 70
     0
  3
Solid line
 72
    65
 73
     0
 40
0.0
  0
LTYPE
  5
4D
330
5
100
AcDbSymbolTableRecord
100
AcDbLinetypeTableRecord
  2
AM_ISO02W050
 70
     0
  3
__ __ __ __ __ __ __ __ __ __ __ __ __ __ __
 72
    65
 73
     2
 40
7.5
 49
6.0
 74
     0
 49
-1.5
 74
     0
  0
LTYPE
  5
4E
330
5
100
AcDbSymbolTableRecord
100
AcDbLinetypeTableRecord
  2
AM_ISO08W050
 70
     0
  3
____ . ____ . ____ . ____ . ____ . ____ . ____
 72
    65
 73
     4
 40
18.0
 49
12.0
 74
     0
 49
-1.5
 74
     0
 49
3.0
 74
     0
 49
-1.5
 74
     0
  0
LTYPE
  5
4F
330
5
100
AcDbSymbolTableRecord
100
AcDbLinetypeTableRecord
  2
AM_ISO09W050
 70
     0
  3
_____ . . _____ . . _____ . . ____ .. ____
 72
    65
 73
     6
 40
22.5
 49
12.0
 74
     0
 49
-1.5
 74
     0
 49
3.0
 74
     0
 49
-1.5
 74
     0
 49
3.0
 74
     0
 49
-1.5
 74
     0
  0
LTYPE
  5
50
330
5
100
AcDbSymbolTableRecord
100
AcDbLinetypeTableRecord
  2
Amconstr
 70
     0
  3
_______________________
 72
    65
 73
     2
 40
9999.0
 49
9999.0
 74
     0
 49
0.0
 74
     0
  0
LTYPE
  5
51
330
5
100
AcDbSymbolTableRecord
100
AcDbLinetypeTableRecord
  2
AM_ISO08W050x2
 70
     0
  3
__ . __ . __ . __ . __ . __
 72
    65
 73
     4
 40
9.0
 49
6.0
 74
     0
 49
-0.75
 74
     0
 49
1.5
 74
     0
 49
-0.75
 74
     0
  0
LTYPE
  5
52
330
5
100
AcDbSymbolTableRecord
100
AcDbLinetypeTableRecord
  2
AM_ISO02W050x2
 70
     0
  3
 _ _ _ _ _ _ _ _ _ _ _ _
 72
    65
 73
     2
 40
3.75
 49
3.0
 74
     0
 49
-0.75
 74
     0
  0
LTYPE
  5
55
330
5
100
AcDbSymbolTableRecord
100
AcDbLinetypeTableRecord
  2
Amzigzag
 70
     0
  3
/\/-/\/-/\/-/\/-/\/-/\/
 72
    65
 73
     2
 40
11.0001
 49
0.0001
 74
     4
 75
   136
340
23D
 46
0.04
 50
0.0
 44
0.0
 45
0.0
 49
-11.0
 74
     0
  0
LTYPE
  5
65
330
5
100
AcDbSymbolTableRecord
100
AcDbLinetypeTableRecord
  2
CENTER
 70
     0
  3
__ . __
 72
    65
 73
     4
 40
7.0
 49
4.0
 74
     0
 49
-1.0
 74
     0
 49
1.0
 74
     0
 49
-1.0
 74
     0
  0
LTYPE
  5
E0
330
5
100
AcDbSymbolTableRecord
100
AcDbLinetypeTableRecord
  2
HIDDEN
 70
     0
  3
Hidden __ __ __ __ __ __ __ __ __ __ __ __ __ _
 72
    65
 73
     2
 40
9.524999999999996
 49
6.349999999999998
 74
     0
 49
-3.174999999999998
 74
     0
  0
LTYPE
  5
E1
330
5
100
AcDbSymbolTableRecord
100
AcDbLinetypeTableRecord
  2
PHANTOM2
 70
     0
  3
Phantom (.5x) ___ _ _ ___ _ _ ___ _ _ ___ _ _
 72
    65
 73
     6
 40
31.75
 49
15.875
 74
     0
 49
-3.174999999999998
 74
     0
 49
3.174999999999998
 74
     0
 49
-3.174999999999998
 74
     0
 49
3.174999999999998
 74
     0
 49
-3.174999999999998
 74
     0
  0
LTYPE
  5
5A2
330
5
100
AcDbSymbolTableRecord
100
AcDbLinetypeTableRecord
  2
ACJISWELD
 70
     0
  3
_ _ _ _ _
 72
    65
 73
     2
 40
2.0
 49
2.0
 74
     0
 49
-1.0
 74
     0
  0
LTYPE
  5
5AC4
330
5
100
AcDbSymbolTableRecord
100
AcDbLinetypeTableRecord
  2
ACISOWELD
 70
     0
  3
_ _ _ _ _
 72
    65
 73
     2
 40
2.0
 49
2.0
 74
     0
 49
-1.0
 74
     0
  0
LTYPE
  5
5AC5
330
5
100
AcDbSymbolTableRecord
100
AcDbLinetypeTableRecord
  2
ACISOTGB
 70
     0
  3
__ . . __ . .
 72
    65
 73
     6
 40
9.0
 49
4.0
 74
     0
 49
-1.0
 74
     0
 49
1.0
 74
     0
 49
-1.0
 74
     0
 49
1.0
 74
     0
 49
-1.0
 74
     0
  0
LTYPE
  5
5AC6
330
5
100
AcDbSymbolTableRecord
100
AcDbLinetypeTableRecord
  2
ACISOTGL
 70
     0
  3
_ _ _ _ _
 72
    65
 73
     2
 40
3.0
 49
2.0
 74
     0
 49
-1.0
 74
     0
  0
ENDTAB
  0
TABLE
  2
LAYER
  5
2
102
{ACAD_XDICTIONARY
360
BF
102
}
330
0
100
AcDbSymbolTable
 70
    10
  0
LAYER
  5
10
102
{ACAD_XDICTIONARY
360
29D7
102
}
330
2
100
AcDbSymbolTableRecord
100
AcDbLayerTableRecord
  2
0
 70
     0
 62
     7
  6
Continuous
370
    -3
390
F
347
27E
  0
LAYER
  5
81
102
{ACAD_XDICTIONARY
360
29D9
102
}
330
2
100
AcDbSymbolTableRecord
100
AcDbLayerTableRecord
  2
AM_0 外形線1
 70
     0
 62
     7
  6
Continuous
370
    25
390
F
347
27E
  0
LAYER
  5
427
330
2
100
AcDbSymbolTableRecord
100
AcDbLayerTableRecord
  2
Defpoints
 70
     0
 62
     7
  6
Continuous
290
     0
370
    -3
390
F
347
27E
  0
LAYER
  5
25C9
102
{ACAD_XDICTIONARY
360
29E0
102
}
330
2
100
AcDbSymbolTableRecord
100
AcDbLayerTableRecord
  2
AM_3 隠れ線
 70
     0
 62
     8
  6
ACJISWELD
370
    13
390
F
347
27E
1001
AcAecLayerStandard
1000

1000

  0
LAYER
  5
25CA
102
{ACAD_XDICTIONARY
360
29E2
102
}
330
2
100
AcDbSymbolTableRecord
100
AcDbLayerTableRecord
  2
AM_4 細線
 70
     0
 62
     4
  6
Continuous
370
    13
390
F
347
27E
1001
AcAecLayerStandard
1000

1000

  0
LAYER
  5
26B3
102
{ACAD_XDICTIONARY
360
29E8
102
}
330
2
100
AcDbSymbolTableRecord
100
AcDbLayerTableRecord
  2
AM_5 寸法線
 70
     0
 62
     3
  6
Continuous
370
    13
390
F
347
27E
1001
AcAecLayerStandard
1000

1000

  0
LAYER
  5
35FF
330
2
100
AcDbSymbolTableRecord
100
AcDbLayerTableRecord
  2
AM_7 中心線
 70
     0
 62
     1
  6
AM_ISO08W050
370
    13
390
F
347
27E
1001
AcAecLayerStandard
1000

1000

  0
LAYER
  5
3601
330
2
100
AcDbSymbolTableRecord
100
AcDbLayerTableRecord
  2
AM_6 文字
 70
     0
 62
     2
  6
Continuous
370
    13
390
F
347
27E
1001
AcAecLayerStandard
1000

1000

  0
LAYER
  5
5708
330
2
100
AcDbSymbolTableRecord
100
AcDbLayerTableRecord
  2
AM_11 想像線
 70
     0
 62
     5
  6
AM_ISO09W050
370
    13
390
F
347
27E
1001
AcAecLayerStandard
1000

1000

  0
ENDTAB
  0
TABLE
  2
STYLE
  5
3
330
0
100
AcDbSymbolTable
 70
    11
  0
STYLE
  5
11
330
3
100
AcDbSymbolTableRecord
100
AcDbTextStyleTableRecord
  2
STANDARD
 70
     0
 40
0.0
 41
1.0
 50
0.0
 71
     0
 42
25.0
  3
ISOCP.SHX
  4
EXTFONT.SHX
  0
STYLE
  5
23D
330
3
100
AcDbSymbolTableRecord
100
AcDbTextStyleTableRecord
  2

 70
     1
 40
0.0
 41
1.0
 50
0.0
 71
     0
 42
2.5
  3
genltshp.shx
  4

  0
STYLE
  5
5D5
330
3
100
AcDbSymbolTableRecord
100
AcDbTextStyleTableRecord
  2
SEISA
 70
     0
 40
0.0
 41
0.9
 50
0.0
 71
     0
 42
25.0
  3
romans.shx
  4
extfont2.shx
  0
STYLE
  5
5AB4
330
3
100
AcDbSymbolTableRecord
100
AcDbTextStyleTableRecord
  2
ACISOTS
 70
     0
 40
1.0
 41
1.0
 50
0.0
 71
     0
 42
25.0
  3
isocp.shx
  4
extfont.shx
  0
STYLE
  5
5AC3
330
3
100
AcDbSymbolTableRecord
100
AcDbTextStyleTableRecord
  2
ACISOGDT
 70
     0
 40
0.0
 41
1.0
 50
0.0
 71
     0
 42
25.0
  3
amgdt.shx
  4

  0
ENDTAB
  0
TABLE
  2
VIEW
  5
6
330
0
100
AcDbSymbolTable
 70
     6
  0
VIEW
  5
91B
330
6
100
AcDbSymbolTableRecord
100
AcDbViewTableRecord
  2
AM_VIEW1
 70
     0
 40
630.0000000000002
 10
571.6277126275882
 20
945.0000000000002
 41
1143.255425709516
 11
0.0
 21
0.0
 31
1.0
 12
0.0
 22
0.0
 32
0.0
 42
50.0
 43
0.0
 44
0.0
 50
0.0
 71
    16
281
     0
 72
     0
 73
     0
  0
VIEW
  5
91C
330
6
100
AcDbSymbolTableRecord
100
AcDbViewTableRecord
  2
AM_VIEW2
 70
     0
 40
630.0000000000002
 10
1210.372287599582
 20
945.0000000000002
 41
1143.255425709516
 11
0.0
 21
0.0
 31
1.0
 12
0.0
 22
0.0
 32
0.0
 42
50.0
 43
0.0
 44
0.0
 50
0.0
 71
    16
281
     0
 72
     0
 73
     0
  0
VIEW
  5
91D
330
6
100
AcDbSymbolTableRecord
100
AcDbViewTableRecord
  2
AM_VIEW3
 70
     0
 40
630.0000000000002
 10
571.6277126275882
 20
315.0000000000001
 41
1143.255425709516
 11
0.0
 21
0.0
 31
1.0
 12
0.0
 22
0.0
 32
0.0
 42
50.0
 43
0.0
 44
0.0
 50
0.0
 71
    16
281
     0
 72
     0
 73
     0
  0
VIEW
  5
91E
330
6
100
AcDbSymbolTableRecord
100
AcDbViewTableRecord
  2
AM_VIEW4
 70
     0
 40
630.0000000000002
 10
1210.372287599582
 20
315.0000000000001
 41
1143.255425709516
 11
0.0
 21
0.0
 31
1.0
 12
0.0
 22
0.0
 32
0.0
 42
50.0
 43
0.0
 44
0.0
 50
0.0
 71
    16
281
     0
 72
     0
 73
     0
  0
VIEW
  5
91F
330
6
100
AcDbSymbolTableRecord
100
AcDbViewTableRecord
  2
AM_VIEW5
 70
     0
 40
630.0000000000002
 10
891.000000113585
 20
630.0000000000002
 41
1143.255425709516
 11
0.0
 21
0.0
 31
1.0
 12
0.0
 22
0.0
 32
0.0
 42
50.0
 43
0.0
 44
0.0
 50
0.0
 71
    16
281
     0
 72
     0
 73
     0
  0
VIEW
  5
920
330
6
100
AcDbSymbolTableRecord
100
AcDbViewTableRecord
  2
AM_VIEW6
 70
     0
 40
1259.9874
 10
891.000000113585
 20
630.0000000000002
 41
2286.48798631052
 11
0.0
 21
0.0
 31
1.0
 12
0.0
 22
0.0
 32
0.0
 42
50.0
 43
0.0
 44
0.0
 50
0.0
 71
    16
281
     0
 72
     0
 73
     0
  0
ENDTAB
  0
TABLE
  2
UCS
  5
7
330
0
100
AcDbSymbolTable
 70
     0
  0
ENDTAB
  0
TABLE
  2
APPID
  5
9
330
0
100
AcDbSymbolTable
 70
   394
  0
APPID
  5
12
330
9
100
AcDbSymbolTableRecord
100
AcDbRegAppTableRecord
  2
ACAD
 70
     0
  0
APPID
  5
30
330
9
100
AcDbSymbolTableRecord
100
AcDbRegAppTableRecord
  2
MCAD_NO_VIS
 70
     0
  0
APPID
  5
31
330
9
100
AcDbSymbolTableRecord
100
AcDbRegAppTableRecord
  2
ACAD_TEMP_GRAPHIC
 70
     0
  0
APPID
  5
44
330
9
100
AcDbSymbolTableRecord
100
AcDbRegAppTableRecord
  2
ACATTRIBSERVICES
 70
     0
  0
APPID
  5
F6
330
9
100
AcDbSymbolTableRecord
100
AcDbRegAppTableRecord
  2
AD_DRAW
 70
     0
  0
APPID
  5
114
330
9
100
AcDbSymbolTableRecord
100
AcDbRegAppTableRecord
  2
DESIGNERASSEMBLIES
 70
     0
  0
APPID
  5
118
330
9
100
AcDbSymbolTableRecord
100
AcDbRegAppTableRecord
  2
ACADM_DIM_EDIT
 70
     0
  0
APPID
  5
119
330
9
100
AcDbSymbolTableRecord
100
AcDbRegAppTableRecord
  2
AMDT_DM_ADJ
 70
     0
  0
APPID
  5
1AF
330
9
100
AcDbSymbolTableRecord
100
AcDbRegAppTableRecord
  2
ACAD_DSTYLE_DIMARC_LENGTH_SYMBOL
 70
     0
  0
APPID
  5
1B0
330
9
100
AcDbSymbolTableRecord
100
AcDbRegAppTableRecord
  2
ACAD_DSTYLE_DIMJOGGED_JOGANGLE_SYMBOL
 70
     0
  0
APPID
  5
2D7
330
9
100
AcDbSymbolTableRecord
100
AcDbRegAppTableRecord
  2
ACAD_MLEADERVER
 70
     0
  0
APPID
  5
355
330
9
100
AcDbSymbolTableRecord
100
AcDbRegAppTableRecord
  2
AcadAnnoPO
 70
     0
  0
APPID
  5
428
330
9
100
AcDbSymbolTableRecord
100
AcDbRegAppTableRecord
  2
ACAD_DSTYLE_DIMTEXT_FILL
 70
     0
  0
APPID
  5
429
330
9
100
AcDbSymbolTableRecord
100
AcDbRegAppTableRecord
  2
GENIUS_GENSCREG_15
 70
     0
  0
APPID
  5
42A
330
9
100
AcDbSymbolTableRecord
100
AcDbRegAppTableRecord
  2
GENIUS_GENOBJ-N-SDF_13
 70
     0
  0
APPID
  5
42B
330
9
100
AcDbSymbolTableRecord
100
AcDbRegAppTableRecord
  2
GENIUS_GENODEF_13
 70
     0
  0
APPID
  5
42C
330
9
100
AcDbSymbolTableRecord
100
AcDbRegAppTableRecord
  2
ACAD_EXEMPT_FROM_CAD_STANDARDS
 70
     0
  0
APPID
  5
42D
330
9
100
AcDbSymbolTableRecord
100
AcDbRegAppTableRecord
  2
AcAecLayerStandard
 70
     0
  0
APPID
  5
42E
330
9
100
AcDbSymbolTableRecord
100
AcDbRegAppTableRecord
  2
GENIUS_GENOBJ-N-CEN_13
 70
     0
  0
APPID
  5
42F
330
9
100
AcDbSymbolTableRecord
100
AcDbRegAppTableRecord
  2
GENIUS_GENCEN_19
 70
     0
  0
APPID
  5
430
330
9
100
AcDbSymbolTableRecord
100
AcDbRegAppTableRecord
  2
ACAD_DSTYLE_DIMINSPECT
 70
     0
  0
APPID
  5
431
330
9
100
AcDbSymbolTableRecord
100
AcDbRegAppTableRecord
  2
GENIUS_AMGTXT_16
 70
     0
  0
APPID
  5
432
330
9
100
AcDbSymbolTableRecord
100
AcDbRegAppTableRecord
  2
GENIUS_GENFIL_13
 70
     0
  0
APPID
  5
433
330
9
100
AcDbSymbolTableRecord
100
AcDbRegAppTableRecord
  2
GENIUS_GENOLIS_13
 70
     0
  0
APPID
  5
434
330
9
100
AcDbSymbolTableRecord
100
AcDbRegAppTableRecord
  2
GENIUS_GENOBJ-N-CHA_13
 70
     0
  0
APPID
  5
435
330
9
100
AcDbSymbolTableRecord
100
AcDbRegAppTableRecord
  2
GENIUS_GENOENT_13
 70
     0
  0
APPID
  5
436
330
9
100
AcDbSymbolTableRecord
100
AcDbRegAppTableRecord
  2
GENIUS_GENOREF_13
 70
     0
  0
APPID
  5
437
330
9
100
AcDbSymbolTableRecord
100
AcDbRegAppTableRecord
  2
GENIUS_GENOBJ-N-FIL_13
 70
     0
  0
APPID
  5
438
330
9
100
AcDbSymbolTableRecord
100
AcDbRegAppTableRecord
  2
GEVID1208829536
 70
     0
  0
APPID
  5
439
330
9
100
AcDbSymbolTableRecord
100
AcDbRegAppTableRecord
  2
GEVDC
 70
     0
  0
APPID
  5
43A
330
9
100
AcDbSymbolTableRecord
100
AcDbRegAppTableRecord
  2
GEVRADREF
 70
     0
  0
APPID
  5
43B
330
9
100
AcDbSymbolTableRecord
100
AcDbRegAppTableRecord
  2
GENIUS_GENBH_13
 70
     0
  0
APPID
  5
43C
330
9
100
AcDbSymbolTableRecord
100
AcDbRegAppTableRecord
  2
GENIUS_GENOBJ-NBEHI-BHF_13
 70
     0
  0
APPID
  5
43D
330
9
100
AcDbSymbolTableRecord
100
AcDbRegAppTableRecord
  2
GENIUS_GENOBJ-NBEHI-BHB_13
 70
     0
  0
APPID
  5
43E
330
9
100
AcDbSymbolTableRecord
100
AcDbRegAppTableRecord
  2
GEVID1208829537
 70
     0
  0
APPID
  5
43F
330
9
100
AcDbSymbolTableRecord
100
AcDbRegAppTableRecord
  2
ACAD_DSTYLE_DIMJAG
 70
     0
  0
APPID
  5
440
330
9
100
AcDbSymbolTableRecord
100
AcDbRegAppTableRecord
  2
ACAD_DSTYLE_DIMTALN
 70
     0
  0
APPID
  5
441
330
9
100
AcDbSymbolTableRecord
100
AcDbRegAppTableRecord
  2
AMG_2DHIDE
 70
     0
  0
APPID
  5
442
330
9
100
AcDbSymbolTableRecord
100
AcDbRegAppTableRecord
  2
AMG_2DSTRUCT_BTR
 70
     0
  0
APPID
  5
443
330
9
100
AcDbSymbolTableRecord
100
AcDbRegAppTableRecord
  2
GEVID1208845772
 70
     0
  0
APPID
  5
444
330
9
100
AcDbSymbolTableRecord
100
AcDbRegAppTableRecord
  2
GEVID1208845773
 70
     0
  0
APPID
  5
445
330
9
100
AcDbSymbolTableRecord
100
AcDbRegAppTableRecord
  2
ACADM_2DVIEW_IGN_NOTIFY
 70
     0
  0
APPID
  5
446
330
9
100
AcDbSymbolTableRecord
100
AcDbRegAppTableRecord
  2
GEVID1208845774
 70
     0
  0
APPID
  5
447
330
9
100
AcDbSymbolTableRecord
100
AcDbRegAppTableRecord
  2
GEVID1208845775
 70
     0
  0
APPID
  5
448
330
9
100
AcDbSymbolTableRecord
100
AcDbRegAppTableRecord
  2
GEVID1208845776
 70
     0
  0
APPID
  5
449
330
9
100
AcDbSymbolTableRecord
100
AcDbRegAppTableRecord
  2
GEVID1208845777
 70
     0
  0
APPID
  5
44A
330
9
100
AcDbSymbolTableRecord
100
AcDbRegAppTableRecord
  2
GEVCON
 70
     0
  0
APPID
  5
44B
330
9
100
AcDbSymbolTableRecord
100
AcDbRegAppTableRecord
  2
GENIUS_GENOBJ-F-SCPASSM_13
 70
     0
  0
APPID
  5
44C
330
9
100
AcDbSymbolTableRecord
100
AcDbRegAppTableRecord
  2
GEVID1208845778
 70
     0
  0
APPID
  5
44D
330
9
100
AcDbSymbolTableRecord
100
AcDbRegAppTableRecord
  2
GEVID1208845779
 70
     0
  0
APPID
  5
44E
330
9
100
AcDbSymbolTableRecord
100
AcDbRegAppTableRecord
  2
GEVID1208845780
 70
     0
  0
APPID
  5
44F
330
9
100
AcDbSymbolTableRecord
100
AcDbRegAppTableRecord
  2
GEVID1208845781
 70
     0
  0
APPID
  5
450
330
9
100
AcDbSymbolTableRecord
100
AcDbRegAppTableRecord
  2
GEVID1208845782
 70
     0
  0
APPID
  5
451
330
9
100
AcDbSymbolTableRecord
100
AcDbRegAppTableRecord
  2
GEVID1208845783
 70
     0
  0
APPID
  5
452
330
9
100
AcDbSymbolTableRecord
100
AcDbRegAppTableRecord
  2
GEVID1208845784
 70
     0
  0
APPID
  5
453
330
9
100
AcDbSymbolTableRecord
100
AcDbRegAppTableRecord
  2
GEVID1208845785
 70
     0
  0
APPID
  5
454
330
9
100
AcDbSymbolTableRecord
100
AcDbRegAppTableRecord
  2
GEVID1208845787
 70
     0
  0
APPID
  5
455
330
9
100
AcDbSymbolTableRecord
100
AcDbRegAppTableRecord
  2
GEVID1208845788
 70
     0
  0
APPID
  5
456
330
9
100
AcDbSymbolTableRecord
100
AcDbRegAppTableRecord
  2
GEVID1208845789
 70
     0
  0
APPID
  5
457
330
9
100
AcDbSymbolTableRecord
100
AcDbRegAppTableRecord
  2
GEVID1208845790
 70
     0
  0
APPID
  5
458
330
9
100
AcDbSymbolTableRecord
100
AcDbRegAppTableRecord
  2
GEVID1208845791
 70
     0
  0
APPID
  5
459
330
9
100
AcDbSymbolTableRecord
100
AcDbRegAppTableRecord
  2
GEVID1208845792
 70
     0
  0
APPID
  5
45A
330
9
100
AcDbSymbolTableRecord
100
AcDbRegAppTableRecord
  2
GEVID1208845793
 70
     0
  0
APPID
  5
45B
330
9
100
AcDbSymbolTableRecord
100
AcDbRegAppTableRecord
  2
GEVID1208845794
 70
     0
  0
APPID
  5
45C
330
9
100
AcDbSymbolTableRecord
100
AcDbRegAppTableRecord
  2
GEVID1208845795
 70
     0
  0
APPID
  5
45D
330
9
100
AcDbSymbolTableRecord
100
AcDbRegAppTableRecord
  2
GEVID1208845796
 70
     0
  0
APPID
  5
45E
330
9
100
AcDbSymbolTableRecord
100
AcDbRegAppTableRecord
  2
GEVID1208845797
 70
     0
  0
APPID
  5
45F
330
9
100
AcDbSymbolTableRecord
100
AcDbRegAppTableRecord
  2
GEVID1208845798
 70
     0
  0
APPID
  5
460
330
9
100
AcDbSymbolTableRecord
100
AcDbRegAppTableRecord
  2
GEVID1208845799
 70
     0
  0
APPID
  5
461
330
9
100
AcDbSymbolTableRecord
100
AcDbRegAppTableRecord
  2
GEVID1208845800
 70
     0
  0
APPID
  5
462
330
9
100
AcDbSymbolTableRecord
100
AcDbRegAppTableRecord
  2
GEVID1208845801
 70
     0
  0
APPID
  5
463
330
9
100
AcDbSymbolTableRecord
100
AcDbRegAppTableRecord
  2
GEVID1208845802
 70
     0
  0
APPID
  5
464
330
9
100
AcDbSymbolTableRecord
100
AcDbRegAppTableRecord
  2
GENIUS_GENOBJ-N-DIM_13
 70
     0
  0
APPID
  5
465
330
9
100
AcDbSymbolTableRecord
100
AcDbRegAppTableRecord
  2
GENIUS_GENDIM_13
 70
     0
  0
APPID
  5
466
330
9
100
AcDbSymbolTableRecord
100
AcDbRegAppTableRecord
  2
GENIUS_GENDIMSH_14
 70
     0
  0
APPID
  5
467
330
9
100
AcDbSymbolTableRecord
100
AcDbRegAppTableRecord
  2
GEVID1208845803
 70
     0
  0
APPID
  5
468
330
9
100
AcDbSymbolTableRecord
100
AcDbRegAppTableRecord
  2
GEVID1208845804
 70
     0
  0
APPID
  5
469
330
9
100
AcDbSymbolTableRecord
100
AcDbRegAppTableRecord
  2
GEVID1208845805
 70
     0
  0
APPID
  5
46A
330
9
100
AcDbSymbolTableRecord
100
AcDbRegAppTableRecord
  2
GEVID1208845806
 70
     0
  0
APPID
  5
46B
330
9
100
AcDbSymbolTableRecord
100
AcDbRegAppTableRecord
  2
GEVID1208845807
 70
     0
  0
APPID
  5
46C
330
9
100
AcDbSymbolTableRecord
100
AcDbRegAppTableRecord
  2
GEVID1208845808
 70
     0
  0
APPID
  5
46D
330
9
100
AcDbSymbolTableRecord
100
AcDbRegAppTableRecord
  2
GEVID1208845809
 70
     0
  0
APPID
  5
46E
330
9
100
AcDbSymbolTableRecord
100
AcDbRegAppTableRecord
  2
GEVID1208845810
 70
     0
  0
APPID
  5
46F
330
9
100
AcDbSymbolTableRecord
100
AcDbRegAppTableRecord
  2
GEVID1208845811
 70
     0
  0
APPID
  5
470
330
9
100
AcDbSymbolTableRecord
100
AcDbRegAppTableRecord
  2
GEVID1208845813
 70
     0
  0
APPID
  5
471
330
9
100
AcDbSymbolTableRecord
100
AcDbRegAppTableRecord
  2
GEVID1208845814
 70
     0
  0
APPID
  5
472
330
9
100
AcDbSymbolTableRecord
100
AcDbRegAppTableRecord
  2
GEVID1208845815
 70
     0
  0
APPID
  5
473
330
9
100
AcDbSymbolTableRecord
100
AcDbRegAppTableRecord
  2
GEVID1208845816
 70
     0
  0
APPID
  5
474
330
9
100
AcDbSymbolTableRecord
100
AcDbRegAppTableRecord
  2
GEVID1208845817
 70
     0
  0
APPID
  5
475
330
9
100
AcDbSymbolTableRecord
100
AcDbRegAppTableRecord
  2
GEVID1208845818
 70
     0
  0
APPID
  5
476
330
9
100
AcDbSymbolTableRecord
100
AcDbRegAppTableRecord
  2
GEVID1208845819
 70
     0
  0
APPID
  5
477
330
9
100
AcDbSymbolTableRecord
100
AcDbRegAppTableRecord
  2
GEVID1208845820
 70
     0
  0
APPID
  5
478
330
9
100
AcDbSymbolTableRecord
100
AcDbRegAppTableRecord
  2
GENIUS_GENOBJ-F-SHCL_13
 70
     0
  0
APPID
  5
479
330
9
100
AcDbSymbolTableRecord
100
AcDbRegAppTableRecord
  2
GENIUS_GEFMSH_13
 70
     0
  0
APPID
  5
47A
330
9
100
AcDbSymbolTableRecord
100
AcDbRegAppTableRecord
  2
GENIUS_GENOBJ-F-SHCA_13
 70
     0
  0
APPID
  5
47B
330
9
100
AcDbSymbolTableRecord
100
AcDbRegAppTableRecord
  2
GENIUS_GEFSH_13
 70
     0
  0
APPID
  5
47C
330
9
100
AcDbSymbolTableRecord
100
AcDbRegAppTableRecord
  2
GENIUS_GEFSHP_13
 70
     0
  0
APPID
  5
47D
330
9
100
AcDbSymbolTableRecord
100
AcDbRegAppTableRecord
  2
GENIUS_GEFSHP0_13
 70
     0
  0
APPID
  5
47E
330
9
100
AcDbSymbolTableRecord
100
AcDbRegAppTableRecord
  2
GENIUS_GEFSH0_13
 70
     0
  0
APPID
  5
47F
330
9
100
AcDbSymbolTableRecord
100
AcDbRegAppTableRecord
  2
GENIUS_GEFSHP1_13
 70
     0
  0
APPID
  5
480
330
9
100
AcDbSymbolTableRecord
100
AcDbRegAppTableRecord
  2
GENIUS_GEFSH1_13
 70
     0
  0
APPID
  5
481
330
9
100
AcDbSymbolTableRecord
100
AcDbRegAppTableRecord
  2
GEVID1208866337
 70
     0
  0
APPID
  5
482
330
9
100
AcDbSymbolTableRecord
100
AcDbRegAppTableRecord
  2
GEVID1208866338
 70
     0
  0
APPID
  5
483
330
9
100
AcDbSymbolTableRecord
100
AcDbRegAppTableRecord
  2
GEVID1208866339
 70
     0
  0
APPID
  5
484
330
9
100
AcDbSymbolTableRecord
100
AcDbRegAppTableRecord
  2
GEVID1208866340
 70
     0
  0
APPID
  5
485
330
9
100
AcDbSymbolTableRecord
100
AcDbRegAppTableRecord
  2
GEVID1208866341
 70
     0
  0
APPID
  5
486
330
9
100
AcDbSymbolTableRecord
100
AcDbRegAppTableRecord
  2
ACAD_PSEXT
 70
     0
  0
APPID
  5
487
330
9
100
AcDbSymbolTableRecord
100
AcDbRegAppTableRecord
  2
GEVID1208866342
 70
     0
  0
APPID
  5
488
330
9
100
AcDbSymbolTableRecord
100
AcDbRegAppTableRecord
  2
GEVID1208913836
 70
     0
  0
APPID
  5
489
330
9
100
AcDbSymbolTableRecord
100
AcDbRegAppTableRecord
  2
GEVID1208913837
 70
     0
  0
APPID
  5
48A
330
9
100
AcDbSymbolTableRecord
100
AcDbRegAppTableRecord
  2
GEVID1208913838
 70
     0
  0
APPID
  5
48B
330
9
100
AcDbSymbolTableRecord
100
AcDbRegAppTableRecord
  2
GEVID1208913839
 70
     0
  0
APPID
  5
48C
330
9
100
AcDbSymbolTableRecord
100
AcDbRegAppTableRecord
  2
GENIUS_GENDTOL_13
 70
     0
  0
APPID
  5
48D
330
9
100
AcDbSymbolTableRecord
100
AcDbRegAppTableRecord
  2
GEVID1208928889
 70
     0
  0
APPID
  5
48E
330
9
100
AcDbSymbolTableRecord
100
AcDbRegAppTableRecord
  2
GEVID1208928890
 70
     0
  0
APPID
  5
48F
330
9
100
AcDbSymbolTableRecord
100
AcDbRegAppTableRecord
  2
GEVID1208928891
 70
     0
  0
APPID
  5
490
330
9
100
AcDbSymbolTableRecord
100
AcDbRegAppTableRecord
  2
GEVID1208928892
 70
     0
  0
APPID
  5
491
330
9
100
AcDbSymbolTableRecord
100
AcDbRegAppTableRecord
  2
GEVID1208933827
 70
     0
  0
APPID
  5
492
330
9
100
AcDbSymbolTableRecord
100
AcDbRegAppTableRecord
  2
GEVID1208933829
 70
     0
  0
APPID
  5
493
330
9
100
AcDbSymbolTableRecord
100
AcDbRegAppTableRecord
  2
GEVID1208933830
 70
     0
  0
APPID
  5
494
330
9
100
AcDbSymbolTableRecord
100
AcDbRegAppTableRecord
  2
GEVID1208933831
 70
     0
  0
APPID
  5
495
330
9
100
AcDbSymbolTableRecord
100
AcDbRegAppTableRecord
  2
GEVID1208933832
 70
     0
  0
APPID
  5
496
330
9
100
AcDbSymbolTableRecord
100
AcDbRegAppTableRecord
  2
GEVID1208933833
 70
     0
  0
APPID
  5
497
330
9
100
AcDbSymbolTableRecord
100
AcDbRegAppTableRecord
  2
GEVID1208933834
 70
     0
  0
APPID
  5
498
330
9
100
AcDbSymbolTableRecord
100
AcDbRegAppTableRecord
  2
GEVID1208933835
 70
     0
  0
APPID
  5
499
330
9
100
AcDbSymbolTableRecord
100
AcDbRegAppTableRecord
  2
GEVID1208933836
 70
     0
  0
APPID
  5
49A
330
9
100
AcDbSymbolTableRecord
100
AcDbRegAppTableRecord
  2
GEVID1208933837
 70
     0
  0
APPID
  5
49B
330
9
100
AcDbSymbolTableRecord
100
AcDbRegAppTableRecord
  2
GEVID1208933838
 70
     0
  0
APPID
  5
49C
330
9
100
AcDbSymbolTableRecord
100
AcDbRegAppTableRecord
  2
GEVID1208933840
 70
     0
  0
APPID
  5
49D
330
9
100
AcDbSymbolTableRecord
100
AcDbRegAppTableRecord
  2
GEVID1208933842
 70
     0
  0
APPID
  5
49E
330
9
100
AcDbSymbolTableRecord
100
AcDbRegAppTableRecord
  2
GEVID1208933843
 70
     0
  0
APPID
  5
49F
330
9
100
AcDbSymbolTableRecord
100
AcDbRegAppTableRecord
  2
GEVID1208933844
 70
     0
  0
APPID
  5
4A0
330
9
100
AcDbSymbolTableRecord
100
AcDbRegAppTableRecord
  2
GEVID1208933845
 70
     0
  0
APPID
  5
4A1
330
9
100
AcDbSymbolTableRecord
100
AcDbRegAppTableRecord
  2
GEVID1208933846
 70
     0
  0
APPID
  5
4A2
330
9
100
AcDbSymbolTableRecord
100
AcDbRegAppTableRecord
  2
GEVID1208933847
 70
     0
  0
APPID
  5
4A3
330
9
100
AcDbSymbolTableRecord
100
AcDbRegAppTableRecord
  2
GEVID1208933848
 70
     0
  0
APPID
  5
4A4
330
9
100
AcDbSymbolTableRecord
100
AcDbRegAppTableRecord
  2
GEVID1208933849
 70
     0
  0
APPID
  5
4A5
330
9
100
AcDbSymbolTableRecord
100
AcDbRegAppTableRecord
  2
GEVID1208933850
 70
     0
  0
APPID
  5
4A6
330
9
100
AcDbSymbolTableRecord
100
AcDbRegAppTableRecord
  2
GEVID1208933851
 70
     0
  0
APPID
  5
4A7
330
9
100
AcDbSymbolTableRecord
100
AcDbRegAppTableRecord
  2
GEVID1208933852
 70
     0
  0
APPID
  5
4A8
330
9
100
AcDbSymbolTableRecord
100
AcDbRegAppTableRecord
  2
GEVID1208933853
 70
     0
  0
APPID
  5
4A9
330
9
100
AcDbSymbolTableRecord
100
AcDbRegAppTableRecord
  2
GEVID1208933854
 70
     0
  0
APPID
  5
4AA
330
9
100
AcDbSymbolTableRecord
100
AcDbRegAppTableRecord
  2
GEVID1208933855
 70
     0
  0
APPID
  5
4AB
330
9
100
AcDbSymbolTableRecord
100
AcDbRegAppTableRecord
  2
GEVID1208933856
 70
     0
  0
APPID
  5
4AC
330
9
100
AcDbSymbolTableRecord
100
AcDbRegAppTableRecord
  2
GEVID1208933857
 70
     0
  0
APPID
  5
4AD
330
9
100
AcDbSymbolTableRecord
100
AcDbRegAppTableRecord
  2
GEVID1208933858
 70
     0
  0
APPID
  5
4AE
330
9
100
AcDbSymbolTableRecord
100
AcDbRegAppTableRecord
  2
GEVID1208933859
 70
     0
  0
APPID
  5
4AF
330
9
100
AcDbSymbolTableRecord
100
AcDbRegAppTableRecord
  2
GEVID1208933860
 70
     0
  0
APPID
  5
4B0
330
9
100
AcDbSymbolTableRecord
100
AcDbRegAppTableRecord
  2
GEVID1208933861
 70
     0
  0
APPID
  5
4B1
330
9
100
AcDbSymbolTableRecord
100
AcDbRegAppTableRecord
  2
GEVID1208933862
 70
     0
  0
APPID
  5
4B2
330
9
100
AcDbSymbolTableRecord
100
AcDbRegAppTableRecord
  2
GEVID1208933863
 70
     0
  0
APPID
  5
4B3
330
9
100
AcDbSymbolTableRecord
100
AcDbRegAppTableRecord
  2
GEVID1208933864
 70
     0
  0
APPID
  5
4B4
330
9
100
AcDbSymbolTableRecord
100
AcDbRegAppTableRecord
  2
GEVID1208933865
 70
     0
  0
APPID
  5
4B5
330
9
100
AcDbSymbolTableRecord
100
AcDbRegAppTableRecord
  2
GEVID1208933866
 70
     0
  0
APPID
  5
4B6
330
9
100
AcDbSymbolTableRecord
100
AcDbRegAppTableRecord
  2
GEVID1208933867
 70
     0
  0
APPID
  5
4B7
330
9
100
AcDbSymbolTableRecord
100
AcDbRegAppTableRecord
  2
GEVID1208933868
 70
     0
  0
APPID
  5
4B8
330
9
100
AcDbSymbolTableRecord
100
AcDbRegAppTableRecord
  2
GEVID1208933869
 70
     0
  0
APPID
  5
4B9
330
9
100
AcDbSymbolTableRecord
100
AcDbRegAppTableRecord
  2
GEVID1208933870
 70
     0
  0
APPID
  5
4BA
330
9
100
AcDbSymbolTableRecord
100
AcDbRegAppTableRecord
  2
GEVID1208933871
 70
     0
  0
APPID
  5
4BB
330
9
100
AcDbSymbolTableRecord
100
AcDbRegAppTableRecord
  2
GEVID1208933872
 70
     0
  0
APPID
  5
4BC
330
9
100
AcDbSymbolTableRecord
100
AcDbRegAppTableRecord
  2
GEVID1208933873
 70
     0
  0
APPID
  5
4BD
330
9
100
AcDbSymbolTableRecord
100
AcDbRegAppTableRecord
  2
GEVID1208933874
 70
     0
  0
APPID
  5
4BE
330
9
100
AcDbSymbolTableRecord
100
AcDbRegAppTableRecord
  2
GEVID1208933875
 70
     0
  0
APPID
  5
4BF
330
9
100
AcDbSymbolTableRecord
100
AcDbRegAppTableRecord
  2
GEVID1208933876
 70
     0
  0
APPID
  5
4C0
330
9
100
AcDbSymbolTableRecord
100
AcDbRegAppTableRecord
  2
ACAD_DSTYLE_DIMRADIAL_EXTENSION
 70
     0
  0
APPID
  5
4C1
330
9
100
AcDbSymbolTableRecord
100
AcDbRegAppTableRecord
  2
GEVID1208999100
 70
     0
  0
APPID
  5
4C2
330
9
100
AcDbSymbolTableRecord
100
AcDbRegAppTableRecord
  2
GEVID1208999101
 70
     0
  0
APPID
  5
4C3
330
9
100
AcDbSymbolTableRecord
100
AcDbRegAppTableRecord
  2
GEVID1208999102
 70
     0
  0
APPID
  5
4C4
330
9
100
AcDbSymbolTableRecord
100
AcDbRegAppTableRecord
  2
GEVID1208999103
 70
     0
  0
APPID
  5
4C5
330
9
100
AcDbSymbolTableRecord
100
AcDbRegAppTableRecord
  2
GEVID1208999105
 70
     0
  0
APPID
  5
4C6
330
9
100
AcDbSymbolTableRecord
100
AcDbRegAppTableRecord
  2
GEVID1208999106
 70
     0
  0
APPID
  5
4C7
330
9
100
AcDbSymbolTableRecord
100
AcDbRegAppTableRecord
  2
GEVID1208999108
 70
     0
  0
APPID
  5
4C8
330
9
100
AcDbSymbolTableRecord
100
AcDbRegAppTableRecord
  2
GEVID1208999109
 70
     0
  0
APPID
  5
4C9
330
9
100
AcDbSymbolTableRecord
100
AcDbRegAppTableRecord
  2
GEVID1208999110
 70
     0
  0
APPID
  5
4CA
330
9
100
AcDbSymbolTableRecord
100
AcDbRegAppTableRecord
  2
GEVID1208999111
 70
     0
  0
APPID
  5
4CB
330
9
100
AcDbSymbolTableRecord
100
AcDbRegAppTableRecord
  2
GEVID1208999112
 70
     0
  0
APPID
  5
4CC
330
9
100
AcDbSymbolTableRecord
100
AcDbRegAppTableRecord
  2
GEVID1208999113
 70
     0
  0
APPID
  5
4CD
330
9
100
AcDbSymbolTableRecord
100
AcDbRegAppTableRecord
  2
GEVID1208999114
 70
     0
  0
APPID
  5
4CE
330
9
100
AcDbSymbolTableRecord
100
AcDbRegAppTableRecord
  2
GEVID1210218799
 70
     0
  0
APPID
  5
4CF
330
9
100
AcDbSymbolTableRecord
100
AcDbRegAppTableRecord
  2
GEVID1210218800
 70
     0
  0
APPID
  5
4D0
330
9
100
AcDbSymbolTableRecord
100
AcDbRegAppTableRecord
  2
GENIUS_GEFWELD_13
 70
     0
  0
APPID
  5
4D1
330
9
100
AcDbSymbolTableRecord
100
AcDbRegAppTableRecord
  2
GENIUS_GENOBJ-F-WELS_13
 70
     0
  0
APPID
  5
4D2
330
9
100
AcDbSymbolTableRecord
100
AcDbRegAppTableRecord
  2
AcadAnnotative
 70
     0
  0
APPID
  5
4D3
330
9
100
AcDbSymbolTableRecord
100
AcDbRegAppTableRecord
  2
GEVID1210145339
 70
     0
  0
APPID
  5
4D4
330
9
100
AcDbSymbolTableRecord
100
AcDbRegAppTableRecord
  2
ACAD_DSTYLE_DIMBREAK
 70
     0
  0
APPID
  5
4D5
330
9
100
AcDbSymbolTableRecord
100
AcDbRegAppTableRecord
  2
GEVID1210145340
 70
     0
  0
APPID
  5
4D6
330
9
100
AcDbSymbolTableRecord
100
AcDbRegAppTableRecord
  2
GEVID1210145341
 70
     0
  0
APPID
  5
4D7
330
9
100
AcDbSymbolTableRecord
100
AcDbRegAppTableRecord
  2
GEVID1210145342
 70
     0
  0
APPID
  5
4D8
330
9
100
AcDbSymbolTableRecord
100
AcDbRegAppTableRecord
  2
GEVID1210145343
 70
     0
  0
APPID
  5
4D9
330
9
100
AcDbSymbolTableRecord
100
AcDbRegAppTableRecord
  2
GEVID1210145344
 70
     0
  0
APPID
  5
4DA
330
9
100
AcDbSymbolTableRecord
100
AcDbRegAppTableRecord
  2
GEVID1210145345
 70
     0
  0
APPID
  5
4DB
330
9
100
AcDbSymbolTableRecord
100
AcDbRegAppTableRecord
  2
GEVID1210152816
 70
     0
  0
APPID
  5
4DC
330
9
100
AcDbSymbolTableRecord
100
AcDbRegAppTableRecord
  2
GEVID1210153850
 70
     0
  0
APPID
  5
4DD
330
9
100
AcDbSymbolTableRecord
100
AcDbRegAppTableRecord
  2
GEVID1210153851
 70
     0
  0
APPID
  5
4DE
330
9
100
AcDbSymbolTableRecord
100
AcDbRegAppTableRecord
  2
GEVID1210153852
 70
     0
  0
APPID
  5
4DF
330
9
100
AcDbSymbolTableRecord
100
AcDbRegAppTableRecord
  2
GEVID1210549898
 70
     0
  0
APPID
  5
4E0
330
9
100
AcDbSymbolTableRecord
100
AcDbRegAppTableRecord
  2
GEVID1210549899
 70
     0
  0
APPID
  5
4E1
330
9
100
AcDbSymbolTableRecord
100
AcDbRegAppTableRecord
  2
GEVID1210549900
 70
     0
  0
APPID
  5
4E2
330
9
100
AcDbSymbolTableRecord
100
AcDbRegAppTableRecord
  2
GEVID1210549901
 70
     0
  0
APPID
  5
4E3
330
9
100
AcDbSymbolTableRecord
100
AcDbRegAppTableRecord
  2
GEVID1210549902
 70
     0
  0
APPID
  5
4E4
330
9
100
AcDbSymbolTableRecord
100
AcDbRegAppTableRecord
  2
GEVID1210549903
 70
     0
  0
APPID
  5
4E5
330
9
100
AcDbSymbolTableRecord
100
AcDbRegAppTableRecord
  2
GEVID1210549904
 70
     0
  0
APPID
  5
4E6
330
9
100
AcDbSymbolTableRecord
100
AcDbRegAppTableRecord
  2
GEVID1210549905
 70
     0
  0
APPID
  5
4E7
330
9
100
AcDbSymbolTableRecord
100
AcDbRegAppTableRecord
  2
GEVID1210549906
 70
     0
  0
APPID
  5
4E8
330
9
100
AcDbSymbolTableRecord
100
AcDbRegAppTableRecord
  2
GEVID1210549907
 70
     0
  0
APPID
  5
4E9
330
9
100
AcDbSymbolTableRecord
100
AcDbRegAppTableRecord
  2
GEVID1210549908
 70
     0
  0
APPID
  5
4EA
330
9
100
AcDbSymbolTableRecord
100
AcDbRegAppTableRecord
  2
GEVID1210549909
 70
     0
  0
APPID
  5
4EB
330
9
100
AcDbSymbolTableRecord
100
AcDbRegAppTableRecord
  2
GEVID1210549910
 70
     0
  0
APPID
  5
4EC
330
9
100
AcDbSymbolTableRecord
100
AcDbRegAppTableRecord
  2
GEVID1210549911
 70
     0
  0
APPID
  5
4ED
330
9
100
AcDbSymbolTableRecord
100
AcDbRegAppTableRecord
  2
GEVID1210549912
 70
     0
  0
APPID
  5
4EE
330
9
100
AcDbSymbolTableRecord
100
AcDbRegAppTableRecord
  2
GEVID1210549913
 70
     0
  0
APPID
  5
4EF
330
9
100
AcDbSymbolTableRecord
100
AcDbRegAppTableRecord
  2
GEVID1210549914
 70
     0
  0
APPID
  5
4F0
330
9
100
AcDbSymbolTableRecord
100
AcDbRegAppTableRecord
  2
GEVID1210549915
 70
     0
  0
APPID
  5
4F1
330
9
100
AcDbSymbolTableRecord
100
AcDbRegAppTableRecord
  2
GEVID1210549916
 70
     0
  0
APPID
  5
4F2
330
9
100
AcDbSymbolTableRecord
100
AcDbRegAppTableRecord
  2
GEVID1210549917
 70
     0
  0
APPID
  5
4F3
330
9
100
AcDbSymbolTableRecord
100
AcDbRegAppTableRecord
  2
GENIUS_GENOBJ-N-CRS_13
 70
     0
  0
APPID
  5
4F4
330
9
100
AcDbSymbolTableRecord
100
AcDbRegAppTableRecord
  2
GEVID1210549918
 70
     0
  0
APPID
  5
4F5
330
9
100
AcDbSymbolTableRecord
100
AcDbRegAppTableRecord
  2
GENIUS_GENOBJ-N-CRC_13
 70
     0
  0
APPID
  5
4F6
330
9
100
AcDbSymbolTableRecord
100
AcDbRegAppTableRecord
  2
GENIUS_GENCRC_14
 70
     0
  0
APPID
  5
4F7
330
9
100
AcDbSymbolTableRecord
100
AcDbRegAppTableRecord
  2
GEVID1210549919
 70
     0
  0
APPID
  5
4F8
330
9
100
AcDbSymbolTableRecord
100
AcDbRegAppTableRecord
  2
GEVID1210549921
 70
     0
  0
APPID
  5
4F9
330
9
100
AcDbSymbolTableRecord
100
AcDbRegAppTableRecord
  2
GEVID1210549922
 70
     0
  0
APPID
  5
4FA
330
9
100
AcDbSymbolTableRecord
100
AcDbRegAppTableRecord
  2
GEVID1210635173
 70
     0
  0
APPID
  5
4FB
330
9
100
AcDbSymbolTableRecord
100
AcDbRegAppTableRecord
  2
GEVID1210635174
 70
     0
  0
APPID
  5
4FC
330
9
100
AcDbSymbolTableRecord
100
AcDbRegAppTableRecord
  2
GEVID1210635175
 70
     0
  0
APPID
  5
4FD
330
9
100
AcDbSymbolTableRecord
100
AcDbRegAppTableRecord
  2
GEVID1210635176
 70
     0
  0
APPID
  5
4FE
330
9
100
AcDbSymbolTableRecord
100
AcDbRegAppTableRecord
  2
GEVID1210635177
 70
     0
  0
APPID
  5
4FF
330
9
100
AcDbSymbolTableRecord
100
AcDbRegAppTableRecord
  2
GEVID1210635178
 70
     0
  0
APPID
  5
500
330
9
100
AcDbSymbolTableRecord
100
AcDbRegAppTableRecord
  2
GENIUS_GENIUS_GENBHEDTMP_13
 70
     0
  0
APPID
  5
501
330
9
100
AcDbSymbolTableRecord
100
AcDbRegAppTableRecord
  2
GEVID1210635179
 70
     0
  0
APPID
  5
502
330
9
100
AcDbSymbolTableRecord
100
AcDbRegAppTableRecord
  2
GEVID1210635180
 70
     0
  0
APPID
  5
503
330
9
100
AcDbSymbolTableRecord
100
AcDbRegAppTableRecord
  2
GEVID1210635181
 70
     0
  0
APPID
  5
504
330
9
100
AcDbSymbolTableRecord
100
AcDbRegAppTableRecord
  2
GEVID1210635182
 70
     0
  0
APPID
  5
505
330
9
100
AcDbSymbolTableRecord
100
AcDbRegAppTableRecord
  2
GEVID1210635184
 70
     0
  0
APPID
  5
506
330
9
100
AcDbSymbolTableRecord
100
AcDbRegAppTableRecord
  2
GEVID1210635185
 70
     0
  0
APPID
  5
507
330
9
100
AcDbSymbolTableRecord
100
AcDbRegAppTableRecord
  2
GEVID1210635186
 70
     0
  0
APPID
  5
508
330
9
100
AcDbSymbolTableRecord
100
AcDbRegAppTableRecord
  2
GEVID1210635187
 70
     0
  0
APPID
  5
509
330
9
100
AcDbSymbolTableRecord
100
AcDbRegAppTableRecord
  2
GEVID1210635188
 70
     0
  0
APPID
  5
50A
330
9
100
AcDbSymbolTableRecord
100
AcDbRegAppTableRecord
  2
GEVID1210635189
 70
     0
  0
APPID
  5
50B
330
9
100
AcDbSymbolTableRecord
100
AcDbRegAppTableRecord
  2
GEVID1210635190
 70
     0
  0
APPID
  5
50C
330
9
100
AcDbSymbolTableRecord
100
AcDbRegAppTableRecord
  2
GENIUS_GENREC_14
 70
     0
  0
APPID
  5
50D
330
9
100
AcDbSymbolTableRecord
100
AcDbRegAppTableRecord
  2
GENIUS_GENOBJ-N-REC_13
 70
     0
  0
APPID
  5
50E
330
9
100
AcDbSymbolTableRecord
100
AcDbRegAppTableRecord
  2
GEVID1210676655
 70
     0
  0
APPID
  5
50F
330
9
100
AcDbSymbolTableRecord
100
AcDbRegAppTableRecord
  2
GEVID1210676656
 70
     0
  0
APPID
  5
510
330
9
100
AcDbSymbolTableRecord
100
AcDbRegAppTableRecord
  2
GEVID1210676657
 70
     0
  0
APPID
  5
511
330
9
100
AcDbSymbolTableRecord
100
AcDbRegAppTableRecord
  2
GEVID1210676659
 70
     0
  0
APPID
  5
512
330
9
100
AcDbSymbolTableRecord
100
AcDbRegAppTableRecord
  2
GEVID1210676660
 70
     0
  0
APPID
  5
513
330
9
100
AcDbSymbolTableRecord
100
AcDbRegAppTableRecord
  2
GEVID1210676661
 70
     0
  0
APPID
  5
514
330
9
100
AcDbSymbolTableRecord
100
AcDbRegAppTableRecord
  2
GEVID1210676662
 70
     0
  0
APPID
  5
515
330
9
100
AcDbSymbolTableRecord
100
AcDbRegAppTableRecord
  2
GEVID1210721646
 70
     0
  0
APPID
  5
516
330
9
100
AcDbSymbolTableRecord
100
AcDbRegAppTableRecord
  2
GEVID1210721647
 70
     0
  0
APPID
  5
517
330
9
100
AcDbSymbolTableRecord
100
AcDbRegAppTableRecord
  2
GEVID1210721648
 70
     0
  0
APPID
  5
518
330
9
100
AcDbSymbolTableRecord
100
AcDbRegAppTableRecord
  2
GEVID1210721649
 70
     0
  0
APPID
  5
519
330
9
100
AcDbSymbolTableRecord
100
AcDbRegAppTableRecord
  2
GEVID1210721650
 70
     0
  0
APPID
  5
51A
330
9
100
AcDbSymbolTableRecord
100
AcDbRegAppTableRecord
  2
GEVID1210721651
 70
     0
  0
APPID
  5
51B
330
9
100
AcDbSymbolTableRecord
100
AcDbRegAppTableRecord
  2
GEVID1210721652
 70
     0
  0
APPID
  5
51C
330
9
100
AcDbSymbolTableRecord
100
AcDbRegAppTableRecord
  2
GEVID1210721653
 70
     0
  0
APPID
  5
51D
330
9
100
AcDbSymbolTableRecord
100
AcDbRegAppTableRecord
  2
PE_URL
 70
     0
  0
APPID
  5
51E
330
9
100
AcDbSymbolTableRecord
100
AcDbRegAppTableRecord
  2
GEVID1210825555
 70
     0
  0
APPID
  5
51F
330
9
100
AcDbSymbolTableRecord
100
AcDbRegAppTableRecord
  2
GEVID1210825556
 70
     0
  0
APPID
  5
520
330
9
100
AcDbSymbolTableRecord
100
AcDbRegAppTableRecord
  2
GEVID1210825557
 70
     0
  0
APPID
  5
521
330
9
100
AcDbSymbolTableRecord
100
AcDbRegAppTableRecord
  2
GEVID1210825558
 70
     0
  0
APPID
  5
522
330
9
100
AcDbSymbolTableRecord
100
AcDbRegAppTableRecord
  2
GEVID1210825559
 70
     0
  0
APPID
  5
523
330
9
100
AcDbSymbolTableRecord
100
AcDbRegAppTableRecord
  2
GEVID1210825560
 70
     0
  0
APPID
  5
524
330
9
100
AcDbSymbolTableRecord
100
AcDbRegAppTableRecord
  2
GEVID1210825561
 70
     0
  0
APPID
  5
525
330
9
100
AcDbSymbolTableRecord
100
AcDbRegAppTableRecord
  2
GEVID1210825562
 70
     0
  0
APPID
  5
526
330
9
100
AcDbSymbolTableRecord
100
AcDbRegAppTableRecord
  2
GEVID1210825563
 70
     0
  0
APPID
  5
527
330
9
100
AcDbSymbolTableRecord
100
AcDbRegAppTableRecord
  2
GEVID1210825564
 70
     0
  0
APPID
  5
528
330
9
100
AcDbSymbolTableRecord
100
AcDbRegAppTableRecord
  2
GEVID1210825565
 70
     0
  0
APPID
  5
529
330
9
100
AcDbSymbolTableRecord
100
AcDbRegAppTableRecord
  2
GEVID1210825566
 70
     0
  0
APPID
  5
52A
330
9
100
AcDbSymbolTableRecord
100
AcDbRegAppTableRecord
  2
GEVID1210825567
 70
     0
  0
APPID
  5
52B
330
9
100
AcDbSymbolTableRecord
100
AcDbRegAppTableRecord
  2
GENIUS_GENOBJ-N-ZOO_13
 70
     0
  0
APPID
  5
52C
330
9
100
AcDbSymbolTableRecord
100
AcDbRegAppTableRecord
  2
GENIUS_GENZOO_17
 70
     0
  0
APPID
  5
52D
330
9
100
AcDbSymbolTableRecord
100
AcDbRegAppTableRecord
  2
ACADANNOTATIVEDECOMPOSITION
 70
     0
  0
APPID
  5
52E
330
9
100
AcDbSymbolTableRecord
100
AcDbRegAppTableRecord
  2
GENIUS_GENOBJ-N-HTC_13
 70
     0
  0
APPID
  5
52F
330
9
100
AcDbSymbolTableRecord
100
AcDbRegAppTableRecord
  2
GENIUS_GENHATCH_13
 70
     0
  0
APPID
  5
530
330
9
100
AcDbSymbolTableRecord
100
AcDbRegAppTableRecord
  2
GEVID1210896020
 70
     0
  0
APPID
  5
531
330
9
100
AcDbSymbolTableRecord
100
AcDbRegAppTableRecord
  2
GEVID1210896021
 70
     0
  0
APPID
  5
532
330
9
100
AcDbSymbolTableRecord
100
AcDbRegAppTableRecord
  2
GEVID1209083540
 70
     0
  0
APPID
  5
533
330
9
100
AcDbSymbolTableRecord
100
AcDbRegAppTableRecord
  2
GEVMK
 70
     0
  0
APPID
  5
534
330
9
100
AcDbSymbolTableRecord
100
AcDbRegAppTableRecord
  2
GEVID1209083542
 70
     0
  0
APPID
  5
535
330
9
100
AcDbSymbolTableRecord
100
AcDbRegAppTableRecord
  2
GEVID1209083543
 70
     0
  0
APPID
  5
536
330
9
100
AcDbSymbolTableRecord
100
AcDbRegAppTableRecord
  2
GEVID1209083544
 70
     0
  0
APPID
  5
537
330
9
100
AcDbSymbolTableRecord
100
AcDbRegAppTableRecord
  2
GEVID1209083545
 70
     0
  0
APPID
  5
538
330
9
100
AcDbSymbolTableRecord
100
AcDbRegAppTableRecord
  2
GEVID1209083546
 70
     0
  0
APPID
  5
539
330
9
100
AcDbSymbolTableRecord
100
AcDbRegAppTableRecord
  2
GEVID1209083547
 70
     0
  0
APPID
  5
53A
330
9
100
AcDbSymbolTableRecord
100
AcDbRegAppTableRecord
  2
GEVID1209083548
 70
     0
  0
APPID
  5
53B
330
9
100
AcDbSymbolTableRecord
100
AcDbRegAppTableRecord
  2
GEVID1209083549
 70
     0
  0
APPID
  5
53C
330
9
100
AcDbSymbolTableRecord
100
AcDbRegAppTableRecord
  2
GEVID1209083550
 70
     0
  0
APPID
  5
53D
330
9
100
AcDbSymbolTableRecord
100
AcDbRegAppTableRecord
  2
GEVID1209083551
 70
     0
  0
APPID
  5
53E
330
9
100
AcDbSymbolTableRecord
100
AcDbRegAppTableRecord
  2
GEVID1209083552
 70
     0
  0
APPID
  5
53F
330
9
100
AcDbSymbolTableRecord
100
AcDbRegAppTableRecord
  2
GEVID1209083553
 70
     0
  0
APPID
  5
540
330
9
100
AcDbSymbolTableRecord
100
AcDbRegAppTableRecord
  2
GEVID1210896022
 70
     0
  0
APPID
  5
541
330
9
100
AcDbSymbolTableRecord
100
AcDbRegAppTableRecord
  2
GEVID1211508364
 70
     0
  0
APPID
  5
542
330
9
100
AcDbSymbolTableRecord
100
AcDbRegAppTableRecord
  2
GEVID1211414908
 70
     0
  0
APPID
  5
543
330
9
100
AcDbSymbolTableRecord
100
AcDbRegAppTableRecord
  2
GEVID1211414909
 70
     0
  0
APPID
  5
544
330
9
100
AcDbSymbolTableRecord
100
AcDbRegAppTableRecord
  2
GEVID1211508359
 70
     0
  0
APPID
  5
545
330
9
100
AcDbSymbolTableRecord
100
AcDbRegAppTableRecord
  2
GEVID1211508360
 70
     0
  0
APPID
  5
546
330
9
100
AcDbSymbolTableRecord
100
AcDbRegAppTableRecord
  2
GEVID1211508361
 70
     0
  0
APPID
  5
547
330
9
100
AcDbSymbolTableRecord
100
AcDbRegAppTableRecord
  2
GEVID1211508362
 70
     0
  0
APPID
  5
548
330
9
100
AcDbSymbolTableRecord
100
AcDbRegAppTableRecord
  2
GEVID1211508363
 70
     0
  0
APPID
  5
549
330
9
100
AcDbSymbolTableRecord
100
AcDbRegAppTableRecord
  2
GEVID1211878469
 70
     0
  0
APPID
  5
54A
330
9
100
AcDbSymbolTableRecord
100
AcDbRegAppTableRecord
  2
GEVID1212642819
 70
     0
  0
APPID
  5
54B
330
9
100
AcDbSymbolTableRecord
100
AcDbRegAppTableRecord
  2
GEVID1212642820
 70
     0
  0
APPID
  5
54C
330
9
100
AcDbSymbolTableRecord
100
AcDbRegAppTableRecord
  2
GEVID1212642821
 70
     0
  0
APPID
  5
54D
330
9
100
AcDbSymbolTableRecord
100
AcDbRegAppTableRecord
  2
GEVID1212642822
 70
     0
  0
APPID
  5
54E
330
9
100
AcDbSymbolTableRecord
100
AcDbRegAppTableRecord
  2
GEVID1212642823
 70
     0
  0
APPID
  5
54F
330
9
100
AcDbSymbolTableRecord
100
AcDbRegAppTableRecord
  2
GEVID1212642825
 70
     0
  0
APPID
  5
550
330
9
100
AcDbSymbolTableRecord
100
AcDbRegAppTableRecord
  2
GEVID1212642826
 70
     0
  0
APPID
  5
551
330
9
100
AcDbSymbolTableRecord
100
AcDbRegAppTableRecord
  2
GEVID1212642827
 70
     0
  0
APPID
  5
552
330
9
100
AcDbSymbolTableRecord
100
AcDbRegAppTableRecord
  2
GEVID1212642828
 70
     0
  0
APPID
  5
553
330
9
100
AcDbSymbolTableRecord
100
AcDbRegAppTableRecord
  2
GEVID1212642831
 70
     0
  0
APPID
  5
554
330
9
100
AcDbSymbolTableRecord
100
AcDbRegAppTableRecord
  2
GEVID1212642834
 70
     0
  0
APPID
  5
555
330
9
100
AcDbSymbolTableRecord
100
AcDbRegAppTableRecord
  2
GEVID1212642835
 70
     0
  0
APPID
  5
556
330
9
100
AcDbSymbolTableRecord
100
AcDbRegAppTableRecord
  2
GEVID1212642836
 70
     0
  0
APPID
  5
557
330
9
100
AcDbSymbolTableRecord
100
AcDbRegAppTableRecord
  2
GEVID1212642837
 70
     0
  0
APPID
  5
558
330
9
100
AcDbSymbolTableRecord
100
AcDbRegAppTableRecord
  2
GEVID1212642839
 70
     0
  0
APPID
  5
559
330
9
100
AcDbSymbolTableRecord
100
AcDbRegAppTableRecord
  2
GEVID1212642840
 70
     0
  0
APPID
  5
55A
330
9
100
AcDbSymbolTableRecord
100
AcDbRegAppTableRecord
  2
GEVID1212642841
 70
     0
  0
APPID
  5
55B
330
9
100
AcDbSymbolTableRecord
100
AcDbRegAppTableRecord
  2
GEVID1212655312
 70
     0
  0
APPID
  5
55C
330
9
100
AcDbSymbolTableRecord
100
AcDbRegAppTableRecord
  2
GEVID1212655313
 70
     0
  0
APPID
  5
55D
330
9
100
AcDbSymbolTableRecord
100
AcDbRegAppTableRecord
  2
GEVID1212656533
 70
     0
  0
APPID
  5
55E
330
9
100
AcDbSymbolTableRecord
100
AcDbRegAppTableRecord
  2
GEVID1212656534
 70
     0
  0
APPID
  5
55F
330
9
100
AcDbSymbolTableRecord
100
AcDbRegAppTableRecord
  2
GEVID1212656535
 70
     0
  0
APPID
  5
560
330
9
100
AcDbSymbolTableRecord
100
AcDbRegAppTableRecord
  2
GEVID1212656536
 70
     0
  0
APPID
  5
561
330
9
100
AcDbSymbolTableRecord
100
AcDbRegAppTableRecord
  2
GEVID1212656538
 70
     0
  0
APPID
  5
562
330
9
100
AcDbSymbolTableRecord
100
AcDbRegAppTableRecord
  2
GEVID1212656541
 70
     0
  0
APPID
  5
563
330
9
100
AcDbSymbolTableRecord
100
AcDbRegAppTableRecord
  2
GEVID1212656543
 70
     0
  0
APPID
  5
564
330
9
100
AcDbSymbolTableRecord
100
AcDbRegAppTableRecord
  2
GENIUS_GENOBJ-F-PFASSM_13
 70
     0
  0
APPID
  5
565
330
9
100
AcDbSymbolTableRecord
100
AcDbRegAppTableRecord
  2
GEVID1212656544
 70
     0
  0
APPID
  5
566
330
9
100
AcDbSymbolTableRecord
100
AcDbRegAppTableRecord
  2
GEVID1212656545
 70
     0
  0
APPID
  5
567
330
9
100
AcDbSymbolTableRecord
100
AcDbRegAppTableRecord
  2
GEVID1212656546
 70
     0
  0
APPID
  5
568
330
9
100
AcDbSymbolTableRecord
100
AcDbRegAppTableRecord
  2
GEVID1212656547
 70
     0
  0
APPID
  5
569
330
9
100
AcDbSymbolTableRecord
100
AcDbRegAppTableRecord
  2
GEVID1212656548
 70
     0
  0
APPID
  5
56A
330
9
100
AcDbSymbolTableRecord
100
AcDbRegAppTableRecord
  2
GEVID1212656549
 70
     0
  0
APPID
  5
56B
330
9
100
AcDbSymbolTableRecord
100
AcDbRegAppTableRecord
  2
GEVID1212656550
 70
     0
  0
APPID
  5
56C
330
9
100
AcDbSymbolTableRecord
100
AcDbRegAppTableRecord
  2
GEVID1212656552
 70
     0
  0
APPID
  5
56D
330
9
100
AcDbSymbolTableRecord
100
AcDbRegAppTableRecord
  2
GEVID1212656553
 70
     0
  0
APPID
  5
56E
330
9
100
AcDbSymbolTableRecord
100
AcDbRegAppTableRecord
  2
GEVID1212656554
 70
     0
  0
APPID
  5
56F
330
9
100
AcDbSymbolTableRecord
100
AcDbRegAppTableRecord
  2
GEVID1212656555
 70
     0
  0
APPID
  5
570
330
9
100
AcDbSymbolTableRecord
100
AcDbRegAppTableRecord
  2
GEVID1212656556
 70
     0
  0
APPID
  5
571
330
9
100
AcDbSymbolTableRecord
100
AcDbRegAppTableRecord
  2
GEVID1212656557
 70
     0
  0
APPID
  5
572
330
9
100
AcDbSymbolTableRecord
100
AcDbRegAppTableRecord
  2
GEVID1212656559
 70
     0
  0
APPID
  5
573
330
9
100
AcDbSymbolTableRecord
100
AcDbRegAppTableRecord
  2
GEVID1212656560
 70
     0
  0
APPID
  5
574
330
9
100
AcDbSymbolTableRecord
100
AcDbRegAppTableRecord
  2
GEVID1212656561
 70
     0
  0
APPID
  5
575
330
9
100
AcDbSymbolTableRecord
100
AcDbRegAppTableRecord
  2
GEVID1212656562
 70
     0
  0
APPID
  5
576
330
9
100
AcDbSymbolTableRecord
100
AcDbRegAppTableRecord
  2
GEVID1212656563
 70
     0
  0
APPID
  5
577
330
9
100
AcDbSymbolTableRecord
100
AcDbRegAppTableRecord
  2
GEVID1212711781
 70
     0
  0
APPID
  5
578
330
9
100
AcDbSymbolTableRecord
100
AcDbRegAppTableRecord
  2
GEVID1212711782
 70
     0
  0
APPID
  5
579
330
9
100
AcDbSymbolTableRecord
100
AcDbRegAppTableRecord
  2
GEVID1212711783
 70
     0
  0
APPID
  5
57A
330
9
100
AcDbSymbolTableRecord
100
AcDbRegAppTableRecord
  2
GEVID1212711784
 70
     0
  0
APPID
  5
57B
330
9
100
AcDbSymbolTableRecord
100
AcDbRegAppTableRecord
  2
GEVID1212711788
 70
     0
  0
APPID
  5
57C
330
9
100
AcDbSymbolTableRecord
100
AcDbRegAppTableRecord
  2
GEVID1212711789
 70
     0
  0
APPID
  5
57D
330
9
100
AcDbSymbolTableRecord
100
AcDbRegAppTableRecord
  2
GEVID1212711790
 70
     0
  0
APPID
  5
57E
330
9
100
AcDbSymbolTableRecord
100
AcDbRegAppTableRecord
  2
GEVID1212711791
 70
     0
  0
APPID
  5
57F
330
9
100
AcDbSymbolTableRecord
100
AcDbRegAppTableRecord
  2
GEVID1212711792
 70
     0
  0
APPID
  5
580
330
9
100
AcDbSymbolTableRecord
100
AcDbRegAppTableRecord
  2
GEVID1212711793
 70
     0
  0
APPID
  5
581
330
9
100
AcDbSymbolTableRecord
100
AcDbRegAppTableRecord
  2
GEVID1212711794
 70
     0
  0
APPID
  5
582
330
9
100
AcDbSymbolTableRecord
100
AcDbRegAppTableRecord
  2
GEVID1212711795
 70
     0
  0
APPID
  5
583
330
9
100
AcDbSymbolTableRecord
100
AcDbRegAppTableRecord
  2
GEVID1212711797
 70
     0
  0
APPID
  5
584
330
9
100
AcDbSymbolTableRecord
100
AcDbRegAppTableRecord
  2
GEVID1212711798
 70
     0
  0
APPID
  5
585
330
9
100
AcDbSymbolTableRecord
100
AcDbRegAppTableRecord
  2
GEVID1212711799
 70
     0
  0
APPID
  5
586
330
9
100
AcDbSymbolTableRecord
100
AcDbRegAppTableRecord
  2
GEVID1212711800
 70
     0
  0
APPID
  5
587
330
9
100
AcDbSymbolTableRecord
100
AcDbRegAppTableRecord
  2
GEVID1212711801
 70
     0
  0
APPID
  5
588
330
9
100
AcDbSymbolTableRecord
100
AcDbRegAppTableRecord
  2
GEVID1212711802
 70
     0
  0
APPID
  5
589
330
9
100
AcDbSymbolTableRecord
100
AcDbRegAppTableRecord
  2
GEVID1212711803
 70
     0
  0
APPID
  5
58A
330
9
100
AcDbSymbolTableRecord
100
AcDbRegAppTableRecord
  2
GEVID1212711804
 70
     0
  0
APPID
  5
58B
330
9
100
AcDbSymbolTableRecord
100
AcDbRegAppTableRecord
  2
GEVID1212711805
 70
     0
  0
APPID
  5
58C
330
9
100
AcDbSymbolTableRecord
100
AcDbRegAppTableRecord
  2
GEVID1212711806
 70
     0
  0
APPID
  5
58D
330
9
100
AcDbSymbolTableRecord
100
AcDbRegAppTableRecord
  2
GEVID1212711807
 70
     0
  0
APPID
  5
58E
330
9
100
AcDbSymbolTableRecord
100
AcDbRegAppTableRecord
  2
GEVID1212711808
 70
     0
  0
APPID
  5
58F
330
9
100
AcDbSymbolTableRecord
100
AcDbRegAppTableRecord
  2
GEVID1212711809
 70
     0
  0
APPID
  5
590
330
9
100
AcDbSymbolTableRecord
100
AcDbRegAppTableRecord
  2
GEVID1212711810
 70
     0
  0
APPID
  5
591
330
9
100
AcDbSymbolTableRecord
100
AcDbRegAppTableRecord
  2
GEVID1212711811
 70
     0
  0
APPID
  5
90A
330
9
100
AcDbSymbolTableRecord
100
AcDbRegAppTableRecord
  2
GENIUS_GENTRA_14
 70
     0
  0
APPID
  5
919
330
9
100
AcDbSymbolTableRecord
100
AcDbRegAppTableRecord
  2
GENIUS_GENOBJ-N-TIT_13
 70
     0
  0
APPID
  5
91A
330
9
100
AcDbSymbolTableRecord
100
AcDbRegAppTableRecord
  2
GENIUS_GENTITLE_13
 70
     0
  0
APPID
  5
949
330
9
100
AcDbSymbolTableRecord
100
AcDbRegAppTableRecord
  2
GENIUS_GENBLLY_14
 70
     0
  0
APPID
  5
DDD
330
9
100
AcDbSymbolTableRecord
100
AcDbRegAppTableRecord
  2
GEVID1213165152
 70
     0
  0
APPID
  5
12F9
330
9
100
AcDbSymbolTableRecord
100
AcDbRegAppTableRecord
  2
AcDbDynamicBlockTrueName
 70
     0
  0
APPID
  5
12FA
330
9
100
AcDbSymbolTableRecord
100
AcDbRegAppTableRecord
  2
ACDBBLOCKREPETAG
 70
     0
  0
APPID
  5
1C15
330
9
100
AcDbSymbolTableRecord
100
AcDbRegAppTableRecord
  2
GEVID1214872427
 70
     0
  0
APPID
  5
1C2A
330
9
100
AcDbSymbolTableRecord
100
AcDbRegAppTableRecord
  2
GEVID1214872428
 70
     0
  0
APPID
  5
1C2F
330
9
100
AcDbSymbolTableRecord
100
AcDbRegAppTableRecord
  2
GEVID1214872429
 70
     0
  0
APPID
  5
1C33
330
9
100
AcDbSymbolTableRecord
100
AcDbRegAppTableRecord
  2
GEVID1214872430
 70
     0
  0
APPID
  5
1C3F
330
9
100
AcDbSymbolTableRecord
100
AcDbRegAppTableRecord
  2
GEVID1214872432
 70
     0
  0
APPID
  5
1C4E
330
9
100
AcDbSymbolTableRecord
100
AcDbRegAppTableRecord
  2
GEVID1214872433
 70
     0
  0
APPID
  5
20DC
330
9
100
AcDbSymbolTableRecord
100
AcDbRegAppTableRecord
  2
AcDbDynamicBlockGUID
 70
     0
  0
APPID
  5
20FD
330
9
100
AcDbSymbolTableRecord
100
AcDbRegAppTableRecord
  2
GENIUS_GENOBJ-N-REV_13
 70
     0
  0
APPID
  5
20FE
330
9
100
AcDbSymbolTableRecord
100
AcDbRegAppTableRecord
  2
GENIUS_GENOBJ-N-RSSYM_13
 70
     0
  0
APPID
  5
20FF
330
9
100
AcDbSymbolTableRecord
100
AcDbRegAppTableRecord
  2
GENIUS_GENSYMENT_13
 70
     0
  0
APPID
  5
2100
330
9
100
AcDbSymbolTableRecord
100
AcDbRegAppTableRecord
  2
GENIUS_GENSCSYM_13
 70
     0
  0
APPID
  5
4B88
330
9
100
AcDbSymbolTableRecord
100
AcDbRegAppTableRecord
  2
GEVID1242456337
 70
     0
  0
APPID
  5
4D0B
330
9
100
AcDbSymbolTableRecord
100
AcDbRegAppTableRecord
  2
GEVID1242456338
 70
     0
  0
ENDTAB
  0
TABLE
  2
DIMSTYLE
  5
A
330
0
100
AcDbSymbolTable
 70
    29
100
AcDbDimStyleTable
 71
     1
340
5AB
  0
DIMSTYLE
105
5AB
330
A
100
AcDbSymbolTableRecord
100
AcDbDimStyleTableRecord
  2
SEISA
 70
     0
  4
"
 41
2.5
 42
0.625
 43
10.0
 44
0.625
 47
0.1
 48
0.1
 73
     0
 74
     0
 77
     3
 78
     8
 79
     2
 90
     1
140
3.5
141
0.0
143
0.0393701
146
0.71
147
1.5
172
     1
176
     3
177
     3
178
     3
271
     2
272
     3
283
     0
286
     8
340
5D5
341
69
342
69
371
    -1
372
    -1
1001
ACAD_DSTYLE_DIMJAG
1070
   388
1040
1.5
1001
ACAD_DSTYLE_DIMTALN
1070
   392
1070
     1
  0
DIMSTYLE
105
5E9
102
{ACAD_REACTORS
330
4777
330
47A5
330
47C1
330
480B
330
49CF
330
49EC
330
4A04
330
4A1C
330
4FFD
330
5015
330
504A
330
5080
330
5750
330
586C
330
5896
102
}
330
A
100
AcDbSymbolTableRecord
100
AcDbDimStyleTableRecord
  2
SEISA$0
 70
     0
  4
"
 41
2.5
 42
0.625
 43
10.0
 44
0.625
 47
0.1
 48
0.1
 73
     0
 74
     0
 77
     3
 78
     8
 79
     2
 90
     1
140
3.5
141
0.0
143
0.0393701
146
0.71
147
1.5
172
     1
176
     3
177
     3
178
     3
271
     2
272
     3
283
     0
286
     8
340
5D5
341
69
342
69
371
    -1
372
    -1
  0
DIMSTYLE
105
5ACF
330
A
100
AcDbSymbolTableRecord
100
AcDbDimStyleTableRecord
  2
AM_ISO
 70
     0
  4
"
 41
2.5
 42
1.0
 43
10.0
 44
1.0
 47
0.1
 48
0.1
 73
     0
 74
     0
 77
     1
 78
     8
 79
     2
 90
     1
140
3.5
141
0.0
143
0.0393701
146
0.71
147
1.5
172
     1
176
   256
177
   256
178
     2
271
     2
272
     3
274
     4
283
     0
284
     8
340
11
371
    -1
372
    -1
  0
DIMSTYLE
105
5AD0
330
A
100
AcDbSymbolTableRecord
100
AcDbDimStyleTableRecord
  2
AM_ISO$3
 70
     0
  4
"
 41
2.5
 42
1.0
 43
10.0
 44
1.0
 47
0.1
 48
0.1
 73
     0
 77
     1
 78
     8
 79
     2
 90
     1
140
3.5
141
0.0
143
0.0393701
146
0.71
147
1.5
176
   256
177
   256
178
     2
271
     2
272
     3
274
     4
283
     0
284
     8
288
     1
289
     0
340
11
371
    -1
372
    -1
  0
DIMSTYLE
105
5AD1
330
A
100
AcDbSymbolTableRecord
100
AcDbDimStyleTableRecord
  2
AM_ISO$4
 70
     0
  4
"
 41
2.5
 42
1.0
 43
10.0
 44
1.0
 47
0.1
 48
0.1
 73
     0
 77
     1
 78
     8
 79
     2
 90
     1
140
3.5
141
0.0
143
0.0393701
146
0.71
147
1.5
176
   256
177
   256
178
     2
271
     2
272
     3
274
     4
283
     0
284
     8
288
     1
289
     0
340
11
371
    -1
372
    -1
  0
DIMSTYLE
105
5AD2
330
A
100
AcDbSymbolTableRecord
100
AcDbDimStyleTableRecord
  2
AM_ISO$6
 70
     0
  4
"
 41
2.5
 42
1.0
 43
10.0
 44
1.0
 47
0.1
 48
0.1
 73
     0
 74
     0
 78
     8
 79
     2
 90
     1
140
3.5
141
0.0
143
0.0393701
146
0.71
147
1.5
172
     1
176
   256
177
   256
178
     2
271
     2
272
     3
274
     4
283
     0
284
     8
340
11
371
    -1
372
    -1
  0
DIMSTYLE
105
5AD3
330
A
100
AcDbSymbolTableRecord
100
AcDbDimStyleTableRecord
  2
AM_ISO$7
 70
     0
  4
"
 41
2.5
 42
1.0
 43
10.0
 44
1.0
 47
0.1
 48
0.1
 73
     0
 74
     0
 77
     1
 78
     8
 79
     2
 90
     1
140
5.0
141
0.0
143
0.0393701
146
0.71
147
1.5
172
     1
176
   256
177
   256
178
     2
271
     2
272
     3
274
     4
283
     0
284
     8
340
11
371
    -1
372
    -1
  0
DIMSTYLE
105
5AD4
330
A
100
AcDbSymbolTableRecord
100
AcDbDimStyleTableRecord
  2
AM_ISO$SF
 70
     0
  4
"
 41
2.5
 42
1.0
 43
10.0
 44
1.0
 47
0.1
 48
0.1
 73
     0
 74
     0
 75
     1
 76
     1
 77
     1
 78
     8
 79
     2
 90
     1
140
3.5
141
0.0
143
0.0393701
146
0.71
147
1.5
172
     1
176
   256
177
   256
178
     2
271
     2
272
     3
274
     4
283
     0
284
     8
340
11
371
    -1
372
    -1
  0
DIMSTYLE
105
5AD5
330
A
100
AcDbSymbolTableRecord
100
AcDbDimStyleTableRecord
  2
AM_ISO$SH
 70
     0
  4
"
 41
2.5
 42
1.0
 43
10.0
 44
1.0
 47
0.1
 48
0.1
 73
     0
 74
     0
 75
     1
 76
     1
 77
     1
 78
     8
 79
     2
 90
     1
140
3.5
141
0.0
143
0.0393701
144
2.0
146
0.71
147
1.5
172
     1
173
     1
176
   256
177
   256
178
     2
271
     2
272
     3
274
     4
283
     0
284
     8
340
11
343
74
371
    -1
372
    -1
  0
ENDTAB
  0
TABLE
  2
BLOCK_RECORD
  5
1
330
0
100
AcDbSymbolTable
 70
    31
  0
BLOCK_RECORD
  5
1F
102
{ACAD_XDICTIONARY
360
82
102
}
330
1
100
AcDbSymbolTableRecord
100
AcDbBlockTableRecord
  2
*Model_Space
340
22
 70
     0
280
     1
281
     0
  0
BLOCK_RECORD
  5
1B
330
1
100
AcDbSymbolTableRecord
100
AcDbBlockTableRecord
  2
*Paper_Space
340
1E
 70
     0
280
     1
281
     0
  0
BLOCK_RECORD
  5
23
330
1
100
AcDbSymbolTableRecord
100
AcDbBlockTableRecord
  2
*Paper_Space0
340
26
 70
     0
280
     1
281
     0
  0
BLOCK_RECORD
  5
69
330
1
100
AcDbSymbolTableRecord
100
AcDbBlockTableRecord
  2
_Open30
340
0
102
{BLKREFS
331
4AC3
331
4AC4
331
4B2E
331
4B2F
331
4B37
331
4B38
331
4B40
331
4B41
331
4B49
331
4B4A
331
505B
331
505C
331
50AC
331
50AD
331
51E3
331
51F9
331
577C
331
577D
331
5785
331
5786
331
5890
331
5891
331
5906
331
5907
331
5A3B
331
5A3C
331
5A43
331
5A44
102
}
 70
     0
280
     1
281
     0
  0
BLOCK_RECORD
  5
74
330
1
100
AcDbSymbolTableRecord
100
AcDbBlockTableRecord
  2
GENAXEH
340
0
 70
     0
280
     1
281
     0
  0
BLOCK_RECORD
  5
341A
102
{ACAD_XDICTIONARY
360
341B
102
}
330
1
100
AcDbSymbolTableRecord
100
AcDbBlockTableRecord
  2
ジュウジマルコネジ
340
0
310
2800000020000000200000000100080000000000000400000000000000000000000000000000000000000000000080000080000000808000800000008000800080800000C0C0C000C0DCC000F0CAA6000020400000206000002080000020A0000020C0000020E00000400000004020000040400000406000004080000040A0
310
000040C0000040E00000600000006020000060400000606000006080000060A0000060C0000060E00000800000008020000080400000806000008080000080A0000080C0000080E00000A0000000A0200000A0400000A0600000A0800000A0A00000A0C00000A0E00000C0000000C0200000C0400000C0600000C0800000C0
310
A00000C0C00000C0E00000E0000000E0200000E0400000E0600000E0800000E0A00000E0C00000E0E00040000000400020004000400040006000400080004000A0004000C0004000E00040200000402020004020400040206000402080004020A0004020C0004020E000404000004040200040404000404060004040800040
310
40A0004040C0004040E00040600000406020004060400040606000406080004060A0004060C0004060E00040800000408020004080400040806000408080004080A0004080C0004080E00040A0000040A0200040A0400040A0600040A0800040A0A00040A0C00040A0E00040C0000040C0200040C0400040C0600040C08000
310
40C0A00040C0C00040C0E00040E0000040E0200040E0400040E0600040E0800040E0A00040E0C00040E0E00080000000800020008000400080006000800080008000A0008000C0008000E00080200000802020008020400080206000802080008020A0008020C0008020E00080400000804020008040400080406000804080
310
008040A0008040C0008040E00080600000806020008060400080606000806080008060A0008060C0008060E00080800000808020008080400080806000808080008080A0008080C0008080E00080A0000080A0200080A0400080A0600080A0800080A0A00080A0C00080A0E00080C0000080C0200080C0400080C0600080C0
310
800080C0A00080C0C00080C0E00080E0000080E0200080E0400080E0600080E0800080E0A00080E0C00080E0E000C0000000C0002000C0004000C0006000C0008000C000A000C000C000C000E000C0200000C0202000C0204000C0206000C0208000C020A000C020C000C020E000C0400000C0402000C0404000C0406000C0
310
408000C040A000C040C000C040E000C0600000C0602000C0604000C0606000C0608000C060A000C060C000C060E000C0800000C0802000C0804000C0806000C0808000C080A000C080C000C080E000C0A00000C0A02000C0A04000C0A06000C0A08000C0A0A000C0A0C000C0A0E000C0C00000C0C02000C0C04000C0C06000
310
C0C08000C0C0A000F0FBFF00A4A0A000808080000000FF0000FF000000FFFF00FF000000FF00FF00FFFF0000FFFFFF0000000000000000000000000000000000000000000000000000000000000000000000000000000000000000000000000000000000000000000000000000000000000000000000000000000000FFFFFF
310
0000000000000000000000000000000000000000000000000000000000FF00000000000000000000000000000000000000000000000000000000000000FF000000000000000000000000000000000000000000000000000000FFFFFFFFFF0000000000000000000000000000000000000000000000000000FFFF000000FF00
310
000000000000000000000000000000000000000000000000FFFF00000000FF000000000000000000000000000000000000000000000000FFFF0000000000FF000000000000000000000000000000000000000000000000FF000000000000FEFEFE000000000000000000000000FF0000000000000000FFFF000000000000FF
310
FEFEFEFEFEFEFEFEFEFEFEFEFEFEFFFF00000000000000FF00000000000000FF0000000000000000000000000000FFFF00000000000000FF00000000000000FF0000000000000000000000000000FFFF000000000000FFFF00000000000000FF0000000000000000000000000000FFFF000000000000FF0000000000000000
310
FF0000000000000000000000000000FFFF00000000F9F9FFF9F9F9F9F9F9F9F9FFF9F9F9F9F9F9F9F9F9F9F9F9F9F9FFFFF9F900000000FF0000000000000000FF0000000000000000000000000000FFFF000000000000FF0000000000000000FF0000000000000000000000000000FFFF000000000000FFFF000000000000
310
00FF0000000000000000000000000000FFFF00000000000000FF00000000000000FF0000000000000000000000000000FFFF00000000000000FF00000000000000FF0000000000000000000000000000FFFF00000000000000FFFF000000000000FFFEFEFEFEFEFEFEFEFEFEFEFEFEFEFFFF0000000000000000FF00000000
310
0000FFFEFE000000000000000000000000FF000000000000000000FFFF0000000000FF00000000000000000000000000000000000000000000000000FFFF00000000FF0000000000000000000000000000000000000000000000000000FFFF000000FF000000000000000000000000000000000000000000000000000000FF
310
FFFFFFFF00000000000000000000000000000000000000000000000000000000000000FF00000000000000000000000000000000000000000000000000000000000000FF00000000000000000000000000000000000000000000000000000000000000FFFFFF00000000000000000000000000000000000000000000000000
310
0000000000000000000000000000000000000000000000000000000000000000000000000000000000000000000000000000000000000000
102
{BLKREFS
331
45F2
102
}
 70
     4
280
     1
281
     1
  0
BLOCK_RECORD
  5
41DD
102
{ACAD_XDICTIONARY
360
424F
102
}
330
1
100
AcDbSymbolTableRecord
100
AcDbBlockTableRecord
  2
センタB SMVH280
340
0
310
2800000020000000200000000100080000000000000400000000000000000000000000000000000000000000000080000080000000808000800000008000800080800000C0C0C000C0DCC000F0CAA6000020400000206000002080000020A0000020C0000020E00000400000004020000040400000406000004080000040A0
310
000040C0000040E00000600000006020000060400000606000006080000060A0000060C0000060E00000800000008020000080400000806000008080000080A0000080C0000080E00000A0000000A0200000A0400000A0600000A0800000A0A00000A0C00000A0E00000C0000000C0200000C0400000C0600000C0800000C0
310
A00000C0C00000C0E00000E0000000E0200000E0400000E0600000E0800000E0A00000E0C00000E0E00040000000400020004000400040006000400080004000A0004000C0004000E00040200000402020004020400040206000402080004020A0004020C0004020E000404000004040200040404000404060004040800040
310
40A0004040C0004040E00040600000406020004060400040606000406080004060A0004060C0004060E00040800000408020004080400040806000408080004080A0004080C0004080E00040A0000040A0200040A0400040A0600040A0800040A0A00040A0C00040A0E00040C0000040C0200040C0400040C0600040C08000
310
40C0A00040C0C00040C0E00040E0000040E0200040E0400040E0600040E0800040E0A00040E0C00040E0E00080000000800020008000400080006000800080008000A0008000C0008000E00080200000802020008020400080206000802080008020A0008020C0008020E00080400000804020008040400080406000804080
310
008040A0008040C0008040E00080600000806020008060400080606000806080008060A0008060C0008060E00080800000808020008080400080806000808080008080A0008080C0008080E00080A0000080A0200080A0400080A0600080A0800080A0A00080A0C00080A0E00080C0000080C0200080C0400080C0600080C0
310
800080C0A00080C0C00080C0E00080E0000080E0200080E0400080E0600080E0800080E0A00080E0C00080E0E000C0000000C0002000C0004000C0006000C0008000C000A000C000C000C000E000C0200000C0202000C0204000C0206000C0208000C020A000C020C000C020E000C0400000C0402000C0404000C0406000C0
310
408000C040A000C040C000C040E000C0600000C0602000C0604000C0606000C0608000C060A000C060C000C060E000C0800000C0802000C0804000C0806000C0808000C080A000C080C000C080E000C0A00000C0A02000C0A04000C0A06000C0A08000C0A0A000C0A0C000C0A0E000C0C00000C0C02000C0C04000C0C06000
310
C0C08000C0C0A000F0FBFF00A4A0A000808080000000FF0000FF000000FFFF00FF000000FF00FF00FFFF0000FFFFFF0000000000000000000000000000000000000000000000000000000000000000000000000000000000000000000000000000000000000000000000000000000000000000000000000000000000000000
310
000000000000000000000000000000000000000000000000000000000000000000000000000000000000000000000000000000000000000000000000000000000000000000000000000000000000000000000000000000000000000000000000000000000000000000000000000000000000000000FFFFFFFFFFFFFFFFFFFF
310
FFFFA4FF000000000000000000000000000000000000FF0000000000FFFF00000000A400000000000000000000000000000000000000FF0000000000FFFF00000000A40000000000000000000000000000000000FFFFFF0000000000FFFF00000000A40000000000000000000000000000000000FFF9000000000000FFFF00
310
000000A4A4000000000000000000000000000000F9F9F9F90000000000FFFF0000000000A400000000000000000000000000000000FFF9000000000000FFFF00000000000000000000000000000000000000000000FFFF000000000000FFFF0000000000000000000000000000000000000000000000F9000000000000FFFF
310
0000000000000000000000000000000000000000000000FF000000000000FFFF0000000000000000000000000000000000000000000000FF000000000000FFFF000000000000000000000000000000000000FF00000000FF000000000000FFFF000000000000000000000000000000000000FF00000000FF000000000000FF
310
FF000000000000000000000000000000000000FF00000000FFFF0000000000FFFF0000000000FFFFFFFFFFFFFFFFFFFFFFFFFFFF0000000000FF0000000000FFFF0000000000000000000000000000000000FF000000000000FF0000000000FFFF0000000000000000000000000000000000FF000000000000FF0000000000
310
FFFF0000000000000000000000000000000000FF000000000000FF0000000000FFFF0000000000000000000000000000000000FF000000000000FF0000000000FFFF0000000000000000000000000000000000FF000000000000FFFFFFFFFFFFFFFFFFFFFFFFFFFFFFFFFFFFFFFFFFFFFFFFFFFF0000000000000000000000
310
00000000000000000000000000000000000000000000000000000000000000000000000000000000000000000000000000000000000000000000000000000000000000000000000000000000000000000000000000000000000000000000000000000000000000000000000000000000000000000000000000000000000000
310
0000000000000000000000000000000000000000000000000000000000000000000000000000000000000000000000000000000000000000
102
{BLKREFS
331
4204
102
}
 70
     4
280
     1
281
     1
  0
BLOCK_RECORD
  5
4282
102
{ACAD_XDICTIONARY
360
42F3
102
}
330
1
100
AcDbSymbolTableRecord
100
AcDbBlockTableRecord
  2
センタＡ SMVH280
340
0
310
2800000020000000200000000100080000000000000400000000000000000000000000000000000000000000000080000080000000808000800000008000800080800000C0C0C000C0DCC000F0CAA6000020400000206000002080000020A0000020C0000020E00000400000004020000040400000406000004080000040A0
310
000040C0000040E00000600000006020000060400000606000006080000060A0000060C0000060E00000800000008020000080400000806000008080000080A0000080C0000080E00000A0000000A0200000A0400000A0600000A0800000A0A00000A0C00000A0E00000C0000000C0200000C0400000C0600000C0800000C0
310
A00000C0C00000C0E00000E0000000E0200000E0400000E0600000E0800000E0A00000E0C00000E0E00040000000400020004000400040006000400080004000A0004000C0004000E00040200000402020004020400040206000402080004020A0004020C0004020E000404000004040200040404000404060004040800040
310
40A0004040C0004040E00040600000406020004060400040606000406080004060A0004060C0004060E00040800000408020004080400040806000408080004080A0004080C0004080E00040A0000040A0200040A0400040A0600040A0800040A0A00040A0C00040A0E00040C0000040C0200040C0400040C0600040C08000
310
40C0A00040C0C00040C0E00040E0000040E0200040E0400040E0600040E0800040E0A00040E0C00040E0E00080000000800020008000400080006000800080008000A0008000C0008000E00080200000802020008020400080206000802080008020A0008020C0008020E00080400000804020008040400080406000804080
310
008040A0008040C0008040E00080600000806020008060400080606000806080008060A0008060C0008060E00080800000808020008080400080806000808080008080A0008080C0008080E00080A0000080A0200080A0400080A0600080A0800080A0A00080A0C00080A0E00080C0000080C0200080C0400080C0600080C0
310
800080C0A00080C0C00080C0E00080E0000080E0200080E0400080E0600080E0800080E0A00080E0C00080E0E000C0000000C0002000C0004000C0006000C0008000C000A000C000C000C000E000C0200000C0202000C0204000C0206000C0208000C020A000C020C000C020E000C0400000C0402000C0404000C0406000C0
310
408000C040A000C040C000C040E000C0600000C0602000C0604000C0606000C0608000C060A000C060C000C060E000C0800000C0802000C0804000C0806000C0808000C080A000C080C000C080E000C0A00000C0A02000C0A04000C0A06000C0A08000C0A0A000C0A0C000C0A0E000C0C00000C0C02000C0C04000C0C06000
310
C0C08000C0C0A000F0FBFF00A4A0A000808080000000FF0000FF000000FFFF00FF000000FF00FF00FFFF0000FFFFFF0000000000000000000000000000000000000000000000000000000000000000000000000000000000000000000000000000000000000000000000000000000000000000000000000000000000000000
310
000000000000000000000000000000000000000000000000000000000000000000000000000000000000000000000000000000000000000000000000000000000000000000000000000000000000000000000000000000000000000000000000000000000000000000000000000000000000000000FFFFFFFFFFFFFFFFFFFF
310
FFFFFFFFFFFFFFFFFFFFFFFFFFFFFFFF000000000000FF000000000000FFFF00000000000000000000000000000000FF000000000000FF000000000000FFFF00000000000000000000000000000000FF000000000000FF000000000000FFFF00000000000000000000000000000000FF000000000000FF000000000000FFFF
310
00000000000000000000000000000000FF000000000000FF000000000000FFFF00000000000000000000000000000000FF0000000000FFFF000000000000FFFF00000000FFFFFFFFFFFFFFFFFFFFFFFFFFFF00000000FF00000000000000FFFF0000000000000000000000000000000000FF00000000FF00000000000000FF
310
FF0000000000000000000000000000000000FF00000000FF00000000000000FFFF0000000000000000000000000000000000FF00000000FF00000000000000FFFF00000000000000000000000000000000000000000000FF00000000000000FFFF000000000000000000000000000000000000000000FFFF00000000000000
310
FFFF000000000000000000000000000000000000000000FFF900000000000000FFFF0000000000000000000000000000000000000000F9F9F9F9000000000000FFFF00000000A400000000000000000000000000000000FFF900000000000000FFFF000000A4A400000000000000000000000000000000FFFFFF0000000000
310
00FFFF000000A400000000000000000000000000000000000000FF000000000000FFFF000000A400000000000000000000000000000000000000FF000000000000FFFF000000A400000000000000000000000000000000000000FFFFFFFFFFFFFFFFFFFFFFFFA4FF0000000000000000000000000000000000000000000000
310
00000000000000000000000000000000000000000000000000000000000000000000000000000000000000000000000000000000000000000000000000000000000000000000000000000000000000000000000000000000000000000000000000000000000000000000000000000000000000000000000000000000000000
310
0000000000000000000000000000000000000000000000000000000000000000000000000000000000000000000000000000000000000000
102
{BLKREFS
331
42A8
102
}
 70
     4
280
     1
281
     1
  0
BLOCK_RECORD
  5
43EF
102
{ACAD_XDICTIONARY
360
44A6
102
}
330
1
100
AcDbSymbolTableRecord
100
AcDbBlockTableRecord
  2
ケースＡ SMVH280
340
0
310
2800000020000000200000000100080000000000000400000000000000000000000000000000000000000000000080000080000000808000800000008000800080800000C0C0C000C0DCC000F0CAA6000020400000206000002080000020A0000020C0000020E00000400000004020000040400000406000004080000040A0
310
000040C0000040E00000600000006020000060400000606000006080000060A0000060C0000060E00000800000008020000080400000806000008080000080A0000080C0000080E00000A0000000A0200000A0400000A0600000A0800000A0A00000A0C00000A0E00000C0000000C0200000C0400000C0600000C0800000C0
310
A00000C0C00000C0E00000E0000000E0200000E0400000E0600000E0800000E0A00000E0C00000E0E00040000000400020004000400040006000400080004000A0004000C0004000E00040200000402020004020400040206000402080004020A0004020C0004020E000404000004040200040404000404060004040800040
310
40A0004040C0004040E00040600000406020004060400040606000406080004060A0004060C0004060E00040800000408020004080400040806000408080004080A0004080C0004080E00040A0000040A0200040A0400040A0600040A0800040A0A00040A0C00040A0E00040C0000040C0200040C0400040C0600040C08000
310
40C0A00040C0C00040C0E00040E0000040E0200040E0400040E0600040E0800040E0A00040E0C00040E0E00080000000800020008000400080006000800080008000A0008000C0008000E00080200000802020008020400080206000802080008020A0008020C0008020E00080400000804020008040400080406000804080
310
008040A0008040C0008040E00080600000806020008060400080606000806080008060A0008060C0008060E00080800000808020008080400080806000808080008080A0008080C0008080E00080A0000080A0200080A0400080A0600080A0800080A0A00080A0C00080A0E00080C0000080C0200080C0400080C0600080C0
310
800080C0A00080C0C00080C0E00080E0000080E0200080E0400080E0600080E0800080E0A00080E0C00080E0E000C0000000C0002000C0004000C0006000C0008000C000A000C000C000C000E000C0200000C0202000C0204000C0206000C0208000C020A000C020C000C020E000C0400000C0402000C0404000C0406000C0
310
408000C040A000C040C000C040E000C0600000C0602000C0604000C0606000C0608000C060A000C060C000C060E000C0800000C0802000C0804000C0806000C0808000C080A000C080C000C080E000C0A00000C0A02000C0A04000C0A06000C0A08000C0A0A000C0A0C000C0A0E000C0C00000C0C02000C0C04000C0C06000
310
C0C08000C0C0A000F0FBFF00A4A0A000808080000000FF0000FF000000FFFF00FF000000FF00FF00FFFF0000FFFFFF0000000000000000000000000000000000000000000000000000000000000000000000000000000000000000000000000000000000000000000000000000000000000000000000000000000000000000
310
00000000000000000000000000000000000000000000000000000000000000000000000000000000000000000000000000000000000000000000000000000000000000000000000000000000000000000000000000000000000000000000000000000000000000000000000000000000000000000000000000000000000000
310
000000000000000000000000000000000000000000000000000000000000000000000000000000000000000000000000000000000000000000000000000000000000000000000000000000000000000000000000000000FFFF000000000000000000FFFFFFFFFFFFFFFFFFFFFF00000000000000000000FFFF000000000000
310
0000000000000000000000000000FF000000000000000000FFFF0000000000000000000000000000000000000000FF000000000000000000FFA40000000000000000000000000000000000000000FF000000000000000000FFF90000000000000000000000000000000000000000FF000000000000000000FFF90000000000
310
000000000000000000000000000000FFF90000000000FFFFFFFFFF000000000000000000FFFFFFFFFFFFFFFFFFFFFFFFFFFFFF0000F9F9F9F9F900000000000000000000000000000000000000000000F900FF000000FFFFFFFF00000000000000000000FFFFFFFFFFFFFFFFFFFFFFFFFFFFFF000000000000FF0000000000
310
0000000000000000000000000000000000F900000000000000000000000000000000000000000000000000000000000000F900000000000000000000000000000000000000000000000000000000000000F900000000000000000000000000000000000000000000000000000000000000F900000000000000000000000000
310
000000000000000000000000000000000000F9000000000000000000000000000000000000000000000000000000000000000000000000000000000000000000000000000000000000000000000000000000000000000000000000000000000000000000000000000000000000000000000000000000000000000000000000
310
00000000000000000000000000000000000000000000000000000000000000000000000000000000000000000000000000000000000000000000000000000000000000000000000000000000000000000000000000000000000000000000000000000000000000000000000000000000000000000000000000000000000000
310
0000000000000000000000000000000000000000000000000000000000000000000000000000000000000000000000000000000000000000
102
{BLKREFS
331
4429
102
}
 70
     4
280
     1
281
     1
  0
BLOCK_RECORD
  5
45B7
102
{ACAD_XDICTIONARY
360
4670
102
}
330
1
100
AcDbSymbolTableRecord
100
AcDbBlockTableRecord
  2
ケースＢ SMVH280
340
0
310
2800000020000000200000000100080000000000000400000000000000000000000000000000000000000000000080000080000000808000800000008000800080800000C0C0C000C0DCC000F0CAA6000020400000206000002080000020A0000020C0000020E00000400000004020000040400000406000004080000040A0
310
000040C0000040E00000600000006020000060400000606000006080000060A0000060C0000060E00000800000008020000080400000806000008080000080A0000080C0000080E00000A0000000A0200000A0400000A0600000A0800000A0A00000A0C00000A0E00000C0000000C0200000C0400000C0600000C0800000C0
310
A00000C0C00000C0E00000E0000000E0200000E0400000E0600000E0800000E0A00000E0C00000E0E00040000000400020004000400040006000400080004000A0004000C0004000E00040200000402020004020400040206000402080004020A0004020C0004020E000404000004040200040404000404060004040800040
310
40A0004040C0004040E00040600000406020004060400040606000406080004060A0004060C0004060E00040800000408020004080400040806000408080004080A0004080C0004080E00040A0000040A0200040A0400040A0600040A0800040A0A00040A0C00040A0E00040C0000040C0200040C0400040C0600040C08000
310
40C0A00040C0C00040C0E00040E0000040E0200040E0400040E0600040E0800040E0A00040E0C00040E0E00080000000800020008000400080006000800080008000A0008000C0008000E00080200000802020008020400080206000802080008020A0008020C0008020E00080400000804020008040400080406000804080
310
008040A0008040C0008040E00080600000806020008060400080606000806080008060A0008060C0008060E00080800000808020008080400080806000808080008080A0008080C0008080E00080A0000080A0200080A0400080A0600080A0800080A0A00080A0C00080A0E00080C0000080C0200080C0400080C0600080C0
310
800080C0A00080C0C00080C0E00080E0000080E0200080E0400080E0600080E0800080E0A00080E0C00080E0E000C0000000C0002000C0004000C0006000C0008000C000A000C000C000C000E000C0200000C0202000C0204000C0206000C0208000C020A000C020C000C020E000C0400000C0402000C0404000C0406000C0
310
408000C040A000C040C000C040E000C0600000C0602000C0604000C0606000C0608000C060A000C060C000C060E000C0800000C0802000C0804000C0806000C0808000C080A000C080C000C080E000C0A00000C0A02000C0A04000C0A06000C0A08000C0A0A000C0A0C000C0A0E000C0C00000C0C02000C0C04000C0C06000
310
C0C08000C0C0A000F0FBFF00A4A0A000808080000000FF0000FF000000FFFF00FF000000FF00FF00FFFF0000FFFFFF0000000000000000000000000000000000000000000000000000000000000000000000000000000000000000000000000000000000000000000000000000000000000000000000000000000000000000
310
00000000000000000000000000000000000000000000000000000000000000000000000000000000000000000000000000000000000000000000000000000000000000000000000000000000000000000000000000000000000000000000000000000000000000000000000000000000000000000000000000000000000000
310
00000000000000000000000000000000000000000000000000000000000000000000000000000000000000000000000000000000000000000000000000000000000000000000000000000000000000000000000000000000000000000000000000000000000000000000000000000000000000000000000000000000000000
310
000000000000000000000000000000000000000000FFFFFFFF0000000000000000000000000000000000000000000000FF00000000FFFEFFFF000000000000000000000000000000000000000000000000FF0000F9FFFEF9FF000000000000000000000000000000000000000000000000FF000000FFFFFFFFFF0000000000
310
00000000FFFFFFFFFFFFFFFFFFFFFFFFFFFF00000000000000FFA40000000000000000000000000000000000000000FF000000000000000000FFA40000000000000000000000000000000000000000FF0000000000000000FFFFA40000000000000000000000000000000000000000FF0000000000000000FFFFFF00000000
310
00000000000000000000000000000000FF000000000000000000FFFF0000000000000000000000000000000000000000FF000000000000000000FFFF000000000000000000FFFFFFFFFFFFFFFFFFFFFF0000000000000000000000000000000000000000000000000000000000000000000000000000000000000000000000
310
00000000000000000000000000000000000000000000000000000000000000000000000000000000000000000000000000000000000000000000000000000000000000000000000000000000000000000000000000000000000000000000000000000000000000000000000000000000000000000000000000000000000000
310
00000000000000000000000000000000000000000000000000000000000000000000000000000000000000000000000000000000000000000000000000000000000000000000000000000000000000000000000000000000000000000000000000000000000000000000000000000000000000000000000000000000000000
310
0000000000000000000000000000000000000000000000000000000000000000000000000000000000000000000000000000000000000000
102
{BLKREFS
331
45F3
102
}
 70
     4
280
     1
281
     1
  0
BLOCK_RECORD
  5
46BD
102
{ACAD_XDICTIONARY
360
472C
102
}
330
1
100
AcDbSymbolTableRecord
100
AcDbBlockTableRecord
  2
リーマボルト SMVH280 M12
340
0
310
2800000020000000200000000100080000000000000400000000000000000000000000000000000000000000000080000080000000808000800000008000800080800000C0C0C000C0DCC000F0CAA6000020400000206000002080000020A0000020C0000020E00000400000004020000040400000406000004080000040A0
310
000040C0000040E00000600000006020000060400000606000006080000060A0000060C0000060E00000800000008020000080400000806000008080000080A0000080C0000080E00000A0000000A0200000A0400000A0600000A0800000A0A00000A0C00000A0E00000C0000000C0200000C0400000C0600000C0800000C0
310
A00000C0C00000C0E00000E0000000E0200000E0400000E0600000E0800000E0A00000E0C00000E0E00040000000400020004000400040006000400080004000A0004000C0004000E00040200000402020004020400040206000402080004020A0004020C0004020E000404000004040200040404000404060004040800040
310
40A0004040C0004040E00040600000406020004060400040606000406080004060A0004060C0004060E00040800000408020004080400040806000408080004080A0004080C0004080E00040A0000040A0200040A0400040A0600040A0800040A0A00040A0C00040A0E00040C0000040C0200040C0400040C0600040C08000
310
40C0A00040C0C00040C0E00040E0000040E0200040E0400040E0600040E0800040E0A00040E0C00040E0E00080000000800020008000400080006000800080008000A0008000C0008000E00080200000802020008020400080206000802080008020A0008020C0008020E00080400000804020008040400080406000804080
310
008040A0008040C0008040E00080600000806020008060400080606000806080008060A0008060C0008060E00080800000808020008080400080806000808080008080A0008080C0008080E00080A0000080A0200080A0400080A0600080A0800080A0A00080A0C00080A0E00080C0000080C0200080C0400080C0600080C0
310
800080C0A00080C0C00080C0E00080E0000080E0200080E0400080E0600080E0800080E0A00080E0C00080E0E000C0000000C0002000C0004000C0006000C0008000C000A000C000C000C000E000C0200000C0202000C0204000C0206000C0208000C020A000C020C000C020E000C0400000C0402000C0404000C0406000C0
310
408000C040A000C040C000C040E000C0600000C0602000C0604000C0606000C0608000C060A000C060C000C060E000C0800000C0802000C0804000C0806000C0808000C080A000C080C000C080E000C0A00000C0A02000C0A04000C0A06000C0A08000C0A0A000C0A0C000C0A0E000C0C00000C0C02000C0C04000C0C06000
310
C0C08000C0C0A000F0FBFF00A4A0A000808080000000FF0000FF000000FFFF00FF000000FF00FF00FFFF0000FFFFFF000000000000000000000000000000000000000000000000000000000000000000000000000000000000000000FFFFFFFFFFFFFFFF0000000000000000000000000000000000000000000000FFFFFFFF
310
FFFFFFFFFFFF00000000000000000000000000000000000000000000FF00FF00000000FF00FF00000000000000000000000000000000000000000000FF00FF00000000FF00FF00000000000000000000000000000000000000000000FF00FF00000000FF00FF00000000000000000000000000000000000000000000000000
310
00000000000000000000000000000000000000000000000000000000000000000000000000000000000000000000000000000000000000000000000000000000000000000000000000000000000000000000000000000000000000000000000000000000000000000000000000000000000000000000000000000000000000
310
00000000000000000000000000000000000000000000000000000000000000000000000000000000000000000000000000000000000000000000000000000000000000000000000000000000000000000000000000000000000000000000000000000000000000000000000000000000000000000000000000000000000000
310
00000000000000000000000000000000000000000000000000000000000000000000000000000000000000000000000000000000000000000000000000000000000000000000000000000000000000000000000000000000000000000000000000000000000000000000000000000000000000000000000000000000000000
310
00000000000000000000000000000000000000000000000000000000000000000000000000000000000000000000000000000000000000000000000000000000000000000000000000000000000000000000000000000000000000000000000000000000000000000000000000000000000000000000000000000000000000
310
00FF00000000FF000000FF00000000000000000000000000000000000000000000FFFFFFFFFFFFFFFFFFFF00000000000000000000000000000000000000000000FF00FF00000000FF00FF00000000000000000000000000000000000000000000FF00FF00000000FF00FF0000000000000000000000000000000000000000
310
0000FF00FF00000000FF00FF00000000000000000000000000000000000000000000FFFFFFFFFFFFFFFFFFFF0000000000000000000000000000000000000000000000FFFFFFFFFFFFFFFF00000000000000000000000000000000000000000000000000FFFFFFFFFFFF000000000000000000000000000000000000000000
310
000000000000FFFFFFFF00000000000000000000000000000000000000000000000000000000000000000000000000000000000000000000
102
{BLKREFS
331
46E1
102
}
 70
     4
280
     1
281
     1
  0
BLOCK_RECORD
  5
4749
102
{ACAD_XDICTIONARY
360
4770
102
}
330
1
100
AcDbSymbolTableRecord
100
AcDbBlockTableRecord
  2
スラストプレ－ト SMVH280
340
0
310
2800000020000000200000000100080000000000000400000000000000000000000000000000000000000000000080000080000000808000800000008000800080800000C0C0C000C0DCC000F0CAA6000020400000206000002080000020A0000020C0000020E00000400000004020000040400000406000004080000040A0
310
000040C0000040E00000600000006020000060400000606000006080000060A0000060C0000060E00000800000008020000080400000806000008080000080A0000080C0000080E00000A0000000A0200000A0400000A0600000A0800000A0A00000A0C00000A0E00000C0000000C0200000C0400000C0600000C0800000C0
310
A00000C0C00000C0E00000E0000000E0200000E0400000E0600000E0800000E0A00000E0C00000E0E00040000000400020004000400040006000400080004000A0004000C0004000E00040200000402020004020400040206000402080004020A0004020C0004020E000404000004040200040404000404060004040800040
310
40A0004040C0004040E00040600000406020004060400040606000406080004060A0004060C0004060E00040800000408020004080400040806000408080004080A0004080C0004080E00040A0000040A0200040A0400040A0600040A0800040A0A00040A0C00040A0E00040C0000040C0200040C0400040C0600040C08000
310
40C0A00040C0C00040C0E00040E0000040E0200040E0400040E0600040E0800040E0A00040E0C00040E0E00080000000800020008000400080006000800080008000A0008000C0008000E00080200000802020008020400080206000802080008020A0008020C0008020E00080400000804020008040400080406000804080
310
008040A0008040C0008040E00080600000806020008060400080606000806080008060A0008060C0008060E00080800000808020008080400080806000808080008080A0008080C0008080E00080A0000080A0200080A0400080A0600080A0800080A0A00080A0C00080A0E00080C0000080C0200080C0400080C0600080C0
310
800080C0A00080C0C00080C0E00080E0000080E0200080E0400080E0600080E0800080E0A00080E0C00080E0E000C0000000C0002000C0004000C0006000C0008000C000A000C000C000C000E000C0200000C0202000C0204000C0206000C0208000C020A000C020C000C020E000C0400000C0402000C0404000C0406000C0
310
408000C040A000C040C000C040E000C0600000C0602000C0604000C0606000C0608000C060A000C060C000C060E000C0800000C0802000C0804000C0806000C0808000C080A000C080C000C080E000C0A00000C0A02000C0A04000C0A06000C0A08000C0A0A000C0A0C000C0A0E000C0C00000C0C02000C0C04000C0C06000
310
C0C08000C0C0A000F0FBFF00A4A0A000808080000000FF0000FF000000FFFF00FF000000FF00FF00FFFF0000FFFFFF0000000000000000000000000000000000000000000000000000000000000000000000000000000000000000000000000000000000000000000000000000000000000000000000000000000000000000
310
00000000000000000000000000000000000000000000000000000000000000000000000000000000000000000000000000000000000000000000000000000000000000000000000000000000000000000000000000000000000000000000000000000000000000000000000000000000000000000000000000000000000000
310
00000000000000000000000000000000000000000000000000000000000000000000000000000000000000000000000000000000000000000000000000000000000000000000000000000000000000000000000000000000000000000000000000000000000000000000000000000000000000000000000000000000000000
310
00000000000000000000000000000000000000000000000000000000000000000000000000000000000000000000000000000000000000000000000000000000000000000000000000000000000000000000000000000000000000000000000000000000000000000000000000000000000000000000FFFFFFFFFF00FFFFFF
310
FFFFFFFFFFFFFFFFFFFFFFFFFFFFFFFFFFFFFF00000000FF0000000000000000000000000000000000000000000000000000000000FFFFFFFFFFFFFFFFFFFFFFFFFFFFFFFFFFFFFFFFFFFFFFFFFFFFFFFFFFFF0000FFFFFFFFFFFFFFFFFFFFFFFFFFFFFFFFFFFFFFFFFFFFFFFFFFFFFFFFFFFF000000000000000000000000
310
00000000000000000000000000000000000000000000000000000000000000000000000000000000000000000000000000000000000000000000000000000000000000000000000000000000000000000000000000000000000000000000000000000000000000000000000000000000000000000000000000000000000000
310
00000000000000000000000000000000000000000000000000000000000000000000000000000000000000000000000000000000000000000000000000000000000000000000000000000000000000000000000000000000000000000000000000000000000000000000000000000000000000000000000000000000000000
310
00000000000000000000000000000000000000000000000000000000000000000000000000000000000000000000000000000000000000000000000000000000000000000000000000000000000000000000000000000000000000000000000000000000000000000000000000000000000000000000000000000000000000
310
0000000000000000000000000000000000000000000000000000000000000000000000000000000000000000000000000000000000000000
102
{BLKREFS
331
4755
102
}
 70
     4
280
     1
281
     1
  0
BLOCK_RECORD
  5
4778
330
1
100
AcDbSymbolTableRecord
100
AcDbBlockTableRecord
  2
*D13
340
0
 70
     0
280
     1
281
     0
  0
BLOCK_RECORD
  5
47A6
330
1
100
AcDbSymbolTableRecord
100
AcDbBlockTableRecord
  2
*D14
340
0
 70
     0
280
     1
281
     0
  0
BLOCK_RECORD
  5
47C2
330
1
100
AcDbSymbolTableRecord
100
AcDbBlockTableRecord
  2
*D15
340
0
 70
     0
280
     1
281
     0
  0
BLOCK_RECORD
  5
480C
330
1
100
AcDbSymbolTableRecord
100
AcDbBlockTableRecord
  2
*D16
340
0
 70
     0
280
     1
281
     0
  0
BLOCK_RECORD
  5
49D0
330
1
100
AcDbSymbolTableRecord
100
AcDbBlockTableRecord
  2
*D17
340
0
 70
     0
280
     1
281
     0
  0
BLOCK_RECORD
  5
49ED
330
1
100
AcDbSymbolTableRecord
100
AcDbBlockTableRecord
  2
*D18
340
0
 70
     0
280
     1
281
     0
  0
BLOCK_RECORD
  5
4A05
330
1
100
AcDbSymbolTableRecord
100
AcDbBlockTableRecord
  2
*D19
340
0
 70
     0
280
     1
281
     0
  0
BLOCK_RECORD
  5
4A1D
330
1
100
AcDbSymbolTableRecord
100
AcDbBlockTableRecord
  2
*D20
340
0
 70
     0
280
     1
281
     0
  0
BLOCK_RECORD
  5
4FFE
330
1
100
AcDbSymbolTableRecord
100
AcDbBlockTableRecord
  2
*D21
340
0
 70
     0
280
     1
281
     0
  0
BLOCK_RECORD
  5
5016
330
1
100
AcDbSymbolTableRecord
100
AcDbBlockTableRecord
  2
*D22
340
0
 70
     0
280
     1
281
     0
  0
BLOCK_RECORD
  5
504B
330
1
100
AcDbSymbolTableRecord
100
AcDbBlockTableRecord
  2
*D23
340
0
 70
     0
280
     1
281
     0
  0
BLOCK_RECORD
  5
5081
330
1
100
AcDbSymbolTableRecord
100
AcDbBlockTableRecord
  2
*D24
340
0
 70
     0
280
     1
281
     0
  0
BLOCK_RECORD
  5
50BD
330
1
100
AcDbSymbolTableRecord
100
AcDbBlockTableRecord
  2
GENDOT
340
0
102
{BLKREFS
331
51E2
331
51F8
102
}
 70
     0
280
     1
281
     0
  0
BLOCK_RECORD
  5
5751
330
1
100
AcDbSymbolTableRecord
100
AcDbBlockTableRecord
  2
*D26
340
0
 70
     0
280
     1
281
     0
  0
BLOCK_RECORD
  5
586D
330
1
100
AcDbSymbolTableRecord
100
AcDbBlockTableRecord
  2
*D27
340
0
 70
     0
280
     1
281
     0
  0
BLOCK_RECORD
  5
5897
330
1
100
AcDbSymbolTableRecord
100
AcDbBlockTableRecord
  2
*D28
340
0
 70
     0
280
     1
281
     0
  0
BLOCK_RECORD
  5
599E
330
1
100
AcDbSymbolTableRecord
100
AcDbBlockTableRecord
  2
ケース
340
0
310
2800000020000000200000000100080000000000000400000000000000000000000000000000000000000000000080000080000000808000800000008000800080800000C0C0C000C0DCC000F0CAA6000020400000206000002080000020A0000020C0000020E00000400000004020000040400000406000004080000040A0
310
000040C0000040E00000600000006020000060400000606000006080000060A0000060C0000060E00000800000008020000080400000806000008080000080A0000080C0000080E00000A0000000A0200000A0400000A0600000A0800000A0A00000A0C00000A0E00000C0000000C0200000C0400000C0600000C0800000C0
310
A00000C0C00000C0E00000E0000000E0200000E0400000E0600000E0800000E0A00000E0C00000E0E00040000000400020004000400040006000400080004000A0004000C0004000E00040200000402020004020400040206000402080004020A0004020C0004020E000404000004040200040404000404060004040800040
310
40A0004040C0004040E00040600000406020004060400040606000406080004060A0004060C0004060E00040800000408020004080400040806000408080004080A0004080C0004080E00040A0000040A0200040A0400040A0600040A0800040A0A00040A0C00040A0E00040C0000040C0200040C0400040C0600040C08000
310
40C0A00040C0C00040C0E00040E0000040E0200040E0400040E0600040E0800040E0A00040E0C00040E0E00080000000800020008000400080006000800080008000A0008000C0008000E00080200000802020008020400080206000802080008020A0008020C0008020E00080400000804020008040400080406000804080
310
008040A0008040C0008040E00080600000806020008060400080606000806080008060A0008060C0008060E00080800000808020008080400080806000808080008080A0008080C0008080E00080A0000080A0200080A0400080A0600080A0800080A0A00080A0C00080A0E00080C0000080C0200080C0400080C0600080C0
310
800080C0A00080C0C00080C0E00080E0000080E0200080E0400080E0600080E0800080E0A00080E0C00080E0E000C0000000C0002000C0004000C0006000C0008000C000A000C000C000C000E000C0200000C0202000C0204000C0206000C0208000C020A000C020C000C020E000C0400000C0402000C0404000C0406000C0
310
408000C040A000C040C000C040E000C0600000C0602000C0604000C0606000C0608000C060A000C060C000C060E000C0800000C0802000C0804000C0806000C0808000C080A000C080C000C080E000C0A00000C0A02000C0A04000C0A06000C0A08000C0A0A000C0A0C000C0A0E000C0C00000C0C02000C0C04000C0C06000
310
C0C08000C0C0A000F0FBFF00A4A0A000808080000000FF0000FF000000FFFF00FF000000FF00FF00FFFF0000FFFFFF000000000000000000000000000000000000000000000000000000000000000000000000000000000000000000FCFCFCFCFCFCFCFCFCFCFC0000000000000000000000000000000000000000FC000000
310
000000000000FC0000000000000000000000000000000000000000FC000000000000FCFCFCFCFCFC000000000000000000000000000000000000FC00000000000000FC0000000000000000000000000000000000000000000000FC00000000000000FC0000000000000000000000000000000000000000000000FC00000000
310
000000FC0000000000000000000000000000000000000000000000FC00000000000000FC0000000000000000000000000000000000000000000000FC00000000000000FC0000000000000000000000000000000000000000000000FC00000000000000FC0000000000000000000000000000000000000000000000FC000000
310
00000000FC0000000000000000000000000000000000000000000000FC00000000000000FCFCFCFCFCFC000000000000000000000000000000000000FC0000000000000000000000FC00000000000000000000000000000000000000FC0000000000FCFCFCFCFCFCFCFC000000000000000000000000000000000000FC0000
310
0000FC0000000000000000000000000000000000000000000000000000FC00000000FC0000000000000000000000000000000000000000000000000000FC00000000FC0000FC0000000000000000000000000000000000000000000000FC00000000FC0000FC0000000000000000000000000000000000000000000000FC00
310
000000FCFCFCFCFC00000000000000000000000000000000000000000000FC00000000FC0000FCFC00000000000000000000000000000000000000000000FC00000000FC0000FCFC00000000000000000000000000000000000000000000FC00000000FC0000FCFC00000000000000000000000000000000000000000000FC
310
00000000FC0000FCFC00000000000000000000000000000000000000000000FC00000000FC0000FCFC00000000000000000000000000000000000000000000FC00000000FC0000FCFC00000000000000000000000000000000000000000000FC00000000FC0000FCFC00000000000000000000000000000000000000000000
310
FC00000000FC0000FCFC00000000000000000000000000000000000000000000FC00000000FC0000FCFC00000000000000000000000000000000000000000000FC00000000FC0000FCFC00000000000000000000000000000000000000000000FC00000000FC0000FCFC000000000000000000000000000000000000000000
310
00FC00000000FC0000FCFC000000000000000000000000000000000000000000000000000000000000000000000000000000000000000000
102
{BLKREFS
331
59B5
102
}
 70
     4
280
     1
281
     1
  0
ENDTAB
  0
ENDSEC
  0
SECTION
  2
BLOCKS
  0
BLOCK
  5
20
330
1F
100
AcDbEntity
  8
0
100
AcDbBlockBegin
  2
*Model_Space
 70
     0
 10
0.0
 20
0.0
 30
0.0
  3
*Model_Space
  1

  0
ENDBLK
  5
21
330
1F
100
AcDbEntity
  8
0
100
AcDbBlockEnd
  0
BLOCK
  5
1C
330
1B
100
AcDbEntity
 67
     1
  8
0
100
AcDbBlockBegin
  2
*Paper_Space
 70
     0
 10
0.0
 20
0.0
 30
0.0
  3
*Paper_Space
  1

  0
ENDBLK
  5
1D
330
1B
100
AcDbEntity
 67
     1
  8
0
100
AcDbBlockEnd
  0
BLOCK
  5
24
330
23
100
AcDbEntity
 67
     1
  8
0
100
AcDbBlockBegin
  2
*Paper_Space0
 70
     0
 10
0.0
 20
0.0
 30
0.0
  3
*Paper_Space0
  1

  0
ENDBLK
  5
25
330
23
100
AcDbEntity
 67
     1
  8
0
100
AcDbBlockEnd
  0
BLOCK
  5
6D
330
69
100
AcDbEntity
  8
0
100
AcDbBlockBegin
  2
_Open30
 70
     0
 10
0.0
 20
0.0
 30
0.0
  3
_Open30
  1

  0
LINE
  5
6A
330
69
100
AcDbEntity
  8
0
  6
ByBlock
 62
     0
370
    -2
100
AcDbLine
 10
-1.0
 20
0.26794919
 30
0.0
 11
0.0
 21
0.0
 31
0.0
  0
LINE
  5
6B
330
69
100
AcDbEntity
  8
0
  6
ByBlock
 62
     0
370
    -2
100
AcDbLine
 10
0.0
 20
0.0
 30
0.0
 11
-1.0
 21
-0.26794919
 31
0.0
  0
LINE
  5
6C
330
69
100
AcDbEntity
  8
0
  6
ByBlock
 62
     0
370
    -2
100
AcDbLine
 10
0.0
 20
0.0
 30
0.0
 11
-1.0
 21
0.0
 31
0.0
  0
ENDBLK
  5
6E
330
69
100
AcDbEntity
  8
0
100
AcDbBlockEnd
  0
BLOCK
  5
76
330
74
100
AcDbEntity
  8
0
100
AcDbBlockBegin
  2
GENAXEH
 70
     0
 10
0.0
 20
0.0
 30
0.0
  3
GENAXEH
  1

  0
LINE
  5
75
330
74
100
AcDbEntity
  8
0
100
AcDbLine
 10
-1.0
 20
0.0
 30
0.0
 11
1.0
 21
0.0
 31
0.0
  0
ENDBLK
  5
77
330
74
100
AcDbEntity
  8
0
100
AcDbBlockEnd
  0
BLOCK
  5
341D
330
341A
100
AcDbEntity
  8
0
100
AcDbBlockBegin
  2
ジュウジマルコネジ
 70
     0
 10
0.0
 20
0.0
 30
0.0
  3
ジュウジマルコネジ
  1

  0
LINE
  5
44CF
330
341A
100
AcDbEntity
  8
AM_7 中心線
100
AcDbLine
 10
-4.800000000000181
 20
0.0
 30
0.0
 11
8.699999999999818
 21
0.0
 31
0.0
  0
LINE
  5
44D0
330
341A
100
AcDbEntity
  8
AM_4 細線
100
AcDbLine
 10
0.0
 20
-2.499999999999544
 30
0.0
 11
8.0
 21
-2.5
 31
0.0
  0
LINE
  5
44D1
330
341A
100
AcDbEntity
  8
AM_7 中心線
100
AcDbLine
 10
-4.867259369782003
 20
0.0
 30
0.0
 11
8.706539767723825
 21
0.0
 31
0.0
  0
LINE
  5
44D2
330
341A
100
AcDbEntity
  8
AM_4 細線
100
AcDbLine
 10
0.0
 20
2.499999999999544
 30
0.0
 11
8.0
 21
2.5
 31
0.0
  0
LINE
  5
44D3
330
341A
100
AcDbEntity
  8
AM_4 細線
100
AcDbLine
 10
0.0
 20
3.25
 30
0.0
 11
1.0
 21
3.25
 31
0.0
  0
LINE
  5
44D4
330
341A
100
AcDbEntity
  8
AM_0 外形線1
100
AcDbLine
 10
0.0
 20
6.5
 30
0.0
 11
1.0
 21
6.5
 31
0.0
  0
LINE
  5
44D5
330
341A
100
AcDbEntity
  8
AM_0 外形線1
100
AcDbLine
 10
0.0
 20
-6.5
 30
0.0
 11
0.0
 21
6.5
 31
0.0
  0
ELLIPSE
  5
44D6
330
341A
100
AcDbEntity
  8
AM_0 外形線1
100
AcDbEllipse
 10
0.0
 20
0.0
 30
0.0
 11
0.0
 21
5.25
 31
0.0
210
0.0
220
0.0
230
1.0
 40
0.7619047619047619
 41
0.0
 42
3.141592653589792
  0
LINE
  5
44D7
330
341A
100
AcDbEntity
  8
AM_0 外形線1
100
AcDbLine
 10
0.0
 20
-6.5
 30
0.0
 11
1.0
 21
-6.5
 31
0.0
  0
LINE
  5
44D8
330
341A
100
AcDbEntity
  8
AM_4 細線
100
AcDbLine
 10
0.0
 20
-3.25
 30
0.0
 11
1.0
 21
-3.25
 31
0.0
  0
LINE
  5
44D9
330
341A
100
AcDbEntity
  8
AM_0 外形線1
100
AcDbLine
 10
8.0
 20
-2.5
 30
0.0
 11
8.0
 21
2.5
 31
0.0
  0
LINE
  5
44DA
330
341A
100
AcDbEntity
  8
AM_0 外形線1
100
AcDbLine
 10
7.5
 20
-3.0
 30
0.0
 11
7.5
 21
3.0
 31
0.0
  0
LINE
  5
44DB
330
341A
100
AcDbEntity
  8
AM_0 外形線1
100
AcDbLine
 10
7.5
 20
3.0
 30
0.0
 11
8.0
 21
2.5
 31
0.0
  0
LINE
  5
44DC
330
341A
100
AcDbEntity
  8
AM_0 外形線1
100
AcDbLine
 10
7.5
 20
-3.0
 30
0.0
 11
8.0
 21
-2.5
 31
0.0
  0
LINE
  5
4502
330
341A
100
AcDbEntity
  8
AM_0 外形線1
100
AcDbLine
 10
1.0
 20
-6.5
 30
0.0
 11
1.0
 21
-3.0
 31
0.0
  0
LINE
  5
4503
330
341A
100
AcDbEntity
  8
AM_0 外形線1
100
AcDbLine
 10
0.0
 20
-3.0
 30
0.0
 11
7.5
 21
-3.0
 31
0.0
  0
LINE
  5
4504
330
341A
100
AcDbEntity
  8
AM_0 外形線1
100
AcDbLine
 10
0.0
 20
3.0
 30
0.0
 11
7.5
 21
3.0
 31
0.0
  0
LINE
  5
4505
330
341A
100
AcDbEntity
  8
AM_0 外形線1
100
AcDbLine
 10
1.0
 20
3.0
 30
0.0
 11
1.0
 21
6.5
 31
0.0
  0
ENDBLK
  5
342F
330
341A
100
AcDbEntity
  8
0
100
AcDbBlockEnd
  0
BLOCK
  5
41DE
330
41DD
100
AcDbEntity
  8
0
100
AcDbBlockBegin
  2
センタB SMVH280
 70
     0
 10
0.0
 20
0.0
 30
0.0
  3
センタB SMVH280
  1

  0
LINE
  5
41E1
330
41DD
100
AcDbEntity
  8
AM_0 外形線1
100
AcDbLine
 10
-93.49999999999999
 20
0.0
 30
0.0
 11
0.0
 21
0.0
 31
0.0
  0
LINE
  5
41E2
330
41DD
100
AcDbEntity
  8
AM_0 外形線1
100
AcDbLine
 10
90.1999999999998
 20
140.0
 30
0.0
 11
-90.1999999999998
 21
140.0
 31
0.0
  0
LINE
  5
41E3
330
41DD
100
AcDbEntity
  8
AM_0 外形線1
100
AcDbLine
 10
-94.50000000000001
 20
21.0
 30
0.0
 11
-94.50000000000001
 21
1.0
 31
0.0
  0
LINE
  5
41E4
330
41DD
100
AcDbEntity
  8
AM_0 外形線1
100
AcDbLine
 10
-94.50000000000001
 20
1.0
 30
0.0
 11
-93.49999999999999
 21
0.0
 31
0.0
  0
LINE
  5
41E5
330
41DD
100
AcDbEntity
  8
AM_0 外形線1
100
AcDbLine
 10
-94.1999999999998
 20
136.0
 30
0.0
 11
-94.1999999999998
 21
95.5
 31
0.0
  0
LINE
  5
41E6
330
41DD
100
AcDbEntity
  8
AM_0 外形線1
100
AcDbLine
 10
-95.0
 20
93.49999999999999
 30
0.0
 11
-95.0
 21
55.0
 31
0.0
  0
ARC
  5
41E7
330
41DD
100
AcDbEntity
  8
AM_0 外形線1
100
AcDbCircle
 10
0.0
 20
36.0
 30
0.0
 40
104.86
100
AcDbArc
 50
170.3930009999995
 51
187.396965999995
  0
LINE
  5
41EA
330
41DD
100
AcDbEntity
  8
AM_7 中心線
100
AcDbLine
 10
-109.8599999999996
 20
36.0
 30
0.0
 11
-93.69999999999979
 21
36.0
 31
0.0
  0
ARC
  5
41EB
330
41DD
100
AcDbEntity
  8
AM_0 外形線1
100
AcDbCircle
 10
-95.0
 20
21.0
 30
0.0
 40
0.5
100
AcDbArc
 50
0.0
 51
90.0
  0
LINE
  5
41EC
330
41DD
100
AcDbEntity
  8
AM_0 外形線1
100
AcDbLine
 10
-102.8526349999997
 20
21.5
 30
0.0
 11
-95.0
 21
21.5
 31
0.0
  0
LINE
  5
41ED
330
41DD
100
AcDbEntity
  8
AM_0 外形線1
100
AcDbLine
 10
-103.9873539999998
 20
22.5
 30
0.0
 11
-102.8526349999997
 21
21.5
 31
0.0
  0
LINE
  5
41EE
330
41DD
100
AcDbEntity
  8
AM_0 外形線1
100
AcDbLine
 10
-102.2151619999999
 20
54.5
 30
0.0
 11
-103.389408
 21
53.5
 31
0.0
  0
LINE
  5
41EF
330
41DD
100
AcDbEntity
  8
AM_0 外形線1
100
AcDbLine
 10
-95.5
 20
54.5
 30
0.0
 11
-102.2151619999999
 21
54.5
 31
0.0
  0
ARC
  5
41F0
330
41DD
100
AcDbEntity
  8
AM_0 外形線1
100
AcDbCircle
 10
-95.5
 20
55.0
 30
0.0
 40
0.5
100
AcDbArc
 50
270.0
 51
0.0
  0
LINE
  5
41F1
330
41DD
100
AcDbEntity
  8
AM_0 外形線1
100
AcDbLine
 10
-94.1999999999998
 20
95.5
 30
0.0
 11
-95.0
 21
93.49999999999999
 31
0.0
  0
ARC
  5
41F2
330
41DD
100
AcDbEntity
  8
AM_0 外形線1
100
AcDbCircle
 10
-90.1999999999998
 20
136.0
 30
0.0
 40
4.0
100
AcDbArc
 50
90.0
 51
180.0
  0
LINE
  5
41F3
330
41DD
100
AcDbEntity
  8
AM_3 隠れ線
100
AcDbLine
 10
-5.149999999999637
 20
0.0
 30
0.0
 11
-5.149999999999637
 21
33.0
 31
0.0
  0
LINE
  5
41F4
330
41DD
100
AcDbEntity
  8
AM_3 隠れ線
100
AcDbLine
 10
-6.0
 20
0.0
 30
0.0
 11
-6.0
 21
28.0
 31
0.0
  0
LINE
  5
41F5
330
41DD
100
AcDbEntity
  8
AM_0 外形線1
100
AcDbLine
 10
94.1999999999998
 20
95.5
 30
0.0
 11
0.0
 21
95.5
 31
0.0
  0
LINE
  5
41F6
330
41DD
100
AcDbEntity
  8
AM_0 外形線1
100
AcDbLine
 10
95.0
 20
93.49999999999999
 30
0.0
 11
0.0
 21
93.49999999999999
 31
0.0
  0
LINE
  5
41F7
330
41DD
100
AcDbEntity
  8
AM_3 隠れ線
100
AcDbLine
 10
-5.149999999999637
 20
33.0
 30
0.0
 11
0.0
 21
35.97335399999997
 31
0.0
  0
LINE
  5
41F8
330
41DD
100
AcDbEntity
  8
AM_3 隠れ線
100
AcDbLine
 10
-5.149999999999637
 20
33.0
 30
0.0
 11
0.0
 21
33.0
 31
0.0
  0
LINE
  5
41F9
330
41DD
100
AcDbEntity
  8
AM_3 隠れ線
100
AcDbLine
 10
-6.0
 20
28.0
 30
0.0
 11
0.0
 21
28.0
 31
0.0
  0
LINE
  5
41FA
330
41DD
100
AcDbEntity
  8
AM_3 隠れ線
100
AcDbLine
 10
-5.149999999999637
 20
28.49074799999995
 30
0.0
 11
0.0
 21
28.49074799999995
 31
0.0
  0
LINE
  5
41FB
330
41DD
100
AcDbEntity
  8
AM_3 隠れ線
100
AcDbLine
 10
-6.0
 20
28.0
 30
0.0
 11
-5.149999999999637
 21
28.49074799999995
 31
0.0
  0
LINE
  5
41FC
330
41DD
100
AcDbEntity
  8
AM_0 外形線1
100
AcDbLine
 10
94.1999999999998
 20
95.5
 30
0.0
 11
94.1999999999998
 21
136.0
 31
0.0
  0
LINE
  5
41FD
330
41DD
100
AcDbEntity
  8
AM_0 外形線1
100
AcDbLine
 10
95.0
 20
75.0
 30
0.0
 11
95.0
 21
93.49999999999999
 31
0.0
  0
LINE
  5
41FE
330
41DD
100
AcDbEntity
  8
AM_0 外形線1
100
AcDbLine
 10
95.0
 20
93.49999999999999
 30
0.0
 11
94.1999999999998
 21
95.5
 31
0.0
  0
ARC
  5
41FF
330
41DD
100
AcDbEntity
  8
AM_0 外形線1
100
AcDbCircle
 10
90.1999999999998
 20
136.0
 30
0.0
 40
4.0
100
AcDbArc
 50
0.0
 51
90.0
  0
LINE
  5
4200
330
41DD
100
AcDbEntity
  8
AM_0 外形線1
100
AcDbLine
 10
-41.05179655021174
 20
140.0
 30
0.0
 11
-41.05179655021174
 21
0.0
 31
0.0
  0
ARC
  5
585B
330
41DD
100
AcDbEntity
  8
AM_0 外形線1
100
AcDbCircle
 10
0.0
 20
36.0
 30
0.0
 40
98.70000000000004
100
AcDbArc
 50
169.1967707631551
 51
188.4478887684365
  0
ARC
  5
585C
330
41DD
100
AcDbEntity
  8
AM_7 中心線
100
AcDbCircle
 10
0.0
 20
36.0
 30
0.0
 40
102.0000000000001
100
AcDbArc
 50
166.9682948789685
 51
190.164248621727
  0
ENDBLK
  5
41DF
330
41DD
100
AcDbEntity
  8
0
100
AcDbBlockEnd
  0
BLOCK
  5
4283
330
4282
100
AcDbEntity
  8
0
100
AcDbBlockBegin
  2
センタＡ SMVH280
 70
     0
 10
0.0
 20
0.0
 30
0.0
  3
センタＡ SMVH280
  1

  0
LINE
  5
4285
330
4282
100
AcDbEntity
  8
AM_0 外形線1
100
AcDbLine
 10
-94.1999999999998
 20
-136.0
 30
0.0
 11
-94.1999999999998
 21
-95.5
 31
0.0
  0
LINE
  5
4286
330
4282
100
AcDbEntity
  8
AM_0 外形線1
100
AcDbLine
 10
94.1999999999998
 20
-95.5
 30
0.0
 11
94.1999999999998
 21
-136.0
 31
0.0
  0
LINE
  5
4287
330
4282
100
AcDbEntity
  8
AM_0 外形線1
100
AcDbLine
 10
90.1999999999998
 20
-140.0
 30
0.0
 11
-90.1999999999998
 21
-140.0
 31
0.0
  0
ARC
  5
4288
330
4282
100
AcDbEntity
  8
AM_0 外形線1
100
AcDbCircle
 10
-90.1999999999998
 20
-136.0
 30
0.0
 40
4.0
100
AcDbArc
 50
180.0
 51
270.0
  0
ARC
  5
4289
330
4282
100
AcDbEntity
  8
AM_0 外形線1
100
AcDbCircle
 10
90.1999999999998
 20
-136.0
 30
0.0
 40
4.0
100
AcDbArc
 50
270.0
 51
0.0
  0
ARC
  5
428B
330
4282
100
AcDbEntity
  8
AM_0 外形線1
100
AcDbCircle
 10
0.0
 20
-36.0
 30
0.0
 40
104.86
100
AcDbArc
 50
172.603034000005
 51
189.6069990000005
  0
LINE
  5
428D
330
4282
100
AcDbEntity
  8
AM_0 外形線1
100
AcDbLine
 10
-95.0
 20
-93.49999999999999
 30
0.0
 11
-95.0
 21
-55.0
 31
0.0
  0
LINE
  5
428E
330
4282
100
AcDbEntity
  8
AM_0 外形線1
100
AcDbLine
 10
-94.1999999999998
 20
-95.5
 30
0.0
 11
-95.0
 21
-93.49999999999999
 31
0.0
  0
LINE
  5
428F
330
4282
100
AcDbEntity
  8
AM_0 外形線1
100
AcDbLine
 10
-102.2151619999999
 20
-54.5
 30
0.0
 11
-103.389408
 21
-53.5
 31
0.0
  0
LINE
  5
4290
330
4282
100
AcDbEntity
  8
AM_0 外形線1
100
AcDbLine
 10
-95.5
 20
-54.5
 30
0.0
 11
-102.2151619999999
 21
-54.5
 31
0.0
  0
ARC
  5
4291
330
4282
100
AcDbEntity
  8
AM_0 外形線1
100
AcDbCircle
 10
-95.5
 20
-55.0
 30
0.0
 40
0.5
100
AcDbArc
 50
0.0
 51
90.0
  0
LINE
  5
4292
330
4282
100
AcDbEntity
  8
AM_0 外形線1
100
AcDbLine
 10
-93.49999999999999
 20
0.0
 30
0.0
 11
0.0
 21
0.0
 31
0.0
  0
LINE
  5
4293
330
4282
100
AcDbEntity
  8
AM_0 外形線1
100
AcDbLine
 10
-94.50000000000001
 20
-21.0
 30
0.0
 11
-94.50000000000001
 21
-1.0
 31
0.0
  0
LINE
  5
4294
330
4282
100
AcDbEntity
  8
AM_7 中心線
100
AcDbLine
 10
-109.8599999999996
 20
-36.0
 30
0.0
 11
-93.69999999999979
 21
-36.0
 31
0.0
  0
ARC
  5
4295
330
4282
100
AcDbEntity
  8
AM_0 外形線1
100
AcDbCircle
 10
-95.0
 20
-21.0
 30
0.0
 40
0.5
100
AcDbArc
 50
270.0
 51
0.0
  0
LINE
  5
4296
330
4282
100
AcDbEntity
  8
AM_0 外形線1
100
AcDbLine
 10
-102.8526349999997
 20
-21.5
 30
0.0
 11
-95.0
 21
-21.5
 31
0.0
  0
LINE
  5
4297
330
4282
100
AcDbEntity
  8
AM_0 外形線1
100
AcDbLine
 10
-103.9873539999998
 20
-22.5
 30
0.0
 11
-102.8526349999997
 21
-21.5
 31
0.0
  0
LINE
  5
4298
330
4282
100
AcDbEntity
  8
AM_0 外形線1
100
AcDbLine
 10
-94.50000000000001
 20
-1.0
 30
0.0
 11
-93.49999999999999
 21
0.0
 31
0.0
  0
LINE
  5
4299
330
4282
100
AcDbEntity
  8
AM_0 外形線1
100
AcDbLine
 10
94.1999999999998
 20
-95.5
 30
0.0
 11
0.0
 21
-95.5
 31
0.0
  0
LINE
  5
429A
330
4282
100
AcDbEntity
  8
AM_0 外形線1
100
AcDbLine
 10
95.0
 20
-93.49999999999999
 30
0.0
 11
0.0
 21
-93.49999999999999
 31
0.0
  0
LINE
  5
429B
330
4282
100
AcDbEntity
  8
AM_3 隠れ線
100
AcDbLine
 10
-5.149999999999637
 20
0.0
 30
0.0
 11
-5.149999999999637
 21
-33.0
 31
0.0
  0
LINE
  5
429C
330
4282
100
AcDbEntity
  8
AM_3 隠れ線
100
AcDbLine
 10
-6.0
 20
0.0
 30
0.0
 11
-6.0
 21
-28.0
 31
0.0
  0
LINE
  5
429D
330
4282
100
AcDbEntity
  8
AM_3 隠れ線
100
AcDbLine
 10
-5.149999999999637
 20
-33.0
 30
0.0
 11
0.0
 21
-35.97335399999997
 31
0.0
  0
LINE
  5
429E
330
4282
100
AcDbEntity
  8
AM_3 隠れ線
100
AcDbLine
 10
-5.149999999999637
 20
-33.0
 30
0.0
 11
0.0
 21
-33.0
 31
0.0
  0
LINE
  5
429F
330
4282
100
AcDbEntity
  8
AM_3 隠れ線
100
AcDbLine
 10
-5.149999999999637
 20
-28.49074700000006
 30
0.0
 11
0.0
 21
-28.49074700000006
 31
0.0
  0
LINE
  5
42A0
330
4282
100
AcDbEntity
  8
AM_3 隠れ線
100
AcDbLine
 10
-6.0
 20
-28.0
 30
0.0
 11
0.0
 21
-28.0
 31
0.0
  0
LINE
  5
42A1
330
4282
100
AcDbEntity
  8
AM_3 隠れ線
100
AcDbLine
 10
-6.0
 20
-28.0
 30
0.0
 11
-5.149999999999637
 21
-28.49074700000006
 31
0.0
  0
LINE
  5
42A2
330
4282
100
AcDbEntity
  8
AM_0 外形線1
100
AcDbLine
 10
95.0
 20
-75.0
 30
0.0
 11
95.0
 21
-93.49999999999999
 31
0.0
  0
LINE
  5
42A3
330
4282
100
AcDbEntity
  8
AM_0 外形線1
100
AcDbLine
 10
95.0
 20
-93.49999999999999
 30
0.0
 11
94.1999999999998
 21
-95.5
 31
0.0
  0
LINE
  5
42A4
330
4282
100
AcDbEntity
  8
AM_0 外形線1
100
AcDbLine
 10
-35.85038354048629
 20
0.0
 30
0.0
 11
-35.85038354048629
 21
-140.0
 31
0.0
  0
ARC
  5
5807
330
4282
100
AcDbEntity
  8
AM_0 外形線1
100
AcDbCircle
 10
0.0
 20
-36.0
 30
0.0
 40
98.70000000000004
100
AcDbArc
 50
171.5521112315699
 51
190.8032292368449
  0
ARC
  5
5808
330
4282
100
AcDbEntity
  8
AM_7 中心線
100
AcDbCircle
 10
0.0
 20
-36.0
 30
0.0
 40
102.0000000000001
100
AcDbArc
 50
169.8357513782794
 51
193.0317051210314
  0
ARC
  5
5827
330
4282
100
AcDbEntity
  8
AM_7 中心線
100
AcDbCircle
 10
0.0
 20
-36.0
 30
0.0
 40
102.0000000000001
100
AcDbArc
 50
194.4052928962598
 51
194.4357792471067
  0
ENDBLK
  5
4284
330
4282
100
AcDbEntity
  8
0
100
AcDbBlockEnd
  0
BLOCK
  5
43F0
330
43EF
100
AcDbEntity
  8
0
100
AcDbBlockBegin
  2
ケースＡ SMVH280
 70
     0
 10
0.0
 20
0.0
 30
0.0
  3
ケースＡ SMVH280
  1

  0
LINE
  5
43F2
330
43EF
100
AcDbEntity
  8
AM_3 隠れ線
100
AcDbLine
 10
-99.59999999999993
 20
-59.0
 30
0.0
 11
-99.59999999999993
 21
-28.5
 31
0.0
  0
LINE
  5
43F3
330
43EF
100
AcDbEntity
  8
AM_0 外形線1
100
AcDbLine
 10
-112.0
 20
-25.0
 30
0.0
 11
-112.0
 21
-78.0
 31
0.0
  0
LINE
  5
43F4
330
43EF
100
AcDbEntity
  8
AM_0 外形線1
100
AcDbLine
 10
-105.0
 20
-24.86602500000004
 30
0.0
 11
-105.0
 21
-60.13397400000007
 31
0.0
  0
LINE
  5
43F5
330
43EF
100
AcDbEntity
  8
AM_7 中心線
100
AcDbLine
 10
-102.0
 20
-23.0
 30
0.0
 11
-102.0
 21
-62.0
 31
0.0
  0
LWPOLYLINE
  5
43F6
330
43EF
100
AcDbEntity
  8
AM_0 外形線1
100
AcDbPolyline
 90
       73
 70
     0
 43
0.0
 10
-98.44735300000003
 20
-68.40000000000009
 10
-98.74804099999984
 20
-68.42130900000007
 10
-99.04644000000008
 20
-68.48507600000015
 10
-99.34027900000003
 20
-68.59081500000013
 10
-99.6273229999997
 20
-68.73772100000008
 10
-99.90538599999993
 20
-68.92467600000009
 10
-100.1723529999999
 20
-69.15025700000011
 10
-100.4261919999999
 20
-69.41274800000019
 10
-100.6649710000001
 20
-69.71015100000011
 10
-100.886872
 20
-70.04020200000013
 10
-101.0902069999997
 20
-70.40038900000012
 10
-101.2734279999999
 20
-70.78797200000008
 10
-101.4351409999999
 20
-71.20000000000004
 10
-101.5741149999999
 20
-71.6333370000002
 10
-101.6892929999999
 20
-72.08468700000016
 10
-101.7797970000001
 20
-72.5506130000001
 10
-101.8449399999999
 20
-73.02757000000008
 10
-101.8842249999998
 20
-73.51192700000012
 10
-101.8973529999998
 20
-74.0000000000001
 10
-101.8842249999998
 20
-74.4880720000001
 10
-101.8449399999999
 20
-74.97242900000014
 10
-101.7797970000001
 20
-75.44938600000012
 10
-101.6892929999999
 20
-75.9153120000001
 10
-101.5741149999999
 20
-76.36666200000012
 10
-101.4351409999999
 20
-76.8000000000002
 10
-101.2734279999999
 20
-77.21202800000014
 10
-101.0902069999997
 20
-77.5996100000002
 10
-100.886872
 20
-77.95979800000009
 10
-100.6649710000001
 20
-78.28984800000012
 10
-100.4261919999999
 20
-78.58725100000015
 10
-100.1723529999999
 20
-78.84974200000009
 10
-99.90538599999993
 20
-79.07532300000003
 10
-99.6273229999997
 20
-79.26227800000015
 10
-99.34027900000003
 20
-79.40918400000009
 10
-99.04644000000008
 20
-79.51492300000019
 10
-98.74804099999984
 20
-79.57869000000005
 10
-98.44735300000003
 20
-79.60000000000014
 10
-98.14666599999965
 20
-79.57869000000005
 10
-97.84826699999985
 20
-79.51492300000019
 10
-97.55442799999993
 20
-79.40918400000009
 10
-97.26738399999977
 20
-79.26227800000015
 10
-96.98932000000013
 20
-79.07532300000003
 10
-96.72235300000014
 20
-78.84974200000009
 10
-96.46851500000003
 20
-78.58725100000015
 10
-96.22973600000022
 20
-78.28984800000012
 10
-96.00783499999987
 20
-77.95979800000009
 10
-95.80449999999974
 20
-77.5996100000002
 10
-95.62127899999996
 20
-77.21202800000014
 10
-95.45956600000002
 20
-76.8000000000002
 10
-95.32059099999969
 20
-76.36666200000012
 10
-95.20541400000002
 20
-75.9153120000001
 10
-95.11490899999987
 20
-75.44938600000012
 10
-95.04976699999998
 20
-74.97242900000014
 10
-95.01048199999969
 20
-74.4880720000001
 10
-94.99735299999974
 20
-74.0000000000001
 10
-95.01048199999969
 20
-73.51192700000012
 10
-95.04976699999998
 20
-73.02757000000008
 10
-95.11490899999987
 20
-72.5506130000001
 10
-95.20541400000002
 20
-72.08468700000016
 10
-95.32059099999969
 20
-71.6333370000002
 10
-95.45956600000002
 20
-71.20000000000004
 10
-95.62127899999996
 20
-70.78797200000008
 10
-95.80449999999974
 20
-70.40038900000012
 10
-96.00783499999987
 20
-70.04020200000013
 10
-96.22973600000022
 20
-69.71015100000011
 10
-96.46851500000003
 20
-69.41274800000019
 10
-96.72235300000014
 20
-69.15025700000011
 10
-96.98932000000013
 20
-68.92467600000009
 10
-97.26738399999977
 20
-68.73772100000008
 10
-97.55442799999993
 20
-68.59081500000013
 10
-97.84826699999985
 20
-68.48507600000015
 10
-98.14666599999965
 20
-68.42130900000007
 10
-98.44735300000003
 20
-68.40000000000009
  0
LINE
  5
43F7
330
43EF
100
AcDbEntity
  8
AM_0 外形線1
100
AcDbLine
 10
-101.8999999999996
 20
-79.10000000000014
 30
0.0
 11
-101.8999999999996
 21
-68.90000000000009
 31
0.0
  0
LINE
  5
43F8
330
43EF
100
AcDbEntity
  8
AM_0 外形線1
100
AcDbLine
 10
-108.0
 20
-82.0
 30
0.0
 11
-95.0
 21
-82.0
 31
0.0
  0
ARC
  5
43F9
330
43EF
100
AcDbEntity
  8
AM_0 外形線1
100
AcDbCircle
 10
-108.0
 20
-78.0
 30
0.0
 40
4.0
100
AcDbArc
 50
180.0
 51
270.0
  0
ARC
  5
43FA
330
43EF
100
AcDbEntity
  8
AM_0 外形線1
100
AcDbCircle
 10
-101.3999999999996
 20
-79.10000000000014
 30
0.0
 40
0.5
100
AcDbArc
 50
180.0
 51
270.0
  0
LINE
  5
43FB
330
43EF
100
AcDbEntity
  8
AM_0 外形線1
100
AcDbLine
 10
-95.0
 20
-79.60000000000014
 30
0.0
 11
-101.3999999999996
 21
-79.60000000000014
 31
0.0
  0
LINE
  5
43FC
330
43EF
100
AcDbEntity
  8
AM_0 外形線1
100
AcDbLine
 10
-96.5
 20
-82.0
 30
0.0
 11
-96.5
 21
-79.60000000000014
 31
0.0
  0
ARC
  5
43FD
330
43EF
100
AcDbEntity
  8
AM_0 外形線1
100
AcDbCircle
 10
-104.5
 20
-61.0
 30
0.0
 40
1.0
100
AcDbArc
 50
90.0
 51
180.0
  0
ARC
  5
43FE
330
43EF
100
AcDbEntity
  8
AM_0 外形線1
100
AcDbCircle
 10
-104.5
 20
-65.0
 30
0.0
 40
1.0
100
AcDbArc
 50
180.0
 51
270.0
  0
LINE
  5
43FF
330
43EF
100
AcDbEntity
  8
AM_0 外形線1
100
AcDbLine
 10
-105.5
 20
-65.0
 30
0.0
 11
-105.5
 21
-61.0
 31
0.0
  0
LINE
  5
4400
330
43EF
100
AcDbEntity
  8
AM_3 隠れ線
100
AcDbLine
 10
-103.4727969999999
 20
-60.0
 30
0.0
 11
-100.5999999999999
 21
-60.0
 31
0.0
  0
LINE
  5
4401
330
43EF
100
AcDbEntity
  8
AM_3 隠れ線
100
AcDbLine
 10
-100.5999999999999
 20
-60.0
 30
0.0
 11
-99.59999999999993
 21
-59.0
 31
0.0
  0
LINE
  5
4402
330
43EF
100
AcDbEntity
  8
AM_0 外形線1
100
AcDbLine
 10
-103.4727969999999
 20
-60.0
 30
0.0
 11
-104.5
 21
-60.0
 31
0.0
  0
LINE
  5
4403
330
43EF
100
AcDbEntity
  8
AM_0 外形線1
100
AcDbLine
 10
-95.0
 20
-66.0
 30
0.0
 11
-104.5
 21
-66.0
 31
0.0
  0
LINE
  5
4404
330
43EF
100
AcDbEntity
  8
AM_0 外形線1
100
AcDbLine
 10
-96.5
 20
-68.40000000000009
 30
0.0
 11
-96.5
 21
-66.0
 31
0.0
  0
LINE
  5
4405
330
43EF
100
AcDbEntity
  8
AM_0 外形線1
100
AcDbLine
 10
-101.3999999999996
 20
-68.40000000000009
 30
0.0
 11
-95.0
 21
-68.40000000000009
 31
0.0
  0
ARC
  5
4406
330
43EF
100
AcDbEntity
  8
AM_0 外形線1
100
AcDbCircle
 10
-101.3999999999996
 20
-68.90000000000009
 30
0.0
 40
0.5
100
AcDbArc
 50
90.0
 51
180.0
  0
LINE
  5
4407
330
43EF
100
AcDbEntity
  8
AM_4 細線
100
AcDbLine
 10
-130.5999999999999
 20
-17.78475000000003
 30
0.0
 11
-130.5999999999999
 21
-5.215249999999969
 31
0.0
  0
LINE
  5
4408
330
43EF
100
AcDbEntity
  8
AM_0 外形線1
100
AcDbLine
 10
-105.5
 20
-24.0
 30
0.0
 11
-105.5
 21
0.0
 31
0.0
  0
LINE
  5
4409
330
43EF
100
AcDbEntity
  8
AM_0 外形線1
100
AcDbLine
 10
-140.0
 20
-1.0
 30
0.0
 11
-140.0
 21
-20.0
 31
0.0
  0
LINE
  5
440A
330
43EF
100
AcDbEntity
  8
AM_0 外形線1
100
AcDbLine
 10
-105.5
 20
-17.25
 30
0.0
 11
-130.5999999999999
 21
-17.25
 31
0.0
  0
LINE
  5
440B
330
43EF
100
AcDbEntity
  8
AM_0 外形線1
100
AcDbLine
 10
-139.0
 20
-21.0
 30
0.0
 11
-116.0
 21
-21.0
 31
0.0
  0
LINE
  5
440C
330
43EF
100
AcDbEntity
  8
AM_4 細線
100
AcDbLine
 10
-130.5999999999999
 20
-17.78475000000003
 30
0.0
 11
-140.0
 21
-18.07850000000007
 31
0.0
  0
LINE
  5
440D
330
43EF
100
AcDbEntity
  8
AM_0 外形線1
100
AcDbLine
 10
-130.5999999999999
 20
-17.25
 30
0.0
 11
-140.0
 21
-17.54375000000004
 31
0.0
  0
LINE
  5
440E
330
43EF
100
AcDbEntity
  8
AM_0 外形線1
100
AcDbLine
 10
-140.0
 20
-20.0
 30
0.0
 11
-139.0
 21
-21.0
 31
0.0
  0
ARC
  5
440F
330
43EF
100
AcDbEntity
  8
AM_0 外形線1
100
AcDbCircle
 10
-104.5
 20
-24.0
 30
0.0
 40
1.0
100
AcDbArc
 50
180.0
 51
270.0
  0
ARC
  5
4410
330
43EF
100
AcDbEntity
  8
AM_0 外形線1
100
AcDbCircle
 10
-116.0
 20
-25.0
 30
0.0
 40
4.0
100
AcDbArc
 50
0.0
 51
90.0
  0
LINE
  5
4411
330
43EF
100
AcDbEntity
  8
AM_0 外形線1
100
AcDbLine
 10
-100.5999999999999
 20
-25.0
 30
0.0
 11
-104.5
 21
-25.0
 31
0.0
  0
LINE
  5
4412
330
43EF
100
AcDbEntity
  8
AM_0 外形線1
100
AcDbLine
 10
-99.59999999999993
 20
-26.0
 30
0.0
 11
-100.5999999999999
 21
-25.0
 31
0.0
  0
LINE
  5
4413
330
43EF
100
AcDbEntity
  8
AM_0 外形線1
100
AcDbLine
 10
-99.59999999999993
 20
-28.5
 30
0.0
 11
-99.59999999999993
 21
-26.0
 31
0.0
  0
LINE
  5
4414
330
43EF
100
AcDbEntity
  8
AM_0 外形線1
100
AcDbLine
 10
-105.5
 20
-5.75
 30
0.0
 11
-130.5999999999999
 21
-5.75
 31
0.0
  0
LINE
  5
4415
330
43EF
100
AcDbEntity
  8
AM_7 中心線
100
AcDbLine
 10
-103.7964769999998
 20
-11.5
 30
0.0
 11
-143.741242
 21
-11.5
 31
0.0
  0
LINE
  5
4416
330
43EF
100
AcDbEntity
  8
AM_4 細線
100
AcDbLine
 10
-130.5999999999999
 20
-5.215249999999969
 30
0.0
 11
-140.0
 21
-4.921500000000037
 31
0.0
  0
LINE
  5
4417
330
43EF
100
AcDbEntity
  8
AM_0 外形線1
100
AcDbLine
 10
-130.5999999999999
 20
-5.75
 30
0.0
 11
-140.0
 21
-5.456249999999953
 31
0.0
  0
LINE
  5
4418
330
43EF
100
AcDbEntity
  8
AM_0 外形線1
100
AcDbLine
 10
-139.0
 20
0.0
 30
0.0
 11
-140.0
 21
-1.0
 31
0.0
  0
LINE
  5
4419
330
43EF
100
AcDbEntity
  8
AM_0 外形線1
100
AcDbLine
 10
-111.0
 20
-2.200000000000045
 30
0.0
 11
-111.0
 21
0.0
 31
0.0
  0
LWPOLYLINE
  5
441A
330
43EF
100
AcDbEntity
  8
AM_0 外形線1
100
AcDbPolyline
 90
       73
 70
     0
 43
0.0
 10
-111.0
 20
-1.350000000000022
 10
-111.0084669999996
 20
-1.232339000000024
 10
-111.0338029999998
 20
-1.115575000000034
 10
-111.075816
 20
-1.00059400000009
 10
-111.134184
 20
-0.8882730000000265
 10
-111.208466
 20
-0.7794650000000729
 10
-111.2980939999997
 20
-0.6749999999999547
 10
-111.4023870000001
 20
-0.5756720000000543
 10
-111.5205519999999
 20
-0.4822360000000572
 10
-111.6516879999999
 20
-0.3954060000000936
 10
-111.7947979999999
 20
-0.3158399999999801
 10
-111.9487929999996
 20
-0.2441440000000057
 10
-112.1124999999997
 20
-0.1808650000000398
 10
-112.2846749999999
 20
-0.1264840000001186
 10
-112.4640060000001
 20
-0.0814150000001064
 10
-112.649128
 20
-0.0460000000000491
 10
-112.8386329999998
 20
-0.020509000000061
 10
-113.0310789999998
 20
-0.0051370000001043
 10
-113.2249999999999
 20
0.0
 10
-113.4189219999998
 20
-0.0051370000001043
 10
-113.6113679999998
 20
-0.020509000000061
 10
-113.8008730000001
 20
-0.0460000000000491
 10
-113.985995
 20
-0.0814150000001064
 10
-114.1653259999998
 20
-0.1264840000001186
 10
-114.3374999999996
 20
-0.1808650000000398
 10
-114.5012079999996
 20
-0.2441440000000057
 10
-114.6552030000002
 20
-0.3158399999999801
 10
-114.7983129999998
 20
-0.3954060000000936
 10
-114.9294489999997
 20
-0.4822360000000572
 10
-115.047614
 20
-0.5756720000000543
 10
-115.1519069999999
 20
-0.6749999999999547
 10
-115.2415349999996
 20
-0.7794650000000729
 10
-115.3158169999997
 20
-0.8882730000000265
 10
-115.3741849999996
 20
-1.00059400000009
 10
-115.4161979999999
 20
-1.115575000000034
 10
-115.4415339999996
 20
-1.232339000000024
 10
-115.4499999999998
 20
-1.350000000000022
 10
-115.4415339999996
 20
-1.467660000000023
 10
-115.4161979999999
 20
-1.58442500000001
 10
-115.3741849999996
 20
-1.699405000000069
 10
-115.3158169999997
 20
-1.811727000000018
 10
-115.2415349999996
 20
-1.920534000000088
 10
-115.1519069999999
 20
-2.02500000000009
 10
-115.047614
 20
-2.124328000000105
 10
-114.9294489999997
 20
-2.217763000000104
 10
-114.7983129999998
 20
-2.304594000000065
 10
-114.6552030000002
 20
-2.384160000000064
 10
-114.5012079999996
 20
-2.455855000000041
 10
-114.3374999999996
 20
-2.51913400000012
 10
-114.1653259999998
 20
-2.573515000000043
 10
-113.985995
 20
-2.618585000000051
 10
-113.8008730000001
 20
-2.653999999999995
 10
-113.6113679999998
 20
-2.679489999999987
 10
-113.4189219999998
 20
-2.694863000000054
 10
-113.2249999999999
 20
-2.700000000000044
 10
-113.0310789999998
 20
-2.694863000000054
 10
-112.8386329999998
 20
-2.679489999999987
 10
-112.649128
 20
-2.653999999999995
 10
-112.4640060000001
 20
-2.618585000000051
 10
-112.2846749999999
 20
-2.573515000000043
 10
-112.1124999999997
 20
-2.51913400000012
 10
-111.9487929999996
 20
-2.455855000000041
 10
-111.7947979999999
 20
-2.384160000000064
 10
-111.6516879999999
 20
-2.304594000000065
 10
-111.5205519999999
 20
-2.217763000000104
 10
-111.4023870000001
 20
-2.124328000000105
 10
-111.2980939999997
 20
-2.02500000000009
 10
-111.208466
 20
-1.920534000000088
 10
-111.134184
 20
-1.811727000000018
 10
-111.075816
 20
-1.699405000000069
 10
-111.0338029999998
 20
-1.58442500000001
 10
-111.0084669999996
 20
-1.467660000000023
 10
-111.0
 20
-1.350000000000022
  0
LINE
  5
441B
330
43EF
100
AcDbEntity
  8
AM_0 外形線1
100
AcDbLine
 10
-115.4499999999998
 20
-2.200000000000045
 30
0.0
 11
-115.4499999999998
 21
0.0
 31
0.0
  0
ARC
  5
441C
330
43EF
100
AcDbEntity
  8
AM_0 外形線1
100
AcDbCircle
 10
-114.9499999999998
 20
-2.200000000000045
 30
0.0
 40
0.5
100
AcDbArc
 50
180.0
 51
270.0
  0
LINE
  5
441D
330
43EF
100
AcDbEntity
  8
AM_0 外形線1
100
AcDbLine
 10
-111.5
 20
-2.700000000000044
 30
0.0
 11
-114.9499999999998
 21
-2.700000000000044
 31
0.0
  0
ARC
  5
441E
330
43EF
100
AcDbEntity
  8
AM_0 外形線1
100
AcDbCircle
 10
-111.5
 20
-2.200000000000045
 30
0.0
 40
0.5
100
AcDbArc
 50
270.0
 51
0.0
  0
LINE
  5
441F
330
43EF
100
AcDbEntity
  8
AM_7 中心線
100
AcDbLine
 10
128.0
 20
-32.16082800000004
 30
0.0
 11
128.0
 21
42.27545599999984
 31
0.0
  0
LINE
  5
4420
330
43EF
100
AcDbEntity
  8
AM_0 外形線1
100
AcDbLine
 10
0.0
 20
0.0
 30
0.0
 11
139.0
 21
0.0
 31
0.0
  0
LINE
  5
4421
330
43EF
100
AcDbEntity
  8
AM_0 外形線1
100
AcDbLine
 10
108.0
 20
-82.0
 30
0.0
 11
0.0
 21
-82.0
 31
0.0
  0
LINE
  5
4422
330
43EF
100
AcDbEntity
  8
AM_0 外形線1
100
AcDbLine
 10
139.0
 20
-21.0
 30
0.0
 11
0.0
 21
-21.0
 31
0.0
  0
LINE
  5
4423
330
43EF
100
AcDbEntity
  8
AM_0 外形線1
100
AcDbLine
 10
112.0
 20
-25.0
 30
0.0
 11
112.0
 21
-78.0
 31
0.0
  0
ARC
  5
4424
330
43EF
100
AcDbEntity
  8
AM_0 外形線1
100
AcDbCircle
 10
108.0
 20
-78.0
 30
0.0
 40
4.0
100
AcDbArc
 50
270.0
 51
0.0
  0
LINE
  5
4425
330
43EF
100
AcDbEntity
  8
AM_0 外形線1
100
AcDbLine
 10
140.0
 20
-1.0
 30
0.0
 11
140.0
 21
-20.0
 31
0.0
  0
ARC
  5
4426
330
43EF
100
AcDbEntity
  8
AM_0 外形線1
100
AcDbCircle
 10
116.0
 20
-25.0
 30
0.0
 40
4.0
100
AcDbArc
 50
90.0
 51
180.0
  0
LINE
  5
4427
330
43EF
100
AcDbEntity
  8
AM_0 外形線1
100
AcDbLine
 10
140.0
 20
-20.0
 30
0.0
 11
139.0
 21
-21.0
 31
0.0
  0
LINE
  5
4428
330
43EF
100
AcDbEntity
  8
AM_0 外形線1
100
AcDbLine
 10
139.0
 20
0.0
 30
0.0
 11
140.0
 21
-1.0
 31
0.0
  0
LINE
  5
44A4
330
43EF
100
AcDbEntity
  8
AM_0 外形線1
100
AcDbLine
 10
-105.5
 20
0.0
 30
0.0
 11
-111.0
 21
0.0
 31
0.0
  0
LINE
  5
44A5
330
43EF
100
AcDbEntity
  8
AM_0 外形線1
100
AcDbLine
 10
-115.4499999999998
 20
0.0
 30
0.0
 11
-139.0
 21
0.0
 31
0.0
  0
ENDBLK
  5
43F1
330
43EF
100
AcDbEntity
  8
0
100
AcDbBlockEnd
  0
BLOCK
  5
45B8
330
45B7
100
AcDbEntity
  8
0
100
AcDbBlockBegin
  2
ケースＢ SMVH280
 70
     0
 10
0.0
 20
0.0
 30
0.0
  3
ケースＢ SMVH280
  1

  0
ARC
  5
45BA
330
45B7
100
AcDbEntity
  8
AM_0 外形線1
100
AcDbCircle
 10
-116.0
 20
25.0
 30
0.0
 40
4.0
100
AcDbArc
 50
270.0
 51
0.0
  0
ARC
  5
45BB
330
45B7
100
AcDbEntity
  8
AM_0 外形線1
100
AcDbCircle
 10
-104.5
 20
24.0
 30
0.0
 40
1.0
100
AcDbArc
 50
90.0
 51
180.0
  0
LINE
  5
45BC
330
45B7
100
AcDbEntity
  8
AM_7 中心線
100
AcDbLine
 10
-102.0
 20
23.0
 30
0.0
 11
-102.0
 21
62.0
 31
0.0
  0
LINE
  5
45BD
330
45B7
100
AcDbEntity
  8
AM_0 外形線1
100
AcDbLine
 10
-105.5
 20
17.25
 30
0.0
 11
-130.5999999999999
 21
17.25
 31
0.0
  0
LINE
  5
45BE
330
45B7
100
AcDbEntity
  8
AM_0 外形線1
100
AcDbLine
 10
-105.5
 20
5.75
 30
0.0
 11
-130.5999999999999
 21
5.75
 31
0.0
  0
LINE
  5
45BF
330
45B7
100
AcDbEntity
  8
AM_7 中心線
100
AcDbLine
 10
-103.5474370000001
 20
11.5
 30
0.0
 11
-143.266106
 21
11.5
 31
0.0
  0
LINE
  5
45C0
330
45B7
100
AcDbEntity
  8
AM_0 外形線1
100
AcDbLine
 10
-111.5
 20
0.0
 30
0.0
 11
-139.0
 21
0.0
 31
0.0
  0
LINE
  5
45C1
330
45B7
100
AcDbEntity
  8
AM_0 外形線1
100
AcDbLine
 10
-139.0
 20
21.0
 30
0.0
 11
-116.0
 21
21.0
 31
0.0
  0
LINE
  5
45C2
330
45B7
100
AcDbEntity
  8
AM_0 外形線1
100
AcDbLine
 10
-140.0
 20
1.0
 30
0.0
 11
-140.0
 21
20.0
 31
0.0
  0
LINE
  5
45C3
330
45B7
100
AcDbEntity
  8
AM_0 外形線1
100
AcDbLine
 10
-139.0
 20
0.0
 30
0.0
 11
-140.0
 21
1.0
 31
0.0
  0
LINE
  5
45C4
330
45B7
100
AcDbEntity
  8
AM_4 細線
100
AcDbLine
 10
-130.5999999999999
 20
17.78475000000003
 30
0.0
 11
-140.0
 21
18.07849999999996
 31
0.0
  0
LINE
  5
45C5
330
45B7
100
AcDbEntity
  8
AM_0 外形線1
100
AcDbLine
 10
-130.5999999999999
 20
17.25
 30
0.0
 11
-140.0
 21
17.54375000000004
 31
0.0
  0
LINE
  5
45C6
330
45B7
100
AcDbEntity
  8
AM_0 外形線1
100
AcDbLine
 10
-130.5999999999999
 20
5.215249999999969
 30
0.0
 11
-140.0
 21
4.921499999999922
 31
0.0
  0
LINE
  5
45C7
330
45B7
100
AcDbEntity
  8
AM_0 外形線1
100
AcDbLine
 10
-130.5999999999999
 20
5.75
 30
0.0
 11
-140.0
 21
5.456249999999953
 31
0.0
  0
LINE
  5
45C8
330
45B7
100
AcDbEntity
  8
AM_0 外形線1
100
AcDbLine
 10
-140.0
 20
20.0
 30
0.0
 11
-139.0
 21
21.0
 31
0.0
  0
LINE
  5
45C9
330
45B7
100
AcDbEntity
  8
AM_4 細線
100
AcDbLine
 10
-130.5999999999999
 20
17.78475000000003
 30
0.0
 11
-130.5999999999999
 21
5.215249999999969
 31
0.0
  0
LINE
  5
45CA
330
45B7
100
AcDbEntity
  8
AM_0 外形線1
100
AcDbLine
 10
-111.0
 20
0.5
 30
0.0
 11
-111.5
 21
0.0
 31
0.0
  0
LINE
  5
45CB
330
45B7
100
AcDbEntity
  8
AM_0 外形線1
100
AcDbLine
 10
-105.5
 20
24.0
 30
0.0
 11
-105.5
 21
5.0
 31
0.0
  0
LINE
  5
45CC
330
45B7
100
AcDbEntity
  8
AM_3 隠れ線
100
AcDbLine
 10
-105.5
 20
65.0
 30
0.0
 11
-105.5
 21
61.0
 31
0.0
  0
LINE
  5
45CD
330
45B7
100
AcDbEntity
  8
AM_0 外形線1
100
AcDbLine
 10
-112.0
 20
25.0
 30
0.0
 11
-112.0
 21
56.5
 31
0.0
  0
LINE
  5
45CE
330
45B7
100
AcDbEntity
  8
AM_3 隠れ線
100
AcDbLine
 10
-99.59999999999993
 20
59.0
 30
0.0
 11
-99.59999999999993
 21
28.5
 31
0.0
  0
LINE
  5
45CF
330
45B7
100
AcDbEntity
  8
AM_0 外形線1
100
AcDbLine
 10
-105.0
 20
24.86602599999992
 30
0.0
 11
-105.0
 21
60.13397499999996
 31
0.0
  0
LINE
  5
45D0
330
45B7
100
AcDbEntity
  8
AM_0 外形線1
100
AcDbLine
 10
-100.5999999999999
 20
25.0
 30
0.0
 11
-104.5
 21
25.0
 31
0.0
  0
LINE
  5
45D1
330
45B7
100
AcDbEntity
  8
AM_0 外形線1
100
AcDbLine
 10
-99.59999999999993
 20
26.0
 30
0.0
 11
-100.5999999999999
 21
25.0
 31
0.0
  0
LINE
  5
45D2
330
45B7
100
AcDbEntity
  8
AM_0 外形線1
100
AcDbLine
 10
-99.59999999999993
 20
28.5
 30
0.0
 11
-99.59999999999993
 21
26.0
 31
0.0
  0
ARC
  5
45D3
330
45B7
100
AcDbEntity
  8
AM_3 隠れ線
100
AcDbCircle
 10
-104.5
 20
61.0
 30
0.0
 40
1.0
100
AcDbArc
 50
180.0
 51
270.0
  0
LINE
  5
45D4
330
45B7
100
AcDbEntity
  8
AM_3 隠れ線
100
AcDbLine
 10
-100.5999999999999
 20
60.0
 30
0.0
 11
-99.59999999999993
 21
59.0
 31
0.0
  0
LINE
  5
45D5
330
45B7
100
AcDbEntity
  8
AM_3 隠れ線
100
AcDbLine
 10
-103.4727969999999
 20
60.0
 30
0.0
 11
-100.5999999999999
 21
60.0
 31
0.0
  0
LINE
  5
45D6
330
45B7
100
AcDbEntity
  8
AM_0 外形線1
100
AcDbLine
 10
-103.4727969999999
 20
60.0
 30
0.0
 11
-104.5
 21
60.0
 31
0.0
  0
ARC
  5
45D7
330
45B7
100
AcDbEntity
  8
AM_3 隠れ線
100
AcDbCircle
 10
-104.5
 20
65.0
 30
0.0
 40
1.0
100
AcDbArc
 50
90.0
 51
180.0
  0
LINE
  5
45D8
330
45B7
100
AcDbEntity
  8
AM_0 外形線1
100
AcDbLine
 10
-108.0
 20
82.0
 30
0.0
 11
-95.0
 21
82.0
 31
0.0
  0
ARC
  5
45D9
330
45B7
100
AcDbEntity
  8
AM_0 外形線1
100
AcDbCircle
 10
-108.0
 20
78.0
 30
0.0
 40
4.0
100
AcDbArc
 50
90.0
 51
180.0
  0
LWPOLYLINE
  5
45DA
330
45B7
100
AcDbEntity
  8
AM_0 外形線1
100
AcDbPolyline
 90
       73
 70
     0
 43
0.0
 10
-98.44735300000003
 20
68.36485900000003
 10
-98.14666599999965
 20
68.38616900000011
 10
-97.84826699999985
 20
68.44993599999998
 10
-97.55442799999993
 20
68.55567399999995
 10
-97.26738399999977
 20
68.70257999999989
 10
-96.98932000000013
 20
68.88953500000003
 10
-96.72235300000014
 20
69.11511700000005
 10
-96.46851500000003
 20
69.37760800000001
 10
-96.22973600000022
 20
69.67500999999993
 10
-96.00783499999987
 20
70.00506100000007
 10
-95.80449999999974
 20
70.36524800000006
 10
-95.62127899999996
 20
70.75283100000001
 10
-95.45956600000002
 20
71.16485899999998
 10
-95.32059099999969
 20
71.59819700000003
 10
-95.20541400000002
 20
72.04954599999997
 10
-95.11490899999987
 20
72.51547200000004
 10
-95.04976699999998
 20
72.9924289999999
 10
-95.01048199999969
 20
73.47678700000007
 10
-94.99735299999974
 20
73.96485899999993
 10
-95.01048199999969
 20
74.45293100000005
 10
-95.04976699999998
 20
74.93728899999997
 10
-95.11490899999987
 20
75.41424600000005
 10
-95.20541400000002
 20
75.8801719999999
 10
-95.32059099999969
 20
76.33152100000007
 10
-95.45956600000002
 20
76.76485899999987
 10
-95.62127899999996
 20
77.17688700000008
 10
-95.80449999999974
 20
77.56447000000003
 10
-96.00783499999987
 20
77.92465700000002
 10
-96.22973600000022
 20
78.25470799999994
 10
-96.46851500000003
 20
78.55211099999997
 10
-96.72235300000014
 20
78.81460100000005
 10
-96.98932000000013
 20
79.04018300000007
 10
-97.26738399999977
 20
79.22713799999995
 10
-97.55442799999993
 20
79.3740439999999
 10
-97.84826699999985
 20
79.4797819999999
 10
-98.14666599999965
 20
79.54354899999998
 10
-98.44735300000003
 20
79.56485900000007
 10
-98.74804099999984
 20
79.54354899999998
 10
-99.04644000000008
 20
79.4797819999999
 10
-99.34027900000003
 20
79.3740439999999
 10
-99.6273229999997
 20
79.22713799999995
 10
-99.90538599999993
 20
79.04018300000007
 10
-100.1723529999999
 20
78.81460100000005
 10
-100.4261919999999
 20
78.55211099999997
 10
-100.6649710000001
 20
78.25470799999994
 10
-100.886872
 20
77.92465700000002
 10
-101.0902069999997
 20
77.56447000000003
 10
-101.2734279999999
 20
77.17688700000008
 10
-101.4351409999999
 20
76.76485899999987
 10
-101.5741149999999
 20
76.33152100000007
 10
-101.6892929999999
 20
75.8801719999999
 10
-101.7797970000001
 20
75.41424600000005
 10
-101.8449399999999
 20
74.93728899999997
 10
-101.8842249999998
 20
74.45293100000005
 10
-101.8973529999998
 20
73.96485899999993
 10
-101.8842249999998
 20
73.47678700000007
 10
-101.8449399999999
 20
72.9924289999999
 10
-101.7797970000001
 20
72.51547200000004
 10
-101.6892929999999
 20
72.04954599999997
 10
-101.5741149999999
 20
71.59819700000003
 10
-101.4351409999999
 20
71.16485899999998
 10
-101.2734279999999
 20
70.75283100000001
 10
-101.0902069999997
 20
70.36524800000006
 10
-100.886872
 20
70.00506100000007
 10
-100.6649710000001
 20
69.67500999999993
 10
-100.4261919999999
 20
69.37760800000001
 10
-100.1723529999999
 20
69.11511700000005
 10
-99.90538599999993
 20
68.88953500000003
 10
-99.6273229999997
 20
68.70257999999989
 10
-99.34027900000003
 20
68.55567399999995
 10
-99.04644000000008
 20
68.44993599999998
 10
-98.74804099999984
 20
68.38616900000011
 10
-98.44735300000003
 20
68.36485900000003
  0
LINE
  5
45DB
330
45B7
100
AcDbEntity
  8
AM_0 外形線1
100
AcDbLine
 10
-95.0
 20
66.0
 30
0.0
 11
-104.5
 21
66.0
 31
0.0
  0
LINE
  5
45DC
330
45B7
100
AcDbEntity
  8
AM_0 外形線1
100
AcDbLine
 10
-96.5
 20
68.40000000000009
 30
0.0
 11
-96.5
 21
66.0
 31
0.0
  0
LINE
  5
45DD
330
45B7
100
AcDbEntity
  8
AM_0 外形線1
100
AcDbLine
 10
-101.3999999999996
 20
68.40000000000009
 30
0.0
 11
-95.0
 21
68.40000000000009
 31
0.0
  0
ARC
  5
45DE
330
45B7
100
AcDbEntity
  8
AM_0 外形線1
100
AcDbCircle
 10
-101.3999999999996
 20
68.90000000000009
 30
0.0
 40
0.5
100
AcDbArc
 50
180.0
 51
270.0
  0
LINE
  5
45DF
330
45B7
100
AcDbEntity
  8
AM_0 外形線1
100
AcDbLine
 10
-101.8999999999996
 20
79.09999999999991
 30
0.0
 11
-101.8999999999996
 21
68.90000000000009
 31
0.0
  0
ARC
  5
45E0
330
45B7
100
AcDbEntity
  8
AM_0 外形線1
100
AcDbCircle
 10
-101.3999999999996
 20
79.09999999999991
 30
0.0
 40
0.5
100
AcDbArc
 50
90.0
 51
180.0
  0
LINE
  5
45E1
330
45B7
100
AcDbEntity
  8
AM_0 外形線1
100
AcDbLine
 10
-95.0
 20
79.59999999999991
 30
0.0
 11
-101.3999999999996
 21
79.59999999999991
 31
0.0
  0
LINE
  5
45E2
330
45B7
100
AcDbEntity
  8
AM_0 外形線1
100
AcDbLine
 10
-96.5
 20
82.0
 30
0.0
 11
-96.5
 21
79.59999999999991
 31
0.0
  0
ARC
  5
45E3
330
45B7
100
AcDbEntity
  8
AM_0 外形線1
100
AcDbCircle
 10
116.0
 20
25.0
 30
0.0
 40
4.0
100
AcDbArc
 50
180.0
 51
270.0
  0
LINE
  5
45E4
330
45B7
100
AcDbEntity
  8
AM_0 外形線1
100
AcDbLine
 10
139.0
 20
21.0
 30
0.0
 11
0.0
 21
21.0
 31
0.0
  0
LINE
  5
45E5
330
45B7
100
AcDbEntity
  8
AM_0 外形線1
100
AcDbLine
 10
140.0
 20
1.0
 30
0.0
 11
140.0
 21
20.0
 31
0.0
  0
LINE
  5
45E6
330
45B7
100
AcDbEntity
  8
AM_0 外形線1
100
AcDbLine
 10
139.0
 20
0.0
 30
0.0
 11
140.0
 21
1.0
 31
0.0
  0
LINE
  5
45E7
330
45B7
100
AcDbEntity
  8
AM_0 外形線1
100
AcDbLine
 10
140.0
 20
20.0
 30
0.0
 11
139.0
 21
21.0
 31
0.0
  0
LINE
  5
45E8
330
45B7
100
AcDbEntity
  8
AM_0 外形線1
100
AcDbLine
 10
108.0
 20
82.0
 30
0.0
 11
0.0
 21
82.0
 31
0.0
  0
LINE
  5
45E9
330
45B7
100
AcDbEntity
  8
AM_0 外形線1
100
AcDbLine
 10
112.0
 20
25.0
 30
0.0
 11
112.0
 21
78.0
 31
0.0
  0
ARC
  5
45EA
330
45B7
100
AcDbEntity
  8
AM_0 外形線1
100
AcDbCircle
 10
108.0
 20
78.0
 30
0.0
 40
4.0
100
AcDbArc
 50
0.0
 51
90.0
  0
LINE
  5
45EB
330
45B7
100
AcDbEntity
  8
AM_0 外形線1
100
AcDbLine
 10
-95.0
 20
66.0
 30
0.0
 11
-112.1999999999998
 21
66.0
 31
0.0
  0
LINE
  5
45EC
330
45B7
100
AcDbEntity
  8
AM_0 外形線1
100
AcDbLine
 10
-103.9606739999999
 20
60.0
 30
0.0
 11
-112.1999999999998
 21
60.0
 31
0.0
  0
LINE
  5
45ED
330
45B7
100
AcDbEntity
  8
AM_0 外形線1
100
AcDbLine
 10
-111.1999999999998
 20
66.0
 30
0.0
 11
-111.1999999999998
 21
70.0
 31
0.0
  0
LINE
  5
45EE
330
45B7
100
AcDbEntity
  8
AM_0 外形線1
100
AcDbLine
 10
-112.0
 20
70.0
 30
0.0
 11
-111.1999999999998
 21
70.0
 31
0.0
  0
LINE
  5
45EF
330
45B7
100
AcDbEntity
  8
AM_0 外形線1
100
AcDbLine
 10
-111.1999999999998
 20
56.0
 30
0.0
 11
-111.1999999999998
 21
60.0
 31
0.0
  0
LINE
  5
45F0
330
45B7
100
AcDbEntity
  8
AM_0 外形線1
100
AcDbLine
 10
-112.0
 20
56.0
 30
0.0
 11
-111.1999999999998
 21
56.0
 31
0.0
  0
LINE
  5
45F1
330
45B7
100
AcDbEntity
  8
AM_0 外形線1
100
AcDbLine
 10
-112.0
 20
69.5
 30
0.0
 11
-112.0
 21
78.0
 31
0.0
  0
INSERT
  5
45F2
330
45B7
100
AcDbEntity
  8
AM_0 外形線1
100
AcDbBlockReference
  2
ジュウジマルコネジ
 10
-112.1999999999998
 20
63.0
 30
0.0
  0
LINE
  5
466D
330
45B7
100
AcDbEntity
  8
AM_0 外形線1
100
AcDbLine
 10
139.0
 20
0.0
 30
0.0
 11
0.0
 21
0.0
 31
0.0
  0
LINE
  5
466E
330
45B7
100
AcDbEntity
  8
AM_0 外形線1
100
AcDbLine
 10
-111.0
 20
0.5
 30
0.0
 11
-111.0
 21
5.0
 31
0.0
  0
LINE
  5
466F
330
45B7
100
AcDbEntity
  8
AM_0 外形線1
100
AcDbLine
 10
-111.0
 20
5.0
 30
0.0
 11
-105.5
 21
5.0
 31
0.0
  0
ENDBLK
  5
45B9
330
45B7
100
AcDbEntity
  8
0
100
AcDbBlockEnd
  0
BLOCK
  5
46BE
330
46BD
100
AcDbEntity
  8
0
100
AcDbBlockBegin
  2
リーマボルト SMVH280 M12
 70
     0
 10
0.0
 20
0.0
 30
0.0
  3
リーマボルト SMVH280 M12
  1

  0
LINE
  5
46C0
330
46BD
100
AcDbEntity
  8
AM_0 外形線1
100
AcDbLine
 10
5.484827000000223
 20
45.0
 30
0.0
 11
5.484827000000223
 21
54.16284199999996
 31
0.0
  0
LINE
  5
46C1
330
46BD
100
AcDbEntity
  8
AM_0 外形線1
100
AcDbLine
 10
-5.484827999999652
 20
45.0
 30
0.0
 11
-5.484827999999652
 21
54.16284199999996
 31
0.0
  0
LINE
  5
46C2
330
46BD
100
AcDbEntity
  8
AM_0 外形線1
100
AcDbLine
 10
10.94999999999981
 20
54.16284199999996
 30
0.0
 11
10.94999999999981
 21
45.0
 31
0.0
  0
LINE
  5
46C3
330
46BD
100
AcDbEntity
  8
AM_0 外形線1
100
AcDbLine
 10
-10.94999999999981
 20
45.0
 30
0.0
 11
-10.94999999999981
 21
54.16284199999996
 31
0.0
  0
ARC
  5
46C4
330
46BD
100
AcDbEntity
  8
AM_0 外形線1
100
AcDbCircle
 10
0.0
 20
10.38611799999989
 30
0.0
 40
18.386117
100
AcDbArc
 50
252.6436620000027
 51
287.3563379999973
  0
LINE
  5
46C5
330
46BD
100
AcDbEntity
  8
AM_0 外形線1
100
AcDbLine
 10
-9.5
 20
-8.0
 30
0.0
 11
9.5
 21
-8.0
 31
0.0
  0
ARC
  5
46C6
330
46BD
100
AcDbEntity
  8
AM_0 外形線1
100
AcDbCircle
 10
-8.217413999999735
 20
-3.121671999999988
 30
0.0
 40
4.878327999999998
100
AcDbArc
 50
235.9339549999888
 51
304.0660450000112
  0
LINE
  5
46C7
330
46BD
100
AcDbEntity
  8
AM_0 外形線1
100
AcDbLine
 10
-5.484827999999652
 20
0.0
 30
0.0
 11
-5.484827999999652
 21
-7.162842000000067
 31
0.0
  0
LINE
  5
46C8
330
46BD
100
AcDbEntity
  8
AM_0 外形線1
100
AcDbLine
 10
-10.94999999999981
 20
-7.162842000000067
 30
0.0
 11
-9.5
 21
-8.0
 31
0.0
  0
LINE
  5
46C9
330
46BD
100
AcDbEntity
  8
AM_0 外形線1
100
AcDbLine
 10
-10.94999999999981
 20
0.0
 30
0.0
 11
-10.94999999999981
 21
-7.162842000000067
 31
0.0
  0
ARC
  5
46CA
330
46BD
100
AcDbEntity
  8
AM_0 外形線1
100
AcDbCircle
 10
8.217413000000306
 20
-3.121671999999988
 30
0.0
 40
4.878327999999998
100
AcDbArc
 50
235.9339549999888
 51
304.0660450000112
  0
LINE
  5
46CB
330
46BD
100
AcDbEntity
  8
AM_0 外形線1
100
AcDbLine
 10
5.484827000000223
 20
0.0
 30
0.0
 11
5.484827000000223
 21
-7.162842000000067
 31
0.0
  0
LINE
  5
46CC
330
46BD
100
AcDbEntity
  8
AM_0 外形線1
100
AcDbLine
 10
10.94999999999981
 20
-7.162842000000067
 30
0.0
 11
10.94999999999981
 21
0.0
 31
0.0
  0
LINE
  5
46CD
330
46BD
100
AcDbEntity
  8
AM_0 外形線1
100
AcDbLine
 10
9.5
 20
-8.0
 30
0.0
 11
10.94999999999981
 21
-7.162842000000067
 31
0.0
  0
LINE
  5
46CE
330
46BD
100
AcDbEntity
  8
AM_0 外形線1
100
AcDbLine
 10
-2.0
 20
45.0
 30
0.0
 11
1.0
 21
42.0
 31
0.0
  0
LINE
  5
46CF
330
46BD
100
AcDbEntity
  8
AM_0 外形線1
100
AcDbLine
 10
10.94999999999981
 20
45.0
 30
0.0
 11
-10.94999999999981
 21
45.0
 31
0.0
  0
LINE
  5
46D0
330
46BD
100
AcDbEntity
  8
AM_0 外形線1
100
AcDbLine
 10
-10.75
 20
45.0
 30
0.0
 11
-10.75
 21
42.0
 31
0.0
  0
LINE
  5
46D1
330
46BD
100
AcDbEntity
  8
AM_0 外形線1
100
AcDbLine
 10
-1.0
 20
45.0
 30
0.0
 11
2.0
 21
42.0
 31
0.0
  0
LINE
  5
46D2
330
46BD
100
AcDbEntity
  8
AM_0 外形線1
100
AcDbLine
 10
10.75
 20
42.0
 30
0.0
 11
10.75
 21
45.0
 31
0.0
  0
LINE
  5
46D3
330
46BD
100
AcDbEntity
  8
AM_0 外形線1
100
AcDbLine
 10
-6.0
 20
58.0
 30
0.0
 11
6.0
 21
58.0
 31
0.0
  0
LINE
  5
46D4
330
46BD
100
AcDbEntity
  8
AM_0 外形線1
100
AcDbLine
 10
-4.0
 20
60.0
 30
0.0
 11
4.0
 21
60.0
 31
0.0
  0
ARC
  5
46D5
330
46BD
100
AcDbEntity
  8
AM_0 外形線1
100
AcDbCircle
 10
0.0
 20
36.61388299999999
 30
0.0
 40
18.386117
100
AcDbArc
 50
72.64366200000266
 51
107.3563379999973
  0
LINE
  5
46D6
330
46BD
100
AcDbEntity
  8
AM_0 外形線1
100
AcDbLine
 10
-9.5
 20
55.0
 30
0.0
 11
9.5
 21
55.0
 31
0.0
  0
LINE
  5
46D7
330
46BD
100
AcDbEntity
  8
AM_4 細線
100
AcDbLine
 10
-5.125
 20
55.0
 30
0.0
 11
-5.125
 21
58.875
 31
0.0
  0
LINE
  5
46D8
330
46BD
100
AcDbEntity
  8
AM_0 外形線1
100
AcDbLine
 10
-6.0
 20
58.0
 30
0.0
 11
-4.0
 21
60.0
 31
0.0
  0
LINE
  5
46D9
330
46BD
100
AcDbEntity
  8
AM_0 外形線1
100
AcDbLine
 10
-6.0
 20
55.0
 30
0.0
 11
-6.0
 21
58.0
 31
0.0
  0
ARC
  5
46DA
330
46BD
100
AcDbEntity
  8
AM_0 外形線1
100
AcDbCircle
 10
-8.217413999999735
 20
50.12167299999997
 30
0.0
 40
4.878327999999998
100
AcDbArc
 50
55.93395499998884
 51
124.0660450000111
  0
LINE
  5
46DB
330
46BD
100
AcDbEntity
  8
AM_0 外形線1
100
AcDbLine
 10
-10.94999999999981
 20
54.16284199999996
 30
0.0
 11
-9.5
 21
55.0
 31
0.0
  0
LINE
  5
46DC
330
46BD
100
AcDbEntity
  8
AM_4 細線
100
AcDbLine
 10
5.125
 20
55.0
 30
0.0
 11
5.125
 21
58.875
 31
0.0
  0
LINE
  5
46DD
330
46BD
100
AcDbEntity
  8
AM_0 外形線1
100
AcDbLine
 10
6.0
 20
58.0
 30
0.0
 11
6.0
 21
55.0
 31
0.0
  0
LINE
  5
46DE
330
46BD
100
AcDbEntity
  8
AM_0 外形線1
100
AcDbLine
 10
4.0
 20
60.0
 30
0.0
 11
6.0
 21
58.0
 31
0.0
  0
ARC
  5
46DF
330
46BD
100
AcDbEntity
  8
AM_0 外形線1
100
AcDbCircle
 10
8.217413000000306
 20
50.12167299999997
 30
0.0
 40
4.878327999999998
100
AcDbArc
 50
55.93395499998884
 51
124.0660450000111
  0
LINE
  5
46E0
330
46BD
100
AcDbEntity
  8
AM_0 外形線1
100
AcDbLine
 10
9.5
 20
55.0
 30
0.0
 11
10.94999999999981
 21
54.16284199999996
 31
0.0
  0
LINE
  5
4725
330
46BD
100
AcDbEntity
  8
AM_0 外形線1
100
AcDbLine
 10
10.94999999999981
 20
0.0
 30
0.0
 11
-10.94999999999981
 21
0.0
 31
0.0
  0
LINE
  5
4726
330
46BD
100
AcDbEntity
  8
AM_0 外形線1
100
AcDbLine
 10
-10.75
 20
42.0
 30
0.0
 11
10.75
 21
42.0
 31
0.0
  0
ENDBLK
  5
46BF
330
46BD
100
AcDbEntity
  8
0
100
AcDbBlockEnd
  0
BLOCK
  5
474A
330
4749
100
AcDbEntity
  8
0
100
AcDbBlockBegin
  2
スラストプレ－ト SMVH280
 70
     0
 10
0.0
 20
0.0
 30
0.0
  3
スラストプレ－ト SMVH280
  1

  0
LINE
  5
474C
330
4749
100
AcDbEntity
  8
AM_0 外形線1
100
AcDbLine
 10
-99.50000000000001
 20
12.0
 30
0.0
 11
-111.0
 21
12.0
 31
0.0
  0
LINE
  5
474D
330
4749
100
AcDbEntity
  8
AM_0 外形線1
100
AcDbLine
 10
-111.0
 20
7.0
 30
0.0
 11
-105.0
 21
7.0
 31
0.0
  0
LINE
  5
474E
330
4749
100
AcDbEntity
  8
AM_0 外形線1
100
AcDbLine
 10
-105.0
 20
2.0
 30
0.0
 11
-105.0
 21
7.0
 31
0.0
  0
LINE
  5
474F
330
4749
100
AcDbEntity
  8
AM_0 外形線1
100
AcDbLine
 10
-89.50000000000001
 20
2.0
 30
0.0
 11
-105.0
 21
2.0
 31
0.0
  0
LINE
  5
4750
330
4749
100
AcDbEntity
  8
AM_0 外形線1
100
AcDbLine
 10
-99.50000000000001
 20
9.5
 30
0.0
 11
-99.50000000000001
 21
12.0
 31
0.0
  0
LINE
  5
4751
330
4749
100
AcDbEntity
  8
AM_0 外形線1
100
AcDbLine
 10
0.0
 20
9.5
 30
0.0
 11
-99.50000000000001
 21
9.5
 31
0.0
  0
LINE
  5
4752
330
4749
100
AcDbEntity
  8
AM_0 外形線1
100
AcDbLine
 10
0.0
 20
1.0
 30
0.0
 11
-79.5
 21
1.0
 31
0.0
  0
LINE
  5
4753
330
4749
100
AcDbEntity
  8
AM_0 外形線1
100
AcDbLine
 10
-79.5
 20
0.0000000000001137
 30
0.0
 11
-79.5
 21
1.0
 31
0.0
  0
ARC
  5
4754
330
4749
100
AcDbEntity
  8
AM_0 外形線1
100
AcDbCircle
 10
-87.5
 20
2.000000000000226
 30
0.0
 40
2.0
100
AcDbArc
 50
180.0
 51
270.0
  0
LINE
  5
476E
330
4749
100
AcDbEntity
  8
AM_0 外形線1
100
AcDbLine
 10
-87.5
 20
0.0
 30
0.0
 11
-79.5
 21
0.0000000000001137
 31
0.0
  0
LINE
  5
476F
330
4749
100
AcDbEntity
  8
AM_0 外形線1
100
AcDbLine
 10
-111.0
 20
7.0
 30
0.0
 11
-111.0
 21
12.0
 31
0.0
  0
ENDBLK
  5
474B
330
4749
100
AcDbEntity
  8
0
100
AcDbBlockEnd
  0
BLOCK
  5
4779
330
4778
100
AcDbEntity
  8
0
100
AcDbBlockBegin
  2
*D13
 70
     1
 10
0.0
 20
0.0
 30
0.0
  3
*D13
  1

  0
LINE
  5
4AC0
330
4778
100
AcDbEntity
  8
AM_5 寸法線
 62
     3
100
AcDbLine
 10
556.8150471999996
 20
460.9275978405229
 30
0.0
 11
556.8150471999996
 21
339.4275978405229
 31
0.0
  0
LINE
  5
4AC1
330
4778
100
AcDbEntity
  8
AM_5 寸法線
 62
     3
100
AcDbLine
 10
746.8150471999996
 20
460.9275978405229
 30
0.0
 11
746.8150471999996
 21
339.4275978405229
 31
0.0
  0
LINE
  5
4AC2
330
4778
100
AcDbEntity
  8
AM_5 寸法線
 62
     3
100
AcDbLine
 10
564.3150471999997
 20
341.3025978405229
 30
0.0
 11
739.3150471999996
 21
341.3025978405229
 31
0.0
  0
INSERT
  5
4AC3
330
4778
100
AcDbEntity
  8
AM_5 寸法線
 62
     3
100
AcDbBlockReference
  2
_Open30
 10
556.8150471999996
 20
341.3025978405229
 30
0.0
 41
7.5
 42
7.5
 43
7.5
 50
180.0
  0
INSERT
  5
4AC4
330
4778
100
AcDbEntity
  8
AM_5 寸法線
 62
     3
100
AcDbBlockReference
  2
_Open30
 10
746.8150471999996
 20
341.3025978405229
 30
0.0
 41
7.5
 42
7.5
 43
7.5
  0
MTEXT
  5
4AC5
330
4778
100
AcDbEntity
  8
AM_5 寸法線
 62
     3
100
AcDbMText
 10
651.8150471999997
 20
351.052597840523
 30
0.0
 40
10.5
 41
0.0
 46
0.0
 71
     5
 72
     1
  1
%%c190
  7
SEISA
 73
     1
 44
1.0
  0
POINT
  5
4AC6
330
4778
100
AcDbEntity
  8
Defpoints
 62
     0
100
AcDbPoint
 10
556.8150471999996
 20
462.8025978405229
 30
0.0
  0
POINT
  5
4AC7
330
4778
100
AcDbEntity
  8
Defpoints
 62
     0
100
AcDbPoint
 10
746.8150471999996
 20
462.8025978405229
 30
0.0
  0
POINT
  5
4AC8
330
4778
100
AcDbEntity
  8
Defpoints
 62
     0
100
AcDbPoint
 10
746.8150471999996
 20
341.3025978405229
 30
0.0
  0
ENDBLK
  5
477A
330
4778
100
AcDbEntity
  8
0
100
AcDbBlockEnd
  0
BLOCK
  5
47A7
330
47A6
100
AcDbEntity
  8
0
100
AcDbBlockBegin
  2
*D14
 70
     1
 10
0.0
 20
0.0
 30
0.0
  3
*D14
  1

  0
LINE
  5
51F3
330
47A6
100
AcDbEntity
  8
AM_5 寸法線
 62
     3
100
AcDbLine
 10
792.6400471999995
 20
542.302597840523
 30
0.0
 11
838.6900472
 21
542.302597840523
 31
0.0
  0
LINE
  5
51F4
330
47A6
100
AcDbEntity
  8
AM_5 寸法線
 62
     3
100
AcDbLine
 10
792.6400471999995
 20
563.302597840523
 30
0.0
 11
838.6900472
 21
563.302597840523
 31
0.0
  0
LINE
  5
51F5
330
47A6
100
AcDbEntity
  8
AM_5 寸法線
 62
     3
100
AcDbLine
 10
836.8150472000001
 20
570.802597840523
 30
0.0
 11
836.8150472000001
 21
578.302597840523
 31
0.0
  0
LINE
  5
51F6
330
47A6
100
AcDbEntity
  8
AM_5 寸法線
 62
     3
100
AcDbLine
 10
836.8150472000001
 20
534.802597840523
 30
0.0
 11
836.8150472000001
 21
505.702597840523
 31
0.0
  0
LINE
  5
51F7
330
47A6
100
AcDbEntity
  8
AM_5 寸法線
 62
     3
100
AcDbLine
 10
836.8150472000001
 20
563.302597840523
 30
0.0
 11
836.8150472000001
 21
542.302597840523
 31
0.0
  0
INSERT
  5
51F8
330
47A6
100
AcDbEntity
  8
AM_5 寸法線
 62
     3
100
AcDbBlockReference
  2
GENDOT
 10
836.8150472000001
 20
563.302597840523
 30
0.0
 41
7.5
 42
7.5
 43
7.5
 50
270.0
  0
INSERT
  5
51F9
330
47A6
100
AcDbEntity
  8
AM_5 寸法線
 62
     3
100
AcDbBlockReference
  2
_Open30
 10
836.8150472000001
 20
542.302597840523
 30
0.0
 41
7.5
 42
7.5
 43
7.5
 50
90.0
  0
MTEXT
  5
51FA
330
47A6
100
AcDbEntity
  8
AM_5 寸法線
 62
     3
100
AcDbMText
 10
827.0650471999998
 20
516.5025978405233
 30
0.0
 40
10.5
 41
0.0
 46
0.0
 71
     5
 72
     1
  1
21
  7
SEISA
 11
0.0000000000000001
 21
1.0
 31
0.0
 73
     1
 44
1.0
  0
POINT
  5
51FB
330
47A6
100
AcDbEntity
  8
Defpoints
 62
     0
100
AcDbPoint
 10
790.7650471999995
 20
542.302597840523
 30
0.0
  0
POINT
  5
51FC
330
47A6
100
AcDbEntity
  8
Defpoints
 62
     0
100
AcDbPoint
 10
790.7650471999995
 20
563.302597840523
 30
0.0
  0
POINT
  5
51FD
330
47A6
100
AcDbEntity
  8
Defpoints
 62
     0
100
AcDbPoint
 10
836.8150472000001
 20
563.302597840523
 30
0.0
  0
ENDBLK
  5
47A8
330
47A6
100
AcDbEntity
  8
0
100
AcDbBlockEnd
  0
BLOCK
  5
47C3
330
47C2
100
AcDbEntity
  8
0
100
AcDbBlockBegin
  2
*D15
 70
     1
 10
0.0
 20
0.0
 30
0.0
  3
*D15
  1

  0
LINE
  5
51DD
330
47C2
100
AcDbEntity
  8
AM_5 寸法線
 62
     3
100
AcDbLine
 10
792.6900471999996
 20
563.302597840523
 30
0.0
 11
838.6900472
 21
563.302597840523
 31
0.0
  0
LINE
  5
51DE
330
47C2
100
AcDbEntity
  8
AM_5 寸法線
 62
     3
100
AcDbLine
 10
792.6900471999996
 20
584.302597840523
 30
0.0
 11
838.6900472
 21
584.302597840523
 31
0.0
  0
LINE
  5
51DF
330
47C2
100
AcDbEntity
  8
AM_5 寸法線
 62
     3
100
AcDbLine
 10
836.8150472000001
 20
555.802597840523
 30
0.0
 11
836.8150472000001
 21
548.302597840523
 31
0.0
  0
LINE
  5
51E0
330
47C2
100
AcDbEntity
  8
AM_5 寸法線
 62
     3
100
AcDbLine
 10
836.8150472000001
 20
591.802597840523
 30
0.0
 11
836.8150472000001
 21
620.9025978405231
 31
0.0
  0
LINE
  5
51E1
330
47C2
100
AcDbEntity
  8
AM_5 寸法線
 62
     3
100
AcDbLine
 10
836.8150472000001
 20
563.302597840523
 30
0.0
 11
836.8150472000001
 21
584.302597840523
 31
0.0
  0
INSERT
  5
51E2
330
47C2
100
AcDbEntity
  8
AM_5 寸法線
 62
     3
100
AcDbBlockReference
  2
GENDOT
 10
836.8150472000001
 20
563.302597840523
 30
0.0
 41
7.5
 42
7.5
 43
7.5
 50
90.0
  0
INSERT
  5
51E3
330
47C2
100
AcDbEntity
  8
AM_5 寸法線
 62
     3
100
AcDbBlockReference
  2
_Open30
 10
836.8150472000001
 20
584.302597840523
 30
0.0
 41
7.5
 42
7.5
 43
7.5
 50
270.0
  0
MTEXT
  5
51E4
330
47C2
100
AcDbEntity
  8
AM_5 寸法線
 62
     3
100
AcDbMText
 10
827.0650471999998
 20
610.1025978405232
 30
0.0
 40
10.5
 41
0.0
 46
0.0
 71
     5
 72
     1
  1
21
  7
SEISA
 11
0.0000000000000001
 21
1.0
 31
0.0
 73
     1
 44
1.0
  0
POINT
  5
51E5
330
47C2
100
AcDbEntity
  8
Defpoints
 62
     0
100
AcDbPoint
 10
790.8150471999996
 20
563.302597840523
 30
0.0
  0
POINT
  5
51E6
330
47C2
100
AcDbEntity
  8
Defpoints
 62
     0
100
AcDbPoint
 10
790.8150471999996
 20
584.302597840523
 30
0.0
  0
POINT
  5
51E7
330
47C2
100
AcDbEntity
  8
Defpoints
 62
     0
100
AcDbPoint
 10
836.8150472000001
 20
584.302597840523
 30
0.0
  0
ENDBLK
  5
47C4
330
47C2
100
AcDbEntity
  8
0
100
AcDbBlockEnd
  0
BLOCK
  5
480D
330
480C
100
AcDbEntity
  8
0
100
AcDbBlockBegin
  2
*D16
 70
     1
 10
0.0
 20
0.0
 30
0.0
  3
*D16
  1

  0
LINE
  5
5782
330
480C
100
AcDbEntity
  8
AM_5 寸法線
 62
     3
100
AcDbLine
 10
761.6900471999996
 20
481.302597840523
 30
0.0
 11
868.6900471999996
 21
481.302597840523
 31
0.0
  0
LINE
  5
5783
330
480C
100
AcDbEntity
  8
AM_5 寸法線
 62
     3
100
AcDbLine
 10
761.6900471999996
 20
645.302597840523
 30
0.0
 11
868.6900471999996
 21
645.3025978405228
 31
0.0
  0
LINE
  5
5784
330
480C
100
AcDbEntity
  8
AM_5 寸法線
 62
     3
100
AcDbLine
 10
866.8150471999997
 20
488.802597840523
 30
0.0
 11
866.8150471999997
 21
637.8025978405228
 31
0.0
  0
INSERT
  5
5785
330
480C
100
AcDbEntity
  8
AM_5 寸法線
 62
     3
100
AcDbBlockReference
  2
_Open30
 10
866.8150471999997
 20
481.302597840523
 30
0.0
 41
7.5
 42
7.5
 43
7.5
 50
270.0
  0
INSERT
  5
5786
330
480C
100
AcDbEntity
  8
AM_5 寸法線
 62
     3
100
AcDbBlockReference
  2
_Open30
 10
866.8150471999997
 20
645.3025978405228
 30
0.0
 41
7.5
 42
7.5
 43
7.5
 50
90.0
  0
MTEXT
  5
5787
330
480C
100
AcDbEntity
  8
AM_5 寸法線
 62
     3
100
AcDbMText
 10
857.0650471999996
 20
563.3025978405231
 30
0.0
 40
10.5
 41
0.0
 46
0.0
 71
     5
 72
     1
  1
164
  7
SEISA
 11
0.0000000000000001
 21
1.0
 31
0.0
 73
     1
 44
1.0
  0
POINT
  5
5788
330
480C
100
AcDbEntity
  8
Defpoints
 62
     0
100
AcDbPoint
 10
759.8150471999996
 20
481.302597840523
 30
0.0
  0
POINT
  5
5789
330
480C
100
AcDbEntity
  8
Defpoints
 62
     0
100
AcDbPoint
 10
759.8150471999996
 20
645.302597840523
 30
0.0
  0
POINT
  5
578A
330
480C
100
AcDbEntity
  8
Defpoints
 62
     0
100
AcDbPoint
 10
866.8150471999997
 20
645.3025978405228
 30
0.0
  0
ENDBLK
  5
480E
330
480C
100
AcDbEntity
  8
0
100
AcDbBlockEnd
  0
BLOCK
  5
49D1
330
49D0
100
AcDbEntity
  8
0
100
AcDbBlockBegin
  2
*D17
 70
     1
 10
0.0
 20
0.0
 30
0.0
  3
*D17
  1

  0
LINE
  5
4B2B
330
49D0
100
AcDbEntity
  8
AM_5 寸法線
 62
     3
100
AcDbLine
 10
743.8900471999995
 20
416.3025978405228
 30
0.0
 11
898.6900471999996
 21
416.3025978405228
 31
0.0
  0
LINE
  5
4B2C
330
49D0
100
AcDbEntity
  8
AM_5 寸法線
 62
     3
100
AcDbLine
 10
743.8900471999995
 20
710.302597840523
 30
0.0
 11
898.6900471999996
 21
710.3025978405229
 31
0.0
  0
LINE
  5
4B2D
330
49D0
100
AcDbEntity
  8
AM_5 寸法線
 62
     3
100
AcDbLine
 10
896.8150471999996
 20
423.8025978405228
 30
0.0
 11
896.8150471999996
 21
702.8025978405229
 31
0.0
  0
INSERT
  5
4B2E
330
49D0
100
AcDbEntity
  8
AM_5 寸法線
 62
     3
100
AcDbBlockReference
  2
_Open30
 10
896.8150471999996
 20
416.3025978405228
 30
0.0
 41
7.5
 42
7.5
 43
7.5
 50
270.0
  0
INSERT
  5
4B2F
330
49D0
100
AcDbEntity
  8
AM_5 寸法線
 62
     3
100
AcDbBlockReference
  2
_Open30
 10
896.8150471999996
 20
710.3025978405229
 30
0.0
 41
7.5
 42
7.5
 43
7.5
 50
90.0
  0
MTEXT
  5
4B30
330
49D0
100
AcDbEntity
  8
AM_5 寸法線
 62
     3
100
AcDbMText
 10
887.0650471999995
 20
563.3025978405231
 30
0.0
 40
10.5
 41
0.0
 46
0.0
 71
     5
 72
     1
  1
294
  7
SEISA
 11
0.0000000000000001
 21
1.0
 31
0.0
 73
     1
 44
1.0
  0
POINT
  5
4B31
330
49D0
100
AcDbEntity
  8
Defpoints
 62
     0
100
AcDbPoint
 10
742.0150471999996
 20
416.3025978405228
 30
0.0
  0
POINT
  5
4B32
330
49D0
100
AcDbEntity
  8
Defpoints
 62
     0
100
AcDbPoint
 10
742.0150471999996
 20
710.302597840523
 30
0.0
  0
POINT
  5
4B33
330
49D0
100
AcDbEntity
  8
Defpoints
 62
     0
100
AcDbPoint
 10
896.8150471999996
 20
710.3025978405229
 30
0.0
  0
ENDBLK
  5
49D2
330
49D0
100
AcDbEntity
  8
0
100
AcDbBlockEnd
  0
BLOCK
  5
49EE
330
49ED
100
AcDbEntity
  8
0
100
AcDbBlockBegin
  2
*D18
 70
     1
 10
0.0
 20
0.0
 30
0.0
  3
*D18
  1

  0
LINE
  5
4B34
330
49ED
100
AcDbEntity
  8
AM_5 寸法線
 62
     3
100
AcDbLine
 10
511.8150471999997
 20
585.177597840523
 30
0.0
 11
511.8150471999997
 21
847.1775978405229
 31
0.0
  0
LINE
  5
4B35
330
49ED
100
AcDbEntity
  8
AM_5 寸法線
 62
     3
100
AcDbLine
 10
791.8150471999996
 20
585.177597840523
 30
0.0
 11
791.8150471999996
 21
847.1775978405229
 31
0.0
  0
LINE
  5
4B36
330
49ED
100
AcDbEntity
  8
AM_5 寸法線
 62
     3
100
AcDbLine
 10
519.3150471999996
 20
845.302597840523
 30
0.0
 11
784.3150471999996
 21
845.302597840523
 31
0.0
  0
INSERT
  5
4B37
330
49ED
100
AcDbEntity
  8
AM_5 寸法線
 62
     3
100
AcDbBlockReference
  2
_Open30
 10
511.8150471999997
 20
845.302597840523
 30
0.0
 41
7.5
 42
7.5
 43
7.5
 50
180.0
  0
INSERT
  5
4B38
330
49ED
100
AcDbEntity
  8
AM_5 寸法線
 62
     3
100
AcDbBlockReference
  2
_Open30
 10
791.8150471999996
 20
845.302597840523
 30
0.0
 41
7.5
 42
7.5
 43
7.5
  0
MTEXT
  5
4B39
330
49ED
100
AcDbEntity
  8
AM_5 寸法線
 62
     3
100
AcDbMText
 10
651.8150471999997
 20
855.052597840523
 30
0.0
 40
10.5
 41
0.0
 46
0.0
 71
     5
 72
     1
  1
%%c280
  7
SEISA
 73
     1
 44
1.0
  0
POINT
  5
4B3A
330
49ED
100
AcDbEntity
  8
Defpoints
 62
     0
100
AcDbPoint
 10
511.8150471999997
 20
583.302597840523
 30
0.0
  0
POINT
  5
4B3B
330
49ED
100
AcDbEntity
  8
Defpoints
 62
     0
100
AcDbPoint
 10
791.8150471999996
 20
583.302597840523
 30
0.0
  0
POINT
  5
4B3C
330
49ED
100
AcDbEntity
  8
Defpoints
 62
     0
100
AcDbPoint
 10
791.8150471999996
 20
845.302597840523
 30
0.0
  0
ENDBLK
  5
49EF
330
49ED
100
AcDbEntity
  8
0
100
AcDbBlockEnd
  0
BLOCK
  5
4A06
330
4A05
100
AcDbEntity
  8
0
100
AcDbBlockBegin
  2
*D19
 70
     1
 10
0.0
 20
0.0
 30
0.0
  3
*D19
  1

  0
LINE
  5
4B3D
330
4A05
100
AcDbEntity
  8
AM_5 寸法線
 62
     3
100
AcDbLine
 10
539.8150471999996
 20
643.177597840523
 30
0.0
 11
539.8150471999996
 21
817.177597840523
 31
0.0
  0
LINE
  5
4B3E
330
4A05
100
AcDbEntity
  8
AM_5 寸法線
 62
     3
100
AcDbLine
 10
763.8150471999996
 20
643.177597840523
 30
0.0
 11
763.8150471999996
 21
817.177597840523
 31
0.0
  0
LINE
  5
4B3F
330
4A05
100
AcDbEntity
  8
AM_5 寸法線
 62
     3
100
AcDbLine
 10
547.3150471999996
 20
815.302597840523
 30
0.0
 11
756.3150471999996
 21
815.302597840523
 31
0.0
  0
INSERT
  5
4B40
330
4A05
100
AcDbEntity
  8
AM_5 寸法線
 62
     3
100
AcDbBlockReference
  2
_Open30
 10
539.8150471999996
 20
815.302597840523
 30
0.0
 41
7.5
 42
7.5
 43
7.5
 50
180.0
  0
INSERT
  5
4B41
330
4A05
100
AcDbEntity
  8
AM_5 寸法線
 62
     3
100
AcDbBlockReference
  2
_Open30
 10
763.8150471999996
 20
815.302597840523
 30
0.0
 41
7.5
 42
7.5
 43
7.5
  0
MTEXT
  5
4B42
330
4A05
100
AcDbEntity
  8
AM_5 寸法線
 62
     3
100
AcDbMText
 10
651.8150471999997
 20
825.052597840523
 30
0.0
 40
10.5
 41
0.0
 46
0.0
 71
     5
 72
     1
  1
%%c224
  7
SEISA
 73
     1
 44
1.0
  0
POINT
  5
4B43
330
4A05
100
AcDbEntity
  8
Defpoints
 62
     0
100
AcDbPoint
 10
539.8150471999996
 20
641.302597840523
 30
0.0
  0
POINT
  5
4B44
330
4A05
100
AcDbEntity
  8
Defpoints
 62
     0
100
AcDbPoint
 10
763.8150471999996
 20
641.302597840523
 30
0.0
  0
POINT
  5
4B45
330
4A05
100
AcDbEntity
  8
Defpoints
 62
     0
100
AcDbPoint
 10
763.8150471999996
 20
815.302597840523
 30
0.0
  0
ENDBLK
  5
4A07
330
4A05
100
AcDbEntity
  8
0
100
AcDbBlockEnd
  0
BLOCK
  5
4A1E
330
4A1D
100
AcDbEntity
  8
0
100
AcDbBlockBegin
  2
*D20
 70
     1
 10
0.0
 20
0.0
 30
0.0
  3
*D20
  1

  0
LINE
  5
4B46
330
4A1D
100
AcDbEntity
  8
AM_5 寸法線
 62
     3
100
AcDbLine
 10
556.8150471999996
 20
665.677597840523
 30
0.0
 11
556.8150471999996
 21
787.1775978405231
 31
0.0
  0
LINE
  5
4B47
330
4A1D
100
AcDbEntity
  8
AM_5 寸法線
 62
     3
100
AcDbLine
 10
746.8150471999996
 20
665.677597840523
 30
0.0
 11
746.8150471999996
 21
787.1775978405231
 31
0.0
  0
LINE
  5
4B48
330
4A1D
100
AcDbEntity
  8
AM_5 寸法線
 62
     3
100
AcDbLine
 10
564.3150471999997
 20
785.302597840523
 30
0.0
 11
739.3150471999996
 21
785.302597840523
 31
0.0
  0
INSERT
  5
4B49
330
4A1D
100
AcDbEntity
  8
AM_5 寸法線
 62
     3
100
AcDbBlockReference
  2
_Open30
 10
556.8150471999996
 20
785.302597840523
 30
0.0
 41
7.5
 42
7.5
 43
7.5
 50
180.0
  0
INSERT
  5
4B4A
330
4A1D
100
AcDbEntity
  8
AM_5 寸法線
 62
     3
100
AcDbBlockReference
  2
_Open30
 10
746.8150471999996
 20
785.302597840523
 30
0.0
 41
7.5
 42
7.5
 43
7.5
  0
MTEXT
  5
4B4B
330
4A1D
100
AcDbEntity
  8
AM_5 寸法線
 62
     3
100
AcDbMText
 10
651.8150471999997
 20
795.052597840523
 30
0.0
 40
10.5
 41
0.0
 46
0.0
 71
     5
 72
     1
  1
%%c190
  7
SEISA
 73
     1
 44
1.0
  0
POINT
  5
4B4C
330
4A1D
100
AcDbEntity
  8
Defpoints
 62
     0
100
AcDbPoint
 10
556.8150471999996
 20
663.802597840523
 30
0.0
  0
POINT
  5
4B4D
330
4A1D
100
AcDbEntity
  8
Defpoints
 62
     0
100
AcDbPoint
 10
746.8150471999996
 20
663.802597840523
 30
0.0
  0
POINT
  5
4B4E
330
4A1D
100
AcDbEntity
  8
Defpoints
 62
     0
100
AcDbPoint
 10
746.8150471999996
 20
785.302597840523
 30
0.0
  0
ENDBLK
  5
4A1F
330
4A1D
100
AcDbEntity
  8
0
100
AcDbBlockEnd
  0
BLOCK
  5
4FFF
330
4FFE
100
AcDbEntity
  8
0
100
AcDbBlockBegin
  2
*D21
 70
     1
 10
0.0
 20
0.0
 30
0.0
  3
*D21
  1

  0
LINE
  5
5A40
330
4FFE
100
AcDbEntity
  8
AM_5 寸法線
 62
     3
100
AcDbLine
 10
640.1661959192908
 20
416.3025978405228
 30
0.0
 11
632.5433923962362
 21
416.3025978405229
 31
0.0
  0
LINE
  5
5A41
330
4FFE
100
AcDbEntity
  8
AM_5 寸法線
 62
     3
100
AcDbLine
 10
617.8396636595135
 20
556.302597840523
 30
0.0
 11
636.2933923962363
 21
556.302597840523
 31
0.0
  0
LINE
  5
5A42
330
4FFE
100
AcDbEntity
  8
AM_5 寸法線
 62
     3
100
AcDbLine
 10
634.4183923962362
 20
423.802597840523
 30
0.0
 11
634.4183923962362
 21
548.802597840523
 31
0.0
  0
INSERT
  5
5A43
330
4FFE
100
AcDbEntity
  8
AM_5 寸法線
 62
     3
100
AcDbBlockReference
  2
_Open30
 10
634.4183923962362
 20
416.3025978405229
 30
0.0
 41
7.5
 42
7.5
 43
7.5
 50
270.0
  0
INSERT
  5
5A44
330
4FFE
100
AcDbEntity
  8
AM_5 寸法線
 62
     3
100
AcDbBlockReference
  2
_Open30
 10
634.4183923962362
 20
556.302597840523
 30
0.0
 41
7.5
 42
7.5
 43
7.5
 50
90.0
  0
MTEXT
  5
5A45
330
4FFE
100
AcDbEntity
  8
AM_5 寸法線
 62
     3
100
AcDbMText
 10
624.6683923962363
 20
486.302597840523
 30
0.0
 40
10.5
 41
0.0
 46
0.0
 71
     5
 72
     1
  1
140
  7
SEISA
 11
0.0000000000000001
 21
1.0
 31
0.0
 73
     1
 44
1.0
  0
POINT
  5
5A46
330
4FFE
100
AcDbEntity
  8
Defpoints
 62
     0
100
AcDbPoint
 10
642.0411959192906
 20
416.3025978405228
 30
0.0
  0
POINT
  5
5A47
330
4FFE
100
AcDbEntity
  8
Defpoints
 62
     0
100
AcDbPoint
 10
615.9646636595133
 20
556.302597840523
 30
0.0
  0
POINT
  5
5A48
330
4FFE
100
AcDbEntity
  8
Defpoints
 62
     0
100
AcDbPoint
 10
634.4183923962362
 20
556.302597840523
 30
0.0
  0
ENDBLK
  5
5000
330
4FFE
100
AcDbEntity
  8
0
100
AcDbBlockEnd
  0
BLOCK
  5
5017
330
5016
100
AcDbEntity
  8
0
100
AcDbBlockBegin
  2
*D22
 70
     1
 10
0.0
 20
0.0
 30
0.0
  3
*D22
  1

  0
LINE
  5
5A35
330
5016
100
AcDbEntity
  8
AM_5 寸法線
 62
     3
100
AcDbLine
 10
617.8396636595135
 20
556.302597840523
 30
0.0
 11
636.2933923962363
 21
556.302597840523
 31
0.0
  0
LINE
  5
5A36
330
5016
100
AcDbEntity
  8
AM_5 寸法線
 62
     3
100
AcDbLine
 10
636.2141948916678
 20
570.302597840523
 30
0.0
 11
632.5433923962362
 21
570.302597840523
 31
0.0
  0
LINE
  5
5A37
330
5016
100
AcDbEntity
  8
AM_5 寸法線
 62
     3
100
AcDbLine
 10
634.4183923962362
 20
548.802597840523
 30
0.0
 11
634.4183923962362
 21
541.302597840523
 31
0.0
  0
LINE
  5
5A38
330
5016
100
AcDbEntity
  8
AM_5 寸法線
 62
     3
100
AcDbLine
 10
634.4183923962362
 20
577.8025978405231
 30
0.0
 11
634.4183923962362
 21
585.302597840523
 31
0.0
  0
MTEXT
  5
5A39
330
5016
100
AcDbEntity
  8
AM_5 寸法線
 62
     3
100
AcDbMText
 10
624.5451375433588
 20
582.052846086539
 30
0.0
 40
10.5
 41
0.0
 46
0.0
 71
     5
 72
     1
  1
14
  7
SEISA
 11
0.0000000000000001
 21
1.0
 31
0.0
 73
     1
 44
1.0
  0
LINE
  5
5A3A
330
5016
100
AcDbEntity
  8
AM_5 寸法線
 62
     3
100
AcDbLine
 10
634.4183923962362
 20
556.302597840523
 30
0.0
 11
634.4183923962362
 21
570.302597840523
 31
0.0
  0
INSERT
  5
5A3B
330
5016
100
AcDbEntity
  8
AM_5 寸法線
 62
     3
100
AcDbBlockReference
  2
_Open30
 10
634.4183923962362
 20
556.302597840523
 30
0.0
 41
7.5
 42
7.5
 43
7.5
 50
90.0
  0
INSERT
  5
5A3C
330
5016
100
AcDbEntity
  8
AM_5 寸法線
 62
     3
100
AcDbBlockReference
  2
_Open30
 10
634.4183923962362
 20
570.302597840523
 30
0.0
 41
7.5
 42
7.5
 43
7.5
 50
270.0
  0
POINT
  5
5A3D
330
5016
100
AcDbEntity
  8
Defpoints
 62
     0
100
AcDbPoint
 10
615.9646636595133
 20
556.302597840523
 30
0.0
  0
POINT
  5
5A3E
330
5016
100
AcDbEntity
  8
Defpoints
 62
     0
100
AcDbPoint
 10
638.0891948916678
 20
570.302597840523
 30
0.0
  0
POINT
  5
5A3F
330
5016
100
AcDbEntity
  8
Defpoints
 62
     0
100
AcDbPoint
 10
634.4183923962362
 20
570.302597840523
 30
0.0
  0
ENDBLK
  5
5018
330
5016
100
AcDbEntity
  8
0
100
AcDbBlockEnd
  0
BLOCK
  5
504C
330
504B
100
AcDbEntity
  8
0
100
AcDbBlockBegin
  2
*D23
 70
     1
 10
0.0
 20
0.0
 30
0.0
  3
*D23
  1

  0
LINE
  5
5058
330
504B
100
AcDbEntity
  8
AM_5 寸法線
 62
     3
100
AcDbLine
 10
638.5162172460804
 20
570.302597840523
 30
0.0
 11
632.5433923962362
 21
570.302597840523
 31
0.0
  0
LINE
  5
5059
330
504B
100
AcDbEntity
  8
AM_5 寸法線
 62
     3
100
AcDbLine
 10
640.9017161314622
 20
710.302597840523
 30
0.0
 11
632.5433923962362
 21
710.302597840523
 31
0.0
  0
LINE
  5
505A
330
504B
100
AcDbEntity
  8
AM_5 寸法線
 62
     3
100
AcDbLine
 10
634.4183923962362
 20
577.8025978405231
 30
0.0
 11
634.4183923962362
 21
702.8025978405231
 31
0.0
  0
INSERT
  5
505B
330
504B
100
AcDbEntity
  8
AM_5 寸法線
 62
     3
100
AcDbBlockReference
  2
_Open30
 10
634.4183923962362
 20
570.302597840523
 30
0.0
 41
7.5
 42
7.5
 43
7.5
 50
270.0
  0
INSERT
  5
505C
330
504B
100
AcDbEntity
  8
AM_5 寸法線
 62
     3
100
AcDbBlockReference
  2
_Open30
 10
634.4183923962362
 20
710.302597840523
 30
0.0
 41
7.5
 42
7.5
 43
7.5
 50
90.0
  0
MTEXT
  5
505D
330
504B
100
AcDbEntity
  8
AM_5 寸法線
 62
     3
100
AcDbMText
 10
624.6683923962363
 20
640.3025978405231
 30
0.0
 40
10.5
 41
0.0
 46
0.0
 71
     5
 72
     1
  1
140
  7
SEISA
 11
0.0000000000000001
 21
1.0
 31
0.0
 73
     1
 44
1.0
  0
POINT
  5
505E
330
504B
100
AcDbEntity
  8
Defpoints
 62
     0
100
AcDbPoint
 10
640.3912172460803
 20
570.302597840523
 30
0.0
  0
POINT
  5
505F
330
504B
100
AcDbEntity
  8
Defpoints
 62
     0
100
AcDbPoint
 10
642.7767161314622
 20
710.302597840523
 30
0.0
  0
POINT
  5
5060
330
504B
100
AcDbEntity
  8
Defpoints
 62
     0
100
AcDbPoint
 10
634.4183923962362
 20
710.302597840523
 30
0.0
  0
ENDBLK
  5
504D
330
504B
100
AcDbEntity
  8
0
100
AcDbBlockEnd
  0
BLOCK
  5
5082
330
5081
100
AcDbEntity
  8
0
100
AcDbBlockBegin
  2
*D24
 70
     1
 10
0.0
 20
0.0
 30
0.0
  3
*D24
  1

  0
LINE
  5
50A7
330
5081
100
AcDbEntity
  8
AM_5 寸法線
 62
     3
100
AcDbLine
 10
558.6900471999996
 20
497.302597840523
 30
0.0
 11
575.5108412000002
 21
497.302597840523
 31
0.0
  0
LINE
  5
50A8
330
5081
100
AcDbEntity
  8
AM_5 寸法線
 62
     3
100
AcDbLine
 10
558.1900471999996
 20
501.802597840523
 30
0.0
 11
575.5108412000002
 21
501.802597840523
 31
0.0
  0
LINE
  5
50A9
330
5081
100
AcDbEntity
  8
AM_5 寸法線
 62
     3
100
AcDbLine
 10
573.6358412000002
 20
509.3025978405229
 30
0.0
 11
573.6358412000002
 21
516.802597840523
 31
0.0
  0
LINE
  5
50AA
330
5081
100
AcDbEntity
  8
AM_5 寸法線
 62
     3
100
AcDbLine
 10
573.6358412000002
 20
489.802597840523
 30
0.0
 11
573.6358412000002
 21
453.5025978405229
 31
0.0
  0
LINE
  5
50AB
330
5081
100
AcDbEntity
  8
AM_5 寸法線
 62
     3
100
AcDbLine
 10
573.6358412000002
 20
501.802597840523
 30
0.0
 11
573.6358412000002
 21
497.302597840523
 31
0.0
  0
INSERT
  5
50AC
330
5081
100
AcDbEntity
  8
AM_5 寸法線
 62
     3
100
AcDbBlockReference
  2
_Open30
 10
573.6358412000002
 20
501.802597840523
 30
0.0
 41
7.5
 42
7.5
 43
7.5
 50
270.0
  0
INSERT
  5
50AD
330
5081
100
AcDbEntity
  8
AM_5 寸法線
 62
     3
100
AcDbBlockReference
  2
_Open30
 10
573.6358412000002
 20
497.302597840523
 30
0.0
 41
7.5
 42
7.5
 43
7.5
 50
90.0
  0
MTEXT
  5
50AE
330
5081
100
AcDbEntity
  8
AM_5 寸法線
 62
     3
100
AcDbMText
 10
563.8858412000002
 20
467.9025978405231
 30
0.0
 40
10.5
 41
0.0
 46
0.0
 71
     5
 72
     1
  1
4.5
  7
SEISA
 11
0.0000000000000001
 21
1.0
 31
0.0
 73
     1
 44
1.0
  0
POINT
  5
50AF
330
5081
100
AcDbEntity
  8
Defpoints
 62
     0
100
AcDbPoint
 10
556.8150471999996
 20
497.302597840523
 30
0.0
  0
POINT
  5
50B0
102
{ACAD_REACTORS
330
587A
102
}
330
5081
100
AcDbEntity
  8
Defpoints
 62
     0
100
AcDbPoint
 10
556.3150471999996
 20
501.802597840523
 30
0.0
  0
POINT
  5
50B1
330
5081
100
AcDbEntity
  8
Defpoints
 62
     0
100
AcDbPoint
 10
573.6358412000002
 20
501.802597840523
 30
0.0
  0
ENDBLK
  5
5083
330
5081
100
AcDbEntity
  8
0
100
AcDbBlockEnd
  0
BLOCK
  5
50C0
330
50BD
100
AcDbEntity
  8
0
100
AcDbBlockBegin
  2
GENDOT
 70
     0
 10
0.0
 20
0.0
 30
0.0
  3
GENDOT
  1

  0
LINE
  5
50BE
330
50BD
100
AcDbEntity
  8
0
100
AcDbLine
 10
0.0
 20
0.0
 30
0.0
 11
-1.0
 21
0.0
 31
0.0
  0
LWPOLYLINE
  5
50BF
330
50BD
100
AcDbEntity
  8
0
100
AcDbPolyline
 90
        2
 70
     1
 43
0.25
 10
-0.125
 20
0.0
 42
1.0
 10
0.125
 20
0.0
 42
1.0
  0
ENDBLK
  5
50C1
330
50BD
100
AcDbEntity
  8
0
100
AcDbBlockEnd
  0
BLOCK
  5
5752
330
5751
100
AcDbEntity
  8
0
100
AcDbBlockBegin
  2
*D26
 70
     1
 10
0.0
 20
0.0
 30
0.0
  3
*D26
  1

  0
LINE
  5
5777
330
5751
100
AcDbEntity
  8
AM_5 寸法線
 62
     3
100
AcDbLine
 10
554.9400471999996
 20
415.302597840523
 30
0.0
 11
509.9400471999997
 21
415.302597840523
 31
0.0
  0
LINE
  5
5778
330
5751
100
AcDbEntity
  8
AM_5 寸法線
 62
     3
100
AcDbLine
 10
559.7400471999998
 20
416.3025978405228
 30
0.0
 11
509.9400471999997
 21
416.3025978405228
 31
0.0
  0
LINE
  5
5779
330
5751
100
AcDbEntity
  8
AM_5 寸法線
 62
     3
100
AcDbLine
 10
511.8150471999997
 20
407.8025978405229
 30
0.0
 11
511.8150471999997
 21
400.3025978405229
 31
0.0
  0
LINE
  5
577A
330
5751
100
AcDbEntity
  8
AM_5 寸法線
 62
     3
100
AcDbLine
 10
511.8150471999997
 20
423.802597840523
 30
0.0
 11
511.8150471999997
 21
442.552597840523
 31
0.0
  0
LINE
  5
577B
330
5751
100
AcDbEntity
  8
AM_5 寸法線
 62
     3
100
AcDbLine
 10
511.8150471999997
 20
415.302597840523
 30
0.0
 11
511.8150471999997
 21
416.3025978405228
 31
0.0
  0
INSERT
  5
577C
330
5751
100
AcDbEntity
  8
AM_5 寸法線
 62
     3
100
AcDbBlockReference
  2
_Open30
 10
511.8150471999997
 20
415.302597840523
 30
0.0
 41
7.5
 42
7.5
 43
7.5
 50
90.0
  0
INSERT
  5
577D
330
5751
100
AcDbEntity
  8
AM_5 寸法線
 62
     3
100
AcDbBlockReference
  2
_Open30
 10
511.8150471999997
 20
416.3025978405228
 30
0.0
 41
7.5
 42
7.5
 43
7.5
 50
270.0
  0
MTEXT
  5
577E
330
5751
100
AcDbEntity
  8
AM_5 寸法線
 62
     3
100
AcDbMText
 10
502.0650471999996
 20
436.9275978405229
 30
0.0
 40
10.5
 41
0.0
 46
0.0
 71
     5
 72
     1
  1
1
  7
SEISA
 11
0.0000000000000001
 21
1.0
 31
0.0
 73
     1
 44
1.0
  0
POINT
  5
577F
330
5751
100
AcDbEntity
  8
Defpoints
 62
     0
100
AcDbPoint
 10
556.8150471999996
 20
415.302597840523
 30
0.0
  0
POINT
  5
5780
330
5751
100
AcDbEntity
  8
Defpoints
 62
     0
100
AcDbPoint
 10
561.6150471999998
 20
416.3025978405228
 30
0.0
  0
POINT
  5
5781
330
5751
100
AcDbEntity
  8
Defpoints
 62
     0
100
AcDbPoint
 10
511.8150471999997
 20
416.3025978405228
 30
0.0
  0
ENDBLK
  5
5753
330
5751
100
AcDbEntity
  8
0
100
AcDbBlockEnd
  0
BLOCK
  5
586E
330
586D
100
AcDbEntity
  8
0
100
AcDbBlockBegin
  2
*D27
 70
     1
 10
0.0
 20
0.0
 30
0.0
  3
*D27
  1

  0
LINE
  5
588D
330
586D
100
AcDbEntity
  8
AM_5 寸法線
 62
     3
100
AcDbLine
 10
558.1900471999996
 20
501.802597840523
 30
0.0
 11
575.5108412000004
 21
501.802597840523
 31
0.0
  0
LINE
  5
588E
330
586D
100
AcDbEntity
  8
AM_5 寸法線
 62
     3
100
AcDbLine
 10
558.1900471999996
 20
534.802597840523
 30
0.0
 11
575.5108412000004
 21
534.802597840523
 31
0.0
  0
LINE
  5
588F
330
586D
100
AcDbEntity
  8
AM_5 寸法線
 62
     3
100
AcDbLine
 10
573.6358412000002
 20
509.3025978405229
 30
0.0
 11
573.6358412000002
 21
527.302597840523
 31
0.0
  0
INSERT
  5
5890
330
586D
100
AcDbEntity
  8
AM_5 寸法線
 62
     3
100
AcDbBlockReference
  2
_Open30
 10
573.6358412000002
 20
501.802597840523
 30
0.0
 41
7.5
 42
7.5
 43
7.5
 50
270.0
  0
INSERT
  5
5891
330
586D
100
AcDbEntity
  8
AM_5 寸法線
 62
     3
100
AcDbBlockReference
  2
_Open30
 10
573.6358412000002
 20
534.802597840523
 30
0.0
 41
7.5
 42
7.5
 43
7.5
 50
90.0
  0
MTEXT
  5
5892
330
586D
100
AcDbEntity
  8
AM_5 寸法線
 62
     3
100
AcDbMText
 10
563.8858412000002
 20
518.3025978405233
 30
0.0
 40
10.5
 41
0.0
 46
0.0
 71
     5
 72
     1
  1
33
  7
SEISA
 11
0.0000000000000001
 21
1.0
 31
0.0
 73
     1
 44
1.0
  0
POINT
  5
5893
330
586D
100
AcDbEntity
  8
Defpoints
 62
     0
100
AcDbPoint
 10
556.3150471999996
 20
501.802597840523
 30
0.0
  0
POINT
  5
5894
102
{ACAD_REACTORS
330
58A6
102
}
330
586D
100
AcDbEntity
  8
Defpoints
 62
     0
100
AcDbPoint
 10
556.3150471999996
 20
534.802597840523
 30
0.0
  0
POINT
  5
5895
330
586D
100
AcDbEntity
  8
Defpoints
 62
     0
100
AcDbPoint
 10
573.6358412000002
 20
534.802597840523
 30
0.0
  0
ENDBLK
  5
586F
330
586D
100
AcDbEntity
  8
0
100
AcDbBlockEnd
  0
BLOCK
  5
5898
330
5897
100
AcDbEntity
  8
0
100
AcDbBlockBegin
  2
*D28
 70
     1
 10
0.0
 20
0.0
 30
0.0
  3
*D28
  1

  0
LINE
  5
58FD
330
5897
100
AcDbEntity
  8
AM_5 寸法線
 62
     3
100
AcDbLine
 10
558.1900471999996
 20
534.802597840523
 30
0.0
 11
575.5108412000004
 21
534.802597840523
 31
0.0
  0
LINE
  5
58FE
330
5897
100
AcDbEntity
  8
AM_5 寸法線
 62
     3
100
AcDbLine
 10
560.1900471999996
 20
556.302597840523
 30
0.0
 11
575.5108412000004
 21
556.302597840523
 31
0.0
  0
LINE
  5
58FF
330
5897
100
AcDbEntity
  8
AM_5 寸法線
 62
     3
100
AcDbLine
 10
573.6358412000002
 20
527.302597840523
 30
0.0
 11
573.6358412000002
 21
519.802597840523
 31
0.0
  0
LINE
  5
5900
330
5897
100
AcDbEntity
  8
AM_5 寸法線
 62
     3
100
AcDbLine
 10
573.6358412000002
 20
563.802597840523
 30
0.0
 11
573.6358412000002
 21
571.302597840523
 31
0.0
  0
LINE
  5
5901
330
5897
100
AcDbEntity
  8
AM_5 寸法線
 62
     3
100
AcDbLine
 10
573.6358412000002
 20
545.552597840523
 30
0.0
 11
595.7380965923062
 21
537.2944858441586
 31
0.0
  0
LINE
  5
5902
330
5897
100
AcDbEntity
  8
AM_5 寸法線
 62
     3
100
AcDbLine
 10
595.7380965923062
 20
537.2944858441586
 30
0.0
 11
595.7380965923062
 21
499.4944858441587
 31
0.0
  0
MTEXT
  5
5903
330
5897
100
AcDbEntity
  8
AM_5 寸法線
 62
     3
100
AcDbMText
 10
585.988096592306
 20
518.3944858441589
 30
0.0
 40
10.5
 41
0.0
 46
0.0
 71
     5
 72
     1
  1
21.5
  7
SEISA
 11
0.0000000000000001
 21
1.0
 31
0.0
 73
     1
 44
1.0
  0
LINE
  5
5904
330
5897
100
AcDbEntity
  8
AM_5 寸法線
 62
     3
100
AcDbLine
 10
573.6358412000002
 20
534.802597840523
 30
0.0
 11
573.6358412000002
 21
556.302597840523
 31
0.0
  0
LINE
  5
5905
330
5897
100
AcDbEntity
  8
AM_5 寸法線
 62
     3
100
AcDbLine
 10
573.6358412000002
 20
534.802597840523
 30
0.0
 11
573.6358412000002
 21
556.302597840523
 31
0.0
  0
INSERT
  5
5906
330
5897
100
AcDbEntity
  8
AM_5 寸法線
 62
     3
100
AcDbBlockReference
  2
_Open30
 10
573.6358412000002
 20
534.802597840523
 30
0.0
 41
7.5
 42
7.5
 43
7.5
 50
90.0
  0
INSERT
  5
5907
330
5897
100
AcDbEntity
  8
AM_5 寸法線
 62
     3
100
AcDbBlockReference
  2
_Open30
 10
573.6358412000002
 20
556.302597840523
 30
0.0
 41
7.5
 42
7.5
 43
7.5
 50
270.0
  0
POINT
  5
5908
330
5897
100
AcDbEntity
  8
Defpoints
 62
     0
100
AcDbPoint
 10
556.3150471999996
 20
534.802597840523
 30
0.0
  0
POINT
  5
5909
330
5897
100
AcDbEntity
  8
Defpoints
 62
     0
100
AcDbPoint
 10
558.3150471999998
 20
556.302597840523
 30
0.0
  0
POINT
  5
590A
330
5897
100
AcDbEntity
  8
Defpoints
 62
     0
100
AcDbPoint
 10
573.6358412000002
 20
556.302597840523
 30
0.0
  0
ENDBLK
  5
5899
330
5897
100
AcDbEntity
  8
0
100
AcDbBlockEnd
  0
BLOCK
  5
599F
330
599E
100
AcDbEntity
  8
0
100
AcDbBlockBegin
  2
ケース
 70
     0
 10
0.0
 20
0.0
 30
0.0
  3
ケース
  1

  0
LINE
  5
59A1
330
599E
100
AcDbEntity
  8
AM_11 想像線
 48
0.1
100
AcDbLine
 10
12.40000000000009
 20
-15.51444949333563
 30
0.0
 11
12.40000000000009
 21
0.0
 31
0.0
  0
LINE
  5
59A2
330
599E
100
AcDbEntity
  8
AM_11 想像線
 48
0.1
100
AcDbLine
 10
0.0
 20
0.0
 30
0.0
 11
0.0
 21
-34.51444949333563
 31
0.0
  0
LINE
  5
59A3
330
599E
100
AcDbEntity
  8
AM_11 想像線
 48
0.1
100
AcDbLine
 10
7.0
 20
0.0
 30
0.0
 11
7.0
 21
-16.64842349333571
 31
0.0
  0
LINE
  5
59A4
330
599E
100
AcDbEntity
  8
AM_11 想像線
 48
0.1
100
AcDbLine
 10
10.0
 20
0.0
 30
0.0
 11
10.0
 21
-18.51444949333563
 31
0.0
  0
LINE
  5
59A5
330
599E
100
AcDbEntity
  8
AM_11 想像線
 48
0.1
100
AcDbLine
 10
10.10000000000036
 20
-35.61444949333577
 30
0.0
 11
10.10000000000036
 21
-25.41444949333572
 31
0.0
  0
LINE
  5
59A6
102
{ACAD_REACTORS
330
5760
102
}
330
599E
100
AcDbEntity
  8
AM_11 想像線
 48
0.1
100
AcDbLine
 10
4.0
 20
-38.51444949333563
 30
0.0
 11
17.0
 21
-38.51444949333563
 31
0.0
  0
ARC
  5
59A7
330
599E
100
AcDbEntity
  8
AM_11 想像線
 48
0.1
100
AcDbCircle
 10
4.0
 20
-34.51444949333563
 30
0.0
 40
4.0
100
AcDbArc
 50
180.0
 51
270.0
  0
ARC
  5
59A8
330
599E
100
AcDbEntity
  8
AM_11 想像線
 48
0.1
100
AcDbCircle
 10
10.60000000000036
 20
-35.61444949333577
 30
0.0
 40
0.5
100
AcDbArc
 50
180.0
 51
270.0
  0
LINE
  5
59A9
330
599E
100
AcDbEntity
  8
AM_11 想像線
 48
0.1
100
AcDbLine
 10
17.0
 20
-36.11444949333577
 30
0.0
 11
10.60000000000036
 21
-36.11444949333577
 31
0.0
  0
LINE
  5
59AA
330
599E
100
AcDbEntity
  8
AM_11 想像線
 48
0.1
100
AcDbLine
 10
15.5
 20
-38.51444949333563
 30
0.0
 11
15.5
 21
-36.11444949333577
 31
0.0
  0
ARC
  5
59AB
330
599E
100
AcDbEntity
  8
AM_11 想像線
 48
0.1
100
AcDbCircle
 10
7.5
 20
-17.51444949333563
 30
0.0
 40
1.0
100
AcDbArc
 50
90.0
 51
180.0
  0
ARC
  5
59AC
330
599E
100
AcDbEntity
  8
AM_11 想像線
 48
0.1
100
AcDbCircle
 10
7.5
 20
-21.51444949333563
 30
0.0
 40
1.0
100
AcDbArc
 50
180.0
 51
270.0
  0
LINE
  5
59AD
330
599E
100
AcDbEntity
  8
AM_11 想像線
 48
0.1
100
AcDbLine
 10
6.5
 20
-21.51444949333563
 30
0.0
 11
6.5
 21
-17.51444949333563
 31
0.0
  0
LINE
  5
59AE
330
599E
100
AcDbEntity
  8
AM_11 想像線
 48
0.1
100
AcDbLine
 10
8.527203000000099
 20
-16.51444949333563
 30
0.0
 11
11.40000000000009
 21
-16.51444949333563
 31
0.0
  0
LINE
  5
59AF
330
599E
100
AcDbEntity
  8
AM_11 想像線
 48
0.1
100
AcDbLine
 10
11.40000000000009
 20
-16.51444949333563
 30
0.0
 11
12.40000000000009
 21
-15.51444949333563
 31
0.0
  0
LINE
  5
59B0
330
599E
100
AcDbEntity
  8
AM_11 想像線
 48
0.1
100
AcDbLine
 10
8.527203000000099
 20
-16.51444949333563
 30
0.0
 11
7.5
 21
-16.51444949333563
 31
0.0
  0
LINE
  5
59B1
330
599E
100
AcDbEntity
  8
AM_11 想像線
 48
0.1
100
AcDbLine
 10
17.0
 20
-22.51444949333563
 30
0.0
 11
7.5
 21
-22.51444949333563
 31
0.0
  0
LINE
  5
59B2
330
599E
100
AcDbEntity
  8
AM_11 想像線
 48
0.1
100
AcDbLine
 10
15.5
 20
-24.91444949333573
 30
0.0
 11
15.5
 21
-22.51444949333563
 31
0.0
  0
LINE
  5
59B3
330
599E
100
AcDbEntity
  8
AM_11 想像線
 48
0.1
100
AcDbLine
 10
10.60000000000036
 20
-24.91444949333573
 30
0.0
 11
17.0
 21
-24.91444949333573
 31
0.0
  0
ARC
  5
59B4
330
599E
100
AcDbEntity
  8
AM_11 想像線
 48
0.1
100
AcDbCircle
 10
10.60000000000036
 20
-25.41444949333572
 30
0.0
 40
0.5
100
AcDbArc
 50
90.0
 51
180.0
  0
ENDBLK
  5
59A0
330
599E
100
AcDbEntity
  8
0
100
AcDbBlockEnd
  0
ENDSEC
  0
SECTION
  2
ENTITIES
  0
LINE
  5
3D2C
330
1F
100
AcDbEntity
  8
AM_7 中心線
100
AcDbLine
 10
651.8150471999997
 20
410.302597840523
 30
0.0
 11
651.8150471999997
 21
716.302597840523
 31
0.0
  0
INSERT
  5
4204
102
{ACAD_REACTORS
330
49E6
330
4A33
330
5030
330
5061
102
}
330
1F
100
AcDbEntity
  8
AM_0 外形線1
100
AcDbBlockReference
  2
センタB SMVH280
 10
651.8150471999997
 20
570.302597840523
 30
0.0
  0
INSERT
  5
42A8
102
{ACAD_REACTORS
330
478E
330
49E6
330
5014
330
509B
330
5760
330
587A
330
58A6
102
}
330
1F
100
AcDbEntity
  8
AM_0 外形線1
100
AcDbBlockReference
  2
センタＡ SMVH280
 10
651.8150471999997
 20
556.302597840523
 30
0.0
  0
INSERT
  5
4429
102
{ACAD_REACTORS
330
509B
102
}
330
1F
100
AcDbEntity
  8
AM_0 外形線1
100
AcDbBlockReference
  2
ケースＡ SMVH280
 10
651.8150471999997
 20
563.302597840523
 30
0.0
  0
INSERT
  5
45F3
102
{ACAD_REACTORS
330
47C0
330
47DC
330
4A03
330
4A1B
330
4822
102
}
330
1F
100
AcDbEntity
  8
AM_0 外形線1
100
AcDbBlockReference
  2
ケースＢ SMVH280
 10
651.8150471999997
 20
563.302597840523
 30
0.0
  0
INSERT
  5
46E1
102
{ACAD_REACTORS
330
47C0
330
47DC
102
}
330
1F
100
AcDbEntity
  8
AM_0 外形線1
100
AcDbBlockReference
  2
リーマボルト SMVH280 M12
 10
779.8150471999997
 20
542.302597840523
 30
0.0
  0
INSERT
  5
4755
330
1F
100
AcDbEntity
  8
AM_0 外形線1
100
AcDbBlockReference
  2
スラストプレ－ト SMVH280
 10
651.8150471999997
 20
556.302597840523
 30
0.0
  0
DIMENSION
  5
4777
102
{ACAD_XDICTIONARY
360
4784
102
}
102
{ACAD_REACTORS
330
478E
102
}
330
1F
100
AcDbEntity
  8
AM_5 寸法線
100
AcDbDimension
  2
*D13
 10
746.8150471999996
 20
341.3025978405229
 30
0.0
 11
651.8150471999997
 21
351.052597840523
 31
0.0
 70
    32
  1
%%c<>
 71
     5
 42
190.0
 73
     0
 74
     0
 75
     0
  3
SEISA$0
100
AcDbAlignedDimension
 13
556.8150471999996
 23
462.8025978405229
 33
0.0
 14
746.8150471999996
 24
462.8025978405229
 34
0.0
100
AcDbRotatedDimension
1001
ACAD
1000
DSTYLE
1002
{
1070
    40
1040
3.0
1002
}
1001
ACAD_DSTYLE_DIMINSPECT
1070
   396
1000
100%
1070
   395
1000

1070
   394
1070
    33
1070
   393
1070
     0
  0
DIMENSION
  5
47A5
102
{ACAD_XDICTIONARY
360
47B4
102
}
102
{ACAD_REACTORS
330
47C0
102
}
330
1F
100
AcDbEntity
  8
AM_5 寸法線
100
AcDbDimension
  2
*D14
 10
836.8150472000001
 20
563.302597840523
 30
0.0
 11
836.8150471999998
 21
516.5025978405233
 31
0.0
 70
   160
 71
     5
 42
21.0
 73
     0
 74
     0
 75
     0
  3
SEISA$0
100
AcDbAlignedDimension
 13
790.7650471999995
 23
542.302597840523
 33
0.0
 14
790.7650471999995
 24
563.302597840523
 34
0.0
 50
90.0
100
AcDbRotatedDimension
1001
ACAD_DSTYLE_DIMINSPECT
1070
   396
1000
100%
1070
   395
1000

1070
   394
1070
    33
1070
   393
1070
     0
1001
ACAD
1000
DSTYLE
1002
{
1070
    40
1040
3.0
1070
   173
1070
     1
1070
   272
1070
     2
1070
   342
1005
0
1070
   343
1005
69
1070
   344
1005
50BD
1002
}
  0
DIMENSION
  5
47C1
102
{ACAD_XDICTIONARY
360
47D0
102
}
102
{ACAD_REACTORS
330
47DC
102
}
330
1F
100
AcDbEntity
  8
AM_5 寸法線
100
AcDbDimension
  2
*D15
 10
836.8150472000001
 20
584.302597840523
 30
0.0
 11
836.8150471999998
 21
610.1025978405232
 31
0.0
 70
   160
 71
     5
 42
21.0
 73
     0
 74
     0
 75
     0
  3
SEISA$0
100
AcDbAlignedDimension
 13
790.8150471999996
 23
563.302597840523
 33
0.0
 14
790.8150471999996
 24
584.302597840523
 34
0.0
 50
90.0
100
AcDbRotatedDimension
1001
ACAD_DSTYLE_DIMINSPECT
1070
   396
1000
100%
1070
   395
1000

1070
   394
1070
    33
1070
   393
1070
     0
1001
ACAD
1000
DSTYLE
1002
{
1070
    40
1040
3.0
1070
   173
1070
     1
1070
   272
1070
     2
1070
   342
1005
0
1070
   343
1005
50BD
1070
   344
1005
69
1002
}
  0
DIMENSION
  5
480B
102
{ACAD_XDICTIONARY
360
4818
102
}
102
{ACAD_REACTORS
330
4822
102
}
330
1F
100
AcDbEntity
  8
AM_5 寸法線
100
AcDbDimension
  2
*D16
 10
866.8150471999997
 20
645.3025978405228
 30
0.0
 11
857.0650471999996
 21
563.3025978405231
 31
0.0
 70
    32
 71
     5
 42
163.9999999999999
 73
     0
 74
     0
 75
     0
  3
SEISA$0
100
AcDbAlignedDimension
 13
759.8150471999996
 23
481.302597840523
 33
0.0
 14
759.8150471999996
 24
645.302597840523
 34
0.0
 50
90.0
100
AcDbRotatedDimension
1001
ACAD
1000
DSTYLE
1002
{
1070
    40
1040
3.0
1070
   272
1070
     2
1002
}
  0
DIMENSION
  5
49CF
102
{ACAD_XDICTIONARY
360
49DC
102
}
102
{ACAD_REACTORS
330
49E6
102
}
330
1F
100
AcDbEntity
  8
AM_5 寸法線
100
AcDbDimension
  2
*D17
 10
896.8150471999996
 20
710.3025978405229
 30
0.0
 11
887.0650471999995
 21
563.3025978405231
 31
0.0
 70
    32
 71
     5
 42
294.0
 73
     0
 74
     0
 75
     0
  3
SEISA$0
100
AcDbAlignedDimension
 13
742.0150471999996
 23
416.3025978405228
 33
0.0
 14
742.0150471999996
 24
710.302597840523
 34
0.0
 50
90.0
100
AcDbRotatedDimension
1001
ACAD
1000
DSTYLE
1002
{
1070
    40
1040
3.0
1070
   272
1070
     2
1002
}
  0
DIMENSION
  5
49EC
102
{ACAD_XDICTIONARY
360
49F9
102
}
102
{ACAD_REACTORS
330
4A03
102
}
330
1F
100
AcDbEntity
  8
AM_5 寸法線
100
AcDbDimension
  2
*D18
 10
791.8150471999996
 20
845.302597840523
 30
0.0
 11
651.8150471999997
 21
855.052597840523
 31
0.0
 70
    32
  1
%%c<>
 71
     5
 42
280.0
 73
     0
 74
     0
 75
     0
  3
SEISA$0
100
AcDbAlignedDimension
 13
511.8150471999997
 23
583.302597840523
 33
0.0
 14
791.8150471999996
 24
583.302597840523
 34
0.0
100
AcDbRotatedDimension
1001
ACAD
1000
DSTYLE
1002
{
1070
    40
1040
3.0
1070
   272
1070
     2
1002
}
1001
ACAD_DSTYLE_DIMINSPECT
1070
   396
1000
100%
1070
   395
1000

1070
   394
1070
    33
1070
   393
1070
     0
  0
DIMENSION
  5
4A04
102
{ACAD_XDICTIONARY
360
4A11
102
}
102
{ACAD_REACTORS
330
4A1B
102
}
330
1F
100
AcDbEntity
  8
AM_5 寸法線
100
AcDbDimension
  2
*D19
 10
763.8150471999996
 20
815.302597840523
 30
0.0
 11
651.8150471999997
 21
825.052597840523
 31
0.0
 70
    32
  1
%%c<>
 71
     5
 42
224.0000000000001
 73
     0
 74
     0
 75
     0
  3
SEISA$0
100
AcDbAlignedDimension
 13
539.8150471999996
 23
641.302597840523
 33
0.0
 14
763.8150471999996
 24
641.302597840523
 34
0.0
100
AcDbRotatedDimension
1001
ACAD
1000
DSTYLE
1002
{
1070
    40
1040
3.0
1070
   272
1070
     2
1002
}
1001
ACAD_DSTYLE_DIMINSPECT
1070
   396
1000
100%
1070
   395
1000

1070
   394
1070
    33
1070
   393
1070
     0
  0
DIMENSION
  5
4A1C
102
{ACAD_XDICTIONARY
360
4A29
102
}
102
{ACAD_REACTORS
330
4A33
102
}
330
1F
100
AcDbEntity
  8
AM_5 寸法線
100
AcDbDimension
  2
*D20
 10
746.8150471999996
 20
785.302597840523
 30
0.0
 11
651.8150471999997
 21
795.052597840523
 31
0.0
 70
    32
  1
%%c<>
 71
     5
 42
190.0
 73
     0
 74
     0
 75
     0
  3
SEISA$0
100
AcDbAlignedDimension
 13
556.8150471999996
 23
663.802597840523
 33
0.0
 14
746.8150471999996
 24
663.802597840523
 34
0.0
100
AcDbRotatedDimension
1001
ACAD
1000
DSTYLE
1002
{
1070
    40
1040
3.0
1070
   272
1070
     2
1002
}
1001
ACAD_DSTYLE_DIMINSPECT
1070
   396
1000
100%
1070
   395
1000

1070
   394
1070
    33
1070
   393
1070
     0
  0
DIMENSION
  5
4FFD
102
{ACAD_XDICTIONARY
360
500A
102
}
102
{ACAD_REACTORS
330
5014
102
}
330
1F
100
AcDbEntity
  8
AM_5 寸法線
100
AcDbDimension
  2
*D21
 10
634.4183923962362
 20
556.302597840523
 30
0.0
 11
624.6683923962363
 21
486.302597840523
 31
0.0
 70
    32
 71
     5
 42
140.0
 73
     0
 74
     0
 75
     0
  3
SEISA$0
100
AcDbAlignedDimension
 13
642.0411959192906
 23
416.3025978405228
 33
0.0
 14
615.9646636595133
 24
556.302597840523
 34
0.0
 50
90.0
100
AcDbRotatedDimension
1001
ACAD
1000
DSTYLE
1002
{
1070
    40
1040
3.0
1070
   272
1070
     2
1002
}
  0
DIMENSION
  5
5015
102
{ACAD_XDICTIONARY
360
5024
102
}
102
{ACAD_REACTORS
330
5030
102
}
330
1F
100
AcDbEntity
  8
AM_5 寸法線
100
AcDbDimension
  2
*D22
 10
634.4183923962362
 20
570.302597840523
 30
0.0
 11
624.5451375433588
 21
582.052846086539
 31
0.0
 70
   160
 71
     5
 42
14.0
 73
     0
 74
     0
 75
     0
  3
SEISA$0
100
AcDbAlignedDimension
 13
615.9646636595133
 23
556.302597840523
 33
0.0
 14
638.0891948916678
 24
570.302597840523
 34
0.0
 50
90.0
100
AcDbRotatedDimension
1001
ACAD
1000
DSTYLE
1002
{
1070
    40
1040
3.0
1070
   272
1070
     2
1070
   279
1070
     2
1002
}
  0
DIMENSION
  5
504A
102
{ACAD_XDICTIONARY
360
5057
102
}
102
{ACAD_REACTORS
330
5061
102
}
330
1F
100
AcDbEntity
  8
AM_5 寸法線
100
AcDbDimension
  2
*D23
 10
634.4183923962362
 20
710.302597840523
 30
0.0
 11
624.6683923962363
 21
640.3025978405231
 31
0.0
 70
    32
 71
     5
 42
140.0
 73
     0
 74
     0
 75
     0
  3
SEISA$0
100
AcDbAlignedDimension
 13
640.3912172460803
 23
570.302597840523
 33
0.0
 14
642.7767161314622
 24
710.302597840523
 34
0.0
 50
90.0
100
AcDbRotatedDimension
1001
ACAD
1000
DSTYLE
1002
{
1070
    40
1040
3.0
1070
   272
1070
     2
1002
}
  0
DIMENSION
  5
5080
102
{ACAD_XDICTIONARY
360
508F
102
}
102
{ACAD_REACTORS
330
509B
330
587A
102
}
330
1F
100
AcDbEntity
  8
AM_5 寸法線
100
AcDbDimension
  2
*D24
 10
573.6358412000002
 20
501.802597840523
 30
0.0
 11
573.6358412000002
 21
467.9025978405231
 31
0.0
 70
   160
 71
     5
 42
4.5
 73
     0
 74
     0
 75
     0
  3
SEISA$0
100
AcDbAlignedDimension
 13
556.8150471999996
 23
497.302597840523
 33
0.0
 14
556.3150471999996
 24
501.802597840523
 34
0.0
 50
90.0
100
AcDbRotatedDimension
1001
ACAD
1000
DSTYLE
1002
{
1070
    40
1040
3.0
1070
   272
1070
     2
1002
}
  0
MTEXT
  5
5713
330
1F
100
AcDbEntity
  8
AM_6 文字
100
AcDbMText
 10
777.8607110642065
 20
397.0316750515183
 30
0.0
 40
10.5
 41
173.1003837419521
 46
51.40931194123442
 71
     1
 72
     5
  1
{\W0.6;TYPE:SMV280/SMVH280\PSHAFT DIA:MAX/MIN φ135/φ42}
  7
SEISA
 73
     1
 44
1.0
  0
DIMENSION
  5
5750
102
{ACAD_XDICTIONARY
360
575F
102
}
102
{ACAD_REACTORS
330
5760
102
}
330
1F
100
AcDbEntity
  8
AM_5 寸法線
100
AcDbDimension
  2
*D26
 10
511.8150471999997
 20
416.3025978405228
 30
0.0
 11
502.0650471999996
 21
436.9275978405229
 31
0.0
 70
    32
 71
     5
 42
0.9999999999999431
 73
     0
 74
     0
 75
     0
  3
SEISA$0
100
AcDbAlignedDimension
 13
556.8150471999996
 23
415.302597840523
 33
0.0
 14
561.6150471999998
 24
416.3025978405228
 34
0.0
 50
90.00000000000005
100
AcDbRotatedDimension
1001
ACAD
1000
DSTYLE
1002
{
1070
    40
1040
3.0
1070
   272
1070
     2
1002
}
1001
ACAD_DSTYLE_DIMINSPECT
1070
   396
1000
100%
1070
   395
1000

1070
   394
1070
    33
1070
   393
1070
     0
  0
DIMENSION
  5
586C
102
{ACAD_XDICTIONARY
360
5879
102
}
102
{ACAD_REACTORS
330
587A
330
58A6
102
}
330
1F
100
AcDbEntity
  8
AM_5 寸法線
100
AcDbDimension
  2
*D27
 10
573.6358412000002
 20
534.802597840523
 30
0.0
 11
563.8858412000002
 21
518.3025978405233
 31
0.0
 70
    32
 71
     5
 42
33.0
 73
     0
 74
     0
 75
     0
  3
SEISA$0
100
AcDbAlignedDimension
 13
556.3150471999996
 23
501.802597840523
 33
0.0
 14
556.3150471999996
 24
534.802597840523
 34
0.0
 50
90.00000000000005
100
AcDbRotatedDimension
1001
ACAD
1000
DSTYLE
1002
{
1070
    40
1040
3.0
1070
   272
1070
     2
1002
}
1001
ACAD_DSTYLE_DIMINSPECT
1070
   396
1000
100%
1070
   395
1000

1070
   394
1070
    33
1070
   393
1070
     0
  0
DIMENSION
  5
5896
102
{ACAD_XDICTIONARY
360
58A5
102
}
102
{ACAD_REACTORS
330
58A6
102
}
330
1F
100
AcDbEntity
  8
AM_5 寸法線
100
AcDbDimension
  2
*D28
 10
573.6358412000002
 20
556.302597840523
 30
0.0
 11
595.7380965923059
 21
532.7944858441589
 31
0.0
 70
   160
 71
     5
 42
21.5
 73
     0
 74
     0
 75
     0
  3
SEISA$0
100
AcDbAlignedDimension
 13
556.3150471999996
 23
534.802597840523
 33
0.0
 14
558.3150471999998
 24
556.302597840523
 34
0.0
 50
90.00000000000005
100
AcDbRotatedDimension
1001
ACAD_DSTYLE_DIMINSPECT
1070
   396
1000
100%
1070
   395
1000

1070
   394
1070
    33
1070
   393
1070
     0
1001
ACAD
1000
DSTYLE
1002
{
1070
    40
1040
3.0
1070
   272
1070
     2
1070
   279
1070
     1
1002
}
  0
INSERT
  5
59B5
330
1F
100
AcDbEntity
  8
AM_0 外形線1
100
AcDbBlockReference
  2
ケース
 10
539.8150471999996
 20
453.8170473338587
 30
0.0
  0
ENDSEC
  0
SECTION
  2
OBJECTS
  0
DICTIONARY
  5
C
330
0
100
AcDbDictionary
281
     1
  3
ACAD_COLOR
350
C5
  3
ACAD_GROUP
350
D
  3
ACAD_LAYOUT
350
1A
  3
ACAD_MATERIAL
350
C4
  3
ACAD_MLEADERSTYLE
350
2D5
  3
ACAD_MLINESTYLE
350
17
  3
ACAD_PLOTSETTINGS
350
19
  3
ACAD_PLOTSTYLENAME
350
E
  3
ACAD_SCALELIST
350
2B3
  3
ACAD_TABLESTYLE
350
121
  3
ACAD_VISUALSTYLE
350
27F
  3
ACDB_RECOMPOSE_DATA
350
2F7
  3
AcDbVariableDictionary
350
34
  3
AcmDictionary
350
49
  3
AMG
350
2B
  3
AMGSNAPSETTINGS
350
1DE
  0
DICTIONARY
  5
BF
330
2
100
AcDbDictionary
280
     1
281
     1
  3
ACAD_LAYERSTATES
360
2786
  3
AMLAYER_GROUPCOLORS
360
C0
  0
DICTIONARY
  5
29D7
330
10
100
AcDbDictionary
280
     1
281
     1
  3
ADSK_XREC_LAYER_RECONCILED
360
29D8
  0
DICTIONARY
  5
29D9
330
81
100
AcDbDictionary
280
     1
281
     1
  3
ADSK_XREC_LAYER_RECONCILED
360
29DA
  0
DICTIONARY
  5
29E0
330
25C9
100
AcDbDictionary
280
     1
281
     1
  3
ADSK_XREC_LAYER_RECONCILED
360
29E1
  0
DICTIONARY
  5
29E2
330
25CA
100
AcDbDictionary
280
     1
281
     1
  3
ADSK_XREC_LAYER_RECONCILED
360
29E3
  0
DICTIONARY
  5
29E8
330
26B3
100
AcDbDictionary
280
     1
281
     1
  3
ADSK_XREC_LAYER_RECONCILED
360
29E9
  0
DICTIONARY
  5
82
330
1F
100
AcDbDictionary
280
     1
281
     1
  3
ACAD_SORTENTS
360
A41
  0
DICTIONARY
  5
341B
330
341A
100
AcDbDictionary
280
     1
281
     1
  3
ACAD_SORTENTS
360
52B0
  0
DICTIONARY
  5
424F
330
41DD
100
AcDbDictionary
280
     1
281
     1
  3
ACAD_SORTENTS
360
586B
  0
DICTIONARY
  5
42F3
330
4282
100
AcDbDictionary
280
     1
281
     1
  3
ACAD_SORTENTS
360
5828
  0
DICTIONARY
  5
44A6
330
43EF
100
AcDbDictionary
280
     1
281
     1
  3
ACAD_SORTENTS
360
5280
  0
DICTIONARY
  5
4670
330
45B7
100
AcDbDictionary
280
     1
281
     1
  3
ACAD_SORTENTS
360
532D
  0
DICTIONARY
  5
472C
330
46BD
100
AcDbDictionary
280
     1
281
     1
  3
ACAD_SORTENTS
360
5480
  0
DICTIONARY
  5
4770
330
4749
100
AcDbDictionary
280
     1
281
     1
  3
ACAD_SORTENTS
360
59F6
  0
DICTIONARY
  5
4784
330
4777
100
AcDbDictionary
280
     1
281
     1
  3
ACAD_DIMASSOC
360
478E
  0
DICTIONARY
  5
47B4
330
47A5
100
AcDbDictionary
280
     1
281
     1
  3
ACAD_DIMASSOC
360
47C0
  0
DICTIONARY
  5
47D0
330
47C1
100
AcDbDictionary
280
     1
281
     1
  3
ACAD_DIMASSOC
360
47DC
  0
DICTIONARY
  5
4818
330
480B
100
AcDbDictionary
280
     1
281
     1
  3
ACAD_DIMASSOC
360
4822
  0
DICTIONARY
  5
49DC
330
49CF
100
AcDbDictionary
280
     1
281
     1
  3
ACAD_DIMASSOC
360
49E6
  0
DICTIONARY
  5
49F9
330
49EC
100
AcDbDictionary
280
     1
281
     1
  3
ACAD_DIMASSOC
360
4A03
  0
DICTIONARY
  5
4A11
330
4A04
100
AcDbDictionary
280
     1
281
     1
  3
ACAD_DIMASSOC
360
4A1B
  0
DICTIONARY
  5
4A29
330
4A1C
100
AcDbDictionary
280
     1
281
     1
  3
ACAD_DIMASSOC
360
4A33
  0
DICTIONARY
  5
500A
330
4FFD
100
AcDbDictionary
280
     1
281
     1
  3
ACAD_DIMASSOC
360
5014
  0
DICTIONARY
  5
5024
330
5015
100
AcDbDictionary
280
     1
281
     1
  3
ACAD_DIMASSOC
360
5030
  0
DICTIONARY
  5
5057
330
504A
100
AcDbDictionary
280
     1
281
     1
  3
ACAD_DIMASSOC
360
5061
  0
DICTIONARY
  5
508F
330
5080
100
AcDbDictionary
280
     1
281
     1
  3
ACAD_DIMASSOC
360
509B
  0
DICTIONARY
  5
575F
330
5750
100
AcDbDictionary
280
     1
281
     1
  3
ACAD_DIMASSOC
360
5760
  0
DICTIONARY
  5
5879
330
586C
100
AcDbDictionary
280
     1
281
     1
  3
ACAD_DIMASSOC
360
587A
  0
DICTIONARY
  5
58A5
330
5896
100
AcDbDictionary
280
     1
281
     1
  3
ACAD_DIMASSOC
360
58A6
  0
DICTIONARY
  5
C5
102
{ACAD_REACTORS
330
C
102
}
330
C
100
AcDbDictionary
281
     1
  0
DICTIONARY
  5
D
102
{ACAD_REACTORS
330
C
102
}
330
C
100
AcDbDictionary
281
     1
  0
DICTIONARY
  5
1A
102
{ACAD_REACTORS
330
C
102
}
330
C
100
AcDbDictionary
281
     1
  3
Model
350
22
  3
レイアウト1
350
1E
  3
レイアウト2
350
26
  0
DICTIONARY
  5
C4
102
{ACAD_REACTORS
330
C
102
}
330
C
100
AcDbDictionary
281
     1
  3
ByBlock
350
27D
  3
ByLayer
350
27C
  3
Global
350
27E
  0
DICTIONARY
  5
2D5
102
{ACAD_REACTORS
330
C
102
}
330
C
100
AcDbDictionary
281
     1
  3
Standard
350
2D6
  0
DICTIONARY
  5
17
102
{ACAD_REACTORS
330
C
102
}
330
C
100
AcDbDictionary
281
     1
  3
Standard
350
18
  0
DICTIONARY
  5
19
102
{ACAD_REACTORS
330
C
102
}
330
C
100
AcDbDictionary
281
     1
  3
SEISA基本
350
1C7E
  0
ACDBDICTIONARYWDFLT
  5
E
102
{ACAD_REACTORS
330
C
102
}
330
C
100
AcDbDictionary
281
     1
  3
Normal
350
F
100
AcDbDictionaryWithDefault
340
F
  0
DICTIONARY
  5
2B3
102
{ACAD_REACTORS
330
C
102
}
330
C
100
AcDbDictionary
281
     1
  3
*A1
350
29F2
  3
*A2
350
5709
  3
*A3
350
570A
  3
A0
350
2B4
  3
A1
350
2B5
  3
A2
350
2B6
  3
A3
350
2B7
  3
A4
350
2B8
  3
A5
350
2B9
  3
A6
350
2BA
  3
A7
350
2BB
  3
A8
350
2BC
  3
A9
350
2BD
  3
B0
350
2BE
  3
B1
350
2BF
  3
B2
350
2C0
  3
B3
350
2C1
  3
B4
350
2C2
  3
B5
350
2C3
  3
B6
350
2C4
  3
B7
350
2C5
  3
B8
350
2C6
  3
B9
350
2C7
  3
C0
350
2C8
  3
C1
350
2C9
  3
C2
350
2CA
  3
C3
350
2CB
  3
C4
350
2CC
  3
C5
350
2CD
  3
C6
350
2CE
  3
C7
350
2CF
  3
C8
350
2D0
  3
C9
350
2D1
  3
D0
350
2D2
  3
D1
350
2D3
  3
D2
350
2D4
  0
DICTIONARY
  5
121
102
{ACAD_REACTORS
330
C
102
}
330
C
100
AcDbDictionary
281
     1
  3
Standard
350
122
  0
DICTIONARY
  5
27F
102
{ACAD_REACTORS
330
C
102
}
330
C
100
AcDbDictionary
281
     1
  3
2dWireframe
350
285
  3
3D Hidden
350
287
  3
3dWireframe
350
286
  3
Basic
350
284
  3
Brighten
350
28B
  3
ColorChange
350
28F
  3
Conceptual
350
288
  3
Dim
350
28A
  3
Facepattern
350
28E
  3
Flat
350
280
  3
FlatWithEdges
350
281
  3
Gouraud
350
282
  3
GouraudWithEdges
350
283
  3
Linepattern
350
28D
  3
Realistic
350
289
  3
Thicken
350
28C
  0
XRECORD
  5
2F7
102
{ACAD_REACTORS
330
C
102
}
330
C
100
AcDbXrecord
280
     1
 90
        1
330
122
  0
DICTIONARY
  5
34
102
{ACAD_REACTORS
330
C
102
}
330
C
100
AcDbDictionary
281
     1
  3
CANNOSCALE
350
2FA
  3
CMLEADERSTYLE
350
2F8
  3
CTABLESTYLE
350
140
  3
DIMASSOC
350
AC
  3
INDEXCTL
350
35
  3
LAYEREVAL
350
4FB1
  3
LAYERNOTIFY
350
4FB2
  3
LIGHTINGUNITS
350
2FB
  3
MSLTSCALE
350
2F9
  0
DICTIONARY
  5
49
102
{ACAD_REACTORS
330
C
102
}
330
C
100
AcDbDictionary
281
     1
  3
AcmBOM
350
161B
  3
AcmStdDictionary
350
4A
  3
AMDTSECTSYM_ARROWCOLOR
350
12B
  0
DICTIONARY
  5
2B
102
{ACAD_REACTORS
330
C
102
}
330
C
100
AcDbDictionary
281
     1
  0
DICTIONARY
  5
1DE
102
{ACAD_REACTORS
330
C
102
}
330
C
100
AcDbDictionary
281
     1
  0
DICTIONARY
  5
2786
102
{ACAD_REACTORS
330
BF
102
}
330
BF
100
AcDbDictionary
281
     1
  0
DICTIONARY
  5
C0
102
{ACAD_REACTORS
330
BF
102
}
330
BF
100
AcDbDictionary
280
     1
281
     1
  0
XRECORD
  5
29D8
102
{ACAD_REACTORS
330
29D7
102
}
330
29D7
100
AcDbXrecord
280
     1
290
     1
  0
XRECORD
  5
29DA
102
{ACAD_REACTORS
330
29D9
102
}
330
29D9
100
AcDbXrecord
280
     1
290
     1
  0
XRECORD
  5
29E1
102
{ACAD_REACTORS
330
29E0
102
}
330
29E0
100
AcDbXrecord
280
     1
290
     1
  0
XRECORD
  5
29E3
102
{ACAD_REACTORS
330
29E2
102
}
330
29E2
100
AcDbXrecord
280
     1
290
     1
  0
XRECORD
  5
29E9
102
{ACAD_REACTORS
330
29E8
102
}
330
29E8
100
AcDbXrecord
280
     1
290
     1
  0
SORTENTSTABLE
  5
A41
102
{ACAD_REACTORS
330
82
102
}
330
82
100
AcDbSortentsTable
330
1F
331
4A1C
  5
4B8D
331
45F3
  5
4777
331
47A5
  5
4823
331
5080
  5
5194
331
4FFD
  5
5063
331
49CF
  5
4B59
331
4755
  5
47C1
331
4429
  5
4773
331
49EC
  5
4B5B
331
5713
  5
5713
331
46E1
  5
47A5
331
42A8
  5
4755
331
4777
  5
480B
331
3D2C
  5
3D2C
331
5015
  5
5064
331
47C1
  5
483B
331
4204
  5
46E1
331
4A04
  5
4B89
331
480B
  5
4854
331
504A
  5
5080
  0
SORTENTSTABLE
  5
52B0
102
{ACAD_REACTORS
330
341B
102
}
330
341B
100
AcDbSortentsTable
330
341A
  0
SORTENTSTABLE
  5
586B
102
{ACAD_REACTORS
330
424F
102
}
330
424F
100
AcDbSortentsTable
330
41DD
331
41E2
  5
41E4
331
41E1
  5
41E3
331
585C
  5
41E2
331
41E4
  5
41E6
331
585B
  5
41E1
331
41E3
  5
41E5
331
41E6
  5
41EA
331
41E5
  5
41E7
331
41EA
  5
41EC
331
4200
  5
585C
331
41E7
  5
41EB
331
41EC
  5
41EE
331
41EB
  5
41ED
331
41EE
  5
41F0
331
41ED
  5
41EF
331
41F1
  5
41F3
331
41F0
  5
41F2
331
41F3
  5
41F5
331
41F2
  5
41F4
331
41F5
  5
41F7
331
41F4
  5
41F6
331
41F7
  5
41F9
331
41F6
  5
41F8
331
41F9
  5
41FB
331
41F8
  5
41FA
331
41FB
  5
41FD
331
41FA
  5
41FC
331
41FD
  5
41FF
331
41FC
  5
41FE
331
41FF
  5
585B
331
41FE
  5
4200
331
41EF
  5
41F1
  0
SORTENTSTABLE
  5
5828
102
{ACAD_REACTORS
330
42F3
102
}
330
42F3
100
AcDbSortentsTable
330
4282
331
42A3
  5
5808
331
4294
  5
4297
331
429C
  5
429F
331
4287
  5
428B
331
428B
  5
428F
331
4293
  5
4296
331
42A2
  5
5807
331
429B
  5
429E
331
4286
  5
4289
331
42A1
  5
42A4
331
4292
  5
4295
331
429A
  5
429D
331
4285
  5
4288
331
4289
  5
428E
331
42A0
  5
42A3
331
4291
  5
4294
331
4299
  5
429C
331
5808
  5
4286
331
4288
  5
428D
331
4290
  5
4293
331
4298
  5
429B
331
5807
  5
4285
331
5827
  5
4287
331
428F
  5
4292
331
4297
  5
429A
331
429F
  5
42A2
331
428E
  5
4291
331
4296
  5
4299
331
429E
  5
42A1
331
428D
  5
4290
331
42A4
  5
5827
331
4295
  5
4298
331
429D
  5
42A0
  0
SORTENTSTABLE
  5
5280
102
{ACAD_REACTORS
330
44A6
102
}
330
44A6
100
AcDbSortentsTable
330
43EF
  0
SORTENTSTABLE
  5
532D
102
{ACAD_REACTORS
330
4670
102
}
330
4670
100
AcDbSortentsTable
330
45B7
  0
SORTENTSTABLE
  5
5480
102
{ACAD_REACTORS
330
472C
102
}
330
472C
100
AcDbSortentsTable
330
46BD
  0
SORTENTSTABLE
  5
59F6
102
{ACAD_REACTORS
330
4770
102
}
330
4770
100
AcDbSortentsTable
330
4749
  0
DIMASSOC
  5
478E
102
{ACAD_REACTORS
330
4784
102
}
330
4784
100
AcDbDimAssoc
330
4777
 90
        3
 70
     0
 71
     0
  1
AcDbOsnapPointRef
 72
    13
331
42A8
331
428D
 73
     2
 91
        0
 40
0.0
 10
0.0
 20
0.0
 30
2.000000000000000E+50
 75
     0
  1
AcDbOsnapPointRef
 72
    13
331
42A8
331
429A
 73
     2
 91
        0
 40
0.0
 10
0.0
 20
0.0
 30
2.000000000000000E+50
 75
     0
  0
DIMASSOC
  5
47C0
102
{ACAD_REACTORS
330
47B4
102
}
330
47B4
100
AcDbDimAssoc
330
47A5
 90
        3
 70
     0
 71
     0
  1
AcDbOsnapPointRef
 72
     1
331
46E1
331
46CC
 73
     2
 91
        0
 40
1.0
 10
0.0
 20
0.0
 30
2.000000000000000E+50
 75
     0
  1
AcDbOsnapPointRef
 72
     8
331
45F3
331
466D
 73
     2
 91
        0
 40
0.0003597122302171
 10
0.0
 20
0.0
 30
0.0
 75
     1
  1
AcDbOsnapPointRef
 72
     1
331
46E1
331
46CC
 73
     2
 91
        0
 40
1.0
 10
0.0
 20
0.0
 30
2.000000000000000E+50
 75
     0
  0
DIMASSOC
  5
47DC
102
{ACAD_REACTORS
330
47D0
102
}
330
47D0
100
AcDbDimAssoc
330
47C1
 90
        3
 70
     0
 71
     0
  1
AcDbOsnapPointRef
 72
    13
331
45F3
331
45E6
 73
     2
 91
        0
 40
0.0
 10
0.0
 20
0.0
 30
2.000000000000000E+50
 75
     0
  1
AcDbOsnapPointRef
 72
     8
331
46E1
331
4726
 73
     2
 91
        0
 40
1.011627906976743
 10
0.0
 20
0.0
 30
0.0
 75
     1
  1
AcDbOsnapPointRef
 72
    13
331
45F3
331
45E6
 73
     2
 91
        0
 40
0.0
 10
0.0
 20
0.0
 30
2.000000000000000E+50
 75
     0
  0
DIMASSOC
  5
4822
102
{ACAD_REACTORS
330
4818
102
}
330
4818
100
AcDbDimAssoc
330
480B
 90
        2
 70
     0
 71
     0
  1
AcDbOsnapPointRef
 72
    13
331
45F3
331
45E8
 73
     2
 91
        0
 40
0.0
 10
0.0
 20
0.0
 30
2.000000000000000E+50
 75
     0
  0
DIMASSOC
  5
49E6
102
{ACAD_REACTORS
330
49DC
102
}
330
49DC
100
AcDbDimAssoc
330
49CF
 90
        3
 70
     0
 71
     0
  1
AcDbOsnapPointRef
 72
    13
331
42A8
331
4287
 73
     2
 91
        0
 40
0.0
 10
0.0
 20
0.0
 30
2.000000000000000E+50
 75
     0
  1
AcDbOsnapPointRef
 72
    13
331
4204
331
41E2
 73
     2
 91
        0
 40
0.0
 10
0.0
 20
0.0
 30
2.000000000000000E+50
 75
     0
  0
DIMASSOC
  5
4A03
102
{ACAD_REACTORS
330
49F9
102
}
330
49F9
100
AcDbDimAssoc
330
49EC
 90
        3
 70
     0
 71
     0
  1
AcDbOsnapPointRef
 72
     1
331
45F3
331
45C2
 73
     2
 91
        0
 40
1.0
 10
0.0
 20
0.0
 30
2.000000000000000E+50
 75
     0
  1
AcDbOsnapPointRef
 72
     1
331
45F3
331
45E5
 73
     2
 91
        0
 40
1.0
 10
0.0
 20
0.0
 30
2.000000000000000E+50
 75
     0
  0
DIMASSOC
  5
4A1B
102
{ACAD_REACTORS
330
4A11
102
}
330
4A11
100
AcDbDimAssoc
330
4A04
 90
        3
 70
     0
 71
     0
  1
AcDbOsnapPointRef
 72
     1
331
45F3
331
45D9
 73
     2
 91
        0
 40
3.141592653589792
 10
0.0
 20
0.0
 30
2.000000000000000E+50
 75
     0
  1
AcDbOsnapPointRef
 72
     8
331
45F3
331
45E9
 73
     2
 91
        0
 40
1.0
 10
0.0
 20
0.0
 30
0.0
 75
     1
  1
AcDbOsnapPointRef
 72
     1
331
45F3
331
45D9
 73
     2
 91
        0
 40
3.141592653589792
 10
0.0
 20
0.0
 30
2.000000000000000E+50
 75
     0
  0
DIMASSOC
  5
4A33
102
{ACAD_REACTORS
330
4A29
102
}
330
4A29
100
AcDbDimAssoc
330
4A1C
 90
        3
 70
     0
 71
     0
  1
AcDbOsnapPointRef
 72
    13
331
4204
331
41E6
 73
     2
 91
        0
 40
0.0
 10
0.0
 20
0.0
 30
2.000000000000000E+50
 75
     0
  1
AcDbOsnapPointRef
 72
    13
331
4204
331
41F6
 73
     2
 91
        0
 40
0.0
 10
0.0
 20
0.0
 30
2.000000000000000E+50
 75
     0
  0
DIMASSOC
  5
5014
102
{ACAD_REACTORS
330
500A
102
}
330
500A
100
AcDbDimAssoc
330
4FFD
 90
        1
 70
     0
 71
     0
  1
AcDbOsnapPointRef
 72
    10
331
42A8
331
4287
 73
     2
 91
        0
 40
0.5541787765006049
 10
0.0
 20
0.0
 30
0.0
 75
     0
  0
DIMASSOC
  5
5030
102
{ACAD_REACTORS
330
5024
102
}
330
5024
100
AcDbDimAssoc
330
5015
 90
        2
 70
     0
 71
     0
  1
AcDbOsnapPointRef
 72
    10
331
4204
331
41E1
 73
     2
 91
        0
 40
0.8531994405525995
 10
0.0
 20
0.0
 30
0.0
 75
     0
  0
DIMASSOC
  5
5061
102
{ACAD_REACTORS
330
5057
102
}
330
5057
100
AcDbDimAssoc
330
504A
 90
        3
 70
     0
 71
     0
  1
AcDbOsnapPointRef
 72
    10
331
4204
331
41E1
 73
     2
 91
        0
 40
0.877820000492842
 10
0.0
 20
0.0
 30
0.0
 75
     0
  1
AcDbOsnapPointRef
 72
    10
331
4204
331
41E2
 73
     2
 91
        0
 40
0.5501016134619593
 10
0.0
 20
0.0
 30
0.0
 75
     0
  0
DIMASSOC
  5
509B
102
{ACAD_REACTORS
330
508F
102
}
330
508F
100
AcDbDimAssoc
330
5080
 90
        3
 70
     0
 71
     0
  1
AcDbOsnapPointRef
 72
    13
331
4429
331
4403
 73
     2
 91
        0
 40
0.0
 10
0.0
 20
0.0
 30
2.000000000000000E+50
 75
     0
  1
AcDbOsnapPointRef
 72
    13
331
42A8
331
4290
 73
     2
 91
        0
 40
0.0
 10
0.0
 20
0.0
 30
2.000000000000000E+50
 75
     0
  0
DIMASSOC
  5
5760
102
{ACAD_REACTORS
330
575F
102
}
330
575F
100
AcDbDimAssoc
330
5750
 90
        2
 70
     0
 71
     0
  1
AcDbOsnapPointRef
 72
     1
331
42A8
331
4287
 73
     0
 91
        0
 40
0.0
 10
0.0
 20
0.0
 30
2.000000000000000E+50
 75
     0
  0
DIMASSOC
  5
587A
102
{ACAD_REACTORS
330
5879
102
}
330
5879
100
AcDbDimAssoc
330
586C
 90
        3
 70
     0
 71
     0
  1
AcDbOsnapPointRef
 72
     4
331
5080
331
50B0
 73
     0
 91
        0
 40
0.0
 10
0.0
 20
0.0
 30
0.0
 75
     0
  1
AcDbOsnapPointRef
 72
     8
331
42A8
331
4296
 73
     0
 91
        0
 40
0.9363271054875188
 10
0.0
 20
0.0
 30
0.0
 75
     1
  1
AcDbOsnapPointRef
 72
     4
331
5080
331
50B0
 73
     0
 91
        0
 40
0.0
 10
0.0
 20
0.0
 30
0.0
 75
     0
  0
DIMASSOC
  5
58A6
102
{ACAD_REACTORS
330
58A5
102
}
330
58A5
100
AcDbDimAssoc
330
5896
 90
        3
 70
     0
 71
     0
  1
AcDbOsnapPointRef
 72
     4
331
586C
331
5894
 73
     0
 91
        0
 40
0.0
 10
0.0
 20
0.0
 30
0.0
 75
     0
  1
AcDbOsnapPointRef
 72
    13
331
42A8
331
4292
 73
     0
 91
        0
 40
0.0
 10
0.0
 20
0.0
 30
2.000000000000000E+50
 75
     0
  0
LAYOUT
  5
22
102
{ACAD_REACTORS
330
1A
102
}
330
1A
100
AcDbPlotSettings
  1

  2
KONICA MINOLTA 501 PCL
  4
A4
  6

 40
5.027082920074462
 41
5.027085781097412
 42
5.027069091796875
 43
5.027069091796875
 44
209.9733276367186
 45
296.9259948730469
 46
0.0
 47
22.41629593657274
 48
0.0
 49
0.0
140
0.0
141
0.0
142
1.0
143
2.153050568747429
 70
 11956
 72
     1
 73
     0
 74
     1
  7
SEISA.ctb
 75
     0
147
0.4644572749546546
 76
     0
 77
     2
 78
   300
148
-496.7281541041716
149
-339.2056307699595
100
AcDbLayout
  1
Model
 70
     1
 71
     0
 10
0.0
 20
0.0
 11
12.0
 21
9.0
 12
0.0
 22
0.0
 32
0.0
 14
0.0
 24
0.0
 34
0.0
 15
0.0
 25
0.0
 35
0.0
146
0.0
 13
0.0
 23
0.0
 33
0.0
 16
1.0
 26
0.0
 36
0.0
 17
0.0
 27
1.0
 37
0.0
 76
     0
330
1F
331
27A
1001
ACAD_PSEXT
1000
KONICA MINOLTA 501 PCL
1000
KONICA MINOLTA 501/421/361PCL
1000
IP_192.168.20.231_(1)
1000

1070
     0
  0
LAYOUT
  5
1E
102
{ACAD_REACTORS
330
1A
102
}
330
1A
100
AcDbPlotSettings
  1

  2
none_device
  4
Letter_(8.50_x_11.00_Inches)
  6

 40
6.349999904632567
 41
6.349999904632567
 42
6.350006103515625
 43
6.350006103515625
 44
215.8999938964844
 45
279.3999938964844
 46
0.0
 47
0.0
 48
0.0
 49
0.0
140
0.0
141
0.0
142
1.0
143
1.0
 70
 15024
 72
     1
 73
     1
 74
     5
  7
SEISA.ctb
 75
    16
147
1.0
 76
     0
 77
     2
 78
   300
148
0.0
149
0.0
100
AcDbLayout
  1
レイアウト1
 70
     1
 71
     1
 10
0.0
 20
0.0
 11
420.0
 21
297.0
 12
0.0
 22
0.0
 32
0.0
 14
1.000000000000000E+20
 24
1.000000000000000E+20
 34
1.000000000000000E+20
 15
-1.000000000000000E+20
 25
-1.000000000000000E+20
 35
-1.000000000000000E+20
146
0.0
 13
0.0
 23
0.0
 33
0.0
 16
1.0
 26
0.0
 36
0.0
 17
0.0
 27
1.0
 37
0.0
 76
     0
330
1B
  0
LAYOUT
  5
26
102
{ACAD_REACTORS
330
1A
102
}
330
1A
100
AcDbPlotSettings
  1

  2
none_device
  4
Letter_(8.50_x_11.00_Inches)
  6

 40
6.349999904632567
 41
6.349999904632567
 42
6.350006103515625
 43
6.350006103515625
 44
215.8999938964844
 45
279.3999938964844
 46
0.0
 47
0.0
 48
0.0
 49
0.0
140
0.0
141
0.0
142
1.0
143
1.0
 70
 15024
 72
     1
 73
     1
 74
     5
  7
SEISA.ctb
 75
    16
147
1.0
 76
     0
 77
     2
 78
   300
148
0.0
149
0.0
100
AcDbLayout
  1
レイアウト2
 70
     1
 71
     2
 10
0.0
 20
0.0
 11
12.0
 21
9.0
 12
0.0
 22
0.0
 32
0.0
 14
0.0
 24
0.0
 34
0.0
 15
0.0
 25
0.0
 35
0.0
146
0.0
 13
0.0
 23
0.0
 33
0.0
 16
1.0
 26
0.0
 36
0.0
 17
0.0
 27
1.0
 37
0.0
 76
     0
330
23
  0
MATERIAL
  5
27D
102
{ACAD_REACTORS
330
C4
102
}
330
C4
100
AcDbMaterial
  1
ByBlock
 73
     1
 78
     1
172
     1
176
     1
270
     1
274
     1
 94
       63
  0
MATERIAL
  5
27C
102
{ACAD_REACTORS
330
C4
102
}
330
C4
100
AcDbMaterial
  1
ByLayer
 73
     1
 78
     1
172
     1
176
     1
270
     1
274
     1
 94
       63
  0
MATERIAL
  5
27E
102
{ACAD_REACTORS
330
C4
102
}
330
C4
100
AcDbMaterial
  1
Global
 73
     1
 78
     1
172
     1
176
     1
270
     1
274
     1
 94
       63
  0
MLEADERSTYLE
  5
2D6
102
{ACAD_REACTORS
330
2D5
102
}
330
2D5
100
AcDbMLeaderStyle
170
     2
171
     1
172
     0
 90
        2
 40
0.0
 41
0.0
173
     1
 91
-1056964608
340
14
 92
       -2
290
     1
 42
2.0
291
     1
 43
0.36
  3
Standard
 44
4.0
300

342
11
174
     1
178
     6
175
     1
176
     0
 93
-1056964608
 45
4.0
292
     0
297
     0
 46
4.0
 94
-1056964608
 47
1.0
 49
1.0
140
1.0
293
     1
141
0.0
294
     1
177
     0
142
1.0
295
     0
296
     0
143
0.125
1001
ACAD_MLEADERVER
1070
     2
  0
MLINESTYLE
  5
18
102
{ACAD_REACTORS
330
17
102
}
330
17
100
AcDbMlineStyle
  2
STANDARD
 70
     0
  3

 62
   256
 51
90.0
 52
90.0
 71
     2
 49
0.5
 62
   256
  6
BYLAYER
 49
-0.5
 62
   256
  6
BYLAYER
  0
PLOTSETTINGS
  5
1C7E
102
{ACAD_REACTORS
330
19
102
}
330
19
100
AcDbPlotSettings
  1
SEISA基本
  2
none_device
  4
Letter_(8.50_x_11.00_Inches)
  6

 40
6.349999904632567
 41
6.349999904632567
 42
6.350006103515625
 43
6.350006103515625
 44
215.8999938964844
 45
279.3999938964844
 46
7.302498226506357
 47
0.0
 48
0.0
 49
0.0
140
0.0
141
0.0
142
1.0
143
1.574803221122935
 70
 11956
 72
     1
 73
     1
 74
     2
  7
SEISA.ctb
 75
     0
147
0.6349999711627054
 76
     0
 77
     2
 78
   300
148
0.0
149
0.0
1001
ACAD_PSEXT
1000
なし
1000
なし
1000
適切ではありません
1000
新しいプロッタ環境設定名を選択しない限り、レイアウトは印刷されません。
1070
     0
  0
ACDBPLACEHOLDER
  5
F
102
{ACAD_REACTORS
330
E
102
}
330
E
  0
SCALE
  5
29F2
102
{ACAD_REACTORS
330
2B3
102
}
330
2B3
100
AcDbScale
 70
     0
300
1:3
140
1.0
141
3.0
290
     0
  0
SCALE
  5
5709
102
{ACAD_REACTORS
330
2B3
102
}
330
2B3
100
AcDbScale
 70
     0
300
1:2.5
140
1.0
141
2.5
290
     0
  0
SCALE
  5
570A
102
{ACAD_REACTORS
330
2B3
102
}
330
2B3
100
AcDbScale
 70
     0
300
1:1.5
140
1.0
141
1.5
290
     0
  0
SCALE
  5
2B4
102
{ACAD_REACTORS
330
2B3
102
}
330
2B3
100
AcDbScale
 70
     0
300
1:1
140
1.0
141
1.0
290
     1
  0
SCALE
  5
2B5
102
{ACAD_REACTORS
330
2B3
102
}
330
2B3
100
AcDbScale
 70
     0
300
1:2
140
1.0
141
2.0
290
     0
  0
SCALE
  5
2B6
102
{ACAD_REACTORS
330
2B3
102
}
330
2B3
100
AcDbScale
 70
     0
300
1:4
140
1.0
141
4.0
290
     0
  0
SCALE
  5
2B7
102
{ACAD_REACTORS
330
2B3
102
}
330
2B3
100
AcDbScale
 70
     0
300
1:5
140
1.0
141
5.0
290
     0
  0
SCALE
  5
2B8
102
{ACAD_REACTORS
330
2B3
102
}
330
2B3
100
AcDbScale
 70
     0
300
1:8
140
1.0
141
8.0
290
     0
  0
SCALE
  5
2B9
102
{ACAD_REACTORS
330
2B3
102
}
330
2B3
100
AcDbScale
 70
     0
300
1:10
140
1.0
141
10.0
290
     0
  0
SCALE
  5
2BA
102
{ACAD_REACTORS
330
2B3
102
}
330
2B3
100
AcDbScale
 70
     0
300
1:16
140
1.0
141
16.0
290
     0
  0
SCALE
  5
2BB
102
{ACAD_REACTORS
330
2B3
102
}
330
2B3
100
AcDbScale
 70
     0
300
1:20
140
1.0
141
20.0
290
     0
  0
SCALE
  5
2BC
102
{ACAD_REACTORS
330
2B3
102
}
330
2B3
100
AcDbScale
 70
     0
300
1:30
140
1.0
141
30.0
290
     0
  0
SCALE
  5
2BD
102
{ACAD_REACTORS
330
2B3
102
}
330
2B3
100
AcDbScale
 70
     0
300
1:40
140
1.0
141
40.0
290
     0
  0
SCALE
  5
2BE
102
{ACAD_REACTORS
330
2B3
102
}
330
2B3
100
AcDbScale
 70
     0
300
1:50
140
1.0
141
50.0
290
     0
  0
SCALE
  5
2BF
102
{ACAD_REACTORS
330
2B3
102
}
330
2B3
100
AcDbScale
 70
     0
300
1:100
140
1.0
141
100.0
290
     0
  0
SCALE
  5
2C0
102
{ACAD_REACTORS
330
2B3
102
}
330
2B3
100
AcDbScale
 70
     0
300
2:1
140
2.0
141
1.0
290
     0
  0
SCALE
  5
2C1
102
{ACAD_REACTORS
330
2B3
102
}
330
2B3
100
AcDbScale
 70
     0
300
4:1
140
4.0
141
1.0
290
     0
  0
SCALE
  5
2C2
102
{ACAD_REACTORS
330
2B3
102
}
330
2B3
100
AcDbScale
 70
     0
300
8:1
140
8.0
141
1.0
290
     0
  0
SCALE
  5
2C3
102
{ACAD_REACTORS
330
2B3
102
}
330
2B3
100
AcDbScale
 70
     0
300
10:1
140
10.0
141
1.0
290
     0
  0
SCALE
  5
2C4
102
{ACAD_REACTORS
330
2B3
102
}
330
2B3
100
AcDbScale
 70
     0
300
100:1
140
100.0
141
1.0
290
     0
  0
SCALE
  5
2C5
102
{ACAD_REACTORS
330
2B3
102
}
330
2B3
100
AcDbScale
 70
     0
300
1/128" = 1'-0"
140
0.0078125
141
12.0
290
     0
  0
SCALE
  5
2C6
102
{ACAD_REACTORS
330
2B3
102
}
330
2B3
100
AcDbScale
 70
     0
300
1/64" = 1'-0"
140
0.015625
141
12.0
290
     0
  0
SCALE
  5
2C7
102
{ACAD_REACTORS
330
2B3
102
}
330
2B3
100
AcDbScale
 70
     0
300
1/32" = 1'-0"
140
0.03125
141
12.0
290
     0
  0
SCALE
  5
2C8
102
{ACAD_REACTORS
330
2B3
102
}
330
2B3
100
AcDbScale
 70
     0
300
1/16" = 1'-0"
140
0.0625
141
12.0
290
     0
  0
SCALE
  5
2C9
102
{ACAD_REACTORS
330
2B3
102
}
330
2B3
100
AcDbScale
 70
     0
300
3/32" = 1'-0"
140
0.09375
141
12.0
290
     0
  0
SCALE
  5
2CA
102
{ACAD_REACTORS
330
2B3
102
}
330
2B3
100
AcDbScale
 70
     0
300
1/8" = 1'-0"
140
0.125
141
12.0
290
     0
  0
SCALE
  5
2CB
102
{ACAD_REACTORS
330
2B3
102
}
330
2B3
100
AcDbScale
 70
     0
300
3/16" = 1'-0"
140
0.1875
141
12.0
290
     0
  0
SCALE
  5
2CC
102
{ACAD_REACTORS
330
2B3
102
}
330
2B3
100
AcDbScale
 70
     0
300
1/4" = 1'-0"
140
0.25
141
12.0
290
     0
  0
SCALE
  5
2CD
102
{ACAD_REACTORS
330
2B3
102
}
330
2B3
100
AcDbScale
 70
     0
300
3/8" = 1'-0"
140
0.375
141
12.0
290
     0
  0
SCALE
  5
2CE
102
{ACAD_REACTORS
330
2B3
102
}
330
2B3
100
AcDbScale
 70
     0
300
1/2" = 1'-0"
140
0.5
141
12.0
290
     0
  0
SCALE
  5
2CF
102
{ACAD_REACTORS
330
2B3
102
}
330
2B3
100
AcDbScale
 70
     0
300
3/4" = 1'-0"
140
0.75
141
12.0
290
     0
  0
SCALE
  5
2D0
102
{ACAD_REACTORS
330
2B3
102
}
330
2B3
100
AcDbScale
 70
     0
300
1" = 1'-0"
140
1.0
141
12.0
290
     0
  0
SCALE
  5
2D1
102
{ACAD_REACTORS
330
2B3
102
}
330
2B3
100
AcDbScale
 70
     0
300
1-1/2" = 1'-0"
140
1.5
141
12.0
290
     0
  0
SCALE
  5
2D2
102
{ACAD_REACTORS
330
2B3
102
}
330
2B3
100
AcDbScale
 70
     0
300
3" = 1'-0"
140
3.0
141
12.0
290
     0
  0
SCALE
  5
2D3
102
{ACAD_REACTORS
330
2B3
102
}
330
2B3
100
AcDbScale
 70
     0
300
6" = 1'-0"
140
6.0
141
12.0
290
     0
  0
SCALE
  5
2D4
102
{ACAD_REACTORS
330
2B3
102
}
330
2B3
100
AcDbScale
 70
     0
300
1'-0" = 1'-0"
140
12.0
141
12.0
290
     0
  0
TABLESTYLE
  5
122
102
{ACAD_XDICTIONARY
360
2F5
102
}
102
{ACAD_REACTORS
330
121
102
}
330
121
100
AcDbTableStyle
  3
Standard
 70
     0
 71
     0
 40
1.5
 41
1.5
280
     0
281
     0
  7
STANDARD
140
4.5
170
     2
 62
     0
 63
     7
283
     0
 90
      512
 91
        0
  1

274
    -2
284
     1
 64
     0
275
    -2
285
     1
 65
     0
276
    -2
286
     1
 66
     0
277
    -2
287
     1
 67
     0
278
    -2
288
     1
 68
     0
279
    -2
289
     1
 69
     0
  7
STANDARD
140
6.0
170
     5
 62
     0
 63
     7
283
     0
 90
      512
 91
        0
  1

274
    -2
284
     1
 64
     0
275
    -2
285
     1
 65
     0
276
    -2
286
     1
 66
     0
277
    -2
287
     1
 67
     0
278
    -2
288
     1
 68
     0
279
    -2
289
     1
 69
     0
  7
STANDARD
140
4.5
170
     5
 62
     0
 63
     7
283
     0
 90
      512
 91
        0
  1

274
    -2
284
     1
 64
     0
275
    -2
285
     1
 65
     0
276
    -2
286
     1
 66
     0
277
    -2
287
     1
 67
     0
278
    -2
288
     1
 68
     0
279
    -2
289
     1
 69
     0
  0
VISUALSTYLE
  5
285
102
{ACAD_REACTORS
330
27F
102
}
330
27F
100
AcDbVisualStyle
  2
2dWireframe
 70
     4
 71
     0
 72
     2
 73
     0
 90
        0
 40
-0.6
 41
-30.0
 62
     5
 63
     7
421
 16777215
 74
     1
 91
        4
 64
     7
 65
   257
 75
     1
175
     1
 42
1.0
 92
        0
 66
   257
 43
1.0
 76
     1
 77
     6
 78
     2
 67
     7
 79
     5
170
     0
171
     0
290
     0
174
     0
 93
        1
 44
0.0
173
     0
291
     0
 45
0.0
  0
VISUALSTYLE
  5
287
102
{ACAD_REACTORS
330
27F
102
}
330
27F
100
AcDbVisualStyle
  2
3D Hidden
 70
     6
 71
     1
 72
     2
 73
     2
 90
        0
 40
-0.6
 41
-30.0
 62
     5
 63
     7
421
 16777215
 74
     2
 91
        2
 64
     7
 65
   257
 75
     2
175
     1
 42
40.0
 92
        0
 66
   257
 43
1.0
 76
     1
 77
     6
 78
     2
 67
     7
 79
     3
170
     0
171
     0
290
     0
174
     0
 93
        1
 44
0.0
173
     0
291
     0
 45
0.0
  0
VISUALSTYLE
  5
286
102
{ACAD_REACTORS
330
27F
102
}
330
27F
100
AcDbVisualStyle
  2
3dWireframe
 70
     5
 71
     0
 72
     2
 73
     0
 90
        0
 40
-0.6
 41
-30.0
 62
     5
 63
     7
421
 16777215
 74
     1
 91
        4
 64
     7
 65
   257
 75
     1
175
     1
 42
1.0
 92
        0
 66
   257
 43
1.0
 76
     1
 77
     6
 78
     2
 67
     7
 79
     5
170
     0
171
     0
290
     0
174
     0
 93
        1
 44
0.0
173
     0
291
     0
 45
0.0
  0
VISUALSTYLE
  5
284
102
{ACAD_REACTORS
330
27F
102
}
330
27F
100
AcDbVisualStyle
  2
Basic
 70
     7
 71
     1
 72
     0
 73
     1
 90
        0
 40
-0.6
 41
-30.0
 62
     5
 63
     7
421
 16777215
 74
     0
 91
        4
 64
     7
 65
   257
 75
     1
175
     1
 42
1.0
 92
        8
 66
     7
 43
1.0
 76
     1
 77
     6
 78
     2
 67
     7
 79
     5
170
     0
171
     0
290
     0
174
     0
 93
        1
 44
0.0
173
     0
291
     1
 45
0.0
  0
VISUALSTYLE
  5
28B
102
{ACAD_REACTORS
330
27F
102
}
330
27F
100
AcDbVisualStyle
  2
Brighten
 70
    12
 71
     2
 72
     2
 73
     0
 90
        0
 40
-0.6
 41
-30.0
 62
     5
 63
     7
421
 16777215
 74
     1
 91
        4
 64
     7
 65
   257
 75
     1
175
     1
 42
1.0
 92
        8
 66
     7
 43
1.0
 76
     1
 77
     6
 78
     2
 67
     7
 79
     5
170
     0
171
     0
290
     0
174
     0
 93
        1
 44
50.0
173
     0
291
     1
 45
0.0
  0
VISUALSTYLE
  5
28F
102
{ACAD_REACTORS
330
27F
102
}
330
27F
100
AcDbVisualStyle
  2
ColorChange
 70
    16
 71
     2
 72
     2
 73
     3
 90
        0
 40
-0.6
 41
-30.0
 62
     5
 63
     8
421
  8421504
 74
     1
 91
        4
 64
     7
 65
   257
 75
     1
175
     1
 42
1.0
 92
        8
 66
     8
424
  8421504
 43
1.0
 76
     1
 77
     6
 78
     2
 67
     7
 79
     5
170
     0
171
     0
290
     0
174
     0
 93
        1
 44
0.0
173
     0
291
     1
 45
0.0
  0
VISUALSTYLE
  5
288
102
{ACAD_REACTORS
330
27F
102
}
330
27F
100
AcDbVisualStyle
  2
Conceptual
 70
     9
 71
     3
 72
     2
 73
     0
 90
        0
 40
-0.6
 41
-30.0
 62
     5
 63
     7
421
 16777215
 74
     2
 91
        2
 64
     7
 65
   257
 75
     1
175
     1
 42
40.0
 92
        8
 66
     7
 43
1.0
 76
     1
 77
     6
 78
     2
 67
     7
 79
     3
170
     0
171
     0
290
     0
174
     0
 93
        1
 44
0.0
173
     0
291
     0
 45
0.0
  0
VISUALSTYLE
  5
28A
102
{ACAD_REACTORS
330
27F
102
}
330
27F
100
AcDbVisualStyle
  2
Dim
 70
    11
 71
     2
 72
     2
 73
     0
 90
        0
 40
-0.6
 41
-30.0
 62
     5
 63
     7
421
 16777215
 74
     1
 91
        4
 64
     7
 65
   257
 75
     1
175
     1
 42
1.0
 92
        8
 66
     7
 43
1.0
 76
     1
 77
     6
 78
     2
 67
     7
 79
     5
170
     0
171
     0
290
     0
174
     0
 93
        1
 44
-50.0
173
     0
291
     1
 45
0.0
  0
VISUALSTYLE
  5
28E
102
{ACAD_REACTORS
330
27F
102
}
330
27F
100
AcDbVisualStyle
  2
Facepattern
 70
    15
 71
     2
 72
     2
 73
     0
 90
        0
 40
-0.6
 41
-30.0
 62
     5
 63
     7
421
 16777215
 74
     1
 91
        4
 64
     7
 65
   257
 75
     1
175
     1
 42
1.0
 92
        8
 66
     7
 43
1.0
 76
     1
 77
     6
 78
     2
 67
     7
 79
     5
170
     0
171
     0
290
     0
174
     0
 93
        1
 44
0.0
173
     0
291
     1
 45
0.0
  0
VISUALSTYLE
  5
280
102
{ACAD_REACTORS
330
27F
102
}
330
27F
100
AcDbVisualStyle
  2
Flat
 70
     0
 71
     2
 72
     1
 73
     1
 90
        2
 40
-0.6
 41
30.0
 62
     5
 63
     7
421
 16777215
 74
     0
 91
        4
 64
     7
 65
   257
 75
     1
175
     1
 42
1.0
 92
        8
 66
     7
 43
1.0
 76
     1
 77
     6
 78
     2
 67
     7
 79
     5
170
     0
171
     0
290
     0
174
     0
 93
       13
 44
0.0
173
     0
291
     1
 45
0.0
  0
VISUALSTYLE
  5
281
102
{ACAD_REACTORS
330
27F
102
}
330
27F
100
AcDbVisualStyle
  2
FlatWithEdges
 70
     1
 71
     2
 72
     1
 73
     1
 90
        2
 40
-0.6
 41
30.0
 62
     5
 63
     7
421
 16777215
 74
     1
 91
        4
 64
     7
 65
   257
 75
     1
175
     1
 42
1.0
 92
        0
 66
   257
 43
1.0
 76
     1
 77
     6
 78
     2
 67
     7
 79
     5
170
     0
171
     0
290
     0
174
     0
 93
       13
 44
0.0
173
     0
291
     1
 45
0.0
  0
VISUALSTYLE
  5
282
102
{ACAD_REACTORS
330
27F
102
}
330
27F
100
AcDbVisualStyle
  2
Gouraud
 70
     2
 71
     2
 72
     2
 73
     1
 90
        2
 40
-0.6
 41
30.0
 62
     5
 63
     7
421
 16777215
 74
     0
 91
        4
 64
     7
 65
   257
 75
     1
175
     1
 42
1.0
 92
        0
 66
     7
 43
1.0
 76
     1
 77
     6
 78
     2
 67
     7
 79
     5
170
     0
171
     0
290
     0
174
     0
 93
       13
 44
0.0
173
     0
291
     1
 45
0.0
  0
VISUALSTYLE
  5
283
102
{ACAD_REACTORS
330
27F
102
}
330
27F
100
AcDbVisualStyle
  2
GouraudWithEdges
 70
     3
 71
     2
 72
     2
 73
     1
 90
        2
 40
-0.6
 41
30.0
 62
     5
 63
     7
421
 16777215
 74
     1
 91
        4
 64
     7
 65
   257
 75
     1
175
     1
 42
1.0
 92
        0
 66
   257
 43
1.0
 76
     1
 77
     6
 78
     2
 67
     7
 79
     5
170
     0
171
     0
290
     0
174
     0
 93
       13
 44
0.0
173
     0
291
     1
 45
0.0
  0
VISUALSTYLE
  5
28D
102
{ACAD_REACTORS
330
27F
102
}
330
27F
100
AcDbVisualStyle
  2
Linepattern
 70
    14
 71
     2
 72
     2
 73
     0
 90
        0
 40
-0.6
 41
-30.0
 62
     5
 63
     7
421
 16777215
 74
     1
 91
        4
 64
     7
 65
   257
 75
     7
175
     7
 42
1.0
 92
        8
 66
     7
 43
1.0
 76
     1
 77
     6
 78
     2
 67
     7
 79
     5
170
     0
171
     0
290
     0
174
     0
 93
        1
 44
0.0
173
     0
291
     1
 45
0.0
  0
VISUALSTYLE
  5
289
102
{ACAD_REACTORS
330
27F
102
}
330
27F
100
AcDbVisualStyle
  2
Realistic
 70
     8
 71
     2
 72
     2
 73
     0
 90
        0
 40
-0.6
 41
-30.0
 62
     5
 63
     7
421
 16777215
 74
     1
 91
        0
 64
     7
 65
   257
 75
     1
175
     1
 42
1.0
 92
        8
 66
     8
424
  7895160
 43
1.0
 76
     1
 77
     6
 78
     2
 67
     7
 79
     5
170
     0
171
     0
290
     0
174
     0
 93
       13
 44
0.0
173
     0
291
     0
 45
0.0
  0
VISUALSTYLE
  5
28C
102
{ACAD_REACTORS
330
27F
102
}
330
27F
100
AcDbVisualStyle
  2
Thicken
 70
    13
 71
     2
 72
     2
 73
     0
 90
        0
 40
-0.6
 41
-30.0
 62
     5
 63
     7
421
 16777215
 74
     1
 91
        4
 64
     7
 65
   257
 75
     1
175
     1
 42
1.0
 92
       12
 66
     7
 43
1.0
 76
     1
 77
     6
 78
     2
 67
     7
 79
     5
170
     0
171
     0
290
     0
174
     0
 93
        1
 44
0.0
173
     0
291
     1
 45
0.0
  0
DICTIONARYVAR
  5
2FA
102
{ACAD_REACTORS
330
34
102
}
330
34
100
DictionaryVariables
280
     0
  1
1:3
  0
DICTIONARYVAR
  5
2F8
102
{ACAD_REACTORS
330
34
102
}
330
34
100
DictionaryVariables
280
     0
  1
STANDARD
  0
DICTIONARYVAR
  5
140
102
{ACAD_REACTORS
330
34
102
}
330
34
100
DictionaryVariables
280
     0
  1
STANDARD
  0
DICTIONARYVAR
  5
AC
102
{ACAD_REACTORS
330
34
102
}
330
34
100
DictionaryVariables
280
     0
  1
1
  0
DICTIONARYVAR
  5
35
102
{ACAD_REACTORS
330
34
102
}
330
34
100
DictionaryVariables
280
     0
  1
1
  0
DICTIONARYVAR
  5
4FB1
102
{ACAD_REACTORS
330
34
102
}
330
34
100
DictionaryVariables
280
     0
  1
1
  0
DICTIONARYVAR
  5
4FB2
102
{ACAD_REACTORS
330
34
102
}
330
34
100
DictionaryVariables
280
     0
  1
15
  0
DICTIONARYVAR
  5
2FB
102
{ACAD_REACTORS
330
34
102
}
330
34
100
DictionaryVariables
280
     0
  1
0
  0
DICTIONARYVAR
  5
2F9
102
{ACAD_REACTORS
330
34
102
}
330
34
100
DictionaryVariables
280
     0
  1
0
  0
DICTIONARY
  5
161B
102
{ACAD_REACTORS
330
49
102
}
330
49
100
AcDbDictionary
281
     1
  0
DICTIONARY
  5
4A
102
{ACAD_REACTORS
330
49
102
}
330
49
100
AcDbDictionary
281
     1
  0
XRECORD
  5
12B
102
{ACAD_REACTORS
330
49
102
}
330
49
100
AcDbXrecord
280
     1
 90
-1023410169
  0
DICTIONARY
  5
2F5
330
122
100
AcDbDictionary
280
     1
281
     1
  3
ACAD_ROUNDTRIP_2008_TABLESTYLE_CELLSTYLEMAP
360
5AD8
  0
CELLSTYLEMAP
  5
5AD8
102
{ACAD_REACTORS
330
2F5
102
}
330
2F5
100
AcDbCellStyleMap
 90
        3
300
CELLSTYLE
  1
TABLEFORMAT_BEGIN
 90
        5
170
     1
 91
        0
 92
    32768
 62
   257
 93
        1
300
CONTENTFORMAT
  1
CONTENTFORMAT_BEGIN
 90
        0
 91
        0
 92
      512
 93
        0
300

 40
0.0
140
1.0
 94
        5
 62
     0
340
11
144
6.0
309
CONTENTFORMAT_END
171
     1
301
MARGIN
  1
CELLMARGIN_BEGIN
 40
1.5
 40
1.5
 40
1.5
 40
1.5
 40
0.18
 40
0.18
309
CELLMARGIN_END
 94
        6
 95
        1
302
GRIDFORMAT
  1
GRIDFORMAT_BEGIN
 90
        0
 91
        1
 62
     0
 92
       -2
340
0
 93
        0
 40
0.045
309
GRIDFORMAT_END
 95
        2
302
GRIDFORMAT
  1
GRIDFORMAT_BEGIN
 90
        0
 91
        1
 62
     0
 92
       -2
340
0
 93
        0
 40
0.045
309
GRIDFORMAT_END
 95
        4
302
GRIDFORMAT
  1
GRIDFORMAT_BEGIN
 90
        0
 91
        1
 62
     0
 92
       -2
340
0
 93
        0
 40
0.045
309
GRIDFORMAT_END
 95
        8
302
GRIDFORMAT
  1
GRIDFORMAT_BEGIN
 90
        0
 91
        1
 62
     0
 92
       -2
340
0
 93
        0
 40
0.045
309
GRIDFORMAT_END
 95
       16
302
GRIDFORMAT
  1
GRIDFORMAT_BEGIN
 90
        0
 91
        1
 62
     0
 92
       -2
340
0
 93
        0
 40
0.045
309
GRIDFORMAT_END
 95
       32
302
GRIDFORMAT
  1
GRIDFORMAT_BEGIN
 90
        0
 91
        1
 62
     0
 92
       -2
340
0
 93
        0
 40
0.045
309
GRIDFORMAT_END
309
TABLEFORMAT_END
  1
CELLSTYLE_BEGIN
 90
        1
 91
        1
300
_TITLE
309
CELLSTYLE_END
300
CELLSTYLE
  1
TABLEFORMAT_BEGIN
 90
        5
170
     1
 91
        0
 92
        0
 62
   257
 93
        1
300
CONTENTFORMAT
  1
CONTENTFORMAT_BEGIN
 90
        0
 91
        0
 92
      512
 93
        0
300

 40
0.0
140
1.0
 94
        5
 62
     0
340
11
144
4.5
309
CONTENTFORMAT_END
171
     1
301
MARGIN
  1
CELLMARGIN_BEGIN
 40
1.5
 40
1.5
 40
1.5
 40
1.5
 40
0.18
 40
0.18
309
CELLMARGIN_END
 94
        6
 95
        1
302
GRIDFORMAT
  1
GRIDFORMAT_BEGIN
 90
        0
 91
        1
 62
     0
 92
       -2
340
0
 93
        0
 40
0.045
309
GRIDFORMAT_END
 95
        2
302
GRIDFORMAT
  1
GRIDFORMAT_BEGIN
 90
        0
 91
        1
 62
     0
 92
       -2
340
0
 93
        0
 40
0.045
309
GRIDFORMAT_END
 95
        4
302
GRIDFORMAT
  1
GRIDFORMAT_BEGIN
 90
        0
 91
        1
 62
     0
 92
       -2
340
0
 93
        0
 40
0.045
309
GRIDFORMAT_END
 95
        8
302
GRIDFORMAT
  1
GRIDFORMAT_BEGIN
 90
        0
 91
        1
 62
     0
 92
       -2
340
0
 93
        0
 40
0.045
309
GRIDFORMAT_END
 95
       16
302
GRIDFORMAT
  1
GRIDFORMAT_BEGIN
 90
        0
 91
        1
 62
     0
 92
       -2
340
0
 93
        0
 40
0.045
309
GRIDFORMAT_END
 95
       32
302
GRIDFORMAT
  1
GRIDFORMAT_BEGIN
 90
        0
 91
        1
 62
     0
 92
       -2
340
0
 93
        0
 40
0.045
309
GRIDFORMAT_END
309
TABLEFORMAT_END
  1
CELLSTYLE_BEGIN
 90
        2
 91
        1
300
_HEADER
309
CELLSTYLE_END
300
CELLSTYLE
  1
TABLEFORMAT_BEGIN
 90
        5
170
     1
 91
        0
 92
        0
 62
   257
 93
        1
300
CONTENTFORMAT
  1
CONTENTFORMAT_BEGIN
 90
        0
 91
        0
 92
      512
 93
        0
300

 40
0.0
140
1.0
 94
        2
 62
     0
340
11
144
4.5
309
CONTENTFORMAT_END
171
     1
301
MARGIN
  1
CELLMARGIN_BEGIN
 40
1.5
 40
1.5
 40
1.5
 40
1.5
 40
0.18
 40
0.18
309
CELLMARGIN_END
 94
        6
 95
        1
302
GRIDFORMAT
  1
GRIDFORMAT_BEGIN
 90
        0
 91
        1
 62
     0
 92
       -2
340
0
 93
        0
 40
0.045
309
GRIDFORMAT_END
 95
        2
302
GRIDFORMAT
  1
GRIDFORMAT_BEGIN
 90
        0
 91
        1
 62
     0
 92
       -2
340
0
 93
        0
 40
0.045
309
GRIDFORMAT_END
 95
        4
302
GRIDFORMAT
  1
GRIDFORMAT_BEGIN
 90
        0
 91
        1
 62
     0
 92
       -2
340
0
 93
        0
 40
0.045
309
GRIDFORMAT_END
 95
        8
302
GRIDFORMAT
  1
GRIDFORMAT_BEGIN
 90
        0
 91
        1
 62
     0
 92
       -2
340
0
 93
        0
 40
0.045
309
GRIDFORMAT_END
 95
       16
302
GRIDFORMAT
  1
GRIDFORMAT_BEGIN
 90
        0
 91
        1
 62
     0
 92
       -2
340
0
 93
        0
 40
0.045
309
GRIDFORMAT_END
 95
       32
302
GRIDFORMAT
  1
GRIDFORMAT_BEGIN
 90
        0
 91
        1
 62
     0
 92
       -2
340
0
 93
        0
 40
0.045
309
GRIDFORMAT_END
309
TABLEFORMAT_END
  1
CELLSTYLE_BEGIN
 90
        3
 91
        2
300
_DATA
309
CELLSTYLE_END
  0
ENDSEC
  0
EOF
