  0
SECTION
  2
HEADER
  9
$ACADVER
  1
AC1021
  9
$ACADMAINTVER
 70
    26
  9
$DWGCODEPAGE
  3
ANSI_932
  9
$LASTSAVEDBY
  1
Htm_Terada
  9
$CUSTOMPROPERTYTAG
  1
AmdtFileType
  9
$CUSTOMPROPERTY
  1
84
  9
$INSBASE
 10
0.0
 20
0.0
 30
0.0
  9
$EXTMIN
 10
410.654529622317
 20
257.8376797468372
 30
-0.000000000000013
  9
$EXTMAX
 10
779.3213680633371
 20
709.0896626923808
 30
0.0000000000000023
  9
$LIMMIN
 10
-0.0000002271699202
 20
0.0
  9
$LIMMAX
 10
1485.000000340755
 20
1050.0
  9
$ORTHOMODE
 70
     1
  9
$REGENMODE
 70
     1
  9
$FILLMODE
 70
     1
  9
$QTEXTMODE
 70
     0
  9
$MIRRTEXT
 70
     1
  9
$LTSCALE
 40
2.5
  9
$ATTMODE
 70
     1
  9
$TEXTSIZE
 40
25.0
  9
$TRACEWID
 40
1.0
  9
$TEXTSTYLE
  7
SEISA
  9
$CLAYER
  8
AM_0 外形線1
  9
$CELTYPE
  6
ByLayer
  9
$CECOLOR
 62
   256
  9
$CELTSCALE
 40
1.0
  9
$DISPSILH
 70
     0
  9
$DIMSCALE
 40
2.5
  9
$DIMASZ
 40
2.5
  9
$DIMEXO
 40
0.625
  9
$DIMDLI
 40
10.0
  9
$DIMRND
 40
0.0
  9
$DIMDLE
 40
0.0
  9
$DIMEXE
 40
0.625
  9
$DIMTP
 40
0.1
  9
$DIMTM
 40
0.1
  9
$DIMTXT
 40
3.5
  9
$DIMCEN
 40
0.0
  9
$DIMTSZ
 40
0.0
  9
$DIMTOL
 70
     0
  9
$DIMLIM
 70
     0
  9
$DIMTIH
 70
     0
  9
$DIMTOH
 70
     0
  9
$DIMSE1
 70
     0
  9
$DIMSE2
 70
     0
  9
$DIMTAD
 70
     3
  9
$DIMZIN
 70
     8
  9
$DIMBLK
  1
Open30
  9
$DIMASO
 70
     1
  9
$DIMSHO
 70
     1
  9
$DIMPOST
  1

  9
$DIMAPOST
  1
"
  9
$DIMALT
 70
     0
  9
$DIMALTD
 70
     2
  9
$DIMALTF
 40
0.0393701
  9
$DIMLFAC
 40
1.0
  9
$DIMTOFL
 70
     1
  9
$DIMTVP
 40
0.0
  9
$DIMTIX
 70
     0
  9
$DIMSOXD
 70
     0
  9
$DIMSAH
 70
     0
  9
$DIMBLK1
  1

  9
$DIMBLK2
  1

  9
$DIMSTYLE
  2
SEISA
  9
$DIMCLRD
 70
     3
  9
$DIMCLRE
 70
     3
  9
$DIMCLRT
 70
     3
  9
$DIMTFAC
 40
0.71
  9
$DIMGAP
 40
1.5
  9
$DIMJUST
 70
     0
  9
$DIMSD1
 70
     0
  9
$DIMSD2
 70
     0
  9
$DIMTOLJ
 70
     0
  9
$DIMTZIN
 70
     0
  9
$DIMALTZ
 70
     0
  9
$DIMALTTZ
 70
     8
  9
$DIMUPT
 70
     0
  9
$DIMDEC
 70
     2
  9
$DIMTDEC
 70
     2
  9
$DIMALTU
 70
     2
  9
$DIMALTTD
 70
     2
  9
$DIMTXSTY
  7
SEISA
  9
$DIMAUNIT
 70
     0
  9
$DIMADEC
 70
     0
  9
$DIMALTRND
 40
0.0
  9
$DIMAZIN
 70
     2
  9
$DIMDSEP
 70
    46
  9
$DIMATFIT
 70
     3
  9
$DIMFRAC
 70
     0
  9
$DIMLDRBLK
  1
Open30
  9
$DIMLUNIT
 70
     2
  9
$DIMLWD
 70
    -1
  9
$DIMLWE
 70
    -1
  9
$DIMTMOVE
 70
     0
  9
$DIMFXL
 40
1.0
  9
$DIMFXLON
 70
     0
  9
$DIMJOGANG
 40
0.7853981633974483
  9
$DIMTFILL
 70
     0
  9
$DIMTFILLCLR
 70
     0
  9
$DIMARCSYM
 70
     1
  9
$DIMLTYPE
  6

  9
$DIMLTEX1
  6

  9
$DIMLTEX2
  6

  9
$LUNITS
 70
     2
  9
$LUPREC
 70
     2
  9
$SKETCHINC
 40
1.0
  9
$FILLETRAD
 40
0.6
  9
$AUNITS
 70
     0
  9
$AUPREC
 70
     0
  9
$MENU
  1
.
  9
$ELEVATION
 40
0.0
  9
$PELEVATION
 40
0.0
  9
$THICKNESS
 40
0.0
  9
$LIMCHECK
 70
     0
  9
$CHAMFERA
 40
2.0
  9
$CHAMFERB
 40
2.0
  9
$CHAMFERC
 40
2.0
  9
$CHAMFERD
 40
0.7853981633974483
  9
$SKPOLY
 70
     0
  9
$TDCREATE
 40
2454965.733451643
  9
$TDUCREATE
 40
2454965.358451644
  9
$TDUPDATE
 40
2456479.552848125
  9
$TDUUPDATE
 40
2456479.177848125
  9
$TDINDWG
 40
0.1737576273
  9
$TDUSRTIMER
 40
0.1737572569
  9
$USRTIMER
 70
     1
  9
$ANGBASE
 50
0.0
  9
$ANGDIR
 70
     0
  9
$PDMODE
 70
     0
  9
$PDSIZE
 40
0.0
  9
$PLINEWID
 40
0.0
  9
$SPLFRAME
 70
     0
  9
$SPLINETYPE
 70
     6
  9
$SPLINESEGS
 70
     8
  9
$HANDSEED
  5
5A97
  9
$SURFTAB1
 70
     6
  9
$SURFTAB2
 70
     6
  9
$SURFTYPE
 70
     6
  9
$SURFU
 70
     6
  9
$SURFV
 70
     6
  9
$UCSBASE
  2

  9
$UCSNAME
  2

  9
$UCSORG
 10
0.0
 20
0.0
 30
0.0
  9
$UCSXDIR
 10
1.0
 20
0.0
 30
0.0
  9
$UCSYDIR
 10
0.0
 20
1.0
 30
0.0
  9
$UCSORTHOREF
  2

  9
$UCSORTHOVIEW
 70
     0
  9
$UCSORGTOP
 10
0.0
 20
0.0
 30
0.0
  9
$UCSORGBOTTOM
 10
0.0
 20
0.0
 30
0.0
  9
$UCSORGLEFT
 10
0.0
 20
0.0
 30
0.0
  9
$UCSORGRIGHT
 10
0.0
 20
0.0
 30
0.0
  9
$UCSORGFRONT
 10
0.0
 20
0.0
 30
0.0
  9
$UCSORGBACK
 10
0.0
 20
0.0
 30
0.0
  9
$PUCSBASE
  2

  9
$PUCSNAME
  2

  9
$PUCSORG
 10
0.0
 20
0.0
 30
0.0
  9
$PUCSXDIR
 10
1.0
 20
0.0
 30
0.0
  9
$PUCSYDIR
 10
0.0
 20
1.0
 30
0.0
  9
$PUCSORTHOREF
  2

  9
$PUCSORTHOVIEW
 70
     0
  9
$PUCSORGTOP
 10
0.0
 20
0.0
 30
0.0
  9
$PUCSORGBOTTOM
 10
0.0
 20
0.0
 30
0.0
  9
$PUCSORGLEFT
 10
0.0
 20
0.0
 30
0.0
  9
$PUCSORGRIGHT
 10
0.0
 20
0.0
 30
0.0
  9
$PUCSORGFRONT
 10
0.0
 20
0.0
 30
0.0
  9
$PUCSORGBACK
 10
0.0
 20
0.0
 30
0.0
  9
$USERI1
 70
     0
  9
$USERI2
 70
     0
  9
$USERI3
 70
     0
  9
$USERI4
 70
     0
  9
$USERI5
 70
     0
  9
$USERR1
 40
0.0
  9
$USERR2
 40
0.0
  9
$USERR3
 40
0.0
  9
$USERR4
 40
0.0
  9
$USERR5
 40
0.0
  9
$WORLDVIEW
 70
     1
  9
$SHADEDGE
 70
     3
  9
$SHADEDIF
 70
    70
  9
$TILEMODE
 70
     1
  9
$MAXACTVP
 70
    64
  9
$PINSBASE
 10
0.0
 20
0.0
 30
0.0
  9
$PLIMCHECK
 70
     0
  9
$PEXTMIN
 10
1.000000000000000E+20
 20
1.000000000000000E+20
 30
1.000000000000000E+20
  9
$PEXTMAX
 10
-1.000000000000000E+20
 20
-1.000000000000000E+20
 30
-1.000000000000000E+20
  9
$PLIMMIN
 10
0.0
 20
0.0
  9
$PLIMMAX
 10
420.0
 20
297.0
  9
$UNITMODE
 70
     0
  9
$VISRETAIN
 70
     1
  9
$PLINEGEN
 70
     0
  9
$PSLTSCALE
 70
     1
  9
$TREEDEPTH
 70
  3020
  9
$CMLSTYLE
  2
Standard
  9
$CMLJUST
 70
     0
  9
$CMLSCALE
 40
20.0
  9
$PROXYGRAPHICS
 70
     1
  9
$MEASUREMENT
 70
     1
  9
$CELWEIGHT
370
    -1
  9
$ENDCAPS
280
     0
  9
$JOINSTYLE
280
     0
  9
$LWDISPLAY
290
     0
  9
$INSUNITS
 70
     4
  9
$HYPERLINKBASE
  1

  9
$STYLESHEET
  1
SEISA.CTB
  9
$XEDIT
290
     1
  9
$CEPSNTYPE
380
     0
  9
$PSTYLEMODE
290
     1
  9
$FINGERPRINTGUID
  2
{E4AEDF29-DF8D-48EF-A4F4-A160C307FCBB}
  9
$VERSIONGUID
  2
{0B30E4D2-66F9-4FC8-8118-2DF228EBF2FE}
  9
$EXTNAMES
290
     1
  9
$PSVPSCALE
 40
0.0
  9
$OLESTARTUP
290
     0
  9
$SORTENTS
280
   127
  9
$INDEXCTL
280
     0
  9
$HIDETEXT
280
     0
  9
$XCLIPFRAME
290
     0
  9
$HALOGAP
280
     0
  9
$OBSCOLOR
 70
   257
  9
$OBSLTYPE
280
     0
  9
$INTERSECTIONDISPLAY
280
     0
  9
$INTERSECTIONCOLOR
 70
   257
  9
$DIMASSOC
280
     2
  9
$PROJECTNAME
  1

  9
$CAMERADISPLAY
290
     0
  9
$LENSLENGTH
 40
50.0
  9
$CAMERAHEIGHT
 40
0.0
  9
$STEPSPERSEC
 40
2.0
  9
$STEPSIZE
 40
6.0
  9
$3DDWFPREC
 40
2.0
  9
$PSOLWIDTH
 40
0.25
  9
$PSOLHEIGHT
 40
4.0
  9
$LOFTANG1
 40
1.570796326794896
  9
$LOFTANG2
 40
1.570796326794896
  9
$LOFTMAG1
 40
0.0
  9
$LOFTMAG2
 40
0.0
  9
$LOFTPARAM
 70
     7
  9
$LOFTNORMALS
280
     1
  9
$LATITUDE
 40
37.795
  9
$LONGITUDE
 40
-122.394
  9
$NORTHDIRECTION
 40
0.0
  9
$TIMEZONE
 70
 -8000
  9
$LIGHTGLYPHDISPLAY
280
     1
  9
$TILEMODELIGHTSYNCH
280
     1
  9
$CMATERIAL
347
27C
  9
$SOLIDHIST
280
     1
  9
$SHOWHIST
280
     1
  9
$DWFFRAME
280
     2
  9
$DGNFRAME
280
     0
  9
$REALWORLDSCALE
290
     1
  9
$INTERFERECOLOR
 62
     1
  9
$INTERFEREOBJVS
345
289
  9
$INTERFEREVPVS
346
286
  9
$CSHADOW
280
     0
  9
$SHADOWPLANELOCATION
 40
0.0
  0
ENDSEC
  0
SECTION
  2
CLASSES
  0
CLASS
  1
ACDBDICTIONARYWDFLT
  2
AcDbDictionaryWithDefault
  3
ObjectDBX Classes
 90
        0
 91
        1
280
     0
281
     0
  0
CLASS
  1
AMGSETTINGSOBJ
  2
AmgSettingsObj
  3
"AcadM|Product Description: AutoCAD Mechanical|Company: Autodesk, Inc."
 90
     1024
 91
        2
280
     0
281
     0
  0
CLASS
  1
ACME_DOCUMENT
  2
AcMeDbDoc
  3
AcMeServices
 90
     1024
 91
        1
280
     0
281
     0
  0
CLASS
  1
ACMESCOPE
  2
AcMeScope
  3
AcMeServices
 90
     1024
 91
        1
280
     0
281
     0
  0
CLASS
  1
ACMECOMMANDHISTORY
  2
AcMeCommandHistory
  3
AcMeServices
 90
     1024
 91
        1
280
     0
281
     0
  0
CLASS
  1
DICTIONARYVAR
  2
AcDbDictionaryVar
  3
ObjectDBX Classes
 90
        0
 91
        9
280
     0
281
     0
  0
CLASS
  1
ACIMSYSVARMAN
  2
AcImSysVarManager
  3
AcMeServices
 90
     1024
 91
        5
280
     0
281
     0
  0
CLASS
  1
ACIMREALSYSVAR
  2
AcImRealSysVar
  3
AcMeServices
 90
     1024
 91
        1
280
     0
281
     0
  0
CLASS
  1
ACIMINTSYSVAR
  2
AcImIntSysVar
  3
AcMeServices
 90
     1024
 91
       27
280
     0
281
     0
  0
CLASS
  1
ACMEDRAWINGMAN
  2
AcMeDrawingMan
  3
AcMeServices
 90
     1024
 91
        1
280
     0
281
     0
  0
CLASS
  1
ACMEVIEW
  2
AcMeView
  3
AcMeServices
 90
     1024
 91
        1
280
     0
281
     0
  0
CLASS
  1
ACDBENTITYCACHE
  2
AcMeEntityCache
  3
AcMeServices
 90
     1024
 91
        1
280
     0
281
     0
  0
CLASS
  1
GSMANAGER
  2
AcMeGSManager
  3
AcMeServices
 90
     1024
 91
        1
280
     0
281
     0
  0
CLASS
  1
AMDTINTERNALREACTOR
  2
AmdtInternalReactor
  3
AcMeServices
 90
     1024
 91
        2
280
     0
281
     0
  0
CLASS
  1
ACMESTATEMGR
  2
AcMeStateMgr
  3
AcMeServices
 90
     1024
 91
        1
280
     0
281
     0
  0
CLASS
  1
ACGREFMASTER
  2
AcGrefMaster
  3
AcAttribServices
 90
     1024
 91
        1
280
     0
281
     0
  0
CLASS
  1
ACME_DATABASE
  2
AcMeDbDatabase
  3
AcMeServices
 90
     1024
 91
        1
280
     0
281
     0
  0
CLASS
  1
ACRFINSADJUSTERMGR
  2
AcRfInsAdjusterMgr
  3
AcMeServices
 90
     1024
 91
        1
280
     0
281
     0
  0
CLASS
  1
ACGREFACADMASTER
  2
AcGrefacadMaster
  3
AcGrefServices
 90
     1024
 91
        1
280
     0
281
     0
  0
CLASS
  1
AMIMASTER
  2
AmiMaster
  3
AmiServices
 90
     1024
 91
        1
280
     0
281
     0
  0
CLASS
  1
ACIMSTRSYSVAR
  2
AcImStrSysVar
  3
AcMeServices
 90
     1024
 91
        5
280
     0
281
     0
  0
CLASS
  1
ACMSTANDARDJIS
  2
AcmStandardJIS
  3
"Amdt_StdImp|Product Description: AutoCAD Mechanical|Company: Autodesk, Inc."
 90
     1024
 91
        0
280
     0
281
     0
  0
CLASS
  1
AMGOBJPROPCFG
  2
AmgObjPropCfg
  3
"AmgLay|Product Description: AutoCAD Mechanical|Company: Autodesk, Inc."
 90
     1025
 91
        1
280
     0
281
     0
  0
CLASS
  1
ACMSURFSTANDARDJIS
  2
AcmSurfTextStdJIS
  3
"Amdt_StdImp|Product Description: AutoCAD Mechanical|Company: Autodesk, Inc."
 90
     1024
 91
        0
280
     0
281
     0
  0
CLASS
  1
ACMFCFSTANDARDJIS
  2
AcmFCFStdJIS
  3
"Amdt_StdImp|Product Description: AutoCAD Mechanical|Company: Autodesk, Inc."
 90
     1024
 91
        0
280
     0
281
     0
  0
CLASS
  1
ACMWELDSTANDARDJIS
  2
AcmWeldingStdJIS
  3
"Amdt_StdImp|Product Description: AutoCAD Mechanical|Company: Autodesk, Inc."
 90
     1024
 91
        0
280
     0
281
     0
  0
CLASS
  1
ACMIDSTANDARDJIS
  2
AcmIdStdJIS
  3
"Amdt_StdImp|Product Description: AutoCAD Mechanical|Company: Autodesk, Inc."
 90
     1024
 91
        0
280
     0
281
     0
  0
CLASS
  1
ACMDATUMSTANDARDJIS
  2
AcmDatumStdJIS
  3
"Amdt_StdImp|Product Description: AutoCAD Mechanical|Company: Autodesk, Inc."
 90
     1024
 91
        0
280
     0
281
     0
  0
CLASS
  1
ACMBOMSTANDARDJIS
  2
AcmBOMStdJIS
  3
"Amdt_StdImp|Product Description: AutoCAD Mechanical|Company: Autodesk, Inc."
 90
     1024
 91
        0
280
     0
281
     0
  0
CLASS
  1
ACMDETAILSTANDARDJIS
  2
AmdtDetailSymStdJIS
  3
"Amdt_StdImp|Product Description: AutoCAD Mechanical|Company: Autodesk, Inc."
 90
     1024
 91
        0
280
     0
281
     0
  0
CLASS
  1
ACMSECTIONSTANDARDJIS
  2
AmdtSectionSymStdJIS
  3
"Amdt_StdImp|Product Description: AutoCAD Mechanical|Company: Autodesk, Inc."
 90
     1024
 91
        0
280
     0
281
     0
  0
CLASS
  1
ACMCENTERLINESTANDARDJIS
  2
AmdtCenterLineStdJIS
  3
"Amdt_StdImp|Product Description: AutoCAD Mechanical|Company: Autodesk, Inc."
 90
     1024
 91
        0
280
     0
281
     0
  0
CLASS
  1
ACMTHREADLINESTANDARDJIS
  2
AmdtThreadLineStdJIS
  3
"Amdt_StdImp|Product Description: AutoCAD Mechanical|Company: Autodesk, Inc."
 90
     1024
 91
        0
280
     0
281
     0
  0
CLASS
  1
ACAMGLAYSTD
  2
AcAmgLayStd
  3
"AmgLay|Product Description: AutoCAD Mechanical|Company: Autodesk, Inc."
 90
     1024
 91
        1
280
     0
281
     0
  0
CLASS
  1
ACAMGDIMSTD
  2
AcAmgDimStd
  3
"AmgDim|Product Description: AutoCAD Mechanical|Company: Autodesk, Inc."
 90
     1024
 91
        1
280
     0
281
     0
  0
CLASS
  1
ACAMGTITLESTD
  2
AcAmgTitleStd
  3
"AmgTitle|Product Description: AutoCAD Mechanical|Company: Autodesk, Inc."
 90
     4095
 91
        1
280
     0
281
     0
  0
CLASS
  1
ACMDATADICTIONARY
  2
AcmDataDictionary
  3
"AcmSymBB|Product Description: AutoCAD Mechanical|Company: Autodesk, Inc."
 90
     1024
 91
        1
280
     0
281
     0
  0
CLASS
  1
ACMDATAENTRYBLOCK
  2
AcmDataEntryBlock
  3
AcmSymBB|Product Description: AutoCAD Mechanical|Company: Autodesk, Inc.
 90
     1024
 91
        0
280
     0
281
     0
  0
CLASS
  1
LAYER_INDEX
  2
AcDbLayerIndex
  3
ObjectDBX Classes
 90
        0
 91
        0
280
     0
281
     0
  0
CLASS
  1
IDBUFFER
  2
AcDbIdBuffer
  3
ObjectDBX Classes
 90
        0
 91
        0
280
     0
281
     0
  0
CLASS
  1
ACMNOTESTANDARDJIS
  2
AmdtNoteStdJIS
  3
"Amdt_StdImp|Product Description: AutoCAD Mechanical|Company: Autodesk, Inc."
 90
     1024
 91
        0
280
     0
281
     0
  0
CLASS
  1
ACAMGHOLECHARTSTDJIS
  2
AcAmgHoleChartStdJIS
  3
AmgDim|Product Description: AutoCAD Mechanical|Company: Autodesk, Inc.
 90
     1024
 91
        0
280
     0
281
     0
  0
CLASS
  1
AM_DRAWING_MGR
  2
AcDmDwgMgr
  3
AcMechDwgViewMgmt
 90
     1024
 91
        1
280
     0
281
     0
  0
CLASS
  1
AM_DWG_DOCUMENT
  2
AcDmDwgDocument
  3
AcMechDwgViewMgmt
 90
     1024
 91
        1
280
     0
281
     0
  0
CLASS
  1
AM_DWG_SHEET
  2
AcDmSheet
  3
AcMechDwgViewMgmt
 90
     1024
 91
        2
280
     0
281
     0
  0
CLASS
  1
AM_VIEWDIMPARMAP
  2
AcDmViewDimParMap
  3
AcMechDwgViewMgmt
 90
     1024
 91
        2
280
     0
281
     0
  0
CLASS
  1
AM_DWGMGR_NAME
  2
AcDmDwgMgrName
  3
AcMechDwgViewMgmt
 90
     1024
 91
        1
280
     0
281
     0
  0
CLASS
  1
AMDTMENUSTATEMGR
  2
AmdtMenuStateMgr
  3
McadcomServices
 90
     1024
 91
        1
280
     0
281
     0
  0
CLASS
  1
AMDTMCOMMENUSTATE
  2
AmdtMcomMenuState
  3
McadcomServices
 90
     1024
 91
        1
280
     0
281
     0
  0
CLASS
  1
MAPIAMMOUDLE
  2
MApiAmModule
  3
MApiAmServices
 90
     1024
 91
        1
280
     0
281
     0
  0
CLASS
  1
AMDTADMENUSTATE
  2
AmdtAdMenuState
  3
DesignerServices
 90
     1024
 91
        1
280
     0
281
     0
  0
CLASS
  1
ADAPPL
  2
AcAdAppl
  3
DesignerServices
 90
     1024
 91
        1
280
     0
281
     0
  0
CLASS
  1
DEPMGR
  2
AcAdDepMgr
  3
DesignerServices
 90
     1024
 91
        1
280
     0
281
     0
  0
CLASS
  1
PARAMMGR
  2
AcAdParamMgr
  3
DesignerServices
 90
     1024
 91
        1
280
     0
281
     0
  0
CLASS
  1
PARAMSCOPE
  2
AcAdParamScope
  3
DesignerServices
 90
     1024
 91
        1
280
     0
281
     0
  0
CLASS
  1
NAMEDAPPL
  2
AcAdNamedAppl
  3
DesignerServices
 90
     1024
 91
        1
280
     0
281
     0
  0
CLASS
  1
AMDTDMMENUSTATE
  2
AmdtDmMenuState
  3
AcMechDwgViewMgmt
 90
     1024
 91
        1
280
     0
281
     0
  0
CLASS
  1
AMDTAMMENUSTATE
  2
AmdtAmMenuState
  3
DesignerAssemblies
 90
     1024
 91
        1
280
     0
281
     0
  0
CLASS
  1
ACAMPROJECT
  2
AcAmProject
  3
DesignerAssemblies
 90
     1024
 91
        1
280
     0
281
     0
  0
CLASS
  1
ACAMGRCOMPDEF
  2
AcAmGrCompDef
  3
DesignerAssemblies
 90
     1024
 91
        1
280
     0
281
     0
  0
CLASS
  1
ACCMCONTEXT
  2
AcCmContext
  3
DesignerAssemblies
 90
     1024
 91
        1
280
     0
281
     0
  0
CLASS
  1
ACAMCOMPDEF
  2
AcAmCompDef
  3
DesignerAssemblies
 90
     1024
 91
        1
280
     0
281
     0
  0
CLASS
  1
ACAMCOMPDEFMGR
  2
AcAmCompDefMgr
  3
DesignerAssemblies
 90
     1024
 91
        1
280
     0
281
     0
  0
CLASS
  1
AMCONTEXTMGR
  2
AcAmContextMgr
  3
DesignerAssemblies
 90
     1024
 91
        1
280
     0
281
     0
  0
CLASS
  1
ACAMCONTEXTMODELER
  2
AcAmContextModeler
  3
DesignerAssemblies
 90
     1024
 91
        1
280
     0
281
     0
  0
CLASS
  1
CATALOGSTATE
  2
AcAmCatalogState
  3
DesignerAssemblies
 90
     1024
 91
        1
280
     0
281
     0
  0
CLASS
  1
ACAMGRCOMPDEFSET
  2
AcAmGrCompDefSet
  3
DesignerAssemblies
 90
     1024
 91
        1
280
     0
281
     0
  0
CLASS
  1
AMDTBROWSERDBTAB
  2
AmdtBrowserDbTab
  3
McadcomServices
 90
     1024
 91
        1
280
     0
281
     0
  0
CLASS
  1
CBROWSERAPPOBJECT
  2
CBrowserAppObject
  3
McadcomServices
 90
     1024
 91
        3
280
     0
281
     0
  0
CLASS
  1
DM_PLACEHOLDER
  2
AcDmSelsetPlaceholder
  3
AcMechDwgViewMgmt
 90
     1024
 91
        1
280
     0
281
     0
  0
CLASS
  1
TABLESTYLE
  2
AcDbTableStyle
  3
ObjectDBX Classes
 90
     4095
 91
        1
280
     0
281
     0
  0
CLASS
  1
VAACXREFPANELOBJECT
  2
VaAcXREFPanelObject
  3
VAAC_ADDIN
 90
        0
 91
        0
280
     0
281
     0
  0
CLASS
  1
VAACIMAGEINVENTORY
  2
VaAcImageInventory
  3
VAAC_ADDIN
 90
        0
 91
        0
280
     0
281
     0
  0
CLASS
  1
AMDTNOTETEMPLATEDB
  2
AmdtNoteTemplateDB
  3
AcmSymBB|Product Description: AutoCAD Mechanical|Company: Autodesk, Inc.
 90
     1024
 91
        6
280
     0
281
     0
  0
CLASS
  1
ACAMGFILTERDAT
  2
AcAmgFilterDat
  3
"AcadM|Product Description: AutoCAD Mechanical|Company: Autodesk, Inc."
 90
     1024
 91
        0
280
     0
281
     0
  0
CLASS
  1
MATERIAL
  2
AcDbMaterial
  3
ObjectDBX Classes
 90
     1153
 91
        3
280
     0
281
     0
  0
CLASS
  1
VISUALSTYLE
  2
AcDbVisualStyle
  3
ObjectDBX Classes
 90
     4095
 91
       16
280
     0
281
     0
  0
CLASS
  1
ACRFATTGENMGR
  2
AcRfAttGeneralMgr
  3
AcAttribServices
 90
     1024
 91
        0
280
     0
281
     0
  0
CLASS
  1
ACRFOBJATTMGR
  2
AcRfObjAttGroupMgr
  3
AcAttribServices
 90
     1024
 91
        0
280
     0
281
     0
  0
CLASS
  1
ACRFMCADAPIATTHOLDER
  2
AcRfMCADAPIAttHolder
  3
AcAttribServices
 90
     1024
 91
        0
280
     0
281
     0
  0
CLASS
  1
AMDTSYSATTR
  2
AmdtSystemAttribute
  3
AcAttribServices
 90
     1024
 91
        0
280
     0
281
     0
  0
CLASS
  1
ACMTAPERSTANDARDJIS
  2
AcmTaperStdJIS
  3
"Amdt_StdImp|Product Description: AutoCAD Mechanical|Company: Autodesk, Inc."
 90
     1024
 91
        0
280
     0
281
     0
  0
CLASS
  1
CAMSSTRUCTBTNSTATE
  2
StructBtnState
  3
DesignerAssemblies
 90
     1024
 91
        0
280
     0
281
     0
  0
CLASS
  1
SCALE
  2
AcDbScale
  3
ObjectDBX Classes
 90
     1153
 91
       35
280
     0
281
     0
  0
CLASS
  1
MLEADERSTYLE
  2
AcDbMLeaderStyle
  3
ACDB_MLEADERSTYLE_CLASS
 90
     4095
 91
        1
280
     0
281
     0
  0
CLASS
  1
ACMANOOTATIONVIEWSTANDARDJIS
  2
AmdtAnViewStdJIS
  3
"Amdt_StdImp|Product Description: AutoCAD Mechanical|Company: Autodesk, Inc."
 90
     1024
 91
        0
280
     0
281
     0
  0
CLASS
  1
ACMSURFSTANDARDJIS2003
  2
AcmSurfTextStdJIS2003
  3
"Amdt_StdImp|Product Description: AutoCAD Mechanical|Company: Autodesk, Inc."
 90
     1024
 91
        0
280
     0
281
     0
  0
CLASS
  1
CELLSTYLEMAP
  2
AcDbCellStyleMap
  3
ObjectDBX Classes
 90
     1152
 91
        2
280
     0
281
     0
  0
CLASS
  1
ACMFCFSTANDARDJIS98
  2
AcmFCFStdJIS98
  3
"Amdt_StdImp|Product Description: AutoCAD Mechanical|Company: Autodesk, Inc."
 90
     1024
 91
        0
280
     0
281
     0
  0
CLASS
  1
SORTENTSTABLE
  2
AcDbSortentsTable
  3
ObjectDBX Classes
 90
        0
 91
       11
280
     0
281
     0
  0
CLASS
  1
DIMASSOC
  2
AcDbDimAssoc
  3
"AcDbDimAssoc|Product Desc:     AcDim ARX App For Dimension|Company:          Autodesk, Inc.|WEB Address:      www.autodesk.com"
 90
        0
 91
       15
280
     0
281
     0
  0
CLASS
  1
STDPART2D
  2
AmgStdPart
  3
AmgStdPart|Product Description: AutoCAD Mechanical|Company: Autodesk, Inc.
 90
     4095
 91
        0
280
     0
281
     1
  0
CLASS
  1
ACMDATAENTRYPART
  2
AcmDataEntryPart
  3
AcmSymBB|Product Description: AutoCAD Mechanical|Company: Autodesk, Inc.
 90
     1024
 91
        0
280
     0
281
     0
  0
CLASS
  1
ACMPARTREF
  2
AcmPartRef
  3
"AcmSymBB|Product Description: AutoCAD Mechanical|Company: Autodesk, Inc."
 90
     4095
 91
        0
280
     0
281
     1
  0
CLASS
  1
ACDBSTDPARTRES_LINE
  2
AcDbStdPartRes_Line
  3
AmgStdPart|Product Description: AutoCAD Mechanical|Company: Autodesk, Inc.
 90
     1024
 91
        0
280
     0
281
     0
  0
CLASS
  1
ACMBOM
  2
AcmBom
  3
"AcmSymBB|Product Description: AutoCAD Mechanical|Company: Autodesk, Inc."
 90
     1024
 91
        0
280
     0
281
     0
  0
CLASS
  1
AMDTFORMULAUPDATEDISPATCHER
  2
AmdtFormulaUpdateDispatcher
  3
AcMeServices
 90
     1024
 91
        0
280
     0
281
     0
  0
CLASS
  1
ACMBOMROW
  2
AcmBomRow
  3
"AcmSymBB|Product Description: AutoCAD Mechanical|Company: Autodesk, Inc."
 90
     1024
 91
        0
280
     0
281
     0
  0
CLASS
  1
ACMPARTLIST
  2
AcmPartList
  3
"AcmSymBB|Product Description: AutoCAD Mechanical|Company: Autodesk, Inc."
 90
     4095
 91
        0
280
     0
281
     1
  0
CLASS
  1
ACDBLINERES
  2
AcDbLineRes
  3
AcGrefServices
 90
     1024
 91
        0
280
     0
281
     0
  0
CLASS
  1
ACRFINSADJ
  2
AcRfInsAdjuster
  3
AcMeServices
 90
     1024
 91
        0
280
     0
281
     0
  0
CLASS
  1
ACMSTANDARDISO
  2
AcmStandardISO
  3
"Amdt_StdImp|Product Description: AutoCAD Mechanical|Company: Autodesk, Inc."
 90
     1024
 91
        1
280
     0
281
     0
  0
CLASS
  1
AMDTEDGESTANDARDISO13715
  2
AmdtEdgeStdISO13715
  3
"Amdt_StdImp|Product Description: AutoCAD Mechanical|Company: Autodesk, Inc."
 90
     1024
 91
        1
280
     0
281
     0
  0
CLASS
  1
ACMSURFSTANDARDISO2002
  2
AcmSurfTextStdISO2002
  3
"Amdt_StdImp|Product Description: AutoCAD Mechanical|Company: Autodesk, Inc."
 90
     1024
 91
        1
280
     0
281
     0
  0
CLASS
  1
ACMFCFSTANDARDISO
  2
AcmFCFStdISO
  3
"Amdt_StdImp|Product Description: AutoCAD Mechanical|Company: Autodesk, Inc."
 90
     1024
 91
        1
280
     0
281
     0
  0
CLASS
  1
ACMWELDSTANDARDISO
  2
AcmWeldingStdISO
  3
"Amdt_StdImp|Product Description: AutoCAD Mechanical|Company: Autodesk, Inc."
 90
     1024
 91
        1
280
     0
281
     0
  0
CLASS
  1
ACMIDSTANDARDISO
  2
AcmIdStdISO
  3
"Amdt_StdImp|Product Description: AutoCAD Mechanical|Company: Autodesk, Inc."
 90
     1024
 91
        1
280
     0
281
     0
  0
CLASS
  1
ACMDATUMSTANDARDISO
  2
AcmDatumStdISO
  3
"Amdt_StdImp|Product Description: AutoCAD Mechanical|Company: Autodesk, Inc."
 90
     1024
 91
        1
280
     0
281
     0
  0
CLASS
  1
ACMBOMSTANDARDISO
  2
AcmBOMStdISO
  3
"Amdt_StdImp|Product Description: AutoCAD Mechanical|Company: Autodesk, Inc."
 90
     1024
 91
        1
280
     0
281
     0
  0
CLASS
  1
ACMDETAILSTANDARDISO
  2
AmdtDetailSymStdISO
  3
"Amdt_StdImp|Product Description: AutoCAD Mechanical|Company: Autodesk, Inc."
 90
     1024
 91
        1
280
     0
281
     0
  0
CLASS
  1
ACMSECTIONSTANDARDISO2001
  2
AmdtSectionSymStdISO2001
  3
"Amdt_StdImp|Product Description: AutoCAD Mechanical|Company: Autodesk, Inc."
 90
     1024
 91
        1
280
     0
281
     0
  0
CLASS
  1
ACMCENTERLINESTANDARDISO
  2
AmdtCenterLineStdISO
  3
"Amdt_StdImp|Product Description: AutoCAD Mechanical|Company: Autodesk, Inc."
 90
     1024
 91
        1
280
     0
281
     0
  0
CLASS
  1
ACMTHREADLINESTANDARDISO
  2
AmdtThreadLineStdISO
  3
"Amdt_StdImp|Product Description: AutoCAD Mechanical|Company: Autodesk, Inc."
 90
     1024
 91
        1
280
     0
281
     0
  0
CLASS
  1
ACMNOTESTANDARDISO
  2
AmdtNoteStdISO
  3
"Amdt_StdImp|Product Description: AutoCAD Mechanical|Company: Autodesk, Inc."
 90
     1024
 91
        1
280
     0
281
     0
  0
CLASS
  1
ACMTAPERSTANDARDISO
  2
AcmTaperStdISO
  3
"Amdt_StdImp|Product Description: AutoCAD Mechanical|Company: Autodesk, Inc."
 90
     1024
 91
        1
280
     0
281
     0
  0
CLASS
  1
ACMANOOTATIONVIEWSTANDARDISO
  2
AmdtAnViewStdISO
  3
"Amdt_StdImp|Product Description: AutoCAD Mechanical|Company: Autodesk, Inc."
 90
     1024
 91
        1
280
     0
281
     0
  0
CLASS
  1
ACAMGHOLECHARTSTDISO
  2
AcAmgHoleChartStdISO
  3
AmgDim|Product Description: AutoCAD Mechanical|Company: Autodesk, Inc.
 90
     1024
 91
        1
280
     0
281
     0
  0
CLASS
  1
EXACXREFPANELOBJECT
  2
ExAcXREFPanelObject
  3
EXAC_ESW
 90
     1025
 91
        0
280
     0
281
     0
  0
CLASS
  1
NPOCOLLECTION
  2
AcDbImpNonPersistentObjectsCollection
  3
ObjectDBX Classes
 90
     1153
 91
        0
280
     0
281
     0
  0
CLASS
  1
ACDBSTDPARTRES_ARC
  2
AcDbStdPartRes_Arc
  3
AmgStdPart|Product Description: AutoCAD Mechanical|Company: Autodesk, Inc.
 90
     1024
 91
        0
280
     0
281
     0
  0
CLASS
  1
AMDTNOTE
  2
AmdtNote
  3
"AcmSymBB|Product Description: AutoCAD Mechanical|Company: Autodesk, Inc."
 90
     4095
 91
        0
280
     0
281
     1
  0
CLASS
  1
PLOTSETTINGS
  2
AcDbPlotSettings
  3
ObjectDBX Classes
 90
        0
 91
        1
280
     0
281
     0
  0
CLASS
  1
ACMSTANDARDANSI
  2
AcmStandardANSI
  3
"Amdt_StdImp|Product Description: AutoCAD Mechanical|Company: Autodesk, Inc."
 90
     1024
 91
        0
280
     0
281
     0
  0
CLASS
  1
ACMSURFSTANDARDANSI
  2
AcmSurfTextStdANSI
  3
"Amdt_StdImp|Product Description: AutoCAD Mechanical|Company: Autodesk, Inc."
 90
     1024
 91
        0
280
     0
281
     0
  0
CLASS
  1
ACMFCFSTANDARDANSI
  2
AcmFCFStdANSI
  3
"Amdt_StdImp|Product Description: AutoCAD Mechanical|Company: Autodesk, Inc."
 90
     1024
 91
        0
280
     0
281
     0
  0
CLASS
  1
ACMWELDSTANDARDANSI
  2
AcmWeldingStdANSI
  3
"Amdt_StdImp|Product Description: AutoCAD Mechanical|Company: Autodesk, Inc."
 90
     1024
 91
        0
280
     0
281
     0
  0
CLASS
  1
ACMIDSTANDARDANSI
  2
AcmIdStdANSI
  3
"Amdt_StdImp|Product Description: AutoCAD Mechanical|Company: Autodesk, Inc."
 90
     1024
 91
        0
280
     0
281
     0
  0
CLASS
  1
ACMDATUMSTANDARDANSI
  2
AcmDatumStdANSI
  3
"Amdt_StdImp|Product Description: AutoCAD Mechanical|Company: Autodesk, Inc."
 90
     1024
 91
        0
280
     0
281
     0
  0
CLASS
  1
ACMBOMSTANDARDANSI
  2
AcmBOMStdANSI
  3
"Amdt_StdImp|Product Description: AutoCAD Mechanical|Company: Autodesk, Inc."
 90
     1024
 91
        0
280
     0
281
     0
  0
CLASS
  1
ACMDETAILSTANDARDANSI
  2
AmdtDetailSymStdANSI
  3
"Amdt_StdImp|Product Description: AutoCAD Mechanical|Company: Autodesk, Inc."
 90
     1024
 91
        0
280
     0
281
     0
  0
CLASS
  1
ACMSECTIONSTANDARDANSI
  2
AmdtSectionSymStdANSI
  3
"Amdt_StdImp|Product Description: AutoCAD Mechanical|Company: Autodesk, Inc."
 90
     1024
 91
        0
280
     0
281
     0
  0
CLASS
  1
ACMCENTERLINESTANDARDANSI
  2
AmdtCenterLineStdANSI
  3
"Amdt_StdImp|Product Description: AutoCAD Mechanical|Company: Autodesk, Inc."
 90
     1024
 91
        0
280
     0
281
     0
  0
CLASS
  1
ACMTHREADLINESTANDARDANSI
  2
AmdtThreadLineStdANSI
  3
"Amdt_StdImp|Product Description: AutoCAD Mechanical|Company: Autodesk, Inc."
 90
     1024
 91
        0
280
     0
281
     0
  0
CLASS
  1
ACMNOTESTANDARDANSI
  2
AmdtNoteStdANSI
  3
"Amdt_StdImp|Product Description: AutoCAD Mechanical|Company: Autodesk, Inc."
 90
     1024
 91
        0
280
     0
281
     0
  0
CLASS
  1
ACMTAPERSTANDARDANSI
  2
AcmTaperStdANSI
  3
"Amdt_StdImp|Product Description: AutoCAD Mechanical|Company: Autodesk, Inc."
 90
     1024
 91
        0
280
     0
281
     0
  0
CLASS
  1
ACMANOOTATIONVIEWSTANDARDANSI
  2
AmdtAnViewStdANSI
  3
"Amdt_StdImp|Product Description: AutoCAD Mechanical|Company: Autodesk, Inc."
 90
     1024
 91
        0
280
     0
281
     0
  0
CLASS
  1
ACAMGHOLECHARTSTDANSI
  2
AcAmgHoleChartStdANSI
  3
AmgDim|Product Description: AutoCAD Mechanical|Company: Autodesk, Inc.
 90
     1024
 91
        0
280
     0
281
     0
  0
CLASS
  1
ACMSTANDARDBSI
  2
AcmStandardBSI
  3
"Amdt_StdImp|Product Description: AutoCAD Mechanical|Company: Autodesk, Inc."
 90
     1024
 91
        0
280
     0
281
     0
  0
CLASS
  1
ACMSURFSTANDARDBSI2002
  2
AcmSurfTextStdBSI2002
  3
"Amdt_StdImp|Product Description: AutoCAD Mechanical|Company: Autodesk, Inc."
 90
     1024
 91
        0
280
     0
281
     0
  0
CLASS
  1
ACMFCFSTANDARDBSI
  2
AcmFCFStdBSI
  3
"Amdt_StdImp|Product Description: AutoCAD Mechanical|Company: Autodesk, Inc."
 90
     1024
 91
        0
280
     0
281
     0
  0
CLASS
  1
ACMWELDSTANDARDBSI
  2
AcmWeldingStdBSI
  3
"Amdt_StdImp|Product Description: AutoCAD Mechanical|Company: Autodesk, Inc."
 90
     1024
 91
        0
280
     0
281
     0
  0
CLASS
  1
ACMIDSTANDARDBSI
  2
AcmIdStdBSI
  3
"Amdt_StdImp|Product Description: AutoCAD Mechanical|Company: Autodesk, Inc."
 90
     1024
 91
        0
280
     0
281
     0
  0
CLASS
  1
ACMDATUMSTANDARDBSI
  2
AcmDatumStdBSI
  3
"Amdt_StdImp|Product Description: AutoCAD Mechanical|Company: Autodesk, Inc."
 90
     1024
 91
        0
280
     0
281
     0
  0
CLASS
  1
ACMBOMSTANDARDBSI
  2
AcmBOMStdBSI
  3
"Amdt_StdImp|Product Description: AutoCAD Mechanical|Company: Autodesk, Inc."
 90
     1024
 91
        0
280
     0
281
     0
  0
CLASS
  1
ACMDETAILSTANDARDBSI
  2
AmdtDetailSymStdBSI
  3
"Amdt_StdImp|Product Description: AutoCAD Mechanical|Company: Autodesk, Inc."
 90
     1024
 91
        0
280
     0
281
     0
  0
CLASS
  1
ACMSECTIONSTANDARDBSI2001
  2
AmdtSectionSymStdBSI2001
  3
"Amdt_StdImp|Product Description: AutoCAD Mechanical|Company: Autodesk, Inc."
 90
     1024
 91
        0
280
     0
281
     0
  0
CLASS
  1
ACMCENTERLINESTANDARDBSI
  2
AmdtCenterLineStdBSI
  3
"Amdt_StdImp|Product Description: AutoCAD Mechanical|Company: Autodesk, Inc."
 90
     1024
 91
        0
280
     0
281
     0
  0
CLASS
  1
ACMTHREADLINESTANDARDBSI
  2
AmdtThreadLineStdBSI
  3
"Amdt_StdImp|Product Description: AutoCAD Mechanical|Company: Autodesk, Inc."
 90
     1024
 91
        0
280
     0
281
     0
  0
CLASS
  1
ACMNOTESTANDARDBSI
  2
AmdtNoteStdBSI
  3
"Amdt_StdImp|Product Description: AutoCAD Mechanical|Company: Autodesk, Inc."
 90
     1024
 91
        0
280
     0
281
     0
  0
CLASS
  1
ACMTAPERSTANDARDBSI
  2
AcmTaperStdBSI
  3
"Amdt_StdImp|Product Description: AutoCAD Mechanical|Company: Autodesk, Inc."
 90
     1024
 91
        0
280
     0
281
     0
  0
CLASS
  1
ACMANOOTATIONVIEWSTANDARDBSI
  2
AmdtAnViewStdBSI
  3
"Amdt_StdImp|Product Description: AutoCAD Mechanical|Company: Autodesk, Inc."
 90
     1024
 91
        0
280
     0
281
     0
  0
CLASS
  1
ACAMGHOLECHARTSTDBSI
  2
AcAmgHoleChartStdBSI
  3
AmgDim|Product Description: AutoCAD Mechanical|Company: Autodesk, Inc.
 90
     1024
 91
        0
280
     0
281
     0
  0
CLASS
  1
AMDTEDGESTANDARDJIS
  2
AmdtEdgeStdJIS
  3
"Amdt_StdImp|Product Description: AutoCAD Mechanical|Company: Autodesk, Inc."
 90
     1024
 91
        0
280
     0
281
     0
  0
CLASS
  1
ACDB_BLKREFOBJECTCONTEXTDATA_CLASS
  2
AcDbBlkRefObjectContextData
  3
ObjectDBX Classes
 90
     1153
 91
        0
280
     0
281
     0
  0
CLASS
  1
ACDBOPPOLYLINERES
  2
AcDbOpPolylineRes
  3
AcGrefServices
 90
     1024
 91
        0
280
     0
281
     0
  0
CLASS
  1
AMDTACMWBLOCKBOMENTITY
  2
AmdtAcmWblockBomEntity
  3
"AcmSymBB|Product Description: AutoCAD Mechanical|Company: Autodesk, Inc."
 90
     4095
 91
        0
280
     0
281
     1
  0
CLASS
  1
ACMSURFSYM
  2
AcmSurfaceTexture
  3
"AcmSymBB|Product Description: AutoCAD Mechanical|Company: Autodesk, Inc."
 90
     4095
 91
        0
280
     0
281
     1
  0
CLASS
  1
ACDBCIRCARCRES
  2
AcDbCircArcRes
  3
AcGrefServices
 90
     1024
 91
        0
280
     0
281
     0
  0
CLASS
  1
ACDBDIMENSIONRES
  2
AcDbDimensionRes
  3
AcmSymBB|Product Description: AutoCAD Mechanical|Company: Autodesk, Inc.
 90
     1024
 91
        0
280
     0
281
     0
  0
CLASS
  1
ACMPICKOBJ
  2
AcmPickEnt
  3
"AcmSymBB|Product Description: AutoCAD Mechanical|Company: Autodesk, Inc."
 90
     1024
 91
        0
280
     0
281
     1
  0
CLASS
  1
ACDBELLIPSERES
  2
AcDbEllipseRes
  3
AcGrefServices
 90
     1024
 91
        0
280
     0
281
     0
  0
CLASS
  1
ACMBALLOON
  2
AcmBalloon
  3
"AcmSymBB|Product Description: AutoCAD Mechanical|Company: Autodesk, Inc."
 90
     4095
 91
        0
280
     0
281
     1
  0
ENDSEC
  0
SECTION
  2
TABLES
  0
TABLE
  2
VPORT
  5
8
330
0
100
AcDbSymbolTable
 70
     1
  0
VPORT
  5
27A
330
8
100
AcDbSymbolTableRecord
100
AcDbViewportTableRecord
  2
*Active
 70
     0
 10
0.0
 20
0.0
 11
1.0
 21
1.0
 12
594.9879488428271
 22
483.4636712196091
 13
0.0
 23
0.0
 14
6.25
 24
6.25
 15
25.0
 25
25.0
 16
0.0
 26
0.0
 36
1.0
 17
0.0
 27
0.0
 37
0.0
 40
454.7010426878025
 41
1.571428571428571
 42
50.0
 43
0.0
 44
0.0
 50
0.0
 51
0.0
 71
    16
 72
 20000
 73
     1
 74
     3
 75
     0
 76
     0
 77
     0
 78
     0
281
     0
 65
     0
110
0.0
120
0.0
130
0.0
111
1.0
121
0.0
131
0.0
112
0.0
122
1.0
132
0.0
 79
     0
146
0.0
348
285
 60
     3
 61
     5
292
     1
282
     0
141
0.0
142
0.0
 63
   250
421
  3355443
  0
ENDTAB
  0
TABLE
  2
LTYPE
  5
5
330
0
100
AcDbSymbolTable
 70
    20
  0
LTYPE
  5
14
330
5
100
AcDbSymbolTableRecord
100
AcDbLinetypeTableRecord
  2
ByBlock
 70
     0
  3

 72
    65
 73
     0
 40
0.0
  0
LTYPE
  5
15
330
5
100
AcDbSymbolTableRecord
100
AcDbLinetypeTableRecord
  2
ByLayer
 70
     0
  3

 72
    65
 73
     0
 40
0.0
  0
LTYPE
  5
16
330
5
100
AcDbSymbolTableRecord
100
AcDbLinetypeTableRecord
  2
Continuous
 70
     0
  3
Solid line
 72
    65
 73
     0
 40
0.0
  0
LTYPE
  5
4D
330
5
100
AcDbSymbolTableRecord
100
AcDbLinetypeTableRecord
  2
AM_ISO02W050
 70
     0
  3
__ __ __ __ __ __ __ __ __ __ __ __ __ __ __
 72
    65
 73
     2
 40
7.5
 49
6.0
 74
     0
 49
-1.5
 74
     0
  0
LTYPE
  5
4E
330
5
100
AcDbSymbolTableRecord
100
AcDbLinetypeTableRecord
  2
AM_ISO08W050
 70
     0
  3
____ . ____ . ____ . ____ . ____ . ____ . ____
 72
    65
 73
     4
 40
18.0
 49
12.0
 74
     0
 49
-1.5
 74
     0
 49
3.0
 74
     0
 49
-1.5
 74
     0
  0
LTYPE
  5
4F
330
5
100
AcDbSymbolTableRecord
100
AcDbLinetypeTableRecord
  2
AM_ISO09W050
 70
     0
  3
_____ . . _____ . . _____ . . ____ .. ____
 72
    65
 73
     6
 40
22.5
 49
12.0
 74
     0
 49
-1.5
 74
     0
 49
3.0
 74
     0
 49
-1.5
 74
     0
 49
3.0
 74
     0
 49
-1.5
 74
     0
  0
LTYPE
  5
50
330
5
100
AcDbSymbolTableRecord
100
AcDbLinetypeTableRecord
  2
Amconstr
 70
     0
  3
_______________________
 72
    65
 73
     2
 40
9999.0
 49
9999.0
 74
     0
 49
0.0
 74
     0
  0
LTYPE
  5
51
330
5
100
AcDbSymbolTableRecord
100
AcDbLinetypeTableRecord
  2
AM_ISO08W050x2
 70
     0
  3
__ . __ . __ . __ . __ . __
 72
    65
 73
     4
 40
9.0
 49
6.0
 74
     0
 49
-0.75
 74
     0
 49
1.5
 74
     0
 49
-0.75
 74
     0
  0
LTYPE
  5
52
330
5
100
AcDbSymbolTableRecord
100
AcDbLinetypeTableRecord
  2
AM_ISO02W050x2
 70
     0
  3
 _ _ _ _ _ _ _ _ _ _ _ _
 72
    65
 73
     2
 40
3.75
 49
3.0
 74
     0
 49
-0.75
 74
     0
  0
LTYPE
  5
55
330
5
100
AcDbSymbolTableRecord
100
AcDbLinetypeTableRecord
  2
Amzigzag
 70
     0
  3
/\/-/\/-/\/-/\/-/\/-/\/
 72
    65
 73
     2
 40
11.0001
 49
0.0001
 74
     4
 75
   136
340
23D
 46
0.04
 50
0.0
 44
0.0
 45
0.0
 49
-11.0
 74
     0
  0
LTYPE
  5
65
330
5
100
AcDbSymbolTableRecord
100
AcDbLinetypeTableRecord
  2
CENTER
 70
     0
  3
__ . __
 72
    65
 73
     4
 40
7.0
 49
4.0
 74
     0
 49
-1.0
 74
     0
 49
1.0
 74
     0
 49
-1.0
 74
     0
  0
LTYPE
  5
E0
330
5
100
AcDbSymbolTableRecord
100
AcDbLinetypeTableRecord
  2
HIDDEN
 70
     0
  3
Hidden __ __ __ __ __ __ __ __ __ __ __ __ __ _
 72
    65
 73
     2
 40
9.524999999999996
 49
6.349999999999998
 74
     0
 49
-3.174999999999998
 74
     0
  0
LTYPE
  5
E1
330
5
100
AcDbSymbolTableRecord
100
AcDbLinetypeTableRecord
  2
PHANTOM2
 70
     0
  3
Phantom (.5x) ___ _ _ ___ _ _ ___ _ _ ___ _ _
 72
    65
 73
     6
 40
31.75
 49
15.875
 74
     0
 49
-3.174999999999998
 74
     0
 49
3.174999999999998
 74
     0
 49
-3.174999999999998
 74
     0
 49
3.174999999999998
 74
     0
 49
-3.174999999999998
 74
     0
  0
LTYPE
  5
5A2
330
5
100
AcDbSymbolTableRecord
100
AcDbLinetypeTableRecord
  2
ACJISWELD
 70
     0
  3
_ _ _ _ _
 72
    65
 73
     2
 40
2.0
 49
2.0
 74
     0
 49
-1.0
 74
     0
  0
LTYPE
  5
5A82
330
5
100
AcDbSymbolTableRecord
100
AcDbLinetypeTableRecord
  2
ACISOWELD
 70
     0
  3
_ _ _ _ _
 72
    65
 73
     2
 40
2.0
 49
2.0
 74
     0
 49
-1.0
 74
     0
  0
LTYPE
  5
5A83
330
5
100
AcDbSymbolTableRecord
100
AcDbLinetypeTableRecord
  2
ACISOTGB
 70
     0
  3
__ . . __ . .
 72
    65
 73
     6
 40
9.0
 49
4.0
 74
     0
 49
-1.0
 74
     0
 49
1.0
 74
     0
 49
-1.0
 74
     0
 49
1.0
 74
     0
 49
-1.0
 74
     0
  0
LTYPE
  5
5A84
330
5
100
AcDbSymbolTableRecord
100
AcDbLinetypeTableRecord
  2
ACISOTGL
 70
     0
  3
_ _ _ _ _
 72
    65
 73
     2
 40
3.0
 49
2.0
 74
     0
 49
-1.0
 74
     0
  0
ENDTAB
  0
TABLE
  2
LAYER
  5
2
102
{ACAD_XDICTIONARY
360
BF
102
}
330
0
100
AcDbSymbolTable
 70
    10
  0
LAYER
  5
10
102
{ACAD_XDICTIONARY
360
29D7
102
}
330
2
100
AcDbSymbolTableRecord
100
AcDbLayerTableRecord
  2
0
 70
     0
 62
     7
  6
Continuous
370
    -3
390
F
347
27E
  0
LAYER
  5
81
102
{ACAD_XDICTIONARY
360
29D9
102
}
330
2
100
AcDbSymbolTableRecord
100
AcDbLayerTableRecord
  2
AM_0 外形線1
 70
     0
 62
     7
  6
Continuous
370
    25
390
F
347
27E
  0
LAYER
  5
427
330
2
100
AcDbSymbolTableRecord
100
AcDbLayerTableRecord
  2
Defpoints
 70
     0
 62
     7
  6
Continuous
290
     0
370
    -3
390
F
347
27E
  0
LAYER
  5
25C9
102
{ACAD_XDICTIONARY
360
29E0
102
}
330
2
100
AcDbSymbolTableRecord
100
AcDbLayerTableRecord
  2
AM_3 隠れ線
 70
     0
 62
     8
  6
ACJISWELD
370
    13
390
F
347
27E
1001
AcAecLayerStandard
1000

1000

  0
LAYER
  5
25CA
102
{ACAD_XDICTIONARY
360
29E2
102
}
330
2
100
AcDbSymbolTableRecord
100
AcDbLayerTableRecord
  2
AM_4 細線
 70
     0
 62
     4
  6
Continuous
370
    13
390
F
347
27E
1001
AcAecLayerStandard
1000

1000

  0
LAYER
  5
26B3
102
{ACAD_XDICTIONARY
360
29E8
102
}
330
2
100
AcDbSymbolTableRecord
100
AcDbLayerTableRecord
  2
AM_5 寸法線
 70
     0
 62
     3
  6
Continuous
370
    13
390
F
347
27E
1001
AcAecLayerStandard
1000

1000

  0
LAYER
  5
35F3
330
2
100
AcDbSymbolTableRecord
100
AcDbLayerTableRecord
  2
AM_7 中心線
 70
     0
 62
     1
  6
AM_ISO08W050
370
    13
390
F
347
27E
1001
AcAecLayerStandard
1000

1000

  0
LAYER
  5
35F5
330
2
100
AcDbSymbolTableRecord
100
AcDbLayerTableRecord
  2
AM_6 文字
 70
     0
 62
     2
  6
Continuous
370
    13
390
F
347
27E
1001
AcAecLayerStandard
1000

1000

  0
LAYER
  5
570A
330
2
100
AcDbSymbolTableRecord
100
AcDbLayerTableRecord
  2
AM_11 想像線
 70
     0
 62
     5
  6
AM_ISO09W050
370
    13
390
F
347
27E
1001
AcAecLayerStandard
1000

1000

  0
ENDTAB
  0
TABLE
  2
STYLE
  5
3
330
0
100
AcDbSymbolTable
 70
    11
  0
STYLE
  5
11
330
3
100
AcDbSymbolTableRecord
100
AcDbTextStyleTableRecord
  2
STANDARD
 70
     0
 40
0.0
 41
1.0
 50
0.0
 71
     0
 42
25.0
  3
ISOCP.SHX
  4
EXTFONT.SHX
  0
STYLE
  5
23D
330
3
100
AcDbSymbolTableRecord
100
AcDbTextStyleTableRecord
  2

 70
     1
 40
0.0
 41
1.0
 50
0.0
 71
     0
 42
2.5
  3
genltshp.shx
  4

  0
STYLE
  5
5D5
330
3
100
AcDbSymbolTableRecord
100
AcDbTextStyleTableRecord
  2
SEISA
 70
     0
 40
0.0
 41
0.9
 50
0.0
 71
     0
 42
25.0
  3
romans.shx
  4
extfont2.shx
  0
STYLE
  5
5A72
330
3
100
AcDbSymbolTableRecord
100
AcDbTextStyleTableRecord
  2
ACISOTS
 70
     0
 40
1.0
 41
1.0
 50
0.0
 71
     0
 42
25.0
  3
isocp.shx
  4
extfont.shx
  0
STYLE
  5
5A81
330
3
100
AcDbSymbolTableRecord
100
AcDbTextStyleTableRecord
  2
ACISOGDT
 70
     0
 40
0.0
 41
1.0
 50
0.0
 71
     0
 42
25.0
  3
amgdt.shx
  4

  0
ENDTAB
  0
TABLE
  2
VIEW
  5
6
330
0
100
AcDbSymbolTable
 70
     6
  0
VIEW
  5
91B
330
6
100
AcDbSymbolTableRecord
100
AcDbViewTableRecord
  2
AM_VIEW1
 70
     0
 40
525.0
 10
476.3564271517949
 20
787.5000000000003
 41
952.7128547579302
 11
0.0
 21
0.0
 31
1.0
 12
0.0
 22
0.0
 32
0.0
 42
50.0
 43
0.0
 44
0.0
 50
0.0
 71
    16
281
     0
 72
     0
 73
     0
  0
VIEW
  5
91C
330
6
100
AcDbSymbolTableRecord
100
AcDbViewTableRecord
  2
AM_VIEW2
 70
     0
 40
525.0
 10
1008.64357296179
 20
787.5000000000003
 41
952.7128547579302
 11
0.0
 21
0.0
 31
1.0
 12
0.0
 22
0.0
 32
0.0
 42
50.0
 43
0.0
 44
0.0
 50
0.0
 71
    16
281
     0
 72
     0
 73
     0
  0
VIEW
  5
91D
330
6
100
AcDbSymbolTableRecord
100
AcDbViewTableRecord
  2
AM_VIEW3
 70
     0
 40
525.0
 10
476.3564271517949
 20
262.5
 41
952.7128547579302
 11
0.0
 21
0.0
 31
1.0
 12
0.0
 22
0.0
 32
0.0
 42
50.0
 43
0.0
 44
0.0
 50
0.0
 71
    16
281
     0
 72
     0
 73
     0
  0
VIEW
  5
91E
330
6
100
AcDbSymbolTableRecord
100
AcDbViewTableRecord
  2
AM_VIEW4
 70
     0
 40
525.0
 10
1008.64357296179
 20
262.5
 41
952.7128547579302
 11
0.0
 21
0.0
 31
1.0
 12
0.0
 22
0.0
 32
0.0
 42
50.0
 43
0.0
 44
0.0
 50
0.0
 71
    16
281
     0
 72
     0
 73
     0
  0
VIEW
  5
91F
330
6
100
AcDbSymbolTableRecord
100
AcDbViewTableRecord
  2
AM_VIEW5
 70
     0
 40
525.0
 10
742.5000000567925
 20
525.0
 41
952.7128547579302
 11
0.0
 21
0.0
 31
1.0
 12
0.0
 22
0.0
 32
0.0
 42
50.0
 43
0.0
 44
0.0
 50
0.0
 71
    16
281
     0
 72
     0
 73
     0
  0
VIEW
  5
920
330
6
100
AcDbSymbolTableRecord
100
AcDbViewTableRecord
  2
AM_VIEW6
 70
     0
 40
1049.9895
 10
742.5000000567925
 20
525.0
 41
1905.406655258765
 11
0.0
 21
0.0
 31
1.0
 12
0.0
 22
0.0
 32
0.0
 42
50.0
 43
0.0
 44
0.0
 50
0.0
 71
    16
281
     0
 72
     0
 73
     0
  0
ENDTAB
  0
TABLE
  2
UCS
  5
7
330
0
100
AcDbSymbolTable
 70
     0
  0
ENDTAB
  0
TABLE
  2
APPID
  5
9
330
0
100
AcDbSymbolTable
 70
   394
  0
APPID
  5
12
330
9
100
AcDbSymbolTableRecord
100
AcDbRegAppTableRecord
  2
ACAD
 70
     0
  0
APPID
  5
30
330
9
100
AcDbSymbolTableRecord
100
AcDbRegAppTableRecord
  2
MCAD_NO_VIS
 70
     0
  0
APPID
  5
31
330
9
100
AcDbSymbolTableRecord
100
AcDbRegAppTableRecord
  2
ACAD_TEMP_GRAPHIC
 70
     0
  0
APPID
  5
44
330
9
100
AcDbSymbolTableRecord
100
AcDbRegAppTableRecord
  2
ACATTRIBSERVICES
 70
     0
  0
APPID
  5
F6
330
9
100
AcDbSymbolTableRecord
100
AcDbRegAppTableRecord
  2
AD_DRAW
 70
     0
  0
APPID
  5
114
330
9
100
AcDbSymbolTableRecord
100
AcDbRegAppTableRecord
  2
DESIGNERASSEMBLIES
 70
     0
  0
APPID
  5
118
330
9
100
AcDbSymbolTableRecord
100
AcDbRegAppTableRecord
  2
ACADM_DIM_EDIT
 70
     0
  0
APPID
  5
119
330
9
100
AcDbSymbolTableRecord
100
AcDbRegAppTableRecord
  2
AMDT_DM_ADJ
 70
     0
  0
APPID
  5
1AF
330
9
100
AcDbSymbolTableRecord
100
AcDbRegAppTableRecord
  2
ACAD_DSTYLE_DIMARC_LENGTH_SYMBOL
 70
     0
  0
APPID
  5
1B0
330
9
100
AcDbSymbolTableRecord
100
AcDbRegAppTableRecord
  2
ACAD_DSTYLE_DIMJOGGED_JOGANGLE_SYMBOL
 70
     0
  0
APPID
  5
2D7
330
9
100
AcDbSymbolTableRecord
100
AcDbRegAppTableRecord
  2
ACAD_MLEADERVER
 70
     0
  0
APPID
  5
355
330
9
100
AcDbSymbolTableRecord
100
AcDbRegAppTableRecord
  2
AcadAnnoPO
 70
     0
  0
APPID
  5
428
330
9
100
AcDbSymbolTableRecord
100
AcDbRegAppTableRecord
  2
ACAD_DSTYLE_DIMTEXT_FILL
 70
     0
  0
APPID
  5
429
330
9
100
AcDbSymbolTableRecord
100
AcDbRegAppTableRecord
  2
GENIUS_GENSCREG_15
 70
     0
  0
APPID
  5
42A
330
9
100
AcDbSymbolTableRecord
100
AcDbRegAppTableRecord
  2
GENIUS_GENOBJ-N-SDF_13
 70
     0
  0
APPID
  5
42B
330
9
100
AcDbSymbolTableRecord
100
AcDbRegAppTableRecord
  2
GENIUS_GENODEF_13
 70
     0
  0
APPID
  5
42C
330
9
100
AcDbSymbolTableRecord
100
AcDbRegAppTableRecord
  2
ACAD_EXEMPT_FROM_CAD_STANDARDS
 70
     0
  0
APPID
  5
42D
330
9
100
AcDbSymbolTableRecord
100
AcDbRegAppTableRecord
  2
AcAecLayerStandard
 70
     0
  0
APPID
  5
42E
330
9
100
AcDbSymbolTableRecord
100
AcDbRegAppTableRecord
  2
GENIUS_GENOBJ-N-CEN_13
 70
     0
  0
APPID
  5
42F
330
9
100
AcDbSymbolTableRecord
100
AcDbRegAppTableRecord
  2
GENIUS_GENCEN_19
 70
     0
  0
APPID
  5
430
330
9
100
AcDbSymbolTableRecord
100
AcDbRegAppTableRecord
  2
ACAD_DSTYLE_DIMINSPECT
 70
     0
  0
APPID
  5
431
330
9
100
AcDbSymbolTableRecord
100
AcDbRegAppTableRecord
  2
GENIUS_AMGTXT_16
 70
     0
  0
APPID
  5
432
330
9
100
AcDbSymbolTableRecord
100
AcDbRegAppTableRecord
  2
GENIUS_GENFIL_13
 70
     0
  0
APPID
  5
433
330
9
100
AcDbSymbolTableRecord
100
AcDbRegAppTableRecord
  2
GENIUS_GENOLIS_13
 70
     0
  0
APPID
  5
434
330
9
100
AcDbSymbolTableRecord
100
AcDbRegAppTableRecord
  2
GENIUS_GENOBJ-N-CHA_13
 70
     0
  0
APPID
  5
435
330
9
100
AcDbSymbolTableRecord
100
AcDbRegAppTableRecord
  2
GENIUS_GENOENT_13
 70
     0
  0
APPID
  5
436
330
9
100
AcDbSymbolTableRecord
100
AcDbRegAppTableRecord
  2
GENIUS_GENOREF_13
 70
     0
  0
APPID
  5
437
330
9
100
AcDbSymbolTableRecord
100
AcDbRegAppTableRecord
  2
GENIUS_GENOBJ-N-FIL_13
 70
     0
  0
APPID
  5
438
330
9
100
AcDbSymbolTableRecord
100
AcDbRegAppTableRecord
  2
GEVID1208829536
 70
     0
  0
APPID
  5
439
330
9
100
AcDbSymbolTableRecord
100
AcDbRegAppTableRecord
  2
GEVDC
 70
     0
  0
APPID
  5
43A
330
9
100
AcDbSymbolTableRecord
100
AcDbRegAppTableRecord
  2
GEVRADREF
 70
     0
  0
APPID
  5
43B
330
9
100
AcDbSymbolTableRecord
100
AcDbRegAppTableRecord
  2
GENIUS_GENBH_13
 70
     0
  0
APPID
  5
43C
330
9
100
AcDbSymbolTableRecord
100
AcDbRegAppTableRecord
  2
GENIUS_GENOBJ-NBEHI-BHF_13
 70
     0
  0
APPID
  5
43D
330
9
100
AcDbSymbolTableRecord
100
AcDbRegAppTableRecord
  2
GENIUS_GENOBJ-NBEHI-BHB_13
 70
     0
  0
APPID
  5
43E
330
9
100
AcDbSymbolTableRecord
100
AcDbRegAppTableRecord
  2
GEVID1208829537
 70
     0
  0
APPID
  5
43F
330
9
100
AcDbSymbolTableRecord
100
AcDbRegAppTableRecord
  2
ACAD_DSTYLE_DIMJAG
 70
     0
  0
APPID
  5
440
330
9
100
AcDbSymbolTableRecord
100
AcDbRegAppTableRecord
  2
ACAD_DSTYLE_DIMTALN
 70
     0
  0
APPID
  5
441
330
9
100
AcDbSymbolTableRecord
100
AcDbRegAppTableRecord
  2
AMG_2DHIDE
 70
     0
  0
APPID
  5
442
330
9
100
AcDbSymbolTableRecord
100
AcDbRegAppTableRecord
  2
AMG_2DSTRUCT_BTR
 70
     0
  0
APPID
  5
443
330
9
100
AcDbSymbolTableRecord
100
AcDbRegAppTableRecord
  2
GEVID1208845772
 70
     0
  0
APPID
  5
444
330
9
100
AcDbSymbolTableRecord
100
AcDbRegAppTableRecord
  2
GEVID1208845773
 70
     0
  0
APPID
  5
445
330
9
100
AcDbSymbolTableRecord
100
AcDbRegAppTableRecord
  2
ACADM_2DVIEW_IGN_NOTIFY
 70
     0
  0
APPID
  5
446
330
9
100
AcDbSymbolTableRecord
100
AcDbRegAppTableRecord
  2
GEVID1208845774
 70
     0
  0
APPID
  5
447
330
9
100
AcDbSymbolTableRecord
100
AcDbRegAppTableRecord
  2
GEVID1208845775
 70
     0
  0
APPID
  5
448
330
9
100
AcDbSymbolTableRecord
100
AcDbRegAppTableRecord
  2
GEVID1208845776
 70
     0
  0
APPID
  5
449
330
9
100
AcDbSymbolTableRecord
100
AcDbRegAppTableRecord
  2
GEVID1208845777
 70
     0
  0
APPID
  5
44A
330
9
100
AcDbSymbolTableRecord
100
AcDbRegAppTableRecord
  2
GEVCON
 70
     0
  0
APPID
  5
44B
330
9
100
AcDbSymbolTableRecord
100
AcDbRegAppTableRecord
  2
GENIUS_GENOBJ-F-SCPASSM_13
 70
     0
  0
APPID
  5
44C
330
9
100
AcDbSymbolTableRecord
100
AcDbRegAppTableRecord
  2
GEVID1208845778
 70
     0
  0
APPID
  5
44D
330
9
100
AcDbSymbolTableRecord
100
AcDbRegAppTableRecord
  2
GEVID1208845779
 70
     0
  0
APPID
  5
44E
330
9
100
AcDbSymbolTableRecord
100
AcDbRegAppTableRecord
  2
GEVID1208845780
 70
     0
  0
APPID
  5
44F
330
9
100
AcDbSymbolTableRecord
100
AcDbRegAppTableRecord
  2
GEVID1208845781
 70
     0
  0
APPID
  5
450
330
9
100
AcDbSymbolTableRecord
100
AcDbRegAppTableRecord
  2
GEVID1208845782
 70
     0
  0
APPID
  5
451
330
9
100
AcDbSymbolTableRecord
100
AcDbRegAppTableRecord
  2
GEVID1208845783
 70
     0
  0
APPID
  5
452
330
9
100
AcDbSymbolTableRecord
100
AcDbRegAppTableRecord
  2
GEVID1208845784
 70
     0
  0
APPID
  5
453
330
9
100
AcDbSymbolTableRecord
100
AcDbRegAppTableRecord
  2
GEVID1208845785
 70
     0
  0
APPID
  5
454
330
9
100
AcDbSymbolTableRecord
100
AcDbRegAppTableRecord
  2
GEVID1208845787
 70
     0
  0
APPID
  5
455
330
9
100
AcDbSymbolTableRecord
100
AcDbRegAppTableRecord
  2
GEVID1208845788
 70
     0
  0
APPID
  5
456
330
9
100
AcDbSymbolTableRecord
100
AcDbRegAppTableRecord
  2
GEVID1208845789
 70
     0
  0
APPID
  5
457
330
9
100
AcDbSymbolTableRecord
100
AcDbRegAppTableRecord
  2
GEVID1208845790
 70
     0
  0
APPID
  5
458
330
9
100
AcDbSymbolTableRecord
100
AcDbRegAppTableRecord
  2
GEVID1208845791
 70
     0
  0
APPID
  5
459
330
9
100
AcDbSymbolTableRecord
100
AcDbRegAppTableRecord
  2
GEVID1208845792
 70
     0
  0
APPID
  5
45A
330
9
100
AcDbSymbolTableRecord
100
AcDbRegAppTableRecord
  2
GEVID1208845793
 70
     0
  0
APPID
  5
45B
330
9
100
AcDbSymbolTableRecord
100
AcDbRegAppTableRecord
  2
GEVID1208845794
 70
     0
  0
APPID
  5
45C
330
9
100
AcDbSymbolTableRecord
100
AcDbRegAppTableRecord
  2
GEVID1208845795
 70
     0
  0
APPID
  5
45D
330
9
100
AcDbSymbolTableRecord
100
AcDbRegAppTableRecord
  2
GEVID1208845796
 70
     0
  0
APPID
  5
45E
330
9
100
AcDbSymbolTableRecord
100
AcDbRegAppTableRecord
  2
GEVID1208845797
 70
     0
  0
APPID
  5
45F
330
9
100
AcDbSymbolTableRecord
100
AcDbRegAppTableRecord
  2
GEVID1208845798
 70
     0
  0
APPID
  5
460
330
9
100
AcDbSymbolTableRecord
100
AcDbRegAppTableRecord
  2
GEVID1208845799
 70
     0
  0
APPID
  5
461
330
9
100
AcDbSymbolTableRecord
100
AcDbRegAppTableRecord
  2
GEVID1208845800
 70
     0
  0
APPID
  5
462
330
9
100
AcDbSymbolTableRecord
100
AcDbRegAppTableRecord
  2
GEVID1208845801
 70
     0
  0
APPID
  5
463
330
9
100
AcDbSymbolTableRecord
100
AcDbRegAppTableRecord
  2
GEVID1208845802
 70
     0
  0
APPID
  5
464
330
9
100
AcDbSymbolTableRecord
100
AcDbRegAppTableRecord
  2
GENIUS_GENOBJ-N-DIM_13
 70
     0
  0
APPID
  5
465
330
9
100
AcDbSymbolTableRecord
100
AcDbRegAppTableRecord
  2
GENIUS_GENDIM_13
 70
     0
  0
APPID
  5
466
330
9
100
AcDbSymbolTableRecord
100
AcDbRegAppTableRecord
  2
GENIUS_GENDIMSH_14
 70
     0
  0
APPID
  5
467
330
9
100
AcDbSymbolTableRecord
100
AcDbRegAppTableRecord
  2
GEVID1208845803
 70
     0
  0
APPID
  5
468
330
9
100
AcDbSymbolTableRecord
100
AcDbRegAppTableRecord
  2
GEVID1208845804
 70
     0
  0
APPID
  5
469
330
9
100
AcDbSymbolTableRecord
100
AcDbRegAppTableRecord
  2
GEVID1208845805
 70
     0
  0
APPID
  5
46A
330
9
100
AcDbSymbolTableRecord
100
AcDbRegAppTableRecord
  2
GEVID1208845806
 70
     0
  0
APPID
  5
46B
330
9
100
AcDbSymbolTableRecord
100
AcDbRegAppTableRecord
  2
GEVID1208845807
 70
     0
  0
APPID
  5
46C
330
9
100
AcDbSymbolTableRecord
100
AcDbRegAppTableRecord
  2
GEVID1208845808
 70
     0
  0
APPID
  5
46D
330
9
100
AcDbSymbolTableRecord
100
AcDbRegAppTableRecord
  2
GEVID1208845809
 70
     0
  0
APPID
  5
46E
330
9
100
AcDbSymbolTableRecord
100
AcDbRegAppTableRecord
  2
GEVID1208845810
 70
     0
  0
APPID
  5
46F
330
9
100
AcDbSymbolTableRecord
100
AcDbRegAppTableRecord
  2
GEVID1208845811
 70
     0
  0
APPID
  5
470
330
9
100
AcDbSymbolTableRecord
100
AcDbRegAppTableRecord
  2
GEVID1208845813
 70
     0
  0
APPID
  5
471
330
9
100
AcDbSymbolTableRecord
100
AcDbRegAppTableRecord
  2
GEVID1208845814
 70
     0
  0
APPID
  5
472
330
9
100
AcDbSymbolTableRecord
100
AcDbRegAppTableRecord
  2
GEVID1208845815
 70
     0
  0
APPID
  5
473
330
9
100
AcDbSymbolTableRecord
100
AcDbRegAppTableRecord
  2
GEVID1208845816
 70
     0
  0
APPID
  5
474
330
9
100
AcDbSymbolTableRecord
100
AcDbRegAppTableRecord
  2
GEVID1208845817
 70
     0
  0
APPID
  5
475
330
9
100
AcDbSymbolTableRecord
100
AcDbRegAppTableRecord
  2
GEVID1208845818
 70
     0
  0
APPID
  5
476
330
9
100
AcDbSymbolTableRecord
100
AcDbRegAppTableRecord
  2
GEVID1208845819
 70
     0
  0
APPID
  5
477
330
9
100
AcDbSymbolTableRecord
100
AcDbRegAppTableRecord
  2
GEVID1208845820
 70
     0
  0
APPID
  5
478
330
9
100
AcDbSymbolTableRecord
100
AcDbRegAppTableRecord
  2
GENIUS_GENOBJ-F-SHCL_13
 70
     0
  0
APPID
  5
479
330
9
100
AcDbSymbolTableRecord
100
AcDbRegAppTableRecord
  2
GENIUS_GEFMSH_13
 70
     0
  0
APPID
  5
47A
330
9
100
AcDbSymbolTableRecord
100
AcDbRegAppTableRecord
  2
GENIUS_GENOBJ-F-SHCA_13
 70
     0
  0
APPID
  5
47B
330
9
100
AcDbSymbolTableRecord
100
AcDbRegAppTableRecord
  2
GENIUS_GEFSH_13
 70
     0
  0
APPID
  5
47C
330
9
100
AcDbSymbolTableRecord
100
AcDbRegAppTableRecord
  2
GENIUS_GEFSHP_13
 70
     0
  0
APPID
  5
47D
330
9
100
AcDbSymbolTableRecord
100
AcDbRegAppTableRecord
  2
GENIUS_GEFSHP0_13
 70
     0
  0
APPID
  5
47E
330
9
100
AcDbSymbolTableRecord
100
AcDbRegAppTableRecord
  2
GENIUS_GEFSH0_13
 70
     0
  0
APPID
  5
47F
330
9
100
AcDbSymbolTableRecord
100
AcDbRegAppTableRecord
  2
GENIUS_GEFSHP1_13
 70
     0
  0
APPID
  5
480
330
9
100
AcDbSymbolTableRecord
100
AcDbRegAppTableRecord
  2
GENIUS_GEFSH1_13
 70
     0
  0
APPID
  5
481
330
9
100
AcDbSymbolTableRecord
100
AcDbRegAppTableRecord
  2
GEVID1208866337
 70
     0
  0
APPID
  5
482
330
9
100
AcDbSymbolTableRecord
100
AcDbRegAppTableRecord
  2
GEVID1208866338
 70
     0
  0
APPID
  5
483
330
9
100
AcDbSymbolTableRecord
100
AcDbRegAppTableRecord
  2
GEVID1208866339
 70
     0
  0
APPID
  5
484
330
9
100
AcDbSymbolTableRecord
100
AcDbRegAppTableRecord
  2
GEVID1208866340
 70
     0
  0
APPID
  5
485
330
9
100
AcDbSymbolTableRecord
100
AcDbRegAppTableRecord
  2
GEVID1208866341
 70
     0
  0
APPID
  5
486
330
9
100
AcDbSymbolTableRecord
100
AcDbRegAppTableRecord
  2
ACAD_PSEXT
 70
     0
  0
APPID
  5
487
330
9
100
AcDbSymbolTableRecord
100
AcDbRegAppTableRecord
  2
GEVID1208866342
 70
     0
  0
APPID
  5
488
330
9
100
AcDbSymbolTableRecord
100
AcDbRegAppTableRecord
  2
GEVID1208913836
 70
     0
  0
APPID
  5
489
330
9
100
AcDbSymbolTableRecord
100
AcDbRegAppTableRecord
  2
GEVID1208913837
 70
     0
  0
APPID
  5
48A
330
9
100
AcDbSymbolTableRecord
100
AcDbRegAppTableRecord
  2
GEVID1208913838
 70
     0
  0
APPID
  5
48B
330
9
100
AcDbSymbolTableRecord
100
AcDbRegAppTableRecord
  2
GEVID1208913839
 70
     0
  0
APPID
  5
48C
330
9
100
AcDbSymbolTableRecord
100
AcDbRegAppTableRecord
  2
GENIUS_GENDTOL_13
 70
     0
  0
APPID
  5
48D
330
9
100
AcDbSymbolTableRecord
100
AcDbRegAppTableRecord
  2
GEVID1208928889
 70
     0
  0
APPID
  5
48E
330
9
100
AcDbSymbolTableRecord
100
AcDbRegAppTableRecord
  2
GEVID1208928890
 70
     0
  0
APPID
  5
48F
330
9
100
AcDbSymbolTableRecord
100
AcDbRegAppTableRecord
  2
GEVID1208928891
 70
     0
  0
APPID
  5
490
330
9
100
AcDbSymbolTableRecord
100
AcDbRegAppTableRecord
  2
GEVID1208928892
 70
     0
  0
APPID
  5
491
330
9
100
AcDbSymbolTableRecord
100
AcDbRegAppTableRecord
  2
GEVID1208933827
 70
     0
  0
APPID
  5
492
330
9
100
AcDbSymbolTableRecord
100
AcDbRegAppTableRecord
  2
GEVID1208933829
 70
     0
  0
APPID
  5
493
330
9
100
AcDbSymbolTableRecord
100
AcDbRegAppTableRecord
  2
GEVID1208933830
 70
     0
  0
APPID
  5
494
330
9
100
AcDbSymbolTableRecord
100
AcDbRegAppTableRecord
  2
GEVID1208933831
 70
     0
  0
APPID
  5
495
330
9
100
AcDbSymbolTableRecord
100
AcDbRegAppTableRecord
  2
GEVID1208933832
 70
     0
  0
APPID
  5
496
330
9
100
AcDbSymbolTableRecord
100
AcDbRegAppTableRecord
  2
GEVID1208933833
 70
     0
  0
APPID
  5
497
330
9
100
AcDbSymbolTableRecord
100
AcDbRegAppTableRecord
  2
GEVID1208933834
 70
     0
  0
APPID
  5
498
330
9
100
AcDbSymbolTableRecord
100
AcDbRegAppTableRecord
  2
GEVID1208933835
 70
     0
  0
APPID
  5
499
330
9
100
AcDbSymbolTableRecord
100
AcDbRegAppTableRecord
  2
GEVID1208933836
 70
     0
  0
APPID
  5
49A
330
9
100
AcDbSymbolTableRecord
100
AcDbRegAppTableRecord
  2
GEVID1208933837
 70
     0
  0
APPID
  5
49B
330
9
100
AcDbSymbolTableRecord
100
AcDbRegAppTableRecord
  2
GEVID1208933838
 70
     0
  0
APPID
  5
49C
330
9
100
AcDbSymbolTableRecord
100
AcDbRegAppTableRecord
  2
GEVID1208933840
 70
     0
  0
APPID
  5
49D
330
9
100
AcDbSymbolTableRecord
100
AcDbRegAppTableRecord
  2
GEVID1208933842
 70
     0
  0
APPID
  5
49E
330
9
100
AcDbSymbolTableRecord
100
AcDbRegAppTableRecord
  2
GEVID1208933843
 70
     0
  0
APPID
  5
49F
330
9
100
AcDbSymbolTableRecord
100
AcDbRegAppTableRecord
  2
GEVID1208933844
 70
     0
  0
APPID
  5
4A0
330
9
100
AcDbSymbolTableRecord
100
AcDbRegAppTableRecord
  2
GEVID1208933845
 70
     0
  0
APPID
  5
4A1
330
9
100
AcDbSymbolTableRecord
100
AcDbRegAppTableRecord
  2
GEVID1208933846
 70
     0
  0
APPID
  5
4A2
330
9
100
AcDbSymbolTableRecord
100
AcDbRegAppTableRecord
  2
GEVID1208933847
 70
     0
  0
APPID
  5
4A3
330
9
100
AcDbSymbolTableRecord
100
AcDbRegAppTableRecord
  2
GEVID1208933848
 70
     0
  0
APPID
  5
4A4
330
9
100
AcDbSymbolTableRecord
100
AcDbRegAppTableRecord
  2
GEVID1208933849
 70
     0
  0
APPID
  5
4A5
330
9
100
AcDbSymbolTableRecord
100
AcDbRegAppTableRecord
  2
GEVID1208933850
 70
     0
  0
APPID
  5
4A6
330
9
100
AcDbSymbolTableRecord
100
AcDbRegAppTableRecord
  2
GEVID1208933851
 70
     0
  0
APPID
  5
4A7
330
9
100
AcDbSymbolTableRecord
100
AcDbRegAppTableRecord
  2
GEVID1208933852
 70
     0
  0
APPID
  5
4A8
330
9
100
AcDbSymbolTableRecord
100
AcDbRegAppTableRecord
  2
GEVID1208933853
 70
     0
  0
APPID
  5
4A9
330
9
100
AcDbSymbolTableRecord
100
AcDbRegAppTableRecord
  2
GEVID1208933854
 70
     0
  0
APPID
  5
4AA
330
9
100
AcDbSymbolTableRecord
100
AcDbRegAppTableRecord
  2
GEVID1208933855
 70
     0
  0
APPID
  5
4AB
330
9
100
AcDbSymbolTableRecord
100
AcDbRegAppTableRecord
  2
GEVID1208933856
 70
     0
  0
APPID
  5
4AC
330
9
100
AcDbSymbolTableRecord
100
AcDbRegAppTableRecord
  2
GEVID1208933857
 70
     0
  0
APPID
  5
4AD
330
9
100
AcDbSymbolTableRecord
100
AcDbRegAppTableRecord
  2
GEVID1208933858
 70
     0
  0
APPID
  5
4AE
330
9
100
AcDbSymbolTableRecord
100
AcDbRegAppTableRecord
  2
GEVID1208933859
 70
     0
  0
APPID
  5
4AF
330
9
100
AcDbSymbolTableRecord
100
AcDbRegAppTableRecord
  2
GEVID1208933860
 70
     0
  0
APPID
  5
4B0
330
9
100
AcDbSymbolTableRecord
100
AcDbRegAppTableRecord
  2
GEVID1208933861
 70
     0
  0
APPID
  5
4B1
330
9
100
AcDbSymbolTableRecord
100
AcDbRegAppTableRecord
  2
GEVID1208933862
 70
     0
  0
APPID
  5
4B2
330
9
100
AcDbSymbolTableRecord
100
AcDbRegAppTableRecord
  2
GEVID1208933863
 70
     0
  0
APPID
  5
4B3
330
9
100
AcDbSymbolTableRecord
100
AcDbRegAppTableRecord
  2
GEVID1208933864
 70
     0
  0
APPID
  5
4B4
330
9
100
AcDbSymbolTableRecord
100
AcDbRegAppTableRecord
  2
GEVID1208933865
 70
     0
  0
APPID
  5
4B5
330
9
100
AcDbSymbolTableRecord
100
AcDbRegAppTableRecord
  2
GEVID1208933866
 70
     0
  0
APPID
  5
4B6
330
9
100
AcDbSymbolTableRecord
100
AcDbRegAppTableRecord
  2
GEVID1208933867
 70
     0
  0
APPID
  5
4B7
330
9
100
AcDbSymbolTableRecord
100
AcDbRegAppTableRecord
  2
GEVID1208933868
 70
     0
  0
APPID
  5
4B8
330
9
100
AcDbSymbolTableRecord
100
AcDbRegAppTableRecord
  2
GEVID1208933869
 70
     0
  0
APPID
  5
4B9
330
9
100
AcDbSymbolTableRecord
100
AcDbRegAppTableRecord
  2
GEVID1208933870
 70
     0
  0
APPID
  5
4BA
330
9
100
AcDbSymbolTableRecord
100
AcDbRegAppTableRecord
  2
GEVID1208933871
 70
     0
  0
APPID
  5
4BB
330
9
100
AcDbSymbolTableRecord
100
AcDbRegAppTableRecord
  2
GEVID1208933872
 70
     0
  0
APPID
  5
4BC
330
9
100
AcDbSymbolTableRecord
100
AcDbRegAppTableRecord
  2
GEVID1208933873
 70
     0
  0
APPID
  5
4BD
330
9
100
AcDbSymbolTableRecord
100
AcDbRegAppTableRecord
  2
GEVID1208933874
 70
     0
  0
APPID
  5
4BE
330
9
100
AcDbSymbolTableRecord
100
AcDbRegAppTableRecord
  2
GEVID1208933875
 70
     0
  0
APPID
  5
4BF
330
9
100
AcDbSymbolTableRecord
100
AcDbRegAppTableRecord
  2
GEVID1208933876
 70
     0
  0
APPID
  5
4C0
330
9
100
AcDbSymbolTableRecord
100
AcDbRegAppTableRecord
  2
ACAD_DSTYLE_DIMRADIAL_EXTENSION
 70
     0
  0
APPID
  5
4C1
330
9
100
AcDbSymbolTableRecord
100
AcDbRegAppTableRecord
  2
GEVID1208999100
 70
     0
  0
APPID
  5
4C2
330
9
100
AcDbSymbolTableRecord
100
AcDbRegAppTableRecord
  2
GEVID1208999101
 70
     0
  0
APPID
  5
4C3
330
9
100
AcDbSymbolTableRecord
100
AcDbRegAppTableRecord
  2
GEVID1208999102
 70
     0
  0
APPID
  5
4C4
330
9
100
AcDbSymbolTableRecord
100
AcDbRegAppTableRecord
  2
GEVID1208999103
 70
     0
  0
APPID
  5
4C5
330
9
100
AcDbSymbolTableRecord
100
AcDbRegAppTableRecord
  2
GEVID1208999105
 70
     0
  0
APPID
  5
4C6
330
9
100
AcDbSymbolTableRecord
100
AcDbRegAppTableRecord
  2
GEVID1208999106
 70
     0
  0
APPID
  5
4C7
330
9
100
AcDbSymbolTableRecord
100
AcDbRegAppTableRecord
  2
GEVID1208999108
 70
     0
  0
APPID
  5
4C8
330
9
100
AcDbSymbolTableRecord
100
AcDbRegAppTableRecord
  2
GEVID1208999109
 70
     0
  0
APPID
  5
4C9
330
9
100
AcDbSymbolTableRecord
100
AcDbRegAppTableRecord
  2
GEVID1208999110
 70
     0
  0
APPID
  5
4CA
330
9
100
AcDbSymbolTableRecord
100
AcDbRegAppTableRecord
  2
GEVID1208999111
 70
     0
  0
APPID
  5
4CB
330
9
100
AcDbSymbolTableRecord
100
AcDbRegAppTableRecord
  2
GEVID1208999112
 70
     0
  0
APPID
  5
4CC
330
9
100
AcDbSymbolTableRecord
100
AcDbRegAppTableRecord
  2
GEVID1208999113
 70
     0
  0
APPID
  5
4CD
330
9
100
AcDbSymbolTableRecord
100
AcDbRegAppTableRecord
  2
GEVID1208999114
 70
     0
  0
APPID
  5
4CE
330
9
100
AcDbSymbolTableRecord
100
AcDbRegAppTableRecord
  2
GEVID1210218799
 70
     0
  0
APPID
  5
4CF
330
9
100
AcDbSymbolTableRecord
100
AcDbRegAppTableRecord
  2
GEVID1210218800
 70
     0
  0
APPID
  5
4D0
330
9
100
AcDbSymbolTableRecord
100
AcDbRegAppTableRecord
  2
GENIUS_GEFWELD_13
 70
     0
  0
APPID
  5
4D1
330
9
100
AcDbSymbolTableRecord
100
AcDbRegAppTableRecord
  2
GENIUS_GENOBJ-F-WELS_13
 70
     0
  0
APPID
  5
4D2
330
9
100
AcDbSymbolTableRecord
100
AcDbRegAppTableRecord
  2
AcadAnnotative
 70
     0
  0
APPID
  5
4D3
330
9
100
AcDbSymbolTableRecord
100
AcDbRegAppTableRecord
  2
GEVID1210145339
 70
     0
  0
APPID
  5
4D4
330
9
100
AcDbSymbolTableRecord
100
AcDbRegAppTableRecord
  2
ACAD_DSTYLE_DIMBREAK
 70
     0
  0
APPID
  5
4D5
330
9
100
AcDbSymbolTableRecord
100
AcDbRegAppTableRecord
  2
GEVID1210145340
 70
     0
  0
APPID
  5
4D6
330
9
100
AcDbSymbolTableRecord
100
AcDbRegAppTableRecord
  2
GEVID1210145341
 70
     0
  0
APPID
  5
4D7
330
9
100
AcDbSymbolTableRecord
100
AcDbRegAppTableRecord
  2
GEVID1210145342
 70
     0
  0
APPID
  5
4D8
330
9
100
AcDbSymbolTableRecord
100
AcDbRegAppTableRecord
  2
GEVID1210145343
 70
     0
  0
APPID
  5
4D9
330
9
100
AcDbSymbolTableRecord
100
AcDbRegAppTableRecord
  2
GEVID1210145344
 70
     0
  0
APPID
  5
4DA
330
9
100
AcDbSymbolTableRecord
100
AcDbRegAppTableRecord
  2
GEVID1210145345
 70
     0
  0
APPID
  5
4DB
330
9
100
AcDbSymbolTableRecord
100
AcDbRegAppTableRecord
  2
GEVID1210152816
 70
     0
  0
APPID
  5
4DC
330
9
100
AcDbSymbolTableRecord
100
AcDbRegAppTableRecord
  2
GEVID1210153850
 70
     0
  0
APPID
  5
4DD
330
9
100
AcDbSymbolTableRecord
100
AcDbRegAppTableRecord
  2
GEVID1210153851
 70
     0
  0
APPID
  5
4DE
330
9
100
AcDbSymbolTableRecord
100
AcDbRegAppTableRecord
  2
GEVID1210153852
 70
     0
  0
APPID
  5
4DF
330
9
100
AcDbSymbolTableRecord
100
AcDbRegAppTableRecord
  2
GEVID1210549898
 70
     0
  0
APPID
  5
4E0
330
9
100
AcDbSymbolTableRecord
100
AcDbRegAppTableRecord
  2
GEVID1210549899
 70
     0
  0
APPID
  5
4E1
330
9
100
AcDbSymbolTableRecord
100
AcDbRegAppTableRecord
  2
GEVID1210549900
 70
     0
  0
APPID
  5
4E2
330
9
100
AcDbSymbolTableRecord
100
AcDbRegAppTableRecord
  2
GEVID1210549901
 70
     0
  0
APPID
  5
4E3
330
9
100
AcDbSymbolTableRecord
100
AcDbRegAppTableRecord
  2
GEVID1210549902
 70
     0
  0
APPID
  5
4E4
330
9
100
AcDbSymbolTableRecord
100
AcDbRegAppTableRecord
  2
GEVID1210549903
 70
     0
  0
APPID
  5
4E5
330
9
100
AcDbSymbolTableRecord
100
AcDbRegAppTableRecord
  2
GEVID1210549904
 70
     0
  0
APPID
  5
4E6
330
9
100
AcDbSymbolTableRecord
100
AcDbRegAppTableRecord
  2
GEVID1210549905
 70
     0
  0
APPID
  5
4E7
330
9
100
AcDbSymbolTableRecord
100
AcDbRegAppTableRecord
  2
GEVID1210549906
 70
     0
  0
APPID
  5
4E8
330
9
100
AcDbSymbolTableRecord
100
AcDbRegAppTableRecord
  2
GEVID1210549907
 70
     0
  0
APPID
  5
4E9
330
9
100
AcDbSymbolTableRecord
100
AcDbRegAppTableRecord
  2
GEVID1210549908
 70
     0
  0
APPID
  5
4EA
330
9
100
AcDbSymbolTableRecord
100
AcDbRegAppTableRecord
  2
GEVID1210549909
 70
     0
  0
APPID
  5
4EB
330
9
100
AcDbSymbolTableRecord
100
AcDbRegAppTableRecord
  2
GEVID1210549910
 70
     0
  0
APPID
  5
4EC
330
9
100
AcDbSymbolTableRecord
100
AcDbRegAppTableRecord
  2
GEVID1210549911
 70
     0
  0
APPID
  5
4ED
330
9
100
AcDbSymbolTableRecord
100
AcDbRegAppTableRecord
  2
GEVID1210549912
 70
     0
  0
APPID
  5
4EE
330
9
100
AcDbSymbolTableRecord
100
AcDbRegAppTableRecord
  2
GEVID1210549913
 70
     0
  0
APPID
  5
4EF
330
9
100
AcDbSymbolTableRecord
100
AcDbRegAppTableRecord
  2
GEVID1210549914
 70
     0
  0
APPID
  5
4F0
330
9
100
AcDbSymbolTableRecord
100
AcDbRegAppTableRecord
  2
GEVID1210549915
 70
     0
  0
APPID
  5
4F1
330
9
100
AcDbSymbolTableRecord
100
AcDbRegAppTableRecord
  2
GEVID1210549916
 70
     0
  0
APPID
  5
4F2
330
9
100
AcDbSymbolTableRecord
100
AcDbRegAppTableRecord
  2
GEVID1210549917
 70
     0
  0
APPID
  5
4F3
330
9
100
AcDbSymbolTableRecord
100
AcDbRegAppTableRecord
  2
GENIUS_GENOBJ-N-CRS_13
 70
     0
  0
APPID
  5
4F4
330
9
100
AcDbSymbolTableRecord
100
AcDbRegAppTableRecord
  2
GEVID1210549918
 70
     0
  0
APPID
  5
4F5
330
9
100
AcDbSymbolTableRecord
100
AcDbRegAppTableRecord
  2
GENIUS_GENOBJ-N-CRC_13
 70
     0
  0
APPID
  5
4F6
330
9
100
AcDbSymbolTableRecord
100
AcDbRegAppTableRecord
  2
GENIUS_GENCRC_14
 70
     0
  0
APPID
  5
4F7
330
9
100
AcDbSymbolTableRecord
100
AcDbRegAppTableRecord
  2
GEVID1210549919
 70
     0
  0
APPID
  5
4F8
330
9
100
AcDbSymbolTableRecord
100
AcDbRegAppTableRecord
  2
GEVID1210549921
 70
     0
  0
APPID
  5
4F9
330
9
100
AcDbSymbolTableRecord
100
AcDbRegAppTableRecord
  2
GEVID1210549922
 70
     0
  0
APPID
  5
4FA
330
9
100
AcDbSymbolTableRecord
100
AcDbRegAppTableRecord
  2
GEVID1210635173
 70
     0
  0
APPID
  5
4FB
330
9
100
AcDbSymbolTableRecord
100
AcDbRegAppTableRecord
  2
GEVID1210635174
 70
     0
  0
APPID
  5
4FC
330
9
100
AcDbSymbolTableRecord
100
AcDbRegAppTableRecord
  2
GEVID1210635175
 70
     0
  0
APPID
  5
4FD
330
9
100
AcDbSymbolTableRecord
100
AcDbRegAppTableRecord
  2
GEVID1210635176
 70
     0
  0
APPID
  5
4FE
330
9
100
AcDbSymbolTableRecord
100
AcDbRegAppTableRecord
  2
GEVID1210635177
 70
     0
  0
APPID
  5
4FF
330
9
100
AcDbSymbolTableRecord
100
AcDbRegAppTableRecord
  2
GEVID1210635178
 70
     0
  0
APPID
  5
500
330
9
100
AcDbSymbolTableRecord
100
AcDbRegAppTableRecord
  2
GENIUS_GENIUS_GENBHEDTMP_13
 70
     0
  0
APPID
  5
501
330
9
100
AcDbSymbolTableRecord
100
AcDbRegAppTableRecord
  2
GEVID1210635179
 70
     0
  0
APPID
  5
502
330
9
100
AcDbSymbolTableRecord
100
AcDbRegAppTableRecord
  2
GEVID1210635180
 70
     0
  0
APPID
  5
503
330
9
100
AcDbSymbolTableRecord
100
AcDbRegAppTableRecord
  2
GEVID1210635181
 70
     0
  0
APPID
  5
504
330
9
100
AcDbSymbolTableRecord
100
AcDbRegAppTableRecord
  2
GEVID1210635182
 70
     0
  0
APPID
  5
505
330
9
100
AcDbSymbolTableRecord
100
AcDbRegAppTableRecord
  2
GEVID1210635184
 70
     0
  0
APPID
  5
506
330
9
100
AcDbSymbolTableRecord
100
AcDbRegAppTableRecord
  2
GEVID1210635185
 70
     0
  0
APPID
  5
507
330
9
100
AcDbSymbolTableRecord
100
AcDbRegAppTableRecord
  2
GEVID1210635186
 70
     0
  0
APPID
  5
508
330
9
100
AcDbSymbolTableRecord
100
AcDbRegAppTableRecord
  2
GEVID1210635187
 70
     0
  0
APPID
  5
509
330
9
100
AcDbSymbolTableRecord
100
AcDbRegAppTableRecord
  2
GEVID1210635188
 70
     0
  0
APPID
  5
50A
330
9
100
AcDbSymbolTableRecord
100
AcDbRegAppTableRecord
  2
GEVID1210635189
 70
     0
  0
APPID
  5
50B
330
9
100
AcDbSymbolTableRecord
100
AcDbRegAppTableRecord
  2
GEVID1210635190
 70
     0
  0
APPID
  5
50C
330
9
100
AcDbSymbolTableRecord
100
AcDbRegAppTableRecord
  2
GENIUS_GENREC_14
 70
     0
  0
APPID
  5
50D
330
9
100
AcDbSymbolTableRecord
100
AcDbRegAppTableRecord
  2
GENIUS_GENOBJ-N-REC_13
 70
     0
  0
APPID
  5
50E
330
9
100
AcDbSymbolTableRecord
100
AcDbRegAppTableRecord
  2
GEVID1210676655
 70
     0
  0
APPID
  5
50F
330
9
100
AcDbSymbolTableRecord
100
AcDbRegAppTableRecord
  2
GEVID1210676656
 70
     0
  0
APPID
  5
510
330
9
100
AcDbSymbolTableRecord
100
AcDbRegAppTableRecord
  2
GEVID1210676657
 70
     0
  0
APPID
  5
511
330
9
100
AcDbSymbolTableRecord
100
AcDbRegAppTableRecord
  2
GEVID1210676659
 70
     0
  0
APPID
  5
512
330
9
100
AcDbSymbolTableRecord
100
AcDbRegAppTableRecord
  2
GEVID1210676660
 70
     0
  0
APPID
  5
513
330
9
100
AcDbSymbolTableRecord
100
AcDbRegAppTableRecord
  2
GEVID1210676661
 70
     0
  0
APPID
  5
514
330
9
100
AcDbSymbolTableRecord
100
AcDbRegAppTableRecord
  2
GEVID1210676662
 70
     0
  0
APPID
  5
515
330
9
100
AcDbSymbolTableRecord
100
AcDbRegAppTableRecord
  2
GEVID1210721646
 70
     0
  0
APPID
  5
516
330
9
100
AcDbSymbolTableRecord
100
AcDbRegAppTableRecord
  2
GEVID1210721647
 70
     0
  0
APPID
  5
517
330
9
100
AcDbSymbolTableRecord
100
AcDbRegAppTableRecord
  2
GEVID1210721648
 70
     0
  0
APPID
  5
518
330
9
100
AcDbSymbolTableRecord
100
AcDbRegAppTableRecord
  2
GEVID1210721649
 70
     0
  0
APPID
  5
519
330
9
100
AcDbSymbolTableRecord
100
AcDbRegAppTableRecord
  2
GEVID1210721650
 70
     0
  0
APPID
  5
51A
330
9
100
AcDbSymbolTableRecord
100
AcDbRegAppTableRecord
  2
GEVID1210721651
 70
     0
  0
APPID
  5
51B
330
9
100
AcDbSymbolTableRecord
100
AcDbRegAppTableRecord
  2
GEVID1210721652
 70
     0
  0
APPID
  5
51C
330
9
100
AcDbSymbolTableRecord
100
AcDbRegAppTableRecord
  2
GEVID1210721653
 70
     0
  0
APPID
  5
51D
330
9
100
AcDbSymbolTableRecord
100
AcDbRegAppTableRecord
  2
PE_URL
 70
     0
  0
APPID
  5
51E
330
9
100
AcDbSymbolTableRecord
100
AcDbRegAppTableRecord
  2
GEVID1210825555
 70
     0
  0
APPID
  5
51F
330
9
100
AcDbSymbolTableRecord
100
AcDbRegAppTableRecord
  2
GEVID1210825556
 70
     0
  0
APPID
  5
520
330
9
100
AcDbSymbolTableRecord
100
AcDbRegAppTableRecord
  2
GEVID1210825557
 70
     0
  0
APPID
  5
521
330
9
100
AcDbSymbolTableRecord
100
AcDbRegAppTableRecord
  2
GEVID1210825558
 70
     0
  0
APPID
  5
522
330
9
100
AcDbSymbolTableRecord
100
AcDbRegAppTableRecord
  2
GEVID1210825559
 70
     0
  0
APPID
  5
523
330
9
100
AcDbSymbolTableRecord
100
AcDbRegAppTableRecord
  2
GEVID1210825560
 70
     0
  0
APPID
  5
524
330
9
100
AcDbSymbolTableRecord
100
AcDbRegAppTableRecord
  2
GEVID1210825561
 70
     0
  0
APPID
  5
525
330
9
100
AcDbSymbolTableRecord
100
AcDbRegAppTableRecord
  2
GEVID1210825562
 70
     0
  0
APPID
  5
526
330
9
100
AcDbSymbolTableRecord
100
AcDbRegAppTableRecord
  2
GEVID1210825563
 70
     0
  0
APPID
  5
527
330
9
100
AcDbSymbolTableRecord
100
AcDbRegAppTableRecord
  2
GEVID1210825564
 70
     0
  0
APPID
  5
528
330
9
100
AcDbSymbolTableRecord
100
AcDbRegAppTableRecord
  2
GEVID1210825565
 70
     0
  0
APPID
  5
529
330
9
100
AcDbSymbolTableRecord
100
AcDbRegAppTableRecord
  2
GEVID1210825566
 70
     0
  0
APPID
  5
52A
330
9
100
AcDbSymbolTableRecord
100
AcDbRegAppTableRecord
  2
GEVID1210825567
 70
     0
  0
APPID
  5
52B
330
9
100
AcDbSymbolTableRecord
100
AcDbRegAppTableRecord
  2
GENIUS_GENOBJ-N-ZOO_13
 70
     0
  0
APPID
  5
52C
330
9
100
AcDbSymbolTableRecord
100
AcDbRegAppTableRecord
  2
GENIUS_GENZOO_17
 70
     0
  0
APPID
  5
52D
330
9
100
AcDbSymbolTableRecord
100
AcDbRegAppTableRecord
  2
ACADANNOTATIVEDECOMPOSITION
 70
     0
  0
APPID
  5
52E
330
9
100
AcDbSymbolTableRecord
100
AcDbRegAppTableRecord
  2
GENIUS_GENOBJ-N-HTC_13
 70
     0
  0
APPID
  5
52F
330
9
100
AcDbSymbolTableRecord
100
AcDbRegAppTableRecord
  2
GENIUS_GENHATCH_13
 70
     0
  0
APPID
  5
530
330
9
100
AcDbSymbolTableRecord
100
AcDbRegAppTableRecord
  2
GEVID1210896020
 70
     0
  0
APPID
  5
531
330
9
100
AcDbSymbolTableRecord
100
AcDbRegAppTableRecord
  2
GEVID1210896021
 70
     0
  0
APPID
  5
532
330
9
100
AcDbSymbolTableRecord
100
AcDbRegAppTableRecord
  2
GEVID1209083540
 70
     0
  0
APPID
  5
533
330
9
100
AcDbSymbolTableRecord
100
AcDbRegAppTableRecord
  2
GEVMK
 70
     0
  0
APPID
  5
534
330
9
100
AcDbSymbolTableRecord
100
AcDbRegAppTableRecord
  2
GEVID1209083542
 70
     0
  0
APPID
  5
535
330
9
100
AcDbSymbolTableRecord
100
AcDbRegAppTableRecord
  2
GEVID1209083543
 70
     0
  0
APPID
  5
536
330
9
100
AcDbSymbolTableRecord
100
AcDbRegAppTableRecord
  2
GEVID1209083544
 70
     0
  0
APPID
  5
537
330
9
100
AcDbSymbolTableRecord
100
AcDbRegAppTableRecord
  2
GEVID1209083545
 70
     0
  0
APPID
  5
538
330
9
100
AcDbSymbolTableRecord
100
AcDbRegAppTableRecord
  2
GEVID1209083546
 70
     0
  0
APPID
  5
539
330
9
100
AcDbSymbolTableRecord
100
AcDbRegAppTableRecord
  2
GEVID1209083547
 70
     0
  0
APPID
  5
53A
330
9
100
AcDbSymbolTableRecord
100
AcDbRegAppTableRecord
  2
GEVID1209083548
 70
     0
  0
APPID
  5
53B
330
9
100
AcDbSymbolTableRecord
100
AcDbRegAppTableRecord
  2
GEVID1209083549
 70
     0
  0
APPID
  5
53C
330
9
100
AcDbSymbolTableRecord
100
AcDbRegAppTableRecord
  2
GEVID1209083550
 70
     0
  0
APPID
  5
53D
330
9
100
AcDbSymbolTableRecord
100
AcDbRegAppTableRecord
  2
GEVID1209083551
 70
     0
  0
APPID
  5
53E
330
9
100
AcDbSymbolTableRecord
100
AcDbRegAppTableRecord
  2
GEVID1209083552
 70
     0
  0
APPID
  5
53F
330
9
100
AcDbSymbolTableRecord
100
AcDbRegAppTableRecord
  2
GEVID1209083553
 70
     0
  0
APPID
  5
540
330
9
100
AcDbSymbolTableRecord
100
AcDbRegAppTableRecord
  2
GEVID1210896022
 70
     0
  0
APPID
  5
541
330
9
100
AcDbSymbolTableRecord
100
AcDbRegAppTableRecord
  2
GEVID1211508364
 70
     0
  0
APPID
  5
542
330
9
100
AcDbSymbolTableRecord
100
AcDbRegAppTableRecord
  2
GEVID1211414908
 70
     0
  0
APPID
  5
543
330
9
100
AcDbSymbolTableRecord
100
AcDbRegAppTableRecord
  2
GEVID1211414909
 70
     0
  0
APPID
  5
544
330
9
100
AcDbSymbolTableRecord
100
AcDbRegAppTableRecord
  2
GEVID1211508359
 70
     0
  0
APPID
  5
545
330
9
100
AcDbSymbolTableRecord
100
AcDbRegAppTableRecord
  2
GEVID1211508360
 70
     0
  0
APPID
  5
546
330
9
100
AcDbSymbolTableRecord
100
AcDbRegAppTableRecord
  2
GEVID1211508361
 70
     0
  0
APPID
  5
547
330
9
100
AcDbSymbolTableRecord
100
AcDbRegAppTableRecord
  2
GEVID1211508362
 70
     0
  0
APPID
  5
548
330
9
100
AcDbSymbolTableRecord
100
AcDbRegAppTableRecord
  2
GEVID1211508363
 70
     0
  0
APPID
  5
549
330
9
100
AcDbSymbolTableRecord
100
AcDbRegAppTableRecord
  2
GEVID1211878469
 70
     0
  0
APPID
  5
54A
330
9
100
AcDbSymbolTableRecord
100
AcDbRegAppTableRecord
  2
GEVID1212642819
 70
     0
  0
APPID
  5
54B
330
9
100
AcDbSymbolTableRecord
100
AcDbRegAppTableRecord
  2
GEVID1212642820
 70
     0
  0
APPID
  5
54C
330
9
100
AcDbSymbolTableRecord
100
AcDbRegAppTableRecord
  2
GEVID1212642821
 70
     0
  0
APPID
  5
54D
330
9
100
AcDbSymbolTableRecord
100
AcDbRegAppTableRecord
  2
GEVID1212642822
 70
     0
  0
APPID
  5
54E
330
9
100
AcDbSymbolTableRecord
100
AcDbRegAppTableRecord
  2
GEVID1212642823
 70
     0
  0
APPID
  5
54F
330
9
100
AcDbSymbolTableRecord
100
AcDbRegAppTableRecord
  2
GEVID1212642825
 70
     0
  0
APPID
  5
550
330
9
100
AcDbSymbolTableRecord
100
AcDbRegAppTableRecord
  2
GEVID1212642826
 70
     0
  0
APPID
  5
551
330
9
100
AcDbSymbolTableRecord
100
AcDbRegAppTableRecord
  2
GEVID1212642827
 70
     0
  0
APPID
  5
552
330
9
100
AcDbSymbolTableRecord
100
AcDbRegAppTableRecord
  2
GEVID1212642828
 70
     0
  0
APPID
  5
553
330
9
100
AcDbSymbolTableRecord
100
AcDbRegAppTableRecord
  2
GEVID1212642831
 70
     0
  0
APPID
  5
554
330
9
100
AcDbSymbolTableRecord
100
AcDbRegAppTableRecord
  2
GEVID1212642834
 70
     0
  0
APPID
  5
555
330
9
100
AcDbSymbolTableRecord
100
AcDbRegAppTableRecord
  2
GEVID1212642835
 70
     0
  0
APPID
  5
556
330
9
100
AcDbSymbolTableRecord
100
AcDbRegAppTableRecord
  2
GEVID1212642836
 70
     0
  0
APPID
  5
557
330
9
100
AcDbSymbolTableRecord
100
AcDbRegAppTableRecord
  2
GEVID1212642837
 70
     0
  0
APPID
  5
558
330
9
100
AcDbSymbolTableRecord
100
AcDbRegAppTableRecord
  2
GEVID1212642839
 70
     0
  0
APPID
  5
559
330
9
100
AcDbSymbolTableRecord
100
AcDbRegAppTableRecord
  2
GEVID1212642840
 70
     0
  0
APPID
  5
55A
330
9
100
AcDbSymbolTableRecord
100
AcDbRegAppTableRecord
  2
GEVID1212642841
 70
     0
  0
APPID
  5
55B
330
9
100
AcDbSymbolTableRecord
100
AcDbRegAppTableRecord
  2
GEVID1212655312
 70
     0
  0
APPID
  5
55C
330
9
100
AcDbSymbolTableRecord
100
AcDbRegAppTableRecord
  2
GEVID1212655313
 70
     0
  0
APPID
  5
55D
330
9
100
AcDbSymbolTableRecord
100
AcDbRegAppTableRecord
  2
GEVID1212656533
 70
     0
  0
APPID
  5
55E
330
9
100
AcDbSymbolTableRecord
100
AcDbRegAppTableRecord
  2
GEVID1212656534
 70
     0
  0
APPID
  5
55F
330
9
100
AcDbSymbolTableRecord
100
AcDbRegAppTableRecord
  2
GEVID1212656535
 70
     0
  0
APPID
  5
560
330
9
100
AcDbSymbolTableRecord
100
AcDbRegAppTableRecord
  2
GEVID1212656536
 70
     0
  0
APPID
  5
561
330
9
100
AcDbSymbolTableRecord
100
AcDbRegAppTableRecord
  2
GEVID1212656538
 70
     0
  0
APPID
  5
562
330
9
100
AcDbSymbolTableRecord
100
AcDbRegAppTableRecord
  2
GEVID1212656541
 70
     0
  0
APPID
  5
563
330
9
100
AcDbSymbolTableRecord
100
AcDbRegAppTableRecord
  2
GEVID1212656543
 70
     0
  0
APPID
  5
564
330
9
100
AcDbSymbolTableRecord
100
AcDbRegAppTableRecord
  2
GENIUS_GENOBJ-F-PFASSM_13
 70
     0
  0
APPID
  5
565
330
9
100
AcDbSymbolTableRecord
100
AcDbRegAppTableRecord
  2
GEVID1212656544
 70
     0
  0
APPID
  5
566
330
9
100
AcDbSymbolTableRecord
100
AcDbRegAppTableRecord
  2
GEVID1212656545
 70
     0
  0
APPID
  5
567
330
9
100
AcDbSymbolTableRecord
100
AcDbRegAppTableRecord
  2
GEVID1212656546
 70
     0
  0
APPID
  5
568
330
9
100
AcDbSymbolTableRecord
100
AcDbRegAppTableRecord
  2
GEVID1212656547
 70
     0
  0
APPID
  5
569
330
9
100
AcDbSymbolTableRecord
100
AcDbRegAppTableRecord
  2
GEVID1212656548
 70
     0
  0
APPID
  5
56A
330
9
100
AcDbSymbolTableRecord
100
AcDbRegAppTableRecord
  2
GEVID1212656549
 70
     0
  0
APPID
  5
56B
330
9
100
AcDbSymbolTableRecord
100
AcDbRegAppTableRecord
  2
GEVID1212656550
 70
     0
  0
APPID
  5
56C
330
9
100
AcDbSymbolTableRecord
100
AcDbRegAppTableRecord
  2
GEVID1212656552
 70
     0
  0
APPID
  5
56D
330
9
100
AcDbSymbolTableRecord
100
AcDbRegAppTableRecord
  2
GEVID1212656553
 70
     0
  0
APPID
  5
56E
330
9
100
AcDbSymbolTableRecord
100
AcDbRegAppTableRecord
  2
GEVID1212656554
 70
     0
  0
APPID
  5
56F
330
9
100
AcDbSymbolTableRecord
100
AcDbRegAppTableRecord
  2
GEVID1212656555
 70
     0
  0
APPID
  5
570
330
9
100
AcDbSymbolTableRecord
100
AcDbRegAppTableRecord
  2
GEVID1212656556
 70
     0
  0
APPID
  5
571
330
9
100
AcDbSymbolTableRecord
100
AcDbRegAppTableRecord
  2
GEVID1212656557
 70
     0
  0
APPID
  5
572
330
9
100
AcDbSymbolTableRecord
100
AcDbRegAppTableRecord
  2
GEVID1212656559
 70
     0
  0
APPID
  5
573
330
9
100
AcDbSymbolTableRecord
100
AcDbRegAppTableRecord
  2
GEVID1212656560
 70
     0
  0
APPID
  5
574
330
9
100
AcDbSymbolTableRecord
100
AcDbRegAppTableRecord
  2
GEVID1212656561
 70
     0
  0
APPID
  5
575
330
9
100
AcDbSymbolTableRecord
100
AcDbRegAppTableRecord
  2
GEVID1212656562
 70
     0
  0
APPID
  5
576
330
9
100
AcDbSymbolTableRecord
100
AcDbRegAppTableRecord
  2
GEVID1212656563
 70
     0
  0
APPID
  5
577
330
9
100
AcDbSymbolTableRecord
100
AcDbRegAppTableRecord
  2
GEVID1212711781
 70
     0
  0
APPID
  5
578
330
9
100
AcDbSymbolTableRecord
100
AcDbRegAppTableRecord
  2
GEVID1212711782
 70
     0
  0
APPID
  5
579
330
9
100
AcDbSymbolTableRecord
100
AcDbRegAppTableRecord
  2
GEVID1212711783
 70
     0
  0
APPID
  5
57A
330
9
100
AcDbSymbolTableRecord
100
AcDbRegAppTableRecord
  2
GEVID1212711784
 70
     0
  0
APPID
  5
57B
330
9
100
AcDbSymbolTableRecord
100
AcDbRegAppTableRecord
  2
GEVID1212711788
 70
     0
  0
APPID
  5
57C
330
9
100
AcDbSymbolTableRecord
100
AcDbRegAppTableRecord
  2
GEVID1212711789
 70
     0
  0
APPID
  5
57D
330
9
100
AcDbSymbolTableRecord
100
AcDbRegAppTableRecord
  2
GEVID1212711790
 70
     0
  0
APPID
  5
57E
330
9
100
AcDbSymbolTableRecord
100
AcDbRegAppTableRecord
  2
GEVID1212711791
 70
     0
  0
APPID
  5
57F
330
9
100
AcDbSymbolTableRecord
100
AcDbRegAppTableRecord
  2
GEVID1212711792
 70
     0
  0
APPID
  5
580
330
9
100
AcDbSymbolTableRecord
100
AcDbRegAppTableRecord
  2
GEVID1212711793
 70
     0
  0
APPID
  5
581
330
9
100
AcDbSymbolTableRecord
100
AcDbRegAppTableRecord
  2
GEVID1212711794
 70
     0
  0
APPID
  5
582
330
9
100
AcDbSymbolTableRecord
100
AcDbRegAppTableRecord
  2
GEVID1212711795
 70
     0
  0
APPID
  5
583
330
9
100
AcDbSymbolTableRecord
100
AcDbRegAppTableRecord
  2
GEVID1212711797
 70
     0
  0
APPID
  5
584
330
9
100
AcDbSymbolTableRecord
100
AcDbRegAppTableRecord
  2
GEVID1212711798
 70
     0
  0
APPID
  5
585
330
9
100
AcDbSymbolTableRecord
100
AcDbRegAppTableRecord
  2
GEVID1212711799
 70
     0
  0
APPID
  5
586
330
9
100
AcDbSymbolTableRecord
100
AcDbRegAppTableRecord
  2
GEVID1212711800
 70
     0
  0
APPID
  5
587
330
9
100
AcDbSymbolTableRecord
100
AcDbRegAppTableRecord
  2
GEVID1212711801
 70
     0
  0
APPID
  5
588
330
9
100
AcDbSymbolTableRecord
100
AcDbRegAppTableRecord
  2
GEVID1212711802
 70
     0
  0
APPID
  5
589
330
9
100
AcDbSymbolTableRecord
100
AcDbRegAppTableRecord
  2
GEVID1212711803
 70
     0
  0
APPID
  5
58A
330
9
100
AcDbSymbolTableRecord
100
AcDbRegAppTableRecord
  2
GEVID1212711804
 70
     0
  0
APPID
  5
58B
330
9
100
AcDbSymbolTableRecord
100
AcDbRegAppTableRecord
  2
GEVID1212711805
 70
     0
  0
APPID
  5
58C
330
9
100
AcDbSymbolTableRecord
100
AcDbRegAppTableRecord
  2
GEVID1212711806
 70
     0
  0
APPID
  5
58D
330
9
100
AcDbSymbolTableRecord
100
AcDbRegAppTableRecord
  2
GEVID1212711807
 70
     0
  0
APPID
  5
58E
330
9
100
AcDbSymbolTableRecord
100
AcDbRegAppTableRecord
  2
GEVID1212711808
 70
     0
  0
APPID
  5
58F
330
9
100
AcDbSymbolTableRecord
100
AcDbRegAppTableRecord
  2
GEVID1212711809
 70
     0
  0
APPID
  5
590
330
9
100
AcDbSymbolTableRecord
100
AcDbRegAppTableRecord
  2
GEVID1212711810
 70
     0
  0
APPID
  5
591
330
9
100
AcDbSymbolTableRecord
100
AcDbRegAppTableRecord
  2
GEVID1212711811
 70
     0
  0
APPID
  5
90A
330
9
100
AcDbSymbolTableRecord
100
AcDbRegAppTableRecord
  2
GENIUS_GENTRA_14
 70
     0
  0
APPID
  5
919
330
9
100
AcDbSymbolTableRecord
100
AcDbRegAppTableRecord
  2
GENIUS_GENOBJ-N-TIT_13
 70
     0
  0
APPID
  5
91A
330
9
100
AcDbSymbolTableRecord
100
AcDbRegAppTableRecord
  2
GENIUS_GENTITLE_13
 70
     0
  0
APPID
  5
949
330
9
100
AcDbSymbolTableRecord
100
AcDbRegAppTableRecord
  2
GENIUS_GENBLLY_14
 70
     0
  0
APPID
  5
DDD
330
9
100
AcDbSymbolTableRecord
100
AcDbRegAppTableRecord
  2
GEVID1213165152
 70
     0
  0
APPID
  5
12F9
330
9
100
AcDbSymbolTableRecord
100
AcDbRegAppTableRecord
  2
AcDbDynamicBlockTrueName
 70
     0
  0
APPID
  5
12FA
330
9
100
AcDbSymbolTableRecord
100
AcDbRegAppTableRecord
  2
ACDBBLOCKREPETAG
 70
     0
  0
APPID
  5
1C15
330
9
100
AcDbSymbolTableRecord
100
AcDbRegAppTableRecord
  2
GEVID1214872427
 70
     0
  0
APPID
  5
1C2A
330
9
100
AcDbSymbolTableRecord
100
AcDbRegAppTableRecord
  2
GEVID1214872428
 70
     0
  0
APPID
  5
1C2F
330
9
100
AcDbSymbolTableRecord
100
AcDbRegAppTableRecord
  2
GEVID1214872429
 70
     0
  0
APPID
  5
1C33
330
9
100
AcDbSymbolTableRecord
100
AcDbRegAppTableRecord
  2
GEVID1214872430
 70
     0
  0
APPID
  5
1C3F
330
9
100
AcDbSymbolTableRecord
100
AcDbRegAppTableRecord
  2
GEVID1214872432
 70
     0
  0
APPID
  5
1C4E
330
9
100
AcDbSymbolTableRecord
100
AcDbRegAppTableRecord
  2
GEVID1214872433
 70
     0
  0
APPID
  5
20DC
330
9
100
AcDbSymbolTableRecord
100
AcDbRegAppTableRecord
  2
AcDbDynamicBlockGUID
 70
     0
  0
APPID
  5
20FD
330
9
100
AcDbSymbolTableRecord
100
AcDbRegAppTableRecord
  2
GENIUS_GENOBJ-N-REV_13
 70
     0
  0
APPID
  5
20FE
330
9
100
AcDbSymbolTableRecord
100
AcDbRegAppTableRecord
  2
GENIUS_GENOBJ-N-RSSYM_13
 70
     0
  0
APPID
  5
20FF
330
9
100
AcDbSymbolTableRecord
100
AcDbRegAppTableRecord
  2
GENIUS_GENSYMENT_13
 70
     0
  0
APPID
  5
2100
330
9
100
AcDbSymbolTableRecord
100
AcDbRegAppTableRecord
  2
GENIUS_GENSCSYM_13
 70
     0
  0
APPID
  5
4DB4
330
9
100
AcDbSymbolTableRecord
100
AcDbRegAppTableRecord
  2
GEVID1242178453
 70
     0
  0
APPID
  5
4E14
330
9
100
AcDbSymbolTableRecord
100
AcDbRegAppTableRecord
  2
GEVID1242178454
 70
     0
  0
ENDTAB
  0
TABLE
  2
DIMSTYLE
  5
A
330
0
100
AcDbSymbolTable
 70
    29
100
AcDbDimStyleTable
 71
     1
340
5AB
  0
DIMSTYLE
105
5AB
330
A
100
AcDbSymbolTableRecord
100
AcDbDimStyleTableRecord
  2
SEISA
 70
     0
  4
"
 40
2.5
 41
2.5
 42
0.625
 43
10.0
 44
0.625
 47
0.1
 48
0.1
 73
     0
 74
     0
 77
     3
 78
     8
 79
     2
 90
     1
140
3.5
141
0.0
143
0.0393701
146
0.71
147
1.5
172
     1
176
     3
177
     3
178
     3
271
     2
272
     2
283
     0
286
     8
340
5D5
341
69
342
69
371
    -1
372
    -1
1001
ACAD_DSTYLE_DIMJAG
1070
   388
1040
1.5
1001
ACAD_DSTYLE_DIMTALN
1070
   392
1070
     1
  0
DIMSTYLE
105
5E9
102
{ACAD_REACTORS
330
46F7
330
4874
330
4890
330
48C2
330
49AF
330
4A7D
330
4A95
330
4AAD
330
4C13
330
4C2B
330
4C60
330
4C78
330
5751
330
58B6
330
58E0
102
}
330
A
100
AcDbSymbolTableRecord
100
AcDbDimStyleTableRecord
  2
SEISA$0
 70
     0
  4
"
 40
2.5
 41
2.5
 42
0.625
 43
10.0
 44
0.625
 47
0.1
 48
0.1
 73
     0
 74
     0
 77
     3
 78
     8
 79
     2
 90
     1
140
3.5
141
0.0
143
0.0393701
146
0.71
147
1.5
172
     1
176
     3
177
     3
178
     3
271
     2
272
     2
283
     0
286
     8
340
5D5
341
69
342
69
371
    -1
372
    -1
  0
DIMSTYLE
105
5A8D
330
A
100
AcDbSymbolTableRecord
100
AcDbDimStyleTableRecord
  2
AM_ISO
 70
     0
  4
"
 41
2.5
 42
1.0
 43
10.0
 44
1.0
 47
0.1
 48
0.1
 73
     0
 74
     0
 77
     1
 78
     8
 79
     2
 90
     1
140
3.5
141
0.0
143
0.0393701
146
0.71
147
1.5
172
     1
176
   256
177
   256
178
     2
271
     2
272
     3
274
     4
283
     0
284
     8
340
11
371
    -1
372
    -1
  0
DIMSTYLE
105
5A8E
330
A
100
AcDbSymbolTableRecord
100
AcDbDimStyleTableRecord
  2
AM_ISO$3
 70
     0
  4
"
 41
2.5
 42
1.0
 43
10.0
 44
1.0
 47
0.1
 48
0.1
 73
     0
 77
     1
 78
     8
 79
     2
 90
     1
140
3.5
141
0.0
143
0.0393701
146
0.71
147
1.5
176
   256
177
   256
178
     2
271
     2
272
     3
274
     4
283
     0
284
     8
288
     1
289
     0
340
11
371
    -1
372
    -1
  0
DIMSTYLE
105
5A8F
330
A
100
AcDbSymbolTableRecord
100
AcDbDimStyleTableRecord
  2
AM_ISO$4
 70
     0
  4
"
 41
2.5
 42
1.0
 43
10.0
 44
1.0
 47
0.1
 48
0.1
 73
     0
 77
     1
 78
     8
 79
     2
 90
     1
140
3.5
141
0.0
143
0.0393701
146
0.71
147
1.5
176
   256
177
   256
178
     2
271
     2
272
     3
274
     4
283
     0
284
     8
288
     1
289
     0
340
11
371
    -1
372
    -1
  0
DIMSTYLE
105
5A90
330
A
100
AcDbSymbolTableRecord
100
AcDbDimStyleTableRecord
  2
AM_ISO$6
 70
     0
  4
"
 41
2.5
 42
1.0
 43
10.0
 44
1.0
 47
0.1
 48
0.1
 73
     0
 74
     0
 78
     8
 79
     2
 90
     1
140
3.5
141
0.0
143
0.0393701
146
0.71
147
1.5
172
     1
176
   256
177
   256
178
     2
271
     2
272
     3
274
     4
283
     0
284
     8
340
11
371
    -1
372
    -1
  0
DIMSTYLE
105
5A91
330
A
100
AcDbSymbolTableRecord
100
AcDbDimStyleTableRecord
  2
AM_ISO$7
 70
     0
  4
"
 41
2.5
 42
1.0
 43
10.0
 44
1.0
 47
0.1
 48
0.1
 73
     0
 74
     0
 77
     1
 78
     8
 79
     2
 90
     1
140
5.0
141
0.0
143
0.0393701
146
0.71
147
1.5
172
     1
176
   256
177
   256
178
     2
271
     2
272
     3
274
     4
283
     0
284
     8
340
11
371
    -1
372
    -1
  0
DIMSTYLE
105
5A92
330
A
100
AcDbSymbolTableRecord
100
AcDbDimStyleTableRecord
  2
AM_ISO$SF
 70
     0
  4
"
 41
2.5
 42
1.0
 43
10.0
 44
1.0
 47
0.1
 48
0.1
 73
     0
 74
     0
 75
     1
 76
     1
 77
     1
 78
     8
 79
     2
 90
     1
140
3.5
141
0.0
143
0.0393701
146
0.71
147
1.5
172
     1
176
   256
177
   256
178
     2
271
     2
272
     3
274
     4
283
     0
284
     8
340
11
371
    -1
372
    -1
  0
DIMSTYLE
105
5A93
330
A
100
AcDbSymbolTableRecord
100
AcDbDimStyleTableRecord
  2
AM_ISO$SH
 70
     0
  4
"
 41
2.5
 42
1.0
 43
10.0
 44
1.0
 47
0.1
 48
0.1
 73
     0
 74
     0
 75
     1
 76
     1
 77
     1
 78
     8
 79
     2
 90
     1
140
3.5
141
0.0
143
0.0393701
144
2.0
146
0.71
147
1.5
172
     1
173
     1
176
   256
177
   256
178
     2
271
     2
272
     3
274
     4
283
     0
284
     8
340
11
343
74
371
    -1
372
    -1
  0
ENDTAB
  0
TABLE
  2
BLOCK_RECORD
  5
1
330
0
100
AcDbSymbolTable
 70
    31
  0
BLOCK_RECORD
  5
1F
102
{ACAD_XDICTIONARY
360
82
102
}
330
1
100
AcDbSymbolTableRecord
100
AcDbBlockTableRecord
  2
*Model_Space
340
22
 70
     0
280
     1
281
     0
  0
BLOCK_RECORD
  5
1B
330
1
100
AcDbSymbolTableRecord
100
AcDbBlockTableRecord
  2
*Paper_Space
340
1E
 70
     0
280
     1
281
     0
  0
BLOCK_RECORD
  5
23
330
1
100
AcDbSymbolTableRecord
100
AcDbBlockTableRecord
  2
*Paper_Space0
340
26
 70
     0
280
     1
281
     0
  0
BLOCK_RECORD
  5
69
330
1
100
AcDbSymbolTableRecord
100
AcDbBlockTableRecord
  2
_Open30
340
0
102
{BLKREFS
331
4B3D
331
4B3E
331
4BA8
331
4BA9
331
4BB1
331
4BB2
331
4BBA
331
4BBB
331
4BC3
331
4BC4
331
4C24
331
4C25
331
4C71
331
4C72
331
4C99
331
4C9A
331
5206
331
521C
331
577D
331
577E
331
5786
331
5787
331
58DA
331
58DB
331
590D
331
590E
331
5A02
331
5A03
102
}
 70
     0
280
     1
281
     0
  0
BLOCK_RECORD
  5
74
330
1
100
AcDbSymbolTableRecord
100
AcDbBlockTableRecord
  2
GENAXEH
340
0
 70
     0
280
     1
281
     0
  0
BLOCK_RECORD
  5
340E
102
{ACAD_XDICTIONARY
360
340F
102
}
330
1
100
AcDbSymbolTableRecord
100
AcDbBlockTableRecord
  2
ジュウジマルコネジ
340
0
310
2800000020000000200000000100080000000000000400000000000000000000000000000000000000000000000080000080000000808000800000008000800080800000C0C0C000C0DCC000F0CAA6000020400000206000002080000020A0000020C0000020E00000400000004020000040400000406000004080000040A0
310
000040C0000040E00000600000006020000060400000606000006080000060A0000060C0000060E00000800000008020000080400000806000008080000080A0000080C0000080E00000A0000000A0200000A0400000A0600000A0800000A0A00000A0C00000A0E00000C0000000C0200000C0400000C0600000C0800000C0
310
A00000C0C00000C0E00000E0000000E0200000E0400000E0600000E0800000E0A00000E0C00000E0E00040000000400020004000400040006000400080004000A0004000C0004000E00040200000402020004020400040206000402080004020A0004020C0004020E000404000004040200040404000404060004040800040
310
40A0004040C0004040E00040600000406020004060400040606000406080004060A0004060C0004060E00040800000408020004080400040806000408080004080A0004080C0004080E00040A0000040A0200040A0400040A0600040A0800040A0A00040A0C00040A0E00040C0000040C0200040C0400040C0600040C08000
310
40C0A00040C0C00040C0E00040E0000040E0200040E0400040E0600040E0800040E0A00040E0C00040E0E00080000000800020008000400080006000800080008000A0008000C0008000E00080200000802020008020400080206000802080008020A0008020C0008020E00080400000804020008040400080406000804080
310
008040A0008040C0008040E00080600000806020008060400080606000806080008060A0008060C0008060E00080800000808020008080400080806000808080008080A0008080C0008080E00080A0000080A0200080A0400080A0600080A0800080A0A00080A0C00080A0E00080C0000080C0200080C0400080C0600080C0
310
800080C0A00080C0C00080C0E00080E0000080E0200080E0400080E0600080E0800080E0A00080E0C00080E0E000C0000000C0002000C0004000C0006000C0008000C000A000C000C000C000E000C0200000C0202000C0204000C0206000C0208000C020A000C020C000C020E000C0400000C0402000C0404000C0406000C0
310
408000C040A000C040C000C040E000C0600000C0602000C0604000C0606000C0608000C060A000C060C000C060E000C0800000C0802000C0804000C0806000C0808000C080A000C080C000C080E000C0A00000C0A02000C0A04000C0A06000C0A08000C0A0A000C0A0C000C0A0E000C0C00000C0C02000C0C04000C0C06000
310
C0C08000C0C0A000F0FBFF00A4A0A000808080000000FF0000FF000000FFFF00FF000000FF00FF00FFFF0000FFFFFF0000000000000000000000000000000000000000000000000000000000000000000000000000000000000000000000000000000000000000000000000000000000000000000000000000000000FFFFFF
310
0000000000000000000000000000000000000000000000000000000000FF00000000000000000000000000000000000000000000000000000000000000FF000000000000000000000000000000000000000000000000000000FFFFFFFFFF0000000000000000000000000000000000000000000000000000FFFF000000FF00
310
000000000000000000000000000000000000000000000000FFFF00000000FF000000000000000000000000000000000000000000000000FFFF0000000000FF000000000000000000000000000000000000000000000000FF000000000000FEFEFE000000000000000000000000FF0000000000000000FFFF000000000000FE
310
FEFEFEFEFEFEFEFEFEFEFEFEFEFEFEFE00000000000000FF00000000000000FF0000000000000000000000000000FFFF00000000000000FF00000000000000FF0000000000000000000000000000FFFF000000000000FF0000000000000000FF0000000000000000000000000000FFFF000000000000FF0000000000000000
310
FF0000000000000000000000000000FFFF00000000F9F9FFF9F9F9F9F9F9F9F9FFF9F9F9F9F9F9F9F9F9F9F9F9F9F9FFFFF9F900000000FF0000000000000000FF0000000000000000000000000000FFFF000000000000FF0000000000000000FF0000000000000000000000000000FFFF000000000000FF00000000000000
310
00FF0000000000000000000000000000FFFF00000000000000FF00000000000000FF0000000000000000000000000000FFFF00000000000000FF00000000000000FF0000000000000000000000000000FFFF00000000000000FFFF000000000000FEFEFEFEFEFEFEFEFEFEFEFEFEFEFEFEFE0000000000000000FF00000000
310
0000FEFEFE000000000000000000000000FF000000000000000000FFFF0000000000FF00000000000000000000000000000000000000000000000000FFFF00000000FF0000000000000000000000000000000000000000000000000000FFFF000000FF000000000000000000000000000000000000000000000000000000FF
310
FFFFFFFF00000000000000000000000000000000000000000000000000000000000000FF00000000000000000000000000000000000000000000000000000000000000FF00000000000000000000000000000000000000000000000000000000000000FFFFFF00000000000000000000000000000000000000000000000000
310
0000000000000000000000000000000000000000000000000000000000000000000000000000000000000000000000000000000000000000
102
{BLKREFS
331
44A3
102
}
 70
     4
280
     1
281
     1
  0
BLOCK_RECORD
  5
3539
330
1
100
AcDbSymbolTableRecord
100
AcDbBlockTableRecord
  2
GENDOT
340
0
102
{BLKREFS
331
5205
331
521B
102
}
 70
     0
280
     1
281
     0
  0
BLOCK_RECORD
  5
41E0
102
{ACAD_XDICTIONARY
360
4251
102
}
330
1
100
AcDbSymbolTableRecord
100
AcDbBlockTableRecord
  2
センタＡ SMVH250
340
0
310
2800000020000000200000000100080000000000000400000000000000000000000000000000000000000000000080000080000000808000800000008000800080800000C0C0C000C0DCC000F0CAA6000020400000206000002080000020A0000020C0000020E00000400000004020000040400000406000004080000040A0
310
000040C0000040E00000600000006020000060400000606000006080000060A0000060C0000060E00000800000008020000080400000806000008080000080A0000080C0000080E00000A0000000A0200000A0400000A0600000A0800000A0A00000A0C00000A0E00000C0000000C0200000C0400000C0600000C0800000C0
310
A00000C0C00000C0E00000E0000000E0200000E0400000E0600000E0800000E0A00000E0C00000E0E00040000000400020004000400040006000400080004000A0004000C0004000E00040200000402020004020400040206000402080004020A0004020C0004020E000404000004040200040404000404060004040800040
310
40A0004040C0004040E00040600000406020004060400040606000406080004060A0004060C0004060E00040800000408020004080400040806000408080004080A0004080C0004080E00040A0000040A0200040A0400040A0600040A0800040A0A00040A0C00040A0E00040C0000040C0200040C0400040C0600040C08000
310
40C0A00040C0C00040C0E00040E0000040E0200040E0400040E0600040E0800040E0A00040E0C00040E0E00080000000800020008000400080006000800080008000A0008000C0008000E00080200000802020008020400080206000802080008020A0008020C0008020E00080400000804020008040400080406000804080
310
008040A0008040C0008040E00080600000806020008060400080606000806080008060A0008060C0008060E00080800000808020008080400080806000808080008080A0008080C0008080E00080A0000080A0200080A0400080A0600080A0800080A0A00080A0C00080A0E00080C0000080C0200080C0400080C0600080C0
310
800080C0A00080C0C00080C0E00080E0000080E0200080E0400080E0600080E0800080E0A00080E0C00080E0E000C0000000C0002000C0004000C0006000C0008000C000A000C000C000C000E000C0200000C0202000C0204000C0206000C0208000C020A000C020C000C020E000C0400000C0402000C0404000C0406000C0
310
408000C040A000C040C000C040E000C0600000C0602000C0604000C0606000C0608000C060A000C060C000C060E000C0800000C0802000C0804000C0806000C0808000C080A000C080C000C080E000C0A00000C0A02000C0A04000C0A06000C0A08000C0A0A000C0A0C000C0A0E000C0C00000C0C02000C0C04000C0C06000
310
C0C08000C0C0A000F0FBFF00A4A0A000808080000000FF0000FF000000FFFF00FF000000FF00FF00FFFF0000FFFFFF0000000000000000000000000000000000000000000000000000000000000000000000000000000000000000000000000000000000000000000000000000000000000000000000000000000000000000
310
000000000000000000000000000000000000000000000000000000000000000000000000000000000000000000000000000000000000000000000000000000000000000000000000000000000000000000000000000000000000000000000000000000000000000000000000000000000000000000FFFFFFFFFFFFFFFFFFFF
310
FFFFFFFFFFFFFFFFFFFFFFFFFFFFFFFF000000000000FF000000000000FFFF00000000000000000000000000000000FF000000000000FF000000000000FFFF00000000000000000000000000000000FF000000000000FF000000000000FFFF00000000000000000000000000000000FF000000000000FF000000000000FFFF
310
00000000000000000000000000000000FF000000000000FF000000000000FFFF00000000000000000000000000000000FF000000000000FF000000000000FFFF00000000000000000000000000000000FF000000000000FF000000000000FFFF00000000FFFFFFFFFFFFFFFFFFFFFFFFFFFF0000000000FF000000000000FF
310
FF0000000000000000000000000000000000FF0000000000FF000000000000FFFF0000000000000000000000000000000000FF0000000000FF000000000000FFFF0000000000000000000000000000000000000000000000FF000000000000FFFF000000000000000000000000000000000000000000FFFFFF000000000000
310
FFFF000000000000000000000000000000000000000000FFFF00000000000000FFFF0000000000000000000000000000000000000000F9F9F900000000000000FFFF00000000A400000000000000000000000000000000FFFF00000000000000FFFF000000A4A400000000000000000000000000000000FFFFFF0000000000
310
00FFFF000000A4A4000000000000000000000000000000000000FF000000000000FFFF000000A400000000000000000000000000000000000000FF000000000000FFFF000000A400000000000000000000000000000000000000FFFFFFFFFFFFFFFFFFFFFFFFA4FF0000000000000000000000000000000000000000000000
310
00000000000000000000000000000000000000000000000000000000000000000000000000000000000000000000000000000000000000000000000000000000000000000000000000000000000000000000000000000000000000000000000000000000000000000000000000000000000000000000000000000000000000
310
0000000000000000000000000000000000000000000000000000000000000000000000000000000000000000000000000000000000000000
102
{BLKREFS
331
4206
102
}
 70
     4
280
     1
281
     1
  0
BLOCK_RECORD
  5
42D0
102
{ACAD_XDICTIONARY
360
4385
102
}
330
1
100
AcDbSymbolTableRecord
100
AcDbBlockTableRecord
  2
ケースＡ SMVH250
340
0
310
2800000020000000200000000100080000000000000400000000000000000000000000000000000000000000000080000080000000808000800000008000800080800000C0C0C000C0DCC000F0CAA6000020400000206000002080000020A0000020C0000020E00000400000004020000040400000406000004080000040A0
310
000040C0000040E00000600000006020000060400000606000006080000060A0000060C0000060E00000800000008020000080400000806000008080000080A0000080C0000080E00000A0000000A0200000A0400000A0600000A0800000A0A00000A0C00000A0E00000C0000000C0200000C0400000C0600000C0800000C0
310
A00000C0C00000C0E00000E0000000E0200000E0400000E0600000E0800000E0A00000E0C00000E0E00040000000400020004000400040006000400080004000A0004000C0004000E00040200000402020004020400040206000402080004020A0004020C0004020E000404000004040200040404000404060004040800040
310
40A0004040C0004040E00040600000406020004060400040606000406080004060A0004060C0004060E00040800000408020004080400040806000408080004080A0004080C0004080E00040A0000040A0200040A0400040A0600040A0800040A0A00040A0C00040A0E00040C0000040C0200040C0400040C0600040C08000
310
40C0A00040C0C00040C0E00040E0000040E0200040E0400040E0600040E0800040E0A00040E0C00040E0E00080000000800020008000400080006000800080008000A0008000C0008000E00080200000802020008020400080206000802080008020A0008020C0008020E00080400000804020008040400080406000804080
310
008040A0008040C0008040E00080600000806020008060400080606000806080008060A0008060C0008060E00080800000808020008080400080806000808080008080A0008080C0008080E00080A0000080A0200080A0400080A0600080A0800080A0A00080A0C00080A0E00080C0000080C0200080C0400080C0600080C0
310
800080C0A00080C0C00080C0E00080E0000080E0200080E0400080E0600080E0800080E0A00080E0C00080E0E000C0000000C0002000C0004000C0006000C0008000C000A000C000C000C000E000C0200000C0202000C0204000C0206000C0208000C020A000C020C000C020E000C0400000C0402000C0404000C0406000C0
310
408000C040A000C040C000C040E000C0600000C0602000C0604000C0606000C0608000C060A000C060C000C060E000C0800000C0802000C0804000C0806000C0808000C080A000C080C000C080E000C0A00000C0A02000C0A04000C0A06000C0A08000C0A0A000C0A0C000C0A0E000C0C00000C0C02000C0C04000C0C06000
310
C0C08000C0C0A000F0FBFF00A4A0A000808080000000FF0000FF000000FFFF00FF000000FF00FF00FFFF0000FFFFFF0000000000000000000000000000000000000000000000000000000000000000000000000000000000000000000000000000000000000000000000000000000000000000000000000000000000000000
310
00000000000000000000000000000000000000000000000000000000000000000000000000000000000000000000000000000000000000000000000000000000000000000000000000000000000000000000000000000000000000000000000000000000000000000000000000000000000000000000000000000000000000
310
00000000000000000000000000000000000000000000000000000000000000000000000000000000000000000000000000000000000000000000000000000000000000000000000000000000000000000000000000000000000000000000000000000000000000000000000000000000000000000000FFFFFF000000000000
310
000000FFFFFFFFFFFFFFFFFFFFFFFF0000000000000000FFFFFF0000000000000000000000000000000000000000FF0000000000000000FFFFA40000000000000000000000000000000000000000FF0000000000000000FFFFA40000000000000000000000000000000000000000FF0000000000000000FFFFA40000000000
310
000000000000000000000000000000FF0000000000000000FFFFFF0000000000000000000000000000000000000000FFF90000000000FFFFFFFF00000000000000000000FFFFFFFFFFFFFFFFFFFFFFFFFFFFFF0000F9FFF9F9FF00000000000000000000000000000000000000000000F900FF000000FF00FFFF0000000000
310
0000000000000000000000000000000000F9FFFF0000000000000000000000000000000000000000000000000000000000F900000000000000000000000000000000000000000000000000000000000000F900000000000000000000000000000000000000000000000000000000000000F900000000000000000000000000
310
00000000000000000000000000000000000000000000000000000000000000000000000000000000000000000000000000000000000000000000000000000000000000000000000000000000000000000000000000000000000000000000000000000000000000000000000000000000000000000000000000000000000000
310
00000000000000000000000000000000000000000000000000000000000000000000000000000000000000000000000000000000000000000000000000000000000000000000000000000000000000000000000000000000000000000000000000000000000000000000000000000000000000000000000000000000000000
310
0000000000000000000000000000000000000000000000000000000000000000000000000000000000000000000000000000000000000000
102
{BLKREFS
331
4309
102
}
 70
     4
280
     1
281
     1
  0
BLOCK_RECORD
  5
446A
102
{ACAD_XDICTIONARY
360
451D
102
}
330
1
100
AcDbSymbolTableRecord
100
AcDbBlockTableRecord
  2
ケースＢ SMVH250
340
0
310
2800000020000000200000000100080000000000000400000000000000000000000000000000000000000000000080000080000000808000800000008000800080800000C0C0C000C0DCC000F0CAA6000020400000206000002080000020A0000020C0000020E00000400000004020000040400000406000004080000040A0
310
000040C0000040E00000600000006020000060400000606000006080000060A0000060C0000060E00000800000008020000080400000806000008080000080A0000080C0000080E00000A0000000A0200000A0400000A0600000A0800000A0A00000A0C00000A0E00000C0000000C0200000C0400000C0600000C0800000C0
310
A00000C0C00000C0E00000E0000000E0200000E0400000E0600000E0800000E0A00000E0C00000E0E00040000000400020004000400040006000400080004000A0004000C0004000E00040200000402020004020400040206000402080004020A0004020C0004020E000404000004040200040404000404060004040800040
310
40A0004040C0004040E00040600000406020004060400040606000406080004060A0004060C0004060E00040800000408020004080400040806000408080004080A0004080C0004080E00040A0000040A0200040A0400040A0600040A0800040A0A00040A0C00040A0E00040C0000040C0200040C0400040C0600040C08000
310
40C0A00040C0C00040C0E00040E0000040E0200040E0400040E0600040E0800040E0A00040E0C00040E0E00080000000800020008000400080006000800080008000A0008000C0008000E00080200000802020008020400080206000802080008020A0008020C0008020E00080400000804020008040400080406000804080
310
008040A0008040C0008040E00080600000806020008060400080606000806080008060A0008060C0008060E00080800000808020008080400080806000808080008080A0008080C0008080E00080A0000080A0200080A0400080A0600080A0800080A0A00080A0C00080A0E00080C0000080C0200080C0400080C0600080C0
310
800080C0A00080C0C00080C0E00080E0000080E0200080E0400080E0600080E0800080E0A00080E0C00080E0E000C0000000C0002000C0004000C0006000C0008000C000A000C000C000C000E000C0200000C0202000C0204000C0206000C0208000C020A000C020C000C020E000C0400000C0402000C0404000C0406000C0
310
408000C040A000C040C000C040E000C0600000C0602000C0604000C0606000C0608000C060A000C060C000C060E000C0800000C0802000C0804000C0806000C0808000C080A000C080C000C080E000C0A00000C0A02000C0A04000C0A06000C0A08000C0A0A000C0A0C000C0A0E000C0C00000C0C02000C0C04000C0C06000
310
C0C08000C0C0A000F0FBFF00A4A0A000808080000000FF0000FF000000FFFF00FF000000FF00FF00FFFF0000FFFFFF0000000000000000000000000000000000000000000000000000000000000000000000000000000000000000000000000000000000000000000000000000000000000000000000000000000000000000
310
00000000000000000000000000000000000000000000000000000000000000000000000000000000000000000000000000000000000000000000000000000000000000000000000000000000000000000000000000000000000000000000000000000000000000000000000000000000000000000000000000000000000000
310
00000000000000000000000000000000000000000000000000000000000000000000000000000000000000000000000000000000000000000000000000000000000000000000000000000000000000000000000000000000000000000000000000000000000000000000000000000000000000000000000000000000000000
310
000000000000000000000000000000000000000000FFFFFFFF0000000000000000000000000000000000000000000000FFFF0000F9FEF9F9FF000000000000000000000000000000000000000000000000FF000000FFFFFFFF00000000000000000000FFFFFFFFFFFFFFFFFFFFFFFFFFFFFF0000000000FFFFFF0000000000
310
000000000000000000000000000000FF0000000000000000FFFFA40000000000000000000000000000000000000000FF0000000000000000FFFFA40000000000000000000000000000000000000000FF0000000000000000FFFFA40000000000000000000000000000000000000000FF0000000000000000FFFFFF00000000
310
00000000000000000000000000000000FF0000000000000000FF00FF0000000000000000000000000000000000000000FF000000000000000000FFFF000000000000000000FFFFFFFFFFFFFFFFFFFFFF0000000000000000000000000000000000000000000000000000000000000000000000000000000000000000000000
310
00000000000000000000000000000000000000000000000000000000000000000000000000000000000000000000000000000000000000000000000000000000000000000000000000000000000000000000000000000000000000000000000000000000000000000000000000000000000000000000000000000000000000
310
00000000000000000000000000000000000000000000000000000000000000000000000000000000000000000000000000000000000000000000000000000000000000000000000000000000000000000000000000000000000000000000000000000000000000000000000000000000000000000000000000000000000000
310
0000000000000000000000000000000000000000000000000000000000000000000000000000000000000000000000000000000000000000
102
{BLKREFS
331
44A4
102
}
 70
     4
280
     1
281
     1
  0
BLOCK_RECORD
  5
4550
102
{ACAD_XDICTIONARY
360
45C4
102
}
330
1
100
AcDbSymbolTableRecord
100
AcDbBlockTableRecord
  2
センタB SMVH250
340
0
310
2800000020000000200000000100080000000000000400000000000000000000000000000000000000000000000080000080000000808000800000008000800080800000C0C0C000C0DCC000F0CAA6000020400000206000002080000020A0000020C0000020E00000400000004020000040400000406000004080000040A0
310
000040C0000040E00000600000006020000060400000606000006080000060A0000060C0000060E00000800000008020000080400000806000008080000080A0000080C0000080E00000A0000000A0200000A0400000A0600000A0800000A0A00000A0C00000A0E00000C0000000C0200000C0400000C0600000C0800000C0
310
A00000C0C00000C0E00000E0000000E0200000E0400000E0600000E0800000E0A00000E0C00000E0E00040000000400020004000400040006000400080004000A0004000C0004000E00040200000402020004020400040206000402080004020A0004020C0004020E000404000004040200040404000404060004040800040
310
40A0004040C0004040E00040600000406020004060400040606000406080004060A0004060C0004060E00040800000408020004080400040806000408080004080A0004080C0004080E00040A0000040A0200040A0400040A0600040A0800040A0A00040A0C00040A0E00040C0000040C0200040C0400040C0600040C08000
310
40C0A00040C0C00040C0E00040E0000040E0200040E0400040E0600040E0800040E0A00040E0C00040E0E00080000000800020008000400080006000800080008000A0008000C0008000E00080200000802020008020400080206000802080008020A0008020C0008020E00080400000804020008040400080406000804080
310
008040A0008040C0008040E00080600000806020008060400080606000806080008060A0008060C0008060E00080800000808020008080400080806000808080008080A0008080C0008080E00080A0000080A0200080A0400080A0600080A0800080A0A00080A0C00080A0E00080C0000080C0200080C0400080C0600080C0
310
800080C0A00080C0C00080C0E00080E0000080E0200080E0400080E0600080E0800080E0A00080E0C00080E0E000C0000000C0002000C0004000C0006000C0008000C000A000C000C000C000E000C0200000C0202000C0204000C0206000C0208000C020A000C020C000C020E000C0400000C0402000C0404000C0406000C0
310
408000C040A000C040C000C040E000C0600000C0602000C0604000C0606000C0608000C060A000C060C000C060E000C0800000C0802000C0804000C0806000C0808000C080A000C080C000C080E000C0A00000C0A02000C0A04000C0A06000C0A08000C0A0A000C0A0C000C0A0E000C0C00000C0C02000C0C04000C0C06000
310
C0C08000C0C0A000F0FBFF00A4A0A000808080000000FF0000FF000000FFFF00FF000000FF00FF00FFFF0000FFFFFF0000000000000000000000000000000000000000000000000000000000000000000000000000000000000000000000000000000000000000000000000000000000000000000000000000000000000000
310
000000000000000000000000000000000000000000000000000000000000000000000000000000000000000000000000000000000000000000000000000000000000000000000000000000000000000000000000000000000000000000000000000000000000000000000000000000000000000000FFFFFFFFFFFFFFFFFFFF
310
FFFFA4FF000000000000000000000000000000000000FF0000000000FFFF00000000A400000000000000000000000000000000000000FF0000000000FFFF00000000A40000000000000000000000000000000000FFFFFF0000000000FFFF00000000A4A400000000000000000000000000000000FFFF000000000000FFFF00
310
000000A4A4000000000000000000000000000000F9F9F9000000000000FFFF0000000000A400000000000000000000000000000000FFFF000000000000FFFF00000000000000000000000000000000000000000000FFFFFF0000000000FFFF000000000000000000000000000000000000000000000000FF0000000000FFFF
310
000000000000000000000000000000000000000000000000FF0000000000FFFF000000000000000000000000000000000000000000000000FF0000000000FFFF000000000000000000000000000000000000FF0000000000FF0000000000FFFF000000000000000000000000000000000000FF0000000000FF0000000000FF
310
FF0000000000FFFFFFFFFFFFFFFFFFFFFFFFFFFF0000000000FF0000000000FFFF0000000000000000000000000000000000FF000000000000FF0000000000FFFF0000000000000000000000000000000000FF000000000000FF0000000000FFFF0000000000000000000000000000000000FF000000000000FF0000000000
310
FFFF0000000000000000000000000000000000FF000000000000FF0000000000FFFF0000000000000000000000000000000000FF000000000000FF0000000000FFFF0000000000000000000000000000000000FF000000000000FFFFFFFFFFFFFFFFFFFFFFFFFFFFFFFFFFFFFFFFFFFFFFFFFFFF0000000000000000000000
310
00000000000000000000000000000000000000000000000000000000000000000000000000000000000000000000000000000000000000000000000000000000000000000000000000000000000000000000000000000000000000000000000000000000000000000000000000000000000000000000000000000000000000
310
0000000000000000000000000000000000000000000000000000000000000000000000000000000000000000000000000000000000000000
102
{BLKREFS
331
4577
102
}
 70
     4
280
     1
281
     1
  0
BLOCK_RECORD
  5
4619
102
{ACAD_XDICTIONARY
360
4688
102
}
330
1
100
AcDbSymbolTableRecord
100
AcDbBlockTableRecord
  2
リーマボルト SMVH250 M10
340
0
310
2800000020000000200000000100080000000000000400000000000000000000000000000000000000000000000080000080000000808000800000008000800080800000C0C0C000C0DCC000F0CAA6000020400000206000002080000020A0000020C0000020E00000400000004020000040400000406000004080000040A0
310
000040C0000040E00000600000006020000060400000606000006080000060A0000060C0000060E00000800000008020000080400000806000008080000080A0000080C0000080E00000A0000000A0200000A0400000A0600000A0800000A0A00000A0C00000A0E00000C0000000C0200000C0400000C0600000C0800000C0
310
A00000C0C00000C0E00000E0000000E0200000E0400000E0600000E0800000E0A00000E0C00000E0E00040000000400020004000400040006000400080004000A0004000C0004000E00040200000402020004020400040206000402080004020A0004020C0004020E000404000004040200040404000404060004040800040
310
40A0004040C0004040E00040600000406020004060400040606000406080004060A0004060C0004060E00040800000408020004080400040806000408080004080A0004080C0004080E00040A0000040A0200040A0400040A0600040A0800040A0A00040A0C00040A0E00040C0000040C0200040C0400040C0600040C08000
310
40C0A00040C0C00040C0E00040E0000040E0200040E0400040E0600040E0800040E0A00040E0C00040E0E00080000000800020008000400080006000800080008000A0008000C0008000E00080200000802020008020400080206000802080008020A0008020C0008020E00080400000804020008040400080406000804080
310
008040A0008040C0008040E00080600000806020008060400080606000806080008060A0008060C0008060E00080800000808020008080400080806000808080008080A0008080C0008080E00080A0000080A0200080A0400080A0600080A0800080A0A00080A0C00080A0E00080C0000080C0200080C0400080C0600080C0
310
800080C0A00080C0C00080C0E00080E0000080E0200080E0400080E0600080E0800080E0A00080E0C00080E0E000C0000000C0002000C0004000C0006000C0008000C000A000C000C000C000E000C0200000C0202000C0204000C0206000C0208000C020A000C020C000C020E000C0400000C0402000C0404000C0406000C0
310
408000C040A000C040C000C040E000C0600000C0602000C0604000C0606000C0608000C060A000C060C000C060E000C0800000C0802000C0804000C0806000C0808000C080A000C080C000C080E000C0A00000C0A02000C0A04000C0A06000C0A08000C0A0A000C0A0C000C0A0E000C0C00000C0C02000C0C04000C0C06000
310
C0C08000C0C0A000F0FBFF00A4A0A000808080000000FF0000FF000000FFFF00FF000000FF00FF00FFFF0000FFFFFF0000000000000000000000000000000000000000000000000000000000000000000000000000000000000000FFFFFFFFFFFFFFFFFFFF000000000000000000000000000000000000000000FFFFFFFFFF
310
FFFFFFFFFFFFFF0000000000000000000000000000000000000000FF0000FF00000000FF0000FF0000000000000000000000000000000000000000FF0000FF00000000FF0000FF0000000000000000000000000000000000000000FF0000FF00000000FF0000FF000000000000000000000000000000000000000000000000
310
00000000000000000000000000000000000000000000000000000000000000000000000000000000000000000000000000000000000000000000000000000000000000000000000000000000000000000000000000000000000000000000000000000000000000000000000000000000000000000000000000000000000000
310
00000000000000000000000000000000000000000000000000000000000000000000000000000000000000000000000000000000000000000000000000000000000000000000000000000000000000000000000000000000000000000000000000000000000000000000000000000000000000000000000000000000000000
310
00000000000000000000000000000000000000000000000000000000000000000000000000000000000000000000000000000000000000000000000000000000000000000000000000000000000000000000000000000000000000000000000000000000000000000000000000000000000000000000000000000000000000
310
000000000000000000000000000000000000000000000000000000000000000000000000000000000000000000000000000000000000000000000000000000000000000000000000000000000000000000000000000000000000000000000000FF00000000FF000000FF000000000000000000000000000000000000000000
310
00FF00000000FF000000FF000000000000000000000000000000000000000000FFFFFFFFFFFFFFFFFFFFFFFF0000000000000000000000000000000000000000FF0000FF00000000FF0000FF0000000000000000000000000000000000000000FF0000FF00000000FF0000FF00000000000000000000000000000000000000
310
00FF0000FF00000000FF0000FF0000000000000000000000000000000000000000FFFFFFFFFFFFFFFFFFFFFFFF0000000000000000000000000000000000000000000000FF00000000FF0000000000000000000000000000000000000000000000000000FFFFFFFFFFFF000000000000000000000000000000000000000000
310
0000000000FFFFFFFFFFFF000000000000000000000000000000000000000000000000000000000000000000000000000000000000000000
102
{BLKREFS
331
463D
102
}
 70
     4
280
     1
281
     1
  0
BLOCK_RECORD
  5
46A5
102
{ACAD_XDICTIONARY
360
46CC
102
}
330
1
100
AcDbSymbolTableRecord
100
AcDbBlockTableRecord
  2
スラストプレ－ト SMVH250
340
0
310
2800000020000000200000000100080000000000000400000000000000000000000000000000000000000000000080000080000000808000800000008000800080800000C0C0C000C0DCC000F0CAA6000020400000206000002080000020A0000020C0000020E00000400000004020000040400000406000004080000040A0
310
000040C0000040E00000600000006020000060400000606000006080000060A0000060C0000060E00000800000008020000080400000806000008080000080A0000080C0000080E00000A0000000A0200000A0400000A0600000A0800000A0A00000A0C00000A0E00000C0000000C0200000C0400000C0600000C0800000C0
310
A00000C0C00000C0E00000E0000000E0200000E0400000E0600000E0800000E0A00000E0C00000E0E00040000000400020004000400040006000400080004000A0004000C0004000E00040200000402020004020400040206000402080004020A0004020C0004020E000404000004040200040404000404060004040800040
310
40A0004040C0004040E00040600000406020004060400040606000406080004060A0004060C0004060E00040800000408020004080400040806000408080004080A0004080C0004080E00040A0000040A0200040A0400040A0600040A0800040A0A00040A0C00040A0E00040C0000040C0200040C0400040C0600040C08000
310
40C0A00040C0C00040C0E00040E0000040E0200040E0400040E0600040E0800040E0A00040E0C00040E0E00080000000800020008000400080006000800080008000A0008000C0008000E00080200000802020008020400080206000802080008020A0008020C0008020E00080400000804020008040400080406000804080
310
008040A0008040C0008040E00080600000806020008060400080606000806080008060A0008060C0008060E00080800000808020008080400080806000808080008080A0008080C0008080E00080A0000080A0200080A0400080A0600080A0800080A0A00080A0C00080A0E00080C0000080C0200080C0400080C0600080C0
310
800080C0A00080C0C00080C0E00080E0000080E0200080E0400080E0600080E0800080E0A00080E0C00080E0E000C0000000C0002000C0004000C0006000C0008000C000A000C000C000C000E000C0200000C0202000C0204000C0206000C0208000C020A000C020C000C020E000C0400000C0402000C0404000C0406000C0
310
408000C040A000C040C000C040E000C0600000C0602000C0604000C0606000C0608000C060A000C060C000C060E000C0800000C0802000C0804000C0806000C0808000C080A000C080C000C080E000C0A00000C0A02000C0A04000C0A06000C0A08000C0A0A000C0A0C000C0A0E000C0C00000C0C02000C0C04000C0C06000
310
C0C08000C0C0A000F0FBFF00A4A0A000808080000000FF0000FF000000FFFF00FF000000FF00FF00FFFF0000FFFFFF0000000000000000000000000000000000000000000000000000000000000000000000000000000000000000000000000000000000000000000000000000000000000000000000000000000000000000
310
00000000000000000000000000000000000000000000000000000000000000000000000000000000000000000000000000000000000000000000000000000000000000000000000000000000000000000000000000000000000000000000000000000000000000000000000000000000000000000000000000000000000000
310
00000000000000000000000000000000000000000000000000000000000000000000000000000000000000000000000000000000000000000000000000000000000000000000000000000000000000000000000000000000000000000000000000000000000000000000000000000000000000000000000000000000000000
310
00000000000000000000000000000000000000000000000000000000000000000000000000000000000000000000000000000000000000000000000000000000000000000000000000000000000000000000000000000000000000000000000000000000000000000000000000000000000000000000FFFFFFFFFFFF00FFFF
310
FFFFFFFFFFFFFFFFFFFFFFFFFFFFFFFFFFFFFF00000000FF0000000000000000000000000000000000000000000000000000000000FFFFFF00FFFFFFFFFFFFFFFFFFFFFFFFFFFFFFFFFFFFFFFFFFFFFFFFFFFF0000FFFFFFFFFFFFFFFFFFFFFFFFFFFFFFFFFFFFFFFFFFFFFFFFFFFFFFFFFFFF000000000000000000000000
310
00000000000000000000000000000000000000000000000000000000000000000000000000000000000000000000000000000000000000000000000000000000000000000000000000000000000000000000000000000000000000000000000000000000000000000000000000000000000000000000000000000000000000
310
00000000000000000000000000000000000000000000000000000000000000000000000000000000000000000000000000000000000000000000000000000000000000000000000000000000000000000000000000000000000000000000000000000000000000000000000000000000000000000000000000000000000000
310
00000000000000000000000000000000000000000000000000000000000000000000000000000000000000000000000000000000000000000000000000000000000000000000000000000000000000000000000000000000000000000000000000000000000000000000000000000000000000000000000000000000000000
310
0000000000000000000000000000000000000000000000000000000000000000000000000000000000000000000000000000000000000000
102
{BLKREFS
331
46B1
102
}
 70
     4
280
     1
281
     1
  0
BLOCK_RECORD
  5
46F8
330
1
100
AcDbSymbolTableRecord
100
AcDbBlockTableRecord
  2
*D14
340
0
 70
     0
280
     1
281
     0
  0
BLOCK_RECORD
  5
4875
330
1
100
AcDbSymbolTableRecord
100
AcDbBlockTableRecord
  2
*D15
340
0
 70
     0
280
     1
281
     0
  0
BLOCK_RECORD
  5
4891
330
1
100
AcDbSymbolTableRecord
100
AcDbBlockTableRecord
  2
*D16
340
0
 70
     0
280
     1
281
     0
  0
BLOCK_RECORD
  5
48C3
330
1
100
AcDbSymbolTableRecord
100
AcDbBlockTableRecord
  2
*D17
340
0
 70
     0
280
     1
281
     0
  0
BLOCK_RECORD
  5
49B0
330
1
100
AcDbSymbolTableRecord
100
AcDbBlockTableRecord
  2
*D18
340
0
 70
     0
280
     1
281
     0
  0
BLOCK_RECORD
  5
4A7E
330
1
100
AcDbSymbolTableRecord
100
AcDbBlockTableRecord
  2
*D19
340
0
 70
     0
280
     1
281
     0
  0
BLOCK_RECORD
  5
4A96
330
1
100
AcDbSymbolTableRecord
100
AcDbBlockTableRecord
  2
*D20
340
0
 70
     0
280
     1
281
     0
  0
BLOCK_RECORD
  5
4AAE
330
1
100
AcDbSymbolTableRecord
100
AcDbBlockTableRecord
  2
*D21
340
0
 70
     0
280
     1
281
     0
  0
BLOCK_RECORD
  5
4C14
330
1
100
AcDbSymbolTableRecord
100
AcDbBlockTableRecord
  2
*D22
340
0
 70
     0
280
     1
281
     0
  0
BLOCK_RECORD
  5
4C2C
330
1
100
AcDbSymbolTableRecord
100
AcDbBlockTableRecord
  2
*D23
340
0
 70
     0
280
     1
281
     0
  0
BLOCK_RECORD
  5
4C61
330
1
100
AcDbSymbolTableRecord
100
AcDbBlockTableRecord
  2
*D24
340
0
 70
     0
280
     1
281
     0
  0
BLOCK_RECORD
  5
4C79
330
1
100
AcDbSymbolTableRecord
100
AcDbBlockTableRecord
  2
*D25
340
0
 70
     0
280
     1
281
     0
  0
BLOCK_RECORD
  5
5752
330
1
100
AcDbSymbolTableRecord
100
AcDbBlockTableRecord
  2
*D26
340
0
 70
     0
280
     1
281
     0
  0
BLOCK_RECORD
  5
58B7
330
1
100
AcDbSymbolTableRecord
100
AcDbBlockTableRecord
  2
*D27
340
0
 70
     0
280
     1
281
     0
  0
BLOCK_RECORD
  5
58E1
330
1
100
AcDbSymbolTableRecord
100
AcDbBlockTableRecord
  2
*D28
340
0
 70
     0
280
     1
281
     0
  0
BLOCK_RECORD
  5
5982
330
1
100
AcDbSymbolTableRecord
100
AcDbBlockTableRecord
  2
ケース
340
0
310
2800000020000000200000000100080000000000000400000000000000000000000000000000000000000000000080000080000000808000800000008000800080800000C0C0C000C0DCC000F0CAA6000020400000206000002080000020A0000020C0000020E00000400000004020000040400000406000004080000040A0
310
000040C0000040E00000600000006020000060400000606000006080000060A0000060C0000060E00000800000008020000080400000806000008080000080A0000080C0000080E00000A0000000A0200000A0400000A0600000A0800000A0A00000A0C00000A0E00000C0000000C0200000C0400000C0600000C0800000C0
310
A00000C0C00000C0E00000E0000000E0200000E0400000E0600000E0800000E0A00000E0C00000E0E00040000000400020004000400040006000400080004000A0004000C0004000E00040200000402020004020400040206000402080004020A0004020C0004020E000404000004040200040404000404060004040800040
310
40A0004040C0004040E00040600000406020004060400040606000406080004060A0004060C0004060E00040800000408020004080400040806000408080004080A0004080C0004080E00040A0000040A0200040A0400040A0600040A0800040A0A00040A0C00040A0E00040C0000040C0200040C0400040C0600040C08000
310
40C0A00040C0C00040C0E00040E0000040E0200040E0400040E0600040E0800040E0A00040E0C00040E0E00080000000800020008000400080006000800080008000A0008000C0008000E00080200000802020008020400080206000802080008020A0008020C0008020E00080400000804020008040400080406000804080
310
008040A0008040C0008040E00080600000806020008060400080606000806080008060A0008060C0008060E00080800000808020008080400080806000808080008080A0008080C0008080E00080A0000080A0200080A0400080A0600080A0800080A0A00080A0C00080A0E00080C0000080C0200080C0400080C0600080C0
310
800080C0A00080C0C00080C0E00080E0000080E0200080E0400080E0600080E0800080E0A00080E0C00080E0E000C0000000C0002000C0004000C0006000C0008000C000A000C000C000C000E000C0200000C0202000C0204000C0206000C0208000C020A000C020C000C020E000C0400000C0402000C0404000C0406000C0
310
408000C040A000C040C000C040E000C0600000C0602000C0604000C0606000C0608000C060A000C060C000C060E000C0800000C0802000C0804000C0806000C0808000C080A000C080C000C080E000C0A00000C0A02000C0A04000C0A06000C0A08000C0A0A000C0A0C000C0A0E000C0C00000C0C02000C0C04000C0C06000
310
C0C08000C0C0A000F0FBFF00A4A0A000808080000000FF0000FF000000FFFF00FF000000FF00FF00FFFF0000FFFFFF000000000000000000000000000000000000000000000000000000000000000000000000000000000000000000FCFCFCFCFCFCFCFCFCFCFC0000000000000000000000000000000000000000FC000000
310
000000000000FC0000000000000000000000000000000000000000FC000000000000FCFCFCFCFCFC000000000000000000000000000000000000FC00000000000000FC0000000000000000000000000000000000000000000000FC00000000000000FC0000000000000000000000000000000000000000000000FC00000000
310
000000FC0000000000000000000000000000000000000000000000FC00000000000000FC0000000000000000000000000000000000000000000000FC00000000000000FC0000000000000000000000000000000000000000000000FC00000000000000FC0000000000000000000000000000000000000000000000FC000000
310
00000000FC0000000000000000000000000000000000000000000000FC00000000000000FC0000000000000000000000000000000000000000000000FC00000000000000FCFCFCFCFCFC000000000000000000000000000000000000FC0000000000FCFCFCFCFCFCFCFC000000000000000000000000000000000000FC0000
310
0000FC0000000000000000000000000000000000000000000000000000FC00000000FC0000000000000000000000000000000000000000000000000000FC00000000FC0000000000000000000000000000000000000000000000000000FC00000000FC00FC000000000000000000000000000000000000000000000000FC00
310
000000FCFCFCFCFC00000000000000000000000000000000000000000000FC00000000FC00FC00FC00000000000000000000000000000000000000000000FC00000000FC00FC00FC00000000000000000000000000000000000000000000FC00000000FC00FC00FC00000000000000000000000000000000000000000000FC
310
00000000FC00FC00FC00000000000000000000000000000000000000000000FC00000000FC00FC00FC00000000000000000000000000000000000000000000FC00000000FC00FC00FC00000000000000000000000000000000000000000000FC00000000FC00FC00FC00000000000000000000000000000000000000000000
310
FC00000000FC00FC00FC00000000000000000000000000000000000000000000FC00000000FC00FC00FC00000000000000000000000000000000000000000000FC00000000FC00FC00FC00000000000000000000000000000000000000000000FC00000000FC00FC00FC000000000000000000000000000000000000000000
310
00FC00000000FC00FC00FC000000000000000000000000000000000000000000000000000000000000000000000000000000000000000000
102
{BLKREFS
331
5999
102
}
 70
     4
280
     1
281
     1
  0
ENDTAB
  0
ENDSEC
  0
SECTION
  2
BLOCKS
  0
BLOCK
  5
20
330
1F
100
AcDbEntity
  8
0
100
AcDbBlockBegin
  2
*Model_Space
 70
     0
 10
0.0
 20
0.0
 30
0.0
  3
*Model_Space
  1

  0
ENDBLK
  5
21
330
1F
100
AcDbEntity
  8
0
100
AcDbBlockEnd
  0
BLOCK
  5
1C
330
1B
100
AcDbEntity
 67
     1
  8
0
100
AcDbBlockBegin
  2
*Paper_Space
 70
     0
 10
0.0
 20
0.0
 30
0.0
  3
*Paper_Space
  1

  0
ENDBLK
  5
1D
330
1B
100
AcDbEntity
 67
     1
  8
0
100
AcDbBlockEnd
  0
BLOCK
  5
24
330
23
100
AcDbEntity
 67
     1
  8
0
100
AcDbBlockBegin
  2
*Paper_Space0
 70
     0
 10
0.0
 20
0.0
 30
0.0
  3
*Paper_Space0
  1

  0
ENDBLK
  5
25
330
23
100
AcDbEntity
 67
     1
  8
0
100
AcDbBlockEnd
  0
BLOCK
  5
6D
330
69
100
AcDbEntity
  8
0
100
AcDbBlockBegin
  2
_Open30
 70
     0
 10
0.0
 20
0.0
 30
0.0
  3
_Open30
  1

  0
LINE
  5
6A
330
69
100
AcDbEntity
  8
0
  6
ByBlock
 62
     0
370
    -2
100
AcDbLine
 10
-1.0
 20
0.26794919
 30
0.0
 11
0.0
 21
0.0
 31
0.0
  0
LINE
  5
6B
330
69
100
AcDbEntity
  8
0
  6
ByBlock
 62
     0
370
    -2
100
AcDbLine
 10
0.0
 20
0.0
 30
0.0
 11
-1.0
 21
-0.26794919
 31
0.0
  0
LINE
  5
6C
330
69
100
AcDbEntity
  8
0
  6
ByBlock
 62
     0
370
    -2
100
AcDbLine
 10
0.0
 20
0.0
 30
0.0
 11
-1.0
 21
0.0
 31
0.0
  0
ENDBLK
  5
6E
330
69
100
AcDbEntity
  8
0
100
AcDbBlockEnd
  0
BLOCK
  5
76
330
74
100
AcDbEntity
  8
0
100
AcDbBlockBegin
  2
GENAXEH
 70
     0
 10
0.0
 20
0.0
 30
0.0
  3
GENAXEH
  1

  0
LINE
  5
75
330
74
100
AcDbEntity
  8
0
100
AcDbLine
 10
-1.0
 20
0.0
 30
0.0
 11
1.0
 21
0.0
 31
0.0
  0
ENDBLK
  5
77
330
74
100
AcDbEntity
  8
0
100
AcDbBlockEnd
  0
BLOCK
  5
3411
330
340E
100
AcDbEntity
  8
0
100
AcDbBlockBegin
  2
ジュウジマルコネジ
 70
     0
 10
0.0
 20
0.0
 30
0.0
  3
ジュウジマルコネジ
  1

  0
LINE
  5
43AE
330
340E
100
AcDbEntity
  8
AM_0 外形線1
100
AcDbLine
 10
0.0
 20
6.5
 30
0.0
 11
1.0
 21
6.5
 31
0.0
  0
LINE
  5
43AF
330
340E
100
AcDbEntity
  8
AM_0 外形線1
100
AcDbLine
 10
0.0
 20
-6.5
 30
0.0
 11
1.0
 21
-6.5
 31
0.0
  0
LINE
  5
43B0
330
340E
100
AcDbEntity
  8
AM_7 中心線
100
AcDbLine
 10
-4.867259369782003
 20
0.0
 30
0.0
 11
8.706539767723825
 21
0.0
 31
0.0
  0
LINE
  5
43B1
330
340E
100
AcDbEntity
  8
AM_0 外形線1
100
AcDbLine
 10
0.0
 20
-6.5
 30
0.0
 11
0.0
 21
6.5
 31
0.0
  0
ELLIPSE
  5
43B2
330
340E
100
AcDbEntity
  8
AM_0 外形線1
100
AcDbEllipse
 10
0.0
 20
0.0
 30
0.0
 11
0.0
 21
5.25
 31
0.0
210
0.0
220
0.0
230
1.0
 40
0.7619047619047619
 41
0.0
 42
3.141592653589792
  0
LINE
  5
43B3
330
340E
100
AcDbEntity
  8
AM_0 外形線1
100
AcDbLine
 10
7.999999999999772
 20
-2.5
 30
0.0
 11
7.999999999999772
 21
2.5
 31
0.0
  0
LINE
  5
43B4
330
340E
100
AcDbEntity
  8
AM_0 外形線1
100
AcDbLine
 10
7.499999999999772
 20
-3.0
 30
0.0
 11
7.499999999999772
 21
3.0
 31
0.0
  0
LINE
  5
43B5
330
340E
100
AcDbEntity
  8
AM_0 外形線1
100
AcDbLine
 10
7.499999999999772
 20
-3.0
 30
0.0
 11
7.999999999999772
 21
-2.5
 31
0.0
  0
LINE
  5
43B6
330
340E
100
AcDbEntity
  8
AM_0 外形線1
100
AcDbLine
 10
7.499999999999772
 20
3.0
 30
0.0
 11
7.999999999999772
 21
2.5
 31
0.0
  0
LINE
  5
43B7
330
340E
100
AcDbEntity
  8
AM_4 細線
100
AcDbLine
 10
0.0
 20
-2.499999999999544
 30
0.0
 11
7.999999999999772
 21
-2.5
 31
0.0
  0
LINE
  5
43B8
330
340E
100
AcDbEntity
  8
AM_4 細線
100
AcDbLine
 10
0.0
 20
2.499999999999544
 30
0.0
 11
7.999999999999772
 21
2.5
 31
0.0
  0
LINE
  5
43B9
330
340E
100
AcDbEntity
  8
AM_0 外形線1
100
AcDbLine
 10
0.0
 20
3.25
 30
0.0
 11
1.0
 21
3.25
 31
0.0
  0
LINE
  5
43BA
330
340E
100
AcDbEntity
  8
AM_0 外形線1
100
AcDbLine
 10
0.0
 20
-3.25
 30
0.0
 11
1.0
 21
-3.25
 31
0.0
  0
LINE
  5
43DE
330
340E
100
AcDbEntity
  8
AM_0 外形線1
100
AcDbLine
 10
1.0
 20
-6.5
 30
0.0
 11
1.0
 21
-3.0
 31
0.0
  0
LINE
  5
43DF
330
340E
100
AcDbEntity
  8
AM_0 外形線1
100
AcDbLine
 10
1.0
 20
3.0
 30
0.0
 11
1.0
 21
6.5
 31
0.0
  0
LINE
  5
43E0
330
340E
100
AcDbEntity
  8
AM_0 外形線1
100
AcDbLine
 10
7.499999999999772
 20
-3.0
 30
0.0
 11
-0.0000000000002274
 21
-3.0
 31
0.0
  0
LINE
  5
43E1
330
340E
100
AcDbEntity
  8
AM_0 外形線1
100
AcDbLine
 10
0.0
 20
3.0
 30
0.0
 11
7.499999999999772
 21
3.0
 31
0.0
  0
ENDBLK
  5
3423
330
340E
100
AcDbEntity
  8
0
100
AcDbBlockEnd
  0
BLOCK
  5
353A
330
3539
100
AcDbEntity
  8
0
100
AcDbBlockBegin
  2
GENDOT
 70
     0
 10
0.0
 20
0.0
 30
0.0
  3
GENDOT
  1

  0
LINE
  5
353B
330
3539
100
AcDbEntity
  8
0
100
AcDbLine
 10
0.0
 20
0.0
 30
0.0
 11
-1.0
 21
0.0
 31
0.0
  0
LWPOLYLINE
  5
353C
330
3539
100
AcDbEntity
  8
0
100
AcDbPolyline
 90
        2
 70
     1
 43
0.25
 10
-0.125
 20
0.0
 42
1.0
 10
0.125
 20
0.0
 42
1.0
  0
ENDBLK
  5
353D
330
3539
100
AcDbEntity
  8
0
100
AcDbBlockEnd
  0
BLOCK
  5
41E1
330
41E0
100
AcDbEntity
  8
0
100
AcDbBlockBegin
  2
センタＡ SMVH250
 70
     0
 10
0.0
 20
0.0
 30
0.0
  3
センタＡ SMVH250
  1

  0
LINE
  5
41E3
330
41E0
100
AcDbEntity
  8
AM_0 外形線1
100
AcDbLine
 10
77.70000000000027
 20
-125.0
 30
0.0
 11
-77.6999999999998
 21
-125.0
 31
0.0
  0
LINE
  5
41E4
330
41E0
100
AcDbEntity
  8
AM_0 外形線1
100
AcDbLine
 10
-82.5
 20
-79.0
 30
0.0
 11
-82.5
 21
-48.5
 31
0.0
  0
LINE
  5
41E5
330
41E0
100
AcDbEntity
  8
AM_0 外形線1
100
AcDbLine
 10
-81.6999999999998
 20
-121.0
 30
0.0
 11
-81.6999999999998
 21
-81.0
 31
0.0
  0
ARC
  5
41E6
330
41E0
100
AcDbEntity
  8
AM_0 外形線1
100
AcDbCircle
 10
-77.6999999999998
 20
-121.0
 30
0.0
 40
4.0
100
AcDbArc
 50
180.0
 51
270.0
  0
LINE
  5
41E7
330
41E0
100
AcDbEntity
  8
AM_0 外形線1
100
AcDbLine
 10
-81.6999999999998
 20
-81.0
 30
0.0
 11
-82.5
 21
-79.0
 31
0.0
  0
ARC
  5
41E9
330
41E0
100
AcDbEntity
  8
AM_0 外形線1
100
AcDbCircle
 10
0.0
 20
-33.0
 30
0.0
 40
92.87499999999999
100
AcDbArc
 50
173.8188889999998
 51
188.6698270000006
  0
LINE
  5
41EB
330
41E0
100
AcDbEntity
  8
AM_7 中心線
100
AcDbLine
 10
-96.22103599999993
 20
-33.0
 30
0.0
 11
-83.16975600000002
 21
-33.0
 31
0.0
  0
LINE
  5
41EC
330
41E0
100
AcDbEntity
  8
AM_0 外形線1
100
AcDbLine
 10
-83.0
 20
-48.0
 30
0.0
 11
-90.65569099999995
 21
-48.0
 31
0.0
  0
LINE
  5
41ED
330
41E0
100
AcDbEntity
  8
AM_0 外形線1
100
AcDbLine
 10
-90.65569099999995
 20
-48.0
 30
0.0
 11
-91.81375499999969
 21
-47.0
 31
0.0
  0
ARC
  5
41EE
330
41E0
100
AcDbEntity
  8
AM_0 外形線1
100
AcDbCircle
 10
-83.0
 20
-48.5
 30
0.0
 40
0.5
100
AcDbArc
 50
0.0
 51
90.0
  0
LINE
  5
41EF
330
41E0
100
AcDbEntity
  8
AM_0 外形線1
100
AcDbLine
 10
-81.0
 20
0.0
 30
0.0
 11
0.0
 21
0.0
 31
0.0
  0
LINE
  5
41F0
330
41E0
100
AcDbEntity
  8
AM_0 外形線1
100
AcDbLine
 10
-82.0
 20
-21.5
 30
0.0
 11
-82.0
 21
-1.0
 31
0.0
  0
LINE
  5
41F1
330
41E0
100
AcDbEntity
  8
AM_0 外形線1
100
AcDbLine
 10
-91.22128599999996
 20
-22.0
 30
0.0
 11
-82.5
 21
-22.0
 31
0.0
  0
LINE
  5
41F2
330
41E0
100
AcDbEntity
  8
AM_0 外形線1
100
AcDbLine
 10
-92.33507199999984
 20
-23.0
 30
0.0
 11
-91.22128599999996
 21
-22.0
 31
0.0
  0
ARC
  5
41F3
330
41E0
100
AcDbEntity
  8
AM_0 外形線1
100
AcDbCircle
 10
-82.5
 20
-21.5
 30
0.0
 40
0.5
100
AcDbArc
 50
270.0
 51
0.0
  0
LINE
  5
41F4
330
41E0
100
AcDbEntity
  8
AM_0 外形線1
100
AcDbLine
 10
-82.0
 20
-1.0
 30
0.0
 11
-81.0
 21
0.0
 31
0.0
  0
LINE
  5
41F5
330
41E0
100
AcDbEntity
  8
AM_0 外形線1
100
AcDbLine
 10
82.5
 20
-79.0
 30
0.0
 11
0.0
 21
-79.0
 31
0.0
  0
LINE
  5
41F6
330
41E0
100
AcDbEntity
  8
AM_0 外形線1
100
AcDbLine
 10
81.70000000000028
 20
-81.0
 30
0.0
 11
0.0
 21
-81.0
 31
0.0
  0
LINE
  5
41F7
330
41E0
100
AcDbEntity
  8
AM_3 隠れ線
100
AcDbLine
 10
-4.25
 20
0.0
 30
0.0
 11
-4.25
 21
-29.0
 31
0.0
  0
LINE
  5
41F8
330
41E0
100
AcDbEntity
  8
AM_3 隠れ線
100
AcDbLine
 10
-4.25
 20
-29.0
 30
0.0
 11
0.0
 21
-31.45373800000005
 31
0.0
  0
LINE
  5
41F9
330
41E0
100
AcDbEntity
  8
AM_3 隠れ線
100
AcDbLine
 10
-4.25
 20
-29.0
 30
0.0
 11
0.0
 21
-29.0
 31
0.0
  0
LINE
  5
41FA
330
41E0
100
AcDbEntity
  8
AM_3 隠れ線
100
AcDbLine
 10
-5.0
 20
0.0
 30
0.0
 11
-5.0
 21
-24.0
 31
0.0
  0
LINE
  5
41FB
330
41E0
100
AcDbEntity
  8
AM_3 隠れ線
100
AcDbLine
 10
-5.0
 20
-24.0
 30
0.0
 11
-4.25
 21
-24.43301200000002
 31
0.0
  0
LINE
  5
41FC
330
41E0
100
AcDbEntity
  8
AM_3 隠れ線
100
AcDbLine
 10
-5.0
 20
-24.0
 30
0.0
 11
0.0
 21
-24.0
 31
0.0
  0
LINE
  5
41FD
330
41E0
100
AcDbEntity
  8
AM_3 隠れ線
100
AcDbLine
 10
-4.25
 20
-24.43301200000002
 30
0.0
 11
0.0
 21
-24.43301200000002
 31
0.0
  0
LINE
  5
41FE
330
41E0
100
AcDbEntity
  8
AM_0 外形線1
100
AcDbLine
 10
82.5
 20
-68.0
 30
0.0
 11
82.5
 21
-79.0
 31
0.0
  0
LINE
  5
41FF
330
41E0
100
AcDbEntity
  8
AM_0 外形線1
100
AcDbLine
 10
81.70000000000028
 20
-81.0
 30
0.0
 11
81.70000000000028
 21
-121.0
 31
0.0
  0
ARC
  5
4200
330
41E0
100
AcDbEntity
  8
AM_0 外形線1
100
AcDbCircle
 10
77.70000000000027
 20
-121.0
 30
0.0
 40
4.0
100
AcDbArc
 50
270.0
 51
0.0
  0
LINE
  5
4201
330
41E0
100
AcDbEntity
  8
AM_0 外形線1
100
AcDbLine
 10
82.5
 20
-79.0
 30
0.0
 11
81.70000000000028
 21
-81.0
 31
0.0
  0
LINE
  5
4202
330
41E0
100
AcDbEntity
  8
AM_0 外形線1
100
AcDbLine
 10
-30.92329219213298
 20
0.0
 30
0.0
 11
-30.92329219213298
 21
-125.0
 31
0.0
  0
ARC
  5
57DF
330
41E0
100
AcDbEntity
  8
AM_0 外形線1
100
AcDbCircle
 10
0.0
 20
-33.0
 30
0.0
 40
86.69999999999992
100
AcDbArc
 50
172.7109940547871
 51
189.9628953011776
  0
ARC
  5
57E0
330
41E0
100
AcDbEntity
  8
AM_7 中心線
100
AcDbCircle
 10
0.0
 20
-33.0
 30
0.0
 40
90.0
100
AcDbArc
 50
171.6643356661549
 51
190.8609032192214
  0
ENDBLK
  5
41E2
330
41E0
100
AcDbEntity
  8
0
100
AcDbBlockEnd
  0
BLOCK
  5
42D1
330
42D0
100
AcDbEntity
  8
0
100
AcDbBlockBegin
  2
ケースＡ SMVH250
 70
     0
 10
0.0
 20
0.0
 30
0.0
  3
ケースＡ SMVH250
  1

  0
LINE
  5
42D3
330
42D0
100
AcDbEntity
  8
AM_0 外形線1
100
AcDbLine
 10
-97.99999999999997
 20
0.0
 30
0.0
 11
-98.0
 21
-2.199999999999988
 31
0.0
  0
LINE
  5
42D4
330
42D0
100
AcDbEntity
  8
AM_0 外形線1
100
AcDbLine
 10
-118.7999999999999
 20
-12.25
 30
0.0
 11
-93.49999999999999
 21
-12.25
 31
0.0
  0
LINE
  5
42D5
330
42D0
100
AcDbEntity
  8
AM_0 外形線1
100
AcDbLine
 10
-118.7999999999999
 20
-3.75
 30
0.0
 11
-93.49999999999999
 21
-3.75
 31
0.0
  0
LINE
  5
42D6
330
42D0
100
AcDbEntity
  8
AM_7 中心線
100
AcDbLine
 10
-92.14096299999985
 20
-8.0
 30
0.0
 11
-126.481851
 21
-8.0
 31
0.0
  0
LWPOLYLINE
  5
42D7
330
42D0
100
AcDbEntity
  8
AM_0 外形線1
100
AcDbPolyline
 90
       73
 70
     0
 43
0.0
 10
-98.0
 20
-1.350000000000022
 10
-98.008372
 20
-1.232339000000024
 10
-98.03342299999988
 20
-1.115574999999978
 10
-98.07496299999979
 20
-1.000594000000035
 10
-98.13267599999973
 20
-0.888272000000029
 10
-98.20612299999993
 20
-0.7794650000000161
 10
-98.2947439999998
 20
-0.6750000000000114
 10
-98.39786499999993
 20
-0.5756710000000567
 10
-98.51470199999994
 20
-0.4822360000000572
 10
-98.6443650000001
 20
-0.3954059999999799
 10
-98.78586700000006
 20
-0.315840000000037
 10
-98.93813199999977
 20
-0.2441440000000625
 10
-99.09999999999993
 20
-0.1808650000000398
 10
-99.27023999999985
 20
-0.1264840000000049
 10
-99.44755600000007
 20
-0.0814150000000496
 10
-99.63059799999996
 20
-0.0459999999999923
 10
-99.81797400000004
 20
-0.0205090000000041
 10
-100.0082569999999
 20
-0.0051369999999906
 10
-100.1999999999998
 20
0.0
 10
-100.3917429999999
 20
-0.0051369999999906
 10
-100.582026
 20
-0.0205090000000041
 10
-100.7694019999999
 20
-0.0459999999999923
 10
-100.952444
 20
-0.0814150000000496
 10
-101.1297599999998
 20
-0.1264840000000049
 10
-101.2999999999999
 20
-0.1808650000000398
 10
-101.4618679999998
 20
-0.2441440000000625
 10
-101.614133
 20
-0.315840000000037
 10
-101.7556349999999
 20
-0.3954059999999799
 10
-101.8852979999999
 20
-0.4822360000000572
 10
-102.0021339999998
 20
-0.5756710000000567
 10
-102.1052559999997
 20
-0.6750000000000114
 10
-102.1938769999997
 20
-0.7794650000000161
 10
-102.2673239999999
 20
-0.888272000000029
 10
-102.3250369999998
 20
-1.000594000000035
 10
-102.3665769999998
 20
-1.115574999999978
 10
-102.3916279999998
 20
-1.232339000000024
 10
-102.3999999999998
 20
-1.350000000000022
 10
-102.3916279999998
 20
-1.467660000000023
 10
-102.3665769999998
 20
-1.58442500000001
 10
-102.3250369999998
 20
-1.699405000000011
 10
-102.2673239999999
 20
-1.811727000000018
 10
-102.1938769999997
 20
-1.920534000000031
 10
-102.1052559999997
 20
-2.024999999999976
 10
-102.0021339999998
 20
-2.124328000000048
 10
-101.8852979999999
 20
-2.217763000000046
 10
-101.7556349999999
 20
-2.304594000000065
 10
-101.614133
 20
-2.384160000000008
 10
-101.4618679999998
 20
-2.455855000000041
 10
-101.2999999999999
 20
-2.519134000000008
 10
-101.1297599999998
 20
-2.573515000000043
 10
-100.952444
 20
-2.618584999999995
 10
-100.7694019999999
 20
-2.653999999999995
 10
-100.582026
 20
-2.679490000000043
 10
-100.3917429999999
 20
-2.694863000000054
 10
-100.1999999999998
 20
-2.699999999999988
 10
-100.0082569999999
 20
-2.694863000000054
 10
-99.81797400000004
 20
-2.679490000000043
 10
-99.63059799999996
 20
-2.653999999999995
 10
-99.44755600000007
 20
-2.618584999999995
 10
-99.27023999999985
 20
-2.573515000000043
 10
-99.09999999999993
 20
-2.519134000000008
 10
-98.93813199999977
 20
-2.455855000000041
 10
-98.78586700000006
 20
-2.384160000000008
 10
-98.6443650000001
 20
-2.304594000000065
 10
-98.51470199999994
 20
-2.217763000000046
 10
-98.39786499999993
 20
-2.124328000000048
 10
-98.2947439999998
 20
-2.024999999999976
 10
-98.20612299999993
 20
-1.920534000000031
 10
-98.13267599999973
 20
-1.811727000000018
 10
-98.07496299999979
 20
-1.699405000000011
 10
-98.03342299999988
 20
-1.58442500000001
 10
-98.008372
 20
-1.467660000000023
 10
-98.0
 20
-1.350000000000022
  0
LINE
  5
42D8
330
42D0
100
AcDbEntity
  8
AM_0 外形線1
100
AcDbLine
 10
-98.50000000000001
 20
-2.699999999999988
 30
0.0
 11
-101.8999999999998
 21
-2.699999999999988
 31
0.0
  0
ARC
  5
42D9
330
42D0
100
AcDbEntity
  8
AM_0 外形線1
100
AcDbCircle
 10
-96.0
 20
-70.0
 30
0.0
 40
4.0
100
AcDbArc
 50
180.0
 51
270.0
  0
ARC
  5
42DA
330
42D0
100
AcDbEntity
  8
AM_0 外形線1
100
AcDbCircle
 10
-104.0
 20
-19.0
 30
0.0
 40
4.0
100
AcDbArc
 50
0.0
 51
90.0
  0
LINE
  5
42DB
330
42D0
100
AcDbEntity
  8
AM_0 外形線1
100
AcDbLine
 10
-100.0
 20
-19.0
 30
0.0
 11
-100.0
 21
-70.0
 31
0.0
  0
LINE
  5
42DC
330
42D0
100
AcDbEntity
  8
AM_0 外形線1
100
AcDbLine
 10
-104.0
 20
-15.0
 30
0.0
 11
-124.0
 21
-15.0
 31
0.0
  0
LINE
  5
42DD
330
42D0
100
AcDbEntity
  8
AM_4 細線
100
AcDbLine
 10
-125.0
 20
-12.86399999999997
 30
0.0
 11
-118.7999999999999
 21
-12.67025000000001
 31
0.0
  0
LINE
  5
42DE
330
42D0
100
AcDbEntity
  8
AM_0 外形線1
100
AcDbLine
 10
-125.0
 20
-12.44375000000002
 30
0.0
 11
-118.7999999999999
 21
-12.25
 31
0.0
  0
LINE
  5
42DF
330
42D0
100
AcDbEntity
  8
AM_4 細線
100
AcDbLine
 10
-125.0
 20
-3.136000000000023
 30
0.0
 11
-118.7999999999999
 21
-3.329749999999988
 31
0.0
  0
LINE
  5
42E0
330
42D0
100
AcDbEntity
  8
AM_0 外形線1
100
AcDbLine
 10
-125.0
 20
-3.556249999999976
 30
0.0
 11
-118.7999999999999
 21
-3.75
 31
0.0
  0
LINE
  5
42E1
330
42D0
100
AcDbEntity
  8
AM_4 細線
100
AcDbLine
 10
-118.7999999999999
 20
-3.329749999999988
 30
0.0
 11
-118.7999999999999
 21
-12.67025000000001
 31
0.0
  0
LINE
  5
42E2
330
42D0
100
AcDbEntity
  8
AM_0 外形線1
100
AcDbLine
 10
-125.0
 20
-14.0
 30
0.0
 11
-124.0
 21
-15.0
 31
0.0
  0
LINE
  5
42E3
330
42D0
100
AcDbEntity
  8
AM_0 外形線1
100
AcDbLine
 10
-125.0
 20
-1.0
 30
0.0
 11
-125.0
 21
-14.0
 31
0.0
  0
LINE
  5
42E4
330
42D0
100
AcDbEntity
  8
AM_0 外形線1
100
AcDbLine
 10
-124.0
 20
0.0
 30
0.0
 11
-125.0
 21
-1.0
 31
0.0
  0
LINE
  5
42E5
330
42D0
100
AcDbEntity
  8
AM_0 外形線1
100
AcDbLine
 10
-102.3999999999998
 20
-2.199999999999988
 30
0.0
 11
-102.3999999999998
 21
0.0
 31
0.0
  0
ARC
  5
42E6
330
42D0
100
AcDbEntity
  8
AM_0 外形線1
100
AcDbCircle
 10
-101.8999999999998
 20
-2.199999999999988
 30
0.0
 40
0.5
100
AcDbArc
 50
180.0
 51
270.0
  0
LINE
  5
42E7
330
42D0
100
AcDbEntity
  8
AM_3 隠れ線
100
AcDbLine
 10
-87.5999999999999
 20
-28.0
 30
0.0
 11
-87.5999999999999
 21
-51.0
 31
0.0
  0
LINE
  5
42E8
330
42D0
100
AcDbEntity
  8
AM_7 中心線
100
AcDbLine
 10
-90.0
 20
-23.90852200000001
 30
0.0
 11
-90.0
 21
-52.96107000000001
 31
0.0
  0
LINE
  5
42E9
330
42D0
100
AcDbEntity
  8
AM_0 外形線1
100
AcDbLine
 10
-93.0
 20
-24.86602499999998
 30
0.0
 11
-93.0
 21
-52.13397400000001
 31
0.0
  0
LINE
  5
42EA
330
42D0
100
AcDbEntity
  8
AM_0 外形線1
100
AcDbLine
 10
-93.49999999999999
 20
-57.0
 30
0.0
 11
-93.49999999999999
 21
-53.0
 31
0.0
  0
LWPOLYLINE
  5
42EB
330
42D0
100
AcDbEntity
  8
AM_0 外形線1
100
AcDbPolyline
 90
       73
 70
     0
 43
0.0
 10
-85.97499999999991
 20
-60.39999999999999
 10
-86.27786599999991
 20
-60.42130900000007
 10
-86.57842699999992
 20
-60.48507600000005
 10
-86.87439599999969
 20
-60.59081500000002
 10
-87.16351999999984
 20
-60.73772100000008
 10
-87.44359799999982
 20
-60.92467600000002
 10
-87.71249999999986
 20
-61.15025700000001
 10
-87.96817799999985
 20
-61.41274799999997
 10
-88.20868699999982
 20
-61.71015099999999
 10
-88.43219599999974
 20
-62.04020200000002
 10
-88.63700399999968
 20
-62.40038900000001
 10
-88.82155299999977
 20
-62.78797200000003
 10
-88.98443799999997
 20
-63.19999999999999
 10
-89.12441899999977
 20
-63.63333699999998
 10
-89.24043200000005
 20
-64.08468700000003
 10
-89.331592
 20
-64.550613
 10
-89.39720699999998
 20
-65.02757000000002
 10
-89.43677599999999
 20
-65.51192800000001
 10
-89.4499999999998
 20
-66.0
 10
-89.43677599999999
 20
-66.48807199999999
 10
-89.39720699999998
 20
-66.97242900000003
 10
-89.331592
 20
-67.44938600000001
 10
-89.24043200000005
 20
-67.91531199999997
 10
-89.12441899999977
 20
-68.36666200000002
 10
-88.98443799999997
 20
-68.80000000000001
 10
-88.82155299999977
 20
-69.21202800000003
 10
-88.63700399999968
 20
-69.59960999999998
 10
-88.43219599999974
 20
-69.95979799999997
 10
-88.20868699999982
 20
-70.28984900000001
 10
-87.96817799999985
 20
-70.58725100000002
 10
-87.71249999999986
 20
-70.84974200000004
 10
-87.44359799999982
 20
-71.07532300000002
 10
-87.16351999999984
 20
-71.26227800000005
 10
-86.87439599999969
 20
-71.40918400000002
 10
-86.57842699999992
 20
-71.51492300000002
 10
-86.27786599999991
 20
-71.57869000000005
 10
-85.97499999999991
 20
-71.60000000000002
 10
-85.67213399999991
 20
-71.57869000000005
 10
-85.37157200000001
 20
-71.51492300000002
 10
-85.07560399999965
 20
-71.40918400000002
 10
-84.78647999999976
 20
-71.26227800000005
 10
-84.50640099999985
 20
-71.07532300000002
 10
-84.23749999999996
 20
-70.84974200000004
 10
-83.98182199999997
 20
-70.58725100000002
 10
-83.74131299999977
 20
-70.28984900000001
 10
-83.51780399999984
 20
-69.95979799999997
 10
-83.31299499999976
 20
-69.59960999999998
 10
-83.12844700000004
 20
-69.21202800000003
 10
-82.96556199999988
 20
-68.80000000000001
 10
-82.82557999999971
 20
-68.36666200000002
 10
-82.70956799999977
 20
-67.91531199999997
 10
-82.6184079999998
 20
-67.44938600000001
 10
-82.55279299999982
 20
-66.97242900000003
 10
-82.51322299999992
 20
-66.48807199999999
 10
-82.5
 20
-66.0
 10
-82.51322299999992
 20
-65.51192800000001
 10
-82.55279299999982
 20
-65.02757000000002
 10
-82.6184079999998
 20
-64.550613
 10
-82.70956799999977
 20
-64.08468700000003
 10
-82.82557999999971
 20
-63.63333699999998
 10
-82.96556199999988
 20
-63.19999999999999
 10
-83.12844700000004
 20
-62.78797200000003
 10
-83.31299499999976
 20
-62.40038900000001
 10
-83.51780399999984
 20
-62.04020200000002
 10
-83.74131299999977
 20
-61.71015099999999
 10
-83.98182199999997
 20
-61.41274799999997
 10
-84.23749999999996
 20
-61.15025700000001
 10
-84.50640099999985
 20
-60.92467600000002
 10
-84.78647999999976
 20
-60.73772100000008
 10
-85.07560399999965
 20
-60.59081500000002
 10
-85.37157200000001
 20
-60.48507600000005
 10
-85.67213399999991
 20
-60.42130900000007
 10
-85.97499999999991
 20
-60.39999999999999
  0
LINE
  5
42EC
330
42D0
100
AcDbEntity
  8
AM_0 外形線1
100
AcDbLine
 10
-82.5
 20
-58.0
 30
0.0
 11
-92.5
 21
-58.0
 31
0.0
  0
LINE
  5
42ED
330
42D0
100
AcDbEntity
  8
AM_0 外形線1
100
AcDbLine
 10
-88.9499999999998
 20
-60.39999999999999
 30
0.0
 11
-82.5
 21
-60.39999999999999
 31
0.0
  0
LINE
  5
42EE
330
42D0
100
AcDbEntity
  8
AM_0 外形線1
100
AcDbLine
 10
-82.5
 20
-71.60000000000002
 30
0.0
 11
-88.9499999999998
 21
-71.60000000000002
 31
0.0
  0
LINE
  5
42EF
330
42D0
100
AcDbEntity
  8
AM_0 外形線1
100
AcDbLine
 10
-96.0
 20
-74.0
 30
0.0
 11
-82.5
 21
-74.0
 31
0.0
  0
ARC
  5
42F0
330
42D0
100
AcDbEntity
  8
AM_0 外形線1
100
AcDbCircle
 10
-92.5
 20
-57.0
 30
0.0
 40
1.0
100
AcDbArc
 50
180.0
 51
270.0
  0
ARC
  5
42F1
330
42D0
100
AcDbEntity
  8
AM_0 外形線1
100
AcDbCircle
 10
-88.9499999999998
 20
-60.89999999999998
 30
0.0
 40
0.5
100
AcDbArc
 50
90.0
 51
180.0
  0
LINE
  5
42F2
330
42D0
100
AcDbEntity
  8
AM_0 外形線1
100
AcDbLine
 10
-89.4499999999998
 20
-71.10000000000002
 30
0.0
 11
-89.4499999999998
 21
-60.89999999999998
 31
0.0
  0
ARC
  5
42F3
330
42D0
100
AcDbEntity
  8
AM_0 外形線1
100
AcDbCircle
 10
-88.9499999999998
 20
-71.10000000000002
 30
0.0
 40
0.5
100
AcDbArc
 50
180.0
 51
270.0
  0
LINE
  5
42F4
330
42D0
100
AcDbEntity
  8
AM_0 外形線1
100
AcDbLine
 10
-84.0
 20
-60.39999999999999
 30
0.0
 11
-84.0
 21
-58.0
 31
0.0
  0
LINE
  5
42F5
330
42D0
100
AcDbEntity
  8
AM_0 外形線1
100
AcDbLine
 10
-84.0
 20
-74.0
 30
0.0
 11
-84.0
 21
-71.60000000000002
 31
0.0
  0
LINE
  5
42F6
330
42D0
100
AcDbEntity
  8
AM_3 隠れ線
100
AcDbLine
 10
-88.5999999999999
 20
-52.0
 30
0.0
 11
-87.5999999999999
 21
-51.0
 31
0.0
  0
LINE
  5
42F7
330
42D0
100
AcDbEntity
  8
AM_3 隠れ線
100
AcDbLine
 10
-91.96067399999993
 20
-52.0
 30
0.0
 11
-88.5999999999999
 21
-52.0
 31
0.0
  0
LINE
  5
42F8
330
42D0
100
AcDbEntity
  8
AM_0 外形線1
100
AcDbLine
 10
-91.96067399999993
 20
-52.0
 30
0.0
 11
-92.5
 21
-52.0
 31
0.0
  0
ARC
  5
42F9
330
42D0
100
AcDbEntity
  8
AM_0 外形線1
100
AcDbCircle
 10
-92.5
 20
-53.0
 30
0.0
 40
1.0
100
AcDbArc
 50
90.0
 51
180.0
  0
LINE
  5
42FA
330
42D0
100
AcDbEntity
  8
AM_0 外形線1
100
AcDbLine
 10
-93.49999999999999
 20
-24.0
 30
0.0
 11
-93.49999999999999
 21
0.0
 31
0.0
  0
LINE
  5
42FB
330
42D0
100
AcDbEntity
  8
AM_0 外形線1
100
AcDbLine
 10
-87.5999999999999
 20
-28.0
 30
0.0
 11
-87.5999999999999
 21
-26.0
 31
0.0
  0
ARC
  5
42FC
330
42D0
100
AcDbEntity
  8
AM_0 外形線1
100
AcDbCircle
 10
-92.5
 20
-24.0
 30
0.0
 40
1.0
100
AcDbArc
 50
180.0
 51
270.0
  0
LINE
  5
42FD
330
42D0
100
AcDbEntity
  8
AM_0 外形線1
100
AcDbLine
 10
-88.5999999999999
 20
-25.0
 30
0.0
 11
-92.5
 21
-25.0
 31
0.0
  0
LINE
  5
42FE
330
42D0
100
AcDbEntity
  8
AM_0 外形線1
100
AcDbLine
 10
-87.5999999999999
 20
-26.0
 30
0.0
 11
-88.5999999999999
 21
-25.0
 31
0.0
  0
ARC
  5
42FF
330
42D0
100
AcDbEntity
  8
AM_0 外形線1
100
AcDbCircle
 10
-98.50000000000001
 20
-2.199999999999988
 30
0.0
 40
0.5
100
AcDbArc
 50
270.0
 51
0.0
  0
LINE
  5
4300
330
42D0
100
AcDbEntity
  8
AM_7 中心線
100
AcDbLine
 10
114.0
 20
31.55250100000001
 30
0.0
 11
114.0
 21
-24.37236200000001
 31
0.0
  0
LINE
  5
4301
330
42D0
100
AcDbEntity
  8
AM_0 外形線1
100
AcDbLine
 10
96.0
 20
-74.0
 30
0.0
 11
0.0
 21
-74.0
 31
0.0
  0
LINE
  5
4302
330
42D0
100
AcDbEntity
  8
AM_0 外形線1
100
AcDbLine
 10
124.0
 20
-15.0
 30
0.0
 11
0.0
 21
-15.0
 31
0.0
  0
LINE
  5
4303
330
42D0
100
AcDbEntity
  8
AM_0 外形線1
100
AcDbLine
 10
100.0
 20
-19.0
 30
0.0
 11
100.0
 21
-70.0
 31
0.0
  0
ARC
  5
4304
330
42D0
100
AcDbEntity
  8
AM_0 外形線1
100
AcDbCircle
 10
96.0
 20
-70.0
 30
0.0
 40
4.0
100
AcDbArc
 50
270.0
 51
0.0
  0
ARC
  5
4305
330
42D0
100
AcDbEntity
  8
AM_0 外形線1
100
AcDbCircle
 10
104.0
 20
-19.0
 30
0.0
 40
4.0
100
AcDbArc
 50
90.0
 51
180.0
  0
LINE
  5
4306
330
42D0
100
AcDbEntity
  8
AM_0 外形線1
100
AcDbLine
 10
125.0
 20
-14.0
 30
0.0
 11
124.0
 21
-15.0
 31
0.0
  0
LINE
  5
4307
330
42D0
100
AcDbEntity
  8
AM_0 外形線1
100
AcDbLine
 10
125.0
 20
-1.0
 30
0.0
 11
125.0
 21
-14.0
 31
0.0
  0
LINE
  5
4308
330
42D0
100
AcDbEntity
  8
AM_0 外形線1
100
AcDbLine
 10
124.0
 20
0.0
 30
0.0
 11
125.0
 21
-1.0
 31
0.0
  0
LINE
  5
4365
330
42D0
100
AcDbEntity
  8
AM_0 外形線1
100
AcDbLine
 10
-93.49999999999999
 20
0.0
 30
0.0
 11
-97.99999999999997
 21
0.0
 31
0.0
  0
LINE
  5
4366
330
42D0
100
AcDbEntity
  8
AM_0 外形線1
100
AcDbLine
 10
-102.3999999999998
 20
0.0
 30
0.0
 11
-124.0
 21
0.0
 31
0.0
  0
LINE
  5
4367
330
42D0
100
AcDbEntity
  8
AM_0 外形線1
100
AcDbLine
 10
0.0
 20
0.0
 30
0.0
 11
124.0
 21
0.0
 31
0.0
  0
ENDBLK
  5
42D2
330
42D0
100
AcDbEntity
  8
0
100
AcDbBlockEnd
  0
BLOCK
  5
446B
330
446A
100
AcDbEntity
  8
0
100
AcDbBlockBegin
  2
ケースＢ SMVH250
 70
     0
 10
0.0
 20
0.0
 30
0.0
  3
ケースＢ SMVH250
  1

  0
LINE
  5
446D
330
446A
100
AcDbEntity
  8
AM_0 外形線1
100
AcDbLine
 10
-125.0
 20
1.0
 30
0.0
 11
-125.0
 21
14.0
 31
0.0
  0
LINE
  5
446E
330
446A
100
AcDbEntity
  8
AM_0 外形線1
100
AcDbLine
 10
-98.50000000000001
 20
0.0
 30
0.0
 11
-124.0
 21
0.0
 31
0.0
  0
LINE
  5
446F
330
446A
100
AcDbEntity
  8
AM_0 外形線1
100
AcDbLine
 10
-124.0
 20
0.0
 30
0.0
 11
-125.0
 21
1.0
 31
0.0
  0
LINE
  5
4470
330
446A
100
AcDbEntity
  8
AM_0 外形線1
100
AcDbLine
 10
-98.0
 20
0.5
 30
0.0
 11
-98.50000000000001
 21
0.0
 31
0.0
  0
LINE
  5
4471
330
446A
100
AcDbEntity
  8
AM_0 外形線1
100
AcDbLine
 10
-100.0
 20
62.0
 30
0.0
 11
-99.1999999999998
 21
62.0
 31
0.0
  0
LINE
  5
4472
330
446A
100
AcDbEntity
  8
AM_0 外形線1
100
AcDbLine
 10
-100.0
 20
48.0
 30
0.0
 11
-99.1999999999998
 21
48.0
 31
0.0
  0
LINE
  5
4473
330
446A
100
AcDbEntity
  8
AM_0 外形線1
100
AcDbLine
 10
-118.7999999999999
 20
3.75
 30
0.0
 11
-98.0
 21
3.75
 31
0.0
  0
LINE
  5
4474
330
446A
100
AcDbEntity
  8
AM_0 外形線1
100
AcDbLine
 10
-118.7999999999999
 20
12.25
 30
0.0
 11
-93.49999999999999
 21
12.25
 31
0.0
  0
LINE
  5
4475
330
446A
100
AcDbEntity
  8
AM_7 中心線
100
AcDbLine
 10
-91.96091699999987
 20
8.0
 30
0.0
 11
-126.3624339999999
 21
8.0
 31
0.0
  0
ARC
  5
4476
330
446A
100
AcDbEntity
  8
AM_0 外形線1
100
AcDbCircle
 10
-96.0
 20
70.0
 30
0.0
 40
4.0
100
AcDbArc
 50
90.0
 51
180.0
  0
ARC
  5
4477
330
446A
100
AcDbEntity
  8
AM_0 外形線1
100
AcDbCircle
 10
-104.0
 20
19.0
 30
0.0
 40
4.0
100
AcDbArc
 50
270.0
 51
0.0
  0
LINE
  5
4478
330
446A
100
AcDbEntity
  8
AM_0 外形線1
100
AcDbLine
 10
-100.0
 20
19.0
 30
0.0
 11
-100.0
 21
48.0
 31
0.0
  0
LINE
  5
4479
330
446A
100
AcDbEntity
  8
AM_0 外形線1
100
AcDbLine
 10
-104.0
 20
15.0
 30
0.0
 11
-124.0
 21
15.0
 31
0.0
  0
LINE
  5
447A
330
446A
100
AcDbEntity
  8
AM_4 細線
100
AcDbLine
 10
-125.0
 20
3.135999999999966
 30
0.0
 11
-118.7999999999999
 21
3.329749999999988
 31
0.0
  0
LINE
  5
447B
330
446A
100
AcDbEntity
  8
AM_0 外形線1
100
AcDbLine
 10
-125.0
 20
3.556249999999976
 30
0.0
 11
-118.7999999999999
 21
3.75
 31
0.0
  0
LINE
  5
447C
330
446A
100
AcDbEntity
  8
AM_4 細線
100
AcDbLine
 10
-125.0
 20
12.86400000000003
 30
0.0
 11
-118.7999999999999
 21
12.67025000000001
 31
0.0
  0
LINE
  5
447D
330
446A
100
AcDbEntity
  8
AM_0 外形線1
100
AcDbLine
 10
-125.0
 20
12.44375000000002
 30
0.0
 11
-118.7999999999999
 21
12.25
 31
0.0
  0
LINE
  5
447E
330
446A
100
AcDbEntity
  8
AM_4 細線
100
AcDbLine
 10
-118.7999999999999
 20
12.67025000000001
 30
0.0
 11
-118.7999999999999
 21
3.329749999999988
 31
0.0
  0
LINE
  5
447F
330
446A
100
AcDbEntity
  8
AM_0 外形線1
100
AcDbLine
 10
-125.0
 20
14.0
 30
0.0
 11
-124.0
 21
15.0
 31
0.0
  0
LINE
  5
4480
330
446A
100
AcDbEntity
  8
AM_0 外形線1
100
AcDbLine
 10
-100.0
 20
62.0
 30
0.0
 11
-100.0
 21
70.0
 31
0.0
  0
LINE
  5
4481
330
446A
100
AcDbEntity
  8
AM_3 隠れ線
100
AcDbLine
 10
-87.5999999999999
 20
28.0
 30
0.0
 11
-87.5999999999999
 21
51.0
 31
0.0
  0
LINE
  5
4482
330
446A
100
AcDbEntity
  8
AM_7 中心線
100
AcDbLine
 10
-90.0
 20
23.91156999999998
 30
0.0
 11
-90.0
 21
52.95425699999999
 31
0.0
  0
LINE
  5
4483
330
446A
100
AcDbEntity
  8
AM_0 外形線1
100
AcDbLine
 10
-93.0
 20
24.86602599999992
 30
0.0
 11
-93.0
 21
52.13397499999996
 31
0.0
  0
LINE
  5
4484
330
446A
100
AcDbEntity
  8
AM_0 外形線1
100
AcDbLine
 10
-93.49999999999999
 20
24.0
 30
0.0
 11
-93.49999999999999
 21
5.0
 31
0.0
  0
LINE
  5
4485
330
446A
100
AcDbEntity
  8
AM_0 外形線1
100
AcDbLine
 10
-87.5999999999999
 20
28.0
 30
0.0
 11
-87.5999999999999
 21
26.0
 31
0.0
  0
ARC
  5
4486
330
446A
100
AcDbEntity
  8
AM_0 外形線1
100
AcDbCircle
 10
-92.5
 20
24.0
 30
0.0
 40
1.0
100
AcDbArc
 50
90.0
 51
180.0
  0
LINE
  5
4487
330
446A
100
AcDbEntity
  8
AM_0 外形線1
100
AcDbLine
 10
-88.5999999999999
 20
25.0
 30
0.0
 11
-92.5
 21
25.0
 31
0.0
  0
LINE
  5
4488
330
446A
100
AcDbEntity
  8
AM_0 外形線1
100
AcDbLine
 10
-87.5999999999999
 20
26.0
 30
0.0
 11
-88.5999999999999
 21
25.0
 31
0.0
  0
LWPOLYLINE
  5
4489
330
446A
100
AcDbEntity
  8
AM_0 外形線1
100
AcDbPolyline
 90
       73
 70
     0
 43
0.0
 10
-85.97499999999991
 20
60.39999999999999
 10
-85.67213399999991
 20
60.42130999999995
 10
-85.37157200000001
 20
60.48507700000005
 10
-85.07560399999965
 20
60.5908159999999
 10
-84.78647999999976
 20
60.73772199999996
 10
-84.50640099999985
 20
60.92467699999997
 10
-84.23749999999996
 20
61.15025799999989
 10
-83.98182199999997
 20
61.41274899999996
 10
-83.74131299999977
 20
61.71015099999999
 10
-83.51780399999984
 20
62.04020200000002
 10
-83.31299499999976
 20
62.40039000000002
 10
-83.12844700000004
 20
62.78797199999996
 10
-82.96556199999988
 20
63.20000000000003
 10
-82.82557999999971
 20
63.63333799999998
 10
-82.70956799999977
 20
64.0846879999999
 10
-82.6184079999998
 20
64.55061399999999
 10
-82.55279299999982
 20
65.02757100000008
 10
-82.51322299999992
 20
65.5119279999999
 10
-82.5
 20
66.0
 10
-82.51322299999992
 20
66.48807199999999
 10
-82.55279299999982
 20
66.97243000000003
 10
-82.6184079999998
 20
67.44938699999988
 10
-82.70956799999977
 20
67.91531299999997
 10
-82.82557999999971
 20
68.366663
 10
-82.96556199999988
 20
68.79999999999995
 10
-83.12844700000004
 20
69.21202799999992
 10
-83.31299499999976
 20
69.59961099999998
 10
-83.51780399999984
 20
69.95979799999997
 10
-83.74131299999977
 20
70.28984900000001
 10
-83.98182199999997
 20
70.58725200000004
 10
-84.23749999999996
 20
70.84974299999998
 10
-84.50640099999985
 20
71.07532399999991
 10
-84.78647999999976
 20
71.26227900000003
 10
-85.07560399999965
 20
71.40918499999997
 10
-85.37157200000001
 20
71.51492399999995
 10
-85.67213399999991
 20
71.57869099999993
 10
-85.97499999999991
 20
71.60000000000002
 10
-86.27786599999991
 20
71.57869099999993
 10
-86.57842699999992
 20
71.51492399999995
 10
-86.87439599999969
 20
71.40918499999997
 10
-87.16351999999984
 20
71.26227900000003
 10
-87.44359799999982
 20
71.07532399999991
 10
-87.71249999999986
 20
70.84974299999998
 10
-87.96817799999985
 20
70.58725200000004
 10
-88.20868699999982
 20
70.28984900000001
 10
-88.43219599999974
 20
69.95979799999997
 10
-88.63700399999968
 20
69.59961099999998
 10
-88.82155299999977
 20
69.21202799999992
 10
-88.98443799999997
 20
68.79999999999995
 10
-89.12441899999977
 20
68.366663
 10
-89.24043200000005
 20
67.91531299999997
 10
-89.331592
 20
67.44938699999988
 10
-89.39720699999998
 20
66.97243000000003
 10
-89.43677599999999
 20
66.48807199999999
 10
-89.4499999999998
 20
66.0
 10
-89.43677599999999
 20
65.5119279999999
 10
-89.39720699999998
 20
65.02757100000008
 10
-89.331592
 20
64.55061399999999
 10
-89.24043200000005
 20
64.0846879999999
 10
-89.12441899999977
 20
63.63333799999998
 10
-88.98443799999997
 20
63.20000000000003
 10
-88.82155299999977
 20
62.78797199999996
 10
-88.63700399999968
 20
62.40039000000002
 10
-88.43219599999974
 20
62.04020200000002
 10
-88.20868699999982
 20
61.71015099999999
 10
-87.96817799999985
 20
61.41274899999996
 10
-87.71249999999986
 20
61.15025799999989
 10
-87.44359799999982
 20
60.92467699999997
 10
-87.16351999999984
 20
60.73772199999996
 10
-86.87439599999969
 20
60.5908159999999
 10
-86.57842699999992
 20
60.48507700000005
 10
-86.27786599999991
 20
60.42130999999995
 10
-85.97499999999991
 20
60.39999999999999
  0
LINE
  5
448A
330
446A
100
AcDbEntity
  8
AM_0 外形線1
100
AcDbLine
 10
-89.4499999999998
 20
71.10000000000002
 30
0.0
 11
-89.4499999999998
 21
60.89999999999998
 31
0.0
  0
LINE
  5
448B
330
446A
100
AcDbEntity
  8
AM_0 外形線1
100
AcDbLine
 10
-82.5
 20
58.0
 30
0.0
 11
-100.2
 21
58.0
 31
0.0
  0
LINE
  5
448C
330
446A
100
AcDbEntity
  8
AM_0 外形線1
100
AcDbLine
 10
-88.9499999999998
 20
60.39999999999999
 30
0.0
 11
-82.5
 21
60.39999999999999
 31
0.0
  0
LINE
  5
448D
330
446A
100
AcDbEntity
  8
AM_0 外形線1
100
AcDbLine
 10
-99.1999999999998
 20
48.0
 30
0.0
 11
-99.1999999999998
 21
51.99999999999988
 31
0.0
  0
LINE
  5
448E
330
446A
100
AcDbEntity
  8
AM_3 隠れ線
100
AcDbLine
 10
-88.5999999999999
 20
52.0
 30
0.0
 11
-87.5999999999999
 21
51.0
 31
0.0
  0
LINE
  5
448F
330
446A
100
AcDbEntity
  8
AM_3 隠れ線
100
AcDbLine
 10
-91.96067399999993
 20
52.0
 30
0.0
 11
-88.5999999999999
 21
52.0
 31
0.0
  0
LINE
  5
4490
330
446A
100
AcDbEntity
  8
AM_0 外形線1
100
AcDbLine
 10
-91.96067399999993
 20
52.0
 30
0.0
 11
-100.2
 21
52.0
 31
0.0
  0
ARC
  5
4491
330
446A
100
AcDbEntity
  8
AM_3 隠れ線
100
AcDbCircle
 10
-92.5
 20
53.0
 30
0.0
 40
1.0
100
AcDbArc
 50
180.0
 51
270.0
  0
LINE
  5
4492
330
446A
100
AcDbEntity
  8
AM_3 隠れ線
100
AcDbLine
 10
-93.49999999999999
 20
57.0
 30
0.0
 11
-93.49999999999999
 21
53.0
 31
0.0
  0
ARC
  5
4493
330
446A
100
AcDbEntity
  8
AM_3 隠れ線
100
AcDbCircle
 10
-92.5
 20
57.0
 30
0.0
 40
1.0
100
AcDbArc
 50
90.0
 51
180.0
  0
ARC
  5
4494
330
446A
100
AcDbEntity
  8
AM_0 外形線1
100
AcDbCircle
 10
-88.9499999999998
 20
60.89999999999998
 30
0.0
 40
0.5
100
AcDbArc
 50
180.0
 51
270.0
  0
LINE
  5
4495
330
446A
100
AcDbEntity
  8
AM_0 外形線1
100
AcDbLine
 10
-84.0
 20
60.39999999999999
 30
0.0
 11
-84.0
 21
58.0
 31
0.0
  0
LINE
  5
4496
330
446A
100
AcDbEntity
  8
AM_0 外形線1
100
AcDbLine
 10
-82.5
 20
71.60000000000002
 30
0.0
 11
-88.9499999999998
 21
71.60000000000002
 31
0.0
  0
LINE
  5
4497
330
446A
100
AcDbEntity
  8
AM_0 外形線1
100
AcDbLine
 10
-96.0
 20
74.0
 30
0.0
 11
-82.5
 21
74.0
 31
0.0
  0
ARC
  5
4498
330
446A
100
AcDbEntity
  8
AM_0 外形線1
100
AcDbCircle
 10
-88.9499999999998
 20
71.10000000000002
 30
0.0
 40
0.5
100
AcDbArc
 50
90.0
 51
180.0
  0
LINE
  5
4499
330
446A
100
AcDbEntity
  8
AM_0 外形線1
100
AcDbLine
 10
-84.0
 20
74.0
 30
0.0
 11
-84.0
 21
71.60000000000002
 31
0.0
  0
LINE
  5
449A
330
446A
100
AcDbEntity
  8
AM_0 外形線1
100
AcDbLine
 10
125.0
 20
1.0
 30
0.0
 11
125.0
 21
14.0
 31
0.0
  0
LINE
  5
449B
330
446A
100
AcDbEntity
  8
AM_0 外形線1
100
AcDbLine
 10
124.0
 20
0.0
 30
0.0
 11
125.0
 21
1.0
 31
0.0
  0
LINE
  5
449C
330
446A
100
AcDbEntity
  8
AM_0 外形線1
100
AcDbLine
 10
96.0
 20
74.0
 30
0.0
 11
0.0
 21
74.0
 31
0.0
  0
LINE
  5
449D
330
446A
100
AcDbEntity
  8
AM_0 外形線1
100
AcDbLine
 10
124.0
 20
15.0
 30
0.0
 11
0.0
 21
15.0
 31
0.0
  0
LINE
  5
449E
330
446A
100
AcDbEntity
  8
AM_0 外形線1
100
AcDbLine
 10
100.0
 20
19.0
 30
0.0
 11
100.0
 21
70.0
 31
0.0
  0
ARC
  5
449F
330
446A
100
AcDbEntity
  8
AM_0 外形線1
100
AcDbCircle
 10
104.0
 20
19.0
 30
0.0
 40
4.0
100
AcDbArc
 50
180.0
 51
270.0
  0
LINE
  5
44A0
330
446A
100
AcDbEntity
  8
AM_0 外形線1
100
AcDbLine
 10
125.0
 20
14.0
 30
0.0
 11
124.0
 21
15.0
 31
0.0
  0
ARC
  5
44A1
330
446A
100
AcDbEntity
  8
AM_0 外形線1
100
AcDbCircle
 10
96.0
 20
70.0
 30
0.0
 40
4.0
100
AcDbArc
 50
0.0
 51
90.0
  0
LINE
  5
44A2
330
446A
100
AcDbEntity
  8
AM_0 外形線1
100
AcDbLine
 10
-99.1999999999998
 20
58.0
 30
0.0
 11
-99.1999999999998
 21
62.0
 31
0.0
  0
INSERT
  5
44A3
330
446A
100
AcDbEntity
  8
AM_0 外形線1
100
AcDbBlockReference
  2
ジュウジマルコネジ
 10
-100.1999999999998
 20
55.0
 30
0.0
  0
LINE
  5
451A
330
446A
100
AcDbEntity
  8
AM_0 外形線1
100
AcDbLine
 10
124.0
 20
0.0
 30
0.0
 11
0.0
 21
0.0
 31
0.0
  0
LINE
  5
451B
330
446A
100
AcDbEntity
  8
AM_0 外形線1
100
AcDbLine
 10
-98.0
 20
0.5
 30
0.0
 11
-98.0
 21
5.0
 31
0.0
  0
LINE
  5
451C
330
446A
100
AcDbEntity
  8
AM_0 外形線1
100
AcDbLine
 10
-98.0
 20
5.0
 30
0.0
 11
-93.49999999999999
 21
5.0
 31
0.0
  0
ENDBLK
  5
446C
330
446A
100
AcDbEntity
  8
0
100
AcDbBlockEnd
  0
BLOCK
  5
4551
330
4550
100
AcDbEntity
  8
0
100
AcDbBlockBegin
  2
センタB SMVH250
 70
     0
 10
0.0
 20
0.0
 30
0.0
  3
センタB SMVH250
  1

  0
LINE
  5
4553
330
4550
100
AcDbEntity
  8
AM_0 外形線1
100
AcDbLine
 10
-81.0
 20
0.0
 30
0.0
 11
0.0
 21
0.0
 31
0.0
  0
LINE
  5
4554
330
4550
100
AcDbEntity
  8
AM_0 外形線1
100
AcDbLine
 10
77.70000000000027
 20
125.0
 30
0.0
 11
-77.6999999999998
 21
125.0
 31
0.0
  0
LINE
  5
4555
330
4550
100
AcDbEntity
  8
AM_0 外形線1
100
AcDbLine
 10
-82.5
 20
79.0
 30
0.0
 11
-82.5
 21
48.5
 31
0.0
  0
ARC
  5
4557
330
4550
100
AcDbEntity
  8
AM_0 外形線1
100
AcDbCircle
 10
0.0
 20
33.0
 30
0.0
 40
92.87499999999999
100
AcDbArc
 50
171.3301729999994
 51
186.1811110000002
  0
LINE
  5
4559
330
4550
100
AcDbEntity
  8
AM_0 外形線1
100
AcDbLine
 10
-82.0
 20
21.5
 30
0.0
 11
-82.0
 21
1.0
 31
0.0
  0
LINE
  5
455A
330
4550
100
AcDbEntity
  8
AM_0 外形線1
100
AcDbLine
 10
-82.0
 20
1.0
 30
0.0
 11
-81.0
 21
0.0
 31
0.0
  0
LINE
  5
455B
330
4550
100
AcDbEntity
  8
AM_7 中心線
100
AcDbLine
 10
-96.33405899999978
 20
33.0
 30
0.0
 11
-83.25211399999989
 21
33.0
 31
0.0
  0
LINE
  5
455C
330
4550
100
AcDbEntity
  8
AM_0 外形線1
100
AcDbLine
 10
-91.22128599999996
 20
22.0
 30
0.0
 11
-82.5
 21
22.0
 31
0.0
  0
LINE
  5
455D
330
4550
100
AcDbEntity
  8
AM_0 外形線1
100
AcDbLine
 10
-92.33507199999984
 20
23.0
 30
0.0
 11
-91.22128599999996
 21
22.0
 31
0.0
  0
ARC
  5
455E
330
4550
100
AcDbEntity
  8
AM_0 外形線1
100
AcDbCircle
 10
-82.5
 20
21.5
 30
0.0
 40
0.5
100
AcDbArc
 50
0.0
 51
90.0
  0
LINE
  5
455F
330
4550
100
AcDbEntity
  8
AM_0 外形線1
100
AcDbLine
 10
-83.0
 20
48.0
 30
0.0
 11
-90.65569099999995
 21
48.0
 31
0.0
  0
LINE
  5
4560
330
4550
100
AcDbEntity
  8
AM_0 外形線1
100
AcDbLine
 10
-90.65569099999995
 20
48.0
 30
0.0
 11
-91.81375499999969
 21
47.0
 31
0.0
  0
ARC
  5
4561
330
4550
100
AcDbEntity
  8
AM_0 外形線1
100
AcDbCircle
 10
-83.0
 20
48.5
 30
0.0
 40
0.5
100
AcDbArc
 50
270.0
 51
0.0
  0
LINE
  5
4562
330
4550
100
AcDbEntity
  8
AM_0 外形線1
100
AcDbLine
 10
-81.6999999999998
 20
121.0
 30
0.0
 11
-81.6999999999998
 21
81.0
 31
0.0
  0
LINE
  5
4563
330
4550
100
AcDbEntity
  8
AM_0 外形線1
100
AcDbLine
 10
-81.6999999999998
 20
81.0
 30
0.0
 11
-82.5
 21
79.0
 31
0.0
  0
ARC
  5
4564
330
4550
100
AcDbEntity
  8
AM_0 外形線1
100
AcDbCircle
 10
-77.6999999999998
 20
121.0
 30
0.0
 40
4.0
100
AcDbArc
 50
90.0
 51
180.0
  0
LINE
  5
4565
330
4550
100
AcDbEntity
  8
AM_0 外形線1
100
AcDbLine
 10
82.5
 20
79.0
 30
0.0
 11
0.0
 21
79.0
 31
0.0
  0
LINE
  5
4566
330
4550
100
AcDbEntity
  8
AM_0 外形線1
100
AcDbLine
 10
81.70000000000028
 20
81.0
 30
0.0
 11
0.0
 21
81.0
 31
0.0
  0
LINE
  5
4567
330
4550
100
AcDbEntity
  8
AM_3 隠れ線
100
AcDbLine
 10
-4.25
 20
0.0
 30
0.0
 11
-4.25
 21
29.0
 31
0.0
  0
LINE
  5
4568
330
4550
100
AcDbEntity
  8
AM_3 隠れ線
100
AcDbLine
 10
-5.0
 20
0.0
 30
0.0
 11
-5.0
 21
24.0
 31
0.0
  0
LINE
  5
4569
330
4550
100
AcDbEntity
  8
AM_3 隠れ線
100
AcDbLine
 10
-4.25
 20
29.0
 30
0.0
 11
0.0
 21
31.45373900000004
 31
0.0
  0
LINE
  5
456A
330
4550
100
AcDbEntity
  8
AM_3 隠れ線
100
AcDbLine
 10
-4.25
 20
29.0
 30
0.0
 11
0.0
 21
29.0
 31
0.0
  0
LINE
  5
456B
330
4550
100
AcDbEntity
  8
AM_3 隠れ線
100
AcDbLine
 10
-5.0
 20
24.0
 30
0.0
 11
-4.25
 21
24.0
 31
0.0
  0
LINE
  5
456C
330
4550
100
AcDbEntity
  8
AM_3 隠れ線
100
AcDbLine
 10
-5.0
 20
24.0
 30
0.0
 11
-4.25
 21
24.43301300000007
 31
0.0
  0
LINE
  5
456D
330
4550
100
AcDbEntity
  8
AM_3 隠れ線
100
AcDbLine
 10
-4.25
 20
24.43301300000007
 30
0.0
 11
0.0
 21
24.43301300000007
 31
0.0
  0
LINE
  5
456E
330
4550
100
AcDbEntity
  8
AM_3 隠れ線
100
AcDbLine
 10
-4.25
 20
24.0
 30
0.0
 11
0.0
 21
24.0
 31
0.0
  0
LINE
  5
456F
330
4550
100
AcDbEntity
  8
AM_0 外形線1
100
AcDbLine
 10
82.5
 20
68.0
 30
0.0
 11
82.5
 21
79.0
 31
0.0
  0
LINE
  5
4570
330
4550
100
AcDbEntity
  8
AM_0 外形線1
100
AcDbLine
 10
81.70000000000028
 20
81.0
 30
0.0
 11
81.70000000000028
 21
121.0
 31
0.0
  0
LINE
  5
4571
330
4550
100
AcDbEntity
  8
AM_0 外形線1
100
AcDbLine
 10
82.5
 20
79.0
 30
0.0
 11
81.70000000000028
 21
81.0
 31
0.0
  0
ARC
  5
4572
330
4550
100
AcDbEntity
  8
AM_0 外形線1
100
AcDbCircle
 10
77.70000000000027
 20
121.0
 30
0.0
 40
4.0
100
AcDbArc
 50
0.0
 51
90.0
  0
LINE
  5
4573
330
4550
100
AcDbEntity
  8
AM_0 外形線1
100
AcDbLine
 10
-35.85038354048676
 20
125.0
 30
0.0
 11
-35.85038354048676
 21
0.0
 31
0.0
  0
ARC
  5
5895
330
4550
100
AcDbEntity
  8
AM_0 外形線1
100
AcDbCircle
 10
0.0
 20
33.0
 30
0.0
 40
86.69999999999992
100
AcDbArc
 50
170.0371046988222
 51
187.2890059452128
  0
ARC
  5
5896
330
4550
100
AcDbEntity
  8
AM_7 中心線
100
AcDbCircle
 10
0.0
 20
33.0
 30
0.0
 40
90.0
100
AcDbArc
 50
169.1390967807754
 51
188.3356643338418
  0
ENDBLK
  5
4552
330
4550
100
AcDbEntity
  8
0
100
AcDbBlockEnd
  0
BLOCK
  5
461A
330
4619
100
AcDbEntity
  8
0
100
AcDbBlockBegin
  2
リーマボルト SMVH250 M10
 70
     0
 10
0.0
 20
0.0
 30
0.0
  3
リーマボルト SMVH250 M10
  1

  0
LINE
  5
461C
330
4619
100
AcDbEntity
  8
AM_0 外形線1
100
AcDbLine
 10
-4.907476999999744
 20
0.0
 30
0.0
 11
-4.907476999999744
 21
-6.249444000000039
 31
0.0
  0
LINE
  5
461D
330
4619
100
AcDbEntity
  8
AM_0 外形線1
100
AcDbLine
 10
-9.799999999999727
 20
-6.249444000000039
 30
0.0
 11
-9.799999999999727
 21
0.0
 31
0.0
  0
LINE
  5
461E
330
4619
100
AcDbEntity
  8
AM_0 外形線1
100
AcDbLine
 10
4.907477000000199
 20
0.0
 30
0.0
 11
4.907477000000199
 21
-6.249444000000039
 31
0.0
  0
LINE
  5
461F
330
4619
100
AcDbEntity
  8
AM_0 外形線1
100
AcDbLine
 10
9.80000000000018
 20
0.0
 30
0.0
 11
9.80000000000018
 21
-6.249444000000039
 31
0.0
  0
ARC
  5
4620
330
4619
100
AcDbEntity
  8
AM_0 外形線1
100
AcDbCircle
 10
0.0
 20
9.418953999999985
 30
0.0
 40
16.418953
100
AcDbArc
 50
252.6089940000013
 51
287.3910059999987
  0
LINE
  5
4621
330
4619
100
AcDbEntity
  8
AM_0 外形線1
100
AcDbLine
 10
8.5
 20
-7.0
 30
0.0
 11
-8.5
 21
-7.0
 31
0.0
  0
ARC
  5
4622
330
4619
100
AcDbEntity
  8
AM_0 外形線1
100
AcDbCircle
 10
-7.353738999999678
 20
-2.638211000000011
 30
0.0
 40
4.361788999999999
100
AcDbArc
 50
235.8861589999972
 51
304.1138410000028
  0
LINE
  5
4623
330
4619
100
AcDbEntity
  8
AM_0 外形線1
100
AcDbLine
 10
-8.5
 20
-7.0
 30
0.0
 11
-9.799999999999727
 21
-6.249444000000039
 31
0.0
  0
ARC
  5
4624
330
4619
100
AcDbEntity
  8
AM_0 外形線1
100
AcDbCircle
 10
7.353739000000132
 20
-2.638211000000011
 30
0.0
 40
4.361788999999999
100
AcDbArc
 50
235.8861589999972
 51
304.1138410000028
  0
LINE
  5
4625
330
4619
100
AcDbEntity
  8
AM_0 外形線1
100
AcDbLine
 10
9.80000000000018
 20
-6.249444000000039
 30
0.0
 11
8.5
 21
-7.0
 31
0.0
  0
LINE
  5
4626
330
4619
100
AcDbEntity
  8
AM_0 外形線1
100
AcDbLine
 10
-4.907476999999744
 20
32.5
 30
0.0
 11
-4.907476999999744
 21
39.74944499999992
 31
0.0
  0
LINE
  5
4627
330
4619
100
AcDbEntity
  8
AM_0 外形線1
100
AcDbLine
 10
-9.799999999999727
 20
39.74944499999992
 30
0.0
 11
-9.799999999999727
 21
32.5
 31
0.0
  0
LINE
  5
4628
330
4619
100
AcDbEntity
  8
AM_0 外形線1
100
AcDbLine
 10
4.907477000000199
 20
32.5
 30
0.0
 11
4.907477000000199
 21
39.74944499999992
 31
0.0
  0
LINE
  5
4629
330
4619
100
AcDbEntity
  8
AM_0 外形線1
100
AcDbLine
 10
9.80000000000018
 20
32.5
 30
0.0
 11
9.80000000000018
 21
39.74944499999992
 31
0.0
  0
LINE
  5
462A
330
4619
100
AcDbEntity
  8
AM_0 外形線1
100
AcDbLine
 10
-9.799999999999727
 20
32.5
 30
0.0
 11
9.80000000000018
 21
32.5
 31
0.0
  0
LINE
  5
462B
330
4619
100
AcDbEntity
  8
AM_0 外形線1
100
AcDbLine
 10
-0.8333330000000387
 20
32.5
 30
0.0
 11
1.666666999999961
 21
30.0
 31
0.0
  0
LINE
  5
462C
330
4619
100
AcDbEntity
  8
AM_0 外形線1
100
AcDbLine
 10
-1.666666999999961
 20
32.5
 30
0.0
 11
0.8333330000000387
 21
30.0
 31
0.0
  0
LINE
  5
462D
330
4619
100
AcDbEntity
  8
AM_0 外形線1
100
AcDbLine
 10
-9.199999999999818
 20
30.0
 30
0.0
 11
-9.199999999999818
 21
32.5
 31
0.0
  0
LINE
  5
462E
330
4619
100
AcDbEntity
  8
AM_0 外形線1
100
AcDbLine
 10
9.200000000000272
 20
32.5
 30
0.0
 11
9.200000000000272
 21
30.0
 31
0.0
  0
LINE
  5
462F
330
4619
100
AcDbEntity
  8
AM_0 外形線1
100
AcDbLine
 10
5.0
 20
44.0
 30
0.0
 11
-5.0
 21
44.0
 31
0.0
  0
LINE
  5
4630
330
4619
100
AcDbEntity
  8
AM_0 外形線1
100
AcDbLine
 10
4.0
 20
45.0
 30
0.0
 11
-4.0
 21
45.0
 31
0.0
  0
ARC
  5
4631
330
4619
100
AcDbEntity
  8
AM_0 外形線1
100
AcDbCircle
 10
0.0
 20
24.0810469999999
 30
0.0
 40
16.418953
100
AcDbArc
 50
72.60899400000133
 51
107.3910059999987
  0
LINE
  5
4632
330
4619
100
AcDbEntity
  8
AM_0 外形線1
100
AcDbLine
 10
8.5
 20
40.49999999999999
 30
0.0
 11
-8.5
 21
40.49999999999999
 31
0.0
  0
LINE
  5
4633
330
4619
100
AcDbEntity
  8
AM_4 細線
100
AcDbLine
 10
-4.25
 20
40.49999999999999
 30
0.0
 11
-4.25
 21
44.75
 31
0.0
  0
LINE
  5
4634
330
4619
100
AcDbEntity
  8
AM_0 外形線1
100
AcDbLine
 10
-5.0
 20
44.0
 30
0.0
 11
-5.0
 21
40.49999999999999
 31
0.0
  0
LINE
  5
4635
330
4619
100
AcDbEntity
  8
AM_0 外形線1
100
AcDbLine
 10
-4.0
 20
45.0
 30
0.0
 11
-5.0
 21
44.0
 31
0.0
  0
ARC
  5
4636
330
4619
100
AcDbEntity
  8
AM_0 外形線1
100
AcDbCircle
 10
-7.353738999999678
 20
36.13821099999996
 30
0.0
 40
4.361788999999999
100
AcDbArc
 50
55.88615899999718
 51
124.1138410000028
  0
LINE
  5
4637
330
4619
100
AcDbEntity
  8
AM_0 外形線1
100
AcDbLine
 10
-8.5
 20
40.49999999999999
 30
0.0
 11
-9.799999999999727
 21
39.74944499999992
 31
0.0
  0
LINE
  5
4638
330
4619
100
AcDbEntity
  8
AM_4 細線
100
AcDbLine
 10
4.25
 20
40.49999999999999
 30
0.0
 11
4.25
 21
44.75
 31
0.0
  0
LINE
  5
4639
330
4619
100
AcDbEntity
  8
AM_0 外形線1
100
AcDbLine
 10
5.0
 20
44.0
 30
0.0
 11
4.0
 21
45.0
 31
0.0
  0
LINE
  5
463A
330
4619
100
AcDbEntity
  8
AM_0 外形線1
100
AcDbLine
 10
5.0
 20
40.49999999999999
 30
0.0
 11
5.0
 21
44.0
 31
0.0
  0
ARC
  5
463B
330
4619
100
AcDbEntity
  8
AM_0 外形線1
100
AcDbCircle
 10
7.353739000000132
 20
36.13821099999996
 30
0.0
 40
4.361788999999999
100
AcDbArc
 50
55.88615899999718
 51
124.1138410000028
  0
LINE
  5
463C
330
4619
100
AcDbEntity
  8
AM_0 外形線1
100
AcDbLine
 10
9.80000000000018
 20
39.74944499999992
 30
0.0
 11
8.5
 21
40.49999999999999
 31
0.0
  0
LINE
  5
4686
330
4619
100
AcDbEntity
  8
AM_0 外形線1
100
AcDbLine
 10
9.200000000000272
 20
30.0
 30
0.0
 11
-9.199999999999818
 21
30.0
 31
0.0
  0
LINE
  5
4687
330
4619
100
AcDbEntity
  8
AM_0 外形線1
100
AcDbLine
 10
-9.799999999999727
 20
0.0
 30
0.0
 11
9.80000000000018
 21
-0.0000000000000568
 31
0.0
  0
ENDBLK
  5
461B
330
4619
100
AcDbEntity
  8
0
100
AcDbBlockEnd
  0
BLOCK
  5
46A6
330
46A5
100
AcDbEntity
  8
0
100
AcDbBlockBegin
  2
スラストプレ－ト SMVH250
 70
     0
 10
0.0
 20
0.0
 30
0.0
  3
スラストプレ－ト SMVH250
  1

  0
LINE
  5
46A8
330
46A5
100
AcDbEntity
  8
AM_0 外形線1
100
AcDbLine
 10
-87.0
 20
11.0
 30
0.0
 11
-98.0
 21
11.0
 31
0.0
  0
LINE
  5
46A9
330
46A5
100
AcDbEntity
  8
AM_0 外形線1
100
AcDbLine
 10
-93.0
 20
6.0
 30
0.0
 11
-98.0
 21
6.0
 31
0.0
  0
LINE
  5
46AA
330
46A5
100
AcDbEntity
  8
AM_0 外形線1
100
AcDbLine
 10
-93.0
 20
6.0
 30
0.0
 11
-93.0
 21
1.0
 31
0.0
  0
LINE
  5
46AB
330
46A5
100
AcDbEntity
  8
AM_0 外形線1
100
AcDbLine
 10
-77.0
 20
1.0
 30
0.0
 11
-93.0
 21
1.0
 31
0.0
  0
LINE
  5
46AC
330
46A5
100
AcDbEntity
  8
AM_0 外形線1
100
AcDbLine
 10
-87.0
 20
11.0
 30
0.0
 11
-87.0
 21
8.0
 31
0.0
  0
LINE
  5
46AD
330
46A5
100
AcDbEntity
  8
AM_0 外形線1
100
AcDbLine
 10
0.0
 20
8.0
 30
0.0
 11
-87.0
 21
8.0
 31
0.0
  0
LINE
  5
46AE
330
46A5
100
AcDbEntity
  8
AM_0 外形線1
100
AcDbLine
 10
-67.0
 20
0.0
 30
0.0
 11
-67.0
 21
1.0
 31
0.0
  0
ARC
  5
46AF
330
46A5
100
AcDbEntity
  8
AM_0 外形線1
100
AcDbCircle
 10
-76.0
 20
1.0
 30
0.0
 40
1.0
100
AcDbArc
 50
180.0
 51
270.0
  0
LINE
  5
46B0
330
46A5
100
AcDbEntity
  8
AM_0 外形線1
100
AcDbLine
 10
0.0
 20
0.9999999999999431
 30
0.0
 11
-67.0
 21
1.0
 31
0.0
  0
LINE
  5
46CA
330
46A5
100
AcDbEntity
  8
AM_0 外形線1
100
AcDbLine
 10
-97.99999999999997
 20
6.0
 30
0.0
 11
-98.0
 21
10.99999999999994
 31
0.0
  0
LINE
  5
46CB
330
46A5
100
AcDbEntity
  8
AM_0 外形線1
100
AcDbLine
 10
-76.0
 20
0.0
 30
0.0
 11
-67.0
 21
0.0
 31
0.0
  0
ENDBLK
  5
46A7
330
46A5
100
AcDbEntity
  8
0
100
AcDbBlockEnd
  0
BLOCK
  5
46F9
330
46F8
100
AcDbEntity
  8
0
100
AcDbBlockBegin
  2
*D14
 70
     1
 10
0.0
 20
0.0
 30
0.0
  3
*D14
  1

  0
LINE
  5
4B3A
330
46F8
100
AcDbEntity
  8
AM_5 寸法線
 62
     3
100
AcDbLine
 10
460.6792059999998
 20
366.4644128805861
 30
0.0
 11
460.6792059999998
 21
257.9644128805862
 31
0.0
  0
LINE
  5
4B3B
330
46F8
100
AcDbEntity
  8
AM_5 寸法線
 62
     3
100
AcDbLine
 10
625.6792059999997
 20
366.4644128805861
 30
0.0
 11
625.6792059999997
 21
257.9644128805862
 31
0.0
  0
LINE
  5
4B3C
330
46F8
100
AcDbEntity
  8
AM_5 寸法線
 62
     3
100
AcDbLine
 10
466.9292059999998
 20
259.5269128805862
 30
0.0
 11
619.4292059999997
 21
259.5269128805862
 31
0.0
  0
INSERT
  5
4B3D
330
46F8
100
AcDbEntity
  8
AM_5 寸法線
 62
     3
100
AcDbBlockReference
  2
_Open30
 10
460.6792059999998
 20
259.5269128805862
 30
0.0
 41
6.25
 42
6.25
 43
6.25
 50
180.0
  0
INSERT
  5
4B3E
330
46F8
100
AcDbEntity
  8
AM_5 寸法線
 62
     3
100
AcDbBlockReference
  2
_Open30
 10
625.6792059999997
 20
259.5269128805862
 30
0.0
 41
6.25
 42
6.25
 43
6.25
  0
MTEXT
  5
4B3F
330
46F8
100
AcDbEntity
  8
AM_5 寸法線
 62
     3
100
AcDbMText
 10
543.1792059999998
 20
267.6519128805862
 30
0.0
 40
8.75
 41
0.0
 46
0.0
 71
     5
 72
     1
  1
%%c165
  7
SEISA
 73
     1
 44
1.0
  0
POINT
  5
4B40
330
46F8
100
AcDbEntity
  8
Defpoints
 62
     0
100
AcDbPoint
 10
460.6792059999998
 20
368.0269128805861
 30
0.0
  0
POINT
  5
4B41
330
46F8
100
AcDbEntity
  8
Defpoints
 62
     0
100
AcDbPoint
 10
625.6792059999997
 20
368.0269128805861
 30
0.0
  0
POINT
  5
4B42
330
46F8
100
AcDbEntity
  8
Defpoints
 62
     0
100
AcDbPoint
 10
625.6792059999997
 20
259.5269128805862
 30
0.0
  0
ENDBLK
  5
46FA
330
46F8
100
AcDbEntity
  8
0
100
AcDbBlockEnd
  0
BLOCK
  5
4876
330
4875
100
AcDbEntity
  8
0
100
AcDbBlockBegin
  2
*D15
 70
     1
 10
0.0
 20
0.0
 30
0.0
  3
*D15
  1

  0
LINE
  5
5216
330
4875
100
AcDbEntity
  8
AM_5 寸法線
 62
     3
100
AcDbLine
 10
668.7417059999997
 20
438.0269128805862
 30
0.0
 11
707.2417060000001
 21
438.0269128805862
 31
0.0
  0
LINE
  5
5217
330
4875
100
AcDbEntity
  8
AM_5 寸法線
 62
     3
100
AcDbLine
 10
668.7417059999997
 20
453.0269128805861
 30
0.0
 11
707.2417060000001
 21
453.0269128805861
 31
0.0
  0
LINE
  5
5218
330
4875
100
AcDbEntity
  8
AM_5 寸法線
 62
     3
100
AcDbLine
 10
705.6792060000001
 20
459.2769128805861
 30
0.0
 11
705.6792060000001
 21
465.5269128805861
 31
0.0
  0
LINE
  5
5219
330
4875
100
AcDbEntity
  8
AM_5 寸法線
 62
     3
100
AcDbLine
 10
705.6792060000001
 20
431.7769128805862
 30
0.0
 11
705.6792060000001
 21
406.4019128805862
 31
0.0
  0
LINE
  5
521A
330
4875
100
AcDbEntity
  8
AM_5 寸法線
 62
     3
100
AcDbLine
 10
705.6792060000001
 20
453.0269128805861
 30
0.0
 11
705.6792060000001
 21
438.0269128805862
 31
0.0
  0
INSERT
  5
521B
330
4875
100
AcDbEntity
  8
AM_5 寸法線
 62
     3
100
AcDbBlockReference
  2
GENDOT
 10
705.6792060000001
 20
453.0269128805861
 30
0.0
 41
6.25
 42
6.25
 43
6.25
 50
270.0
  0
INSERT
  5
521C
330
4875
100
AcDbEntity
  8
AM_5 寸法線
 62
     3
100
AcDbBlockReference
  2
_Open30
 10
705.6792060000001
 20
438.0269128805862
 30
0.0
 41
6.25
 42
6.25
 43
6.25
 50
90.0
  0
MTEXT
  5
521D
330
4875
100
AcDbEntity
  8
AM_5 寸法線
 62
     3
100
AcDbMText
 10
697.5542059999999
 20
415.9644128805863
 30
0.0
 40
8.75
 41
0.0
 46
0.0
 71
     5
 72
     1
  1
15
  7
SEISA
 11
0.0000000000000001
 21
1.0
 31
0.0
 73
     1
 44
1.0
  0
POINT
  5
521E
330
4875
100
AcDbEntity
  8
Defpoints
 62
     0
100
AcDbPoint
 10
667.1792059999997
 20
438.0269128805862
 30
0.0
  0
POINT
  5
521F
330
4875
100
AcDbEntity
  8
Defpoints
 62
     0
100
AcDbPoint
 10
667.1792059999997
 20
453.0269128805861
 30
0.0
  0
POINT
  5
5220
330
4875
100
AcDbEntity
  8
Defpoints
 62
     0
100
AcDbPoint
 10
705.6792060000001
 20
453.0269128805861
 30
0.0
  0
ENDBLK
  5
4877
330
4875
100
AcDbEntity
  8
0
100
AcDbBlockEnd
  0
BLOCK
  5
4892
330
4891
100
AcDbEntity
  8
0
100
AcDbBlockBegin
  2
*D16
 70
     1
 10
0.0
 20
0.0
 30
0.0
  3
*D16
  1

  0
LINE
  5
5200
330
4891
100
AcDbEntity
  8
AM_5 寸法線
 62
     3
100
AcDbLine
 10
668.7417059999997
 20
453.0269128805861
 30
0.0
 11
707.2417060000002
 21
453.0269128805861
 31
0.0
  0
LINE
  5
5201
330
4891
100
AcDbEntity
  8
AM_5 寸法線
 62
     3
100
AcDbLine
 10
668.7417059999997
 20
468.0269128805861
 30
0.0
 11
707.2417060000002
 21
468.0269128805861
 31
0.0
  0
LINE
  5
5202
330
4891
100
AcDbEntity
  8
AM_5 寸法線
 62
     3
100
AcDbLine
 10
705.6792060000002
 20
446.7769128805861
 30
0.0
 11
705.6792060000002
 21
440.5269128805861
 31
0.0
  0
LINE
  5
5203
330
4891
100
AcDbEntity
  8
AM_5 寸法線
 62
     3
100
AcDbLine
 10
705.6792060000002
 20
474.2769128805861
 30
0.0
 11
705.6792060000002
 21
499.6519128805862
 31
0.0
  0
LINE
  5
5204
330
4891
100
AcDbEntity
  8
AM_5 寸法線
 62
     3
100
AcDbLine
 10
705.6792060000002
 20
453.0269128805861
 30
0.0
 11
705.6792060000002
 21
468.0269128805861
 31
0.0
  0
INSERT
  5
5205
330
4891
100
AcDbEntity
  8
AM_5 寸法線
 62
     3
100
AcDbBlockReference
  2
GENDOT
 10
705.6792060000002
 20
453.0269128805861
 30
0.0
 41
6.25
 42
6.25
 43
6.25
 50
90.0
  0
INSERT
  5
5206
330
4891
100
AcDbEntity
  8
AM_5 寸法線
 62
     3
100
AcDbBlockReference
  2
_Open30
 10
705.6792060000002
 20
468.0269128805861
 30
0.0
 41
6.25
 42
6.25
 43
6.25
 50
270.0
  0
MTEXT
  5
5207
330
4891
100
AcDbEntity
  8
AM_5 寸法線
 62
     3
100
AcDbMText
 10
697.5542060000001
 20
490.0894128805863
 30
0.0
 40
8.75
 41
0.0
 46
0.0
 71
     5
 72
     1
  1
15
  7
SEISA
 11
0.0000000000000001
 21
1.0
 31
0.0
 73
     1
 44
1.0
  0
POINT
  5
5208
330
4891
100
AcDbEntity
  8
Defpoints
 62
     0
100
AcDbPoint
 10
667.1792059999997
 20
453.0269128805861
 30
0.0
  0
POINT
  5
5209
330
4891
100
AcDbEntity
  8
Defpoints
 62
     0
100
AcDbPoint
 10
667.1792059999997
 20
468.0269128805861
 30
0.0
  0
POINT
  5
520A
330
4891
100
AcDbEntity
  8
Defpoints
 62
     0
100
AcDbPoint
 10
705.6792060000002
 20
468.0269128805861
 30
0.0
  0
ENDBLK
  5
4893
330
4891
100
AcDbEntity
  8
0
100
AcDbBlockEnd
  0
BLOCK
  5
48C4
330
48C3
100
AcDbEntity
  8
0
100
AcDbBlockBegin
  2
*D17
 70
     1
 10
0.0
 20
0.0
 30
0.0
  3
*D17
  1

  0
LINE
  5
5783
330
48C3
100
AcDbEntity
  8
AM_5 寸法線
 62
     3
100
AcDbLine
 10
640.7417059999998
 20
379.0269128805862
 30
0.0
 11
732.2417059999996
 21
379.0269128805862
 31
0.0
  0
LINE
  5
5784
330
48C3
100
AcDbEntity
  8
AM_5 寸法線
 62
     3
100
AcDbLine
 10
640.7417059999998
 20
527.026912880586
 30
0.0
 11
732.2417059999996
 21
527.026912880586
 31
0.0
  0
LINE
  5
5785
330
48C3
100
AcDbEntity
  8
AM_5 寸法線
 62
     3
100
AcDbLine
 10
730.6792059999996
 20
385.2769128805862
 30
0.0
 11
730.6792059999996
 21
520.776912880586
 31
0.0
  0
INSERT
  5
5786
330
48C3
100
AcDbEntity
  8
AM_5 寸法線
 62
     3
100
AcDbBlockReference
  2
_Open30
 10
730.6792059999996
 20
379.0269128805862
 30
0.0
 41
6.25
 42
6.25
 43
6.25
 50
270.0
  0
INSERT
  5
5787
330
48C3
100
AcDbEntity
  8
AM_5 寸法線
 62
     3
100
AcDbBlockReference
  2
_Open30
 10
730.6792059999996
 20
527.026912880586
 30
0.0
 41
6.25
 42
6.25
 43
6.25
 50
90.0
  0
MTEXT
  5
5788
330
48C3
100
AcDbEntity
  8
AM_5 寸法線
 62
     3
100
AcDbMText
 10
722.5542059999996
 20
453.0269128805861
 30
0.0
 40
8.75
 41
0.0
 46
0.0
 71
     5
 72
     1
  1
148
  7
SEISA
 11
0.0000000000000001
 21
1.0
 31
0.0
 73
     1
 44
1.0
  0
POINT
  5
5789
330
48C3
100
AcDbEntity
  8
Defpoints
 62
     0
100
AcDbPoint
 10
639.1792059999998
 20
379.0269128805862
 30
0.0
  0
POINT
  5
578A
330
48C3
100
AcDbEntity
  8
Defpoints
 62
     0
100
AcDbPoint
 10
639.1792059999998
 20
527.026912880586
 30
0.0
  0
POINT
  5
578B
330
48C3
100
AcDbEntity
  8
Defpoints
 62
     0
100
AcDbPoint
 10
730.6792059999996
 20
527.026912880586
 30
0.0
  0
ENDBLK
  5
48C5
330
48C3
100
AcDbEntity
  8
0
100
AcDbBlockEnd
  0
BLOCK
  5
49B1
330
49B0
100
AcDbEntity
  8
0
100
AcDbBlockBegin
  2
*D18
 70
     1
 10
0.0
 20
0.0
 30
0.0
  3
*D18
  1

  0
LINE
  5
4BA5
330
49B0
100
AcDbEntity
  8
AM_5 寸法線
 62
     3
100
AcDbLine
 10
622.4417059999999
 20
322.0269128805862
 30
0.0
 11
757.2417059999996
 21
322.0269128805862
 31
0.0
  0
LINE
  5
4BA6
330
49B0
100
AcDbEntity
  8
AM_5 寸法線
 62
     3
100
AcDbLine
 10
622.4417059999999
 20
584.0269128805861
 30
0.0
 11
757.2417059999996
 21
584.0269128805861
 31
0.0
  0
LINE
  5
4BA7
330
49B0
100
AcDbEntity
  8
AM_5 寸法線
 62
     3
100
AcDbLine
 10
755.6792059999996
 20
328.2769128805862
 30
0.0
 11
755.6792059999996
 21
577.7769128805861
 31
0.0
  0
INSERT
  5
4BA8
330
49B0
100
AcDbEntity
  8
AM_5 寸法線
 62
     3
100
AcDbBlockReference
  2
_Open30
 10
755.6792059999996
 20
322.0269128805862
 30
0.0
 41
6.25
 42
6.25
 43
6.25
 50
270.0
  0
INSERT
  5
4BA9
330
49B0
100
AcDbEntity
  8
AM_5 寸法線
 62
     3
100
AcDbBlockReference
  2
_Open30
 10
755.6792059999996
 20
584.0269128805861
 30
0.0
 41
6.25
 42
6.25
 43
6.25
 50
90.0
  0
MTEXT
  5
4BAA
330
49B0
100
AcDbEntity
  8
AM_5 寸法線
 62
     3
100
AcDbMText
 10
747.5542059999996
 20
453.0269128805861
 30
0.0
 40
8.75
 41
0.0
 46
0.0
 71
     5
 72
     1
  1
262
  7
SEISA
 11
0.0000000000000001
 21
1.0
 31
0.0
 73
     1
 44
1.0
  0
POINT
  5
4BAB
330
49B0
100
AcDbEntity
  8
Defpoints
 62
     0
100
AcDbPoint
 10
620.8792059999999
 20
322.0269128805862
 30
0.0
  0
POINT
  5
4BAC
330
49B0
100
AcDbEntity
  8
Defpoints
 62
     0
100
AcDbPoint
 10
620.8792059999999
 20
584.0269128805861
 30
0.0
  0
POINT
  5
4BAD
330
49B0
100
AcDbEntity
  8
Defpoints
 62
     0
100
AcDbPoint
 10
755.6792059999996
 20
584.0269128805861
 30
0.0
  0
ENDBLK
  5
49B2
330
49B0
100
AcDbEntity
  8
0
100
AcDbBlockEnd
  0
BLOCK
  5
4A7F
330
4A7E
100
AcDbEntity
  8
0
100
AcDbBlockBegin
  2
*D19
 70
     1
 10
0.0
 20
0.0
 30
0.0
  3
*D19
  1

  0
LINE
  5
4BAE
330
4A7E
100
AcDbEntity
  8
AM_5 寸法線
 62
     3
100
AcDbLine
 10
418.1792059999996
 20
468.5894128805862
 30
0.0
 11
418.1792059999996
 21
698.0894128805862
 31
0.0
  0
LINE
  5
4BAF
330
4A7E
100
AcDbEntity
  8
AM_5 寸法線
 62
     3
100
AcDbLine
 10
668.1792059999998
 20
468.5894128805862
 30
0.0
 11
668.1792059999998
 21
698.0894128805862
 31
0.0
  0
LINE
  5
4BB0
330
4A7E
100
AcDbEntity
  8
AM_5 寸法線
 62
     3
100
AcDbLine
 10
424.4292059999996
 20
696.5269128805862
 30
0.0
 11
661.9292059999998
 21
696.5269128805862
 31
0.0
  0
INSERT
  5
4BB1
330
4A7E
100
AcDbEntity
  8
AM_5 寸法線
 62
     3
100
AcDbBlockReference
  2
_Open30
 10
418.1792059999996
 20
696.5269128805862
 30
0.0
 41
6.25
 42
6.25
 43
6.25
 50
180.0
  0
INSERT
  5
4BB2
330
4A7E
100
AcDbEntity
  8
AM_5 寸法線
 62
     3
100
AcDbBlockReference
  2
_Open30
 10
668.1792059999998
 20
696.5269128805862
 30
0.0
 41
6.25
 42
6.25
 43
6.25
  0
MTEXT
  5
4BB3
330
4A7E
100
AcDbEntity
  8
AM_5 寸法線
 62
     3
100
AcDbMText
 10
543.1792059999998
 20
704.6519128805861
 30
0.0
 40
8.75
 41
0.0
 46
0.0
 71
     5
 72
     1
  1
%%c250
  7
SEISA
 73
     1
 44
1.0
  0
POINT
  5
4BB4
330
4A7E
100
AcDbEntity
  8
Defpoints
 62
     0
100
AcDbPoint
 10
418.1792059999996
 20
467.0269128805862
 30
0.0
  0
POINT
  5
4BB5
330
4A7E
100
AcDbEntity
  8
Defpoints
 62
     0
100
AcDbPoint
 10
668.1792059999998
 20
467.0269128805862
 30
0.0
  0
POINT
  5
4BB6
330
4A7E
100
AcDbEntity
  8
Defpoints
 62
     0
100
AcDbPoint
 10
668.1792059999998
 20
696.5269128805862
 30
0.0
  0
ENDBLK
  5
4A80
330
4A7E
100
AcDbEntity
  8
0
100
AcDbBlockEnd
  0
BLOCK
  5
4A97
330
4A96
100
AcDbEntity
  8
0
100
AcDbBlockBegin
  2
*D20
 70
     1
 10
0.0
 20
0.0
 30
0.0
  3
*D20
  1

  0
LINE
  5
4BB7
330
4A96
100
AcDbEntity
  8
AM_5 寸法線
 62
     3
100
AcDbLine
 10
443.1792059999998
 20
524.589412880586
 30
0.0
 11
443.1792059999998
 21
673.0894128805862
 31
0.0
  0
LINE
  5
4BB8
330
4A96
100
AcDbEntity
  8
AM_5 寸法線
 62
     3
100
AcDbLine
 10
643.1792059999998
 20
524.589412880586
 30
0.0
 11
643.1792059999998
 21
673.0894128805862
 31
0.0
  0
LINE
  5
4BB9
330
4A96
100
AcDbEntity
  8
AM_5 寸法線
 62
     3
100
AcDbLine
 10
449.4292059999998
 20
671.5269128805862
 30
0.0
 11
636.9292059999998
 21
671.5269128805862
 31
0.0
  0
INSERT
  5
4BBA
330
4A96
100
AcDbEntity
  8
AM_5 寸法線
 62
     3
100
AcDbBlockReference
  2
_Open30
 10
443.1792059999998
 20
671.5269128805862
 30
0.0
 41
6.25
 42
6.25
 43
6.25
 50
180.0
  0
INSERT
  5
4BBB
330
4A96
100
AcDbEntity
  8
AM_5 寸法線
 62
     3
100
AcDbBlockReference
  2
_Open30
 10
643.1792059999998
 20
671.5269128805862
 30
0.0
 41
6.25
 42
6.25
 43
6.25
  0
MTEXT
  5
4BBC
330
4A96
100
AcDbEntity
  8
AM_5 寸法線
 62
     3
100
AcDbMText
 10
543.1792059999998
 20
679.6519128805861
 30
0.0
 40
8.75
 41
0.0
 46
0.0
 71
     5
 72
     1
  1
%%c200
  7
SEISA
 73
     1
 44
1.0
  0
POINT
  5
4BBD
330
4A96
100
AcDbEntity
  8
Defpoints
 62
     0
100
AcDbPoint
 10
443.1792059999998
 20
523.026912880586
 30
0.0
  0
POINT
  5
4BBE
330
4A96
100
AcDbEntity
  8
Defpoints
 62
     0
100
AcDbPoint
 10
643.1792059999998
 20
523.026912880586
 30
0.0
  0
POINT
  5
4BBF
330
4A96
100
AcDbEntity
  8
Defpoints
 62
     0
100
AcDbPoint
 10
643.1792059999998
 20
671.5269128805862
 30
0.0
  0
ENDBLK
  5
4A98
330
4A96
100
AcDbEntity
  8
0
100
AcDbBlockEnd
  0
BLOCK
  5
4AAF
330
4AAE
100
AcDbEntity
  8
0
100
AcDbBlockBegin
  2
*D21
 70
     1
 10
0.0
 20
0.0
 30
0.0
  3
*D21
  1

  0
LINE
  5
4BC0
330
4AAE
100
AcDbEntity
  8
AM_5 寸法線
 62
     3
100
AcDbLine
 10
460.6792059999998
 20
539.5894128805861
 30
0.0
 11
460.6792059999998
 21
648.0894128805862
 31
0.0
  0
LINE
  5
4BC1
330
4AAE
100
AcDbEntity
  8
AM_5 寸法線
 62
     3
100
AcDbLine
 10
625.6792059999997
 20
539.5894128805861
 30
0.0
 11
625.6792059999997
 21
648.0894128805862
 31
0.0
  0
LINE
  5
4BC2
330
4AAE
100
AcDbEntity
  8
AM_5 寸法線
 62
     3
100
AcDbLine
 10
466.9292059999998
 20
646.5269128805862
 30
0.0
 11
619.4292059999997
 21
646.5269128805862
 31
0.0
  0
INSERT
  5
4BC3
330
4AAE
100
AcDbEntity
  8
AM_5 寸法線
 62
     3
100
AcDbBlockReference
  2
_Open30
 10
460.6792059999998
 20
646.5269128805862
 30
0.0
 41
6.25
 42
6.25
 43
6.25
 50
180.0
  0
INSERT
  5
4BC4
330
4AAE
100
AcDbEntity
  8
AM_5 寸法線
 62
     3
100
AcDbBlockReference
  2
_Open30
 10
625.6792059999997
 20
646.5269128805862
 30
0.0
 41
6.25
 42
6.25
 43
6.25
  0
MTEXT
  5
4BC5
330
4AAE
100
AcDbEntity
  8
AM_5 寸法線
 62
     3
100
AcDbMText
 10
543.1792059999998
 20
654.6519128805861
 30
0.0
 40
8.75
 41
0.0
 46
0.0
 71
     5
 72
     1
  1
%%c165
  7
SEISA
 73
     1
 44
1.0
  0
POINT
  5
4BC6
330
4AAE
100
AcDbEntity
  8
Defpoints
 62
     0
100
AcDbPoint
 10
460.6792059999998
 20
538.0269128805861
 30
0.0
  0
POINT
  5
4BC7
330
4AAE
100
AcDbEntity
  8
Defpoints
 62
     0
100
AcDbPoint
 10
625.6792059999997
 20
538.0269128805861
 30
0.0
  0
POINT
  5
4BC8
330
4AAE
100
AcDbEntity
  8
Defpoints
 62
     0
100
AcDbPoint
 10
625.6792059999997
 20
646.5269128805862
 30
0.0
  0
ENDBLK
  5
4AB0
330
4AAE
100
AcDbEntity
  8
0
100
AcDbBlockEnd
  0
BLOCK
  5
4C15
330
4C14
100
AcDbEntity
  8
0
100
AcDbBlockBegin
  2
*D22
 70
     1
 10
0.0
 20
0.0
 30
0.0
  3
*D22
  1

  0
LINE
  5
4C21
330
4C14
100
AcDbEntity
  8
AM_5 寸法線
 62
     3
100
AcDbLine
 10
541.6167059999999
 20
322.0269128805862
 30
0.0
 11
528.9938852722362
 21
322.0269128805862
 31
0.0
  0
LINE
  5
4C22
330
4C14
100
AcDbEntity
  8
AM_5 寸法線
 62
     3
100
AcDbLine
 10
541.6167059999999
 20
447.0269128805862
 30
0.0
 11
528.9938852722362
 21
447.0269128805862
 31
0.0
  0
LINE
  5
4C23
330
4C14
100
AcDbEntity
  8
AM_5 寸法線
 62
     3
100
AcDbLine
 10
530.5563852722362
 20
328.2769128805862
 30
0.0
 11
530.5563852722362
 21
440.7769128805862
 31
0.0
  0
INSERT
  5
4C24
330
4C14
100
AcDbEntity
  8
AM_5 寸法線
 62
     3
100
AcDbBlockReference
  2
_Open30
 10
530.5563852722362
 20
322.0269128805862
 30
0.0
 41
6.25
 42
6.25
 43
6.25
 50
270.0
  0
INSERT
  5
4C25
330
4C14
100
AcDbEntity
  8
AM_5 寸法線
 62
     3
100
AcDbBlockReference
  2
_Open30
 10
530.5563852722362
 20
447.0269128805862
 30
0.0
 41
6.25
 42
6.25
 43
6.25
 50
90.0
  0
MTEXT
  5
4C26
330
4C14
100
AcDbEntity
  8
AM_5 寸法線
 62
     3
100
AcDbMText
 10
522.431385272236
 20
384.5269128805863
 30
0.0
 40
8.75
 41
0.0
 46
0.0
 71
     5
 72
     1
  1
125
  7
SEISA
 11
0.0000000000000001
 21
1.0
 31
0.0
 73
     1
 44
1.0
  0
POINT
  5
4C27
330
4C14
100
AcDbEntity
  8
Defpoints
 62
     0
100
AcDbPoint
 10
543.1792059999999
 20
322.0269128805862
 30
0.0
  0
POINT
  5
4C28
330
4C14
100
AcDbEntity
  8
Defpoints
 62
     0
100
AcDbPoint
 10
543.1792059999999
 20
447.0269128805862
 30
0.0
  0
POINT
  5
4C29
330
4C14
100
AcDbEntity
  8
Defpoints
 62
     0
100
AcDbPoint
 10
530.5563852722362
 20
447.0269128805862
 30
0.0
  0
ENDBLK
  5
4C16
330
4C14
100
AcDbEntity
  8
0
100
AcDbBlockEnd
  0
BLOCK
  5
4C2D
330
4C2C
100
AcDbEntity
  8
0
100
AcDbBlockBegin
  2
*D23
 70
     1
 10
0.0
 20
0.0
 30
0.0
  3
*D23
  1

  0
LINE
  5
59FC
330
4C2C
100
AcDbEntity
  8
AM_5 寸法線
 62
     3
100
AcDbLine
 10
477.7417059999996
 20
447.0269128805862
 30
0.0
 11
532.1188852722362
 21
447.0269128805862
 31
0.0
  0
LINE
  5
59FD
330
4C2C
100
AcDbEntity
  8
AM_5 寸法線
 62
     3
100
AcDbLine
 10
541.6167059999998
 20
459.0269128805862
 30
0.0
 11
528.9938852722362
 21
459.0269128805862
 31
0.0
  0
LINE
  5
59FE
330
4C2C
100
AcDbEntity
  8
AM_5 寸法線
 62
     3
100
AcDbLine
 10
530.5563852722362
 20
440.7769128805862
 30
0.0
 11
530.5563852722362
 21
434.5269128805862
 31
0.0
  0
LINE
  5
59FF
330
4C2C
100
AcDbEntity
  8
AM_5 寸法線
 62
     3
100
AcDbLine
 10
530.5563852722362
 20
465.2769128805862
 30
0.0
 11
530.5563852722362
 21
471.5269128805862
 31
0.0
  0
MTEXT
  5
5A00
330
4C2C
100
AcDbEntity
  8
AM_5 寸法線
 62
     3
100
AcDbMText
 10
521.1641390304039
 20
467.8506177212749
 30
0.0
 40
8.75
 41
0.0
 46
0.0
 71
     5
 72
     1
  1
12
  7
SEISA
 11
0.0000000000000001
 21
1.0
 31
0.0
 73
     1
 44
1.0
  0
LINE
  5
5A01
330
4C2C
100
AcDbEntity
  8
AM_5 寸法線
 62
     3
100
AcDbLine
 10
530.5563852722362
 20
447.0269128805862
 30
0.0
 11
530.5563852722362
 21
459.0269128805862
 31
0.0
  0
INSERT
  5
5A02
330
4C2C
100
AcDbEntity
  8
AM_5 寸法線
 62
     3
100
AcDbBlockReference
  2
_Open30
 10
530.5563852722362
 20
447.0269128805862
 30
0.0
 41
6.25
 42
6.25
 43
6.25
 50
90.0
  0
INSERT
  5
5A03
330
4C2C
100
AcDbEntity
  8
AM_5 寸法線
 62
     3
100
AcDbBlockReference
  2
_Open30
 10
530.5563852722362
 20
459.0269128805862
 30
0.0
 41
6.25
 42
6.25
 43
6.25
 50
270.0
  0
POINT
  5
5A04
330
4C2C
100
AcDbEntity
  8
Defpoints
 62
     0
100
AcDbPoint
 10
476.1792059999996
 20
447.0269128805862
 30
0.0
  0
POINT
  5
5A05
330
4C2C
100
AcDbEntity
  8
Defpoints
 62
     0
100
AcDbPoint
 10
543.1792059999998
 20
459.0269128805862
 30
0.0
  0
POINT
  5
5A06
330
4C2C
100
AcDbEntity
  8
Defpoints
 62
     0
100
AcDbPoint
 10
530.5563852722362
 20
459.0269128805862
 30
0.0
  0
ENDBLK
  5
4C2E
330
4C2C
100
AcDbEntity
  8
0
100
AcDbBlockEnd
  0
BLOCK
  5
4C62
330
4C61
100
AcDbEntity
  8
0
100
AcDbBlockBegin
  2
*D24
 70
     1
 10
0.0
 20
0.0
 30
0.0
  3
*D24
  1

  0
LINE
  5
4C6E
330
4C61
100
AcDbEntity
  8
AM_5 寸法線
 62
     3
100
AcDbLine
 10
541.6167059999998
 20
459.0269128805862
 30
0.0
 11
528.9938852722362
 21
459.0269128805862
 31
0.0
  0
LINE
  5
4C6F
330
4C61
100
AcDbEntity
  8
AM_5 寸法線
 62
     3
100
AcDbLine
 10
541.6167059999999
 20
584.0269128805862
 30
0.0
 11
528.9938852722362
 21
584.0269128805862
 31
0.0
  0
LINE
  5
4C70
330
4C61
100
AcDbEntity
  8
AM_5 寸法線
 62
     3
100
AcDbLine
 10
530.5563852722362
 20
465.2769128805862
 30
0.0
 11
530.5563852722362
 21
577.7769128805862
 31
0.0
  0
INSERT
  5
4C71
330
4C61
100
AcDbEntity
  8
AM_5 寸法線
 62
     3
100
AcDbBlockReference
  2
_Open30
 10
530.5563852722362
 20
459.0269128805862
 30
0.0
 41
6.25
 42
6.25
 43
6.25
 50
270.0
  0
INSERT
  5
4C72
330
4C61
100
AcDbEntity
  8
AM_5 寸法線
 62
     3
100
AcDbBlockReference
  2
_Open30
 10
530.5563852722362
 20
584.0269128805862
 30
0.0
 41
6.25
 42
6.25
 43
6.25
 50
90.0
  0
MTEXT
  5
4C73
330
4C61
100
AcDbEntity
  8
AM_5 寸法線
 62
     3
100
AcDbMText
 10
522.431385272236
 20
521.5269128805863
 30
0.0
 40
8.75
 41
0.0
 46
0.0
 71
     5
 72
     1
  1
125
  7
SEISA
 11
0.0000000000000001
 21
1.0
 31
0.0
 73
     1
 44
1.0
  0
POINT
  5
4C74
330
4C61
100
AcDbEntity
  8
Defpoints
 62
     0
100
AcDbPoint
 10
543.1792059999998
 20
459.0269128805862
 30
0.0
  0
POINT
  5
4C75
330
4C61
100
AcDbEntity
  8
Defpoints
 62
     0
100
AcDbPoint
 10
543.1792059999999
 20
584.0269128805862
 30
0.0
  0
POINT
  5
4C76
330
4C61
100
AcDbEntity
  8
Defpoints
 62
     0
100
AcDbPoint
 10
530.5563852722362
 20
584.0269128805862
 30
0.0
  0
ENDBLK
  5
4C63
330
4C61
100
AcDbEntity
  8
0
100
AcDbBlockEnd
  0
BLOCK
  5
4C7A
330
4C79
100
AcDbEntity
  8
0
100
AcDbBlockBegin
  2
*D25
 70
     1
 10
0.0
 20
0.0
 30
0.0
  3
*D25
  1

  0
LINE
  5
4C94
330
4C79
100
AcDbEntity
  8
AM_5 寸法線
 62
     3
100
AcDbLine
 10
462.2417059999998
 20
395.0269128805862
 30
0.0
 11
479.5625000000002
 21
395.0269128805862
 31
0.0
  0
LINE
  5
4C95
330
4C79
100
AcDbEntity
  8
AM_5 寸法線
 62
     3
100
AcDbLine
 10
461.7417059999998
 20
399.0269128805863
 30
0.0
 11
479.5625000000002
 21
399.0269128805863
 31
0.0
  0
LINE
  5
4C96
330
4C79
100
AcDbEntity
  8
AM_5 寸法線
 62
     3
100
AcDbLine
 10
478.0000000000002
 20
405.2769128805861
 30
0.0
 11
478.0000000000002
 21
411.5269128805861
 31
0.0
  0
LINE
  5
4C97
330
4C79
100
AcDbEntity
  8
AM_5 寸法線
 62
     3
100
AcDbLine
 10
478.0000000000002
 20
388.7769128805862
 30
0.0
 11
478.0
 21
369.4019128805862
 31
0.0
  0
LINE
  5
4C98
330
4C79
100
AcDbEntity
  8
AM_5 寸法線
 62
     3
100
AcDbLine
 10
478.0000000000002
 20
399.0269128805863
 30
0.0
 11
478.0000000000002
 21
395.0269128805862
 31
0.0
  0
INSERT
  5
4C99
330
4C79
100
AcDbEntity
  8
AM_5 寸法線
 62
     3
100
AcDbBlockReference
  2
_Open30
 10
478.0000000000002
 20
399.0269128805863
 30
0.0
 41
6.25
 42
6.25
 43
6.25
 50
270.0
  0
INSERT
  5
4C9A
330
4C79
100
AcDbEntity
  8
AM_5 寸法線
 62
     3
100
AcDbBlockReference
  2
_Open30
 10
478.0000000000002
 20
395.0269128805862
 30
0.0
 41
6.25
 42
6.25
 43
6.25
 50
90.0
  0
MTEXT
  5
4C9B
330
4C79
100
AcDbEntity
  8
AM_5 寸法線
 62
     3
100
AcDbMText
 10
469.875
 20
375.9644128805863
 30
0.0
 40
8.75
 41
0.0
 46
0.0
 71
     5
 72
     1
  1
4
  7
SEISA
 11
0.0000000000000001
 21
1.0
 31
0.0
 73
     1
 44
1.0
  0
POINT
  5
4C9C
330
4C79
100
AcDbEntity
  8
Defpoints
 62
     0
100
AcDbPoint
 10
460.6792059999998
 20
395.0269128805862
 30
0.0
  0
POINT
  5
4C9D
102
{ACAD_REACTORS
330
58C4
102
}
330
4C79
100
AcDbEntity
  8
Defpoints
 62
     0
100
AcDbPoint
 10
460.1792059999998
 20
399.0269128805863
 30
0.0
  0
POINT
  5
4C9E
330
4C79
100
AcDbEntity
  8
Defpoints
 62
     0
100
AcDbPoint
 10
478.0000000000002
 20
399.0269128805863
 30
0.0
  0
ENDBLK
  5
4C7B
330
4C79
100
AcDbEntity
  8
0
100
AcDbBlockEnd
  0
BLOCK
  5
5753
330
5752
100
AcDbEntity
  8
0
100
AcDbBlockBegin
  2
*D26
 70
     1
 10
0.0
 20
0.0
 30
0.0
  3
*D26
  1

  0
LINE
  5
5778
330
5752
100
AcDbEntity
  8
AM_5 寸法線
 62
     3
100
AcDbLine
 10
459.1167059999998
 20
321.0269128805862
 30
0.0
 11
421.6167059999998
 21
321.0269128805862
 31
0.0
  0
LINE
  5
5779
330
5752
100
AcDbEntity
  8
AM_5 寸法線
 62
     3
100
AcDbLine
 10
463.916706
 20
322.0269128805862
 30
0.0
 11
421.6167059999998
 21
322.0269128805862
 31
0.0
  0
LINE
  5
577A
330
5752
100
AcDbEntity
  8
AM_5 寸法線
 62
     3
100
AcDbLine
 10
423.1792059999998
 20
314.7769128805862
 30
0.0
 11
423.1792059999998
 21
308.5269128805862
 31
0.0
  0
LINE
  5
577B
330
5752
100
AcDbEntity
  8
AM_5 寸法線
 62
     3
100
AcDbLine
 10
423.1792059999998
 20
328.2769128805862
 30
0.0
 11
423.1792059999998
 21
343.9019128805862
 31
0.0
  0
LINE
  5
577C
330
5752
100
AcDbEntity
  8
AM_5 寸法線
 62
     3
100
AcDbLine
 10
423.1792059999998
 20
321.0269128805862
 30
0.0
 11
423.1792059999998
 21
322.0269128805862
 31
0.0
  0
INSERT
  5
577D
330
5752
100
AcDbEntity
  8
AM_5 寸法線
 62
     3
100
AcDbBlockReference
  2
_Open30
 10
423.1792059999998
 20
321.0269128805862
 30
0.0
 41
6.25
 42
6.25
 43
6.25
 50
90.0
  0
INSERT
  5
577E
330
5752
100
AcDbEntity
  8
AM_5 寸法線
 62
     3
100
AcDbBlockReference
  2
_Open30
 10
423.1792059999998
 20
322.0269128805862
 30
0.0
 41
6.25
 42
6.25
 43
6.25
 50
270.0
  0
MTEXT
  5
577F
330
5752
100
AcDbEntity
  8
AM_5 寸法線
 62
     3
100
AcDbMText
 10
415.0542059999996
 20
339.2144128805863
 30
0.0
 40
8.75
 41
0.0
 46
0.0
 71
     5
 72
     1
  1
1
  7
SEISA
 11
0.0000000000000001
 21
1.0
 31
0.0
 73
     1
 44
1.0
  0
POINT
  5
5780
330
5752
100
AcDbEntity
  8
Defpoints
 62
     0
100
AcDbPoint
 10
460.6792059999998
 20
321.0269128805862
 30
0.0
  0
POINT
  5
5781
330
5752
100
AcDbEntity
  8
Defpoints
 62
     0
100
AcDbPoint
 10
465.479206
 20
322.0269128805862
 30
0.0
  0
POINT
  5
5782
330
5752
100
AcDbEntity
  8
Defpoints
 62
     0
100
AcDbPoint
 10
423.1792059999998
 20
322.0269128805862
 30
0.0
  0
ENDBLK
  5
5754
330
5752
100
AcDbEntity
  8
0
100
AcDbBlockEnd
  0
BLOCK
  5
58B8
330
58B7
100
AcDbEntity
  8
0
100
AcDbBlockBegin
  2
*D27
 70
     1
 10
0.0
 20
0.0
 30
0.0
  3
*D27
  1

  0
LINE
  5
58D7
330
58B7
100
AcDbEntity
  8
AM_5 寸法線
 62
     3
100
AcDbLine
 10
461.7417059999998
 20
399.0269128805863
 30
0.0
 11
479.5625000000002
 21
399.0269128805863
 31
0.0
  0
LINE
  5
58D8
330
58B7
100
AcDbEntity
  8
AM_5 寸法線
 62
     3
100
AcDbLine
 10
461.7417059999998
 20
425.0269128805861
 30
0.0
 11
479.5625000000002
 21
425.0269128805861
 31
0.0
  0
LINE
  5
58D9
330
58B7
100
AcDbEntity
  8
AM_5 寸法線
 62
     3
100
AcDbLine
 10
478.0000000000002
 20
405.2769128805861
 30
0.0
 11
478.0000000000002
 21
418.7769128805861
 31
0.0
  0
INSERT
  5
58DA
330
58B7
100
AcDbEntity
  8
AM_5 寸法線
 62
     3
100
AcDbBlockReference
  2
_Open30
 10
478.0000000000002
 20
399.0269128805863
 30
0.0
 41
6.25
 42
6.25
 43
6.25
 50
270.0
  0
INSERT
  5
58DB
330
58B7
100
AcDbEntity
  8
AM_5 寸法線
 62
     3
100
AcDbBlockReference
  2
_Open30
 10
478.0000000000002
 20
425.0269128805861
 30
0.0
 41
6.25
 42
6.25
 43
6.25
 50
90.0
  0
MTEXT
  5
58DC
330
58B7
100
AcDbEntity
  8
AM_5 寸法線
 62
     3
100
AcDbMText
 10
469.875
 20
412.0269128805863
 30
0.0
 40
8.75
 41
0.0
 46
0.0
 71
     5
 72
     1
  1
26
  7
SEISA
 11
0.0000000000000001
 21
1.0
 31
0.0
 73
     1
 44
1.0
  0
POINT
  5
58DD
330
58B7
100
AcDbEntity
  8
Defpoints
 62
     0
100
AcDbPoint
 10
460.1792059999998
 20
399.0269128805863
 30
0.0
  0
POINT
  5
58DE
330
58B7
100
AcDbEntity
  8
Defpoints
 62
     0
100
AcDbPoint
 10
460.1792059999998
 20
425.0269128805861
 30
0.0
  0
POINT
  5
58DF
330
58B7
100
AcDbEntity
  8
Defpoints
 62
     0
100
AcDbPoint
 10
478.0000000000002
 20
425.0269128805861
 30
0.0
  0
ENDBLK
  5
58B9
330
58B7
100
AcDbEntity
  8
0
100
AcDbBlockEnd
  0
BLOCK
  5
58E2
330
58E1
100
AcDbEntity
  8
0
100
AcDbBlockBegin
  2
*D28
 70
     1
 10
0.0
 20
0.0
 30
0.0
  3
*D28
  1

  0
LINE
  5
590A
330
58E1
100
AcDbEntity
  8
AM_5 寸法線
 62
     3
100
AcDbLine
 10
462.2417059999998
 20
425.0269128805861
 30
0.0
 11
479.5625000000002
 21
425.0269128805861
 31
0.0
  0
LINE
  5
590B
330
58E1
100
AcDbEntity
  8
AM_5 寸法線
 62
     3
100
AcDbLine
 10
463.7417059999997
 20
447.0269128805862
 30
0.0
 11
479.5625000000002
 21
447.0269128805862
 31
0.0
  0
LINE
  5
590C
330
58E1
100
AcDbEntity
  8
AM_5 寸法線
 62
     3
100
AcDbLine
 10
478.0000000000002
 20
431.2769128805861
 30
0.0
 11
478.0000000000002
 21
440.7769128805862
 31
0.0
  0
INSERT
  5
590D
330
58E1
100
AcDbEntity
  8
AM_5 寸法線
 62
     3
100
AcDbBlockReference
  2
_Open30
 10
478.0000000000002
 20
425.0269128805861
 30
0.0
 41
6.25
 42
6.25
 43
6.25
 50
270.0
  0
INSERT
  5
590E
330
58E1
100
AcDbEntity
  8
AM_5 寸法線
 62
     3
100
AcDbBlockReference
  2
_Open30
 10
478.0000000000002
 20
447.0269128805862
 30
0.0
 41
6.25
 42
6.25
 43
6.25
 50
90.0
  0
MTEXT
  5
590F
330
58E1
100
AcDbEntity
  8
AM_5 寸法線
 62
     3
100
AcDbMText
 10
469.875
 20
436.0269128805861
 30
0.0
 40
8.75
 41
0.0
 46
0.0
 71
     5
 72
     1
  1
22
  7
SEISA
 11
0.0000000000000001
 21
1.0
 31
0.0
 73
     1
 44
1.0
  0
POINT
  5
5910
330
58E1
100
AcDbEntity
  8
Defpoints
 62
     0
100
AcDbPoint
 10
460.6792059999998
 20
425.0269128805861
 30
0.0
  0
POINT
  5
5911
330
58E1
100
AcDbEntity
  8
Defpoints
 62
     0
100
AcDbPoint
 10
462.1792059999997
 20
447.0269128805862
 30
0.0
  0
POINT
  5
5912
330
58E1
100
AcDbEntity
  8
Defpoints
 62
     0
100
AcDbPoint
 10
478.0000000000002
 20
447.0269128805862
 30
0.0
  0
ENDBLK
  5
58E3
330
58E1
100
AcDbEntity
  8
0
100
AcDbBlockEnd
  0
BLOCK
  5
5983
330
5982
100
AcDbEntity
  8
0
100
AcDbBlockBegin
  2
ケース
 70
     0
 10
0.0
 20
0.0
 30
0.0
  3
ケース
  1

  0
ARC
  5
5985
330
5982
100
AcDbEntity
  8
AM_11 想像線
 48
0.1
100
AcDbCircle
 10
4.0
 20
-33.30910628770516
 30
0.0
 40
4.0
100
AcDbArc
 50
180.0
 51
270.0
  0
LINE
  5
5986
330
5982
100
AcDbEntity
  8
AM_11 想像線
 48
0.1
100
AcDbLine
 10
0.0
 20
0.0
 30
0.0
 11
0.0
 21
-33.30910628770516
 31
0.0
  0
LINE
  5
5987
330
5982
100
AcDbEntity
  8
AM_11 想像線
 48
0.1
100
AcDbLine
 10
12.40000000000009
 20
0.0
 30
0.0
 11
12.40000000000009
 21
-14.30910628770516
 31
0.0
  0
LINE
  5
5988
330
5982
100
AcDbEntity
  8
AM_11 想像線
 48
0.1
100
AcDbLine
 10
10.0
 20
0.0
 30
0.0
 11
10.0
 21
-16.27017628770517
 31
0.0
  0
LINE
  5
5989
330
5982
100
AcDbEntity
  8
AM_11 想像線
 48
0.1
100
AcDbLine
 10
7.0
 20
0.0
 30
0.0
 11
7.0
 21
-15.44308028770518
 31
0.0
  0
LINE
  5
598A
330
5982
100
AcDbEntity
  8
AM_11 想像線
 48
0.1
100
AcDbLine
 10
6.5
 20
-20.30910628770516
 30
0.0
 11
6.5
 21
-16.30910628770516
 31
0.0
  0
LINE
  5
598B
330
5982
100
AcDbEntity
  8
AM_11 想像線
 48
0.1
100
AcDbLine
 10
17.5
 20
-21.30910628770516
 30
0.0
 11
7.5
 21
-21.30910628770516
 31
0.0
  0
LINE
  5
598C
330
5982
100
AcDbEntity
  8
AM_11 想像線
 48
0.1
100
AcDbLine
 10
11.05000000000018
 20
-23.70910628770514
 30
0.0
 11
17.5
 21
-23.70910628770514
 31
0.0
  0
LINE
  5
598D
330
5982
100
AcDbEntity
  8
AM_11 想像線
 48
0.1
100
AcDbLine
 10
17.5
 20
-34.9091062877052
 30
0.0
 11
11.05000000000018
 21
-34.9091062877052
 31
0.0
  0
LINE
  5
598E
102
{ACAD_REACTORS
330
5761
102
}
330
5982
100
AcDbEntity
  8
AM_11 想像線
 48
0.1
100
AcDbLine
 10
4.0
 20
-37.30910628770516
 30
0.0
 11
17.5
 21
-37.30910628770516
 31
0.0
  0
ARC
  5
598F
330
5982
100
AcDbEntity
  8
AM_11 想像線
 48
0.1
100
AcDbCircle
 10
7.5
 20
-20.30910628770516
 30
0.0
 40
1.0
100
AcDbArc
 50
180.0
 51
270.0
  0
ARC
  5
5990
330
5982
100
AcDbEntity
  8
AM_11 想像線
 48
0.1
100
AcDbCircle
 10
11.05000000000018
 20
-24.20910628770514
 30
0.0
 40
0.5
100
AcDbArc
 50
90.0
 51
180.0
  0
LINE
  5
5991
330
5982
100
AcDbEntity
  8
AM_11 想像線
 48
0.1
100
AcDbLine
 10
10.55000000000018
 20
-34.40910628770519
 30
0.0
 11
10.55000000000018
 21
-24.20910628770514
 31
0.0
  0
ARC
  5
5992
330
5982
100
AcDbEntity
  8
AM_11 想像線
 48
0.1
100
AcDbCircle
 10
11.05000000000018
 20
-34.40910628770519
 30
0.0
 40
0.5
100
AcDbArc
 50
180.0
 51
270.0
  0
LINE
  5
5993
330
5982
100
AcDbEntity
  8
AM_11 想像線
 48
0.1
100
AcDbLine
 10
16.0
 20
-23.70910628770514
 30
0.0
 11
16.0
 21
-21.30910628770516
 31
0.0
  0
LINE
  5
5994
330
5982
100
AcDbEntity
  8
AM_11 想像線
 48
0.1
100
AcDbLine
 10
16.0
 20
-37.30910628770516
 30
0.0
 11
16.0
 21
-34.9091062877052
 31
0.0
  0
LINE
  5
5995
330
5982
100
AcDbEntity
  8
AM_11 想像線
 48
0.1
100
AcDbLine
 10
11.40000000000009
 20
-15.30910628770516
 30
0.0
 11
12.40000000000009
 21
-14.30910628770516
 31
0.0
  0
LINE
  5
5996
330
5982
100
AcDbEntity
  8
AM_11 想像線
 48
0.1
100
AcDbLine
 10
8.039326000000071
 20
-15.30910628770516
 30
0.0
 11
11.40000000000009
 21
-15.30910628770516
 31
0.0
  0
LINE
  5
5997
330
5982
100
AcDbEntity
  8
AM_11 想像線
 48
0.1
100
AcDbLine
 10
8.039326000000071
 20
-15.30910628770516
 30
0.0
 11
7.5
 21
-15.30910628770516
 31
0.0
  0
ARC
  5
5998
330
5982
100
AcDbEntity
  8
AM_11 想像線
 48
0.1
100
AcDbCircle
 10
7.5
 20
-16.30910628770516
 30
0.0
 40
1.0
100
AcDbArc
 50
90.0
 51
180.0
  0
ENDBLK
  5
5984
330
5982
100
AcDbEntity
  8
0
100
AcDbBlockEnd
  0
ENDSEC
  0
SECTION
  2
ENTITIES
  0
LINE
  5
3DAF
330
1F
100
AcDbEntity
  8
AM_7 中心線
100
AcDbLine
 10
543.1792059999998
 20
589.0269128805861
 30
0.0
 11
543.1792059999998
 21
317.0269128805862
 31
0.0
  0
INSERT
  5
4206
102
{ACAD_REACTORS
330
470E
330
49C6
330
4C2A
330
4C93
330
5761
330
58C4
330
58EE
102
}
330
1F
100
AcDbEntity
  8
AM_0 外形線1
100
AcDbBlockReference
  2
センタＡ SMVH250
 10
543.1792059999998
 20
447.0269128805862
 30
0.0
  0
INSERT
  5
4309
102
{ACAD_REACTORS
330
488F
330
4C93
102
}
330
1F
100
AcDbEntity
  8
AM_0 外形線1
100
AcDbBlockReference
  2
ケースＡ SMVH250
 10
543.1792059999998
 20
453.0269128805861
 30
0.0
  0
INSERT
  5
44A4
102
{ACAD_REACTORS
330
488F
330
48AB
330
4A94
330
4AAC
330
48D9
102
}
330
1F
100
AcDbEntity
  8
AM_0 外形線1
100
AcDbBlockReference
  2
ケースＢ SMVH250
 10
543.1792059999998
 20
453.0269128805861
 30
0.0
  0
INSERT
  5
4577
102
{ACAD_REACTORS
330
4AC4
330
4C46
330
4C77
102
}
330
1F
100
AcDbEntity
  8
AM_0 外形線1
100
AcDbBlockReference
  2
センタB SMVH250
 10
543.1792059999998
 20
459.0269128805862
 30
0.0
  0
INSERT
  5
463D
330
1F
100
AcDbEntity
  8
AM_0 外形線1
100
AcDbBlockReference
  2
リーマボルト SMVH250 M10
 10
657.1792059999998
 20
438.0269128805862
 30
0.0
  0
INSERT
  5
46B1
102
{ACAD_REACTORS
330
4C46
102
}
330
1F
100
AcDbEntity
  8
AM_0 外形線1
100
AcDbBlockReference
  2
スラストプレ－ト SMVH250
 10
543.1792059999998
 20
447.0269128805862
 30
0.0
  0
DIMENSION
  5
46F7
102
{ACAD_XDICTIONARY
360
4704
102
}
102
{ACAD_REACTORS
330
470E
102
}
330
1F
100
AcDbEntity
  8
AM_5 寸法線
100
AcDbDimension
  2
*D14
 10
625.6792059999997
 20
259.5269128805862
 30
0.0
 11
543.1792059999998
 21
267.6519128805862
 31
0.0
 70
    32
  1
%%c<>
 71
     5
 42
165.0
 73
     0
 74
     0
 75
     0
  3
SEISA$0
100
AcDbAlignedDimension
 13
460.6792059999998
 23
368.0269128805861
 33
0.0
 14
625.6792059999997
 24
368.0269128805861
 34
0.0
100
AcDbRotatedDimension
1001
ACAD_DSTYLE_DIMINSPECT
1070
   396
1000
100%
1070
   395
1000

1070
   394
1070
    33
1070
   393
1070
     0
  0
DIMENSION
  5
4874
102
{ACAD_XDICTIONARY
360
4883
102
}
102
{ACAD_REACTORS
330
488F
102
}
330
1F
100
AcDbEntity
  8
AM_5 寸法線
100
AcDbDimension
  2
*D15
 10
705.6792060000001
 20
453.0269128805861
 30
0.0
 11
705.6792059999999
 21
415.9644128805863
 31
0.0
 70
   160
 71
     5
 42
15.0
 73
     0
 74
     0
 75
     0
  3
SEISA$0
100
AcDbAlignedDimension
 13
667.1792059999997
 23
438.0269128805862
 33
0.0
 14
667.1792059999997
 24
453.0269128805861
 34
0.0
 50
90.0
100
AcDbRotatedDimension
1001
ACAD_DSTYLE_DIMINSPECT
1070
   396
1000
100%
1070
   395
1000

1070
   394
1070
    33
1070
   393
1070
     0
1001
ACAD
1000
DSTYLE
1002
{
1070
   173
1070
     1
1070
   342
1005
0
1070
   343
1005
69
1070
   344
1005
3539
1002
}
  0
DIMENSION
  5
4890
102
{ACAD_XDICTIONARY
360
489F
102
}
102
{ACAD_REACTORS
330
48AB
102
}
330
1F
100
AcDbEntity
  8
AM_5 寸法線
100
AcDbDimension
  2
*D16
 10
705.6792060000002
 20
468.0269128805861
 30
0.0
 11
705.6792060000001
 21
490.0894128805863
 31
0.0
 70
   160
 71
     5
 42
15.0
 73
     0
 74
     0
 75
     0
  3
SEISA$0
100
AcDbAlignedDimension
 13
667.1792059999997
 23
453.0269128805861
 33
0.0
 14
667.1792059999997
 24
468.0269128805861
 34
0.0
 50
90.0
100
AcDbRotatedDimension
1001
ACAD_DSTYLE_DIMINSPECT
1070
   396
1000
100%
1070
   395
1000

1070
   394
1070
    33
1070
   393
1070
     0
1001
ACAD
1000
DSTYLE
1002
{
1070
   173
1070
     1
1070
   342
1005
0
1070
   343
1005
3539
1070
   344
1005
69
1002
}
  0
DIMENSION
  5
48C2
102
{ACAD_XDICTIONARY
360
48CF
102
}
102
{ACAD_REACTORS
330
48D9
102
}
330
1F
100
AcDbEntity
  8
AM_5 寸法線
100
AcDbDimension
  2
*D17
 10
730.6792059999996
 20
527.026912880586
 30
0.0
 11
722.5542059999996
 21
453.0269128805861
 31
0.0
 70
    32
 71
     5
 42
148.0
 73
     0
 74
     0
 75
     0
  3
SEISA$0
100
AcDbAlignedDimension
 13
639.1792059999998
 23
379.0269128805862
 33
0.0
 14
639.1792059999998
 24
527.026912880586
 34
0.0
 50
90.0
100
AcDbRotatedDimension
  0
DIMENSION
  5
49AF
102
{ACAD_XDICTIONARY
360
49BC
102
}
102
{ACAD_REACTORS
330
49C6
102
}
330
1F
100
AcDbEntity
  8
AM_5 寸法線
100
AcDbDimension
  2
*D18
 10
755.6792059999996
 20
584.0269128805861
 30
0.0
 11
747.5542059999996
 21
453.0269128805861
 31
0.0
 70
    32
 71
     5
 42
262.0
 73
     0
 74
     0
 75
     0
  3
SEISA$0
100
AcDbAlignedDimension
 13
620.8792059999999
 23
322.0269128805862
 33
0.0
 14
620.8792059999999
 24
584.0269128805861
 34
0.0
 50
90.0
100
AcDbRotatedDimension
  0
DIMENSION
  5
4A7D
102
{ACAD_XDICTIONARY
360
4A8A
102
}
102
{ACAD_REACTORS
330
4A94
102
}
330
1F
100
AcDbEntity
  8
AM_5 寸法線
100
AcDbDimension
  2
*D19
 10
668.1792059999998
 20
696.5269128805862
 30
0.0
 11
543.1792059999998
 21
704.6519128805861
 31
0.0
 70
    32
  1
%%c<>
 71
     5
 42
250.0
 73
     0
 74
     0
 75
     0
  3
SEISA$0
100
AcDbAlignedDimension
 13
418.1792059999996
 23
467.0269128805862
 33
0.0
 14
668.1792059999998
 24
467.0269128805862
 34
0.0
100
AcDbRotatedDimension
1001
ACAD_DSTYLE_DIMINSPECT
1070
   396
1000
100%
1070
   395
1000

1070
   394
1070
    33
1070
   393
1070
     0
  0
DIMENSION
  5
4A95
102
{ACAD_XDICTIONARY
360
4AA2
102
}
102
{ACAD_REACTORS
330
4AAC
102
}
330
1F
100
AcDbEntity
  8
AM_5 寸法線
100
AcDbDimension
  2
*D20
 10
643.1792059999998
 20
671.5269128805862
 30
0.0
 11
543.1792059999998
 21
679.6519128805861
 31
0.0
 70
    32
  1
%%c<>
 71
     5
 42
200.0000000000001
 73
     0
 74
     0
 75
     0
  3
SEISA$0
100
AcDbAlignedDimension
 13
443.1792059999998
 23
523.026912880586
 33
0.0
 14
643.1792059999998
 24
523.026912880586
 34
0.0
100
AcDbRotatedDimension
1001
ACAD_DSTYLE_DIMINSPECT
1070
   396
1000
100%
1070
   395
1000

1070
   394
1070
    33
1070
   393
1070
     0
  0
DIMENSION
  5
4AAD
102
{ACAD_XDICTIONARY
360
4ABA
102
}
102
{ACAD_REACTORS
330
4AC4
102
}
330
1F
100
AcDbEntity
  8
AM_5 寸法線
100
AcDbDimension
  2
*D21
 10
625.6792059999997
 20
646.5269128805862
 30
0.0
 11
543.1792059999998
 21
654.6519128805861
 31
0.0
 70
    32
  1
%%c<>
 71
     5
 42
165.0
 73
     0
 74
     0
 75
     0
  3
SEISA$0
100
AcDbAlignedDimension
 13
460.6792059999998
 23
538.0269128805861
 33
0.0
 14
625.6792059999997
 24
538.0269128805861
 34
0.0
100
AcDbRotatedDimension
1001
ACAD_DSTYLE_DIMINSPECT
1070
   396
1000
100%
1070
   395
1000

1070
   394
1070
    33
1070
   393
1070
     0
  0
DIMENSION
  5
4C13
102
{ACAD_XDICTIONARY
360
4C20
102
}
102
{ACAD_REACTORS
330
4C2A
102
}
330
1F
100
AcDbEntity
  8
AM_5 寸法線
100
AcDbDimension
  2
*D22
 10
530.5563852722362
 20
447.0269128805862
 30
0.0
 11
522.431385272236
 21
384.5269128805863
 31
0.0
 70
    32
 71
     5
 42
124.9999999999999
 73
     0
 74
     0
 75
     0
  3
SEISA$0
100
AcDbAlignedDimension
 13
543.1792059999999
 23
322.0269128805862
 33
0.0
 14
543.1792059999999
 24
447.0269128805862
 34
0.0
 50
90.0
100
AcDbRotatedDimension
  0
DIMENSION
  5
4C2B
102
{ACAD_XDICTIONARY
360
4C3A
102
}
102
{ACAD_REACTORS
330
4C46
102
}
330
1F
100
AcDbEntity
  8
AM_5 寸法線
100
AcDbDimension
  2
*D23
 10
530.5563852722362
 20
459.0269128805862
 30
0.0
 11
521.1641390304039
 21
467.8506177212749
 31
0.0
 70
   160
 71
     5
 42
12.0
 73
     0
 74
     0
 75
     0
  3
SEISA$0
100
AcDbAlignedDimension
 13
476.1792059999996
 23
447.0269128805862
 33
0.0
 14
543.1792059999998
 24
459.0269128805862
 34
0.0
 50
90.0
100
AcDbRotatedDimension
1001
ACAD
1000
DSTYLE
1002
{
1070
   279
1070
     2
1002
}
  0
DIMENSION
  5
4C60
102
{ACAD_XDICTIONARY
360
4C6D
102
}
102
{ACAD_REACTORS
330
4C77
102
}
330
1F
100
AcDbEntity
  8
AM_5 寸法線
100
AcDbDimension
  2
*D24
 10
530.5563852722362
 20
584.0269128805862
 30
0.0
 11
522.431385272236
 21
521.5269128805863
 31
0.0
 70
    32
 71
     5
 42
125.0
 73
     0
 74
     0
 75
     0
  3
SEISA$0
100
AcDbAlignedDimension
 13
543.1792059999998
 23
459.0269128805862
 33
0.0
 14
543.1792059999999
 24
584.0269128805862
 34
0.0
 50
90.0
100
AcDbRotatedDimension
  0
DIMENSION
  5
4C78
102
{ACAD_XDICTIONARY
360
4C87
102
}
102
{ACAD_REACTORS
330
4C93
330
58C4
102
}
330
1F
100
AcDbEntity
  8
AM_5 寸法線
100
AcDbDimension
  2
*D25
 10
478.0000000000002
 20
399.0269128805863
 30
0.0
 11
478.0
 21
375.9644128805863
 31
0.0
 70
   160
 71
     5
 42
4.0
 73
     0
 74
     0
 75
     0
  3
SEISA$0
100
AcDbAlignedDimension
 13
460.6792059999998
 23
395.0269128805862
 33
0.0
 14
460.1792059999998
 24
399.0269128805863
 34
0.0
 50
90.0
100
AcDbRotatedDimension
  0
MTEXT
  5
5714
330
1F
100
AcDbEntity
  8
AM_6 文字
100
AcDbMText
 10
654.9348684846607
 20
299.2404703827045
 30
0.0
 40
8.75
 41
135.3159547097406
 46
27.45869168716519
 71
     1
 72
     5
  1
{\W0.6;TYPE:SMV250/SMVH250\PSHAFT DIA:MAX/MIN φ115/φ42}
  7
SEISA
 73
     1
 44
1.0
  0
DIMENSION
  5
5751
102
{ACAD_XDICTIONARY
360
5760
102
}
102
{ACAD_REACTORS
330
5761
102
}
330
1F
100
AcDbEntity
  8
AM_5 寸法線
100
AcDbDimension
  2
*D26
 10
423.1792059999998
 20
322.0269128805862
 30
0.0
 11
415.0542059999996
 21
339.2144128805863
 31
0.0
 70
    32
 71
     5
 42
-1.0
 73
     0
 74
     0
 75
     0
  3
SEISA$0
100
AcDbAlignedDimension
 13
460.6792059999998
 23
321.0269128805862
 33
0.0
 14
465.479206
 24
322.0269128805862
 34
0.0
 50
90.00000000000005
100
AcDbRotatedDimension
1001
ACAD_DSTYLE_DIMINSPECT
1070
   396
1000
100%
1070
   395
1000

1070
   394
1070
    33
1070
   393
1070
     0
  0
DIMENSION
  5
58B6
102
{ACAD_XDICTIONARY
360
58C3
102
}
102
{ACAD_REACTORS
330
58C4
102
}
330
1F
100
AcDbEntity
  8
AM_5 寸法線
100
AcDbDimension
  2
*D27
 10
478.0000000000002
 20
425.0269128805861
 30
0.0
 11
469.875
 21
412.0269128805863
 31
0.0
 70
    32
 71
     5
 42
26.0
 73
     0
 74
     0
 75
     0
  3
SEISA$0
100
AcDbAlignedDimension
 13
460.1792059999998
 23
399.0269128805863
 33
0.0
 14
460.1792059999998
 24
425.0269128805861
 34
0.0
 50
90.00000000000005
100
AcDbRotatedDimension
1001
ACAD_DSTYLE_DIMINSPECT
1070
   396
1000
100%
1070
   395
1000

1070
   394
1070
    33
1070
   393
1070
     0
  0
DIMENSION
  5
58E0
102
{ACAD_XDICTIONARY
360
58ED
102
}
102
{ACAD_REACTORS
330
58EE
102
}
330
1F
100
AcDbEntity
  8
AM_5 寸法線
100
AcDbDimension
  2
*D28
 10
478.0000000000002
 20
447.0269128805862
 30
0.0
 11
469.875
 21
436.0269128805861
 31
0.0
 70
    32
 71
     5
 42
22.0
 73
     0
 74
     0
 75
     0
  3
SEISA$0
100
AcDbAlignedDimension
 13
460.6792059999998
 23
425.0269128805861
 33
0.0
 14
462.1792059999997
 24
447.0269128805862
 34
0.0
 50
90.00000000000005
100
AcDbRotatedDimension
1001
ACAD_DSTYLE_DIMINSPECT
1070
   396
1000
100%
1070
   395
1000

1070
   394
1070
    33
1070
   393
1070
     0
  0
INSERT
  5
5999
330
1F
100
AcDbEntity
  8
AM_0 外形線1
100
AcDbBlockReference
  2
ケース
 10
443.1792059999998
 20
358.3360191682914
 30
0.0
  0
ENDSEC
  0
SECTION
  2
OBJECTS
  0
DICTIONARY
  5
C
330
0
100
AcDbDictionary
281
     1
  3
ACAD_COLOR
350
C5
  3
ACAD_GROUP
350
D
  3
ACAD_LAYOUT
350
1A
  3
ACAD_MATERIAL
350
C4
  3
ACAD_MLEADERSTYLE
350
2D5
  3
ACAD_MLINESTYLE
350
17
  3
ACAD_PLOTSETTINGS
350
19
  3
ACAD_PLOTSTYLENAME
350
E
  3
ACAD_SCALELIST
350
2B3
  3
ACAD_TABLESTYLE
350
121
  3
ACAD_VISUALSTYLE
350
27F
  3
ACDB_RECOMPOSE_DATA
350
2F7
  3
AcDbVariableDictionary
350
34
  3
AcmDictionary
350
49
  3
AMG
350
2B
  3
AMGSNAPSETTINGS
350
1DE
  0
DICTIONARY
  5
BF
330
2
100
AcDbDictionary
280
     1
281
     1
  3
ACAD_LAYERSTATES
360
2786
  3
AMLAYER_GROUPCOLORS
360
C0
  0
DICTIONARY
  5
29D7
330
10
100
AcDbDictionary
280
     1
281
     1
  3
ADSK_XREC_LAYER_RECONCILED
360
29D8
  0
DICTIONARY
  5
29D9
330
81
100
AcDbDictionary
280
     1
281
     1
  3
ADSK_XREC_LAYER_RECONCILED
360
29DA
  0
DICTIONARY
  5
29E0
330
25C9
100
AcDbDictionary
280
     1
281
     1
  3
ADSK_XREC_LAYER_RECONCILED
360
29E1
  0
DICTIONARY
  5
29E2
330
25CA
100
AcDbDictionary
280
     1
281
     1
  3
ADSK_XREC_LAYER_RECONCILED
360
29E3
  0
DICTIONARY
  5
29E8
330
26B3
100
AcDbDictionary
280
     1
281
     1
  3
ADSK_XREC_LAYER_RECONCILED
360
29E9
  0
DICTIONARY
  5
82
330
1F
100
AcDbDictionary
280
     1
281
     1
  3
ACAD_SORTENTS
360
A41
  0
DICTIONARY
  5
340F
330
340E
100
AcDbDictionary
280
     1
281
     1
  3
ACAD_SORTENTS
360
52C6
  0
DICTIONARY
  5
4251
330
41E0
100
AcDbDictionary
280
     1
281
     1
  3
ACAD_SORTENTS
360
5870
  0
DICTIONARY
  5
4385
330
42D0
100
AcDbDictionary
280
     1
281
     1
  3
ACAD_SORTENTS
360
529E
  0
DICTIONARY
  5
451D
330
446A
100
AcDbDictionary
280
     1
281
     1
  3
ACAD_SORTENTS
360
5345
  0
DICTIONARY
  5
45C4
330
4550
100
AcDbDictionary
280
     1
281
     1
  3
ACAD_SORTENTS
360
58B5
  0
DICTIONARY
  5
4688
330
4619
100
AcDbDictionary
280
     1
281
     1
  3
ACAD_SORTENTS
360
5459
  0
DICTIONARY
  5
46CC
330
46A5
100
AcDbDictionary
280
     1
281
     1
  3
ACAD_SORTENTS
360
59DA
  0
DICTIONARY
  5
4704
330
46F7
100
AcDbDictionary
280
     1
281
     1
  3
ACAD_DIMASSOC
360
470E
  0
DICTIONARY
  5
4883
330
4874
100
AcDbDictionary
280
     1
281
     1
  3
ACAD_DIMASSOC
360
488F
  0
DICTIONARY
  5
489F
330
4890
100
AcDbDictionary
280
     1
281
     1
  3
ACAD_DIMASSOC
360
48AB
  0
DICTIONARY
  5
48CF
330
48C2
100
AcDbDictionary
280
     1
281
     1
  3
ACAD_DIMASSOC
360
48D9
  0
DICTIONARY
  5
49BC
330
49AF
100
AcDbDictionary
280
     1
281
     1
  3
ACAD_DIMASSOC
360
49C6
  0
DICTIONARY
  5
4A8A
330
4A7D
100
AcDbDictionary
280
     1
281
     1
  3
ACAD_DIMASSOC
360
4A94
  0
DICTIONARY
  5
4AA2
330
4A95
100
AcDbDictionary
280
     1
281
     1
  3
ACAD_DIMASSOC
360
4AAC
  0
DICTIONARY
  5
4ABA
330
4AAD
100
AcDbDictionary
280
     1
281
     1
  3
ACAD_DIMASSOC
360
4AC4
  0
DICTIONARY
  5
4C20
330
4C13
100
AcDbDictionary
280
     1
281
     1
  3
ACAD_DIMASSOC
360
4C2A
  0
DICTIONARY
  5
4C3A
330
4C2B
100
AcDbDictionary
280
     1
281
     1
  3
ACAD_DIMASSOC
360
4C46
  0
DICTIONARY
  5
4C6D
330
4C60
100
AcDbDictionary
280
     1
281
     1
  3
ACAD_DIMASSOC
360
4C77
  0
DICTIONARY
  5
4C87
330
4C78
100
AcDbDictionary
280
     1
281
     1
  3
ACAD_DIMASSOC
360
4C93
  0
DICTIONARY
  5
5760
330
5751
100
AcDbDictionary
280
     1
281
     1
  3
ACAD_DIMASSOC
360
5761
  0
DICTIONARY
  5
58C3
330
58B6
100
AcDbDictionary
280
     1
281
     1
  3
ACAD_DIMASSOC
360
58C4
  0
DICTIONARY
  5
58ED
330
58E0
100
AcDbDictionary
280
     1
281
     1
  3
ACAD_DIMASSOC
360
58EE
  0
DICTIONARY
  5
C5
102
{ACAD_REACTORS
330
C
102
}
330
C
100
AcDbDictionary
281
     1
  0
DICTIONARY
  5
D
102
{ACAD_REACTORS
330
C
102
}
330
C
100
AcDbDictionary
281
     1
  0
DICTIONARY
  5
1A
102
{ACAD_REACTORS
330
C
102
}
330
C
100
AcDbDictionary
281
     1
  3
Model
350
22
  3
レイアウト1
350
1E
  3
レイアウト2
350
26
  0
DICTIONARY
  5
C4
102
{ACAD_REACTORS
330
C
102
}
330
C
100
AcDbDictionary
281
     1
  3
ByBlock
350
27D
  3
ByLayer
350
27C
  3
Global
350
27E
  0
DICTIONARY
  5
2D5
102
{ACAD_REACTORS
330
C
102
}
330
C
100
AcDbDictionary
281
     1
  3
Standard
350
2D6
  0
DICTIONARY
  5
17
102
{ACAD_REACTORS
330
C
102
}
330
C
100
AcDbDictionary
281
     1
  3
Standard
350
18
  0
DICTIONARY
  5
19
102
{ACAD_REACTORS
330
C
102
}
330
C
100
AcDbDictionary
281
     1
  3
SEISA基本
350
1C7E
  0
ACDBDICTIONARYWDFLT
  5
E
102
{ACAD_REACTORS
330
C
102
}
330
C
100
AcDbDictionary
281
     1
  3
Normal
350
F
100
AcDbDictionaryWithDefault
340
F
  0
DICTIONARY
  5
2B3
102
{ACAD_REACTORS
330
C
102
}
330
C
100
AcDbDictionary
281
     1
  3
*A1
350
29F2
  3
*A2
350
570B
  3
A0
350
2B4
  3
A1
350
2B5
  3
A2
350
2B6
  3
A3
350
2B7
  3
A4
350
2B8
  3
A5
350
2B9
  3
A6
350
2BA
  3
A7
350
2BB
  3
A8
350
2BC
  3
A9
350
2BD
  3
B0
350
2BE
  3
B1
350
2BF
  3
B2
350
2C0
  3
B3
350
2C1
  3
B4
350
2C2
  3
B5
350
2C3
  3
B6
350
2C4
  3
B7
350
2C5
  3
B8
350
2C6
  3
B9
350
2C7
  3
C0
350
2C8
  3
C1
350
2C9
  3
C2
350
2CA
  3
C3
350
2CB
  3
C4
350
2CC
  3
C5
350
2CD
  3
C6
350
2CE
  3
C7
350
2CF
  3
C8
350
2D0
  3
C9
350
2D1
  3
D0
350
2D2
  3
D1
350
2D3
  3
D2
350
2D4
  0
DICTIONARY
  5
121
102
{ACAD_REACTORS
330
C
102
}
330
C
100
AcDbDictionary
281
     1
  3
Standard
350
122
  0
DICTIONARY
  5
27F
102
{ACAD_REACTORS
330
C
102
}
330
C
100
AcDbDictionary
281
     1
  3
2dWireframe
350
285
  3
3D Hidden
350
287
  3
3dWireframe
350
286
  3
Basic
350
284
  3
Brighten
350
28B
  3
ColorChange
350
28F
  3
Conceptual
350
288
  3
Dim
350
28A
  3
Facepattern
350
28E
  3
Flat
350
280
  3
FlatWithEdges
350
281
  3
Gouraud
350
282
  3
GouraudWithEdges
350
283
  3
Linepattern
350
28D
  3
Realistic
350
289
  3
Thicken
350
28C
  0
XRECORD
  5
2F7
102
{ACAD_REACTORS
330
C
102
}
330
C
100
AcDbXrecord
280
     1
 90
        1
330
122
  0
DICTIONARY
  5
34
102
{ACAD_REACTORS
330
C
102
}
330
C
100
AcDbDictionary
281
     1
  3
CANNOSCALE
350
2FA
  3
CMLEADERSTYLE
350
2F8
  3
CTABLESTYLE
350
140
  3
DIMASSOC
350
AC
  3
INDEXCTL
350
35
  3
LAYEREVAL
350
4F87
  3
LAYERNOTIFY
350
4F88
  3
LIGHTINGUNITS
350
2FB
  3
MSLTSCALE
350
2F9
  0
DICTIONARY
  5
49
102
{ACAD_REACTORS
330
C
102
}
330
C
100
AcDbDictionary
281
     1
  3
AcmBOM
350
161B
  3
AcmStdDictionary
350
4A
  3
AMDTSECTSYM_ARROWCOLOR
350
12B
  0
DICTIONARY
  5
2B
102
{ACAD_REACTORS
330
C
102
}
330
C
100
AcDbDictionary
281
     1
  0
DICTIONARY
  5
1DE
102
{ACAD_REACTORS
330
C
102
}
330
C
100
AcDbDictionary
281
     1
  0
DICTIONARY
  5
2786
102
{ACAD_REACTORS
330
BF
102
}
330
BF
100
AcDbDictionary
281
     1
  0
DICTIONARY
  5
C0
102
{ACAD_REACTORS
330
BF
102
}
330
BF
100
AcDbDictionary
280
     1
281
     1
  0
XRECORD
  5
29D8
102
{ACAD_REACTORS
330
29D7
102
}
330
29D7
100
AcDbXrecord
280
     1
290
     1
  0
XRECORD
  5
29DA
102
{ACAD_REACTORS
330
29D9
102
}
330
29D9
100
AcDbXrecord
280
     1
290
     1
  0
XRECORD
  5
29E1
102
{ACAD_REACTORS
330
29E0
102
}
330
29E0
100
AcDbXrecord
280
     1
290
     1
  0
XRECORD
  5
29E3
102
{ACAD_REACTORS
330
29E2
102
}
330
29E2
100
AcDbXrecord
280
     1
290
     1
  0
XRECORD
  5
29E9
102
{ACAD_REACTORS
330
29E8
102
}
330
29E8
100
AcDbXrecord
280
     1
290
     1
  0
SORTENTSTABLE
  5
A41
102
{ACAD_REACTORS
330
82
102
}
330
82
100
AcDbSortentsTable
330
1F
331
46F7
  5
4874
331
3DAF
  5
3DAF
331
4577
  5
4851
331
4206
  5
463D
331
4874
  5
48F2
331
4C13
  5
4C9F
331
4C2B
  5
4CD0
331
4A7D
  5
4C2B
331
46B1
  5
4873
331
4C60
  5
4CD3
331
4A95
  5
4C60
331
4C78
  5
4D14
331
4309
  5
46B1
331
44A4
  5
46F7
331
5714
  5
5714
331
48C2
  5
4922
331
4AAD
  5
4C78
331
4890
  5
490A
331
49AF
  5
4A95
331
463D
  5
4872
  0
SORTENTSTABLE
  5
52C6
102
{ACAD_REACTORS
330
340F
102
}
330
340F
100
AcDbSortentsTable
330
340E
  0
SORTENTSTABLE
  5
5870
102
{ACAD_REACTORS
330
4251
102
}
330
4251
100
AcDbSortentsTable
330
41E0
331
57DF
  5
41E3
331
41E9
  5
41EC
331
41EC
  5
41EE
331
41EB
  5
41ED
331
41EE
  5
41F0
331
41ED
  5
41EF
331
41F0
  5
41F2
331
4200
  5
4202
331
41EF
  5
41F1
331
4201
  5
57DF
331
41F2
  5
41F4
331
4202
  5
57E0
331
41F1
  5
41F3
331
41F4
  5
41F6
331
41F3
  5
41F5
331
41F6
  5
41F8
331
41F5
  5
41F7
331
57E0
  5
41E4
331
41F8
  5
41FA
331
41F7
  5
41F9
331
41FB
  5
41FD
331
41FA
  5
41FC
331
41E3
  5
41E5
331
41E4
  5
41E6
331
41FD
  5
41FF
331
41FC
  5
41FE
331
41E5
  5
41E7
331
41E6
  5
41E9
331
41FF
  5
4201
331
41FE
  5
4200
331
41E7
  5
41EB
331
41F9
  5
41FB
  0
SORTENTSTABLE
  5
529E
102
{ACAD_REACTORS
330
4385
102
}
330
4385
100
AcDbSortentsTable
330
42D0
331
42DA
  5
42DB
331
42D4
  5
42D5
331
42EC
  5
42ED
331
42EB
  5
42EC
331
42D3
  5
42D4
331
42D9
  5
42DA
331
42D8
  5
42D9
331
42EA
  5
42EB
331
42E9
  5
42EA
331
42E8
  5
42E9
331
4308
  5
4365
331
4307
  5
4308
331
4306
  5
4307
331
4305
  5
4306
331
4304
  5
4305
331
4303
  5
4304
331
4302
  5
4303
331
4301
  5
4302
331
4300
  5
4301
331
42FF
  5
4300
331
42FE
  5
42FF
331
4367
  5
42D3
331
42FD
  5
42FE
331
42FC
  5
42FD
331
4366
  5
4367
331
4365
  5
4366
331
42FB
  5
42FC
331
42FA
  5
42FB
331
42E7
  5
42E8
331
42F9
  5
42FA
331
42F8
  5
42F9
331
42E6
  5
42E7
331
42E5
  5
42E6
331
42F7
  5
42F8
331
42F6
  5
42F7
331
42E4
  5
42E5
331
42F5
  5
42F6
331
42E3
  5
42E4
331
42E2
  5
42E3
331
42F4
  5
42F5
331
42F3
  5
42F4
331
42E1
  5
42E2
331
42E0
  5
42E1
331
42F2
  5
42F3
331
42F1
  5
42F2
331
42DF
  5
42E0
331
42DE
  5
42DF
331
42F0
  5
42F1
331
42EF
  5
42F0
331
42D7
  5
42D8
331
42DD
  5
42DE
331
42DC
  5
42DD
331
42EE
  5
42EF
331
42D6
  5
42D7
331
42ED
  5
42EE
331
42D5
  5
42D6
331
42DB
  5
42DC
  0
SORTENTSTABLE
  5
5345
102
{ACAD_REACTORS
330
451D
102
}
330
451D
100
AcDbSortentsTable
330
446A
  0
SORTENTSTABLE
  5
58B5
102
{ACAD_REACTORS
330
45C4
102
}
330
45C4
100
AcDbSortentsTable
330
4550
331
4562
  5
4564
331
456A
  5
456C
331
4572
  5
5895
331
4559
  5
455B
331
4561
  5
4563
331
4569
  5
456B
331
4571
  5
4573
331
4560
  5
4562
331
4568
  5
456A
331
4570
  5
4572
331
455F
  5
4561
331
4567
  5
4569
331
456F
  5
4571
331
4557
  5
455A
331
455E
  5
4560
331
4566
  5
4568
331
456E
  5
4570
331
5896
  5
4554
331
455D
  5
455F
331
4565
  5
4567
331
456D
  5
456F
331
5895
  5
4553
331
4555
  5
4559
331
455C
  5
455E
331
4564
  5
4566
331
456C
  5
456E
331
455B
  5
455D
331
4554
  5
4557
331
4563
  5
4565
331
456B
  5
456D
331
4573
  5
5896
331
455A
  5
455C
331
4553
  5
4555
  0
SORTENTSTABLE
  5
5459
102
{ACAD_REACTORS
330
4688
102
}
330
4688
100
AcDbSortentsTable
330
4619
  0
SORTENTSTABLE
  5
59DA
102
{ACAD_REACTORS
330
46CC
102
}
330
46CC
100
AcDbSortentsTable
330
46A5
  0
DIMASSOC
  5
470E
102
{ACAD_REACTORS
330
4704
102
}
330
4704
100
AcDbDimAssoc
330
46F7
 90
        3
 70
     0
 71
     0
  1
AcDbOsnapPointRef
 72
    13
331
4206
331
41E4
 73
     2
 91
        0
 40
0.0
 10
0.0
 20
0.0
 30
2.000000000000000E+50
 75
     0
  1
AcDbOsnapPointRef
 72
    13
331
4206
331
41F5
 73
     2
 91
        0
 40
0.0
 10
0.0
 20
0.0
 30
2.000000000000000E+50
 75
     0
  0
DIMASSOC
  5
488F
102
{ACAD_REACTORS
330
4883
102
}
330
4883
100
AcDbDimAssoc
330
4874
 90
        3
 70
     0
 71
     0
  1
AcDbOsnapPointRef
 72
    13
331
4309
331
4302
 73
     2
 91
        0
 40
0.0
 10
0.0
 20
0.0
 30
2.000000000000000E+50
 75
     0
  1
AcDbOsnapPointRef
 72
    13
331
44A4
331
449B
 73
     2
 91
        0
 40
0.0
 10
0.0
 20
0.0
 30
2.000000000000000E+50
 75
     0
  0
DIMASSOC
  5
48AB
102
{ACAD_REACTORS
330
489F
102
}
330
489F
100
AcDbDimAssoc
330
4890
 90
        3
 70
     0
 71
     0
  1
AcDbOsnapPointRef
 72
    13
331
44A4
331
449B
 73
     2
 91
        0
 40
0.0
 10
0.0
 20
0.0
 30
2.000000000000000E+50
 75
     0
  1
AcDbOsnapPointRef
 72
    13
331
44A4
331
449D
 73
     2
 91
        0
 40
0.0
 10
0.0
 20
0.0
 30
2.000000000000000E+50
 75
     0
  0
DIMASSOC
  5
48D9
102
{ACAD_REACTORS
330
48CF
102
}
330
48CF
100
AcDbDimAssoc
330
48C2
 90
        2
 70
     0
 71
     0
  1
AcDbOsnapPointRef
 72
    13
331
44A4
331
449C
 73
     2
 91
        0
 40
0.0
 10
0.0
 20
0.0
 30
2.000000000000000E+50
 75
     0
  0
DIMASSOC
  5
49C6
102
{ACAD_REACTORS
330
49BC
102
}
330
49BC
100
AcDbDimAssoc
330
49AF
 90
        1
 70
     0
 71
     0
  1
AcDbOsnapPointRef
 72
    13
331
4206
331
41E3
 73
     2
 91
        0
 40
0.0
 10
0.0
 20
0.0
 30
2.000000000000000E+50
 75
     0
  0
DIMASSOC
  5
4A94
102
{ACAD_REACTORS
330
4A8A
102
}
330
4A8A
100
AcDbDimAssoc
330
4A7D
 90
        3
 70
     0
 71
     0
  1
AcDbOsnapPointRef
 72
     1
331
44A4
331
446D
 73
     2
 91
        0
 40
1.0
 10
0.0
 20
0.0
 30
2.000000000000000E+50
 75
     0
  1
AcDbOsnapPointRef
 72
     1
331
44A4
331
449A
 73
     2
 91
        0
 40
1.0
 10
0.0
 20
0.0
 30
2.000000000000000E+50
 75
     0
  0
DIMASSOC
  5
4AAC
102
{ACAD_REACTORS
330
4AA2
102
}
330
4AA2
100
AcDbDimAssoc
330
4A95
 90
        3
 70
     0
 71
     0
  1
AcDbOsnapPointRef
 72
     1
331
44A4
331
4476
 73
     2
 91
        0
 40
3.141592653589792
 10
0.0
 20
0.0
 30
2.000000000000000E+50
 75
     0
  1
AcDbOsnapPointRef
 72
     6
331
44A4
331
449E
 73
     2
 91
        0
 40
1.0
 10
0.0
 20
0.0
 30
0.0
332
44A4
332
44A1
 74
     2
 92
        0
 75
     0
  0
DIMASSOC
  5
4AC4
102
{ACAD_REACTORS
330
4ABA
102
}
330
4ABA
100
AcDbDimAssoc
330
4AAD
 90
        3
 70
     0
 71
     0
  1
AcDbOsnapPointRef
 72
    13
331
4577
331
4555
 73
     2
 91
        0
 40
0.0
 10
0.0
 20
0.0
 30
2.000000000000000E+50
 75
     0
  1
AcDbOsnapPointRef
 72
    13
331
4577
331
4565
 73
     2
 91
        0
 40
0.0
 10
0.0
 20
0.0
 30
2.000000000000000E+50
 75
     0
  0
DIMASSOC
  5
4C2A
102
{ACAD_REACTORS
330
4C20
102
}
330
4C20
100
AcDbDimAssoc
330
4C13
 90
        3
 70
     0
 71
     0
  1
AcDbOsnapPointRef
 72
     2
331
4206
331
41E3
 73
     2
 91
        0
 40
0.5
 10
0.0
 20
0.0
 30
0.0
 75
     0
  1
AcDbOsnapPointRef
 72
     8
331
4206
331
41EF
 73
     2
 91
        0
 40
1.0
 10
0.0
 20
0.0
 30
0.0
 75
     1
  1
AcDbOsnapPointRef
 72
     2
331
4206
331
41E3
 73
     2
 91
        0
 40
0.5
 10
0.0
 20
0.0
 30
0.0
 75
     0
  0
DIMASSOC
  5
4C46
102
{ACAD_REACTORS
330
4C3A
102
}
330
4C3A
100
AcDbDimAssoc
330
4C2B
 90
        3
 70
     0
 71
     0
  1
AcDbOsnapPointRef
 72
     1
331
46B1
331
46CB
 73
     2
 91
        0
 40
1.0
 10
0.0
 20
0.0
 30
2.000000000000000E+50
 75
     0
  1
AcDbOsnapPointRef
 72
     1
331
4577
331
4553
 73
     2
 91
        0
 40
1.0
 10
0.0
 20
0.0
 30
2.000000000000000E+50
 75
     0
  0
DIMASSOC
  5
4C77
102
{ACAD_REACTORS
330
4C6D
102
}
330
4C6D
100
AcDbDimAssoc
330
4C60
 90
        3
 70
     0
 71
     0
  1
AcDbOsnapPointRef
 72
     1
331
4577
331
4553
 73
     2
 91
        0
 40
1.0
 10
0.0
 20
0.0
 30
2.000000000000000E+50
 75
     0
  1
AcDbOsnapPointRef
 72
     2
331
4577
331
4554
 73
     2
 91
        0
 40
0.5
 10
0.0
 20
0.0
 30
0.0
 75
     0
  0
DIMASSOC
  5
4C93
102
{ACAD_REACTORS
330
4C87
102
}
330
4C87
100
AcDbDimAssoc
330
4C78
 90
        3
 70
     0
 71
     0
  1
AcDbOsnapPointRef
 72
    13
331
4309
331
42EC
 73
     2
 91
        0
 40
0.0
 10
0.0
 20
0.0
 30
2.000000000000000E+50
 75
     0
  1
AcDbOsnapPointRef
 72
    13
331
4206
331
41EC
 73
     2
 91
        0
 40
0.0
 10
0.0
 20
0.0
 30
2.000000000000000E+50
 75
     0
  0
DIMASSOC
  5
5761
102
{ACAD_REACTORS
330
5760
102
}
330
5760
100
AcDbDimAssoc
330
5751
 90
        2
 70
     0
 71
     0
  1
AcDbOsnapPointRef
 72
     1
331
4206
331
41E3
 73
     0
 91
        0
 40
0.0
 10
0.0
 20
0.0
 30
2.000000000000000E+50
 75
     0
  0
DIMASSOC
  5
58C4
102
{ACAD_REACTORS
330
58C3
102
}
330
58C3
100
AcDbDimAssoc
330
58B6
 90
        3
 70
     0
 71
     0
  1
AcDbOsnapPointRef
 72
     4
331
4C78
331
4C9D
 73
     0
 91
        0
 40
0.0
 10
0.0
 20
0.0
 30
0.0
 75
     0
  1
AcDbOsnapPointRef
 72
     8
331
4206
331
41F1
 73
     0
 91
        0
 40
0.942669005465478
 10
0.0
 20
0.0
 30
0.0
 75
     1
  1
AcDbOsnapPointRef
 72
     4
331
4C78
331
4C9D
 73
     0
 91
        0
 40
0.0
 10
0.0
 20
0.0
 30
0.0
 75
     0
  0
DIMASSOC
  5
58EE
102
{ACAD_REACTORS
330
58ED
102
}
330
58ED
100
AcDbDimAssoc
330
58E0
 90
        3
 70
     0
 71
     0
  1
AcDbOsnapPointRef
 72
     1
331
4206
331
41F1
 73
     0
 91
        0
 40
0.0
 10
0.0
 20
0.0
 30
2.000000000000000E+50
 75
     0
  1
AcDbOsnapPointRef
 72
    13
331
4206
331
41EF
 73
     0
 91
        0
 40
0.0
 10
0.0
 20
0.0
 30
2.000000000000000E+50
 75
     0
  0
LAYOUT
  5
22
102
{ACAD_REACTORS
330
1A
102
}
330
1A
100
AcDbPlotSettings
  1

  2
KONICA MINOLTA 501 PCL
  4
A4
  6

 40
5.027082920074462
 41
5.027085781097412
 42
5.027069091796875
 43
5.027069091796875
 44
209.9733276367186
 45
296.9259948730469
 46
0.0
 47
21.08436159705033
 48
0.0
 49
0.0
140
0.0
141
0.0
142
1.0
143
1.844079425041403
 70
 11956
 72
     1
 73
     0
 74
     1
  7
SEISA.ctb
 75
     0
147
0.5422759922488414
 76
     0
 77
     2
 78
   300
148
-410.6545296223169
149
-257.8376797468372
100
AcDbLayout
  1
Model
 70
     1
 71
     0
 10
0.0
 20
0.0
 11
12.0
 21
9.0
 12
0.0
 22
0.0
 32
0.0
 14
0.0
 24
0.0
 34
0.0
 15
0.0
 25
0.0
 35
0.0
146
0.0
 13
0.0
 23
0.0
 33
0.0
 16
1.0
 26
0.0
 36
0.0
 17
0.0
 27
1.0
 37
0.0
 76
     0
330
1F
331
27A
1001
ACAD_PSEXT
1000
KONICA MINOLTA 501 PCL
1000
KONICA MINOLTA 501/421/361PCL
1000
IP_192.168.20.231_(1)
1000

1070
     0
  0
LAYOUT
  5
1E
102
{ACAD_REACTORS
330
1A
102
}
330
1A
100
AcDbPlotSettings
  1

  2
none_device
  4
Letter_(8.50_x_11.00_Inches)
  6

 40
6.349999904632567
 41
6.349999904632567
 42
6.350006103515625
 43
6.350006103515625
 44
215.8999938964844
 45
279.3999938964844
 46
0.0
 47
0.0
 48
0.0
 49
0.0
140
0.0
141
0.0
142
1.0
143
1.0
 70
 15024
 72
     1
 73
     1
 74
     5
  7
SEISA.ctb
 75
    16
147
1.0
 76
     0
 77
     2
 78
   300
148
0.0
149
0.0
100
AcDbLayout
  1
レイアウト1
 70
     1
 71
     1
 10
0.0
 20
0.0
 11
420.0
 21
297.0
 12
0.0
 22
0.0
 32
0.0
 14
1.000000000000000E+20
 24
1.000000000000000E+20
 34
1.000000000000000E+20
 15
-1.000000000000000E+20
 25
-1.000000000000000E+20
 35
-1.000000000000000E+20
146
0.0
 13
0.0
 23
0.0
 33
0.0
 16
1.0
 26
0.0
 36
0.0
 17
0.0
 27
1.0
 37
0.0
 76
     0
330
1B
  0
LAYOUT
  5
26
102
{ACAD_REACTORS
330
1A
102
}
330
1A
100
AcDbPlotSettings
  1

  2
none_device
  4
Letter_(8.50_x_11.00_Inches)
  6

 40
6.349999904632567
 41
6.349999904632567
 42
6.350006103515625
 43
6.350006103515625
 44
215.8999938964844
 45
279.3999938964844
 46
0.0
 47
0.0
 48
0.0
 49
0.0
140
0.0
141
0.0
142
1.0
143
1.0
 70
 15024
 72
     1
 73
     1
 74
     5
  7
SEISA.ctb
 75
    16
147
1.0
 76
     0
 77
     2
 78
   300
148
0.0
149
0.0
100
AcDbLayout
  1
レイアウト2
 70
     1
 71
     2
 10
0.0
 20
0.0
 11
12.0
 21
9.0
 12
0.0
 22
0.0
 32
0.0
 14
0.0
 24
0.0
 34
0.0
 15
0.0
 25
0.0
 35
0.0
146
0.0
 13
0.0
 23
0.0
 33
0.0
 16
1.0
 26
0.0
 36
0.0
 17
0.0
 27
1.0
 37
0.0
 76
     0
330
23
  0
MATERIAL
  5
27D
102
{ACAD_REACTORS
330
C4
102
}
330
C4
100
AcDbMaterial
  1
ByBlock
 73
     1
 78
     1
172
     1
176
     1
270
     1
274
     1
 94
       63
  0
MATERIAL
  5
27C
102
{ACAD_REACTORS
330
C4
102
}
330
C4
100
AcDbMaterial
  1
ByLayer
 73
     1
 78
     1
172
     1
176
     1
270
     1
274
     1
 94
       63
  0
MATERIAL
  5
27E
102
{ACAD_REACTORS
330
C4
102
}
330
C4
100
AcDbMaterial
  1
Global
 73
     1
 78
     1
172
     1
176
     1
270
     1
274
     1
 94
       63
  0
MLEADERSTYLE
  5
2D6
102
{ACAD_REACTORS
330
2D5
102
}
330
2D5
100
AcDbMLeaderStyle
170
     2
171
     1
172
     0
 90
        2
 40
0.0
 41
0.0
173
     1
 91
-1056964608
340
14
 92
       -2
290
     1
 42
2.0
291
     1
 43
0.36
  3
Standard
 44
4.0
300

342
11
174
     1
178
     6
175
     1
176
     0
 93
-1056964608
 45
4.0
292
     0
297
     0
 46
4.0
 94
-1056964608
 47
1.0
 49
1.0
140
1.0
293
     1
141
0.0
294
     1
177
     0
142
1.0
295
     0
296
     0
143
0.125
1001
ACAD_MLEADERVER
1070
     2
  0
MLINESTYLE
  5
18
102
{ACAD_REACTORS
330
17
102
}
330
17
100
AcDbMlineStyle
  2
STANDARD
 70
     0
  3

 62
   256
 51
90.0
 52
90.0
 71
     2
 49
0.5
 62
   256
  6
BYLAYER
 49
-0.5
 62
   256
  6
BYLAYER
  0
PLOTSETTINGS
  5
1C7E
102
{ACAD_REACTORS
330
19
102
}
330
19
100
AcDbPlotSettings
  1
SEISA基本
  2
none_device
  4
Letter_(8.50_x_11.00_Inches)
  6

 40
6.349999904632567
 41
6.349999904632567
 42
6.350006103515625
 43
6.350006103515625
 44
215.8999938964844
 45
279.3999938964844
 46
7.302498226506357
 47
0.0
 48
0.0
 49
0.0
140
0.0
141
0.0
142
1.0
143
1.574803221122935
 70
 11956
 72
     1
 73
     1
 74
     2
  7
SEISA.ctb
 75
     0
147
0.6349999711627054
 76
     0
 77
     2
 78
   300
148
0.0
149
0.0
1001
ACAD_PSEXT
1000
なし
1000
なし
1000
適切ではありません
1000
新しいプロッタ環境設定名を選択しない限り、レイアウトは印刷されません。
1070
     0
  0
ACDBPLACEHOLDER
  5
F
102
{ACAD_REACTORS
330
E
102
}
330
E
  0
SCALE
  5
29F2
102
{ACAD_REACTORS
330
2B3
102
}
330
2B3
100
AcDbScale
 70
     0
300
1:2.5
140
1.0
141
2.5
290
     0
  0
SCALE
  5
570B
102
{ACAD_REACTORS
330
2B3
102
}
330
2B3
100
AcDbScale
 70
     0
300
1:1.5
140
1.0
141
1.5
290
     0
  0
SCALE
  5
2B4
102
{ACAD_REACTORS
330
2B3
102
}
330
2B3
100
AcDbScale
 70
     0
300
1:1
140
1.0
141
1.0
290
     1
  0
SCALE
  5
2B5
102
{ACAD_REACTORS
330
2B3
102
}
330
2B3
100
AcDbScale
 70
     0
300
1:2
140
1.0
141
2.0
290
     0
  0
SCALE
  5
2B6
102
{ACAD_REACTORS
330
2B3
102
}
330
2B3
100
AcDbScale
 70
     0
300
1:4
140
1.0
141
4.0
290
     0
  0
SCALE
  5
2B7
102
{ACAD_REACTORS
330
2B3
102
}
330
2B3
100
AcDbScale
 70
     0
300
1:5
140
1.0
141
5.0
290
     0
  0
SCALE
  5
2B8
102
{ACAD_REACTORS
330
2B3
102
}
330
2B3
100
AcDbScale
 70
     0
300
1:8
140
1.0
141
8.0
290
     0
  0
SCALE
  5
2B9
102
{ACAD_REACTORS
330
2B3
102
}
330
2B3
100
AcDbScale
 70
     0
300
1:10
140
1.0
141
10.0
290
     0
  0
SCALE
  5
2BA
102
{ACAD_REACTORS
330
2B3
102
}
330
2B3
100
AcDbScale
 70
     0
300
1:16
140
1.0
141
16.0
290
     0
  0
SCALE
  5
2BB
102
{ACAD_REACTORS
330
2B3
102
}
330
2B3
100
AcDbScale
 70
     0
300
1:20
140
1.0
141
20.0
290
     0
  0
SCALE
  5
2BC
102
{ACAD_REACTORS
330
2B3
102
}
330
2B3
100
AcDbScale
 70
     0
300
1:30
140
1.0
141
30.0
290
     0
  0
SCALE
  5
2BD
102
{ACAD_REACTORS
330
2B3
102
}
330
2B3
100
AcDbScale
 70
     0
300
1:40
140
1.0
141
40.0
290
     0
  0
SCALE
  5
2BE
102
{ACAD_REACTORS
330
2B3
102
}
330
2B3
100
AcDbScale
 70
     0
300
1:50
140
1.0
141
50.0
290
     0
  0
SCALE
  5
2BF
102
{ACAD_REACTORS
330
2B3
102
}
330
2B3
100
AcDbScale
 70
     0
300
1:100
140
1.0
141
100.0
290
     0
  0
SCALE
  5
2C0
102
{ACAD_REACTORS
330
2B3
102
}
330
2B3
100
AcDbScale
 70
     0
300
2:1
140
2.0
141
1.0
290
     0
  0
SCALE
  5
2C1
102
{ACAD_REACTORS
330
2B3
102
}
330
2B3
100
AcDbScale
 70
     0
300
4:1
140
4.0
141
1.0
290
     0
  0
SCALE
  5
2C2
102
{ACAD_REACTORS
330
2B3
102
}
330
2B3
100
AcDbScale
 70
     0
300
8:1
140
8.0
141
1.0
290
     0
  0
SCALE
  5
2C3
102
{ACAD_REACTORS
330
2B3
102
}
330
2B3
100
AcDbScale
 70
     0
300
10:1
140
10.0
141
1.0
290
     0
  0
SCALE
  5
2C4
102
{ACAD_REACTORS
330
2B3
102
}
330
2B3
100
AcDbScale
 70
     0
300
100:1
140
100.0
141
1.0
290
     0
  0
SCALE
  5
2C5
102
{ACAD_REACTORS
330
2B3
102
}
330
2B3
100
AcDbScale
 70
     0
300
1/128" = 1'-0"
140
0.0078125
141
12.0
290
     0
  0
SCALE
  5
2C6
102
{ACAD_REACTORS
330
2B3
102
}
330
2B3
100
AcDbScale
 70
     0
300
1/64" = 1'-0"
140
0.015625
141
12.0
290
     0
  0
SCALE
  5
2C7
102
{ACAD_REACTORS
330
2B3
102
}
330
2B3
100
AcDbScale
 70
     0
300
1/32" = 1'-0"
140
0.03125
141
12.0
290
     0
  0
SCALE
  5
2C8
102
{ACAD_REACTORS
330
2B3
102
}
330
2B3
100
AcDbScale
 70
     0
300
1/16" = 1'-0"
140
0.0625
141
12.0
290
     0
  0
SCALE
  5
2C9
102
{ACAD_REACTORS
330
2B3
102
}
330
2B3
100
AcDbScale
 70
     0
300
3/32" = 1'-0"
140
0.09375
141
12.0
290
     0
  0
SCALE
  5
2CA
102
{ACAD_REACTORS
330
2B3
102
}
330
2B3
100
AcDbScale
 70
     0
300
1/8" = 1'-0"
140
0.125
141
12.0
290
     0
  0
SCALE
  5
2CB
102
{ACAD_REACTORS
330
2B3
102
}
330
2B3
100
AcDbScale
 70
     0
300
3/16" = 1'-0"
140
0.1875
141
12.0
290
     0
  0
SCALE
  5
2CC
102
{ACAD_REACTORS
330
2B3
102
}
330
2B3
100
AcDbScale
 70
     0
300
1/4" = 1'-0"
140
0.25
141
12.0
290
     0
  0
SCALE
  5
2CD
102
{ACAD_REACTORS
330
2B3
102
}
330
2B3
100
AcDbScale
 70
     0
300
3/8" = 1'-0"
140
0.375
141
12.0
290
     0
  0
SCALE
  5
2CE
102
{ACAD_REACTORS
330
2B3
102
}
330
2B3
100
AcDbScale
 70
     0
300
1/2" = 1'-0"
140
0.5
141
12.0
290
     0
  0
SCALE
  5
2CF
102
{ACAD_REACTORS
330
2B3
102
}
330
2B3
100
AcDbScale
 70
     0
300
3/4" = 1'-0"
140
0.75
141
12.0
290
     0
  0
SCALE
  5
2D0
102
{ACAD_REACTORS
330
2B3
102
}
330
2B3
100
AcDbScale
 70
     0
300
1" = 1'-0"
140
1.0
141
12.0
290
     0
  0
SCALE
  5
2D1
102
{ACAD_REACTORS
330
2B3
102
}
330
2B3
100
AcDbScale
 70
     0
300
1-1/2" = 1'-0"
140
1.5
141
12.0
290
     0
  0
SCALE
  5
2D2
102
{ACAD_REACTORS
330
2B3
102
}
330
2B3
100
AcDbScale
 70
     0
300
3" = 1'-0"
140
3.0
141
12.0
290
     0
  0
SCALE
  5
2D3
102
{ACAD_REACTORS
330
2B3
102
}
330
2B3
100
AcDbScale
 70
     0
300
6" = 1'-0"
140
6.0
141
12.0
290
     0
  0
SCALE
  5
2D4
102
{ACAD_REACTORS
330
2B3
102
}
330
2B3
100
AcDbScale
 70
     0
300
1'-0" = 1'-0"
140
12.0
141
12.0
290
     0
  0
TABLESTYLE
  5
122
102
{ACAD_XDICTIONARY
360
2F5
102
}
102
{ACAD_REACTORS
330
121
102
}
330
121
100
AcDbTableStyle
  3
Standard
 70
     0
 71
     0
 40
1.5
 41
1.5
280
     0
281
     0
  7
STANDARD
140
4.5
170
     2
 62
     0
 63
     7
283
     0
 90
      512
 91
        0
  1

274
    -2
284
     1
 64
     0
275
    -2
285
     1
 65
     0
276
    -2
286
     1
 66
     0
277
    -2
287
     1
 67
     0
278
    -2
288
     1
 68
     0
279
    -2
289
     1
 69
     0
  7
STANDARD
140
6.0
170
     5
 62
     0
 63
     7
283
     0
 90
      512
 91
        0
  1

274
    -2
284
     1
 64
     0
275
    -2
285
     1
 65
     0
276
    -2
286
     1
 66
     0
277
    -2
287
     1
 67
     0
278
    -2
288
     1
 68
     0
279
    -2
289
     1
 69
     0
  7
STANDARD
140
4.5
170
     5
 62
     0
 63
     7
283
     0
 90
      512
 91
        0
  1

274
    -2
284
     1
 64
     0
275
    -2
285
     1
 65
     0
276
    -2
286
     1
 66
     0
277
    -2
287
     1
 67
     0
278
    -2
288
     1
 68
     0
279
    -2
289
     1
 69
     0
  0
VISUALSTYLE
  5
285
102
{ACAD_REACTORS
330
27F
102
}
330
27F
100
AcDbVisualStyle
  2
2dWireframe
 70
     4
 71
     0
 72
     2
 73
     0
 90
        0
 40
-0.6
 41
-30.0
 62
     5
 63
     7
421
 16777215
 74
     1
 91
        4
 64
     7
 65
   257
 75
     1
175
     1
 42
1.0
 92
        0
 66
   257
 43
1.0
 76
     1
 77
     6
 78
     2
 67
     7
 79
     5
170
     0
171
     0
290
     0
174
     0
 93
        1
 44
0.0
173
     0
291
     0
 45
0.0
  0
VISUALSTYLE
  5
287
102
{ACAD_REACTORS
330
27F
102
}
330
27F
100
AcDbVisualStyle
  2
3D Hidden
 70
     6
 71
     1
 72
     2
 73
     2
 90
        0
 40
-0.6
 41
-30.0
 62
     5
 63
     7
421
 16777215
 74
     2
 91
        2
 64
     7
 65
   257
 75
     2
175
     1
 42
40.0
 92
        0
 66
   257
 43
1.0
 76
     1
 77
     6
 78
     2
 67
     7
 79
     3
170
     0
171
     0
290
     0
174
     0
 93
        1
 44
0.0
173
     0
291
     0
 45
0.0
  0
VISUALSTYLE
  5
286
102
{ACAD_REACTORS
330
27F
102
}
330
27F
100
AcDbVisualStyle
  2
3dWireframe
 70
     5
 71
     0
 72
     2
 73
     0
 90
        0
 40
-0.6
 41
-30.0
 62
     5
 63
     7
421
 16777215
 74
     1
 91
        4
 64
     7
 65
   257
 75
     1
175
     1
 42
1.0
 92
        0
 66
   257
 43
1.0
 76
     1
 77
     6
 78
     2
 67
     7
 79
     5
170
     0
171
     0
290
     0
174
     0
 93
        1
 44
0.0
173
     0
291
     0
 45
0.0
  0
VISUALSTYLE
  5
284
102
{ACAD_REACTORS
330
27F
102
}
330
27F
100
AcDbVisualStyle
  2
Basic
 70
     7
 71
     1
 72
     0
 73
     1
 90
        0
 40
-0.6
 41
-30.0
 62
     5
 63
     7
421
 16777215
 74
     0
 91
        4
 64
     7
 65
   257
 75
     1
175
     1
 42
1.0
 92
        8
 66
     7
 43
1.0
 76
     1
 77
     6
 78
     2
 67
     7
 79
     5
170
     0
171
     0
290
     0
174
     0
 93
        1
 44
0.0
173
     0
291
     1
 45
0.0
  0
VISUALSTYLE
  5
28B
102
{ACAD_REACTORS
330
27F
102
}
330
27F
100
AcDbVisualStyle
  2
Brighten
 70
    12
 71
     2
 72
     2
 73
     0
 90
        0
 40
-0.6
 41
-30.0
 62
     5
 63
     7
421
 16777215
 74
     1
 91
        4
 64
     7
 65
   257
 75
     1
175
     1
 42
1.0
 92
        8
 66
     7
 43
1.0
 76
     1
 77
     6
 78
     2
 67
     7
 79
     5
170
     0
171
     0
290
     0
174
     0
 93
        1
 44
50.0
173
     0
291
     1
 45
0.0
  0
VISUALSTYLE
  5
28F
102
{ACAD_REACTORS
330
27F
102
}
330
27F
100
AcDbVisualStyle
  2
ColorChange
 70
    16
 71
     2
 72
     2
 73
     3
 90
        0
 40
-0.6
 41
-30.0
 62
     5
 63
     8
421
  8421504
 74
     1
 91
        4
 64
     7
 65
   257
 75
     1
175
     1
 42
1.0
 92
        8
 66
     8
424
  8421504
 43
1.0
 76
     1
 77
     6
 78
     2
 67
     7
 79
     5
170
     0
171
     0
290
     0
174
     0
 93
        1
 44
0.0
173
     0
291
     1
 45
0.0
  0
VISUALSTYLE
  5
288
102
{ACAD_REACTORS
330
27F
102
}
330
27F
100
AcDbVisualStyle
  2
Conceptual
 70
     9
 71
     3
 72
     2
 73
     0
 90
        0
 40
-0.6
 41
-30.0
 62
     5
 63
     7
421
 16777215
 74
     2
 91
        2
 64
     7
 65
   257
 75
     1
175
     1
 42
40.0
 92
        8
 66
     7
 43
1.0
 76
     1
 77
     6
 78
     2
 67
     7
 79
     3
170
     0
171
     0
290
     0
174
     0
 93
        1
 44
0.0
173
     0
291
     0
 45
0.0
  0
VISUALSTYLE
  5
28A
102
{ACAD_REACTORS
330
27F
102
}
330
27F
100
AcDbVisualStyle
  2
Dim
 70
    11
 71
     2
 72
     2
 73
     0
 90
        0
 40
-0.6
 41
-30.0
 62
     5
 63
     7
421
 16777215
 74
     1
 91
        4
 64
     7
 65
   257
 75
     1
175
     1
 42
1.0
 92
        8
 66
     7
 43
1.0
 76
     1
 77
     6
 78
     2
 67
     7
 79
     5
170
     0
171
     0
290
     0
174
     0
 93
        1
 44
-50.0
173
     0
291
     1
 45
0.0
  0
VISUALSTYLE
  5
28E
102
{ACAD_REACTORS
330
27F
102
}
330
27F
100
AcDbVisualStyle
  2
Facepattern
 70
    15
 71
     2
 72
     2
 73
     0
 90
        0
 40
-0.6
 41
-30.0
 62
     5
 63
     7
421
 16777215
 74
     1
 91
        4
 64
     7
 65
   257
 75
     1
175
     1
 42
1.0
 92
        8
 66
     7
 43
1.0
 76
     1
 77
     6
 78
     2
 67
     7
 79
     5
170
     0
171
     0
290
     0
174
     0
 93
        1
 44
0.0
173
     0
291
     1
 45
0.0
  0
VISUALSTYLE
  5
280
102
{ACAD_REACTORS
330
27F
102
}
330
27F
100
AcDbVisualStyle
  2
Flat
 70
     0
 71
     2
 72
     1
 73
     1
 90
        2
 40
-0.6
 41
30.0
 62
     5
 63
     7
421
 16777215
 74
     0
 91
        4
 64
     7
 65
   257
 75
     1
175
     1
 42
1.0
 92
        8
 66
     7
 43
1.0
 76
     1
 77
     6
 78
     2
 67
     7
 79
     5
170
     0
171
     0
290
     0
174
     0
 93
       13
 44
0.0
173
     0
291
     1
 45
0.0
  0
VISUALSTYLE
  5
281
102
{ACAD_REACTORS
330
27F
102
}
330
27F
100
AcDbVisualStyle
  2
FlatWithEdges
 70
     1
 71
     2
 72
     1
 73
     1
 90
        2
 40
-0.6
 41
30.0
 62
     5
 63
     7
421
 16777215
 74
     1
 91
        4
 64
     7
 65
   257
 75
     1
175
     1
 42
1.0
 92
        0
 66
   257
 43
1.0
 76
     1
 77
     6
 78
     2
 67
     7
 79
     5
170
     0
171
     0
290
     0
174
     0
 93
       13
 44
0.0
173
     0
291
     1
 45
0.0
  0
VISUALSTYLE
  5
282
102
{ACAD_REACTORS
330
27F
102
}
330
27F
100
AcDbVisualStyle
  2
Gouraud
 70
     2
 71
     2
 72
     2
 73
     1
 90
        2
 40
-0.6
 41
30.0
 62
     5
 63
     7
421
 16777215
 74
     0
 91
        4
 64
     7
 65
   257
 75
     1
175
     1
 42
1.0
 92
        0
 66
     7
 43
1.0
 76
     1
 77
     6
 78
     2
 67
     7
 79
     5
170
     0
171
     0
290
     0
174
     0
 93
       13
 44
0.0
173
     0
291
     1
 45
0.0
  0
VISUALSTYLE
  5
283
102
{ACAD_REACTORS
330
27F
102
}
330
27F
100
AcDbVisualStyle
  2
GouraudWithEdges
 70
     3
 71
     2
 72
     2
 73
     1
 90
        2
 40
-0.6
 41
30.0
 62
     5
 63
     7
421
 16777215
 74
     1
 91
        4
 64
     7
 65
   257
 75
     1
175
     1
 42
1.0
 92
        0
 66
   257
 43
1.0
 76
     1
 77
     6
 78
     2
 67
     7
 79
     5
170
     0
171
     0
290
     0
174
     0
 93
       13
 44
0.0
173
     0
291
     1
 45
0.0
  0
VISUALSTYLE
  5
28D
102
{ACAD_REACTORS
330
27F
102
}
330
27F
100
AcDbVisualStyle
  2
Linepattern
 70
    14
 71
     2
 72
     2
 73
     0
 90
        0
 40
-0.6
 41
-30.0
 62
     5
 63
     7
421
 16777215
 74
     1
 91
        4
 64
     7
 65
   257
 75
     7
175
     7
 42
1.0
 92
        8
 66
     7
 43
1.0
 76
     1
 77
     6
 78
     2
 67
     7
 79
     5
170
     0
171
     0
290
     0
174
     0
 93
        1
 44
0.0
173
     0
291
     1
 45
0.0
  0
VISUALSTYLE
  5
289
102
{ACAD_REACTORS
330
27F
102
}
330
27F
100
AcDbVisualStyle
  2
Realistic
 70
     8
 71
     2
 72
     2
 73
     0
 90
        0
 40
-0.6
 41
-30.0
 62
     5
 63
     7
421
 16777215
 74
     1
 91
        0
 64
     7
 65
   257
 75
     1
175
     1
 42
1.0
 92
        8
 66
     8
424
  7895160
 43
1.0
 76
     1
 77
     6
 78
     2
 67
     7
 79
     5
170
     0
171
     0
290
     0
174
     0
 93
       13
 44
0.0
173
     0
291
     0
 45
0.0
  0
VISUALSTYLE
  5
28C
102
{ACAD_REACTORS
330
27F
102
}
330
27F
100
AcDbVisualStyle
  2
Thicken
 70
    13
 71
     2
 72
     2
 73
     0
 90
        0
 40
-0.6
 41
-30.0
 62
     5
 63
     7
421
 16777215
 74
     1
 91
        4
 64
     7
 65
   257
 75
     1
175
     1
 42
1.0
 92
       12
 66
     7
 43
1.0
 76
     1
 77
     6
 78
     2
 67
     7
 79
     5
170
     0
171
     0
290
     0
174
     0
 93
        1
 44
0.0
173
     0
291
     1
 45
0.0
  0
DICTIONARYVAR
  5
2FA
102
{ACAD_REACTORS
330
34
102
}
330
34
100
DictionaryVariables
280
     0
  1
1:2.5
  0
DICTIONARYVAR
  5
2F8
102
{ACAD_REACTORS
330
34
102
}
330
34
100
DictionaryVariables
280
     0
  1
STANDARD
  0
DICTIONARYVAR
  5
140
102
{ACAD_REACTORS
330
34
102
}
330
34
100
DictionaryVariables
280
     0
  1
STANDARD
  0
DICTIONARYVAR
  5
AC
102
{ACAD_REACTORS
330
34
102
}
330
34
100
DictionaryVariables
280
     0
  1
1
  0
DICTIONARYVAR
  5
35
102
{ACAD_REACTORS
330
34
102
}
330
34
100
DictionaryVariables
280
     0
  1
1
  0
DICTIONARYVAR
  5
4F87
102
{ACAD_REACTORS
330
34
102
}
330
34
100
DictionaryVariables
280
     0
  1
1
  0
DICTIONARYVAR
  5
4F88
102
{ACAD_REACTORS
330
34
102
}
330
34
100
DictionaryVariables
280
     0
  1
15
  0
DICTIONARYVAR
  5
2FB
102
{ACAD_REACTORS
330
34
102
}
330
34
100
DictionaryVariables
280
     0
  1
0
  0
DICTIONARYVAR
  5
2F9
102
{ACAD_REACTORS
330
34
102
}
330
34
100
DictionaryVariables
280
     0
  1
0
  0
DICTIONARY
  5
161B
102
{ACAD_REACTORS
330
49
102
}
330
49
100
AcDbDictionary
281
     1
  0
DICTIONARY
  5
4A
102
{ACAD_REACTORS
330
49
102
}
330
49
100
AcDbDictionary
281
     1
  0
XRECORD
  5
12B
102
{ACAD_REACTORS
330
49
102
}
330
49
100
AcDbXrecord
280
     1
 90
-1023410169
  0
DICTIONARY
  5
2F5
330
122
100
AcDbDictionary
280
     1
281
     1
  3
ACAD_ROUNDTRIP_2008_TABLESTYLE_CELLSTYLEMAP
360
5A96
  0
CELLSTYLEMAP
  5
5A96
102
{ACAD_REACTORS
330
2F5
102
}
330
2F5
100
AcDbCellStyleMap
 90
        3
300
CELLSTYLE
  1
TABLEFORMAT_BEGIN
 90
        5
170
     1
 91
        0
 92
    32768
 62
   257
 93
        1
300
CONTENTFORMAT
  1
CONTENTFORMAT_BEGIN
 90
        0
 91
        0
 92
      512
 93
        0
300

 40
0.0
140
1.0
 94
        5
 62
     0
340
11
144
6.0
309
CONTENTFORMAT_END
171
     1
301
MARGIN
  1
CELLMARGIN_BEGIN
 40
1.5
 40
1.5
 40
1.5
 40
1.5
 40
0.18
 40
0.18
309
CELLMARGIN_END
 94
        6
 95
        1
302
GRIDFORMAT
  1
GRIDFORMAT_BEGIN
 90
        0
 91
        1
 62
     0
 92
       -2
340
0
 93
        0
 40
0.045
309
GRIDFORMAT_END
 95
        2
302
GRIDFORMAT
  1
GRIDFORMAT_BEGIN
 90
        0
 91
        1
 62
     0
 92
       -2
340
0
 93
        0
 40
0.045
309
GRIDFORMAT_END
 95
        4
302
GRIDFORMAT
  1
GRIDFORMAT_BEGIN
 90
        0
 91
        1
 62
     0
 92
       -2
340
0
 93
        0
 40
0.045
309
GRIDFORMAT_END
 95
        8
302
GRIDFORMAT
  1
GRIDFORMAT_BEGIN
 90
        0
 91
        1
 62
     0
 92
       -2
340
0
 93
        0
 40
0.045
309
GRIDFORMAT_END
 95
       16
302
GRIDFORMAT
  1
GRIDFORMAT_BEGIN
 90
        0
 91
        1
 62
     0
 92
       -2
340
0
 93
        0
 40
0.045
309
GRIDFORMAT_END
 95
       32
302
GRIDFORMAT
  1
GRIDFORMAT_BEGIN
 90
        0
 91
        1
 62
     0
 92
       -2
340
0
 93
        0
 40
0.045
309
GRIDFORMAT_END
309
TABLEFORMAT_END
  1
CELLSTYLE_BEGIN
 90
        1
 91
        1
300
_TITLE
309
CELLSTYLE_END
300
CELLSTYLE
  1
TABLEFORMAT_BEGIN
 90
        5
170
     1
 91
        0
 92
        0
 62
   257
 93
        1
300
CONTENTFORMAT
  1
CONTENTFORMAT_BEGIN
 90
        0
 91
        0
 92
      512
 93
        0
300

 40
0.0
140
1.0
 94
        5
 62
     0
340
11
144
4.5
309
CONTENTFORMAT_END
171
     1
301
MARGIN
  1
CELLMARGIN_BEGIN
 40
1.5
 40
1.5
 40
1.5
 40
1.5
 40
0.18
 40
0.18
309
CELLMARGIN_END
 94
        6
 95
        1
302
GRIDFORMAT
  1
GRIDFORMAT_BEGIN
 90
        0
 91
        1
 62
     0
 92
       -2
340
0
 93
        0
 40
0.045
309
GRIDFORMAT_END
 95
        2
302
GRIDFORMAT
  1
GRIDFORMAT_BEGIN
 90
        0
 91
        1
 62
     0
 92
       -2
340
0
 93
        0
 40
0.045
309
GRIDFORMAT_END
 95
        4
302
GRIDFORMAT
  1
GRIDFORMAT_BEGIN
 90
        0
 91
        1
 62
     0
 92
       -2
340
0
 93
        0
 40
0.045
309
GRIDFORMAT_END
 95
        8
302
GRIDFORMAT
  1
GRIDFORMAT_BEGIN
 90
        0
 91
        1
 62
     0
 92
       -2
340
0
 93
        0
 40
0.045
309
GRIDFORMAT_END
 95
       16
302
GRIDFORMAT
  1
GRIDFORMAT_BEGIN
 90
        0
 91
        1
 62
     0
 92
       -2
340
0
 93
        0
 40
0.045
309
GRIDFORMAT_END
 95
       32
302
GRIDFORMAT
  1
GRIDFORMAT_BEGIN
 90
        0
 91
        1
 62
     0
 92
       -2
340
0
 93
        0
 40
0.045
309
GRIDFORMAT_END
309
TABLEFORMAT_END
  1
CELLSTYLE_BEGIN
 90
        2
 91
        1
300
_HEADER
309
CELLSTYLE_END
300
CELLSTYLE
  1
TABLEFORMAT_BEGIN
 90
        5
170
     1
 91
        0
 92
        0
 62
   257
 93
        1
300
CONTENTFORMAT
  1
CONTENTFORMAT_BEGIN
 90
        0
 91
        0
 92
      512
 93
        0
300

 40
0.0
140
1.0
 94
        2
 62
     0
340
11
144
4.5
309
CONTENTFORMAT_END
171
     1
301
MARGIN
  1
CELLMARGIN_BEGIN
 40
1.5
 40
1.5
 40
1.5
 40
1.5
 40
0.18
 40
0.18
309
CELLMARGIN_END
 94
        6
 95
        1
302
GRIDFORMAT
  1
GRIDFORMAT_BEGIN
 90
        0
 91
        1
 62
     0
 92
       -2
340
0
 93
        0
 40
0.045
309
GRIDFORMAT_END
 95
        2
302
GRIDFORMAT
  1
GRIDFORMAT_BEGIN
 90
        0
 91
        1
 62
     0
 92
       -2
340
0
 93
        0
 40
0.045
309
GRIDFORMAT_END
 95
        4
302
GRIDFORMAT
  1
GRIDFORMAT_BEGIN
 90
        0
 91
        1
 62
     0
 92
       -2
340
0
 93
        0
 40
0.045
309
GRIDFORMAT_END
 95
        8
302
GRIDFORMAT
  1
GRIDFORMAT_BEGIN
 90
        0
 91
        1
 62
     0
 92
       -2
340
0
 93
        0
 40
0.045
309
GRIDFORMAT_END
 95
       16
302
GRIDFORMAT
  1
GRIDFORMAT_BEGIN
 90
        0
 91
        1
 62
     0
 92
       -2
340
0
 93
        0
 40
0.045
309
GRIDFORMAT_END
 95
       32
302
GRIDFORMAT
  1
GRIDFORMAT_BEGIN
 90
        0
 91
        1
 62
     0
 92
       -2
340
0
 93
        0
 40
0.045
309
GRIDFORMAT_END
309
TABLEFORMAT_END
  1
CELLSTYLE_BEGIN
 90
        3
 91
        2
300
_DATA
309
CELLSTYLE_END
  0
ENDSEC
  0
EOF
