  0
SECTION
  2
HEADER
  9
$ACADVER
  1
AC1021
  9
$ACADMAINTVER
 70
    26
  9
$DWGCODEPAGE
  3
ANSI_932
  9
$LASTSAVEDBY
  1
Htm_Terada
  9
$CUSTOMPROPERTYTAG
  1
AmdtFileType
  9
$CUSTOMPROPERTY
  1
84
  9
$INSBASE
 10
0.0
 20
0.0
 30
0.0
  9
$EXTMIN
 10
429.9149361462459
 20
283.47244540168
 30
-0.0000000349181948
  9
$EXTMAX
 10
765.9523800055512
 20
708.6891194790241
 30
0.0000000814935747
  9
$LIMMIN
 10
-0.0000002271699202
 20
0.0
  9
$LIMMAX
 10
1485.000000340755
 20
1050.0
  9
$ORTHOMODE
 70
     1
  9
$REGENMODE
 70
     1
  9
$FILLMODE
 70
     1
  9
$QTEXTMODE
 70
     0
  9
$MIRRTEXT
 70
     1
  9
$LTSCALE
 40
2.5
  9
$ATTMODE
 70
     1
  9
$TEXTSIZE
 40
25.0
  9
$TRACEWID
 40
1.0
  9
$TEXTSTYLE
  7
SEISA
  9
$CLAYER
  8
AM_11 想像線
  9
$CELTYPE
  6
ByLayer
  9
$CECOLOR
 62
   256
  9
$CELTSCALE
 40
1.0
  9
$DISPSILH
 70
     0
  9
$DIMSCALE
 40
2.5
  9
$DIMASZ
 40
2.5
  9
$DIMEXO
 40
0.625
  9
$DIMDLI
 40
10.0
  9
$DIMRND
 40
0.0
  9
$DIMDLE
 40
0.0
  9
$DIMEXE
 40
0.625
  9
$DIMTP
 40
0.1
  9
$DIMTM
 40
0.1
  9
$DIMTXT
 40
3.5
  9
$DIMCEN
 40
0.0
  9
$DIMTSZ
 40
0.0
  9
$DIMTOL
 70
     0
  9
$DIMLIM
 70
     0
  9
$DIMTIH
 70
     0
  9
$DIMTOH
 70
     0
  9
$DIMSE1
 70
     0
  9
$DIMSE2
 70
     0
  9
$DIMTAD
 70
     3
  9
$DIMZIN
 70
     8
  9
$DIMBLK
  1
Open30
  9
$DIMASO
 70
     1
  9
$DIMSHO
 70
     1
  9
$DIMPOST
  1

  9
$DIMAPOST
  1
"
  9
$DIMALT
 70
     0
  9
$DIMALTD
 70
     2
  9
$DIMALTF
 40
0.0393701
  9
$DIMLFAC
 40
1.0
  9
$DIMTOFL
 70
     1
  9
$DIMTVP
 40
0.0
  9
$DIMTIX
 70
     0
  9
$DIMSOXD
 70
     0
  9
$DIMSAH
 70
     0
  9
$DIMBLK1
  1

  9
$DIMBLK2
  1

  9
$DIMSTYLE
  2
SEISA
  9
$DIMCLRD
 70
     3
  9
$DIMCLRE
 70
     3
  9
$DIMCLRT
 70
     3
  9
$DIMTFAC
 40
0.71
  9
$DIMGAP
 40
1.5
  9
$DIMJUST
 70
     0
  9
$DIMSD1
 70
     0
  9
$DIMSD2
 70
     0
  9
$DIMTOLJ
 70
     0
  9
$DIMTZIN
 70
     0
  9
$DIMALTZ
 70
     0
  9
$DIMALTTZ
 70
     8
  9
$DIMUPT
 70
     0
  9
$DIMDEC
 70
     2
  9
$DIMTDEC
 70
     2
  9
$DIMALTU
 70
     2
  9
$DIMALTTD
 70
     2
  9
$DIMTXSTY
  7
SEISA
  9
$DIMAUNIT
 70
     0
  9
$DIMADEC
 70
     0
  9
$DIMALTRND
 40
0.0
  9
$DIMAZIN
 70
     2
  9
$DIMDSEP
 70
    46
  9
$DIMATFIT
 70
     3
  9
$DIMFRAC
 70
     0
  9
$DIMLDRBLK
  1
Open30
  9
$DIMLUNIT
 70
     2
  9
$DIMLWD
 70
    -1
  9
$DIMLWE
 70
    -1
  9
$DIMTMOVE
 70
     0
  9
$DIMFXL
 40
1.0
  9
$DIMFXLON
 70
     0
  9
$DIMJOGANG
 40
0.7853981633974483
  9
$DIMTFILL
 70
     0
  9
$DIMTFILLCLR
 70
     0
  9
$DIMARCSYM
 70
     1
  9
$DIMLTYPE
  6

  9
$DIMLTEX1
  6

  9
$DIMLTEX2
  6

  9
$LUNITS
 70
     2
  9
$LUPREC
 70
     2
  9
$SKETCHINC
 40
1.0
  9
$FILLETRAD
 40
0.6
  9
$AUNITS
 70
     0
  9
$AUPREC
 70
     0
  9
$MENU
  1
.
  9
$ELEVATION
 40
0.0
  9
$PELEVATION
 40
0.0
  9
$THICKNESS
 40
0.0
  9
$LIMCHECK
 70
     0
  9
$CHAMFERA
 40
2.0
  9
$CHAMFERB
 40
2.000000000000055
  9
$CHAMFERC
 40
2.0
  9
$CHAMFERD
 40
0.7853981633974483
  9
$SKPOLY
 70
     0
  9
$TDCREATE
 40
2454965.657175903
  9
$TDUCREATE
 40
2454965.282175903
  9
$TDUPDATE
 40
2456479.552318611
  9
$TDUUPDATE
 40
2456479.177318611
  9
$TDINDWG
 40
0.1891613079
  9
$TDUSRTIMER
 40
0.1891607639
  9
$USRTIMER
 70
     1
  9
$ANGBASE
 50
0.0
  9
$ANGDIR
 70
     0
  9
$PDMODE
 70
     0
  9
$PDSIZE
 40
0.0
  9
$PLINEWID
 40
0.0
  9
$SPLFRAME
 70
     0
  9
$SPLINETYPE
 70
     6
  9
$SPLINESEGS
 70
     8
  9
$HANDSEED
  5
5C58
  9
$SURFTAB1
 70
     6
  9
$SURFTAB2
 70
     6
  9
$SURFTYPE
 70
     6
  9
$SURFU
 70
     6
  9
$SURFV
 70
     6
  9
$UCSBASE
  2

  9
$UCSNAME
  2

  9
$UCSORG
 10
0.0
 20
0.0
 30
0.0
  9
$UCSXDIR
 10
1.0
 20
0.0
 30
0.0
  9
$UCSYDIR
 10
0.0
 20
1.0
 30
0.0
  9
$UCSORTHOREF
  2

  9
$UCSORTHOVIEW
 70
     0
  9
$UCSORGTOP
 10
0.0
 20
0.0
 30
0.0
  9
$UCSORGBOTTOM
 10
0.0
 20
0.0
 30
0.0
  9
$UCSORGLEFT
 10
0.0
 20
0.0
 30
0.0
  9
$UCSORGRIGHT
 10
0.0
 20
0.0
 30
0.0
  9
$UCSORGFRONT
 10
0.0
 20
0.0
 30
0.0
  9
$UCSORGBACK
 10
0.0
 20
0.0
 30
0.0
  9
$PUCSBASE
  2

  9
$PUCSNAME
  2

  9
$PUCSORG
 10
0.0
 20
0.0
 30
0.0
  9
$PUCSXDIR
 10
1.0
 20
0.0
 30
0.0
  9
$PUCSYDIR
 10
0.0
 20
1.0
 30
0.0
  9
$PUCSORTHOREF
  2

  9
$PUCSORTHOVIEW
 70
     0
  9
$PUCSORGTOP
 10
0.0
 20
0.0
 30
0.0
  9
$PUCSORGBOTTOM
 10
0.0
 20
0.0
 30
0.0
  9
$PUCSORGLEFT
 10
0.0
 20
0.0
 30
0.0
  9
$PUCSORGRIGHT
 10
0.0
 20
0.0
 30
0.0
  9
$PUCSORGFRONT
 10
0.0
 20
0.0
 30
0.0
  9
$PUCSORGBACK
 10
0.0
 20
0.0
 30
0.0
  9
$USERI1
 70
     0
  9
$USERI2
 70
     0
  9
$USERI3
 70
     0
  9
$USERI4
 70
     0
  9
$USERI5
 70
     0
  9
$USERR1
 40
0.0
  9
$USERR2
 40
0.0
  9
$USERR3
 40
0.0
  9
$USERR4
 40
0.0
  9
$USERR5
 40
0.0
  9
$WORLDVIEW
 70
     1
  9
$SHADEDGE
 70
     3
  9
$SHADEDIF
 70
    70
  9
$TILEMODE
 70
     1
  9
$MAXACTVP
 70
    64
  9
$PINSBASE
 10
0.0
 20
0.0
 30
0.0
  9
$PLIMCHECK
 70
     0
  9
$PEXTMIN
 10
1.000000000000000E+20
 20
1.000000000000000E+20
 30
1.000000000000000E+20
  9
$PEXTMAX
 10
-1.000000000000000E+20
 20
-1.000000000000000E+20
 30
-1.000000000000000E+20
  9
$PLIMMIN
 10
0.0
 20
0.0
  9
$PLIMMAX
 10
420.0
 20
297.0
  9
$UNITMODE
 70
     0
  9
$VISRETAIN
 70
     1
  9
$PLINEGEN
 70
     0
  9
$PSLTSCALE
 70
     1
  9
$TREEDEPTH
 70
  3020
  9
$CMLSTYLE
  2
Standard
  9
$CMLJUST
 70
     0
  9
$CMLSCALE
 40
20.0
  9
$PROXYGRAPHICS
 70
     1
  9
$MEASUREMENT
 70
     1
  9
$CELWEIGHT
370
    -1
  9
$ENDCAPS
280
     0
  9
$JOINSTYLE
280
     0
  9
$LWDISPLAY
290
     0
  9
$INSUNITS
 70
     4
  9
$HYPERLINKBASE
  1

  9
$STYLESHEET
  1
SEISA.CTB
  9
$XEDIT
290
     1
  9
$CEPSNTYPE
380
     0
  9
$PSTYLEMODE
290
     1
  9
$FINGERPRINTGUID
  2
{CC7089DC-E918-49B6-8E30-62F3171DDEAC}
  9
$VERSIONGUID
  2
{CF4B8E20-8C1A-452E-9917-351D07169AEB}
  9
$EXTNAMES
290
     1
  9
$PSVPSCALE
 40
0.0
  9
$OLESTARTUP
290
     0
  9
$SORTENTS
280
   127
  9
$INDEXCTL
280
     0
  9
$HIDETEXT
280
     0
  9
$XCLIPFRAME
290
     0
  9
$HALOGAP
280
     0
  9
$OBSCOLOR
 70
   257
  9
$OBSLTYPE
280
     0
  9
$INTERSECTIONDISPLAY
280
     0
  9
$INTERSECTIONCOLOR
 70
   257
  9
$DIMASSOC
280
     2
  9
$PROJECTNAME
  1

  9
$CAMERADISPLAY
290
     0
  9
$LENSLENGTH
 40
50.0
  9
$CAMERAHEIGHT
 40
0.0
  9
$STEPSPERSEC
 40
2.0
  9
$STEPSIZE
 40
6.0
  9
$3DDWFPREC
 40
2.0
  9
$PSOLWIDTH
 40
0.25
  9
$PSOLHEIGHT
 40
4.0
  9
$LOFTANG1
 40
1.570796326794896
  9
$LOFTANG2
 40
1.570796326794896
  9
$LOFTMAG1
 40
0.0
  9
$LOFTMAG2
 40
0.0
  9
$LOFTPARAM
 70
     7
  9
$LOFTNORMALS
280
     1
  9
$LATITUDE
 40
37.795
  9
$LONGITUDE
 40
-122.394
  9
$NORTHDIRECTION
 40
0.0
  9
$TIMEZONE
 70
 -8000
  9
$LIGHTGLYPHDISPLAY
280
     1
  9
$TILEMODELIGHTSYNCH
280
     1
  9
$CMATERIAL
347
27C
  9
$SOLIDHIST
280
     1
  9
$SHOWHIST
280
     1
  9
$DWFFRAME
280
     2
  9
$DGNFRAME
280
     0
  9
$REALWORLDSCALE
290
     1
  9
$INTERFERECOLOR
 62
     1
  9
$INTERFEREOBJVS
345
289
  9
$INTERFEREVPVS
346
286
  9
$CSHADOW
280
     0
  9
$SHADOWPLANELOCATION
 40
0.0
  0
ENDSEC
  0
SECTION
  2
CLASSES
  0
CLASS
  1
ACDBDICTIONARYWDFLT
  2
AcDbDictionaryWithDefault
  3
ObjectDBX Classes
 90
        0
 91
        1
280
     0
281
     0
  0
CLASS
  1
AMGSETTINGSOBJ
  2
AmgSettingsObj
  3
"AcadM|Product Description: AutoCAD Mechanical|Company: Autodesk, Inc."
 90
     1024
 91
        2
280
     0
281
     0
  0
CLASS
  1
ACME_DOCUMENT
  2
AcMeDbDoc
  3
AcMeServices
 90
     1024
 91
        1
280
     0
281
     0
  0
CLASS
  1
ACMESCOPE
  2
AcMeScope
  3
AcMeServices
 90
     1024
 91
        1
280
     0
281
     0
  0
CLASS
  1
ACMECOMMANDHISTORY
  2
AcMeCommandHistory
  3
AcMeServices
 90
     1024
 91
        1
280
     0
281
     0
  0
CLASS
  1
DICTIONARYVAR
  2
AcDbDictionaryVar
  3
ObjectDBX Classes
 90
        0
 91
        9
280
     0
281
     0
  0
CLASS
  1
ACIMSYSVARMAN
  2
AcImSysVarManager
  3
AcMeServices
 90
     1024
 91
        5
280
     0
281
     0
  0
CLASS
  1
ACIMREALSYSVAR
  2
AcImRealSysVar
  3
AcMeServices
 90
     1024
 91
        1
280
     0
281
     0
  0
CLASS
  1
ACIMINTSYSVAR
  2
AcImIntSysVar
  3
AcMeServices
 90
     1024
 91
       27
280
     0
281
     0
  0
CLASS
  1
ACMEDRAWINGMAN
  2
AcMeDrawingMan
  3
AcMeServices
 90
     1024
 91
        1
280
     0
281
     0
  0
CLASS
  1
ACMEVIEW
  2
AcMeView
  3
AcMeServices
 90
     1024
 91
        1
280
     0
281
     0
  0
CLASS
  1
ACDBENTITYCACHE
  2
AcMeEntityCache
  3
AcMeServices
 90
     1024
 91
        1
280
     0
281
     0
  0
CLASS
  1
GSMANAGER
  2
AcMeGSManager
  3
AcMeServices
 90
     1024
 91
        1
280
     0
281
     0
  0
CLASS
  1
AMDTINTERNALREACTOR
  2
AmdtInternalReactor
  3
AcMeServices
 90
     1024
 91
        2
280
     0
281
     0
  0
CLASS
  1
ACMESTATEMGR
  2
AcMeStateMgr
  3
AcMeServices
 90
     1024
 91
        1
280
     0
281
     0
  0
CLASS
  1
ACGREFMASTER
  2
AcGrefMaster
  3
AcAttribServices
 90
     1024
 91
        1
280
     0
281
     0
  0
CLASS
  1
ACME_DATABASE
  2
AcMeDbDatabase
  3
AcMeServices
 90
     1024
 91
        1
280
     0
281
     0
  0
CLASS
  1
ACRFINSADJUSTERMGR
  2
AcRfInsAdjusterMgr
  3
AcMeServices
 90
     1024
 91
        1
280
     0
281
     0
  0
CLASS
  1
ACGREFACADMASTER
  2
AcGrefacadMaster
  3
AcGrefServices
 90
     1024
 91
        1
280
     0
281
     0
  0
CLASS
  1
AMIMASTER
  2
AmiMaster
  3
AmiServices
 90
     1024
 91
        1
280
     0
281
     0
  0
CLASS
  1
ACIMSTRSYSVAR
  2
AcImStrSysVar
  3
AcMeServices
 90
     1024
 91
        5
280
     0
281
     0
  0
CLASS
  1
ACMSTANDARDJIS
  2
AcmStandardJIS
  3
"Amdt_StdImp|Product Description: AutoCAD Mechanical|Company: Autodesk, Inc."
 90
     1024
 91
        0
280
     0
281
     0
  0
CLASS
  1
AMGOBJPROPCFG
  2
AmgObjPropCfg
  3
"AmgLay|Product Description: AutoCAD Mechanical|Company: Autodesk, Inc."
 90
     1025
 91
        1
280
     0
281
     0
  0
CLASS
  1
ACMSURFSTANDARDJIS
  2
AcmSurfTextStdJIS
  3
"Amdt_StdImp|Product Description: AutoCAD Mechanical|Company: Autodesk, Inc."
 90
     1024
 91
        0
280
     0
281
     0
  0
CLASS
  1
ACMFCFSTANDARDJIS
  2
AcmFCFStdJIS
  3
"Amdt_StdImp|Product Description: AutoCAD Mechanical|Company: Autodesk, Inc."
 90
     1024
 91
        0
280
     0
281
     0
  0
CLASS
  1
ACMWELDSTANDARDJIS
  2
AcmWeldingStdJIS
  3
"Amdt_StdImp|Product Description: AutoCAD Mechanical|Company: Autodesk, Inc."
 90
     1024
 91
        0
280
     0
281
     0
  0
CLASS
  1
ACMIDSTANDARDJIS
  2
AcmIdStdJIS
  3
"Amdt_StdImp|Product Description: AutoCAD Mechanical|Company: Autodesk, Inc."
 90
     1024
 91
        0
280
     0
281
     0
  0
CLASS
  1
ACMDATUMSTANDARDJIS
  2
AcmDatumStdJIS
  3
"Amdt_StdImp|Product Description: AutoCAD Mechanical|Company: Autodesk, Inc."
 90
     1024
 91
        0
280
     0
281
     0
  0
CLASS
  1
ACMBOMSTANDARDJIS
  2
AcmBOMStdJIS
  3
"Amdt_StdImp|Product Description: AutoCAD Mechanical|Company: Autodesk, Inc."
 90
     1024
 91
        0
280
     0
281
     0
  0
CLASS
  1
ACMDETAILSTANDARDJIS
  2
AmdtDetailSymStdJIS
  3
"Amdt_StdImp|Product Description: AutoCAD Mechanical|Company: Autodesk, Inc."
 90
     1024
 91
        0
280
     0
281
     0
  0
CLASS
  1
ACMSECTIONSTANDARDJIS
  2
AmdtSectionSymStdJIS
  3
"Amdt_StdImp|Product Description: AutoCAD Mechanical|Company: Autodesk, Inc."
 90
     1024
 91
        0
280
     0
281
     0
  0
CLASS
  1
ACMCENTERLINESTANDARDJIS
  2
AmdtCenterLineStdJIS
  3
"Amdt_StdImp|Product Description: AutoCAD Mechanical|Company: Autodesk, Inc."
 90
     1024
 91
        0
280
     0
281
     0
  0
CLASS
  1
ACMTHREADLINESTANDARDJIS
  2
AmdtThreadLineStdJIS
  3
"Amdt_StdImp|Product Description: AutoCAD Mechanical|Company: Autodesk, Inc."
 90
     1024
 91
        0
280
     0
281
     0
  0
CLASS
  1
ACAMGLAYSTD
  2
AcAmgLayStd
  3
"AmgLay|Product Description: AutoCAD Mechanical|Company: Autodesk, Inc."
 90
     1024
 91
        1
280
     0
281
     0
  0
CLASS
  1
ACAMGDIMSTD
  2
AcAmgDimStd
  3
"AmgDim|Product Description: AutoCAD Mechanical|Company: Autodesk, Inc."
 90
     1024
 91
        1
280
     0
281
     0
  0
CLASS
  1
ACAMGTITLESTD
  2
AcAmgTitleStd
  3
"AmgTitle|Product Description: AutoCAD Mechanical|Company: Autodesk, Inc."
 90
     4095
 91
        1
280
     0
281
     0
  0
CLASS
  1
ACMDATADICTIONARY
  2
AcmDataDictionary
  3
"AcmSymBB|Product Description: AutoCAD Mechanical|Company: Autodesk, Inc."
 90
     1024
 91
        1
280
     0
281
     0
  0
CLASS
  1
ACMDATAENTRYBLOCK
  2
AcmDataEntryBlock
  3
AcmSymBB|Product Description: AutoCAD Mechanical|Company: Autodesk, Inc.
 90
     1024
 91
        0
280
     0
281
     0
  0
CLASS
  1
LAYER_INDEX
  2
AcDbLayerIndex
  3
ObjectDBX Classes
 90
        0
 91
        0
280
     0
281
     0
  0
CLASS
  1
IDBUFFER
  2
AcDbIdBuffer
  3
ObjectDBX Classes
 90
        0
 91
        0
280
     0
281
     0
  0
CLASS
  1
ACMNOTESTANDARDJIS
  2
AmdtNoteStdJIS
  3
"Amdt_StdImp|Product Description: AutoCAD Mechanical|Company: Autodesk, Inc."
 90
     1024
 91
        0
280
     0
281
     0
  0
CLASS
  1
ACAMGHOLECHARTSTDJIS
  2
AcAmgHoleChartStdJIS
  3
AmgDim|Product Description: AutoCAD Mechanical|Company: Autodesk, Inc.
 90
     1024
 91
        0
280
     0
281
     0
  0
CLASS
  1
AM_DRAWING_MGR
  2
AcDmDwgMgr
  3
AcMechDwgViewMgmt
 90
     1024
 91
        1
280
     0
281
     0
  0
CLASS
  1
AM_DWG_DOCUMENT
  2
AcDmDwgDocument
  3
AcMechDwgViewMgmt
 90
     1024
 91
        1
280
     0
281
     0
  0
CLASS
  1
AM_DWG_SHEET
  2
AcDmSheet
  3
AcMechDwgViewMgmt
 90
     1024
 91
        2
280
     0
281
     0
  0
CLASS
  1
AM_VIEWDIMPARMAP
  2
AcDmViewDimParMap
  3
AcMechDwgViewMgmt
 90
     1024
 91
        2
280
     0
281
     0
  0
CLASS
  1
AM_DWGMGR_NAME
  2
AcDmDwgMgrName
  3
AcMechDwgViewMgmt
 90
     1024
 91
        1
280
     0
281
     0
  0
CLASS
  1
AMDTMENUSTATEMGR
  2
AmdtMenuStateMgr
  3
McadcomServices
 90
     1024
 91
        1
280
     0
281
     0
  0
CLASS
  1
AMDTMCOMMENUSTATE
  2
AmdtMcomMenuState
  3
McadcomServices
 90
     1024
 91
        1
280
     0
281
     0
  0
CLASS
  1
MAPIAMMOUDLE
  2
MApiAmModule
  3
MApiAmServices
 90
     1024
 91
        1
280
     0
281
     0
  0
CLASS
  1
AMDTADMENUSTATE
  2
AmdtAdMenuState
  3
DesignerServices
 90
     1024
 91
        1
280
     0
281
     0
  0
CLASS
  1
ADAPPL
  2
AcAdAppl
  3
DesignerServices
 90
     1024
 91
        1
280
     0
281
     0
  0
CLASS
  1
DEPMGR
  2
AcAdDepMgr
  3
DesignerServices
 90
     1024
 91
        1
280
     0
281
     0
  0
CLASS
  1
PARAMMGR
  2
AcAdParamMgr
  3
DesignerServices
 90
     1024
 91
        1
280
     0
281
     0
  0
CLASS
  1
PARAMSCOPE
  2
AcAdParamScope
  3
DesignerServices
 90
     1024
 91
        1
280
     0
281
     0
  0
CLASS
  1
NAMEDAPPL
  2
AcAdNamedAppl
  3
DesignerServices
 90
     1024
 91
        1
280
     0
281
     0
  0
CLASS
  1
AMDTDMMENUSTATE
  2
AmdtDmMenuState
  3
AcMechDwgViewMgmt
 90
     1024
 91
        1
280
     0
281
     0
  0
CLASS
  1
AMDTAMMENUSTATE
  2
AmdtAmMenuState
  3
DesignerAssemblies
 90
     1024
 91
        1
280
     0
281
     0
  0
CLASS
  1
ACAMPROJECT
  2
AcAmProject
  3
DesignerAssemblies
 90
     1024
 91
        1
280
     0
281
     0
  0
CLASS
  1
ACAMGRCOMPDEF
  2
AcAmGrCompDef
  3
DesignerAssemblies
 90
     1024
 91
        1
280
     0
281
     0
  0
CLASS
  1
ACCMCONTEXT
  2
AcCmContext
  3
DesignerAssemblies
 90
     1024
 91
        1
280
     0
281
     0
  0
CLASS
  1
ACAMCOMPDEF
  2
AcAmCompDef
  3
DesignerAssemblies
 90
     1024
 91
        1
280
     0
281
     0
  0
CLASS
  1
ACAMCOMPDEFMGR
  2
AcAmCompDefMgr
  3
DesignerAssemblies
 90
     1024
 91
        1
280
     0
281
     0
  0
CLASS
  1
AMCONTEXTMGR
  2
AcAmContextMgr
  3
DesignerAssemblies
 90
     1024
 91
        1
280
     0
281
     0
  0
CLASS
  1
ACAMCONTEXTMODELER
  2
AcAmContextModeler
  3
DesignerAssemblies
 90
     1024
 91
        1
280
     0
281
     0
  0
CLASS
  1
CATALOGSTATE
  2
AcAmCatalogState
  3
DesignerAssemblies
 90
     1024
 91
        1
280
     0
281
     0
  0
CLASS
  1
ACAMGRCOMPDEFSET
  2
AcAmGrCompDefSet
  3
DesignerAssemblies
 90
     1024
 91
        1
280
     0
281
     0
  0
CLASS
  1
AMDTBROWSERDBTAB
  2
AmdtBrowserDbTab
  3
McadcomServices
 90
     1024
 91
        1
280
     0
281
     0
  0
CLASS
  1
CBROWSERAPPOBJECT
  2
CBrowserAppObject
  3
McadcomServices
 90
     1024
 91
        3
280
     0
281
     0
  0
CLASS
  1
DM_PLACEHOLDER
  2
AcDmSelsetPlaceholder
  3
AcMechDwgViewMgmt
 90
     1024
 91
        1
280
     0
281
     0
  0
CLASS
  1
TABLESTYLE
  2
AcDbTableStyle
  3
ObjectDBX Classes
 90
     4095
 91
        1
280
     0
281
     0
  0
CLASS
  1
VAACXREFPANELOBJECT
  2
VaAcXREFPanelObject
  3
VAAC_ADDIN
 90
        0
 91
        0
280
     0
281
     0
  0
CLASS
  1
VAACIMAGEINVENTORY
  2
VaAcImageInventory
  3
VAAC_ADDIN
 90
        0
 91
        0
280
     0
281
     0
  0
CLASS
  1
AMDTNOTETEMPLATEDB
  2
AmdtNoteTemplateDB
  3
AcmSymBB|Product Description: AutoCAD Mechanical|Company: Autodesk, Inc.
 90
     1024
 91
        6
280
     0
281
     0
  0
CLASS
  1
ACAMGFILTERDAT
  2
AcAmgFilterDat
  3
"AcadM|Product Description: AutoCAD Mechanical|Company: Autodesk, Inc."
 90
     1024
 91
        0
280
     0
281
     0
  0
CLASS
  1
MATERIAL
  2
AcDbMaterial
  3
ObjectDBX Classes
 90
     1153
 91
        3
280
     0
281
     0
  0
CLASS
  1
VISUALSTYLE
  2
AcDbVisualStyle
  3
ObjectDBX Classes
 90
     4095
 91
       16
280
     0
281
     0
  0
CLASS
  1
ACRFATTGENMGR
  2
AcRfAttGeneralMgr
  3
AcAttribServices
 90
     1024
 91
        0
280
     0
281
     0
  0
CLASS
  1
ACRFOBJATTMGR
  2
AcRfObjAttGroupMgr
  3
AcAttribServices
 90
     1024
 91
        0
280
     0
281
     0
  0
CLASS
  1
ACRFMCADAPIATTHOLDER
  2
AcRfMCADAPIAttHolder
  3
AcAttribServices
 90
     1024
 91
        0
280
     0
281
     0
  0
CLASS
  1
AMDTSYSATTR
  2
AmdtSystemAttribute
  3
AcAttribServices
 90
     1024
 91
        0
280
     0
281
     0
  0
CLASS
  1
ACMTAPERSTANDARDJIS
  2
AcmTaperStdJIS
  3
"Amdt_StdImp|Product Description: AutoCAD Mechanical|Company: Autodesk, Inc."
 90
     1024
 91
        0
280
     0
281
     0
  0
CLASS
  1
CAMSSTRUCTBTNSTATE
  2
StructBtnState
  3
DesignerAssemblies
 90
     1024
 91
        0
280
     0
281
     0
  0
CLASS
  1
SCALE
  2
AcDbScale
  3
ObjectDBX Classes
 90
     1153
 91
       35
280
     0
281
     0
  0
CLASS
  1
MLEADERSTYLE
  2
AcDbMLeaderStyle
  3
ACDB_MLEADERSTYLE_CLASS
 90
     4095
 91
        1
280
     0
281
     0
  0
CLASS
  1
ACMANOOTATIONVIEWSTANDARDJIS
  2
AmdtAnViewStdJIS
  3
"Amdt_StdImp|Product Description: AutoCAD Mechanical|Company: Autodesk, Inc."
 90
     1024
 91
        0
280
     0
281
     0
  0
CLASS
  1
ACMSURFSTANDARDJIS2003
  2
AcmSurfTextStdJIS2003
  3
"Amdt_StdImp|Product Description: AutoCAD Mechanical|Company: Autodesk, Inc."
 90
     1024
 91
        0
280
     0
281
     0
  0
CLASS
  1
CELLSTYLEMAP
  2
AcDbCellStyleMap
  3
ObjectDBX Classes
 90
     1152
 91
        2
280
     0
281
     0
  0
CLASS
  1
ACMFCFSTANDARDJIS98
  2
AcmFCFStdJIS98
  3
"Amdt_StdImp|Product Description: AutoCAD Mechanical|Company: Autodesk, Inc."
 90
     1024
 91
        0
280
     0
281
     0
  0
CLASS
  1
SORTENTSTABLE
  2
AcDbSortentsTable
  3
ObjectDBX Classes
 90
        0
 91
       11
280
     0
281
     0
  0
CLASS
  1
DIMASSOC
  2
AcDbDimAssoc
  3
"AcDbDimAssoc|Product Desc:     AcDim ARX App For Dimension|Company:          Autodesk, Inc.|WEB Address:      www.autodesk.com"
 90
        0
 91
       15
280
     0
281
     0
  0
CLASS
  1
STDPART2D
  2
AmgStdPart
  3
AmgStdPart|Product Description: AutoCAD Mechanical|Company: Autodesk, Inc.
 90
     4095
 91
        0
280
     0
281
     1
  0
CLASS
  1
ACMDATAENTRYPART
  2
AcmDataEntryPart
  3
AcmSymBB|Product Description: AutoCAD Mechanical|Company: Autodesk, Inc.
 90
     1024
 91
        0
280
     0
281
     0
  0
CLASS
  1
ACMPARTREF
  2
AcmPartRef
  3
"AcmSymBB|Product Description: AutoCAD Mechanical|Company: Autodesk, Inc."
 90
     4095
 91
        0
280
     0
281
     1
  0
CLASS
  1
ACDBSTDPARTRES_LINE
  2
AcDbStdPartRes_Line
  3
AmgStdPart|Product Description: AutoCAD Mechanical|Company: Autodesk, Inc.
 90
     1024
 91
        0
280
     0
281
     0
  0
CLASS
  1
ACMBOM
  2
AcmBom
  3
"AcmSymBB|Product Description: AutoCAD Mechanical|Company: Autodesk, Inc."
 90
     1024
 91
        0
280
     0
281
     0
  0
CLASS
  1
AMDTFORMULAUPDATEDISPATCHER
  2
AmdtFormulaUpdateDispatcher
  3
AcMeServices
 90
     1024
 91
        0
280
     0
281
     0
  0
CLASS
  1
ACMBOMROW
  2
AcmBomRow
  3
"AcmSymBB|Product Description: AutoCAD Mechanical|Company: Autodesk, Inc."
 90
     1024
 91
        0
280
     0
281
     0
  0
CLASS
  1
ACMPARTLIST
  2
AcmPartList
  3
"AcmSymBB|Product Description: AutoCAD Mechanical|Company: Autodesk, Inc."
 90
     4095
 91
        0
280
     0
281
     1
  0
CLASS
  1
ACDBLINERES
  2
AcDbLineRes
  3
AcGrefServices
 90
     1024
 91
        0
280
     0
281
     0
  0
CLASS
  1
ACRFINSADJ
  2
AcRfInsAdjuster
  3
AcMeServices
 90
     1024
 91
        0
280
     0
281
     0
  0
CLASS
  1
ACMSTANDARDISO
  2
AcmStandardISO
  3
"Amdt_StdImp|Product Description: AutoCAD Mechanical|Company: Autodesk, Inc."
 90
     1024
 91
        1
280
     0
281
     0
  0
CLASS
  1
AMDTEDGESTANDARDISO13715
  2
AmdtEdgeStdISO13715
  3
"Amdt_StdImp|Product Description: AutoCAD Mechanical|Company: Autodesk, Inc."
 90
     1024
 91
        1
280
     0
281
     0
  0
CLASS
  1
ACMSURFSTANDARDISO2002
  2
AcmSurfTextStdISO2002
  3
"Amdt_StdImp|Product Description: AutoCAD Mechanical|Company: Autodesk, Inc."
 90
     1024
 91
        1
280
     0
281
     0
  0
CLASS
  1
ACMFCFSTANDARDISO
  2
AcmFCFStdISO
  3
"Amdt_StdImp|Product Description: AutoCAD Mechanical|Company: Autodesk, Inc."
 90
     1024
 91
        1
280
     0
281
     0
  0
CLASS
  1
ACMWELDSTANDARDISO
  2
AcmWeldingStdISO
  3
"Amdt_StdImp|Product Description: AutoCAD Mechanical|Company: Autodesk, Inc."
 90
     1024
 91
        1
280
     0
281
     0
  0
CLASS
  1
ACMIDSTANDARDISO
  2
AcmIdStdISO
  3
"Amdt_StdImp|Product Description: AutoCAD Mechanical|Company: Autodesk, Inc."
 90
     1024
 91
        1
280
     0
281
     0
  0
CLASS
  1
ACMDATUMSTANDARDISO
  2
AcmDatumStdISO
  3
"Amdt_StdImp|Product Description: AutoCAD Mechanical|Company: Autodesk, Inc."
 90
     1024
 91
        1
280
     0
281
     0
  0
CLASS
  1
ACMBOMSTANDARDISO
  2
AcmBOMStdISO
  3
"Amdt_StdImp|Product Description: AutoCAD Mechanical|Company: Autodesk, Inc."
 90
     1024
 91
        1
280
     0
281
     0
  0
CLASS
  1
ACMDETAILSTANDARDISO
  2
AmdtDetailSymStdISO
  3
"Amdt_StdImp|Product Description: AutoCAD Mechanical|Company: Autodesk, Inc."
 90
     1024
 91
        1
280
     0
281
     0
  0
CLASS
  1
ACMSECTIONSTANDARDISO2001
  2
AmdtSectionSymStdISO2001
  3
"Amdt_StdImp|Product Description: AutoCAD Mechanical|Company: Autodesk, Inc."
 90
     1024
 91
        1
280
     0
281
     0
  0
CLASS
  1
ACMCENTERLINESTANDARDISO
  2
AmdtCenterLineStdISO
  3
"Amdt_StdImp|Product Description: AutoCAD Mechanical|Company: Autodesk, Inc."
 90
     1024
 91
        1
280
     0
281
     0
  0
CLASS
  1
ACMTHREADLINESTANDARDISO
  2
AmdtThreadLineStdISO
  3
"Amdt_StdImp|Product Description: AutoCAD Mechanical|Company: Autodesk, Inc."
 90
     1024
 91
        1
280
     0
281
     0
  0
CLASS
  1
ACMNOTESTANDARDISO
  2
AmdtNoteStdISO
  3
"Amdt_StdImp|Product Description: AutoCAD Mechanical|Company: Autodesk, Inc."
 90
     1024
 91
        1
280
     0
281
     0
  0
CLASS
  1
ACMTAPERSTANDARDISO
  2
AcmTaperStdISO
  3
"Amdt_StdImp|Product Description: AutoCAD Mechanical|Company: Autodesk, Inc."
 90
     1024
 91
        1
280
     0
281
     0
  0
CLASS
  1
ACMANOOTATIONVIEWSTANDARDISO
  2
AmdtAnViewStdISO
  3
"Amdt_StdImp|Product Description: AutoCAD Mechanical|Company: Autodesk, Inc."
 90
     1024
 91
        1
280
     0
281
     0
  0
CLASS
  1
ACAMGHOLECHARTSTDISO
  2
AcAmgHoleChartStdISO
  3
AmgDim|Product Description: AutoCAD Mechanical|Company: Autodesk, Inc.
 90
     1024
 91
        1
280
     0
281
     0
  0
CLASS
  1
EXACXREFPANELOBJECT
  2
ExAcXREFPanelObject
  3
EXAC_ESW
 90
     1025
 91
        0
280
     0
281
     0
  0
CLASS
  1
NPOCOLLECTION
  2
AcDbImpNonPersistentObjectsCollection
  3
ObjectDBX Classes
 90
     1153
 91
        0
280
     0
281
     0
  0
CLASS
  1
ACDBSTDPARTRES_ARC
  2
AcDbStdPartRes_Arc
  3
AmgStdPart|Product Description: AutoCAD Mechanical|Company: Autodesk, Inc.
 90
     1024
 91
        0
280
     0
281
     0
  0
CLASS
  1
AMDTNOTE
  2
AmdtNote
  3
"AcmSymBB|Product Description: AutoCAD Mechanical|Company: Autodesk, Inc."
 90
     4095
 91
        0
280
     0
281
     1
  0
CLASS
  1
PLOTSETTINGS
  2
AcDbPlotSettings
  3
ObjectDBX Classes
 90
        0
 91
        1
280
     0
281
     0
  0
CLASS
  1
ACMSTANDARDANSI
  2
AcmStandardANSI
  3
"Amdt_StdImp|Product Description: AutoCAD Mechanical|Company: Autodesk, Inc."
 90
     1024
 91
        0
280
     0
281
     0
  0
CLASS
  1
ACMSURFSTANDARDANSI
  2
AcmSurfTextStdANSI
  3
"Amdt_StdImp|Product Description: AutoCAD Mechanical|Company: Autodesk, Inc."
 90
     1024
 91
        0
280
     0
281
     0
  0
CLASS
  1
ACMFCFSTANDARDANSI
  2
AcmFCFStdANSI
  3
"Amdt_StdImp|Product Description: AutoCAD Mechanical|Company: Autodesk, Inc."
 90
     1024
 91
        0
280
     0
281
     0
  0
CLASS
  1
ACMWELDSTANDARDANSI
  2
AcmWeldingStdANSI
  3
"Amdt_StdImp|Product Description: AutoCAD Mechanical|Company: Autodesk, Inc."
 90
     1024
 91
        0
280
     0
281
     0
  0
CLASS
  1
ACMIDSTANDARDANSI
  2
AcmIdStdANSI
  3
"Amdt_StdImp|Product Description: AutoCAD Mechanical|Company: Autodesk, Inc."
 90
     1024
 91
        0
280
     0
281
     0
  0
CLASS
  1
ACMDATUMSTANDARDANSI
  2
AcmDatumStdANSI
  3
"Amdt_StdImp|Product Description: AutoCAD Mechanical|Company: Autodesk, Inc."
 90
     1024
 91
        0
280
     0
281
     0
  0
CLASS
  1
ACMBOMSTANDARDANSI
  2
AcmBOMStdANSI
  3
"Amdt_StdImp|Product Description: AutoCAD Mechanical|Company: Autodesk, Inc."
 90
     1024
 91
        0
280
     0
281
     0
  0
CLASS
  1
ACMDETAILSTANDARDANSI
  2
AmdtDetailSymStdANSI
  3
"Amdt_StdImp|Product Description: AutoCAD Mechanical|Company: Autodesk, Inc."
 90
     1024
 91
        0
280
     0
281
     0
  0
CLASS
  1
ACMSECTIONSTANDARDANSI
  2
AmdtSectionSymStdANSI
  3
"Amdt_StdImp|Product Description: AutoCAD Mechanical|Company: Autodesk, Inc."
 90
     1024
 91
        0
280
     0
281
     0
  0
CLASS
  1
ACMCENTERLINESTANDARDANSI
  2
AmdtCenterLineStdANSI
  3
"Amdt_StdImp|Product Description: AutoCAD Mechanical|Company: Autodesk, Inc."
 90
     1024
 91
        0
280
     0
281
     0
  0
CLASS
  1
ACMTHREADLINESTANDARDANSI
  2
AmdtThreadLineStdANSI
  3
"Amdt_StdImp|Product Description: AutoCAD Mechanical|Company: Autodesk, Inc."
 90
     1024
 91
        0
280
     0
281
     0
  0
CLASS
  1
ACMNOTESTANDARDANSI
  2
AmdtNoteStdANSI
  3
"Amdt_StdImp|Product Description: AutoCAD Mechanical|Company: Autodesk, Inc."
 90
     1024
 91
        0
280
     0
281
     0
  0
CLASS
  1
ACMTAPERSTANDARDANSI
  2
AcmTaperStdANSI
  3
"Amdt_StdImp|Product Description: AutoCAD Mechanical|Company: Autodesk, Inc."
 90
     1024
 91
        0
280
     0
281
     0
  0
CLASS
  1
ACMANOOTATIONVIEWSTANDARDANSI
  2
AmdtAnViewStdANSI
  3
"Amdt_StdImp|Product Description: AutoCAD Mechanical|Company: Autodesk, Inc."
 90
     1024
 91
        0
280
     0
281
     0
  0
CLASS
  1
ACAMGHOLECHARTSTDANSI
  2
AcAmgHoleChartStdANSI
  3
AmgDim|Product Description: AutoCAD Mechanical|Company: Autodesk, Inc.
 90
     1024
 91
        0
280
     0
281
     0
  0
CLASS
  1
ACMSTANDARDBSI
  2
AcmStandardBSI
  3
"Amdt_StdImp|Product Description: AutoCAD Mechanical|Company: Autodesk, Inc."
 90
     1024
 91
        0
280
     0
281
     0
  0
CLASS
  1
ACMSURFSTANDARDBSI2002
  2
AcmSurfTextStdBSI2002
  3
"Amdt_StdImp|Product Description: AutoCAD Mechanical|Company: Autodesk, Inc."
 90
     1024
 91
        0
280
     0
281
     0
  0
CLASS
  1
ACMFCFSTANDARDBSI
  2
AcmFCFStdBSI
  3
"Amdt_StdImp|Product Description: AutoCAD Mechanical|Company: Autodesk, Inc."
 90
     1024
 91
        0
280
     0
281
     0
  0
CLASS
  1
ACMWELDSTANDARDBSI
  2
AcmWeldingStdBSI
  3
"Amdt_StdImp|Product Description: AutoCAD Mechanical|Company: Autodesk, Inc."
 90
     1024
 91
        0
280
     0
281
     0
  0
CLASS
  1
ACMIDSTANDARDBSI
  2
AcmIdStdBSI
  3
"Amdt_StdImp|Product Description: AutoCAD Mechanical|Company: Autodesk, Inc."
 90
     1024
 91
        0
280
     0
281
     0
  0
CLASS
  1
ACMDATUMSTANDARDBSI
  2
AcmDatumStdBSI
  3
"Amdt_StdImp|Product Description: AutoCAD Mechanical|Company: Autodesk, Inc."
 90
     1024
 91
        0
280
     0
281
     0
  0
CLASS
  1
ACMBOMSTANDARDBSI
  2
AcmBOMStdBSI
  3
"Amdt_StdImp|Product Description: AutoCAD Mechanical|Company: Autodesk, Inc."
 90
     1024
 91
        0
280
     0
281
     0
  0
CLASS
  1
ACMDETAILSTANDARDBSI
  2
AmdtDetailSymStdBSI
  3
"Amdt_StdImp|Product Description: AutoCAD Mechanical|Company: Autodesk, Inc."
 90
     1024
 91
        0
280
     0
281
     0
  0
CLASS
  1
ACMSECTIONSTANDARDBSI2001
  2
AmdtSectionSymStdBSI2001
  3
"Amdt_StdImp|Product Description: AutoCAD Mechanical|Company: Autodesk, Inc."
 90
     1024
 91
        0
280
     0
281
     0
  0
CLASS
  1
ACMCENTERLINESTANDARDBSI
  2
AmdtCenterLineStdBSI
  3
"Amdt_StdImp|Product Description: AutoCAD Mechanical|Company: Autodesk, Inc."
 90
     1024
 91
        0
280
     0
281
     0
  0
CLASS
  1
ACMTHREADLINESTANDARDBSI
  2
AmdtThreadLineStdBSI
  3
"Amdt_StdImp|Product Description: AutoCAD Mechanical|Company: Autodesk, Inc."
 90
     1024
 91
        0
280
     0
281
     0
  0
CLASS
  1
ACMNOTESTANDARDBSI
  2
AmdtNoteStdBSI
  3
"Amdt_StdImp|Product Description: AutoCAD Mechanical|Company: Autodesk, Inc."
 90
     1024
 91
        0
280
     0
281
     0
  0
CLASS
  1
ACMTAPERSTANDARDBSI
  2
AcmTaperStdBSI
  3
"Amdt_StdImp|Product Description: AutoCAD Mechanical|Company: Autodesk, Inc."
 90
     1024
 91
        0
280
     0
281
     0
  0
CLASS
  1
ACMANOOTATIONVIEWSTANDARDBSI
  2
AmdtAnViewStdBSI
  3
"Amdt_StdImp|Product Description: AutoCAD Mechanical|Company: Autodesk, Inc."
 90
     1024
 91
        0
280
     0
281
     0
  0
CLASS
  1
ACAMGHOLECHARTSTDBSI
  2
AcAmgHoleChartStdBSI
  3
AmgDim|Product Description: AutoCAD Mechanical|Company: Autodesk, Inc.
 90
     1024
 91
        0
280
     0
281
     0
  0
CLASS
  1
AMDTEDGESTANDARDJIS
  2
AmdtEdgeStdJIS
  3
"Amdt_StdImp|Product Description: AutoCAD Mechanical|Company: Autodesk, Inc."
 90
     1024
 91
        0
280
     0
281
     0
  0
CLASS
  1
ACDB_BLKREFOBJECTCONTEXTDATA_CLASS
  2
AcDbBlkRefObjectContextData
  3
ObjectDBX Classes
 90
     1153
 91
        0
280
     0
281
     0
  0
CLASS
  1
ACDBOPPOLYLINERES
  2
AcDbOpPolylineRes
  3
AcGrefServices
 90
     1024
 91
        0
280
     0
281
     0
  0
CLASS
  1
AMDTACMWBLOCKBOMENTITY
  2
AmdtAcmWblockBomEntity
  3
"AcmSymBB|Product Description: AutoCAD Mechanical|Company: Autodesk, Inc."
 90
     4095
 91
        0
280
     0
281
     1
  0
CLASS
  1
ACMSURFSYM
  2
AcmSurfaceTexture
  3
"AcmSymBB|Product Description: AutoCAD Mechanical|Company: Autodesk, Inc."
 90
     4095
 91
        0
280
     0
281
     1
  0
CLASS
  1
ACDBCIRCARCRES
  2
AcDbCircArcRes
  3
AcGrefServices
 90
     1024
 91
        0
280
     0
281
     0
  0
CLASS
  1
ACDBDIMENSIONRES
  2
AcDbDimensionRes
  3
AcmSymBB|Product Description: AutoCAD Mechanical|Company: Autodesk, Inc.
 90
     1024
 91
        0
280
     0
281
     0
  0
CLASS
  1
ACMPICKOBJ
  2
AcmPickEnt
  3
"AcmSymBB|Product Description: AutoCAD Mechanical|Company: Autodesk, Inc."
 90
     1024
 91
        0
280
     0
281
     1
  0
CLASS
  1
ACMBALLOON
  2
AcmBalloon
  3
"AcmSymBB|Product Description: AutoCAD Mechanical|Company: Autodesk, Inc."
 90
     4095
 91
        0
280
     0
281
     1
  0
ENDSEC
  0
SECTION
  2
TABLES
  0
TABLE
  2
VPORT
  5
8
330
0
100
AcDbSymbolTable
 70
     1
  0
VPORT
  5
27A
330
8
100
AcDbSymbolTableRecord
100
AcDbViewportTableRecord
  2
*Active
 70
     0
 10
0.0
 20
0.0
 11
1.0
 21
1.0
 12
611.7526466748072
 22
465.4760157519
 13
0.0
 23
0.0
 14
6.25
 24
6.25
 15
25.0
 25
25.0
 16
0.0
 26
0.0
 36
1.0
 17
0.0
 27
0.0
 37
0.0
 40
685.3281733151727
 41
1.571428571428571
 42
50.0
 43
0.0
 44
0.0
 50
0.0
 51
0.0
 71
    16
 72
 20000
 73
     1
 74
     3
 75
     0
 76
     0
 77
     0
 78
     0
281
     0
 65
     0
110
0.0
120
0.0
130
0.0
111
1.0
121
0.0
131
0.0
112
0.0
122
1.0
132
0.0
 79
     0
146
0.0
348
285
 60
     3
 61
     5
292
     1
282
     0
141
0.0
142
0.0
 63
   250
421
  3355443
  0
ENDTAB
  0
TABLE
  2
LTYPE
  5
5
330
0
100
AcDbSymbolTable
 70
    20
  0
LTYPE
  5
14
330
5
100
AcDbSymbolTableRecord
100
AcDbLinetypeTableRecord
  2
ByBlock
 70
     0
  3

 72
    65
 73
     0
 40
0.0
  0
LTYPE
  5
15
330
5
100
AcDbSymbolTableRecord
100
AcDbLinetypeTableRecord
  2
ByLayer
 70
     0
  3

 72
    65
 73
     0
 40
0.0
  0
LTYPE
  5
16
330
5
100
AcDbSymbolTableRecord
100
AcDbLinetypeTableRecord
  2
Continuous
 70
     0
  3
Solid line
 72
    65
 73
     0
 40
0.0
  0
LTYPE
  5
4D
330
5
100
AcDbSymbolTableRecord
100
AcDbLinetypeTableRecord
  2
AM_ISO02W050
 70
     0
  3
__ __ __ __ __ __ __ __ __ __ __ __ __ __ __
 72
    65
 73
     2
 40
7.5
 49
6.0
 74
     0
 49
-1.5
 74
     0
  0
LTYPE
  5
4E
330
5
100
AcDbSymbolTableRecord
100
AcDbLinetypeTableRecord
  2
AM_ISO08W050
 70
     0
  3
____ . ____ . ____ . ____ . ____ . ____ . ____
 72
    65
 73
     4
 40
18.0
 49
12.0
 74
     0
 49
-1.5
 74
     0
 49
3.0
 74
     0
 49
-1.5
 74
     0
  0
LTYPE
  5
4F
330
5
100
AcDbSymbolTableRecord
100
AcDbLinetypeTableRecord
  2
AM_ISO09W050
 70
     0
  3
_____ . . _____ . . _____ . . ____ .. ____
 72
    65
 73
     6
 40
22.5
 49
12.0
 74
     0
 49
-1.5
 74
     0
 49
3.0
 74
     0
 49
-1.5
 74
     0
 49
3.0
 74
     0
 49
-1.5
 74
     0
  0
LTYPE
  5
50
330
5
100
AcDbSymbolTableRecord
100
AcDbLinetypeTableRecord
  2
Amconstr
 70
     0
  3
_______________________
 72
    65
 73
     2
 40
9999.0
 49
9999.0
 74
     0
 49
0.0
 74
     0
  0
LTYPE
  5
51
330
5
100
AcDbSymbolTableRecord
100
AcDbLinetypeTableRecord
  2
AM_ISO08W050x2
 70
     0
  3
__ . __ . __ . __ . __ . __
 72
    65
 73
     4
 40
9.0
 49
6.0
 74
     0
 49
-0.75
 74
     0
 49
1.5
 74
     0
 49
-0.75
 74
     0
  0
LTYPE
  5
52
330
5
100
AcDbSymbolTableRecord
100
AcDbLinetypeTableRecord
  2
AM_ISO02W050x2
 70
     0
  3
 _ _ _ _ _ _ _ _ _ _ _ _
 72
    65
 73
     2
 40
3.75
 49
3.0
 74
     0
 49
-0.75
 74
     0
  0
LTYPE
  5
55
330
5
100
AcDbSymbolTableRecord
100
AcDbLinetypeTableRecord
  2
Amzigzag
 70
     0
  3
/\/-/\/-/\/-/\/-/\/-/\/
 72
    65
 73
     2
 40
11.0001
 49
0.0001
 74
     4
 75
   136
340
23D
 46
0.04
 50
0.0
 44
0.0
 45
0.0
 49
-11.0
 74
     0
  0
LTYPE
  5
65
330
5
100
AcDbSymbolTableRecord
100
AcDbLinetypeTableRecord
  2
CENTER
 70
     0
  3
__ . __
 72
    65
 73
     4
 40
7.0
 49
4.0
 74
     0
 49
-1.0
 74
     0
 49
1.0
 74
     0
 49
-1.0
 74
     0
  0
LTYPE
  5
E0
330
5
100
AcDbSymbolTableRecord
100
AcDbLinetypeTableRecord
  2
HIDDEN
 70
     0
  3
Hidden __ __ __ __ __ __ __ __ __ __ __ __ __ _
 72
    65
 73
     2
 40
9.524999999999996
 49
6.349999999999998
 74
     0
 49
-3.174999999999998
 74
     0
  0
LTYPE
  5
E1
330
5
100
AcDbSymbolTableRecord
100
AcDbLinetypeTableRecord
  2
PHANTOM2
 70
     0
  3
Phantom (.5x) ___ _ _ ___ _ _ ___ _ _ ___ _ _
 72
    65
 73
     6
 40
31.75
 49
15.875
 74
     0
 49
-3.174999999999998
 74
     0
 49
3.174999999999998
 74
     0
 49
-3.174999999999998
 74
     0
 49
3.174999999999998
 74
     0
 49
-3.174999999999998
 74
     0
  0
LTYPE
  5
5A2
330
5
100
AcDbSymbolTableRecord
100
AcDbLinetypeTableRecord
  2
ACJISWELD
 70
     0
  3
_ _ _ _ _
 72
    65
 73
     2
 40
2.0
 49
2.0
 74
     0
 49
-1.0
 74
     0
  0
LTYPE
  5
5C38
330
5
100
AcDbSymbolTableRecord
100
AcDbLinetypeTableRecord
  2
ACISOWELD
 70
     0
  3
_ _ _ _ _
 72
    65
 73
     2
 40
2.0
 49
2.0
 74
     0
 49
-1.0
 74
     0
  0
LTYPE
  5
5C39
330
5
100
AcDbSymbolTableRecord
100
AcDbLinetypeTableRecord
  2
ACISOTGB
 70
     0
  3
__ . . __ . .
 72
    65
 73
     6
 40
9.0
 49
4.0
 74
     0
 49
-1.0
 74
     0
 49
1.0
 74
     0
 49
-1.0
 74
     0
 49
1.0
 74
     0
 49
-1.0
 74
     0
  0
LTYPE
  5
5C3A
330
5
100
AcDbSymbolTableRecord
100
AcDbLinetypeTableRecord
  2
ACISOTGL
 70
     0
  3
_ _ _ _ _
 72
    65
 73
     2
 40
3.0
 49
2.0
 74
     0
 49
-1.0
 74
     0
  0
ENDTAB
  0
TABLE
  2
LAYER
  5
2
102
{ACAD_XDICTIONARY
360
BF
102
}
330
0
100
AcDbSymbolTable
 70
    10
  0
LAYER
  5
10
102
{ACAD_XDICTIONARY
360
29D7
102
}
330
2
100
AcDbSymbolTableRecord
100
AcDbLayerTableRecord
  2
0
 70
     0
 62
     7
  6
Continuous
370
    -3
390
F
347
27E
  0
LAYER
  5
81
102
{ACAD_XDICTIONARY
360
29D9
102
}
330
2
100
AcDbSymbolTableRecord
100
AcDbLayerTableRecord
  2
AM_0 外形線1
 70
     0
 62
     7
  6
Continuous
370
    25
390
F
347
27E
  0
LAYER
  5
427
330
2
100
AcDbSymbolTableRecord
100
AcDbLayerTableRecord
  2
Defpoints
 70
     0
 62
     7
  6
Continuous
290
     0
370
    -3
390
F
347
27E
  0
LAYER
  5
25C9
102
{ACAD_XDICTIONARY
360
29E0
102
}
330
2
100
AcDbSymbolTableRecord
100
AcDbLayerTableRecord
  2
AM_3 隠れ線
 70
     0
 62
     8
  6
ACJISWELD
370
    13
390
F
347
27E
1001
AcAecLayerStandard
1000

1000

  0
LAYER
  5
25CA
102
{ACAD_XDICTIONARY
360
29E2
102
}
330
2
100
AcDbSymbolTableRecord
100
AcDbLayerTableRecord
  2
AM_4 細線
 70
     0
 62
     4
  6
Continuous
370
    13
390
F
347
27E
1001
AcAecLayerStandard
1000

1000

  0
LAYER
  5
26B3
102
{ACAD_XDICTIONARY
360
29E8
102
}
330
2
100
AcDbSymbolTableRecord
100
AcDbLayerTableRecord
  2
AM_5 寸法線
 70
     0
 62
     3
  6
Continuous
370
    13
390
F
347
27E
1001
AcAecLayerStandard
1000

1000

  0
LAYER
  5
35F5
330
2
100
AcDbSymbolTableRecord
100
AcDbLayerTableRecord
  2
AM_7 中心線
 70
     0
 62
     1
  6
AM_ISO08W050
370
    13
390
F
347
27E
1001
AcAecLayerStandard
1000

1000

  0
LAYER
  5
35F7
330
2
100
AcDbSymbolTableRecord
100
AcDbLayerTableRecord
  2
AM_6 文字
 70
     0
 62
     2
  6
Continuous
370
    13
390
F
347
27E
1001
AcAecLayerStandard
1000

1000

  0
LAYER
  5
592D
330
2
100
AcDbSymbolTableRecord
100
AcDbLayerTableRecord
  2
AM_11 想像線
 70
     0
 62
     5
  6
AM_ISO09W050
370
    13
390
F
347
27E
1001
AcAecLayerStandard
1000

1000

  0
ENDTAB
  0
TABLE
  2
STYLE
  5
3
330
0
100
AcDbSymbolTable
 70
    11
  0
STYLE
  5
11
330
3
100
AcDbSymbolTableRecord
100
AcDbTextStyleTableRecord
  2
STANDARD
 70
     0
 40
0.0
 41
1.0
 50
0.0
 71
     0
 42
25.0
  3
ISOCP.SHX
  4
EXTFONT.SHX
  0
STYLE
  5
23D
330
3
100
AcDbSymbolTableRecord
100
AcDbTextStyleTableRecord
  2

 70
     1
 40
0.0
 41
1.0
 50
0.0
 71
     0
 42
2.5
  3
genltshp.shx
  4

  0
STYLE
  5
5D5
330
3
100
AcDbSymbolTableRecord
100
AcDbTextStyleTableRecord
  2
SEISA
 70
     0
 40
0.0
 41
0.9
 50
0.0
 71
     0
 42
25.0
  3
romans.shx
  4
extfont2.shx
  0
STYLE
  5
5C28
330
3
100
AcDbSymbolTableRecord
100
AcDbTextStyleTableRecord
  2
ACISOTS
 70
     0
 40
1.0
 41
1.0
 50
0.0
 71
     0
 42
25.0
  3
isocp.shx
  4
extfont.shx
  0
STYLE
  5
5C37
330
3
100
AcDbSymbolTableRecord
100
AcDbTextStyleTableRecord
  2
ACISOGDT
 70
     0
 40
0.0
 41
1.0
 50
0.0
 71
     0
 42
25.0
  3
amgdt.shx
  4

  0
ENDTAB
  0
TABLE
  2
VIEW
  5
6
330
0
100
AcDbSymbolTable
 70
     6
  0
VIEW
  5
91B
330
6
100
AcDbSymbolTableRecord
100
AcDbViewTableRecord
  2
AM_VIEW1
 70
     0
 40
525.0
 10
476.3564271517949
 20
787.5000000000003
 41
952.7128547579302
 11
0.0
 21
0.0
 31
1.0
 12
0.0
 22
0.0
 32
0.0
 42
50.0
 43
0.0
 44
0.0
 50
0.0
 71
    16
281
     0
 72
     0
 73
     0
  0
VIEW
  5
91C
330
6
100
AcDbSymbolTableRecord
100
AcDbViewTableRecord
  2
AM_VIEW2
 70
     0
 40
525.0
 10
1008.64357296179
 20
787.5000000000003
 41
952.7128547579302
 11
0.0
 21
0.0
 31
1.0
 12
0.0
 22
0.0
 32
0.0
 42
50.0
 43
0.0
 44
0.0
 50
0.0
 71
    16
281
     0
 72
     0
 73
     0
  0
VIEW
  5
91D
330
6
100
AcDbSymbolTableRecord
100
AcDbViewTableRecord
  2
AM_VIEW3
 70
     0
 40
525.0
 10
476.3564271517949
 20
262.5
 41
952.7128547579302
 11
0.0
 21
0.0
 31
1.0
 12
0.0
 22
0.0
 32
0.0
 42
50.0
 43
0.0
 44
0.0
 50
0.0
 71
    16
281
     0
 72
     0
 73
     0
  0
VIEW
  5
91E
330
6
100
AcDbSymbolTableRecord
100
AcDbViewTableRecord
  2
AM_VIEW4
 70
     0
 40
525.0
 10
1008.64357296179
 20
262.5
 41
952.7128547579302
 11
0.0
 21
0.0
 31
1.0
 12
0.0
 22
0.0
 32
0.0
 42
50.0
 43
0.0
 44
0.0
 50
0.0
 71
    16
281
     0
 72
     0
 73
     0
  0
VIEW
  5
91F
330
6
100
AcDbSymbolTableRecord
100
AcDbViewTableRecord
  2
AM_VIEW5
 70
     0
 40
525.0
 10
742.5000000567925
 20
525.0
 41
952.7128547579302
 11
0.0
 21
0.0
 31
1.0
 12
0.0
 22
0.0
 32
0.0
 42
50.0
 43
0.0
 44
0.0
 50
0.0
 71
    16
281
     0
 72
     0
 73
     0
  0
VIEW
  5
920
330
6
100
AcDbSymbolTableRecord
100
AcDbViewTableRecord
  2
AM_VIEW6
 70
     0
 40
1049.9895
 10
742.5000000567925
 20
525.0
 41
1905.406655258765
 11
0.0
 21
0.0
 31
1.0
 12
0.0
 22
0.0
 32
0.0
 42
50.0
 43
0.0
 44
0.0
 50
0.0
 71
    16
281
     0
 72
     0
 73
     0
  0
ENDTAB
  0
TABLE
  2
UCS
  5
7
330
0
100
AcDbSymbolTable
 70
     0
  0
ENDTAB
  0
TABLE
  2
APPID
  5
9
330
0
100
AcDbSymbolTable
 70
   395
  0
APPID
  5
12
330
9
100
AcDbSymbolTableRecord
100
AcDbRegAppTableRecord
  2
ACAD
 70
     0
  0
APPID
  5
30
330
9
100
AcDbSymbolTableRecord
100
AcDbRegAppTableRecord
  2
MCAD_NO_VIS
 70
     0
  0
APPID
  5
31
330
9
100
AcDbSymbolTableRecord
100
AcDbRegAppTableRecord
  2
ACAD_TEMP_GRAPHIC
 70
     0
  0
APPID
  5
44
330
9
100
AcDbSymbolTableRecord
100
AcDbRegAppTableRecord
  2
ACATTRIBSERVICES
 70
     0
  0
APPID
  5
F6
330
9
100
AcDbSymbolTableRecord
100
AcDbRegAppTableRecord
  2
AD_DRAW
 70
     0
  0
APPID
  5
114
330
9
100
AcDbSymbolTableRecord
100
AcDbRegAppTableRecord
  2
DESIGNERASSEMBLIES
 70
     0
  0
APPID
  5
118
330
9
100
AcDbSymbolTableRecord
100
AcDbRegAppTableRecord
  2
ACADM_DIM_EDIT
 70
     0
  0
APPID
  5
119
330
9
100
AcDbSymbolTableRecord
100
AcDbRegAppTableRecord
  2
AMDT_DM_ADJ
 70
     0
  0
APPID
  5
1AF
330
9
100
AcDbSymbolTableRecord
100
AcDbRegAppTableRecord
  2
ACAD_DSTYLE_DIMARC_LENGTH_SYMBOL
 70
     0
  0
APPID
  5
1B0
330
9
100
AcDbSymbolTableRecord
100
AcDbRegAppTableRecord
  2
ACAD_DSTYLE_DIMJOGGED_JOGANGLE_SYMBOL
 70
     0
  0
APPID
  5
2D7
330
9
100
AcDbSymbolTableRecord
100
AcDbRegAppTableRecord
  2
ACAD_MLEADERVER
 70
     0
  0
APPID
  5
355
330
9
100
AcDbSymbolTableRecord
100
AcDbRegAppTableRecord
  2
AcadAnnoPO
 70
     0
  0
APPID
  5
428
330
9
100
AcDbSymbolTableRecord
100
AcDbRegAppTableRecord
  2
ACAD_DSTYLE_DIMTEXT_FILL
 70
     0
  0
APPID
  5
429
330
9
100
AcDbSymbolTableRecord
100
AcDbRegAppTableRecord
  2
GENIUS_GENSCREG_15
 70
     0
  0
APPID
  5
42A
330
9
100
AcDbSymbolTableRecord
100
AcDbRegAppTableRecord
  2
GENIUS_GENOBJ-N-SDF_13
 70
     0
  0
APPID
  5
42B
330
9
100
AcDbSymbolTableRecord
100
AcDbRegAppTableRecord
  2
GENIUS_GENODEF_13
 70
     0
  0
APPID
  5
42C
330
9
100
AcDbSymbolTableRecord
100
AcDbRegAppTableRecord
  2
ACAD_EXEMPT_FROM_CAD_STANDARDS
 70
     0
  0
APPID
  5
42D
330
9
100
AcDbSymbolTableRecord
100
AcDbRegAppTableRecord
  2
AcAecLayerStandard
 70
     0
  0
APPID
  5
42E
330
9
100
AcDbSymbolTableRecord
100
AcDbRegAppTableRecord
  2
GENIUS_GENOBJ-N-CEN_13
 70
     0
  0
APPID
  5
42F
330
9
100
AcDbSymbolTableRecord
100
AcDbRegAppTableRecord
  2
GENIUS_GENCEN_19
 70
     0
  0
APPID
  5
430
330
9
100
AcDbSymbolTableRecord
100
AcDbRegAppTableRecord
  2
ACAD_DSTYLE_DIMINSPECT
 70
     0
  0
APPID
  5
431
330
9
100
AcDbSymbolTableRecord
100
AcDbRegAppTableRecord
  2
GENIUS_AMGTXT_16
 70
     0
  0
APPID
  5
432
330
9
100
AcDbSymbolTableRecord
100
AcDbRegAppTableRecord
  2
GENIUS_GENFIL_13
 70
     0
  0
APPID
  5
433
330
9
100
AcDbSymbolTableRecord
100
AcDbRegAppTableRecord
  2
GENIUS_GENOLIS_13
 70
     0
  0
APPID
  5
434
330
9
100
AcDbSymbolTableRecord
100
AcDbRegAppTableRecord
  2
GENIUS_GENOBJ-N-CHA_13
 70
     0
  0
APPID
  5
435
330
9
100
AcDbSymbolTableRecord
100
AcDbRegAppTableRecord
  2
GENIUS_GENOENT_13
 70
     0
  0
APPID
  5
436
330
9
100
AcDbSymbolTableRecord
100
AcDbRegAppTableRecord
  2
GENIUS_GENOREF_13
 70
     0
  0
APPID
  5
437
330
9
100
AcDbSymbolTableRecord
100
AcDbRegAppTableRecord
  2
GENIUS_GENOBJ-N-FIL_13
 70
     0
  0
APPID
  5
438
330
9
100
AcDbSymbolTableRecord
100
AcDbRegAppTableRecord
  2
GEVID1208829536
 70
     0
  0
APPID
  5
439
330
9
100
AcDbSymbolTableRecord
100
AcDbRegAppTableRecord
  2
GEVDC
 70
     0
  0
APPID
  5
43A
330
9
100
AcDbSymbolTableRecord
100
AcDbRegAppTableRecord
  2
GEVRADREF
 70
     0
  0
APPID
  5
43B
330
9
100
AcDbSymbolTableRecord
100
AcDbRegAppTableRecord
  2
GENIUS_GENBH_13
 70
     0
  0
APPID
  5
43C
330
9
100
AcDbSymbolTableRecord
100
AcDbRegAppTableRecord
  2
GENIUS_GENOBJ-NBEHI-BHF_13
 70
     0
  0
APPID
  5
43D
330
9
100
AcDbSymbolTableRecord
100
AcDbRegAppTableRecord
  2
GENIUS_GENOBJ-NBEHI-BHB_13
 70
     0
  0
APPID
  5
43E
330
9
100
AcDbSymbolTableRecord
100
AcDbRegAppTableRecord
  2
GEVID1208829537
 70
     0
  0
APPID
  5
43F
330
9
100
AcDbSymbolTableRecord
100
AcDbRegAppTableRecord
  2
ACAD_DSTYLE_DIMJAG
 70
     0
  0
APPID
  5
440
330
9
100
AcDbSymbolTableRecord
100
AcDbRegAppTableRecord
  2
ACAD_DSTYLE_DIMTALN
 70
     0
  0
APPID
  5
441
330
9
100
AcDbSymbolTableRecord
100
AcDbRegAppTableRecord
  2
AMG_2DHIDE
 70
     0
  0
APPID
  5
442
330
9
100
AcDbSymbolTableRecord
100
AcDbRegAppTableRecord
  2
AMG_2DSTRUCT_BTR
 70
     0
  0
APPID
  5
443
330
9
100
AcDbSymbolTableRecord
100
AcDbRegAppTableRecord
  2
GEVID1208845772
 70
     0
  0
APPID
  5
444
330
9
100
AcDbSymbolTableRecord
100
AcDbRegAppTableRecord
  2
GEVID1208845773
 70
     0
  0
APPID
  5
445
330
9
100
AcDbSymbolTableRecord
100
AcDbRegAppTableRecord
  2
ACADM_2DVIEW_IGN_NOTIFY
 70
     0
  0
APPID
  5
446
330
9
100
AcDbSymbolTableRecord
100
AcDbRegAppTableRecord
  2
GEVID1208845774
 70
     0
  0
APPID
  5
447
330
9
100
AcDbSymbolTableRecord
100
AcDbRegAppTableRecord
  2
GEVID1208845775
 70
     0
  0
APPID
  5
448
330
9
100
AcDbSymbolTableRecord
100
AcDbRegAppTableRecord
  2
GEVID1208845776
 70
     0
  0
APPID
  5
449
330
9
100
AcDbSymbolTableRecord
100
AcDbRegAppTableRecord
  2
GEVID1208845777
 70
     0
  0
APPID
  5
44A
330
9
100
AcDbSymbolTableRecord
100
AcDbRegAppTableRecord
  2
GEVCON
 70
     0
  0
APPID
  5
44B
330
9
100
AcDbSymbolTableRecord
100
AcDbRegAppTableRecord
  2
GENIUS_GENOBJ-F-SCPASSM_13
 70
     0
  0
APPID
  5
44C
330
9
100
AcDbSymbolTableRecord
100
AcDbRegAppTableRecord
  2
GEVID1208845778
 70
     0
  0
APPID
  5
44D
330
9
100
AcDbSymbolTableRecord
100
AcDbRegAppTableRecord
  2
GEVID1208845779
 70
     0
  0
APPID
  5
44E
330
9
100
AcDbSymbolTableRecord
100
AcDbRegAppTableRecord
  2
GEVID1208845780
 70
     0
  0
APPID
  5
44F
330
9
100
AcDbSymbolTableRecord
100
AcDbRegAppTableRecord
  2
GEVID1208845781
 70
     0
  0
APPID
  5
450
330
9
100
AcDbSymbolTableRecord
100
AcDbRegAppTableRecord
  2
GEVID1208845782
 70
     0
  0
APPID
  5
451
330
9
100
AcDbSymbolTableRecord
100
AcDbRegAppTableRecord
  2
GEVID1208845783
 70
     0
  0
APPID
  5
452
330
9
100
AcDbSymbolTableRecord
100
AcDbRegAppTableRecord
  2
GEVID1208845784
 70
     0
  0
APPID
  5
453
330
9
100
AcDbSymbolTableRecord
100
AcDbRegAppTableRecord
  2
GEVID1208845785
 70
     0
  0
APPID
  5
454
330
9
100
AcDbSymbolTableRecord
100
AcDbRegAppTableRecord
  2
GEVID1208845787
 70
     0
  0
APPID
  5
455
330
9
100
AcDbSymbolTableRecord
100
AcDbRegAppTableRecord
  2
GEVID1208845788
 70
     0
  0
APPID
  5
456
330
9
100
AcDbSymbolTableRecord
100
AcDbRegAppTableRecord
  2
GEVID1208845789
 70
     0
  0
APPID
  5
457
330
9
100
AcDbSymbolTableRecord
100
AcDbRegAppTableRecord
  2
GEVID1208845790
 70
     0
  0
APPID
  5
458
330
9
100
AcDbSymbolTableRecord
100
AcDbRegAppTableRecord
  2
GEVID1208845791
 70
     0
  0
APPID
  5
459
330
9
100
AcDbSymbolTableRecord
100
AcDbRegAppTableRecord
  2
GEVID1208845792
 70
     0
  0
APPID
  5
45A
330
9
100
AcDbSymbolTableRecord
100
AcDbRegAppTableRecord
  2
GEVID1208845793
 70
     0
  0
APPID
  5
45B
330
9
100
AcDbSymbolTableRecord
100
AcDbRegAppTableRecord
  2
GEVID1208845794
 70
     0
  0
APPID
  5
45C
330
9
100
AcDbSymbolTableRecord
100
AcDbRegAppTableRecord
  2
GEVID1208845795
 70
     0
  0
APPID
  5
45D
330
9
100
AcDbSymbolTableRecord
100
AcDbRegAppTableRecord
  2
GEVID1208845796
 70
     0
  0
APPID
  5
45E
330
9
100
AcDbSymbolTableRecord
100
AcDbRegAppTableRecord
  2
GEVID1208845797
 70
     0
  0
APPID
  5
45F
330
9
100
AcDbSymbolTableRecord
100
AcDbRegAppTableRecord
  2
GEVID1208845798
 70
     0
  0
APPID
  5
460
330
9
100
AcDbSymbolTableRecord
100
AcDbRegAppTableRecord
  2
GEVID1208845799
 70
     0
  0
APPID
  5
461
330
9
100
AcDbSymbolTableRecord
100
AcDbRegAppTableRecord
  2
GEVID1208845800
 70
     0
  0
APPID
  5
462
330
9
100
AcDbSymbolTableRecord
100
AcDbRegAppTableRecord
  2
GEVID1208845801
 70
     0
  0
APPID
  5
463
330
9
100
AcDbSymbolTableRecord
100
AcDbRegAppTableRecord
  2
GEVID1208845802
 70
     0
  0
APPID
  5
464
330
9
100
AcDbSymbolTableRecord
100
AcDbRegAppTableRecord
  2
GENIUS_GENOBJ-N-DIM_13
 70
     0
  0
APPID
  5
465
330
9
100
AcDbSymbolTableRecord
100
AcDbRegAppTableRecord
  2
GENIUS_GENDIM_13
 70
     0
  0
APPID
  5
466
330
9
100
AcDbSymbolTableRecord
100
AcDbRegAppTableRecord
  2
GENIUS_GENDIMSH_14
 70
     0
  0
APPID
  5
467
330
9
100
AcDbSymbolTableRecord
100
AcDbRegAppTableRecord
  2
GEVID1208845803
 70
     0
  0
APPID
  5
468
330
9
100
AcDbSymbolTableRecord
100
AcDbRegAppTableRecord
  2
GEVID1208845804
 70
     0
  0
APPID
  5
469
330
9
100
AcDbSymbolTableRecord
100
AcDbRegAppTableRecord
  2
GEVID1208845805
 70
     0
  0
APPID
  5
46A
330
9
100
AcDbSymbolTableRecord
100
AcDbRegAppTableRecord
  2
GEVID1208845806
 70
     0
  0
APPID
  5
46B
330
9
100
AcDbSymbolTableRecord
100
AcDbRegAppTableRecord
  2
GEVID1208845807
 70
     0
  0
APPID
  5
46C
330
9
100
AcDbSymbolTableRecord
100
AcDbRegAppTableRecord
  2
GEVID1208845808
 70
     0
  0
APPID
  5
46D
330
9
100
AcDbSymbolTableRecord
100
AcDbRegAppTableRecord
  2
GEVID1208845809
 70
     0
  0
APPID
  5
46E
330
9
100
AcDbSymbolTableRecord
100
AcDbRegAppTableRecord
  2
GEVID1208845810
 70
     0
  0
APPID
  5
46F
330
9
100
AcDbSymbolTableRecord
100
AcDbRegAppTableRecord
  2
GEVID1208845811
 70
     0
  0
APPID
  5
470
330
9
100
AcDbSymbolTableRecord
100
AcDbRegAppTableRecord
  2
GEVID1208845813
 70
     0
  0
APPID
  5
471
330
9
100
AcDbSymbolTableRecord
100
AcDbRegAppTableRecord
  2
GEVID1208845814
 70
     0
  0
APPID
  5
472
330
9
100
AcDbSymbolTableRecord
100
AcDbRegAppTableRecord
  2
GEVID1208845815
 70
     0
  0
APPID
  5
473
330
9
100
AcDbSymbolTableRecord
100
AcDbRegAppTableRecord
  2
GEVID1208845816
 70
     0
  0
APPID
  5
474
330
9
100
AcDbSymbolTableRecord
100
AcDbRegAppTableRecord
  2
GEVID1208845817
 70
     0
  0
APPID
  5
475
330
9
100
AcDbSymbolTableRecord
100
AcDbRegAppTableRecord
  2
GEVID1208845818
 70
     0
  0
APPID
  5
476
330
9
100
AcDbSymbolTableRecord
100
AcDbRegAppTableRecord
  2
GEVID1208845819
 70
     0
  0
APPID
  5
477
330
9
100
AcDbSymbolTableRecord
100
AcDbRegAppTableRecord
  2
GEVID1208845820
 70
     0
  0
APPID
  5
478
330
9
100
AcDbSymbolTableRecord
100
AcDbRegAppTableRecord
  2
GENIUS_GENOBJ-F-SHCL_13
 70
     0
  0
APPID
  5
479
330
9
100
AcDbSymbolTableRecord
100
AcDbRegAppTableRecord
  2
GENIUS_GEFMSH_13
 70
     0
  0
APPID
  5
47A
330
9
100
AcDbSymbolTableRecord
100
AcDbRegAppTableRecord
  2
GENIUS_GENOBJ-F-SHCA_13
 70
     0
  0
APPID
  5
47B
330
9
100
AcDbSymbolTableRecord
100
AcDbRegAppTableRecord
  2
GENIUS_GEFSH_13
 70
     0
  0
APPID
  5
47C
330
9
100
AcDbSymbolTableRecord
100
AcDbRegAppTableRecord
  2
GENIUS_GEFSHP_13
 70
     0
  0
APPID
  5
47D
330
9
100
AcDbSymbolTableRecord
100
AcDbRegAppTableRecord
  2
GENIUS_GEFSHP0_13
 70
     0
  0
APPID
  5
47E
330
9
100
AcDbSymbolTableRecord
100
AcDbRegAppTableRecord
  2
GENIUS_GEFSH0_13
 70
     0
  0
APPID
  5
47F
330
9
100
AcDbSymbolTableRecord
100
AcDbRegAppTableRecord
  2
GENIUS_GEFSHP1_13
 70
     0
  0
APPID
  5
480
330
9
100
AcDbSymbolTableRecord
100
AcDbRegAppTableRecord
  2
GENIUS_GEFSH1_13
 70
     0
  0
APPID
  5
481
330
9
100
AcDbSymbolTableRecord
100
AcDbRegAppTableRecord
  2
GEVID1208866337
 70
     0
  0
APPID
  5
482
330
9
100
AcDbSymbolTableRecord
100
AcDbRegAppTableRecord
  2
GEVID1208866338
 70
     0
  0
APPID
  5
483
330
9
100
AcDbSymbolTableRecord
100
AcDbRegAppTableRecord
  2
GEVID1208866339
 70
     0
  0
APPID
  5
484
330
9
100
AcDbSymbolTableRecord
100
AcDbRegAppTableRecord
  2
GEVID1208866340
 70
     0
  0
APPID
  5
485
330
9
100
AcDbSymbolTableRecord
100
AcDbRegAppTableRecord
  2
GEVID1208866341
 70
     0
  0
APPID
  5
486
330
9
100
AcDbSymbolTableRecord
100
AcDbRegAppTableRecord
  2
ACAD_PSEXT
 70
     0
  0
APPID
  5
487
330
9
100
AcDbSymbolTableRecord
100
AcDbRegAppTableRecord
  2
GEVID1208866342
 70
     0
  0
APPID
  5
488
330
9
100
AcDbSymbolTableRecord
100
AcDbRegAppTableRecord
  2
GEVID1208913836
 70
     0
  0
APPID
  5
489
330
9
100
AcDbSymbolTableRecord
100
AcDbRegAppTableRecord
  2
GEVID1208913837
 70
     0
  0
APPID
  5
48A
330
9
100
AcDbSymbolTableRecord
100
AcDbRegAppTableRecord
  2
GEVID1208913838
 70
     0
  0
APPID
  5
48B
330
9
100
AcDbSymbolTableRecord
100
AcDbRegAppTableRecord
  2
GEVID1208913839
 70
     0
  0
APPID
  5
48C
330
9
100
AcDbSymbolTableRecord
100
AcDbRegAppTableRecord
  2
GENIUS_GENDTOL_13
 70
     0
  0
APPID
  5
48D
330
9
100
AcDbSymbolTableRecord
100
AcDbRegAppTableRecord
  2
GEVID1208928889
 70
     0
  0
APPID
  5
48E
330
9
100
AcDbSymbolTableRecord
100
AcDbRegAppTableRecord
  2
GEVID1208928890
 70
     0
  0
APPID
  5
48F
330
9
100
AcDbSymbolTableRecord
100
AcDbRegAppTableRecord
  2
GEVID1208928891
 70
     0
  0
APPID
  5
490
330
9
100
AcDbSymbolTableRecord
100
AcDbRegAppTableRecord
  2
GEVID1208928892
 70
     0
  0
APPID
  5
491
330
9
100
AcDbSymbolTableRecord
100
AcDbRegAppTableRecord
  2
GEVID1208933827
 70
     0
  0
APPID
  5
492
330
9
100
AcDbSymbolTableRecord
100
AcDbRegAppTableRecord
  2
GEVID1208933829
 70
     0
  0
APPID
  5
493
330
9
100
AcDbSymbolTableRecord
100
AcDbRegAppTableRecord
  2
GEVID1208933830
 70
     0
  0
APPID
  5
494
330
9
100
AcDbSymbolTableRecord
100
AcDbRegAppTableRecord
  2
GEVID1208933831
 70
     0
  0
APPID
  5
495
330
9
100
AcDbSymbolTableRecord
100
AcDbRegAppTableRecord
  2
GEVID1208933832
 70
     0
  0
APPID
  5
496
330
9
100
AcDbSymbolTableRecord
100
AcDbRegAppTableRecord
  2
GEVID1208933833
 70
     0
  0
APPID
  5
497
330
9
100
AcDbSymbolTableRecord
100
AcDbRegAppTableRecord
  2
GEVID1208933834
 70
     0
  0
APPID
  5
498
330
9
100
AcDbSymbolTableRecord
100
AcDbRegAppTableRecord
  2
GEVID1208933835
 70
     0
  0
APPID
  5
499
330
9
100
AcDbSymbolTableRecord
100
AcDbRegAppTableRecord
  2
GEVID1208933836
 70
     0
  0
APPID
  5
49A
330
9
100
AcDbSymbolTableRecord
100
AcDbRegAppTableRecord
  2
GEVID1208933837
 70
     0
  0
APPID
  5
49B
330
9
100
AcDbSymbolTableRecord
100
AcDbRegAppTableRecord
  2
GEVID1208933838
 70
     0
  0
APPID
  5
49C
330
9
100
AcDbSymbolTableRecord
100
AcDbRegAppTableRecord
  2
GEVID1208933840
 70
     0
  0
APPID
  5
49D
330
9
100
AcDbSymbolTableRecord
100
AcDbRegAppTableRecord
  2
GEVID1208933842
 70
     0
  0
APPID
  5
49E
330
9
100
AcDbSymbolTableRecord
100
AcDbRegAppTableRecord
  2
GEVID1208933843
 70
     0
  0
APPID
  5
49F
330
9
100
AcDbSymbolTableRecord
100
AcDbRegAppTableRecord
  2
GEVID1208933844
 70
     0
  0
APPID
  5
4A0
330
9
100
AcDbSymbolTableRecord
100
AcDbRegAppTableRecord
  2
GEVID1208933845
 70
     0
  0
APPID
  5
4A1
330
9
100
AcDbSymbolTableRecord
100
AcDbRegAppTableRecord
  2
GEVID1208933846
 70
     0
  0
APPID
  5
4A2
330
9
100
AcDbSymbolTableRecord
100
AcDbRegAppTableRecord
  2
GEVID1208933847
 70
     0
  0
APPID
  5
4A3
330
9
100
AcDbSymbolTableRecord
100
AcDbRegAppTableRecord
  2
GEVID1208933848
 70
     0
  0
APPID
  5
4A4
330
9
100
AcDbSymbolTableRecord
100
AcDbRegAppTableRecord
  2
GEVID1208933849
 70
     0
  0
APPID
  5
4A5
330
9
100
AcDbSymbolTableRecord
100
AcDbRegAppTableRecord
  2
GEVID1208933850
 70
     0
  0
APPID
  5
4A6
330
9
100
AcDbSymbolTableRecord
100
AcDbRegAppTableRecord
  2
GEVID1208933851
 70
     0
  0
APPID
  5
4A7
330
9
100
AcDbSymbolTableRecord
100
AcDbRegAppTableRecord
  2
GEVID1208933852
 70
     0
  0
APPID
  5
4A8
330
9
100
AcDbSymbolTableRecord
100
AcDbRegAppTableRecord
  2
GEVID1208933853
 70
     0
  0
APPID
  5
4A9
330
9
100
AcDbSymbolTableRecord
100
AcDbRegAppTableRecord
  2
GEVID1208933854
 70
     0
  0
APPID
  5
4AA
330
9
100
AcDbSymbolTableRecord
100
AcDbRegAppTableRecord
  2
GEVID1208933855
 70
     0
  0
APPID
  5
4AB
330
9
100
AcDbSymbolTableRecord
100
AcDbRegAppTableRecord
  2
GEVID1208933856
 70
     0
  0
APPID
  5
4AC
330
9
100
AcDbSymbolTableRecord
100
AcDbRegAppTableRecord
  2
GEVID1208933857
 70
     0
  0
APPID
  5
4AD
330
9
100
AcDbSymbolTableRecord
100
AcDbRegAppTableRecord
  2
GEVID1208933858
 70
     0
  0
APPID
  5
4AE
330
9
100
AcDbSymbolTableRecord
100
AcDbRegAppTableRecord
  2
GEVID1208933859
 70
     0
  0
APPID
  5
4AF
330
9
100
AcDbSymbolTableRecord
100
AcDbRegAppTableRecord
  2
GEVID1208933860
 70
     0
  0
APPID
  5
4B0
330
9
100
AcDbSymbolTableRecord
100
AcDbRegAppTableRecord
  2
GEVID1208933861
 70
     0
  0
APPID
  5
4B1
330
9
100
AcDbSymbolTableRecord
100
AcDbRegAppTableRecord
  2
GEVID1208933862
 70
     0
  0
APPID
  5
4B2
330
9
100
AcDbSymbolTableRecord
100
AcDbRegAppTableRecord
  2
GEVID1208933863
 70
     0
  0
APPID
  5
4B3
330
9
100
AcDbSymbolTableRecord
100
AcDbRegAppTableRecord
  2
GEVID1208933864
 70
     0
  0
APPID
  5
4B4
330
9
100
AcDbSymbolTableRecord
100
AcDbRegAppTableRecord
  2
GEVID1208933865
 70
     0
  0
APPID
  5
4B5
330
9
100
AcDbSymbolTableRecord
100
AcDbRegAppTableRecord
  2
GEVID1208933866
 70
     0
  0
APPID
  5
4B6
330
9
100
AcDbSymbolTableRecord
100
AcDbRegAppTableRecord
  2
GEVID1208933867
 70
     0
  0
APPID
  5
4B7
330
9
100
AcDbSymbolTableRecord
100
AcDbRegAppTableRecord
  2
GEVID1208933868
 70
     0
  0
APPID
  5
4B8
330
9
100
AcDbSymbolTableRecord
100
AcDbRegAppTableRecord
  2
GEVID1208933869
 70
     0
  0
APPID
  5
4B9
330
9
100
AcDbSymbolTableRecord
100
AcDbRegAppTableRecord
  2
GEVID1208933870
 70
     0
  0
APPID
  5
4BA
330
9
100
AcDbSymbolTableRecord
100
AcDbRegAppTableRecord
  2
GEVID1208933871
 70
     0
  0
APPID
  5
4BB
330
9
100
AcDbSymbolTableRecord
100
AcDbRegAppTableRecord
  2
GEVID1208933872
 70
     0
  0
APPID
  5
4BC
330
9
100
AcDbSymbolTableRecord
100
AcDbRegAppTableRecord
  2
GEVID1208933873
 70
     0
  0
APPID
  5
4BD
330
9
100
AcDbSymbolTableRecord
100
AcDbRegAppTableRecord
  2
GEVID1208933874
 70
     0
  0
APPID
  5
4BE
330
9
100
AcDbSymbolTableRecord
100
AcDbRegAppTableRecord
  2
GEVID1208933875
 70
     0
  0
APPID
  5
4BF
330
9
100
AcDbSymbolTableRecord
100
AcDbRegAppTableRecord
  2
GEVID1208933876
 70
     0
  0
APPID
  5
4C0
330
9
100
AcDbSymbolTableRecord
100
AcDbRegAppTableRecord
  2
ACAD_DSTYLE_DIMRADIAL_EXTENSION
 70
     0
  0
APPID
  5
4C1
330
9
100
AcDbSymbolTableRecord
100
AcDbRegAppTableRecord
  2
GEVID1208999100
 70
     0
  0
APPID
  5
4C2
330
9
100
AcDbSymbolTableRecord
100
AcDbRegAppTableRecord
  2
GEVID1208999101
 70
     0
  0
APPID
  5
4C3
330
9
100
AcDbSymbolTableRecord
100
AcDbRegAppTableRecord
  2
GEVID1208999102
 70
     0
  0
APPID
  5
4C4
330
9
100
AcDbSymbolTableRecord
100
AcDbRegAppTableRecord
  2
GEVID1208999103
 70
     0
  0
APPID
  5
4C5
330
9
100
AcDbSymbolTableRecord
100
AcDbRegAppTableRecord
  2
GEVID1208999105
 70
     0
  0
APPID
  5
4C6
330
9
100
AcDbSymbolTableRecord
100
AcDbRegAppTableRecord
  2
GEVID1208999106
 70
     0
  0
APPID
  5
4C7
330
9
100
AcDbSymbolTableRecord
100
AcDbRegAppTableRecord
  2
GEVID1208999108
 70
     0
  0
APPID
  5
4C8
330
9
100
AcDbSymbolTableRecord
100
AcDbRegAppTableRecord
  2
GEVID1208999109
 70
     0
  0
APPID
  5
4C9
330
9
100
AcDbSymbolTableRecord
100
AcDbRegAppTableRecord
  2
GEVID1208999110
 70
     0
  0
APPID
  5
4CA
330
9
100
AcDbSymbolTableRecord
100
AcDbRegAppTableRecord
  2
GEVID1208999111
 70
     0
  0
APPID
  5
4CB
330
9
100
AcDbSymbolTableRecord
100
AcDbRegAppTableRecord
  2
GEVID1208999112
 70
     0
  0
APPID
  5
4CC
330
9
100
AcDbSymbolTableRecord
100
AcDbRegAppTableRecord
  2
GEVID1208999113
 70
     0
  0
APPID
  5
4CD
330
9
100
AcDbSymbolTableRecord
100
AcDbRegAppTableRecord
  2
GEVID1208999114
 70
     0
  0
APPID
  5
4CE
330
9
100
AcDbSymbolTableRecord
100
AcDbRegAppTableRecord
  2
GEVID1210218799
 70
     0
  0
APPID
  5
4CF
330
9
100
AcDbSymbolTableRecord
100
AcDbRegAppTableRecord
  2
GEVID1210218800
 70
     0
  0
APPID
  5
4D0
330
9
100
AcDbSymbolTableRecord
100
AcDbRegAppTableRecord
  2
GENIUS_GEFWELD_13
 70
     0
  0
APPID
  5
4D1
330
9
100
AcDbSymbolTableRecord
100
AcDbRegAppTableRecord
  2
GENIUS_GENOBJ-F-WELS_13
 70
     0
  0
APPID
  5
4D2
330
9
100
AcDbSymbolTableRecord
100
AcDbRegAppTableRecord
  2
AcadAnnotative
 70
     0
  0
APPID
  5
4D3
330
9
100
AcDbSymbolTableRecord
100
AcDbRegAppTableRecord
  2
GEVID1210145339
 70
     0
  0
APPID
  5
4D4
330
9
100
AcDbSymbolTableRecord
100
AcDbRegAppTableRecord
  2
ACAD_DSTYLE_DIMBREAK
 70
     0
  0
APPID
  5
4D5
330
9
100
AcDbSymbolTableRecord
100
AcDbRegAppTableRecord
  2
GEVID1210145340
 70
     0
  0
APPID
  5
4D6
330
9
100
AcDbSymbolTableRecord
100
AcDbRegAppTableRecord
  2
GEVID1210145341
 70
     0
  0
APPID
  5
4D7
330
9
100
AcDbSymbolTableRecord
100
AcDbRegAppTableRecord
  2
GEVID1210145342
 70
     0
  0
APPID
  5
4D8
330
9
100
AcDbSymbolTableRecord
100
AcDbRegAppTableRecord
  2
GEVID1210145343
 70
     0
  0
APPID
  5
4D9
330
9
100
AcDbSymbolTableRecord
100
AcDbRegAppTableRecord
  2
GEVID1210145344
 70
     0
  0
APPID
  5
4DA
330
9
100
AcDbSymbolTableRecord
100
AcDbRegAppTableRecord
  2
GEVID1210145345
 70
     0
  0
APPID
  5
4DB
330
9
100
AcDbSymbolTableRecord
100
AcDbRegAppTableRecord
  2
GEVID1210152816
 70
     0
  0
APPID
  5
4DC
330
9
100
AcDbSymbolTableRecord
100
AcDbRegAppTableRecord
  2
GEVID1210153850
 70
     0
  0
APPID
  5
4DD
330
9
100
AcDbSymbolTableRecord
100
AcDbRegAppTableRecord
  2
GEVID1210153851
 70
     0
  0
APPID
  5
4DE
330
9
100
AcDbSymbolTableRecord
100
AcDbRegAppTableRecord
  2
GEVID1210153852
 70
     0
  0
APPID
  5
4DF
330
9
100
AcDbSymbolTableRecord
100
AcDbRegAppTableRecord
  2
GEVID1210549898
 70
     0
  0
APPID
  5
4E0
330
9
100
AcDbSymbolTableRecord
100
AcDbRegAppTableRecord
  2
GEVID1210549899
 70
     0
  0
APPID
  5
4E1
330
9
100
AcDbSymbolTableRecord
100
AcDbRegAppTableRecord
  2
GEVID1210549900
 70
     0
  0
APPID
  5
4E2
330
9
100
AcDbSymbolTableRecord
100
AcDbRegAppTableRecord
  2
GEVID1210549901
 70
     0
  0
APPID
  5
4E3
330
9
100
AcDbSymbolTableRecord
100
AcDbRegAppTableRecord
  2
GEVID1210549902
 70
     0
  0
APPID
  5
4E4
330
9
100
AcDbSymbolTableRecord
100
AcDbRegAppTableRecord
  2
GEVID1210549903
 70
     0
  0
APPID
  5
4E5
330
9
100
AcDbSymbolTableRecord
100
AcDbRegAppTableRecord
  2
GEVID1210549904
 70
     0
  0
APPID
  5
4E6
330
9
100
AcDbSymbolTableRecord
100
AcDbRegAppTableRecord
  2
GEVID1210549905
 70
     0
  0
APPID
  5
4E7
330
9
100
AcDbSymbolTableRecord
100
AcDbRegAppTableRecord
  2
GEVID1210549906
 70
     0
  0
APPID
  5
4E8
330
9
100
AcDbSymbolTableRecord
100
AcDbRegAppTableRecord
  2
GEVID1210549907
 70
     0
  0
APPID
  5
4E9
330
9
100
AcDbSymbolTableRecord
100
AcDbRegAppTableRecord
  2
GEVID1210549908
 70
     0
  0
APPID
  5
4EA
330
9
100
AcDbSymbolTableRecord
100
AcDbRegAppTableRecord
  2
GEVID1210549909
 70
     0
  0
APPID
  5
4EB
330
9
100
AcDbSymbolTableRecord
100
AcDbRegAppTableRecord
  2
GEVID1210549910
 70
     0
  0
APPID
  5
4EC
330
9
100
AcDbSymbolTableRecord
100
AcDbRegAppTableRecord
  2
GEVID1210549911
 70
     0
  0
APPID
  5
4ED
330
9
100
AcDbSymbolTableRecord
100
AcDbRegAppTableRecord
  2
GEVID1210549912
 70
     0
  0
APPID
  5
4EE
330
9
100
AcDbSymbolTableRecord
100
AcDbRegAppTableRecord
  2
GEVID1210549913
 70
     0
  0
APPID
  5
4EF
330
9
100
AcDbSymbolTableRecord
100
AcDbRegAppTableRecord
  2
GEVID1210549914
 70
     0
  0
APPID
  5
4F0
330
9
100
AcDbSymbolTableRecord
100
AcDbRegAppTableRecord
  2
GEVID1210549915
 70
     0
  0
APPID
  5
4F1
330
9
100
AcDbSymbolTableRecord
100
AcDbRegAppTableRecord
  2
GEVID1210549916
 70
     0
  0
APPID
  5
4F2
330
9
100
AcDbSymbolTableRecord
100
AcDbRegAppTableRecord
  2
GEVID1210549917
 70
     0
  0
APPID
  5
4F3
330
9
100
AcDbSymbolTableRecord
100
AcDbRegAppTableRecord
  2
GENIUS_GENOBJ-N-CRS_13
 70
     0
  0
APPID
  5
4F4
330
9
100
AcDbSymbolTableRecord
100
AcDbRegAppTableRecord
  2
GEVID1210549918
 70
     0
  0
APPID
  5
4F5
330
9
100
AcDbSymbolTableRecord
100
AcDbRegAppTableRecord
  2
GENIUS_GENOBJ-N-CRC_13
 70
     0
  0
APPID
  5
4F6
330
9
100
AcDbSymbolTableRecord
100
AcDbRegAppTableRecord
  2
GENIUS_GENCRC_14
 70
     0
  0
APPID
  5
4F7
330
9
100
AcDbSymbolTableRecord
100
AcDbRegAppTableRecord
  2
GEVID1210549919
 70
     0
  0
APPID
  5
4F8
330
9
100
AcDbSymbolTableRecord
100
AcDbRegAppTableRecord
  2
GEVID1210549921
 70
     0
  0
APPID
  5
4F9
330
9
100
AcDbSymbolTableRecord
100
AcDbRegAppTableRecord
  2
GEVID1210549922
 70
     0
  0
APPID
  5
4FA
330
9
100
AcDbSymbolTableRecord
100
AcDbRegAppTableRecord
  2
GEVID1210635173
 70
     0
  0
APPID
  5
4FB
330
9
100
AcDbSymbolTableRecord
100
AcDbRegAppTableRecord
  2
GEVID1210635174
 70
     0
  0
APPID
  5
4FC
330
9
100
AcDbSymbolTableRecord
100
AcDbRegAppTableRecord
  2
GEVID1210635175
 70
     0
  0
APPID
  5
4FD
330
9
100
AcDbSymbolTableRecord
100
AcDbRegAppTableRecord
  2
GEVID1210635176
 70
     0
  0
APPID
  5
4FE
330
9
100
AcDbSymbolTableRecord
100
AcDbRegAppTableRecord
  2
GEVID1210635177
 70
     0
  0
APPID
  5
4FF
330
9
100
AcDbSymbolTableRecord
100
AcDbRegAppTableRecord
  2
GEVID1210635178
 70
     0
  0
APPID
  5
500
330
9
100
AcDbSymbolTableRecord
100
AcDbRegAppTableRecord
  2
GENIUS_GENIUS_GENBHEDTMP_13
 70
     0
  0
APPID
  5
501
330
9
100
AcDbSymbolTableRecord
100
AcDbRegAppTableRecord
  2
GEVID1210635179
 70
     0
  0
APPID
  5
502
330
9
100
AcDbSymbolTableRecord
100
AcDbRegAppTableRecord
  2
GEVID1210635180
 70
     0
  0
APPID
  5
503
330
9
100
AcDbSymbolTableRecord
100
AcDbRegAppTableRecord
  2
GEVID1210635181
 70
     0
  0
APPID
  5
504
330
9
100
AcDbSymbolTableRecord
100
AcDbRegAppTableRecord
  2
GEVID1210635182
 70
     0
  0
APPID
  5
505
330
9
100
AcDbSymbolTableRecord
100
AcDbRegAppTableRecord
  2
GEVID1210635184
 70
     0
  0
APPID
  5
506
330
9
100
AcDbSymbolTableRecord
100
AcDbRegAppTableRecord
  2
GEVID1210635185
 70
     0
  0
APPID
  5
507
330
9
100
AcDbSymbolTableRecord
100
AcDbRegAppTableRecord
  2
GEVID1210635186
 70
     0
  0
APPID
  5
508
330
9
100
AcDbSymbolTableRecord
100
AcDbRegAppTableRecord
  2
GEVID1210635187
 70
     0
  0
APPID
  5
509
330
9
100
AcDbSymbolTableRecord
100
AcDbRegAppTableRecord
  2
GEVID1210635188
 70
     0
  0
APPID
  5
50A
330
9
100
AcDbSymbolTableRecord
100
AcDbRegAppTableRecord
  2
GEVID1210635189
 70
     0
  0
APPID
  5
50B
330
9
100
AcDbSymbolTableRecord
100
AcDbRegAppTableRecord
  2
GEVID1210635190
 70
     0
  0
APPID
  5
50C
330
9
100
AcDbSymbolTableRecord
100
AcDbRegAppTableRecord
  2
GENIUS_GENREC_14
 70
     0
  0
APPID
  5
50D
330
9
100
AcDbSymbolTableRecord
100
AcDbRegAppTableRecord
  2
GENIUS_GENOBJ-N-REC_13
 70
     0
  0
APPID
  5
50E
330
9
100
AcDbSymbolTableRecord
100
AcDbRegAppTableRecord
  2
GEVID1210676655
 70
     0
  0
APPID
  5
50F
330
9
100
AcDbSymbolTableRecord
100
AcDbRegAppTableRecord
  2
GEVID1210676656
 70
     0
  0
APPID
  5
510
330
9
100
AcDbSymbolTableRecord
100
AcDbRegAppTableRecord
  2
GEVID1210676657
 70
     0
  0
APPID
  5
511
330
9
100
AcDbSymbolTableRecord
100
AcDbRegAppTableRecord
  2
GEVID1210676659
 70
     0
  0
APPID
  5
512
330
9
100
AcDbSymbolTableRecord
100
AcDbRegAppTableRecord
  2
GEVID1210676660
 70
     0
  0
APPID
  5
513
330
9
100
AcDbSymbolTableRecord
100
AcDbRegAppTableRecord
  2
GEVID1210676661
 70
     0
  0
APPID
  5
514
330
9
100
AcDbSymbolTableRecord
100
AcDbRegAppTableRecord
  2
GEVID1210676662
 70
     0
  0
APPID
  5
515
330
9
100
AcDbSymbolTableRecord
100
AcDbRegAppTableRecord
  2
GEVID1210721646
 70
     0
  0
APPID
  5
516
330
9
100
AcDbSymbolTableRecord
100
AcDbRegAppTableRecord
  2
GEVID1210721647
 70
     0
  0
APPID
  5
517
330
9
100
AcDbSymbolTableRecord
100
AcDbRegAppTableRecord
  2
GEVID1210721648
 70
     0
  0
APPID
  5
518
330
9
100
AcDbSymbolTableRecord
100
AcDbRegAppTableRecord
  2
GEVID1210721649
 70
     0
  0
APPID
  5
519
330
9
100
AcDbSymbolTableRecord
100
AcDbRegAppTableRecord
  2
GEVID1210721650
 70
     0
  0
APPID
  5
51A
330
9
100
AcDbSymbolTableRecord
100
AcDbRegAppTableRecord
  2
GEVID1210721651
 70
     0
  0
APPID
  5
51B
330
9
100
AcDbSymbolTableRecord
100
AcDbRegAppTableRecord
  2
GEVID1210721652
 70
     0
  0
APPID
  5
51C
330
9
100
AcDbSymbolTableRecord
100
AcDbRegAppTableRecord
  2
GEVID1210721653
 70
     0
  0
APPID
  5
51D
330
9
100
AcDbSymbolTableRecord
100
AcDbRegAppTableRecord
  2
PE_URL
 70
     0
  0
APPID
  5
51E
330
9
100
AcDbSymbolTableRecord
100
AcDbRegAppTableRecord
  2
GEVID1210825555
 70
     0
  0
APPID
  5
51F
330
9
100
AcDbSymbolTableRecord
100
AcDbRegAppTableRecord
  2
GEVID1210825556
 70
     0
  0
APPID
  5
520
330
9
100
AcDbSymbolTableRecord
100
AcDbRegAppTableRecord
  2
GEVID1210825557
 70
     0
  0
APPID
  5
521
330
9
100
AcDbSymbolTableRecord
100
AcDbRegAppTableRecord
  2
GEVID1210825558
 70
     0
  0
APPID
  5
522
330
9
100
AcDbSymbolTableRecord
100
AcDbRegAppTableRecord
  2
GEVID1210825559
 70
     0
  0
APPID
  5
523
330
9
100
AcDbSymbolTableRecord
100
AcDbRegAppTableRecord
  2
GEVID1210825560
 70
     0
  0
APPID
  5
524
330
9
100
AcDbSymbolTableRecord
100
AcDbRegAppTableRecord
  2
GEVID1210825561
 70
     0
  0
APPID
  5
525
330
9
100
AcDbSymbolTableRecord
100
AcDbRegAppTableRecord
  2
GEVID1210825562
 70
     0
  0
APPID
  5
526
330
9
100
AcDbSymbolTableRecord
100
AcDbRegAppTableRecord
  2
GEVID1210825563
 70
     0
  0
APPID
  5
527
330
9
100
AcDbSymbolTableRecord
100
AcDbRegAppTableRecord
  2
GEVID1210825564
 70
     0
  0
APPID
  5
528
330
9
100
AcDbSymbolTableRecord
100
AcDbRegAppTableRecord
  2
GEVID1210825565
 70
     0
  0
APPID
  5
529
330
9
100
AcDbSymbolTableRecord
100
AcDbRegAppTableRecord
  2
GEVID1210825566
 70
     0
  0
APPID
  5
52A
330
9
100
AcDbSymbolTableRecord
100
AcDbRegAppTableRecord
  2
GEVID1210825567
 70
     0
  0
APPID
  5
52B
330
9
100
AcDbSymbolTableRecord
100
AcDbRegAppTableRecord
  2
GENIUS_GENOBJ-N-ZOO_13
 70
     0
  0
APPID
  5
52C
330
9
100
AcDbSymbolTableRecord
100
AcDbRegAppTableRecord
  2
GENIUS_GENZOO_17
 70
     0
  0
APPID
  5
52D
330
9
100
AcDbSymbolTableRecord
100
AcDbRegAppTableRecord
  2
ACADANNOTATIVEDECOMPOSITION
 70
     0
  0
APPID
  5
52E
330
9
100
AcDbSymbolTableRecord
100
AcDbRegAppTableRecord
  2
GENIUS_GENOBJ-N-HTC_13
 70
     0
  0
APPID
  5
52F
330
9
100
AcDbSymbolTableRecord
100
AcDbRegAppTableRecord
  2
GENIUS_GENHATCH_13
 70
     0
  0
APPID
  5
530
330
9
100
AcDbSymbolTableRecord
100
AcDbRegAppTableRecord
  2
GEVID1210896020
 70
     0
  0
APPID
  5
531
330
9
100
AcDbSymbolTableRecord
100
AcDbRegAppTableRecord
  2
GEVID1210896021
 70
     0
  0
APPID
  5
532
330
9
100
AcDbSymbolTableRecord
100
AcDbRegAppTableRecord
  2
GEVID1209083540
 70
     0
  0
APPID
  5
533
330
9
100
AcDbSymbolTableRecord
100
AcDbRegAppTableRecord
  2
GEVMK
 70
     0
  0
APPID
  5
534
330
9
100
AcDbSymbolTableRecord
100
AcDbRegAppTableRecord
  2
GEVID1209083542
 70
     0
  0
APPID
  5
535
330
9
100
AcDbSymbolTableRecord
100
AcDbRegAppTableRecord
  2
GEVID1209083543
 70
     0
  0
APPID
  5
536
330
9
100
AcDbSymbolTableRecord
100
AcDbRegAppTableRecord
  2
GEVID1209083544
 70
     0
  0
APPID
  5
537
330
9
100
AcDbSymbolTableRecord
100
AcDbRegAppTableRecord
  2
GEVID1209083545
 70
     0
  0
APPID
  5
538
330
9
100
AcDbSymbolTableRecord
100
AcDbRegAppTableRecord
  2
GEVID1209083546
 70
     0
  0
APPID
  5
539
330
9
100
AcDbSymbolTableRecord
100
AcDbRegAppTableRecord
  2
GEVID1209083547
 70
     0
  0
APPID
  5
53A
330
9
100
AcDbSymbolTableRecord
100
AcDbRegAppTableRecord
  2
GEVID1209083548
 70
     0
  0
APPID
  5
53B
330
9
100
AcDbSymbolTableRecord
100
AcDbRegAppTableRecord
  2
GEVID1209083549
 70
     0
  0
APPID
  5
53C
330
9
100
AcDbSymbolTableRecord
100
AcDbRegAppTableRecord
  2
GEVID1209083550
 70
     0
  0
APPID
  5
53D
330
9
100
AcDbSymbolTableRecord
100
AcDbRegAppTableRecord
  2
GEVID1209083551
 70
     0
  0
APPID
  5
53E
330
9
100
AcDbSymbolTableRecord
100
AcDbRegAppTableRecord
  2
GEVID1209083552
 70
     0
  0
APPID
  5
53F
330
9
100
AcDbSymbolTableRecord
100
AcDbRegAppTableRecord
  2
GEVID1209083553
 70
     0
  0
APPID
  5
540
330
9
100
AcDbSymbolTableRecord
100
AcDbRegAppTableRecord
  2
GEVID1210896022
 70
     0
  0
APPID
  5
541
330
9
100
AcDbSymbolTableRecord
100
AcDbRegAppTableRecord
  2
GEVID1211508364
 70
     0
  0
APPID
  5
542
330
9
100
AcDbSymbolTableRecord
100
AcDbRegAppTableRecord
  2
GEVID1211414908
 70
     0
  0
APPID
  5
543
330
9
100
AcDbSymbolTableRecord
100
AcDbRegAppTableRecord
  2
GEVID1211414909
 70
     0
  0
APPID
  5
544
330
9
100
AcDbSymbolTableRecord
100
AcDbRegAppTableRecord
  2
GEVID1211508359
 70
     0
  0
APPID
  5
545
330
9
100
AcDbSymbolTableRecord
100
AcDbRegAppTableRecord
  2
GEVID1211508360
 70
     0
  0
APPID
  5
546
330
9
100
AcDbSymbolTableRecord
100
AcDbRegAppTableRecord
  2
GEVID1211508361
 70
     0
  0
APPID
  5
547
330
9
100
AcDbSymbolTableRecord
100
AcDbRegAppTableRecord
  2
GEVID1211508362
 70
     0
  0
APPID
  5
548
330
9
100
AcDbSymbolTableRecord
100
AcDbRegAppTableRecord
  2
GEVID1211508363
 70
     0
  0
APPID
  5
549
330
9
100
AcDbSymbolTableRecord
100
AcDbRegAppTableRecord
  2
GEVID1211878469
 70
     0
  0
APPID
  5
54A
330
9
100
AcDbSymbolTableRecord
100
AcDbRegAppTableRecord
  2
GEVID1212642819
 70
     0
  0
APPID
  5
54B
330
9
100
AcDbSymbolTableRecord
100
AcDbRegAppTableRecord
  2
GEVID1212642820
 70
     0
  0
APPID
  5
54C
330
9
100
AcDbSymbolTableRecord
100
AcDbRegAppTableRecord
  2
GEVID1212642821
 70
     0
  0
APPID
  5
54D
330
9
100
AcDbSymbolTableRecord
100
AcDbRegAppTableRecord
  2
GEVID1212642822
 70
     0
  0
APPID
  5
54E
330
9
100
AcDbSymbolTableRecord
100
AcDbRegAppTableRecord
  2
GEVID1212642823
 70
     0
  0
APPID
  5
54F
330
9
100
AcDbSymbolTableRecord
100
AcDbRegAppTableRecord
  2
GEVID1212642825
 70
     0
  0
APPID
  5
550
330
9
100
AcDbSymbolTableRecord
100
AcDbRegAppTableRecord
  2
GEVID1212642826
 70
     0
  0
APPID
  5
551
330
9
100
AcDbSymbolTableRecord
100
AcDbRegAppTableRecord
  2
GEVID1212642827
 70
     0
  0
APPID
  5
552
330
9
100
AcDbSymbolTableRecord
100
AcDbRegAppTableRecord
  2
GEVID1212642828
 70
     0
  0
APPID
  5
553
330
9
100
AcDbSymbolTableRecord
100
AcDbRegAppTableRecord
  2
GEVID1212642831
 70
     0
  0
APPID
  5
554
330
9
100
AcDbSymbolTableRecord
100
AcDbRegAppTableRecord
  2
GEVID1212642834
 70
     0
  0
APPID
  5
555
330
9
100
AcDbSymbolTableRecord
100
AcDbRegAppTableRecord
  2
GEVID1212642835
 70
     0
  0
APPID
  5
556
330
9
100
AcDbSymbolTableRecord
100
AcDbRegAppTableRecord
  2
GEVID1212642836
 70
     0
  0
APPID
  5
557
330
9
100
AcDbSymbolTableRecord
100
AcDbRegAppTableRecord
  2
GEVID1212642837
 70
     0
  0
APPID
  5
558
330
9
100
AcDbSymbolTableRecord
100
AcDbRegAppTableRecord
  2
GEVID1212642839
 70
     0
  0
APPID
  5
559
330
9
100
AcDbSymbolTableRecord
100
AcDbRegAppTableRecord
  2
GEVID1212642840
 70
     0
  0
APPID
  5
55A
330
9
100
AcDbSymbolTableRecord
100
AcDbRegAppTableRecord
  2
GEVID1212642841
 70
     0
  0
APPID
  5
55B
330
9
100
AcDbSymbolTableRecord
100
AcDbRegAppTableRecord
  2
GEVID1212655312
 70
     0
  0
APPID
  5
55C
330
9
100
AcDbSymbolTableRecord
100
AcDbRegAppTableRecord
  2
GEVID1212655313
 70
     0
  0
APPID
  5
55D
330
9
100
AcDbSymbolTableRecord
100
AcDbRegAppTableRecord
  2
GEVID1212656533
 70
     0
  0
APPID
  5
55E
330
9
100
AcDbSymbolTableRecord
100
AcDbRegAppTableRecord
  2
GEVID1212656534
 70
     0
  0
APPID
  5
55F
330
9
100
AcDbSymbolTableRecord
100
AcDbRegAppTableRecord
  2
GEVID1212656535
 70
     0
  0
APPID
  5
560
330
9
100
AcDbSymbolTableRecord
100
AcDbRegAppTableRecord
  2
GEVID1212656536
 70
     0
  0
APPID
  5
561
330
9
100
AcDbSymbolTableRecord
100
AcDbRegAppTableRecord
  2
GEVID1212656538
 70
     0
  0
APPID
  5
562
330
9
100
AcDbSymbolTableRecord
100
AcDbRegAppTableRecord
  2
GEVID1212656541
 70
     0
  0
APPID
  5
563
330
9
100
AcDbSymbolTableRecord
100
AcDbRegAppTableRecord
  2
GEVID1212656543
 70
     0
  0
APPID
  5
564
330
9
100
AcDbSymbolTableRecord
100
AcDbRegAppTableRecord
  2
GENIUS_GENOBJ-F-PFASSM_13
 70
     0
  0
APPID
  5
565
330
9
100
AcDbSymbolTableRecord
100
AcDbRegAppTableRecord
  2
GEVID1212656544
 70
     0
  0
APPID
  5
566
330
9
100
AcDbSymbolTableRecord
100
AcDbRegAppTableRecord
  2
GEVID1212656545
 70
     0
  0
APPID
  5
567
330
9
100
AcDbSymbolTableRecord
100
AcDbRegAppTableRecord
  2
GEVID1212656546
 70
     0
  0
APPID
  5
568
330
9
100
AcDbSymbolTableRecord
100
AcDbRegAppTableRecord
  2
GEVID1212656547
 70
     0
  0
APPID
  5
569
330
9
100
AcDbSymbolTableRecord
100
AcDbRegAppTableRecord
  2
GEVID1212656548
 70
     0
  0
APPID
  5
56A
330
9
100
AcDbSymbolTableRecord
100
AcDbRegAppTableRecord
  2
GEVID1212656549
 70
     0
  0
APPID
  5
56B
330
9
100
AcDbSymbolTableRecord
100
AcDbRegAppTableRecord
  2
GEVID1212656550
 70
     0
  0
APPID
  5
56C
330
9
100
AcDbSymbolTableRecord
100
AcDbRegAppTableRecord
  2
GEVID1212656552
 70
     0
  0
APPID
  5
56D
330
9
100
AcDbSymbolTableRecord
100
AcDbRegAppTableRecord
  2
GEVID1212656553
 70
     0
  0
APPID
  5
56E
330
9
100
AcDbSymbolTableRecord
100
AcDbRegAppTableRecord
  2
GEVID1212656554
 70
     0
  0
APPID
  5
56F
330
9
100
AcDbSymbolTableRecord
100
AcDbRegAppTableRecord
  2
GEVID1212656555
 70
     0
  0
APPID
  5
570
330
9
100
AcDbSymbolTableRecord
100
AcDbRegAppTableRecord
  2
GEVID1212656556
 70
     0
  0
APPID
  5
571
330
9
100
AcDbSymbolTableRecord
100
AcDbRegAppTableRecord
  2
GEVID1212656557
 70
     0
  0
APPID
  5
572
330
9
100
AcDbSymbolTableRecord
100
AcDbRegAppTableRecord
  2
GEVID1212656559
 70
     0
  0
APPID
  5
573
330
9
100
AcDbSymbolTableRecord
100
AcDbRegAppTableRecord
  2
GEVID1212656560
 70
     0
  0
APPID
  5
574
330
9
100
AcDbSymbolTableRecord
100
AcDbRegAppTableRecord
  2
GEVID1212656561
 70
     0
  0
APPID
  5
575
330
9
100
AcDbSymbolTableRecord
100
AcDbRegAppTableRecord
  2
GEVID1212656562
 70
     0
  0
APPID
  5
576
330
9
100
AcDbSymbolTableRecord
100
AcDbRegAppTableRecord
  2
GEVID1212656563
 70
     0
  0
APPID
  5
577
330
9
100
AcDbSymbolTableRecord
100
AcDbRegAppTableRecord
  2
GEVID1212711781
 70
     0
  0
APPID
  5
578
330
9
100
AcDbSymbolTableRecord
100
AcDbRegAppTableRecord
  2
GEVID1212711782
 70
     0
  0
APPID
  5
579
330
9
100
AcDbSymbolTableRecord
100
AcDbRegAppTableRecord
  2
GEVID1212711783
 70
     0
  0
APPID
  5
57A
330
9
100
AcDbSymbolTableRecord
100
AcDbRegAppTableRecord
  2
GEVID1212711784
 70
     0
  0
APPID
  5
57B
330
9
100
AcDbSymbolTableRecord
100
AcDbRegAppTableRecord
  2
GEVID1212711788
 70
     0
  0
APPID
  5
57C
330
9
100
AcDbSymbolTableRecord
100
AcDbRegAppTableRecord
  2
GEVID1212711789
 70
     0
  0
APPID
  5
57D
330
9
100
AcDbSymbolTableRecord
100
AcDbRegAppTableRecord
  2
GEVID1212711790
 70
     0
  0
APPID
  5
57E
330
9
100
AcDbSymbolTableRecord
100
AcDbRegAppTableRecord
  2
GEVID1212711791
 70
     0
  0
APPID
  5
57F
330
9
100
AcDbSymbolTableRecord
100
AcDbRegAppTableRecord
  2
GEVID1212711792
 70
     0
  0
APPID
  5
580
330
9
100
AcDbSymbolTableRecord
100
AcDbRegAppTableRecord
  2
GEVID1212711793
 70
     0
  0
APPID
  5
581
330
9
100
AcDbSymbolTableRecord
100
AcDbRegAppTableRecord
  2
GEVID1212711794
 70
     0
  0
APPID
  5
582
330
9
100
AcDbSymbolTableRecord
100
AcDbRegAppTableRecord
  2
GEVID1212711795
 70
     0
  0
APPID
  5
583
330
9
100
AcDbSymbolTableRecord
100
AcDbRegAppTableRecord
  2
GEVID1212711797
 70
     0
  0
APPID
  5
584
330
9
100
AcDbSymbolTableRecord
100
AcDbRegAppTableRecord
  2
GEVID1212711798
 70
     0
  0
APPID
  5
585
330
9
100
AcDbSymbolTableRecord
100
AcDbRegAppTableRecord
  2
GEVID1212711799
 70
     0
  0
APPID
  5
586
330
9
100
AcDbSymbolTableRecord
100
AcDbRegAppTableRecord
  2
GEVID1212711800
 70
     0
  0
APPID
  5
587
330
9
100
AcDbSymbolTableRecord
100
AcDbRegAppTableRecord
  2
GEVID1212711801
 70
     0
  0
APPID
  5
588
330
9
100
AcDbSymbolTableRecord
100
AcDbRegAppTableRecord
  2
GEVID1212711802
 70
     0
  0
APPID
  5
589
330
9
100
AcDbSymbolTableRecord
100
AcDbRegAppTableRecord
  2
GEVID1212711803
 70
     0
  0
APPID
  5
58A
330
9
100
AcDbSymbolTableRecord
100
AcDbRegAppTableRecord
  2
GEVID1212711804
 70
     0
  0
APPID
  5
58B
330
9
100
AcDbSymbolTableRecord
100
AcDbRegAppTableRecord
  2
GEVID1212711805
 70
     0
  0
APPID
  5
58C
330
9
100
AcDbSymbolTableRecord
100
AcDbRegAppTableRecord
  2
GEVID1212711806
 70
     0
  0
APPID
  5
58D
330
9
100
AcDbSymbolTableRecord
100
AcDbRegAppTableRecord
  2
GEVID1212711807
 70
     0
  0
APPID
  5
58E
330
9
100
AcDbSymbolTableRecord
100
AcDbRegAppTableRecord
  2
GEVID1212711808
 70
     0
  0
APPID
  5
58F
330
9
100
AcDbSymbolTableRecord
100
AcDbRegAppTableRecord
  2
GEVID1212711809
 70
     0
  0
APPID
  5
590
330
9
100
AcDbSymbolTableRecord
100
AcDbRegAppTableRecord
  2
GEVID1212711810
 70
     0
  0
APPID
  5
591
330
9
100
AcDbSymbolTableRecord
100
AcDbRegAppTableRecord
  2
GEVID1212711811
 70
     0
  0
APPID
  5
90A
330
9
100
AcDbSymbolTableRecord
100
AcDbRegAppTableRecord
  2
GENIUS_GENTRA_14
 70
     0
  0
APPID
  5
919
330
9
100
AcDbSymbolTableRecord
100
AcDbRegAppTableRecord
  2
GENIUS_GENOBJ-N-TIT_13
 70
     0
  0
APPID
  5
91A
330
9
100
AcDbSymbolTableRecord
100
AcDbRegAppTableRecord
  2
GENIUS_GENTITLE_13
 70
     0
  0
APPID
  5
949
330
9
100
AcDbSymbolTableRecord
100
AcDbRegAppTableRecord
  2
GENIUS_GENBLLY_14
 70
     0
  0
APPID
  5
DDD
330
9
100
AcDbSymbolTableRecord
100
AcDbRegAppTableRecord
  2
GEVID1213165152
 70
     0
  0
APPID
  5
12F9
330
9
100
AcDbSymbolTableRecord
100
AcDbRegAppTableRecord
  2
AcDbDynamicBlockTrueName
 70
     0
  0
APPID
  5
12FA
330
9
100
AcDbSymbolTableRecord
100
AcDbRegAppTableRecord
  2
ACDBBLOCKREPETAG
 70
     0
  0
APPID
  5
1C15
330
9
100
AcDbSymbolTableRecord
100
AcDbRegAppTableRecord
  2
GEVID1214872427
 70
     0
  0
APPID
  5
1C2A
330
9
100
AcDbSymbolTableRecord
100
AcDbRegAppTableRecord
  2
GEVID1214872428
 70
     0
  0
APPID
  5
1C2F
330
9
100
AcDbSymbolTableRecord
100
AcDbRegAppTableRecord
  2
GEVID1214872429
 70
     0
  0
APPID
  5
1C33
330
9
100
AcDbSymbolTableRecord
100
AcDbRegAppTableRecord
  2
GEVID1214872430
 70
     0
  0
APPID
  5
1C3F
330
9
100
AcDbSymbolTableRecord
100
AcDbRegAppTableRecord
  2
GEVID1214872432
 70
     0
  0
APPID
  5
1C4E
330
9
100
AcDbSymbolTableRecord
100
AcDbRegAppTableRecord
  2
GEVID1214872433
 70
     0
  0
APPID
  5
20DC
330
9
100
AcDbSymbolTableRecord
100
AcDbRegAppTableRecord
  2
AcDbDynamicBlockGUID
 70
     0
  0
APPID
  5
20FD
330
9
100
AcDbSymbolTableRecord
100
AcDbRegAppTableRecord
  2
GENIUS_GENOBJ-N-REV_13
 70
     0
  0
APPID
  5
20FE
330
9
100
AcDbSymbolTableRecord
100
AcDbRegAppTableRecord
  2
GENIUS_GENOBJ-N-RSSYM_13
 70
     0
  0
APPID
  5
20FF
330
9
100
AcDbSymbolTableRecord
100
AcDbRegAppTableRecord
  2
GENIUS_GENSYMENT_13
 70
     0
  0
APPID
  5
2100
330
9
100
AcDbSymbolTableRecord
100
AcDbRegAppTableRecord
  2
GENIUS_GENSCSYM_13
 70
     0
  0
APPID
  5
4CFC
330
9
100
AcDbSymbolTableRecord
100
AcDbRegAppTableRecord
  2
GEVID1242178450
 70
     0
  0
APPID
  5
4D01
330
9
100
AcDbSymbolTableRecord
100
AcDbRegAppTableRecord
  2
GEVID1242178451
 70
     0
  0
APPID
  5
4D3C
330
9
100
AcDbSymbolTableRecord
100
AcDbRegAppTableRecord
  2
GEVID1242178452
 70
     0
  0
ENDTAB
  0
TABLE
  2
DIMSTYLE
  5
A
330
0
100
AcDbSymbolTable
 70
    29
100
AcDbDimStyleTable
 71
     1
340
5AB
  0
DIMSTYLE
105
5AB
330
A
100
AcDbSymbolTableRecord
100
AcDbDimStyleTableRecord
  2
SEISA
 70
     0
  4
"
 40
2.5
 41
2.5
 42
0.625
 43
10.0
 44
0.625
 47
0.1
 48
0.1
 73
     0
 74
     0
 77
     3
 78
     8
 79
     2
 90
     1
140
3.5
141
0.0
143
0.0393701
146
0.71
147
1.5
172
     1
176
     3
177
     3
178
     3
271
     2
272
     2
283
     0
286
     8
340
5D5
341
69
342
69
371
    -1
372
    -1
1001
ACAD_DSTYLE_DIMJAG
1070
   388
1040
1.5
1001
ACAD_DSTYLE_DIMTALN
1070
   392
1070
     1
  0
DIMSTYLE
105
5E9
102
{ACAD_REACTORS
330
4900
330
491D
330
4939
330
4983
330
49FF
330
4AEC
330
4B04
330
4B1C
330
4B58
330
4B70
330
4BA5
330
4BBD
330
592E
330
5A4B
330
5A75
102
}
330
A
100
AcDbSymbolTableRecord
100
AcDbDimStyleTableRecord
  2
SEISA$0
 70
     0
  4
"
 40
2.5
 41
2.5
 42
0.625
 43
10.0
 44
0.625
 47
0.1
 48
0.1
 73
     0
 74
     0
 77
     3
 78
     8
 79
     2
 90
     1
140
3.5
141
0.0
143
0.0393701
146
0.71
147
1.5
172
     1
176
     3
177
     3
178
     3
271
     2
272
     2
283
     0
286
     8
340
5D5
341
69
342
69
371
    -1
372
    -1
  0
DIMSTYLE
105
5C43
330
A
100
AcDbSymbolTableRecord
100
AcDbDimStyleTableRecord
  2
AM_ISO
 70
     0
  4
"
 41
2.5
 42
1.0
 43
10.0
 44
1.0
 47
0.1
 48
0.1
 73
     0
 74
     0
 77
     1
 78
     8
 79
     2
 90
     1
140
3.5
141
0.0
143
0.0393701
146
0.71
147
1.5
172
     1
176
   256
177
   256
178
     2
271
     2
272
     3
274
     4
283
     0
284
     8
340
11
371
    -1
372
    -1
  0
DIMSTYLE
105
5C44
330
A
100
AcDbSymbolTableRecord
100
AcDbDimStyleTableRecord
  2
AM_ISO$3
 70
     0
  4
"
 41
2.5
 42
1.0
 43
10.0
 44
1.0
 47
0.1
 48
0.1
 73
     0
 77
     1
 78
     8
 79
     2
 90
     1
140
3.5
141
0.0
143
0.0393701
146
0.71
147
1.5
176
   256
177
   256
178
     2
271
     2
272
     3
274
     4
283
     0
284
     8
288
     1
289
     0
340
11
371
    -1
372
    -1
  0
DIMSTYLE
105
5C45
330
A
100
AcDbSymbolTableRecord
100
AcDbDimStyleTableRecord
  2
AM_ISO$4
 70
     0
  4
"
 41
2.5
 42
1.0
 43
10.0
 44
1.0
 47
0.1
 48
0.1
 73
     0
 77
     1
 78
     8
 79
     2
 90
     1
140
3.5
141
0.0
143
0.0393701
146
0.71
147
1.5
176
   256
177
   256
178
     2
271
     2
272
     3
274
     4
283
     0
284
     8
288
     1
289
     0
340
11
371
    -1
372
    -1
  0
DIMSTYLE
105
5C46
330
A
100
AcDbSymbolTableRecord
100
AcDbDimStyleTableRecord
  2
AM_ISO$6
 70
     0
  4
"
 41
2.5
 42
1.0
 43
10.0
 44
1.0
 47
0.1
 48
0.1
 73
     0
 74
     0
 78
     8
 79
     2
 90
     1
140
3.5
141
0.0
143
0.0393701
146
0.71
147
1.5
172
     1
176
   256
177
   256
178
     2
271
     2
272
     3
274
     4
283
     0
284
     8
340
11
371
    -1
372
    -1
  0
DIMSTYLE
105
5C47
330
A
100
AcDbSymbolTableRecord
100
AcDbDimStyleTableRecord
  2
AM_ISO$7
 70
     0
  4
"
 41
2.5
 42
1.0
 43
10.0
 44
1.0
 47
0.1
 48
0.1
 73
     0
 74
     0
 77
     1
 78
     8
 79
     2
 90
     1
140
5.0
141
0.0
143
0.0393701
146
0.71
147
1.5
172
     1
176
   256
177
   256
178
     2
271
     2
272
     3
274
     4
283
     0
284
     8
340
11
371
    -1
372
    -1
  0
DIMSTYLE
105
5C48
330
A
100
AcDbSymbolTableRecord
100
AcDbDimStyleTableRecord
  2
AM_ISO$SF
 70
     0
  4
"
 41
2.5
 42
1.0
 43
10.0
 44
1.0
 47
0.1
 48
0.1
 73
     0
 74
     0
 75
     1
 76
     1
 77
     1
 78
     8
 79
     2
 90
     1
140
3.5
141
0.0
143
0.0393701
146
0.71
147
1.5
172
     1
176
   256
177
   256
178
     2
271
     2
272
     3
274
     4
283
     0
284
     8
340
11
371
    -1
372
    -1
  0
DIMSTYLE
105
5C49
330
A
100
AcDbSymbolTableRecord
100
AcDbDimStyleTableRecord
  2
AM_ISO$SH
 70
     0
  4
"
 41
2.5
 42
1.0
 43
10.0
 44
1.0
 47
0.1
 48
0.1
 73
     0
 74
     0
 75
     1
 76
     1
 77
     1
 78
     8
 79
     2
 90
     1
140
3.5
141
0.0
143
0.0393701
144
2.0
146
0.71
147
1.5
172
     1
173
     1
176
   256
177
   256
178
     2
271
     2
272
     3
274
     4
283
     0
284
     8
340
11
343
74
371
    -1
372
    -1
  0
ENDTAB
  0
TABLE
  2
BLOCK_RECORD
  5
1
330
0
100
AcDbSymbolTable
 70
    31
  0
BLOCK_RECORD
  5
1F
102
{ACAD_XDICTIONARY
360
82
102
}
330
1
100
AcDbSymbolTableRecord
100
AcDbBlockTableRecord
  2
*Model_Space
340
22
 70
     0
280
     1
281
     0
  0
BLOCK_RECORD
  5
1B
330
1
100
AcDbSymbolTableRecord
100
AcDbBlockTableRecord
  2
*Paper_Space
340
1E
 70
     0
280
     1
281
     0
  0
BLOCK_RECORD
  5
23
330
1
100
AcDbSymbolTableRecord
100
AcDbBlockTableRecord
  2
*Paper_Space0
340
26
 70
     0
280
     1
281
     0
  0
BLOCK_RECORD
  5
69
330
1
100
AcDbSymbolTableRecord
100
AcDbBlockTableRecord
  2
_Open30
340
0
102
{BLKREFS
331
503F
331
5040
331
5096
331
5097
331
50B3
331
50B4
331
50BC
331
50BD
331
50C5
331
50C6
331
50E5
331
50E6
331
50F0
331
50F1
331
53EE
331
5404
331
58E9
331
58EA
331
595A
331
595B
331
5A6F
331
5A70
331
5AB8
331
5AB9
331
5BAD
331
5BAE
331
5C52
331
5C53
102
}
 70
     0
280
     1
281
     0
  0
BLOCK_RECORD
  5
74
330
1
100
AcDbSymbolTableRecord
100
AcDbBlockTableRecord
  2
GENAXEH
340
0
 70
     0
280
     1
281
     0
  0
BLOCK_RECORD
  5
3410
102
{ACAD_XDICTIONARY
360
3411
102
}
330
1
100
AcDbSymbolTableRecord
100
AcDbBlockTableRecord
  2
ジュウジマルコネジ
340
0
310
2800000020000000200000000100080000000000000400000000000000000000000000000000000000000000000080000080000000808000800000008000800080800000C0C0C000C0DCC000F0CAA6000020400000206000002080000020A0000020C0000020E00000400000004020000040400000406000004080000040A0
310
000040C0000040E00000600000006020000060400000606000006080000060A0000060C0000060E00000800000008020000080400000806000008080000080A0000080C0000080E00000A0000000A0200000A0400000A0600000A0800000A0A00000A0C00000A0E00000C0000000C0200000C0400000C0600000C0800000C0
310
A00000C0C00000C0E00000E0000000E0200000E0400000E0600000E0800000E0A00000E0C00000E0E00040000000400020004000400040006000400080004000A0004000C0004000E00040200000402020004020400040206000402080004020A0004020C0004020E000404000004040200040404000404060004040800040
310
40A0004040C0004040E00040600000406020004060400040606000406080004060A0004060C0004060E00040800000408020004080400040806000408080004080A0004080C0004080E00040A0000040A0200040A0400040A0600040A0800040A0A00040A0C00040A0E00040C0000040C0200040C0400040C0600040C08000
310
40C0A00040C0C00040C0E00040E0000040E0200040E0400040E0600040E0800040E0A00040E0C00040E0E00080000000800020008000400080006000800080008000A0008000C0008000E00080200000802020008020400080206000802080008020A0008020C0008020E00080400000804020008040400080406000804080
310
008040A0008040C0008040E00080600000806020008060400080606000806080008060A0008060C0008060E00080800000808020008080400080806000808080008080A0008080C0008080E00080A0000080A0200080A0400080A0600080A0800080A0A00080A0C00080A0E00080C0000080C0200080C0400080C0600080C0
310
800080C0A00080C0C00080C0E00080E0000080E0200080E0400080E0600080E0800080E0A00080E0C00080E0E000C0000000C0002000C0004000C0006000C0008000C000A000C000C000C000E000C0200000C0202000C0204000C0206000C0208000C020A000C020C000C020E000C0400000C0402000C0404000C0406000C0
310
408000C040A000C040C000C040E000C0600000C0602000C0604000C0606000C0608000C060A000C060C000C060E000C0800000C0802000C0804000C0806000C0808000C080A000C080C000C080E000C0A00000C0A02000C0A04000C0A06000C0A08000C0A0A000C0A0C000C0A0E000C0C00000C0C02000C0C04000C0C06000
310
C0C08000C0C0A000F0FBFF00A4A0A000808080000000FF0000FF000000FFFF00FF000000FF00FF00FFFF0000FFFFFF000000000000000000000000000000000000000000000000000000000000000000000000000000000000000000FFFFFF0000000000000000000000000000000000000000000000000000000000FF0000
310
0000000000000000000000000000000000000000000000000000000000FF00000000000000000000000000000000000000000000000000000000000000FF00000000000000000000000000000000000000000000000000000000000000FF0000000000000000000000000000000000000000000000000000000000FFFFFF00
310
0000000000000000000000000000000000000000000000000000FFFF0000FF0000000000000000000000000000000000000000000000000000FFFF000000FF00000000000000000000000000000000000000000000000000FFFF00000000FFFFFF0000000000000000000000000000000000000000000000FF0000000000FF
310
FFFFFFFFFFFFFFFFFFFFFFFFFF000000000000000000000000FF0000000000FEFEFEFEFEFEFEFEFEFEFEFEFEFEFE00000000000000000000FF000000000000FF000000000000000000000000FFFF00000000000000000000FF000000000000FF000000000000000000000000FFFF00000000000000000000FF000000000000
310
FF000000000000000000000000FFFF00000000000000000000FF000000000000FF000000000000000000000000FFFF00000000000000000000FF000000000000FF000000000000000000000000FFFF00000000000000000000FF000000000000FF000000000000000000000000FFFF00000000000000000000FF0000000000
310
00FF000000000000000000000000FFFF00000000000000000000FF000000000000FF000000000000000000000000FFFF0000000000000000000000FF0000000000FEFEFEFEFEFEFEFEFEFEFEFEFEFFFF0000000000000000000000FF0000000000FFFFFFFFFFFFFFFFFFFFFFFFFFFF000000000000000000000000FFFF0000
310
0000FFFFFF000000000000000000000000000000000000000000000000FFFF000000FF000000000000000000000000000000000000000000000000000000FFFF0000FF0000000000000000000000000000000000000000000000000000000000FFFFFF00000000000000000000000000000000000000000000000000000000
310
000000FF00000000000000000000000000000000000000000000000000000000000000FF00000000000000000000000000000000000000000000000000000000000000FF00000000000000000000000000000000000000000000000000000000000000FF000000000000000000000000000000000000000000000000000000
310
00000000FFFFFF00000000000000000000000000000000000000000000000000000000000000000000000000000000000000000000000000
102
{BLKREFS
331
45FE
102
}
 70
     4
280
     1
281
     1
  0
BLOCK_RECORD
  5
353B
330
1
100
AcDbSymbolTableRecord
100
AcDbBlockTableRecord
  2
GENDOT
340
0
102
{BLKREFS
331
53ED
331
5403
102
}
 70
     0
280
     1
281
     0
  0
BLOCK_RECORD
  5
42B8
102
{ACAD_XDICTIONARY
360
5584
102
}
330
1
100
AcDbSymbolTableRecord
100
AcDbBlockTableRecord
  2
センタＡ SMVH224
340
0
310
2800000020000000200000000100080000000000000400000000000000000000000000000000000000000000000080000080000000808000800000008000800080800000C0C0C000C0DCC000F0CAA6000020400000206000002080000020A0000020C0000020E00000400000004020000040400000406000004080000040A0
310
000040C0000040E00000600000006020000060400000606000006080000060A0000060C0000060E00000800000008020000080400000806000008080000080A0000080C0000080E00000A0000000A0200000A0400000A0600000A0800000A0A00000A0C00000A0E00000C0000000C0200000C0400000C0600000C0800000C0
310
A00000C0C00000C0E00000E0000000E0200000E0400000E0600000E0800000E0A00000E0C00000E0E00040000000400020004000400040006000400080004000A0004000C0004000E00040200000402020004020400040206000402080004020A0004020C0004020E000404000004040200040404000404060004040800040
310
40A0004040C0004040E00040600000406020004060400040606000406080004060A0004060C0004060E00040800000408020004080400040806000408080004080A0004080C0004080E00040A0000040A0200040A0400040A0600040A0800040A0A00040A0C00040A0E00040C0000040C0200040C0400040C0600040C08000
310
40C0A00040C0C00040C0E00040E0000040E0200040E0400040E0600040E0800040E0A00040E0C00040E0E00080000000800020008000400080006000800080008000A0008000C0008000E00080200000802020008020400080206000802080008020A0008020C0008020E00080400000804020008040400080406000804080
310
008040A0008040C0008040E00080600000806020008060400080606000806080008060A0008060C0008060E00080800000808020008080400080806000808080008080A0008080C0008080E00080A0000080A0200080A0400080A0600080A0800080A0A00080A0C00080A0E00080C0000080C0200080C0400080C0600080C0
310
800080C0A00080C0C00080C0E00080E0000080E0200080E0400080E0600080E0800080E0A00080E0C00080E0E000C0000000C0002000C0004000C0006000C0008000C000A000C000C000C000E000C0200000C0202000C0204000C0206000C0208000C020A000C020C000C020E000C0400000C0402000C0404000C0406000C0
310
408000C040A000C040C000C040E000C0600000C0602000C0604000C0606000C0608000C060A000C060C000C060E000C0800000C0802000C0804000C0806000C0808000C080A000C080C000C080E000C0A00000C0A02000C0A04000C0A06000C0A08000C0A0A000C0A0C000C0A0E000C0C00000C0C02000C0C04000C0C06000
310
C0C08000C0C0A000F0FBFF00A4A0A000808080000000FF0000FF000000FFFF00FF000000FF00FF00FFFF0000FFFFFF0000000000000000000000000000000000000000000000000000000000000000000000000000000000000000000000000000000000000000000000000000000000000000000000000000000000000000
310
00000000000000000000000000000000000000000000000000000000000000000000000000000000000000000000000000000000000000000000000000000000000000000000000000000000000000000000000000FFFFFFFFFFFFFFFFFFFFFFFFFFFFFFFFFFFFFFFFFFFFFFFFFFFF000000000000FF0000000000FFFFFFFF
310
FFFFFFFF0000000000000000000000FF000000000000FF0000000000FFFF0000000000000000000000000000000000FF000000000000FF0000000000FFFF0000000000000000000000000000000000FF000000000000FF0000000000FFFF0000000000000000000000000000000000FF000000000000FF0000000000FFFF00
310
00000000000000000000000000000000FF000000000000FF0000000000FFFF0000000000000000000000000000000000FF000000000000FF0000000000FFFF0000000000FFFFFFFFFFFFFFFFFFFFFFFFFF000000000000FF0000000000FFFF0000000000FFFFFFFFFFFFFFFFFFFFFFFFFFFF0000000000FF0000000000FFFF
310
000000000000000000000000000000000000FF0000000000FF0000000000FFFF000000000000000000000000000000000000FF0000000000FF0000000000FFFF000000000000000000000000000000000000000000000000FF0000000000FFFF00000000000000000000000000000000000000000000FFFFFF0000000000FF
310
FF00000000000000000000000000000000000000000000FFFF000000000000FFFF000000000000000000000000000000000000000000F9F9F9F90000000000FFFF00000000A4A400000000000000000000000000000000FFFF000000000000FFFF00000000A4A400000000000000000000000000000000FFFFFF0000000000
310
FFFF00000000A4000000000000000000000000000000000000F9FF0000000000FFFF00000000A400000000000000000000000000000000000000FF0000000000FFFF00000000A400000000000000000000000000000000000000FF0000000000FFFF00000000A400000000000000000000000000000000000000FFFFFFFFFF
310
FFFFFFFFFFFFFFA4FF00000000000000000000000000000000000000000000000000000000000000000000000000000000000000000000000000000000000000000000000000000000000000000000000000000000000000000000000000000000000000000000000000000000000000000000000000000000000000000000
310
0000000000000000000000000000000000000000000000000000000000000000000000000000000000000000000000000000000000000000
102
{BLKREFS
331
42DE
102
}
 70
     4
280
     1
281
     1
  0
BLOCK_RECORD
  5
4383
102
{ACAD_XDICTIONARY
360
4438
102
}
330
1
100
AcDbSymbolTableRecord
100
AcDbBlockTableRecord
  2
ケースＡ SMVH224
340
0
310
2800000020000000200000000100080000000000000400000000000000000000000000000000000000000000000080000080000000808000800000008000800080800000C0C0C000C0DCC000F0CAA6000020400000206000002080000020A0000020C0000020E00000400000004020000040400000406000004080000040A0
310
000040C0000040E00000600000006020000060400000606000006080000060A0000060C0000060E00000800000008020000080400000806000008080000080A0000080C0000080E00000A0000000A0200000A0400000A0600000A0800000A0A00000A0C00000A0E00000C0000000C0200000C0400000C0600000C0800000C0
310
A00000C0C00000C0E00000E0000000E0200000E0400000E0600000E0800000E0A00000E0C00000E0E00040000000400020004000400040006000400080004000A0004000C0004000E00040200000402020004020400040206000402080004020A0004020C0004020E000404000004040200040404000404060004040800040
310
40A0004040C0004040E00040600000406020004060400040606000406080004060A0004060C0004060E00040800000408020004080400040806000408080004080A0004080C0004080E00040A0000040A0200040A0400040A0600040A0800040A0A00040A0C00040A0E00040C0000040C0200040C0400040C0600040C08000
310
40C0A00040C0C00040C0E00040E0000040E0200040E0400040E0600040E0800040E0A00040E0C00040E0E00080000000800020008000400080006000800080008000A0008000C0008000E00080200000802020008020400080206000802080008020A0008020C0008020E00080400000804020008040400080406000804080
310
008040A0008040C0008040E00080600000806020008060400080606000806080008060A0008060C0008060E00080800000808020008080400080806000808080008080A0008080C0008080E00080A0000080A0200080A0400080A0600080A0800080A0A00080A0C00080A0E00080C0000080C0200080C0400080C0600080C0
310
800080C0A00080C0C00080C0E00080E0000080E0200080E0400080E0600080E0800080E0A00080E0C00080E0E000C0000000C0002000C0004000C0006000C0008000C000A000C000C000C000E000C0200000C0202000C0204000C0206000C0208000C020A000C020C000C020E000C0400000C0402000C0404000C0406000C0
310
408000C040A000C040C000C040E000C0600000C0602000C0604000C0606000C0608000C060A000C060C000C060E000C0800000C0802000C0804000C0806000C0808000C080A000C080C000C080E000C0A00000C0A02000C0A04000C0A06000C0A08000C0A0A000C0A0C000C0A0E000C0C00000C0C02000C0C04000C0C06000
310
C0C08000C0C0A000F0FBFF00A4A0A000808080000000FF0000FF000000FFFF00FF000000FF00FF00FFFF0000FFFFFF0000000000000000000000000000000000000000000000000000000000000000000000000000000000000000000000000000000000000000000000000000000000000000000000000000000000000000
310
00000000000000000000000000000000000000000000000000000000000000000000000000000000000000000000000000000000000000000000000000000000000000000000000000000000000000000000000000000000000000000000000000000000000000000000000000000000000000000000000000000000000000
310
00000000000000000000000000000000000000000000000000000000000000000000000000000000000000000000000000000000000000000000000000000000000000000000000000000000000000000000000000000000000000000000000000000000000000000000000000000000000000000000000000000000000000
310
000000000000000000000000000000000000000000000000FFFFFF0000000000000000FFFFFFFFFFFFFFFFFFFFFF00000000000000000000FFFFFF000000000000000000000000000000000000FF00000000000000000000FFFFFF000000000000000000000000000000000000FF00000000000000000000FFFF0000000000
310
0000000000000000000000000000FF00000000000000000000FFFF00000000000000000000000000000000000000FF00000000000000000000FFFF00000000000000000000000000000000000000FF00000000000000FFFFFFFFFF000000000000000000FFFFFFFFFFFFFFFFFFFFFFFFFFFF000000F9FEFFFFFFFF00000000
310
00000000000000000000000000000000000000FF000000FEFFFFFFFF000000000000000000FFFFFFFFFFFFFFFFFFFFFFFFFFFFFF000000000000FF0000000000000000000000000000000000000000000000000000000000000000000000000000000000000000000000000000000000000000000000000000000000000000
310
00000000000000000000000000000000000000000000000000000000000000000000000000000000000000000000000000000000000000000000000000000000000000000000000000000000000000000000000000000000000000000000000000000000000000000000000000000000000000000000000000000000000000
310
00000000000000000000000000000000000000000000000000000000000000000000000000000000000000000000000000000000000000000000000000000000000000000000000000000000000000000000000000000000000000000000000000000000000000000000000000000000000000000000000000000000000000
310
0000000000000000000000000000000000000000000000000000000000000000000000000000000000000000000000000000000000000000
102
{BLKREFS
331
43BC
102
}
 70
     4
280
     1
281
     1
  0
BLOCK_RECORD
  5
446B
102
{ACAD_XDICTIONARY
360
44DD
102
}
330
1
100
AcDbSymbolTableRecord
100
AcDbBlockTableRecord
  2
センタB SMVH224
340
0
310
2800000020000000200000000100080000000000000400000000000000000000000000000000000000000000000080000080000000808000800000008000800080800000C0C0C000C0DCC000F0CAA6000020400000206000002080000020A0000020C0000020E00000400000004020000040400000406000004080000040A0
310
000040C0000040E00000600000006020000060400000606000006080000060A0000060C0000060E00000800000008020000080400000806000008080000080A0000080C0000080E00000A0000000A0200000A0400000A0600000A0800000A0A00000A0C00000A0E00000C0000000C0200000C0400000C0600000C0800000C0
310
A00000C0C00000C0E00000E0000000E0200000E0400000E0600000E0800000E0A00000E0C00000E0E00040000000400020004000400040006000400080004000A0004000C0004000E00040200000402020004020400040206000402080004020A0004020C0004020E000404000004040200040404000404060004040800040
310
40A0004040C0004040E00040600000406020004060400040606000406080004060A0004060C0004060E00040800000408020004080400040806000408080004080A0004080C0004080E00040A0000040A0200040A0400040A0600040A0800040A0A00040A0C00040A0E00040C0000040C0200040C0400040C0600040C08000
310
40C0A00040C0C00040C0E00040E0000040E0200040E0400040E0600040E0800040E0A00040E0C00040E0E00080000000800020008000400080006000800080008000A0008000C0008000E00080200000802020008020400080206000802080008020A0008020C0008020E00080400000804020008040400080406000804080
310
008040A0008040C0008040E00080600000806020008060400080606000806080008060A0008060C0008060E00080800000808020008080400080806000808080008080A0008080C0008080E00080A0000080A0200080A0400080A0600080A0800080A0A00080A0C00080A0E00080C0000080C0200080C0400080C0600080C0
310
800080C0A00080C0C00080C0E00080E0000080E0200080E0400080E0600080E0800080E0A00080E0C00080E0E000C0000000C0002000C0004000C0006000C0008000C000A000C000C000C000E000C0200000C0202000C0204000C0206000C0208000C020A000C020C000C020E000C0400000C0402000C0404000C0406000C0
310
408000C040A000C040C000C040E000C0600000C0602000C0604000C0606000C0608000C060A000C060C000C060E000C0800000C0802000C0804000C0806000C0808000C080A000C080C000C080E000C0A00000C0A02000C0A04000C0A06000C0A08000C0A0A000C0A0C000C0A0E000C0C00000C0C02000C0C04000C0C06000
310
C0C08000C0C0A000F0FBFF00A4A0A000808080000000FF0000FF000000FFFF00FF000000FF00FF00FFFF0000FFFFFF0000000000000000000000000000000000000000000000000000000000000000000000000000000000000000000000000000000000000000000000000000000000000000000000000000000000000000
310
00000000000000000000000000000000000000000000000000000000000000000000000000000000000000000000000000000000000000000000000000000000000000000000000000000000000000000000000000FFFFFFFFFFFFFFFFFFFFFFFFA4FF000000000000000000000000000000000000FF00000000FFFF000000
310
0000A400000000000000000000000000000000000000FF00000000FFFF0000000000A4000000000000000000000000000000000000F9FF00000000FFFF0000000000A40000000000000000000000000000000000FFFFFF00000000FFFF0000000000A40000000000000000000000000000000000FFFF0000000000FFFF0000
310
000000A4A4000000000000000000000000000000F9F9F9F900000000FFFF0000000000A4A400000000000000000000000000000000FFFF0000000000FFFF0000000000000000000000000000000000000000000000FFFFFF00000000FFFF00000000000000000000000000000000000000000000000000FF00000000FFFF00
310
000000000000000000000000000000000000000000000000FF00000000FFFF00000000000000000000000000000000000000000000000000FF00000000FFFF00000000000000000000000000000000000000FF0000000000FF00000000FFFF00000000000000000000000000000000000000FF0000000000FF00000000FFFF
310
000000000000FFFFFFFFFFFFFFFFFFFFFFFFFFFF0000000000FF00000000FFFF000000000000FFFFFFFFFFFFFFFFFFFFFFFFFF000000000000FF00000000FFFF000000000000000000000000000000000000FF000000000000FF00000000FFFF000000000000000000000000000000000000FF000000000000FF00000000FF
310
FF000000000000000000000000000000000000FF000000000000FF00000000FFFF000000000000000000000000000000000000FF000000000000FF00000000FFFF000000000000000000000000000000000000FF000000000000FF00000000FFFFFFFFFFFFFFFFFF0000000000000000000000FF000000000000FFFFFFFFFF
310
FFFFFFFFFFFFFFFFFFFFFFFFFFFFFFFFFFFFFFFFFF00000000000000000000000000000000000000000000000000000000000000000000000000000000000000000000000000000000000000000000000000000000000000000000000000000000000000000000000000000000000000000000000000000000000000000000
310
0000000000000000000000000000000000000000000000000000000000000000000000000000000000000000000000000000000000000000
102
{BLKREFS
331
4491
102
}
 70
     4
280
     1
281
     1
  0
BLOCK_RECORD
  5
45C2
102
{ACAD_XDICTIONARY
360
467E
102
}
330
1
100
AcDbSymbolTableRecord
100
AcDbBlockTableRecord
  2
ケースＢ SMVH224
340
0
310
2800000020000000200000000100080000000000000400000000000000000000000000000000000000000000000080000080000000808000800000008000800080800000C0C0C000C0DCC000F0CAA6000020400000206000002080000020A0000020C0000020E00000400000004020000040400000406000004080000040A0
310
000040C0000040E00000600000006020000060400000606000006080000060A0000060C0000060E00000800000008020000080400000806000008080000080A0000080C0000080E00000A0000000A0200000A0400000A0600000A0800000A0A00000A0C00000A0E00000C0000000C0200000C0400000C0600000C0800000C0
310
A00000C0C00000C0E00000E0000000E0200000E0400000E0600000E0800000E0A00000E0C00000E0E00040000000400020004000400040006000400080004000A0004000C0004000E00040200000402020004020400040206000402080004020A0004020C0004020E000404000004040200040404000404060004040800040
310
40A0004040C0004040E00040600000406020004060400040606000406080004060A0004060C0004060E00040800000408020004080400040806000408080004080A0004080C0004080E00040A0000040A0200040A0400040A0600040A0800040A0A00040A0C00040A0E00040C0000040C0200040C0400040C0600040C08000
310
40C0A00040C0C00040C0E00040E0000040E0200040E0400040E0600040E0800040E0A00040E0C00040E0E00080000000800020008000400080006000800080008000A0008000C0008000E00080200000802020008020400080206000802080008020A0008020C0008020E00080400000804020008040400080406000804080
310
008040A0008040C0008040E00080600000806020008060400080606000806080008060A0008060C0008060E00080800000808020008080400080806000808080008080A0008080C0008080E00080A0000080A0200080A0400080A0600080A0800080A0A00080A0C00080A0E00080C0000080C0200080C0400080C0600080C0
310
800080C0A00080C0C00080C0E00080E0000080E0200080E0400080E0600080E0800080E0A00080E0C00080E0E000C0000000C0002000C0004000C0006000C0008000C000A000C000C000C000E000C0200000C0202000C0204000C0206000C0208000C020A000C020C000C020E000C0400000C0402000C0404000C0406000C0
310
408000C040A000C040C000C040E000C0600000C0602000C0604000C0606000C0608000C060A000C060C000C060E000C0800000C0802000C0804000C0806000C0808000C080A000C080C000C080E000C0A00000C0A02000C0A04000C0A06000C0A08000C0A0A000C0A0C000C0A0E000C0C00000C0C02000C0C04000C0C06000
310
C0C08000C0C0A000F0FBFF00A4A0A000808080000000FF0000FF000000FFFF00FF000000FF00FF00FFFF0000FFFFFF0000000000000000000000000000000000000000000000000000000000000000000000000000000000000000000000000000000000000000000000000000000000000000000000000000000000000000
310
00000000000000000000000000000000000000000000000000000000000000000000000000000000000000000000000000000000000000000000000000000000000000000000000000000000000000000000000000000000000000000000000000000000000000000000000000000000000000000000000000000000000000
310
00000000000000000000000000000000000000000000000000000000000000000000000000000000000000000000000000000000000000000000000000000000000000000000000000000000000000000000000000000000000000000000000000000000000000000000000000000000000000000000000000000000000000
310
000000000000000000000000000000000000000000FFFFFFFF0000000000000000000000000000000000000000000000FF000000F9FFFFFFFFFF0000000000000000000000000000000000000000000000FF000000FFFFFFFFFF000000000000000000FFFFFFFFFFFFFFFFFFFFFFFFFFFFFF000000000000FFFF0000000000
310
0000000000000000000000000000FF00000000000000000000FFFF00000000000000000000000000000000000000FF00000000000000000000FFFF00000000000000000000000000000000000000FF000000000000000000FFFFFE00000000000000000000000000000000000000FF000000000000000000F9F9F9FF000000
310
000000000000000000000000000000FF00000000000000000000FFFFFF000000000000000000000000000000000000FF00000000000000000000FFFFFF0000000000000000FFFFFFFFFFFFFFFFFFFFFF0000000000000000000000000000000000000000000000000000000000000000000000000000000000000000000000
310
00000000000000000000000000000000000000000000000000000000000000000000000000000000000000000000000000000000000000000000000000000000000000000000000000000000000000000000000000000000000000000000000000000000000000000000000000000000000000000000000000000000000000
310
00000000000000000000000000000000000000000000000000000000000000000000000000000000000000000000000000000000000000000000000000000000000000000000000000000000000000000000000000000000000000000000000000000000000000000000000000000000000000000000000000000000000000
310
0000000000000000000000000000000000000000000000000000000000000000000000000000000000000000000000000000000000000000
102
{BLKREFS
331
45FF
102
}
 70
     4
280
     1
281
     1
  0
BLOCK_RECORD
  5
46D3
102
{ACAD_XDICTIONARY
360
4742
102
}
330
1
100
AcDbSymbolTableRecord
100
AcDbBlockTableRecord
  2
リーマボルト SMVH224 M10
340
0
310
2800000020000000200000000100080000000000000400000000000000000000000000000000000000000000000080000080000000808000800000008000800080800000C0C0C000C0DCC000F0CAA6000020400000206000002080000020A0000020C0000020E00000400000004020000040400000406000004080000040A0
310
000040C0000040E00000600000006020000060400000606000006080000060A0000060C0000060E00000800000008020000080400000806000008080000080A0000080C0000080E00000A0000000A0200000A0400000A0600000A0800000A0A00000A0C00000A0E00000C0000000C0200000C0400000C0600000C0800000C0
310
A00000C0C00000C0E00000E0000000E0200000E0400000E0600000E0800000E0A00000E0C00000E0E00040000000400020004000400040006000400080004000A0004000C0004000E00040200000402020004020400040206000402080004020A0004020C0004020E000404000004040200040404000404060004040800040
310
40A0004040C0004040E00040600000406020004060400040606000406080004060A0004060C0004060E00040800000408020004080400040806000408080004080A0004080C0004080E00040A0000040A0200040A0400040A0600040A0800040A0A00040A0C00040A0E00040C0000040C0200040C0400040C0600040C08000
310
40C0A00040C0C00040C0E00040E0000040E0200040E0400040E0600040E0800040E0A00040E0C00040E0E00080000000800020008000400080006000800080008000A0008000C0008000E00080200000802020008020400080206000802080008020A0008020C0008020E00080400000804020008040400080406000804080
310
008040A0008040C0008040E00080600000806020008060400080606000806080008060A0008060C0008060E00080800000808020008080400080806000808080008080A0008080C0008080E00080A0000080A0200080A0400080A0600080A0800080A0A00080A0C00080A0E00080C0000080C0200080C0400080C0600080C0
310
800080C0A00080C0C00080C0E00080E0000080E0200080E0400080E0600080E0800080E0A00080E0C00080E0E000C0000000C0002000C0004000C0006000C0008000C000A000C000C000C000E000C0200000C0202000C0204000C0206000C0208000C020A000C020C000C020E000C0400000C0402000C0404000C0406000C0
310
408000C040A000C040C000C040E000C0600000C0602000C0604000C0606000C0608000C060A000C060C000C060E000C0800000C0802000C0804000C0806000C0808000C080A000C080C000C080E000C0A00000C0A02000C0A04000C0A06000C0A08000C0A0A000C0A0C000C0A0E000C0C00000C0C02000C0C04000C0C06000
310
C0C08000C0C0A000F0FBFF00A4A0A000808080000000FF0000FF000000FFFF00FF000000FF00FF00FFFF0000FFFFFF0000000000000000000000000000000000000000000000000000000000000000000000000000000000000000FFFFFFFFFFFFFFFFFFFF000000000000000000000000000000000000000000FFFFFFFFFF
310
FFFFFFFFFFFFFF0000000000000000000000000000000000000000FF0000FF00000000FF0000FF0000000000000000000000000000000000000000FF0000FF00000000FF0000FF0000000000000000000000000000000000000000FF0000FF00000000FF0000FF000000000000000000000000000000000000000000000000
310
00000000000000000000000000000000000000000000000000000000000000000000000000000000000000000000000000000000000000000000000000000000000000000000000000000000000000000000000000000000000000000000000000000000000000000000000000000000000000000000000000000000000000
310
00000000000000000000000000000000000000000000000000000000000000000000000000000000000000000000000000000000000000000000000000000000000000000000000000000000000000000000000000000000000000000000000000000000000000000000000000000000000000000000000000000000000000
310
00000000000000000000000000000000000000000000000000000000000000000000000000000000000000000000000000000000000000000000000000000000000000000000000000000000000000000000000000000000000000000000000000000000000000000000000000000000000000000000000000000000000000
310
000000000000000000000000000000000000000000000000000000000000000000000000000000000000000000000000000000000000000000000000000000000000000000000000000000000000000000000000000000000000000000000000FF00000000FF000000FF000000000000000000000000000000000000000000
310
00FF00000000FF000000FF000000000000000000000000000000000000000000FFFFFFFFFFFFFFFFFFFFFFFF0000000000000000000000000000000000000000FF0000FF00000000FF0000FF0000000000000000000000000000000000000000FF0000FF00000000FF0000FF00000000000000000000000000000000000000
310
00FF0000FF00000000FF0000FF0000000000000000000000000000000000000000FFFFFFFFFFFFFFFFFFFFFFFF0000000000000000000000000000000000000000000000FF00000000FF0000000000000000000000000000000000000000000000000000FFFFFFFFFFFF000000000000000000000000000000000000000000
310
0000000000FFFFFFFFFFFF000000000000000000000000000000000000000000000000000000000000000000000000000000000000000000
102
{BLKREFS
331
46F7
102
}
 70
     4
280
     1
281
     1
  0
BLOCK_RECORD
  5
475F
102
{ACAD_XDICTIONARY
360
4786
102
}
330
1
100
AcDbSymbolTableRecord
100
AcDbBlockTableRecord
  2
スラストプレ－ト SMVH224
340
0
310
2800000020000000200000000100080000000000000400000000000000000000000000000000000000000000000080000080000000808000800000008000800080800000C0C0C000C0DCC000F0CAA6000020400000206000002080000020A0000020C0000020E00000400000004020000040400000406000004080000040A0
310
000040C0000040E00000600000006020000060400000606000006080000060A0000060C0000060E00000800000008020000080400000806000008080000080A0000080C0000080E00000A0000000A0200000A0400000A0600000A0800000A0A00000A0C00000A0E00000C0000000C0200000C0400000C0600000C0800000C0
310
A00000C0C00000C0E00000E0000000E0200000E0400000E0600000E0800000E0A00000E0C00000E0E00040000000400020004000400040006000400080004000A0004000C0004000E00040200000402020004020400040206000402080004020A0004020C0004020E000404000004040200040404000404060004040800040
310
40A0004040C0004040E00040600000406020004060400040606000406080004060A0004060C0004060E00040800000408020004080400040806000408080004080A0004080C0004080E00040A0000040A0200040A0400040A0600040A0800040A0A00040A0C00040A0E00040C0000040C0200040C0400040C0600040C08000
310
40C0A00040C0C00040C0E00040E0000040E0200040E0400040E0600040E0800040E0A00040E0C00040E0E00080000000800020008000400080006000800080008000A0008000C0008000E00080200000802020008020400080206000802080008020A0008020C0008020E00080400000804020008040400080406000804080
310
008040A0008040C0008040E00080600000806020008060400080606000806080008060A0008060C0008060E00080800000808020008080400080806000808080008080A0008080C0008080E00080A0000080A0200080A0400080A0600080A0800080A0A00080A0C00080A0E00080C0000080C0200080C0400080C0600080C0
310
800080C0A00080C0C00080C0E00080E0000080E0200080E0400080E0600080E0800080E0A00080E0C00080E0E000C0000000C0002000C0004000C0006000C0008000C000A000C000C000C000E000C0200000C0202000C0204000C0206000C0208000C020A000C020C000C020E000C0400000C0402000C0404000C0406000C0
310
408000C040A000C040C000C040E000C0600000C0602000C0604000C0606000C0608000C060A000C060C000C060E000C0800000C0802000C0804000C0806000C0808000C080A000C080C000C080E000C0A00000C0A02000C0A04000C0A06000C0A08000C0A0A000C0A0C000C0A0E000C0C00000C0C02000C0C04000C0C06000
310
C0C08000C0C0A000F0FBFF00A4A0A000808080000000FF0000FF000000FFFF00FF000000FF00FF00FFFF0000FFFFFF0000000000000000000000000000000000000000000000000000000000000000000000000000000000000000000000000000000000000000000000000000000000000000000000000000000000000000
310
00000000000000000000000000000000000000000000000000000000000000000000000000000000000000000000000000000000000000000000000000000000000000000000000000000000000000000000000000000000000000000000000000000000000000000000000000000000000000000000000000000000000000
310
00000000000000000000000000000000000000000000000000000000000000000000000000000000000000000000000000000000000000000000000000000000000000000000000000000000000000000000000000000000000000000000000000000000000000000000000000000000000000000000000000000000000000
310
00000000000000000000000000000000000000000000000000000000000000000000000000000000000000000000000000000000000000000000000000000000000000000000000000000000000000000000000000000000000000000000000000000000000000000000000000000000000000000000FFFFFFFFFFFF0000FF
310
FFFFFFFFFFFFFFFFFFFFFFFFFFFFFFFFFFFFFF00000000FF0000000000000000000000000000000000000000000000000000000000FFFFFFFFFFFFFFFFFFFFFFFFFFFFFFFFFFFFFFFFFFFFFFFFFFFFFFFFFFFF0000FFFFFFFFFFFFFFFFFFFFFFFFFFFFFFFFFFFFFFFFFFFFFFFFFFFFFFFFFFFF000000000000000000000000
310
00000000000000000000000000000000000000000000000000000000000000000000000000000000000000000000000000000000000000000000000000000000000000000000000000000000000000000000000000000000000000000000000000000000000000000000000000000000000000000000000000000000000000
310
00000000000000000000000000000000000000000000000000000000000000000000000000000000000000000000000000000000000000000000000000000000000000000000000000000000000000000000000000000000000000000000000000000000000000000000000000000000000000000000000000000000000000
310
00000000000000000000000000000000000000000000000000000000000000000000000000000000000000000000000000000000000000000000000000000000000000000000000000000000000000000000000000000000000000000000000000000000000000000000000000000000000000000000000000000000000000
310
0000000000000000000000000000000000000000000000000000000000000000000000000000000000000000000000000000000000000000
102
{BLKREFS
331
476B
102
}
 70
     4
280
     1
281
     1
  0
BLOCK_RECORD
  5
4901
330
1
100
AcDbSymbolTableRecord
100
AcDbBlockTableRecord
  2
*D14
340
0
 70
     0
280
     1
281
     0
  0
BLOCK_RECORD
  5
491E
330
1
100
AcDbSymbolTableRecord
100
AcDbBlockTableRecord
  2
*D15
340
0
 70
     0
280
     1
281
     0
  0
BLOCK_RECORD
  5
493A
330
1
100
AcDbSymbolTableRecord
100
AcDbBlockTableRecord
  2
*D16
340
0
 70
     0
280
     1
281
     0
  0
BLOCK_RECORD
  5
4984
330
1
100
AcDbSymbolTableRecord
100
AcDbBlockTableRecord
  2
*D17
340
0
 70
     0
280
     1
281
     0
  0
BLOCK_RECORD
  5
4A00
330
1
100
AcDbSymbolTableRecord
100
AcDbBlockTableRecord
  2
*D18
340
0
 70
     0
280
     1
281
     0
  0
BLOCK_RECORD
  5
4AED
330
1
100
AcDbSymbolTableRecord
100
AcDbBlockTableRecord
  2
*D19
340
0
 70
     0
280
     1
281
     0
  0
BLOCK_RECORD
  5
4B05
330
1
100
AcDbSymbolTableRecord
100
AcDbBlockTableRecord
  2
*D20
340
0
 70
     0
280
     1
281
     0
  0
BLOCK_RECORD
  5
4B1D
330
1
100
AcDbSymbolTableRecord
100
AcDbBlockTableRecord
  2
*D21
340
0
 70
     0
280
     1
281
     0
  0
BLOCK_RECORD
  5
4B59
330
1
100
AcDbSymbolTableRecord
100
AcDbBlockTableRecord
  2
*D22
340
0
 70
     0
280
     1
281
     0
  0
BLOCK_RECORD
  5
4B71
330
1
100
AcDbSymbolTableRecord
100
AcDbBlockTableRecord
  2
*D23
340
0
 70
     0
280
     1
281
     0
  0
BLOCK_RECORD
  5
4BA6
330
1
100
AcDbSymbolTableRecord
100
AcDbBlockTableRecord
  2
*D24
340
0
 70
     0
280
     1
281
     0
  0
BLOCK_RECORD
  5
4BBE
330
1
100
AcDbSymbolTableRecord
100
AcDbBlockTableRecord
  2
*D25
340
0
 70
     0
280
     1
281
     0
  0
BLOCK_RECORD
  5
592F
330
1
100
AcDbSymbolTableRecord
100
AcDbBlockTableRecord
  2
*D26
340
0
 70
     0
280
     1
281
     0
  0
BLOCK_RECORD
  5
5A4C
330
1
100
AcDbSymbolTableRecord
100
AcDbBlockTableRecord
  2
*D27
340
0
 70
     0
280
     1
281
     0
  0
BLOCK_RECORD
  5
5A76
330
1
100
AcDbSymbolTableRecord
100
AcDbBlockTableRecord
  2
*D28
340
0
 70
     0
280
     1
281
     0
  0
BLOCK_RECORD
  5
5B51
330
1
100
AcDbSymbolTableRecord
100
AcDbBlockTableRecord
  2
ケース
340
0
310
2800000020000000200000000100080000000000000400000000000000000000000000000000000000000000000080000080000000808000800000008000800080800000C0C0C000C0DCC000F0CAA6000020400000206000002080000020A0000020C0000020E00000400000004020000040400000406000004080000040A0
310
000040C0000040E00000600000006020000060400000606000006080000060A0000060C0000060E00000800000008020000080400000806000008080000080A0000080C0000080E00000A0000000A0200000A0400000A0600000A0800000A0A00000A0C00000A0E00000C0000000C0200000C0400000C0600000C0800000C0
310
A00000C0C00000C0E00000E0000000E0200000E0400000E0600000E0800000E0A00000E0C00000E0E00040000000400020004000400040006000400080004000A0004000C0004000E00040200000402020004020400040206000402080004020A0004020C0004020E000404000004040200040404000404060004040800040
310
40A0004040C0004040E00040600000406020004060400040606000406080004060A0004060C0004060E00040800000408020004080400040806000408080004080A0004080C0004080E00040A0000040A0200040A0400040A0600040A0800040A0A00040A0C00040A0E00040C0000040C0200040C0400040C0600040C08000
310
40C0A00040C0C00040C0E00040E0000040E0200040E0400040E0600040E0800040E0A00040E0C00040E0E00080000000800020008000400080006000800080008000A0008000C0008000E00080200000802020008020400080206000802080008020A0008020C0008020E00080400000804020008040400080406000804080
310
008040A0008040C0008040E00080600000806020008060400080606000806080008060A0008060C0008060E00080800000808020008080400080806000808080008080A0008080C0008080E00080A0000080A0200080A0400080A0600080A0800080A0A00080A0C00080A0E00080C0000080C0200080C0400080C0600080C0
310
800080C0A00080C0C00080C0E00080E0000080E0200080E0400080E0600080E0800080E0A00080E0C00080E0E000C0000000C0002000C0004000C0006000C0008000C000A000C000C000C000E000C0200000C0202000C0204000C0206000C0208000C020A000C020C000C020E000C0400000C0402000C0404000C0406000C0
310
408000C040A000C040C000C040E000C0600000C0602000C0604000C0606000C0608000C060A000C060C000C060E000C0800000C0802000C0804000C0806000C0808000C080A000C080C000C080E000C0A00000C0A02000C0A04000C0A06000C0A08000C0A0A000C0A0C000C0A0E000C0C00000C0C02000C0C04000C0C06000
310
C0C08000C0C0A000F0FBFF00A4A0A000808080000000FF0000FF000000FFFF00FF000000FF00FF00FFFF0000FFFFFF000000000000000000000000000000000000000000000000000000000000000000000000000000000000000000FCFCFCFCFCFCFCFCFCFCFC0000000000000000000000000000000000000000FC000000
310
000000000000FC000000000000000000000000000000000000000000FC000000000000000000FC0000000000000000000000000000000000000000FC00000000000000FCFCFCFCFC000000000000000000000000000000000000FC0000000000000000FC00000000000000000000000000000000000000000000FC00000000
310
00000000FC00000000000000000000000000000000000000000000FC0000000000000000FC00000000000000000000000000000000000000000000FC0000000000000000FC00000000000000000000000000000000000000000000FC0000000000000000FC00000000000000000000000000000000000000000000FC000000
310
0000000000FC00000000000000000000000000000000000000000000FC0000000000000000FCFCFCFCFC000000000000000000000000000000000000FC0000000000000000000000FC00000000000000000000000000000000000000FC0000000000000000000000FC00000000000000000000000000000000000000FC0000
310
00000000FCFCFCFCFCFCFC000000000000000000000000000000000000FC0000000000FC00000000000000000000000000000000000000000000000000FC0000000000FC00000000000000000000000000000000000000000000000000FC0000000000FC0000FC00000000000000000000000000000000000000000000FC00
310
00000000FC0000FC00000000000000000000000000000000000000000000FC0000000000FCFCFCFCFCFC0000000000000000000000000000000000000000FC0000000000FC0000FC00FC0000000000000000000000000000000000000000FC0000000000FC0000FC00FC0000000000000000000000000000000000000000FC
310
0000000000FC0000FC00FC0000000000000000000000000000000000000000FC0000000000FC0000FC00FC0000000000000000000000000000000000000000FC0000000000FC0000FC00FC0000000000000000000000000000000000000000FC0000000000FC0000FC00FC0000000000000000000000000000000000000000
310
FC0000000000FC0000FC00FC0000000000000000000000000000000000000000FC0000000000FC0000FC00FC0000000000000000000000000000000000000000FC0000000000FC0000FC00FC0000000000000000000000000000000000000000FC0000000000FC0000FC00FC00000000000000000000000000000000000000
310
00FC0000000000FC0000FC00FC00000000000000000000000000000000000000000000000000000000000000000000000000000000000000
102
{BLKREFS
331
5B68
102
}
 70
     4
280
     1
281
     1
  0
ENDTAB
  0
ENDSEC
  0
SECTION
  2
BLOCKS
  0
BLOCK
  5
20
330
1F
100
AcDbEntity
  8
0
100
AcDbBlockBegin
  2
*Model_Space
 70
     0
 10
0.0
 20
0.0
 30
0.0
  3
*Model_Space
  1

  0
ENDBLK
  5
21
330
1F
100
AcDbEntity
  8
0
100
AcDbBlockEnd
  0
BLOCK
  5
1C
330
1B
100
AcDbEntity
 67
     1
  8
0
100
AcDbBlockBegin
  2
*Paper_Space
 70
     0
 10
0.0
 20
0.0
 30
0.0
  3
*Paper_Space
  1

  0
ENDBLK
  5
1D
330
1B
100
AcDbEntity
 67
     1
  8
0
100
AcDbBlockEnd
  0
BLOCK
  5
24
330
23
100
AcDbEntity
 67
     1
  8
0
100
AcDbBlockBegin
  2
*Paper_Space0
 70
     0
 10
0.0
 20
0.0
 30
0.0
  3
*Paper_Space0
  1

  0
ENDBLK
  5
25
330
23
100
AcDbEntity
 67
     1
  8
0
100
AcDbBlockEnd
  0
BLOCK
  5
6D
330
69
100
AcDbEntity
  8
0
100
AcDbBlockBegin
  2
_Open30
 70
     0
 10
0.0
 20
0.0
 30
0.0
  3
_Open30
  1

  0
LINE
  5
6A
330
69
100
AcDbEntity
  8
0
  6
ByBlock
 62
     0
370
    -2
100
AcDbLine
 10
-1.0
 20
0.26794919
 30
0.0
 11
0.0
 21
0.0
 31
0.0
  0
LINE
  5
6B
330
69
100
AcDbEntity
  8
0
  6
ByBlock
 62
     0
370
    -2
100
AcDbLine
 10
0.0
 20
0.0
 30
0.0
 11
-1.0
 21
-0.26794919
 31
0.0
  0
LINE
  5
6C
330
69
100
AcDbEntity
  8
0
  6
ByBlock
 62
     0
370
    -2
100
AcDbLine
 10
0.0
 20
0.0
 30
0.0
 11
-1.0
 21
0.0
 31
0.0
  0
ENDBLK
  5
6E
330
69
100
AcDbEntity
  8
0
100
AcDbBlockEnd
  0
BLOCK
  5
76
330
74
100
AcDbEntity
  8
0
100
AcDbBlockBegin
  2
GENAXEH
 70
     0
 10
0.0
 20
0.0
 30
0.0
  3
GENAXEH
  1

  0
LINE
  5
75
330
74
100
AcDbEntity
  8
0
100
AcDbLine
 10
-1.0
 20
0.0
 30
0.0
 11
1.0
 21
0.0
 31
0.0
  0
ENDBLK
  5
77
330
74
100
AcDbEntity
  8
0
100
AcDbBlockEnd
  0
BLOCK
  5
3413
330
3410
100
AcDbEntity
  8
0
100
AcDbBlockBegin
  2
ジュウジマルコネジ
 70
     0
 10
0.0
 20
0.0
 30
0.0
  3
ジュウジマルコネジ
  1

  0
LINE
  5
4506
330
3410
100
AcDbEntity
  8
AM_0 外形線1
100
AcDbLine
 10
0.0
 20
-5.0
 30
0.0
 11
0.0
 21
5.0
 31
0.0
  0
LINE
  5
4507
330
3410
100
AcDbEntity
  8
AM_0 外形線1
100
AcDbLine
 10
0.0
 20
-5.0
 30
0.0
 11
0.8000000000001817
 21
-5.0
 31
0.0
  0
LWPOLYLINE
  5
4508
330
3410
100
AcDbEntity
  8
AM_0 外形線1
100
AcDbPolyline
 90
       36
 70
     0
 43
0.0
 10
0.0
 20
3.5
 10
-0.2330619999997907
 20
3.485910999999986
 10
-0.4642479999997704
 20
3.443754000000011
 10
-0.6916949999999816
 20
3.373870000000009
 10
-0.9135739999996983
 20
3.276823000000035
 10
-1.128096999999796
 20
3.153392000000053
 10
-1.333537999999862
 20
3.004570999999941
 10
-1.528240999999979
 20
2.83156000000008
 10
-1.710639999999784
 20
2.635751000000026
 10
-1.879265999999915
 20
2.418720000000006
 10
-2.032760999999935
 20
2.182215000000041
 10
-2.169889999999668
 20
1.928139999999984
 10
-2.28954799999974
 20
1.658541000000013
 10
-2.390771999999741
 20
1.375587999999992
 10
-2.472746999999798
 20
1.08156000000008
 10
-2.534811999999873
 20
0.778823999999986
 10
-2.576468999999633
 20
0.4698170000000347
 10
-2.597381999999925
 20
0.1570269999999709
 10
-2.597381999999925
 20
-0.1570259999999735
 10
-2.576468999999633
 20
-0.4698160000000371
 10
-2.534811999999873
 20
-0.7788229999999885
 10
-2.472746999999798
 20
-1.081558999999969
 10
-2.390771999999741
 20
-1.375586999999995
 10
-2.28954799999974
 20
-1.658540000000015
 10
-2.169889999999668
 20
-1.928138999999987
 10
-2.032760999999935
 20
-2.182213999999929
 10
-1.879265999999915
 20
-2.41871900000001
 10
-1.710639999999784
 20
-2.63575000000003
 10
-1.528240999999979
 20
-2.83155899999997
 10
-1.333537999999862
 20
-3.004570000000056
 10
-1.128096999999796
 20
-3.153391000000056
 10
-0.9135739999996983
 20
-3.276822000000038
 10
-0.6916949999999816
 20
-3.373870000000009
 10
-0.4642479999997704
 20
-3.443753000000014
 10
-0.2330619999997907
 20
-3.485909999999988
 10
0.0
 20
-3.5
  0
LINE
  5
4509
330
3410
100
AcDbEntity
  8
AM_0 外形線1
100
AcDbLine
 10
0.0
 20
-2.25
 30
0.0
 11
0.8000000000001817
 21
-2.25
 31
0.0
  0
LINE
  5
450A
330
3410
100
AcDbEntity
  8
AM_0 外形線1
100
AcDbLine
 10
0.0
 20
2.25
 30
0.0
 11
0.8000000000001817
 21
2.25
 31
0.0
  0
LINE
  5
450B
330
3410
100
AcDbEntity
  8
AM_0 外形線1
100
AcDbLine
 10
0.0
 20
5.0
 30
0.0
 11
0.8000000000001817
 21
5.0
 31
0.0
  0
LINE
  5
450C
330
3410
100
AcDbEntity
  8
AM_4 細線
100
AcDbLine
 10
4.850000000000362
 20
1.649999999999976
 30
0.0
 11
0.0
 21
1.649999999999976
 31
0.0
  0
LINE
  5
450D
330
3410
100
AcDbEntity
  8
AM_0 外形線1
100
AcDbLine
 10
4.5
 20
2.0
 30
0.0
 11
0.0
 21
2.0
 31
0.0
  0
LINE
  5
450E
330
3410
100
AcDbEntity
  8
AM_0 外形線1
100
AcDbLine
 10
4.5
 20
2.0
 30
0.0
 11
5.0
 21
1.5
 31
0.0
  0
LINE
  5
450F
330
3410
100
AcDbEntity
  8
AM_0 外形線1
100
AcDbLine
 10
4.5
 20
-2.0
 30
0.0
 11
4.5
 21
2.0
 31
0.0
  0
LINE
  5
4510
330
3410
100
AcDbEntity
  8
AM_0 外形線1
100
AcDbLine
 10
5.0
 20
-1.5
 30
0.0
 11
5.0
 21
1.5
 31
0.0
  0
LINE
  5
4511
330
3410
100
AcDbEntity
  8
AM_0 外形線1
100
AcDbLine
 10
4.5
 20
-2.0
 30
0.0
 11
5.0
 21
-1.5
 31
0.0
  0
LINE
  5
4512
330
3410
100
AcDbEntity
  8
AM_0 外形線1
100
AcDbLine
 10
4.5
 20
-2.0
 30
0.0
 11
0.0
 21
-2.0
 31
0.0
  0
LINE
  5
4513
330
3410
100
AcDbEntity
  8
AM_4 細線
100
AcDbLine
 10
4.850000000000362
 20
-1.649999999999976
 30
0.0
 11
0.0
 21
-1.649999999999976
 31
0.0
  0
LINE
  5
4537
330
3410
100
AcDbEntity
  8
AM_0 外形線1
100
AcDbLine
 10
0.8000000000001817
 20
2.0
 30
0.0
 11
0.8000000000001817
 21
5.0
 31
0.0
  0
LINE
  5
4538
330
3410
100
AcDbEntity
  8
AM_0 外形線1
100
AcDbLine
 10
0.8000000000001817
 20
-2.0
 30
0.0
 11
0.8000000000002387
 21
-5.0
 31
0.0
  0
LINE
  5
4539
330
3410
100
AcDbEntity
  8
AM_7 中心線
100
AcDbLine
 10
-4.195093999999699
 20
0.0
 30
0.0
 11
8.466667000000143
 21
0.0
 31
0.0
  0
ENDBLK
  5
3425
330
3410
100
AcDbEntity
  8
0
100
AcDbBlockEnd
  0
BLOCK
  5
353C
330
353B
100
AcDbEntity
  8
0
100
AcDbBlockBegin
  2
GENDOT
 70
     0
 10
0.0
 20
0.0
 30
0.0
  3
GENDOT
  1

  0
LINE
  5
353D
330
353B
100
AcDbEntity
  8
0
100
AcDbLine
 10
0.0
 20
0.0
 30
0.0
 11
-1.0
 21
0.0
 31
0.0
  0
LWPOLYLINE
  5
353E
330
353B
100
AcDbEntity
  8
0
100
AcDbPolyline
 90
        2
 70
     1
 43
0.25
 10
-0.125
 20
0.0
 42
1.0
 10
0.125
 20
0.0
 42
1.0
  0
ENDBLK
  5
353F
330
353B
100
AcDbEntity
  8
0
100
AcDbBlockEnd
  0
BLOCK
  5
42B9
330
42B8
100
AcDbEntity
  8
0
100
AcDbBlockBegin
  2
センタＡ SMVH224
 70
     0
 10
0.0
 20
0.0
 30
0.0
  3
センタＡ SMVH224
  1

  0
LINE
  5
42BB
330
42B8
100
AcDbEntity
  8
AM_0 外形線1
100
AcDbLine
 10
-70.5
 20
0.0
 30
0.0
 11
0.0
 21
0.0
 31
0.0
  0
LINE
  5
42BC
330
42B8
100
AcDbEntity
  8
AM_0 外形線1
100
AcDbLine
 10
67.90000000000009
 20
-112.0
 30
0.0
 11
-67.90000000000009
 21
-112.0
 31
0.0
  0
LINE
  5
42BD
330
42B8
100
AcDbEntity
  8
AM_0 外形線1
100
AcDbLine
 10
-71.0
 20
-17.5
 30
0.0
 11
-71.0
 21
-0.5
 31
0.0
  0
LINE
  5
42BE
330
42B8
100
AcDbEntity
  8
AM_0 外形線1
100
AcDbLine
 10
-71.90000000000009
 20
-108.0
 30
0.0
 11
-71.90000000000009
 21
-73.0
 31
0.0
  0
ARC
  5
42BF
330
42B8
100
AcDbEntity
  8
AM_0 外形線1
100
AcDbCircle
 10
-67.90000000000009
 20
-108.0
 30
0.0
 40
4.0
100
AcDbArc
 50
180.0
 51
270.0
  0
LINE
  5
42C0
330
42B8
100
AcDbEntity
  8
AM_0 外形線1
100
AcDbLine
 10
-72.5
 20
-71.0
 30
0.0
 11
-72.5
 21
-42.5
 31
0.0
  0
LINE
  5
42C1
330
42B8
100
AcDbEntity
  8
AM_0 外形線1
100
AcDbLine
 10
-71.90000000000009
 20
-73.0
 30
0.0
 11
-72.5
 21
-71.0
 31
0.0
  0
ARC
  5
42C4
330
42B8
100
AcDbEntity
  8
AM_0 外形線1
100
AcDbCircle
 10
0.0
 20
-28.5
 30
0.0
 40
79.88500000000001
100
AcDbArc
 50
173.1701679999992
 51
189.0023480000008
  0
LINE
  5
42C5
330
42B8
100
AcDbEntity
  8
AM_7 中心線
100
AcDbLine
 10
-84.88500000000021
 20
-28.5
 30
0.0
 11
-69.75
 21
-28.5
 31
0.0
  0
LINE
  5
42C6
330
42B8
100
AcDbEntity
  8
AM_0 外形線1
100
AcDbLine
 10
-77.7360349999999
 20
-42.0
 30
0.0
 11
-78.90097100000001
 21
-41.0
 31
0.0
  0
LINE
  5
42C7
330
42B8
100
AcDbEntity
  8
AM_0 外形線1
100
AcDbLine
 10
-73.0
 20
-42.0
 30
0.0
 11
-77.7360349999999
 21
-42.0
 31
0.0
  0
ARC
  5
42C8
330
42B8
100
AcDbEntity
  8
AM_0 外形線1
100
AcDbCircle
 10
-73.0
 20
-42.5
 30
0.0
 40
0.5
100
AcDbArc
 50
0.0
 51
90.0
  0
ARC
  5
42C9
330
42B8
100
AcDbEntity
  8
AM_0 外形線1
100
AcDbCircle
 10
-71.5
 20
-17.5
 30
0.0
 40
0.5
100
AcDbArc
 50
270.0
 51
0.0
  0
LINE
  5
42CA
330
42B8
100
AcDbEntity
  8
AM_0 外形線1
100
AcDbLine
 10
-78.19193900000026
 20
-18.0
 30
0.0
 11
-71.5
 21
-18.0
 31
0.0
  0
LINE
  5
42CB
330
42B8
100
AcDbEntity
  8
AM_0 外形線1
100
AcDbLine
 10
-79.31811400000015
 20
-19.0
 30
0.0
 11
-78.19193900000026
 21
-18.0
 31
0.0
  0
LINE
  5
42CC
330
42B8
100
AcDbEntity
  8
AM_0 外形線1
100
AcDbLine
 10
-71.0
 20
-0.5
 30
0.0
 11
-70.5
 21
0.0
 31
0.0
  0
LINE
  5
42CD
330
42B8
100
AcDbEntity
  8
AM_3 隠れ線
100
AcDbLine
 10
-5.0
 20
-24.0
 30
0.0
 11
-5.0
 21
0.0
 31
0.0
  0
LINE
  5
42CE
330
42B8
100
AcDbEntity
  8
AM_3 隠れ線
  6
HIDDEN
100
AcDbLine
 10
-4.25
 20
0.0
 30
0.0
 11
-4.25
 21
-29.0
 31
0.0
  0
LINE
  5
42CF
330
42B8
100
AcDbEntity
  8
AM_0 外形線1
100
AcDbLine
 10
71.90000000000009
 20
-73.0
 30
0.0
 11
71.90000000000009
 21
-108.0
 31
0.0
  0
ARC
  5
42D0
330
42B8
100
AcDbEntity
  8
AM_0 外形線1
100
AcDbCircle
 10
67.90000000000009
 20
-108.0
 30
0.0
 40
4.0
100
AcDbArc
 50
270.0
 51
0.0
  0
LINE
  5
42D1
330
42B8
100
AcDbEntity
  8
AM_0 外形線1
100
AcDbLine
 10
71.90000000000009
 20
-73.0
 30
0.0
 11
0.0
 21
-73.0
 31
0.0
  0
LINE
  5
42D2
330
42B8
100
AcDbEntity
  8
AM_0 外形線1
100
AcDbLine
 10
72.5
 20
-71.0
 30
0.0
 11
0.0
 21
-71.0
 31
0.0
  0
LINE
  5
42D3
330
42B8
100
AcDbEntity
  8
AM_3 隠れ線
  6
HIDDEN
100
AcDbLine
 10
-4.25
 20
-29.0
 30
0.0
 11
0.0
 21
-31.45373899999999
 31
0.0
  0
LINE
  5
42D4
330
42B8
100
AcDbEntity
  8
AM_3 隠れ線
  6
HIDDEN
100
AcDbLine
 10
-4.25
 20
-29.0
 30
0.0
 11
0.0
 21
-29.0
 31
0.0
  0
LINE
  5
42D5
330
42B8
100
AcDbEntity
  8
AM_3 隠れ線
100
AcDbLine
 10
-4.25
 20
-24.43301299999996
 30
0.0
 11
0.0
 21
-24.43301299999996
 31
0.0
  0
LINE
  5
42D6
330
42B8
100
AcDbEntity
  8
AM_3 隠れ線
100
AcDbLine
 10
-5.0
 20
-24.0
 30
0.0
 11
0.0
 21
-24.0
 31
0.0
  0
LINE
  5
42D7
330
42B8
100
AcDbEntity
  8
AM_3 隠れ線
100
AcDbLine
 10
-5.0
 20
-24.0
 30
0.0
 11
-4.25
 21
-24.43301299999996
 31
0.0
  0
LINE
  5
42D8
330
42B8
100
AcDbEntity
  8
AM_0 外形線1
100
AcDbLine
 10
72.5
 20
-59.0
 30
0.0
 11
72.5
 21
-71.0
 31
0.0
  0
LINE
  5
42D9
330
42B8
100
AcDbEntity
  8
AM_0 外形線1
100
AcDbLine
 10
72.5
 20
-71.0
 30
0.0
 11
71.90000000000009
 21
-73.0
 31
0.0
  0
LINE
  5
42DC
330
42B8
100
AcDbEntity
  8
AM_0 外形線1
100
AcDbLine
 10
-30.92329219213298
 20
0.0
 30
0.0
 11
-30.92329219213298
 21
-112.0
 31
0.0
  0
ARC
  5
5996
330
42B8
100
AcDbEntity
  8
AM_0 外形線1
100
AcDbCircle
 10
0.0
 20
-28.5
 30
0.0
 40
74.74999999999987
100
AcDbArc
 50
171.9250585524803
 51
190.4048269470552
  0
ARC
  5
5997
330
42B8
100
AcDbEntity
  8
AM_7 中心線
100
AcDbCircle
 10
0.0
 20
-28.5
 30
0.0
 40
77.5
100
AcDbArc
 50
170.0862842929877
 51
193.0503049396806
  0
ARC
  5
59B6
330
42B8
100
AcDbEntity
  8
AM_7 中心線
100
AcDbCircle
 10
0.0
 20
-28.5
 30
0.0
 40
77.5
100
AcDbArc
 50
195.1083471672369
 51
195.1099351769854
  0
ENDBLK
  5
42BA
330
42B8
100
AcDbEntity
  8
0
100
AcDbBlockEnd
  0
BLOCK
  5
4384
330
4383
100
AcDbEntity
  8
0
100
AcDbBlockBegin
  2
ケースＡ SMVH224
 70
     0
 10
0.0
 20
0.0
 30
0.0
  3
ケースＡ SMVH224
  1

  0
LINE
  5
4386
330
4383
100
AcDbEntity
  8
AM_0 外形線1
100
AcDbLine
 10
-80.5
 20
-20.0
 30
0.0
 11
-80.5
 21
0.0
 31
0.0
  0
LINE
  5
4387
330
4383
100
AcDbEntity
  8
AM_0 外形線1
100
AcDbLine
 10
-112.0
 20
-1.0
 30
0.0
 11
-112.0
 21
-14.0
 31
0.0
  0
LINE
  5
4388
330
4383
100
AcDbEntity
  8
AM_0 外形線1
100
AcDbLine
 10
-111.0
 20
-15.0
 30
0.0
 11
-90.0
 21
-15.0
 31
0.0
  0
LINE
  5
4389
330
4383
100
AcDbEntity
  8
AM_0 外形線1
100
AcDbLine
 10
-112.0
 20
-14.0
 30
0.0
 11
-111.0
 21
-15.0
 31
0.0
  0
LINE
  5
438A
330
4383
100
AcDbEntity
  8
AM_0 外形線1
100
AcDbLine
 10
-73.75
 20
-54.69999999999998
 30
0.0
 11
-73.75
 21
-52.0
 31
0.0
  0
LINE
  5
438B
330
4383
100
AcDbEntity
  8
AM_0 外形線1
100
AcDbLine
 10
-87.0
 20
-18.0
 30
0.0
 11
-87.0
 21
-61.0
 31
0.0
  0
LINE
  5
438C
330
4383
100
AcDbEntity
  8
AM_0 外形線1
100
AcDbLine
 10
-83.0
 20
-65.0
 30
0.0
 11
-72.5
 21
-65.0
 31
0.0
  0
ARC
  5
438D
330
4383
100
AcDbEntity
  8
AM_0 外形線1
100
AcDbCircle
 10
-83.0
 20
-61.0
 30
0.0
 40
4.0
100
AcDbArc
 50
180.0
 51
270.0
  0
LWPOLYLINE
  5
438E
330
4383
100
AcDbEntity
  8
AM_0 外形線1
100
AcDbPolyline
 90
       73
 70
     0
 43
0.0
 10
-74.84999999999991
 20
-62.30000000000001
 10
-74.64518399999997
 20
-62.28553999999997
 10
-74.44192699999985
 20
-62.24226999999996
 10
-74.24177499999995
 20
-62.17051800000001
 10
-74.04625200000009
 20
-62.07083199999999
 10
-73.85684700000002
 20
-61.94396999999998
 10
-73.6750000000002
 20
-61.79089699999997
 10
-73.50209499999983
 20
-61.61277799999999
 10
-73.33944900000004
 20
-61.41096899999997
 10
-73.1882989999999
 20
-61.187006
 10
-73.04979499999991
 20
-60.94259299999999
 10
-72.9249920000002
 20
-60.67959100000002
 10
-72.81484
 20
-60.39999999999999
 10
-72.72017700000015
 20
-60.10594899999995
 10
-72.6417220000003
 20
-59.79967699999997
 10
-72.58007399999995
 20
-59.48351200000002
 10
-72.53570200000012
 20
-59.15986299999997
 10
-72.50894199999994
 20
-58.83119199999999
 10
-72.5
 20
-58.5
 10
-72.50894199999994
 20
-58.16880800000001
 10
-72.53570200000012
 20
-57.84013700000002
 10
-72.58007399999995
 20
-57.51648799999998
 10
-72.6417220000003
 20
-57.20032399999997
 10
-72.72017700000015
 20
-56.89405099999999
 10
-72.81484
 20
-56.59999999999996
 10
-72.9249920000002
 20
-56.32040999999998
 10
-73.04979499999991
 20
-56.05740699999995
 10
-73.1882989999999
 20
-55.81299399999999
 10
-73.33944900000004
 20
-55.58903099999998
 10
-73.50209499999983
 20
-55.38722199999995
 10
-73.6750000000002
 20
-55.20910399999997
 10
-73.85684700000002
 20
-55.05602999999997
 10
-74.04625200000009
 20
-54.929168
 10
-74.24177499999995
 20
-54.82948199999999
 10
-74.44192699999985
 20
-54.75773099999997
 10
-74.64518399999997
 20
-54.71445999999997
 10
-74.84999999999991
 20
-54.69999999999998
 10
-75.05481599999985
 20
-54.71445999999997
 10
-75.25807299999995
 20
-54.75773099999997
 10
-75.45822499999984
 20
-54.82948199999999
 10
-75.65374700000029
 20
-54.929168
 10
-75.8431529999998
 20
-55.05602999999997
 10
-76.02500000000009
 20
-55.20910399999997
 10
-76.1979040000001
 20
-55.38722199999995
 10
-76.36055099999976
 20
-55.58903099999998
 10
-76.5117009999999
 20
-55.81299399999999
 10
-76.65020400000003
 20
-56.05740699999995
 10
-76.77500700000019
 20
-56.32040999999998
 10
-76.88515899999993
 20
-56.59999999999996
 10
-76.97982300000012
 20
-56.89405099999999
 10
-77.05827700000009
 20
-57.20032399999997
 10
-77.11992499999997
 20
-57.51648799999998
 10
-77.16429800000014
 20
-57.84013700000002
 10
-77.191057
 20
-58.16880800000001
 10
-77.19999999999981
 20
-58.5
 10
-77.191057
 20
-58.83119199999999
 10
-77.16429800000014
 20
-59.15986299999997
 10
-77.11992499999997
 20
-59.48351200000002
 10
-77.05827700000009
 20
-59.79967699999997
 10
-76.97982300000012
 20
-60.10594899999995
 10
-76.88515899999993
 20
-60.39999999999999
 10
-76.77500700000019
 20
-60.67959100000002
 10
-76.65020400000003
 20
-60.94259299999999
 10
-76.5117009999999
 20
-61.187006
 10
-76.36055099999976
 20
-61.41096899999997
 10
-76.1979040000001
 20
-61.61277799999999
 10
-76.02500000000009
 20
-61.79089699999997
 10
-75.8431529999998
 20
-61.94396999999998
 10
-75.65374700000029
 20
-62.07083199999999
 10
-75.45822499999984
 20
-62.17051800000001
 10
-75.25807299999995
 20
-62.24226999999996
 10
-75.05481599999985
 20
-62.28553999999997
 10
-74.84999999999991
 20
-62.30000000000001
  0
LINE
  5
438F
330
4383
100
AcDbEntity
  8
AM_0 外形線1
100
AcDbLine
 10
-76.6999999999998
 20
-54.69999999999998
 30
0.0
 11
-72.5
 21
-54.69999999999998
 31
0.0
  0
ARC
  5
4390
330
4383
100
AcDbEntity
  8
AM_0 外形線1
100
AcDbCircle
 10
-76.6999999999998
 20
-55.19999999999999
 30
0.0
 40
0.5
100
AcDbArc
 50
90.0
 51
180.0
  0
LINE
  5
4391
330
4383
100
AcDbEntity
  8
AM_0 外形線1
100
AcDbLine
 10
-77.19999999999981
 20
-61.80000000000001
 30
0.0
 11
-77.19999999999981
 21
-55.19999999999999
 31
0.0
  0
ARC
  5
4392
330
4383
100
AcDbEntity
  8
AM_0 外形線1
100
AcDbCircle
 10
-76.6999999999998
 20
-61.80000000000001
 30
0.0
 40
0.5
100
AcDbArc
 50
180.0
 51
270.0
  0
LINE
  5
4393
330
4383
100
AcDbEntity
  8
AM_0 外形線1
100
AcDbLine
 10
-72.5
 20
-62.30000000000001
 30
0.0
 11
-76.6999999999998
 21
-62.30000000000001
 31
0.0
  0
LINE
  5
4394
330
4383
100
AcDbEntity
  8
AM_0 外形線1
100
AcDbLine
 10
-73.75
 20
-65.0
 30
0.0
 11
-73.75
 21
-62.30000000000001
 31
0.0
  0
LINE
  5
4395
330
4383
100
AcDbEntity
  8
AM_3 隠れ線
  6
HIDDEN
100
AcDbLine
 10
-75.5
 20
-24.0
 30
0.0
 11
-75.5
 21
-46.0
 31
0.0
  0
LINE
  5
4396
330
4383
100
AcDbEntity
  8
AM_7 中心線
100
AcDbLine
 10
-77.5
 20
-19.0
 30
0.0
 11
-77.5
 21
-49.0
 31
0.0
  0
LINE
  5
4397
330
4383
100
AcDbEntity
  8
AM_0 外形線1
100
AcDbLine
 10
-80.0
 20
-20.86602499999998
 30
0.0
 11
-80.0
 21
-47.13397499999996
 31
0.0
  0
ARC
  5
4398
330
4383
100
AcDbEntity
  8
AM_0 外形線1
100
AcDbCircle
 10
-79.5
 20
-48.0
 30
0.0
 40
1.0
100
AcDbArc
 50
90.0
 51
180.0
  0
ARC
  5
4399
330
4383
100
AcDbEntity
  8
AM_0 外形線1
100
AcDbCircle
 10
-79.5
 20
-51.0
 30
0.0
 40
1.0
100
AcDbArc
 50
180.0
 51
270.0
  0
LINE
  5
439A
330
4383
100
AcDbEntity
  8
AM_0 外形線1
100
AcDbLine
 10
-80.5
 20
-51.0
 30
0.0
 11
-80.5
 21
-48.0
 31
0.0
  0
LINE
  5
439B
330
4383
100
AcDbEntity
  8
AM_3 隠れ線
  6
HIDDEN
100
AcDbLine
 10
-76.5
 20
-47.0
 30
0.0
 11
-75.5
 21
-46.0
 31
0.0
  0
LINE
  5
439C
330
4383
100
AcDbEntity
  8
AM_3 隠れ線
  6
HIDDEN
100
AcDbLine
 10
-78.90097100000001
 20
-47.0
 30
0.0
 11
-76.5
 21
-47.0
 31
0.0
  0
LINE
  5
439D
330
4383
100
AcDbEntity
  8
AM_0 外形線1
100
AcDbLine
 10
-78.90097100000001
 20
-47.0
 30
0.0
 11
-79.5
 21
-47.0
 31
0.0
  0
LINE
  5
439E
330
4383
100
AcDbEntity
  8
AM_0 外形線1
100
AcDbLine
 10
-72.5
 20
-52.0
 30
0.0
 11
-79.5
 21
-52.0
 31
0.0
  0
ARC
  5
439F
330
4383
100
AcDbEntity
  8
AM_0 外形線1
100
AcDbCircle
 10
-79.5
 20
-20.0
 30
0.0
 40
1.0
100
AcDbArc
 50
180.0
 51
270.0
  0
ARC
  5
43A0
330
4383
100
AcDbEntity
  8
AM_0 外形線1
100
AcDbCircle
 10
-90.0
 20
-18.0
 30
0.0
 40
3.0
100
AcDbArc
 50
0.0
 51
90.0
  0
LINE
  5
43A1
330
4383
100
AcDbEntity
  8
AM_0 外形線1
100
AcDbLine
 10
-75.5
 20
-24.0
 30
0.0
 11
-75.5
 21
-22.0
 31
0.0
  0
LINE
  5
43A2
330
4383
100
AcDbEntity
  8
AM_0 外形線1
100
AcDbLine
 10
-76.5
 20
-21.0
 30
0.0
 11
-79.5
 21
-21.0
 31
0.0
  0
LINE
  5
43A3
330
4383
100
AcDbEntity
  8
AM_0 外形線1
100
AcDbLine
 10
-75.5
 20
-22.0
 30
0.0
 11
-76.5
 21
-21.0
 31
0.0
  0
LINE
  5
43A4
330
4383
100
AcDbEntity
  8
AM_7 中心線
100
AcDbLine
 10
-113.25
 20
-8.0
 30
0.0
 11
-78.69939799999975
 21
-8.0
 31
0.0
  0
LINE
  5
43A5
330
4383
100
AcDbEntity
  8
AM_0 外形線1
100
AcDbLine
 10
-105.8000000000002
 20
-12.25
 30
0.0
 11
-80.5
 21
-12.25
 31
0.0
  0
LINE
  5
43A6
330
4383
100
AcDbEntity
  8
AM_0 外形線1
100
AcDbLine
 10
-105.8000000000002
 20
-3.75
 30
0.0
 11
-80.5
 21
-3.75
 31
0.0
  0
LINE
  5
43A7
330
4383
100
AcDbEntity
  8
AM_4 細線
100
AcDbLine
 10
-112.0
 20
-12.86399999999997
 30
0.0
 11
-105.8000000000002
 21
-12.67025000000001
 31
0.0
  0
LINE
  5
43A8
330
4383
100
AcDbEntity
  8
AM_4 細線
100
AcDbLine
 10
-112.0
 20
-3.135999999999966
 30
0.0
 11
-105.8000000000002
 21
-3.329749999999988
 31
0.0
  0
LINE
  5
43A9
330
4383
100
AcDbEntity
  8
AM_0 外形線1
100
AcDbLine
 10
-112.0
 20
-12.44374999999996
 30
0.0
 11
-105.8000000000002
 21
-12.25
 31
0.0
  0
LINE
  5
43AA
330
4383
100
AcDbEntity
  8
AM_0 外形線1
100
AcDbLine
 10
-112.0
 20
-3.556249999999976
 30
0.0
 11
-105.8000000000002
 21
-3.75
 31
0.0
  0
LINE
  5
43AB
330
4383
100
AcDbEntity
  8
AM_0 外形線1
100
AcDbLine
 10
-111.0
 20
0.0
 30
0.0
 11
-112.0
 21
-1.0
 31
0.0
  0
LINE
  5
43AC
330
4383
100
AcDbEntity
  8
AM_4 細線
100
AcDbLine
 10
-105.8000000000002
 20
-3.329749999999988
 30
0.0
 11
-105.8000000000002
 21
-12.67025000000001
 31
0.0
  0
LWPOLYLINE
  5
43AD
330
4383
100
AcDbEntity
  8
AM_0 外形線1
100
AcDbPolyline
 90
       73
 70
     0
 43
0.0
 10
-85.0
 20
-1.349999999999965
 10
-85.00837099999989
 20
-1.232339999999965
 10
-85.03342299999983
 20
-1.115574999999978
 10
-85.07496300000003
 20
-1.000593999999978
 10
-85.13267600000018
 20
-0.8882729999999694
 10
-85.20612299999994
 20
-0.7794649999999593
 10
-85.29474399999982
 20
-0.6750000000000114
 10
-85.39786499999991
 20
-0.5756719999999405
 10
-85.51470199999995
 20
-0.4822369999999978
 10
-85.64436500000011
 20
-0.3954059999999799
 10
-85.78586700000007
 20
-0.3158399999999801
 10
-85.9381320000002
 20
-0.2441449999999463
 10
-86.0999999999999
 20
-0.1808659999999804
 10
-86.2702399999998
 20
-0.1264850000000024
 10
-86.44755500000021
 20
-0.0814149999999927
 10
-86.63059799999974
 20
-0.0459999999999923
 10
-86.81797400000004
 20
-0.0205100000000016
 10
-87.00825699999995
 20
-0.0051369999999906
 10
-87.19999999999981
 20
0.0
 10
-87.39174199999979
 20
-0.0051369999999906
 10
-87.58202600000004
 20
-0.0205100000000016
 10
-87.76940199999989
 20
-0.0459999999999923
 10
-87.95244400000001
 20
-0.0814149999999927
 10
-88.12975999999981
 20
-0.1264850000000024
 10
-88.30000000000017
 20
-0.1808659999999804
 10
-88.46186799999987
 20
-0.2441449999999463
 10
-88.61413300000004
 20
-0.3158399999999801
 10
-88.75563499999998
 20
-0.3954059999999799
 10
-88.88529800000013
 20
-0.4822369999999978
 10
-89.00213399999984
 20
-0.5756719999999405
 10
-89.10525599999983
 20
-0.6750000000000114
 10
-89.19387699999969
 20
-0.7794649999999593
 10
-89.26732399999989
 20
-0.8882729999999694
 10
-89.32503700000005
 20
-1.000593999999978
 10
-89.3665769999998
 20
-1.115574999999978
 10
-89.39162799999984
 20
-1.232339999999965
 10
-89.4000000000001
 20
-1.349999999999965
 10
-89.39162799999984
 20
-1.467660000000023
 10
-89.3665769999998
 20
-1.58442500000001
 10
-89.32503700000005
 20
-1.69940600000001
 10
-89.26732399999989
 20
-1.811727000000018
 10
-89.19387699999969
 20
-1.920535000000029
 10
-89.10525599999983
 20
-2.024999999999976
 10
-89.00213399999984
 20
-2.12432799999999
 10
-88.88529800000013
 20
-2.21776299999999
 10
-88.75563499999998
 20
-2.304594000000008
 10
-88.61413300000004
 20
-2.384160000000008
 10
-88.46186799999987
 20
-2.455854999999985
 10
-88.30000000000017
 20
-2.51913399999995
 10
-88.12975999999981
 20
-2.573515999999982
 10
-87.95244400000001
 20
-2.618584999999995
 10
-87.76940199999989
 20
-2.653999999999995
 10
-87.58202600000004
 20
-2.679490999999984
 10
-87.39174199999979
 20
-2.694862999999998
 10
-87.19999999999981
 20
-2.699999999999988
 10
-87.00825699999995
 20
-2.694862999999998
 10
-86.81797400000004
 20
-2.679490999999984
 10
-86.63059799999974
 20
-2.653999999999995
 10
-86.44755500000021
 20
-2.618584999999995
 10
-86.2702399999998
 20
-2.573515999999982
 10
-86.0999999999999
 20
-2.51913399999995
 10
-85.9381320000002
 20
-2.455854999999985
 10
-85.78586700000007
 20
-2.384160000000008
 10
-85.64436500000011
 20
-2.304594000000008
 10
-85.51470199999995
 20
-2.21776299999999
 10
-85.39786499999991
 20
-2.12432799999999
 10
-85.29474399999982
 20
-2.024999999999976
 10
-85.20612299999994
 20
-1.920535000000029
 10
-85.13267600000018
 20
-1.811727000000018
 10
-85.07496300000003
 20
-1.69940600000001
 10
-85.03342299999983
 20
-1.58442500000001
 10
-85.00837099999989
 20
-1.467660000000023
 10
-85.0
 20
-1.349999999999965
  0
LINE
  5
43AE
330
4383
100
AcDbEntity
  8
AM_0 外形線1
100
AcDbLine
 10
-89.4000000000001
 20
-2.199999999999988
 30
0.0
 11
-89.4000000000001
 21
0.0
 31
0.0
  0
ARC
  5
43AF
330
4383
100
AcDbEntity
  8
AM_0 外形線1
100
AcDbCircle
 10
-88.90000000000009
 20
-2.199999999999988
 30
0.0
 40
0.5
100
AcDbArc
 50
180.0
 51
270.0
  0
LINE
  5
43B0
330
4383
100
AcDbEntity
  8
AM_0 外形線1
100
AcDbLine
 10
-85.5
 20
-2.699999999999988
 30
0.0
 11
-88.90000000000009
 21
-2.699999999999988
 31
0.0
  0
ARC
  5
43B1
330
4383
100
AcDbEntity
  8
AM_0 外形線1
100
AcDbCircle
 10
-85.5
 20
-2.199999999999988
 30
0.0
 40
0.5
100
AcDbArc
 50
270.0
 51
0.0
  0
LINE
  5
43B2
330
4383
100
AcDbEntity
  8
AM_0 外形線1
100
AcDbLine
 10
-85.0
 20
0.0
 30
0.0
 11
-85.0
 21
-2.199999999999988
 31
0.0
  0
LINE
  5
43B3
330
4383
100
AcDbEntity
  8
AM_0 外形線1
100
AcDbLine
 10
112.0
 20
-1.0
 30
0.0
 11
112.0
 21
-14.0
 31
0.0
  0
LINE
  5
43B4
330
4383
100
AcDbEntity
  8
AM_0 外形線1
100
AcDbLine
 10
111.0
 20
-15.0
 30
0.0
 11
0.0
 21
-15.0
 31
0.0
  0
LINE
  5
43B5
330
4383
100
AcDbEntity
  8
AM_0 外形線1
100
AcDbLine
 10
83.0
 20
-65.0
 30
0.0
 11
0.0
 21
-65.0
 31
0.0
  0
LINE
  5
43B6
330
4383
100
AcDbEntity
  8
AM_0 外形線1
100
AcDbLine
 10
87.0
 20
-18.0
 30
0.0
 11
87.0
 21
-61.0
 31
0.0
  0
ARC
  5
43B7
330
4383
100
AcDbEntity
  8
AM_0 外形線1
100
AcDbCircle
 10
83.0
 20
-61.0
 30
0.0
 40
4.0
100
AcDbArc
 50
270.0
 51
0.0
  0
ARC
  5
43B8
330
4383
100
AcDbEntity
  8
AM_0 外形線1
100
AcDbCircle
 10
90.0
 20
-18.0
 30
0.0
 40
3.0
100
AcDbArc
 50
90.0
 51
180.0
  0
LINE
  5
43B9
330
4383
100
AcDbEntity
  8
AM_0 外形線1
100
AcDbLine
 10
112.0
 20
-14.0
 30
0.0
 11
111.0
 21
-15.0
 31
0.0
  0
LINE
  5
43BA
330
4383
100
AcDbEntity
  8
AM_0 外形線1
100
AcDbLine
 10
0.0
 20
0.0
 30
0.0
 11
111.0
 21
0.0
 31
0.0
  0
LINE
  5
43BB
330
4383
100
AcDbEntity
  8
AM_0 外形線1
100
AcDbLine
 10
111.0
 20
0.0
 30
0.0
 11
112.0
 21
-1.0
 31
0.0
  0
LINE
  5
43FF
330
4383
100
AcDbEntity
  8
AM_7 中心線
100
AcDbLine
 10
101.0
 20
-24.5
 30
0.0
 11
101.0
 21
32.5
 31
0.0
  0
LINE
  5
4436
330
4383
100
AcDbEntity
  8
AM_0 外形線1
100
AcDbLine
 10
-80.5
 20
0.0
 30
0.0
 11
-85.0
 21
0.0
 31
0.0
  0
LINE
  5
4437
330
4383
100
AcDbEntity
  8
AM_0 外形線1
100
AcDbLine
 10
-89.4000000000001
 20
0.0
 30
0.0
 11
-111.0
 21
0.0
 31
0.0
  0
ENDBLK
  5
4385
330
4383
100
AcDbEntity
  8
0
100
AcDbBlockEnd
  0
BLOCK
  5
446C
330
446B
100
AcDbEntity
  8
0
100
AcDbBlockBegin
  2
センタB SMVH224
 70
     0
 10
0.0
 20
0.0
 30
0.0
  3
センタB SMVH224
  1

  0
LINE
  5
446E
330
446B
100
AcDbEntity
  8
AM_0 外形線1
100
AcDbLine
 10
67.90000000000009
 20
112.0
 30
0.0
 11
-67.90000000000009
 21
112.0
 31
0.0
  0
LINE
  5
446F
330
446B
100
AcDbEntity
  8
AM_0 外形線1
100
AcDbLine
 10
-70.5
 20
0.0
 30
0.0
 11
0.0
 21
0.0
 31
0.0
  0
LINE
  5
4470
330
446B
100
AcDbEntity
  8
AM_0 外形線1
100
AcDbLine
 10
-72.5
 20
71.0
 30
0.0
 11
-72.5
 21
42.5
 31
0.0
  0
ARC
  5
4472
330
446B
100
AcDbEntity
  8
AM_0 外形線1
100
AcDbCircle
 10
0.0
 20
28.5
 30
0.0
 40
79.88500000000001
100
AcDbArc
 50
170.997651999999
 51
186.8298320000007
  0
LINE
  5
4474
330
446B
100
AcDbEntity
  8
AM_0 外形線1
100
AcDbLine
 10
-71.0
 20
17.5
 30
0.0
 11
-71.0
 21
0.5
 31
0.0
  0
LINE
  5
4475
330
446B
100
AcDbEntity
  8
AM_0 外形線1
100
AcDbLine
 10
-71.0
 20
0.5
 30
0.0
 11
-70.5
 21
0.0
 31
0.0
  0
ARC
  5
4476
330
446B
100
AcDbEntity
  8
AM_0 外形線1
100
AcDbCircle
 10
-71.5
 20
17.5
 30
0.0
 40
0.5
100
AcDbArc
 50
0.0
 51
90.0
  0
LINE
  5
4477
330
446B
100
AcDbEntity
  8
AM_0 外形線1
100
AcDbLine
 10
-79.31811400000015
 20
19.0
 30
0.0
 11
-78.19193900000026
 21
18.0
 31
0.0
  0
LINE
  5
4478
330
446B
100
AcDbEntity
  8
AM_7 中心線
100
AcDbLine
 10
-84.88500000000021
 20
28.5
 30
0.0
 11
-69.75
 21
28.5
 31
0.0
  0
LINE
  5
4479
330
446B
100
AcDbEntity
  8
AM_0 外形線1
100
AcDbLine
 10
-77.7360349999999
 20
42.0
 30
0.0
 11
-78.90097100000001
 21
41.0
 31
0.0
  0
LINE
  5
447A
330
446B
100
AcDbEntity
  8
AM_0 外形線1
100
AcDbLine
 10
-73.0
 20
42.0
 30
0.0
 11
-77.7360349999999
 21
42.0
 31
0.0
  0
ARC
  5
447B
330
446B
100
AcDbEntity
  8
AM_0 外形線1
100
AcDbCircle
 10
-73.0
 20
42.5
 30
0.0
 40
0.5
100
AcDbArc
 50
270.0
 51
0.0
  0
LINE
  5
447C
330
446B
100
AcDbEntity
  8
AM_0 外形線1
100
AcDbLine
 10
-71.90000000000009
 20
108.0
 30
0.0
 11
-71.90000000000009
 21
73.0
 31
0.0
  0
LINE
  5
447D
330
446B
100
AcDbEntity
  8
AM_0 外形線1
100
AcDbLine
 10
-71.90000000000009
 20
73.0
 30
0.0
 11
-72.5
 21
71.0
 31
0.0
  0
ARC
  5
447E
330
446B
100
AcDbEntity
  8
AM_0 外形線1
100
AcDbCircle
 10
-67.90000000000009
 20
108.0
 30
0.0
 40
4.0
100
AcDbArc
 50
90.0
 51
180.0
  0
LINE
  5
447F
330
446B
100
AcDbEntity
  8
AM_0 外形線1
100
AcDbLine
 10
72.5
 20
59.0
 30
0.0
 11
72.5
 21
71.0
 31
0.0
  0
LINE
  5
4480
330
446B
100
AcDbEntity
  8
AM_3 隠れ線
  6
HIDDEN
100
AcDbLine
 10
-4.25
 20
29.0
 30
0.0
 11
-4.25
 21
0.0
 31
0.0
  0
LINE
  5
4481
330
446B
100
AcDbEntity
  8
AM_3 隠れ線
100
AcDbLine
 10
-5.0
 20
0.0
 30
0.0
 11
-5.0
 21
24.0
 31
0.0
  0
LINE
  5
4482
330
446B
100
AcDbEntity
  8
AM_3 隠れ線
  6
HIDDEN
100
AcDbLine
 10
-4.25
 20
29.0
 30
0.0
 11
0.0
 21
31.45373900000004
 31
0.0
  0
LINE
  5
4483
330
446B
100
AcDbEntity
  8
AM_3 隠れ線
  6
HIDDEN
100
AcDbLine
 10
-4.25
 20
29.0
 30
0.0
 11
0.0
 21
29.0
 31
0.0
  0
LINE
  5
4484
330
446B
100
AcDbEntity
  8
AM_3 隠れ線
100
AcDbLine
 10
-5.0
 20
24.0
 30
0.0
 11
-4.25
 21
24.43301300000007
 31
0.0
  0
LINE
  5
4485
330
446B
100
AcDbEntity
  8
AM_3 隠れ線
100
AcDbLine
 10
-4.25
 20
24.43301300000007
 30
0.0
 11
0.0
 21
24.43301300000007
 31
0.0
  0
LINE
  5
4486
330
446B
100
AcDbEntity
  8
AM_3 隠れ線
100
AcDbLine
 10
-5.0
 20
24.0
 30
0.0
 11
0.0
 21
24.0
 31
0.0
  0
LINE
  5
4487
330
446B
100
AcDbEntity
  8
AM_0 外形線1
100
AcDbLine
 10
71.90000000000009
 20
73.0
 30
0.0
 11
0.0
 21
73.0
 31
0.0
  0
LINE
  5
4488
330
446B
100
AcDbEntity
  8
AM_0 外形線1
100
AcDbLine
 10
72.5
 20
71.0
 30
0.0
 11
0.0
 21
71.0
 31
0.0
  0
LINE
  5
4489
330
446B
100
AcDbEntity
  8
AM_0 外形線1
100
AcDbLine
 10
71.90000000000009
 20
73.0
 30
0.0
 11
71.90000000000009
 21
108.0
 31
0.0
  0
LINE
  5
448A
330
446B
100
AcDbEntity
  8
AM_0 外形線1
100
AcDbLine
 10
72.5
 20
71.0
 30
0.0
 11
71.90000000000009
 21
73.0
 31
0.0
  0
ARC
  5
448B
330
446B
100
AcDbEntity
  8
AM_0 外形線1
100
AcDbCircle
 10
67.90000000000009
 20
108.0
 30
0.0
 40
4.0
100
AcDbArc
 50
0.0
 51
90.0
  0
LINE
  5
448C
330
446B
100
AcDbEntity
  8
AM_0 外形線1
100
AcDbLine
 10
-78.19193900000026
 20
18.0
 30
0.0
 11
-71.5
 21
18.0
 31
0.0
  0
LINE
  5
448F
330
446B
100
AcDbEntity
  8
AM_0 外形線1
100
AcDbLine
 10
-35.85038354048044
 20
112.0
 30
0.0
 11
-35.85038354048039
 21
0.0
 31
0.0
  0
ARC
  5
59DF
330
446B
100
AcDbEntity
  8
AM_0 外形線1
100
AcDbCircle
 10
0.0
 20
28.5
 30
0.0
 40
74.74999999999987
100
AcDbArc
 50
169.5951730529415
 51
188.0749414475197
  0
ARC
  5
59E0
330
446B
100
AcDbEntity
  8
AM_7 中心線
100
AcDbCircle
 10
0.0
 20
28.5
 30
0.0
 40
77.5
100
AcDbArc
 50
166.9496950603194
 51
189.9137157070122
  0
ENDBLK
  5
446D
330
446B
100
AcDbEntity
  8
0
100
AcDbBlockEnd
  0
BLOCK
  5
45C3
330
45C2
100
AcDbEntity
  8
0
100
AcDbBlockBegin
  2
ケースＢ SMVH224
 70
     0
 10
0.0
 20
0.0
 30
0.0
  3
ケースＢ SMVH224
  1

  0
LINE
  5
45C5
330
45C2
100
AcDbEntity
  8
AM_0 外形線1
100
AcDbLine
 10
-85.5
 20
0.0
 30
0.0
 11
-111.0
 21
0.0
 31
0.0
  0
LINE
  5
45C6
330
45C2
100
AcDbEntity
  8
AM_0 外形線1
100
AcDbLine
 10
-105.8000000000002
 20
12.25
 30
0.0
 11
-80.5
 21
12.25
 31
0.0
  0
LINE
  5
45C7
330
45C2
100
AcDbEntity
  8
AM_7 中心線
100
AcDbLine
 10
-113.25
 20
8.0
 30
0.0
 11
-78.75938899999983
 21
8.0
 31
0.0
  0
LINE
  5
45C8
330
45C2
100
AcDbEntity
  8
AM_0 外形線1
100
AcDbLine
 10
-105.8000000000002
 20
3.75
 30
0.0
 11
-85.0
 21
3.75
 31
0.0
  0
LINE
  5
45C9
330
45C2
100
AcDbEntity
  8
AM_0 外形線1
100
AcDbLine
 10
-111.0
 20
15.0
 30
0.0
 11
-90.0
 21
15.0
 31
0.0
  0
LINE
  5
45CA
330
45C2
100
AcDbEntity
  8
AM_4 細線
100
AcDbLine
 10
-105.8000000000002
 20
3.329749999999988
 30
0.0
 11
-105.8000000000002
 21
12.67025000000001
 31
0.0
  0
LINE
  5
45CB
330
45C2
100
AcDbEntity
  8
AM_0 外形線1
100
AcDbLine
 10
-112.0
 20
1.0
 30
0.0
 11
-112.0
 21
14.0
 31
0.0
  0
LINE
  5
45CC
330
45C2
100
AcDbEntity
  8
AM_4 細線
100
AcDbLine
 10
-112.0
 20
3.136000000000023
 30
0.0
 11
-105.8000000000002
 21
3.329749999999988
 31
0.0
  0
LINE
  5
45CD
330
45C2
100
AcDbEntity
  8
AM_0 外形線1
100
AcDbLine
 10
-112.0
 20
3.556250000000034
 30
0.0
 11
-105.8000000000002
 21
3.75
 31
0.0
  0
LINE
  5
45CE
330
45C2
100
AcDbEntity
  8
AM_0 外形線1
100
AcDbLine
 10
-111.0
 20
0.0
 30
0.0
 11
-112.0
 21
1.0
 31
0.0
  0
LINE
  5
45CF
330
45C2
100
AcDbEntity
  8
AM_4 細線
100
AcDbLine
 10
-112.0
 20
12.86400000000003
 30
0.0
 11
-105.8000000000002
 21
12.67025000000001
 31
0.0
  0
LINE
  5
45D0
330
45C2
100
AcDbEntity
  8
AM_0 外形線1
100
AcDbLine
 10
-112.0
 20
12.44375000000002
 30
0.0
 11
-105.8000000000002
 21
12.25
 31
0.0
  0
LINE
  5
45D1
330
45C2
100
AcDbEntity
  8
AM_0 外形線1
100
AcDbLine
 10
-112.0
 20
14.0
 30
0.0
 11
-111.0
 21
15.0
 31
0.0
  0
LINE
  5
45D2
330
45C2
100
AcDbEntity
  8
AM_3 隠れ線
  6
HIDDEN
100
AcDbLine
 10
-75.5
 20
24.0
 30
0.0
 11
-75.5
 21
46.0
 31
0.0
  0
LINE
  5
45D3
330
45C2
100
AcDbEntity
  8
AM_7 中心線
100
AcDbLine
 10
-77.5
 20
19.0
 30
0.0
 11
-77.5
 21
49.0
 31
0.0
  0
LINE
  5
45D4
330
45C2
100
AcDbEntity
  8
AM_0 外形線1
100
AcDbLine
 10
-87.0
 20
18.0
 30
0.0
 11
-87.0
 21
44.5
 31
0.0
  0
LINE
  5
45D5
330
45C2
100
AcDbEntity
  8
AM_0 外形線1
100
AcDbLine
 10
-80.0
 20
20.86602500000004
 30
0.0
 11
-80.0
 21
47.13397499999996
 31
0.0
  0
LINE
  5
45D6
330
45C2
100
AcDbEntity
  8
AM_0 外形線1
100
AcDbLine
 10
-80.5
 20
20.0
 30
0.0
 11
-80.5
 21
5.0
 31
0.0
  0
LINE
  5
45D7
330
45C2
100
AcDbEntity
  8
AM_0 外形線1
100
AcDbLine
 10
-85.0
 20
0.5
 30
0.0
 11
-85.5
 21
0.0
 31
0.0
  0
ARC
  5
45D8
330
45C2
100
AcDbEntity
  8
AM_0 外形線1
100
AcDbCircle
 10
-79.5
 20
20.0
 30
0.0
 40
1.0
100
AcDbArc
 50
90.0
 51
180.0
  0
ARC
  5
45D9
330
45C2
100
AcDbEntity
  8
AM_0 外形線1
100
AcDbCircle
 10
-90.0
 20
18.0
 30
0.0
 40
3.0
100
AcDbArc
 50
270.0
 51
0.0
  0
LINE
  5
45DA
330
45C2
100
AcDbEntity
  8
AM_0 外形線1
100
AcDbLine
 10
-75.5
 20
24.0
 30
0.0
 11
-75.5
 21
22.0
 31
0.0
  0
LINE
  5
45DB
330
45C2
100
AcDbEntity
  8
AM_0 外形線1
100
AcDbLine
 10
-76.5
 20
21.0
 30
0.0
 11
-79.5
 21
21.0
 31
0.0
  0
LINE
  5
45DC
330
45C2
100
AcDbEntity
  8
AM_0 外形線1
100
AcDbLine
 10
-75.5
 20
22.0
 30
0.0
 11
-76.5
 21
21.0
 31
0.0
  0
LINE
  5
45DD
330
45C2
100
AcDbEntity
  8
AM_3 隠れ線
  6
HIDDEN
100
AcDbLine
 10
-76.5
 20
47.0
 30
0.0
 11
-75.5
 21
46.0
 31
0.0
  0
ARC
  5
45DE
330
45C2
100
AcDbEntity
  8
AM_0 外形線1
100
AcDbCircle
 10
-79.5
 20
48.0
 30
0.0
 40
1.0
100
AcDbArc
 50
180.0
 51
270.0
  0
ARC
  5
45DF
330
45C2
100
AcDbEntity
  8
AM_0 外形線1
100
AcDbCircle
 10
-79.5
 20
51.0
 30
0.0
 40
1.0
100
AcDbArc
 50
90.0
 51
180.0
  0
LINE
  5
45E0
330
45C2
100
AcDbEntity
  8
AM_0 外形線1
100
AcDbLine
 10
-83.0
 20
65.0
 30
0.0
 11
-72.5
 21
65.0
 31
0.0
  0
LINE
  5
45E1
330
45C2
100
AcDbEntity
  8
AM_0 外形線1
100
AcDbLine
 10
-80.5
 20
51.0
 30
0.0
 11
-80.5
 21
48.0
 31
0.0
  0
ARC
  5
45E2
330
45C2
100
AcDbEntity
  8
AM_0 外形線1
100
AcDbCircle
 10
-83.0
 20
61.0
 30
0.0
 40
4.0
100
AcDbArc
 50
90.0
 51
180.0
  0
LINE
  5
45E3
330
45C2
100
AcDbEntity
  8
AM_3 隠れ線
  6
HIDDEN
100
AcDbLine
 10
-78.90097100000001
 20
47.0
 30
0.0
 11
-76.5
 21
47.0
 31
0.0
  0
LINE
  5
45E4
330
45C2
100
AcDbEntity
  8
AM_0 外形線1
100
AcDbLine
 10
-78.90097100000001
 20
47.0
 30
0.0
 11
-79.5
 21
47.0
 31
0.0
  0
LWPOLYLINE
  5
45E5
330
45C2
100
AcDbEntity
  8
AM_0 外形線1
100
AcDbPolyline
 90
       73
 70
     0
 43
0.0
 10
-74.84999999999991
 20
62.29999999999995
 10
-75.05481599999985
 20
62.28554000000007
 10
-75.25807299999995
 20
62.24226900000008
 10
-75.45822499999984
 20
62.17051800000001
 10
-75.65374700000029
 20
62.07083199999999
 10
-75.8431529999998
 20
61.94397000000003
 10
-76.02500000000009
 20
61.79089599999997
 10
-76.1979040000001
 20
61.61277800000005
 10
-76.36055099999976
 20
61.41096900000001
 10
-76.5117009999999
 20
61.187006
 10
-76.65020400000003
 20
60.94259299999999
 10
-76.77500700000019
 20
60.67958999999996
 10
-76.88515899999993
 20
60.40000000000009
 10
-76.97982300000012
 20
60.105949
 10
-77.05827700000009
 20
59.79967600000009
 10
-77.11992499999997
 20
59.48351200000002
 10
-77.16429800000014
 20
59.15986299999997
 10
-77.191057
 20
58.83119199999999
 10
-77.19999999999981
 20
58.5
 10
-77.191057
 20
58.16880800000001
 10
-77.16429800000014
 20
57.84013700000002
 10
-77.11992499999997
 20
57.51648799999998
 10
-77.05827700000009
 20
57.20032300000003
 10
-76.97982300000012
 20
56.89405099999999
 10
-76.88515899999993
 20
56.60000000000001
 10
-76.77500700000019
 20
56.32040899999992
 10
-76.65020400000003
 20
56.05740700000001
 10
-76.5117009999999
 20
55.81299399999999
 10
-76.36055099999976
 20
55.58903099999998
 10
-76.1979040000001
 20
55.38722200000006
 10
-76.02500000000009
 20
55.20910300000003
 10
-75.8431529999998
 20
55.05602999999997
 10
-75.65374700000029
 20
54.929168
 10
-75.45822499999984
 20
54.82948199999999
 10
-75.25807299999995
 20
54.75773000000003
 10
-75.05481599999985
 20
54.71446000000003
 10
-74.84999999999991
 20
54.70000000000005
 10
-74.64518399999997
 20
54.71446000000003
 10
-74.44192699999985
 20
54.75773000000003
 10
-74.24177499999995
 20
54.82948199999999
 10
-74.04625200000009
 20
54.929168
 10
-73.85684700000002
 20
55.05602999999997
 10
-73.6750000000002
 20
55.20910300000003
 10
-73.50209499999983
 20
55.38722200000006
 10
-73.33944900000004
 20
55.58903099999998
 10
-73.1882989999999
 20
55.81299399999999
 10
-73.04979499999991
 20
56.05740700000001
 10
-72.9249920000002
 20
56.32040899999992
 10
-72.81484
 20
56.60000000000001
 10
-72.72017700000015
 20
56.89405099999999
 10
-72.6417220000003
 20
57.20032300000003
 10
-72.58007399999995
 20
57.51648799999998
 10
-72.53570200000012
 20
57.84013700000002
 10
-72.50894199999994
 20
58.16880800000001
 10
-72.5
 20
58.5
 10
-72.50894199999994
 20
58.83119199999999
 10
-72.53570200000012
 20
59.15986299999997
 10
-72.58007399999995
 20
59.48351200000002
 10
-72.6417220000003
 20
59.79967600000009
 10
-72.72017700000015
 20
60.105949
 10
-72.81484
 20
60.40000000000009
 10
-72.9249920000002
 20
60.67958999999996
 10
-73.04979499999991
 20
60.94259299999999
 10
-73.1882989999999
 20
61.187006
 10
-73.33944900000004
 20
61.41096900000001
 10
-73.50209499999983
 20
61.61277800000005
 10
-73.6750000000002
 20
61.79089599999997
 10
-73.85684700000002
 20
61.94397000000003
 10
-74.04625200000009
 20
62.07083199999999
 10
-74.24177499999995
 20
62.17051800000001
 10
-74.44192699999985
 20
62.24226900000008
 10
-74.64518399999997
 20
62.28554000000007
 10
-74.84999999999991
 20
62.29999999999995
  0
LINE
  5
45E6
330
45C2
100
AcDbEntity
  8
AM_0 外形線1
100
AcDbLine
 10
-72.5
 20
52.0
 30
0.0
 11
-79.5
 21
52.0
 31
0.0
  0
LINE
  5
45E7
330
45C2
100
AcDbEntity
  8
AM_0 外形線1
100
AcDbLine
 10
-73.75
 20
54.70000000000005
 30
0.0
 11
-73.75
 21
52.0
 31
0.0
  0
LINE
  5
45E8
330
45C2
100
AcDbEntity
  8
AM_0 外形線1
100
AcDbLine
 10
-76.6999999999998
 20
54.70000000000005
 30
0.0
 11
-72.5
 21
54.70000000000005
 31
0.0
  0
ARC
  5
45E9
330
45C2
100
AcDbEntity
  8
AM_0 外形線1
100
AcDbCircle
 10
-76.6999999999998
 20
55.20000000000004
 30
0.0
 40
0.5
100
AcDbArc
 50
180.0
 51
270.0
  0
LINE
  5
45EA
330
45C2
100
AcDbEntity
  8
AM_0 外形線1
100
AcDbLine
 10
-77.19999999999981
 20
61.79999999999996
 30
0.0
 11
-77.19999999999981
 21
55.20000000000004
 31
0.0
  0
ARC
  5
45EB
330
45C2
100
AcDbEntity
  8
AM_0 外形線1
100
AcDbCircle
 10
-76.6999999999998
 20
61.79999999999996
 30
0.0
 40
0.5
100
AcDbArc
 50
90.0
 51
180.0
  0
LINE
  5
45EC
330
45C2
100
AcDbEntity
  8
AM_0 外形線1
100
AcDbLine
 10
-72.5
 20
62.29999999999995
 30
0.0
 11
-76.6999999999998
 21
62.29999999999995
 31
0.0
  0
LINE
  5
45ED
330
45C2
100
AcDbEntity
  8
AM_0 外形線1
100
AcDbLine
 10
-73.75
 20
65.0
 30
0.0
 11
-73.75
 21
62.29999999999995
 31
0.0
  0
LINE
  5
45EE
330
45C2
100
AcDbEntity
  8
AM_0 外形線1
100
AcDbLine
 10
111.0
 20
15.0
 30
0.0
 11
0.0
 21
15.0
 31
0.0
  0
LINE
  5
45EF
330
45C2
100
AcDbEntity
  8
AM_0 外形線1
100
AcDbLine
 10
83.0
 20
65.0
 30
0.0
 11
0.0
 21
65.0
 31
0.0
  0
LINE
  5
45F0
330
45C2
100
AcDbEntity
  8
AM_0 外形線1
100
AcDbLine
 10
87.0
 20
18.0
 30
0.0
 11
87.0
 21
61.0
 31
0.0
  0
ARC
  5
45F1
330
45C2
100
AcDbEntity
  8
AM_0 外形線1
100
AcDbCircle
 10
90.0
 20
18.0
 30
0.0
 40
3.0
100
AcDbArc
 50
180.0
 51
270.0
  0
LINE
  5
45F2
330
45C2
100
AcDbEntity
  8
AM_0 外形線1
100
AcDbLine
 10
112.0
 20
1.0
 30
0.0
 11
112.0
 21
14.0
 31
0.0
  0
LINE
  5
45F3
330
45C2
100
AcDbEntity
  8
AM_0 外形線1
100
AcDbLine
 10
111.0
 20
0.0
 30
0.0
 11
112.0
 21
1.0
 31
0.0
  0
LINE
  5
45F4
330
45C2
100
AcDbEntity
  8
AM_0 外形線1
100
AcDbLine
 10
112.0
 20
14.0
 30
0.0
 11
111.0
 21
15.0
 31
0.0
  0
ARC
  5
45F5
330
45C2
100
AcDbEntity
  8
AM_0 外形線1
100
AcDbCircle
 10
83.0
 20
61.0
 30
0.0
 40
4.0
100
AcDbArc
 50
0.0
 51
90.0
  0
LINE
  5
45F6
330
45C2
100
AcDbEntity
  8
AM_0 外形線1
100
AcDbLine
 10
-86.5
 20
51.5
 30
0.0
 11
-86.5
 21
55.0
 31
0.0
  0
LINE
  5
45F7
330
45C2
100
AcDbEntity
  8
AM_0 外形線1
100
AcDbLine
 10
-86.5
 20
44.0
 30
0.0
 11
-86.5
 21
47.5
 31
0.0
  0
LINE
  5
45F8
330
45C2
100
AcDbEntity
  8
AM_0 外形線1
100
AcDbLine
 10
-87.0
 20
55.0
 30
0.0
 11
-86.5
 21
55.0
 31
0.0
  0
LINE
  5
45F9
330
45C2
100
AcDbEntity
  8
AM_0 外形線1
100
AcDbLine
 10
-82.44999999999981
 20
51.14999999999998
 30
0.0
 11
-80.48868599666411
 21
51.15000000000009
 31
0.0
  0
LINE
  5
45FA
330
45C2
100
AcDbEntity
  8
AM_4 細線
100
AcDbLine
 10
-82.8000000000002
 20
51.5
 30
0.0
 11
-80.36602540378453
 21
51.5
 31
0.0
  0
LINE
  5
45FB
330
45C2
100
AcDbEntity
  8
AM_0 外形線1
100
AcDbLine
 10
-80.48868599666411
 20
47.8499999999999
 30
0.0
 11
-82.44999999999981
 21
47.85000000000001
 31
0.0
  0
LINE
  5
45FC
330
45C2
100
AcDbEntity
  8
AM_4 細線
100
AcDbLine
 10
-80.36602540378453
 20
47.5
 30
0.0
 11
-82.8000000000002
 21
47.5
 31
0.0
  0
LINE
  5
45FD
330
45C2
100
AcDbEntity
  8
AM_0 外形線1
100
AcDbLine
 10
-87.0
 20
54.5
 30
0.0
 11
-87.0
 21
61.0
 31
0.0
  0
INSERT
  5
45FE
330
45C2
100
AcDbEntity
  8
AM_0 外形線1
100
AcDbBlockReference
  2
ジュウジマルコネジ
 10
-87.30000000000019
 20
49.5
 30
0.0
  0
LINE
  5
467B
330
45C2
100
AcDbEntity
  8
AM_0 外形線1
100
AcDbLine
 10
-85.0
 20
0.5
 30
0.0
 11
-84.99999999999992
 21
5.0
 31
0.0
  0
LINE
  5
467C
330
45C2
100
AcDbEntity
  8
AM_0 外形線1
100
AcDbLine
 10
-84.99999999999992
 20
5.0
 30
0.0
 11
-80.5
 21
5.000000000000056
 31
0.0
  0
LINE
  5
467D
330
45C2
100
AcDbEntity
  8
AM_0 外形線1
100
AcDbLine
 10
111.0
 20
0.0
 30
0.0
 11
0.0
 21
0.0
 31
0.0
  0
LINE
  5
5339
330
45C2
100
AcDbEntity
  8
AM_0 外形線1
100
AcDbLine
 10
-87.0
 20
44.0
 30
0.0
 11
-86.5
 21
44.0
 31
0.0
  0
ENDBLK
  5
45C4
330
45C2
100
AcDbEntity
  8
0
100
AcDbBlockEnd
  0
BLOCK
  5
46D4
330
46D3
100
AcDbEntity
  8
0
100
AcDbBlockBegin
  2
リーマボルト SMVH224 M10
 70
     0
 10
0.0
 20
0.0
 30
0.0
  3
リーマボルト SMVH224 M10
  1

  0
ARC
  5
46D6
330
46D3
100
AcDbEntity
  8
AM_0 外形線1
100
AcDbCircle
 10
7.353739000000132
 20
-2.638210999999954
 30
0.0
 40
4.361788999999999
100
AcDbArc
 50
235.8861589999972
 51
304.1138410000028
  0
LINE
  5
46D7
330
46D3
100
AcDbEntity
  8
AM_0 外形線1
100
AcDbLine
 10
8.5
 20
-7.0
 30
0.0
 11
-8.5
 21
-7.0
 31
0.0
  0
ARC
  5
46D8
330
46D3
100
AcDbEntity
  8
AM_0 外形線1
100
AcDbCircle
 10
-7.353737999999792
 20
-2.638210999999954
 30
0.0
 40
4.361788999999999
100
AcDbArc
 50
235.8861589999972
 51
304.1138410000028
  0
LINE
  5
46D9
330
46D3
100
AcDbEntity
  8
AM_0 外形線1
100
AcDbLine
 10
-9.80000000000018
 20
-6.249444999999981
 30
0.0
 11
-9.80000000000018
 21
0.0
 31
0.0
  0
LINE
  5
46DA
330
46D3
100
AcDbEntity
  8
AM_0 外形線1
100
AcDbLine
 10
-8.5
 20
-7.0
 30
0.0
 11
-9.80000000000018
 21
-6.249444999999981
 31
0.0
  0
ARC
  5
46DB
330
46D3
100
AcDbEntity
  8
AM_0 外形線1
100
AcDbCircle
 10
0.0
 20
9.418953000000042
 30
0.0
 40
16.418953
100
AcDbArc
 50
252.6089940000013
 51
287.3910059999987
  0
LINE
  5
46DC
330
46D3
100
AcDbEntity
  8
AM_0 外形線1
100
AcDbLine
 10
-4.907476999999744
 20
0.0
 30
0.0
 11
-4.907476999999744
 21
-6.249444999999981
 31
0.0
  0
LINE
  5
46DD
330
46D3
100
AcDbEntity
  8
AM_0 外形線1
100
AcDbLine
 10
4.907476999999744
 20
0.0
 30
0.0
 11
4.907476999999744
 21
-6.249444999999981
 31
0.0
  0
LINE
  5
46DE
330
46D3
100
AcDbEntity
  8
AM_0 外形線1
100
AcDbLine
 10
9.80000000000018
 20
-6.249444999999981
 30
0.0
 11
8.5
 21
-7.0
 31
0.0
  0
LINE
  5
46DF
330
46D3
100
AcDbEntity
  8
AM_0 外形線1
100
AcDbLine
 10
9.80000000000018
 20
0.0
 30
0.0
 11
9.80000000000018
 21
-6.249444999999981
 31
0.0
  0
LINE
  5
46E0
330
46D3
100
AcDbEntity
  8
AM_4 細線
100
AcDbLine
 10
-4.25
 20
40.49999999999999
 30
0.0
 11
-4.25
 21
44.75
 31
0.0
  0
LINE
  5
46E1
330
46D3
100
AcDbEntity
  8
AM_4 細線
100
AcDbLine
 10
4.25
 20
40.49999999999999
 30
0.0
 11
4.25
 21
44.75
 31
0.0
  0
LINE
  5
46E2
330
46D3
100
AcDbEntity
  8
AM_0 外形線1
100
AcDbLine
 10
-5.0
 20
44.0
 30
0.0
 11
-5.0
 21
40.49999999999999
 31
0.0
  0
LINE
  5
46E3
330
46D3
100
AcDbEntity
  8
AM_0 外形線1
100
AcDbLine
 10
5.0
 20
40.49999999999999
 30
0.0
 11
5.0
 21
44.0
 31
0.0
  0
ARC
  5
46E4
330
46D3
100
AcDbEntity
  8
AM_0 外形線1
100
AcDbCircle
 10
7.353739000000132
 20
36.13821099999996
 30
0.0
 40
4.361788999999999
100
AcDbArc
 50
55.88615899999718
 51
124.1138410000028
  0
LINE
  5
46E5
330
46D3
100
AcDbEntity
  8
AM_0 外形線1
100
AcDbLine
 10
-9.80000000000018
 20
32.5
 30
0.0
 11
9.80000000000018
 21
32.5
 31
0.0
  0
LINE
  5
46E6
330
46D3
100
AcDbEntity
  8
AM_0 外形線1
100
AcDbLine
 10
8.5
 20
40.49999999999999
 30
0.0
 11
-8.5
 21
40.49999999999999
 31
0.0
  0
ARC
  5
46E7
330
46D3
100
AcDbEntity
  8
AM_0 外形線1
100
AcDbCircle
 10
-7.353737999999792
 20
36.13821099999996
 30
0.0
 40
4.361788999999999
100
AcDbArc
 50
55.88615899999718
 51
124.1138410000028
  0
LINE
  5
46E8
330
46D3
100
AcDbEntity
  8
AM_0 外形線1
100
AcDbLine
 10
-9.80000000000018
 20
39.74944500000004
 30
0.0
 11
-9.80000000000018
 21
32.5
 31
0.0
  0
LINE
  5
46E9
330
46D3
100
AcDbEntity
  8
AM_0 外形線1
100
AcDbLine
 10
-8.5
 20
40.49999999999999
 30
0.0
 11
-9.80000000000018
 21
39.74944500000004
 31
0.0
  0
LINE
  5
46EA
330
46D3
100
AcDbEntity
  8
AM_0 外形線1
100
AcDbLine
 10
-9.199999999999818
 20
30.0
 30
0.0
 11
-9.199999999999818
 21
32.5
 31
0.0
  0
LINE
  5
46EB
330
46D3
100
AcDbEntity
  8
AM_0 外形線1
100
AcDbLine
 10
-0.8333330000000387
 20
32.5
 30
0.0
 11
1.666666999999961
 21
30.0
 31
0.0
  0
LINE
  5
46EC
330
46D3
100
AcDbEntity
  8
AM_0 外形線1
100
AcDbLine
 10
-1.666666000000076
 20
32.5
 30
0.0
 11
0.8333339999999225
 21
30.0
 31
0.0
  0
LINE
  5
46ED
330
46D3
100
AcDbEntity
  8
AM_0 外形線1
100
AcDbLine
 10
-4.907476999999744
 20
32.5
 30
0.0
 11
-4.907476999999744
 21
39.74944500000004
 31
0.0
  0
LINE
  5
46EE
330
46D3
100
AcDbEntity
  8
AM_0 外形線1
100
AcDbLine
 10
4.907476999999744
 20
32.5
 30
0.0
 11
4.907476999999744
 21
39.74944500000004
 31
0.0
  0
ARC
  5
46EF
330
46D3
100
AcDbEntity
  8
AM_0 外形線1
100
AcDbCircle
 10
0.0
 20
24.08104600000001
 30
0.0
 40
16.418953
100
AcDbArc
 50
72.60899400000133
 51
107.3910059999987
  0
LINE
  5
46F0
330
46D3
100
AcDbEntity
  8
AM_0 外形線1
100
AcDbLine
 10
9.80000000000018
 20
39.74944500000004
 30
0.0
 11
8.5
 21
40.49999999999999
 31
0.0
  0
LINE
  5
46F1
330
46D3
100
AcDbEntity
  8
AM_0 外形線1
100
AcDbLine
 10
9.80000000000018
 20
32.5
 30
0.0
 11
9.80000000000018
 21
39.74944500000004
 31
0.0
  0
LINE
  5
46F2
330
46D3
100
AcDbEntity
  8
AM_0 外形線1
100
AcDbLine
 10
9.199999999999818
 20
32.5
 30
0.0
 11
9.199999999999818
 21
30.0
 31
0.0
  0
LINE
  5
46F3
330
46D3
100
AcDbEntity
  8
AM_0 外形線1
100
AcDbLine
 10
5.0
 20
44.0
 30
0.0
 11
-5.0
 21
44.0
 31
0.0
  0
LINE
  5
46F4
330
46D3
100
AcDbEntity
  8
AM_0 外形線1
100
AcDbLine
 10
-4.0
 20
45.0
 30
0.0
 11
-5.0
 21
44.0
 31
0.0
  0
LINE
  5
46F5
330
46D3
100
AcDbEntity
  8
AM_0 外形線1
100
AcDbLine
 10
4.0
 20
45.0
 30
0.0
 11
-4.0
 21
45.0
 31
0.0
  0
LINE
  5
46F6
330
46D3
100
AcDbEntity
  8
AM_0 外形線1
100
AcDbLine
 10
5.0
 20
44.0
 30
0.0
 11
4.0
 21
45.0
 31
0.0
  0
LINE
  5
4740
330
46D3
100
AcDbEntity
  8
AM_0 外形線1
100
AcDbLine
 10
9.199999999999818
 20
30.0
 30
0.0
 11
-9.199999999999818
 21
30.0
 31
0.0
  0
LINE
  5
4741
330
46D3
100
AcDbEntity
  8
AM_0 外形線1
100
AcDbLine
 10
-9.80000000000018
 20
0.0
 30
0.0
 11
9.80000000000018
 21
0.0
 31
0.0
  0
ENDBLK
  5
46D5
330
46D3
100
AcDbEntity
  8
0
100
AcDbBlockEnd
  0
BLOCK
  5
4760
330
475F
100
AcDbEntity
  8
0
100
AcDbBlockBegin
  2
スラストプレ－ト SMVH224
 70
     0
 10
0.0
 20
0.0
 30
0.0
  3
スラストプレ－ト SMVH224
  1

  0
LINE
  5
4762
330
475F
100
AcDbEntity
  8
AM_0 外形線1
100
AcDbLine
 10
-76.0
 20
11.0
 30
0.0
 11
-85.0
 21
11.0
 31
0.0
  0
LINE
  5
4763
330
475F
100
AcDbEntity
  8
AM_0 外形線1
100
AcDbLine
 10
-80.0
 20
6.0
 30
0.0
 11
-85.0
 21
6.0
 31
0.0
  0
LINE
  5
4764
330
475F
100
AcDbEntity
  8
AM_0 外形線1
100
AcDbLine
 10
-80.0
 20
6.0
 30
0.0
 11
-80.0
 21
1.0
 31
0.0
  0
LINE
  5
4765
330
475F
100
AcDbEntity
  8
AM_0 外形線1
100
AcDbLine
 10
-66.0
 20
1.0
 30
0.0
 11
-80.0
 21
1.0
 31
0.0
  0
LINE
  5
4766
330
475F
100
AcDbEntity
  8
AM_0 外形線1
100
AcDbLine
 10
0.0
 20
8.0
 30
0.0
 11
-76.0
 21
8.0
 31
0.0
  0
LINE
  5
4767
330
475F
100
AcDbEntity
  8
AM_0 外形線1
100
AcDbLine
 10
-76.0
 20
11.0
 30
0.0
 11
-76.0
 21
8.0
 31
0.0
  0
ARC
  5
4768
330
475F
100
AcDbEntity
  8
AM_0 外形線1
100
AcDbCircle
 10
-65.0
 20
1.0
 30
0.0
 40
1.0
100
AcDbArc
 50
180.0
 51
270.0
  0
LINE
  5
4769
330
475F
100
AcDbEntity
  8
AM_0 外形線1
100
AcDbLine
 10
-56.0
 20
1.0
 30
0.0
 11
-56.0
 21
0.0
 31
0.0
  0
LINE
  5
476A
330
475F
100
AcDbEntity
  8
AM_0 外形線1
100
AcDbLine
 10
0.0
 20
1.0
 30
0.0
 11
-56.0
 21
1.0
 31
0.0
  0
LINE
  5
4784
330
475F
100
AcDbEntity
  8
AM_0 外形線1
100
AcDbLine
 10
-65.0
 20
0.0
 30
0.0
 11
-56.0
 21
0.0
 31
0.0
  0
LINE
  5
4785
330
475F
100
AcDbEntity
  8
AM_0 外形線1
100
AcDbLine
 10
-85.0
 20
6.0
 30
0.0
 11
-85.00000000000012
 21
11.0
 31
0.0
  0
ENDBLK
  5
4761
330
475F
100
AcDbEntity
  8
0
100
AcDbBlockEnd
  0
BLOCK
  5
4902
330
4901
100
AcDbEntity
  8
0
100
AcDbBlockBegin
  2
*D14
 70
     1
 10
0.0
 20
0.0
 30
0.0
  3
*D14
  1

  0
LINE
  5
503C
330
4901
100
AcDbEntity
  8
AM_5 寸法線
 62
     3
100
AcDbLine
 10
470.6792059999997
 20
387.08730144621
 30
0.0
 11
470.6792059999997
 21
283.5873014462099
 31
0.0
  0
LINE
  5
503D
330
4901
100
AcDbEntity
  8
AM_5 寸法線
 62
     3
100
AcDbLine
 10
615.6792059999998
 20
387.08730144621
 30
0.0
 11
615.6792059999998
 21
283.5873014462099
 31
0.0
  0
LINE
  5
503E
330
4901
100
AcDbEntity
  8
AM_5 寸法線
 62
     3
100
AcDbLine
 10
476.9292059999997
 20
285.1498014462099
 30
0.0
 11
609.4292059999998
 21
285.1498014462099
 31
0.0
  0
INSERT
  5
503F
330
4901
100
AcDbEntity
  8
AM_5 寸法線
 62
     3
100
AcDbBlockReference
  2
_Open30
 10
470.6792059999997
 20
285.1498014462099
 30
0.0
 41
6.25
 42
6.25
 43
6.25
 50
180.0
  0
INSERT
  5
5040
330
4901
100
AcDbEntity
  8
AM_5 寸法線
 62
     3
100
AcDbBlockReference
  2
_Open30
 10
615.6792059999998
 20
285.1498014462099
 30
0.0
 41
6.25
 42
6.25
 43
6.25
  0
MTEXT
  5
5041
330
4901
100
AcDbEntity
  8
AM_5 寸法線
 62
     3
100
AcDbMText
 10
543.1792059999998
 20
293.27480144621
 30
0.0
 40
8.75
 41
0.0
 46
0.0
 71
     5
 72
     1
  1
%%c145
  7
SEISA
 73
     1
 44
1.0
  0
POINT
  5
5042
330
4901
100
AcDbEntity
  8
Defpoints
 62
     0
100
AcDbPoint
 10
470.6792059999997
 20
388.64980144621
 30
0.0
  0
POINT
  5
5043
330
4901
100
AcDbEntity
  8
Defpoints
 62
     0
100
AcDbPoint
 10
615.6792059999998
 20
388.64980144621
 30
0.0
  0
POINT
  5
5044
330
4901
100
AcDbEntity
  8
Defpoints
 62
     0
100
AcDbPoint
 10
615.6792059999998
 20
285.1498014462099
 30
0.0
  0
ENDBLK
  5
4903
330
4901
100
AcDbEntity
  8
0
100
AcDbBlockEnd
  0
BLOCK
  5
491F
330
491E
100
AcDbEntity
  8
0
100
AcDbBlockBegin
  2
*D15
 70
     1
 10
0.0
 20
0.0
 30
0.0
  3
*D15
  1

  0
LINE
  5
53FE
330
491E
100
AcDbEntity
  8
AM_5 寸法線
 62
     3
100
AcDbLine
 10
655.7417059999997
 20
450.6498014462098
 30
0.0
 11
694.2417059999999
 21
450.6498014462098
 31
0.0
  0
LINE
  5
53FF
330
491E
100
AcDbEntity
  8
AM_5 寸法線
 62
     3
100
AcDbLine
 10
655.7417059999997
 20
465.6498014462099
 30
0.0
 11
694.2417059999999
 21
465.6498014462099
 31
0.0
  0
LINE
  5
5400
330
491E
100
AcDbEntity
  8
AM_5 寸法線
 62
     3
100
AcDbLine
 10
692.6792059999999
 20
471.8998014462099
 30
0.0
 11
692.6792059999999
 21
478.1498014462099
 31
0.0
  0
LINE
  5
5401
330
491E
100
AcDbEntity
  8
AM_5 寸法線
 62
     3
100
AcDbLine
 10
692.6792059999999
 20
444.3998014462098
 30
0.0
 11
692.6792059999999
 21
419.0248014462098
 31
0.0
  0
LINE
  5
5402
330
491E
100
AcDbEntity
  8
AM_5 寸法線
 62
     3
100
AcDbLine
 10
692.6792059999999
 20
465.6498014462099
 30
0.0
 11
692.6792059999999
 21
450.6498014462098
 31
0.0
  0
INSERT
  5
5403
330
491E
100
AcDbEntity
  8
AM_5 寸法線
 62
     3
100
AcDbBlockReference
  2
GENDOT
 10
692.6792059999999
 20
465.6498014462099
 30
0.0
 41
6.25
 42
6.25
 43
6.25
 50
270.0
  0
INSERT
  5
5404
330
491E
100
AcDbEntity
  8
AM_5 寸法線
 62
     3
100
AcDbBlockReference
  2
_Open30
 10
692.6792059999999
 20
450.6498014462098
 30
0.0
 41
6.25
 42
6.25
 43
6.25
 50
90.0
  0
MTEXT
  5
5405
330
491E
100
AcDbEntity
  8
AM_5 寸法線
 62
     3
100
AcDbMText
 10
684.5542059999997
 20
428.58730144621
 30
0.0
 40
8.75
 41
0.0
 46
0.0
 71
     5
 72
     1
  1
15
  7
SEISA
 11
0.0000000000000001
 21
1.0
 31
0.0
 73
     1
 44
1.0
  0
POINT
  5
5406
330
491E
100
AcDbEntity
  8
Defpoints
 62
     0
100
AcDbPoint
 10
654.1792059999997
 20
450.6498014462098
 30
0.0
  0
POINT
  5
5407
330
491E
100
AcDbEntity
  8
Defpoints
 62
     0
100
AcDbPoint
 10
654.1792059999997
 20
465.6498014462099
 30
0.0
  0
POINT
  5
5408
330
491E
100
AcDbEntity
  8
Defpoints
 62
     0
100
AcDbPoint
 10
692.6792059999999
 20
465.6498014462099
 30
0.0
  0
ENDBLK
  5
4920
330
491E
100
AcDbEntity
  8
0
100
AcDbBlockEnd
  0
BLOCK
  5
493B
330
493A
100
AcDbEntity
  8
0
100
AcDbBlockBegin
  2
*D16
 70
     1
 10
0.0
 20
0.0
 30
0.0
  3
*D16
  1

  0
LINE
  5
53E8
330
493A
100
AcDbEntity
  8
AM_5 寸法線
 62
     3
100
AcDbLine
 10
655.7417059999997
 20
465.6498014462099
 30
0.0
 11
694.2417060000003
 21
465.6498014462099
 31
0.0
  0
LINE
  5
53E9
330
493A
100
AcDbEntity
  8
AM_5 寸法線
 62
     3
100
AcDbLine
 10
655.7417059999997
 20
480.6498014462099
 30
0.0
 11
694.2417060000003
 21
480.6498014462099
 31
0.0
  0
LINE
  5
53EA
330
493A
100
AcDbEntity
  8
AM_5 寸法線
 62
     3
100
AcDbLine
 10
692.6792060000003
 20
459.3998014462099
 30
0.0
 11
692.6792060000003
 21
453.1498014462099
 31
0.0
  0
LINE
  5
53EB
330
493A
100
AcDbEntity
  8
AM_5 寸法線
 62
     3
100
AcDbLine
 10
692.6792060000003
 20
486.8998014462099
 30
0.0
 11
692.6792060000003
 21
512.2748014462099
 31
0.0
  0
LINE
  5
53EC
330
493A
100
AcDbEntity
  8
AM_5 寸法線
 62
     3
100
AcDbLine
 10
692.6792060000003
 20
465.6498014462099
 30
0.0
 11
692.6792060000003
 21
480.6498014462099
 31
0.0
  0
INSERT
  5
53ED
330
493A
100
AcDbEntity
  8
AM_5 寸法線
 62
     3
100
AcDbBlockReference
  2
GENDOT
 10
692.6792060000003
 20
465.6498014462099
 30
0.0
 41
6.25
 42
6.25
 43
6.25
 50
90.0
  0
INSERT
  5
53EE
330
493A
100
AcDbEntity
  8
AM_5 寸法線
 62
     3
100
AcDbBlockReference
  2
_Open30
 10
692.6792060000003
 20
480.6498014462099
 30
0.0
 41
6.25
 42
6.25
 43
6.25
 50
270.0
  0
MTEXT
  5
53EF
330
493A
100
AcDbEntity
  8
AM_5 寸法線
 62
     3
100
AcDbMText
 10
684.5542060000001
 20
502.7123014462099
 30
0.0
 40
8.75
 41
0.0
 46
0.0
 71
     5
 72
     1
  1
15
  7
SEISA
 11
0.0000000000000001
 21
1.0
 31
0.0
 73
     1
 44
1.0
  0
POINT
  5
53F0
330
493A
100
AcDbEntity
  8
Defpoints
 62
     0
100
AcDbPoint
 10
654.1792059999997
 20
465.6498014462099
 30
0.0
  0
POINT
  5
53F1
330
493A
100
AcDbEntity
  8
Defpoints
 62
     0
100
AcDbPoint
 10
654.1792059999997
 20
480.6498014462099
 30
0.0
  0
POINT
  5
53F2
330
493A
100
AcDbEntity
  8
Defpoints
 62
     0
100
AcDbPoint
 10
692.6792060000003
 20
480.6498014462099
 30
0.0
  0
ENDBLK
  5
493C
330
493A
100
AcDbEntity
  8
0
100
AcDbBlockEnd
  0
BLOCK
  5
4985
330
4984
100
AcDbEntity
  8
0
100
AcDbBlockBegin
  2
*D17
 70
     1
 10
0.0
 20
0.0
 30
0.0
  3
*D17
  1

  0
LINE
  5
58E6
330
4984
100
AcDbEntity
  8
AM_5 寸法線
 62
     3
100
AcDbLine
 10
627.7417059999997
 20
400.6498014462098
 30
0.0
 11
719.2417059999996
 21
400.6498014462097
 31
0.0
  0
LINE
  5
58E7
330
4984
100
AcDbEntity
  8
AM_5 寸法線
 62
     3
100
AcDbLine
 10
627.7417059999997
 20
530.6498014462098
 30
0.0
 11
719.2417059999996
 21
530.6498014462098
 31
0.0
  0
LINE
  5
58E8
330
4984
100
AcDbEntity
  8
AM_5 寸法線
 62
     3
100
AcDbLine
 10
717.6792059999996
 20
406.8998014462097
 30
0.0
 11
717.6792059999996
 21
524.3998014462098
 31
0.0
  0
INSERT
  5
58E9
330
4984
100
AcDbEntity
  8
AM_5 寸法線
 62
     3
100
AcDbBlockReference
  2
_Open30
 10
717.6792059999996
 20
400.6498014462097
 30
0.0
 41
6.25
 42
6.25
 43
6.25
 50
270.0
  0
INSERT
  5
58EA
330
4984
100
AcDbEntity
  8
AM_5 寸法線
 62
     3
100
AcDbBlockReference
  2
_Open30
 10
717.6792059999996
 20
530.6498014462098
 30
0.0
 41
6.25
 42
6.25
 43
6.25
 50
90.0
  0
MTEXT
  5
58EB
330
4984
100
AcDbEntity
  8
AM_5 寸法線
 62
     3
100
AcDbMText
 10
709.5542059999996
 20
465.6498014462099
 30
0.0
 40
8.75
 41
0.0
 46
0.0
 71
     5
 72
     1
  1
130
  7
SEISA
 11
0.0000000000000001
 21
1.0
 31
0.0
 73
     1
 44
1.0
  0
POINT
  5
58EC
330
4984
100
AcDbEntity
  8
Defpoints
 62
     0
100
AcDbPoint
 10
626.1792059999997
 20
400.6498014462098
 30
0.0
  0
POINT
  5
58ED
330
4984
100
AcDbEntity
  8
Defpoints
 62
     0
100
AcDbPoint
 10
626.1792059999997
 20
530.6498014462098
 30
0.0
  0
POINT
  5
58EE
330
4984
100
AcDbEntity
  8
Defpoints
 62
     0
100
AcDbPoint
 10
717.6792059999996
 20
530.6498014462098
 30
0.0
  0
ENDBLK
  5
4986
330
4984
100
AcDbEntity
  8
0
100
AcDbBlockEnd
  0
BLOCK
  5
4A01
330
4A00
100
AcDbEntity
  8
0
100
AcDbBlockBegin
  2
*D18
 70
     1
 10
0.0
 20
0.0
 30
0.0
  3
*D18
  1

  0
LINE
  5
5093
330
4A00
100
AcDbEntity
  8
AM_5 寸法線
 62
     3
100
AcDbLine
 10
612.6417059999997
 20
347.6498014462099
 30
0.0
 11
744.2417059999996
 21
347.6498014462099
 31
0.0
  0
LINE
  5
5094
330
4A00
100
AcDbEntity
  8
AM_5 寸法線
 62
     3
100
AcDbLine
 10
612.6417059999997
 20
583.6498014462098
 30
0.0
 11
744.2417059999996
 21
583.6498014462098
 31
0.0
  0
LINE
  5
5095
330
4A00
100
AcDbEntity
  8
AM_5 寸法線
 62
     3
100
AcDbLine
 10
742.6792059999996
 20
353.8998014462099
 30
0.0
 11
742.6792059999996
 21
577.3998014462098
 31
0.0
  0
INSERT
  5
5096
330
4A00
100
AcDbEntity
  8
AM_5 寸法線
 62
     3
100
AcDbBlockReference
  2
_Open30
 10
742.6792059999996
 20
347.6498014462099
 30
0.0
 41
6.25
 42
6.25
 43
6.25
 50
270.0
  0
INSERT
  5
5097
330
4A00
100
AcDbEntity
  8
AM_5 寸法線
 62
     3
100
AcDbBlockReference
  2
_Open30
 10
742.6792059999996
 20
583.6498014462098
 30
0.0
 41
6.25
 42
6.25
 43
6.25
 50
90.0
  0
MTEXT
  5
5098
330
4A00
100
AcDbEntity
  8
AM_5 寸法線
 62
     3
100
AcDbMText
 10
734.5542059999996
 20
465.6498014462099
 30
0.0
 40
8.75
 41
0.0
 46
0.0
 71
     5
 72
     1
  1
236
  7
SEISA
 11
0.0000000000000001
 21
1.0
 31
0.0
 73
     1
 44
1.0
  0
POINT
  5
5099
330
4A00
100
AcDbEntity
  8
Defpoints
 62
     0
100
AcDbPoint
 10
611.0792059999997
 20
347.6498014462099
 30
0.0
  0
POINT
  5
509A
330
4A00
100
AcDbEntity
  8
Defpoints
 62
     0
100
AcDbPoint
 10
611.0792059999997
 20
583.6498014462098
 30
0.0
  0
POINT
  5
509B
330
4A00
100
AcDbEntity
  8
Defpoints
 62
     0
100
AcDbPoint
 10
742.6792059999996
 20
583.6498014462098
 30
0.0
  0
ENDBLK
  5
4A02
330
4A00
100
AcDbEntity
  8
0
100
AcDbBlockEnd
  0
BLOCK
  5
4AEE
330
4AED
100
AcDbEntity
  8
0
100
AcDbBlockBegin
  2
*D19
 70
     1
 10
0.0
 20
0.0
 30
0.0
  3
*D19
  1

  0
LINE
  5
50B0
330
4AED
100
AcDbEntity
  8
AM_5 寸法線
 62
     3
100
AcDbLine
 10
431.1792059999998
 20
481.2123014462098
 30
0.0
 11
431.1792059999998
 21
697.7123014462098
 31
0.0
  0
LINE
  5
50B1
330
4AED
100
AcDbEntity
  8
AM_5 寸法線
 62
     3
100
AcDbLine
 10
655.1792059999997
 20
481.2123014462098
 30
0.0
 11
655.1792059999997
 21
697.7123014462098
 31
0.0
  0
LINE
  5
50B2
330
4AED
100
AcDbEntity
  8
AM_5 寸法線
 62
     3
100
AcDbLine
 10
437.4292059999998
 20
696.1498014462098
 30
0.0
 11
648.9292059999997
 21
696.1498014462098
 31
0.0
  0
INSERT
  5
50B3
330
4AED
100
AcDbEntity
  8
AM_5 寸法線
 62
     3
100
AcDbBlockReference
  2
_Open30
 10
431.1792059999998
 20
696.1498014462098
 30
0.0
 41
6.25
 42
6.25
 43
6.25
 50
180.0
  0
INSERT
  5
50B4
330
4AED
100
AcDbEntity
  8
AM_5 寸法線
 62
     3
100
AcDbBlockReference
  2
_Open30
 10
655.1792059999997
 20
696.1498014462098
 30
0.0
 41
6.25
 42
6.25
 43
6.25
  0
MTEXT
  5
50B5
330
4AED
100
AcDbEntity
  8
AM_5 寸法線
 62
     3
100
AcDbMText
 10
543.1792059999998
 20
704.2748014462098
 30
0.0
 40
8.75
 41
0.0
 46
0.0
 71
     5
 72
     1
  1
%%c224
  7
SEISA
 73
     1
 44
1.0
  0
POINT
  5
50B6
330
4AED
100
AcDbEntity
  8
Defpoints
 62
     0
100
AcDbPoint
 10
431.1792059999998
 20
479.6498014462098
 30
0.0
  0
POINT
  5
50B7
330
4AED
100
AcDbEntity
  8
Defpoints
 62
     0
100
AcDbPoint
 10
655.1792059999997
 20
479.6498014462098
 30
0.0
  0
POINT
  5
50B8
330
4AED
100
AcDbEntity
  8
Defpoints
 62
     0
100
AcDbPoint
 10
655.1792059999997
 20
696.1498014462098
 30
0.0
  0
ENDBLK
  5
4AEF
330
4AED
100
AcDbEntity
  8
0
100
AcDbBlockEnd
  0
BLOCK
  5
4B06
330
4B05
100
AcDbEntity
  8
0
100
AcDbBlockBegin
  2
*D20
 70
     1
 10
0.0
 20
0.0
 30
0.0
  3
*D20
  1

  0
LINE
  5
50B9
330
4B05
100
AcDbEntity
  8
AM_5 寸法線
 62
     3
100
AcDbLine
 10
456.1792059999998
 20
528.2123014462098
 30
0.0
 11
456.1792059999998
 21
672.7123014462098
 31
0.0
  0
LINE
  5
50BA
330
4B05
100
AcDbEntity
  8
AM_5 寸法線
 62
     3
100
AcDbLine
 10
630.1792059999997
 20
528.2123014462098
 30
0.0
 11
630.1792059999997
 21
672.7123014462098
 31
0.0
  0
LINE
  5
50BB
330
4B05
100
AcDbEntity
  8
AM_5 寸法線
 62
     3
100
AcDbLine
 10
462.4292059999998
 20
671.1498014462098
 30
0.0
 11
623.9292059999997
 21
671.1498014462098
 31
0.0
  0
INSERT
  5
50BC
330
4B05
100
AcDbEntity
  8
AM_5 寸法線
 62
     3
100
AcDbBlockReference
  2
_Open30
 10
456.1792059999998
 20
671.1498014462098
 30
0.0
 41
6.25
 42
6.25
 43
6.25
 50
180.0
  0
INSERT
  5
50BD
330
4B05
100
AcDbEntity
  8
AM_5 寸法線
 62
     3
100
AcDbBlockReference
  2
_Open30
 10
630.1792059999997
 20
671.1498014462098
 30
0.0
 41
6.25
 42
6.25
 43
6.25
  0
MTEXT
  5
50BE
330
4B05
100
AcDbEntity
  8
AM_5 寸法線
 62
     3
100
AcDbMText
 10
543.1792059999998
 20
679.2748014462098
 30
0.0
 40
8.75
 41
0.0
 46
0.0
 71
     5
 72
     1
  1
%%c174
  7
SEISA
 73
     1
 44
1.0
  0
POINT
  5
50BF
330
4B05
100
AcDbEntity
  8
Defpoints
 62
     0
100
AcDbPoint
 10
456.1792059999998
 20
526.6498014462098
 30
0.0
  0
POINT
  5
50C0
330
4B05
100
AcDbEntity
  8
Defpoints
 62
     0
100
AcDbPoint
 10
630.1792059999997
 20
526.6498014462098
 30
0.0
  0
POINT
  5
50C1
330
4B05
100
AcDbEntity
  8
Defpoints
 62
     0
100
AcDbPoint
 10
630.1792059999997
 20
671.1498014462098
 30
0.0
  0
ENDBLK
  5
4B07
330
4B05
100
AcDbEntity
  8
0
100
AcDbBlockEnd
  0
BLOCK
  5
4B1E
330
4B1D
100
AcDbEntity
  8
0
100
AcDbBlockBegin
  2
*D21
 70
     1
 10
0.0
 20
0.0
 30
0.0
  3
*D21
  1

  0
LINE
  5
50C2
330
4B1D
100
AcDbEntity
  8
AM_5 寸法線
 62
     3
100
AcDbLine
 10
470.6792059999997
 20
544.2123014462098
 30
0.0
 11
470.6792059999997
 21
647.7123014462098
 31
0.0
  0
LINE
  5
50C3
330
4B1D
100
AcDbEntity
  8
AM_5 寸法線
 62
     3
100
AcDbLine
 10
615.6792059999998
 20
544.2123014462098
 30
0.0
 11
615.6792059999998
 21
647.7123014462098
 31
0.0
  0
LINE
  5
50C4
330
4B1D
100
AcDbEntity
  8
AM_5 寸法線
 62
     3
100
AcDbLine
 10
476.9292059999997
 20
646.1498014462098
 30
0.0
 11
609.4292059999998
 21
646.1498014462098
 31
0.0
  0
INSERT
  5
50C5
330
4B1D
100
AcDbEntity
  8
AM_5 寸法線
 62
     3
100
AcDbBlockReference
  2
_Open30
 10
470.6792059999997
 20
646.1498014462098
 30
0.0
 41
6.25
 42
6.25
 43
6.25
 50
180.0
  0
INSERT
  5
50C6
330
4B1D
100
AcDbEntity
  8
AM_5 寸法線
 62
     3
100
AcDbBlockReference
  2
_Open30
 10
615.6792059999998
 20
646.1498014462098
 30
0.0
 41
6.25
 42
6.25
 43
6.25
  0
MTEXT
  5
50C7
330
4B1D
100
AcDbEntity
  8
AM_5 寸法線
 62
     3
100
AcDbMText
 10
543.1792059999998
 20
654.2748014462098
 30
0.0
 40
8.75
 41
0.0
 46
0.0
 71
     5
 72
     1
  1
%%c145
  7
SEISA
 73
     1
 44
1.0
  0
POINT
  5
50C8
330
4B1D
100
AcDbEntity
  8
Defpoints
 62
     0
100
AcDbPoint
 10
470.6792059999997
 20
542.6498014462098
 30
0.0
  0
POINT
  5
50C9
330
4B1D
100
AcDbEntity
  8
Defpoints
 62
     0
100
AcDbPoint
 10
615.6792059999998
 20
542.6498014462098
 30
0.0
  0
POINT
  5
50CA
330
4B1D
100
AcDbEntity
  8
Defpoints
 62
     0
100
AcDbPoint
 10
615.6792059999998
 20
646.1498014462098
 30
0.0
  0
ENDBLK
  5
4B1F
330
4B1D
100
AcDbEntity
  8
0
100
AcDbBlockEnd
  0
BLOCK
  5
4B5A
330
4B59
100
AcDbEntity
  8
0
100
AcDbBlockBegin
  2
*D22
 70
     1
 10
0.0
 20
0.0
 30
0.0
  3
*D22
  1

  0
LINE
  5
5BAA
330
4B59
100
AcDbEntity
  8
AM_5 寸法線
 62
     3
100
AcDbLine
 10
541.6167059999998
 20
347.6498014462099
 30
0.0
 11
526.4375000000001
 21
347.6498014462099
 31
0.0
  0
LINE
  5
5BAB
330
4B59
100
AcDbEntity
  8
AM_5 寸法線
 62
     3
100
AcDbLine
 10
488.7417059999997
 20
459.6498014462098
 30
0.0
 11
529.5625000000001
 21
459.6498014462098
 31
0.0
  0
LINE
  5
5BAC
330
4B59
100
AcDbEntity
  8
AM_5 寸法線
 62
     3
100
AcDbLine
 10
528.0000000000001
 20
353.8998014462099
 30
0.0
 11
528.0000000000001
 21
453.3998014462098
 31
0.0
  0
INSERT
  5
5BAD
330
4B59
100
AcDbEntity
  8
AM_5 寸法線
 62
     3
100
AcDbBlockReference
  2
_Open30
 10
528.0000000000001
 20
347.6498014462099
 30
0.0
 41
6.25
 42
6.25
 43
6.25
 50
270.0
  0
INSERT
  5
5BAE
330
4B59
100
AcDbEntity
  8
AM_5 寸法線
 62
     3
100
AcDbBlockReference
  2
_Open30
 10
528.0000000000001
 20
459.6498014462098
 30
0.0
 41
6.25
 42
6.25
 43
6.25
 50
90.0
  0
MTEXT
  5
5BAF
330
4B59
100
AcDbEntity
  8
AM_5 寸法線
 62
     3
100
AcDbMText
 10
519.875
 20
403.6498014462098
 30
0.0
 40
8.75
 41
0.0
 46
0.0
 71
     5
 72
     1
  1
112
  7
SEISA
 11
0.0000000000000001
 21
1.0
 31
0.0
 73
     1
 44
1.0
  0
POINT
  5
5BB0
330
4B59
100
AcDbEntity
  8
Defpoints
 62
     0
100
AcDbPoint
 10
543.1792059999998
 20
347.6498014462099
 30
0.0
  0
POINT
  5
5BB1
330
4B59
100
AcDbEntity
  8
Defpoints
 62
     0
100
AcDbPoint
 10
487.1792059999997
 20
459.6498014462098
 30
0.0
  0
POINT
  5
5BB2
330
4B59
100
AcDbEntity
  8
Defpoints
 62
     0
100
AcDbPoint
 10
528.0000000000001
 20
459.6498014462098
 30
0.0
  0
ENDBLK
  5
4B5B
330
4B59
100
AcDbEntity
  8
0
100
AcDbBlockEnd
  0
BLOCK
  5
4B72
330
4B71
100
AcDbEntity
  8
0
100
AcDbBlockBegin
  2
*D23
 70
     1
 10
0.0
 20
0.0
 30
0.0
  3
*D23
  1

  0
LINE
  5
5C4C
330
4B71
100
AcDbEntity
  8
AM_5 寸法線
 62
     3
100
AcDbLine
 10
488.7417059999997
 20
459.6498014462098
 30
0.0
 11
529.5625000000001
 21
459.6498014462098
 31
0.0
  0
LINE
  5
5C4D
330
4B71
100
AcDbEntity
  8
AM_5 寸法線
 62
     3
100
AcDbLine
 10
541.6167059999998
 20
471.6498014462098
 30
0.0
 11
526.4375000000001
 21
471.6498014462098
 31
0.0
  0
LINE
  5
5C4E
330
4B71
100
AcDbEntity
  8
AM_5 寸法線
 62
     3
100
AcDbLine
 10
528.0000000000001
 20
453.3998014462098
 30
0.0
 11
528.0000000000001
 21
447.1498014462098
 31
0.0
  0
LINE
  5
5C4F
330
4B71
100
AcDbEntity
  8
AM_5 寸法線
 62
     3
100
AcDbLine
 10
528.0000000000001
 20
477.8998014462098
 30
0.0
 11
528.0000000000001
 21
484.1498014462098
 31
0.0
  0
MTEXT
  5
5C50
330
4B71
100
AcDbEntity
  8
AM_5 寸法線
 62
     3
100
AcDbMText
 10
520.7252844803861
 20
485.6119639447215
 30
0.0
 40
8.75
 41
0.0
 46
0.0
 71
     5
 72
     1
  1
12
  7
SEISA
 11
0.0000000000000001
 21
1.0
 31
0.0
 73
     1
 44
1.0
  0
LINE
  5
5C51
330
4B71
100
AcDbEntity
  8
AM_5 寸法線
 62
     3
100
AcDbLine
 10
528.0000000000001
 20
459.6498014462098
 30
0.0
 11
528.0000000000001
 21
471.6498014462098
 31
0.0
  0
INSERT
  5
5C52
330
4B71
100
AcDbEntity
  8
AM_5 寸法線
 62
     3
100
AcDbBlockReference
  2
_Open30
 10
528.0000000000001
 20
459.6498014462098
 30
0.0
 41
6.25
 42
6.25
 43
6.25
 50
90.0
  0
INSERT
  5
5C53
330
4B71
100
AcDbEntity
  8
AM_5 寸法線
 62
     3
100
AcDbBlockReference
  2
_Open30
 10
528.0000000000001
 20
471.6498014462098
 30
0.0
 41
6.25
 42
6.25
 43
6.25
 50
270.0
  0
POINT
  5
5C54
330
4B71
100
AcDbEntity
  8
Defpoints
 62
     0
100
AcDbPoint
 10
487.1792059999997
 20
459.6498014462098
 30
0.0
  0
POINT
  5
5C55
330
4B71
100
AcDbEntity
  8
Defpoints
 62
     0
100
AcDbPoint
 10
543.1792059999998
 20
471.6498014462098
 30
0.0
  0
POINT
  5
5C56
330
4B71
100
AcDbEntity
  8
Defpoints
 62
     0
100
AcDbPoint
 10
528.0000000000001
 20
471.6498014462098
 30
0.0
  0
ENDBLK
  5
4B73
330
4B71
100
AcDbEntity
  8
0
100
AcDbBlockEnd
  0
BLOCK
  5
4BA7
330
4BA6
100
AcDbEntity
  8
0
100
AcDbBlockBegin
  2
*D24
 70
     1
 10
0.0
 20
0.0
 30
0.0
  3
*D24
  1

  0
LINE
  5
50E2
330
4BA6
100
AcDbEntity
  8
AM_5 寸法線
 62
     3
100
AcDbLine
 10
541.6167059999998
 20
471.6498014462098
 30
0.0
 11
526.4375
 21
471.6498014462098
 31
0.0
  0
LINE
  5
50E3
330
4BA6
100
AcDbEntity
  8
AM_5 寸法線
 62
     3
100
AcDbLine
 10
541.6167059999998
 20
583.6498014462098
 30
0.0
 11
526.4375
 21
583.6498014462098
 31
0.0
  0
LINE
  5
50E4
330
4BA6
100
AcDbEntity
  8
AM_5 寸法線
 62
     3
100
AcDbLine
 10
528.0
 20
477.8998014462098
 30
0.0
 11
528.0
 21
577.3998014462098
 31
0.0
  0
INSERT
  5
50E5
330
4BA6
100
AcDbEntity
  8
AM_5 寸法線
 62
     3
100
AcDbBlockReference
  2
_Open30
 10
528.0
 20
471.6498014462098
 30
0.0
 41
6.25
 42
6.25
 43
6.25
 50
270.0
  0
INSERT
  5
50E6
330
4BA6
100
AcDbEntity
  8
AM_5 寸法線
 62
     3
100
AcDbBlockReference
  2
_Open30
 10
528.0
 20
583.6498014462098
 30
0.0
 41
6.25
 42
6.25
 43
6.25
 50
90.0
  0
MTEXT
  5
50E7
330
4BA6
100
AcDbEntity
  8
AM_5 寸法線
 62
     3
100
AcDbMText
 10
519.8749999999998
 20
527.6498014462099
 30
0.0
 40
8.75
 41
0.0
 46
0.0
 71
     5
 72
     1
  1
112
  7
SEISA
 11
0.0000000000000001
 21
1.0
 31
0.0
 73
     1
 44
1.0
  0
POINT
  5
50E8
330
4BA6
100
AcDbEntity
  8
Defpoints
 62
     0
100
AcDbPoint
 10
543.1792059999998
 20
471.6498014462098
 30
0.0
  0
POINT
  5
50E9
330
4BA6
100
AcDbEntity
  8
Defpoints
 62
     0
100
AcDbPoint
 10
543.1792059999998
 20
583.6498014462098
 30
0.0
  0
POINT
  5
50EA
330
4BA6
100
AcDbEntity
  8
Defpoints
 62
     0
100
AcDbPoint
 10
528.0
 20
583.6498014462098
 30
0.0
  0
ENDBLK
  5
4BA8
330
4BA6
100
AcDbEntity
  8
0
100
AcDbBlockEnd
  0
BLOCK
  5
4BBF
330
4BBE
100
AcDbEntity
  8
0
100
AcDbBlockBegin
  2
*D25
 70
     1
 10
0.0
 20
0.0
 30
0.0
  3
*D25
  1

  0
LINE
  5
50EB
330
4BBE
100
AcDbEntity
  8
AM_5 寸法線
 62
     3
100
AcDbLine
 10
472.2417059999997
 20
413.6498014462098
 30
0.0
 11
487.5625000000002
 21
413.6498014462098
 31
0.0
  0
LINE
  5
50EC
330
4BBE
100
AcDbEntity
  8
AM_5 寸法線
 62
     3
100
AcDbLine
 10
471.7417059999998
 20
417.6498014462098
 30
0.0
 11
487.5625000000002
 21
417.6498014462098
 31
0.0
  0
LINE
  5
50ED
330
4BBE
100
AcDbEntity
  8
AM_5 寸法線
 62
     3
100
AcDbLine
 10
486.0000000000002
 20
423.8998014462098
 30
0.0
 11
486.0000000000002
 21
430.1498014462098
 31
0.0
  0
LINE
  5
50EE
330
4BBE
100
AcDbEntity
  8
AM_5 寸法線
 62
     3
100
AcDbLine
 10
486.0000000000002
 20
407.3998014462098
 30
0.0
 11
486.0000000000002
 21
388.0248014462099
 31
0.0
  0
LINE
  5
50EF
330
4BBE
100
AcDbEntity
  8
AM_5 寸法線
 62
     3
100
AcDbLine
 10
486.0000000000002
 20
417.6498014462098
 30
0.0
 11
486.0000000000002
 21
413.6498014462098
 31
0.0
  0
INSERT
  5
50F0
330
4BBE
100
AcDbEntity
  8
AM_5 寸法線
 62
     3
100
AcDbBlockReference
  2
_Open30
 10
486.0000000000002
 20
417.6498014462098
 30
0.0
 41
6.25
 42
6.25
 43
6.25
 50
270.0
  0
INSERT
  5
50F1
330
4BBE
100
AcDbEntity
  8
AM_5 寸法線
 62
     3
100
AcDbBlockReference
  2
_Open30
 10
486.0000000000002
 20
413.6498014462098
 30
0.0
 41
6.25
 42
6.25
 43
6.25
 50
90.0
  0
MTEXT
  5
50F2
330
4BBE
100
AcDbEntity
  8
AM_5 寸法線
 62
     3
100
AcDbMText
 10
477.8750000000001
 20
394.58730144621
 30
0.0
 40
8.75
 41
0.0
 46
0.0
 71
     5
 72
     1
  1
4
  7
SEISA
 11
0.0000000000000001
 21
1.0
 31
0.0
 73
     1
 44
1.0
  0
POINT
  5
50F3
330
4BBE
100
AcDbEntity
  8
Defpoints
 62
     0
100
AcDbPoint
 10
470.6792059999997
 20
413.6498014462098
 30
0.0
  0
POINT
  5
50F4
330
4BBE
100
AcDbEntity
  8
Defpoints
 62
     0
100
AcDbPoint
 10
470.1792059999998
 20
417.6498014462098
 30
0.0
  0
POINT
  5
50F5
330
4BBE
100
AcDbEntity
  8
Defpoints
 62
     0
100
AcDbPoint
 10
486.0000000000002
 20
417.6498014462098
 30
0.0
  0
ENDBLK
  5
4BC0
330
4BBE
100
AcDbEntity
  8
0
100
AcDbBlockEnd
  0
BLOCK
  5
5930
330
592F
100
AcDbEntity
  8
0
100
AcDbBlockBegin
  2
*D26
 70
     1
 10
0.0
 20
0.0
 30
0.0
  3
*D26
  1

  0
LINE
  5
5955
330
592F
100
AcDbEntity
  8
AM_5 寸法線
 62
     3
100
AcDbLine
 10
469.1167059999997
 20
346.64980144621
 30
0.0
 11
447.8790815919317
 21
346.64980144621
 31
0.0
  0
LINE
  5
5956
330
592F
100
AcDbEntity
  8
AM_5 寸法線
 62
     3
100
AcDbLine
 10
473.7167059999997
 20
347.6498014462099
 30
0.0
 11
447.8790815919317
 21
347.6498014462099
 31
0.0
  0
LINE
  5
5957
330
592F
100
AcDbEntity
  8
AM_5 寸法線
 62
     3
100
AcDbLine
 10
449.4415815919317
 20
340.39980144621
 30
0.0
 11
449.4415815919317
 21
334.14980144621
 31
0.0
  0
LINE
  5
5958
330
592F
100
AcDbEntity
  8
AM_5 寸法線
 62
     3
100
AcDbLine
 10
449.4415815919317
 20
353.8998014462099
 30
0.0
 11
449.4415815919317
 21
369.5248014462099
 31
0.0
  0
LINE
  5
5959
330
592F
100
AcDbEntity
  8
AM_5 寸法線
 62
     3
100
AcDbLine
 10
449.4415815919317
 20
346.64980144621
 30
0.0
 11
449.4415815919317
 21
347.6498014462099
 31
0.0
  0
INSERT
  5
595A
330
592F
100
AcDbEntity
  8
AM_5 寸法線
 62
     3
100
AcDbBlockReference
  2
_Open30
 10
449.4415815919317
 20
346.64980144621
 30
0.0
 41
6.25
 42
6.25
 43
6.25
 50
90.0
  0
INSERT
  5
595B
330
592F
100
AcDbEntity
  8
AM_5 寸法線
 62
     3
100
AcDbBlockReference
  2
_Open30
 10
449.4415815919317
 20
347.6498014462099
 30
0.0
 41
6.25
 42
6.25
 43
6.25
 50
270.0
  0
MTEXT
  5
595C
330
592F
100
AcDbEntity
  8
AM_5 寸法線
 62
     3
100
AcDbMText
 10
441.3165815919318
 20
364.8373014462101
 30
0.0
 40
8.75
 41
0.0
 46
0.0
 71
     5
 72
     1
  1
1
  7
SEISA
 11
0.0000000000000001
 21
1.0
 31
0.0
 73
     1
 44
1.0
  0
POINT
  5
595D
330
592F
100
AcDbEntity
  8
Defpoints
 62
     0
100
AcDbPoint
 10
470.6792059999997
 20
346.64980144621
 30
0.0
  0
POINT
  5
595E
330
592F
100
AcDbEntity
  8
Defpoints
 62
     0
100
AcDbPoint
 10
475.2792059999997
 20
347.6498014462099
 30
0.0
  0
POINT
  5
595F
330
592F
100
AcDbEntity
  8
Defpoints
 62
     0
100
AcDbPoint
 10
449.4415815919317
 20
347.6498014462099
 30
0.0
  0
ENDBLK
  5
5931
330
592F
100
AcDbEntity
  8
0
100
AcDbBlockEnd
  0
BLOCK
  5
5A4D
330
5A4C
100
AcDbEntity
  8
0
100
AcDbBlockBegin
  2
*D27
 70
     1
 10
0.0
 20
0.0
 30
0.0
  3
*D27
  1

  0
LINE
  5
5A6C
330
5A4C
100
AcDbEntity
  8
AM_5 寸法線
 62
     3
100
AcDbLine
 10
471.2208756183998
 20
417.6498014462098
 30
0.0
 11
487.5625000000002
 21
417.6498014462098
 31
0.0
  0
LINE
  5
5A6D
330
5A4C
100
AcDbEntity
  8
AM_5 寸法線
 62
     3
100
AcDbLine
 10
473.2417059999996
 20
441.6498014462098
 30
0.0
 11
487.5625000000002
 21
441.6498014462098
 31
0.0
  0
LINE
  5
5A6E
330
5A4C
100
AcDbEntity
  8
AM_5 寸法線
 62
     3
100
AcDbLine
 10
486.0000000000002
 20
423.8998014462098
 30
0.0
 11
486.0000000000002
 21
435.3998014462098
 31
0.0
  0
INSERT
  5
5A6F
330
5A4C
100
AcDbEntity
  8
AM_5 寸法線
 62
     3
100
AcDbBlockReference
  2
_Open30
 10
486.0000000000002
 20
417.6498014462098
 30
0.0
 41
6.25
 42
6.25
 43
6.25
 50
270.0
  0
INSERT
  5
5A70
330
5A4C
100
AcDbEntity
  8
AM_5 寸法線
 62
     3
100
AcDbBlockReference
  2
_Open30
 10
486.0000000000002
 20
441.6498014462098
 30
0.0
 41
6.25
 42
6.25
 43
6.25
 50
90.0
  0
MTEXT
  5
5A71
330
5A4C
100
AcDbEntity
  8
AM_5 寸法線
 62
     3
100
AcDbMText
 10
477.8750000000001
 20
429.64980144621
 30
0.0
 40
8.75
 41
0.0
 46
0.0
 71
     5
 72
     1
  1
24
  7
SEISA
 11
0.0000000000000001
 21
1.0
 31
0.0
 73
     1
 44
1.0
  0
POINT
  5
5A72
330
5A4C
100
AcDbEntity
  8
Defpoints
 62
     0
100
AcDbPoint
 10
469.6583756183998
 20
417.6498014462098
 30
0.0
  0
POINT
  5
5A73
102
{ACAD_REACTORS
330
5A85
102
}
330
5A4C
100
AcDbEntity
  8
Defpoints
 62
     0
100
AcDbPoint
 10
471.6792059999996
 20
441.6498014462098
 30
0.0
  0
POINT
  5
5A74
330
5A4C
100
AcDbEntity
  8
Defpoints
 62
     0
100
AcDbPoint
 10
486.0000000000002
 20
441.6498014462098
 30
0.0
  0
ENDBLK
  5
5A4E
330
5A4C
100
AcDbEntity
  8
0
100
AcDbBlockEnd
  0
BLOCK
  5
5A77
330
5A76
100
AcDbEntity
  8
0
100
AcDbBlockBegin
  2
*D28
 70
     1
 10
0.0
 20
0.0
 30
0.0
  3
*D28
  1

  0
LINE
  5
5AB2
330
5A76
100
AcDbEntity
  8
AM_5 寸法線
 62
     3
100
AcDbLine
 10
473.2417059999996
 20
441.6498014462098
 30
0.0
 11
487.5625000000005
 21
441.6498014462098
 31
0.0
  0
LINE
  5
5AB3
330
5A76
100
AcDbEntity
  8
AM_5 寸法線
 62
     3
100
AcDbLine
 10
474.2417059999998
 20
459.6498014462098
 30
0.0
 11
487.5625000000005
 21
459.6498014462098
 31
0.0
  0
LINE
  5
5AB4
330
5A76
100
AcDbEntity
  8
AM_5 寸法線
 62
     3
100
AcDbLine
 10
486.0000000000005
 20
435.3998014462098
 30
0.0
 11
486.0000000000005
 21
429.1498014462098
 31
0.0
  0
LINE
  5
5AB5
330
5A76
100
AcDbEntity
  8
AM_5 寸法線
 62
     3
100
AcDbLine
 10
486.0000000000005
 20
465.8998014462098
 30
0.0
 11
486.0000000000005
 21
472.1498014462098
 31
0.0
  0
MTEXT
  5
5AB6
330
5A76
100
AcDbEntity
  8
AM_5 寸法線
 62
     3
100
AcDbMText
 10
479.8680144612964
 20
450.5834495008123
 30
0.0
 40
8.75
 41
0.0
 46
0.0
 71
     5
 72
     1
  1
18
  7
SEISA
 11
0.0000000000000001
 21
1.0
 31
0.0
 73
     1
 44
1.0
  0
LINE
  5
5AB7
330
5A76
100
AcDbEntity
  8
AM_5 寸法線
 62
     3
100
AcDbLine
 10
486.0000000000005
 20
441.6498014462098
 30
0.0
 11
486.0000000000005
 21
459.6498014462098
 31
0.0
  0
INSERT
  5
5AB8
330
5A76
100
AcDbEntity
  8
AM_5 寸法線
 62
     3
100
AcDbBlockReference
  2
_Open30
 10
486.0000000000005
 20
441.6498014462098
 30
0.0
 41
6.25
 42
6.25
 43
6.25
 50
90.0
  0
INSERT
  5
5AB9
330
5A76
100
AcDbEntity
  8
AM_5 寸法線
 62
     3
100
AcDbBlockReference
  2
_Open30
 10
486.0000000000005
 20
459.6498014462098
 30
0.0
 41
6.25
 42
6.25
 43
6.25
 50
270.0
  0
POINT
  5
5ABA
330
5A76
100
AcDbEntity
  8
Defpoints
 62
     0
100
AcDbPoint
 10
471.6792059999996
 20
441.6498014462098
 30
0.0
  0
POINT
  5
5ABB
330
5A76
100
AcDbEntity
  8
Defpoints
 62
     0
100
AcDbPoint
 10
472.6792059999998
 20
459.6498014462098
 30
0.0
  0
POINT
  5
5ABC
330
5A76
100
AcDbEntity
  8
Defpoints
 62
     0
100
AcDbPoint
 10
486.0000000000005
 20
459.6498014462098
 30
0.0
  0
ENDBLK
  5
5A78
330
5A76
100
AcDbEntity
  8
0
100
AcDbBlockEnd
  0
BLOCK
  5
5B52
330
5B51
100
AcDbEntity
  8
0
100
AcDbBlockBegin
  2
ケース
 70
     0
 10
0.0
 20
0.0
 30
0.0
  3
ケース
  1

  0
LINE
  5
5B54
330
5B51
100
AcDbEntity
  8
AM_11 想像線
 48
0.1
100
AcDbLine
 10
13.25
 20
-19.30148656139335
 30
0.0
 11
13.25
 21
-16.60148656139336
 31
0.0
  0
LINE
  5
5B55
330
5B51
100
AcDbEntity
  8
AM_11 想像線
 48
0.1
100
AcDbLine
 10
0.0
 20
0.0
 30
0.0
 11
0.0
 21
-25.60148656139336
 31
0.0
  0
LINE
  5
5B56
330
5B51
100
AcDbEntity
  8
AM_11 想像線
 48
0.1
100
AcDbLine
 10
4.0
 20
-29.60148656139336
 30
0.0
 11
14.5
 21
-29.60148656139336
 31
0.0
  0
ARC
  5
5B57
330
5B51
100
AcDbEntity
  8
AM_11 想像線
 48
0.1
100
AcDbCircle
 10
4.0
 20
-25.60148656139336
 30
0.0
 40
4.0
100
AcDbArc
 50
180.0
 51
270.0
  0
LINE
  5
5B58
330
5B51
100
AcDbEntity
  8
AM_11 想像線
 48
0.1
100
AcDbLine
 10
10.30000000000018
 20
-19.30148656139335
 30
0.0
 11
14.5
 21
-19.30148656139335
 31
0.0
  0
ARC
  5
5B59
330
5B51
100
AcDbEntity
  8
AM_11 想像線
 48
0.1
100
AcDbCircle
 10
10.30000000000018
 20
-19.80148656139334
 30
0.0
 40
0.5
100
AcDbArc
 50
90.0
 51
180.0
  0
LINE
  5
5B5A
330
5B51
100
AcDbEntity
  8
AM_11 想像線
 48
0.1
100
AcDbLine
 10
9.80000000000018
 20
-26.40148656139337
 30
0.0
 11
9.80000000000018
 21
-19.80148656139334
 31
0.0
  0
ARC
  5
5B5B
330
5B51
100
AcDbEntity
  8
AM_11 想像線
 48
0.1
100
AcDbCircle
 10
10.30000000000018
 20
-26.40148656139337
 30
0.0
 40
0.5
100
AcDbArc
 50
180.0
 51
270.0
  0
LINE
  5
5B5C
330
5B51
100
AcDbEntity
  8
AM_11 想像線
 48
0.1
100
AcDbLine
 10
14.5
 20
-26.90148656139337
 30
0.0
 11
10.30000000000018
 21
-26.90148656139337
 31
0.0
  0
LINE
  5
5B5D
330
5B51
100
AcDbEntity
  8
AM_11 想像線
 48
0.1
100
AcDbLine
 10
13.25
 20
-29.60148656139336
 30
0.0
 11
13.25
 21
-26.90148656139337
 31
0.0
  0
LINE
  5
5B5E
330
5B51
100
AcDbEntity
  8
AM_11 想像線
 48
0.1
100
AcDbLine
 10
11.5
 20
0.0
 30
0.0
 11
11.5
 21
-10.60148656139336
 31
0.0
  0
LINE
  5
5B5F
330
5B51
100
AcDbEntity
  8
AM_11 想像線
 48
0.1
100
AcDbLine
 10
9.5
 20
0.0
 30
0.0
 11
9.5
 21
-13.60148656139336
 31
0.0
  0
LINE
  5
5B60
330
5B51
100
AcDbEntity
  8
AM_11 想像線
 48
0.1
100
AcDbLine
 10
7.0
 20
0.0
 30
0.0
 11
7.0
 21
-11.73546156139332
 31
0.0
  0
ARC
  5
5B61
330
5B51
100
AcDbEntity
  8
AM_11 想像線
 48
0.1
100
AcDbCircle
 10
7.5
 20
-12.60148656139336
 30
0.0
 40
1.0
100
AcDbArc
 50
90.0
 51
180.0
  0
ARC
  5
5B62
330
5B51
100
AcDbEntity
  8
AM_11 想像線
 48
0.1
100
AcDbCircle
 10
7.5
 20
-15.60148656139336
 30
0.0
 40
1.0
100
AcDbArc
 50
180.0
 51
270.0
  0
LINE
  5
5B63
330
5B51
100
AcDbEntity
  8
AM_11 想像線
 48
0.1
100
AcDbLine
 10
6.5
 20
-15.60148656139336
 30
0.0
 11
6.5
 21
-12.60148656139336
 31
0.0
  0
LINE
  5
5B64
330
5B51
100
AcDbEntity
  8
AM_11 想像線
 48
0.1
100
AcDbLine
 10
10.5
 20
-11.60148656139336
 30
0.0
 11
11.5
 21
-10.60148656139336
 31
0.0
  0
LINE
  5
5B65
330
5B51
100
AcDbEntity
  8
AM_11 想像線
 48
0.1
100
AcDbLine
 10
8.099028999999973
 20
-11.60148656139336
 30
0.0
 11
10.5
 21
-11.60148656139336
 31
0.0
  0
LINE
  5
5B66
330
5B51
100
AcDbEntity
  8
AM_11 想像線
 48
0.1
100
AcDbLine
 10
8.099028999999973
 20
-11.60148656139336
 30
0.0
 11
7.5
 21
-11.60148656139336
 31
0.0
  0
LINE
  5
5B67
330
5B51
100
AcDbEntity
  8
AM_11 想像線
 48
0.1
100
AcDbLine
 10
14.5
 20
-16.60148656139336
 30
0.0
 11
7.5
 21
-16.60148656139336
 31
0.0
  0
ENDBLK
  5
5B53
330
5B51
100
AcDbEntity
  8
0
100
AcDbBlockEnd
  0
ENDSEC
  0
SECTION
  2
ENTITIES
  0
LINE
  5
3D92
330
1F
100
AcDbEntity
  8
AM_7 中心線
100
AcDbLine
 10
543.1792059999998
 20
588.6498014462098
 30
0.0
 11
543.1792059999998
 21
342.64980144621
 31
0.0
  0
INSERT
  5
42DE
102
{ACAD_REACTORS
330
4917
330
4A16
330
4B6F
330
4BD8
330
593E
330
5A59
330
5A85
102
}
330
1F
100
AcDbEntity
  8
AM_0 外形線1
100
AcDbBlockReference
  2
センタＡ SMVH224
 10
543.1792059999998
 20
459.6498014462098
 30
0.0
  0
INSERT
  5
43BC
102
{ACAD_REACTORS
330
4938
330
4BD8
102
}
330
1F
100
AcDbEntity
  8
AM_0 外形線1
100
AcDbBlockReference
  2
ケースＡ SMVH224
 10
543.1792059999998
 20
465.6498014462099
 30
0.0
  0
INSERT
  5
4491
102
{ACAD_REACTORS
330
4B33
330
4B8B
330
4BBC
102
}
330
1F
100
AcDbEntity
  8
AM_0 外形線1
100
AcDbBlockReference
  2
センタB SMVH224
 10
543.1792059999998
 20
471.6498014462098
 30
0.0
  0
INSERT
  5
45FF
102
{ACAD_REACTORS
330
4938
330
4954
330
4B03
330
4B1B
330
499A
102
}
330
1F
100
AcDbEntity
  8
AM_0 外形線1
100
AcDbBlockReference
  2
ケースＢ SMVH224
 10
543.1792059999998
 20
465.6498014462099
 30
0.0
  0
INSERT
  5
46F7
330
1F
100
AcDbEntity
  8
AM_0 外形線1
100
AcDbBlockReference
  2
リーマボルト SMVH224 M10
 10
644.1792059999998
 20
450.6498014462098
 30
0.0
  0
INSERT
  5
476B
102
{ACAD_REACTORS
330
4B6F
330
4B8B
102
}
330
1F
100
AcDbEntity
  8
AM_0 外形線1
100
AcDbBlockReference
  2
スラストプレ－ト SMVH224
 10
543.1792059999998
 20
459.6498014462098
 30
0.0
  0
DIMENSION
  5
4900
102
{ACAD_XDICTIONARY
360
490D
102
}
102
{ACAD_REACTORS
330
4917
102
}
330
1F
100
AcDbEntity
  8
AM_5 寸法線
100
AcDbDimension
  2
*D14
 10
615.6792059999998
 20
285.1498014462099
 30
0.0
 11
543.1792059999998
 21
293.27480144621
 31
0.0
 70
    32
  1
%%c<>
 71
     5
 42
145.0
 73
     0
 74
     0
 75
     0
  3
SEISA$0
100
AcDbAlignedDimension
 13
470.6792059999997
 23
388.64980144621
 33
0.0
 14
615.6792059999998
 24
388.64980144621
 34
0.0
100
AcDbRotatedDimension
1001
ACAD_DSTYLE_DIMINSPECT
1070
   396
1000
100%
1070
   395
1000

1070
   394
1070
    33
1070
   393
1070
     0
  0
DIMENSION
  5
491D
102
{ACAD_XDICTIONARY
360
492C
102
}
102
{ACAD_REACTORS
330
4938
102
}
330
1F
100
AcDbEntity
  8
AM_5 寸法線
100
AcDbDimension
  2
*D15
 10
692.6792059999999
 20
465.6498014462099
 30
0.0
 11
692.6792059999997
 21
428.58730144621
 31
0.0
 70
   160
 71
     5
 42
15.0
 73
     0
 74
     0
 75
     0
  3
SEISA$0
100
AcDbAlignedDimension
 13
654.1792059999997
 23
450.6498014462098
 33
0.0
 14
654.1792059999997
 24
465.6498014462099
 34
0.0
 50
90.0
100
AcDbRotatedDimension
1001
ACAD_DSTYLE_DIMINSPECT
1070
   396
1000
100%
1070
   395
1000

1070
   394
1070
    33
1070
   393
1070
     0
1001
ACAD
1000
DSTYLE
1002
{
1070
   173
1070
     1
1070
   342
1005
0
1070
   343
1005
69
1070
   344
1005
353B
1002
}
  0
DIMENSION
  5
4939
102
{ACAD_XDICTIONARY
360
4948
102
}
102
{ACAD_REACTORS
330
4954
102
}
330
1F
100
AcDbEntity
  8
AM_5 寸法線
100
AcDbDimension
  2
*D16
 10
692.6792060000003
 20
480.6498014462099
 30
0.0
 11
692.6792060000001
 21
502.7123014462099
 31
0.0
 70
   160
 71
     5
 42
15.0
 73
     0
 74
     0
 75
     0
  3
SEISA$0
100
AcDbAlignedDimension
 13
654.1792059999997
 23
465.6498014462099
 33
0.0
 14
654.1792059999997
 24
480.6498014462099
 34
0.0
 50
90.0
100
AcDbRotatedDimension
1001
ACAD_DSTYLE_DIMINSPECT
1070
   396
1000
100%
1070
   395
1000

1070
   394
1070
    33
1070
   393
1070
     0
1001
ACAD
1000
DSTYLE
1002
{
1070
   173
1070
     1
1070
   342
1005
0
1070
   343
1005
353B
1070
   344
1005
69
1002
}
  0
DIMENSION
  5
4983
102
{ACAD_XDICTIONARY
360
4990
102
}
102
{ACAD_REACTORS
330
499A
102
}
330
1F
100
AcDbEntity
  8
AM_5 寸法線
100
AcDbDimension
  2
*D17
 10
717.6792059999996
 20
530.6498014462098
 30
0.0
 11
709.5542059999996
 21
465.6498014462099
 31
0.0
 70
    32
 71
     5
 42
130.0
 73
     0
 74
     0
 75
     0
  3
SEISA$0
100
AcDbAlignedDimension
 13
626.1792059999997
 23
400.6498014462098
 33
0.0
 14
626.1792059999997
 24
530.6498014462098
 34
0.0
 50
90.0
100
AcDbRotatedDimension
  0
DIMENSION
  5
49FF
102
{ACAD_XDICTIONARY
360
4A0C
102
}
102
{ACAD_REACTORS
330
4A16
102
}
330
1F
100
AcDbEntity
  8
AM_5 寸法線
100
AcDbDimension
  2
*D18
 10
742.6792059999996
 20
583.6498014462098
 30
0.0
 11
734.5542059999996
 21
465.6498014462099
 31
0.0
 70
    32
 71
     5
 42
236.0
 73
     0
 74
     0
 75
     0
  3
SEISA$0
100
AcDbAlignedDimension
 13
611.0792059999997
 23
347.6498014462099
 33
0.0
 14
611.0792059999997
 24
583.6498014462098
 34
0.0
 50
90.0
100
AcDbRotatedDimension
  0
DIMENSION
  5
4AEC
102
{ACAD_XDICTIONARY
360
4AF9
102
}
102
{ACAD_REACTORS
330
4B03
102
}
330
1F
100
AcDbEntity
  8
AM_5 寸法線
100
AcDbDimension
  2
*D19
 10
655.1792059999997
 20
696.1498014462098
 30
0.0
 11
543.1792059999998
 21
704.2748014462098
 31
0.0
 70
    32
  1
%%c<>
 71
     5
 42
224.0
 73
     0
 74
     0
 75
     0
  3
SEISA$0
100
AcDbAlignedDimension
 13
431.1792059999998
 23
479.6498014462098
 33
0.0
 14
655.1792059999997
 24
479.6498014462098
 34
0.0
100
AcDbRotatedDimension
1001
ACAD_DSTYLE_DIMINSPECT
1070
   396
1000
100%
1070
   395
1000

1070
   394
1070
    33
1070
   393
1070
     0
  0
DIMENSION
  5
4B04
102
{ACAD_XDICTIONARY
360
4B11
102
}
102
{ACAD_REACTORS
330
4B1B
102
}
330
1F
100
AcDbEntity
  8
AM_5 寸法線
100
AcDbDimension
  2
*D20
 10
630.1792059999997
 20
671.1498014462098
 30
0.0
 11
543.1792059999998
 21
679.2748014462098
 31
0.0
 70
    32
  1
%%c<>
 71
     5
 42
174.0
 73
     0
 74
     0
 75
     0
  3
SEISA$0
100
AcDbAlignedDimension
 13
456.1792059999998
 23
526.6498014462098
 33
0.0
 14
630.1792059999997
 24
526.6498014462098
 34
0.0
100
AcDbRotatedDimension
1001
ACAD_DSTYLE_DIMINSPECT
1070
   396
1000
100%
1070
   395
1000

1070
   394
1070
    33
1070
   393
1070
     0
  0
DIMENSION
  5
4B1C
102
{ACAD_XDICTIONARY
360
4B29
102
}
102
{ACAD_REACTORS
330
4B33
102
}
330
1F
100
AcDbEntity
  8
AM_5 寸法線
100
AcDbDimension
  2
*D21
 10
615.6792059999998
 20
646.1498014462098
 30
0.0
 11
543.1792059999998
 21
654.2748014462098
 31
0.0
 70
    32
  1
%%c<>
 71
     5
 42
145.0
 73
     0
 74
     0
 75
     0
  3
SEISA$0
100
AcDbAlignedDimension
 13
470.6792059999997
 23
542.6498014462098
 33
0.0
 14
615.6792059999998
 24
542.6498014462098
 34
0.0
100
AcDbRotatedDimension
1001
ACAD_DSTYLE_DIMINSPECT
1070
   396
1000
100%
1070
   395
1000

1070
   394
1070
    33
1070
   393
1070
     0
  0
DIMENSION
  5
4B58
102
{ACAD_XDICTIONARY
360
4B65
102
}
102
{ACAD_REACTORS
330
4B6F
102
}
330
1F
100
AcDbEntity
  8
AM_5 寸法線
100
AcDbDimension
  2
*D22
 10
528.0000000000001
 20
459.6498014462098
 30
0.0
 11
519.875
 21
403.6498014462098
 31
0.0
 70
    32
 71
     5
 42
112.0
 73
     0
 74
     0
 75
     0
  3
SEISA$0
100
AcDbAlignedDimension
 13
543.1792059999998
 23
347.6498014462099
 33
0.0
 14
487.1792059999997
 24
459.6498014462098
 34
0.0
 50
90.0
100
AcDbRotatedDimension
  0
DIMENSION
  5
4B70
102
{ACAD_XDICTIONARY
360
4B7F
102
}
102
{ACAD_REACTORS
330
4B8B
102
}
330
1F
100
AcDbEntity
  8
AM_5 寸法線
100
AcDbDimension
  2
*D23
 10
528.0000000000001
 20
471.6498014462098
 30
0.0
 11
520.7252844803861
 21
485.6119639447215
 31
0.0
 70
   160
 71
     5
 42
12.0
 73
     0
 74
     0
 75
     0
  3
SEISA$0
100
AcDbAlignedDimension
 13
487.1792059999997
 23
459.6498014462098
 33
0.0
 14
543.1792059999998
 24
471.6498014462098
 34
0.0
 50
90.0
100
AcDbRotatedDimension
1001
ACAD
1000
DSTYLE
1002
{
1070
   279
1070
     2
1002
}
  0
DIMENSION
  5
4BA5
102
{ACAD_XDICTIONARY
360
4BB2
102
}
102
{ACAD_REACTORS
330
4BBC
102
}
330
1F
100
AcDbEntity
  8
AM_5 寸法線
100
AcDbDimension
  2
*D24
 10
528.0
 20
583.6498014462098
 30
0.0
 11
519.8749999999998
 21
527.6498014462099
 31
0.0
 70
    32
 71
     5
 42
112.0
 73
     0
 74
     0
 75
     0
  3
SEISA$0
100
AcDbAlignedDimension
 13
543.1792059999998
 23
471.6498014462098
 33
0.0
 14
543.1792059999998
 24
583.6498014462098
 34
0.0
 50
90.0
100
AcDbRotatedDimension
  0
DIMENSION
  5
4BBD
102
{ACAD_XDICTIONARY
360
4BCC
102
}
102
{ACAD_REACTORS
330
4BD8
102
}
330
1F
100
AcDbEntity
  8
AM_5 寸法線
100
AcDbDimension
  2
*D25
 10
486.0000000000002
 20
417.6498014462098
 30
0.0
 11
486.0000000000002
 21
394.58730144621
 31
0.0
 70
   160
 71
     5
 42
4.0
 73
     0
 74
     0
 75
     0
  3
SEISA$0
100
AcDbAlignedDimension
 13
470.6792059999997
 23
413.6498014462098
 33
0.0
 14
470.1792059999998
 24
417.6498014462098
 34
0.0
 50
90.0
100
AcDbRotatedDimension
  0
MTEXT
  5
58E4
330
1F
100
AcDbEntity
  8
AM_6 文字
100
AcDbMText
 10
641.5683742894298
 20
331.19945584411
 30
0.0
 40
8.75
 41
135.3159547097406
 46
27.45869168716519
 71
     1
 72
     5
  1
{\W0.6;TYPE:SMV224/SMVH224\PSHAFT DIA:MAX/MIN φ100/φ42}
  7
SEISA
 73
     1
 44
1.0
  0
DIMENSION
  5
592E
102
{ACAD_XDICTIONARY
360
593D
102
}
102
{ACAD_REACTORS
330
593E
102
}
330
1F
100
AcDbEntity
  8
AM_5 寸法線
100
AcDbDimension
  2
*D26
 10
449.4415815919317
 20
347.6498014462099
 30
0.0
 11
441.3165815919318
 21
364.8373014462101
 31
0.0
 70
    32
 71
     5
 42
-1.0
 73
     0
 74
     0
 75
     0
  3
SEISA$0
100
AcDbAlignedDimension
 13
470.6792059999997
 23
346.64980144621
 33
0.0
 14
475.2792059999997
 24
347.6498014462099
 34
0.0
 50
90.00000000000005
100
AcDbRotatedDimension
1001
ACAD_DSTYLE_DIMINSPECT
1070
   396
1000
100%
1070
   395
1000

1070
   394
1070
    33
1070
   393
1070
     0
  0
DIMENSION
  5
5A4B
102
{ACAD_XDICTIONARY
360
5A58
102
}
102
{ACAD_REACTORS
330
5A59
330
5A85
102
}
330
1F
100
AcDbEntity
  8
AM_5 寸法線
100
AcDbDimension
  2
*D27
 10
486.0000000000002
 20
441.6498014462098
 30
0.0
 11
477.8750000000001
 21
429.64980144621
 31
0.0
 70
    32
 71
     5
 42
24.0
 73
     0
 74
     0
 75
     0
  3
SEISA$0
100
AcDbAlignedDimension
 13
469.6583756183998
 23
417.6498014462098
 33
0.0
 14
471.6792059999996
 24
441.6498014462098
 34
0.0
 50
90.00000000000005
100
AcDbRotatedDimension
1001
ACAD_DSTYLE_DIMINSPECT
1070
   396
1000
100%
1070
   395
1000

1070
   394
1070
    33
1070
   393
1070
     0
  0
DIMENSION
  5
5A75
102
{ACAD_XDICTIONARY
360
5A84
102
}
102
{ACAD_REACTORS
330
5A85
102
}
330
1F
100
AcDbEntity
  8
AM_5 寸法線
100
AcDbDimension
  2
*D28
 10
486.0000000000005
 20
459.6498014462098
 30
0.0
 11
479.8680144612964
 21
450.5834495008123
 31
0.0
 70
   160
 71
     5
 42
18.0
 73
     0
 74
     0
 75
     0
  3
SEISA$0
100
AcDbAlignedDimension
 13
471.6792059999996
 23
441.6498014462098
 33
0.0
 14
472.6792059999998
 24
459.6498014462098
 34
0.0
 50
90.00000000000005
100
AcDbRotatedDimension
1001
ACAD_DSTYLE_DIMINSPECT
1070
   396
1000
100%
1070
   395
1000

1070
   394
1070
    33
1070
   393
1070
     0
1001
ACAD
1000
DSTYLE
1002
{
1070
   279
1070
     2
1002
}
  0
INSERT
  5
5B68
330
1F
100
AcDbEntity
  8
AM_11 想像線
100
AcDbBlockReference
  2
ケース
 10
456.1792059999996
 20
376.2512880076033
 30
0.0
  0
ENDSEC
  0
SECTION
  2
OBJECTS
  0
DICTIONARY
  5
C
330
0
100
AcDbDictionary
281
     1
  3
ACAD_COLOR
350
C5
  3
ACAD_GROUP
350
D
  3
ACAD_LAYOUT
350
1A
  3
ACAD_MATERIAL
350
C4
  3
ACAD_MLEADERSTYLE
350
2D5
  3
ACAD_MLINESTYLE
350
17
  3
ACAD_PLOTSETTINGS
350
19
  3
ACAD_PLOTSTYLENAME
350
E
  3
ACAD_SCALELIST
350
2B3
  3
ACAD_TABLESTYLE
350
121
  3
ACAD_VISUALSTYLE
350
27F
  3
ACDB_RECOMPOSE_DATA
350
2F7
  3
AcDbVariableDictionary
350
34
  3
AcmDictionary
350
49
  3
AMG
350
2B
  3
AMGSNAPSETTINGS
350
1DE
  0
DICTIONARY
  5
BF
330
2
100
AcDbDictionary
280
     1
281
     1
  3
ACAD_LAYERSTATES
360
2786
  3
AMLAYER_GROUPCOLORS
360
C0
  0
DICTIONARY
  5
29D7
330
10
100
AcDbDictionary
280
     1
281
     1
  3
ADSK_XREC_LAYER_RECONCILED
360
29D8
  0
DICTIONARY
  5
29D9
330
81
100
AcDbDictionary
280
     1
281
     1
  3
ADSK_XREC_LAYER_RECONCILED
360
29DA
  0
DICTIONARY
  5
29E0
330
25C9
100
AcDbDictionary
280
     1
281
     1
  3
ADSK_XREC_LAYER_RECONCILED
360
29E1
  0
DICTIONARY
  5
29E2
330
25CA
100
AcDbDictionary
280
     1
281
     1
  3
ADSK_XREC_LAYER_RECONCILED
360
29E3
  0
DICTIONARY
  5
29E8
330
26B3
100
AcDbDictionary
280
     1
281
     1
  3
ADSK_XREC_LAYER_RECONCILED
360
29E9
  0
DICTIONARY
  5
82
330
1F
100
AcDbDictionary
280
     1
281
     1
  3
ACAD_SORTENTS
360
A41
  0
DICTIONARY
  5
3411
330
3410
100
AcDbDictionary
280
     1
281
     1
  3
ACAD_SORTENTS
360
54B2
  0
DICTIONARY
  5
5584
330
42B8
100
AcDbDictionary
280
     1
281
     1
  3
ACAD_SORTENTS
360
59B7
  0
DICTIONARY
  5
4438
330
4383
100
AcDbDictionary
280
     1
281
     1
  3
ACAD_SORTENTS
360
548A
  0
DICTIONARY
  5
44DD
330
446B
100
AcDbDictionary
280
     1
281
     1
  3
ACAD_SORTENTS
360
5A4A
  0
DICTIONARY
  5
467E
330
45C2
100
AcDbDictionary
280
     1
281
     1
  3
ACAD_SORTENTS
360
5533
  0
DICTIONARY
  5
4742
330
46D3
100
AcDbDictionary
280
     1
281
     1
  3
ACAD_SORTENTS
360
563C
  0
DICTIONARY
  5
4786
330
475F
100
AcDbDictionary
280
     1
281
     1
  3
ACAD_SORTENTS
360
5BA9
  0
DICTIONARY
  5
490D
330
4900
100
AcDbDictionary
280
     1
281
     1
  3
ACAD_DIMASSOC
360
4917
  0
DICTIONARY
  5
492C
330
491D
100
AcDbDictionary
280
     1
281
     1
  3
ACAD_DIMASSOC
360
4938
  0
DICTIONARY
  5
4948
330
4939
100
AcDbDictionary
280
     1
281
     1
  3
ACAD_DIMASSOC
360
4954
  0
DICTIONARY
  5
4990
330
4983
100
AcDbDictionary
280
     1
281
     1
  3
ACAD_DIMASSOC
360
499A
  0
DICTIONARY
  5
4A0C
330
49FF
100
AcDbDictionary
280
     1
281
     1
  3
ACAD_DIMASSOC
360
4A16
  0
DICTIONARY
  5
4AF9
330
4AEC
100
AcDbDictionary
280
     1
281
     1
  3
ACAD_DIMASSOC
360
4B03
  0
DICTIONARY
  5
4B11
330
4B04
100
AcDbDictionary
280
     1
281
     1
  3
ACAD_DIMASSOC
360
4B1B
  0
DICTIONARY
  5
4B29
330
4B1C
100
AcDbDictionary
280
     1
281
     1
  3
ACAD_DIMASSOC
360
4B33
  0
DICTIONARY
  5
4B65
330
4B58
100
AcDbDictionary
280
     1
281
     1
  3
ACAD_DIMASSOC
360
4B6F
  0
DICTIONARY
  5
4B7F
330
4B70
100
AcDbDictionary
280
     1
281
     1
  3
ACAD_DIMASSOC
360
4B8B
  0
DICTIONARY
  5
4BB2
330
4BA5
100
AcDbDictionary
280
     1
281
     1
  3
ACAD_DIMASSOC
360
4BBC
  0
DICTIONARY
  5
4BCC
330
4BBD
100
AcDbDictionary
280
     1
281
     1
  3
ACAD_DIMASSOC
360
4BD8
  0
DICTIONARY
  5
593D
330
592E
100
AcDbDictionary
280
     1
281
     1
  3
ACAD_DIMASSOC
360
593E
  0
DICTIONARY
  5
5A58
330
5A4B
100
AcDbDictionary
280
     1
281
     1
  3
ACAD_DIMASSOC
360
5A59
  0
DICTIONARY
  5
5A84
330
5A75
100
AcDbDictionary
280
     1
281
     1
  3
ACAD_DIMASSOC
360
5A85
  0
DICTIONARY
  5
C5
102
{ACAD_REACTORS
330
C
102
}
330
C
100
AcDbDictionary
281
     1
  0
DICTIONARY
  5
D
102
{ACAD_REACTORS
330
C
102
}
330
C
100
AcDbDictionary
281
     1
  0
DICTIONARY
  5
1A
102
{ACAD_REACTORS
330
C
102
}
330
C
100
AcDbDictionary
281
     1
  3
Model
350
22
  3
レイアウト1
350
1E
  3
レイアウト2
350
26
  0
DICTIONARY
  5
C4
102
{ACAD_REACTORS
330
C
102
}
330
C
100
AcDbDictionary
281
     1
  3
ByBlock
350
27D
  3
ByLayer
350
27C
  3
Global
350
27E
  0
DICTIONARY
  5
2D5
102
{ACAD_REACTORS
330
C
102
}
330
C
100
AcDbDictionary
281
     1
  3
Standard
350
2D6
  0
DICTIONARY
  5
17
102
{ACAD_REACTORS
330
C
102
}
330
C
100
AcDbDictionary
281
     1
  3
Standard
350
18
  0
DICTIONARY
  5
19
102
{ACAD_REACTORS
330
C
102
}
330
C
100
AcDbDictionary
281
     1
  3
SEISA基本
350
1C7E
  0
ACDBDICTIONARYWDFLT
  5
E
102
{ACAD_REACTORS
330
C
102
}
330
C
100
AcDbDictionary
281
     1
  3
Normal
350
F
100
AcDbDictionaryWithDefault
340
F
  0
DICTIONARY
  5
2B3
102
{ACAD_REACTORS
330
C
102
}
330
C
100
AcDbDictionary
281
     1
  3
*A1
350
29F2
  3
*A2
350
58DB
  3
A0
350
2B4
  3
A1
350
2B5
  3
A2
350
2B6
  3
A3
350
2B7
  3
A4
350
2B8
  3
A5
350
2B9
  3
A6
350
2BA
  3
A7
350
2BB
  3
A8
350
2BC
  3
A9
350
2BD
  3
B0
350
2BE
  3
B1
350
2BF
  3
B2
350
2C0
  3
B3
350
2C1
  3
B4
350
2C2
  3
B5
350
2C3
  3
B6
350
2C4
  3
B7
350
2C5
  3
B8
350
2C6
  3
B9
350
2C7
  3
C0
350
2C8
  3
C1
350
2C9
  3
C2
350
2CA
  3
C3
350
2CB
  3
C4
350
2CC
  3
C5
350
2CD
  3
C6
350
2CE
  3
C7
350
2CF
  3
C8
350
2D0
  3
C9
350
2D1
  3
D0
350
2D2
  3
D1
350
2D3
  3
D2
350
2D4
  0
DICTIONARY
  5
121
102
{ACAD_REACTORS
330
C
102
}
330
C
100
AcDbDictionary
281
     1
  3
Standard
350
122
  0
DICTIONARY
  5
27F
102
{ACAD_REACTORS
330
C
102
}
330
C
100
AcDbDictionary
281
     1
  3
2dWireframe
350
285
  3
3D Hidden
350
287
  3
3dWireframe
350
286
  3
Basic
350
284
  3
Brighten
350
28B
  3
ColorChange
350
28F
  3
Conceptual
350
288
  3
Dim
350
28A
  3
Facepattern
350
28E
  3
Flat
350
280
  3
FlatWithEdges
350
281
  3
Gouraud
350
282
  3
GouraudWithEdges
350
283
  3
Linepattern
350
28D
  3
Realistic
350
289
  3
Thicken
350
28C
  0
XRECORD
  5
2F7
102
{ACAD_REACTORS
330
C
102
}
330
C
100
AcDbXrecord
280
     1
 90
        1
330
122
  0
DICTIONARY
  5
34
102
{ACAD_REACTORS
330
C
102
}
330
C
100
AcDbDictionary
281
     1
  3
CANNOSCALE
350
2FA
  3
CMLEADERSTYLE
350
2F8
  3
CTABLESTYLE
350
140
  3
DIMASSOC
350
AC
  3
INDEXCTL
350
35
  3
LAYEREVAL
350
523F
  3
LAYERNOTIFY
350
5240
  3
LIGHTINGUNITS
350
2FB
  3
MSLTSCALE
350
2F9
  0
DICTIONARY
  5
49
102
{ACAD_REACTORS
330
C
102
}
330
C
100
AcDbDictionary
281
     1
  3
AcmBOM
350
161B
  3
AcmStdDictionary
350
4A
  3
AMDTSECTSYM_ARROWCOLOR
350
12B
  0
DICTIONARY
  5
2B
102
{ACAD_REACTORS
330
C
102
}
330
C
100
AcDbDictionary
281
     1
  0
DICTIONARY
  5
1DE
102
{ACAD_REACTORS
330
C
102
}
330
C
100
AcDbDictionary
281
     1
  0
DICTIONARY
  5
2786
102
{ACAD_REACTORS
330
BF
102
}
330
BF
100
AcDbDictionary
281
     1
  0
DICTIONARY
  5
C0
102
{ACAD_REACTORS
330
BF
102
}
330
BF
100
AcDbDictionary
280
     1
281
     1
  0
XRECORD
  5
29D8
102
{ACAD_REACTORS
330
29D7
102
}
330
29D7
100
AcDbXrecord
280
     1
290
     1
  0
XRECORD
  5
29DA
102
{ACAD_REACTORS
330
29D9
102
}
330
29D9
100
AcDbXrecord
280
     1
290
     1
  0
XRECORD
  5
29E1
102
{ACAD_REACTORS
330
29E0
102
}
330
29E0
100
AcDbXrecord
280
     1
290
     1
  0
XRECORD
  5
29E3
102
{ACAD_REACTORS
330
29E2
102
}
330
29E2
100
AcDbXrecord
280
     1
290
     1
  0
XRECORD
  5
29E9
102
{ACAD_REACTORS
330
29E8
102
}
330
29E8
100
AcDbXrecord
280
     1
290
     1
  0
SORTENTSTABLE
  5
A41
102
{ACAD_REACTORS
330
82
102
}
330
82
100
AcDbSortentsTable
330
1F
331
491D
  5
499B
331
58E4
  5
58E4
331
4BBD
  5
4C59
331
49FF
  5
4A2C
331
4B58
  5
4BEF
331
43BC
  5
476B
331
45FF
  5
4918
331
4491
  5
4900
331
4AEC
  5
4B70
331
4B04
  5
4BA5
331
4939
  5
49B3
331
4B70
  5
4C34
331
4983
  5
49E7
331
42DE
  5
46F7
331
4900
  5
496B
331
46F7
  5
491D
331
4B1C
  5
4BBD
331
4BA5
  5
4C55
331
476B
  5
4939
331
3D92
  5
3D92
  0
SORTENTSTABLE
  5
54B2
102
{ACAD_REACTORS
330
3411
102
}
330
3411
100
AcDbSortentsTable
330
3410
331
450C
  5
450D
331
450A
  5
450B
331
4508
  5
4509
331
4506
  5
4507
331
4513
  5
4537
331
4539
  5
4506
331
4511
  5
4512
331
4537
  5
4538
331
450F
  5
4510
331
450D
  5
450E
331
450B
  5
450C
331
4509
  5
450A
331
4507
  5
4508
331
4512
  5
4513
331
4510
  5
4511
331
4538
  5
4539
331
450E
  5
450F
  0
SORTENTSTABLE
  5
59B7
102
{ACAD_REACTORS
330
5584
102
}
330
5584
100
AcDbSortentsTable
330
42B8
331
42D3
  5
42D6
331
42C6
  5
42C9
331
42D8
  5
5996
331
42CA
  5
42CD
331
42D2
  5
42D5
331
42C5
  5
42C8
331
42C9
  5
42CC
331
42D1
  5
42D4
331
42BF
  5
42C4
331
42C4
  5
42C7
331
42C8
  5
42CB
331
42BE
  5
42C1
331
42D0
  5
42D3
331
42CF
  5
42D2
331
42BD
  5
42C0
331
42D7
  5
42DC
331
5997
  5
42BC
331
42DC
  5
59B6
331
42BC
  5
42BF
331
42CE
  5
42D1
331
42C1
  5
42C6
331
42D6
  5
42D9
331
5996
  5
42BB
331
59B6
  5
42BD
331
42CD
  5
42D0
331
42BB
  5
42BE
331
42C0
  5
42C5
331
42D5
  5
42D8
331
42CC
  5
42CF
331
42D4
  5
42D7
331
42C7
  5
42CA
331
42D9
  5
5997
331
42CB
  5
42CE
  0
SORTENTSTABLE
  5
548A
102
{ACAD_REACTORS
330
4438
102
}
330
4438
100
AcDbSortentsTable
330
4383
331
43B7
  5
43B8
331
43A5
  5
43A6
331
43B4
  5
43B5
331
43B1
  5
43B2
331
43A2
  5
43A3
331
43AE
  5
43AF
331
439F
  5
43A0
331
43B9
  5
43BA
331
43AB
  5
43AC
331
439C
  5
439D
331
43A8
  5
43A9
331
4399
  5
439A
331
4396
  5
4397
331
4393
  5
4394
331
4390
  5
4391
331
438D
  5
438E
331
438A
  5
438B
331
4386
  5
4387
331
43B5
  5
43B6
331
43A6
  5
43A7
331
43B2
  5
43B3
331
43A3
  5
43A4
331
43AF
  5
43B0
331
43A0
  5
43A1
331
43BA
  5
43BB
331
43AC
  5
43AD
331
439D
  5
439E
331
43A9
  5
43AA
331
439A
  5
439B
331
4397
  5
4398
331
4394
  5
4395
331
4391
  5
4392
331
438E
  5
438F
331
438B
  5
438C
331
4388
  5
4389
331
43FF
  5
4386
331
4387
  5
4388
331
43B6
  5
43B7
331
43A7
  5
43A8
331
43B3
  5
43B4
331
43A4
  5
43A5
331
43B0
  5
43B1
331
43A1
  5
43A2
331
43BB
  5
43FF
331
43AD
  5
43AE
331
439E
  5
439F
331
43B8
  5
43B9
331
43AA
  5
43AB
331
439B
  5
439C
331
4398
  5
4399
331
4395
  5
4396
331
4392
  5
4393
331
438F
  5
4390
331
438C
  5
438D
331
4389
  5
438A
  0
SORTENTSTABLE
  5
5A4A
102
{ACAD_REACTORS
330
44DD
102
}
330
44DD
100
AcDbSortentsTable
330
446B
331
4489
  5
448B
331
4488
  5
448A
331
4470
  5
4474
331
448B
  5
448F
331
448A
  5
448C
331
4472
  5
4475
331
4475
  5
4477
331
448C
  5
59DF
331
4474
  5
4476
331
448F
  5
59E0
331
4477
  5
4479
331
4476
  5
4478
331
4479
  5
447B
331
4478
  5
447A
331
447B
  5
447D
331
447A
  5
447C
331
447D
  5
447F
331
447C
  5
447E
331
4480
  5
4482
331
59DF
  5
446E
331
447F
  5
4481
331
4482
  5
4484
331
4481
  5
4483
331
4484
  5
4486
331
4483
  5
4485
331
4486
  5
4488
331
4485
  5
4487
331
4487
  5
4489
331
446F
  5
4472
331
446E
  5
4470
331
59E0
  5
446F
331
447E
  5
4480
  0
SORTENTSTABLE
  5
5533
102
{ACAD_REACTORS
330
467E
102
}
330
467E
100
AcDbSortentsTable
330
45C2
331
467B
  5
467C
331
45EB
  5
45EC
331
45CC
  5
45CD
331
45DC
  5
45DD
331
45EC
  5
45ED
331
467C
  5
467D
331
45DD
  5
45DE
331
45CD
  5
45CE
331
467D
  5
5339
331
45ED
  5
45EE
331
45CE
  5
45CF
331
45DE
  5
45DF
331
45EE
  5
45EF
331
45DF
  5
45E0
331
45CF
  5
45D0
331
45D0
  5
45D1
331
45EF
  5
45F0
331
45F0
  5
45F1
331
45E0
  5
45E1
331
45D1
  5
45D2
331
45E1
  5
45E2
331
45F1
  5
45F2
331
45D2
  5
45D3
331
45F2
  5
45F3
331
45E2
  5
45E3
331
45D3
  5
45D4
331
45E3
  5
45E4
331
45F3
  5
45F4
331
45D4
  5
45D5
331
45E4
  5
45E5
331
45F4
  5
45F5
331
45D5
  5
45D6
331
45F8
  5
45F9
331
45F5
  5
45F6
331
45E5
  5
45E6
331
45D6
  5
45D7
331
45F9
  5
45FA
331
45C5
  5
45C6
331
45E6
  5
45E7
331
45F6
  5
45F7
331
45D7
  5
45D8
331
45FA
  5
45FB
331
45C6
  5
45C7
331
45F7
  5
45F8
331
45E7
  5
45E8
331
45D8
  5
45D9
331
45C8
  5
45C9
331
45FB
  5
45FC
331
45C7
  5
45C8
331
45E8
  5
45E9
331
45D9
  5
45DA
331
45FC
  5
45FD
331
45C9
  5
45CA
331
5339
  5
45C5
331
45E9
  5
45EA
331
45CA
  5
45CB
331
45DA
  5
45DB
331
45FD
  5
45FE
331
45EA
  5
45EB
331
45DB
  5
45DC
331
45FE
  5
467B
331
45CB
  5
45CC
  0
SORTENTSTABLE
  5
563C
102
{ACAD_REACTORS
330
4742
102
}
330
4742
100
AcDbSortentsTable
330
46D3
  0
SORTENTSTABLE
  5
5BA9
102
{ACAD_REACTORS
330
4786
102
}
330
4786
100
AcDbSortentsTable
330
475F
  0
DIMASSOC
  5
4917
102
{ACAD_REACTORS
330
490D
102
}
330
490D
100
AcDbDimAssoc
330
4900
 90
        3
 70
     0
 71
     0
  1
AcDbOsnapPointRef
 72
    13
331
42DE
331
42C0
 73
     2
 91
        0
 40
0.0
 10
0.0
 20
0.0
 30
2.000000000000000E+50
 75
     0
  1
AcDbOsnapPointRef
 72
    13
331
42DE
331
42D2
 73
     2
 91
        0
 40
0.0
 10
0.0
 20
0.0
 30
2.000000000000000E+50
 75
     0
  0
DIMASSOC
  5
4938
102
{ACAD_REACTORS
330
492C
102
}
330
492C
100
AcDbDimAssoc
330
491D
 90
        3
 70
     0
 71
     0
  1
AcDbOsnapPointRef
 72
    13
331
43BC
331
43B4
 73
     2
 91
        0
 40
0.0
 10
0.0
 20
0.0
 30
2.000000000000000E+50
 75
     0
  1
AcDbOsnapPointRef
 72
    13
331
45FF
331
45F3
 73
     2
 91
        0
 40
0.0
 10
0.0
 20
0.0
 30
2.000000000000000E+50
 75
     0
  0
DIMASSOC
  5
4954
102
{ACAD_REACTORS
330
4948
102
}
330
4948
100
AcDbDimAssoc
330
4939
 90
        3
 70
     0
 71
     0
  1
AcDbOsnapPointRef
 72
    13
331
45FF
331
45F3
 73
     2
 91
        0
 40
0.0
 10
0.0
 20
0.0
 30
2.000000000000000E+50
 75
     0
  1
AcDbOsnapPointRef
 72
    13
331
45FF
331
45EE
 73
     2
 91
        0
 40
0.0
 10
0.0
 20
0.0
 30
2.000000000000000E+50
 75
     0
  0
DIMASSOC
  5
499A
102
{ACAD_REACTORS
330
4990
102
}
330
4990
100
AcDbDimAssoc
330
4983
 90
        2
 70
     0
 71
     0
  1
AcDbOsnapPointRef
 72
    13
331
45FF
331
45EF
 73
     2
 91
        0
 40
0.0
 10
0.0
 20
0.0
 30
2.000000000000000E+50
 75
     0
  0
DIMASSOC
  5
4A16
102
{ACAD_REACTORS
330
4A0C
102
}
330
4A0C
100
AcDbDimAssoc
330
49FF
 90
        1
 70
     0
 71
     0
  1
AcDbOsnapPointRef
 72
    13
331
42DE
331
42BC
 73
     2
 91
        0
 40
0.0
 10
0.0
 20
0.0
 30
2.000000000000000E+50
 75
     0
  0
DIMASSOC
  5
4B03
102
{ACAD_REACTORS
330
4AF9
102
}
330
4AF9
100
AcDbDimAssoc
330
4AEC
 90
        3
 70
     0
 71
     0
  1
AcDbOsnapPointRef
 72
     1
331
45FF
331
45CB
 73
     2
 91
        0
 40
1.0
 10
0.0
 20
0.0
 30
2.000000000000000E+50
 75
     0
  1
AcDbOsnapPointRef
 72
     1
331
45FF
331
45F2
 73
     2
 91
        0
 40
1.0
 10
0.0
 20
0.0
 30
2.000000000000000E+50
 75
     0
  0
DIMASSOC
  5
4B1B
102
{ACAD_REACTORS
330
4B11
102
}
330
4B11
100
AcDbDimAssoc
330
4B04
 90
        3
 70
     0
 71
     0
  1
AcDbOsnapPointRef
 72
     1
331
45FF
331
45E2
 73
     2
 91
        0
 40
3.141592653589792
 10
0.0
 20
0.0
 30
2.000000000000000E+50
 75
     0
  1
AcDbOsnapPointRef
 72
     1
331
45FF
331
45F0
 73
     2
 91
        0
 40
1.0
 10
0.0
 20
0.0
 30
2.000000000000000E+50
 75
     0
  0
DIMASSOC
  5
4B33
102
{ACAD_REACTORS
330
4B29
102
}
330
4B29
100
AcDbDimAssoc
330
4B1C
 90
        3
 70
     0
 71
     0
  1
AcDbOsnapPointRef
 72
    13
331
4491
331
4470
 73
     2
 91
        0
 40
0.0
 10
0.0
 20
0.0
 30
2.000000000000000E+50
 75
     0
  1
AcDbOsnapPointRef
 72
     1
331
4491
331
447F
 73
     2
 91
        0
 40
1.0
 10
0.0
 20
0.0
 30
2.000000000000000E+50
 75
     0
  0
DIMASSOC
  5
4B6F
102
{ACAD_REACTORS
330
4B65
102
}
330
4B65
100
AcDbDimAssoc
330
4B58
 90
        3
 70
     0
 71
     0
  1
AcDbOsnapPointRef
 72
     2
331
42DE
331
42BC
 73
     2
 91
        0
 40
0.5
 10
0.0
 20
0.0
 30
0.0
 75
     0
  1
AcDbOsnapPointRef
 72
     1
331
476B
331
4784
 73
     2
 91
        0
 40
1.0
 10
0.0
 20
0.0
 30
2.000000000000000E+50
 75
     0
  0
DIMASSOC
  5
4B8B
102
{ACAD_REACTORS
330
4B7F
102
}
330
4B7F
100
AcDbDimAssoc
330
4B70
 90
        3
 70
     0
 71
     0
  1
AcDbOsnapPointRef
 72
     1
331
476B
331
4784
 73
     2
 91
        0
 40
1.0
 10
0.0
 20
0.0
 30
2.000000000000000E+50
 75
     0
  1
AcDbOsnapPointRef
 72
     1
331
4491
331
446F
 73
     2
 91
        0
 40
1.0
 10
0.0
 20
0.0
 30
2.000000000000000E+50
 75
     0
  0
DIMASSOC
  5
4BBC
102
{ACAD_REACTORS
330
4BB2
102
}
330
4BB2
100
AcDbDimAssoc
330
4BA5
 90
        3
 70
     0
 71
     0
  1
AcDbOsnapPointRef
 72
     1
331
4491
331
446F
 73
     2
 91
        0
 40
1.0
 10
0.0
 20
0.0
 30
2.000000000000000E+50
 75
     0
  1
AcDbOsnapPointRef
 72
     2
331
4491
331
446E
 73
     2
 91
        0
 40
0.5
 10
0.0
 20
0.0
 30
0.0
 75
     0
  0
DIMASSOC
  5
4BD8
102
{ACAD_REACTORS
330
4BCC
102
}
330
4BCC
100
AcDbDimAssoc
330
4BBD
 90
        3
 70
     0
 71
     0
  1
AcDbOsnapPointRef
 72
    13
331
43BC
331
439E
 73
     2
 91
        0
 40
0.0
 10
0.0
 20
0.0
 30
2.000000000000000E+50
 75
     0
  1
AcDbOsnapPointRef
 72
    13
331
42DE
331
42C7
 73
     2
 91
        0
 40
0.0
 10
0.0
 20
0.0
 30
2.000000000000000E+50
 75
     0
  0
DIMASSOC
  5
593E
102
{ACAD_REACTORS
330
593D
102
}
330
593D
100
AcDbDimAssoc
330
592E
 90
        2
 70
     0
 71
     0
  1
AcDbOsnapPointRef
 72
     1
331
42DE
331
42BC
 73
     0
 91
        0
 40
0.0
 10
0.0
 20
0.0
 30
2.000000000000000E+50
 75
     0
  0
DIMASSOC
  5
5A59
102
{ACAD_REACTORS
330
5A58
102
}
330
5A58
100
AcDbDimAssoc
330
5A4B
 90
        3
 70
     0
 71
     0
  1
AcDbOsnapPointRef
 72
     6
331
42DE
331
42C7
 73
     0
 91
        0
 40
0.1099718185359551
 10
0.0
 20
0.0
 30
0.0
332
42DE
332
5996
 74
     0
 92
        0
 75
     0
  1
AcDbOsnapPointRef
 72
    13
331
42DE
331
42C9
 73
     0
 91
        0
 40
0.0
 10
0.0
 20
0.0
 30
2.000000000000000E+50
 75
     0
  0
DIMASSOC
  5
5A85
102
{ACAD_REACTORS
330
5A84
102
}
330
5A84
100
AcDbDimAssoc
330
5A75
 90
        3
 70
     0
 71
     0
  1
AcDbOsnapPointRef
 72
     4
331
5A4B
331
5A73
 73
     0
 91
        0
 40
0.0
 10
0.0
 20
0.0
 30
0.0
 75
     0
  1
AcDbOsnapPointRef
 72
    13
331
42DE
331
42BB
 73
     0
 91
        0
 40
0.0
 10
0.0
 20
0.0
 30
2.000000000000000E+50
 75
     0
  0
LAYOUT
  5
22
102
{ACAD_REACTORS
330
1A
102
}
330
1A
100
AcDbPlotSettings
  1

  2
KONICA MINOLTA 501 PCL
  4
A4
  6

 40
5.027082920074462
 41
5.027085781097412
 42
5.027069091796875
 43
5.027069091796875
 44
209.9733276367186
 45
296.9259948730469
 46
0.0
 47
16.94857685287295
 48
0.0
 49
0.0
140
0.0
141
0.0
142
1.0
143
1.680866494217075
 70
 11956
 72
     1
 73
     0
 74
     1
  7
SEISA.ctb
 75
     0
147
0.5949312473301372
 76
     0
 77
     2
 78
   300
148
-429.9149361462458
149
-283.47244540168
100
AcDbLayout
  1
Model
 70
     1
 71
     0
 10
0.0
 20
0.0
 11
12.0
 21
9.0
 12
0.0
 22
0.0
 32
0.0
 14
0.0
 24
0.0
 34
0.0
 15
0.0
 25
0.0
 35
0.0
146
0.0
 13
0.0
 23
0.0
 33
0.0
 16
1.0
 26
0.0
 36
0.0
 17
0.0
 27
1.0
 37
0.0
 76
     0
330
1F
331
27A
1001
ACAD_PSEXT
1000
KONICA MINOLTA 501 PCL
1000
KONICA MINOLTA 501/421/361PCL
1000
IP_192.168.20.231_(1)
1000

1070
     0
  0
LAYOUT
  5
1E
102
{ACAD_REACTORS
330
1A
102
}
330
1A
100
AcDbPlotSettings
  1

  2
none_device
  4
Letter_(8.50_x_11.00_Inches)
  6

 40
6.349999904632567
 41
6.349999904632567
 42
6.350006103515625
 43
6.350006103515625
 44
215.8999938964844
 45
279.3999938964844
 46
0.0
 47
0.0
 48
0.0
 49
0.0
140
0.0
141
0.0
142
1.0
143
1.0
 70
 15024
 72
     1
 73
     1
 74
     5
  7
SEISA.ctb
 75
    16
147
1.0
 76
     0
 77
     2
 78
   300
148
0.0
149
0.0
100
AcDbLayout
  1
レイアウト1
 70
     1
 71
     1
 10
0.0
 20
0.0
 11
420.0
 21
297.0
 12
0.0
 22
0.0
 32
0.0
 14
1.000000000000000E+20
 24
1.000000000000000E+20
 34
1.000000000000000E+20
 15
-1.000000000000000E+20
 25
-1.000000000000000E+20
 35
-1.000000000000000E+20
146
0.0
 13
0.0
 23
0.0
 33
0.0
 16
1.0
 26
0.0
 36
0.0
 17
0.0
 27
1.0
 37
0.0
 76
     0
330
1B
  0
LAYOUT
  5
26
102
{ACAD_REACTORS
330
1A
102
}
330
1A
100
AcDbPlotSettings
  1

  2
none_device
  4
Letter_(8.50_x_11.00_Inches)
  6

 40
6.349999904632567
 41
6.349999904632567
 42
6.350006103515625
 43
6.350006103515625
 44
215.8999938964844
 45
279.3999938964844
 46
0.0
 47
0.0
 48
0.0
 49
0.0
140
0.0
141
0.0
142
1.0
143
1.0
 70
 15024
 72
     1
 73
     1
 74
     5
  7
SEISA.ctb
 75
    16
147
1.0
 76
     0
 77
     2
 78
   300
148
0.0
149
0.0
100
AcDbLayout
  1
レイアウト2
 70
     1
 71
     2
 10
0.0
 20
0.0
 11
12.0
 21
9.0
 12
0.0
 22
0.0
 32
0.0
 14
0.0
 24
0.0
 34
0.0
 15
0.0
 25
0.0
 35
0.0
146
0.0
 13
0.0
 23
0.0
 33
0.0
 16
1.0
 26
0.0
 36
0.0
 17
0.0
 27
1.0
 37
0.0
 76
     0
330
23
  0
MATERIAL
  5
27D
102
{ACAD_REACTORS
330
C4
102
}
330
C4
100
AcDbMaterial
  1
ByBlock
 73
     1
 78
     1
172
     1
176
     1
270
     1
274
     1
 94
       63
  0
MATERIAL
  5
27C
102
{ACAD_REACTORS
330
C4
102
}
330
C4
100
AcDbMaterial
  1
ByLayer
 73
     1
 78
     1
172
     1
176
     1
270
     1
274
     1
 94
       63
  0
MATERIAL
  5
27E
102
{ACAD_REACTORS
330
C4
102
}
330
C4
100
AcDbMaterial
  1
Global
 73
     1
 78
     1
172
     1
176
     1
270
     1
274
     1
 94
       63
  0
MLEADERSTYLE
  5
2D6
102
{ACAD_REACTORS
330
2D5
102
}
330
2D5
100
AcDbMLeaderStyle
170
     2
171
     1
172
     0
 90
        2
 40
0.0
 41
0.0
173
     1
 91
-1056964608
340
14
 92
       -2
290
     1
 42
2.0
291
     1
 43
0.36
  3
Standard
 44
4.0
300

342
11
174
     1
178
     6
175
     1
176
     0
 93
-1056964608
 45
4.0
292
     0
297
     0
 46
4.0
 94
-1056964608
 47
1.0
 49
1.0
140
1.0
293
     1
141
0.0
294
     1
177
     0
142
1.0
295
     0
296
     0
143
0.125
1001
ACAD_MLEADERVER
1070
     2
  0
MLINESTYLE
  5
18
102
{ACAD_REACTORS
330
17
102
}
330
17
100
AcDbMlineStyle
  2
STANDARD
 70
     0
  3

 62
   256
 51
90.0
 52
90.0
 71
     2
 49
0.5
 62
   256
  6
BYLAYER
 49
-0.5
 62
   256
  6
BYLAYER
  0
PLOTSETTINGS
  5
1C7E
102
{ACAD_REACTORS
330
19
102
}
330
19
100
AcDbPlotSettings
  1
SEISA基本
  2
none_device
  4
Letter_(8.50_x_11.00_Inches)
  6

 40
6.349999904632567
 41
6.349999904632567
 42
6.350006103515625
 43
6.350006103515625
 44
215.8999938964844
 45
279.3999938964844
 46
7.302498226506357
 47
0.0
 48
0.0
 49
0.0
140
0.0
141
0.0
142
1.0
143
1.574803221122935
 70
 11956
 72
     1
 73
     1
 74
     2
  7
SEISA.ctb
 75
     0
147
0.6349999711627054
 76
     0
 77
     2
 78
   300
148
0.0
149
0.0
1001
ACAD_PSEXT
1000
なし
1000
なし
1000
適切ではありません
1000
新しいプロッタ環境設定名を選択しない限り、レイアウトは印刷されません。
1070
     0
  0
ACDBPLACEHOLDER
  5
F
102
{ACAD_REACTORS
330
E
102
}
330
E
  0
SCALE
  5
29F2
102
{ACAD_REACTORS
330
2B3
102
}
330
2B3
100
AcDbScale
 70
     0
300
1:2.5
140
1.0
141
2.5
290
     0
  0
SCALE
  5
58DB
102
{ACAD_REACTORS
330
2B3
102
}
330
2B3
100
AcDbScale
 70
     0
300
1:1.5
140
1.0
141
1.5
290
     0
  0
SCALE
  5
2B4
102
{ACAD_REACTORS
330
2B3
102
}
330
2B3
100
AcDbScale
 70
     0
300
1:1
140
1.0
141
1.0
290
     1
  0
SCALE
  5
2B5
102
{ACAD_REACTORS
330
2B3
102
}
330
2B3
100
AcDbScale
 70
     0
300
1:2
140
1.0
141
2.0
290
     0
  0
SCALE
  5
2B6
102
{ACAD_REACTORS
330
2B3
102
}
330
2B3
100
AcDbScale
 70
     0
300
1:4
140
1.0
141
4.0
290
     0
  0
SCALE
  5
2B7
102
{ACAD_REACTORS
330
2B3
102
}
330
2B3
100
AcDbScale
 70
     0
300
1:5
140
1.0
141
5.0
290
     0
  0
SCALE
  5
2B8
102
{ACAD_REACTORS
330
2B3
102
}
330
2B3
100
AcDbScale
 70
     0
300
1:8
140
1.0
141
8.0
290
     0
  0
SCALE
  5
2B9
102
{ACAD_REACTORS
330
2B3
102
}
330
2B3
100
AcDbScale
 70
     0
300
1:10
140
1.0
141
10.0
290
     0
  0
SCALE
  5
2BA
102
{ACAD_REACTORS
330
2B3
102
}
330
2B3
100
AcDbScale
 70
     0
300
1:16
140
1.0
141
16.0
290
     0
  0
SCALE
  5
2BB
102
{ACAD_REACTORS
330
2B3
102
}
330
2B3
100
AcDbScale
 70
     0
300
1:20
140
1.0
141
20.0
290
     0
  0
SCALE
  5
2BC
102
{ACAD_REACTORS
330
2B3
102
}
330
2B3
100
AcDbScale
 70
     0
300
1:30
140
1.0
141
30.0
290
     0
  0
SCALE
  5
2BD
102
{ACAD_REACTORS
330
2B3
102
}
330
2B3
100
AcDbScale
 70
     0
300
1:40
140
1.0
141
40.0
290
     0
  0
SCALE
  5
2BE
102
{ACAD_REACTORS
330
2B3
102
}
330
2B3
100
AcDbScale
 70
     0
300
1:50
140
1.0
141
50.0
290
     0
  0
SCALE
  5
2BF
102
{ACAD_REACTORS
330
2B3
102
}
330
2B3
100
AcDbScale
 70
     0
300
1:100
140
1.0
141
100.0
290
     0
  0
SCALE
  5
2C0
102
{ACAD_REACTORS
330
2B3
102
}
330
2B3
100
AcDbScale
 70
     0
300
2:1
140
2.0
141
1.0
290
     0
  0
SCALE
  5
2C1
102
{ACAD_REACTORS
330
2B3
102
}
330
2B3
100
AcDbScale
 70
     0
300
4:1
140
4.0
141
1.0
290
     0
  0
SCALE
  5
2C2
102
{ACAD_REACTORS
330
2B3
102
}
330
2B3
100
AcDbScale
 70
     0
300
8:1
140
8.0
141
1.0
290
     0
  0
SCALE
  5
2C3
102
{ACAD_REACTORS
330
2B3
102
}
330
2B3
100
AcDbScale
 70
     0
300
10:1
140
10.0
141
1.0
290
     0
  0
SCALE
  5
2C4
102
{ACAD_REACTORS
330
2B3
102
}
330
2B3
100
AcDbScale
 70
     0
300
100:1
140
100.0
141
1.0
290
     0
  0
SCALE
  5
2C5
102
{ACAD_REACTORS
330
2B3
102
}
330
2B3
100
AcDbScale
 70
     0
300
1/128" = 1'-0"
140
0.0078125
141
12.0
290
     0
  0
SCALE
  5
2C6
102
{ACAD_REACTORS
330
2B3
102
}
330
2B3
100
AcDbScale
 70
     0
300
1/64" = 1'-0"
140
0.015625
141
12.0
290
     0
  0
SCALE
  5
2C7
102
{ACAD_REACTORS
330
2B3
102
}
330
2B3
100
AcDbScale
 70
     0
300
1/32" = 1'-0"
140
0.03125
141
12.0
290
     0
  0
SCALE
  5
2C8
102
{ACAD_REACTORS
330
2B3
102
}
330
2B3
100
AcDbScale
 70
     0
300
1/16" = 1'-0"
140
0.0625
141
12.0
290
     0
  0
SCALE
  5
2C9
102
{ACAD_REACTORS
330
2B3
102
}
330
2B3
100
AcDbScale
 70
     0
300
3/32" = 1'-0"
140
0.09375
141
12.0
290
     0
  0
SCALE
  5
2CA
102
{ACAD_REACTORS
330
2B3
102
}
330
2B3
100
AcDbScale
 70
     0
300
1/8" = 1'-0"
140
0.125
141
12.0
290
     0
  0
SCALE
  5
2CB
102
{ACAD_REACTORS
330
2B3
102
}
330
2B3
100
AcDbScale
 70
     0
300
3/16" = 1'-0"
140
0.1875
141
12.0
290
     0
  0
SCALE
  5
2CC
102
{ACAD_REACTORS
330
2B3
102
}
330
2B3
100
AcDbScale
 70
     0
300
1/4" = 1'-0"
140
0.25
141
12.0
290
     0
  0
SCALE
  5
2CD
102
{ACAD_REACTORS
330
2B3
102
}
330
2B3
100
AcDbScale
 70
     0
300
3/8" = 1'-0"
140
0.375
141
12.0
290
     0
  0
SCALE
  5
2CE
102
{ACAD_REACTORS
330
2B3
102
}
330
2B3
100
AcDbScale
 70
     0
300
1/2" = 1'-0"
140
0.5
141
12.0
290
     0
  0
SCALE
  5
2CF
102
{ACAD_REACTORS
330
2B3
102
}
330
2B3
100
AcDbScale
 70
     0
300
3/4" = 1'-0"
140
0.75
141
12.0
290
     0
  0
SCALE
  5
2D0
102
{ACAD_REACTORS
330
2B3
102
}
330
2B3
100
AcDbScale
 70
     0
300
1" = 1'-0"
140
1.0
141
12.0
290
     0
  0
SCALE
  5
2D1
102
{ACAD_REACTORS
330
2B3
102
}
330
2B3
100
AcDbScale
 70
     0
300
1-1/2" = 1'-0"
140
1.5
141
12.0
290
     0
  0
SCALE
  5
2D2
102
{ACAD_REACTORS
330
2B3
102
}
330
2B3
100
AcDbScale
 70
     0
300
3" = 1'-0"
140
3.0
141
12.0
290
     0
  0
SCALE
  5
2D3
102
{ACAD_REACTORS
330
2B3
102
}
330
2B3
100
AcDbScale
 70
     0
300
6" = 1'-0"
140
6.0
141
12.0
290
     0
  0
SCALE
  5
2D4
102
{ACAD_REACTORS
330
2B3
102
}
330
2B3
100
AcDbScale
 70
     0
300
1'-0" = 1'-0"
140
12.0
141
12.0
290
     0
  0
TABLESTYLE
  5
122
102
{ACAD_XDICTIONARY
360
2F5
102
}
102
{ACAD_REACTORS
330
121
102
}
330
121
100
AcDbTableStyle
  3
Standard
 70
     0
 71
     0
 40
1.5
 41
1.5
280
     0
281
     0
  7
STANDARD
140
4.5
170
     2
 62
     0
 63
     7
283
     0
 90
      512
 91
        0
  1

274
    -2
284
     1
 64
     0
275
    -2
285
     1
 65
     0
276
    -2
286
     1
 66
     0
277
    -2
287
     1
 67
     0
278
    -2
288
     1
 68
     0
279
    -2
289
     1
 69
     0
  7
STANDARD
140
6.0
170
     5
 62
     0
 63
     7
283
     0
 90
      512
 91
        0
  1

274
    -2
284
     1
 64
     0
275
    -2
285
     1
 65
     0
276
    -2
286
     1
 66
     0
277
    -2
287
     1
 67
     0
278
    -2
288
     1
 68
     0
279
    -2
289
     1
 69
     0
  7
STANDARD
140
4.5
170
     5
 62
     0
 63
     7
283
     0
 90
      512
 91
        0
  1

274
    -2
284
     1
 64
     0
275
    -2
285
     1
 65
     0
276
    -2
286
     1
 66
     0
277
    -2
287
     1
 67
     0
278
    -2
288
     1
 68
     0
279
    -2
289
     1
 69
     0
  0
VISUALSTYLE
  5
285
102
{ACAD_REACTORS
330
27F
102
}
330
27F
100
AcDbVisualStyle
  2
2dWireframe
 70
     4
 71
     0
 72
     2
 73
     0
 90
        0
 40
-0.6
 41
-30.0
 62
     5
 63
     7
421
 16777215
 74
     1
 91
        4
 64
     7
 65
   257
 75
     1
175
     1
 42
1.0
 92
        0
 66
   257
 43
1.0
 76
     1
 77
     6
 78
     2
 67
     7
 79
     5
170
     0
171
     0
290
     0
174
     0
 93
        1
 44
0.0
173
     0
291
     0
 45
0.0
  0
VISUALSTYLE
  5
287
102
{ACAD_REACTORS
330
27F
102
}
330
27F
100
AcDbVisualStyle
  2
3D Hidden
 70
     6
 71
     1
 72
     2
 73
     2
 90
        0
 40
-0.6
 41
-30.0
 62
     5
 63
     7
421
 16777215
 74
     2
 91
        2
 64
     7
 65
   257
 75
     2
175
     1
 42
40.0
 92
        0
 66
   257
 43
1.0
 76
     1
 77
     6
 78
     2
 67
     7
 79
     3
170
     0
171
     0
290
     0
174
     0
 93
        1
 44
0.0
173
     0
291
     0
 45
0.0
  0
VISUALSTYLE
  5
286
102
{ACAD_REACTORS
330
27F
102
}
330
27F
100
AcDbVisualStyle
  2
3dWireframe
 70
     5
 71
     0
 72
     2
 73
     0
 90
        0
 40
-0.6
 41
-30.0
 62
     5
 63
     7
421
 16777215
 74
     1
 91
        4
 64
     7
 65
   257
 75
     1
175
     1
 42
1.0
 92
        0
 66
   257
 43
1.0
 76
     1
 77
     6
 78
     2
 67
     7
 79
     5
170
     0
171
     0
290
     0
174
     0
 93
        1
 44
0.0
173
     0
291
     0
 45
0.0
  0
VISUALSTYLE
  5
284
102
{ACAD_REACTORS
330
27F
102
}
330
27F
100
AcDbVisualStyle
  2
Basic
 70
     7
 71
     1
 72
     0
 73
     1
 90
        0
 40
-0.6
 41
-30.0
 62
     5
 63
     7
421
 16777215
 74
     0
 91
        4
 64
     7
 65
   257
 75
     1
175
     1
 42
1.0
 92
        8
 66
     7
 43
1.0
 76
     1
 77
     6
 78
     2
 67
     7
 79
     5
170
     0
171
     0
290
     0
174
     0
 93
        1
 44
0.0
173
     0
291
     1
 45
0.0
  0
VISUALSTYLE
  5
28B
102
{ACAD_REACTORS
330
27F
102
}
330
27F
100
AcDbVisualStyle
  2
Brighten
 70
    12
 71
     2
 72
     2
 73
     0
 90
        0
 40
-0.6
 41
-30.0
 62
     5
 63
     7
421
 16777215
 74
     1
 91
        4
 64
     7
 65
   257
 75
     1
175
     1
 42
1.0
 92
        8
 66
     7
 43
1.0
 76
     1
 77
     6
 78
     2
 67
     7
 79
     5
170
     0
171
     0
290
     0
174
     0
 93
        1
 44
50.0
173
     0
291
     1
 45
0.0
  0
VISUALSTYLE
  5
28F
102
{ACAD_REACTORS
330
27F
102
}
330
27F
100
AcDbVisualStyle
  2
ColorChange
 70
    16
 71
     2
 72
     2
 73
     3
 90
        0
 40
-0.6
 41
-30.0
 62
     5
 63
     8
421
  8421504
 74
     1
 91
        4
 64
     7
 65
   257
 75
     1
175
     1
 42
1.0
 92
        8
 66
     8
424
  8421504
 43
1.0
 76
     1
 77
     6
 78
     2
 67
     7
 79
     5
170
     0
171
     0
290
     0
174
     0
 93
        1
 44
0.0
173
     0
291
     1
 45
0.0
  0
VISUALSTYLE
  5
288
102
{ACAD_REACTORS
330
27F
102
}
330
27F
100
AcDbVisualStyle
  2
Conceptual
 70
     9
 71
     3
 72
     2
 73
     0
 90
        0
 40
-0.6
 41
-30.0
 62
     5
 63
     7
421
 16777215
 74
     2
 91
        2
 64
     7
 65
   257
 75
     1
175
     1
 42
40.0
 92
        8
 66
     7
 43
1.0
 76
     1
 77
     6
 78
     2
 67
     7
 79
     3
170
     0
171
     0
290
     0
174
     0
 93
        1
 44
0.0
173
     0
291
     0
 45
0.0
  0
VISUALSTYLE
  5
28A
102
{ACAD_REACTORS
330
27F
102
}
330
27F
100
AcDbVisualStyle
  2
Dim
 70
    11
 71
     2
 72
     2
 73
     0
 90
        0
 40
-0.6
 41
-30.0
 62
     5
 63
     7
421
 16777215
 74
     1
 91
        4
 64
     7
 65
   257
 75
     1
175
     1
 42
1.0
 92
        8
 66
     7
 43
1.0
 76
     1
 77
     6
 78
     2
 67
     7
 79
     5
170
     0
171
     0
290
     0
174
     0
 93
        1
 44
-50.0
173
     0
291
     1
 45
0.0
  0
VISUALSTYLE
  5
28E
102
{ACAD_REACTORS
330
27F
102
}
330
27F
100
AcDbVisualStyle
  2
Facepattern
 70
    15
 71
     2
 72
     2
 73
     0
 90
        0
 40
-0.6
 41
-30.0
 62
     5
 63
     7
421
 16777215
 74
     1
 91
        4
 64
     7
 65
   257
 75
     1
175
     1
 42
1.0
 92
        8
 66
     7
 43
1.0
 76
     1
 77
     6
 78
     2
 67
     7
 79
     5
170
     0
171
     0
290
     0
174
     0
 93
        1
 44
0.0
173
     0
291
     1
 45
0.0
  0
VISUALSTYLE
  5
280
102
{ACAD_REACTORS
330
27F
102
}
330
27F
100
AcDbVisualStyle
  2
Flat
 70
     0
 71
     2
 72
     1
 73
     1
 90
        2
 40
-0.6
 41
30.0
 62
     5
 63
     7
421
 16777215
 74
     0
 91
        4
 64
     7
 65
   257
 75
     1
175
     1
 42
1.0
 92
        8
 66
     7
 43
1.0
 76
     1
 77
     6
 78
     2
 67
     7
 79
     5
170
     0
171
     0
290
     0
174
     0
 93
       13
 44
0.0
173
     0
291
     1
 45
0.0
  0
VISUALSTYLE
  5
281
102
{ACAD_REACTORS
330
27F
102
}
330
27F
100
AcDbVisualStyle
  2
FlatWithEdges
 70
     1
 71
     2
 72
     1
 73
     1
 90
        2
 40
-0.6
 41
30.0
 62
     5
 63
     7
421
 16777215
 74
     1
 91
        4
 64
     7
 65
   257
 75
     1
175
     1
 42
1.0
 92
        0
 66
   257
 43
1.0
 76
     1
 77
     6
 78
     2
 67
     7
 79
     5
170
     0
171
     0
290
     0
174
     0
 93
       13
 44
0.0
173
     0
291
     1
 45
0.0
  0
VISUALSTYLE
  5
282
102
{ACAD_REACTORS
330
27F
102
}
330
27F
100
AcDbVisualStyle
  2
Gouraud
 70
     2
 71
     2
 72
     2
 73
     1
 90
        2
 40
-0.6
 41
30.0
 62
     5
 63
     7
421
 16777215
 74
     0
 91
        4
 64
     7
 65
   257
 75
     1
175
     1
 42
1.0
 92
        0
 66
     7
 43
1.0
 76
     1
 77
     6
 78
     2
 67
     7
 79
     5
170
     0
171
     0
290
     0
174
     0
 93
       13
 44
0.0
173
     0
291
     1
 45
0.0
  0
VISUALSTYLE
  5
283
102
{ACAD_REACTORS
330
27F
102
}
330
27F
100
AcDbVisualStyle
  2
GouraudWithEdges
 70
     3
 71
     2
 72
     2
 73
     1
 90
        2
 40
-0.6
 41
30.0
 62
     5
 63
     7
421
 16777215
 74
     1
 91
        4
 64
     7
 65
   257
 75
     1
175
     1
 42
1.0
 92
        0
 66
   257
 43
1.0
 76
     1
 77
     6
 78
     2
 67
     7
 79
     5
170
     0
171
     0
290
     0
174
     0
 93
       13
 44
0.0
173
     0
291
     1
 45
0.0
  0
VISUALSTYLE
  5
28D
102
{ACAD_REACTORS
330
27F
102
}
330
27F
100
AcDbVisualStyle
  2
Linepattern
 70
    14
 71
     2
 72
     2
 73
     0
 90
        0
 40
-0.6
 41
-30.0
 62
     5
 63
     7
421
 16777215
 74
     1
 91
        4
 64
     7
 65
   257
 75
     7
175
     7
 42
1.0
 92
        8
 66
     7
 43
1.0
 76
     1
 77
     6
 78
     2
 67
     7
 79
     5
170
     0
171
     0
290
     0
174
     0
 93
        1
 44
0.0
173
     0
291
     1
 45
0.0
  0
VISUALSTYLE
  5
289
102
{ACAD_REACTORS
330
27F
102
}
330
27F
100
AcDbVisualStyle
  2
Realistic
 70
     8
 71
     2
 72
     2
 73
     0
 90
        0
 40
-0.6
 41
-30.0
 62
     5
 63
     7
421
 16777215
 74
     1
 91
        0
 64
     7
 65
   257
 75
     1
175
     1
 42
1.0
 92
        8
 66
     8
424
  7895160
 43
1.0
 76
     1
 77
     6
 78
     2
 67
     7
 79
     5
170
     0
171
     0
290
     0
174
     0
 93
       13
 44
0.0
173
     0
291
     0
 45
0.0
  0
VISUALSTYLE
  5
28C
102
{ACAD_REACTORS
330
27F
102
}
330
27F
100
AcDbVisualStyle
  2
Thicken
 70
    13
 71
     2
 72
     2
 73
     0
 90
        0
 40
-0.6
 41
-30.0
 62
     5
 63
     7
421
 16777215
 74
     1
 91
        4
 64
     7
 65
   257
 75
     1
175
     1
 42
1.0
 92
       12
 66
     7
 43
1.0
 76
     1
 77
     6
 78
     2
 67
     7
 79
     5
170
     0
171
     0
290
     0
174
     0
 93
        1
 44
0.0
173
     0
291
     1
 45
0.0
  0
DICTIONARYVAR
  5
2FA
102
{ACAD_REACTORS
330
34
102
}
330
34
100
DictionaryVariables
280
     0
  1
1:2.5
  0
DICTIONARYVAR
  5
2F8
102
{ACAD_REACTORS
330
34
102
}
330
34
100
DictionaryVariables
280
     0
  1
STANDARD
  0
DICTIONARYVAR
  5
140
102
{ACAD_REACTORS
330
34
102
}
330
34
100
DictionaryVariables
280
     0
  1
STANDARD
  0
DICTIONARYVAR
  5
AC
102
{ACAD_REACTORS
330
34
102
}
330
34
100
DictionaryVariables
280
     0
  1
1
  0
DICTIONARYVAR
  5
35
102
{ACAD_REACTORS
330
34
102
}
330
34
100
DictionaryVariables
280
     0
  1
1
  0
DICTIONARYVAR
  5
523F
102
{ACAD_REACTORS
330
34
102
}
330
34
100
DictionaryVariables
280
     0
  1
1
  0
DICTIONARYVAR
  5
5240
102
{ACAD_REACTORS
330
34
102
}
330
34
100
DictionaryVariables
280
     0
  1
15
  0
DICTIONARYVAR
  5
2FB
102
{ACAD_REACTORS
330
34
102
}
330
34
100
DictionaryVariables
280
     0
  1
0
  0
DICTIONARYVAR
  5
2F9
102
{ACAD_REACTORS
330
34
102
}
330
34
100
DictionaryVariables
280
     0
  1
0
  0
DICTIONARY
  5
161B
102
{ACAD_REACTORS
330
49
102
}
330
49
100
AcDbDictionary
281
     1
  0
DICTIONARY
  5
4A
102
{ACAD_REACTORS
330
49
102
}
330
49
100
AcDbDictionary
281
     1
  0
XRECORD
  5
12B
102
{ACAD_REACTORS
330
49
102
}
330
49
100
AcDbXrecord
280
     1
 90
-1023410169
  0
DICTIONARY
  5
2F5
330
122
100
AcDbDictionary
280
     1
281
     1
  3
ACAD_ROUNDTRIP_2008_TABLESTYLE_CELLSTYLEMAP
360
5C57
  0
CELLSTYLEMAP
  5
5C57
102
{ACAD_REACTORS
330
2F5
102
}
330
2F5
100
AcDbCellStyleMap
 90
        3
300
CELLSTYLE
  1
TABLEFORMAT_BEGIN
 90
        5
170
     1
 91
        0
 92
    32768
 62
   257
 93
        1
300
CONTENTFORMAT
  1
CONTENTFORMAT_BEGIN
 90
        0
 91
        0
 92
      512
 93
        0
300

 40
0.0
140
1.0
 94
        5
 62
     0
340
11
144
6.0
309
CONTENTFORMAT_END
171
     1
301
MARGIN
  1
CELLMARGIN_BEGIN
 40
1.5
 40
1.5
 40
1.5
 40
1.5
 40
0.18
 40
0.18
309
CELLMARGIN_END
 94
        6
 95
        1
302
GRIDFORMAT
  1
GRIDFORMAT_BEGIN
 90
        0
 91
        1
 62
     0
 92
       -2
340
0
 93
        0
 40
0.045
309
GRIDFORMAT_END
 95
        2
302
GRIDFORMAT
  1
GRIDFORMAT_BEGIN
 90
        0
 91
        1
 62
     0
 92
       -2
340
0
 93
        0
 40
0.045
309
GRIDFORMAT_END
 95
        4
302
GRIDFORMAT
  1
GRIDFORMAT_BEGIN
 90
        0
 91
        1
 62
     0
 92
       -2
340
0
 93
        0
 40
0.045
309
GRIDFORMAT_END
 95
        8
302
GRIDFORMAT
  1
GRIDFORMAT_BEGIN
 90
        0
 91
        1
 62
     0
 92
       -2
340
0
 93
        0
 40
0.045
309
GRIDFORMAT_END
 95
       16
302
GRIDFORMAT
  1
GRIDFORMAT_BEGIN
 90
        0
 91
        1
 62
     0
 92
       -2
340
0
 93
        0
 40
0.045
309
GRIDFORMAT_END
 95
       32
302
GRIDFORMAT
  1
GRIDFORMAT_BEGIN
 90
        0
 91
        1
 62
     0
 92
       -2
340
0
 93
        0
 40
0.045
309
GRIDFORMAT_END
309
TABLEFORMAT_END
  1
CELLSTYLE_BEGIN
 90
        1
 91
        1
300
_TITLE
309
CELLSTYLE_END
300
CELLSTYLE
  1
TABLEFORMAT_BEGIN
 90
        5
170
     1
 91
        0
 92
        0
 62
   257
 93
        1
300
CONTENTFORMAT
  1
CONTENTFORMAT_BEGIN
 90
        0
 91
        0
 92
      512
 93
        0
300

 40
0.0
140
1.0
 94
        5
 62
     0
340
11
144
4.5
309
CONTENTFORMAT_END
171
     1
301
MARGIN
  1
CELLMARGIN_BEGIN
 40
1.5
 40
1.5
 40
1.5
 40
1.5
 40
0.18
 40
0.18
309
CELLMARGIN_END
 94
        6
 95
        1
302
GRIDFORMAT
  1
GRIDFORMAT_BEGIN
 90
        0
 91
        1
 62
     0
 92
       -2
340
0
 93
        0
 40
0.045
309
GRIDFORMAT_END
 95
        2
302
GRIDFORMAT
  1
GRIDFORMAT_BEGIN
 90
        0
 91
        1
 62
     0
 92
       -2
340
0
 93
        0
 40
0.045
309
GRIDFORMAT_END
 95
        4
302
GRIDFORMAT
  1
GRIDFORMAT_BEGIN
 90
        0
 91
        1
 62
     0
 92
       -2
340
0
 93
        0
 40
0.045
309
GRIDFORMAT_END
 95
        8
302
GRIDFORMAT
  1
GRIDFORMAT_BEGIN
 90
        0
 91
        1
 62
     0
 92
       -2
340
0
 93
        0
 40
0.045
309
GRIDFORMAT_END
 95
       16
302
GRIDFORMAT
  1
GRIDFORMAT_BEGIN
 90
        0
 91
        1
 62
     0
 92
       -2
340
0
 93
        0
 40
0.045
309
GRIDFORMAT_END
 95
       32
302
GRIDFORMAT
  1
GRIDFORMAT_BEGIN
 90
        0
 91
        1
 62
     0
 92
       -2
340
0
 93
        0
 40
0.045
309
GRIDFORMAT_END
309
TABLEFORMAT_END
  1
CELLSTYLE_BEGIN
 90
        2
 91
        1
300
_HEADER
309
CELLSTYLE_END
300
CELLSTYLE
  1
TABLEFORMAT_BEGIN
 90
        5
170
     1
 91
        0
 92
        0
 62
   257
 93
        1
300
CONTENTFORMAT
  1
CONTENTFORMAT_BEGIN
 90
        0
 91
        0
 92
      512
 93
        0
300

 40
0.0
140
1.0
 94
        2
 62
     0
340
11
144
4.5
309
CONTENTFORMAT_END
171
     1
301
MARGIN
  1
CELLMARGIN_BEGIN
 40
1.5
 40
1.5
 40
1.5
 40
1.5
 40
0.18
 40
0.18
309
CELLMARGIN_END
 94
        6
 95
        1
302
GRIDFORMAT
  1
GRIDFORMAT_BEGIN
 90
        0
 91
        1
 62
     0
 92
       -2
340
0
 93
        0
 40
0.045
309
GRIDFORMAT_END
 95
        2
302
GRIDFORMAT
  1
GRIDFORMAT_BEGIN
 90
        0
 91
        1
 62
     0
 92
       -2
340
0
 93
        0
 40
0.045
309
GRIDFORMAT_END
 95
        4
302
GRIDFORMAT
  1
GRIDFORMAT_BEGIN
 90
        0
 91
        1
 62
     0
 92
       -2
340
0
 93
        0
 40
0.045
309
GRIDFORMAT_END
 95
        8
302
GRIDFORMAT
  1
GRIDFORMAT_BEGIN
 90
        0
 91
        1
 62
     0
 92
       -2
340
0
 93
        0
 40
0.045
309
GRIDFORMAT_END
 95
       16
302
GRIDFORMAT
  1
GRIDFORMAT_BEGIN
 90
        0
 91
        1
 62
     0
 92
       -2
340
0
 93
        0
 40
0.045
309
GRIDFORMAT_END
 95
       32
302
GRIDFORMAT
  1
GRIDFORMAT_BEGIN
 90
        0
 91
        1
 62
     0
 92
       -2
340
0
 93
        0
 40
0.045
309
GRIDFORMAT_END
309
TABLEFORMAT_END
  1
CELLSTYLE_BEGIN
 90
        3
 91
        2
300
_DATA
309
CELLSTYLE_END
  0
ENDSEC
  0
EOF
