  0
SECTION
  2
HEADER
  9
$ACADVER
  1
AC1021
  9
$ACADMAINTVER
 70
    26
  9
$DWGCODEPAGE
  3
ANSI_932
  9
$LASTSAVEDBY
  1
Htm_Terada
  9
$CUSTOMPROPERTYTAG
  1
AmdtFileType
  9
$CUSTOMPROPERTY
  1
84
  9
$INSBASE
 10
0.0
 20
0.0
 30
0.0
  9
$EXTMIN
 10
433.1792059999996
 20
347.3393210625002
 30
0.0
  9
$EXTMAX
 10
739.8630025399437
 20
746.5140035000001
 30
0.0
  9
$LIMMIN
 10
-0.0000002271699202
 20
0.0
  9
$LIMMAX
 10
1485.000000340755
 20
1050.0
  9
$ORTHOMODE
 70
     1
  9
$REGENMODE
 70
     1
  9
$FILLMODE
 70
     1
  9
$QTEXTMODE
 70
     0
  9
$MIRRTEXT
 70
     1
  9
$LTSCALE
 40
2.5
  9
$ATTMODE
 70
     1
  9
$TEXTSIZE
 40
25.0
  9
$TRACEWID
 40
1.0
  9
$TEXTSTYLE
  7
SEISA
  9
$CLAYER
  8
AM_0 外形線1
  9
$CELTYPE
  6
ByLayer
  9
$CECOLOR
 62
   256
  9
$CELTSCALE
 40
1.0
  9
$DISPSILH
 70
     0
  9
$DIMSCALE
 40
2.5
  9
$DIMASZ
 40
2.5
  9
$DIMEXO
 40
0.625
  9
$DIMDLI
 40
10.0
  9
$DIMRND
 40
0.0
  9
$DIMDLE
 40
0.0
  9
$DIMEXE
 40
0.625
  9
$DIMTP
 40
0.1
  9
$DIMTM
 40
0.1
  9
$DIMTXT
 40
3.5
  9
$DIMCEN
 40
0.0
  9
$DIMTSZ
 40
0.0
  9
$DIMTOL
 70
     0
  9
$DIMLIM
 70
     0
  9
$DIMTIH
 70
     0
  9
$DIMTOH
 70
     0
  9
$DIMSE1
 70
     0
  9
$DIMSE2
 70
     0
  9
$DIMTAD
 70
     3
  9
$DIMZIN
 70
     8
  9
$DIMBLK
  1
Open30
  9
$DIMASO
 70
     1
  9
$DIMSHO
 70
     1
  9
$DIMPOST
  1

  9
$DIMAPOST
  1
"
  9
$DIMALT
 70
     0
  9
$DIMALTD
 70
     2
  9
$DIMALTF
 40
0.0393701
  9
$DIMLFAC
 40
1.0
  9
$DIMTOFL
 70
     1
  9
$DIMTVP
 40
0.0
  9
$DIMTIX
 70
     0
  9
$DIMSOXD
 70
     0
  9
$DIMSAH
 70
     0
  9
$DIMBLK1
  1

  9
$DIMBLK2
  1

  9
$DIMSTYLE
  2
SEISA
  9
$DIMCLRD
 70
     3
  9
$DIMCLRE
 70
     3
  9
$DIMCLRT
 70
     3
  9
$DIMTFAC
 40
0.71
  9
$DIMGAP
 40
1.5
  9
$DIMJUST
 70
     0
  9
$DIMSD1
 70
     0
  9
$DIMSD2
 70
     0
  9
$DIMTOLJ
 70
     0
  9
$DIMTZIN
 70
     0
  9
$DIMALTZ
 70
     0
  9
$DIMALTTZ
 70
     8
  9
$DIMUPT
 70
     0
  9
$DIMDEC
 70
     2
  9
$DIMTDEC
 70
     2
  9
$DIMALTU
 70
     2
  9
$DIMALTTD
 70
     2
  9
$DIMTXSTY
  7
SEISA
  9
$DIMAUNIT
 70
     0
  9
$DIMADEC
 70
     0
  9
$DIMALTRND
 40
0.0
  9
$DIMAZIN
 70
     2
  9
$DIMDSEP
 70
    46
  9
$DIMATFIT
 70
     3
  9
$DIMFRAC
 70
     0
  9
$DIMLDRBLK
  1
Open30
  9
$DIMLUNIT
 70
     2
  9
$DIMLWD
 70
    -1
  9
$DIMLWE
 70
    -1
  9
$DIMTMOVE
 70
     0
  9
$DIMFXL
 40
1.0
  9
$DIMFXLON
 70
     0
  9
$DIMJOGANG
 40
0.7853981633974483
  9
$DIMTFILL
 70
     0
  9
$DIMTFILLCLR
 70
     0
  9
$DIMARCSYM
 70
     1
  9
$DIMLTYPE
  6

  9
$DIMLTEX1
  6

  9
$DIMLTEX2
  6

  9
$LUNITS
 70
     2
  9
$LUPREC
 70
     2
  9
$SKETCHINC
 40
1.0
  9
$FILLETRAD
 40
0.4
  9
$AUNITS
 70
     0
  9
$AUPREC
 70
     0
  9
$MENU
  1
.
  9
$ELEVATION
 40
0.0
  9
$PELEVATION
 40
0.0
  9
$THICKNESS
 40
0.0
  9
$LIMCHECK
 70
     0
  9
$CHAMFERA
 40
1.0
  9
$CHAMFERB
 40
1.0
  9
$CHAMFERC
 40
1.0
  9
$CHAMFERD
 40
0.7853981633974483
  9
$SKPOLY
 70
     0
  9
$TDCREATE
 40
2454964.709784306
  9
$TDUCREATE
 40
2454964.334784306
  9
$TDUPDATE
 40
2456479.551837384
  9
$TDUUPDATE
 40
2456479.176837384
  9
$TDINDWG
 40
0.1954670023
  9
$TDUSRTIMER
 40
0.1954664583
  9
$USRTIMER
 70
     1
  9
$ANGBASE
 50
0.0
  9
$ANGDIR
 70
     0
  9
$PDMODE
 70
     0
  9
$PDSIZE
 40
0.0
  9
$PLINEWID
 40
0.0
  9
$SPLFRAME
 70
     0
  9
$SPLINETYPE
 70
     6
  9
$SPLINESEGS
 70
     8
  9
$HANDSEED
  5
58DC
  9
$SURFTAB1
 70
     6
  9
$SURFTAB2
 70
     6
  9
$SURFTYPE
 70
     6
  9
$SURFU
 70
     6
  9
$SURFV
 70
     6
  9
$UCSBASE
  2

  9
$UCSNAME
  2

  9
$UCSORG
 10
0.0
 20
0.0
 30
0.0
  9
$UCSXDIR
 10
1.0
 20
0.0
 30
0.0
  9
$UCSYDIR
 10
0.0
 20
1.0
 30
0.0
  9
$UCSORTHOREF
  2

  9
$UCSORTHOVIEW
 70
     0
  9
$UCSORGTOP
 10
0.0
 20
0.0
 30
0.0
  9
$UCSORGBOTTOM
 10
0.0
 20
0.0
 30
0.0
  9
$UCSORGLEFT
 10
0.0
 20
0.0
 30
0.0
  9
$UCSORGRIGHT
 10
0.0
 20
0.0
 30
0.0
  9
$UCSORGFRONT
 10
0.0
 20
0.0
 30
0.0
  9
$UCSORGBACK
 10
0.0
 20
0.0
 30
0.0
  9
$PUCSBASE
  2

  9
$PUCSNAME
  2

  9
$PUCSORG
 10
0.0
 20
0.0
 30
0.0
  9
$PUCSXDIR
 10
1.0
 20
0.0
 30
0.0
  9
$PUCSYDIR
 10
0.0
 20
1.0
 30
0.0
  9
$PUCSORTHOREF
  2

  9
$PUCSORTHOVIEW
 70
     0
  9
$PUCSORGTOP
 10
0.0
 20
0.0
 30
0.0
  9
$PUCSORGBOTTOM
 10
0.0
 20
0.0
 30
0.0
  9
$PUCSORGLEFT
 10
0.0
 20
0.0
 30
0.0
  9
$PUCSORGRIGHT
 10
0.0
 20
0.0
 30
0.0
  9
$PUCSORGFRONT
 10
0.0
 20
0.0
 30
0.0
  9
$PUCSORGBACK
 10
0.0
 20
0.0
 30
0.0
  9
$USERI1
 70
     0
  9
$USERI2
 70
     0
  9
$USERI3
 70
     0
  9
$USERI4
 70
     0
  9
$USERI5
 70
     0
  9
$USERR1
 40
0.0
  9
$USERR2
 40
0.0
  9
$USERR3
 40
0.0
  9
$USERR4
 40
0.0
  9
$USERR5
 40
0.0
  9
$WORLDVIEW
 70
     1
  9
$SHADEDGE
 70
     3
  9
$SHADEDIF
 70
    70
  9
$TILEMODE
 70
     1
  9
$MAXACTVP
 70
    64
  9
$PINSBASE
 10
0.0
 20
0.0
 30
0.0
  9
$PLIMCHECK
 70
     0
  9
$PEXTMIN
 10
1.000000000000000E+20
 20
1.000000000000000E+20
 30
1.000000000000000E+20
  9
$PEXTMAX
 10
-1.000000000000000E+20
 20
-1.000000000000000E+20
 30
-1.000000000000000E+20
  9
$PLIMMIN
 10
0.0
 20
0.0
  9
$PLIMMAX
 10
420.0
 20
297.0
  9
$UNITMODE
 70
     0
  9
$VISRETAIN
 70
     1
  9
$PLINEGEN
 70
     0
  9
$PSLTSCALE
 70
     1
  9
$TREEDEPTH
 70
  3020
  9
$CMLSTYLE
  2
Standard
  9
$CMLJUST
 70
     0
  9
$CMLSCALE
 40
20.0
  9
$PROXYGRAPHICS
 70
     1
  9
$MEASUREMENT
 70
     1
  9
$CELWEIGHT
370
    -1
  9
$ENDCAPS
280
     0
  9
$JOINSTYLE
280
     0
  9
$LWDISPLAY
290
     0
  9
$INSUNITS
 70
     4
  9
$HYPERLINKBASE
  1

  9
$STYLESHEET
  1
SEISA.CTB
  9
$XEDIT
290
     1
  9
$CEPSNTYPE
380
     0
  9
$PSTYLEMODE
290
     1
  9
$FINGERPRINTGUID
  2
{6A1DBD95-9A8D-4E6D-881D-5904EC39C4BD}
  9
$VERSIONGUID
  2
{1030B68F-F1BC-4354-9245-C236568EF343}
  9
$EXTNAMES
290
     1
  9
$PSVPSCALE
 40
0.0
  9
$OLESTARTUP
290
     0
  9
$SORTENTS
280
   127
  9
$INDEXCTL
280
     0
  9
$HIDETEXT
280
     0
  9
$XCLIPFRAME
290
     0
  9
$HALOGAP
280
     0
  9
$OBSCOLOR
 70
   257
  9
$OBSLTYPE
280
     0
  9
$INTERSECTIONDISPLAY
280
     0
  9
$INTERSECTIONCOLOR
 70
   257
  9
$DIMASSOC
280
     2
  9
$PROJECTNAME
  1

  9
$CAMERADISPLAY
290
     0
  9
$LENSLENGTH
 40
50.0
  9
$CAMERAHEIGHT
 40
0.0
  9
$STEPSPERSEC
 40
2.0
  9
$STEPSIZE
 40
6.0
  9
$3DDWFPREC
 40
2.0
  9
$PSOLWIDTH
 40
0.25
  9
$PSOLHEIGHT
 40
4.0
  9
$LOFTANG1
 40
1.570796326794896
  9
$LOFTANG2
 40
1.570796326794896
  9
$LOFTMAG1
 40
0.0
  9
$LOFTMAG2
 40
0.0
  9
$LOFTPARAM
 70
     7
  9
$LOFTNORMALS
280
     1
  9
$LATITUDE
 40
37.795
  9
$LONGITUDE
 40
-122.394
  9
$NORTHDIRECTION
 40
0.0
  9
$TIMEZONE
 70
 -8000
  9
$LIGHTGLYPHDISPLAY
280
     1
  9
$TILEMODELIGHTSYNCH
280
     1
  9
$CMATERIAL
347
27C
  9
$SOLIDHIST
280
     1
  9
$SHOWHIST
280
     1
  9
$DWFFRAME
280
     2
  9
$DGNFRAME
280
     0
  9
$REALWORLDSCALE
290
     1
  9
$INTERFERECOLOR
 62
     1
  9
$INTERFEREOBJVS
345
289
  9
$INTERFEREVPVS
346
286
  9
$CSHADOW
280
     0
  9
$SHADOWPLANELOCATION
 40
0.0
  0
ENDSEC
  0
SECTION
  2
CLASSES
  0
CLASS
  1
ACDBDICTIONARYWDFLT
  2
AcDbDictionaryWithDefault
  3
ObjectDBX Classes
 90
        0
 91
        1
280
     0
281
     0
  0
CLASS
  1
AMGSETTINGSOBJ
  2
AmgSettingsObj
  3
"AcadM|Product Description: AutoCAD Mechanical|Company: Autodesk, Inc."
 90
     1024
 91
        2
280
     0
281
     0
  0
CLASS
  1
ACME_DOCUMENT
  2
AcMeDbDoc
  3
AcMeServices
 90
     1024
 91
        1
280
     0
281
     0
  0
CLASS
  1
ACMESCOPE
  2
AcMeScope
  3
AcMeServices
 90
     1024
 91
        1
280
     0
281
     0
  0
CLASS
  1
ACMECOMMANDHISTORY
  2
AcMeCommandHistory
  3
AcMeServices
 90
     1024
 91
        1
280
     0
281
     0
  0
CLASS
  1
DICTIONARYVAR
  2
AcDbDictionaryVar
  3
ObjectDBX Classes
 90
        0
 91
        9
280
     0
281
     0
  0
CLASS
  1
ACIMSYSVARMAN
  2
AcImSysVarManager
  3
AcMeServices
 90
     1024
 91
        5
280
     0
281
     0
  0
CLASS
  1
ACIMREALSYSVAR
  2
AcImRealSysVar
  3
AcMeServices
 90
     1024
 91
        1
280
     0
281
     0
  0
CLASS
  1
ACIMINTSYSVAR
  2
AcImIntSysVar
  3
AcMeServices
 90
     1024
 91
       27
280
     0
281
     0
  0
CLASS
  1
ACMEDRAWINGMAN
  2
AcMeDrawingMan
  3
AcMeServices
 90
     1024
 91
        1
280
     0
281
     0
  0
CLASS
  1
ACMEVIEW
  2
AcMeView
  3
AcMeServices
 90
     1024
 91
        1
280
     0
281
     0
  0
CLASS
  1
ACDBENTITYCACHE
  2
AcMeEntityCache
  3
AcMeServices
 90
     1024
 91
        1
280
     0
281
     0
  0
CLASS
  1
GSMANAGER
  2
AcMeGSManager
  3
AcMeServices
 90
     1024
 91
        1
280
     0
281
     0
  0
CLASS
  1
AMDTINTERNALREACTOR
  2
AmdtInternalReactor
  3
AcMeServices
 90
     1024
 91
        2
280
     0
281
     0
  0
CLASS
  1
ACMESTATEMGR
  2
AcMeStateMgr
  3
AcMeServices
 90
     1024
 91
        1
280
     0
281
     0
  0
CLASS
  1
ACGREFMASTER
  2
AcGrefMaster
  3
AcAttribServices
 90
     1024
 91
        1
280
     0
281
     0
  0
CLASS
  1
ACME_DATABASE
  2
AcMeDbDatabase
  3
AcMeServices
 90
     1024
 91
        1
280
     0
281
     0
  0
CLASS
  1
ACRFINSADJUSTERMGR
  2
AcRfInsAdjusterMgr
  3
AcMeServices
 90
     1024
 91
        1
280
     0
281
     0
  0
CLASS
  1
ACGREFACADMASTER
  2
AcGrefacadMaster
  3
AcGrefServices
 90
     1024
 91
        1
280
     0
281
     0
  0
CLASS
  1
AMIMASTER
  2
AmiMaster
  3
AmiServices
 90
     1024
 91
        1
280
     0
281
     0
  0
CLASS
  1
ACIMSTRSYSVAR
  2
AcImStrSysVar
  3
AcMeServices
 90
     1024
 91
        5
280
     0
281
     0
  0
CLASS
  1
ACMSTANDARDJIS
  2
AcmStandardJIS
  3
"Amdt_StdImp|Product Description: AutoCAD Mechanical|Company: Autodesk, Inc."
 90
     1024
 91
        0
280
     0
281
     0
  0
CLASS
  1
AMGOBJPROPCFG
  2
AmgObjPropCfg
  3
"AmgLay|Product Description: AutoCAD Mechanical|Company: Autodesk, Inc."
 90
     1025
 91
        1
280
     0
281
     0
  0
CLASS
  1
ACMSURFSTANDARDJIS
  2
AcmSurfTextStdJIS
  3
"Amdt_StdImp|Product Description: AutoCAD Mechanical|Company: Autodesk, Inc."
 90
     1024
 91
        0
280
     0
281
     0
  0
CLASS
  1
ACMFCFSTANDARDJIS
  2
AcmFCFStdJIS
  3
"Amdt_StdImp|Product Description: AutoCAD Mechanical|Company: Autodesk, Inc."
 90
     1024
 91
        0
280
     0
281
     0
  0
CLASS
  1
ACMWELDSTANDARDJIS
  2
AcmWeldingStdJIS
  3
"Amdt_StdImp|Product Description: AutoCAD Mechanical|Company: Autodesk, Inc."
 90
     1024
 91
        0
280
     0
281
     0
  0
CLASS
  1
ACMIDSTANDARDJIS
  2
AcmIdStdJIS
  3
"Amdt_StdImp|Product Description: AutoCAD Mechanical|Company: Autodesk, Inc."
 90
     1024
 91
        0
280
     0
281
     0
  0
CLASS
  1
ACMDATUMSTANDARDJIS
  2
AcmDatumStdJIS
  3
"Amdt_StdImp|Product Description: AutoCAD Mechanical|Company: Autodesk, Inc."
 90
     1024
 91
        0
280
     0
281
     0
  0
CLASS
  1
ACMBOMSTANDARDJIS
  2
AcmBOMStdJIS
  3
"Amdt_StdImp|Product Description: AutoCAD Mechanical|Company: Autodesk, Inc."
 90
     1024
 91
        0
280
     0
281
     0
  0
CLASS
  1
ACMDETAILSTANDARDJIS
  2
AmdtDetailSymStdJIS
  3
"Amdt_StdImp|Product Description: AutoCAD Mechanical|Company: Autodesk, Inc."
 90
     1024
 91
        0
280
     0
281
     0
  0
CLASS
  1
ACMSECTIONSTANDARDJIS
  2
AmdtSectionSymStdJIS
  3
"Amdt_StdImp|Product Description: AutoCAD Mechanical|Company: Autodesk, Inc."
 90
     1024
 91
        0
280
     0
281
     0
  0
CLASS
  1
ACMCENTERLINESTANDARDJIS
  2
AmdtCenterLineStdJIS
  3
"Amdt_StdImp|Product Description: AutoCAD Mechanical|Company: Autodesk, Inc."
 90
     1024
 91
        0
280
     0
281
     0
  0
CLASS
  1
ACMTHREADLINESTANDARDJIS
  2
AmdtThreadLineStdJIS
  3
"Amdt_StdImp|Product Description: AutoCAD Mechanical|Company: Autodesk, Inc."
 90
     1024
 91
        0
280
     0
281
     0
  0
CLASS
  1
ACAMGLAYSTD
  2
AcAmgLayStd
  3
"AmgLay|Product Description: AutoCAD Mechanical|Company: Autodesk, Inc."
 90
     1024
 91
        1
280
     0
281
     0
  0
CLASS
  1
ACAMGDIMSTD
  2
AcAmgDimStd
  3
"AmgDim|Product Description: AutoCAD Mechanical|Company: Autodesk, Inc."
 90
     1024
 91
        1
280
     0
281
     0
  0
CLASS
  1
ACAMGTITLESTD
  2
AcAmgTitleStd
  3
"AmgTitle|Product Description: AutoCAD Mechanical|Company: Autodesk, Inc."
 90
     4095
 91
        1
280
     0
281
     0
  0
CLASS
  1
ACMDATADICTIONARY
  2
AcmDataDictionary
  3
"AcmSymBB|Product Description: AutoCAD Mechanical|Company: Autodesk, Inc."
 90
     1024
 91
        1
280
     0
281
     0
  0
CLASS
  1
ACMDATAENTRYBLOCK
  2
AcmDataEntryBlock
  3
AcmSymBB|Product Description: AutoCAD Mechanical|Company: Autodesk, Inc.
 90
     1024
 91
        0
280
     0
281
     0
  0
CLASS
  1
LAYER_INDEX
  2
AcDbLayerIndex
  3
ObjectDBX Classes
 90
        0
 91
        0
280
     0
281
     0
  0
CLASS
  1
IDBUFFER
  2
AcDbIdBuffer
  3
ObjectDBX Classes
 90
        0
 91
        0
280
     0
281
     0
  0
CLASS
  1
ACMNOTESTANDARDJIS
  2
AmdtNoteStdJIS
  3
"Amdt_StdImp|Product Description: AutoCAD Mechanical|Company: Autodesk, Inc."
 90
     1024
 91
        0
280
     0
281
     0
  0
CLASS
  1
ACAMGHOLECHARTSTDJIS
  2
AcAmgHoleChartStdJIS
  3
AmgDim|Product Description: AutoCAD Mechanical|Company: Autodesk, Inc.
 90
     1024
 91
        0
280
     0
281
     0
  0
CLASS
  1
AM_DRAWING_MGR
  2
AcDmDwgMgr
  3
AcMechDwgViewMgmt
 90
     1024
 91
        1
280
     0
281
     0
  0
CLASS
  1
AM_DWG_DOCUMENT
  2
AcDmDwgDocument
  3
AcMechDwgViewMgmt
 90
     1024
 91
        1
280
     0
281
     0
  0
CLASS
  1
AM_DWG_SHEET
  2
AcDmSheet
  3
AcMechDwgViewMgmt
 90
     1024
 91
        2
280
     0
281
     0
  0
CLASS
  1
AM_VIEWDIMPARMAP
  2
AcDmViewDimParMap
  3
AcMechDwgViewMgmt
 90
     1024
 91
        2
280
     0
281
     0
  0
CLASS
  1
AM_DWGMGR_NAME
  2
AcDmDwgMgrName
  3
AcMechDwgViewMgmt
 90
     1024
 91
        1
280
     0
281
     0
  0
CLASS
  1
AMDTMENUSTATEMGR
  2
AmdtMenuStateMgr
  3
McadcomServices
 90
     1024
 91
        1
280
     0
281
     0
  0
CLASS
  1
AMDTMCOMMENUSTATE
  2
AmdtMcomMenuState
  3
McadcomServices
 90
     1024
 91
        1
280
     0
281
     0
  0
CLASS
  1
MAPIAMMOUDLE
  2
MApiAmModule
  3
MApiAmServices
 90
     1024
 91
        1
280
     0
281
     0
  0
CLASS
  1
AMDTADMENUSTATE
  2
AmdtAdMenuState
  3
DesignerServices
 90
     1024
 91
        1
280
     0
281
     0
  0
CLASS
  1
ADAPPL
  2
AcAdAppl
  3
DesignerServices
 90
     1024
 91
        1
280
     0
281
     0
  0
CLASS
  1
DEPMGR
  2
AcAdDepMgr
  3
DesignerServices
 90
     1024
 91
        1
280
     0
281
     0
  0
CLASS
  1
PARAMMGR
  2
AcAdParamMgr
  3
DesignerServices
 90
     1024
 91
        1
280
     0
281
     0
  0
CLASS
  1
PARAMSCOPE
  2
AcAdParamScope
  3
DesignerServices
 90
     1024
 91
        1
280
     0
281
     0
  0
CLASS
  1
NAMEDAPPL
  2
AcAdNamedAppl
  3
DesignerServices
 90
     1024
 91
        1
280
     0
281
     0
  0
CLASS
  1
AMDTDMMENUSTATE
  2
AmdtDmMenuState
  3
AcMechDwgViewMgmt
 90
     1024
 91
        1
280
     0
281
     0
  0
CLASS
  1
AMDTAMMENUSTATE
  2
AmdtAmMenuState
  3
DesignerAssemblies
 90
     1024
 91
        1
280
     0
281
     0
  0
CLASS
  1
ACAMPROJECT
  2
AcAmProject
  3
DesignerAssemblies
 90
     1024
 91
        1
280
     0
281
     0
  0
CLASS
  1
ACAMGRCOMPDEF
  2
AcAmGrCompDef
  3
DesignerAssemblies
 90
     1024
 91
        1
280
     0
281
     0
  0
CLASS
  1
ACCMCONTEXT
  2
AcCmContext
  3
DesignerAssemblies
 90
     1024
 91
        1
280
     0
281
     0
  0
CLASS
  1
ACAMCOMPDEF
  2
AcAmCompDef
  3
DesignerAssemblies
 90
     1024
 91
        1
280
     0
281
     0
  0
CLASS
  1
ACAMCOMPDEFMGR
  2
AcAmCompDefMgr
  3
DesignerAssemblies
 90
     1024
 91
        1
280
     0
281
     0
  0
CLASS
  1
AMCONTEXTMGR
  2
AcAmContextMgr
  3
DesignerAssemblies
 90
     1024
 91
        1
280
     0
281
     0
  0
CLASS
  1
ACAMCONTEXTMODELER
  2
AcAmContextModeler
  3
DesignerAssemblies
 90
     1024
 91
        1
280
     0
281
     0
  0
CLASS
  1
CATALOGSTATE
  2
AcAmCatalogState
  3
DesignerAssemblies
 90
     1024
 91
        1
280
     0
281
     0
  0
CLASS
  1
ACAMGRCOMPDEFSET
  2
AcAmGrCompDefSet
  3
DesignerAssemblies
 90
     1024
 91
        1
280
     0
281
     0
  0
CLASS
  1
AMDTBROWSERDBTAB
  2
AmdtBrowserDbTab
  3
McadcomServices
 90
     1024
 91
        1
280
     0
281
     0
  0
CLASS
  1
CBROWSERAPPOBJECT
  2
CBrowserAppObject
  3
McadcomServices
 90
     1024
 91
        3
280
     0
281
     0
  0
CLASS
  1
DM_PLACEHOLDER
  2
AcDmSelsetPlaceholder
  3
AcMechDwgViewMgmt
 90
     1024
 91
        1
280
     0
281
     0
  0
CLASS
  1
TABLESTYLE
  2
AcDbTableStyle
  3
ObjectDBX Classes
 90
     4095
 91
        1
280
     0
281
     0
  0
CLASS
  1
VAACXREFPANELOBJECT
  2
VaAcXREFPanelObject
  3
VAAC_ADDIN
 90
        0
 91
        0
280
     0
281
     0
  0
CLASS
  1
VAACIMAGEINVENTORY
  2
VaAcImageInventory
  3
VAAC_ADDIN
 90
        0
 91
        0
280
     0
281
     0
  0
CLASS
  1
AMDTNOTETEMPLATEDB
  2
AmdtNoteTemplateDB
  3
AcmSymBB|Product Description: AutoCAD Mechanical|Company: Autodesk, Inc.
 90
     1024
 91
        6
280
     0
281
     0
  0
CLASS
  1
ACAMGFILTERDAT
  2
AcAmgFilterDat
  3
"AcadM|Product Description: AutoCAD Mechanical|Company: Autodesk, Inc."
 90
     1024
 91
        0
280
     0
281
     0
  0
CLASS
  1
MATERIAL
  2
AcDbMaterial
  3
ObjectDBX Classes
 90
     1153
 91
        3
280
     0
281
     0
  0
CLASS
  1
VISUALSTYLE
  2
AcDbVisualStyle
  3
ObjectDBX Classes
 90
     4095
 91
       16
280
     0
281
     0
  0
CLASS
  1
ACRFATTGENMGR
  2
AcRfAttGeneralMgr
  3
AcAttribServices
 90
     1024
 91
        0
280
     0
281
     0
  0
CLASS
  1
ACRFOBJATTMGR
  2
AcRfObjAttGroupMgr
  3
AcAttribServices
 90
     1024
 91
        0
280
     0
281
     0
  0
CLASS
  1
ACRFMCADAPIATTHOLDER
  2
AcRfMCADAPIAttHolder
  3
AcAttribServices
 90
     1024
 91
        0
280
     0
281
     0
  0
CLASS
  1
AMDTSYSATTR
  2
AmdtSystemAttribute
  3
AcAttribServices
 90
     1024
 91
        0
280
     0
281
     0
  0
CLASS
  1
ACMTAPERSTANDARDJIS
  2
AcmTaperStdJIS
  3
"Amdt_StdImp|Product Description: AutoCAD Mechanical|Company: Autodesk, Inc."
 90
     1024
 91
        0
280
     0
281
     0
  0
CLASS
  1
CAMSSTRUCTBTNSTATE
  2
StructBtnState
  3
DesignerAssemblies
 90
     1024
 91
        0
280
     0
281
     0
  0
CLASS
  1
SCALE
  2
AcDbScale
  3
ObjectDBX Classes
 90
     1153
 91
       35
280
     0
281
     0
  0
CLASS
  1
MLEADERSTYLE
  2
AcDbMLeaderStyle
  3
ACDB_MLEADERSTYLE_CLASS
 90
     4095
 91
        1
280
     0
281
     0
  0
CLASS
  1
ACMANOOTATIONVIEWSTANDARDJIS
  2
AmdtAnViewStdJIS
  3
"Amdt_StdImp|Product Description: AutoCAD Mechanical|Company: Autodesk, Inc."
 90
     1024
 91
        0
280
     0
281
     0
  0
CLASS
  1
ACMSURFSTANDARDJIS2003
  2
AcmSurfTextStdJIS2003
  3
"Amdt_StdImp|Product Description: AutoCAD Mechanical|Company: Autodesk, Inc."
 90
     1024
 91
        0
280
     0
281
     0
  0
CLASS
  1
CELLSTYLEMAP
  2
AcDbCellStyleMap
  3
ObjectDBX Classes
 90
     1152
 91
        2
280
     0
281
     0
  0
CLASS
  1
ACMFCFSTANDARDJIS98
  2
AcmFCFStdJIS98
  3
"Amdt_StdImp|Product Description: AutoCAD Mechanical|Company: Autodesk, Inc."
 90
     1024
 91
        0
280
     0
281
     0
  0
CLASS
  1
SORTENTSTABLE
  2
AcDbSortentsTable
  3
ObjectDBX Classes
 90
        0
 91
       11
280
     0
281
     0
  0
CLASS
  1
DIMASSOC
  2
AcDbDimAssoc
  3
"AcDbDimAssoc|Product Desc:     AcDim ARX App For Dimension|Company:          Autodesk, Inc.|WEB Address:      www.autodesk.com"
 90
        0
 91
       15
280
     0
281
     0
  0
CLASS
  1
STDPART2D
  2
AmgStdPart
  3
AmgStdPart|Product Description: AutoCAD Mechanical|Company: Autodesk, Inc.
 90
     4095
 91
        0
280
     0
281
     1
  0
CLASS
  1
ACMDATAENTRYPART
  2
AcmDataEntryPart
  3
AcmSymBB|Product Description: AutoCAD Mechanical|Company: Autodesk, Inc.
 90
     1024
 91
        0
280
     0
281
     0
  0
CLASS
  1
ACMPARTREF
  2
AcmPartRef
  3
"AcmSymBB|Product Description: AutoCAD Mechanical|Company: Autodesk, Inc."
 90
     4095
 91
        0
280
     0
281
     1
  0
CLASS
  1
ACDBSTDPARTRES_LINE
  2
AcDbStdPartRes_Line
  3
AmgStdPart|Product Description: AutoCAD Mechanical|Company: Autodesk, Inc.
 90
     1024
 91
        0
280
     0
281
     0
  0
CLASS
  1
ACMBOM
  2
AcmBom
  3
"AcmSymBB|Product Description: AutoCAD Mechanical|Company: Autodesk, Inc."
 90
     1024
 91
        0
280
     0
281
     0
  0
CLASS
  1
AMDTFORMULAUPDATEDISPATCHER
  2
AmdtFormulaUpdateDispatcher
  3
AcMeServices
 90
     1024
 91
        0
280
     0
281
     0
  0
CLASS
  1
ACMBOMROW
  2
AcmBomRow
  3
"AcmSymBB|Product Description: AutoCAD Mechanical|Company: Autodesk, Inc."
 90
     1024
 91
        0
280
     0
281
     0
  0
CLASS
  1
ACMPARTLIST
  2
AcmPartList
  3
"AcmSymBB|Product Description: AutoCAD Mechanical|Company: Autodesk, Inc."
 90
     4095
 91
        0
280
     0
281
     1
  0
CLASS
  1
ACDBLINERES
  2
AcDbLineRes
  3
AcGrefServices
 90
     1024
 91
        0
280
     0
281
     0
  0
CLASS
  1
ACRFINSADJ
  2
AcRfInsAdjuster
  3
AcMeServices
 90
     1024
 91
        0
280
     0
281
     0
  0
CLASS
  1
ACMSTANDARDISO
  2
AcmStandardISO
  3
"Amdt_StdImp|Product Description: AutoCAD Mechanical|Company: Autodesk, Inc."
 90
     1024
 91
        1
280
     0
281
     0
  0
CLASS
  1
AMDTEDGESTANDARDISO13715
  2
AmdtEdgeStdISO13715
  3
"Amdt_StdImp|Product Description: AutoCAD Mechanical|Company: Autodesk, Inc."
 90
     1024
 91
        1
280
     0
281
     0
  0
CLASS
  1
ACMSURFSTANDARDISO2002
  2
AcmSurfTextStdISO2002
  3
"Amdt_StdImp|Product Description: AutoCAD Mechanical|Company: Autodesk, Inc."
 90
     1024
 91
        1
280
     0
281
     0
  0
CLASS
  1
ACMFCFSTANDARDISO
  2
AcmFCFStdISO
  3
"Amdt_StdImp|Product Description: AutoCAD Mechanical|Company: Autodesk, Inc."
 90
     1024
 91
        1
280
     0
281
     0
  0
CLASS
  1
ACMWELDSTANDARDISO
  2
AcmWeldingStdISO
  3
"Amdt_StdImp|Product Description: AutoCAD Mechanical|Company: Autodesk, Inc."
 90
     1024
 91
        1
280
     0
281
     0
  0
CLASS
  1
ACMIDSTANDARDISO
  2
AcmIdStdISO
  3
"Amdt_StdImp|Product Description: AutoCAD Mechanical|Company: Autodesk, Inc."
 90
     1024
 91
        1
280
     0
281
     0
  0
CLASS
  1
ACMDATUMSTANDARDISO
  2
AcmDatumStdISO
  3
"Amdt_StdImp|Product Description: AutoCAD Mechanical|Company: Autodesk, Inc."
 90
     1024
 91
        1
280
     0
281
     0
  0
CLASS
  1
ACMBOMSTANDARDISO
  2
AcmBOMStdISO
  3
"Amdt_StdImp|Product Description: AutoCAD Mechanical|Company: Autodesk, Inc."
 90
     1024
 91
        1
280
     0
281
     0
  0
CLASS
  1
ACMDETAILSTANDARDISO
  2
AmdtDetailSymStdISO
  3
"Amdt_StdImp|Product Description: AutoCAD Mechanical|Company: Autodesk, Inc."
 90
     1024
 91
        1
280
     0
281
     0
  0
CLASS
  1
ACMSECTIONSTANDARDISO2001
  2
AmdtSectionSymStdISO2001
  3
"Amdt_StdImp|Product Description: AutoCAD Mechanical|Company: Autodesk, Inc."
 90
     1024
 91
        1
280
     0
281
     0
  0
CLASS
  1
ACMCENTERLINESTANDARDISO
  2
AmdtCenterLineStdISO
  3
"Amdt_StdImp|Product Description: AutoCAD Mechanical|Company: Autodesk, Inc."
 90
     1024
 91
        1
280
     0
281
     0
  0
CLASS
  1
ACMTHREADLINESTANDARDISO
  2
AmdtThreadLineStdISO
  3
"Amdt_StdImp|Product Description: AutoCAD Mechanical|Company: Autodesk, Inc."
 90
     1024
 91
        1
280
     0
281
     0
  0
CLASS
  1
ACMNOTESTANDARDISO
  2
AmdtNoteStdISO
  3
"Amdt_StdImp|Product Description: AutoCAD Mechanical|Company: Autodesk, Inc."
 90
     1024
 91
        1
280
     0
281
     0
  0
CLASS
  1
ACMTAPERSTANDARDISO
  2
AcmTaperStdISO
  3
"Amdt_StdImp|Product Description: AutoCAD Mechanical|Company: Autodesk, Inc."
 90
     1024
 91
        1
280
     0
281
     0
  0
CLASS
  1
ACMANOOTATIONVIEWSTANDARDISO
  2
AmdtAnViewStdISO
  3
"Amdt_StdImp|Product Description: AutoCAD Mechanical|Company: Autodesk, Inc."
 90
     1024
 91
        1
280
     0
281
     0
  0
CLASS
  1
ACAMGHOLECHARTSTDISO
  2
AcAmgHoleChartStdISO
  3
AmgDim|Product Description: AutoCAD Mechanical|Company: Autodesk, Inc.
 90
     1024
 91
        1
280
     0
281
     0
  0
CLASS
  1
EXACXREFPANELOBJECT
  2
ExAcXREFPanelObject
  3
EXAC_ESW
 90
     1025
 91
        0
280
     0
281
     0
  0
CLASS
  1
NPOCOLLECTION
  2
AcDbImpNonPersistentObjectsCollection
  3
ObjectDBX Classes
 90
     1153
 91
        0
280
     0
281
     0
  0
CLASS
  1
ACDBSTDPARTRES_ARC
  2
AcDbStdPartRes_Arc
  3
AmgStdPart|Product Description: AutoCAD Mechanical|Company: Autodesk, Inc.
 90
     1024
 91
        0
280
     0
281
     0
  0
CLASS
  1
AMDTNOTE
  2
AmdtNote
  3
"AcmSymBB|Product Description: AutoCAD Mechanical|Company: Autodesk, Inc."
 90
     4095
 91
        0
280
     0
281
     1
  0
CLASS
  1
PLOTSETTINGS
  2
AcDbPlotSettings
  3
ObjectDBX Classes
 90
        0
 91
        1
280
     0
281
     0
  0
CLASS
  1
ACMSTANDARDANSI
  2
AcmStandardANSI
  3
"Amdt_StdImp|Product Description: AutoCAD Mechanical|Company: Autodesk, Inc."
 90
     1024
 91
        0
280
     0
281
     0
  0
CLASS
  1
ACMSURFSTANDARDANSI
  2
AcmSurfTextStdANSI
  3
"Amdt_StdImp|Product Description: AutoCAD Mechanical|Company: Autodesk, Inc."
 90
     1024
 91
        0
280
     0
281
     0
  0
CLASS
  1
ACMFCFSTANDARDANSI
  2
AcmFCFStdANSI
  3
"Amdt_StdImp|Product Description: AutoCAD Mechanical|Company: Autodesk, Inc."
 90
     1024
 91
        0
280
     0
281
     0
  0
CLASS
  1
ACMWELDSTANDARDANSI
  2
AcmWeldingStdANSI
  3
"Amdt_StdImp|Product Description: AutoCAD Mechanical|Company: Autodesk, Inc."
 90
     1024
 91
        0
280
     0
281
     0
  0
CLASS
  1
ACMIDSTANDARDANSI
  2
AcmIdStdANSI
  3
"Amdt_StdImp|Product Description: AutoCAD Mechanical|Company: Autodesk, Inc."
 90
     1024
 91
        0
280
     0
281
     0
  0
CLASS
  1
ACMDATUMSTANDARDANSI
  2
AcmDatumStdANSI
  3
"Amdt_StdImp|Product Description: AutoCAD Mechanical|Company: Autodesk, Inc."
 90
     1024
 91
        0
280
     0
281
     0
  0
CLASS
  1
ACMBOMSTANDARDANSI
  2
AcmBOMStdANSI
  3
"Amdt_StdImp|Product Description: AutoCAD Mechanical|Company: Autodesk, Inc."
 90
     1024
 91
        0
280
     0
281
     0
  0
CLASS
  1
ACMDETAILSTANDARDANSI
  2
AmdtDetailSymStdANSI
  3
"Amdt_StdImp|Product Description: AutoCAD Mechanical|Company: Autodesk, Inc."
 90
     1024
 91
        0
280
     0
281
     0
  0
CLASS
  1
ACMSECTIONSTANDARDANSI
  2
AmdtSectionSymStdANSI
  3
"Amdt_StdImp|Product Description: AutoCAD Mechanical|Company: Autodesk, Inc."
 90
     1024
 91
        0
280
     0
281
     0
  0
CLASS
  1
ACMCENTERLINESTANDARDANSI
  2
AmdtCenterLineStdANSI
  3
"Amdt_StdImp|Product Description: AutoCAD Mechanical|Company: Autodesk, Inc."
 90
     1024
 91
        0
280
     0
281
     0
  0
CLASS
  1
ACMTHREADLINESTANDARDANSI
  2
AmdtThreadLineStdANSI
  3
"Amdt_StdImp|Product Description: AutoCAD Mechanical|Company: Autodesk, Inc."
 90
     1024
 91
        0
280
     0
281
     0
  0
CLASS
  1
ACMNOTESTANDARDANSI
  2
AmdtNoteStdANSI
  3
"Amdt_StdImp|Product Description: AutoCAD Mechanical|Company: Autodesk, Inc."
 90
     1024
 91
        0
280
     0
281
     0
  0
CLASS
  1
ACMTAPERSTANDARDANSI
  2
AcmTaperStdANSI
  3
"Amdt_StdImp|Product Description: AutoCAD Mechanical|Company: Autodesk, Inc."
 90
     1024
 91
        0
280
     0
281
     0
  0
CLASS
  1
ACMANOOTATIONVIEWSTANDARDANSI
  2
AmdtAnViewStdANSI
  3
"Amdt_StdImp|Product Description: AutoCAD Mechanical|Company: Autodesk, Inc."
 90
     1024
 91
        0
280
     0
281
     0
  0
CLASS
  1
ACAMGHOLECHARTSTDANSI
  2
AcAmgHoleChartStdANSI
  3
AmgDim|Product Description: AutoCAD Mechanical|Company: Autodesk, Inc.
 90
     1024
 91
        0
280
     0
281
     0
  0
CLASS
  1
ACMSTANDARDBSI
  2
AcmStandardBSI
  3
"Amdt_StdImp|Product Description: AutoCAD Mechanical|Company: Autodesk, Inc."
 90
     1024
 91
        0
280
     0
281
     0
  0
CLASS
  1
ACMSURFSTANDARDBSI2002
  2
AcmSurfTextStdBSI2002
  3
"Amdt_StdImp|Product Description: AutoCAD Mechanical|Company: Autodesk, Inc."
 90
     1024
 91
        0
280
     0
281
     0
  0
CLASS
  1
ACMFCFSTANDARDBSI
  2
AcmFCFStdBSI
  3
"Amdt_StdImp|Product Description: AutoCAD Mechanical|Company: Autodesk, Inc."
 90
     1024
 91
        0
280
     0
281
     0
  0
CLASS
  1
ACMWELDSTANDARDBSI
  2
AcmWeldingStdBSI
  3
"Amdt_StdImp|Product Description: AutoCAD Mechanical|Company: Autodesk, Inc."
 90
     1024
 91
        0
280
     0
281
     0
  0
CLASS
  1
ACMIDSTANDARDBSI
  2
AcmIdStdBSI
  3
"Amdt_StdImp|Product Description: AutoCAD Mechanical|Company: Autodesk, Inc."
 90
     1024
 91
        0
280
     0
281
     0
  0
CLASS
  1
ACMDATUMSTANDARDBSI
  2
AcmDatumStdBSI
  3
"Amdt_StdImp|Product Description: AutoCAD Mechanical|Company: Autodesk, Inc."
 90
     1024
 91
        0
280
     0
281
     0
  0
CLASS
  1
ACMBOMSTANDARDBSI
  2
AcmBOMStdBSI
  3
"Amdt_StdImp|Product Description: AutoCAD Mechanical|Company: Autodesk, Inc."
 90
     1024
 91
        0
280
     0
281
     0
  0
CLASS
  1
ACMDETAILSTANDARDBSI
  2
AmdtDetailSymStdBSI
  3
"Amdt_StdImp|Product Description: AutoCAD Mechanical|Company: Autodesk, Inc."
 90
     1024
 91
        0
280
     0
281
     0
  0
CLASS
  1
ACMSECTIONSTANDARDBSI2001
  2
AmdtSectionSymStdBSI2001
  3
"Amdt_StdImp|Product Description: AutoCAD Mechanical|Company: Autodesk, Inc."
 90
     1024
 91
        0
280
     0
281
     0
  0
CLASS
  1
ACMCENTERLINESTANDARDBSI
  2
AmdtCenterLineStdBSI
  3
"Amdt_StdImp|Product Description: AutoCAD Mechanical|Company: Autodesk, Inc."
 90
     1024
 91
        0
280
     0
281
     0
  0
CLASS
  1
ACMTHREADLINESTANDARDBSI
  2
AmdtThreadLineStdBSI
  3
"Amdt_StdImp|Product Description: AutoCAD Mechanical|Company: Autodesk, Inc."
 90
     1024
 91
        0
280
     0
281
     0
  0
CLASS
  1
ACMNOTESTANDARDBSI
  2
AmdtNoteStdBSI
  3
"Amdt_StdImp|Product Description: AutoCAD Mechanical|Company: Autodesk, Inc."
 90
     1024
 91
        0
280
     0
281
     0
  0
CLASS
  1
ACMTAPERSTANDARDBSI
  2
AcmTaperStdBSI
  3
"Amdt_StdImp|Product Description: AutoCAD Mechanical|Company: Autodesk, Inc."
 90
     1024
 91
        0
280
     0
281
     0
  0
CLASS
  1
ACMANOOTATIONVIEWSTANDARDBSI
  2
AmdtAnViewStdBSI
  3
"Amdt_StdImp|Product Description: AutoCAD Mechanical|Company: Autodesk, Inc."
 90
     1024
 91
        0
280
     0
281
     0
  0
CLASS
  1
ACAMGHOLECHARTSTDBSI
  2
AcAmgHoleChartStdBSI
  3
AmgDim|Product Description: AutoCAD Mechanical|Company: Autodesk, Inc.
 90
     1024
 91
        0
280
     0
281
     0
  0
CLASS
  1
AMDTEDGESTANDARDJIS
  2
AmdtEdgeStdJIS
  3
"Amdt_StdImp|Product Description: AutoCAD Mechanical|Company: Autodesk, Inc."
 90
     1024
 91
        0
280
     0
281
     0
  0
CLASS
  1
ACDB_BLKREFOBJECTCONTEXTDATA_CLASS
  2
AcDbBlkRefObjectContextData
  3
ObjectDBX Classes
 90
     1153
 91
        0
280
     0
281
     0
  0
CLASS
  1
ACDBOPPOLYLINERES
  2
AcDbOpPolylineRes
  3
AcGrefServices
 90
     1024
 91
        0
280
     0
281
     0
  0
CLASS
  1
AMDTACMWBLOCKBOMENTITY
  2
AmdtAcmWblockBomEntity
  3
"AcmSymBB|Product Description: AutoCAD Mechanical|Company: Autodesk, Inc."
 90
     4095
 91
        0
280
     0
281
     1
  0
CLASS
  1
ACMSURFSYM
  2
AcmSurfaceTexture
  3
"AcmSymBB|Product Description: AutoCAD Mechanical|Company: Autodesk, Inc."
 90
     4095
 91
        0
280
     0
281
     1
  0
CLASS
  1
ACDBCIRCARCRES
  2
AcDbCircArcRes
  3
AcGrefServices
 90
     1024
 91
        0
280
     0
281
     0
  0
CLASS
  1
ACDBDIMENSIONRES
  2
AcDbDimensionRes
  3
AcmSymBB|Product Description: AutoCAD Mechanical|Company: Autodesk, Inc.
 90
     1024
 91
        0
280
     0
281
     0
  0
CLASS
  1
ACMPICKOBJ
  2
AcmPickEnt
  3
"AcmSymBB|Product Description: AutoCAD Mechanical|Company: Autodesk, Inc."
 90
     1024
 91
        0
280
     0
281
     1
  0
CLASS
  1
ACMBALLOON
  2
AcmBalloon
  3
"AcmSymBB|Product Description: AutoCAD Mechanical|Company: Autodesk, Inc."
 90
     4095
 91
        0
280
     0
281
     1
  0
ENDSEC
  0
SECTION
  2
TABLES
  0
TABLE
  2
VPORT
  5
8
330
0
100
AcDbSymbolTable
 70
     1
  0
VPORT
  5
27A
330
8
100
AcDbSymbolTableRecord
100
AcDbViewportTableRecord
  2
*Active
 70
     0
 10
0.0
 20
0.0
 11
1.0
 21
1.0
 12
586.4907106705056
 22
546.9497705366807
 13
0.0
 23
0.0
 14
6.25
 24
6.25
 15
25.0
 25
25.0
 16
0.0
 26
0.0
 36
1.0
 17
0.0
 27
0.0
 37
0.0
 40
402.3131539067341
 41
1.571428571428571
 42
50.0
 43
0.0
 44
0.0
 50
0.0
 51
0.0
 71
     0
 72
 20000
 73
     1
 74
     3
 75
     0
 76
     0
 77
     0
 78
     0
281
     0
 65
     0
110
0.0
120
0.0
130
0.0
111
1.0
121
0.0
131
0.0
112
0.0
122
1.0
132
0.0
 79
     0
146
0.0
348
285
 60
     3
 61
     5
292
     1
282
     0
141
0.0
142
0.0
 63
   250
421
  3355443
  0
ENDTAB
  0
TABLE
  2
LTYPE
  5
5
330
0
100
AcDbSymbolTable
 70
    20
  0
LTYPE
  5
14
330
5
100
AcDbSymbolTableRecord
100
AcDbLinetypeTableRecord
  2
ByBlock
 70
     0
  3

 72
    65
 73
     0
 40
0.0
  0
LTYPE
  5
15
330
5
100
AcDbSymbolTableRecord
100
AcDbLinetypeTableRecord
  2
ByLayer
 70
     0
  3

 72
    65
 73
     0
 40
0.0
  0
LTYPE
  5
16
330
5
100
AcDbSymbolTableRecord
100
AcDbLinetypeTableRecord
  2
Continuous
 70
     0
  3
Solid line
 72
    65
 73
     0
 40
0.0
  0
LTYPE
  5
4D
330
5
100
AcDbSymbolTableRecord
100
AcDbLinetypeTableRecord
  2
AM_ISO02W050
 70
     0
  3
__ __ __ __ __ __ __ __ __ __ __ __ __ __ __
 72
    65
 73
     2
 40
7.5
 49
6.0
 74
     0
 49
-1.5
 74
     0
  0
LTYPE
  5
4E
330
5
100
AcDbSymbolTableRecord
100
AcDbLinetypeTableRecord
  2
AM_ISO08W050
 70
     0
  3
____ . ____ . ____ . ____ . ____ . ____ . ____
 72
    65
 73
     4
 40
18.0
 49
12.0
 74
     0
 49
-1.5
 74
     0
 49
3.0
 74
     0
 49
-1.5
 74
     0
  0
LTYPE
  5
4F
330
5
100
AcDbSymbolTableRecord
100
AcDbLinetypeTableRecord
  2
AM_ISO09W050
 70
     0
  3
_____ . . _____ . . _____ . . ____ .. ____
 72
    65
 73
     6
 40
22.5
 49
12.0
 74
     0
 49
-1.5
 74
     0
 49
3.0
 74
     0
 49
-1.5
 74
     0
 49
3.0
 74
     0
 49
-1.5
 74
     0
  0
LTYPE
  5
50
330
5
100
AcDbSymbolTableRecord
100
AcDbLinetypeTableRecord
  2
Amconstr
 70
     0
  3
_______________________
 72
    65
 73
     2
 40
9999.0
 49
9999.0
 74
     0
 49
0.0
 74
     0
  0
LTYPE
  5
51
330
5
100
AcDbSymbolTableRecord
100
AcDbLinetypeTableRecord
  2
AM_ISO08W050x2
 70
     0
  3
__ . __ . __ . __ . __ . __
 72
    65
 73
     4
 40
9.0
 49
6.0
 74
     0
 49
-0.75
 74
     0
 49
1.5
 74
     0
 49
-0.75
 74
     0
  0
LTYPE
  5
52
330
5
100
AcDbSymbolTableRecord
100
AcDbLinetypeTableRecord
  2
AM_ISO02W050x2
 70
     0
  3
 _ _ _ _ _ _ _ _ _ _ _ _
 72
    65
 73
     2
 40
3.75
 49
3.0
 74
     0
 49
-0.75
 74
     0
  0
LTYPE
  5
55
330
5
100
AcDbSymbolTableRecord
100
AcDbLinetypeTableRecord
  2
Amzigzag
 70
     0
  3
/\/-/\/-/\/-/\/-/\/-/\/
 72
    65
 73
     2
 40
11.0001
 49
0.0001
 74
     4
 75
   136
340
23D
 46
0.04
 50
0.0
 44
0.0
 45
0.0
 49
-11.0
 74
     0
  0
LTYPE
  5
65
330
5
100
AcDbSymbolTableRecord
100
AcDbLinetypeTableRecord
  2
CENTER
 70
     0
  3
__ . __
 72
    65
 73
     4
 40
7.0
 49
4.0
 74
     0
 49
-1.0
 74
     0
 49
1.0
 74
     0
 49
-1.0
 74
     0
  0
LTYPE
  5
E0
330
5
100
AcDbSymbolTableRecord
100
AcDbLinetypeTableRecord
  2
HIDDEN
 70
     0
  3
Hidden __ __ __ __ __ __ __ __ __ __ __ __ __ _
 72
    65
 73
     2
 40
9.524999999999996
 49
6.349999999999998
 74
     0
 49
-3.174999999999998
 74
     0
  0
LTYPE
  5
E1
330
5
100
AcDbSymbolTableRecord
100
AcDbLinetypeTableRecord
  2
PHANTOM2
 70
     0
  3
Phantom (.5x) ___ _ _ ___ _ _ ___ _ _ ___ _ _
 72
    65
 73
     6
 40
31.75
 49
15.875
 74
     0
 49
-3.174999999999998
 74
     0
 49
3.174999999999998
 74
     0
 49
-3.174999999999998
 74
     0
 49
3.174999999999998
 74
     0
 49
-3.174999999999998
 74
     0
  0
LTYPE
  5
5A2
330
5
100
AcDbSymbolTableRecord
100
AcDbLinetypeTableRecord
  2
ACJISWELD
 70
     0
  3
_ _ _ _ _
 72
    65
 73
     2
 40
2.0
 49
2.0
 74
     0
 49
-1.0
 74
     0
  0
LTYPE
  5
58C7
330
5
100
AcDbSymbolTableRecord
100
AcDbLinetypeTableRecord
  2
ACISOWELD
 70
     0
  3
_ _ _ _ _
 72
    65
 73
     2
 40
2.0
 49
2.0
 74
     0
 49
-1.0
 74
     0
  0
LTYPE
  5
58C8
330
5
100
AcDbSymbolTableRecord
100
AcDbLinetypeTableRecord
  2
ACISOTGB
 70
     0
  3
__ . . __ . .
 72
    65
 73
     6
 40
9.0
 49
4.0
 74
     0
 49
-1.0
 74
     0
 49
1.0
 74
     0
 49
-1.0
 74
     0
 49
1.0
 74
     0
 49
-1.0
 74
     0
  0
LTYPE
  5
58C9
330
5
100
AcDbSymbolTableRecord
100
AcDbLinetypeTableRecord
  2
ACISOTGL
 70
     0
  3
_ _ _ _ _
 72
    65
 73
     2
 40
3.0
 49
2.0
 74
     0
 49
-1.0
 74
     0
  0
ENDTAB
  0
TABLE
  2
LAYER
  5
2
102
{ACAD_XDICTIONARY
360
BF
102
}
330
0
100
AcDbSymbolTable
 70
    10
  0
LAYER
  5
10
102
{ACAD_XDICTIONARY
360
29D7
102
}
330
2
100
AcDbSymbolTableRecord
100
AcDbLayerTableRecord
  2
0
 70
     0
 62
     7
  6
Continuous
370
    -3
390
F
347
27E
  0
LAYER
  5
81
102
{ACAD_XDICTIONARY
360
29D9
102
}
330
2
100
AcDbSymbolTableRecord
100
AcDbLayerTableRecord
  2
AM_0 外形線1
 70
     0
 62
     7
  6
Continuous
370
    25
390
F
347
27E
  0
LAYER
  5
427
330
2
100
AcDbSymbolTableRecord
100
AcDbLayerTableRecord
  2
Defpoints
 70
     0
 62
     7
  6
Continuous
290
     0
370
    -3
390
F
347
27E
  0
LAYER
  5
25C9
102
{ACAD_XDICTIONARY
360
29E0
102
}
330
2
100
AcDbSymbolTableRecord
100
AcDbLayerTableRecord
  2
AM_3 隠れ線
 70
     0
 62
     8
  6
ACJISWELD
370
    13
390
F
347
27E
1001
AcAecLayerStandard
1000

1000

  0
LAYER
  5
25CA
102
{ACAD_XDICTIONARY
360
29E2
102
}
330
2
100
AcDbSymbolTableRecord
100
AcDbLayerTableRecord
  2
AM_4 細線
 70
     0
 62
     4
  6
Continuous
370
    13
390
F
347
27E
1001
AcAecLayerStandard
1000

1000

  0
LAYER
  5
26B3
102
{ACAD_XDICTIONARY
360
29E8
102
}
330
2
100
AcDbSymbolTableRecord
100
AcDbLayerTableRecord
  2
AM_5 寸法線
 70
     0
 62
     3
  6
Continuous
370
    13
390
F
347
27E
1001
AcAecLayerStandard
1000

1000

  0
LAYER
  5
35A9
330
2
100
AcDbSymbolTableRecord
100
AcDbLayerTableRecord
  2
AM_7 中心線
 70
     0
 62
     1
  6
AM_ISO08W050
370
    13
390
F
347
27E
1001
AcAecLayerStandard
1000

1000

  0
LAYER
  5
35AB
330
2
100
AcDbSymbolTableRecord
100
AcDbLayerTableRecord
  2
AM_6 文字
 70
     0
 62
     2
  6
Continuous
370
    13
390
F
347
27E
1001
AcAecLayerStandard
1000

1000

  0
LAYER
  5
5524
330
2
100
AcDbSymbolTableRecord
100
AcDbLayerTableRecord
  2
AM_11 想像線
 70
     0
 62
     5
  6
AM_ISO09W050
370
    13
390
F
347
27E
1001
AcAecLayerStandard
1000

1000

  0
ENDTAB
  0
TABLE
  2
STYLE
  5
3
330
0
100
AcDbSymbolTable
 70
    11
  0
STYLE
  5
11
330
3
100
AcDbSymbolTableRecord
100
AcDbTextStyleTableRecord
  2
STANDARD
 70
     0
 40
0.0
 41
1.0
 50
0.0
 71
     0
 42
25.0
  3
ISOCP.SHX
  4
EXTFONT.SHX
  0
STYLE
  5
23D
330
3
100
AcDbSymbolTableRecord
100
AcDbTextStyleTableRecord
  2

 70
     1
 40
0.0
 41
1.0
 50
0.0
 71
     0
 42
2.5
  3
genltshp.shx
  4

  0
STYLE
  5
5D5
330
3
100
AcDbSymbolTableRecord
100
AcDbTextStyleTableRecord
  2
SEISA
 70
     0
 40
0.0
 41
0.9
 50
0.0
 71
     0
 42
25.0
  3
romans.shx
  4
extfont2.shx
  0
STYLE
  5
58B7
330
3
100
AcDbSymbolTableRecord
100
AcDbTextStyleTableRecord
  2
ACISOTS
 70
     0
 40
1.0
 41
1.0
 50
0.0
 71
     0
 42
25.0
  3
isocp.shx
  4
extfont.shx
  0
STYLE
  5
58C6
330
3
100
AcDbSymbolTableRecord
100
AcDbTextStyleTableRecord
  2
ACISOGDT
 70
     0
 40
0.0
 41
1.0
 50
0.0
 71
     0
 42
25.0
  3
amgdt.shx
  4

  0
ENDTAB
  0
TABLE
  2
VIEW
  5
6
330
0
100
AcDbSymbolTable
 70
     6
  0
VIEW
  5
91B
330
6
100
AcDbSymbolTableRecord
100
AcDbViewTableRecord
  2
AM_VIEW1
 70
     0
 40
525.0
 10
476.3564271517949
 20
787.5000000000003
 41
952.7128547579302
 11
0.0
 21
0.0
 31
1.0
 12
0.0
 22
0.0
 32
0.0
 42
50.0
 43
0.0
 44
0.0
 50
0.0
 71
     0
281
     0
 72
     0
 73
     0
  0
VIEW
  5
91C
330
6
100
AcDbSymbolTableRecord
100
AcDbViewTableRecord
  2
AM_VIEW2
 70
     0
 40
525.0
 10
1008.64357296179
 20
787.5000000000003
 41
952.7128547579302
 11
0.0
 21
0.0
 31
1.0
 12
0.0
 22
0.0
 32
0.0
 42
50.0
 43
0.0
 44
0.0
 50
0.0
 71
     0
281
     0
 72
     0
 73
     0
  0
VIEW
  5
91D
330
6
100
AcDbSymbolTableRecord
100
AcDbViewTableRecord
  2
AM_VIEW3
 70
     0
 40
525.0
 10
476.3564271517949
 20
262.5
 41
952.7128547579302
 11
0.0
 21
0.0
 31
1.0
 12
0.0
 22
0.0
 32
0.0
 42
50.0
 43
0.0
 44
0.0
 50
0.0
 71
     0
281
     0
 72
     0
 73
     0
  0
VIEW
  5
91E
330
6
100
AcDbSymbolTableRecord
100
AcDbViewTableRecord
  2
AM_VIEW4
 70
     0
 40
525.0
 10
1008.64357296179
 20
262.5
 41
952.7128547579302
 11
0.0
 21
0.0
 31
1.0
 12
0.0
 22
0.0
 32
0.0
 42
50.0
 43
0.0
 44
0.0
 50
0.0
 71
     0
281
     0
 72
     0
 73
     0
  0
VIEW
  5
91F
330
6
100
AcDbSymbolTableRecord
100
AcDbViewTableRecord
  2
AM_VIEW5
 70
     0
 40
525.0
 10
742.5000000567925
 20
525.0
 41
952.7128547579302
 11
0.0
 21
0.0
 31
1.0
 12
0.0
 22
0.0
 32
0.0
 42
50.0
 43
0.0
 44
0.0
 50
0.0
 71
     0
281
     0
 72
     0
 73
     0
  0
VIEW
  5
920
330
6
100
AcDbSymbolTableRecord
100
AcDbViewTableRecord
  2
AM_VIEW6
 70
     0
 40
1049.9895
 10
742.5000000567925
 20
525.0
 41
1905.406655258765
 11
0.0
 21
0.0
 31
1.0
 12
0.0
 22
0.0
 32
0.0
 42
50.0
 43
0.0
 44
0.0
 50
0.0
 71
     0
281
     0
 72
     0
 73
     0
  0
ENDTAB
  0
TABLE
  2
UCS
  5
7
330
0
100
AcDbSymbolTable
 70
     0
  0
ENDTAB
  0
TABLE
  2
APPID
  5
9
330
0
100
AcDbSymbolTable
 70
   392
  0
APPID
  5
12
330
9
100
AcDbSymbolTableRecord
100
AcDbRegAppTableRecord
  2
ACAD
 70
     0
  0
APPID
  5
30
330
9
100
AcDbSymbolTableRecord
100
AcDbRegAppTableRecord
  2
MCAD_NO_VIS
 70
     0
  0
APPID
  5
31
330
9
100
AcDbSymbolTableRecord
100
AcDbRegAppTableRecord
  2
ACAD_TEMP_GRAPHIC
 70
     0
  0
APPID
  5
44
330
9
100
AcDbSymbolTableRecord
100
AcDbRegAppTableRecord
  2
ACATTRIBSERVICES
 70
     0
  0
APPID
  5
F6
330
9
100
AcDbSymbolTableRecord
100
AcDbRegAppTableRecord
  2
AD_DRAW
 70
     0
  0
APPID
  5
114
330
9
100
AcDbSymbolTableRecord
100
AcDbRegAppTableRecord
  2
DESIGNERASSEMBLIES
 70
     0
  0
APPID
  5
118
330
9
100
AcDbSymbolTableRecord
100
AcDbRegAppTableRecord
  2
ACADM_DIM_EDIT
 70
     0
  0
APPID
  5
119
330
9
100
AcDbSymbolTableRecord
100
AcDbRegAppTableRecord
  2
AMDT_DM_ADJ
 70
     0
  0
APPID
  5
1AF
330
9
100
AcDbSymbolTableRecord
100
AcDbRegAppTableRecord
  2
ACAD_DSTYLE_DIMARC_LENGTH_SYMBOL
 70
     0
  0
APPID
  5
1B0
330
9
100
AcDbSymbolTableRecord
100
AcDbRegAppTableRecord
  2
ACAD_DSTYLE_DIMJOGGED_JOGANGLE_SYMBOL
 70
     0
  0
APPID
  5
2D7
330
9
100
AcDbSymbolTableRecord
100
AcDbRegAppTableRecord
  2
ACAD_MLEADERVER
 70
     0
  0
APPID
  5
355
330
9
100
AcDbSymbolTableRecord
100
AcDbRegAppTableRecord
  2
AcadAnnoPO
 70
     0
  0
APPID
  5
428
330
9
100
AcDbSymbolTableRecord
100
AcDbRegAppTableRecord
  2
ACAD_DSTYLE_DIMTEXT_FILL
 70
     0
  0
APPID
  5
429
330
9
100
AcDbSymbolTableRecord
100
AcDbRegAppTableRecord
  2
GENIUS_GENSCREG_15
 70
     0
  0
APPID
  5
42A
330
9
100
AcDbSymbolTableRecord
100
AcDbRegAppTableRecord
  2
GENIUS_GENOBJ-N-SDF_13
 70
     0
  0
APPID
  5
42B
330
9
100
AcDbSymbolTableRecord
100
AcDbRegAppTableRecord
  2
GENIUS_GENODEF_13
 70
     0
  0
APPID
  5
42C
330
9
100
AcDbSymbolTableRecord
100
AcDbRegAppTableRecord
  2
ACAD_EXEMPT_FROM_CAD_STANDARDS
 70
     0
  0
APPID
  5
42D
330
9
100
AcDbSymbolTableRecord
100
AcDbRegAppTableRecord
  2
AcAecLayerStandard
 70
     0
  0
APPID
  5
42E
330
9
100
AcDbSymbolTableRecord
100
AcDbRegAppTableRecord
  2
GENIUS_GENOBJ-N-CEN_13
 70
     0
  0
APPID
  5
42F
330
9
100
AcDbSymbolTableRecord
100
AcDbRegAppTableRecord
  2
GENIUS_GENCEN_19
 70
     0
  0
APPID
  5
430
330
9
100
AcDbSymbolTableRecord
100
AcDbRegAppTableRecord
  2
ACAD_DSTYLE_DIMINSPECT
 70
     0
  0
APPID
  5
431
330
9
100
AcDbSymbolTableRecord
100
AcDbRegAppTableRecord
  2
GENIUS_AMGTXT_16
 70
     0
  0
APPID
  5
432
330
9
100
AcDbSymbolTableRecord
100
AcDbRegAppTableRecord
  2
GENIUS_GENFIL_13
 70
     0
  0
APPID
  5
433
330
9
100
AcDbSymbolTableRecord
100
AcDbRegAppTableRecord
  2
GENIUS_GENOLIS_13
 70
     0
  0
APPID
  5
434
330
9
100
AcDbSymbolTableRecord
100
AcDbRegAppTableRecord
  2
GENIUS_GENOBJ-N-CHA_13
 70
     0
  0
APPID
  5
435
330
9
100
AcDbSymbolTableRecord
100
AcDbRegAppTableRecord
  2
GENIUS_GENOENT_13
 70
     0
  0
APPID
  5
436
330
9
100
AcDbSymbolTableRecord
100
AcDbRegAppTableRecord
  2
GENIUS_GENOREF_13
 70
     0
  0
APPID
  5
437
330
9
100
AcDbSymbolTableRecord
100
AcDbRegAppTableRecord
  2
GENIUS_GENOBJ-N-FIL_13
 70
     0
  0
APPID
  5
438
330
9
100
AcDbSymbolTableRecord
100
AcDbRegAppTableRecord
  2
GEVID1208829536
 70
     0
  0
APPID
  5
439
330
9
100
AcDbSymbolTableRecord
100
AcDbRegAppTableRecord
  2
GEVDC
 70
     0
  0
APPID
  5
43A
330
9
100
AcDbSymbolTableRecord
100
AcDbRegAppTableRecord
  2
GEVRADREF
 70
     0
  0
APPID
  5
43B
330
9
100
AcDbSymbolTableRecord
100
AcDbRegAppTableRecord
  2
GENIUS_GENBH_13
 70
     0
  0
APPID
  5
43C
330
9
100
AcDbSymbolTableRecord
100
AcDbRegAppTableRecord
  2
GENIUS_GENOBJ-NBEHI-BHF_13
 70
     0
  0
APPID
  5
43D
330
9
100
AcDbSymbolTableRecord
100
AcDbRegAppTableRecord
  2
GENIUS_GENOBJ-NBEHI-BHB_13
 70
     0
  0
APPID
  5
43E
330
9
100
AcDbSymbolTableRecord
100
AcDbRegAppTableRecord
  2
GEVID1208829537
 70
     0
  0
APPID
  5
43F
330
9
100
AcDbSymbolTableRecord
100
AcDbRegAppTableRecord
  2
ACAD_DSTYLE_DIMJAG
 70
     0
  0
APPID
  5
440
330
9
100
AcDbSymbolTableRecord
100
AcDbRegAppTableRecord
  2
ACAD_DSTYLE_DIMTALN
 70
     0
  0
APPID
  5
441
330
9
100
AcDbSymbolTableRecord
100
AcDbRegAppTableRecord
  2
AMG_2DHIDE
 70
     0
  0
APPID
  5
442
330
9
100
AcDbSymbolTableRecord
100
AcDbRegAppTableRecord
  2
AMG_2DSTRUCT_BTR
 70
     0
  0
APPID
  5
443
330
9
100
AcDbSymbolTableRecord
100
AcDbRegAppTableRecord
  2
GEVID1208845772
 70
     0
  0
APPID
  5
444
330
9
100
AcDbSymbolTableRecord
100
AcDbRegAppTableRecord
  2
GEVID1208845773
 70
     0
  0
APPID
  5
445
330
9
100
AcDbSymbolTableRecord
100
AcDbRegAppTableRecord
  2
ACADM_2DVIEW_IGN_NOTIFY
 70
     0
  0
APPID
  5
446
330
9
100
AcDbSymbolTableRecord
100
AcDbRegAppTableRecord
  2
GEVID1208845774
 70
     0
  0
APPID
  5
447
330
9
100
AcDbSymbolTableRecord
100
AcDbRegAppTableRecord
  2
GEVID1208845775
 70
     0
  0
APPID
  5
448
330
9
100
AcDbSymbolTableRecord
100
AcDbRegAppTableRecord
  2
GEVID1208845776
 70
     0
  0
APPID
  5
449
330
9
100
AcDbSymbolTableRecord
100
AcDbRegAppTableRecord
  2
GEVID1208845777
 70
     0
  0
APPID
  5
44A
330
9
100
AcDbSymbolTableRecord
100
AcDbRegAppTableRecord
  2
GEVCON
 70
     0
  0
APPID
  5
44B
330
9
100
AcDbSymbolTableRecord
100
AcDbRegAppTableRecord
  2
GENIUS_GENOBJ-F-SCPASSM_13
 70
     0
  0
APPID
  5
44C
330
9
100
AcDbSymbolTableRecord
100
AcDbRegAppTableRecord
  2
GEVID1208845778
 70
     0
  0
APPID
  5
44D
330
9
100
AcDbSymbolTableRecord
100
AcDbRegAppTableRecord
  2
GEVID1208845779
 70
     0
  0
APPID
  5
44E
330
9
100
AcDbSymbolTableRecord
100
AcDbRegAppTableRecord
  2
GEVID1208845780
 70
     0
  0
APPID
  5
44F
330
9
100
AcDbSymbolTableRecord
100
AcDbRegAppTableRecord
  2
GEVID1208845781
 70
     0
  0
APPID
  5
450
330
9
100
AcDbSymbolTableRecord
100
AcDbRegAppTableRecord
  2
GEVID1208845782
 70
     0
  0
APPID
  5
451
330
9
100
AcDbSymbolTableRecord
100
AcDbRegAppTableRecord
  2
GEVID1208845783
 70
     0
  0
APPID
  5
452
330
9
100
AcDbSymbolTableRecord
100
AcDbRegAppTableRecord
  2
GEVID1208845784
 70
     0
  0
APPID
  5
453
330
9
100
AcDbSymbolTableRecord
100
AcDbRegAppTableRecord
  2
GEVID1208845785
 70
     0
  0
APPID
  5
454
330
9
100
AcDbSymbolTableRecord
100
AcDbRegAppTableRecord
  2
GEVID1208845787
 70
     0
  0
APPID
  5
455
330
9
100
AcDbSymbolTableRecord
100
AcDbRegAppTableRecord
  2
GEVID1208845788
 70
     0
  0
APPID
  5
456
330
9
100
AcDbSymbolTableRecord
100
AcDbRegAppTableRecord
  2
GEVID1208845789
 70
     0
  0
APPID
  5
457
330
9
100
AcDbSymbolTableRecord
100
AcDbRegAppTableRecord
  2
GEVID1208845790
 70
     0
  0
APPID
  5
458
330
9
100
AcDbSymbolTableRecord
100
AcDbRegAppTableRecord
  2
GEVID1208845791
 70
     0
  0
APPID
  5
459
330
9
100
AcDbSymbolTableRecord
100
AcDbRegAppTableRecord
  2
GEVID1208845792
 70
     0
  0
APPID
  5
45A
330
9
100
AcDbSymbolTableRecord
100
AcDbRegAppTableRecord
  2
GEVID1208845793
 70
     0
  0
APPID
  5
45B
330
9
100
AcDbSymbolTableRecord
100
AcDbRegAppTableRecord
  2
GEVID1208845794
 70
     0
  0
APPID
  5
45C
330
9
100
AcDbSymbolTableRecord
100
AcDbRegAppTableRecord
  2
GEVID1208845795
 70
     0
  0
APPID
  5
45D
330
9
100
AcDbSymbolTableRecord
100
AcDbRegAppTableRecord
  2
GEVID1208845796
 70
     0
  0
APPID
  5
45E
330
9
100
AcDbSymbolTableRecord
100
AcDbRegAppTableRecord
  2
GEVID1208845797
 70
     0
  0
APPID
  5
45F
330
9
100
AcDbSymbolTableRecord
100
AcDbRegAppTableRecord
  2
GEVID1208845798
 70
     0
  0
APPID
  5
460
330
9
100
AcDbSymbolTableRecord
100
AcDbRegAppTableRecord
  2
GEVID1208845799
 70
     0
  0
APPID
  5
461
330
9
100
AcDbSymbolTableRecord
100
AcDbRegAppTableRecord
  2
GEVID1208845800
 70
     0
  0
APPID
  5
462
330
9
100
AcDbSymbolTableRecord
100
AcDbRegAppTableRecord
  2
GEVID1208845801
 70
     0
  0
APPID
  5
463
330
9
100
AcDbSymbolTableRecord
100
AcDbRegAppTableRecord
  2
GEVID1208845802
 70
     0
  0
APPID
  5
464
330
9
100
AcDbSymbolTableRecord
100
AcDbRegAppTableRecord
  2
GENIUS_GENOBJ-N-DIM_13
 70
     0
  0
APPID
  5
465
330
9
100
AcDbSymbolTableRecord
100
AcDbRegAppTableRecord
  2
GENIUS_GENDIM_13
 70
     0
  0
APPID
  5
466
330
9
100
AcDbSymbolTableRecord
100
AcDbRegAppTableRecord
  2
GENIUS_GENDIMSH_14
 70
     0
  0
APPID
  5
467
330
9
100
AcDbSymbolTableRecord
100
AcDbRegAppTableRecord
  2
GEVID1208845803
 70
     0
  0
APPID
  5
468
330
9
100
AcDbSymbolTableRecord
100
AcDbRegAppTableRecord
  2
GEVID1208845804
 70
     0
  0
APPID
  5
469
330
9
100
AcDbSymbolTableRecord
100
AcDbRegAppTableRecord
  2
GEVID1208845805
 70
     0
  0
APPID
  5
46A
330
9
100
AcDbSymbolTableRecord
100
AcDbRegAppTableRecord
  2
GEVID1208845806
 70
     0
  0
APPID
  5
46B
330
9
100
AcDbSymbolTableRecord
100
AcDbRegAppTableRecord
  2
GEVID1208845807
 70
     0
  0
APPID
  5
46C
330
9
100
AcDbSymbolTableRecord
100
AcDbRegAppTableRecord
  2
GEVID1208845808
 70
     0
  0
APPID
  5
46D
330
9
100
AcDbSymbolTableRecord
100
AcDbRegAppTableRecord
  2
GEVID1208845809
 70
     0
  0
APPID
  5
46E
330
9
100
AcDbSymbolTableRecord
100
AcDbRegAppTableRecord
  2
GEVID1208845810
 70
     0
  0
APPID
  5
46F
330
9
100
AcDbSymbolTableRecord
100
AcDbRegAppTableRecord
  2
GEVID1208845811
 70
     0
  0
APPID
  5
470
330
9
100
AcDbSymbolTableRecord
100
AcDbRegAppTableRecord
  2
GEVID1208845813
 70
     0
  0
APPID
  5
471
330
9
100
AcDbSymbolTableRecord
100
AcDbRegAppTableRecord
  2
GEVID1208845814
 70
     0
  0
APPID
  5
472
330
9
100
AcDbSymbolTableRecord
100
AcDbRegAppTableRecord
  2
GEVID1208845815
 70
     0
  0
APPID
  5
473
330
9
100
AcDbSymbolTableRecord
100
AcDbRegAppTableRecord
  2
GEVID1208845816
 70
     0
  0
APPID
  5
474
330
9
100
AcDbSymbolTableRecord
100
AcDbRegAppTableRecord
  2
GEVID1208845817
 70
     0
  0
APPID
  5
475
330
9
100
AcDbSymbolTableRecord
100
AcDbRegAppTableRecord
  2
GEVID1208845818
 70
     0
  0
APPID
  5
476
330
9
100
AcDbSymbolTableRecord
100
AcDbRegAppTableRecord
  2
GEVID1208845819
 70
     0
  0
APPID
  5
477
330
9
100
AcDbSymbolTableRecord
100
AcDbRegAppTableRecord
  2
GEVID1208845820
 70
     0
  0
APPID
  5
478
330
9
100
AcDbSymbolTableRecord
100
AcDbRegAppTableRecord
  2
GENIUS_GENOBJ-F-SHCL_13
 70
     0
  0
APPID
  5
479
330
9
100
AcDbSymbolTableRecord
100
AcDbRegAppTableRecord
  2
GENIUS_GEFMSH_13
 70
     0
  0
APPID
  5
47A
330
9
100
AcDbSymbolTableRecord
100
AcDbRegAppTableRecord
  2
GENIUS_GENOBJ-F-SHCA_13
 70
     0
  0
APPID
  5
47B
330
9
100
AcDbSymbolTableRecord
100
AcDbRegAppTableRecord
  2
GENIUS_GEFSH_13
 70
     0
  0
APPID
  5
47C
330
9
100
AcDbSymbolTableRecord
100
AcDbRegAppTableRecord
  2
GENIUS_GEFSHP_13
 70
     0
  0
APPID
  5
47D
330
9
100
AcDbSymbolTableRecord
100
AcDbRegAppTableRecord
  2
GENIUS_GEFSHP0_13
 70
     0
  0
APPID
  5
47E
330
9
100
AcDbSymbolTableRecord
100
AcDbRegAppTableRecord
  2
GENIUS_GEFSH0_13
 70
     0
  0
APPID
  5
47F
330
9
100
AcDbSymbolTableRecord
100
AcDbRegAppTableRecord
  2
GENIUS_GEFSHP1_13
 70
     0
  0
APPID
  5
480
330
9
100
AcDbSymbolTableRecord
100
AcDbRegAppTableRecord
  2
GENIUS_GEFSH1_13
 70
     0
  0
APPID
  5
481
330
9
100
AcDbSymbolTableRecord
100
AcDbRegAppTableRecord
  2
GEVID1208866337
 70
     0
  0
APPID
  5
482
330
9
100
AcDbSymbolTableRecord
100
AcDbRegAppTableRecord
  2
GEVID1208866338
 70
     0
  0
APPID
  5
483
330
9
100
AcDbSymbolTableRecord
100
AcDbRegAppTableRecord
  2
GEVID1208866339
 70
     0
  0
APPID
  5
484
330
9
100
AcDbSymbolTableRecord
100
AcDbRegAppTableRecord
  2
GEVID1208866340
 70
     0
  0
APPID
  5
485
330
9
100
AcDbSymbolTableRecord
100
AcDbRegAppTableRecord
  2
GEVID1208866341
 70
     0
  0
APPID
  5
486
330
9
100
AcDbSymbolTableRecord
100
AcDbRegAppTableRecord
  2
ACAD_PSEXT
 70
     0
  0
APPID
  5
487
330
9
100
AcDbSymbolTableRecord
100
AcDbRegAppTableRecord
  2
GEVID1208866342
 70
     0
  0
APPID
  5
488
330
9
100
AcDbSymbolTableRecord
100
AcDbRegAppTableRecord
  2
GEVID1208913836
 70
     0
  0
APPID
  5
489
330
9
100
AcDbSymbolTableRecord
100
AcDbRegAppTableRecord
  2
GEVID1208913837
 70
     0
  0
APPID
  5
48A
330
9
100
AcDbSymbolTableRecord
100
AcDbRegAppTableRecord
  2
GEVID1208913838
 70
     0
  0
APPID
  5
48B
330
9
100
AcDbSymbolTableRecord
100
AcDbRegAppTableRecord
  2
GEVID1208913839
 70
     0
  0
APPID
  5
48C
330
9
100
AcDbSymbolTableRecord
100
AcDbRegAppTableRecord
  2
GENIUS_GENDTOL_13
 70
     0
  0
APPID
  5
48D
330
9
100
AcDbSymbolTableRecord
100
AcDbRegAppTableRecord
  2
GEVID1208928889
 70
     0
  0
APPID
  5
48E
330
9
100
AcDbSymbolTableRecord
100
AcDbRegAppTableRecord
  2
GEVID1208928890
 70
     0
  0
APPID
  5
48F
330
9
100
AcDbSymbolTableRecord
100
AcDbRegAppTableRecord
  2
GEVID1208928891
 70
     0
  0
APPID
  5
490
330
9
100
AcDbSymbolTableRecord
100
AcDbRegAppTableRecord
  2
GEVID1208928892
 70
     0
  0
APPID
  5
491
330
9
100
AcDbSymbolTableRecord
100
AcDbRegAppTableRecord
  2
GEVID1208933827
 70
     0
  0
APPID
  5
492
330
9
100
AcDbSymbolTableRecord
100
AcDbRegAppTableRecord
  2
GEVID1208933829
 70
     0
  0
APPID
  5
493
330
9
100
AcDbSymbolTableRecord
100
AcDbRegAppTableRecord
  2
GEVID1208933830
 70
     0
  0
APPID
  5
494
330
9
100
AcDbSymbolTableRecord
100
AcDbRegAppTableRecord
  2
GEVID1208933831
 70
     0
  0
APPID
  5
495
330
9
100
AcDbSymbolTableRecord
100
AcDbRegAppTableRecord
  2
GEVID1208933832
 70
     0
  0
APPID
  5
496
330
9
100
AcDbSymbolTableRecord
100
AcDbRegAppTableRecord
  2
GEVID1208933833
 70
     0
  0
APPID
  5
497
330
9
100
AcDbSymbolTableRecord
100
AcDbRegAppTableRecord
  2
GEVID1208933834
 70
     0
  0
APPID
  5
498
330
9
100
AcDbSymbolTableRecord
100
AcDbRegAppTableRecord
  2
GEVID1208933835
 70
     0
  0
APPID
  5
499
330
9
100
AcDbSymbolTableRecord
100
AcDbRegAppTableRecord
  2
GEVID1208933836
 70
     0
  0
APPID
  5
49A
330
9
100
AcDbSymbolTableRecord
100
AcDbRegAppTableRecord
  2
GEVID1208933837
 70
     0
  0
APPID
  5
49B
330
9
100
AcDbSymbolTableRecord
100
AcDbRegAppTableRecord
  2
GEVID1208933838
 70
     0
  0
APPID
  5
49C
330
9
100
AcDbSymbolTableRecord
100
AcDbRegAppTableRecord
  2
GEVID1208933840
 70
     0
  0
APPID
  5
49D
330
9
100
AcDbSymbolTableRecord
100
AcDbRegAppTableRecord
  2
GEVID1208933842
 70
     0
  0
APPID
  5
49E
330
9
100
AcDbSymbolTableRecord
100
AcDbRegAppTableRecord
  2
GEVID1208933843
 70
     0
  0
APPID
  5
49F
330
9
100
AcDbSymbolTableRecord
100
AcDbRegAppTableRecord
  2
GEVID1208933844
 70
     0
  0
APPID
  5
4A0
330
9
100
AcDbSymbolTableRecord
100
AcDbRegAppTableRecord
  2
GEVID1208933845
 70
     0
  0
APPID
  5
4A1
330
9
100
AcDbSymbolTableRecord
100
AcDbRegAppTableRecord
  2
GEVID1208933846
 70
     0
  0
APPID
  5
4A2
330
9
100
AcDbSymbolTableRecord
100
AcDbRegAppTableRecord
  2
GEVID1208933847
 70
     0
  0
APPID
  5
4A3
330
9
100
AcDbSymbolTableRecord
100
AcDbRegAppTableRecord
  2
GEVID1208933848
 70
     0
  0
APPID
  5
4A4
330
9
100
AcDbSymbolTableRecord
100
AcDbRegAppTableRecord
  2
GEVID1208933849
 70
     0
  0
APPID
  5
4A5
330
9
100
AcDbSymbolTableRecord
100
AcDbRegAppTableRecord
  2
GEVID1208933850
 70
     0
  0
APPID
  5
4A6
330
9
100
AcDbSymbolTableRecord
100
AcDbRegAppTableRecord
  2
GEVID1208933851
 70
     0
  0
APPID
  5
4A7
330
9
100
AcDbSymbolTableRecord
100
AcDbRegAppTableRecord
  2
GEVID1208933852
 70
     0
  0
APPID
  5
4A8
330
9
100
AcDbSymbolTableRecord
100
AcDbRegAppTableRecord
  2
GEVID1208933853
 70
     0
  0
APPID
  5
4A9
330
9
100
AcDbSymbolTableRecord
100
AcDbRegAppTableRecord
  2
GEVID1208933854
 70
     0
  0
APPID
  5
4AA
330
9
100
AcDbSymbolTableRecord
100
AcDbRegAppTableRecord
  2
GEVID1208933855
 70
     0
  0
APPID
  5
4AB
330
9
100
AcDbSymbolTableRecord
100
AcDbRegAppTableRecord
  2
GEVID1208933856
 70
     0
  0
APPID
  5
4AC
330
9
100
AcDbSymbolTableRecord
100
AcDbRegAppTableRecord
  2
GEVID1208933857
 70
     0
  0
APPID
  5
4AD
330
9
100
AcDbSymbolTableRecord
100
AcDbRegAppTableRecord
  2
GEVID1208933858
 70
     0
  0
APPID
  5
4AE
330
9
100
AcDbSymbolTableRecord
100
AcDbRegAppTableRecord
  2
GEVID1208933859
 70
     0
  0
APPID
  5
4AF
330
9
100
AcDbSymbolTableRecord
100
AcDbRegAppTableRecord
  2
GEVID1208933860
 70
     0
  0
APPID
  5
4B0
330
9
100
AcDbSymbolTableRecord
100
AcDbRegAppTableRecord
  2
GEVID1208933861
 70
     0
  0
APPID
  5
4B1
330
9
100
AcDbSymbolTableRecord
100
AcDbRegAppTableRecord
  2
GEVID1208933862
 70
     0
  0
APPID
  5
4B2
330
9
100
AcDbSymbolTableRecord
100
AcDbRegAppTableRecord
  2
GEVID1208933863
 70
     0
  0
APPID
  5
4B3
330
9
100
AcDbSymbolTableRecord
100
AcDbRegAppTableRecord
  2
GEVID1208933864
 70
     0
  0
APPID
  5
4B4
330
9
100
AcDbSymbolTableRecord
100
AcDbRegAppTableRecord
  2
GEVID1208933865
 70
     0
  0
APPID
  5
4B5
330
9
100
AcDbSymbolTableRecord
100
AcDbRegAppTableRecord
  2
GEVID1208933866
 70
     0
  0
APPID
  5
4B6
330
9
100
AcDbSymbolTableRecord
100
AcDbRegAppTableRecord
  2
GEVID1208933867
 70
     0
  0
APPID
  5
4B7
330
9
100
AcDbSymbolTableRecord
100
AcDbRegAppTableRecord
  2
GEVID1208933868
 70
     0
  0
APPID
  5
4B8
330
9
100
AcDbSymbolTableRecord
100
AcDbRegAppTableRecord
  2
GEVID1208933869
 70
     0
  0
APPID
  5
4B9
330
9
100
AcDbSymbolTableRecord
100
AcDbRegAppTableRecord
  2
GEVID1208933870
 70
     0
  0
APPID
  5
4BA
330
9
100
AcDbSymbolTableRecord
100
AcDbRegAppTableRecord
  2
GEVID1208933871
 70
     0
  0
APPID
  5
4BB
330
9
100
AcDbSymbolTableRecord
100
AcDbRegAppTableRecord
  2
GEVID1208933872
 70
     0
  0
APPID
  5
4BC
330
9
100
AcDbSymbolTableRecord
100
AcDbRegAppTableRecord
  2
GEVID1208933873
 70
     0
  0
APPID
  5
4BD
330
9
100
AcDbSymbolTableRecord
100
AcDbRegAppTableRecord
  2
GEVID1208933874
 70
     0
  0
APPID
  5
4BE
330
9
100
AcDbSymbolTableRecord
100
AcDbRegAppTableRecord
  2
GEVID1208933875
 70
     0
  0
APPID
  5
4BF
330
9
100
AcDbSymbolTableRecord
100
AcDbRegAppTableRecord
  2
GEVID1208933876
 70
     0
  0
APPID
  5
4C0
330
9
100
AcDbSymbolTableRecord
100
AcDbRegAppTableRecord
  2
ACAD_DSTYLE_DIMRADIAL_EXTENSION
 70
     0
  0
APPID
  5
4C1
330
9
100
AcDbSymbolTableRecord
100
AcDbRegAppTableRecord
  2
GEVID1208999100
 70
     0
  0
APPID
  5
4C2
330
9
100
AcDbSymbolTableRecord
100
AcDbRegAppTableRecord
  2
GEVID1208999101
 70
     0
  0
APPID
  5
4C3
330
9
100
AcDbSymbolTableRecord
100
AcDbRegAppTableRecord
  2
GEVID1208999102
 70
     0
  0
APPID
  5
4C4
330
9
100
AcDbSymbolTableRecord
100
AcDbRegAppTableRecord
  2
GEVID1208999103
 70
     0
  0
APPID
  5
4C5
330
9
100
AcDbSymbolTableRecord
100
AcDbRegAppTableRecord
  2
GEVID1208999105
 70
     0
  0
APPID
  5
4C6
330
9
100
AcDbSymbolTableRecord
100
AcDbRegAppTableRecord
  2
GEVID1208999106
 70
     0
  0
APPID
  5
4C7
330
9
100
AcDbSymbolTableRecord
100
AcDbRegAppTableRecord
  2
GEVID1208999108
 70
     0
  0
APPID
  5
4C8
330
9
100
AcDbSymbolTableRecord
100
AcDbRegAppTableRecord
  2
GEVID1208999109
 70
     0
  0
APPID
  5
4C9
330
9
100
AcDbSymbolTableRecord
100
AcDbRegAppTableRecord
  2
GEVID1208999110
 70
     0
  0
APPID
  5
4CA
330
9
100
AcDbSymbolTableRecord
100
AcDbRegAppTableRecord
  2
GEVID1208999111
 70
     0
  0
APPID
  5
4CB
330
9
100
AcDbSymbolTableRecord
100
AcDbRegAppTableRecord
  2
GEVID1208999112
 70
     0
  0
APPID
  5
4CC
330
9
100
AcDbSymbolTableRecord
100
AcDbRegAppTableRecord
  2
GEVID1208999113
 70
     0
  0
APPID
  5
4CD
330
9
100
AcDbSymbolTableRecord
100
AcDbRegAppTableRecord
  2
GEVID1208999114
 70
     0
  0
APPID
  5
4CE
330
9
100
AcDbSymbolTableRecord
100
AcDbRegAppTableRecord
  2
GEVID1210218799
 70
     0
  0
APPID
  5
4CF
330
9
100
AcDbSymbolTableRecord
100
AcDbRegAppTableRecord
  2
GEVID1210218800
 70
     0
  0
APPID
  5
4D0
330
9
100
AcDbSymbolTableRecord
100
AcDbRegAppTableRecord
  2
GENIUS_GEFWELD_13
 70
     0
  0
APPID
  5
4D1
330
9
100
AcDbSymbolTableRecord
100
AcDbRegAppTableRecord
  2
GENIUS_GENOBJ-F-WELS_13
 70
     0
  0
APPID
  5
4D2
330
9
100
AcDbSymbolTableRecord
100
AcDbRegAppTableRecord
  2
AcadAnnotative
 70
     0
  0
APPID
  5
4D3
330
9
100
AcDbSymbolTableRecord
100
AcDbRegAppTableRecord
  2
GEVID1210145339
 70
     0
  0
APPID
  5
4D4
330
9
100
AcDbSymbolTableRecord
100
AcDbRegAppTableRecord
  2
ACAD_DSTYLE_DIMBREAK
 70
     0
  0
APPID
  5
4D5
330
9
100
AcDbSymbolTableRecord
100
AcDbRegAppTableRecord
  2
GEVID1210145340
 70
     0
  0
APPID
  5
4D6
330
9
100
AcDbSymbolTableRecord
100
AcDbRegAppTableRecord
  2
GEVID1210145341
 70
     0
  0
APPID
  5
4D7
330
9
100
AcDbSymbolTableRecord
100
AcDbRegAppTableRecord
  2
GEVID1210145342
 70
     0
  0
APPID
  5
4D8
330
9
100
AcDbSymbolTableRecord
100
AcDbRegAppTableRecord
  2
GEVID1210145343
 70
     0
  0
APPID
  5
4D9
330
9
100
AcDbSymbolTableRecord
100
AcDbRegAppTableRecord
  2
GEVID1210145344
 70
     0
  0
APPID
  5
4DA
330
9
100
AcDbSymbolTableRecord
100
AcDbRegAppTableRecord
  2
GEVID1210145345
 70
     0
  0
APPID
  5
4DB
330
9
100
AcDbSymbolTableRecord
100
AcDbRegAppTableRecord
  2
GEVID1210152816
 70
     0
  0
APPID
  5
4DC
330
9
100
AcDbSymbolTableRecord
100
AcDbRegAppTableRecord
  2
GEVID1210153850
 70
     0
  0
APPID
  5
4DD
330
9
100
AcDbSymbolTableRecord
100
AcDbRegAppTableRecord
  2
GEVID1210153851
 70
     0
  0
APPID
  5
4DE
330
9
100
AcDbSymbolTableRecord
100
AcDbRegAppTableRecord
  2
GEVID1210153852
 70
     0
  0
APPID
  5
4DF
330
9
100
AcDbSymbolTableRecord
100
AcDbRegAppTableRecord
  2
GEVID1210549898
 70
     0
  0
APPID
  5
4E0
330
9
100
AcDbSymbolTableRecord
100
AcDbRegAppTableRecord
  2
GEVID1210549899
 70
     0
  0
APPID
  5
4E1
330
9
100
AcDbSymbolTableRecord
100
AcDbRegAppTableRecord
  2
GEVID1210549900
 70
     0
  0
APPID
  5
4E2
330
9
100
AcDbSymbolTableRecord
100
AcDbRegAppTableRecord
  2
GEVID1210549901
 70
     0
  0
APPID
  5
4E3
330
9
100
AcDbSymbolTableRecord
100
AcDbRegAppTableRecord
  2
GEVID1210549902
 70
     0
  0
APPID
  5
4E4
330
9
100
AcDbSymbolTableRecord
100
AcDbRegAppTableRecord
  2
GEVID1210549903
 70
     0
  0
APPID
  5
4E5
330
9
100
AcDbSymbolTableRecord
100
AcDbRegAppTableRecord
  2
GEVID1210549904
 70
     0
  0
APPID
  5
4E6
330
9
100
AcDbSymbolTableRecord
100
AcDbRegAppTableRecord
  2
GEVID1210549905
 70
     0
  0
APPID
  5
4E7
330
9
100
AcDbSymbolTableRecord
100
AcDbRegAppTableRecord
  2
GEVID1210549906
 70
     0
  0
APPID
  5
4E8
330
9
100
AcDbSymbolTableRecord
100
AcDbRegAppTableRecord
  2
GEVID1210549907
 70
     0
  0
APPID
  5
4E9
330
9
100
AcDbSymbolTableRecord
100
AcDbRegAppTableRecord
  2
GEVID1210549908
 70
     0
  0
APPID
  5
4EA
330
9
100
AcDbSymbolTableRecord
100
AcDbRegAppTableRecord
  2
GEVID1210549909
 70
     0
  0
APPID
  5
4EB
330
9
100
AcDbSymbolTableRecord
100
AcDbRegAppTableRecord
  2
GEVID1210549910
 70
     0
  0
APPID
  5
4EC
330
9
100
AcDbSymbolTableRecord
100
AcDbRegAppTableRecord
  2
GEVID1210549911
 70
     0
  0
APPID
  5
4ED
330
9
100
AcDbSymbolTableRecord
100
AcDbRegAppTableRecord
  2
GEVID1210549912
 70
     0
  0
APPID
  5
4EE
330
9
100
AcDbSymbolTableRecord
100
AcDbRegAppTableRecord
  2
GEVID1210549913
 70
     0
  0
APPID
  5
4EF
330
9
100
AcDbSymbolTableRecord
100
AcDbRegAppTableRecord
  2
GEVID1210549914
 70
     0
  0
APPID
  5
4F0
330
9
100
AcDbSymbolTableRecord
100
AcDbRegAppTableRecord
  2
GEVID1210549915
 70
     0
  0
APPID
  5
4F1
330
9
100
AcDbSymbolTableRecord
100
AcDbRegAppTableRecord
  2
GEVID1210549916
 70
     0
  0
APPID
  5
4F2
330
9
100
AcDbSymbolTableRecord
100
AcDbRegAppTableRecord
  2
GEVID1210549917
 70
     0
  0
APPID
  5
4F3
330
9
100
AcDbSymbolTableRecord
100
AcDbRegAppTableRecord
  2
GENIUS_GENOBJ-N-CRS_13
 70
     0
  0
APPID
  5
4F4
330
9
100
AcDbSymbolTableRecord
100
AcDbRegAppTableRecord
  2
GEVID1210549918
 70
     0
  0
APPID
  5
4F5
330
9
100
AcDbSymbolTableRecord
100
AcDbRegAppTableRecord
  2
GENIUS_GENOBJ-N-CRC_13
 70
     0
  0
APPID
  5
4F6
330
9
100
AcDbSymbolTableRecord
100
AcDbRegAppTableRecord
  2
GENIUS_GENCRC_14
 70
     0
  0
APPID
  5
4F7
330
9
100
AcDbSymbolTableRecord
100
AcDbRegAppTableRecord
  2
GEVID1210549919
 70
     0
  0
APPID
  5
4F8
330
9
100
AcDbSymbolTableRecord
100
AcDbRegAppTableRecord
  2
GEVID1210549921
 70
     0
  0
APPID
  5
4F9
330
9
100
AcDbSymbolTableRecord
100
AcDbRegAppTableRecord
  2
GEVID1210549922
 70
     0
  0
APPID
  5
4FA
330
9
100
AcDbSymbolTableRecord
100
AcDbRegAppTableRecord
  2
GEVID1210635173
 70
     0
  0
APPID
  5
4FB
330
9
100
AcDbSymbolTableRecord
100
AcDbRegAppTableRecord
  2
GEVID1210635174
 70
     0
  0
APPID
  5
4FC
330
9
100
AcDbSymbolTableRecord
100
AcDbRegAppTableRecord
  2
GEVID1210635175
 70
     0
  0
APPID
  5
4FD
330
9
100
AcDbSymbolTableRecord
100
AcDbRegAppTableRecord
  2
GEVID1210635176
 70
     0
  0
APPID
  5
4FE
330
9
100
AcDbSymbolTableRecord
100
AcDbRegAppTableRecord
  2
GEVID1210635177
 70
     0
  0
APPID
  5
4FF
330
9
100
AcDbSymbolTableRecord
100
AcDbRegAppTableRecord
  2
GEVID1210635178
 70
     0
  0
APPID
  5
500
330
9
100
AcDbSymbolTableRecord
100
AcDbRegAppTableRecord
  2
GENIUS_GENIUS_GENBHEDTMP_13
 70
     0
  0
APPID
  5
501
330
9
100
AcDbSymbolTableRecord
100
AcDbRegAppTableRecord
  2
GEVID1210635179
 70
     0
  0
APPID
  5
502
330
9
100
AcDbSymbolTableRecord
100
AcDbRegAppTableRecord
  2
GEVID1210635180
 70
     0
  0
APPID
  5
503
330
9
100
AcDbSymbolTableRecord
100
AcDbRegAppTableRecord
  2
GEVID1210635181
 70
     0
  0
APPID
  5
504
330
9
100
AcDbSymbolTableRecord
100
AcDbRegAppTableRecord
  2
GEVID1210635182
 70
     0
  0
APPID
  5
505
330
9
100
AcDbSymbolTableRecord
100
AcDbRegAppTableRecord
  2
GEVID1210635184
 70
     0
  0
APPID
  5
506
330
9
100
AcDbSymbolTableRecord
100
AcDbRegAppTableRecord
  2
GEVID1210635185
 70
     0
  0
APPID
  5
507
330
9
100
AcDbSymbolTableRecord
100
AcDbRegAppTableRecord
  2
GEVID1210635186
 70
     0
  0
APPID
  5
508
330
9
100
AcDbSymbolTableRecord
100
AcDbRegAppTableRecord
  2
GEVID1210635187
 70
     0
  0
APPID
  5
509
330
9
100
AcDbSymbolTableRecord
100
AcDbRegAppTableRecord
  2
GEVID1210635188
 70
     0
  0
APPID
  5
50A
330
9
100
AcDbSymbolTableRecord
100
AcDbRegAppTableRecord
  2
GEVID1210635189
 70
     0
  0
APPID
  5
50B
330
9
100
AcDbSymbolTableRecord
100
AcDbRegAppTableRecord
  2
GEVID1210635190
 70
     0
  0
APPID
  5
50C
330
9
100
AcDbSymbolTableRecord
100
AcDbRegAppTableRecord
  2
GENIUS_GENREC_14
 70
     0
  0
APPID
  5
50D
330
9
100
AcDbSymbolTableRecord
100
AcDbRegAppTableRecord
  2
GENIUS_GENOBJ-N-REC_13
 70
     0
  0
APPID
  5
50E
330
9
100
AcDbSymbolTableRecord
100
AcDbRegAppTableRecord
  2
GEVID1210676655
 70
     0
  0
APPID
  5
50F
330
9
100
AcDbSymbolTableRecord
100
AcDbRegAppTableRecord
  2
GEVID1210676656
 70
     0
  0
APPID
  5
510
330
9
100
AcDbSymbolTableRecord
100
AcDbRegAppTableRecord
  2
GEVID1210676657
 70
     0
  0
APPID
  5
511
330
9
100
AcDbSymbolTableRecord
100
AcDbRegAppTableRecord
  2
GEVID1210676659
 70
     0
  0
APPID
  5
512
330
9
100
AcDbSymbolTableRecord
100
AcDbRegAppTableRecord
  2
GEVID1210676660
 70
     0
  0
APPID
  5
513
330
9
100
AcDbSymbolTableRecord
100
AcDbRegAppTableRecord
  2
GEVID1210676661
 70
     0
  0
APPID
  5
514
330
9
100
AcDbSymbolTableRecord
100
AcDbRegAppTableRecord
  2
GEVID1210676662
 70
     0
  0
APPID
  5
515
330
9
100
AcDbSymbolTableRecord
100
AcDbRegAppTableRecord
  2
GEVID1210721646
 70
     0
  0
APPID
  5
516
330
9
100
AcDbSymbolTableRecord
100
AcDbRegAppTableRecord
  2
GEVID1210721647
 70
     0
  0
APPID
  5
517
330
9
100
AcDbSymbolTableRecord
100
AcDbRegAppTableRecord
  2
GEVID1210721648
 70
     0
  0
APPID
  5
518
330
9
100
AcDbSymbolTableRecord
100
AcDbRegAppTableRecord
  2
GEVID1210721649
 70
     0
  0
APPID
  5
519
330
9
100
AcDbSymbolTableRecord
100
AcDbRegAppTableRecord
  2
GEVID1210721650
 70
     0
  0
APPID
  5
51A
330
9
100
AcDbSymbolTableRecord
100
AcDbRegAppTableRecord
  2
GEVID1210721651
 70
     0
  0
APPID
  5
51B
330
9
100
AcDbSymbolTableRecord
100
AcDbRegAppTableRecord
  2
GEVID1210721652
 70
     0
  0
APPID
  5
51C
330
9
100
AcDbSymbolTableRecord
100
AcDbRegAppTableRecord
  2
GEVID1210721653
 70
     0
  0
APPID
  5
51D
330
9
100
AcDbSymbolTableRecord
100
AcDbRegAppTableRecord
  2
PE_URL
 70
     0
  0
APPID
  5
51E
330
9
100
AcDbSymbolTableRecord
100
AcDbRegAppTableRecord
  2
GEVID1210825555
 70
     0
  0
APPID
  5
51F
330
9
100
AcDbSymbolTableRecord
100
AcDbRegAppTableRecord
  2
GEVID1210825556
 70
     0
  0
APPID
  5
520
330
9
100
AcDbSymbolTableRecord
100
AcDbRegAppTableRecord
  2
GEVID1210825557
 70
     0
  0
APPID
  5
521
330
9
100
AcDbSymbolTableRecord
100
AcDbRegAppTableRecord
  2
GEVID1210825558
 70
     0
  0
APPID
  5
522
330
9
100
AcDbSymbolTableRecord
100
AcDbRegAppTableRecord
  2
GEVID1210825559
 70
     0
  0
APPID
  5
523
330
9
100
AcDbSymbolTableRecord
100
AcDbRegAppTableRecord
  2
GEVID1210825560
 70
     0
  0
APPID
  5
524
330
9
100
AcDbSymbolTableRecord
100
AcDbRegAppTableRecord
  2
GEVID1210825561
 70
     0
  0
APPID
  5
525
330
9
100
AcDbSymbolTableRecord
100
AcDbRegAppTableRecord
  2
GEVID1210825562
 70
     0
  0
APPID
  5
526
330
9
100
AcDbSymbolTableRecord
100
AcDbRegAppTableRecord
  2
GEVID1210825563
 70
     0
  0
APPID
  5
527
330
9
100
AcDbSymbolTableRecord
100
AcDbRegAppTableRecord
  2
GEVID1210825564
 70
     0
  0
APPID
  5
528
330
9
100
AcDbSymbolTableRecord
100
AcDbRegAppTableRecord
  2
GEVID1210825565
 70
     0
  0
APPID
  5
529
330
9
100
AcDbSymbolTableRecord
100
AcDbRegAppTableRecord
  2
GEVID1210825566
 70
     0
  0
APPID
  5
52A
330
9
100
AcDbSymbolTableRecord
100
AcDbRegAppTableRecord
  2
GEVID1210825567
 70
     0
  0
APPID
  5
52B
330
9
100
AcDbSymbolTableRecord
100
AcDbRegAppTableRecord
  2
GENIUS_GENOBJ-N-ZOO_13
 70
     0
  0
APPID
  5
52C
330
9
100
AcDbSymbolTableRecord
100
AcDbRegAppTableRecord
  2
GENIUS_GENZOO_17
 70
     0
  0
APPID
  5
52D
330
9
100
AcDbSymbolTableRecord
100
AcDbRegAppTableRecord
  2
ACADANNOTATIVEDECOMPOSITION
 70
     0
  0
APPID
  5
52E
330
9
100
AcDbSymbolTableRecord
100
AcDbRegAppTableRecord
  2
GENIUS_GENOBJ-N-HTC_13
 70
     0
  0
APPID
  5
52F
330
9
100
AcDbSymbolTableRecord
100
AcDbRegAppTableRecord
  2
GENIUS_GENHATCH_13
 70
     0
  0
APPID
  5
530
330
9
100
AcDbSymbolTableRecord
100
AcDbRegAppTableRecord
  2
GEVID1210896020
 70
     0
  0
APPID
  5
531
330
9
100
AcDbSymbolTableRecord
100
AcDbRegAppTableRecord
  2
GEVID1210896021
 70
     0
  0
APPID
  5
532
330
9
100
AcDbSymbolTableRecord
100
AcDbRegAppTableRecord
  2
GEVID1209083540
 70
     0
  0
APPID
  5
533
330
9
100
AcDbSymbolTableRecord
100
AcDbRegAppTableRecord
  2
GEVMK
 70
     0
  0
APPID
  5
534
330
9
100
AcDbSymbolTableRecord
100
AcDbRegAppTableRecord
  2
GEVID1209083542
 70
     0
  0
APPID
  5
535
330
9
100
AcDbSymbolTableRecord
100
AcDbRegAppTableRecord
  2
GEVID1209083543
 70
     0
  0
APPID
  5
536
330
9
100
AcDbSymbolTableRecord
100
AcDbRegAppTableRecord
  2
GEVID1209083544
 70
     0
  0
APPID
  5
537
330
9
100
AcDbSymbolTableRecord
100
AcDbRegAppTableRecord
  2
GEVID1209083545
 70
     0
  0
APPID
  5
538
330
9
100
AcDbSymbolTableRecord
100
AcDbRegAppTableRecord
  2
GEVID1209083546
 70
     0
  0
APPID
  5
539
330
9
100
AcDbSymbolTableRecord
100
AcDbRegAppTableRecord
  2
GEVID1209083547
 70
     0
  0
APPID
  5
53A
330
9
100
AcDbSymbolTableRecord
100
AcDbRegAppTableRecord
  2
GEVID1209083548
 70
     0
  0
APPID
  5
53B
330
9
100
AcDbSymbolTableRecord
100
AcDbRegAppTableRecord
  2
GEVID1209083549
 70
     0
  0
APPID
  5
53C
330
9
100
AcDbSymbolTableRecord
100
AcDbRegAppTableRecord
  2
GEVID1209083550
 70
     0
  0
APPID
  5
53D
330
9
100
AcDbSymbolTableRecord
100
AcDbRegAppTableRecord
  2
GEVID1209083551
 70
     0
  0
APPID
  5
53E
330
9
100
AcDbSymbolTableRecord
100
AcDbRegAppTableRecord
  2
GEVID1209083552
 70
     0
  0
APPID
  5
53F
330
9
100
AcDbSymbolTableRecord
100
AcDbRegAppTableRecord
  2
GEVID1209083553
 70
     0
  0
APPID
  5
540
330
9
100
AcDbSymbolTableRecord
100
AcDbRegAppTableRecord
  2
GEVID1210896022
 70
     0
  0
APPID
  5
541
330
9
100
AcDbSymbolTableRecord
100
AcDbRegAppTableRecord
  2
GEVID1211508364
 70
     0
  0
APPID
  5
542
330
9
100
AcDbSymbolTableRecord
100
AcDbRegAppTableRecord
  2
GEVID1211414908
 70
     0
  0
APPID
  5
543
330
9
100
AcDbSymbolTableRecord
100
AcDbRegAppTableRecord
  2
GEVID1211414909
 70
     0
  0
APPID
  5
544
330
9
100
AcDbSymbolTableRecord
100
AcDbRegAppTableRecord
  2
GEVID1211508359
 70
     0
  0
APPID
  5
545
330
9
100
AcDbSymbolTableRecord
100
AcDbRegAppTableRecord
  2
GEVID1211508360
 70
     0
  0
APPID
  5
546
330
9
100
AcDbSymbolTableRecord
100
AcDbRegAppTableRecord
  2
GEVID1211508361
 70
     0
  0
APPID
  5
547
330
9
100
AcDbSymbolTableRecord
100
AcDbRegAppTableRecord
  2
GEVID1211508362
 70
     0
  0
APPID
  5
548
330
9
100
AcDbSymbolTableRecord
100
AcDbRegAppTableRecord
  2
GEVID1211508363
 70
     0
  0
APPID
  5
549
330
9
100
AcDbSymbolTableRecord
100
AcDbRegAppTableRecord
  2
GEVID1211878469
 70
     0
  0
APPID
  5
54A
330
9
100
AcDbSymbolTableRecord
100
AcDbRegAppTableRecord
  2
GEVID1212642819
 70
     0
  0
APPID
  5
54B
330
9
100
AcDbSymbolTableRecord
100
AcDbRegAppTableRecord
  2
GEVID1212642820
 70
     0
  0
APPID
  5
54C
330
9
100
AcDbSymbolTableRecord
100
AcDbRegAppTableRecord
  2
GEVID1212642821
 70
     0
  0
APPID
  5
54D
330
9
100
AcDbSymbolTableRecord
100
AcDbRegAppTableRecord
  2
GEVID1212642822
 70
     0
  0
APPID
  5
54E
330
9
100
AcDbSymbolTableRecord
100
AcDbRegAppTableRecord
  2
GEVID1212642823
 70
     0
  0
APPID
  5
54F
330
9
100
AcDbSymbolTableRecord
100
AcDbRegAppTableRecord
  2
GEVID1212642825
 70
     0
  0
APPID
  5
550
330
9
100
AcDbSymbolTableRecord
100
AcDbRegAppTableRecord
  2
GEVID1212642826
 70
     0
  0
APPID
  5
551
330
9
100
AcDbSymbolTableRecord
100
AcDbRegAppTableRecord
  2
GEVID1212642827
 70
     0
  0
APPID
  5
552
330
9
100
AcDbSymbolTableRecord
100
AcDbRegAppTableRecord
  2
GEVID1212642828
 70
     0
  0
APPID
  5
553
330
9
100
AcDbSymbolTableRecord
100
AcDbRegAppTableRecord
  2
GEVID1212642831
 70
     0
  0
APPID
  5
554
330
9
100
AcDbSymbolTableRecord
100
AcDbRegAppTableRecord
  2
GEVID1212642834
 70
     0
  0
APPID
  5
555
330
9
100
AcDbSymbolTableRecord
100
AcDbRegAppTableRecord
  2
GEVID1212642835
 70
     0
  0
APPID
  5
556
330
9
100
AcDbSymbolTableRecord
100
AcDbRegAppTableRecord
  2
GEVID1212642836
 70
     0
  0
APPID
  5
557
330
9
100
AcDbSymbolTableRecord
100
AcDbRegAppTableRecord
  2
GEVID1212642837
 70
     0
  0
APPID
  5
558
330
9
100
AcDbSymbolTableRecord
100
AcDbRegAppTableRecord
  2
GEVID1212642839
 70
     0
  0
APPID
  5
559
330
9
100
AcDbSymbolTableRecord
100
AcDbRegAppTableRecord
  2
GEVID1212642840
 70
     0
  0
APPID
  5
55A
330
9
100
AcDbSymbolTableRecord
100
AcDbRegAppTableRecord
  2
GEVID1212642841
 70
     0
  0
APPID
  5
55B
330
9
100
AcDbSymbolTableRecord
100
AcDbRegAppTableRecord
  2
GEVID1212655312
 70
     0
  0
APPID
  5
55C
330
9
100
AcDbSymbolTableRecord
100
AcDbRegAppTableRecord
  2
GEVID1212655313
 70
     0
  0
APPID
  5
55D
330
9
100
AcDbSymbolTableRecord
100
AcDbRegAppTableRecord
  2
GEVID1212656533
 70
     0
  0
APPID
  5
55E
330
9
100
AcDbSymbolTableRecord
100
AcDbRegAppTableRecord
  2
GEVID1212656534
 70
     0
  0
APPID
  5
55F
330
9
100
AcDbSymbolTableRecord
100
AcDbRegAppTableRecord
  2
GEVID1212656535
 70
     0
  0
APPID
  5
560
330
9
100
AcDbSymbolTableRecord
100
AcDbRegAppTableRecord
  2
GEVID1212656536
 70
     0
  0
APPID
  5
561
330
9
100
AcDbSymbolTableRecord
100
AcDbRegAppTableRecord
  2
GEVID1212656538
 70
     0
  0
APPID
  5
562
330
9
100
AcDbSymbolTableRecord
100
AcDbRegAppTableRecord
  2
GEVID1212656541
 70
     0
  0
APPID
  5
563
330
9
100
AcDbSymbolTableRecord
100
AcDbRegAppTableRecord
  2
GEVID1212656543
 70
     0
  0
APPID
  5
564
330
9
100
AcDbSymbolTableRecord
100
AcDbRegAppTableRecord
  2
GENIUS_GENOBJ-F-PFASSM_13
 70
     0
  0
APPID
  5
565
330
9
100
AcDbSymbolTableRecord
100
AcDbRegAppTableRecord
  2
GEVID1212656544
 70
     0
  0
APPID
  5
566
330
9
100
AcDbSymbolTableRecord
100
AcDbRegAppTableRecord
  2
GEVID1212656545
 70
     0
  0
APPID
  5
567
330
9
100
AcDbSymbolTableRecord
100
AcDbRegAppTableRecord
  2
GEVID1212656546
 70
     0
  0
APPID
  5
568
330
9
100
AcDbSymbolTableRecord
100
AcDbRegAppTableRecord
  2
GEVID1212656547
 70
     0
  0
APPID
  5
569
330
9
100
AcDbSymbolTableRecord
100
AcDbRegAppTableRecord
  2
GEVID1212656548
 70
     0
  0
APPID
  5
56A
330
9
100
AcDbSymbolTableRecord
100
AcDbRegAppTableRecord
  2
GEVID1212656549
 70
     0
  0
APPID
  5
56B
330
9
100
AcDbSymbolTableRecord
100
AcDbRegAppTableRecord
  2
GEVID1212656550
 70
     0
  0
APPID
  5
56C
330
9
100
AcDbSymbolTableRecord
100
AcDbRegAppTableRecord
  2
GEVID1212656552
 70
     0
  0
APPID
  5
56D
330
9
100
AcDbSymbolTableRecord
100
AcDbRegAppTableRecord
  2
GEVID1212656553
 70
     0
  0
APPID
  5
56E
330
9
100
AcDbSymbolTableRecord
100
AcDbRegAppTableRecord
  2
GEVID1212656554
 70
     0
  0
APPID
  5
56F
330
9
100
AcDbSymbolTableRecord
100
AcDbRegAppTableRecord
  2
GEVID1212656555
 70
     0
  0
APPID
  5
570
330
9
100
AcDbSymbolTableRecord
100
AcDbRegAppTableRecord
  2
GEVID1212656556
 70
     0
  0
APPID
  5
571
330
9
100
AcDbSymbolTableRecord
100
AcDbRegAppTableRecord
  2
GEVID1212656557
 70
     0
  0
APPID
  5
572
330
9
100
AcDbSymbolTableRecord
100
AcDbRegAppTableRecord
  2
GEVID1212656559
 70
     0
  0
APPID
  5
573
330
9
100
AcDbSymbolTableRecord
100
AcDbRegAppTableRecord
  2
GEVID1212656560
 70
     0
  0
APPID
  5
574
330
9
100
AcDbSymbolTableRecord
100
AcDbRegAppTableRecord
  2
GEVID1212656561
 70
     0
  0
APPID
  5
575
330
9
100
AcDbSymbolTableRecord
100
AcDbRegAppTableRecord
  2
GEVID1212656562
 70
     0
  0
APPID
  5
576
330
9
100
AcDbSymbolTableRecord
100
AcDbRegAppTableRecord
  2
GEVID1212656563
 70
     0
  0
APPID
  5
577
330
9
100
AcDbSymbolTableRecord
100
AcDbRegAppTableRecord
  2
GEVID1212711781
 70
     0
  0
APPID
  5
578
330
9
100
AcDbSymbolTableRecord
100
AcDbRegAppTableRecord
  2
GEVID1212711782
 70
     0
  0
APPID
  5
579
330
9
100
AcDbSymbolTableRecord
100
AcDbRegAppTableRecord
  2
GEVID1212711783
 70
     0
  0
APPID
  5
57A
330
9
100
AcDbSymbolTableRecord
100
AcDbRegAppTableRecord
  2
GEVID1212711784
 70
     0
  0
APPID
  5
57B
330
9
100
AcDbSymbolTableRecord
100
AcDbRegAppTableRecord
  2
GEVID1212711788
 70
     0
  0
APPID
  5
57C
330
9
100
AcDbSymbolTableRecord
100
AcDbRegAppTableRecord
  2
GEVID1212711789
 70
     0
  0
APPID
  5
57D
330
9
100
AcDbSymbolTableRecord
100
AcDbRegAppTableRecord
  2
GEVID1212711790
 70
     0
  0
APPID
  5
57E
330
9
100
AcDbSymbolTableRecord
100
AcDbRegAppTableRecord
  2
GEVID1212711791
 70
     0
  0
APPID
  5
57F
330
9
100
AcDbSymbolTableRecord
100
AcDbRegAppTableRecord
  2
GEVID1212711792
 70
     0
  0
APPID
  5
580
330
9
100
AcDbSymbolTableRecord
100
AcDbRegAppTableRecord
  2
GEVID1212711793
 70
     0
  0
APPID
  5
581
330
9
100
AcDbSymbolTableRecord
100
AcDbRegAppTableRecord
  2
GEVID1212711794
 70
     0
  0
APPID
  5
582
330
9
100
AcDbSymbolTableRecord
100
AcDbRegAppTableRecord
  2
GEVID1212711795
 70
     0
  0
APPID
  5
583
330
9
100
AcDbSymbolTableRecord
100
AcDbRegAppTableRecord
  2
GEVID1212711797
 70
     0
  0
APPID
  5
584
330
9
100
AcDbSymbolTableRecord
100
AcDbRegAppTableRecord
  2
GEVID1212711798
 70
     0
  0
APPID
  5
585
330
9
100
AcDbSymbolTableRecord
100
AcDbRegAppTableRecord
  2
GEVID1212711799
 70
     0
  0
APPID
  5
586
330
9
100
AcDbSymbolTableRecord
100
AcDbRegAppTableRecord
  2
GEVID1212711800
 70
     0
  0
APPID
  5
587
330
9
100
AcDbSymbolTableRecord
100
AcDbRegAppTableRecord
  2
GEVID1212711801
 70
     0
  0
APPID
  5
588
330
9
100
AcDbSymbolTableRecord
100
AcDbRegAppTableRecord
  2
GEVID1212711802
 70
     0
  0
APPID
  5
589
330
9
100
AcDbSymbolTableRecord
100
AcDbRegAppTableRecord
  2
GEVID1212711803
 70
     0
  0
APPID
  5
58A
330
9
100
AcDbSymbolTableRecord
100
AcDbRegAppTableRecord
  2
GEVID1212711804
 70
     0
  0
APPID
  5
58B
330
9
100
AcDbSymbolTableRecord
100
AcDbRegAppTableRecord
  2
GEVID1212711805
 70
     0
  0
APPID
  5
58C
330
9
100
AcDbSymbolTableRecord
100
AcDbRegAppTableRecord
  2
GEVID1212711806
 70
     0
  0
APPID
  5
58D
330
9
100
AcDbSymbolTableRecord
100
AcDbRegAppTableRecord
  2
GEVID1212711807
 70
     0
  0
APPID
  5
58E
330
9
100
AcDbSymbolTableRecord
100
AcDbRegAppTableRecord
  2
GEVID1212711808
 70
     0
  0
APPID
  5
58F
330
9
100
AcDbSymbolTableRecord
100
AcDbRegAppTableRecord
  2
GEVID1212711809
 70
     0
  0
APPID
  5
590
330
9
100
AcDbSymbolTableRecord
100
AcDbRegAppTableRecord
  2
GEVID1212711810
 70
     0
  0
APPID
  5
591
330
9
100
AcDbSymbolTableRecord
100
AcDbRegAppTableRecord
  2
GEVID1212711811
 70
     0
  0
APPID
  5
90A
330
9
100
AcDbSymbolTableRecord
100
AcDbRegAppTableRecord
  2
GENIUS_GENTRA_14
 70
     0
  0
APPID
  5
919
330
9
100
AcDbSymbolTableRecord
100
AcDbRegAppTableRecord
  2
GENIUS_GENOBJ-N-TIT_13
 70
     0
  0
APPID
  5
91A
330
9
100
AcDbSymbolTableRecord
100
AcDbRegAppTableRecord
  2
GENIUS_GENTITLE_13
 70
     0
  0
APPID
  5
949
330
9
100
AcDbSymbolTableRecord
100
AcDbRegAppTableRecord
  2
GENIUS_GENBLLY_14
 70
     0
  0
APPID
  5
DDD
330
9
100
AcDbSymbolTableRecord
100
AcDbRegAppTableRecord
  2
GEVID1213165152
 70
     0
  0
APPID
  5
12F9
330
9
100
AcDbSymbolTableRecord
100
AcDbRegAppTableRecord
  2
AcDbDynamicBlockTrueName
 70
     0
  0
APPID
  5
12FA
330
9
100
AcDbSymbolTableRecord
100
AcDbRegAppTableRecord
  2
ACDBBLOCKREPETAG
 70
     0
  0
APPID
  5
1C15
330
9
100
AcDbSymbolTableRecord
100
AcDbRegAppTableRecord
  2
GEVID1214872427
 70
     0
  0
APPID
  5
1C2A
330
9
100
AcDbSymbolTableRecord
100
AcDbRegAppTableRecord
  2
GEVID1214872428
 70
     0
  0
APPID
  5
1C2F
330
9
100
AcDbSymbolTableRecord
100
AcDbRegAppTableRecord
  2
GEVID1214872429
 70
     0
  0
APPID
  5
1C33
330
9
100
AcDbSymbolTableRecord
100
AcDbRegAppTableRecord
  2
GEVID1214872430
 70
     0
  0
APPID
  5
1C3F
330
9
100
AcDbSymbolTableRecord
100
AcDbRegAppTableRecord
  2
GEVID1214872432
 70
     0
  0
APPID
  5
1C4E
330
9
100
AcDbSymbolTableRecord
100
AcDbRegAppTableRecord
  2
GEVID1214872433
 70
     0
  0
APPID
  5
20DC
330
9
100
AcDbSymbolTableRecord
100
AcDbRegAppTableRecord
  2
AcDbDynamicBlockGUID
 70
     0
  0
APPID
  5
20FD
330
9
100
AcDbSymbolTableRecord
100
AcDbRegAppTableRecord
  2
GENIUS_GENOBJ-N-REV_13
 70
     0
  0
APPID
  5
20FE
330
9
100
AcDbSymbolTableRecord
100
AcDbRegAppTableRecord
  2
GENIUS_GENOBJ-N-RSSYM_13
 70
     0
  0
APPID
  5
20FF
330
9
100
AcDbSymbolTableRecord
100
AcDbRegAppTableRecord
  2
GENIUS_GENSYMENT_13
 70
     0
  0
APPID
  5
2100
330
9
100
AcDbSymbolTableRecord
100
AcDbRegAppTableRecord
  2
GENIUS_GENSCSYM_13
 70
     0
  0
ENDTAB
  0
TABLE
  2
DIMSTYLE
  5
A
330
0
100
AcDbSymbolTable
 70
    29
100
AcDbDimStyleTable
 71
     1
340
5AB
  0
DIMSTYLE
105
5AB
330
A
100
AcDbSymbolTableRecord
100
AcDbDimStyleTableRecord
  2
SEISA
 70
     0
  4
"
 40
2.5
 41
2.5
 42
0.625
 43
10.0
 44
0.625
 47
0.1
 48
0.1
 73
     0
 74
     0
 77
     3
 78
     8
 79
     2
 90
     1
140
3.5
141
0.0
143
0.0393701
146
0.71
147
1.5
172
     1
176
     3
177
     3
178
     3
271
     2
272
     2
283
     0
286
     8
340
5D5
341
69
342
69
371
    -1
372
    -1
1001
ACAD_DSTYLE_DIMJAG
1070
   388
1040
1.5
1001
ACAD_DSTYLE_DIMTALN
1070
   392
1070
     1
  0
DIMSTYLE
105
5E9
102
{ACAD_REACTORS
330
46BA
330
482A
330
4846
330
48AF
330
4921
330
4AF8
330
4B10
330
4B28
330
4B5D
330
4B75
330
4BAA
330
4BC2
330
5592
330
5652
330
5680
102
}
330
A
100
AcDbSymbolTableRecord
100
AcDbDimStyleTableRecord
  2
SEISA$0
 70
     0
  4
"
 40
2.5
 41
2.5
 42
0.625
 43
10.0
 44
0.625
 47
0.1
 48
0.1
 73
     0
 74
     0
 77
     3
 78
     8
 79
     2
 90
     1
140
3.5
141
0.0
143
0.0393701
146
0.71
147
1.5
172
     1
176
     3
177
     3
178
     3
271
     2
272
     2
283
     0
286
     8
340
5D5
341
69
342
69
371
    -1
372
    -1
  0
DIMSTYLE
105
58D2
330
A
100
AcDbSymbolTableRecord
100
AcDbDimStyleTableRecord
  2
AM_ISO
 70
     0
  4
"
 41
2.5
 42
1.0
 43
10.0
 44
1.0
 47
0.1
 48
0.1
 73
     0
 74
     0
 77
     1
 78
     8
 79
     2
 90
     1
140
3.5
141
0.0
143
0.0393701
146
0.71
147
1.5
172
     1
176
   256
177
   256
178
     2
271
     2
272
     3
274
     4
283
     0
284
     8
340
11
371
    -1
372
    -1
  0
DIMSTYLE
105
58D3
330
A
100
AcDbSymbolTableRecord
100
AcDbDimStyleTableRecord
  2
AM_ISO$3
 70
     0
  4
"
 41
2.5
 42
1.0
 43
10.0
 44
1.0
 47
0.1
 48
0.1
 73
     0
 77
     1
 78
     8
 79
     2
 90
     1
140
3.5
141
0.0
143
0.0393701
146
0.71
147
1.5
176
   256
177
   256
178
     2
271
     2
272
     3
274
     4
283
     0
284
     8
288
     1
289
     0
340
11
371
    -1
372
    -1
  0
DIMSTYLE
105
58D4
330
A
100
AcDbSymbolTableRecord
100
AcDbDimStyleTableRecord
  2
AM_ISO$4
 70
     0
  4
"
 41
2.5
 42
1.0
 43
10.0
 44
1.0
 47
0.1
 48
0.1
 73
     0
 77
     1
 78
     8
 79
     2
 90
     1
140
3.5
141
0.0
143
0.0393701
146
0.71
147
1.5
176
   256
177
   256
178
     2
271
     2
272
     3
274
     4
283
     0
284
     8
288
     1
289
     0
340
11
371
    -1
372
    -1
  0
DIMSTYLE
105
58D5
330
A
100
AcDbSymbolTableRecord
100
AcDbDimStyleTableRecord
  2
AM_ISO$6
 70
     0
  4
"
 41
2.5
 42
1.0
 43
10.0
 44
1.0
 47
0.1
 48
0.1
 73
     0
 74
     0
 78
     8
 79
     2
 90
     1
140
3.5
141
0.0
143
0.0393701
146
0.71
147
1.5
172
     1
176
   256
177
   256
178
     2
271
     2
272
     3
274
     4
283
     0
284
     8
340
11
371
    -1
372
    -1
  0
DIMSTYLE
105
58D6
330
A
100
AcDbSymbolTableRecord
100
AcDbDimStyleTableRecord
  2
AM_ISO$7
 70
     0
  4
"
 41
2.5
 42
1.0
 43
10.0
 44
1.0
 47
0.1
 48
0.1
 73
     0
 74
     0
 77
     1
 78
     8
 79
     2
 90
     1
140
5.0
141
0.0
143
0.0393701
146
0.71
147
1.5
172
     1
176
   256
177
   256
178
     2
271
     2
272
     3
274
     4
283
     0
284
     8
340
11
371
    -1
372
    -1
  0
DIMSTYLE
105
58D7
330
A
100
AcDbSymbolTableRecord
100
AcDbDimStyleTableRecord
  2
AM_ISO$SF
 70
     0
  4
"
 41
2.5
 42
1.0
 43
10.0
 44
1.0
 47
0.1
 48
0.1
 73
     0
 74
     0
 75
     1
 76
     1
 77
     1
 78
     8
 79
     2
 90
     1
140
3.5
141
0.0
143
0.0393701
146
0.71
147
1.5
172
     1
176
   256
177
   256
178
     2
271
     2
272
     3
274
     4
283
     0
284
     8
340
11
371
    -1
372
    -1
  0
DIMSTYLE
105
58D8
330
A
100
AcDbSymbolTableRecord
100
AcDbDimStyleTableRecord
  2
AM_ISO$SH
 70
     0
  4
"
 41
2.5
 42
1.0
 43
10.0
 44
1.0
 47
0.1
 48
0.1
 73
     0
 74
     0
 75
     1
 76
     1
 77
     1
 78
     8
 79
     2
 90
     1
140
3.5
141
0.0
143
0.0393701
144
2.0
146
0.71
147
1.5
172
     1
173
     1
176
   256
177
   256
178
     2
271
     2
272
     3
274
     4
283
     0
284
     8
340
11
343
74
371
    -1
372
    -1
  0
ENDTAB
  0
TABLE
  2
BLOCK_RECORD
  5
1
330
0
100
AcDbSymbolTable
 70
    31
  0
BLOCK_RECORD
  5
1F
102
{ACAD_XDICTIONARY
360
82
102
}
330
1
100
AcDbSymbolTableRecord
100
AcDbBlockTableRecord
  2
*Model_Space
340
22
 70
     0
280
     1
281
     0
  0
BLOCK_RECORD
  5
1B
330
1
100
AcDbSymbolTableRecord
100
AcDbBlockTableRecord
  2
*Paper_Space
340
1E
 70
     0
280
     1
281
     0
  0
BLOCK_RECORD
  5
23
330
1
100
AcDbSymbolTableRecord
100
AcDbBlockTableRecord
  2
*Paper_Space0
340
26
 70
     0
280
     1
281
     0
  0
BLOCK_RECORD
  5
69
330
1
100
AcDbSymbolTableRecord
100
AcDbBlockTableRecord
  2
_Open30
340
0
102
{BLKREFS
331
4820
331
4821
331
4932
331
4933
331
4B43
331
4B44
331
4B4C
331
4B4D
331
4B55
331
4B56
331
4C20
331
4C21
331
4FE4
331
4FFA
331
55BE
331
55BF
331
55C7
331
55C8
331
56AC
331
56AD
331
56D8
331
56D9
331
5791
331
5792
331
5830
331
5831
331
5847
331
5848
102
}
 70
     0
280
     1
281
     0
  0
BLOCK_RECORD
  5
74
330
1
100
AcDbSymbolTableRecord
100
AcDbBlockTableRecord
  2
GENAXEH
340
0
 70
     0
280
     1
281
     0
  0
BLOCK_RECORD
  5
33C4
102
{ACAD_XDICTIONARY
360
33C5
102
}
330
1
100
AcDbSymbolTableRecord
100
AcDbBlockTableRecord
  2
ジュウジマルコネジ
340
0
310
2800000020000000200000000100080000000000000400000000000000000000000000000000000000000000000080000080000000808000800000008000800080800000C0C0C000C0DCC000F0CAA6000020400000206000002080000020A0000020C0000020E00000400000004020000040400000406000004080000040A0
310
000040C0000040E00000600000006020000060400000606000006080000060A0000060C0000060E00000800000008020000080400000806000008080000080A0000080C0000080E00000A0000000A0200000A0400000A0600000A0800000A0A00000A0C00000A0E00000C0000000C0200000C0400000C0600000C0800000C0
310
A00000C0C00000C0E00000E0000000E0200000E0400000E0600000E0800000E0A00000E0C00000E0E00040000000400020004000400040006000400080004000A0004000C0004000E00040200000402020004020400040206000402080004020A0004020C0004020E000404000004040200040404000404060004040800040
310
40A0004040C0004040E00040600000406020004060400040606000406080004060A0004060C0004060E00040800000408020004080400040806000408080004080A0004080C0004080E00040A0000040A0200040A0400040A0600040A0800040A0A00040A0C00040A0E00040C0000040C0200040C0400040C0600040C08000
310
40C0A00040C0C00040C0E00040E0000040E0200040E0400040E0600040E0800040E0A00040E0C00040E0E00080000000800020008000400080006000800080008000A0008000C0008000E00080200000802020008020400080206000802080008020A0008020C0008020E00080400000804020008040400080406000804080
310
008040A0008040C0008040E00080600000806020008060400080606000806080008060A0008060C0008060E00080800000808020008080400080806000808080008080A0008080C0008080E00080A0000080A0200080A0400080A0600080A0800080A0A00080A0C00080A0E00080C0000080C0200080C0400080C0600080C0
310
800080C0A00080C0C00080C0E00080E0000080E0200080E0400080E0600080E0800080E0A00080E0C00080E0E000C0000000C0002000C0004000C0006000C0008000C000A000C000C000C000E000C0200000C0202000C0204000C0206000C0208000C020A000C020C000C020E000C0400000C0402000C0404000C0406000C0
310
408000C040A000C040C000C040E000C0600000C0602000C0604000C0606000C0608000C060A000C060C000C060E000C0800000C0802000C0804000C0806000C0808000C080A000C080C000C080E000C0A00000C0A02000C0A04000C0A06000C0A08000C0A0A000C0A0C000C0A0E000C0C00000C0C02000C0C04000C0C06000
310
C0C08000C0C0A000F0FBFF00A4A0A000808080000000FF0000FF000000FFFF00FF000000FF00FF00FFFF0000FFFFFF0000000000000000000000000000000000000000000000000000000000000000000000000000000000000000000000000000000000000000000000000000000000000000000000000000000000000000
310
000000000000000000000000000000000000000000000000000000000000000000000000000000000000000000000000000000000000000000000000FFFFFF0000000000000000000000000000000000000000000000000000000000FF00000000000000000000000000000000000000000000000000000000000000FF0000
310
0000000000000000000000000000000000000000000000000000000000FF0000000000000000000000000000000000000000000000000000000000FFFFFF000000000000000000000000000000000000000000000000000000FFFF0000FF000000000000000000000000000000000000000000000000000000FF000000FF00
310
00000000000000000000000000000000000000000000000000FF00000000FFFFFFFFFFFFFFFFFFFFFF000000000000000000000000000000FFFF00000000FEFEFEFEFEFEFEFEFEFEFEFF0000000000000000000000000000FF0000000000FF000000000000000000FFFF0000000000000000000000000000FF0000000000FF
310
000000000000000000FFFF0000000000000000000000000000FF0000000000FF000000000000000000FFFF00000000000000000000F9F9F9F9FFF9F9F9F9F9FFF9F9F9F9F9F9F9F9F9FFFFF9F9F9F9F9F9F9F9000000000000FF0000000000FF000000000000000000FFFF0000000000000000000000000000FF0000000000
310
FF000000000000000000FFFF0000000000000000000000000000FFFF00000000FEFEFEFEFEFEFEFEFEFEFFFF000000000000000000000000000000FF00000000FFFFFFFFFFFFFFFFFFFFFF0000000000000000000000000000000000FF000000FF000000000000000000000000000000000000000000000000000000FFFF00
310
00FF0000000000000000000000000000000000000000000000000000000000FFFFFF00000000000000000000000000000000000000000000000000000000000000FF00000000000000000000000000000000000000000000000000000000000000FF0000000000000000000000000000000000000000000000000000000000
310
0000FF00000000000000000000000000000000000000000000000000000000000000FFFFFF000000000000000000000000000000000000000000000000000000000000000000000000000000000000000000000000000000000000000000000000000000000000000000000000000000000000000000000000000000000000
310
0000000000000000000000000000000000000000000000000000000000000000000000000000000000000000000000000000000000000000
102
{BLKREFS
331
44C9
102
}
 70
     4
280
     1
281
     1
  0
BLOCK_RECORD
  5
34EF
330
1
100
AcDbSymbolTableRecord
100
AcDbBlockTableRecord
  2
GENDOT
340
0
102
{BLKREFS
331
4FE3
331
4FF9
102
}
 70
     0
280
     1
281
     0
  0
BLOCK_RECORD
  5
415E
102
{ACAD_XDICTIONARY
360
41BC
102
}
330
1
100
AcDbSymbolTableRecord
100
AcDbBlockTableRecord
  2
センタＡ SMVH200
340
0
310
2800000020000000200000000100080000000000000400000000000000000000000000000000000000000000000080000080000000808000800000008000800080800000C0C0C000C0DCC000F0CAA6000020400000206000002080000020A0000020C0000020E00000400000004020000040400000406000004080000040A0
310
000040C0000040E00000600000006020000060400000606000006080000060A0000060C0000060E00000800000008020000080400000806000008080000080A0000080C0000080E00000A0000000A0200000A0400000A0600000A0800000A0A00000A0C00000A0E00000C0000000C0200000C0400000C0600000C0800000C0
310
A00000C0C00000C0E00000E0000000E0200000E0400000E0600000E0800000E0A00000E0C00000E0E00040000000400020004000400040006000400080004000A0004000C0004000E00040200000402020004020400040206000402080004020A0004020C0004020E000404000004040200040404000404060004040800040
310
40A0004040C0004040E00040600000406020004060400040606000406080004060A0004060C0004060E00040800000408020004080400040806000408080004080A0004080C0004080E00040A0000040A0200040A0400040A0600040A0800040A0A00040A0C00040A0E00040C0000040C0200040C0400040C0600040C08000
310
40C0A00040C0C00040C0E00040E0000040E0200040E0400040E0600040E0800040E0A00040E0C00040E0E00080000000800020008000400080006000800080008000A0008000C0008000E00080200000802020008020400080206000802080008020A0008020C0008020E00080400000804020008040400080406000804080
310
008040A0008040C0008040E00080600000806020008060400080606000806080008060A0008060C0008060E00080800000808020008080400080806000808080008080A0008080C0008080E00080A0000080A0200080A0400080A0600080A0800080A0A00080A0C00080A0E00080C0000080C0200080C0400080C0600080C0
310
800080C0A00080C0C00080C0E00080E0000080E0200080E0400080E0600080E0800080E0A00080E0C00080E0E000C0000000C0002000C0004000C0006000C0008000C000A000C000C000C000E000C0200000C0202000C0204000C0206000C0208000C020A000C020C000C020E000C0400000C0402000C0404000C0406000C0
310
408000C040A000C040C000C040E000C0600000C0602000C0604000C0606000C0608000C060A000C060C000C060E000C0800000C0802000C0804000C0806000C0808000C080A000C080C000C080E000C0A00000C0A02000C0A04000C0A06000C0A08000C0A0A000C0A0C000C0A0E000C0C00000C0C02000C0C04000C0C06000
310
C0C08000C0C0A000F0FBFF00A4A0A000808080000000FF0000FF000000FFFF00FF000000FF00FF00FFFF0000FFFFFF0000000000000000000000000000000000000000000000000000000000000000000000000000000000000000000000000000000000000000000000000000000000000000000000000000000000000000
310
00000000000000000000000000000000000000000000000000000000000000000000000000000000000000000000000000000000000000000000000000000000000000000000000000000000000000000000000000FFFFFFFFFFFFFFFFFFFFFFFFFFFFFFFFFFFFFFFFFFFFFFFFFFFF000000000000FF00000000FF00FF0000
310
000000000000000000000000000000FF000000000000FF00000000FF00FF0000000000000000000000000000000000FF000000000000FF00000000FF00FF0000000000000000000000000000000000FF000000000000FF00000000FF00FF0000000000000000000000000000000000FF000000000000FF00000000FF00FF00
310
00000000000000000000000000000000FF000000000000FF00000000FF00FF0000000000FFFFFFFFFFFFFFFFFFFFFFFFFF000000000000FF00000000FF00FF0000000000FFFFFFFFFFFFFFFFFFFFFFFFFFFF0000000000FF00000000FF00FF000000000000000000000000000000000000FF0000000000FF00000000FF00FF
310
000000000000000000000000000000000000FF0000000000FF00000000FF00FF000000000000000000000000000000000000000000000000FF00000000FF00FF0000000000000000000000000000000000000000000000F9FF00000000FF00FF0000000000000000000000000000000000000000000000FFFF00000000FF00
310
FF0000000000000000000000000000000000000000000000F9FF00000000FF00FF0000000000000000000000000000000000000000000000F9FF00000000FF00FF000000000000000000000000000000000000000000F9F9F9F9F9000000FF00FF0000000000000000000000000000000000000000000000FFFF00000000FF
310
00FF0000000000000000000000000000000000000000000000FFFF00000000FF00FF000000000000000000000000000000000000000000000000FF00000000FF00FF000000000000000000000000000000000000000000000000FF00000000FF00FF000000000000000000000000000000000000000000000000FFFFFFFFFF
310
FFFFFFFFFFFFFFFFFF00000000000000000000000000000000000000000000000000000000000000000000000000000000000000000000000000000000000000000000000000000000000000000000000000000000000000000000000000000000000000000000000000000000000000000000000000000000000000000000
310
0000000000000000000000000000000000000000000000000000000000000000000000000000000000000000000000000000000000000000
102
{BLKREFS
331
417D
102
}
 70
     4
280
     1
281
     1
  0
BLOCK_RECORD
  5
423B
102
{ACAD_XDICTIONARY
360
42F0
102
}
330
1
100
AcDbSymbolTableRecord
100
AcDbBlockTableRecord
  2
ケースＡ SMVH200
340
0
310
2800000020000000200000000100080000000000000400000000000000000000000000000000000000000000000080000080000000808000800000008000800080800000C0C0C000C0DCC000F0CAA6000020400000206000002080000020A0000020C0000020E00000400000004020000040400000406000004080000040A0
310
000040C0000040E00000600000006020000060400000606000006080000060A0000060C0000060E00000800000008020000080400000806000008080000080A0000080C0000080E00000A0000000A0200000A0400000A0600000A0800000A0A00000A0C00000A0E00000C0000000C0200000C0400000C0600000C0800000C0
310
A00000C0C00000C0E00000E0000000E0200000E0400000E0600000E0800000E0A00000E0C00000E0E00040000000400020004000400040006000400080004000A0004000C0004000E00040200000402020004020400040206000402080004020A0004020C0004020E000404000004040200040404000404060004040800040
310
40A0004040C0004040E00040600000406020004060400040606000406080004060A0004060C0004060E00040800000408020004080400040806000408080004080A0004080C0004080E00040A0000040A0200040A0400040A0600040A0800040A0A00040A0C00040A0E00040C0000040C0200040C0400040C0600040C08000
310
40C0A00040C0C00040C0E00040E0000040E0200040E0400040E0600040E0800040E0A00040E0C00040E0E00080000000800020008000400080006000800080008000A0008000C0008000E00080200000802020008020400080206000802080008020A0008020C0008020E00080400000804020008040400080406000804080
310
008040A0008040C0008040E00080600000806020008060400080606000806080008060A0008060C0008060E00080800000808020008080400080806000808080008080A0008080C0008080E00080A0000080A0200080A0400080A0600080A0800080A0A00080A0C00080A0E00080C0000080C0200080C0400080C0600080C0
310
800080C0A00080C0C00080C0E00080E0000080E0200080E0400080E0600080E0800080E0A00080E0C00080E0E000C0000000C0002000C0004000C0006000C0008000C000A000C000C000C000E000C0200000C0202000C0204000C0206000C0208000C020A000C020C000C020E000C0400000C0402000C0404000C0406000C0
310
408000C040A000C040C000C040E000C0600000C0602000C0604000C0606000C0608000C060A000C060C000C060E000C0800000C0802000C0804000C0806000C0808000C080A000C080C000C080E000C0A00000C0A02000C0A04000C0A06000C0A08000C0A0A000C0A0C000C0A0E000C0C00000C0C02000C0C04000C0C06000
310
C0C08000C0C0A000F0FBFF00A4A0A000808080000000FF0000FF000000FFFF00FF000000FF00FF00FFFF0000FFFFFF0000000000000000000000000000000000000000000000000000000000000000000000000000000000000000000000000000000000000000000000000000000000000000000000000000000000000000
310
00000000000000000000000000000000000000000000000000000000000000000000000000000000000000000000000000000000000000000000000000000000000000000000000000000000000000000000000000000000000000000000000000000000000000000000000000000000000000000000000000000000000000
310
00000000000000000000000000000000000000000000000000000000000000000000000000000000000000000000000000000000000000000000000000000000000000000000000000000000000000000000000000000000000000000000000000000000000000000000000000000000000000000000000000000000000000
310
000000000000000000000000000000000000000000000000FFFFFF0000000000000000FFFFFFFFFFFFFFFFFFFFFF00000000000000000000FF00FF000000000000000000000000000000000000FF00000000000000000000FFFFFF000000000000000000000000000000000000FF00000000000000000000FFFFA400000000
310
0000000000000000000000000000FF00000000000000000000FFFFF9000000000000000000000000000000000000FF00000000000000000000FFFFFF000000000000000000000000000000000000FF00000000000000FFFFFFFFFFFF0000000000000000FFFFFFFFFFFFFFFFFFFFFFFFFFFF000000F9FFFEF9F9FF00000000
310
00000000000000000000000000000000000000FF000000FFFEFFFFFF000000000000000000FFFFFFFFFFFFFFFFFFFFFFFFFFFFFF000000000000FF0000000000000000000000000000000000000000000000000000000000000000000000000000000000000000000000000000000000000000000000000000000000000000
310
00000000000000000000000000000000000000000000000000000000000000000000000000000000000000000000000000000000000000000000000000000000000000000000000000000000000000000000000000000000000000000000000000000000000000000000000000000000000000000000000000000000000000
310
00000000000000000000000000000000000000000000000000000000000000000000000000000000000000000000000000000000000000000000000000000000000000000000000000000000000000000000000000000000000000000000000000000000000000000000000000000000000000000000000000000000000000
310
0000000000000000000000000000000000000000000000000000000000000000000000000000000000000000000000000000000000000000
102
{BLKREFS
331
4274
102
}
 70
     4
280
     1
281
     1
  0
BLOCK_RECORD
  5
4323
102
{ACAD_XDICTIONARY
360
4381
102
}
330
1
100
AcDbSymbolTableRecord
100
AcDbBlockTableRecord
  2
センタB SMVH200
340
0
310
2800000020000000200000000100080000000000000400000000000000000000000000000000000000000000000080000080000000808000800000008000800080800000C0C0C000C0DCC000F0CAA6000020400000206000002080000020A0000020C0000020E00000400000004020000040400000406000004080000040A0
310
000040C0000040E00000600000006020000060400000606000006080000060A0000060C0000060E00000800000008020000080400000806000008080000080A0000080C0000080E00000A0000000A0200000A0400000A0600000A0800000A0A00000A0C00000A0E00000C0000000C0200000C0400000C0600000C0800000C0
310
A00000C0C00000C0E00000E0000000E0200000E0400000E0600000E0800000E0A00000E0C00000E0E00040000000400020004000400040006000400080004000A0004000C0004000E00040200000402020004020400040206000402080004020A0004020C0004020E000404000004040200040404000404060004040800040
310
40A0004040C0004040E00040600000406020004060400040606000406080004060A0004060C0004060E00040800000408020004080400040806000408080004080A0004080C0004080E00040A0000040A0200040A0400040A0600040A0800040A0A00040A0C00040A0E00040C0000040C0200040C0400040C0600040C08000
310
40C0A00040C0C00040C0E00040E0000040E0200040E0400040E0600040E0800040E0A00040E0C00040E0E00080000000800020008000400080006000800080008000A0008000C0008000E00080200000802020008020400080206000802080008020A0008020C0008020E00080400000804020008040400080406000804080
310
008040A0008040C0008040E00080600000806020008060400080606000806080008060A0008060C0008060E00080800000808020008080400080806000808080008080A0008080C0008080E00080A0000080A0200080A0400080A0600080A0800080A0A00080A0C00080A0E00080C0000080C0200080C0400080C0600080C0
310
800080C0A00080C0C00080C0E00080E0000080E0200080E0400080E0600080E0800080E0A00080E0C00080E0E000C0000000C0002000C0004000C0006000C0008000C000A000C000C000C000E000C0200000C0202000C0204000C0206000C0208000C020A000C020C000C020E000C0400000C0402000C0404000C0406000C0
310
408000C040A000C040C000C040E000C0600000C0602000C0604000C0606000C0608000C060A000C060C000C060E000C0800000C0802000C0804000C0806000C0808000C080A000C080C000C080E000C0A00000C0A02000C0A04000C0A06000C0A08000C0A0A000C0A0C000C0A0E000C0C00000C0C02000C0C04000C0C06000
310
C0C08000C0C0A000F0FBFF00A4A0A000808080000000FF0000FF000000FFFF00FF000000FF00FF00FFFF0000FFFFFF0000000000000000000000000000000000000000000000000000000000000000000000000000000000000000000000000000000000000000000000000000000000000000000000000000000000000000
310
00000000000000000000000000000000000000000000000000000000000000000000000000000000000000000000000000000000000000000000000000000000000000000000000000000000000000000000000000FFFFFFFFFFFFFFFFFFFFFFFFFFFF000000000000000000000000000000000000FF00000000FF00FF0000
310
00000000000000000000000000000000000000000000FF00000000FF00FF0000000000000000000000000000000000000000000000FFFF00000000FF00FF0000000000000000000000000000000000000000000000FFFF00000000FF00FF000000000000000000000000000000000000000000F9F9F9F9F9000000FF00FF00
310
00000000000000000000000000000000000000000000F9FF00000000FF00FF0000000000000000000000000000000000000000000000F9FF00000000FF00FF0000000000000000000000000000000000000000000000FFFF00000000FF00FF0000000000000000000000000000000000000000000000F9FF00000000FF00FF
310
000000000000000000000000000000000000000000000000FF00000000FF00FF000000000000000000000000000000000000000000000000FF00000000FF00FF000000000000000000000000000000000000000000000000FF00000000FF00FF000000000000000000000000000000000000FF0000000000FF00000000FF00
310
FF000000000000000000000000000000000000FF0000000000FF00000000FF00FF0000000000FFFFFFFFFFFFFFFFFFFFFFFFFFFF0000000000FF00000000FF00FF0000000000FFFFFFFFFFFFFFFFFFFFFFFFFF000000000000FF00000000FF00FF0000000000000000000000000000000000FF000000000000FF00000000FF
310
00FF0000000000000000000000000000000000FF000000000000FF00000000FF00FF0000000000000000000000000000000000FF000000000000FF00000000FF00FF0000000000000000000000000000000000FF000000000000FF00000000FF00FF0000000000000000000000000000000000FF000000000000FFFFFFFFFF
310
FFFFFFFFFFFFFFFFFFFFFFFFFFFFFFFFFFFFFFFFFF00000000000000000000000000000000000000000000000000000000000000000000000000000000000000000000000000000000000000000000000000000000000000000000000000000000000000000000000000000000000000000000000000000000000000000000
310
0000000000000000000000000000000000000000000000000000000000000000000000000000000000000000000000000000000000000000
102
{BLKREFS
331
4342
102
}
 70
     4
280
     1
281
     1
  0
BLOCK_RECORD
  5
448B
102
{ACAD_XDICTIONARY
360
454D
102
}
330
1
100
AcDbSymbolTableRecord
100
AcDbBlockTableRecord
  2
ケースＢ SMVH200
340
0
310
2800000020000000200000000100080000000000000400000000000000000000000000000000000000000000000080000080000000808000800000008000800080800000C0C0C000C0DCC000F0CAA6000020400000206000002080000020A0000020C0000020E00000400000004020000040400000406000004080000040A0
310
000040C0000040E00000600000006020000060400000606000006080000060A0000060C0000060E00000800000008020000080400000806000008080000080A0000080C0000080E00000A0000000A0200000A0400000A0600000A0800000A0A00000A0C00000A0E00000C0000000C0200000C0400000C0600000C0800000C0
310
A00000C0C00000C0E00000E0000000E0200000E0400000E0600000E0800000E0A00000E0C00000E0E00040000000400020004000400040006000400080004000A0004000C0004000E00040200000402020004020400040206000402080004020A0004020C0004020E000404000004040200040404000404060004040800040
310
40A0004040C0004040E00040600000406020004060400040606000406080004060A0004060C0004060E00040800000408020004080400040806000408080004080A0004080C0004080E00040A0000040A0200040A0400040A0600040A0800040A0A00040A0C00040A0E00040C0000040C0200040C0400040C0600040C08000
310
40C0A00040C0C00040C0E00040E0000040E0200040E0400040E0600040E0800040E0A00040E0C00040E0E00080000000800020008000400080006000800080008000A0008000C0008000E00080200000802020008020400080206000802080008020A0008020C0008020E00080400000804020008040400080406000804080
310
008040A0008040C0008040E00080600000806020008060400080606000806080008060A0008060C0008060E00080800000808020008080400080806000808080008080A0008080C0008080E00080A0000080A0200080A0400080A0600080A0800080A0A00080A0C00080A0E00080C0000080C0200080C0400080C0600080C0
310
800080C0A00080C0C00080C0E00080E0000080E0200080E0400080E0600080E0800080E0A00080E0C00080E0E000C0000000C0002000C0004000C0006000C0008000C000A000C000C000C000E000C0200000C0202000C0204000C0206000C0208000C020A000C020C000C020E000C0400000C0402000C0404000C0406000C0
310
408000C040A000C040C000C040E000C0600000C0602000C0604000C0606000C0608000C060A000C060C000C060E000C0800000C0802000C0804000C0806000C0808000C080A000C080C000C080E000C0A00000C0A02000C0A04000C0A06000C0A08000C0A0A000C0A0C000C0A0E000C0C00000C0C02000C0C04000C0C06000
310
C0C08000C0C0A000F0FBFF00A4A0A000808080000000FF0000FF000000FFFF00FF000000FF00FF00FFFF0000FFFFFF0000000000000000000000000000000000000000000000000000000000000000000000000000000000000000000000000000000000000000000000000000000000000000000000000000000000000000
310
00000000000000000000000000000000000000000000000000000000000000000000000000000000000000000000000000000000000000000000000000000000000000000000000000000000000000000000000000000000000000000000000000000000000000000000000000000000000000000000000000000000000000
310
00000000000000000000000000000000000000000000000000000000000000000000000000000000000000000000000000000000000000000000000000000000000000000000000000000000000000000000000000000000000000000000000000000000000000000000000000000000000000000000000000000000000000
310
000000000000000000000000000000000000000000FFFFFFFF0000000000000000000000000000000000000000000000FFFF0000F9FEFEF9F9FF0000000000000000000000000000000000000000000000FF000000FFFFFFFFFF000000000000000000FFFFFFFFFFFFFFFFFFFFFFFFFFFFFF000000000000FFFFFF00000000
310
0000000000000000000000000000FF00000000000000000000FFFFA4000000000000000000000000000000000000FF00000000000000000000FFFFA4000000000000000000000000000000000000FF00000000000000000000FFFEA4000000000000000000000000000000000000FF00000000000000000000FFFFFF000000
310
000000000000000000000000000000FF00000000000000000000FF00FF000000000000000000000000000000000000FF0000000000000000000000FFFF0000000000000000FFFFFFFFFFFFFFFFFFFFFF0000000000000000000000000000000000000000000000000000000000000000000000000000000000000000000000
310
00000000000000000000000000000000000000000000000000000000000000000000000000000000000000000000000000000000000000000000000000000000000000000000000000000000000000000000000000000000000000000000000000000000000000000000000000000000000000000000000000000000000000
310
00000000000000000000000000000000000000000000000000000000000000000000000000000000000000000000000000000000000000000000000000000000000000000000000000000000000000000000000000000000000000000000000000000000000000000000000000000000000000000000000000000000000000
310
0000000000000000000000000000000000000000000000000000000000000000000000000000000000000000000000000000000000000000
102
{BLKREFS
331
44CA
102
}
 70
     4
280
     1
281
     1
  0
BLOCK_RECORD
  5
459A
102
{ACAD_XDICTIONARY
360
4609
102
}
330
1
100
AcDbSymbolTableRecord
100
AcDbBlockTableRecord
  2
リーマボルト SMVH200 M10
340
0
310
2800000020000000200000000100080000000000000400000000000000000000000000000000000000000000000080000080000000808000800000008000800080800000C0C0C000C0DCC000F0CAA6000020400000206000002080000020A0000020C0000020E00000400000004020000040400000406000004080000040A0
310
000040C0000040E00000600000006020000060400000606000006080000060A0000060C0000060E00000800000008020000080400000806000008080000080A0000080C0000080E00000A0000000A0200000A0400000A0600000A0800000A0A00000A0C00000A0E00000C0000000C0200000C0400000C0600000C0800000C0
310
A00000C0C00000C0E00000E0000000E0200000E0400000E0600000E0800000E0A00000E0C00000E0E00040000000400020004000400040006000400080004000A0004000C0004000E00040200000402020004020400040206000402080004020A0004020C0004020E000404000004040200040404000404060004040800040
310
40A0004040C0004040E00040600000406020004060400040606000406080004060A0004060C0004060E00040800000408020004080400040806000408080004080A0004080C0004080E00040A0000040A0200040A0400040A0600040A0800040A0A00040A0C00040A0E00040C0000040C0200040C0400040C0600040C08000
310
40C0A00040C0C00040C0E00040E0000040E0200040E0400040E0600040E0800040E0A00040E0C00040E0E00080000000800020008000400080006000800080008000A0008000C0008000E00080200000802020008020400080206000802080008020A0008020C0008020E00080400000804020008040400080406000804080
310
008040A0008040C0008040E00080600000806020008060400080606000806080008060A0008060C0008060E00080800000808020008080400080806000808080008080A0008080C0008080E00080A0000080A0200080A0400080A0600080A0800080A0A00080A0C00080A0E00080C0000080C0200080C0400080C0600080C0
310
800080C0A00080C0C00080C0E00080E0000080E0200080E0400080E0600080E0800080E0A00080E0C00080E0E000C0000000C0002000C0004000C0006000C0008000C000A000C000C000C000E000C0200000C0202000C0204000C0206000C0208000C020A000C020C000C020E000C0400000C0402000C0404000C0406000C0
310
408000C040A000C040C000C040E000C0600000C0602000C0604000C0606000C0608000C060A000C060C000C060E000C0800000C0802000C0804000C0806000C0808000C080A000C080C000C080E000C0A00000C0A02000C0A04000C0A06000C0A08000C0A0A000C0A0C000C0A0E000C0C00000C0C02000C0C04000C0C06000
310
C0C08000C0C0A000F0FBFF00A4A0A000808080000000FF0000FF000000FFFF00FF000000FF00FF00FFFF0000FFFFFF0000000000000000000000000000000000000000000000000000000000000000000000000000000000000000FFFFFFFFFFFFFFFFFFFF000000000000000000000000000000000000000000FFFFFFFFFF
310
FFFFFFFFFFFFFF0000000000000000000000000000000000000000FF0000FF00000000FF0000FF0000000000000000000000000000000000000000FF0000FF00000000FF0000FF0000000000000000000000000000000000000000FF0000FF00000000FF0000FF000000000000000000000000000000000000000000000000
310
00000000000000000000000000000000000000000000000000000000000000000000000000000000000000000000000000000000000000000000000000000000000000000000000000000000000000000000000000000000000000000000000000000000000000000000000000000000000000000000000000000000000000
310
00000000000000000000000000000000000000000000000000000000000000000000000000000000000000000000000000000000000000000000000000000000000000000000000000000000000000000000000000000000000000000000000000000000000000000000000000000000000000000000000000000000000000
310
00000000000000000000000000000000000000000000000000000000000000000000000000000000000000000000000000000000000000000000000000000000000000000000000000000000000000000000000000000000000000000000000000000000000000000000000000000000000000000000000000000000000000
310
000000000000000000000000000000000000000000000000000000000000000000000000000000000000000000000000000000000000000000000000000000000000000000000000000000000000000000000000000000000000000000000000FF00000000FF000000FF000000000000000000000000000000000000000000
310
00FF00000000FF000000FF000000000000000000000000000000000000000000FFFFFFFFFFFFFFFFFFFFFFFF0000000000000000000000000000000000000000FF0000FF00000000FF0000FF0000000000000000000000000000000000000000FF0000FF00000000FF0000FF00000000000000000000000000000000000000
310
00FF0000FF00000000FF0000FF0000000000000000000000000000000000000000FFFFFFFFFFFFFFFFFFFFFFFF0000000000000000000000000000000000000000000000FF00000000FF0000000000000000000000000000000000000000000000000000FFFFFFFFFFFF000000000000000000000000000000000000000000
310
0000000000FFFFFFFFFFFF000000000000000000000000000000000000000000000000000000000000000000000000000000000000000000
102
{BLKREFS
331
45BE
102
}
 70
     4
280
     1
281
     1
  0
BLOCK_RECORD
  5
4626
102
{ACAD_XDICTIONARY
360
464D
102
}
330
1
100
AcDbSymbolTableRecord
100
AcDbBlockTableRecord
  2
スラストプレ－ト SMVH200
340
0
310
2800000020000000200000000100080000000000000400000000000000000000000000000000000000000000000080000080000000808000800000008000800080800000C0C0C000C0DCC000F0CAA6000020400000206000002080000020A0000020C0000020E00000400000004020000040400000406000004080000040A0
310
000040C0000040E00000600000006020000060400000606000006080000060A0000060C0000060E00000800000008020000080400000806000008080000080A0000080C0000080E00000A0000000A0200000A0400000A0600000A0800000A0A00000A0C00000A0E00000C0000000C0200000C0400000C0600000C0800000C0
310
A00000C0C00000C0E00000E0000000E0200000E0400000E0600000E0800000E0A00000E0C00000E0E00040000000400020004000400040006000400080004000A0004000C0004000E00040200000402020004020400040206000402080004020A0004020C0004020E000404000004040200040404000404060004040800040
310
40A0004040C0004040E00040600000406020004060400040606000406080004060A0004060C0004060E00040800000408020004080400040806000408080004080A0004080C0004080E00040A0000040A0200040A0400040A0600040A0800040A0A00040A0C00040A0E00040C0000040C0200040C0400040C0600040C08000
310
40C0A00040C0C00040C0E00040E0000040E0200040E0400040E0600040E0800040E0A00040E0C00040E0E00080000000800020008000400080006000800080008000A0008000C0008000E00080200000802020008020400080206000802080008020A0008020C0008020E00080400000804020008040400080406000804080
310
008040A0008040C0008040E00080600000806020008060400080606000806080008060A0008060C0008060E00080800000808020008080400080806000808080008080A0008080C0008080E00080A0000080A0200080A0400080A0600080A0800080A0A00080A0C00080A0E00080C0000080C0200080C0400080C0600080C0
310
800080C0A00080C0C00080C0E00080E0000080E0200080E0400080E0600080E0800080E0A00080E0C00080E0E000C0000000C0002000C0004000C0006000C0008000C000A000C000C000C000E000C0200000C0202000C0204000C0206000C0208000C020A000C020C000C020E000C0400000C0402000C0404000C0406000C0
310
408000C040A000C040C000C040E000C0600000C0602000C0604000C0606000C0608000C060A000C060C000C060E000C0800000C0802000C0804000C0806000C0808000C080A000C080C000C080E000C0A00000C0A02000C0A04000C0A06000C0A08000C0A0A000C0A0C000C0A0E000C0C00000C0C02000C0C04000C0C06000
310
C0C08000C0C0A000F0FBFF00A4A0A000808080000000FF0000FF000000FFFF00FF000000FF00FF00FFFF0000FFFFFF0000000000000000000000000000000000000000000000000000000000000000000000000000000000000000000000000000000000000000000000000000000000000000000000000000000000000000
310
00000000000000000000000000000000000000000000000000000000000000000000000000000000000000000000000000000000000000000000000000000000000000000000000000000000000000000000000000000000000000000000000000000000000000000000000000000000000000000000000000000000000000
310
00000000000000000000000000000000000000000000000000000000000000000000000000000000000000000000000000000000000000000000000000000000000000000000000000000000000000000000000000000000000000000000000000000000000000000000000000000000000000000000000000000000000000
310
00000000000000000000000000000000000000000000000000000000000000000000000000000000000000000000000000000000000000000000000000000000000000000000000000000000000000000000000000000000000000000000000000000000000000000000000000000000000000000000FFFFFFFFFFFFFF0000
310
FFFFFFFFFFFFFFFFFFFFFFFFFFFFFFFFFFFFFF00000000FF0000000000000000000000000000000000000000000000000000000000FFFFFF00FFFFFFFFFFFFFFFFFFFFFFFFFFFFFFFFFFFFFFFFFFFFFFFFFFFF0000FFFFFFFFFFFFFFFFFFFFFFFFFFFFFFFFFFFFFFFFFFFFFFFFFFFFFFFFFFFF000000000000000000000000
310
00000000000000000000000000000000000000000000000000000000000000000000000000000000000000000000000000000000000000000000000000000000000000000000000000000000000000000000000000000000000000000000000000000000000000000000000000000000000000000000000000000000000000
310
00000000000000000000000000000000000000000000000000000000000000000000000000000000000000000000000000000000000000000000000000000000000000000000000000000000000000000000000000000000000000000000000000000000000000000000000000000000000000000000000000000000000000
310
00000000000000000000000000000000000000000000000000000000000000000000000000000000000000000000000000000000000000000000000000000000000000000000000000000000000000000000000000000000000000000000000000000000000000000000000000000000000000000000000000000000000000
310
0000000000000000000000000000000000000000000000000000000000000000000000000000000000000000000000000000000000000000
102
{BLKREFS
331
4632
102
}
 70
     4
280
     1
281
     1
  0
BLOCK_RECORD
  5
46BB
330
1
100
AcDbSymbolTableRecord
100
AcDbBlockTableRecord
  2
*D14
340
0
 70
     0
280
     1
281
     0
  0
BLOCK_RECORD
  5
482B
330
1
100
AcDbSymbolTableRecord
100
AcDbBlockTableRecord
  2
*D15
340
0
 70
     0
280
     1
281
     0
  0
BLOCK_RECORD
  5
4847
330
1
100
AcDbSymbolTableRecord
100
AcDbBlockTableRecord
  2
*D16
340
0
 70
     0
280
     1
281
     0
  0
BLOCK_RECORD
  5
48B0
330
1
100
AcDbSymbolTableRecord
100
AcDbBlockTableRecord
  2
*D17
340
0
 70
     0
280
     1
281
     0
  0
BLOCK_RECORD
  5
4922
330
1
100
AcDbSymbolTableRecord
100
AcDbBlockTableRecord
  2
*D18
340
0
 70
     0
280
     1
281
     0
  0
BLOCK_RECORD
  5
4AF9
330
1
100
AcDbSymbolTableRecord
100
AcDbBlockTableRecord
  2
*D19
340
0
 70
     0
280
     1
281
     0
  0
BLOCK_RECORD
  5
4B11
330
1
100
AcDbSymbolTableRecord
100
AcDbBlockTableRecord
  2
*D20
340
0
 70
     0
280
     1
281
     0
  0
BLOCK_RECORD
  5
4B29
330
1
100
AcDbSymbolTableRecord
100
AcDbBlockTableRecord
  2
*D21
340
0
 70
     0
280
     1
281
     0
  0
BLOCK_RECORD
  5
4B5E
330
1
100
AcDbSymbolTableRecord
100
AcDbBlockTableRecord
  2
*D22
340
0
 70
     0
280
     1
281
     0
  0
BLOCK_RECORD
  5
4B76
330
1
100
AcDbSymbolTableRecord
100
AcDbBlockTableRecord
  2
*D23
340
0
 70
     0
280
     1
281
     0
  0
BLOCK_RECORD
  5
4BAB
330
1
100
AcDbSymbolTableRecord
100
AcDbBlockTableRecord
  2
*D24
340
0
 70
     0
280
     1
281
     0
  0
BLOCK_RECORD
  5
4BC3
330
1
100
AcDbSymbolTableRecord
100
AcDbBlockTableRecord
  2
*D25
340
0
 70
     0
280
     1
281
     0
  0
BLOCK_RECORD
  5
5593
330
1
100
AcDbSymbolTableRecord
100
AcDbBlockTableRecord
  2
*D26
340
0
 70
     0
280
     1
281
     0
  0
BLOCK_RECORD
  5
5653
330
1
100
AcDbSymbolTableRecord
100
AcDbBlockTableRecord
  2
*D27
340
0
 70
     0
280
     1
281
     0
  0
BLOCK_RECORD
  5
5681
330
1
100
AcDbSymbolTableRecord
100
AcDbBlockTableRecord
  2
*D28
340
0
 70
     0
280
     1
281
     0
  0
BLOCK_RECORD
  5
57B6
330
1
100
AcDbSymbolTableRecord
100
AcDbBlockTableRecord
  2
ケース
340
0
310
2800000020000000200000000100080000000000000400000000000000000000000000000000000000000000000080000080000000808000800000008000800080800000C0C0C000C0DCC000F0CAA6000020400000206000002080000020A0000020C0000020E00000400000004020000040400000406000004080000040A0
310
000040C0000040E00000600000006020000060400000606000006080000060A0000060C0000060E00000800000008020000080400000806000008080000080A0000080C0000080E00000A0000000A0200000A0400000A0600000A0800000A0A00000A0C00000A0E00000C0000000C0200000C0400000C0600000C0800000C0
310
A00000C0C00000C0E00000E0000000E0200000E0400000E0600000E0800000E0A00000E0C00000E0E00040000000400020004000400040006000400080004000A0004000C0004000E00040200000402020004020400040206000402080004020A0004020C0004020E000404000004040200040404000404060004040800040
310
40A0004040C0004040E00040600000406020004060400040606000406080004060A0004060C0004060E00040800000408020004080400040806000408080004080A0004080C0004080E00040A0000040A0200040A0400040A0600040A0800040A0A00040A0C00040A0E00040C0000040C0200040C0400040C0600040C08000
310
40C0A00040C0C00040C0E00040E0000040E0200040E0400040E0600040E0800040E0A00040E0C00040E0E00080000000800020008000400080006000800080008000A0008000C0008000E00080200000802020008020400080206000802080008020A0008020C0008020E00080400000804020008040400080406000804080
310
008040A0008040C0008040E00080600000806020008060400080606000806080008060A0008060C0008060E00080800000808020008080400080806000808080008080A0008080C0008080E00080A0000080A0200080A0400080A0600080A0800080A0A00080A0C00080A0E00080C0000080C0200080C0400080C0600080C0
310
800080C0A00080C0C00080C0E00080E0000080E0200080E0400080E0600080E0800080E0A00080E0C00080E0E000C0000000C0002000C0004000C0006000C0008000C000A000C000C000C000E000C0200000C0202000C0204000C0206000C0208000C020A000C020C000C020E000C0400000C0402000C0404000C0406000C0
310
408000C040A000C040C000C040E000C0600000C0602000C0604000C0606000C0608000C060A000C060C000C060E000C0800000C0802000C0804000C0806000C0808000C080A000C080C000C080E000C0A00000C0A02000C0A04000C0A06000C0A08000C0A0A000C0A0C000C0A0E000C0C00000C0C02000C0C04000C0C06000
310
C0C08000C0C0A000F0FBFF00A4A0A000808080000000FF0000FF000000FFFF00FF000000FF00FF00FFFF0000FFFFFF000000000000000000000000000000000000000000000000000000000000000000000000000000000000000000FCFCFCFCFCFCFCFCFCFCFC0000000000000000000000000000000000000000FC000000
310
000000000000FC0000000000000000000000000000000000000000FC00000000000000000000FC00000000000000000000000000000000000000FC0000000000000000FCFCFCFCFC000000000000000000000000000000000000FC0000000000000000FC00000000000000000000000000000000000000000000FC00000000
310
00000000FC00000000000000000000000000000000000000000000FC0000000000000000FC00000000000000000000000000000000000000000000FC0000000000000000FC00000000000000000000000000000000000000000000FC0000000000000000FC00000000000000000000000000000000000000000000FC000000
310
0000000000FCFCFCFCFC000000000000000000000000000000000000FC0000000000000000000000FC00000000000000000000000000000000000000FC0000000000000000000000FC00000000000000000000000000000000000000FC0000000000FCFCFCFCFCFCFCFC000000000000000000000000000000000000FC0000
310
000000FC00000000000000000000000000000000000000000000000000FC0000000000FC00FC0000000000000000000000000000000000000000000000FC0000000000FCFCFCFC00000000000000000000000000000000000000000000FC0000000000FC00FC00FC000000000000000000000000000000000000000000FC00
310
00000000FC00FC00FC000000000000000000000000000000000000000000FC0000000000FC00FC00FC000000000000000000000000000000000000000000FC0000000000FC00FC00FC000000000000000000000000000000000000000000FC0000000000FC00FC00FC000000000000000000000000000000000000000000FC
310
0000000000FC00FC00FC000000000000000000000000000000000000000000FC0000000000FC00FC00FC000000000000000000000000000000000000000000FC0000000000FC00FC00FC000000000000000000000000000000000000000000FC0000000000FC00FC00FC000000000000000000000000000000000000000000
310
FC0000000000FC00FC00FC000000000000000000000000000000000000000000FC0000000000FC00FC00FC000000000000000000000000000000000000000000FC0000000000FC00FC00FC000000000000000000000000000000000000000000FC0000000000FC00FC00FC0000000000000000000000000000000000000000
310
00FC0000000000FC00FC00FC0000000000000000000000000000000000000000000000000000000000000000000000000000000000000000
102
{BLKREFS
331
57CD
102
}
 70
     4
280
     1
281
     1
  0
ENDTAB
  0
ENDSEC
  0
SECTION
  2
BLOCKS
  0
BLOCK
  5
20
330
1F
100
AcDbEntity
  8
0
100
AcDbBlockBegin
  2
*Model_Space
 70
     0
 10
0.0
 20
0.0
 30
0.0
  3
*Model_Space
  1

  0
ENDBLK
  5
21
330
1F
100
AcDbEntity
  8
0
100
AcDbBlockEnd
  0
BLOCK
  5
1C
330
1B
100
AcDbEntity
 67
     1
  8
0
100
AcDbBlockBegin
  2
*Paper_Space
 70
     0
 10
0.0
 20
0.0
 30
0.0
  3
*Paper_Space
  1

  0
ENDBLK
  5
1D
330
1B
100
AcDbEntity
 67
     1
  8
0
100
AcDbBlockEnd
  0
BLOCK
  5
24
330
23
100
AcDbEntity
 67
     1
  8
0
100
AcDbBlockBegin
  2
*Paper_Space0
 70
     0
 10
0.0
 20
0.0
 30
0.0
  3
*Paper_Space0
  1

  0
ENDBLK
  5
25
330
23
100
AcDbEntity
 67
     1
  8
0
100
AcDbBlockEnd
  0
BLOCK
  5
6D
330
69
100
AcDbEntity
  8
0
100
AcDbBlockBegin
  2
_Open30
 70
     0
 10
0.0
 20
0.0
 30
0.0
  3
_Open30
  1

  0
LINE
  5
6A
330
69
100
AcDbEntity
  8
0
  6
ByBlock
 62
     0
370
    -2
100
AcDbLine
 10
-1.0
 20
0.26794919
 30
0.0
 11
0.0
 21
0.0
 31
0.0
  0
LINE
  5
6B
330
69
100
AcDbEntity
  8
0
  6
ByBlock
 62
     0
370
    -2
100
AcDbLine
 10
0.0
 20
0.0
 30
0.0
 11
-1.0
 21
-0.26794919
 31
0.0
  0
LINE
  5
6C
330
69
100
AcDbEntity
  8
0
  6
ByBlock
 62
     0
370
    -2
100
AcDbLine
 10
0.0
 20
0.0
 30
0.0
 11
-1.0
 21
0.0
 31
0.0
  0
ENDBLK
  5
6E
330
69
100
AcDbEntity
  8
0
100
AcDbBlockEnd
  0
BLOCK
  5
76
330
74
100
AcDbEntity
  8
0
100
AcDbBlockBegin
  2
GENAXEH
 70
     0
 10
0.0
 20
0.0
 30
0.0
  3
GENAXEH
  1

  0
LINE
  5
75
330
74
100
AcDbEntity
  8
0
100
AcDbLine
 10
-1.0
 20
0.0
 30
0.0
 11
1.0
 21
0.0
 31
0.0
  0
ENDBLK
  5
77
330
74
100
AcDbEntity
  8
0
100
AcDbBlockEnd
  0
BLOCK
  5
33C7
330
33C4
100
AcDbEntity
  8
0
100
AcDbBlockBegin
  2
ジュウジマルコネジ
 70
     0
 10
0.0
 20
0.0
 30
0.0
  3
ジュウジマルコネジ
  1

  0
LINE
  5
43AA
330
33C4
100
AcDbEntity
  8
AM_7 中心線
100
AcDbLine
 10
-4.225448927343903
 20
0.0
 30
0.0
 11
8.535050839761197
 21
0.0
 31
0.0
  0
LINE
  5
43AB
330
33C4
100
AcDbEntity
  8
AM_0 外形線1
100
AcDbLine
 10
0.0
 20
-5.0
 30
0.0
 11
0.0
 21
5.0
 31
0.0
  0
LINE
  5
43AC
330
33C4
100
AcDbEntity
  8
AM_0 外形線1
100
AcDbLine
 10
0.0
 20
-5.0
 30
0.0
 11
0.7999999999999547
 21
-5.0
 31
0.0
  0
LWPOLYLINE
  5
43AD
330
33C4
100
AcDbEntity
  8
AM_0 外形線1
100
AcDbPolyline
 90
       36
 70
     0
 43
0.0
 10
0.0
 20
3.5
 10
-0.2330620000000181
 20
3.485910999999986
 10
-0.4642479999999978
 20
3.443753999999898
 10
-0.6916949999999816
 20
3.373869999999896
 10
-0.9135739999999259
 20
3.276822999999922
 10
-1.128097000000024
 20
3.153391999999939
 10
-1.333538000000089
 20
3.004570999999941
 10
-1.528240999999979
 20
2.831559999999966
 10
-1.710640000000011
 20
2.635751000000026
 10
-1.879266000000143
 20
2.418719999999892
 10
-2.032760999999935
 20
2.182215000000041
 10
-2.169889999999895
 20
1.928139999999984
 10
-2.289547999999967
 20
1.658541000000013
 10
-2.390771999999969
 20
1.375587999999879
 10
-2.472747000000025
 20
1.081559999999966
 10
-2.5348120000001
 20
0.778823999999986
 10
-2.57646899999986
 20
0.4698169999999209
 10
-2.597381999999925
 20
0.1570269999999709
 10
-2.597381999999925
 20
-0.1570260000000871
 10
-2.57646899999986
 20
-0.4698160000000371
 10
-2.5348120000001
 20
-0.7788230000001022
 10
-2.472747000000025
 20
-1.081558999999969
 10
-2.390771999999969
 20
-1.375586999999995
 10
-2.289547999999967
 20
-1.65854000000013
 10
-2.169889999999895
 20
-1.9281390000001
 10
-2.032760999999935
 20
-2.182214000000043
 10
-1.879266000000143
 20
-2.41871900000001
 10
-1.710640000000011
 20
-2.635750000000143
 10
-1.528240999999979
 20
-2.83155899999997
 10
-1.333538000000089
 20
-3.004570000000056
 10
-1.128097000000024
 20
-3.153391000000056
 10
-0.9135739999999259
 20
-3.276822000000038
 10
-0.6916949999999816
 20
-3.373870000000123
 10
-0.4642479999999978
 20
-3.443753000000014
 10
-0.2330620000000181
 20
-3.485910000000103
 10
0.0
 20
-3.5
  0
LINE
  5
43AE
330
33C4
100
AcDbEntity
  8
AM_0 外形線1
100
AcDbLine
 10
0.0
 20
-2.25
 30
0.0
 11
0.7999999999999547
 21
-2.25
 31
0.0
  0
LINE
  5
43AF
330
33C4
100
AcDbEntity
  8
AM_0 外形線1
100
AcDbLine
 10
0.0
 20
2.25
 30
0.0
 11
0.7999999999999547
 21
2.25
 31
0.0
  0
LINE
  5
43B0
330
33C4
100
AcDbEntity
  8
AM_0 外形線1
100
AcDbLine
 10
0.0
 20
5.0
 30
0.0
 11
0.7999999999999547
 21
5.0
 31
0.0
  0
LINE
  5
43B1
330
33C4
100
AcDbEntity
  8
AM_4 細線
100
AcDbLine
 10
4.850000000000136
 20
1.649999999999862
 30
0.0
 11
0.0
 21
1.649999999999862
 31
0.0
  0
LINE
  5
43B2
330
33C4
100
AcDbEntity
  8
AM_0 外形線1
100
AcDbLine
 10
4.5
 20
2.0
 30
0.0
 11
0.0
 21
2.0
 31
0.0
  0
LINE
  5
43B3
330
33C4
100
AcDbEntity
  8
AM_0 外形線1
100
AcDbLine
 10
4.5
 20
2.0
 30
0.0
 11
5.0
 21
1.5
 31
0.0
  0
LINE
  5
43B4
330
33C4
100
AcDbEntity
  8
AM_0 外形線1
100
AcDbLine
 10
4.5
 20
-2.0
 30
0.0
 11
4.5
 21
2.0
 31
0.0
  0
LINE
  5
43B5
330
33C4
100
AcDbEntity
  8
AM_0 外形線1
100
AcDbLine
 10
5.0
 20
-1.5
 30
0.0
 11
5.0
 21
1.5
 31
0.0
  0
LINE
  5
43B6
330
33C4
100
AcDbEntity
  8
AM_0 外形線1
100
AcDbLine
 10
4.5
 20
-2.0
 30
0.0
 11
5.0
 21
-1.5
 31
0.0
  0
LINE
  5
43B7
330
33C4
100
AcDbEntity
  8
AM_0 外形線1
100
AcDbLine
 10
4.5
 20
-2.0
 30
0.0
 11
0.0
 21
-2.0
 31
0.0
  0
LINE
  5
43B8
330
33C4
100
AcDbEntity
  8
AM_4 細線
100
AcDbLine
 10
4.850000000000136
 20
-1.65000000000009
 30
0.0
 11
0.0
 21
-1.65000000000009
 31
0.0
  0
LINE
  5
4401
330
33C4
100
AcDbEntity
  8
AM_0 外形線1
100
AcDbLine
 10
0.7999999999999547
 20
-5.0
 30
0.0
 11
0.7999999999999547
 21
-2.0
 31
0.0
  0
LINE
  5
4402
330
33C4
100
AcDbEntity
  8
AM_0 外形線1
100
AcDbLine
 10
0.7999999999999547
 20
2.0
 30
0.0
 11
0.8000000000000111
 21
5.0
 31
0.0
  0
ENDBLK
  5
33D9
330
33C4
100
AcDbEntity
  8
0
100
AcDbBlockEnd
  0
BLOCK
  5
34F0
330
34EF
100
AcDbEntity
  8
0
100
AcDbBlockBegin
  2
GENDOT
 70
     0
 10
0.0
 20
0.0
 30
0.0
  3
GENDOT
  1

  0
LINE
  5
34F1
330
34EF
100
AcDbEntity
  8
0
100
AcDbLine
 10
0.0
 20
0.0
 30
0.0
 11
-1.0
 21
0.0
 31
0.0
  0
LWPOLYLINE
  5
34F2
330
34EF
100
AcDbEntity
  8
0
100
AcDbPolyline
 90
        2
 70
     1
 43
0.25
 10
-0.125
 20
0.0
 42
1.0
 10
0.125
 20
0.0
 42
1.0
  0
ENDBLK
  5
34F3
330
34EF
100
AcDbEntity
  8
0
100
AcDbBlockEnd
  0
BLOCK
  5
415F
330
415E
100
AcDbEntity
  8
0
100
AcDbBlockBegin
  2
センタＡ SMVH200
 70
     0
 10
0.0
 20
0.0
 30
0.0
  3
センタＡ SMVH200
  1

  0
LINE
  5
4161
330
415E
100
AcDbEntity
  8
AM_0 外形線1
100
AcDbLine
 10
56.4000000000001
 20
-100.0
 30
0.0
 11
-56.39999999999986
 21
-100.0
 31
0.0
  0
LINE
  5
4162
330
415E
100
AcDbEntity
  8
AM_0 外形線1
100
AcDbLine
 10
-59.39999999999987
 20
-97.0
 30
0.0
 11
-59.39999999999987
 21
-69.0
 31
0.0
  0
ARC
  5
4163
330
415E
100
AcDbEntity
  8
AM_0 外形線1
100
AcDbCircle
 10
-56.39999999999986
 20
-97.0
 30
0.0
 40
3.0
100
AcDbArc
 50
180.0
 51
270.0
  0
ARC
  5
4165
330
415E
100
AcDbEntity
  8
AM_0 外形線1
100
AcDbCircle
 10
0.0
 20
-26.50000000000006
 30
0.0
 40
67.39
100
AcDbArc
 50
172.325162
 51
190.6895539999986
  0
LINE
  5
4167
330
415E
100
AcDbEntity
  8
AM_0 外形線1
100
AcDbLine
 10
-60.0
 20
-67.0
 30
0.0
 11
-60.0
 21
-40.50000000000006
 31
0.0
  0
LINE
  5
4168
330
415E
100
AcDbEntity
  8
AM_0 外形線1
100
AcDbLine
 10
-59.39999999999987
 20
-69.0
 30
0.0
 11
-60.0
 21
-67.0
 31
0.0
  0
LINE
  5
4169
330
415E
100
AcDbEntity
  8
AM_0 外形線1
100
AcDbLine
 10
-60.5
 20
-40.00000000000006
 30
0.0
 11
-65.0239509999999
 21
-40.00000000000006
 31
0.0
  0
LINE
  5
416A
330
415E
100
AcDbEntity
  8
AM_0 外形線1
100
AcDbLine
 10
-65.0239509999999
 20
-40.00000000000006
 30
0.0
 11
-66.22055699999987
 21
-39.00000000000007
 31
0.0
  0
ARC
  5
416B
330
415E
100
AcDbEntity
  8
AM_0 外形線1
100
AcDbCircle
 10
-60.5
 20
-40.50000000000006
 30
0.0
 40
0.5
100
AcDbArc
 50
0.0
 51
90.0
  0
LINE
  5
416C
330
415E
100
AcDbEntity
  8
AM_0 外形線1
100
AcDbLine
 10
-59.0
 20
-16.0
 30
0.0
 11
-59.0
 21
-0.5
 31
0.0
  0
LINE
  5
416D
330
415E
100
AcDbEntity
  8
AM_0 外形線1
100
AcDbLine
 10
-65.64391999999975
 20
-16.5
 30
0.0
 11
-59.5
 21
-16.5
 31
0.0
  0
LINE
  5
416E
330
415E
100
AcDbEntity
  8
AM_7 中心線
100
AcDbLine
 10
-72.38999999999987
 20
-26.50000000000006
 30
0.0
 11
-57.25
 21
-26.50000000000006
 31
0.0
  0
LINE
  5
416F
330
415E
100
AcDbEntity
  8
AM_0 外形線1
100
AcDbLine
 10
-66.78631699999981
 20
-17.5
 30
0.0
 11
-65.64391999999975
 21
-16.5
 31
0.0
  0
ARC
  5
4170
330
415E
100
AcDbEntity
  8
AM_0 外形線1
100
AcDbCircle
 10
-59.5
 20
-16.0
 30
0.0
 40
0.5
100
AcDbArc
 50
270.0
 51
0.0
  0
LINE
  5
4171
330
415E
100
AcDbEntity
  8
AM_0 外形線1
100
AcDbLine
 10
-59.0
 20
-0.5
 30
0.0
 11
-58.5
 21
0.0
 31
0.0
  0
LINE
  5
4172
330
415E
100
AcDbEntity
  8
AM_0 外形線1
100
AcDbLine
 10
59.4000000000001
 20
-69.0
 30
0.0
 11
59.4000000000001
 21
-97.0
 31
0.0
  0
ARC
  5
4173
330
415E
100
AcDbEntity
  8
AM_0 外形線1
100
AcDbCircle
 10
56.4000000000001
 20
-97.0
 30
0.0
 40
3.0
100
AcDbArc
 50
270.0
 51
0.0
  0
LINE
  5
4174
330
415E
100
AcDbEntity
  8
AM_0 外形線1
100
AcDbLine
 10
59.4000000000001
 20
-69.0
 30
0.0
 11
0.0
 21
-69.0
 31
0.0
  0
LINE
  5
4175
330
415E
100
AcDbEntity
  8
AM_0 外形線1
100
AcDbLine
 10
60.0
 20
-67.0
 30
0.0
 11
0.0
 21
-67.0
 31
0.0
  0
LINE
  5
4176
330
415E
100
AcDbEntity
  8
AM_0 外形線1
100
AcDbLine
 10
-58.5
 20
0.0
 30
0.0
 11
0.0
 21
0.0
 31
0.0
  0
LINE
  5
4177
330
415E
100
AcDbEntity
  8
AM_0 外形線1
100
AcDbLine
 10
60.0
 20
-67.0
 30
0.0
 11
59.4000000000001
 21
-69.0
 31
0.0
  0
LINE
  5
4178
330
415E
100
AcDbEntity
  8
AM_0 外形線1
100
AcDbLine
 10
60.0
 20
-56.00000000000004
 30
0.0
 11
60.0
 21
-67.0
 31
0.0
  0
LINE
  5
4179
330
415E
100
AcDbEntity
  8
AM_0 外形線1
100
AcDbLine
 10
-28.80309604250829
 20
-100.0
 30
0.0
 11
-28.80309604250829
 21
0.0
 31
0.0
  0
ARC
  5
55FE
330
415E
100
AcDbEntity
  8
AM_0 外形線1
100
AcDbCircle
 10
0.0
 20
-26.50000000000006
 30
0.0
 40
62.24999999999983
100
AcDbArc
 50
170.7558047454881
 51
192.5251107566407
  0
ARC
  5
55FF
330
415E
100
AcDbEntity
  8
AM_7 中心線
100
AcDbCircle
 10
0.0
 20
-26.50000000000006
 30
0.0
 40
65.0
100
AcDbArc
 50
169.8505889834444
 51
193.8029544207448
  0
ENDBLK
  5
4160
330
415E
100
AcDbEntity
  8
0
100
AcDbBlockEnd
  0
BLOCK
  5
423C
330
423B
100
AcDbEntity
  8
0
100
AcDbBlockBegin
  2
ケースＡ SMVH200
 70
     0
 10
0.0
 20
0.0
 30
0.0
  3
ケースＡ SMVH200
  1

  0
LINE
  5
423E
330
423B
100
AcDbEntity
  8
AM_0 外形線1
100
AcDbLine
 10
-72.49999999999992
 20
0.0
 30
0.0
 11
-72.5
 21
-1.90000000000009
 31
0.0
  0
LINE
  5
423F
330
423B
100
AcDbEntity
  8
AM_3 隠れ線
100
AcDbLine
 10
-63.0
 20
-21.5
 30
0.0
 11
-63.0
 21
-42.50000000000006
 31
0.0
  0
LINE
  5
4240
330
423B
100
AcDbEntity
  8
AM_7 中心線
100
AcDbLine
 10
-65.0
 20
-16.5
 30
0.0
 11
-65.0
 21
-45.50000000000006
 31
0.0
  0
LINE
  5
4241
330
423B
100
AcDbEntity
  8
AM_0 外形線1
100
AcDbLine
 10
-74.5
 20
-18.0
 30
0.0
 11
-74.5
 21
-58.00000000000006
 31
0.0
  0
LINE
  5
4242
330
423B
100
AcDbEntity
  8
AM_0 外形線1
100
AcDbLine
 10
-67.5
 20
-18.36602500000003
 30
0.0
 11
-67.5
 21
-43.63397400000007
 31
0.0
  0
LWPOLYLINE
  5
4243
330
423B
100
AcDbEntity
  8
AM_0 外形線1
100
AcDbPolyline
 90
       73
 70
     0
 43
0.0
 10
-62.3499999999999
 20
-50.70000000000003
 10
-62.55481599999985
 20
-50.71446000000003
 10
-62.75807299999996
 20
-50.75773000000004
 10
-62.95822499999985
 20
-50.82948200000004
 10
-63.15374799999995
 20
-50.92916800000007
 10
-63.3431529999998
 20
-51.05603000000008
 10
-63.52499999999985
 20
-51.2091030000001
 10
-63.69790499999976
 20
-51.38722200000007
 10
-63.860551
 20
-51.58903100000003
 10
-64.01170099999989
 20
-51.812994
 10
-64.15020499999967
 20
-52.05740700000006
 10
-64.27500799999984
 20
-52.32040900000004
 10
-64.38515999999982
 20
-52.60000000000001
 10
-64.47982399999999
 20
-52.89405100000005
 10
-64.55827799999974
 20
-53.20032300000002
 10
-64.61992599999985
 20
-53.51648800000003
 10
-64.66429799999992
 20
-53.84013700000003
 10
-64.69105799999988
 20
-54.16880800000007
 10
-64.69999999999981
 20
-54.50000000000006
 10
-64.69105799999988
 20
-54.83119200000004
 10
-64.66429799999992
 20
-55.15986300000003
 10
-64.61992599999985
 20
-55.48351200000007
 10
-64.55827799999974
 20
-55.79967600000003
 10
-64.47982399999999
 20
-56.10594900000006
 10
-64.38515999999982
 20
-56.40000000000004
 10
-64.27500799999984
 20
-56.67959000000002
 10
-64.15020499999967
 20
-56.94259300000005
 10
-64.01170099999989
 20
-57.18700600000005
 10
-63.860551
 20
-57.41096900000002
 10
-63.69790499999976
 20
-57.61277800000005
 10
-63.52499999999985
 20
-57.79089600000003
 10
-63.3431529999998
 20
-57.94396900000004
 10
-63.15374799999995
 20
-58.07083200000004
 10
-62.95822499999985
 20
-58.17051800000006
 10
-62.75807299999996
 20
-58.24226900000002
 10
-62.55481599999985
 20
-58.28554000000003
 10
-62.3499999999999
 20
-58.30000000000001
 10
-62.14518399999997
 20
-58.28554000000003
 10
-61.94192699999985
 20
-58.24226900000002
 10
-61.74177599999985
 20
-58.17051800000006
 10
-61.54625299999975
 20
-58.07083200000004
 10
-61.35684699999979
 20
-57.94396900000004
 10
-61.17499999999996
 20
-57.79089600000003
 10
-61.00209599999971
 20
-57.61277800000005
 10
-60.83944899999983
 20
-57.41096900000002
 10
-60.6882989999999
 20
-57.18700600000005
 10
-60.54979599999978
 20
-56.94259300000005
 10
-60.42499299999986
 20
-56.67959000000002
 10
-60.31484099999989
 20
-56.40000000000004
 10
-60.22017699999992
 20
-56.10594900000006
 10
-60.14172299999994
 20
-55.79967600000003
 10
-60.08007499999984
 20
-55.48351200000007
 10
-60.03570199999989
 20
-55.15986300000003
 10
-60.00894299999981
 20
-54.83119200000004
 10
-60.0
 20
-54.50000000000006
 10
-60.00894299999981
 20
-54.16880800000007
 10
-60.03570199999989
 20
-53.84013700000003
 10
-60.08007499999984
 20
-53.51648800000003
 10
-60.14172299999994
 20
-53.20032300000002
 10
-60.22017699999992
 20
-52.89405100000005
 10
-60.31484099999989
 20
-52.60000000000001
 10
-60.42499299999986
 20
-52.32040900000004
 10
-60.54979599999978
 20
-52.05740700000006
 10
-60.6882989999999
 20
-51.812994
 10
-60.83944899999983
 20
-51.58903100000003
 10
-61.00209599999971
 20
-51.38722200000007
 10
-61.17499999999996
 20
-51.2091030000001
 10
-61.35684699999979
 20
-51.05603000000008
 10
-61.54625299999975
 20
-50.92916800000007
 10
-61.74177599999985
 20
-50.82948200000004
 10
-61.94192699999985
 20
-50.75773000000004
 10
-62.14518399999997
 20
-50.71446000000003
 10
-62.3499999999999
 20
-50.70000000000003
  0
LINE
  5
4244
330
423B
100
AcDbEntity
  8
AM_0 外形線1
100
AcDbLine
 10
-64.69999999999981
 20
-57.80000000000001
 30
0.0
 11
-64.69999999999981
 21
-51.20000000000004
 31
0.0
  0
ARC
  5
4245
330
423B
100
AcDbEntity
  8
AM_0 外形線1
100
AcDbCircle
 10
-64.19999999999982
 20
-57.80000000000001
 30
0.0
 40
0.5
100
AcDbArc
 50
180.0
 51
270.0
  0
LINE
  5
4246
330
423B
100
AcDbEntity
  8
AM_0 外形線1
100
AcDbLine
 10
-71.5
 20
-61.00000000000004
 30
0.0
 11
-60.0
 21
-61.00000000000004
 31
0.0
  0
ARC
  5
4247
330
423B
100
AcDbEntity
  8
AM_0 外形線1
100
AcDbCircle
 10
-71.5
 20
-58.00000000000006
 30
0.0
 40
3.0
100
AcDbArc
 50
180.0
 51
270.0
  0
LINE
  5
4248
330
423B
100
AcDbEntity
  8
AM_0 外形線1
100
AcDbLine
 10
-60.0
 20
-58.30000000000001
 30
0.0
 11
-64.19999999999982
 21
-58.30000000000001
 31
0.0
  0
LINE
  5
4249
330
423B
100
AcDbEntity
  8
AM_0 外形線1
100
AcDbLine
 10
-61.25
 20
-61.00000000000004
 30
0.0
 11
-61.25
 21
-58.30000000000001
 31
0.0
  0
LINE
  5
424A
330
423B
100
AcDbEntity
  8
AM_3 隠れ線
100
AcDbLine
 10
-66.31298599999991
 20
-43.50000000000004
 30
0.0
 11
-64.0
 21
-43.50000000000004
 31
0.0
  0
ARC
  5
424B
330
423B
100
AcDbEntity
  8
AM_0 外形線1
100
AcDbCircle
 10
-64.19999999999982
 20
-51.20000000000004
 30
0.0
 40
0.5
100
AcDbArc
 50
90.0
 51
180.0
  0
LINE
  5
424C
330
423B
100
AcDbEntity
  8
AM_0 外形線1
100
AcDbLine
 10
-60.0
 20
-48.00000000000006
 30
0.0
 11
-67.0
 21
-48.00000000000006
 31
0.0
  0
LINE
  5
424D
330
423B
100
AcDbEntity
  8
AM_0 外形線1
100
AcDbLine
 10
-66.31298599999991
 20
-43.50000000000004
 30
0.0
 11
-67.0
 21
-43.50000000000004
 31
0.0
  0
ARC
  5
424E
330
423B
100
AcDbEntity
  8
AM_0 外形線1
100
AcDbCircle
 10
-67.0
 20
-44.50000000000005
 30
0.0
 40
1.0
100
AcDbArc
 50
90.0
 51
180.0
  0
LINE
  5
424F
330
423B
100
AcDbEntity
  8
AM_0 外形線1
100
AcDbLine
 10
-68.0
 20
-47.00000000000005
 30
0.0
 11
-68.0
 21
-44.50000000000005
 31
0.0
  0
ARC
  5
4250
330
423B
100
AcDbEntity
  8
AM_0 外形線1
100
AcDbCircle
 10
-67.0
 20
-47.00000000000005
 30
0.0
 40
1.0
100
AcDbArc
 50
180.0
 51
270.0
  0
LINE
  5
4251
330
423B
100
AcDbEntity
  8
AM_3 隠れ線
100
AcDbLine
 10
-64.0
 20
-43.50000000000004
 30
0.0
 11
-63.0
 21
-42.50000000000006
 31
0.0
  0
LINE
  5
4252
330
423B
100
AcDbEntity
  8
AM_0 外形線1
100
AcDbLine
 10
-61.25
 20
-50.70000000000003
 30
0.0
 11
-61.25
 21
-48.00000000000006
 31
0.0
  0
LINE
  5
4253
330
423B
100
AcDbEntity
  8
AM_0 外形線1
100
AcDbLine
 10
-64.19999999999982
 20
-50.70000000000003
 30
0.0
 11
-60.0
 21
-50.70000000000003
 31
0.0
  0
LINE
  5
4254
330
423B
100
AcDbEntity
  8
AM_0 外形線1
100
AcDbLine
 10
-93.79999999999997
 20
-13.25
 30
0.0
 11
-68.0
 21
-13.25
 31
0.0
  0
LINE
  5
4255
330
423B
100
AcDbEntity
  8
AM_0 外形線1
100
AcDbLine
 10
-93.79999999999997
 20
-4.75
 30
0.0
 11
-68.0
 21
-4.75
 31
0.0
  0
LINE
  5
4256
330
423B
100
AcDbEntity
  8
AM_7 中心線
100
AcDbLine
 10
-66.30652899999972
 20
-9.0
 30
0.0
 11
-101.6483179999998
 21
-9.0
 31
0.0
  0
LINE
  5
4257
330
423B
100
AcDbEntity
  8
AM_0 外形線1
100
AcDbLine
 10
-99.0
 20
-15.0
 30
0.0
 11
-77.5
 21
-15.0
 31
0.0
  0
LINE
  5
4258
330
423B
100
AcDbEntity
  8
AM_4 細線
100
AcDbLine
 10
-100.0
 20
-4.135999999999966
 30
0.0
 11
-93.79999999999997
 21
-4.329750000000102
 31
0.0
  0
LINE
  5
4259
330
423B
100
AcDbEntity
  8
AM_0 外形線1
100
AcDbLine
 10
-100.0
 20
-4.55625000000009
 30
0.0
 11
-93.79999999999997
 21
-4.75
 31
0.0
  0
LINE
  5
425A
330
423B
100
AcDbEntity
  8
AM_4 細線
100
AcDbLine
 10
-93.79999999999997
 20
-4.329750000000102
 30
0.0
 11
-93.79999999999997
 21
-13.67025000000001
 31
0.0
  0
LINE
  5
425B
330
423B
100
AcDbEntity
  8
AM_0 外形線1
100
AcDbLine
 10
-100.0
 20
-13.44375000000002
 30
0.0
 11
-93.79999999999997
 21
-13.25
 31
0.0
  0
LINE
  5
425C
330
423B
100
AcDbEntity
  8
AM_4 細線
100
AcDbLine
 10
-100.0
 20
-13.86400000000003
 30
0.0
 11
-93.79999999999997
 21
-13.67025000000001
 31
0.0
  0
LINE
  5
425D
330
423B
100
AcDbEntity
  8
AM_0 外形線1
100
AcDbLine
 10
-100.0
 20
-14.0
 30
0.0
 11
-99.0
 21
-15.0
 31
0.0
  0
LINE
  5
425E
330
423B
100
AcDbEntity
  8
AM_0 外形線1
100
AcDbLine
 10
-100.0
 20
-1.0
 30
0.0
 11
-100.0
 21
-14.0
 31
0.0
  0
LINE
  5
425F
330
423B
100
AcDbEntity
  8
AM_0 外形線1
100
AcDbLine
 10
-99.0
 20
0.0
 30
0.0
 11
-100.0
 21
-1.0
 31
0.0
  0
LINE
  5
4260
330
423B
100
AcDbEntity
  8
AM_0 外形線1
100
AcDbLine
 10
-68.0
 20
-17.5
 30
0.0
 11
-68.0
 21
-0.0000000000001137
 31
0.0
  0
ARC
  5
4261
330
423B
100
AcDbEntity
  8
AM_0 外形線1
100
AcDbCircle
 10
-77.5
 20
-18.0
 30
0.0
 40
3.0
100
AcDbArc
 50
0.0
 51
90.0
  0
LINE
  5
4262
330
423B
100
AcDbEntity
  8
AM_0 外形線1
100
AcDbLine
 10
-64.0
 20
-18.5
 30
0.0
 11
-67.0
 21
-18.5
 31
0.0
  0
ARC
  5
4263
330
423B
100
AcDbEntity
  8
AM_0 外形線1
100
AcDbCircle
 10
-67.0
 20
-17.5
 30
0.0
 40
1.0
100
AcDbArc
 50
180.0
 51
270.0
  0
LINE
  5
4264
330
423B
100
AcDbEntity
  8
AM_0 外形線1
100
AcDbLine
 10
-63.0
 20
-21.5
 30
0.0
 11
-63.0
 21
-19.5
 31
0.0
  0
LINE
  5
4265
330
423B
100
AcDbEntity
  8
AM_0 外形線1
100
AcDbLine
 10
-63.0
 20
-19.5
 30
0.0
 11
-64.0
 21
-18.5
 31
0.0
  0
LWPOLYLINE
  5
4266
330
423B
100
AcDbEntity
  8
AM_0 外形線1
100
AcDbPolyline
 90
       73
 70
     0
 43
0.0
 10
-72.5
 20
-1.200000000000044
 10
-72.50742099999979
 20
-1.095413000000007
 10
-72.52962499999989
 20
-0.9916220000000064
 10
-72.56644499999993
 20
-0.8894170000000942
 10
-72.61759999999981
 20
-0.7895760000001248
 10
-72.68269999999984
 20
-0.6928580000001148
 10
-72.7612509999999
 20
-0.6000000000000229
 10
-72.8526539999998
 20
-0.5117079999999988
 10
-72.95621400000005
 20
-0.428655000000049
 10
-73.07114199999978
 20
-0.351472000000058
 10
-73.19656399999985
 20
-0.2807470000000194
 10
-73.33152599999994
 20
-0.2170170000000553
 10
-73.47499999999991
 20
-0.160769000000073
 10
-73.6258949999999
 20
-0.112431000000015
 10
-73.78306099999986
 20
-0.0723689999999806
 10
-73.94530299999974
 20
-0.0408890000001065
 10
-74.11138599999981
 20
-0.0182310000000143
 10
-74.28004699999973
 20
-0.004566000000068
 10
-74.4499999999998
 20
0.0
 10
-74.61995399999977
 20
-0.004566000000068
 10
-74.78861400000005
 20
-0.0182310000000143
 10
-74.95469699999991
 20
-0.0408890000001065
 10
-75.11693999999987
 20
-0.0723689999999806
 10
-75.27410599999985
 20
-0.112431000000015
 10
-75.42499999999995
 20
-0.160769000000073
 10
-75.56847399999992
 20
-0.2170170000000553
 10
-75.70343599999978
 20
-0.2807470000000194
 10
-75.82885899999997
 20
-0.351472000000058
 10
-75.94378699999992
 20
-0.428655000000049
 10
-76.04734699999972
 20
-0.5117079999999988
 10
-76.13874999999985
 20
-0.6000000000000229
 10
-76.21729999999979
 20
-0.6928580000001148
 10
-76.28240099999993
 20
-0.7895760000001248
 10
-76.33355600000005
 20
-0.8894170000000942
 10
-76.37037499999997
 20
-0.9916220000000064
 10
-76.39257999999974
 20
-1.095413000000007
 10
-76.39999999999986
 20
-1.200000000000044
 10
-76.39257999999974
 20
-1.304587000000082
 10
-76.37037499999997
 20
-1.408378000000084
 10
-76.33355600000005
 20
-1.510582999999995
 10
-76.28240099999993
 20
-1.61042400000008
 10
-76.21729999999979
 20
-1.707141999999976
 10
-76.13874999999985
 20
-1.799999999999954
 10
-76.04734699999972
 20
-1.888292000000091
 10
-75.94378699999992
 20
-1.971345000000042
 10
-75.82885899999997
 20
-2.048528000000032
 10
-75.70343599999978
 20
-2.119253000000071
 10
-75.56847399999992
 20
-2.182982000000038
 10
-75.42499999999995
 20
-2.239230000000134
 10
-75.27410599999985
 20
-2.287569000000075
 10
-75.11693999999987
 20
-2.327631000000109
 10
-74.95469699999991
 20
-2.359110999999983
 10
-74.78861400000005
 20
-2.381769000000076
 10
-74.61995399999977
 20
-2.395434000000022
 10
-74.4499999999998
 20
-2.400000000000089
 10
-74.28004699999973
 20
-2.395434000000022
 10
-74.11138599999981
 20
-2.381769000000076
 10
-73.94530299999974
 20
-2.359110999999983
 10
-73.78306099999986
 20
-2.327631000000109
 10
-73.6258949999999
 20
-2.287569000000075
 10
-73.47499999999991
 20
-2.239230000000134
 10
-73.33152599999994
 20
-2.182982000000038
 10
-73.19656399999985
 20
-2.119253000000071
 10
-73.07114199999978
 20
-2.048528000000032
 10
-72.95621400000005
 20
-1.971345000000042
 10
-72.8526539999998
 20
-1.888292000000091
 10
-72.7612509999999
 20
-1.799999999999954
 10
-72.68269999999984
 20
-1.707141999999976
 10
-72.61759999999981
 20
-1.61042400000008
 10
-72.56644499999993
 20
-1.510582999999995
 10
-72.52962499999989
 20
-1.408378000000084
 10
-72.50742099999979
 20
-1.304587000000082
 10
-72.5
 20
-1.200000000000044
  0
LINE
  5
4267
330
423B
100
AcDbEntity
  8
AM_0 外形線1
100
AcDbLine
 10
-76.39999999999986
 20
-1.90000000000009
 30
0.0
 11
-76.39999999999986
 21
0.0
 31
0.0
  0
ARC
  5
4268
330
423B
100
AcDbEntity
  8
AM_0 外形線1
100
AcDbCircle
 10
-75.89999999999986
 20
-1.90000000000009
 30
0.0
 40
0.5
100
AcDbArc
 50
180.0
 51
270.0
  0
LINE
  5
4269
330
423B
100
AcDbEntity
  8
AM_0 外形線1
100
AcDbLine
 10
-73.0
 20
-2.400000000000089
 30
0.0
 11
-75.89999999999986
 21
-2.400000000000089
 31
0.0
  0
ARC
  5
426A
330
423B
100
AcDbEntity
  8
AM_0 外形線1
100
AcDbCircle
 10
-73.0
 20
-1.90000000000009
 30
0.0
 40
0.5
100
AcDbArc
 50
270.0
 51
0.0
  0
LINE
  5
426B
330
423B
100
AcDbEntity
  8
AM_0 外形線1
100
AcDbLine
 10
71.5
 20
-61.00000000000004
 30
0.0
 11
0.0
 21
-61.00000000000004
 31
0.0
  0
LINE
  5
426C
330
423B
100
AcDbEntity
  8
AM_0 外形線1
100
AcDbLine
 10
99.0
 20
-15.0
 30
0.0
 11
0.0
 21
-15.0
 31
0.0
  0
LINE
  5
426D
330
423B
100
AcDbEntity
  8
AM_0 外形線1
100
AcDbLine
 10
0.0
 20
0.0
 30
0.0
 11
99.0
 21
0.0
 31
0.0
  0
LINE
  5
426E
330
423B
100
AcDbEntity
  8
AM_0 外形線1
100
AcDbLine
 10
74.5
 20
-18.0
 30
0.0
 11
74.5
 21
-58.00000000000006
 31
0.0
  0
ARC
  5
426F
330
423B
100
AcDbEntity
  8
AM_0 外形線1
100
AcDbCircle
 10
71.5
 20
-58.00000000000006
 30
0.0
 40
3.0
100
AcDbArc
 50
270.0
 51
0.0
  0
ARC
  5
4270
330
423B
100
AcDbEntity
  8
AM_0 外形線1
100
AcDbCircle
 10
77.5
 20
-18.0
 30
0.0
 40
3.0
100
AcDbArc
 50
90.0
 51
180.0
  0
LINE
  5
4271
330
423B
100
AcDbEntity
  8
AM_0 外形線1
100
AcDbLine
 10
100.0
 20
-14.0
 30
0.0
 11
99.0
 21
-15.0
 31
0.0
  0
LINE
  5
4272
330
423B
100
AcDbEntity
  8
AM_0 外形線1
100
AcDbLine
 10
100.0
 20
-1.0
 30
0.0
 11
100.0
 21
-14.0
 31
0.0
  0
LINE
  5
4273
330
423B
100
AcDbEntity
  8
AM_0 外形線1
100
AcDbLine
 10
99.0
 20
0.0
 30
0.0
 11
100.0
 21
-1.0
 31
0.0
  0
LINE
  5
42B7
330
423B
100
AcDbEntity
  8
AM_7 中心線
100
AcDbLine
 10
89.0
 20
-24.60537700000009
 30
0.0
 11
89.0
 21
32.88844399999995
 31
0.0
  0
LINE
  5
42EE
330
423B
100
AcDbEntity
  8
AM_0 外形線1
100
AcDbLine
 10
-72.5
 20
0.0
 30
0.0
 11
-68.0
 21
-0.0000000000001137
 31
0.0
  0
LINE
  5
42EF
330
423B
100
AcDbEntity
  8
AM_0 外形線1
100
AcDbLine
 10
-76.39999999999986
 20
0.0
 30
0.0
 11
-99.0
 21
0.0
 31
0.0
  0
ENDBLK
  5
423D
330
423B
100
AcDbEntity
  8
0
100
AcDbBlockEnd
  0
BLOCK
  5
4324
330
4323
100
AcDbEntity
  8
0
100
AcDbBlockBegin
  2
センタB SMVH200
 70
     0
 10
0.0
 20
0.0
 30
0.0
  3
センタB SMVH200
  1

  0
LINE
  5
4326
330
4323
100
AcDbEntity
  8
AM_0 外形線1
100
AcDbLine
 10
-58.5
 20
0.0
 30
0.0
 11
0.0
 21
0.0
 31
0.0
  0
LINE
  5
4327
330
4323
100
AcDbEntity
  8
AM_0 外形線1
100
AcDbLine
 10
56.4000000000001
 20
100.0
 30
0.0
 11
-56.39999999999986
 21
100.0
 31
0.0
  0
LINE
  5
4328
330
4323
100
AcDbEntity
  8
AM_0 外形線1
100
AcDbLine
 10
-59.39999999999987
 20
97.0
 30
0.0
 11
-59.39999999999987
 21
69.0
 31
0.0
  0
ARC
  5
432A
330
4323
100
AcDbEntity
  8
AM_0 外形線1
100
AcDbCircle
 10
0.0
 20
26.5
 30
0.0
 40
67.39
100
AcDbArc
 50
169.3104459999981
 51
187.6748379999999
  0
LINE
  5
432C
330
4323
100
AcDbEntity
  8
AM_0 外形線1
100
AcDbLine
 10
-65.64391999999975
 20
16.5
 30
0.0
 11
-59.5
 21
16.5
 31
0.0
  0
LINE
  5
432D
330
4323
100
AcDbEntity
  8
AM_0 外形線1
100
AcDbLine
 10
-66.78631699999981
 20
17.5
 30
0.0
 11
-65.64391999999975
 21
16.5
 31
0.0
  0
LINE
  5
432E
330
4323
100
AcDbEntity
  8
AM_0 外形線1
100
AcDbLine
 10
-59.0
 20
16.0
 30
0.0
 11
-59.0
 21
0.5
 31
0.0
  0
LINE
  5
432F
330
4323
100
AcDbEntity
  8
AM_0 外形線1
100
AcDbLine
 10
-59.0
 20
0.5
 30
0.0
 11
-58.5
 21
0.0
 31
0.0
  0
ARC
  5
4330
330
4323
100
AcDbEntity
  8
AM_0 外形線1
100
AcDbCircle
 10
-59.5
 20
16.0
 30
0.0
 40
0.5
100
AcDbArc
 50
0.0
 51
90.0
  0
LINE
  5
4331
330
4323
100
AcDbEntity
  8
AM_7 中心線
100
AcDbLine
 10
-72.38999999999987
 20
26.5
 30
0.0
 11
-57.25
 21
26.5
 31
0.0
  0
LINE
  5
4332
330
4323
100
AcDbEntity
  8
AM_0 外形線1
100
AcDbLine
 10
-60.0
 20
67.0
 30
0.0
 11
-60.0
 21
40.49999999999999
 31
0.0
  0
LINE
  5
4333
330
4323
100
AcDbEntity
  8
AM_0 外形線1
100
AcDbLine
 10
-60.5
 20
40.0
 30
0.0
 11
-65.0239509999999
 21
40.0
 31
0.0
  0
LINE
  5
4334
330
4323
100
AcDbEntity
  8
AM_0 外形線1
100
AcDbLine
 10
-65.0239509999999
 20
40.0
 30
0.0
 11
-66.22055699999987
 21
39.0
 31
0.0
  0
ARC
  5
4335
330
4323
100
AcDbEntity
  8
AM_0 外形線1
100
AcDbCircle
 10
-60.5
 20
40.49999999999999
 30
0.0
 40
0.5
100
AcDbArc
 50
270.0
 51
0.0
  0
LINE
  5
4336
330
4323
100
AcDbEntity
  8
AM_0 外形線1
100
AcDbLine
 10
-59.39999999999987
 20
69.0
 30
0.0
 11
-60.0
 21
67.0
 31
0.0
  0
ARC
  5
4337
330
4323
100
AcDbEntity
  8
AM_0 外形線1
100
AcDbCircle
 10
-56.39999999999986
 20
97.0
 30
0.0
 40
3.0
100
AcDbArc
 50
90.0
 51
180.0
  0
LINE
  5
4338
330
4323
100
AcDbEntity
  8
AM_0 外形線1
100
AcDbLine
 10
59.4000000000001
 20
69.0
 30
0.0
 11
59.4000000000001
 21
97.0
 31
0.0
  0
LINE
  5
4339
330
4323
100
AcDbEntity
  8
AM_0 外形線1
100
AcDbLine
 10
59.4000000000001
 20
69.0
 30
0.0
 11
0.0
 21
69.0
 31
0.0
  0
LINE
  5
433A
330
4323
100
AcDbEntity
  8
AM_0 外形線1
100
AcDbLine
 10
60.0
 20
67.0
 30
0.0
 11
0.0
 21
67.0
 31
0.0
  0
LINE
  5
433B
330
4323
100
AcDbEntity
  8
AM_0 外形線1
100
AcDbLine
 10
60.0
 20
56.0
 30
0.0
 11
60.0
 21
67.0
 31
0.0
  0
LINE
  5
433C
330
4323
100
AcDbEntity
  8
AM_0 外形線1
100
AcDbLine
 10
60.0
 20
67.0
 30
0.0
 11
59.4000000000001
 21
69.0
 31
0.0
  0
ARC
  5
433D
330
4323
100
AcDbEntity
  8
AM_0 外形線1
100
AcDbCircle
 10
56.4000000000001
 20
97.0
 30
0.0
 40
3.0
100
AcDbArc
 50
0.0
 51
90.0
  0
LINE
  5
433E
330
4323
100
AcDbEntity
  8
AM_0 外形線1
100
AcDbLine
 10
-28.80309604250829
 20
0.0
 30
0.0
 11
-28.80309604250829
 21
100.0
 31
0.0
  0
ARC
  5
5638
330
4323
100
AcDbEntity
  8
AM_0 外形線1
100
AcDbCircle
 10
0.0
 20
26.5
 30
0.0
 40
62.24999999999983
100
AcDbArc
 50
167.4748892433514
 51
189.244195254516
  0
ARC
  5
5639
330
4323
100
AcDbEntity
  8
AM_7 中心線
100
AcDbCircle
 10
0.0
 20
26.5
 30
0.0
 40
65.0
100
AcDbArc
 50
166.1970455792488
 51
190.1494110165631
  0
ENDBLK
  5
4325
330
4323
100
AcDbEntity
  8
0
100
AcDbBlockEnd
  0
BLOCK
  5
448C
330
448B
100
AcDbEntity
  8
0
100
AcDbBlockBegin
  2
ケースＢ SMVH200
 70
     0
 10
0.0
 20
0.0
 30
0.0
  3
ケースＢ SMVH200
  1

  0
LINE
  5
448E
330
448B
100
AcDbEntity
  8
AM_0 外形線1
100
AcDbLine
 10
-100.0
 20
1.0
 30
0.0
 11
-100.0
 21
14.0
 31
0.0
  0
LINE
  5
448F
330
448B
100
AcDbEntity
  8
AM_0 外形線1
100
AcDbLine
 10
-73.0
 20
0.0
 30
0.0
 11
-99.0
 21
0.0
 31
0.0
  0
LINE
  5
4490
330
448B
100
AcDbEntity
  8
AM_0 外形線1
100
AcDbLine
 10
-99.0
 20
0.0
 30
0.0
 11
-100.0
 21
1.0
 31
0.0
  0
LINE
  5
4491
330
448B
100
AcDbEntity
  8
AM_0 外形線1
100
AcDbLine
 10
-72.5
 20
0.5
 30
0.0
 11
-73.0
 21
0.0
 31
0.0
  0
LINE
  5
4492
330
448B
100
AcDbEntity
  8
AM_3 隠れ線
100
AcDbLine
 10
-64.0
 20
43.5
 30
0.0
 11
-63.0
 21
42.5
 31
0.0
  0
LINE
  5
4493
330
448B
100
AcDbEntity
  8
AM_7 中心線
100
AcDbLine
 10
-65.0
 20
16.5
 30
0.0
 11
-65.0
 21
45.49999999999999
 31
0.0
  0
LINE
  5
4494
330
448B
100
AcDbEntity
  8
AM_0 外形線1
100
AcDbLine
 10
-74.5
 20
18.0
 30
0.0
 11
-74.5
 21
41.0
 31
0.0
  0
LINE
  5
4495
330
448B
100
AcDbEntity
  8
AM_0 外形線1
100
AcDbLine
 10
-67.5
 20
18.36602599999992
 30
0.0
 11
-67.5
 21
43.63397499999996
 31
0.0
  0
LINE
  5
4496
330
448B
100
AcDbEntity
  8
AM_0 外形線1
100
AcDbLine
 10
-93.79999999999997
 20
13.25
 30
0.0
 11
-68.0
 21
13.25
 31
0.0
  0
LINE
  5
4497
330
448B
100
AcDbEntity
  8
AM_0 外形線1
100
AcDbLine
 10
-93.79999999999997
 20
4.75
 30
0.0
 11
-68.0
 21
4.75
 31
0.0
  0
LINE
  5
4498
330
448B
100
AcDbEntity
  8
AM_7 中心線
100
AcDbLine
 10
-66.30652899999972
 20
9.0
 30
0.0
 11
-101.6483179999998
 21
9.0
 31
0.0
  0
LINE
  5
4499
330
448B
100
AcDbEntity
  8
AM_0 外形線1
100
AcDbLine
 10
-83.49999999999999
 20
15.0
 30
0.0
 11
-77.5
 21
15.0
 31
0.0
  0
LINE
  5
449A
330
448B
100
AcDbEntity
  8
AM_0 外形線1
100
AcDbLine
 10
-99.0
 20
15.0
 30
0.0
 11
-79.1999999999998
 21
15.0
 31
0.0
  0
LINE
  5
449B
330
448B
100
AcDbEntity
  8
AM_4 細線
100
AcDbLine
 10
-100.0
 20
4.135999999999966
 30
0.0
 11
-93.79999999999997
 21
4.329749999999989
 31
0.0
  0
LINE
  5
449C
330
448B
100
AcDbEntity
  8
AM_4 細線
100
AcDbLine
 10
-100.0
 20
13.86400000000003
 30
0.0
 11
-93.79999999999997
 21
13.67024999999989
 31
0.0
  0
LINE
  5
449D
330
448B
100
AcDbEntity
  8
AM_4 細線
100
AcDbLine
 10
-100.0
 20
4.556249999999976
 30
0.0
 11
-93.79999999999997
 21
4.75
 31
0.0
  0
LINE
  5
449E
330
448B
100
AcDbEntity
  8
AM_4 細線
100
AcDbLine
 10
-93.79999999999997
 20
4.329749999999989
 30
0.0
 11
-93.79999999999997
 21
13.67024999999989
 31
0.0
  0
LINE
  5
449F
330
448B
100
AcDbEntity
  8
AM_0 外形線1
100
AcDbLine
 10
-100.0
 20
13.44374999999991
 30
0.0
 11
-93.79999999999997
 21
13.25
 31
0.0
  0
LINE
  5
44A0
330
448B
100
AcDbEntity
  8
AM_0 外形線1
100
AcDbLine
 10
-100.0
 20
14.0
 30
0.0
 11
-99.0
 21
15.0
 31
0.0
  0
LINE
  5
44A1
330
448B
100
AcDbEntity
  8
AM_3 隠れ線
100
AcDbLine
 10
-63.0
 20
21.5
 30
0.0
 11
-63.0
 21
42.5
 31
0.0
  0
LINE
  5
44A2
330
448B
100
AcDbEntity
  8
AM_0 外形線1
100
AcDbLine
 10
-64.0
 20
18.5
 30
0.0
 11
-67.0
 21
18.5
 31
0.0
  0
LINE
  5
44A3
330
448B
100
AcDbEntity
  8
AM_0 外形線1
100
AcDbLine
 10
-68.0
 20
17.5
 30
0.0
 11
-68.0
 21
4.0
 31
0.0
  0
ARC
  5
44A4
330
448B
100
AcDbEntity
  8
AM_0 外形線1
100
AcDbCircle
 10
-67.0
 20
17.5
 30
0.0
 40
1.0
100
AcDbArc
 50
90.0
 51
180.0
  0
ARC
  5
44A5
330
448B
100
AcDbEntity
  8
AM_0 外形線1
100
AcDbCircle
 10
-77.5
 20
18.0
 30
0.0
 40
3.0
100
AcDbArc
 50
270.0
 51
0.0
  0
LINE
  5
44A6
330
448B
100
AcDbEntity
  8
AM_0 外形線1
100
AcDbLine
 10
-63.0
 20
21.5
 30
0.0
 11
-63.0
 21
19.5
 31
0.0
  0
LINE
  5
44A7
330
448B
100
AcDbEntity
  8
AM_0 外形線1
100
AcDbLine
 10
-63.0
 20
19.5
 30
0.0
 11
-64.0
 21
18.5
 31
0.0
  0
LINE
  5
44A8
330
448B
100
AcDbEntity
  8
AM_3 隠れ線
100
AcDbLine
 10
-66.31298599999991
 20
43.5
 30
0.0
 11
-64.0
 21
43.5
 31
0.0
  0
ARC
  5
44A9
330
448B
100
AcDbEntity
  8
AM_0 外形線1
100
AcDbCircle
 10
-64.19999999999982
 20
51.20000000000004
 30
0.0
 40
0.5
100
AcDbArc
 50
180.0
 51
270.0
  0
ARC
  5
44AA
330
448B
100
AcDbEntity
  8
AM_0 外形線1
100
AcDbCircle
 10
-64.19999999999982
 20
57.79999999999995
 30
0.0
 40
0.5
100
AcDbArc
 50
90.0
 51
180.0
  0
LINE
  5
44AB
330
448B
100
AcDbEntity
  8
AM_0 外形線1
100
AcDbLine
 10
-60.0
 20
48.0
 30
0.0
 11
-67.0
 21
48.0
 31
0.0
  0
LINE
  5
44AC
330
448B
100
AcDbEntity
  8
AM_0 外形線1
100
AcDbLine
 10
-71.5
 20
61.0
 30
0.0
 11
-60.0
 21
61.0
 31
0.0
  0
LINE
  5
44AD
330
448B
100
AcDbEntity
  8
AM_0 外形線1
100
AcDbLine
 10
-66.31298599999991
 20
43.5
 30
0.0
 11
-67.0
 21
43.5
 31
0.0
  0
ARC
  5
44AE
330
448B
100
AcDbEntity
  8
AM_0 外形線1
100
AcDbCircle
 10
-67.0
 20
44.5
 30
0.0
 40
1.0
100
AcDbArc
 50
180.0
 51
270.0
  0
LINE
  5
44AF
330
448B
100
AcDbEntity
  8
AM_0 外形線1
100
AcDbLine
 10
-68.0
 20
47.0
 30
0.0
 11
-68.0
 21
44.5
 31
0.0
  0
ARC
  5
44B0
330
448B
100
AcDbEntity
  8
AM_0 外形線1
100
AcDbCircle
 10
-67.0
 20
47.0
 30
0.0
 40
1.0
100
AcDbArc
 50
90.0
 51
180.0
  0
ARC
  5
44B1
330
448B
100
AcDbEntity
  8
AM_0 外形線1
100
AcDbCircle
 10
-71.5
 20
58.0
 30
0.0
 40
3.0
100
AcDbArc
 50
90.0
 51
180.0
  0
LWPOLYLINE
  5
44B2
330
448B
100
AcDbEntity
  8
AM_0 外形線1
100
AcDbPolyline
 90
       73
 70
     0
 43
0.0
 10
-62.3499999999999
 20
50.70000000000003
 10
-62.14518399999997
 20
50.71445999999991
 10
-61.94192699999985
 20
50.75773099999992
 10
-61.74177599999985
 20
50.82948199999986
 10
-61.54625299999975
 20
50.9291679999999
 10
-61.35684699999979
 20
51.05603099999996
 10
-61.17499999999996
 20
51.20910400000003
 10
-61.00209599999971
 20
51.38722199999995
 10
-60.83944899999983
 20
51.58903099999998
 10
-60.6882989999999
 20
51.81299399999989
 10
-60.54979599999978
 20
52.05740700000001
 10
-60.42499299999986
 20
52.32041000000004
 10
-60.31484099999989
 20
52.5999999999999
 10
-60.22017699999992
 20
52.89405099999999
 10
-60.14172299999994
 20
53.2003239999999
 10
-60.08007499999984
 20
53.51648799999998
 10
-60.03570199999989
 20
53.8401369999999
 10
-60.00894299999981
 20
54.16880799999989
 10
-60.0
 20
54.5
 10
-60.00894299999981
 20
54.83119199999986
 10
-60.03570199999989
 20
55.15986299999998
 10
-60.08007499999984
 20
55.48351200000002
 10
-60.14172299999994
 20
55.79967699999997
 10
-60.22017699999992
 20
56.10594900000001
 10
-60.31484099999989
 20
56.39999999999997
 10
-60.42499299999986
 20
56.67959099999996
 10
-60.54979599999978
 20
56.94259299999998
 10
-60.6882989999999
 20
57.187006
 10
-60.83944899999983
 20
57.41096900000002
 10
-61.00209599999971
 20
57.61277799999994
 10
-61.17499999999996
 20
57.79089699999985
 10
-61.35684699999979
 20
57.94396999999992
 10
-61.54625299999975
 20
58.07083199999988
 10
-61.74177599999985
 20
58.1705179999999
 10
-61.94192699999985
 20
58.24226999999996
 10
-62.14518399999997
 20
58.28553999999996
 10
-62.3499999999999
 20
58.29999999999995
 10
-62.55481599999985
 20
58.28553999999996
 10
-62.75807299999996
 20
58.24226999999996
 10
-62.95822499999985
 20
58.1705179999999
 10
-63.15374799999995
 20
58.07083199999988
 10
-63.3431529999998
 20
57.94396999999992
 10
-63.52499999999985
 20
57.79089699999985
 10
-63.69790499999976
 20
57.61277799999994
 10
-63.860551
 20
57.41096900000002
 10
-64.01170099999989
 20
57.187006
 10
-64.15020499999967
 20
56.94259299999998
 10
-64.27500799999984
 20
56.67959099999996
 10
-64.38515999999982
 20
56.39999999999997
 10
-64.47982399999999
 20
56.10594900000001
 10
-64.55827799999974
 20
55.79967699999997
 10
-64.61992599999985
 20
55.48351200000002
 10
-64.66429799999992
 20
55.15986299999998
 10
-64.69105799999988
 20
54.83119199999986
 10
-64.69999999999981
 20
54.5
 10
-64.69105799999988
 20
54.16880799999989
 10
-64.66429799999992
 20
53.8401369999999
 10
-64.61992599999985
 20
53.51648799999998
 10
-64.55827799999974
 20
53.2003239999999
 10
-64.47982399999999
 20
52.89405099999999
 10
-64.38515999999982
 20
52.5999999999999
 10
-64.27500799999984
 20
52.32041000000004
 10
-64.15020499999967
 20
52.05740700000001
 10
-64.01170099999989
 20
51.81299399999989
 10
-63.860551
 20
51.58903099999998
 10
-63.69790499999976
 20
51.38722199999995
 10
-63.52499999999985
 20
51.20910400000003
 10
-63.3431529999998
 20
51.05603099999996
 10
-63.15374799999995
 20
50.9291679999999
 10
-62.95822499999985
 20
50.82948199999986
 10
-62.75807299999996
 20
50.75773099999992
 10
-62.55481599999985
 20
50.71445999999991
 10
-62.3499999999999
 20
50.70000000000003
  0
LINE
  5
44B3
330
448B
100
AcDbEntity
  8
AM_0 外形線1
100
AcDbLine
 10
-61.25
 20
50.70000000000003
 30
0.0
 11
-61.25
 21
48.0
 31
0.0
  0
LINE
  5
44B4
330
448B
100
AcDbEntity
  8
AM_0 外形線1
100
AcDbLine
 10
-64.19999999999982
 20
50.70000000000003
 30
0.0
 11
-60.0
 21
50.70000000000003
 31
0.0
  0
LINE
  5
44B5
330
448B
100
AcDbEntity
  8
AM_0 外形線1
100
AcDbLine
 10
-64.69999999999981
 20
57.79999999999995
 30
0.0
 11
-64.69999999999981
 21
51.20000000000004
 31
0.0
  0
LINE
  5
44B6
330
448B
100
AcDbEntity
  8
AM_0 外形線1
100
AcDbLine
 10
-60.0
 20
58.29999999999995
 30
0.0
 11
-64.19999999999982
 21
58.29999999999995
 31
0.0
  0
LINE
  5
44B7
330
448B
100
AcDbEntity
  8
AM_0 外形線1
100
AcDbLine
 10
-61.25
 20
61.0
 30
0.0
 11
-61.25
 21
58.29999999999995
 31
0.0
  0
LINE
  5
44B8
330
448B
100
AcDbEntity
  8
AM_0 外形線1
100
AcDbLine
 10
100.0
 20
1.0
 30
0.0
 11
100.0
 21
14.0
 31
0.0
  0
LINE
  5
44B9
330
448B
100
AcDbEntity
  8
AM_0 外形線1
100
AcDbLine
 10
99.0
 20
0.0
 30
0.0
 11
100.0
 21
1.0
 31
0.0
  0
LINE
  5
44BA
330
448B
100
AcDbEntity
  8
AM_0 外形線1
100
AcDbLine
 10
99.0
 20
15.0
 30
0.0
 11
0.0
 21
15.0
 31
0.0
  0
LINE
  5
44BB
330
448B
100
AcDbEntity
  8
AM_0 外形線1
100
AcDbLine
 10
71.5
 20
61.0
 30
0.0
 11
0.0
 21
61.0
 31
0.0
  0
LINE
  5
44BC
330
448B
100
AcDbEntity
  8
AM_0 外形線1
100
AcDbLine
 10
74.5
 20
18.0
 30
0.0
 11
74.5
 21
58.0
 31
0.0
  0
ARC
  5
44BD
330
448B
100
AcDbEntity
  8
AM_0 外形線1
100
AcDbCircle
 10
77.5
 20
18.0
 30
0.0
 40
3.0
100
AcDbArc
 50
180.0
 51
270.0
  0
LINE
  5
44BE
330
448B
100
AcDbEntity
  8
AM_0 外形線1
100
AcDbLine
 10
100.0
 20
14.0
 30
0.0
 11
99.0
 21
15.0
 31
0.0
  0
ARC
  5
44BF
330
448B
100
AcDbEntity
  8
AM_0 外形線1
100
AcDbCircle
 10
71.5
 20
58.0
 30
0.0
 40
3.0
100
AcDbArc
 50
0.0
 51
90.0
  0
LINE
  5
44C0
330
448B
100
AcDbEntity
  8
AM_0 外形線1
100
AcDbLine
 10
-74.0
 20
48.0
 30
0.0
 11
-74.0
 21
51.5
 31
0.0
  0
LINE
  5
44C1
330
448B
100
AcDbEntity
  8
AM_0 外形線1
100
AcDbLine
 10
-74.0
 20
40.49999999999999
 30
0.0
 11
-74.0
 21
44.0
 31
0.0
  0
LINE
  5
44C2
330
448B
100
AcDbEntity
  8
AM_0 外形線1
100
AcDbLine
 10
-74.5
 20
40.49999999999999
 30
0.0
 11
-74.0
 21
40.49999999999999
 31
0.0
  0
LINE
  5
44C3
330
448B
100
AcDbEntity
  8
AM_0 外形線1
100
AcDbLine
 10
-74.5
 20
51.5
 30
0.0
 11
-74.0
 21
51.5
 31
0.0
  0
LINE
  5
44C4
330
448B
100
AcDbEntity
  8
AM_0 外形線1
100
AcDbLine
 10
-69.94999999999982
 20
47.64999999999985
 30
0.0
 11
-67.7599342076785
 21
47.64999999999985
 31
0.0
  0
LINE
  5
44C5
330
448B
100
AcDbEntity
  8
AM_4 細線
100
AcDbLine
 10
-70.29999999999995
 20
48.0
 30
0.0
 11
-67.0
 21
48.0
 31
0.0
  0
LINE
  5
44C6
330
448B
100
AcDbEntity
  8
AM_0 外形線1
100
AcDbLine
 10
-67.98868599666412
 20
44.34999999999989
 30
0.0
 11
-69.94999999999982
 21
44.34999999999989
 31
0.0
  0
LINE
  5
44C7
330
448B
100
AcDbEntity
  8
AM_4 細線
100
AcDbLine
 10
-67.86602540378432
 20
44.0
 30
0.0
 11
-70.29999999999995
 21
44.0
 31
0.0
  0
LINE
  5
44C8
330
448B
100
AcDbEntity
  8
AM_0 外形線1
100
AcDbLine
 10
-74.5
 20
51.0
 30
0.0
 11
-74.5
 21
58.0
 31
0.0
  0
INSERT
  5
44C9
330
448B
100
AcDbEntity
  8
AM_0 外形線1
100
AcDbBlockReference
  2
ジュウジマルコネジ
 10
-74.79999999999995
 20
46.0
 30
0.0
  0
LINE
  5
450E
330
448B
100
AcDbEntity
  8
AM_0 外形線1
100
AcDbLine
 10
99.0
 20
0.0
 30
0.0
 11
0.0
 21
0.0
 31
0.0
  0
LINE
  5
450F
330
448B
100
AcDbEntity
  8
AM_0 外形線1
100
AcDbLine
 10
-72.5
 20
0.5
 30
0.0
 11
-72.50000000000007
 21
4.0
 31
0.0
  0
LINE
  5
4510
330
448B
100
AcDbEntity
  8
AM_0 外形線1
100
AcDbLine
 10
-72.50000000000007
 20
4.0
 30
0.0
 11
-67.99999999999993
 21
4.0
 31
0.0
  0
ENDBLK
  5
448D
330
448B
100
AcDbEntity
  8
0
100
AcDbBlockEnd
  0
BLOCK
  5
459B
330
459A
100
AcDbEntity
  8
0
100
AcDbBlockBegin
  2
リーマボルト SMVH200 M10
 70
     0
 10
0.0
 20
0.0
 30
0.0
  3
リーマボルト SMVH200 M10
  1

  0
ARC
  5
459D
330
459A
100
AcDbEntity
  8
AM_0 外形線1
100
AcDbCircle
 10
7.353737999999792
 20
-2.638210999999954
 30
0.0
 40
4.361788999999999
100
AcDbArc
 50
235.8861589999972
 51
304.1138410000028
  0
LINE
  5
459E
330
459A
100
AcDbEntity
  8
AM_0 外形線1
100
AcDbLine
 10
8.5
 20
-7.0
 30
0.0
 11
-8.5
 21
-7.0
 31
0.0
  0
LINE
  5
459F
330
459A
100
AcDbEntity
  8
AM_0 外形線1
100
AcDbLine
 10
-4.907478000000081
 20
0.0
 30
0.0
 11
-4.907478000000081
 21
-6.249445000000036
 31
0.0
  0
LINE
  5
45A0
330
459A
100
AcDbEntity
  8
AM_0 外形線1
100
AcDbLine
 10
4.907477000000199
 20
0.0
 30
0.0
 11
4.907477000000199
 21
-6.249445000000036
 31
0.0
  0
LINE
  5
45A1
330
459A
100
AcDbEntity
  8
AM_0 外形線1
100
AcDbLine
 10
-9.80000000000018
 20
-6.249445000000036
 30
0.0
 11
-9.80000000000018
 21
0.0
 31
0.0
  0
ARC
  5
45A2
330
459A
100
AcDbEntity
  8
AM_0 外形線1
100
AcDbCircle
 10
-7.353739000000132
 20
-2.638210999999954
 30
0.0
 40
4.361788999999999
100
AcDbArc
 50
235.8861589999972
 51
304.1138410000028
  0
LINE
  5
45A3
330
459A
100
AcDbEntity
  8
AM_0 外形線1
100
AcDbLine
 10
-8.5
 20
-7.0
 30
0.0
 11
-9.80000000000018
 21
-6.249445000000036
 31
0.0
  0
ARC
  5
45A4
330
459A
100
AcDbEntity
  8
AM_0 外形線1
100
AcDbCircle
 10
0.0
 20
9.418953999999985
 30
0.0
 40
16.418953
100
AcDbArc
 50
252.6089940000013
 51
287.3910059999987
  0
LINE
  5
45A5
330
459A
100
AcDbEntity
  8
AM_0 外形線1
100
AcDbLine
 10
9.80000000000018
 20
0.0
 30
0.0
 11
9.80000000000018
 21
-6.249445000000036
 31
0.0
  0
LINE
  5
45A6
330
459A
100
AcDbEntity
  8
AM_0 外形線1
100
AcDbLine
 10
9.80000000000018
 20
-6.249445000000036
 30
0.0
 11
8.5
 21
-7.0
 31
0.0
  0
ARC
  5
45A7
330
459A
100
AcDbEntity
  8
AM_0 外形線1
100
AcDbCircle
 10
7.353737999999792
 20
36.13821099999996
 30
0.0
 40
4.361788999999999
100
AcDbArc
 50
55.88615899999718
 51
124.1138410000028
  0
LINE
  5
45A8
330
459A
100
AcDbEntity
  8
AM_0 外形線1
100
AcDbLine
 10
-9.80000000000018
 20
32.5
 30
0.0
 11
9.80000000000018
 21
32.5
 31
0.0
  0
LINE
  5
45A9
330
459A
100
AcDbEntity
  8
AM_0 外形線1
100
AcDbLine
 10
8.5
 20
40.49999999999999
 30
0.0
 11
-8.5
 21
40.49999999999999
 31
0.0
  0
LINE
  5
45AA
330
459A
100
AcDbEntity
  8
AM_0 外形線1
100
AcDbLine
 10
-4.907478000000081
 20
32.5
 30
0.0
 11
-4.907478000000081
 21
39.74944499999992
 31
0.0
  0
LINE
  5
45AB
330
459A
100
AcDbEntity
  8
AM_0 外形線1
100
AcDbLine
 10
4.907477000000199
 20
32.5
 30
0.0
 11
4.907477000000199
 21
39.74944499999992
 31
0.0
  0
LINE
  5
45AC
330
459A
100
AcDbEntity
  8
AM_0 外形線1
100
AcDbLine
 10
-9.80000000000018
 20
39.74944499999992
 30
0.0
 11
-9.80000000000018
 21
32.5
 31
0.0
  0
LINE
  5
45AD
330
459A
100
AcDbEntity
  8
AM_0 外形線1
100
AcDbLine
 10
-9.199999999999818
 20
30.0
 30
0.0
 11
-9.199999999999818
 21
32.5
 31
0.0
  0
LINE
  5
45AE
330
459A
100
AcDbEntity
  8
AM_0 外形線1
100
AcDbLine
 10
-0.8333339999999225
 20
32.5
 30
0.0
 11
1.666666000000076
 21
30.0
 31
0.0
  0
LINE
  5
45AF
330
459A
100
AcDbEntity
  8
AM_0 外形線1
100
AcDbLine
 10
-1.666666999999961
 20
32.5
 30
0.0
 11
0.8333330000000387
 21
30.0
 31
0.0
  0
ARC
  5
45B0
330
459A
100
AcDbEntity
  8
AM_0 外形線1
100
AcDbCircle
 10
-7.353739000000132
 20
36.13821099999996
 30
0.0
 40
4.361788999999999
100
AcDbArc
 50
55.88615899999718
 51
124.1138410000028
  0
LINE
  5
45B1
330
459A
100
AcDbEntity
  8
AM_0 外形線1
100
AcDbLine
 10
-8.5
 20
40.49999999999999
 30
0.0
 11
-9.80000000000018
 21
39.74944499999992
 31
0.0
  0
LINE
  5
45B2
330
459A
100
AcDbEntity
  8
AM_4 細線
100
AcDbLine
 10
4.25
 20
40.49999999999999
 30
0.0
 11
4.25
 21
44.75
 31
0.0
  0
LINE
  5
45B3
330
459A
100
AcDbEntity
  8
AM_4 細線
100
AcDbLine
 10
-4.25
 20
40.49999999999999
 30
0.0
 11
-4.25
 21
44.75
 31
0.0
  0
LINE
  5
45B4
330
459A
100
AcDbEntity
  8
AM_0 外形線1
100
AcDbLine
 10
5.0
 20
44.0
 30
0.0
 11
-5.0
 21
44.0
 31
0.0
  0
LINE
  5
45B5
330
459A
100
AcDbEntity
  8
AM_0 外形線1
100
AcDbLine
 10
-5.0
 20
44.0
 30
0.0
 11
-5.0
 21
40.49999999999999
 31
0.0
  0
LINE
  5
45B6
330
459A
100
AcDbEntity
  8
AM_0 外形線1
100
AcDbLine
 10
-4.0
 20
45.0
 30
0.0
 11
-5.0
 21
44.0
 31
0.0
  0
LINE
  5
45B7
330
459A
100
AcDbEntity
  8
AM_0 外形線1
100
AcDbLine
 10
4.0
 20
45.0
 30
0.0
 11
-4.0
 21
45.0
 31
0.0
  0
LINE
  5
45B8
330
459A
100
AcDbEntity
  8
AM_0 外形線1
100
AcDbLine
 10
5.0
 20
44.0
 30
0.0
 11
4.0
 21
45.0
 31
0.0
  0
LINE
  5
45B9
330
459A
100
AcDbEntity
  8
AM_0 外形線1
100
AcDbLine
 10
5.0
 20
40.49999999999999
 30
0.0
 11
5.0
 21
44.0
 31
0.0
  0
ARC
  5
45BA
330
459A
100
AcDbEntity
  8
AM_0 外形線1
100
AcDbCircle
 10
0.0
 20
24.0810469999999
 30
0.0
 40
16.418953
100
AcDbArc
 50
72.60899400000133
 51
107.3910059999987
  0
LINE
  5
45BB
330
459A
100
AcDbEntity
  8
AM_0 外形線1
100
AcDbLine
 10
9.80000000000018
 20
32.5
 30
0.0
 11
9.80000000000018
 21
39.74944499999992
 31
0.0
  0
LINE
  5
45BC
330
459A
100
AcDbEntity
  8
AM_0 外形線1
100
AcDbLine
 10
9.199999999999818
 20
32.5
 30
0.0
 11
9.199999999999818
 21
30.0
 31
0.0
  0
LINE
  5
45BD
330
459A
100
AcDbEntity
  8
AM_0 外形線1
100
AcDbLine
 10
9.80000000000018
 20
39.74944499999992
 30
0.0
 11
8.5
 21
40.49999999999999
 31
0.0
  0
LINE
  5
4607
330
459A
100
AcDbEntity
  8
AM_0 外形線1
100
AcDbLine
 10
9.80000000000018
 20
0.0
 30
0.0
 11
-9.80000000000018
 21
0.0000000000000568
 31
0.0
  0
LINE
  5
4608
330
459A
100
AcDbEntity
  8
AM_0 外形線1
100
AcDbLine
 10
-9.199999999999818
 20
30.0
 30
0.0
 11
9.199999999999818
 21
30.0
 31
0.0
  0
ENDBLK
  5
459C
330
459A
100
AcDbEntity
  8
0
100
AcDbBlockEnd
  0
BLOCK
  5
4627
330
4626
100
AcDbEntity
  8
0
100
AcDbBlockBegin
  2
スラストプレ－ト SMVH200
 70
     0
 10
0.0
 20
0.0
 30
0.0
  3
スラストプレ－ト SMVH200
  1

  0
LINE
  5
4629
330
4626
100
AcDbEntity
  8
AM_0 外形線1
100
AcDbLine
 10
-64.0
 20
9.0
 30
0.0
 11
-72.5
 21
9.0
 31
0.0
  0
LINE
  5
462A
330
4626
100
AcDbEntity
  8
AM_0 外形線1
100
AcDbLine
 10
-67.5
 20
5.0
 30
0.0
 11
-72.5
 21
5.0
 31
0.0
  0
LINE
  5
462B
330
4626
100
AcDbEntity
  8
AM_0 外形線1
100
AcDbLine
 10
-67.5
 20
5.0
 30
0.0
 11
-67.5
 21
1.0
 31
0.0
  0
LINE
  5
462C
330
4626
100
AcDbEntity
  8
AM_0 外形線1
100
AcDbLine
 10
-54.0
 20
1.0
 30
0.0
 11
-67.5
 21
1.0
 31
0.0
  0
LINE
  5
462D
330
4626
100
AcDbEntity
  8
AM_0 外形線1
100
AcDbLine
 10
0.0
 20
7.0
 30
0.0
 11
-64.0
 21
7.0
 31
0.0
  0
LINE
  5
462E
330
4626
100
AcDbEntity
  8
AM_0 外形線1
100
AcDbLine
 10
-64.0
 20
7.0
 30
0.0
 11
-64.0
 21
9.0
 31
0.0
  0
LINE
  5
462F
330
4626
100
AcDbEntity
  8
AM_0 外形線1
100
AcDbLine
 10
0.0
 20
1.0
 30
0.0
 11
-44.00000000000022
 21
1.0
 31
0.0
  0
LINE
  5
4630
330
4626
100
AcDbEntity
  8
AM_0 外形線1
100
AcDbLine
 10
-44.00000000000022
 20
0.0
 30
0.0
 11
-44.00000000000022
 21
1.0
 31
0.0
  0
ARC
  5
4631
330
4626
100
AcDbEntity
  8
AM_0 外形線1
100
AcDbCircle
 10
-53.0
 20
1.0
 30
0.0
 40
1.0
100
AcDbArc
 50
180.0
 51
270.0
  0
LINE
  5
464B
330
4626
100
AcDbEntity
  8
AM_0 外形線1
100
AcDbLine
 10
-72.49999999999992
 20
5.0
 30
0.0
 11
-72.49999999999992
 21
9.0
 31
0.0
  0
LINE
  5
464C
330
4626
100
AcDbEntity
  8
AM_0 外形線1
100
AcDbLine
 10
-53.0
 20
0.0
 30
0.0
 11
-44.00000000000022
 21
0.0
 31
0.0
  0
ENDBLK
  5
4628
330
4626
100
AcDbEntity
  8
0
100
AcDbBlockEnd
  0
BLOCK
  5
46BC
330
46BB
100
AcDbEntity
  8
0
100
AcDbBlockBegin
  2
*D14
 70
     1
 10
0.0
 20
0.0
 30
0.0
  3
*D14
  1

  0
LINE
  5
481D
330
46BB
100
AcDbEntity
  8
AM_5 寸法線
 62
     3
100
AcDbLine
 10
483.1792059999997
 20
442.9515035000001
 30
0.0
 11
483.1792059999997
 21
347.4515035000002
 31
0.0
  0
LINE
  5
481E
330
46BB
100
AcDbEntity
  8
AM_5 寸法線
 62
     3
100
AcDbLine
 10
603.1792059999998
 20
442.9515035000001
 30
0.0
 11
603.1792059999998
 21
347.4515035000002
 31
0.0
  0
LINE
  5
481F
330
46BB
100
AcDbEntity
  8
AM_5 寸法線
 62
     3
100
AcDbLine
 10
489.4292059999997
 20
349.0140035000002
 30
0.0
 11
596.9292059999998
 21
349.0140035000002
 31
0.0
  0
INSERT
  5
4820
330
46BB
100
AcDbEntity
  8
AM_5 寸法線
 62
     3
100
AcDbBlockReference
  2
_Open30
 10
483.1792059999997
 20
349.0140035000002
 30
0.0
 41
6.25
 42
6.25
 43
6.25
 50
180.0
  0
INSERT
  5
4821
330
46BB
100
AcDbEntity
  8
AM_5 寸法線
 62
     3
100
AcDbBlockReference
  2
_Open30
 10
603.1792059999998
 20
349.0140035000002
 30
0.0
 41
6.25
 42
6.25
 43
6.25
  0
MTEXT
  5
4822
330
46BB
100
AcDbEntity
  8
AM_5 寸法線
 62
     3
100
AcDbMText
 10
543.1792059999998
 20
357.1390035000002
 30
0.0
 40
8.75
 41
0.0
 46
0.0
 71
     5
 72
     1
  1
%%c120
  7
SEISA
 73
     1
 44
1.0
  0
POINT
  5
4823
330
46BB
100
AcDbEntity
  8
Defpoints
 62
     0
100
AcDbPoint
 10
483.1792059999997
 20
444.5140035000001
 30
0.0
  0
POINT
  5
4824
330
46BB
100
AcDbEntity
  8
Defpoints
 62
     0
100
AcDbPoint
 10
603.1792059999998
 20
444.5140035000001
 30
0.0
  0
POINT
  5
4825
330
46BB
100
AcDbEntity
  8
Defpoints
 62
     0
100
AcDbPoint
 10
603.1792059999998
 20
349.0140035000002
 30
0.0
  0
ENDBLK
  5
46BD
330
46BB
100
AcDbEntity
  8
0
100
AcDbBlockEnd
  0
BLOCK
  5
482C
330
482B
100
AcDbEntity
  8
0
100
AcDbBlockBegin
  2
*D15
 70
     1
 10
0.0
 20
0.0
 30
0.0
  3
*D15
  1

  0
LINE
  5
4FF4
330
482B
100
AcDbEntity
  8
AM_5 寸法線
 62
     3
100
AcDbLine
 10
643.7417059999997
 20
501.5140035000001
 30
0.0
 11
682.2417060000002
 21
501.5140035000001
 31
0.0
  0
LINE
  5
4FF5
330
482B
100
AcDbEntity
  8
AM_5 寸法線
 62
     3
100
AcDbLine
 10
643.7417059999997
 20
516.5140035000002
 30
0.0
 11
682.2417060000002
 21
516.5140035000002
 31
0.0
  0
LINE
  5
4FF6
330
482B
100
AcDbEntity
  8
AM_5 寸法線
 62
     3
100
AcDbLine
 10
680.6792060000002
 20
522.7640035000002
 30
0.0
 11
680.6792060000002
 21
529.0140035000002
 31
0.0
  0
LINE
  5
4FF7
330
482B
100
AcDbEntity
  8
AM_5 寸法線
 62
     3
100
AcDbLine
 10
680.6792060000002
 20
495.2640035000001
 30
0.0
 11
680.6792060000002
 21
469.8890035000001
 31
0.0
  0
LINE
  5
4FF8
330
482B
100
AcDbEntity
  8
AM_5 寸法線
 62
     3
100
AcDbLine
 10
680.6792060000002
 20
516.5140035000002
 30
0.0
 11
680.6792060000002
 21
501.5140035000001
 31
0.0
  0
INSERT
  5
4FF9
330
482B
100
AcDbEntity
  8
AM_5 寸法線
 62
     3
100
AcDbBlockReference
  2
GENDOT
 10
680.6792060000002
 20
516.5140035000002
 30
0.0
 41
6.25
 42
6.25
 43
6.25
 50
270.0
  0
INSERT
  5
4FFA
330
482B
100
AcDbEntity
  8
AM_5 寸法線
 62
     3
100
AcDbBlockReference
  2
_Open30
 10
680.6792060000002
 20
501.5140035000001
 30
0.0
 41
6.25
 42
6.25
 43
6.25
 50
90.0
  0
MTEXT
  5
4FFB
330
482B
100
AcDbEntity
  8
AM_5 寸法線
 62
     3
100
AcDbMText
 10
672.5542060000001
 20
479.4515035000001
 30
0.0
 40
8.75
 41
0.0
 46
0.0
 71
     5
 72
     1
  1
15
  7
SEISA
 11
0.0000000000000001
 21
1.0
 31
0.0
 73
     1
 44
1.0
  0
POINT
  5
4FFC
330
482B
100
AcDbEntity
  8
Defpoints
 62
     0
100
AcDbPoint
 10
642.1792059999997
 20
501.5140035000001
 30
0.0
  0
POINT
  5
4FFD
330
482B
100
AcDbEntity
  8
Defpoints
 62
     0
100
AcDbPoint
 10
642.1792059999997
 20
516.5140035000002
 30
0.0
  0
POINT
  5
4FFE
330
482B
100
AcDbEntity
  8
Defpoints
 62
     0
100
AcDbPoint
 10
680.6792060000002
 20
516.5140035000002
 30
0.0
  0
ENDBLK
  5
482D
330
482B
100
AcDbEntity
  8
0
100
AcDbBlockEnd
  0
BLOCK
  5
4848
330
4847
100
AcDbEntity
  8
0
100
AcDbBlockBegin
  2
*D16
 70
     1
 10
0.0
 20
0.0
 30
0.0
  3
*D16
  1

  0
LINE
  5
4FDE
330
4847
100
AcDbEntity
  8
AM_5 寸法線
 62
     3
100
AcDbLine
 10
643.7417059999997
 20
531.5140035000001
 30
0.0
 11
682.2417060000001
 21
531.5140035000001
 31
0.0
  0
LINE
  5
4FDF
330
4847
100
AcDbEntity
  8
AM_5 寸法線
 62
     3
100
AcDbLine
 10
643.7417059999997
 20
516.5140035000002
 30
0.0
 11
682.2417060000001
 21
516.5140035000002
 31
0.0
  0
LINE
  5
4FE0
330
4847
100
AcDbEntity
  8
AM_5 寸法線
 62
     3
100
AcDbLine
 10
680.6792060000001
 20
510.2640035000002
 30
0.0
 11
680.6792060000001
 21
504.0140035000002
 31
0.0
  0
LINE
  5
4FE1
330
4847
100
AcDbEntity
  8
AM_5 寸法線
 62
     3
100
AcDbLine
 10
680.6792060000001
 20
537.7640035000001
 30
0.0
 11
680.6792060000001
 21
563.1390035000001
 31
0.0
  0
LINE
  5
4FE2
330
4847
100
AcDbEntity
  8
AM_5 寸法線
 62
     3
100
AcDbLine
 10
680.6792060000001
 20
516.5140035000002
 30
0.0
 11
680.6792060000001
 21
531.5140035000001
 31
0.0
  0
INSERT
  5
4FE3
330
4847
100
AcDbEntity
  8
AM_5 寸法線
 62
     3
100
AcDbBlockReference
  2
GENDOT
 10
680.6792060000001
 20
516.5140035000002
 30
0.0
 41
6.25
 42
6.25
 43
6.25
 50
90.0
  0
INSERT
  5
4FE4
330
4847
100
AcDbEntity
  8
AM_5 寸法線
 62
     3
100
AcDbBlockReference
  2
_Open30
 10
680.6792060000001
 20
531.5140035000001
 30
0.0
 41
6.25
 42
6.25
 43
6.25
 50
270.0
  0
MTEXT
  5
4FE5
330
4847
100
AcDbEntity
  8
AM_5 寸法線
 62
     3
100
AcDbMText
 10
672.5542059999999
 20
553.5765035000003
 30
0.0
 40
8.75
 41
0.0
 46
0.0
 71
     5
 72
     1
  1
15
  7
SEISA
 11
0.0000000000000001
 21
1.0
 31
0.0
 73
     1
 44
1.0
  0
POINT
  5
4FE6
330
4847
100
AcDbEntity
  8
Defpoints
 62
     0
100
AcDbPoint
 10
642.1792059999997
 20
531.5140035000001
 30
0.0
  0
POINT
  5
4FE7
330
4847
100
AcDbEntity
  8
Defpoints
 62
     0
100
AcDbPoint
 10
642.1792059999997
 20
516.5140035000002
 30
0.0
  0
POINT
  5
4FE8
330
4847
100
AcDbEntity
  8
Defpoints
 62
     0
100
AcDbPoint
 10
680.6792060000001
 20
516.5140035000002
 30
0.0
  0
ENDBLK
  5
4849
330
4847
100
AcDbEntity
  8
0
100
AcDbBlockEnd
  0
BLOCK
  5
48B1
330
48B0
100
AcDbEntity
  8
0
100
AcDbBlockBegin
  2
*D17
 70
     1
 10
0.0
 20
0.0
 30
0.0
  3
*D17
  1

  0
LINE
  5
55C4
330
48B0
100
AcDbEntity
  8
AM_5 寸法線
 62
     3
100
AcDbLine
 10
616.2417059999998
 20
455.5140034999999
 30
0.0
 11
707.2417059999996
 21
455.5140034999999
 31
0.0
  0
LINE
  5
55C5
330
48B0
100
AcDbEntity
  8
AM_5 寸法線
 62
     3
100
AcDbLine
 10
616.2417059999998
 20
577.5140035000001
 30
0.0
 11
707.2417059999996
 21
577.5140035000001
 31
0.0
  0
LINE
  5
55C6
330
48B0
100
AcDbEntity
  8
AM_5 寸法線
 62
     3
100
AcDbLine
 10
705.6792059999996
 20
461.7640034999999
 30
0.0
 11
705.6792059999996
 21
571.2640035000001
 31
0.0
  0
INSERT
  5
55C7
330
48B0
100
AcDbEntity
  8
AM_5 寸法線
 62
     3
100
AcDbBlockReference
  2
_Open30
 10
705.6792059999996
 20
455.5140034999999
 30
0.0
 41
6.25
 42
6.25
 43
6.25
 50
270.0
  0
INSERT
  5
55C8
330
48B0
100
AcDbEntity
  8
AM_5 寸法線
 62
     3
100
AcDbBlockReference
  2
_Open30
 10
705.6792059999996
 20
577.5140035000001
 30
0.0
 41
6.25
 42
6.25
 43
6.25
 50
90.0
  0
MTEXT
  5
55C9
330
48B0
100
AcDbEntity
  8
AM_5 寸法線
 62
     3
100
AcDbMText
 10
697.5542059999996
 20
516.5140035000002
 30
0.0
 40
8.75
 41
0.0
 46
0.0
 71
     5
 72
     1
  1
122
  7
SEISA
 11
0.0000000000000001
 21
1.0
 31
0.0
 73
     1
 44
1.0
  0
POINT
  5
55CA
330
48B0
100
AcDbEntity
  8
Defpoints
 62
     0
100
AcDbPoint
 10
614.6792059999998
 20
455.5140034999999
 30
0.0
  0
POINT
  5
55CB
330
48B0
100
AcDbEntity
  8
Defpoints
 62
     0
100
AcDbPoint
 10
614.6792059999998
 20
577.5140035000001
 30
0.0
  0
POINT
  5
55CC
330
48B0
100
AcDbEntity
  8
Defpoints
 62
     0
100
AcDbPoint
 10
705.6792059999996
 20
577.5140035000001
 30
0.0
  0
ENDBLK
  5
48B2
330
48B0
100
AcDbEntity
  8
0
100
AcDbBlockEnd
  0
BLOCK
  5
4923
330
4922
100
AcDbEntity
  8
0
100
AcDbBlockBegin
  2
*D18
 70
     1
 10
0.0
 20
0.0
 30
0.0
  3
*D18
  1

  0
LINE
  5
492F
330
4922
100
AcDbEntity
  8
AM_5 寸法線
 62
     3
100
AcDbLine
 10
601.1417059999999
 20
621.5140035000001
 30
0.0
 11
732.2417059999996
 21
621.5140035000001
 31
0.0
  0
LINE
  5
4930
330
4922
100
AcDbEntity
  8
AM_5 寸法線
 62
     3
100
AcDbLine
 10
601.1417059999999
 20
411.5140035000001
 30
0.0
 11
732.2417059999996
 21
411.5140035000001
 31
0.0
  0
LINE
  5
4931
330
4922
100
AcDbEntity
  8
AM_5 寸法線
 62
     3
100
AcDbLine
 10
730.6792059999996
 20
615.2640035000001
 30
0.0
 11
730.6792059999996
 21
417.7640035000001
 31
0.0
  0
INSERT
  5
4932
330
4922
100
AcDbEntity
  8
AM_5 寸法線
 62
     3
100
AcDbBlockReference
  2
_Open30
 10
730.6792059999996
 20
621.5140035000001
 30
0.0
 41
6.25
 42
6.25
 43
6.25
 50
90.0
  0
INSERT
  5
4933
330
4922
100
AcDbEntity
  8
AM_5 寸法線
 62
     3
100
AcDbBlockReference
  2
_Open30
 10
730.6792059999996
 20
411.5140035000001
 30
0.0
 41
6.25
 42
6.25
 43
6.25
 50
270.0
  0
MTEXT
  5
4934
330
4922
100
AcDbEntity
  8
AM_5 寸法線
 62
     3
100
AcDbMText
 10
722.5542059999996
 20
516.5140035000002
 30
0.0
 40
8.75
 41
0.0
 46
0.0
 71
     5
 72
     1
  1
210
  7
SEISA
 11
0.0000000000000001
 21
1.0
 31
0.0
 73
     1
 44
1.0
  0
POINT
  5
4935
330
4922
100
AcDbEntity
  8
Defpoints
 62
     0
100
AcDbPoint
 10
599.5792059999999
 20
621.5140035000001
 30
0.0
  0
POINT
  5
4936
330
4922
100
AcDbEntity
  8
Defpoints
 62
     0
100
AcDbPoint
 10
599.5792059999999
 20
411.5140035000001
 30
0.0
  0
POINT
  5
4937
330
4922
100
AcDbEntity
  8
Defpoints
 62
     0
100
AcDbPoint
 10
730.6792059999996
 20
411.5140035000001
 30
0.0
  0
ENDBLK
  5
4924
330
4922
100
AcDbEntity
  8
0
100
AcDbBlockEnd
  0
BLOCK
  5
4AFA
330
4AF9
100
AcDbEntity
  8
0
100
AcDbBlockBegin
  2
*D19
 70
     1
 10
0.0
 20
0.0
 30
0.0
  3
*D19
  1

  0
LINE
  5
4B52
330
4AF9
100
AcDbEntity
  8
AM_5 寸法線
 62
     3
100
AcDbLine
 10
443.1792059999998
 20
532.0765035000001
 30
0.0
 11
443.1792059999998
 21
735.5765035000001
 31
0.0
  0
LINE
  5
4B53
330
4AF9
100
AcDbEntity
  8
AM_5 寸法線
 62
     3
100
AcDbLine
 10
643.1792059999998
 20
532.0765035000001
 30
0.0
 11
643.1792059999998
 21
735.5765035000001
 31
0.0
  0
LINE
  5
4B54
330
4AF9
100
AcDbEntity
  8
AM_5 寸法線
 62
     3
100
AcDbLine
 10
449.4292059999998
 20
734.0140035000001
 30
0.0
 11
636.9292059999998
 21
734.0140035000001
 31
0.0
  0
INSERT
  5
4B55
330
4AF9
100
AcDbEntity
  8
AM_5 寸法線
 62
     3
100
AcDbBlockReference
  2
_Open30
 10
443.1792059999998
 20
734.0140035000001
 30
0.0
 41
6.25
 42
6.25
 43
6.25
 50
180.0
  0
INSERT
  5
4B56
330
4AF9
100
AcDbEntity
  8
AM_5 寸法線
 62
     3
100
AcDbBlockReference
  2
_Open30
 10
643.1792059999998
 20
734.0140035000001
 30
0.0
 41
6.25
 42
6.25
 43
6.25
  0
MTEXT
  5
4B57
330
4AF9
100
AcDbEntity
  8
AM_5 寸法線
 62
     3
100
AcDbMText
 10
543.1792059999998
 20
742.1390035000001
 30
0.0
 40
8.75
 41
0.0
 46
0.0
 71
     5
 72
     1
  1
%%c200
  7
SEISA
 73
     1
 44
1.0
  0
POINT
  5
4B58
330
4AF9
100
AcDbEntity
  8
Defpoints
 62
     0
100
AcDbPoint
 10
443.1792059999998
 20
530.5140035000001
 30
0.0
  0
POINT
  5
4B59
330
4AF9
100
AcDbEntity
  8
Defpoints
 62
     0
100
AcDbPoint
 10
643.1792059999998
 20
530.5140035000001
 30
0.0
  0
POINT
  5
4B5A
330
4AF9
100
AcDbEntity
  8
Defpoints
 62
     0
100
AcDbPoint
 10
643.1792059999998
 20
734.0140035000001
 30
0.0
  0
ENDBLK
  5
4AFB
330
4AF9
100
AcDbEntity
  8
0
100
AcDbBlockEnd
  0
BLOCK
  5
4B12
330
4B11
100
AcDbEntity
  8
0
100
AcDbBlockBegin
  2
*D20
 70
     1
 10
0.0
 20
0.0
 30
0.0
  3
*D20
  1

  0
LINE
  5
4B49
330
4B11
100
AcDbEntity
  8
AM_5 寸法線
 62
     3
100
AcDbLine
 10
468.6792059999998
 20
576.0765035000003
 30
0.0
 11
468.6792059999998
 21
710.5765035000001
 31
0.0
  0
LINE
  5
4B4A
330
4B11
100
AcDbEntity
  8
AM_5 寸法線
 62
     3
100
AcDbLine
 10
617.6792059999997
 20
576.0765035000003
 30
0.0
 11
617.6792059999997
 21
710.5765035000001
 31
0.0
  0
LINE
  5
4B4B
330
4B11
100
AcDbEntity
  8
AM_5 寸法線
 62
     3
100
AcDbLine
 10
474.9292059999998
 20
709.0140035000001
 30
0.0
 11
611.4292059999997
 21
709.0140035000001
 31
0.0
  0
INSERT
  5
4B4C
330
4B11
100
AcDbEntity
  8
AM_5 寸法線
 62
     3
100
AcDbBlockReference
  2
_Open30
 10
468.6792059999998
 20
709.0140035000001
 30
0.0
 41
6.25
 42
6.25
 43
6.25
 50
180.0
  0
INSERT
  5
4B4D
330
4B11
100
AcDbEntity
  8
AM_5 寸法線
 62
     3
100
AcDbBlockReference
  2
_Open30
 10
617.6792059999997
 20
709.0140035000001
 30
0.0
 41
6.25
 42
6.25
 43
6.25
  0
MTEXT
  5
4B4E
330
4B11
100
AcDbEntity
  8
AM_5 寸法線
 62
     3
100
AcDbMText
 10
543.1792059999998
 20
717.1390035000001
 30
0.0
 40
8.75
 41
0.0
 46
0.0
 71
     5
 72
     1
  1
%%c149
  7
SEISA
 73
     1
 44
1.0
  0
POINT
  5
4B4F
330
4B11
100
AcDbEntity
  8
Defpoints
 62
     0
100
AcDbPoint
 10
468.6792059999998
 20
574.5140035000003
 30
0.0
  0
POINT
  5
4B50
330
4B11
100
AcDbEntity
  8
Defpoints
 62
     0
100
AcDbPoint
 10
617.6792059999997
 20
574.5140035000003
 30
0.0
  0
POINT
  5
4B51
330
4B11
100
AcDbEntity
  8
Defpoints
 62
     0
100
AcDbPoint
 10
617.6792059999997
 20
709.0140035000001
 30
0.0
  0
ENDBLK
  5
4B13
330
4B11
100
AcDbEntity
  8
0
100
AcDbBlockEnd
  0
BLOCK
  5
4B2A
330
4B29
100
AcDbEntity
  8
0
100
AcDbBlockBegin
  2
*D21
 70
     1
 10
0.0
 20
0.0
 30
0.0
  3
*D21
  1

  0
LINE
  5
4B40
330
4B29
100
AcDbEntity
  8
AM_5 寸法線
 62
     3
100
AcDbLine
 10
483.1792059999997
 20
590.0765035000001
 30
0.0
 11
483.1792059999997
 21
685.5765035000001
 31
0.0
  0
LINE
  5
4B41
330
4B29
100
AcDbEntity
  8
AM_5 寸法線
 62
     3
100
AcDbLine
 10
603.1792059999998
 20
590.0765035000001
 30
0.0
 11
603.1792059999998
 21
685.5765035000001
 31
0.0
  0
LINE
  5
4B42
330
4B29
100
AcDbEntity
  8
AM_5 寸法線
 62
     3
100
AcDbLine
 10
489.4292059999997
 20
684.0140035000001
 30
0.0
 11
596.9292059999998
 21
684.0140035000001
 31
0.0
  0
INSERT
  5
4B43
330
4B29
100
AcDbEntity
  8
AM_5 寸法線
 62
     3
100
AcDbBlockReference
  2
_Open30
 10
483.1792059999997
 20
684.0140035000001
 30
0.0
 41
6.25
 42
6.25
 43
6.25
 50
180.0
  0
INSERT
  5
4B44
330
4B29
100
AcDbEntity
  8
AM_5 寸法線
 62
     3
100
AcDbBlockReference
  2
_Open30
 10
603.1792059999998
 20
684.0140035000001
 30
0.0
 41
6.25
 42
6.25
 43
6.25
  0
MTEXT
  5
4B45
330
4B29
100
AcDbEntity
  8
AM_5 寸法線
 62
     3
100
AcDbMText
 10
543.1792059999998
 20
692.1390035000001
 30
0.0
 40
8.75
 41
0.0
 46
0.0
 71
     5
 72
     1
  1
%%c120
  7
SEISA
 73
     1
 44
1.0
  0
POINT
  5
4B46
330
4B29
100
AcDbEntity
  8
Defpoints
 62
     0
100
AcDbPoint
 10
483.1792059999997
 20
588.5140035000001
 30
0.0
  0
POINT
  5
4B47
330
4B29
100
AcDbEntity
  8
Defpoints
 62
     0
100
AcDbPoint
 10
603.1792059999998
 20
588.5140035000001
 30
0.0
  0
POINT
  5
4B48
330
4B29
100
AcDbEntity
  8
Defpoints
 62
     0
100
AcDbPoint
 10
603.1792059999998
 20
684.0140035000001
 30
0.0
  0
ENDBLK
  5
4B2B
330
4B29
100
AcDbEntity
  8
0
100
AcDbBlockEnd
  0
BLOCK
  5
4B5F
330
4B5E
100
AcDbEntity
  8
0
100
AcDbBlockBegin
  2
*D22
 70
     1
 10
0.0
 20
0.0
 30
0.0
  3
*D22
  1

  0
LINE
  5
582D
330
4B5E
100
AcDbEntity
  8
AM_5 寸法線
 62
     3
100
AcDbLine
 10
533.5653000076717
 20
411.5140035000001
 30
0.0
 11
531.8194582474317
 21
411.5140035000001
 31
0.0
  0
LINE
  5
582E
330
4B5E
100
AcDbEntity
  8
AM_5 寸法線
 62
     3
100
AcDbLine
 10
499.1846418852763
 20
511.5140035000002
 30
0.0
 11
534.9444582474317
 21
511.5140035000002
 31
0.0
  0
LINE
  5
582F
330
4B5E
100
AcDbEntity
  8
AM_5 寸法線
 62
     3
100
AcDbLine
 10
533.3819582474317
 20
417.7640035000001
 30
0.0
 11
533.3819582474317
 21
505.2640035000002
 31
0.0
  0
INSERT
  5
5830
330
4B5E
100
AcDbEntity
  8
AM_5 寸法線
 62
     3
100
AcDbBlockReference
  2
_Open30
 10
533.3819582474317
 20
411.5140035000001
 30
0.0
 41
6.25
 42
6.25
 43
6.25
 50
270.0
  0
INSERT
  5
5831
330
4B5E
100
AcDbEntity
  8
AM_5 寸法線
 62
     3
100
AcDbBlockReference
  2
_Open30
 10
533.3819582474317
 20
511.5140035000002
 30
0.0
 41
6.25
 42
6.25
 43
6.25
 50
90.0
  0
MTEXT
  5
5832
330
4B5E
100
AcDbEntity
  8
AM_5 寸法線
 62
     3
100
AcDbMText
 10
525.2569582474316
 20
461.5140035000002
 30
0.0
 40
8.75
 41
0.0
 46
0.0
 71
     5
 72
     1
  1
100
  7
SEISA
 11
0.0000000000000001
 21
1.0
 31
0.0
 73
     1
 44
1.0
  0
POINT
  5
5833
330
4B5E
100
AcDbEntity
  8
Defpoints
 62
     0
100
AcDbPoint
 10
535.1278000076717
 20
411.5140035000001
 30
0.0
  0
POINT
  5
5834
330
4B5E
100
AcDbEntity
  8
Defpoints
 62
     0
100
AcDbPoint
 10
497.6221418852763
 20
511.5140035000002
 30
0.0
  0
POINT
  5
5835
330
4B5E
100
AcDbEntity
  8
Defpoints
 62
     0
100
AcDbPoint
 10
533.3819582474317
 20
511.5140035000002
 30
0.0
  0
ENDBLK
  5
4B60
330
4B5E
100
AcDbEntity
  8
0
100
AcDbBlockEnd
  0
BLOCK
  5
4B77
330
4B76
100
AcDbEntity
  8
0
100
AcDbBlockBegin
  2
*D23
 70
     1
 10
0.0
 20
0.0
 30
0.0
  3
*D23
  1

  0
LINE
  5
5841
330
4B76
100
AcDbEntity
  8
AM_5 寸法線
 62
     3
100
AcDbLine
 10
499.0780224193748
 20
511.5140035000002
 30
0.0
 11
534.9444582474317
 21
511.5140035000002
 31
0.0
  0
LINE
  5
5842
330
4B76
100
AcDbEntity
  8
AM_5 寸法線
 62
     3
100
AcDbLine
 10
532.3142812633968
 20
521.5140035000001
 30
0.0
 11
531.8194582474317
 21
521.5140035000001
 31
0.0
  0
LINE
  5
5843
330
4B76
100
AcDbEntity
  8
AM_5 寸法線
 62
     3
100
AcDbLine
 10
533.3819582474317
 20
505.2640035000002
 30
0.0
 11
533.3819582474317
 21
499.0140035000002
 31
0.0
  0
LINE
  5
5844
330
4B76
100
AcDbEntity
  8
AM_5 寸法線
 62
     3
100
AcDbLine
 10
533.3819582474317
 20
527.7640035000001
 30
0.0
 11
533.3819582474317
 21
534.0140035000001
 31
0.0
  0
MTEXT
  5
5845
330
4B76
100
AcDbEntity
  8
AM_5 寸法線
 62
     3
100
AcDbMText
 10
525.3977809674751
 20
530.4487857428783
 30
0.0
 40
8.75
 41
0.0
 46
0.0
 71
     5
 72
     1
  1
10
  7
SEISA
 11
0.0000000000000001
 21
1.0
 31
0.0
 73
     1
 44
1.0
  0
LINE
  5
5846
330
4B76
100
AcDbEntity
  8
AM_5 寸法線
 62
     3
100
AcDbLine
 10
533.3819582474317
 20
511.5140035000002
 30
0.0
 11
533.3819582474317
 21
521.5140035000001
 31
0.0
  0
INSERT
  5
5847
330
4B76
100
AcDbEntity
  8
AM_5 寸法線
 62
     3
100
AcDbBlockReference
  2
_Open30
 10
533.3819582474317
 20
511.5140035000002
 30
0.0
 41
6.25
 42
6.25
 43
6.25
 50
90.0
  0
INSERT
  5
5848
330
4B76
100
AcDbEntity
  8
AM_5 寸法線
 62
     3
100
AcDbBlockReference
  2
_Open30
 10
533.3819582474317
 20
521.5140035000001
 30
0.0
 41
6.25
 42
6.25
 43
6.25
 50
270.0
  0
POINT
  5
5849
330
4B76
100
AcDbEntity
  8
Defpoints
 62
     0
100
AcDbPoint
 10
497.5155224193748
 20
511.5140035000002
 30
0.0
  0
POINT
  5
584A
330
4B76
100
AcDbEntity
  8
Defpoints
 62
     0
100
AcDbPoint
 10
533.8767812633968
 20
521.5140035000001
 30
0.0
  0
POINT
  5
584B
330
4B76
100
AcDbEntity
  8
Defpoints
 62
     0
100
AcDbPoint
 10
533.3819582474317
 20
521.5140035000001
 30
0.0
  0
ENDBLK
  5
4B78
330
4B76
100
AcDbEntity
  8
0
100
AcDbBlockEnd
  0
BLOCK
  5
4BAC
330
4BAB
100
AcDbEntity
  8
0
100
AcDbBlockBegin
  2
*D24
 70
     1
 10
0.0
 20
0.0
 30
0.0
  3
*D24
  1

  0
LINE
  5
578E
330
4BAB
100
AcDbEntity
  8
AM_5 寸法線
 62
     3
100
AcDbLine
 10
532.7919341016921
 20
521.5140035000001
 30
0.0
 11
531.8194582474317
 21
521.5140035000001
 31
0.0
  0
LINE
  5
578F
330
4BAB
100
AcDbEntity
  8
AM_5 寸法線
 62
     3
100
AcDbLine
 10
532.7919341016921
 20
621.5140035000001
 30
0.0
 11
531.8194582474317
 21
621.5140035000001
 31
0.0
  0
LINE
  5
5790
330
4BAB
100
AcDbEntity
  8
AM_5 寸法線
 62
     3
100
AcDbLine
 10
533.3819582474317
 20
527.7640035000001
 30
0.0
 11
533.3819582474317
 21
615.2640035000001
 31
0.0
  0
INSERT
  5
5791
330
4BAB
100
AcDbEntity
  8
AM_5 寸法線
 62
     3
100
AcDbBlockReference
  2
_Open30
 10
533.3819582474317
 20
521.5140035000001
 30
0.0
 41
6.25
 42
6.25
 43
6.25
 50
270.0
  0
INSERT
  5
5792
330
4BAB
100
AcDbEntity
  8
AM_5 寸法線
 62
     3
100
AcDbBlockReference
  2
_Open30
 10
533.3819582474317
 20
621.5140035000001
 30
0.0
 41
6.25
 42
6.25
 43
6.25
 50
90.0
  0
MTEXT
  5
5793
330
4BAB
100
AcDbEntity
  8
AM_5 寸法線
 62
     3
100
AcDbMText
 10
525.2569582474316
 20
571.5140035000002
 30
0.0
 40
8.75
 41
0.0
 46
0.0
 71
     5
 72
     1
  1
100
  7
SEISA
 11
0.0000000000000001
 21
1.0
 31
0.0
 73
     1
 44
1.0
  0
POINT
  5
5794
330
4BAB
100
AcDbEntity
  8
Defpoints
 62
     0
100
AcDbPoint
 10
534.3544341016921
 20
521.5140035000001
 30
0.0
  0
POINT
  5
5795
330
4BAB
100
AcDbEntity
  8
Defpoints
 62
     0
100
AcDbPoint
 10
534.3544341016921
 20
621.5140035000001
 30
0.0
  0
POINT
  5
5796
330
4BAB
100
AcDbEntity
  8
Defpoints
 62
     0
100
AcDbPoint
 10
533.3819582474317
 20
621.5140035000001
 30
0.0
  0
ENDBLK
  5
4BAD
330
4BAB
100
AcDbEntity
  8
0
100
AcDbBlockEnd
  0
BLOCK
  5
4BC4
330
4BC3
100
AcDbEntity
  8
0
100
AcDbBlockBegin
  2
*D25
 70
     1
 10
0.0
 20
0.0
 30
0.0
  3
*D25
  1

  0
LINE
  5
4C1B
330
4BC3
100
AcDbEntity
  8
AM_5 寸法線
 62
     3
100
AcDbLine
 10
484.7417059999997
 20
468.5140035000001
 30
0.0
 11
500.1249999999997
 21
468.5140035000001
 31
0.0
  0
LINE
  5
4C1C
330
4BC3
100
AcDbEntity
  8
AM_5 寸法線
 62
     3
100
AcDbLine
 10
484.2417059999998
 20
471.5140035000001
 30
0.0
 11
500.1249999999997
 21
471.5140035000001
 31
0.0
  0
LINE
  5
4C1D
330
4BC3
100
AcDbEntity
  8
AM_5 寸法線
 62
     3
100
AcDbLine
 10
498.5624999999997
 20
477.7640035000001
 30
0.0
 11
498.5624999999997
 21
484.0140035000001
 31
0.0
  0
LINE
  5
4C1E
330
4BC3
100
AcDbEntity
  8
AM_5 寸法線
 62
     3
100
AcDbLine
 10
498.5624999999997
 20
462.2640035000001
 30
0.0
 11
498.5624999999997
 21
443.2640035000002
 31
0.0
  0
LINE
  5
4C1F
330
4BC3
100
AcDbEntity
  8
AM_5 寸法線
 62
     3
100
AcDbLine
 10
498.5624999999997
 20
471.5140035000001
 30
0.0
 11
498.5624999999997
 21
468.5140035000001
 31
0.0
  0
INSERT
  5
4C20
330
4BC3
100
AcDbEntity
  8
AM_5 寸法線
 62
     3
100
AcDbBlockReference
  2
_Open30
 10
498.5624999999997
 20
471.5140035000001
 30
0.0
 41
6.25
 42
6.25
 43
6.25
 50
270.0
  0
INSERT
  5
4C21
330
4BC3
100
AcDbEntity
  8
AM_5 寸法線
 62
     3
100
AcDbBlockReference
  2
_Open30
 10
498.5624999999997
 20
468.5140035000001
 30
0.0
 41
6.25
 42
6.25
 43
6.25
 50
90.0
  0
MTEXT
  5
4C22
330
4BC3
100
AcDbEntity
  8
AM_5 寸法線
 62
     3
100
AcDbMText
 10
490.4374999999998
 20
449.6390035000001
 30
0.0
 40
8.75
 41
0.0
 46
0.0
 71
     5
 72
     1
  1
3
  7
SEISA
 11
0.0000000000000001
 21
1.0
 31
0.0
 73
     1
 44
1.0
  0
POINT
  5
4C23
330
4BC3
100
AcDbEntity
  8
Defpoints
 62
     0
100
AcDbPoint
 10
483.1792059999997
 20
468.5140035000001
 30
0.0
  0
POINT
  5
4C24
102
{ACAD_REACTORS
330
5661
102
}
330
4BC3
100
AcDbEntity
  8
Defpoints
 62
     0
100
AcDbPoint
 10
482.6792059999998
 20
471.5140035000001
 30
0.0
  0
POINT
  5
4C25
330
4BC3
100
AcDbEntity
  8
Defpoints
 62
     0
100
AcDbPoint
 10
498.5624999999997
 20
471.5140035000001
 30
0.0
  0
ENDBLK
  5
4BC5
330
4BC3
100
AcDbEntity
  8
0
100
AcDbBlockEnd
  0
BLOCK
  5
5594
330
5593
100
AcDbEntity
  8
0
100
AcDbBlockBegin
  2
*D26
 70
     1
 10
0.0
 20
0.0
 30
0.0
  3
*D26
  1

  0
LINE
  5
55B9
330
5593
100
AcDbEntity
  8
AM_5 寸法線
 62
     3
100
AcDbLine
 10
481.6167059999997
 20
406.5140035000001
 30
0.0
 11
444.1167059999997
 21
406.5140035000001
 31
0.0
  0
LINE
  5
55BA
330
5593
100
AcDbEntity
  8
AM_5 寸法線
 62
     3
100
AcDbLine
 10
485.2167059999998
 20
411.5140035000001
 30
0.0
 11
444.1167059999997
 21
411.5140035000001
 31
0.0
  0
LINE
  5
55BB
330
5593
100
AcDbEntity
  8
AM_5 寸法線
 62
     3
100
AcDbLine
 10
445.6792059999997
 20
400.2640035000001
 30
0.0
 11
445.6792059999997
 21
394.0140035000002
 31
0.0
  0
LINE
  5
55BC
330
5593
100
AcDbEntity
  8
AM_5 寸法線
 62
     3
100
AcDbLine
 10
445.6792059999997
 20
417.7640035000001
 30
0.0
 11
445.6792059999997
 21
436.7640035000001
 31
0.0
  0
LINE
  5
55BD
330
5593
100
AcDbEntity
  8
AM_5 寸法線
 62
     3
100
AcDbLine
 10
445.6792059999997
 20
406.5140035000001
 30
0.0
 11
445.6792059999997
 21
411.5140035000001
 31
0.0
  0
INSERT
  5
55BE
330
5593
100
AcDbEntity
  8
AM_5 寸法線
 62
     3
100
AcDbBlockReference
  2
_Open30
 10
445.6792059999997
 20
406.5140035000001
 30
0.0
 41
6.25
 42
6.25
 43
6.25
 50
90.0
  0
INSERT
  5
55BF
330
5593
100
AcDbEntity
  8
AM_5 寸法線
 62
     3
100
AcDbBlockReference
  2
_Open30
 10
445.6792059999997
 20
411.5140035000001
 30
0.0
 41
6.25
 42
6.25
 43
6.25
 50
270.0
  0
MTEXT
  5
55C0
330
5593
100
AcDbEntity
  8
AM_5 寸法線
 62
     3
100
AcDbMText
 10
437.5542059999996
 20
430.3890035000002
 30
0.0
 40
8.75
 41
0.0
 46
0.0
 71
     5
 72
     1
  1
5
  7
SEISA
 11
0.0000000000000001
 21
1.0
 31
0.0
 73
     1
 44
1.0
  0
POINT
  5
55C1
330
5593
100
AcDbEntity
  8
Defpoints
 62
     0
100
AcDbPoint
 10
483.1792059999997
 20
406.5140035000001
 30
0.0
  0
POINT
  5
55C2
330
5593
100
AcDbEntity
  8
Defpoints
 62
     0
100
AcDbPoint
 10
486.7792059999998
 20
411.5140035000001
 30
0.0
  0
POINT
  5
55C3
330
5593
100
AcDbEntity
  8
Defpoints
 62
     0
100
AcDbPoint
 10
445.6792059999997
 20
411.5140035000001
 30
0.0
  0
ENDBLK
  5
5595
330
5593
100
AcDbEntity
  8
0
100
AcDbBlockEnd
  0
BLOCK
  5
5654
330
5653
100
AcDbEntity
  8
0
100
AcDbBlockBegin
  2
*D27
 70
     1
 10
0.0
 20
0.0
 30
0.0
  3
*D27
  1

  0
LINE
  5
56D2
330
5653
100
AcDbEntity
  8
AM_5 寸法線
 62
     3
100
AcDbLine
 10
484.2417059999998
 20
471.5140035000001
 30
0.0
 11
500.1250000000001
 21
471.5140035000001
 31
0.0
  0
LINE
  5
56D3
330
5653
100
AcDbEntity
  8
AM_5 寸法線
 62
     3
100
AcDbLine
 10
485.2417059999996
 20
495.0140035000002
 30
0.0
 11
500.1250000000001
 21
495.0140035000002
 31
0.0
  0
LINE
  5
56D4
330
5653
100
AcDbEntity
  8
AM_5 寸法線
 62
     3
100
AcDbLine
 10
498.5625000000001
 20
477.7640035000001
 30
0.0
 11
498.5625000000001
 21
488.7640035000002
 31
0.0
  0
LINE
  5
56D5
330
5653
100
AcDbEntity
  8
AM_5 寸法線
 62
     3
100
AcDbLine
 10
498.5625000000001
 20
483.2640035000001
 30
0.0
 11
513.3560146533498
 21
463.4423801097827
 31
0.0
  0
LINE
  5
56D6
330
5653
100
AcDbEntity
  8
AM_5 寸法線
 62
     3
100
AcDbLine
 10
513.3560146533498
 20
463.4423801097827
 30
0.0
 11
513.3560146533498
 21
431.9423801097825
 31
0.0
  0
MTEXT
  5
56D7
330
5653
100
AcDbEntity
  8
AM_5 寸法線
 62
     3
100
AcDbMText
 10
505.2310146533496
 20
447.6923801097827
 30
0.0
 40
8.75
 41
0.0
 46
0.0
 71
     5
 72
     1
  1
23.5
  7
SEISA
 11
0.0000000000000001
 21
1.0
 31
0.0
 73
     1
 44
1.0
  0
INSERT
  5
56D8
330
5653
100
AcDbEntity
  8
AM_5 寸法線
 62
     3
100
AcDbBlockReference
  2
_Open30
 10
498.5625000000001
 20
471.5140035000001
 30
0.0
 41
6.25
 42
6.25
 43
6.25
 50
270.0
  0
INSERT
  5
56D9
330
5653
100
AcDbEntity
  8
AM_5 寸法線
 62
     3
100
AcDbBlockReference
  2
_Open30
 10
498.5625000000001
 20
495.0140035000002
 30
0.0
 41
6.25
 42
6.25
 43
6.25
 50
90.0
  0
POINT
  5
56DA
330
5653
100
AcDbEntity
  8
Defpoints
 62
     0
100
AcDbPoint
 10
482.6792059999998
 20
471.5140035000001
 30
0.0
  0
POINT
  5
56DB
330
5653
100
AcDbEntity
  8
Defpoints
 62
     0
100
AcDbPoint
 10
483.6792059999996
 20
495.0140035000002
 30
0.0
  0
POINT
  5
56DC
330
5653
100
AcDbEntity
  8
Defpoints
 62
     0
100
AcDbPoint
 10
498.5625000000001
 20
495.0140035000002
 30
0.0
  0
ENDBLK
  5
5655
330
5653
100
AcDbEntity
  8
0
100
AcDbBlockEnd
  0
BLOCK
  5
5682
330
5681
100
AcDbEntity
  8
0
100
AcDbBlockBegin
  2
*D28
 70
     1
 10
0.0
 20
0.0
 30
0.0
  3
*D28
  1

  0
LINE
  5
56A7
330
5681
100
AcDbEntity
  8
AM_5 寸法線
 62
     3
100
AcDbLine
 10
485.2417059999996
 20
495.0140035000002
 30
0.0
 11
500.1250000000005
 21
495.0140035000002
 31
0.0
  0
LINE
  5
56A8
330
5681
100
AcDbEntity
  8
AM_5 寸法線
 62
     3
100
AcDbLine
 10
486.2417059999996
 20
511.5140035000002
 30
0.0
 11
500.1250000000005
 21
511.5140035000002
 31
0.0
  0
LINE
  5
56A9
330
5681
100
AcDbEntity
  8
AM_5 寸法線
 62
     3
100
AcDbLine
 10
498.5625000000005
 20
488.7640035000002
 30
0.0
 11
498.5625000000005
 21
482.5140035000002
 31
0.0
  0
LINE
  5
56AA
330
5681
100
AcDbEntity
  8
AM_5 寸法線
 62
     3
100
AcDbLine
 10
498.5625000000005
 20
517.7640035000002
 30
0.0
 11
498.5625000000005
 21
554.3890035000002
 31
0.0
  0
LINE
  5
56AB
330
5681
100
AcDbEntity
  8
AM_5 寸法線
 62
     3
100
AcDbLine
 10
498.5625000000005
 20
495.0140035000002
 30
0.0
 11
498.5625000000005
 21
511.5140035000002
 31
0.0
  0
INSERT
  5
56AC
330
5681
100
AcDbEntity
  8
AM_5 寸法線
 62
     3
100
AcDbBlockReference
  2
_Open30
 10
498.5625000000005
 20
495.0140035000002
 30
0.0
 41
6.25
 42
6.25
 43
6.25
 50
90.0
  0
INSERT
  5
56AD
330
5681
100
AcDbEntity
  8
AM_5 寸法線
 62
     3
100
AcDbBlockReference
  2
_Open30
 10
498.5625000000005
 20
511.5140035000002
 30
0.0
 41
6.25
 42
6.25
 43
6.25
 50
270.0
  0
MTEXT
  5
56AE
330
5681
100
AcDbEntity
  8
AM_5 寸法線
 62
     3
100
AcDbMText
 10
490.4375000000004
 20
539.2015035000001
 30
0.0
 40
8.75
 41
0.0
 46
0.0
 71
     5
 72
     1
  1
16.5
  7
SEISA
 11
0.0000000000000001
 21
1.0
 31
0.0
 73
     1
 44
1.0
  0
POINT
  5
56AF
330
5681
100
AcDbEntity
  8
Defpoints
 62
     0
100
AcDbPoint
 10
483.6792059999996
 20
495.0140035000002
 30
0.0
  0
POINT
  5
56B0
330
5681
100
AcDbEntity
  8
Defpoints
 62
     0
100
AcDbPoint
 10
484.6792059999996
 20
511.5140035000002
 30
0.0
  0
POINT
  5
56B1
330
5681
100
AcDbEntity
  8
Defpoints
 62
     0
100
AcDbPoint
 10
498.5625000000005
 20
511.5140035000002
 30
0.0
  0
ENDBLK
  5
5683
330
5681
100
AcDbEntity
  8
0
100
AcDbBlockEnd
  0
BLOCK
  5
57B7
330
57B6
100
AcDbEntity
  8
0
100
AcDbBlockBegin
  2
ケース
 70
     0
 10
0.0
 20
0.0
 30
0.0
  3
ケース
  1

  0
LINE
  5
57B9
330
57B6
100
AcDbEntity
  8
AM_11 想像線
 48
0.1
100
AcDbLine
 10
11.5
 20
0.0
 30
0.0
 11
11.5
 21
-14.28596795423482
 31
0.0
  0
LINE
  5
57BA
330
57B6
100
AcDbEntity
  8
AM_11 想像線
 48
0.1
100
AcDbLine
 10
9.5
 20
0.0
 30
0.0
 11
9.5
 21
-17.28596795423482
 31
0.0
  0
LINE
  5
57BB
330
57B6
100
AcDbEntity
  8
AM_11 想像線
 48
0.1
100
AcDbLine
 10
0.0
 20
0.0
 30
0.0
 11
0.0
 21
-29.78596795423482
 31
0.0
  0
LINE
  5
57BC
330
57B6
100
AcDbEntity
  8
AM_11 想像線
 48
0.1
100
AcDbLine
 10
7.0
 20
0.0
 30
0.0
 11
7.0
 21
-15.41994195423484
 31
0.0
  0
LINE
  5
57BD
330
57B6
100
AcDbEntity
  8
AM_11 想像線
 48
0.1
100
AcDbLine
 10
9.80000000000018
 20
-29.58596795423478
 30
0.0
 11
9.80000000000018
 21
-22.98596795423481
 31
0.0
  0
ARC
  5
57BE
330
57B6
100
AcDbEntity
  8
AM_11 想像線
 48
0.1
100
AcDbCircle
 10
10.30000000000018
 20
-29.58596795423478
 30
0.0
 40
0.5
100
AcDbArc
 50
180.0
 51
270.0
  0
LINE
  5
57BF
102
{ACAD_REACTORS
330
55A2
102
}
330
57B6
100
AcDbEntity
  8
AM_11 想像線
 48
0.1
100
AcDbLine
 10
3.0
 20
-32.78596795423482
 30
0.0
 11
14.5
 21
-32.78596795423482
 31
0.0
  0
ARC
  5
57C0
330
57B6
100
AcDbEntity
  8
AM_11 想像線
 48
0.1
100
AcDbCircle
 10
3.0
 20
-29.78596795423482
 30
0.0
 40
3.0
100
AcDbArc
 50
180.0
 51
270.0
  0
LINE
  5
57C1
330
57B6
100
AcDbEntity
  8
AM_11 想像線
 48
0.1
100
AcDbLine
 10
14.5
 20
-30.08596795423478
 30
0.0
 11
10.30000000000018
 21
-30.08596795423478
 31
0.0
  0
LINE
  5
57C2
330
57B6
100
AcDbEntity
  8
AM_11 想像線
 48
0.1
100
AcDbLine
 10
13.25
 20
-32.78596795423482
 30
0.0
 11
13.25
 21
-30.08596795423478
 31
0.0
  0
LINE
  5
57C3
330
57B6
100
AcDbEntity
  8
AM_11 想像線
 48
0.1
100
AcDbLine
 10
8.18701400000009
 20
-15.28596795423482
 30
0.0
 11
10.5
 21
-15.28596795423482
 31
0.0
  0
ARC
  5
57C4
330
57B6
100
AcDbEntity
  8
AM_11 想像線
 48
0.1
100
AcDbCircle
 10
10.30000000000018
 20
-22.98596795423481
 30
0.0
 40
0.5
100
AcDbArc
 50
90.0
 51
180.0
  0
LINE
  5
57C5
330
57B6
100
AcDbEntity
  8
AM_11 想像線
 48
0.1
100
AcDbLine
 10
14.5
 20
-19.78596795423482
 30
0.0
 11
7.5
 21
-19.78596795423482
 31
0.0
  0
LINE
  5
57C6
330
57B6
100
AcDbEntity
  8
AM_11 想像線
 48
0.1
100
AcDbLine
 10
8.18701400000009
 20
-15.28596795423482
 30
0.0
 11
7.5
 21
-15.28596795423482
 31
0.0
  0
ARC
  5
57C7
330
57B6
100
AcDbEntity
  8
AM_11 想像線
 48
0.1
100
AcDbCircle
 10
7.5
 20
-16.28596795423482
 30
0.0
 40
1.0
100
AcDbArc
 50
90.0
 51
180.0
  0
LINE
  5
57C8
330
57B6
100
AcDbEntity
  8
AM_11 想像線
 48
0.1
100
AcDbLine
 10
6.5
 20
-18.78596795423482
 30
0.0
 11
6.5
 21
-16.28596795423482
 31
0.0
  0
ARC
  5
57C9
330
57B6
100
AcDbEntity
  8
AM_11 想像線
 48
0.1
100
AcDbCircle
 10
7.5
 20
-18.78596795423482
 30
0.0
 40
1.0
100
AcDbArc
 50
180.0
 51
270.0
  0
LINE
  5
57CA
330
57B6
100
AcDbEntity
  8
AM_11 想像線
 48
0.1
100
AcDbLine
 10
10.5
 20
-15.28596795423482
 30
0.0
 11
11.5
 21
-14.28596795423482
 31
0.0
  0
LINE
  5
57CB
330
57B6
100
AcDbEntity
  8
AM_11 想像線
 48
0.1
100
AcDbLine
 10
13.25
 20
-22.48596795423481
 30
0.0
 11
13.25
 21
-19.78596795423482
 31
0.0
  0
LINE
  5
57CC
330
57B6
100
AcDbEntity
  8
AM_11 想像線
 48
0.1
100
AcDbLine
 10
10.30000000000018
 20
-22.48596795423481
 30
0.0
 11
14.5
 21
-22.48596795423481
 31
0.0
  0
ENDBLK
  5
57B8
330
57B6
100
AcDbEntity
  8
0
100
AcDbBlockEnd
  0
ENDSEC
  0
SECTION
  2
ENTITIES
  0
LINE
  5
3D65
330
1F
100
AcDbEntity
  8
AM_7 中心線
100
AcDbLine
 10
543.1792059999998
 20
406.5140035000001
 30
0.0
 11
543.1792059999998
 21
626.5140035000001
 31
0.0
  0
INSERT
  5
417D
102
{ACAD_REACTORS
330
46D1
330
4938
330
4B74
330
4BDD
330
55A2
330
5661
330
5690
102
}
330
1F
100
AcDbEntity
  8
AM_0 外形線1
100
AcDbBlockReference
  2
センタＡ SMVH200
 10
543.1792059999998
 20
511.5140035000002
 30
0.0
  0
INSERT
  5
4274
102
{ACAD_REACTORS
330
4845
330
48C6
330
4BDD
102
}
330
1F
100
AcDbEntity
  8
AM_0 外形線1
100
AcDbBlockReference
  2
ケースＡ SMVH200
 10
543.1792059999998
 20
516.5140035000002
 30
0.0
  0
INSERT
  5
4342
102
{ACAD_REACTORS
330
4938
330
4B3F
330
4B90
330
4BC1
102
}
330
1F
100
AcDbEntity
  8
AM_0 外形線1
100
AcDbBlockReference
  2
センタB SMVH200
 10
543.1792059999998
 20
521.5140035000001
 30
0.0
  0
INSERT
  5
44CA
102
{ACAD_REACTORS
330
4845
330
4861
330
4B0F
330
4B27
102
}
330
1F
100
AcDbEntity
  8
AM_0 外形線1
100
AcDbBlockReference
  2
ケースＢ SMVH200
 10
543.1792059999998
 20
516.5140035000002
 30
0.0
  0
INSERT
  5
45BE
330
1F
100
AcDbEntity
  8
AM_0 外形線1
100
AcDbBlockReference
  2
リーマボルト SMVH200 M10
 10
632.1792059999998
 20
501.5140035000001
 30
0.0
  0
INSERT
  5
4632
102
{ACAD_REACTORS
330
4B74
330
4B90
102
}
330
1F
100
AcDbEntity
  8
AM_0 外形線1
100
AcDbBlockReference
  2
スラストプレ－ト SMVH200
 10
543.1792059999998
 20
511.5140035000002
 30
0.0
  0
DIMENSION
  5
46BA
102
{ACAD_XDICTIONARY
360
46C7
102
}
102
{ACAD_REACTORS
330
46D1
102
}
330
1F
100
AcDbEntity
  8
AM_5 寸法線
100
AcDbDimension
  2
*D14
 10
603.1792059999998
 20
349.0140035000002
 30
0.0
 11
543.1792059999998
 21
357.1390035000002
 31
0.0
 70
    32
  1
%%c<>
 71
     5
 42
120.0
 73
     0
 74
     0
 75
     0
  3
SEISA$0
100
AcDbAlignedDimension
 13
483.1792059999997
 23
444.5140035000001
 33
0.0
 14
603.1792059999998
 24
444.5140035000001
 34
0.0
100
AcDbRotatedDimension
1001
ACAD_DSTYLE_DIMINSPECT
1070
   396
1000
100%
1070
   395
1000

1070
   394
1070
    33
1070
   393
1070
     0
  0
DIMENSION
  5
482A
102
{ACAD_XDICTIONARY
360
4839
102
}
102
{ACAD_REACTORS
330
4845
102
}
330
1F
100
AcDbEntity
  8
AM_5 寸法線
100
AcDbDimension
  2
*D15
 10
680.6792060000002
 20
516.5140035000002
 30
0.0
 11
680.6792060000001
 21
479.4515035000001
 31
0.0
 70
   160
 71
     5
 42
14.99999999999994
 73
     0
 74
     0
 75
     0
  3
SEISA$0
100
AcDbAlignedDimension
 13
642.1792059999997
 23
501.5140035000001
 33
0.0
 14
642.1792059999997
 24
516.5140035000002
 34
0.0
 50
90.0
100
AcDbRotatedDimension
1001
ACAD_DSTYLE_DIMINSPECT
1070
   396
1000
100%
1070
   395
1000

1070
   394
1070
    33
1070
   393
1070
     0
1001
ACAD
1000
DSTYLE
1002
{
1070
   173
1070
     1
1070
   342
1005
0
1070
   343
1005
69
1070
   344
1005
34EF
1002
}
  0
DIMENSION
  5
4846
102
{ACAD_XDICTIONARY
360
4855
102
}
102
{ACAD_REACTORS
330
4861
102
}
330
1F
100
AcDbEntity
  8
AM_5 寸法線
100
AcDbDimension
  2
*D16
 10
680.6792060000001
 20
516.5140035000002
 30
0.0
 11
680.6792059999999
 21
553.5765035000003
 31
0.0
 70
   160
 71
     5
 42
15.0
 73
     0
 74
     0
 75
     0
  3
SEISA$0
100
AcDbAlignedDimension
 13
642.1792059999997
 23
531.5140035000001
 33
0.0
 14
642.1792059999997
 24
516.5140035000002
 34
0.0
 50
90.0
100
AcDbRotatedDimension
1001
ACAD_DSTYLE_DIMINSPECT
1070
   396
1000
100%
1070
   395
1000

1070
   394
1070
    33
1070
   393
1070
     0
1001
ACAD
1000
DSTYLE
1002
{
1070
   173
1070
     1
1070
   342
1005
0
1070
   343
1005
69
1070
   344
1005
34EF
1002
}
  0
DIMENSION
  5
48AF
102
{ACAD_XDICTIONARY
360
48BC
102
}
102
{ACAD_REACTORS
330
48C6
102
}
330
1F
100
AcDbEntity
  8
AM_5 寸法線
100
AcDbDimension
  2
*D17
 10
705.6792059999996
 20
577.5140035000001
 30
0.0
 11
697.5542059999996
 21
516.5140035000002
 31
0.0
 70
    32
 71
     5
 42
122.0
 73
     0
 74
     0
 75
     0
  3
SEISA$0
100
AcDbAlignedDimension
 13
614.6792059999998
 23
455.5140034999999
 33
0.0
 14
614.6792059999998
 24
577.5140035000001
 34
0.0
 50
90.0
100
AcDbRotatedDimension
  0
DIMENSION
  5
4921
102
{ACAD_XDICTIONARY
360
492E
102
}
102
{ACAD_REACTORS
330
4938
102
}
330
1F
100
AcDbEntity
  8
AM_5 寸法線
100
AcDbDimension
  2
*D18
 10
730.6792059999996
 20
411.5140035000001
 30
0.0
 11
722.5542059999996
 21
516.5140035000002
 31
0.0
 70
    32
 71
     5
 42
210.0
 73
     0
 74
     0
 75
     0
  3
SEISA$0
100
AcDbAlignedDimension
 13
599.5792059999999
 23
621.5140035000001
 33
0.0
 14
599.5792059999999
 24
411.5140035000001
 34
0.0
 50
90.0
100
AcDbRotatedDimension
  0
DIMENSION
  5
4AF8
102
{ACAD_XDICTIONARY
360
4B05
102
}
102
{ACAD_REACTORS
330
4B0F
102
}
330
1F
100
AcDbEntity
  8
AM_5 寸法線
100
AcDbDimension
  2
*D19
 10
643.1792059999998
 20
734.0140035000001
 30
0.0
 11
543.1792059999998
 21
742.1390035000001
 31
0.0
 70
    32
  1
%%c<>
 71
     5
 42
200.0
 73
     0
 74
     0
 75
     0
  3
SEISA$0
100
AcDbAlignedDimension
 13
443.1792059999998
 23
530.5140035000001
 33
0.0
 14
643.1792059999998
 24
530.5140035000001
 34
0.0
100
AcDbRotatedDimension
1001
ACAD_DSTYLE_DIMINSPECT
1070
   396
1000
100%
1070
   395
1000

1070
   394
1070
    33
1070
   393
1070
     0
  0
DIMENSION
  5
4B10
102
{ACAD_XDICTIONARY
360
4B1D
102
}
102
{ACAD_REACTORS
330
4B27
102
}
330
1F
100
AcDbEntity
  8
AM_5 寸法線
100
AcDbDimension
  2
*D20
 10
617.6792059999997
 20
709.0140035000001
 30
0.0
 11
543.1792059999998
 21
717.1390035000001
 31
0.0
 70
    32
  1
%%c<>
 71
     5
 42
149.0
 73
     0
 74
     0
 75
     0
  3
SEISA$0
100
AcDbAlignedDimension
 13
468.6792059999998
 23
574.5140035000003
 33
0.0
 14
617.6792059999997
 24
574.5140035000003
 34
0.0
100
AcDbRotatedDimension
1001
ACAD_DSTYLE_DIMINSPECT
1070
   396
1000
100%
1070
   395
1000

1070
   394
1070
    33
1070
   393
1070
     0
  0
DIMENSION
  5
4B28
102
{ACAD_XDICTIONARY
360
4B35
102
}
102
{ACAD_REACTORS
330
4B3F
102
}
330
1F
100
AcDbEntity
  8
AM_5 寸法線
100
AcDbDimension
  2
*D21
 10
603.1792059999998
 20
684.0140035000001
 30
0.0
 11
543.1792059999998
 21
692.1390035000001
 31
0.0
 70
    32
  1
%%c<>
 71
     5
 42
120.0
 73
     0
 74
     0
 75
     0
  3
SEISA$0
100
AcDbAlignedDimension
 13
483.1792059999997
 23
588.5140035000001
 33
0.0
 14
603.1792059999998
 24
588.5140035000001
 34
0.0
100
AcDbRotatedDimension
1001
ACAD_DSTYLE_DIMINSPECT
1070
   396
1000
100%
1070
   395
1000

1070
   394
1070
    33
1070
   393
1070
     0
  0
DIMENSION
  5
4B5D
102
{ACAD_XDICTIONARY
360
4B6A
102
}
102
{ACAD_REACTORS
330
4B74
102
}
330
1F
100
AcDbEntity
  8
AM_5 寸法線
100
AcDbDimension
  2
*D22
 10
533.3819582474317
 20
511.5140035000002
 30
0.0
 11
525.2569582474316
 21
461.5140035000002
 31
0.0
 70
    32
 71
     5
 42
100.0
 73
     0
 74
     0
 75
     0
  3
SEISA$0
100
AcDbAlignedDimension
 13
535.1278000076717
 23
411.5140035000001
 33
0.0
 14
497.6221418852763
 24
511.5140035000002
 34
0.0
 50
90.0
100
AcDbRotatedDimension
  0
DIMENSION
  5
4B75
102
{ACAD_XDICTIONARY
360
4B84
102
}
102
{ACAD_REACTORS
330
4B90
102
}
330
1F
100
AcDbEntity
  8
AM_5 寸法線
100
AcDbDimension
  2
*D23
 10
533.3819582474317
 20
521.5140035000001
 30
0.0
 11
525.3977809674751
 21
530.4487857428783
 31
0.0
 70
   160
 71
     5
 42
10.0
 73
     0
 74
     0
 75
     0
  3
SEISA$0
100
AcDbAlignedDimension
 13
497.5155224193748
 23
511.5140035000002
 33
0.0
 14
533.8767812633968
 24
521.5140035000001
 34
0.0
 50
90.0
100
AcDbRotatedDimension
1001
ACAD
1000
DSTYLE
1002
{
1070
   279
1070
     2
1002
}
  0
DIMENSION
  5
4BAA
102
{ACAD_XDICTIONARY
360
4BB7
102
}
102
{ACAD_REACTORS
330
4BC1
102
}
330
1F
100
AcDbEntity
  8
AM_5 寸法線
100
AcDbDimension
  2
*D24
 10
533.3819582474317
 20
621.5140035000001
 30
0.0
 11
525.2569582474316
 21
571.5140035000002
 31
0.0
 70
    32
 71
     5
 42
100.0
 73
     0
 74
     0
 75
     0
  3
SEISA$0
100
AcDbAlignedDimension
 13
534.3544341016921
 23
521.5140035000001
 33
0.0
 14
534.3544341016921
 24
621.5140035000001
 34
0.0
 50
90.0
100
AcDbRotatedDimension
  0
DIMENSION
  5
4BC2
102
{ACAD_XDICTIONARY
360
4BD1
102
}
102
{ACAD_REACTORS
330
4BDD
330
5661
102
}
330
1F
100
AcDbEntity
  8
AM_5 寸法線
100
AcDbDimension
  2
*D25
 10
498.5624999999997
 20
471.5140035000001
 30
0.0
 11
498.5624999999997
 21
449.6390035000001
 31
0.0
 70
   160
 71
     5
 42
3.0
 73
     0
 74
     0
 75
     0
  3
SEISA$0
100
AcDbAlignedDimension
 13
483.1792059999997
 23
468.5140035000001
 33
0.0
 14
482.6792059999998
 24
471.5140035000001
 34
0.0
 50
90.0
100
AcDbRotatedDimension
  0
MTEXT
  5
552E
330
1F
100
AcDbEntity
  8
AM_6 文字
100
AcDbMText
 10
620.5130025399438
 20
394.2867529936064
 30
0.0
 40
8.75
 41
135.3159547097406
 46
27.45869168716519
 71
     1
 72
     5
  1
{\W0.6;TYPE:SMV200/SMVH200\PSHAFT DIA:MAX/MIN φ85/φ32}
  7
SEISA
 73
     1
 44
1.0
  0
DIMENSION
  5
5592
102
{ACAD_XDICTIONARY
360
55A1
102
}
102
{ACAD_REACTORS
330
55A2
102
}
330
1F
100
AcDbEntity
  8
AM_5 寸法線
100
AcDbDimension
  2
*D26
 10
445.6792059999997
 20
411.5140035000001
 30
0.0
 11
437.5542059999996
 21
430.3890035000002
 31
0.0
 70
    32
 71
     5
 42
4.999999999999943
 73
     0
 74
     0
 75
     0
  3
SEISA$0
100
AcDbAlignedDimension
 13
483.1792059999997
 23
406.5140035000001
 33
0.0
 14
486.7792059999998
 24
411.5140035000001
 34
0.0
 50
90.00000000000005
100
AcDbRotatedDimension
1001
ACAD_DSTYLE_DIMINSPECT
1070
   396
1000
100%
1070
   395
1000

1070
   394
1070
    33
1070
   393
1070
     0
  0
DIMENSION
  5
5652
102
{ACAD_XDICTIONARY
360
5660
102
}
102
{ACAD_REACTORS
330
5661
330
5690
102
}
330
1F
100
AcDbEntity
  8
AM_5 寸法線
100
AcDbDimension
  2
*D27
 10
498.5625000000001
 20
495.0140035000002
 30
0.0
 11
513.3560146533495
 21
459.6923801097827
 31
0.0
 70
   160
 71
     5
 42
23.50000000000006
 73
     0
 74
     0
 75
     0
  3
SEISA$0
100
AcDbAlignedDimension
 13
482.6792059999998
 23
471.5140035000001
 33
0.0
 14
483.6792059999996
 24
495.0140035000002
 34
0.0
 50
90.00000000000005
100
AcDbRotatedDimension
1001
ACAD_DSTYLE_DIMINSPECT
1070
   396
1000
100%
1070
   395
1000

1070
   394
1070
    33
1070
   393
1070
     0
1001
ACAD
1000
DSTYLE
1002
{
1070
   279
1070
     1
1002
}
  0
DIMENSION
  5
5680
102
{ACAD_XDICTIONARY
360
568F
102
}
102
{ACAD_REACTORS
330
5690
102
}
330
1F
100
AcDbEntity
  8
AM_5 寸法線
100
AcDbDimension
  2
*D28
 10
498.5625000000005
 20
511.5140035000002
 30
0.0
 11
490.4375000000004
 21
539.2015035000001
 31
0.0
 70
    32
 71
     5
 42
16.5
 73
     0
 74
     0
 75
     0
  3
SEISA$0
100
AcDbAlignedDimension
 13
483.6792059999996
 23
495.0140035000002
 33
0.0
 14
484.6792059999996
 24
511.5140035000002
 34
0.0
 50
90.00000000000005
100
AcDbRotatedDimension
1001
ACAD_DSTYLE_DIMINSPECT
1070
   396
1000
100%
1070
   395
1000

1070
   394
1070
    33
1070
   393
1070
     0
  0
INSERT
  5
57CD
330
1F
100
AcDbEntity
  8
AM_0 外形線1
100
AcDbBlockReference
  2
ケース
 10
468.6792059999998
 20
439.299971454235
 30
0.0
  0
ENDSEC
  0
SECTION
  2
OBJECTS
  0
DICTIONARY
  5
C
330
0
100
AcDbDictionary
281
     1
  3
ACAD_COLOR
350
C5
  3
ACAD_GROUP
350
D
  3
ACAD_LAYOUT
350
1A
  3
ACAD_MATERIAL
350
C4
  3
ACAD_MLEADERSTYLE
350
2D5
  3
ACAD_MLINESTYLE
350
17
  3
ACAD_PLOTSETTINGS
350
19
  3
ACAD_PLOTSTYLENAME
350
E
  3
ACAD_SCALELIST
350
2B3
  3
ACAD_TABLESTYLE
350
121
  3
ACAD_VISUALSTYLE
350
27F
  3
ACDB_RECOMPOSE_DATA
350
2F7
  3
AcDbVariableDictionary
350
34
  3
AcmDictionary
350
49
  3
AMG
350
2B
  3
AMGSNAPSETTINGS
350
1DE
  0
DICTIONARY
  5
BF
330
2
100
AcDbDictionary
280
     1
281
     1
  3
ACAD_LAYERSTATES
360
2786
  3
AMLAYER_GROUPCOLORS
360
C0
  0
DICTIONARY
  5
29D7
330
10
100
AcDbDictionary
280
     1
281
     1
  3
ADSK_XREC_LAYER_RECONCILED
360
29D8
  0
DICTIONARY
  5
29D9
330
81
100
AcDbDictionary
280
     1
281
     1
  3
ADSK_XREC_LAYER_RECONCILED
360
29DA
  0
DICTIONARY
  5
29E0
330
25C9
100
AcDbDictionary
280
     1
281
     1
  3
ADSK_XREC_LAYER_RECONCILED
360
29E1
  0
DICTIONARY
  5
29E2
330
25CA
100
AcDbDictionary
280
     1
281
     1
  3
ADSK_XREC_LAYER_RECONCILED
360
29E3
  0
DICTIONARY
  5
29E8
330
26B3
100
AcDbDictionary
280
     1
281
     1
  3
ADSK_XREC_LAYER_RECONCILED
360
29E9
  0
DICTIONARY
  5
82
330
1F
100
AcDbDictionary
280
     1
281
     1
  3
ACAD_SORTENTS
360
A41
  0
DICTIONARY
  5
33C5
330
33C4
100
AcDbDictionary
280
     1
281
     1
  3
ACAD_SORTENTS
360
512C
  0
DICTIONARY
  5
41BC
330
415E
100
AcDbDictionary
280
     1
281
     1
  3
ACAD_SORTENTS
360
5617
  0
DICTIONARY
  5
42F0
330
423B
100
AcDbDictionary
280
     1
281
     1
  3
ACAD_SORTENTS
360
5082
  0
DICTIONARY
  5
4381
330
4323
100
AcDbDictionary
280
     1
281
     1
  3
ACAD_SORTENTS
360
5651
  0
DICTIONARY
  5
454D
330
448B
100
AcDbDictionary
280
     1
281
     1
  3
ACAD_SORTENTS
360
51AF
  0
DICTIONARY
  5
4609
330
459A
100
AcDbDictionary
280
     1
281
     1
  3
ACAD_SORTENTS
360
52A0
  0
DICTIONARY
  5
464D
330
4626
100
AcDbDictionary
280
     1
281
     1
  3
ACAD_SORTENTS
360
580E
  0
DICTIONARY
  5
46C7
330
46BA
100
AcDbDictionary
280
     1
281
     1
  3
ACAD_DIMASSOC
360
46D1
  0
DICTIONARY
  5
4839
330
482A
100
AcDbDictionary
280
     1
281
     1
  3
ACAD_DIMASSOC
360
4845
  0
DICTIONARY
  5
4855
330
4846
100
AcDbDictionary
280
     1
281
     1
  3
ACAD_DIMASSOC
360
4861
  0
DICTIONARY
  5
48BC
330
48AF
100
AcDbDictionary
280
     1
281
     1
  3
ACAD_DIMASSOC
360
48C6
  0
DICTIONARY
  5
492E
330
4921
100
AcDbDictionary
280
     1
281
     1
  3
ACAD_DIMASSOC
360
4938
  0
DICTIONARY
  5
4B05
330
4AF8
100
AcDbDictionary
280
     1
281
     1
  3
ACAD_DIMASSOC
360
4B0F
  0
DICTIONARY
  5
4B1D
330
4B10
100
AcDbDictionary
280
     1
281
     1
  3
ACAD_DIMASSOC
360
4B27
  0
DICTIONARY
  5
4B35
330
4B28
100
AcDbDictionary
280
     1
281
     1
  3
ACAD_DIMASSOC
360
4B3F
  0
DICTIONARY
  5
4B6A
330
4B5D
100
AcDbDictionary
280
     1
281
     1
  3
ACAD_DIMASSOC
360
4B74
  0
DICTIONARY
  5
4B84
330
4B75
100
AcDbDictionary
280
     1
281
     1
  3
ACAD_DIMASSOC
360
4B90
  0
DICTIONARY
  5
4BB7
330
4BAA
100
AcDbDictionary
280
     1
281
     1
  3
ACAD_DIMASSOC
360
4BC1
  0
DICTIONARY
  5
4BD1
330
4BC2
100
AcDbDictionary
280
     1
281
     1
  3
ACAD_DIMASSOC
360
4BDD
  0
DICTIONARY
  5
55A1
330
5592
100
AcDbDictionary
280
     1
281
     1
  3
ACAD_DIMASSOC
360
55A2
  0
DICTIONARY
  5
5660
330
5652
100
AcDbDictionary
280
     1
281
     1
  3
ACAD_DIMASSOC
360
5661
  0
DICTIONARY
  5
568F
330
5680
100
AcDbDictionary
280
     1
281
     1
  3
ACAD_DIMASSOC
360
5690
  0
DICTIONARY
  5
C5
102
{ACAD_REACTORS
330
C
102
}
330
C
100
AcDbDictionary
281
     1
  0
DICTIONARY
  5
D
102
{ACAD_REACTORS
330
C
102
}
330
C
100
AcDbDictionary
281
     1
  0
DICTIONARY
  5
1A
102
{ACAD_REACTORS
330
C
102
}
330
C
100
AcDbDictionary
281
     1
  3
Model
350
22
  3
レイアウト1
350
1E
  3
レイアウト2
350
26
  0
DICTIONARY
  5
C4
102
{ACAD_REACTORS
330
C
102
}
330
C
100
AcDbDictionary
281
     1
  3
ByBlock
350
27D
  3
ByLayer
350
27C
  3
Global
350
27E
  0
DICTIONARY
  5
2D5
102
{ACAD_REACTORS
330
C
102
}
330
C
100
AcDbDictionary
281
     1
  3
Standard
350
2D6
  0
DICTIONARY
  5
17
102
{ACAD_REACTORS
330
C
102
}
330
C
100
AcDbDictionary
281
     1
  3
Standard
350
18
  0
DICTIONARY
  5
19
102
{ACAD_REACTORS
330
C
102
}
330
C
100
AcDbDictionary
281
     1
  3
SEISA基本
350
1C7E
  0
ACDBDICTIONARYWDFLT
  5
E
102
{ACAD_REACTORS
330
C
102
}
330
C
100
AcDbDictionary
281
     1
  3
Normal
350
F
100
AcDbDictionaryWithDefault
340
F
  0
DICTIONARY
  5
2B3
102
{ACAD_REACTORS
330
C
102
}
330
C
100
AcDbDictionary
281
     1
  3
*A1
350
2A0A
  3
*A2
350
5525
  3
A0
350
2B4
  3
A1
350
2B5
  3
A2
350
2B6
  3
A3
350
2B7
  3
A4
350
2B8
  3
A5
350
2B9
  3
A6
350
2BA
  3
A7
350
2BB
  3
A8
350
2BC
  3
A9
350
2BD
  3
B0
350
2BE
  3
B1
350
2BF
  3
B2
350
2C0
  3
B3
350
2C1
  3
B4
350
2C2
  3
B5
350
2C3
  3
B6
350
2C4
  3
B7
350
2C5
  3
B8
350
2C6
  3
B9
350
2C7
  3
C0
350
2C8
  3
C1
350
2C9
  3
C2
350
2CA
  3
C3
350
2CB
  3
C4
350
2CC
  3
C5
350
2CD
  3
C6
350
2CE
  3
C7
350
2CF
  3
C8
350
2D0
  3
C9
350
2D1
  3
D0
350
2D2
  3
D1
350
2D3
  3
D2
350
2D4
  0
DICTIONARY
  5
121
102
{ACAD_REACTORS
330
C
102
}
330
C
100
AcDbDictionary
281
     1
  3
Standard
350
122
  0
DICTIONARY
  5
27F
102
{ACAD_REACTORS
330
C
102
}
330
C
100
AcDbDictionary
281
     1
  3
2dWireframe
350
285
  3
3D Hidden
350
287
  3
3dWireframe
350
286
  3
Basic
350
284
  3
Brighten
350
28B
  3
ColorChange
350
28F
  3
Conceptual
350
288
  3
Dim
350
28A
  3
Facepattern
350
28E
  3
Flat
350
280
  3
FlatWithEdges
350
281
  3
Gouraud
350
282
  3
GouraudWithEdges
350
283
  3
Linepattern
350
28D
  3
Realistic
350
289
  3
Thicken
350
28C
  0
XRECORD
  5
2F7
102
{ACAD_REACTORS
330
C
102
}
330
C
100
AcDbXrecord
280
     1
 90
        1
330
122
  0
DICTIONARY
  5
34
102
{ACAD_REACTORS
330
C
102
}
330
C
100
AcDbDictionary
281
     1
  3
CANNOSCALE
350
2FA
  3
CMLEADERSTYLE
350
2F8
  3
CTABLESTYLE
350
140
  3
DIMASSOC
350
AC
  3
INDEXCTL
350
35
  3
LAYEREVAL
350
4C52
  3
LAYERNOTIFY
350
4C53
  3
LIGHTINGUNITS
350
2FB
  3
MSLTSCALE
350
2F9
  0
DICTIONARY
  5
49
102
{ACAD_REACTORS
330
C
102
}
330
C
100
AcDbDictionary
281
     1
  3
AcmBOM
350
161B
  3
AcmStdDictionary
350
4A
  3
AMDTSECTSYM_ARROWCOLOR
350
12B
  0
DICTIONARY
  5
2B
102
{ACAD_REACTORS
330
C
102
}
330
C
100
AcDbDictionary
281
     1
  0
DICTIONARY
  5
1DE
102
{ACAD_REACTORS
330
C
102
}
330
C
100
AcDbDictionary
281
     1
  0
DICTIONARY
  5
2786
102
{ACAD_REACTORS
330
BF
102
}
330
BF
100
AcDbDictionary
281
     1
  0
DICTIONARY
  5
C0
102
{ACAD_REACTORS
330
BF
102
}
330
BF
100
AcDbDictionary
280
     1
281
     1
  0
XRECORD
  5
29D8
102
{ACAD_REACTORS
330
29D7
102
}
330
29D7
100
AcDbXrecord
280
     1
290
     1
  0
XRECORD
  5
29DA
102
{ACAD_REACTORS
330
29D9
102
}
330
29D9
100
AcDbXrecord
280
     1
290
     1
  0
XRECORD
  5
29E1
102
{ACAD_REACTORS
330
29E0
102
}
330
29E0
100
AcDbXrecord
280
     1
290
     1
  0
XRECORD
  5
29E3
102
{ACAD_REACTORS
330
29E2
102
}
330
29E2
100
AcDbXrecord
280
     1
290
     1
  0
XRECORD
  5
29E9
102
{ACAD_REACTORS
330
29E8
102
}
330
29E8
100
AcDbXrecord
280
     1
290
     1
  0
SORTENTSTABLE
  5
A41
102
{ACAD_REACTORS
330
82
102
}
330
82
100
AcDbSortentsTable
330
1F
331
3D65
  5
3D65
331
4AF8
  5
4BC2
331
552E
  5
552E
331
482A
  5
4939
331
4921
  5
493F
331
45BE
  5
4662
331
4BC2
  5
4CC7
331
4B10
  5
4BE9
331
4B28
  5
4CC2
331
4632
  5
4665
331
48AF
  5
493B
331
4342
  5
4658
331
4B5D
  5
4CC4
331
417D
  5
45BE
331
44CA
  5
465D
331
4B75
  5
4CC5
331
46BA
  5
4921
331
4846
  5
493A
331
4274
  5
4632
331
4BAA
  5
4CC6
  0
SORTENTSTABLE
  5
512C
102
{ACAD_REACTORS
330
33C5
102
}
330
33C5
100
AcDbSortentsTable
330
33C4
  0
SORTENTSTABLE
  5
5617
102
{ACAD_REACTORS
330
41BC
102
}
330
41BC
100
AcDbSortentsTable
330
415E
331
4171
  5
4173
331
4169
  5
416B
331
4161
  5
4163
331
4172
  5
4174
331
416A
  5
416C
331
4178
  5
55FE
331
4162
  5
4165
331
4173
  5
4175
331
4179
  5
55FF
331
416B
  5
416D
331
4163
  5
4167
331
4174
  5
4176
331
416C
  5
416E
331
4175
  5
4177
331
416D
  5
416F
331
4165
  5
4168
331
55FE
  5
4161
331
4176
  5
4178
331
416E
  5
4170
331
55FF
  5
4162
331
4177
  5
4179
331
416F
  5
4171
331
4167
  5
4169
331
4170
  5
4172
331
4168
  5
416A
  0
SORTENTSTABLE
  5
5082
102
{ACAD_REACTORS
330
42F0
102
}
330
42F0
100
AcDbSortentsTable
330
423B
331
4240
  5
4241
331
4272
  5
4273
331
42B7
  5
423E
331
426E
  5
426F
331
425F
  5
4260
331
426B
  5
426C
331
425C
  5
425D
331
4268
  5
4269
331
4259
  5
425A
331
4265
  5
4266
331
4256
  5
4257
331
4253
  5
4254
331
4262
  5
4263
331
4250
  5
4251
331
424D
  5
424E
331
424A
  5
424B
331
4247
  5
4248
331
4244
  5
4245
331
4241
  5
4242
331
423E
  5
423F
331
4273
  5
42B7
331
4270
  5
4271
331
426F
  5
4270
331
426C
  5
426D
331
425D
  5
425E
331
4269
  5
426A
331
425A
  5
425B
331
4266
  5
4267
331
4257
  5
4258
331
4263
  5
4264
331
4254
  5
4255
331
4260
  5
4261
331
4251
  5
4252
331
424E
  5
424F
331
424B
  5
424C
331
4248
  5
4249
331
4245
  5
4246
331
4242
  5
4243
331
423F
  5
4240
331
4271
  5
4272
331
426D
  5
426E
331
425E
  5
425F
331
426A
  5
426B
331
425B
  5
425C
331
4267
  5
4268
331
4258
  5
4259
331
4264
  5
4265
331
4255
  5
4256
331
4261
  5
4262
331
4252
  5
4253
331
424F
  5
4250
331
424C
  5
424D
331
4249
  5
424A
331
4246
  5
4247
331
4243
  5
4244
  0
SORTENTSTABLE
  5
5651
102
{ACAD_REACTORS
330
4381
102
}
330
4381
100
AcDbSortentsTable
330
4323
331
432E
  5
4330
331
4337
  5
4339
331
432F
  5
4331
331
4338
  5
433A
331
4330
  5
4332
331
4328
  5
432C
331
4339
  5
433B
331
4331
  5
4333
331
4326
  5
4328
331
433A
  5
433C
331
4332
  5
4334
331
432A
  5
432D
331
4327
  5
432A
331
433B
  5
433D
331
4333
  5
4335
331
433C
  5
433E
331
4334
  5
4336
331
5638
  5
4326
331
432C
  5
432E
331
433D
  5
5638
331
5639
  5
4327
331
4335
  5
4337
331
432D
  5
432F
331
433E
  5
5639
331
4336
  5
4338
  0
SORTENTSTABLE
  5
51AF
102
{ACAD_REACTORS
330
454D
102
}
330
454D
100
AcDbSortentsTable
330
448B
  0
SORTENTSTABLE
  5
52A0
102
{ACAD_REACTORS
330
4609
102
}
330
4609
100
AcDbSortentsTable
330
459A
  0
SORTENTSTABLE
  5
580E
102
{ACAD_REACTORS
330
464D
102
}
330
464D
100
AcDbSortentsTable
330
4626
  0
DIMASSOC
  5
46D1
102
{ACAD_REACTORS
330
46C7
102
}
330
46C7
100
AcDbDimAssoc
330
46BA
 90
        3
 70
     0
 71
     0
  1
AcDbOsnapPointRef
 72
    13
331
417D
331
4167
 73
     2
 91
        0
 40
0.0
 10
0.0
 20
0.0
 30
2.000000000000000E+50
 75
     0
  1
AcDbOsnapPointRef
 72
    13
331
417D
331
4175
 73
     2
 91
        0
 40
0.0
 10
0.0
 20
0.0
 30
2.000000000000000E+50
 75
     0
  0
DIMASSOC
  5
4845
102
{ACAD_REACTORS
330
4839
102
}
330
4839
100
AcDbDimAssoc
330
482A
 90
        3
 70
     0
 71
     0
  1
AcDbOsnapPointRef
 72
    13
331
4274
331
426C
 73
     2
 91
        0
 40
0.0
 10
0.0
 20
0.0
 30
2.000000000000000E+50
 75
     0
  1
AcDbOsnapPointRef
 72
    13
331
44CA
331
44B9
 73
     2
 91
        0
 40
0.0
 10
0.0
 20
0.0
 30
2.000000000000000E+50
 75
     0
  0
DIMASSOC
  5
4861
102
{ACAD_REACTORS
330
4855
102
}
330
4855
100
AcDbDimAssoc
330
4846
 90
        3
 70
     0
 71
     0
  1
AcDbOsnapPointRef
 72
    13
331
44CA
331
44BA
 73
     2
 91
        0
 40
0.0
 10
0.0
 20
0.0
 30
2.000000000000000E+50
 75
     0
  1
AcDbOsnapPointRef
 72
    13
331
44CA
331
44B9
 73
     2
 91
        0
 40
0.0
 10
0.0
 20
0.0
 30
2.000000000000000E+50
 75
     0
  0
DIMASSOC
  5
48C6
102
{ACAD_REACTORS
330
48BC
102
}
330
48BC
100
AcDbDimAssoc
330
48AF
 90
        1
 70
     0
 71
     0
  1
AcDbOsnapPointRef
 72
     6
331
4274
331
426B
 73
     2
 91
        0
 40
0.0
 10
0.0
 20
0.0
 30
0.0
332
4274
332
426F
 74
     2
 92
        0
 75
     0
  0
DIMASSOC
  5
4938
102
{ACAD_REACTORS
330
492E
102
}
330
492E
100
AcDbDimAssoc
330
4921
 90
        3
 70
     0
 71
     0
  1
AcDbOsnapPointRef
 72
    13
331
4342
331
4327
 73
     2
 91
        0
 40
0.0
 10
0.0
 20
0.0
 30
2.000000000000000E+50
 75
     0
  1
AcDbOsnapPointRef
 72
    13
331
417D
331
4161
 73
     2
 91
        0
 40
0.0
 10
0.0
 20
0.0
 30
2.000000000000000E+50
 75
     0
  0
DIMASSOC
  5
4B0F
102
{ACAD_REACTORS
330
4B05
102
}
330
4B05
100
AcDbDimAssoc
330
4AF8
 90
        3
 70
     0
 71
     0
  1
AcDbOsnapPointRef
 72
     1
331
44CA
331
448E
 73
     2
 91
        0
 40
1.0
 10
0.0
 20
0.0
 30
2.000000000000000E+50
 75
     0
  1
AcDbOsnapPointRef
 72
     1
331
44CA
331
44B8
 73
     2
 91
        0
 40
1.0
 10
0.0
 20
0.0
 30
2.000000000000000E+50
 75
     0
  0
DIMASSOC
  5
4B27
102
{ACAD_REACTORS
330
4B1D
102
}
330
4B1D
100
AcDbDimAssoc
330
4B10
 90
        3
 70
     0
 71
     0
  1
AcDbOsnapPointRef
 72
     1
331
44CA
331
44B1
 73
     2
 91
        0
 40
3.141592653589792
 10
0.0
 20
0.0
 30
2.000000000000000E+50
 75
     0
  1
AcDbOsnapPointRef
 72
     1
331
44CA
331
44BC
 73
     2
 91
        0
 40
1.0
 10
0.0
 20
0.0
 30
2.000000000000000E+50
 75
     0
  0
DIMASSOC
  5
4B3F
102
{ACAD_REACTORS
330
4B35
102
}
330
4B35
100
AcDbDimAssoc
330
4B28
 90
        3
 70
     0
 71
     0
  1
AcDbOsnapPointRef
 72
    13
331
4342
331
4332
 73
     2
 91
        0
 40
0.0
 10
0.0
 20
0.0
 30
2.000000000000000E+50
 75
     0
  1
AcDbOsnapPointRef
 72
    13
331
4342
331
433A
 73
     2
 91
        0
 40
0.0
 10
0.0
 20
0.0
 30
2.000000000000000E+50
 75
     0
  0
DIMASSOC
  5
4B74
102
{ACAD_REACTORS
330
4B6A
102
}
330
4B6A
100
AcDbDimAssoc
330
4B5D
 90
        3
 70
     0
 71
     0
  1
AcDbOsnapPointRef
 72
    10
331
417D
331
4161
 73
     2
 91
        0
 40
0.5713777126979444
 10
0.0
 20
0.0
 30
0.0
 75
     0
  1
AcDbOsnapPointRef
 72
    10
331
4632
331
464C
 73
     2
 91
        0
 40
0.8269928761418722
 10
0.0
 20
0.0
 30
0.0
 75
     0
  0
DIMASSOC
  5
4B90
102
{ACAD_REACTORS
330
4B84
102
}
330
4B84
100
AcDbDimAssoc
330
4B75
 90
        3
 70
     0
 71
     0
  1
AcDbOsnapPointRef
 72
    10
331
4632
331
464C
 73
     2
 91
        0
 40
0.8151462688194682
 10
0.0
 20
0.0
 30
0.0
 75
     0
  1
AcDbOsnapPointRef
 72
    10
331
4342
331
4326
 73
     2
 91
        0
 40
0.8409841925367022
 10
0.0
 20
0.0
 30
0.0
 75
     0
  0
DIMASSOC
  5
4BC1
102
{ACAD_REACTORS
330
4BB7
102
}
330
4BB7
100
AcDbDimAssoc
330
4BAA
 90
        3
 70
     0
 71
     0
  1
AcDbOsnapPointRef
 72
    10
331
4342
331
4326
 73
     2
 91
        0
 40
0.8491491983195295
 10
0.0
 20
0.0
 30
0.0
 75
     0
  1
AcDbOsnapPointRef
 72
     8
331
4342
331
4327
 73
     2
 91
        0
 40
0.5782337934247132
 10
0.0
 20
0.0
 30
0.0
 75
     1
  1
AcDbOsnapPointRef
 72
    10
331
4342
331
4326
 73
     2
 91
        0
 40
0.8491491983195295
 10
0.0
 20
0.0
 30
0.0
 75
     0
  0
DIMASSOC
  5
4BDD
102
{ACAD_REACTORS
330
4BD1
102
}
330
4BD1
100
AcDbDimAssoc
330
4BC2
 90
        3
 70
     0
 71
     0
  1
AcDbOsnapPointRef
 72
    13
331
4274
331
424C
 73
     2
 91
        0
 40
0.0
 10
0.0
 20
0.0
 30
2.000000000000000E+50
 75
     0
  1
AcDbOsnapPointRef
 72
    13
331
417D
331
4169
 73
     2
 91
        0
 40
0.0
 10
0.0
 20
0.0
 30
2.000000000000000E+50
 75
     0
  0
DIMASSOC
  5
55A2
102
{ACAD_REACTORS
330
55A1
102
}
330
55A1
100
AcDbDimAssoc
330
5592
 90
        2
 70
     0
 71
     0
  1
AcDbOsnapPointRef
 72
     1
331
417D
331
4163
 73
     0
 91
        0
 40
0.0
 10
0.0
 20
0.0
 30
2.000000000000000E+50
 75
     0
  0
DIMASSOC
  5
5661
102
{ACAD_REACTORS
330
5660
102
}
330
5660
100
AcDbDimAssoc
330
5652
 90
        3
 70
     0
 71
     0
  1
AcDbOsnapPointRef
 72
     4
331
4BC2
331
4C24
 73
     0
 91
        0
 40
0.0
 10
0.0
 20
0.0
 30
0.0
 75
     0
  1
AcDbOsnapPointRef
 72
     1
331
417D
331
416D
 73
     0
 91
        0
 40
0.0
 10
0.0
 20
0.0
 30
2.000000000000000E+50
 75
     0
  0
DIMASSOC
  5
5690
102
{ACAD_REACTORS
330
568F
102
}
330
568F
100
AcDbDimAssoc
330
5680
 90
        3
 70
     0
 71
     0
  1
AcDbOsnapPointRef
 72
     4
331
5652
 73
     0
 91
        0
 40
0.0
 10
0.0
 20
0.0
 30
0.0
 75
     0
  1
AcDbOsnapPointRef
 72
     1
331
417D
331
4171
 73
     0
 91
        0
 40
0.0
 10
0.0
 20
0.0
 30
2.000000000000000E+50
 75
     0
  0
LAYOUT
  5
22
102
{ACAD_REACTORS
330
1A
102
}
330
1A
100
AcDbPlotSettings
  1

  2
KONICA MINOLTA 501 PCL
  4
A4
  6

 40
5.027082920074462
 41
5.027085781097412
 42
5.027069091796875
 43
5.027069091796875
 44
209.9733276367186
 45
296.9259948730469
 46
0.0
 47
13.35407842182292
 48
0.0
 49
0.0
140
0.0
141
0.0
142
1.0
143
1.534654910353618
 70
 11956
 72
     1
 73
     0
 74
     1
  7
SEISA.ctb
 75
     0
147
0.6516122896772788
 76
     0
 77
     2
 78
   300
148
-433.087238397246
149
-347.3190336107728
100
AcDbLayout
  1
Model
 70
     1
 71
     0
 10
0.0
 20
0.0
 11
12.0
 21
9.0
 12
0.0
 22
0.0
 32
0.0
 14
0.0
 24
0.0
 34
0.0
 15
0.0
 25
0.0
 35
0.0
146
0.0
 13
0.0
 23
0.0
 33
0.0
 16
1.0
 26
0.0
 36
0.0
 17
0.0
 27
1.0
 37
0.0
 76
     0
330
1F
331
27A
1001
ACAD_PSEXT
1000
KONICA MINOLTA 501 PCL
1000
KONICA MINOLTA 501/421/361PCL
1000
IP_192.168.20.231_(1)
1000

1070
     0
  0
LAYOUT
  5
1E
102
{ACAD_REACTORS
330
1A
102
}
330
1A
100
AcDbPlotSettings
  1

  2
none_device
  4
Letter_(8.50_x_11.00_Inches)
  6

 40
6.349999904632567
 41
6.349999904632567
 42
6.350006103515625
 43
6.350006103515625
 44
215.8999938964844
 45
279.3999938964844
 46
0.0
 47
0.0
 48
0.0
 49
0.0
140
0.0
141
0.0
142
1.0
143
1.0
 70
 15024
 72
     1
 73
     1
 74
     5
  7
SEISA.ctb
 75
    16
147
1.0
 76
     0
 77
     2
 78
   300
148
0.0
149
0.0
100
AcDbLayout
  1
レイアウト1
 70
     1
 71
     1
 10
0.0
 20
0.0
 11
420.0
 21
297.0
 12
0.0
 22
0.0
 32
0.0
 14
1.000000000000000E+20
 24
1.000000000000000E+20
 34
1.000000000000000E+20
 15
-1.000000000000000E+20
 25
-1.000000000000000E+20
 35
-1.000000000000000E+20
146
0.0
 13
0.0
 23
0.0
 33
0.0
 16
1.0
 26
0.0
 36
0.0
 17
0.0
 27
1.0
 37
0.0
 76
     0
330
1B
  0
LAYOUT
  5
26
102
{ACAD_REACTORS
330
1A
102
}
330
1A
100
AcDbPlotSettings
  1

  2
none_device
  4
Letter_(8.50_x_11.00_Inches)
  6

 40
6.349999904632567
 41
6.349999904632567
 42
6.350006103515625
 43
6.350006103515625
 44
215.8999938964844
 45
279.3999938964844
 46
0.0
 47
0.0
 48
0.0
 49
0.0
140
0.0
141
0.0
142
1.0
143
1.0
 70
 15024
 72
     1
 73
     1
 74
     5
  7
SEISA.ctb
 75
    16
147
1.0
 76
     0
 77
     2
 78
   300
148
0.0
149
0.0
100
AcDbLayout
  1
レイアウト2
 70
     1
 71
     2
 10
0.0
 20
0.0
 11
12.0
 21
9.0
 12
0.0
 22
0.0
 32
0.0
 14
0.0
 24
0.0
 34
0.0
 15
0.0
 25
0.0
 35
0.0
146
0.0
 13
0.0
 23
0.0
 33
0.0
 16
1.0
 26
0.0
 36
0.0
 17
0.0
 27
1.0
 37
0.0
 76
     0
330
23
  0
MATERIAL
  5
27D
102
{ACAD_REACTORS
330
C4
102
}
330
C4
100
AcDbMaterial
  1
ByBlock
 73
     1
 78
     1
172
     1
176
     1
270
     1
274
     1
 94
       63
  0
MATERIAL
  5
27C
102
{ACAD_REACTORS
330
C4
102
}
330
C4
100
AcDbMaterial
  1
ByLayer
 73
     1
 78
     1
172
     1
176
     1
270
     1
274
     1
 94
       63
  0
MATERIAL
  5
27E
102
{ACAD_REACTORS
330
C4
102
}
330
C4
100
AcDbMaterial
  1
Global
 73
     1
 78
     1
172
     1
176
     1
270
     1
274
     1
 94
       63
  0
MLEADERSTYLE
  5
2D6
102
{ACAD_REACTORS
330
2D5
102
}
330
2D5
100
AcDbMLeaderStyle
170
     2
171
     1
172
     0
 90
        2
 40
0.0
 41
0.0
173
     1
 91
-1056964608
340
14
 92
       -2
290
     1
 42
2.0
291
     1
 43
0.36
  3
Standard
 44
4.0
300

342
11
174
     1
178
     6
175
     1
176
     0
 93
-1056964608
 45
4.0
292
     0
297
     0
 46
4.0
 94
-1056964608
 47
1.0
 49
1.0
140
1.0
293
     1
141
0.0
294
     1
177
     0
142
1.0
295
     0
296
     0
143
0.125
1001
ACAD_MLEADERVER
1070
     2
  0
MLINESTYLE
  5
18
102
{ACAD_REACTORS
330
17
102
}
330
17
100
AcDbMlineStyle
  2
STANDARD
 70
     0
  3

 62
   256
 51
90.0
 52
90.0
 71
     2
 49
0.5
 62
   256
  6
BYLAYER
 49
-0.5
 62
   256
  6
BYLAYER
  0
PLOTSETTINGS
  5
1C7E
102
{ACAD_REACTORS
330
19
102
}
330
19
100
AcDbPlotSettings
  1
SEISA基本
  2
none_device
  4
Letter_(8.50_x_11.00_Inches)
  6

 40
6.349999904632567
 41
6.349999904632567
 42
6.350006103515625
 43
6.350006103515625
 44
215.8999938964844
 45
279.3999938964844
 46
7.302498226506357
 47
0.0
 48
0.0
 49
0.0
140
0.0
141
0.0
142
1.0
143
1.574803221122935
 70
 11956
 72
     1
 73
     1
 74
     2
  7
SEISA.ctb
 75
     0
147
0.6349999711627054
 76
     0
 77
     2
 78
   300
148
0.0
149
0.0
1001
ACAD_PSEXT
1000
なし
1000
なし
1000
適切ではありません
1000
新しいプロッタ環境設定名を選択しない限り、レイアウトは印刷されません。
1070
     0
  0
ACDBPLACEHOLDER
  5
F
102
{ACAD_REACTORS
330
E
102
}
330
E
  0
SCALE
  5
2A0A
102
{ACAD_REACTORS
330
2B3
102
}
330
2B3
100
AcDbScale
 70
     0
300
1:2.5
140
1.0
141
2.5
290
     0
  0
SCALE
  5
5525
102
{ACAD_REACTORS
330
2B3
102
}
330
2B3
100
AcDbScale
 70
     0
300
1:1.5
140
1.0
141
1.5
290
     0
  0
SCALE
  5
2B4
102
{ACAD_REACTORS
330
2B3
102
}
330
2B3
100
AcDbScale
 70
     0
300
1:1
140
1.0
141
1.0
290
     1
  0
SCALE
  5
2B5
102
{ACAD_REACTORS
330
2B3
102
}
330
2B3
100
AcDbScale
 70
     0
300
1:2
140
1.0
141
2.0
290
     0
  0
SCALE
  5
2B6
102
{ACAD_REACTORS
330
2B3
102
}
330
2B3
100
AcDbScale
 70
     0
300
1:4
140
1.0
141
4.0
290
     0
  0
SCALE
  5
2B7
102
{ACAD_REACTORS
330
2B3
102
}
330
2B3
100
AcDbScale
 70
     0
300
1:5
140
1.0
141
5.0
290
     0
  0
SCALE
  5
2B8
102
{ACAD_REACTORS
330
2B3
102
}
330
2B3
100
AcDbScale
 70
     0
300
1:8
140
1.0
141
8.0
290
     0
  0
SCALE
  5
2B9
102
{ACAD_REACTORS
330
2B3
102
}
330
2B3
100
AcDbScale
 70
     0
300
1:10
140
1.0
141
10.0
290
     0
  0
SCALE
  5
2BA
102
{ACAD_REACTORS
330
2B3
102
}
330
2B3
100
AcDbScale
 70
     0
300
1:16
140
1.0
141
16.0
290
     0
  0
SCALE
  5
2BB
102
{ACAD_REACTORS
330
2B3
102
}
330
2B3
100
AcDbScale
 70
     0
300
1:20
140
1.0
141
20.0
290
     0
  0
SCALE
  5
2BC
102
{ACAD_REACTORS
330
2B3
102
}
330
2B3
100
AcDbScale
 70
     0
300
1:30
140
1.0
141
30.0
290
     0
  0
SCALE
  5
2BD
102
{ACAD_REACTORS
330
2B3
102
}
330
2B3
100
AcDbScale
 70
     0
300
1:40
140
1.0
141
40.0
290
     0
  0
SCALE
  5
2BE
102
{ACAD_REACTORS
330
2B3
102
}
330
2B3
100
AcDbScale
 70
     0
300
1:50
140
1.0
141
50.0
290
     0
  0
SCALE
  5
2BF
102
{ACAD_REACTORS
330
2B3
102
}
330
2B3
100
AcDbScale
 70
     0
300
1:100
140
1.0
141
100.0
290
     0
  0
SCALE
  5
2C0
102
{ACAD_REACTORS
330
2B3
102
}
330
2B3
100
AcDbScale
 70
     0
300
2:1
140
2.0
141
1.0
290
     0
  0
SCALE
  5
2C1
102
{ACAD_REACTORS
330
2B3
102
}
330
2B3
100
AcDbScale
 70
     0
300
4:1
140
4.0
141
1.0
290
     0
  0
SCALE
  5
2C2
102
{ACAD_REACTORS
330
2B3
102
}
330
2B3
100
AcDbScale
 70
     0
300
8:1
140
8.0
141
1.0
290
     0
  0
SCALE
  5
2C3
102
{ACAD_REACTORS
330
2B3
102
}
330
2B3
100
AcDbScale
 70
     0
300
10:1
140
10.0
141
1.0
290
     0
  0
SCALE
  5
2C4
102
{ACAD_REACTORS
330
2B3
102
}
330
2B3
100
AcDbScale
 70
     0
300
100:1
140
100.0
141
1.0
290
     0
  0
SCALE
  5
2C5
102
{ACAD_REACTORS
330
2B3
102
}
330
2B3
100
AcDbScale
 70
     0
300
1/128" = 1'-0"
140
0.0078125
141
12.0
290
     0
  0
SCALE
  5
2C6
102
{ACAD_REACTORS
330
2B3
102
}
330
2B3
100
AcDbScale
 70
     0
300
1/64" = 1'-0"
140
0.015625
141
12.0
290
     0
  0
SCALE
  5
2C7
102
{ACAD_REACTORS
330
2B3
102
}
330
2B3
100
AcDbScale
 70
     0
300
1/32" = 1'-0"
140
0.03125
141
12.0
290
     0
  0
SCALE
  5
2C8
102
{ACAD_REACTORS
330
2B3
102
}
330
2B3
100
AcDbScale
 70
     0
300
1/16" = 1'-0"
140
0.0625
141
12.0
290
     0
  0
SCALE
  5
2C9
102
{ACAD_REACTORS
330
2B3
102
}
330
2B3
100
AcDbScale
 70
     0
300
3/32" = 1'-0"
140
0.09375
141
12.0
290
     0
  0
SCALE
  5
2CA
102
{ACAD_REACTORS
330
2B3
102
}
330
2B3
100
AcDbScale
 70
     0
300
1/8" = 1'-0"
140
0.125
141
12.0
290
     0
  0
SCALE
  5
2CB
102
{ACAD_REACTORS
330
2B3
102
}
330
2B3
100
AcDbScale
 70
     0
300
3/16" = 1'-0"
140
0.1875
141
12.0
290
     0
  0
SCALE
  5
2CC
102
{ACAD_REACTORS
330
2B3
102
}
330
2B3
100
AcDbScale
 70
     0
300
1/4" = 1'-0"
140
0.25
141
12.0
290
     0
  0
SCALE
  5
2CD
102
{ACAD_REACTORS
330
2B3
102
}
330
2B3
100
AcDbScale
 70
     0
300
3/8" = 1'-0"
140
0.375
141
12.0
290
     0
  0
SCALE
  5
2CE
102
{ACAD_REACTORS
330
2B3
102
}
330
2B3
100
AcDbScale
 70
     0
300
1/2" = 1'-0"
140
0.5
141
12.0
290
     0
  0
SCALE
  5
2CF
102
{ACAD_REACTORS
330
2B3
102
}
330
2B3
100
AcDbScale
 70
     0
300
3/4" = 1'-0"
140
0.75
141
12.0
290
     0
  0
SCALE
  5
2D0
102
{ACAD_REACTORS
330
2B3
102
}
330
2B3
100
AcDbScale
 70
     0
300
1" = 1'-0"
140
1.0
141
12.0
290
     0
  0
SCALE
  5
2D1
102
{ACAD_REACTORS
330
2B3
102
}
330
2B3
100
AcDbScale
 70
     0
300
1-1/2" = 1'-0"
140
1.5
141
12.0
290
     0
  0
SCALE
  5
2D2
102
{ACAD_REACTORS
330
2B3
102
}
330
2B3
100
AcDbScale
 70
     0
300
3" = 1'-0"
140
3.0
141
12.0
290
     0
  0
SCALE
  5
2D3
102
{ACAD_REACTORS
330
2B3
102
}
330
2B3
100
AcDbScale
 70
     0
300
6" = 1'-0"
140
6.0
141
12.0
290
     0
  0
SCALE
  5
2D4
102
{ACAD_REACTORS
330
2B3
102
}
330
2B3
100
AcDbScale
 70
     0
300
1'-0" = 1'-0"
140
12.0
141
12.0
290
     0
  0
TABLESTYLE
  5
122
102
{ACAD_XDICTIONARY
360
2F5
102
}
102
{ACAD_REACTORS
330
121
102
}
330
121
100
AcDbTableStyle
  3
Standard
 70
     0
 71
     0
 40
1.5
 41
1.5
280
     0
281
     0
  7
STANDARD
140
4.5
170
     2
 62
     0
 63
     7
283
     0
 90
      512
 91
        0
  1

274
    -2
284
     1
 64
     0
275
    -2
285
     1
 65
     0
276
    -2
286
     1
 66
     0
277
    -2
287
     1
 67
     0
278
    -2
288
     1
 68
     0
279
    -2
289
     1
 69
     0
  7
STANDARD
140
6.0
170
     5
 62
     0
 63
     7
283
     0
 90
      512
 91
        0
  1

274
    -2
284
     1
 64
     0
275
    -2
285
     1
 65
     0
276
    -2
286
     1
 66
     0
277
    -2
287
     1
 67
     0
278
    -2
288
     1
 68
     0
279
    -2
289
     1
 69
     0
  7
STANDARD
140
4.5
170
     5
 62
     0
 63
     7
283
     0
 90
      512
 91
        0
  1

274
    -2
284
     1
 64
     0
275
    -2
285
     1
 65
     0
276
    -2
286
     1
 66
     0
277
    -2
287
     1
 67
     0
278
    -2
288
     1
 68
     0
279
    -2
289
     1
 69
     0
  0
VISUALSTYLE
  5
285
102
{ACAD_REACTORS
330
27F
102
}
330
27F
100
AcDbVisualStyle
  2
2dWireframe
 70
     4
 71
     0
 72
     2
 73
     0
 90
        0
 40
-0.6
 41
-30.0
 62
     5
 63
     7
421
 16777215
 74
     1
 91
        4
 64
     7
 65
   257
 75
     1
175
     1
 42
1.0
 92
        0
 66
   257
 43
1.0
 76
     1
 77
     6
 78
     2
 67
     7
 79
     5
170
     0
171
     0
290
     0
174
     0
 93
        1
 44
0.0
173
     0
291
     0
 45
0.0
  0
VISUALSTYLE
  5
287
102
{ACAD_REACTORS
330
27F
102
}
330
27F
100
AcDbVisualStyle
  2
3D Hidden
 70
     6
 71
     1
 72
     2
 73
     2
 90
        0
 40
-0.6
 41
-30.0
 62
     5
 63
     7
421
 16777215
 74
     2
 91
        2
 64
     7
 65
   257
 75
     2
175
     1
 42
40.0
 92
        0
 66
   257
 43
1.0
 76
     1
 77
     6
 78
     2
 67
     7
 79
     3
170
     0
171
     0
290
     0
174
     0
 93
        1
 44
0.0
173
     0
291
     0
 45
0.0
  0
VISUALSTYLE
  5
286
102
{ACAD_REACTORS
330
27F
102
}
330
27F
100
AcDbVisualStyle
  2
3dWireframe
 70
     5
 71
     0
 72
     2
 73
     0
 90
        0
 40
-0.6
 41
-30.0
 62
     5
 63
     7
421
 16777215
 74
     1
 91
        4
 64
     7
 65
   257
 75
     1
175
     1
 42
1.0
 92
        0
 66
   257
 43
1.0
 76
     1
 77
     6
 78
     2
 67
     7
 79
     5
170
     0
171
     0
290
     0
174
     0
 93
        1
 44
0.0
173
     0
291
     0
 45
0.0
  0
VISUALSTYLE
  5
284
102
{ACAD_REACTORS
330
27F
102
}
330
27F
100
AcDbVisualStyle
  2
Basic
 70
     7
 71
     1
 72
     0
 73
     1
 90
        0
 40
-0.6
 41
-30.0
 62
     5
 63
     7
421
 16777215
 74
     0
 91
        4
 64
     7
 65
   257
 75
     1
175
     1
 42
1.0
 92
        8
 66
     7
 43
1.0
 76
     1
 77
     6
 78
     2
 67
     7
 79
     5
170
     0
171
     0
290
     0
174
     0
 93
        1
 44
0.0
173
     0
291
     1
 45
0.0
  0
VISUALSTYLE
  5
28B
102
{ACAD_REACTORS
330
27F
102
}
330
27F
100
AcDbVisualStyle
  2
Brighten
 70
    12
 71
     2
 72
     2
 73
     0
 90
        0
 40
-0.6
 41
-30.0
 62
     5
 63
     7
421
 16777215
 74
     1
 91
        4
 64
     7
 65
   257
 75
     1
175
     1
 42
1.0
 92
        8
 66
     7
 43
1.0
 76
     1
 77
     6
 78
     2
 67
     7
 79
     5
170
     0
171
     0
290
     0
174
     0
 93
        1
 44
50.0
173
     0
291
     1
 45
0.0
  0
VISUALSTYLE
  5
28F
102
{ACAD_REACTORS
330
27F
102
}
330
27F
100
AcDbVisualStyle
  2
ColorChange
 70
    16
 71
     2
 72
     2
 73
     3
 90
        0
 40
-0.6
 41
-30.0
 62
     5
 63
     8
421
  8421504
 74
     1
 91
        4
 64
     7
 65
   257
 75
     1
175
     1
 42
1.0
 92
        8
 66
     8
424
  8421504
 43
1.0
 76
     1
 77
     6
 78
     2
 67
     7
 79
     5
170
     0
171
     0
290
     0
174
     0
 93
        1
 44
0.0
173
     0
291
     1
 45
0.0
  0
VISUALSTYLE
  5
288
102
{ACAD_REACTORS
330
27F
102
}
330
27F
100
AcDbVisualStyle
  2
Conceptual
 70
     9
 71
     3
 72
     2
 73
     0
 90
        0
 40
-0.6
 41
-30.0
 62
     5
 63
     7
421
 16777215
 74
     2
 91
        2
 64
     7
 65
   257
 75
     1
175
     1
 42
40.0
 92
        8
 66
     7
 43
1.0
 76
     1
 77
     6
 78
     2
 67
     7
 79
     3
170
     0
171
     0
290
     0
174
     0
 93
        1
 44
0.0
173
     0
291
     0
 45
0.0
  0
VISUALSTYLE
  5
28A
102
{ACAD_REACTORS
330
27F
102
}
330
27F
100
AcDbVisualStyle
  2
Dim
 70
    11
 71
     2
 72
     2
 73
     0
 90
        0
 40
-0.6
 41
-30.0
 62
     5
 63
     7
421
 16777215
 74
     1
 91
        4
 64
     7
 65
   257
 75
     1
175
     1
 42
1.0
 92
        8
 66
     7
 43
1.0
 76
     1
 77
     6
 78
     2
 67
     7
 79
     5
170
     0
171
     0
290
     0
174
     0
 93
        1
 44
-50.0
173
     0
291
     1
 45
0.0
  0
VISUALSTYLE
  5
28E
102
{ACAD_REACTORS
330
27F
102
}
330
27F
100
AcDbVisualStyle
  2
Facepattern
 70
    15
 71
     2
 72
     2
 73
     0
 90
        0
 40
-0.6
 41
-30.0
 62
     5
 63
     7
421
 16777215
 74
     1
 91
        4
 64
     7
 65
   257
 75
     1
175
     1
 42
1.0
 92
        8
 66
     7
 43
1.0
 76
     1
 77
     6
 78
     2
 67
     7
 79
     5
170
     0
171
     0
290
     0
174
     0
 93
        1
 44
0.0
173
     0
291
     1
 45
0.0
  0
VISUALSTYLE
  5
280
102
{ACAD_REACTORS
330
27F
102
}
330
27F
100
AcDbVisualStyle
  2
Flat
 70
     0
 71
     2
 72
     1
 73
     1
 90
        2
 40
-0.6
 41
30.0
 62
     5
 63
     7
421
 16777215
 74
     0
 91
        4
 64
     7
 65
   257
 75
     1
175
     1
 42
1.0
 92
        8
 66
     7
 43
1.0
 76
     1
 77
     6
 78
     2
 67
     7
 79
     5
170
     0
171
     0
290
     0
174
     0
 93
       13
 44
0.0
173
     0
291
     1
 45
0.0
  0
VISUALSTYLE
  5
281
102
{ACAD_REACTORS
330
27F
102
}
330
27F
100
AcDbVisualStyle
  2
FlatWithEdges
 70
     1
 71
     2
 72
     1
 73
     1
 90
        2
 40
-0.6
 41
30.0
 62
     5
 63
     7
421
 16777215
 74
     1
 91
        4
 64
     7
 65
   257
 75
     1
175
     1
 42
1.0
 92
        0
 66
   257
 43
1.0
 76
     1
 77
     6
 78
     2
 67
     7
 79
     5
170
     0
171
     0
290
     0
174
     0
 93
       13
 44
0.0
173
     0
291
     1
 45
0.0
  0
VISUALSTYLE
  5
282
102
{ACAD_REACTORS
330
27F
102
}
330
27F
100
AcDbVisualStyle
  2
Gouraud
 70
     2
 71
     2
 72
     2
 73
     1
 90
        2
 40
-0.6
 41
30.0
 62
     5
 63
     7
421
 16777215
 74
     0
 91
        4
 64
     7
 65
   257
 75
     1
175
     1
 42
1.0
 92
        0
 66
     7
 43
1.0
 76
     1
 77
     6
 78
     2
 67
     7
 79
     5
170
     0
171
     0
290
     0
174
     0
 93
       13
 44
0.0
173
     0
291
     1
 45
0.0
  0
VISUALSTYLE
  5
283
102
{ACAD_REACTORS
330
27F
102
}
330
27F
100
AcDbVisualStyle
  2
GouraudWithEdges
 70
     3
 71
     2
 72
     2
 73
     1
 90
        2
 40
-0.6
 41
30.0
 62
     5
 63
     7
421
 16777215
 74
     1
 91
        4
 64
     7
 65
   257
 75
     1
175
     1
 42
1.0
 92
        0
 66
   257
 43
1.0
 76
     1
 77
     6
 78
     2
 67
     7
 79
     5
170
     0
171
     0
290
     0
174
     0
 93
       13
 44
0.0
173
     0
291
     1
 45
0.0
  0
VISUALSTYLE
  5
28D
102
{ACAD_REACTORS
330
27F
102
}
330
27F
100
AcDbVisualStyle
  2
Linepattern
 70
    14
 71
     2
 72
     2
 73
     0
 90
        0
 40
-0.6
 41
-30.0
 62
     5
 63
     7
421
 16777215
 74
     1
 91
        4
 64
     7
 65
   257
 75
     7
175
     7
 42
1.0
 92
        8
 66
     7
 43
1.0
 76
     1
 77
     6
 78
     2
 67
     7
 79
     5
170
     0
171
     0
290
     0
174
     0
 93
        1
 44
0.0
173
     0
291
     1
 45
0.0
  0
VISUALSTYLE
  5
289
102
{ACAD_REACTORS
330
27F
102
}
330
27F
100
AcDbVisualStyle
  2
Realistic
 70
     8
 71
     2
 72
     2
 73
     0
 90
        0
 40
-0.6
 41
-30.0
 62
     5
 63
     7
421
 16777215
 74
     1
 91
        0
 64
     7
 65
   257
 75
     1
175
     1
 42
1.0
 92
        8
 66
     8
424
  7895160
 43
1.0
 76
     1
 77
     6
 78
     2
 67
     7
 79
     5
170
     0
171
     0
290
     0
174
     0
 93
       13
 44
0.0
173
     0
291
     0
 45
0.0
  0
VISUALSTYLE
  5
28C
102
{ACAD_REACTORS
330
27F
102
}
330
27F
100
AcDbVisualStyle
  2
Thicken
 70
    13
 71
     2
 72
     2
 73
     0
 90
        0
 40
-0.6
 41
-30.0
 62
     5
 63
     7
421
 16777215
 74
     1
 91
        4
 64
     7
 65
   257
 75
     1
175
     1
 42
1.0
 92
       12
 66
     7
 43
1.0
 76
     1
 77
     6
 78
     2
 67
     7
 79
     5
170
     0
171
     0
290
     0
174
     0
 93
        1
 44
0.0
173
     0
291
     1
 45
0.0
  0
DICTIONARYVAR
  5
2FA
102
{ACAD_REACTORS
330
34
102
}
330
34
100
DictionaryVariables
280
     0
  1
1:2.5
  0
DICTIONARYVAR
  5
2F8
102
{ACAD_REACTORS
330
34
102
}
330
34
100
DictionaryVariables
280
     0
  1
STANDARD
  0
DICTIONARYVAR
  5
140
102
{ACAD_REACTORS
330
34
102
}
330
34
100
DictionaryVariables
280
     0
  1
STANDARD
  0
DICTIONARYVAR
  5
AC
102
{ACAD_REACTORS
330
34
102
}
330
34
100
DictionaryVariables
280
     0
  1
1
  0
DICTIONARYVAR
  5
35
102
{ACAD_REACTORS
330
34
102
}
330
34
100
DictionaryVariables
280
     0
  1
1
  0
DICTIONARYVAR
  5
4C52
102
{ACAD_REACTORS
330
34
102
}
330
34
100
DictionaryVariables
280
     0
  1
1
  0
DICTIONARYVAR
  5
4C53
102
{ACAD_REACTORS
330
34
102
}
330
34
100
DictionaryVariables
280
     0
  1
15
  0
DICTIONARYVAR
  5
2FB
102
{ACAD_REACTORS
330
34
102
}
330
34
100
DictionaryVariables
280
     0
  1
0
  0
DICTIONARYVAR
  5
2F9
102
{ACAD_REACTORS
330
34
102
}
330
34
100
DictionaryVariables
280
     0
  1
0
  0
DICTIONARY
  5
161B
102
{ACAD_REACTORS
330
49
102
}
330
49
100
AcDbDictionary
281
     1
  0
DICTIONARY
  5
4A
102
{ACAD_REACTORS
330
49
102
}
330
49
100
AcDbDictionary
281
     1
  0
XRECORD
  5
12B
102
{ACAD_REACTORS
330
49
102
}
330
49
100
AcDbXrecord
280
     1
 90
-1023410169
  0
DICTIONARY
  5
2F5
330
122
100
AcDbDictionary
280
     1
281
     1
  3
ACAD_ROUNDTRIP_2008_TABLESTYLE_CELLSTYLEMAP
360
58DB
  0
CELLSTYLEMAP
  5
58DB
102
{ACAD_REACTORS
330
2F5
102
}
330
2F5
100
AcDbCellStyleMap
 90
        3
300
CELLSTYLE
  1
TABLEFORMAT_BEGIN
 90
        5
170
     1
 91
        0
 92
    32768
 62
   257
 93
        1
300
CONTENTFORMAT
  1
CONTENTFORMAT_BEGIN
 90
        0
 91
        0
 92
      512
 93
        0
300

 40
0.0
140
1.0
 94
        5
 62
     0
340
11
144
6.0
309
CONTENTFORMAT_END
171
     1
301
MARGIN
  1
CELLMARGIN_BEGIN
 40
1.5
 40
1.5
 40
1.5
 40
1.5
 40
0.18
 40
0.18
309
CELLMARGIN_END
 94
        6
 95
        1
302
GRIDFORMAT
  1
GRIDFORMAT_BEGIN
 90
        0
 91
        1
 62
     0
 92
       -2
340
0
 93
        0
 40
0.045
309
GRIDFORMAT_END
 95
        2
302
GRIDFORMAT
  1
GRIDFORMAT_BEGIN
 90
        0
 91
        1
 62
     0
 92
       -2
340
0
 93
        0
 40
0.045
309
GRIDFORMAT_END
 95
        4
302
GRIDFORMAT
  1
GRIDFORMAT_BEGIN
 90
        0
 91
        1
 62
     0
 92
       -2
340
0
 93
        0
 40
0.045
309
GRIDFORMAT_END
 95
        8
302
GRIDFORMAT
  1
GRIDFORMAT_BEGIN
 90
        0
 91
        1
 62
     0
 92
       -2
340
0
 93
        0
 40
0.045
309
GRIDFORMAT_END
 95
       16
302
GRIDFORMAT
  1
GRIDFORMAT_BEGIN
 90
        0
 91
        1
 62
     0
 92
       -2
340
0
 93
        0
 40
0.045
309
GRIDFORMAT_END
 95
       32
302
GRIDFORMAT
  1
GRIDFORMAT_BEGIN
 90
        0
 91
        1
 62
     0
 92
       -2
340
0
 93
        0
 40
0.045
309
GRIDFORMAT_END
309
TABLEFORMAT_END
  1
CELLSTYLE_BEGIN
 90
        1
 91
        1
300
_TITLE
309
CELLSTYLE_END
300
CELLSTYLE
  1
TABLEFORMAT_BEGIN
 90
        5
170
     1
 91
        0
 92
        0
 62
   257
 93
        1
300
CONTENTFORMAT
  1
CONTENTFORMAT_BEGIN
 90
        0
 91
        0
 92
      512
 93
        0
300

 40
0.0
140
1.0
 94
        5
 62
     0
340
11
144
4.5
309
CONTENTFORMAT_END
171
     1
301
MARGIN
  1
CELLMARGIN_BEGIN
 40
1.5
 40
1.5
 40
1.5
 40
1.5
 40
0.18
 40
0.18
309
CELLMARGIN_END
 94
        6
 95
        1
302
GRIDFORMAT
  1
GRIDFORMAT_BEGIN
 90
        0
 91
        1
 62
     0
 92
       -2
340
0
 93
        0
 40
0.045
309
GRIDFORMAT_END
 95
        2
302
GRIDFORMAT
  1
GRIDFORMAT_BEGIN
 90
        0
 91
        1
 62
     0
 92
       -2
340
0
 93
        0
 40
0.045
309
GRIDFORMAT_END
 95
        4
302
GRIDFORMAT
  1
GRIDFORMAT_BEGIN
 90
        0
 91
        1
 62
     0
 92
       -2
340
0
 93
        0
 40
0.045
309
GRIDFORMAT_END
 95
        8
302
GRIDFORMAT
  1
GRIDFORMAT_BEGIN
 90
        0
 91
        1
 62
     0
 92
       -2
340
0
 93
        0
 40
0.045
309
GRIDFORMAT_END
 95
       16
302
GRIDFORMAT
  1
GRIDFORMAT_BEGIN
 90
        0
 91
        1
 62
     0
 92
       -2
340
0
 93
        0
 40
0.045
309
GRIDFORMAT_END
 95
       32
302
GRIDFORMAT
  1
GRIDFORMAT_BEGIN
 90
        0
 91
        1
 62
     0
 92
       -2
340
0
 93
        0
 40
0.045
309
GRIDFORMAT_END
309
TABLEFORMAT_END
  1
CELLSTYLE_BEGIN
 90
        2
 91
        1
300
_HEADER
309
CELLSTYLE_END
300
CELLSTYLE
  1
TABLEFORMAT_BEGIN
 90
        5
170
     1
 91
        0
 92
        0
 62
   257
 93
        1
300
CONTENTFORMAT
  1
CONTENTFORMAT_BEGIN
 90
        0
 91
        0
 92
      512
 93
        0
300

 40
0.0
140
1.0
 94
        2
 62
     0
340
11
144
4.5
309
CONTENTFORMAT_END
171
     1
301
MARGIN
  1
CELLMARGIN_BEGIN
 40
1.5
 40
1.5
 40
1.5
 40
1.5
 40
0.18
 40
0.18
309
CELLMARGIN_END
 94
        6
 95
        1
302
GRIDFORMAT
  1
GRIDFORMAT_BEGIN
 90
        0
 91
        1
 62
     0
 92
       -2
340
0
 93
        0
 40
0.045
309
GRIDFORMAT_END
 95
        2
302
GRIDFORMAT
  1
GRIDFORMAT_BEGIN
 90
        0
 91
        1
 62
     0
 92
       -2
340
0
 93
        0
 40
0.045
309
GRIDFORMAT_END
 95
        4
302
GRIDFORMAT
  1
GRIDFORMAT_BEGIN
 90
        0
 91
        1
 62
     0
 92
       -2
340
0
 93
        0
 40
0.045
309
GRIDFORMAT_END
 95
        8
302
GRIDFORMAT
  1
GRIDFORMAT_BEGIN
 90
        0
 91
        1
 62
     0
 92
       -2
340
0
 93
        0
 40
0.045
309
GRIDFORMAT_END
 95
       16
302
GRIDFORMAT
  1
GRIDFORMAT_BEGIN
 90
        0
 91
        1
 62
     0
 92
       -2
340
0
 93
        0
 40
0.045
309
GRIDFORMAT_END
 95
       32
302
GRIDFORMAT
  1
GRIDFORMAT_BEGIN
 90
        0
 91
        1
 62
     0
 92
       -2
340
0
 93
        0
 40
0.045
309
GRIDFORMAT_END
309
TABLEFORMAT_END
  1
CELLSTYLE_BEGIN
 90
        3
 91
        2
300
_DATA
309
CELLSTYLE_END
  0
ENDSEC
  0
EOF
