  0
SECTION
  2
HEADER
  9
$ACADVER
  1
AC1021
  9
$ACADMAINTVER
 70
    26
  9
$DWGCODEPAGE
  3
ANSI_932
  9
$LASTSAVEDBY
  1
Htm_Terada
  9
$CUSTOMPROPERTYTAG
  1
AmdtFileType
  9
$CUSTOMPROPERTY
  1
84
  9
$INSBASE
 10
0.0
 20
0.0
 30
0.0
  9
$EXTMIN
 10
342.8950467999998
 20
225.9516272660782
 30
0.0
  9
$EXTMAX
 10
609.3040132590869
 20
567.2913732160781
 30
0.0
  9
$LIMMIN
 10
-0.0000002271699202
 20
0.0
  9
$LIMMAX
 10
1188.00000022717
 20
840.0000000000003
  9
$ORTHOMODE
 70
     1
  9
$REGENMODE
 70
     1
  9
$FILLMODE
 70
     1
  9
$QTEXTMODE
 70
     0
  9
$MIRRTEXT
 70
     1
  9
$LTSCALE
 40
2.0
  9
$ATTMODE
 70
     1
  9
$TEXTSIZE
 40
25.0
  9
$TRACEWID
 40
1.0
  9
$TEXTSTYLE
  7
SEISA
  9
$CLAYER
  8
AM_11 想像線
  9
$CELTYPE
  6
ByLayer
  9
$CECOLOR
 62
   256
  9
$CELTSCALE
 40
1.0
  9
$DISPSILH
 70
     0
  9
$DIMSCALE
 40
2.0
  9
$DIMASZ
 40
2.5
  9
$DIMEXO
 40
0.625
  9
$DIMDLI
 40
10.0
  9
$DIMRND
 40
0.0
  9
$DIMDLE
 40
0.0
  9
$DIMEXE
 40
0.625
  9
$DIMTP
 40
0.1
  9
$DIMTM
 40
0.1
  9
$DIMTXT
 40
3.5
  9
$DIMCEN
 40
0.0
  9
$DIMTSZ
 40
0.0
  9
$DIMTOL
 70
     0
  9
$DIMLIM
 70
     0
  9
$DIMTIH
 70
     0
  9
$DIMTOH
 70
     0
  9
$DIMSE1
 70
     0
  9
$DIMSE2
 70
     0
  9
$DIMTAD
 70
     3
  9
$DIMZIN
 70
     8
  9
$DIMBLK
  1
Open30
  9
$DIMASO
 70
     1
  9
$DIMSHO
 70
     1
  9
$DIMPOST
  1

  9
$DIMAPOST
  1
"
  9
$DIMALT
 70
     0
  9
$DIMALTD
 70
     2
  9
$DIMALTF
 40
0.0393701
  9
$DIMLFAC
 40
1.0
  9
$DIMTOFL
 70
     1
  9
$DIMTVP
 40
0.0
  9
$DIMTIX
 70
     0
  9
$DIMSOXD
 70
     0
  9
$DIMSAH
 70
     0
  9
$DIMBLK1
  1

  9
$DIMBLK2
  1

  9
$DIMSTYLE
  2
SEISA
  9
$DIMCLRD
 70
     3
  9
$DIMCLRE
 70
     3
  9
$DIMCLRT
 70
     3
  9
$DIMTFAC
 40
0.71
  9
$DIMGAP
 40
1.5
  9
$DIMJUST
 70
     0
  9
$DIMSD1
 70
     0
  9
$DIMSD2
 70
     0
  9
$DIMTOLJ
 70
     0
  9
$DIMTZIN
 70
     0
  9
$DIMALTZ
 70
     0
  9
$DIMALTTZ
 70
     8
  9
$DIMUPT
 70
     0
  9
$DIMDEC
 70
     2
  9
$DIMTDEC
 70
     3
  9
$DIMALTU
 70
     2
  9
$DIMALTTD
 70
     2
  9
$DIMTXSTY
  7
SEISA
  9
$DIMAUNIT
 70
     0
  9
$DIMADEC
 70
     0
  9
$DIMALTRND
 40
0.0
  9
$DIMAZIN
 70
     2
  9
$DIMDSEP
 70
    46
  9
$DIMATFIT
 70
     3
  9
$DIMFRAC
 70
     0
  9
$DIMLDRBLK
  1
Open30
  9
$DIMLUNIT
 70
     2
  9
$DIMLWD
 70
    -1
  9
$DIMLWE
 70
    -1
  9
$DIMTMOVE
 70
     0
  9
$DIMFXL
 40
1.0
  9
$DIMFXLON
 70
     0
  9
$DIMJOGANG
 40
0.7853981633974483
  9
$DIMTFILL
 70
     0
  9
$DIMTFILLCLR
 70
     0
  9
$DIMARCSYM
 70
     1
  9
$DIMLTYPE
  6

  9
$DIMLTEX1
  6

  9
$DIMLTEX2
  6

  9
$LUNITS
 70
     2
  9
$LUPREC
 70
     2
  9
$SKETCHINC
 40
1.0
  9
$FILLETRAD
 40
0.4
  9
$AUNITS
 70
     0
  9
$AUPREC
 70
     0
  9
$MENU
  1
.
  9
$ELEVATION
 40
0.0
  9
$PELEVATION
 40
0.0
  9
$THICKNESS
 40
0.0
  9
$LIMCHECK
 70
     0
  9
$CHAMFERA
 40
1.0
  9
$CHAMFERB
 40
1.000000000000113
  9
$CHAMFERC
 40
1.0
  9
$CHAMFERD
 40
0.7853981633975337
  9
$SKPOLY
 70
     0
  9
$TDCREATE
 40
2454964.594407940
  9
$TDUCREATE
 40
2454964.219407940
  9
$TDUPDATE
 40
2456479.546416193
  9
$TDUUPDATE
 40
2456479.171416193
  9
$TDINDWG
 40
0.1905440046
  9
$TDUSRTIMER
 40
0.1905434606
  9
$USRTIMER
 70
     1
  9
$ANGBASE
 50
0.0
  9
$ANGDIR
 70
     0
  9
$PDMODE
 70
     0
  9
$PDSIZE
 40
0.0
  9
$PLINEWID
 40
0.0
  9
$SPLFRAME
 70
     0
  9
$SPLINETYPE
 70
     6
  9
$SPLINESEGS
 70
     8
  9
$HANDSEED
  5
5C01
  9
$SURFTAB1
 70
     6
  9
$SURFTAB2
 70
     6
  9
$SURFTYPE
 70
     6
  9
$SURFU
 70
     6
  9
$SURFV
 70
     6
  9
$UCSBASE
  2

  9
$UCSNAME
  2

  9
$UCSORG
 10
0.0
 20
0.0
 30
0.0
  9
$UCSXDIR
 10
1.0
 20
0.0
 30
0.0
  9
$UCSYDIR
 10
0.0
 20
1.0
 30
0.0
  9
$UCSORTHOREF
  2

  9
$UCSORTHOVIEW
 70
     0
  9
$UCSORGTOP
 10
0.0
 20
0.0
 30
0.0
  9
$UCSORGBOTTOM
 10
0.0
 20
0.0
 30
0.0
  9
$UCSORGLEFT
 10
0.0
 20
0.0
 30
0.0
  9
$UCSORGRIGHT
 10
0.0
 20
0.0
 30
0.0
  9
$UCSORGFRONT
 10
0.0
 20
0.0
 30
0.0
  9
$UCSORGBACK
 10
0.0
 20
0.0
 30
0.0
  9
$PUCSBASE
  2

  9
$PUCSNAME
  2

  9
$PUCSORG
 10
0.0
 20
0.0
 30
0.0
  9
$PUCSXDIR
 10
1.0
 20
0.0
 30
0.0
  9
$PUCSYDIR
 10
0.0
 20
1.0
 30
0.0
  9
$PUCSORTHOREF
  2

  9
$PUCSORTHOVIEW
 70
     0
  9
$PUCSORGTOP
 10
0.0
 20
0.0
 30
0.0
  9
$PUCSORGBOTTOM
 10
0.0
 20
0.0
 30
0.0
  9
$PUCSORGLEFT
 10
0.0
 20
0.0
 30
0.0
  9
$PUCSORGRIGHT
 10
0.0
 20
0.0
 30
0.0
  9
$PUCSORGFRONT
 10
0.0
 20
0.0
 30
0.0
  9
$PUCSORGBACK
 10
0.0
 20
0.0
 30
0.0
  9
$USERI1
 70
     0
  9
$USERI2
 70
     0
  9
$USERI3
 70
     0
  9
$USERI4
 70
     0
  9
$USERI5
 70
     0
  9
$USERR1
 40
0.0
  9
$USERR2
 40
0.0
  9
$USERR3
 40
0.0
  9
$USERR4
 40
0.0
  9
$USERR5
 40
0.0
  9
$WORLDVIEW
 70
     1
  9
$SHADEDGE
 70
     3
  9
$SHADEDIF
 70
    70
  9
$TILEMODE
 70
     1
  9
$MAXACTVP
 70
    64
  9
$PINSBASE
 10
0.0
 20
0.0
 30
0.0
  9
$PLIMCHECK
 70
     0
  9
$PEXTMIN
 10
1.000000000000000E+20
 20
1.000000000000000E+20
 30
1.000000000000000E+20
  9
$PEXTMAX
 10
-1.000000000000000E+20
 20
-1.000000000000000E+20
 30
-1.000000000000000E+20
  9
$PLIMMIN
 10
0.0
 20
0.0
  9
$PLIMMAX
 10
420.0
 20
297.0
  9
$UNITMODE
 70
     0
  9
$VISRETAIN
 70
     1
  9
$PLINEGEN
 70
     0
  9
$PSLTSCALE
 70
     1
  9
$TREEDEPTH
 70
  3020
  9
$CMLSTYLE
  2
Standard
  9
$CMLJUST
 70
     0
  9
$CMLSCALE
 40
20.0
  9
$PROXYGRAPHICS
 70
     1
  9
$MEASUREMENT
 70
     1
  9
$CELWEIGHT
370
    -1
  9
$ENDCAPS
280
     0
  9
$JOINSTYLE
280
     0
  9
$LWDISPLAY
290
     0
  9
$INSUNITS
 70
     4
  9
$HYPERLINKBASE
  1

  9
$STYLESHEET
  1
SEISA.CTB
  9
$XEDIT
290
     1
  9
$CEPSNTYPE
380
     0
  9
$PSTYLEMODE
290
     1
  9
$FINGERPRINTGUID
  2
{52A735D3-CB70-4EBC-87C9-3B184277D9BF}
  9
$VERSIONGUID
  2
{F138B1C9-3792-4531-8EC5-459EC16F1DCB}
  9
$EXTNAMES
290
     1
  9
$PSVPSCALE
 40
0.0
  9
$OLESTARTUP
290
     0
  9
$SORTENTS
280
   127
  9
$INDEXCTL
280
     0
  9
$HIDETEXT
280
     0
  9
$XCLIPFRAME
290
     0
  9
$HALOGAP
280
     0
  9
$OBSCOLOR
 70
   257
  9
$OBSLTYPE
280
     0
  9
$INTERSECTIONDISPLAY
280
     0
  9
$INTERSECTIONCOLOR
 70
   257
  9
$DIMASSOC
280
     2
  9
$PROJECTNAME
  1

  9
$CAMERADISPLAY
290
     0
  9
$LENSLENGTH
 40
50.0
  9
$CAMERAHEIGHT
 40
0.0
  9
$STEPSPERSEC
 40
2.0
  9
$STEPSIZE
 40
6.0
  9
$3DDWFPREC
 40
2.0
  9
$PSOLWIDTH
 40
0.25
  9
$PSOLHEIGHT
 40
4.0
  9
$LOFTANG1
 40
1.570796326794896
  9
$LOFTANG2
 40
1.570796326794896
  9
$LOFTMAG1
 40
0.0
  9
$LOFTMAG2
 40
0.0
  9
$LOFTPARAM
 70
     7
  9
$LOFTNORMALS
280
     1
  9
$LATITUDE
 40
37.795
  9
$LONGITUDE
 40
-122.394
  9
$NORTHDIRECTION
 40
0.0
  9
$TIMEZONE
 70
 -8000
  9
$LIGHTGLYPHDISPLAY
280
     1
  9
$TILEMODELIGHTSYNCH
280
     1
  9
$CMATERIAL
347
27C
  9
$SOLIDHIST
280
     1
  9
$SHOWHIST
280
     1
  9
$DWFFRAME
280
     2
  9
$DGNFRAME
280
     0
  9
$REALWORLDSCALE
290
     1
  9
$INTERFERECOLOR
 62
     1
  9
$INTERFEREOBJVS
345
289
  9
$INTERFEREVPVS
346
286
  9
$CSHADOW
280
     0
  9
$SHADOWPLANELOCATION
 40
0.0
  0
ENDSEC
  0
SECTION
  2
CLASSES
  0
CLASS
  1
ACDBDICTIONARYWDFLT
  2
AcDbDictionaryWithDefault
  3
ObjectDBX Classes
 90
        0
 91
        1
280
     0
281
     0
  0
CLASS
  1
AMGSETTINGSOBJ
  2
AmgSettingsObj
  3
"AcadM|Product Description: AutoCAD Mechanical|Company: Autodesk, Inc."
 90
     1024
 91
        2
280
     0
281
     0
  0
CLASS
  1
ACME_DOCUMENT
  2
AcMeDbDoc
  3
AcMeServices
 90
     1024
 91
        1
280
     0
281
     0
  0
CLASS
  1
ACMESCOPE
  2
AcMeScope
  3
AcMeServices
 90
     1024
 91
        1
280
     0
281
     0
  0
CLASS
  1
ACMECOMMANDHISTORY
  2
AcMeCommandHistory
  3
AcMeServices
 90
     1024
 91
        1
280
     0
281
     0
  0
CLASS
  1
DICTIONARYVAR
  2
AcDbDictionaryVar
  3
ObjectDBX Classes
 90
        0
 91
        9
280
     0
281
     0
  0
CLASS
  1
ACIMSYSVARMAN
  2
AcImSysVarManager
  3
AcMeServices
 90
     1024
 91
        5
280
     0
281
     0
  0
CLASS
  1
ACIMREALSYSVAR
  2
AcImRealSysVar
  3
AcMeServices
 90
     1024
 91
        1
280
     0
281
     0
  0
CLASS
  1
ACIMINTSYSVAR
  2
AcImIntSysVar
  3
AcMeServices
 90
     1024
 91
       27
280
     0
281
     0
  0
CLASS
  1
ACMEDRAWINGMAN
  2
AcMeDrawingMan
  3
AcMeServices
 90
     1024
 91
        1
280
     0
281
     0
  0
CLASS
  1
ACMEVIEW
  2
AcMeView
  3
AcMeServices
 90
     1024
 91
        1
280
     0
281
     0
  0
CLASS
  1
ACDBENTITYCACHE
  2
AcMeEntityCache
  3
AcMeServices
 90
     1024
 91
        1
280
     0
281
     0
  0
CLASS
  1
GSMANAGER
  2
AcMeGSManager
  3
AcMeServices
 90
     1024
 91
        1
280
     0
281
     0
  0
CLASS
  1
AMDTINTERNALREACTOR
  2
AmdtInternalReactor
  3
AcMeServices
 90
     1024
 91
        2
280
     0
281
     0
  0
CLASS
  1
ACMESTATEMGR
  2
AcMeStateMgr
  3
AcMeServices
 90
     1024
 91
        1
280
     0
281
     0
  0
CLASS
  1
ACGREFMASTER
  2
AcGrefMaster
  3
AcAttribServices
 90
     1024
 91
        1
280
     0
281
     0
  0
CLASS
  1
ACME_DATABASE
  2
AcMeDbDatabase
  3
AcMeServices
 90
     1024
 91
        1
280
     0
281
     0
  0
CLASS
  1
ACRFINSADJUSTERMGR
  2
AcRfInsAdjusterMgr
  3
AcMeServices
 90
     1024
 91
        1
280
     0
281
     0
  0
CLASS
  1
ACGREFACADMASTER
  2
AcGrefacadMaster
  3
AcGrefServices
 90
     1024
 91
        1
280
     0
281
     0
  0
CLASS
  1
AMIMASTER
  2
AmiMaster
  3
AmiServices
 90
     1024
 91
        1
280
     0
281
     0
  0
CLASS
  1
ACIMSTRSYSVAR
  2
AcImStrSysVar
  3
AcMeServices
 90
     1024
 91
        5
280
     0
281
     0
  0
CLASS
  1
ACMSTANDARDJIS
  2
AcmStandardJIS
  3
"Amdt_StdImp|Product Description: AutoCAD Mechanical|Company: Autodesk, Inc."
 90
     1024
 91
        0
280
     0
281
     0
  0
CLASS
  1
AMGOBJPROPCFG
  2
AmgObjPropCfg
  3
"AmgLay|Product Description: AutoCAD Mechanical|Company: Autodesk, Inc."
 90
     1025
 91
        1
280
     0
281
     0
  0
CLASS
  1
ACMSURFSTANDARDJIS
  2
AcmSurfTextStdJIS
  3
"Amdt_StdImp|Product Description: AutoCAD Mechanical|Company: Autodesk, Inc."
 90
     1024
 91
        0
280
     0
281
     0
  0
CLASS
  1
ACMFCFSTANDARDJIS
  2
AcmFCFStdJIS
  3
"Amdt_StdImp|Product Description: AutoCAD Mechanical|Company: Autodesk, Inc."
 90
     1024
 91
        0
280
     0
281
     0
  0
CLASS
  1
ACMWELDSTANDARDJIS
  2
AcmWeldingStdJIS
  3
"Amdt_StdImp|Product Description: AutoCAD Mechanical|Company: Autodesk, Inc."
 90
     1024
 91
        0
280
     0
281
     0
  0
CLASS
  1
ACMIDSTANDARDJIS
  2
AcmIdStdJIS
  3
"Amdt_StdImp|Product Description: AutoCAD Mechanical|Company: Autodesk, Inc."
 90
     1024
 91
        0
280
     0
281
     0
  0
CLASS
  1
ACMDATUMSTANDARDJIS
  2
AcmDatumStdJIS
  3
"Amdt_StdImp|Product Description: AutoCAD Mechanical|Company: Autodesk, Inc."
 90
     1024
 91
        0
280
     0
281
     0
  0
CLASS
  1
ACMBOMSTANDARDJIS
  2
AcmBOMStdJIS
  3
"Amdt_StdImp|Product Description: AutoCAD Mechanical|Company: Autodesk, Inc."
 90
     1024
 91
        0
280
     0
281
     0
  0
CLASS
  1
ACMDETAILSTANDARDJIS
  2
AmdtDetailSymStdJIS
  3
"Amdt_StdImp|Product Description: AutoCAD Mechanical|Company: Autodesk, Inc."
 90
     1024
 91
        0
280
     0
281
     0
  0
CLASS
  1
ACMSECTIONSTANDARDJIS
  2
AmdtSectionSymStdJIS
  3
"Amdt_StdImp|Product Description: AutoCAD Mechanical|Company: Autodesk, Inc."
 90
     1024
 91
        0
280
     0
281
     0
  0
CLASS
  1
ACMCENTERLINESTANDARDJIS
  2
AmdtCenterLineStdJIS
  3
"Amdt_StdImp|Product Description: AutoCAD Mechanical|Company: Autodesk, Inc."
 90
     1024
 91
        0
280
     0
281
     0
  0
CLASS
  1
ACMTHREADLINESTANDARDJIS
  2
AmdtThreadLineStdJIS
  3
"Amdt_StdImp|Product Description: AutoCAD Mechanical|Company: Autodesk, Inc."
 90
     1024
 91
        0
280
     0
281
     0
  0
CLASS
  1
ACAMGLAYSTD
  2
AcAmgLayStd
  3
"AmgLay|Product Description: AutoCAD Mechanical|Company: Autodesk, Inc."
 90
     1024
 91
        1
280
     0
281
     0
  0
CLASS
  1
ACAMGDIMSTD
  2
AcAmgDimStd
  3
"AmgDim|Product Description: AutoCAD Mechanical|Company: Autodesk, Inc."
 90
     1024
 91
        1
280
     0
281
     0
  0
CLASS
  1
ACAMGTITLESTD
  2
AcAmgTitleStd
  3
"AmgTitle|Product Description: AutoCAD Mechanical|Company: Autodesk, Inc."
 90
     4095
 91
        1
280
     0
281
     0
  0
CLASS
  1
ACMDATADICTIONARY
  2
AcmDataDictionary
  3
"AcmSymBB|Product Description: AutoCAD Mechanical|Company: Autodesk, Inc."
 90
     1024
 91
        1
280
     0
281
     0
  0
CLASS
  1
ACMDATAENTRYBLOCK
  2
AcmDataEntryBlock
  3
AcmSymBB|Product Description: AutoCAD Mechanical|Company: Autodesk, Inc.
 90
     1024
 91
        0
280
     0
281
     0
  0
CLASS
  1
LAYER_INDEX
  2
AcDbLayerIndex
  3
ObjectDBX Classes
 90
        0
 91
        0
280
     0
281
     0
  0
CLASS
  1
IDBUFFER
  2
AcDbIdBuffer
  3
ObjectDBX Classes
 90
        0
 91
        0
280
     0
281
     0
  0
CLASS
  1
ACMNOTESTANDARDJIS
  2
AmdtNoteStdJIS
  3
"Amdt_StdImp|Product Description: AutoCAD Mechanical|Company: Autodesk, Inc."
 90
     1024
 91
        0
280
     0
281
     0
  0
CLASS
  1
ACAMGHOLECHARTSTDJIS
  2
AcAmgHoleChartStdJIS
  3
AmgDim|Product Description: AutoCAD Mechanical|Company: Autodesk, Inc.
 90
     1024
 91
        0
280
     0
281
     0
  0
CLASS
  1
AM_DRAWING_MGR
  2
AcDmDwgMgr
  3
AcMechDwgViewMgmt
 90
     1024
 91
        1
280
     0
281
     0
  0
CLASS
  1
AM_DWG_DOCUMENT
  2
AcDmDwgDocument
  3
AcMechDwgViewMgmt
 90
     1024
 91
        1
280
     0
281
     0
  0
CLASS
  1
AM_DWG_SHEET
  2
AcDmSheet
  3
AcMechDwgViewMgmt
 90
     1024
 91
        2
280
     0
281
     0
  0
CLASS
  1
AM_VIEWDIMPARMAP
  2
AcDmViewDimParMap
  3
AcMechDwgViewMgmt
 90
     1024
 91
        2
280
     0
281
     0
  0
CLASS
  1
AM_DWGMGR_NAME
  2
AcDmDwgMgrName
  3
AcMechDwgViewMgmt
 90
     1024
 91
        1
280
     0
281
     0
  0
CLASS
  1
AMDTMENUSTATEMGR
  2
AmdtMenuStateMgr
  3
McadcomServices
 90
     1024
 91
        1
280
     0
281
     0
  0
CLASS
  1
AMDTMCOMMENUSTATE
  2
AmdtMcomMenuState
  3
McadcomServices
 90
     1024
 91
        1
280
     0
281
     0
  0
CLASS
  1
MAPIAMMOUDLE
  2
MApiAmModule
  3
MApiAmServices
 90
     1024
 91
        1
280
     0
281
     0
  0
CLASS
  1
AMDTADMENUSTATE
  2
AmdtAdMenuState
  3
DesignerServices
 90
     1024
 91
        1
280
     0
281
     0
  0
CLASS
  1
ADAPPL
  2
AcAdAppl
  3
DesignerServices
 90
     1024
 91
        1
280
     0
281
     0
  0
CLASS
  1
DEPMGR
  2
AcAdDepMgr
  3
DesignerServices
 90
     1024
 91
        1
280
     0
281
     0
  0
CLASS
  1
PARAMMGR
  2
AcAdParamMgr
  3
DesignerServices
 90
     1024
 91
        1
280
     0
281
     0
  0
CLASS
  1
PARAMSCOPE
  2
AcAdParamScope
  3
DesignerServices
 90
     1024
 91
        1
280
     0
281
     0
  0
CLASS
  1
NAMEDAPPL
  2
AcAdNamedAppl
  3
DesignerServices
 90
     1024
 91
        1
280
     0
281
     0
  0
CLASS
  1
AMDTDMMENUSTATE
  2
AmdtDmMenuState
  3
AcMechDwgViewMgmt
 90
     1024
 91
        1
280
     0
281
     0
  0
CLASS
  1
AMDTAMMENUSTATE
  2
AmdtAmMenuState
  3
DesignerAssemblies
 90
     1024
 91
        1
280
     0
281
     0
  0
CLASS
  1
ACAMPROJECT
  2
AcAmProject
  3
DesignerAssemblies
 90
     1024
 91
        1
280
     0
281
     0
  0
CLASS
  1
ACAMGRCOMPDEF
  2
AcAmGrCompDef
  3
DesignerAssemblies
 90
     1024
 91
        1
280
     0
281
     0
  0
CLASS
  1
ACCMCONTEXT
  2
AcCmContext
  3
DesignerAssemblies
 90
     1024
 91
        1
280
     0
281
     0
  0
CLASS
  1
ACAMCOMPDEF
  2
AcAmCompDef
  3
DesignerAssemblies
 90
     1024
 91
        1
280
     0
281
     0
  0
CLASS
  1
ACAMCOMPDEFMGR
  2
AcAmCompDefMgr
  3
DesignerAssemblies
 90
     1024
 91
        1
280
     0
281
     0
  0
CLASS
  1
AMCONTEXTMGR
  2
AcAmContextMgr
  3
DesignerAssemblies
 90
     1024
 91
        1
280
     0
281
     0
  0
CLASS
  1
ACAMCONTEXTMODELER
  2
AcAmContextModeler
  3
DesignerAssemblies
 90
     1024
 91
        1
280
     0
281
     0
  0
CLASS
  1
CATALOGSTATE
  2
AcAmCatalogState
  3
DesignerAssemblies
 90
     1024
 91
        1
280
     0
281
     0
  0
CLASS
  1
ACAMGRCOMPDEFSET
  2
AcAmGrCompDefSet
  3
DesignerAssemblies
 90
     1024
 91
        1
280
     0
281
     0
  0
CLASS
  1
AMDTBROWSERDBTAB
  2
AmdtBrowserDbTab
  3
McadcomServices
 90
     1024
 91
        1
280
     0
281
     0
  0
CLASS
  1
CBROWSERAPPOBJECT
  2
CBrowserAppObject
  3
McadcomServices
 90
     1024
 91
        3
280
     0
281
     0
  0
CLASS
  1
DM_PLACEHOLDER
  2
AcDmSelsetPlaceholder
  3
AcMechDwgViewMgmt
 90
     1024
 91
        1
280
     0
281
     0
  0
CLASS
  1
TABLESTYLE
  2
AcDbTableStyle
  3
ObjectDBX Classes
 90
     4095
 91
        1
280
     0
281
     0
  0
CLASS
  1
VAACXREFPANELOBJECT
  2
VaAcXREFPanelObject
  3
VAAC_ADDIN
 90
        0
 91
        0
280
     0
281
     0
  0
CLASS
  1
VAACIMAGEINVENTORY
  2
VaAcImageInventory
  3
VAAC_ADDIN
 90
        0
 91
        0
280
     0
281
     0
  0
CLASS
  1
AMDTNOTETEMPLATEDB
  2
AmdtNoteTemplateDB
  3
AcmSymBB|Product Description: AutoCAD Mechanical|Company: Autodesk, Inc.
 90
     1024
 91
        6
280
     0
281
     0
  0
CLASS
  1
ACAMGFILTERDAT
  2
AcAmgFilterDat
  3
"AcadM|Product Description: AutoCAD Mechanical|Company: Autodesk, Inc."
 90
     1024
 91
        0
280
     0
281
     0
  0
CLASS
  1
MATERIAL
  2
AcDbMaterial
  3
ObjectDBX Classes
 90
     1153
 91
        3
280
     0
281
     0
  0
CLASS
  1
VISUALSTYLE
  2
AcDbVisualStyle
  3
ObjectDBX Classes
 90
     4095
 91
       16
280
     0
281
     0
  0
CLASS
  1
ACRFATTGENMGR
  2
AcRfAttGeneralMgr
  3
AcAttribServices
 90
     1024
 91
        0
280
     0
281
     0
  0
CLASS
  1
ACRFOBJATTMGR
  2
AcRfObjAttGroupMgr
  3
AcAttribServices
 90
     1024
 91
        0
280
     0
281
     0
  0
CLASS
  1
ACRFMCADAPIATTHOLDER
  2
AcRfMCADAPIAttHolder
  3
AcAttribServices
 90
     1024
 91
        0
280
     0
281
     0
  0
CLASS
  1
AMDTSYSATTR
  2
AmdtSystemAttribute
  3
AcAttribServices
 90
     1024
 91
        0
280
     0
281
     0
  0
CLASS
  1
ACMTAPERSTANDARDJIS
  2
AcmTaperStdJIS
  3
"Amdt_StdImp|Product Description: AutoCAD Mechanical|Company: Autodesk, Inc."
 90
     1024
 91
        0
280
     0
281
     0
  0
CLASS
  1
CAMSSTRUCTBTNSTATE
  2
StructBtnState
  3
DesignerAssemblies
 90
     1024
 91
        0
280
     0
281
     0
  0
CLASS
  1
SCALE
  2
AcDbScale
  3
ObjectDBX Classes
 90
     1153
 91
       34
280
     0
281
     0
  0
CLASS
  1
MLEADERSTYLE
  2
AcDbMLeaderStyle
  3
ACDB_MLEADERSTYLE_CLASS
 90
     4095
 91
        1
280
     0
281
     0
  0
CLASS
  1
ACMANOOTATIONVIEWSTANDARDJIS
  2
AmdtAnViewStdJIS
  3
"Amdt_StdImp|Product Description: AutoCAD Mechanical|Company: Autodesk, Inc."
 90
     1024
 91
        0
280
     0
281
     0
  0
CLASS
  1
ACMSURFSTANDARDJIS2003
  2
AcmSurfTextStdJIS2003
  3
"Amdt_StdImp|Product Description: AutoCAD Mechanical|Company: Autodesk, Inc."
 90
     1024
 91
        0
280
     0
281
     0
  0
CLASS
  1
CELLSTYLEMAP
  2
AcDbCellStyleMap
  3
ObjectDBX Classes
 90
     1152
 91
        2
280
     0
281
     0
  0
CLASS
  1
ACMFCFSTANDARDJIS98
  2
AcmFCFStdJIS98
  3
"Amdt_StdImp|Product Description: AutoCAD Mechanical|Company: Autodesk, Inc."
 90
     1024
 91
        0
280
     0
281
     0
  0
CLASS
  1
SORTENTSTABLE
  2
AcDbSortentsTable
  3
ObjectDBX Classes
 90
        0
 91
       11
280
     0
281
     0
  0
CLASS
  1
DIMASSOC
  2
AcDbDimAssoc
  3
"AcDbDimAssoc|Product Desc:     AcDim ARX App For Dimension|Company:          Autodesk, Inc.|WEB Address:      www.autodesk.com"
 90
        0
 91
       14
280
     0
281
     0
  0
CLASS
  1
STDPART2D
  2
AmgStdPart
  3
AmgStdPart|Product Description: AutoCAD Mechanical|Company: Autodesk, Inc.
 90
     4095
 91
        0
280
     0
281
     1
  0
CLASS
  1
ACMDATAENTRYPART
  2
AcmDataEntryPart
  3
AcmSymBB|Product Description: AutoCAD Mechanical|Company: Autodesk, Inc.
 90
     1024
 91
        0
280
     0
281
     0
  0
CLASS
  1
ACMPARTREF
  2
AcmPartRef
  3
"AcmSymBB|Product Description: AutoCAD Mechanical|Company: Autodesk, Inc."
 90
     4095
 91
        0
280
     0
281
     1
  0
CLASS
  1
ACDBSTDPARTRES_LINE
  2
AcDbStdPartRes_Line
  3
AmgStdPart|Product Description: AutoCAD Mechanical|Company: Autodesk, Inc.
 90
     1024
 91
        0
280
     0
281
     0
  0
CLASS
  1
ACMBOM
  2
AcmBom
  3
"AcmSymBB|Product Description: AutoCAD Mechanical|Company: Autodesk, Inc."
 90
     1024
 91
        0
280
     0
281
     0
  0
CLASS
  1
AMDTFORMULAUPDATEDISPATCHER
  2
AmdtFormulaUpdateDispatcher
  3
AcMeServices
 90
     1024
 91
        0
280
     0
281
     0
  0
CLASS
  1
ACMBOMROW
  2
AcmBomRow
  3
"AcmSymBB|Product Description: AutoCAD Mechanical|Company: Autodesk, Inc."
 90
     1024
 91
        0
280
     0
281
     0
  0
CLASS
  1
ACMPARTLIST
  2
AcmPartList
  3
"AcmSymBB|Product Description: AutoCAD Mechanical|Company: Autodesk, Inc."
 90
     4095
 91
        0
280
     0
281
     1
  0
CLASS
  1
ACDBLINERES
  2
AcDbLineRes
  3
AcGrefServices
 90
     1024
 91
        0
280
     0
281
     0
  0
CLASS
  1
ACRFINSADJ
  2
AcRfInsAdjuster
  3
AcMeServices
 90
     1024
 91
        0
280
     0
281
     0
  0
CLASS
  1
ACMSTANDARDISO
  2
AcmStandardISO
  3
"Amdt_StdImp|Product Description: AutoCAD Mechanical|Company: Autodesk, Inc."
 90
     1024
 91
        1
280
     0
281
     0
  0
CLASS
  1
AMDTEDGESTANDARDISO13715
  2
AmdtEdgeStdISO13715
  3
"Amdt_StdImp|Product Description: AutoCAD Mechanical|Company: Autodesk, Inc."
 90
     1024
 91
        1
280
     0
281
     0
  0
CLASS
  1
ACMSURFSTANDARDISO2002
  2
AcmSurfTextStdISO2002
  3
"Amdt_StdImp|Product Description: AutoCAD Mechanical|Company: Autodesk, Inc."
 90
     1024
 91
        1
280
     0
281
     0
  0
CLASS
  1
ACMFCFSTANDARDISO
  2
AcmFCFStdISO
  3
"Amdt_StdImp|Product Description: AutoCAD Mechanical|Company: Autodesk, Inc."
 90
     1024
 91
        1
280
     0
281
     0
  0
CLASS
  1
ACMWELDSTANDARDISO
  2
AcmWeldingStdISO
  3
"Amdt_StdImp|Product Description: AutoCAD Mechanical|Company: Autodesk, Inc."
 90
     1024
 91
        1
280
     0
281
     0
  0
CLASS
  1
ACMIDSTANDARDISO
  2
AcmIdStdISO
  3
"Amdt_StdImp|Product Description: AutoCAD Mechanical|Company: Autodesk, Inc."
 90
     1024
 91
        1
280
     0
281
     0
  0
CLASS
  1
ACMDATUMSTANDARDISO
  2
AcmDatumStdISO
  3
"Amdt_StdImp|Product Description: AutoCAD Mechanical|Company: Autodesk, Inc."
 90
     1024
 91
        1
280
     0
281
     0
  0
CLASS
  1
ACMBOMSTANDARDISO
  2
AcmBOMStdISO
  3
"Amdt_StdImp|Product Description: AutoCAD Mechanical|Company: Autodesk, Inc."
 90
     1024
 91
        1
280
     0
281
     0
  0
CLASS
  1
ACMDETAILSTANDARDISO
  2
AmdtDetailSymStdISO
  3
"Amdt_StdImp|Product Description: AutoCAD Mechanical|Company: Autodesk, Inc."
 90
     1024
 91
        1
280
     0
281
     0
  0
CLASS
  1
ACMSECTIONSTANDARDISO2001
  2
AmdtSectionSymStdISO2001
  3
"Amdt_StdImp|Product Description: AutoCAD Mechanical|Company: Autodesk, Inc."
 90
     1024
 91
        1
280
     0
281
     0
  0
CLASS
  1
ACMCENTERLINESTANDARDISO
  2
AmdtCenterLineStdISO
  3
"Amdt_StdImp|Product Description: AutoCAD Mechanical|Company: Autodesk, Inc."
 90
     1024
 91
        1
280
     0
281
     0
  0
CLASS
  1
ACMTHREADLINESTANDARDISO
  2
AmdtThreadLineStdISO
  3
"Amdt_StdImp|Product Description: AutoCAD Mechanical|Company: Autodesk, Inc."
 90
     1024
 91
        1
280
     0
281
     0
  0
CLASS
  1
ACMNOTESTANDARDISO
  2
AmdtNoteStdISO
  3
"Amdt_StdImp|Product Description: AutoCAD Mechanical|Company: Autodesk, Inc."
 90
     1024
 91
        1
280
     0
281
     0
  0
CLASS
  1
ACMTAPERSTANDARDISO
  2
AcmTaperStdISO
  3
"Amdt_StdImp|Product Description: AutoCAD Mechanical|Company: Autodesk, Inc."
 90
     1024
 91
        1
280
     0
281
     0
  0
CLASS
  1
ACMANOOTATIONVIEWSTANDARDISO
  2
AmdtAnViewStdISO
  3
"Amdt_StdImp|Product Description: AutoCAD Mechanical|Company: Autodesk, Inc."
 90
     1024
 91
        1
280
     0
281
     0
  0
CLASS
  1
ACAMGHOLECHARTSTDISO
  2
AcAmgHoleChartStdISO
  3
AmgDim|Product Description: AutoCAD Mechanical|Company: Autodesk, Inc.
 90
     1024
 91
        1
280
     0
281
     0
  0
CLASS
  1
EXACXREFPANELOBJECT
  2
ExAcXREFPanelObject
  3
EXAC_ESW
 90
     1025
 91
        0
280
     0
281
     0
  0
CLASS
  1
NPOCOLLECTION
  2
AcDbImpNonPersistentObjectsCollection
  3
ObjectDBX Classes
 90
     1153
 91
        0
280
     0
281
     0
  0
CLASS
  1
ACDBSTDPARTRES_ARC
  2
AcDbStdPartRes_Arc
  3
AmgStdPart|Product Description: AutoCAD Mechanical|Company: Autodesk, Inc.
 90
     1024
 91
        0
280
     0
281
     0
  0
CLASS
  1
AMDTNOTE
  2
AmdtNote
  3
"AcmSymBB|Product Description: AutoCAD Mechanical|Company: Autodesk, Inc."
 90
     4095
 91
        0
280
     0
281
     1
  0
CLASS
  1
PLOTSETTINGS
  2
AcDbPlotSettings
  3
ObjectDBX Classes
 90
        0
 91
        1
280
     0
281
     0
  0
CLASS
  1
ACMSTANDARDANSI
  2
AcmStandardANSI
  3
"Amdt_StdImp|Product Description: AutoCAD Mechanical|Company: Autodesk, Inc."
 90
     1024
 91
        0
280
     0
281
     0
  0
CLASS
  1
ACMSURFSTANDARDANSI
  2
AcmSurfTextStdANSI
  3
"Amdt_StdImp|Product Description: AutoCAD Mechanical|Company: Autodesk, Inc."
 90
     1024
 91
        0
280
     0
281
     0
  0
CLASS
  1
ACMFCFSTANDARDANSI
  2
AcmFCFStdANSI
  3
"Amdt_StdImp|Product Description: AutoCAD Mechanical|Company: Autodesk, Inc."
 90
     1024
 91
        0
280
     0
281
     0
  0
CLASS
  1
ACMWELDSTANDARDANSI
  2
AcmWeldingStdANSI
  3
"Amdt_StdImp|Product Description: AutoCAD Mechanical|Company: Autodesk, Inc."
 90
     1024
 91
        0
280
     0
281
     0
  0
CLASS
  1
ACMIDSTANDARDANSI
  2
AcmIdStdANSI
  3
"Amdt_StdImp|Product Description: AutoCAD Mechanical|Company: Autodesk, Inc."
 90
     1024
 91
        0
280
     0
281
     0
  0
CLASS
  1
ACMDATUMSTANDARDANSI
  2
AcmDatumStdANSI
  3
"Amdt_StdImp|Product Description: AutoCAD Mechanical|Company: Autodesk, Inc."
 90
     1024
 91
        0
280
     0
281
     0
  0
CLASS
  1
ACMBOMSTANDARDANSI
  2
AcmBOMStdANSI
  3
"Amdt_StdImp|Product Description: AutoCAD Mechanical|Company: Autodesk, Inc."
 90
     1024
 91
        0
280
     0
281
     0
  0
CLASS
  1
ACMDETAILSTANDARDANSI
  2
AmdtDetailSymStdANSI
  3
"Amdt_StdImp|Product Description: AutoCAD Mechanical|Company: Autodesk, Inc."
 90
     1024
 91
        0
280
     0
281
     0
  0
CLASS
  1
ACMSECTIONSTANDARDANSI
  2
AmdtSectionSymStdANSI
  3
"Amdt_StdImp|Product Description: AutoCAD Mechanical|Company: Autodesk, Inc."
 90
     1024
 91
        0
280
     0
281
     0
  0
CLASS
  1
ACMCENTERLINESTANDARDANSI
  2
AmdtCenterLineStdANSI
  3
"Amdt_StdImp|Product Description: AutoCAD Mechanical|Company: Autodesk, Inc."
 90
     1024
 91
        0
280
     0
281
     0
  0
CLASS
  1
ACMTHREADLINESTANDARDANSI
  2
AmdtThreadLineStdANSI
  3
"Amdt_StdImp|Product Description: AutoCAD Mechanical|Company: Autodesk, Inc."
 90
     1024
 91
        0
280
     0
281
     0
  0
CLASS
  1
ACMNOTESTANDARDANSI
  2
AmdtNoteStdANSI
  3
"Amdt_StdImp|Product Description: AutoCAD Mechanical|Company: Autodesk, Inc."
 90
     1024
 91
        0
280
     0
281
     0
  0
CLASS
  1
ACMTAPERSTANDARDANSI
  2
AcmTaperStdANSI
  3
"Amdt_StdImp|Product Description: AutoCAD Mechanical|Company: Autodesk, Inc."
 90
     1024
 91
        0
280
     0
281
     0
  0
CLASS
  1
ACMANOOTATIONVIEWSTANDARDANSI
  2
AmdtAnViewStdANSI
  3
"Amdt_StdImp|Product Description: AutoCAD Mechanical|Company: Autodesk, Inc."
 90
     1024
 91
        0
280
     0
281
     0
  0
CLASS
  1
ACAMGHOLECHARTSTDANSI
  2
AcAmgHoleChartStdANSI
  3
AmgDim|Product Description: AutoCAD Mechanical|Company: Autodesk, Inc.
 90
     1024
 91
        0
280
     0
281
     0
  0
CLASS
  1
ACMSTANDARDBSI
  2
AcmStandardBSI
  3
"Amdt_StdImp|Product Description: AutoCAD Mechanical|Company: Autodesk, Inc."
 90
     1024
 91
        0
280
     0
281
     0
  0
CLASS
  1
ACMSURFSTANDARDBSI2002
  2
AcmSurfTextStdBSI2002
  3
"Amdt_StdImp|Product Description: AutoCAD Mechanical|Company: Autodesk, Inc."
 90
     1024
 91
        0
280
     0
281
     0
  0
CLASS
  1
ACMFCFSTANDARDBSI
  2
AcmFCFStdBSI
  3
"Amdt_StdImp|Product Description: AutoCAD Mechanical|Company: Autodesk, Inc."
 90
     1024
 91
        0
280
     0
281
     0
  0
CLASS
  1
ACMWELDSTANDARDBSI
  2
AcmWeldingStdBSI
  3
"Amdt_StdImp|Product Description: AutoCAD Mechanical|Company: Autodesk, Inc."
 90
     1024
 91
        0
280
     0
281
     0
  0
CLASS
  1
ACMIDSTANDARDBSI
  2
AcmIdStdBSI
  3
"Amdt_StdImp|Product Description: AutoCAD Mechanical|Company: Autodesk, Inc."
 90
     1024
 91
        0
280
     0
281
     0
  0
CLASS
  1
ACMDATUMSTANDARDBSI
  2
AcmDatumStdBSI
  3
"Amdt_StdImp|Product Description: AutoCAD Mechanical|Company: Autodesk, Inc."
 90
     1024
 91
        0
280
     0
281
     0
  0
CLASS
  1
ACMBOMSTANDARDBSI
  2
AcmBOMStdBSI
  3
"Amdt_StdImp|Product Description: AutoCAD Mechanical|Company: Autodesk, Inc."
 90
     1024
 91
        0
280
     0
281
     0
  0
CLASS
  1
ACMDETAILSTANDARDBSI
  2
AmdtDetailSymStdBSI
  3
"Amdt_StdImp|Product Description: AutoCAD Mechanical|Company: Autodesk, Inc."
 90
     1024
 91
        0
280
     0
281
     0
  0
CLASS
  1
ACMSECTIONSTANDARDBSI2001
  2
AmdtSectionSymStdBSI2001
  3
"Amdt_StdImp|Product Description: AutoCAD Mechanical|Company: Autodesk, Inc."
 90
     1024
 91
        0
280
     0
281
     0
  0
CLASS
  1
ACMCENTERLINESTANDARDBSI
  2
AmdtCenterLineStdBSI
  3
"Amdt_StdImp|Product Description: AutoCAD Mechanical|Company: Autodesk, Inc."
 90
     1024
 91
        0
280
     0
281
     0
  0
CLASS
  1
ACMTHREADLINESTANDARDBSI
  2
AmdtThreadLineStdBSI
  3
"Amdt_StdImp|Product Description: AutoCAD Mechanical|Company: Autodesk, Inc."
 90
     1024
 91
        0
280
     0
281
     0
  0
CLASS
  1
ACMNOTESTANDARDBSI
  2
AmdtNoteStdBSI
  3
"Amdt_StdImp|Product Description: AutoCAD Mechanical|Company: Autodesk, Inc."
 90
     1024
 91
        0
280
     0
281
     0
  0
CLASS
  1
ACMTAPERSTANDARDBSI
  2
AcmTaperStdBSI
  3
"Amdt_StdImp|Product Description: AutoCAD Mechanical|Company: Autodesk, Inc."
 90
     1024
 91
        0
280
     0
281
     0
  0
CLASS
  1
ACMANOOTATIONVIEWSTANDARDBSI
  2
AmdtAnViewStdBSI
  3
"Amdt_StdImp|Product Description: AutoCAD Mechanical|Company: Autodesk, Inc."
 90
     1024
 91
        0
280
     0
281
     0
  0
CLASS
  1
ACAMGHOLECHARTSTDBSI
  2
AcAmgHoleChartStdBSI
  3
AmgDim|Product Description: AutoCAD Mechanical|Company: Autodesk, Inc.
 90
     1024
 91
        0
280
     0
281
     0
  0
CLASS
  1
AMDTEDGESTANDARDJIS
  2
AmdtEdgeStdJIS
  3
"Amdt_StdImp|Product Description: AutoCAD Mechanical|Company: Autodesk, Inc."
 90
     1024
 91
        0
280
     0
281
     0
  0
CLASS
  1
ACDB_BLKREFOBJECTCONTEXTDATA_CLASS
  2
AcDbBlkRefObjectContextData
  3
ObjectDBX Classes
 90
     1153
 91
        0
280
     0
281
     0
  0
CLASS
  1
ACDBOPPOLYLINERES
  2
AcDbOpPolylineRes
  3
AcGrefServices
 90
     1024
 91
        0
280
     0
281
     0
  0
CLASS
  1
AMDTACMWBLOCKBOMENTITY
  2
AmdtAcmWblockBomEntity
  3
"AcmSymBB|Product Description: AutoCAD Mechanical|Company: Autodesk, Inc."
 90
     4095
 91
        0
280
     0
281
     1
  0
CLASS
  1
ACMSURFSYM
  2
AcmSurfaceTexture
  3
"AcmSymBB|Product Description: AutoCAD Mechanical|Company: Autodesk, Inc."
 90
     4095
 91
        0
280
     0
281
     1
  0
CLASS
  1
ACDBCIRCARCRES
  2
AcDbCircArcRes
  3
AcGrefServices
 90
     1024
 91
        0
280
     0
281
     0
  0
CLASS
  1
ACDBDIMENSIONRES
  2
AcDbDimensionRes
  3
AcmSymBB|Product Description: AutoCAD Mechanical|Company: Autodesk, Inc.
 90
     1024
 91
        0
280
     0
281
     0
  0
CLASS
  1
ACMPICKOBJ
  2
AcmPickEnt
  3
"AcmSymBB|Product Description: AutoCAD Mechanical|Company: Autodesk, Inc."
 90
     1024
 91
        0
280
     0
281
     1
  0
CLASS
  1
ACMBALLOON
  2
AcmBalloon
  3
"AcmSymBB|Product Description: AutoCAD Mechanical|Company: Autodesk, Inc."
 90
     4095
 91
        0
280
     0
281
     1
  0
ENDSEC
  0
SECTION
  2
TABLES
  0
TABLE
  2
VPORT
  5
8
330
0
100
AcDbSymbolTable
 70
     1
  0
VPORT
  5
27A
330
8
100
AcDbSymbolTableRecord
100
AcDbViewportTableRecord
  2
*Active
 70
     0
 10
0.0
 20
0.0
 11
1.0
 21
1.0
 12
476.0809962359993
 22
396.6403217528021
 13
0.0
 23
0.0
 14
5.0
 24
5.0
 15
20.0
 25
20.0
 16
0.0
 26
0.0
 36
1.0
 17
0.0
 27
0.0
 37
0.0
 40
344.0003485206497
 41
1.571428571428571
 42
50.0
 43
0.0
 44
0.0
 50
0.0
 51
0.0
 71
    16
 72
 20000
 73
     1
 74
     3
 75
     0
 76
     0
 77
     0
 78
     0
281
     0
 65
     0
110
0.0
120
0.0
130
0.0
111
1.0
121
0.0
131
0.0
112
0.0
122
1.0
132
0.0
 79
     0
146
0.0
348
285
 60
     3
 61
     5
292
     1
282
     0
141
0.0
142
0.0
 63
   250
421
  3355443
  0
ENDTAB
  0
TABLE
  2
LTYPE
  5
5
330
0
100
AcDbSymbolTable
 70
    20
  0
LTYPE
  5
14
330
5
100
AcDbSymbolTableRecord
100
AcDbLinetypeTableRecord
  2
ByBlock
 70
     0
  3

 72
    65
 73
     0
 40
0.0
  0
LTYPE
  5
15
330
5
100
AcDbSymbolTableRecord
100
AcDbLinetypeTableRecord
  2
ByLayer
 70
     0
  3

 72
    65
 73
     0
 40
0.0
  0
LTYPE
  5
16
330
5
100
AcDbSymbolTableRecord
100
AcDbLinetypeTableRecord
  2
Continuous
 70
     0
  3
Solid line
 72
    65
 73
     0
 40
0.0
  0
LTYPE
  5
4D
330
5
100
AcDbSymbolTableRecord
100
AcDbLinetypeTableRecord
  2
AM_ISO02W050
 70
     0
  3
__ __ __ __ __ __ __ __ __ __ __ __ __ __ __
 72
    65
 73
     2
 40
7.5
 49
6.0
 74
     0
 49
-1.5
 74
     0
  0
LTYPE
  5
4E
330
5
100
AcDbSymbolTableRecord
100
AcDbLinetypeTableRecord
  2
AM_ISO08W050
 70
     0
  3
____ . ____ . ____ . ____ . ____ . ____ . ____
 72
    65
 73
     4
 40
18.0
 49
12.0
 74
     0
 49
-1.5
 74
     0
 49
3.0
 74
     0
 49
-1.5
 74
     0
  0
LTYPE
  5
4F
330
5
100
AcDbSymbolTableRecord
100
AcDbLinetypeTableRecord
  2
AM_ISO09W050
 70
     0
  3
_____ . . _____ . . _____ . . ____ .. ____
 72
    65
 73
     6
 40
22.5
 49
12.0
 74
     0
 49
-1.5
 74
     0
 49
3.0
 74
     0
 49
-1.5
 74
     0
 49
3.0
 74
     0
 49
-1.5
 74
     0
  0
LTYPE
  5
50
330
5
100
AcDbSymbolTableRecord
100
AcDbLinetypeTableRecord
  2
Amconstr
 70
     0
  3
_______________________
 72
    65
 73
     2
 40
9999.0
 49
9999.0
 74
     0
 49
0.0
 74
     0
  0
LTYPE
  5
51
330
5
100
AcDbSymbolTableRecord
100
AcDbLinetypeTableRecord
  2
AM_ISO08W050x2
 70
     0
  3
__ . __ . __ . __ . __ . __
 72
    65
 73
     4
 40
9.0
 49
6.0
 74
     0
 49
-0.75
 74
     0
 49
1.5
 74
     0
 49
-0.75
 74
     0
  0
LTYPE
  5
52
330
5
100
AcDbSymbolTableRecord
100
AcDbLinetypeTableRecord
  2
AM_ISO02W050x2
 70
     0
  3
 _ _ _ _ _ _ _ _ _ _ _ _
 72
    65
 73
     2
 40
3.75
 49
3.0
 74
     0
 49
-0.75
 74
     0
  0
LTYPE
  5
55
330
5
100
AcDbSymbolTableRecord
100
AcDbLinetypeTableRecord
  2
Amzigzag
 70
     0
  3
/\/-/\/-/\/-/\/-/\/-/\/
 72
    65
 73
     2
 40
11.0001
 49
0.0001
 74
     4
 75
   136
340
23D
 46
0.04
 50
0.0
 44
0.0
 45
0.0
 49
-11.0
 74
     0
  0
LTYPE
  5
65
330
5
100
AcDbSymbolTableRecord
100
AcDbLinetypeTableRecord
  2
CENTER
 70
     0
  3
__ . __
 72
    65
 73
     4
 40
7.0
 49
4.0
 74
     0
 49
-1.0
 74
     0
 49
1.0
 74
     0
 49
-1.0
 74
     0
  0
LTYPE
  5
E0
330
5
100
AcDbSymbolTableRecord
100
AcDbLinetypeTableRecord
  2
HIDDEN
 70
     0
  3
Hidden __ __ __ __ __ __ __ __ __ __ __ __ __ _
 72
    65
 73
     2
 40
9.524999999999996
 49
6.349999999999998
 74
     0
 49
-3.174999999999998
 74
     0
  0
LTYPE
  5
E1
330
5
100
AcDbSymbolTableRecord
100
AcDbLinetypeTableRecord
  2
PHANTOM2
 70
     0
  3
Phantom (.5x) ___ _ _ ___ _ _ ___ _ _ ___ _ _
 72
    65
 73
     6
 40
31.75
 49
15.875
 74
     0
 49
-3.174999999999998
 74
     0
 49
3.174999999999998
 74
     0
 49
-3.174999999999998
 74
     0
 49
3.174999999999998
 74
     0
 49
-3.174999999999998
 74
     0
  0
LTYPE
  5
5A2
330
5
100
AcDbSymbolTableRecord
100
AcDbLinetypeTableRecord
  2
ACJISWELD
 70
     0
  3
_ _ _ _ _
 72
    65
 73
     2
 40
2.0
 49
2.0
 74
     0
 49
-1.0
 74
     0
  0
LTYPE
  5
5BEC
330
5
100
AcDbSymbolTableRecord
100
AcDbLinetypeTableRecord
  2
ACISOWELD
 70
     0
  3
_ _ _ _ _
 72
    65
 73
     2
 40
2.0
 49
2.0
 74
     0
 49
-1.0
 74
     0
  0
LTYPE
  5
5BED
330
5
100
AcDbSymbolTableRecord
100
AcDbLinetypeTableRecord
  2
ACISOTGB
 70
     0
  3
__ . . __ . .
 72
    65
 73
     6
 40
9.0
 49
4.0
 74
     0
 49
-1.0
 74
     0
 49
1.0
 74
     0
 49
-1.0
 74
     0
 49
1.0
 74
     0
 49
-1.0
 74
     0
  0
LTYPE
  5
5BEE
330
5
100
AcDbSymbolTableRecord
100
AcDbLinetypeTableRecord
  2
ACISOTGL
 70
     0
  3
_ _ _ _ _
 72
    65
 73
     2
 40
3.0
 49
2.0
 74
     0
 49
-1.0
 74
     0
  0
ENDTAB
  0
TABLE
  2
LAYER
  5
2
102
{ACAD_XDICTIONARY
360
BF
102
}
330
0
100
AcDbSymbolTable
 70
    10
  0
LAYER
  5
10
102
{ACAD_XDICTIONARY
360
2A97
102
}
330
2
100
AcDbSymbolTableRecord
100
AcDbLayerTableRecord
  2
0
 70
     0
 62
     7
  6
Continuous
370
    -3
390
F
347
27E
  0
LAYER
  5
81
102
{ACAD_XDICTIONARY
360
2A99
102
}
330
2
100
AcDbSymbolTableRecord
100
AcDbLayerTableRecord
  2
AM_0 外形線1
 70
     0
 62
     7
  6
Continuous
370
    25
390
F
347
27E
  0
LAYER
  5
427
330
2
100
AcDbSymbolTableRecord
100
AcDbLayerTableRecord
  2
Defpoints
 70
     0
 62
     7
  6
Continuous
290
     0
370
    -3
390
F
347
27E
  0
LAYER
  5
25C9
102
{ACAD_XDICTIONARY
360
2AA0
102
}
330
2
100
AcDbSymbolTableRecord
100
AcDbLayerTableRecord
  2
AM_3 隠れ線
 70
     0
 62
     8
  6
ACJISWELD
370
    13
390
F
347
27E
1001
AcAecLayerStandard
1000

1000

  0
LAYER
  5
25CA
102
{ACAD_XDICTIONARY
360
2AA2
102
}
330
2
100
AcDbSymbolTableRecord
100
AcDbLayerTableRecord
  2
AM_4 細線
 70
     0
 62
     4
  6
Continuous
370
    13
390
F
347
27E
1001
AcAecLayerStandard
1000

1000

  0
LAYER
  5
26B3
102
{ACAD_XDICTIONARY
360
2AA8
102
}
330
2
100
AcDbSymbolTableRecord
100
AcDbLayerTableRecord
  2
AM_5 寸法線
 70
     0
 62
     3
  6
Continuous
370
    13
390
F
347
27E
1001
AcAecLayerStandard
1000

1000

  0
LAYER
  5
2EC6
330
2
100
AcDbSymbolTableRecord
100
AcDbLayerTableRecord
  2
AM_7 中心線
 70
     0
 62
     1
  6
AM_ISO08W050
370
    13
390
F
347
27E
1001
AcAecLayerStandard
1000

1000

  0
LAYER
  5
2EC8
330
2
100
AcDbSymbolTableRecord
100
AcDbLayerTableRecord
  2
AM_6 文字
 70
     0
 62
     2
  6
Continuous
370
    13
390
F
347
27E
1001
AcAecLayerStandard
1000

1000

  0
LAYER
  5
5858
330
2
100
AcDbSymbolTableRecord
100
AcDbLayerTableRecord
  2
AM_11 想像線
 70
     0
 62
     5
  6
AM_ISO09W050
370
    13
390
F
347
27E
1001
AcAecLayerStandard
1000

1000

  0
ENDTAB
  0
TABLE
  2
STYLE
  5
3
330
0
100
AcDbSymbolTable
 70
    11
  0
STYLE
  5
11
330
3
100
AcDbSymbolTableRecord
100
AcDbTextStyleTableRecord
  2
STANDARD
 70
     0
 40
0.0
 41
1.0
 50
0.0
 71
     0
 42
25.0
  3
ISOCP.SHX
  4
EXTFONT.SHX
  0
STYLE
  5
23D
330
3
100
AcDbSymbolTableRecord
100
AcDbTextStyleTableRecord
  2

 70
     1
 40
0.0
 41
1.0
 50
0.0
 71
     0
 42
2.5
  3
genltshp.shx
  4

  0
STYLE
  5
5D5
330
3
100
AcDbSymbolTableRecord
100
AcDbTextStyleTableRecord
  2
SEISA
 70
     0
 40
0.0
 41
0.9
 50
0.0
 71
     0
 42
25.0
  3
romans.shx
  4
extfont2.shx
  0
STYLE
  5
5BDC
330
3
100
AcDbSymbolTableRecord
100
AcDbTextStyleTableRecord
  2
ACISOTS
 70
     0
 40
1.0
 41
1.0
 50
0.0
 71
     0
 42
25.0
  3
isocp.shx
  4
extfont.shx
  0
STYLE
  5
5BEB
330
3
100
AcDbSymbolTableRecord
100
AcDbTextStyleTableRecord
  2
ACISOGDT
 70
     0
 40
0.0
 41
1.0
 50
0.0
 71
     0
 42
25.0
  3
amgdt.shx
  4

  0
ENDTAB
  0
TABLE
  2
VIEW
  5
6
330
0
100
AcDbSymbolTable
 70
     6
  0
VIEW
  5
91B
330
6
100
AcDbSymbolTableRecord
100
AcDbViewTableRecord
  2
AM_VIEW1
 70
     0
 40
420.0000000000001
 10
381.0851416760021
 20
630.0000000000002
 41
762.1702838063441
 11
0.0
 21
0.0
 31
1.0
 12
0.0
 22
0.0
 32
0.0
 42
50.0
 43
0.0
 44
0.0
 50
0.0
 71
    16
281
     0
 72
     0
 73
     0
  0
VIEW
  5
91C
330
6
100
AcDbSymbolTableRecord
100
AcDbViewTableRecord
  2
AM_VIEW2
 70
     0
 40
420.0000000000001
 10
806.9148583239977
 20
630.0000000000002
 41
762.1702838063441
 11
0.0
 21
0.0
 31
1.0
 12
0.0
 22
0.0
 32
0.0
 42
50.0
 43
0.0
 44
0.0
 50
0.0
 71
    16
281
     0
 72
     0
 73
     0
  0
VIEW
  5
91D
330
6
100
AcDbSymbolTableRecord
100
AcDbViewTableRecord
  2
AM_VIEW3
 70
     0
 40
420.0000000000001
 10
381.0851416760021
 20
210.0
 41
762.1702838063441
 11
0.0
 21
0.0
 31
1.0
 12
0.0
 22
0.0
 32
0.0
 42
50.0
 43
0.0
 44
0.0
 50
0.0
 71
    16
281
     0
 72
     0
 73
     0
  0
VIEW
  5
91E
330
6
100
AcDbSymbolTableRecord
100
AcDbViewTableRecord
  2
AM_VIEW4
 70
     0
 40
420.0000000000001
 10
806.9148583239977
 20
210.0
 41
762.1702838063441
 11
0.0
 21
0.0
 31
1.0
 12
0.0
 22
0.0
 32
0.0
 42
50.0
 43
0.0
 44
0.0
 50
0.0
 71
    16
281
     0
 72
     0
 73
     0
  0
VIEW
  5
91F
330
6
100
AcDbSymbolTableRecord
100
AcDbViewTableRecord
  2
AM_VIEW5
 70
     0
 40
420.0000000000001
 10
594.0
 20
420.0000000000001
 41
762.1702838063442
 11
0.0
 21
0.0
 31
1.0
 12
0.0
 22
0.0
 32
0.0
 42
50.0
 43
0.0
 44
0.0
 50
0.0
 71
    16
281
     0
 72
     0
 73
     0
  0
VIEW
  5
920
330
6
100
AcDbSymbolTableRecord
100
AcDbViewTableRecord
  2
AM_VIEW6
 70
     0
 40
839.9916000000002
 10
594.0
 20
420.0000000000001
 41
1524.325324207012
 11
0.0
 21
0.0
 31
1.0
 12
0.0
 22
0.0
 32
0.0
 42
50.0
 43
0.0
 44
0.0
 50
0.0
 71
    16
281
     0
 72
     0
 73
     0
  0
ENDTAB
  0
TABLE
  2
UCS
  5
7
330
0
100
AcDbSymbolTable
 70
     0
  0
ENDTAB
  0
TABLE
  2
APPID
  5
9
330
0
100
AcDbSymbolTable
 70
   392
  0
APPID
  5
12
330
9
100
AcDbSymbolTableRecord
100
AcDbRegAppTableRecord
  2
ACAD
 70
     0
  0
APPID
  5
30
330
9
100
AcDbSymbolTableRecord
100
AcDbRegAppTableRecord
  2
MCAD_NO_VIS
 70
     0
  0
APPID
  5
31
330
9
100
AcDbSymbolTableRecord
100
AcDbRegAppTableRecord
  2
ACAD_TEMP_GRAPHIC
 70
     0
  0
APPID
  5
44
330
9
100
AcDbSymbolTableRecord
100
AcDbRegAppTableRecord
  2
ACATTRIBSERVICES
 70
     0
  0
APPID
  5
F6
330
9
100
AcDbSymbolTableRecord
100
AcDbRegAppTableRecord
  2
AD_DRAW
 70
     0
  0
APPID
  5
114
330
9
100
AcDbSymbolTableRecord
100
AcDbRegAppTableRecord
  2
DESIGNERASSEMBLIES
 70
     0
  0
APPID
  5
118
330
9
100
AcDbSymbolTableRecord
100
AcDbRegAppTableRecord
  2
ACADM_DIM_EDIT
 70
     0
  0
APPID
  5
119
330
9
100
AcDbSymbolTableRecord
100
AcDbRegAppTableRecord
  2
AMDT_DM_ADJ
 70
     0
  0
APPID
  5
1AF
330
9
100
AcDbSymbolTableRecord
100
AcDbRegAppTableRecord
  2
ACAD_DSTYLE_DIMARC_LENGTH_SYMBOL
 70
     0
  0
APPID
  5
1B0
330
9
100
AcDbSymbolTableRecord
100
AcDbRegAppTableRecord
  2
ACAD_DSTYLE_DIMJOGGED_JOGANGLE_SYMBOL
 70
     0
  0
APPID
  5
2D7
330
9
100
AcDbSymbolTableRecord
100
AcDbRegAppTableRecord
  2
ACAD_MLEADERVER
 70
     0
  0
APPID
  5
355
330
9
100
AcDbSymbolTableRecord
100
AcDbRegAppTableRecord
  2
AcadAnnoPO
 70
     0
  0
APPID
  5
428
330
9
100
AcDbSymbolTableRecord
100
AcDbRegAppTableRecord
  2
ACAD_DSTYLE_DIMTEXT_FILL
 70
     0
  0
APPID
  5
429
330
9
100
AcDbSymbolTableRecord
100
AcDbRegAppTableRecord
  2
GENIUS_GENSCREG_15
 70
     0
  0
APPID
  5
42A
330
9
100
AcDbSymbolTableRecord
100
AcDbRegAppTableRecord
  2
GENIUS_GENOBJ-N-SDF_13
 70
     0
  0
APPID
  5
42B
330
9
100
AcDbSymbolTableRecord
100
AcDbRegAppTableRecord
  2
GENIUS_GENODEF_13
 70
     0
  0
APPID
  5
42C
330
9
100
AcDbSymbolTableRecord
100
AcDbRegAppTableRecord
  2
ACAD_EXEMPT_FROM_CAD_STANDARDS
 70
     0
  0
APPID
  5
42D
330
9
100
AcDbSymbolTableRecord
100
AcDbRegAppTableRecord
  2
AcAecLayerStandard
 70
     0
  0
APPID
  5
42E
330
9
100
AcDbSymbolTableRecord
100
AcDbRegAppTableRecord
  2
GENIUS_GENOBJ-N-CEN_13
 70
     0
  0
APPID
  5
42F
330
9
100
AcDbSymbolTableRecord
100
AcDbRegAppTableRecord
  2
GENIUS_GENCEN_19
 70
     0
  0
APPID
  5
430
330
9
100
AcDbSymbolTableRecord
100
AcDbRegAppTableRecord
  2
ACAD_DSTYLE_DIMINSPECT
 70
     0
  0
APPID
  5
431
330
9
100
AcDbSymbolTableRecord
100
AcDbRegAppTableRecord
  2
GENIUS_AMGTXT_16
 70
     0
  0
APPID
  5
432
330
9
100
AcDbSymbolTableRecord
100
AcDbRegAppTableRecord
  2
GENIUS_GENFIL_13
 70
     0
  0
APPID
  5
433
330
9
100
AcDbSymbolTableRecord
100
AcDbRegAppTableRecord
  2
GENIUS_GENOLIS_13
 70
     0
  0
APPID
  5
434
330
9
100
AcDbSymbolTableRecord
100
AcDbRegAppTableRecord
  2
GENIUS_GENOBJ-N-CHA_13
 70
     0
  0
APPID
  5
435
330
9
100
AcDbSymbolTableRecord
100
AcDbRegAppTableRecord
  2
GENIUS_GENOENT_13
 70
     0
  0
APPID
  5
436
330
9
100
AcDbSymbolTableRecord
100
AcDbRegAppTableRecord
  2
GENIUS_GENOREF_13
 70
     0
  0
APPID
  5
437
330
9
100
AcDbSymbolTableRecord
100
AcDbRegAppTableRecord
  2
GENIUS_GENOBJ-N-FIL_13
 70
     0
  0
APPID
  5
438
330
9
100
AcDbSymbolTableRecord
100
AcDbRegAppTableRecord
  2
GEVID1208829536
 70
     0
  0
APPID
  5
439
330
9
100
AcDbSymbolTableRecord
100
AcDbRegAppTableRecord
  2
GEVDC
 70
     0
  0
APPID
  5
43A
330
9
100
AcDbSymbolTableRecord
100
AcDbRegAppTableRecord
  2
GEVRADREF
 70
     0
  0
APPID
  5
43B
330
9
100
AcDbSymbolTableRecord
100
AcDbRegAppTableRecord
  2
GENIUS_GENBH_13
 70
     0
  0
APPID
  5
43C
330
9
100
AcDbSymbolTableRecord
100
AcDbRegAppTableRecord
  2
GENIUS_GENOBJ-NBEHI-BHF_13
 70
     0
  0
APPID
  5
43D
330
9
100
AcDbSymbolTableRecord
100
AcDbRegAppTableRecord
  2
GENIUS_GENOBJ-NBEHI-BHB_13
 70
     0
  0
APPID
  5
43E
330
9
100
AcDbSymbolTableRecord
100
AcDbRegAppTableRecord
  2
GEVID1208829537
 70
     0
  0
APPID
  5
43F
330
9
100
AcDbSymbolTableRecord
100
AcDbRegAppTableRecord
  2
ACAD_DSTYLE_DIMJAG
 70
     0
  0
APPID
  5
440
330
9
100
AcDbSymbolTableRecord
100
AcDbRegAppTableRecord
  2
ACAD_DSTYLE_DIMTALN
 70
     0
  0
APPID
  5
441
330
9
100
AcDbSymbolTableRecord
100
AcDbRegAppTableRecord
  2
AMG_2DHIDE
 70
     0
  0
APPID
  5
442
330
9
100
AcDbSymbolTableRecord
100
AcDbRegAppTableRecord
  2
AMG_2DSTRUCT_BTR
 70
     0
  0
APPID
  5
443
330
9
100
AcDbSymbolTableRecord
100
AcDbRegAppTableRecord
  2
GEVID1208845772
 70
     0
  0
APPID
  5
444
330
9
100
AcDbSymbolTableRecord
100
AcDbRegAppTableRecord
  2
GEVID1208845773
 70
     0
  0
APPID
  5
445
330
9
100
AcDbSymbolTableRecord
100
AcDbRegAppTableRecord
  2
ACADM_2DVIEW_IGN_NOTIFY
 70
     0
  0
APPID
  5
446
330
9
100
AcDbSymbolTableRecord
100
AcDbRegAppTableRecord
  2
GEVID1208845774
 70
     0
  0
APPID
  5
447
330
9
100
AcDbSymbolTableRecord
100
AcDbRegAppTableRecord
  2
GEVID1208845775
 70
     0
  0
APPID
  5
448
330
9
100
AcDbSymbolTableRecord
100
AcDbRegAppTableRecord
  2
GEVID1208845776
 70
     0
  0
APPID
  5
449
330
9
100
AcDbSymbolTableRecord
100
AcDbRegAppTableRecord
  2
GEVID1208845777
 70
     0
  0
APPID
  5
44A
330
9
100
AcDbSymbolTableRecord
100
AcDbRegAppTableRecord
  2
GEVCON
 70
     0
  0
APPID
  5
44B
330
9
100
AcDbSymbolTableRecord
100
AcDbRegAppTableRecord
  2
GENIUS_GENOBJ-F-SCPASSM_13
 70
     0
  0
APPID
  5
44C
330
9
100
AcDbSymbolTableRecord
100
AcDbRegAppTableRecord
  2
GEVID1208845778
 70
     0
  0
APPID
  5
44D
330
9
100
AcDbSymbolTableRecord
100
AcDbRegAppTableRecord
  2
GEVID1208845779
 70
     0
  0
APPID
  5
44E
330
9
100
AcDbSymbolTableRecord
100
AcDbRegAppTableRecord
  2
GEVID1208845780
 70
     0
  0
APPID
  5
44F
330
9
100
AcDbSymbolTableRecord
100
AcDbRegAppTableRecord
  2
GEVID1208845781
 70
     0
  0
APPID
  5
450
330
9
100
AcDbSymbolTableRecord
100
AcDbRegAppTableRecord
  2
GEVID1208845782
 70
     0
  0
APPID
  5
451
330
9
100
AcDbSymbolTableRecord
100
AcDbRegAppTableRecord
  2
GEVID1208845783
 70
     0
  0
APPID
  5
452
330
9
100
AcDbSymbolTableRecord
100
AcDbRegAppTableRecord
  2
GEVID1208845784
 70
     0
  0
APPID
  5
453
330
9
100
AcDbSymbolTableRecord
100
AcDbRegAppTableRecord
  2
GEVID1208845785
 70
     0
  0
APPID
  5
454
330
9
100
AcDbSymbolTableRecord
100
AcDbRegAppTableRecord
  2
GEVID1208845787
 70
     0
  0
APPID
  5
455
330
9
100
AcDbSymbolTableRecord
100
AcDbRegAppTableRecord
  2
GEVID1208845788
 70
     0
  0
APPID
  5
456
330
9
100
AcDbSymbolTableRecord
100
AcDbRegAppTableRecord
  2
GEVID1208845789
 70
     0
  0
APPID
  5
457
330
9
100
AcDbSymbolTableRecord
100
AcDbRegAppTableRecord
  2
GEVID1208845790
 70
     0
  0
APPID
  5
458
330
9
100
AcDbSymbolTableRecord
100
AcDbRegAppTableRecord
  2
GEVID1208845791
 70
     0
  0
APPID
  5
459
330
9
100
AcDbSymbolTableRecord
100
AcDbRegAppTableRecord
  2
GEVID1208845792
 70
     0
  0
APPID
  5
45A
330
9
100
AcDbSymbolTableRecord
100
AcDbRegAppTableRecord
  2
GEVID1208845793
 70
     0
  0
APPID
  5
45B
330
9
100
AcDbSymbolTableRecord
100
AcDbRegAppTableRecord
  2
GEVID1208845794
 70
     0
  0
APPID
  5
45C
330
9
100
AcDbSymbolTableRecord
100
AcDbRegAppTableRecord
  2
GEVID1208845795
 70
     0
  0
APPID
  5
45D
330
9
100
AcDbSymbolTableRecord
100
AcDbRegAppTableRecord
  2
GEVID1208845796
 70
     0
  0
APPID
  5
45E
330
9
100
AcDbSymbolTableRecord
100
AcDbRegAppTableRecord
  2
GEVID1208845797
 70
     0
  0
APPID
  5
45F
330
9
100
AcDbSymbolTableRecord
100
AcDbRegAppTableRecord
  2
GEVID1208845798
 70
     0
  0
APPID
  5
460
330
9
100
AcDbSymbolTableRecord
100
AcDbRegAppTableRecord
  2
GEVID1208845799
 70
     0
  0
APPID
  5
461
330
9
100
AcDbSymbolTableRecord
100
AcDbRegAppTableRecord
  2
GEVID1208845800
 70
     0
  0
APPID
  5
462
330
9
100
AcDbSymbolTableRecord
100
AcDbRegAppTableRecord
  2
GEVID1208845801
 70
     0
  0
APPID
  5
463
330
9
100
AcDbSymbolTableRecord
100
AcDbRegAppTableRecord
  2
GEVID1208845802
 70
     0
  0
APPID
  5
464
330
9
100
AcDbSymbolTableRecord
100
AcDbRegAppTableRecord
  2
GENIUS_GENOBJ-N-DIM_13
 70
     0
  0
APPID
  5
465
330
9
100
AcDbSymbolTableRecord
100
AcDbRegAppTableRecord
  2
GENIUS_GENDIM_13
 70
     0
  0
APPID
  5
466
330
9
100
AcDbSymbolTableRecord
100
AcDbRegAppTableRecord
  2
GENIUS_GENDIMSH_14
 70
     0
  0
APPID
  5
467
330
9
100
AcDbSymbolTableRecord
100
AcDbRegAppTableRecord
  2
GEVID1208845803
 70
     0
  0
APPID
  5
468
330
9
100
AcDbSymbolTableRecord
100
AcDbRegAppTableRecord
  2
GEVID1208845804
 70
     0
  0
APPID
  5
469
330
9
100
AcDbSymbolTableRecord
100
AcDbRegAppTableRecord
  2
GEVID1208845805
 70
     0
  0
APPID
  5
46A
330
9
100
AcDbSymbolTableRecord
100
AcDbRegAppTableRecord
  2
GEVID1208845806
 70
     0
  0
APPID
  5
46B
330
9
100
AcDbSymbolTableRecord
100
AcDbRegAppTableRecord
  2
GEVID1208845807
 70
     0
  0
APPID
  5
46C
330
9
100
AcDbSymbolTableRecord
100
AcDbRegAppTableRecord
  2
GEVID1208845808
 70
     0
  0
APPID
  5
46D
330
9
100
AcDbSymbolTableRecord
100
AcDbRegAppTableRecord
  2
GEVID1208845809
 70
     0
  0
APPID
  5
46E
330
9
100
AcDbSymbolTableRecord
100
AcDbRegAppTableRecord
  2
GEVID1208845810
 70
     0
  0
APPID
  5
46F
330
9
100
AcDbSymbolTableRecord
100
AcDbRegAppTableRecord
  2
GEVID1208845811
 70
     0
  0
APPID
  5
470
330
9
100
AcDbSymbolTableRecord
100
AcDbRegAppTableRecord
  2
GEVID1208845813
 70
     0
  0
APPID
  5
471
330
9
100
AcDbSymbolTableRecord
100
AcDbRegAppTableRecord
  2
GEVID1208845814
 70
     0
  0
APPID
  5
472
330
9
100
AcDbSymbolTableRecord
100
AcDbRegAppTableRecord
  2
GEVID1208845815
 70
     0
  0
APPID
  5
473
330
9
100
AcDbSymbolTableRecord
100
AcDbRegAppTableRecord
  2
GEVID1208845816
 70
     0
  0
APPID
  5
474
330
9
100
AcDbSymbolTableRecord
100
AcDbRegAppTableRecord
  2
GEVID1208845817
 70
     0
  0
APPID
  5
475
330
9
100
AcDbSymbolTableRecord
100
AcDbRegAppTableRecord
  2
GEVID1208845818
 70
     0
  0
APPID
  5
476
330
9
100
AcDbSymbolTableRecord
100
AcDbRegAppTableRecord
  2
GEVID1208845819
 70
     0
  0
APPID
  5
477
330
9
100
AcDbSymbolTableRecord
100
AcDbRegAppTableRecord
  2
GEVID1208845820
 70
     0
  0
APPID
  5
478
330
9
100
AcDbSymbolTableRecord
100
AcDbRegAppTableRecord
  2
GENIUS_GENOBJ-F-SHCL_13
 70
     0
  0
APPID
  5
479
330
9
100
AcDbSymbolTableRecord
100
AcDbRegAppTableRecord
  2
GENIUS_GEFMSH_13
 70
     0
  0
APPID
  5
47A
330
9
100
AcDbSymbolTableRecord
100
AcDbRegAppTableRecord
  2
GENIUS_GENOBJ-F-SHCA_13
 70
     0
  0
APPID
  5
47B
330
9
100
AcDbSymbolTableRecord
100
AcDbRegAppTableRecord
  2
GENIUS_GEFSH_13
 70
     0
  0
APPID
  5
47C
330
9
100
AcDbSymbolTableRecord
100
AcDbRegAppTableRecord
  2
GENIUS_GEFSHP_13
 70
     0
  0
APPID
  5
47D
330
9
100
AcDbSymbolTableRecord
100
AcDbRegAppTableRecord
  2
GENIUS_GEFSHP0_13
 70
     0
  0
APPID
  5
47E
330
9
100
AcDbSymbolTableRecord
100
AcDbRegAppTableRecord
  2
GENIUS_GEFSH0_13
 70
     0
  0
APPID
  5
47F
330
9
100
AcDbSymbolTableRecord
100
AcDbRegAppTableRecord
  2
GENIUS_GEFSHP1_13
 70
     0
  0
APPID
  5
480
330
9
100
AcDbSymbolTableRecord
100
AcDbRegAppTableRecord
  2
GENIUS_GEFSH1_13
 70
     0
  0
APPID
  5
481
330
9
100
AcDbSymbolTableRecord
100
AcDbRegAppTableRecord
  2
GEVID1208866337
 70
     0
  0
APPID
  5
482
330
9
100
AcDbSymbolTableRecord
100
AcDbRegAppTableRecord
  2
GEVID1208866338
 70
     0
  0
APPID
  5
483
330
9
100
AcDbSymbolTableRecord
100
AcDbRegAppTableRecord
  2
GEVID1208866339
 70
     0
  0
APPID
  5
484
330
9
100
AcDbSymbolTableRecord
100
AcDbRegAppTableRecord
  2
GEVID1208866340
 70
     0
  0
APPID
  5
485
330
9
100
AcDbSymbolTableRecord
100
AcDbRegAppTableRecord
  2
GEVID1208866341
 70
     0
  0
APPID
  5
486
330
9
100
AcDbSymbolTableRecord
100
AcDbRegAppTableRecord
  2
ACAD_PSEXT
 70
     0
  0
APPID
  5
487
330
9
100
AcDbSymbolTableRecord
100
AcDbRegAppTableRecord
  2
GEVID1208866342
 70
     0
  0
APPID
  5
488
330
9
100
AcDbSymbolTableRecord
100
AcDbRegAppTableRecord
  2
GEVID1208913836
 70
     0
  0
APPID
  5
489
330
9
100
AcDbSymbolTableRecord
100
AcDbRegAppTableRecord
  2
GEVID1208913837
 70
     0
  0
APPID
  5
48A
330
9
100
AcDbSymbolTableRecord
100
AcDbRegAppTableRecord
  2
GEVID1208913838
 70
     0
  0
APPID
  5
48B
330
9
100
AcDbSymbolTableRecord
100
AcDbRegAppTableRecord
  2
GEVID1208913839
 70
     0
  0
APPID
  5
48C
330
9
100
AcDbSymbolTableRecord
100
AcDbRegAppTableRecord
  2
GENIUS_GENDTOL_13
 70
     0
  0
APPID
  5
48D
330
9
100
AcDbSymbolTableRecord
100
AcDbRegAppTableRecord
  2
GEVID1208928889
 70
     0
  0
APPID
  5
48E
330
9
100
AcDbSymbolTableRecord
100
AcDbRegAppTableRecord
  2
GEVID1208928890
 70
     0
  0
APPID
  5
48F
330
9
100
AcDbSymbolTableRecord
100
AcDbRegAppTableRecord
  2
GEVID1208928891
 70
     0
  0
APPID
  5
490
330
9
100
AcDbSymbolTableRecord
100
AcDbRegAppTableRecord
  2
GEVID1208928892
 70
     0
  0
APPID
  5
491
330
9
100
AcDbSymbolTableRecord
100
AcDbRegAppTableRecord
  2
GEVID1208933827
 70
     0
  0
APPID
  5
492
330
9
100
AcDbSymbolTableRecord
100
AcDbRegAppTableRecord
  2
GEVID1208933829
 70
     0
  0
APPID
  5
493
330
9
100
AcDbSymbolTableRecord
100
AcDbRegAppTableRecord
  2
GEVID1208933830
 70
     0
  0
APPID
  5
494
330
9
100
AcDbSymbolTableRecord
100
AcDbRegAppTableRecord
  2
GEVID1208933831
 70
     0
  0
APPID
  5
495
330
9
100
AcDbSymbolTableRecord
100
AcDbRegAppTableRecord
  2
GEVID1208933832
 70
     0
  0
APPID
  5
496
330
9
100
AcDbSymbolTableRecord
100
AcDbRegAppTableRecord
  2
GEVID1208933833
 70
     0
  0
APPID
  5
497
330
9
100
AcDbSymbolTableRecord
100
AcDbRegAppTableRecord
  2
GEVID1208933834
 70
     0
  0
APPID
  5
498
330
9
100
AcDbSymbolTableRecord
100
AcDbRegAppTableRecord
  2
GEVID1208933835
 70
     0
  0
APPID
  5
499
330
9
100
AcDbSymbolTableRecord
100
AcDbRegAppTableRecord
  2
GEVID1208933836
 70
     0
  0
APPID
  5
49A
330
9
100
AcDbSymbolTableRecord
100
AcDbRegAppTableRecord
  2
GEVID1208933837
 70
     0
  0
APPID
  5
49B
330
9
100
AcDbSymbolTableRecord
100
AcDbRegAppTableRecord
  2
GEVID1208933838
 70
     0
  0
APPID
  5
49C
330
9
100
AcDbSymbolTableRecord
100
AcDbRegAppTableRecord
  2
GEVID1208933840
 70
     0
  0
APPID
  5
49D
330
9
100
AcDbSymbolTableRecord
100
AcDbRegAppTableRecord
  2
GEVID1208933842
 70
     0
  0
APPID
  5
49E
330
9
100
AcDbSymbolTableRecord
100
AcDbRegAppTableRecord
  2
GEVID1208933843
 70
     0
  0
APPID
  5
49F
330
9
100
AcDbSymbolTableRecord
100
AcDbRegAppTableRecord
  2
GEVID1208933844
 70
     0
  0
APPID
  5
4A0
330
9
100
AcDbSymbolTableRecord
100
AcDbRegAppTableRecord
  2
GEVID1208933845
 70
     0
  0
APPID
  5
4A1
330
9
100
AcDbSymbolTableRecord
100
AcDbRegAppTableRecord
  2
GEVID1208933846
 70
     0
  0
APPID
  5
4A2
330
9
100
AcDbSymbolTableRecord
100
AcDbRegAppTableRecord
  2
GEVID1208933847
 70
     0
  0
APPID
  5
4A3
330
9
100
AcDbSymbolTableRecord
100
AcDbRegAppTableRecord
  2
GEVID1208933848
 70
     0
  0
APPID
  5
4A4
330
9
100
AcDbSymbolTableRecord
100
AcDbRegAppTableRecord
  2
GEVID1208933849
 70
     0
  0
APPID
  5
4A5
330
9
100
AcDbSymbolTableRecord
100
AcDbRegAppTableRecord
  2
GEVID1208933850
 70
     0
  0
APPID
  5
4A6
330
9
100
AcDbSymbolTableRecord
100
AcDbRegAppTableRecord
  2
GEVID1208933851
 70
     0
  0
APPID
  5
4A7
330
9
100
AcDbSymbolTableRecord
100
AcDbRegAppTableRecord
  2
GEVID1208933852
 70
     0
  0
APPID
  5
4A8
330
9
100
AcDbSymbolTableRecord
100
AcDbRegAppTableRecord
  2
GEVID1208933853
 70
     0
  0
APPID
  5
4A9
330
9
100
AcDbSymbolTableRecord
100
AcDbRegAppTableRecord
  2
GEVID1208933854
 70
     0
  0
APPID
  5
4AA
330
9
100
AcDbSymbolTableRecord
100
AcDbRegAppTableRecord
  2
GEVID1208933855
 70
     0
  0
APPID
  5
4AB
330
9
100
AcDbSymbolTableRecord
100
AcDbRegAppTableRecord
  2
GEVID1208933856
 70
     0
  0
APPID
  5
4AC
330
9
100
AcDbSymbolTableRecord
100
AcDbRegAppTableRecord
  2
GEVID1208933857
 70
     0
  0
APPID
  5
4AD
330
9
100
AcDbSymbolTableRecord
100
AcDbRegAppTableRecord
  2
GEVID1208933858
 70
     0
  0
APPID
  5
4AE
330
9
100
AcDbSymbolTableRecord
100
AcDbRegAppTableRecord
  2
GEVID1208933859
 70
     0
  0
APPID
  5
4AF
330
9
100
AcDbSymbolTableRecord
100
AcDbRegAppTableRecord
  2
GEVID1208933860
 70
     0
  0
APPID
  5
4B0
330
9
100
AcDbSymbolTableRecord
100
AcDbRegAppTableRecord
  2
GEVID1208933861
 70
     0
  0
APPID
  5
4B1
330
9
100
AcDbSymbolTableRecord
100
AcDbRegAppTableRecord
  2
GEVID1208933862
 70
     0
  0
APPID
  5
4B2
330
9
100
AcDbSymbolTableRecord
100
AcDbRegAppTableRecord
  2
GEVID1208933863
 70
     0
  0
APPID
  5
4B3
330
9
100
AcDbSymbolTableRecord
100
AcDbRegAppTableRecord
  2
GEVID1208933864
 70
     0
  0
APPID
  5
4B4
330
9
100
AcDbSymbolTableRecord
100
AcDbRegAppTableRecord
  2
GEVID1208933865
 70
     0
  0
APPID
  5
4B5
330
9
100
AcDbSymbolTableRecord
100
AcDbRegAppTableRecord
  2
GEVID1208933866
 70
     0
  0
APPID
  5
4B6
330
9
100
AcDbSymbolTableRecord
100
AcDbRegAppTableRecord
  2
GEVID1208933867
 70
     0
  0
APPID
  5
4B7
330
9
100
AcDbSymbolTableRecord
100
AcDbRegAppTableRecord
  2
GEVID1208933868
 70
     0
  0
APPID
  5
4B8
330
9
100
AcDbSymbolTableRecord
100
AcDbRegAppTableRecord
  2
GEVID1208933869
 70
     0
  0
APPID
  5
4B9
330
9
100
AcDbSymbolTableRecord
100
AcDbRegAppTableRecord
  2
GEVID1208933870
 70
     0
  0
APPID
  5
4BA
330
9
100
AcDbSymbolTableRecord
100
AcDbRegAppTableRecord
  2
GEVID1208933871
 70
     0
  0
APPID
  5
4BB
330
9
100
AcDbSymbolTableRecord
100
AcDbRegAppTableRecord
  2
GEVID1208933872
 70
     0
  0
APPID
  5
4BC
330
9
100
AcDbSymbolTableRecord
100
AcDbRegAppTableRecord
  2
GEVID1208933873
 70
     0
  0
APPID
  5
4BD
330
9
100
AcDbSymbolTableRecord
100
AcDbRegAppTableRecord
  2
GEVID1208933874
 70
     0
  0
APPID
  5
4BE
330
9
100
AcDbSymbolTableRecord
100
AcDbRegAppTableRecord
  2
GEVID1208933875
 70
     0
  0
APPID
  5
4BF
330
9
100
AcDbSymbolTableRecord
100
AcDbRegAppTableRecord
  2
GEVID1208933876
 70
     0
  0
APPID
  5
4C0
330
9
100
AcDbSymbolTableRecord
100
AcDbRegAppTableRecord
  2
ACAD_DSTYLE_DIMRADIAL_EXTENSION
 70
     0
  0
APPID
  5
4C1
330
9
100
AcDbSymbolTableRecord
100
AcDbRegAppTableRecord
  2
GEVID1208999100
 70
     0
  0
APPID
  5
4C2
330
9
100
AcDbSymbolTableRecord
100
AcDbRegAppTableRecord
  2
GEVID1208999101
 70
     0
  0
APPID
  5
4C3
330
9
100
AcDbSymbolTableRecord
100
AcDbRegAppTableRecord
  2
GEVID1208999102
 70
     0
  0
APPID
  5
4C4
330
9
100
AcDbSymbolTableRecord
100
AcDbRegAppTableRecord
  2
GEVID1208999103
 70
     0
  0
APPID
  5
4C5
330
9
100
AcDbSymbolTableRecord
100
AcDbRegAppTableRecord
  2
GEVID1208999105
 70
     0
  0
APPID
  5
4C6
330
9
100
AcDbSymbolTableRecord
100
AcDbRegAppTableRecord
  2
GEVID1208999106
 70
     0
  0
APPID
  5
4C7
330
9
100
AcDbSymbolTableRecord
100
AcDbRegAppTableRecord
  2
GEVID1208999108
 70
     0
  0
APPID
  5
4C8
330
9
100
AcDbSymbolTableRecord
100
AcDbRegAppTableRecord
  2
GEVID1208999109
 70
     0
  0
APPID
  5
4C9
330
9
100
AcDbSymbolTableRecord
100
AcDbRegAppTableRecord
  2
GEVID1208999110
 70
     0
  0
APPID
  5
4CA
330
9
100
AcDbSymbolTableRecord
100
AcDbRegAppTableRecord
  2
GEVID1208999111
 70
     0
  0
APPID
  5
4CB
330
9
100
AcDbSymbolTableRecord
100
AcDbRegAppTableRecord
  2
GEVID1208999112
 70
     0
  0
APPID
  5
4CC
330
9
100
AcDbSymbolTableRecord
100
AcDbRegAppTableRecord
  2
GEVID1208999113
 70
     0
  0
APPID
  5
4CD
330
9
100
AcDbSymbolTableRecord
100
AcDbRegAppTableRecord
  2
GEVID1208999114
 70
     0
  0
APPID
  5
4CE
330
9
100
AcDbSymbolTableRecord
100
AcDbRegAppTableRecord
  2
GEVID1210218799
 70
     0
  0
APPID
  5
4CF
330
9
100
AcDbSymbolTableRecord
100
AcDbRegAppTableRecord
  2
GEVID1210218800
 70
     0
  0
APPID
  5
4D0
330
9
100
AcDbSymbolTableRecord
100
AcDbRegAppTableRecord
  2
GENIUS_GEFWELD_13
 70
     0
  0
APPID
  5
4D1
330
9
100
AcDbSymbolTableRecord
100
AcDbRegAppTableRecord
  2
GENIUS_GENOBJ-F-WELS_13
 70
     0
  0
APPID
  5
4D2
330
9
100
AcDbSymbolTableRecord
100
AcDbRegAppTableRecord
  2
AcadAnnotative
 70
     0
  0
APPID
  5
4D3
330
9
100
AcDbSymbolTableRecord
100
AcDbRegAppTableRecord
  2
GEVID1210145339
 70
     0
  0
APPID
  5
4D4
330
9
100
AcDbSymbolTableRecord
100
AcDbRegAppTableRecord
  2
ACAD_DSTYLE_DIMBREAK
 70
     0
  0
APPID
  5
4D5
330
9
100
AcDbSymbolTableRecord
100
AcDbRegAppTableRecord
  2
GEVID1210145340
 70
     0
  0
APPID
  5
4D6
330
9
100
AcDbSymbolTableRecord
100
AcDbRegAppTableRecord
  2
GEVID1210145341
 70
     0
  0
APPID
  5
4D7
330
9
100
AcDbSymbolTableRecord
100
AcDbRegAppTableRecord
  2
GEVID1210145342
 70
     0
  0
APPID
  5
4D8
330
9
100
AcDbSymbolTableRecord
100
AcDbRegAppTableRecord
  2
GEVID1210145343
 70
     0
  0
APPID
  5
4D9
330
9
100
AcDbSymbolTableRecord
100
AcDbRegAppTableRecord
  2
GEVID1210145344
 70
     0
  0
APPID
  5
4DA
330
9
100
AcDbSymbolTableRecord
100
AcDbRegAppTableRecord
  2
GEVID1210145345
 70
     0
  0
APPID
  5
4DB
330
9
100
AcDbSymbolTableRecord
100
AcDbRegAppTableRecord
  2
GEVID1210152816
 70
     0
  0
APPID
  5
4DC
330
9
100
AcDbSymbolTableRecord
100
AcDbRegAppTableRecord
  2
GEVID1210153850
 70
     0
  0
APPID
  5
4DD
330
9
100
AcDbSymbolTableRecord
100
AcDbRegAppTableRecord
  2
GEVID1210153851
 70
     0
  0
APPID
  5
4DE
330
9
100
AcDbSymbolTableRecord
100
AcDbRegAppTableRecord
  2
GEVID1210153852
 70
     0
  0
APPID
  5
4DF
330
9
100
AcDbSymbolTableRecord
100
AcDbRegAppTableRecord
  2
GEVID1210549898
 70
     0
  0
APPID
  5
4E0
330
9
100
AcDbSymbolTableRecord
100
AcDbRegAppTableRecord
  2
GEVID1210549899
 70
     0
  0
APPID
  5
4E1
330
9
100
AcDbSymbolTableRecord
100
AcDbRegAppTableRecord
  2
GEVID1210549900
 70
     0
  0
APPID
  5
4E2
330
9
100
AcDbSymbolTableRecord
100
AcDbRegAppTableRecord
  2
GEVID1210549901
 70
     0
  0
APPID
  5
4E3
330
9
100
AcDbSymbolTableRecord
100
AcDbRegAppTableRecord
  2
GEVID1210549902
 70
     0
  0
APPID
  5
4E4
330
9
100
AcDbSymbolTableRecord
100
AcDbRegAppTableRecord
  2
GEVID1210549903
 70
     0
  0
APPID
  5
4E5
330
9
100
AcDbSymbolTableRecord
100
AcDbRegAppTableRecord
  2
GEVID1210549904
 70
     0
  0
APPID
  5
4E6
330
9
100
AcDbSymbolTableRecord
100
AcDbRegAppTableRecord
  2
GEVID1210549905
 70
     0
  0
APPID
  5
4E7
330
9
100
AcDbSymbolTableRecord
100
AcDbRegAppTableRecord
  2
GEVID1210549906
 70
     0
  0
APPID
  5
4E8
330
9
100
AcDbSymbolTableRecord
100
AcDbRegAppTableRecord
  2
GEVID1210549907
 70
     0
  0
APPID
  5
4E9
330
9
100
AcDbSymbolTableRecord
100
AcDbRegAppTableRecord
  2
GEVID1210549908
 70
     0
  0
APPID
  5
4EA
330
9
100
AcDbSymbolTableRecord
100
AcDbRegAppTableRecord
  2
GEVID1210549909
 70
     0
  0
APPID
  5
4EB
330
9
100
AcDbSymbolTableRecord
100
AcDbRegAppTableRecord
  2
GEVID1210549910
 70
     0
  0
APPID
  5
4EC
330
9
100
AcDbSymbolTableRecord
100
AcDbRegAppTableRecord
  2
GEVID1210549911
 70
     0
  0
APPID
  5
4ED
330
9
100
AcDbSymbolTableRecord
100
AcDbRegAppTableRecord
  2
GEVID1210549912
 70
     0
  0
APPID
  5
4EE
330
9
100
AcDbSymbolTableRecord
100
AcDbRegAppTableRecord
  2
GEVID1210549913
 70
     0
  0
APPID
  5
4EF
330
9
100
AcDbSymbolTableRecord
100
AcDbRegAppTableRecord
  2
GEVID1210549914
 70
     0
  0
APPID
  5
4F0
330
9
100
AcDbSymbolTableRecord
100
AcDbRegAppTableRecord
  2
GEVID1210549915
 70
     0
  0
APPID
  5
4F1
330
9
100
AcDbSymbolTableRecord
100
AcDbRegAppTableRecord
  2
GEVID1210549916
 70
     0
  0
APPID
  5
4F2
330
9
100
AcDbSymbolTableRecord
100
AcDbRegAppTableRecord
  2
GEVID1210549917
 70
     0
  0
APPID
  5
4F3
330
9
100
AcDbSymbolTableRecord
100
AcDbRegAppTableRecord
  2
GENIUS_GENOBJ-N-CRS_13
 70
     0
  0
APPID
  5
4F4
330
9
100
AcDbSymbolTableRecord
100
AcDbRegAppTableRecord
  2
GEVID1210549918
 70
     0
  0
APPID
  5
4F5
330
9
100
AcDbSymbolTableRecord
100
AcDbRegAppTableRecord
  2
GENIUS_GENOBJ-N-CRC_13
 70
     0
  0
APPID
  5
4F6
330
9
100
AcDbSymbolTableRecord
100
AcDbRegAppTableRecord
  2
GENIUS_GENCRC_14
 70
     0
  0
APPID
  5
4F7
330
9
100
AcDbSymbolTableRecord
100
AcDbRegAppTableRecord
  2
GEVID1210549919
 70
     0
  0
APPID
  5
4F8
330
9
100
AcDbSymbolTableRecord
100
AcDbRegAppTableRecord
  2
GEVID1210549921
 70
     0
  0
APPID
  5
4F9
330
9
100
AcDbSymbolTableRecord
100
AcDbRegAppTableRecord
  2
GEVID1210549922
 70
     0
  0
APPID
  5
4FA
330
9
100
AcDbSymbolTableRecord
100
AcDbRegAppTableRecord
  2
GEVID1210635173
 70
     0
  0
APPID
  5
4FB
330
9
100
AcDbSymbolTableRecord
100
AcDbRegAppTableRecord
  2
GEVID1210635174
 70
     0
  0
APPID
  5
4FC
330
9
100
AcDbSymbolTableRecord
100
AcDbRegAppTableRecord
  2
GEVID1210635175
 70
     0
  0
APPID
  5
4FD
330
9
100
AcDbSymbolTableRecord
100
AcDbRegAppTableRecord
  2
GEVID1210635176
 70
     0
  0
APPID
  5
4FE
330
9
100
AcDbSymbolTableRecord
100
AcDbRegAppTableRecord
  2
GEVID1210635177
 70
     0
  0
APPID
  5
4FF
330
9
100
AcDbSymbolTableRecord
100
AcDbRegAppTableRecord
  2
GEVID1210635178
 70
     0
  0
APPID
  5
500
330
9
100
AcDbSymbolTableRecord
100
AcDbRegAppTableRecord
  2
GENIUS_GENIUS_GENBHEDTMP_13
 70
     0
  0
APPID
  5
501
330
9
100
AcDbSymbolTableRecord
100
AcDbRegAppTableRecord
  2
GEVID1210635179
 70
     0
  0
APPID
  5
502
330
9
100
AcDbSymbolTableRecord
100
AcDbRegAppTableRecord
  2
GEVID1210635180
 70
     0
  0
APPID
  5
503
330
9
100
AcDbSymbolTableRecord
100
AcDbRegAppTableRecord
  2
GEVID1210635181
 70
     0
  0
APPID
  5
504
330
9
100
AcDbSymbolTableRecord
100
AcDbRegAppTableRecord
  2
GEVID1210635182
 70
     0
  0
APPID
  5
505
330
9
100
AcDbSymbolTableRecord
100
AcDbRegAppTableRecord
  2
GEVID1210635184
 70
     0
  0
APPID
  5
506
330
9
100
AcDbSymbolTableRecord
100
AcDbRegAppTableRecord
  2
GEVID1210635185
 70
     0
  0
APPID
  5
507
330
9
100
AcDbSymbolTableRecord
100
AcDbRegAppTableRecord
  2
GEVID1210635186
 70
     0
  0
APPID
  5
508
330
9
100
AcDbSymbolTableRecord
100
AcDbRegAppTableRecord
  2
GEVID1210635187
 70
     0
  0
APPID
  5
509
330
9
100
AcDbSymbolTableRecord
100
AcDbRegAppTableRecord
  2
GEVID1210635188
 70
     0
  0
APPID
  5
50A
330
9
100
AcDbSymbolTableRecord
100
AcDbRegAppTableRecord
  2
GEVID1210635189
 70
     0
  0
APPID
  5
50B
330
9
100
AcDbSymbolTableRecord
100
AcDbRegAppTableRecord
  2
GEVID1210635190
 70
     0
  0
APPID
  5
50C
330
9
100
AcDbSymbolTableRecord
100
AcDbRegAppTableRecord
  2
GENIUS_GENREC_14
 70
     0
  0
APPID
  5
50D
330
9
100
AcDbSymbolTableRecord
100
AcDbRegAppTableRecord
  2
GENIUS_GENOBJ-N-REC_13
 70
     0
  0
APPID
  5
50E
330
9
100
AcDbSymbolTableRecord
100
AcDbRegAppTableRecord
  2
GEVID1210676655
 70
     0
  0
APPID
  5
50F
330
9
100
AcDbSymbolTableRecord
100
AcDbRegAppTableRecord
  2
GEVID1210676656
 70
     0
  0
APPID
  5
510
330
9
100
AcDbSymbolTableRecord
100
AcDbRegAppTableRecord
  2
GEVID1210676657
 70
     0
  0
APPID
  5
511
330
9
100
AcDbSymbolTableRecord
100
AcDbRegAppTableRecord
  2
GEVID1210676659
 70
     0
  0
APPID
  5
512
330
9
100
AcDbSymbolTableRecord
100
AcDbRegAppTableRecord
  2
GEVID1210676660
 70
     0
  0
APPID
  5
513
330
9
100
AcDbSymbolTableRecord
100
AcDbRegAppTableRecord
  2
GEVID1210676661
 70
     0
  0
APPID
  5
514
330
9
100
AcDbSymbolTableRecord
100
AcDbRegAppTableRecord
  2
GEVID1210676662
 70
     0
  0
APPID
  5
515
330
9
100
AcDbSymbolTableRecord
100
AcDbRegAppTableRecord
  2
GEVID1210721646
 70
     0
  0
APPID
  5
516
330
9
100
AcDbSymbolTableRecord
100
AcDbRegAppTableRecord
  2
GEVID1210721647
 70
     0
  0
APPID
  5
517
330
9
100
AcDbSymbolTableRecord
100
AcDbRegAppTableRecord
  2
GEVID1210721648
 70
     0
  0
APPID
  5
518
330
9
100
AcDbSymbolTableRecord
100
AcDbRegAppTableRecord
  2
GEVID1210721649
 70
     0
  0
APPID
  5
519
330
9
100
AcDbSymbolTableRecord
100
AcDbRegAppTableRecord
  2
GEVID1210721650
 70
     0
  0
APPID
  5
51A
330
9
100
AcDbSymbolTableRecord
100
AcDbRegAppTableRecord
  2
GEVID1210721651
 70
     0
  0
APPID
  5
51B
330
9
100
AcDbSymbolTableRecord
100
AcDbRegAppTableRecord
  2
GEVID1210721652
 70
     0
  0
APPID
  5
51C
330
9
100
AcDbSymbolTableRecord
100
AcDbRegAppTableRecord
  2
GEVID1210721653
 70
     0
  0
APPID
  5
51D
330
9
100
AcDbSymbolTableRecord
100
AcDbRegAppTableRecord
  2
PE_URL
 70
     0
  0
APPID
  5
51E
330
9
100
AcDbSymbolTableRecord
100
AcDbRegAppTableRecord
  2
GEVID1210825555
 70
     0
  0
APPID
  5
51F
330
9
100
AcDbSymbolTableRecord
100
AcDbRegAppTableRecord
  2
GEVID1210825556
 70
     0
  0
APPID
  5
520
330
9
100
AcDbSymbolTableRecord
100
AcDbRegAppTableRecord
  2
GEVID1210825557
 70
     0
  0
APPID
  5
521
330
9
100
AcDbSymbolTableRecord
100
AcDbRegAppTableRecord
  2
GEVID1210825558
 70
     0
  0
APPID
  5
522
330
9
100
AcDbSymbolTableRecord
100
AcDbRegAppTableRecord
  2
GEVID1210825559
 70
     0
  0
APPID
  5
523
330
9
100
AcDbSymbolTableRecord
100
AcDbRegAppTableRecord
  2
GEVID1210825560
 70
     0
  0
APPID
  5
524
330
9
100
AcDbSymbolTableRecord
100
AcDbRegAppTableRecord
  2
GEVID1210825561
 70
     0
  0
APPID
  5
525
330
9
100
AcDbSymbolTableRecord
100
AcDbRegAppTableRecord
  2
GEVID1210825562
 70
     0
  0
APPID
  5
526
330
9
100
AcDbSymbolTableRecord
100
AcDbRegAppTableRecord
  2
GEVID1210825563
 70
     0
  0
APPID
  5
527
330
9
100
AcDbSymbolTableRecord
100
AcDbRegAppTableRecord
  2
GEVID1210825564
 70
     0
  0
APPID
  5
528
330
9
100
AcDbSymbolTableRecord
100
AcDbRegAppTableRecord
  2
GEVID1210825565
 70
     0
  0
APPID
  5
529
330
9
100
AcDbSymbolTableRecord
100
AcDbRegAppTableRecord
  2
GEVID1210825566
 70
     0
  0
APPID
  5
52A
330
9
100
AcDbSymbolTableRecord
100
AcDbRegAppTableRecord
  2
GEVID1210825567
 70
     0
  0
APPID
  5
52B
330
9
100
AcDbSymbolTableRecord
100
AcDbRegAppTableRecord
  2
GENIUS_GENOBJ-N-ZOO_13
 70
     0
  0
APPID
  5
52C
330
9
100
AcDbSymbolTableRecord
100
AcDbRegAppTableRecord
  2
GENIUS_GENZOO_17
 70
     0
  0
APPID
  5
52D
330
9
100
AcDbSymbolTableRecord
100
AcDbRegAppTableRecord
  2
ACADANNOTATIVEDECOMPOSITION
 70
     0
  0
APPID
  5
52E
330
9
100
AcDbSymbolTableRecord
100
AcDbRegAppTableRecord
  2
GENIUS_GENOBJ-N-HTC_13
 70
     0
  0
APPID
  5
52F
330
9
100
AcDbSymbolTableRecord
100
AcDbRegAppTableRecord
  2
GENIUS_GENHATCH_13
 70
     0
  0
APPID
  5
530
330
9
100
AcDbSymbolTableRecord
100
AcDbRegAppTableRecord
  2
GEVID1210896020
 70
     0
  0
APPID
  5
531
330
9
100
AcDbSymbolTableRecord
100
AcDbRegAppTableRecord
  2
GEVID1210896021
 70
     0
  0
APPID
  5
532
330
9
100
AcDbSymbolTableRecord
100
AcDbRegAppTableRecord
  2
GEVID1209083540
 70
     0
  0
APPID
  5
533
330
9
100
AcDbSymbolTableRecord
100
AcDbRegAppTableRecord
  2
GEVMK
 70
     0
  0
APPID
  5
534
330
9
100
AcDbSymbolTableRecord
100
AcDbRegAppTableRecord
  2
GEVID1209083542
 70
     0
  0
APPID
  5
535
330
9
100
AcDbSymbolTableRecord
100
AcDbRegAppTableRecord
  2
GEVID1209083543
 70
     0
  0
APPID
  5
536
330
9
100
AcDbSymbolTableRecord
100
AcDbRegAppTableRecord
  2
GEVID1209083544
 70
     0
  0
APPID
  5
537
330
9
100
AcDbSymbolTableRecord
100
AcDbRegAppTableRecord
  2
GEVID1209083545
 70
     0
  0
APPID
  5
538
330
9
100
AcDbSymbolTableRecord
100
AcDbRegAppTableRecord
  2
GEVID1209083546
 70
     0
  0
APPID
  5
539
330
9
100
AcDbSymbolTableRecord
100
AcDbRegAppTableRecord
  2
GEVID1209083547
 70
     0
  0
APPID
  5
53A
330
9
100
AcDbSymbolTableRecord
100
AcDbRegAppTableRecord
  2
GEVID1209083548
 70
     0
  0
APPID
  5
53B
330
9
100
AcDbSymbolTableRecord
100
AcDbRegAppTableRecord
  2
GEVID1209083549
 70
     0
  0
APPID
  5
53C
330
9
100
AcDbSymbolTableRecord
100
AcDbRegAppTableRecord
  2
GEVID1209083550
 70
     0
  0
APPID
  5
53D
330
9
100
AcDbSymbolTableRecord
100
AcDbRegAppTableRecord
  2
GEVID1209083551
 70
     0
  0
APPID
  5
53E
330
9
100
AcDbSymbolTableRecord
100
AcDbRegAppTableRecord
  2
GEVID1209083552
 70
     0
  0
APPID
  5
53F
330
9
100
AcDbSymbolTableRecord
100
AcDbRegAppTableRecord
  2
GEVID1209083553
 70
     0
  0
APPID
  5
540
330
9
100
AcDbSymbolTableRecord
100
AcDbRegAppTableRecord
  2
GEVID1210896022
 70
     0
  0
APPID
  5
541
330
9
100
AcDbSymbolTableRecord
100
AcDbRegAppTableRecord
  2
GEVID1211508364
 70
     0
  0
APPID
  5
542
330
9
100
AcDbSymbolTableRecord
100
AcDbRegAppTableRecord
  2
GEVID1211414908
 70
     0
  0
APPID
  5
543
330
9
100
AcDbSymbolTableRecord
100
AcDbRegAppTableRecord
  2
GEVID1211414909
 70
     0
  0
APPID
  5
544
330
9
100
AcDbSymbolTableRecord
100
AcDbRegAppTableRecord
  2
GEVID1211508359
 70
     0
  0
APPID
  5
545
330
9
100
AcDbSymbolTableRecord
100
AcDbRegAppTableRecord
  2
GEVID1211508360
 70
     0
  0
APPID
  5
546
330
9
100
AcDbSymbolTableRecord
100
AcDbRegAppTableRecord
  2
GEVID1211508361
 70
     0
  0
APPID
  5
547
330
9
100
AcDbSymbolTableRecord
100
AcDbRegAppTableRecord
  2
GEVID1211508362
 70
     0
  0
APPID
  5
548
330
9
100
AcDbSymbolTableRecord
100
AcDbRegAppTableRecord
  2
GEVID1211508363
 70
     0
  0
APPID
  5
549
330
9
100
AcDbSymbolTableRecord
100
AcDbRegAppTableRecord
  2
GEVID1211878469
 70
     0
  0
APPID
  5
54A
330
9
100
AcDbSymbolTableRecord
100
AcDbRegAppTableRecord
  2
GEVID1212642819
 70
     0
  0
APPID
  5
54B
330
9
100
AcDbSymbolTableRecord
100
AcDbRegAppTableRecord
  2
GEVID1212642820
 70
     0
  0
APPID
  5
54C
330
9
100
AcDbSymbolTableRecord
100
AcDbRegAppTableRecord
  2
GEVID1212642821
 70
     0
  0
APPID
  5
54D
330
9
100
AcDbSymbolTableRecord
100
AcDbRegAppTableRecord
  2
GEVID1212642822
 70
     0
  0
APPID
  5
54E
330
9
100
AcDbSymbolTableRecord
100
AcDbRegAppTableRecord
  2
GEVID1212642823
 70
     0
  0
APPID
  5
54F
330
9
100
AcDbSymbolTableRecord
100
AcDbRegAppTableRecord
  2
GEVID1212642825
 70
     0
  0
APPID
  5
550
330
9
100
AcDbSymbolTableRecord
100
AcDbRegAppTableRecord
  2
GEVID1212642826
 70
     0
  0
APPID
  5
551
330
9
100
AcDbSymbolTableRecord
100
AcDbRegAppTableRecord
  2
GEVID1212642827
 70
     0
  0
APPID
  5
552
330
9
100
AcDbSymbolTableRecord
100
AcDbRegAppTableRecord
  2
GEVID1212642828
 70
     0
  0
APPID
  5
553
330
9
100
AcDbSymbolTableRecord
100
AcDbRegAppTableRecord
  2
GEVID1212642831
 70
     0
  0
APPID
  5
554
330
9
100
AcDbSymbolTableRecord
100
AcDbRegAppTableRecord
  2
GEVID1212642834
 70
     0
  0
APPID
  5
555
330
9
100
AcDbSymbolTableRecord
100
AcDbRegAppTableRecord
  2
GEVID1212642835
 70
     0
  0
APPID
  5
556
330
9
100
AcDbSymbolTableRecord
100
AcDbRegAppTableRecord
  2
GEVID1212642836
 70
     0
  0
APPID
  5
557
330
9
100
AcDbSymbolTableRecord
100
AcDbRegAppTableRecord
  2
GEVID1212642837
 70
     0
  0
APPID
  5
558
330
9
100
AcDbSymbolTableRecord
100
AcDbRegAppTableRecord
  2
GEVID1212642839
 70
     0
  0
APPID
  5
559
330
9
100
AcDbSymbolTableRecord
100
AcDbRegAppTableRecord
  2
GEVID1212642840
 70
     0
  0
APPID
  5
55A
330
9
100
AcDbSymbolTableRecord
100
AcDbRegAppTableRecord
  2
GEVID1212642841
 70
     0
  0
APPID
  5
55B
330
9
100
AcDbSymbolTableRecord
100
AcDbRegAppTableRecord
  2
GEVID1212655312
 70
     0
  0
APPID
  5
55C
330
9
100
AcDbSymbolTableRecord
100
AcDbRegAppTableRecord
  2
GEVID1212655313
 70
     0
  0
APPID
  5
55D
330
9
100
AcDbSymbolTableRecord
100
AcDbRegAppTableRecord
  2
GEVID1212656533
 70
     0
  0
APPID
  5
55E
330
9
100
AcDbSymbolTableRecord
100
AcDbRegAppTableRecord
  2
GEVID1212656534
 70
     0
  0
APPID
  5
55F
330
9
100
AcDbSymbolTableRecord
100
AcDbRegAppTableRecord
  2
GEVID1212656535
 70
     0
  0
APPID
  5
560
330
9
100
AcDbSymbolTableRecord
100
AcDbRegAppTableRecord
  2
GEVID1212656536
 70
     0
  0
APPID
  5
561
330
9
100
AcDbSymbolTableRecord
100
AcDbRegAppTableRecord
  2
GEVID1212656538
 70
     0
  0
APPID
  5
562
330
9
100
AcDbSymbolTableRecord
100
AcDbRegAppTableRecord
  2
GEVID1212656541
 70
     0
  0
APPID
  5
563
330
9
100
AcDbSymbolTableRecord
100
AcDbRegAppTableRecord
  2
GEVID1212656543
 70
     0
  0
APPID
  5
564
330
9
100
AcDbSymbolTableRecord
100
AcDbRegAppTableRecord
  2
GENIUS_GENOBJ-F-PFASSM_13
 70
     0
  0
APPID
  5
565
330
9
100
AcDbSymbolTableRecord
100
AcDbRegAppTableRecord
  2
GEVID1212656544
 70
     0
  0
APPID
  5
566
330
9
100
AcDbSymbolTableRecord
100
AcDbRegAppTableRecord
  2
GEVID1212656545
 70
     0
  0
APPID
  5
567
330
9
100
AcDbSymbolTableRecord
100
AcDbRegAppTableRecord
  2
GEVID1212656546
 70
     0
  0
APPID
  5
568
330
9
100
AcDbSymbolTableRecord
100
AcDbRegAppTableRecord
  2
GEVID1212656547
 70
     0
  0
APPID
  5
569
330
9
100
AcDbSymbolTableRecord
100
AcDbRegAppTableRecord
  2
GEVID1212656548
 70
     0
  0
APPID
  5
56A
330
9
100
AcDbSymbolTableRecord
100
AcDbRegAppTableRecord
  2
GEVID1212656549
 70
     0
  0
APPID
  5
56B
330
9
100
AcDbSymbolTableRecord
100
AcDbRegAppTableRecord
  2
GEVID1212656550
 70
     0
  0
APPID
  5
56C
330
9
100
AcDbSymbolTableRecord
100
AcDbRegAppTableRecord
  2
GEVID1212656552
 70
     0
  0
APPID
  5
56D
330
9
100
AcDbSymbolTableRecord
100
AcDbRegAppTableRecord
  2
GEVID1212656553
 70
     0
  0
APPID
  5
56E
330
9
100
AcDbSymbolTableRecord
100
AcDbRegAppTableRecord
  2
GEVID1212656554
 70
     0
  0
APPID
  5
56F
330
9
100
AcDbSymbolTableRecord
100
AcDbRegAppTableRecord
  2
GEVID1212656555
 70
     0
  0
APPID
  5
570
330
9
100
AcDbSymbolTableRecord
100
AcDbRegAppTableRecord
  2
GEVID1212656556
 70
     0
  0
APPID
  5
571
330
9
100
AcDbSymbolTableRecord
100
AcDbRegAppTableRecord
  2
GEVID1212656557
 70
     0
  0
APPID
  5
572
330
9
100
AcDbSymbolTableRecord
100
AcDbRegAppTableRecord
  2
GEVID1212656559
 70
     0
  0
APPID
  5
573
330
9
100
AcDbSymbolTableRecord
100
AcDbRegAppTableRecord
  2
GEVID1212656560
 70
     0
  0
APPID
  5
574
330
9
100
AcDbSymbolTableRecord
100
AcDbRegAppTableRecord
  2
GEVID1212656561
 70
     0
  0
APPID
  5
575
330
9
100
AcDbSymbolTableRecord
100
AcDbRegAppTableRecord
  2
GEVID1212656562
 70
     0
  0
APPID
  5
576
330
9
100
AcDbSymbolTableRecord
100
AcDbRegAppTableRecord
  2
GEVID1212656563
 70
     0
  0
APPID
  5
577
330
9
100
AcDbSymbolTableRecord
100
AcDbRegAppTableRecord
  2
GEVID1212711781
 70
     0
  0
APPID
  5
578
330
9
100
AcDbSymbolTableRecord
100
AcDbRegAppTableRecord
  2
GEVID1212711782
 70
     0
  0
APPID
  5
579
330
9
100
AcDbSymbolTableRecord
100
AcDbRegAppTableRecord
  2
GEVID1212711783
 70
     0
  0
APPID
  5
57A
330
9
100
AcDbSymbolTableRecord
100
AcDbRegAppTableRecord
  2
GEVID1212711784
 70
     0
  0
APPID
  5
57B
330
9
100
AcDbSymbolTableRecord
100
AcDbRegAppTableRecord
  2
GEVID1212711788
 70
     0
  0
APPID
  5
57C
330
9
100
AcDbSymbolTableRecord
100
AcDbRegAppTableRecord
  2
GEVID1212711789
 70
     0
  0
APPID
  5
57D
330
9
100
AcDbSymbolTableRecord
100
AcDbRegAppTableRecord
  2
GEVID1212711790
 70
     0
  0
APPID
  5
57E
330
9
100
AcDbSymbolTableRecord
100
AcDbRegAppTableRecord
  2
GEVID1212711791
 70
     0
  0
APPID
  5
57F
330
9
100
AcDbSymbolTableRecord
100
AcDbRegAppTableRecord
  2
GEVID1212711792
 70
     0
  0
APPID
  5
580
330
9
100
AcDbSymbolTableRecord
100
AcDbRegAppTableRecord
  2
GEVID1212711793
 70
     0
  0
APPID
  5
581
330
9
100
AcDbSymbolTableRecord
100
AcDbRegAppTableRecord
  2
GEVID1212711794
 70
     0
  0
APPID
  5
582
330
9
100
AcDbSymbolTableRecord
100
AcDbRegAppTableRecord
  2
GEVID1212711795
 70
     0
  0
APPID
  5
583
330
9
100
AcDbSymbolTableRecord
100
AcDbRegAppTableRecord
  2
GEVID1212711797
 70
     0
  0
APPID
  5
584
330
9
100
AcDbSymbolTableRecord
100
AcDbRegAppTableRecord
  2
GEVID1212711798
 70
     0
  0
APPID
  5
585
330
9
100
AcDbSymbolTableRecord
100
AcDbRegAppTableRecord
  2
GEVID1212711799
 70
     0
  0
APPID
  5
586
330
9
100
AcDbSymbolTableRecord
100
AcDbRegAppTableRecord
  2
GEVID1212711800
 70
     0
  0
APPID
  5
587
330
9
100
AcDbSymbolTableRecord
100
AcDbRegAppTableRecord
  2
GEVID1212711801
 70
     0
  0
APPID
  5
588
330
9
100
AcDbSymbolTableRecord
100
AcDbRegAppTableRecord
  2
GEVID1212711802
 70
     0
  0
APPID
  5
589
330
9
100
AcDbSymbolTableRecord
100
AcDbRegAppTableRecord
  2
GEVID1212711803
 70
     0
  0
APPID
  5
58A
330
9
100
AcDbSymbolTableRecord
100
AcDbRegAppTableRecord
  2
GEVID1212711804
 70
     0
  0
APPID
  5
58B
330
9
100
AcDbSymbolTableRecord
100
AcDbRegAppTableRecord
  2
GEVID1212711805
 70
     0
  0
APPID
  5
58C
330
9
100
AcDbSymbolTableRecord
100
AcDbRegAppTableRecord
  2
GEVID1212711806
 70
     0
  0
APPID
  5
58D
330
9
100
AcDbSymbolTableRecord
100
AcDbRegAppTableRecord
  2
GEVID1212711807
 70
     0
  0
APPID
  5
58E
330
9
100
AcDbSymbolTableRecord
100
AcDbRegAppTableRecord
  2
GEVID1212711808
 70
     0
  0
APPID
  5
58F
330
9
100
AcDbSymbolTableRecord
100
AcDbRegAppTableRecord
  2
GEVID1212711809
 70
     0
  0
APPID
  5
590
330
9
100
AcDbSymbolTableRecord
100
AcDbRegAppTableRecord
  2
GEVID1212711810
 70
     0
  0
APPID
  5
591
330
9
100
AcDbSymbolTableRecord
100
AcDbRegAppTableRecord
  2
GEVID1212711811
 70
     0
  0
APPID
  5
90A
330
9
100
AcDbSymbolTableRecord
100
AcDbRegAppTableRecord
  2
GENIUS_GENTRA_14
 70
     0
  0
APPID
  5
919
330
9
100
AcDbSymbolTableRecord
100
AcDbRegAppTableRecord
  2
GENIUS_GENOBJ-N-TIT_13
 70
     0
  0
APPID
  5
91A
330
9
100
AcDbSymbolTableRecord
100
AcDbRegAppTableRecord
  2
GENIUS_GENTITLE_13
 70
     0
  0
APPID
  5
949
330
9
100
AcDbSymbolTableRecord
100
AcDbRegAppTableRecord
  2
GENIUS_GENBLLY_14
 70
     0
  0
APPID
  5
DDD
330
9
100
AcDbSymbolTableRecord
100
AcDbRegAppTableRecord
  2
GEVID1213165152
 70
     0
  0
APPID
  5
12F9
330
9
100
AcDbSymbolTableRecord
100
AcDbRegAppTableRecord
  2
AcDbDynamicBlockTrueName
 70
     0
  0
APPID
  5
12FA
330
9
100
AcDbSymbolTableRecord
100
AcDbRegAppTableRecord
  2
ACDBBLOCKREPETAG
 70
     0
  0
APPID
  5
1C15
330
9
100
AcDbSymbolTableRecord
100
AcDbRegAppTableRecord
  2
GEVID1214872427
 70
     0
  0
APPID
  5
1C2A
330
9
100
AcDbSymbolTableRecord
100
AcDbRegAppTableRecord
  2
GEVID1214872428
 70
     0
  0
APPID
  5
1C2F
330
9
100
AcDbSymbolTableRecord
100
AcDbRegAppTableRecord
  2
GEVID1214872429
 70
     0
  0
APPID
  5
1C33
330
9
100
AcDbSymbolTableRecord
100
AcDbRegAppTableRecord
  2
GEVID1214872430
 70
     0
  0
APPID
  5
1C3F
330
9
100
AcDbSymbolTableRecord
100
AcDbRegAppTableRecord
  2
GEVID1214872432
 70
     0
  0
APPID
  5
1C4E
330
9
100
AcDbSymbolTableRecord
100
AcDbRegAppTableRecord
  2
GEVID1214872433
 70
     0
  0
APPID
  5
20DC
330
9
100
AcDbSymbolTableRecord
100
AcDbRegAppTableRecord
  2
AcDbDynamicBlockGUID
 70
     0
  0
APPID
  5
20FD
330
9
100
AcDbSymbolTableRecord
100
AcDbRegAppTableRecord
  2
GENIUS_GENOBJ-N-REV_13
 70
     0
  0
APPID
  5
20FE
330
9
100
AcDbSymbolTableRecord
100
AcDbRegAppTableRecord
  2
GENIUS_GENOBJ-N-RSSYM_13
 70
     0
  0
APPID
  5
20FF
330
9
100
AcDbSymbolTableRecord
100
AcDbRegAppTableRecord
  2
GENIUS_GENSYMENT_13
 70
     0
  0
APPID
  5
2100
330
9
100
AcDbSymbolTableRecord
100
AcDbRegAppTableRecord
  2
GENIUS_GENSCSYM_13
 70
     0
  0
ENDTAB
  0
TABLE
  2
DIMSTYLE
  5
A
330
0
100
AcDbSymbolTable
 70
    29
100
AcDbDimStyleTable
 71
     1
340
5AB
  0
DIMSTYLE
105
5AB
330
A
100
AcDbSymbolTableRecord
100
AcDbDimStyleTableRecord
  2
SEISA
 70
     0
  4
"
 41
2.5
 42
0.625
 43
10.0
 44
0.625
 47
0.1
 48
0.1
 73
     0
 74
     0
 77
     3
 78
     8
 79
     2
 90
     1
140
3.5
141
0.0
143
0.0393701
146
0.71
147
1.5
172
     1
176
     3
177
     3
178
     3
271
     2
272
     3
283
     0
286
     8
340
5D5
341
69
342
69
371
    -1
372
    -1
1001
ACAD_DSTYLE_DIMJAG
1070
   388
1040
1.5
1001
ACAD_DSTYLE_DIMTALN
1070
   392
1070
     1
  0
DIMSTYLE
105
5E9
102
{ACAD_REACTORS
330
490A
330
4938
330
4954
330
49E0
330
49F8
330
4BF2
330
4C0A
330
4C22
330
4C55
330
4C6D
330
4CA2
330
4CBA
330
5859
330
5975
330
599F
102
}
330
A
100
AcDbSymbolTableRecord
100
AcDbDimStyleTableRecord
  2
SEISA$0
 70
     0
  4
"
 41
2.5
 42
0.625
 43
10.0
 44
0.625
 47
0.1
 48
0.1
 73
     0
 74
     0
 77
     3
 78
     8
 79
     2
 90
     1
140
3.5
141
0.0
143
0.0393701
146
0.71
147
1.5
172
     1
176
     3
177
     3
178
     3
271
     2
272
     3
283
     0
286
     8
340
5D5
341
69
342
69
371
    -1
372
    -1
  0
DIMSTYLE
105
5BF7
330
A
100
AcDbSymbolTableRecord
100
AcDbDimStyleTableRecord
  2
AM_ISO
 70
     0
  4
"
 41
2.5
 42
1.0
 43
10.0
 44
1.0
 47
0.1
 48
0.1
 73
     0
 74
     0
 77
     1
 78
     8
 79
     2
 90
     1
140
3.5
141
0.0
143
0.0393701
146
0.71
147
1.5
172
     1
176
   256
177
   256
178
     2
271
     2
272
     3
274
     4
283
     0
284
     8
340
11
371
    -1
372
    -1
  0
DIMSTYLE
105
5BF8
330
A
100
AcDbSymbolTableRecord
100
AcDbDimStyleTableRecord
  2
AM_ISO$3
 70
     0
  4
"
 41
2.5
 42
1.0
 43
10.0
 44
1.0
 47
0.1
 48
0.1
 73
     0
 77
     1
 78
     8
 79
     2
 90
     1
140
3.5
141
0.0
143
0.0393701
146
0.71
147
1.5
176
   256
177
   256
178
     2
271
     2
272
     3
274
     4
283
     0
284
     8
288
     1
289
     0
340
11
371
    -1
372
    -1
  0
DIMSTYLE
105
5BF9
330
A
100
AcDbSymbolTableRecord
100
AcDbDimStyleTableRecord
  2
AM_ISO$4
 70
     0
  4
"
 41
2.5
 42
1.0
 43
10.0
 44
1.0
 47
0.1
 48
0.1
 73
     0
 77
     1
 78
     8
 79
     2
 90
     1
140
3.5
141
0.0
143
0.0393701
146
0.71
147
1.5
176
   256
177
   256
178
     2
271
     2
272
     3
274
     4
283
     0
284
     8
288
     1
289
     0
340
11
371
    -1
372
    -1
  0
DIMSTYLE
105
5BFA
330
A
100
AcDbSymbolTableRecord
100
AcDbDimStyleTableRecord
  2
AM_ISO$6
 70
     0
  4
"
 41
2.5
 42
1.0
 43
10.0
 44
1.0
 47
0.1
 48
0.1
 73
     0
 74
     0
 78
     8
 79
     2
 90
     1
140
3.5
141
0.0
143
0.0393701
146
0.71
147
1.5
172
     1
176
   256
177
   256
178
     2
271
     2
272
     3
274
     4
283
     0
284
     8
340
11
371
    -1
372
    -1
  0
DIMSTYLE
105
5BFB
330
A
100
AcDbSymbolTableRecord
100
AcDbDimStyleTableRecord
  2
AM_ISO$7
 70
     0
  4
"
 41
2.5
 42
1.0
 43
10.0
 44
1.0
 47
0.1
 48
0.1
 73
     0
 74
     0
 77
     1
 78
     8
 79
     2
 90
     1
140
5.0
141
0.0
143
0.0393701
146
0.71
147
1.5
172
     1
176
   256
177
   256
178
     2
271
     2
272
     3
274
     4
283
     0
284
     8
340
11
371
    -1
372
    -1
  0
DIMSTYLE
105
5BFC
330
A
100
AcDbSymbolTableRecord
100
AcDbDimStyleTableRecord
  2
AM_ISO$SF
 70
     0
  4
"
 41
2.5
 42
1.0
 43
10.0
 44
1.0
 47
0.1
 48
0.1
 73
     0
 74
     0
 75
     1
 76
     1
 77
     1
 78
     8
 79
     2
 90
     1
140
3.5
141
0.0
143
0.0393701
146
0.71
147
1.5
172
     1
176
   256
177
   256
178
     2
271
     2
272
     3
274
     4
283
     0
284
     8
340
11
371
    -1
372
    -1
  0
DIMSTYLE
105
5BFD
330
A
100
AcDbSymbolTableRecord
100
AcDbDimStyleTableRecord
  2
AM_ISO$SH
 70
     0
  4
"
 41
2.5
 42
1.0
 43
10.0
 44
1.0
 47
0.1
 48
0.1
 73
     0
 74
     0
 75
     1
 76
     1
 77
     1
 78
     8
 79
     2
 90
     1
140
3.5
141
0.0
143
0.0393701
144
2.0
146
0.71
147
1.5
172
     1
173
     1
176
   256
177
   256
178
     2
271
     2
272
     3
274
     4
283
     0
284
     8
340
11
343
74
371
    -1
372
    -1
  0
ENDTAB
  0
TABLE
  2
BLOCK_RECORD
  5
1
330
0
100
AcDbSymbolTable
 70
    31
  0
BLOCK_RECORD
  5
1F
102
{ACAD_XDICTIONARY
360
82
102
}
330
1
100
AcDbSymbolTableRecord
100
AcDbBlockTableRecord
  2
*Model_Space
340
22
 70
     0
280
     1
281
     0
  0
BLOCK_RECORD
  5
1B
330
1
100
AcDbSymbolTableRecord
100
AcDbBlockTableRecord
  2
*Paper_Space
340
1E
 70
     0
280
     1
281
     0
  0
BLOCK_RECORD
  5
23
330
1
100
AcDbSymbolTableRecord
100
AcDbBlockTableRecord
  2
*Paper_Space0
340
26
 70
     0
280
     1
281
     0
  0
BLOCK_RECORD
  5
69
330
1
100
AcDbSymbolTableRecord
100
AcDbBlockTableRecord
  2
_Open30
340
0
102
{BLKREFS
331
4EFF
331
4F00
331
4F46
331
4F47
331
4F4F
331
4F50
331
4F58
331
4F59
331
4F61
331
4F62
331
4F78
331
4F79
331
4F83
331
4F84
331
4FC5
331
4FC6
331
52FD
331
5313
331
5814
331
5815
331
5885
331
5886
331
5999
331
599A
331
59ED
331
59EE
331
5B6D
331
5B6E
102
}
 70
     0
280
     1
281
     0
  0
BLOCK_RECORD
  5
74
330
1
100
AcDbSymbolTableRecord
100
AcDbBlockTableRecord
  2
GENAXEH
340
0
 70
     0
280
     1
281
     0
  0
BLOCK_RECORD
  5
2CE1
102
{ACAD_XDICTIONARY
360
2CE2
102
}
330
1
100
AcDbSymbolTableRecord
100
AcDbBlockTableRecord
  2
ジュウジマルコネジ
340
0
310
2800000020000000200000000100080000000000000400000000000000000000000000000000000000000000000080000080000000808000800000008000800080800000C0C0C000C0DCC000F0CAA6000020400000206000002080000020A0000020C0000020E00000400000004020000040400000406000004080000040A0
310
000040C0000040E00000600000006020000060400000606000006080000060A0000060C0000060E00000800000008020000080400000806000008080000080A0000080C0000080E00000A0000000A0200000A0400000A0600000A0800000A0A00000A0C00000A0E00000C0000000C0200000C0400000C0600000C0800000C0
310
A00000C0C00000C0E00000E0000000E0200000E0400000E0600000E0800000E0A00000E0C00000E0E00040000000400020004000400040006000400080004000A0004000C0004000E00040200000402020004020400040206000402080004020A0004020C0004020E000404000004040200040404000404060004040800040
310
40A0004040C0004040E00040600000406020004060400040606000406080004060A0004060C0004060E00040800000408020004080400040806000408080004080A0004080C0004080E00040A0000040A0200040A0400040A0600040A0800040A0A00040A0C00040A0E00040C0000040C0200040C0400040C0600040C08000
310
40C0A00040C0C00040C0E00040E0000040E0200040E0400040E0600040E0800040E0A00040E0C00040E0E00080000000800020008000400080006000800080008000A0008000C0008000E00080200000802020008020400080206000802080008020A0008020C0008020E00080400000804020008040400080406000804080
310
008040A0008040C0008040E00080600000806020008060400080606000806080008060A0008060C0008060E00080800000808020008080400080806000808080008080A0008080C0008080E00080A0000080A0200080A0400080A0600080A0800080A0A00080A0C00080A0E00080C0000080C0200080C0400080C0600080C0
310
800080C0A00080C0C00080C0E00080E0000080E0200080E0400080E0600080E0800080E0A00080E0C00080E0E000C0000000C0002000C0004000C0006000C0008000C000A000C000C000C000E000C0200000C0202000C0204000C0206000C0208000C020A000C020C000C020E000C0400000C0402000C0404000C0406000C0
310
408000C040A000C040C000C040E000C0600000C0602000C0604000C0606000C0608000C060A000C060C000C060E000C0800000C0802000C0804000C0806000C0808000C080A000C080C000C080E000C0A00000C0A02000C0A04000C0A06000C0A08000C0A0A000C0A0C000C0A0E000C0C00000C0C02000C0C04000C0C06000
310
C0C08000C0C0A000F0FBFF00A4A0A000808080000000FF0000FF000000FFFF00FF000000FF00FF00FFFF0000FFFFFF0000000000000000000000000000000000000000000000000000000000000000000000000000000000000000000000000000000000000000000000000000000000000000000000000000000000000000
310
00000000000000000000000000000000000000000000000000000000FFFFFF0000000000000000000000000000000000000000000000000000000000FF00000000000000000000000000000000000000000000000000000000000000FF00000000000000000000000000000000000000000000000000000000000000FF0000
310
000000000000000000000000000000000000000000000000000000FFFFFF00000000000000000000000000000000000000000000000000000000FFFF00FF000000000000000000000000000000000000000000000000000000FF000000FF0000000000000000000000000000000000000000000000000000FFFF000000FFFF
310
FF000000000000000000000000000000000000000000000000FF00000000FFFFFFFFFFFFFFFFFFFFFFFF0000000000000000000000000000FF0000000000FEFEFEFEFEFEFEFEFEFEFEFEFE00000000000000000000000000FF0000000000FF00000000000000000000FFFF00000000000000000000000000FF0000000000FF
310
00000000000000000000FFFF00000000000000000000000000FF0000000000FF00000000000000000000FFFF000000000000000000F9F9F9F9FFF9F9F9F9F9FFF9F9F9F9F9F9F9F9F9F9FFFFF9F9F9F9F9F9F9000000000000FF0000000000FF00000000000000000000FFFF00000000000000000000000000FF0000000000
310
FF00000000000000000000FFFF00000000000000000000000000FF0000000000FEFEFEFEFEFEFEFEFEFEFEFFFF0000000000000000000000000000FF00000000FFFFFFFFFFFFFFFFFFFFFFFF000000000000000000000000000000FFFF000000FFFFFF00000000000000000000000000000000000000000000000000FF0000
310
00FF00000000000000000000000000000000000000000000000000000000FFFF00FF0000000000000000000000000000000000000000000000000000000000FFFFFF00000000000000000000000000000000000000000000000000000000000000FF0000000000000000000000000000000000000000000000000000000000
310
0000FF00000000000000000000000000000000000000000000000000000000000000FF00000000000000000000000000000000000000000000000000000000000000FFFFFF00000000000000000000000000000000000000000000000000000000000000000000000000000000000000000000000000000000000000000000
310
0000000000000000000000000000000000000000000000000000000000000000000000000000000000000000000000000000000000000000
102
{BLKREFS
331
466C
102
}
 70
     4
280
     1
281
     1
  0
BLOCK_RECORD
  5
2E0C
330
1
100
AcDbSymbolTableRecord
100
AcDbBlockTableRecord
  2
GENDOT
340
0
102
{BLKREFS
331
52FC
331
5312
102
}
 70
     0
280
     1
281
     0
  0
BLOCK_RECORD
  5
43B9
102
{ACAD_XDICTIONARY
360
4415
102
}
330
1
100
AcDbSymbolTableRecord
100
AcDbBlockTableRecord
  2
センタＡ SMVH180
340
0
310
2800000020000000200000000100080000000000000400000000000000000000000000000000000000000000000080000080000000808000800000008000800080800000C0C0C000C0DCC000F0CAA6000020400000206000002080000020A0000020C0000020E00000400000004020000040400000406000004080000040A0
310
000040C0000040E00000600000006020000060400000606000006080000060A0000060C0000060E00000800000008020000080400000806000008080000080A0000080C0000080E00000A0000000A0200000A0400000A0600000A0800000A0A00000A0C00000A0E00000C0000000C0200000C0400000C0600000C0800000C0
310
A00000C0C00000C0E00000E0000000E0200000E0400000E0600000E0800000E0A00000E0C00000E0E00040000000400020004000400040006000400080004000A0004000C0004000E00040200000402020004020400040206000402080004020A0004020C0004020E000404000004040200040404000404060004040800040
310
40A0004040C0004040E00040600000406020004060400040606000406080004060A0004060C0004060E00040800000408020004080400040806000408080004080A0004080C0004080E00040A0000040A0200040A0400040A0600040A0800040A0A00040A0C00040A0E00040C0000040C0200040C0400040C0600040C08000
310
40C0A00040C0C00040C0E00040E0000040E0200040E0400040E0600040E0800040E0A00040E0C00040E0E00080000000800020008000400080006000800080008000A0008000C0008000E00080200000802020008020400080206000802080008020A0008020C0008020E00080400000804020008040400080406000804080
310
008040A0008040C0008040E00080600000806020008060400080606000806080008060A0008060C0008060E00080800000808020008080400080806000808080008080A0008080C0008080E00080A0000080A0200080A0400080A0600080A0800080A0A00080A0C00080A0E00080C0000080C0200080C0400080C0600080C0
310
800080C0A00080C0C00080C0E00080E0000080E0200080E0400080E0600080E0800080E0A00080E0C00080E0E000C0000000C0002000C0004000C0006000C0008000C000A000C000C000C000E000C0200000C0202000C0204000C0206000C0208000C020A000C020C000C020E000C0400000C0402000C0404000C0406000C0
310
408000C040A000C040C000C040E000C0600000C0602000C0604000C0606000C0608000C060A000C060C000C060E000C0800000C0802000C0804000C0806000C0808000C080A000C080C000C080E000C0A00000C0A02000C0A04000C0A06000C0A08000C0A0A000C0A0C000C0A0E000C0C00000C0C02000C0C04000C0C06000
310
C0C08000C0C0A000F0FBFF00A4A0A000808080000000FF0000FF000000FFFF00FF000000FF00FF00FFFF0000FFFFFF0000000000000000000000000000000000000000000000000000000000000000000000000000000000000000000000000000000000000000000000000000000000000000000000000000000000000000
310
000000000000000000000000000000000000000000000000000000000000000000000000000000000000000000000000000000000000FFFFFFFFFFFFFFFFFFFFFFFFFFFFFFFFFFFFFFFFFFFFFFFFFF000000000000FF00000000FF00FFFFFFFFFFFFFF0000000000000000000000FF000000000000FF00000000FF00FF0000
310
000000000000000000000000000000FF000000000000FF00000000FF00FF0000000000000000000000000000000000FF000000000000FF00000000FF00FF0000000000000000000000000000000000FF000000000000FF00000000FF00FF0000000000000000000000000000000000FF000000000000FF00000000FF00FF00
310
00000000000000000000000000000000FF000000000000FF00000000FF00FF0000000000FFFFFFFFFFFFFFFFFFFFFFFFFF000000000000FF00000000FF00FF0000000000FFFFFFFFFFFFFFFFFFFFFFFFFFFF0000000000FF00000000FF00FF000000000000000000000000000000000000FF0000000000FF00000000FF00FF
310
000000000000000000000000000000000000FF0000000000FF00000000FF00FF000000000000000000000000000000000000000000000000FF00000000FF00FF000000000000000000000000000000000000000000000000FF00000000FF00FF00000000000000000000000000000000000000000000FFFFFF00000000FF00
310
FF00000000000000000000000000000000000000000000FFF90000000000FF00FF00000000000000000000000000000000000000000000FFF90000000000FF00FF000000000000000000000000000000000000000000F9F9F9F900000000FF00FF00000000000000000000000000000000000000000000FFF90000000000FF
310
00FF00000000000000000000000000000000000000000000FFFFFF00000000FF00FF000000000000000000000000000000000000000000000000FF00000000FF00FF000000000000000000000000000000000000000000000000FF00000000FF00FF000000000000000000000000000000000000000000000000FF00000000
310
FF00FF000000000000000000000000000000000000000000000000FFFFFFFFFFFFFFFFFFFFFFFFFFFF0000000000000000000000000000000000000000000000000000000000000000000000000000000000000000000000000000000000000000000000000000000000000000000000000000000000000000000000000000
310
0000000000000000000000000000000000000000000000000000000000000000000000000000000000000000000000000000000000000000
102
{BLKREFS
331
43D8
102
}
 70
     4
280
     1
281
     1
  0
BLOCK_RECORD
  5
4494
102
{ACAD_XDICTIONARY
360
4542
102
}
330
1
100
AcDbSymbolTableRecord
100
AcDbBlockTableRecord
  2
ケースＡ SMVH180
340
0
310
2800000020000000200000000100080000000000000400000000000000000000000000000000000000000000000080000080000000808000800000008000800080800000C0C0C000C0DCC000F0CAA6000020400000206000002080000020A0000020C0000020E00000400000004020000040400000406000004080000040A0
310
000040C0000040E00000600000006020000060400000606000006080000060A0000060C0000060E00000800000008020000080400000806000008080000080A0000080C0000080E00000A0000000A0200000A0400000A0600000A0800000A0A00000A0C00000A0E00000C0000000C0200000C0400000C0600000C0800000C0
310
A00000C0C00000C0E00000E0000000E0200000E0400000E0600000E0800000E0A00000E0C00000E0E00040000000400020004000400040006000400080004000A0004000C0004000E00040200000402020004020400040206000402080004020A0004020C0004020E000404000004040200040404000404060004040800040
310
40A0004040C0004040E00040600000406020004060400040606000406080004060A0004060C0004060E00040800000408020004080400040806000408080004080A0004080C0004080E00040A0000040A0200040A0400040A0600040A0800040A0A00040A0C00040A0E00040C0000040C0200040C0400040C0600040C08000
310
40C0A00040C0C00040C0E00040E0000040E0200040E0400040E0600040E0800040E0A00040E0C00040E0E00080000000800020008000400080006000800080008000A0008000C0008000E00080200000802020008020400080206000802080008020A0008020C0008020E00080400000804020008040400080406000804080
310
008040A0008040C0008040E00080600000806020008060400080606000806080008060A0008060C0008060E00080800000808020008080400080806000808080008080A0008080C0008080E00080A0000080A0200080A0400080A0600080A0800080A0A00080A0C00080A0E00080C0000080C0200080C0400080C0600080C0
310
800080C0A00080C0C00080C0E00080E0000080E0200080E0400080E0600080E0800080E0A00080E0C00080E0E000C0000000C0002000C0004000C0006000C0008000C000A000C000C000C000E000C0200000C0202000C0204000C0206000C0208000C020A000C020C000C020E000C0400000C0402000C0404000C0406000C0
310
408000C040A000C040C000C040E000C0600000C0602000C0604000C0606000C0608000C060A000C060C000C060E000C0800000C0802000C0804000C0806000C0808000C080A000C080C000C080E000C0A00000C0A02000C0A04000C0A06000C0A08000C0A0A000C0A0C000C0A0E000C0C00000C0C02000C0C04000C0C06000
310
C0C08000C0C0A000F0FBFF00A4A0A000808080000000FF0000FF000000FFFF00FF000000FF00FF00FFFF0000FFFFFF0000000000000000000000000000000000000000000000000000000000000000000000000000000000000000000000000000000000000000000000000000000000000000000000000000000000000000
310
00000000000000000000000000000000000000000000000000000000000000000000000000000000000000000000000000000000000000000000000000000000000000000000000000000000000000000000000000000000000000000000000000000000000000000000000000000000000000000000000000000000000000
310
00000000000000000000000000000000000000000000000000000000000000000000000000000000000000000000000000000000000000000000000000000000000000000000000000000000000000000000000000000000000000000000000000000000000000000000000000000000000000000000000000000000000000
310
00000000000000000000000000000000000000000000000000FFFF0000000000000000FFFFFFFFFFFFFFFFFFFFFF00000000000000000000FF00FF000000000000000000000000000000000000FF00000000000000000000FFFFFF000000000000000000000000000000000000FF00000000000000000000FFFFA400000000
310
0000000000000000000000000000FF00000000000000000000FFFFF9000000000000000000000000000000000000FF00000000000000000000FFFFF9000000000000000000000000000000000000FF00000000000000000000FFFFFF000000000000000000000000000000000000FF00000000000000FFFEFFFFFFF9000000
310
0000000000FFFFFFFFFFFFFFFFFFFFFFFFFFFFFF0000F9FFFEF9FFFFF900000000000000000000000000000000000000000000FF000000FF0000FFFF000000000000000000FFFFFFFFFFFFFFFFFFFFFFFFFFFFFF00000000000000000000000000000000000000000000000000000000000000000000000000000000000000
310
00000000000000000000000000000000000000000000000000000000000000000000000000000000000000000000000000000000000000000000000000000000000000000000000000000000000000000000000000000000000000000000000000000000000000000000000000000000000000000000000000000000000000
310
00000000000000000000000000000000000000000000000000000000000000000000000000000000000000000000000000000000000000000000000000000000000000000000000000000000000000000000000000000000000000000000000000000000000000000000000000000000000000000000000000000000000000
310
0000000000000000000000000000000000000000000000000000000000000000000000000000000000000000000000000000000000000000
102
{BLKREFS
331
44CD
102
}
 70
     4
280
     1
281
     1
  0
BLOCK_RECORD
  5
462F
102
{ACAD_XDICTIONARY
360
46EE
102
}
330
1
100
AcDbSymbolTableRecord
100
AcDbBlockTableRecord
  2
ケースＢ SMVH180
340
0
310
2800000020000000200000000100080000000000000400000000000000000000000000000000000000000000000080000080000000808000800000008000800080800000C0C0C000C0DCC000F0CAA6000020400000206000002080000020A0000020C0000020E00000400000004020000040400000406000004080000040A0
310
000040C0000040E00000600000006020000060400000606000006080000060A0000060C0000060E00000800000008020000080400000806000008080000080A0000080C0000080E00000A0000000A0200000A0400000A0600000A0800000A0A00000A0C00000A0E00000C0000000C0200000C0400000C0600000C0800000C0
310
A00000C0C00000C0E00000E0000000E0200000E0400000E0600000E0800000E0A00000E0C00000E0E00040000000400020004000400040006000400080004000A0004000C0004000E00040200000402020004020400040206000402080004020A0004020C0004020E000404000004040200040404000404060004040800040
310
40A0004040C0004040E00040600000406020004060400040606000406080004060A0004060C0004060E00040800000408020004080400040806000408080004080A0004080C0004080E00040A0000040A0200040A0400040A0600040A0800040A0A00040A0C00040A0E00040C0000040C0200040C0400040C0600040C08000
310
40C0A00040C0C00040C0E00040E0000040E0200040E0400040E0600040E0800040E0A00040E0C00040E0E00080000000800020008000400080006000800080008000A0008000C0008000E00080200000802020008020400080206000802080008020A0008020C0008020E00080400000804020008040400080406000804080
310
008040A0008040C0008040E00080600000806020008060400080606000806080008060A0008060C0008060E00080800000808020008080400080806000808080008080A0008080C0008080E00080A0000080A0200080A0400080A0600080A0800080A0A00080A0C00080A0E00080C0000080C0200080C0400080C0600080C0
310
800080C0A00080C0C00080C0E00080E0000080E0200080E0400080E0600080E0800080E0A00080E0C00080E0E000C0000000C0002000C0004000C0006000C0008000C000A000C000C000C000E000C0200000C0202000C0204000C0206000C0208000C020A000C020C000C020E000C0400000C0402000C0404000C0406000C0
310
408000C040A000C040C000C040E000C0600000C0602000C0604000C0606000C0608000C060A000C060C000C060E000C0800000C0802000C0804000C0806000C0808000C080A000C080C000C080E000C0A00000C0A02000C0A04000C0A06000C0A08000C0A0A000C0A0C000C0A0E000C0C00000C0C02000C0C04000C0C06000
310
C0C08000C0C0A000F0FBFF00A4A0A000808080000000FF0000FF000000FFFF00FF000000FF00FF00FFFF0000FFFFFF0000000000000000000000000000000000000000000000000000000000000000000000000000000000000000000000000000000000000000000000000000000000000000000000000000000000000000
310
00000000000000000000000000000000000000000000000000000000000000000000000000000000000000000000000000000000000000000000000000000000000000000000000000000000000000000000000000000000000000000000000000000000000000000000000000000000000000000000000000000000000000
310
00000000000000000000000000000000000000000000000000000000000000000000000000000000000000000000000000000000000000000000000000000000000000000000000000000000000000000000000000000000000000000000000000000000000000000000000000000000000000000000000000000000000000
310
000000000000000000000000000000000000000000FFFFFFFFFF0000000000000000000000000000000000000000000000FF000000FFFEFFFFFF0000000000000000000000000000000000000000000000FF0000F9FFFEFFFFFFF90000000000000000FFFFFFFFFFFFFFFFFFFFFFFFFFFFFF000000000000FFFFFF00000000
310
0000000000000000000000000000FF00000000000000000000FFFFF9000000000000000000000000000000000000FF00000000000000000000FFFFF9000000000000000000000000000000000000FF00000000000000000000FFFEA4000000000000000000000000000000000000FF00000000000000000000FFFFFF000000
310
000000000000000000000000000000FF00000000000000000000FF00FF000000000000000000000000000000000000FF0000000000000000000000FFFF0000000000000000FFFFFFFFFFFFFFFFFFFFFF0000000000000000000000000000000000000000000000000000000000000000000000000000000000000000000000
310
00000000000000000000000000000000000000000000000000000000000000000000000000000000000000000000000000000000000000000000000000000000000000000000000000000000000000000000000000000000000000000000000000000000000000000000000000000000000000000000000000000000000000
310
00000000000000000000000000000000000000000000000000000000000000000000000000000000000000000000000000000000000000000000000000000000000000000000000000000000000000000000000000000000000000000000000000000000000000000000000000000000000000000000000000000000000000
310
0000000000000000000000000000000000000000000000000000000000000000000000000000000000000000000000000000000000000000
102
{BLKREFS
331
466D
102
}
 70
     4
280
     1
281
     1
  0
BLOCK_RECORD
  5
4721
102
{ACAD_XDICTIONARY
360
477D
102
}
330
1
100
AcDbSymbolTableRecord
100
AcDbBlockTableRecord
  2
センタB SMVH180
340
0
310
2800000020000000200000000100080000000000000400000000000000000000000000000000000000000000000080000080000000808000800000008000800080800000C0C0C000C0DCC000F0CAA6000020400000206000002080000020A0000020C0000020E00000400000004020000040400000406000004080000040A0
310
000040C0000040E00000600000006020000060400000606000006080000060A0000060C0000060E00000800000008020000080400000806000008080000080A0000080C0000080E00000A0000000A0200000A0400000A0600000A0800000A0A00000A0C00000A0E00000C0000000C0200000C0400000C0600000C0800000C0
310
A00000C0C00000C0E00000E0000000E0200000E0400000E0600000E0800000E0A00000E0C00000E0E00040000000400020004000400040006000400080004000A0004000C0004000E00040200000402020004020400040206000402080004020A0004020C0004020E000404000004040200040404000404060004040800040
310
40A0004040C0004040E00040600000406020004060400040606000406080004060A0004060C0004060E00040800000408020004080400040806000408080004080A0004080C0004080E00040A0000040A0200040A0400040A0600040A0800040A0A00040A0C00040A0E00040C0000040C0200040C0400040C0600040C08000
310
40C0A00040C0C00040C0E00040E0000040E0200040E0400040E0600040E0800040E0A00040E0C00040E0E00080000000800020008000400080006000800080008000A0008000C0008000E00080200000802020008020400080206000802080008020A0008020C0008020E00080400000804020008040400080406000804080
310
008040A0008040C0008040E00080600000806020008060400080606000806080008060A0008060C0008060E00080800000808020008080400080806000808080008080A0008080C0008080E00080A0000080A0200080A0400080A0600080A0800080A0A00080A0C00080A0E00080C0000080C0200080C0400080C0600080C0
310
800080C0A00080C0C00080C0E00080E0000080E0200080E0400080E0600080E0800080E0A00080E0C00080E0E000C0000000C0002000C0004000C0006000C0008000C000A000C000C000C000E000C0200000C0202000C0204000C0206000C0208000C020A000C020C000C020E000C0400000C0402000C0404000C0406000C0
310
408000C040A000C040C000C040E000C0600000C0602000C0604000C0606000C0608000C060A000C060C000C060E000C0800000C0802000C0804000C0806000C0808000C080A000C080C000C080E000C0A00000C0A02000C0A04000C0A06000C0A08000C0A0A000C0A0C000C0A0E000C0C00000C0C02000C0C04000C0C06000
310
C0C08000C0C0A000F0FBFF00A4A0A000808080000000FF0000FF000000FFFF00FF000000FF00FF00FFFF0000FFFFFF0000000000000000000000000000000000000000000000000000000000000000000000000000000000000000000000000000000000000000000000000000000000000000000000000000000000000000
310
0000000000000000000000000000000000000000000000000000000000000000000000000000000000000000000000000000000000FFFFFFFFFFFFFFFFFFFFFFFFFFFF000000000000000000000000000000000000FF000000FF00FF00000000000000000000000000000000000000000000000000FF000000FF00FF000000
310
00000000000000000000000000000000000000000000FF000000FF00FF0000000000000000000000000000000000000000000000FFFFFF000000FF00FF0000000000000000000000000000000000000000000000FFF900000000FF00FF00000000000000000000000000000000000000000000F9F9F9F9000000FF00FF0000
310
000000000000000000000000000000000000000000FFF900000000FF00FF0000000000000000000000000000000000000000000000FFF900000000FF00FF0000000000000000000000000000000000000000000000FFFFFF000000FF00FF00000000000000000000000000000000000000000000000000FF000000FF00FF00
310
000000000000000000000000000000000000000000000000FF000000FF00FF00000000000000000000000000000000000000000000000000FF000000FF00FF00000000000000000000000000000000000000000000000000FF000000FF00FF00000000000000000000000000000000000000FF0000000000FF000000FF00FF
310
00000000000000000000000000000000000000FF0000000000FF000000FF00FF000000000000FFFFFFFFFFFFFFFFFFFFFFFFFFFF0000000000FF000000FF00FF000000000000FFFFFFFFFFFFFFFFFFFFFFFFFF000000000000FF000000FF00FF000000000000000000000000000000000000FF000000000000FF000000FF00
310
FF000000000000000000000000000000000000FF000000000000FF000000FF00FF000000000000000000000000000000000000FF000000000000FF000000FF00FF000000000000000000000000000000000000FF000000000000FF000000FF00FF000000000000000000000000000000000000FF000000000000FF000000FF
310
00FFFFFFFFFFFFFFFF0000000000000000000000FF00000000000000FFFFFFFFFFFFFFFFFFFFFFFFFFFFFFFFFFFFFFFFFFFFFFFFFF0000000000000000000000000000000000000000000000000000000000000000000000000000000000000000000000000000000000000000000000000000000000000000000000000000
310
0000000000000000000000000000000000000000000000000000000000000000000000000000000000000000000000000000000000000000
102
{BLKREFS
331
4740
102
}
 70
     4
280
     1
281
     1
  0
BLOCK_RECORD
  5
47CA
102
{ACAD_XDICTIONARY
360
480B
102
}
330
1
100
AcDbSymbolTableRecord
100
AcDbBlockTableRecord
  2
リーマボルト SMVH180 M8
340
0
310
2800000020000000200000000100080000000000000400000000000000000000000000000000000000000000000080000080000000808000800000008000800080800000C0C0C000C0DCC000F0CAA6000020400000206000002080000020A0000020C0000020E00000400000004020000040400000406000004080000040A0
310
000040C0000040E00000600000006020000060400000606000006080000060A0000060C0000060E00000800000008020000080400000806000008080000080A0000080C0000080E00000A0000000A0200000A0400000A0600000A0800000A0A00000A0C00000A0E00000C0000000C0200000C0400000C0600000C0800000C0
310
A00000C0C00000C0E00000E0000000E0200000E0400000E0600000E0800000E0A00000E0C00000E0E00040000000400020004000400040006000400080004000A0004000C0004000E00040200000402020004020400040206000402080004020A0004020C0004020E000404000004040200040404000404060004040800040
310
40A0004040C0004040E00040600000406020004060400040606000406080004060A0004060C0004060E00040800000408020004080400040806000408080004080A0004080C0004080E00040A0000040A0200040A0400040A0600040A0800040A0A00040A0C00040A0E00040C0000040C0200040C0400040C0600040C08000
310
40C0A00040C0C00040C0E00040E0000040E0200040E0400040E0600040E0800040E0A00040E0C00040E0E00080000000800020008000400080006000800080008000A0008000C0008000E00080200000802020008020400080206000802080008020A0008020C0008020E00080400000804020008040400080406000804080
310
008040A0008040C0008040E00080600000806020008060400080606000806080008060A0008060C0008060E00080800000808020008080400080806000808080008080A0008080C0008080E00080A0000080A0200080A0400080A0600080A0800080A0A00080A0C00080A0E00080C0000080C0200080C0400080C0600080C0
310
800080C0A00080C0C00080C0E00080E0000080E0200080E0400080E0600080E0800080E0A00080E0C00080E0E000C0000000C0002000C0004000C0006000C0008000C000A000C000C000C000E000C0200000C0202000C0204000C0206000C0208000C020A000C020C000C020E000C0400000C0402000C0404000C0406000C0
310
408000C040A000C040C000C040E000C0600000C0602000C0604000C0606000C0608000C060A000C060C000C060E000C0800000C0802000C0804000C0806000C0808000C080A000C080C000C080E000C0A00000C0A02000C0A04000C0A06000C0A08000C0A0A000C0A0C000C0A0E000C0C00000C0C02000C0C04000C0C06000
310
C0C08000C0C0A000F0FBFF00A4A0A000808080000000FF0000FF000000FFFF00FF000000FF00FF00FFFF0000FFFFFF0000000000000000000000000000000000000000000000000000000000000000000000000000000000000000000000000000000000000000000000000000000000000000000000000000000000000000
310
00000000000000000000000000000000000000000000000000000000000000000000000000000000000000000000000000000000000000000000000000000000000000000000000000000000000000000000000000000000000000000000000000000000000000000000000000000000000000000000000000000000000000
310
000000000000000000000000000000000000000000000000000000000000000000000000000000000000000000000000000000000000000000000000000000000000000000000000000000000000000000000000000000000000000000000000000000000000000000000000000000000000000000FFFFFFFFFFFFFFFFFFFF
310
FFFFFFFFFFFFFFFFFFFFFFFFFFFFFFFF00000000FFFFFF000000FFFFFFFFFFFFFFFFFFFFFFFFFFFFFFFFFFFF000000FFFFFF0000FF000000000000FF0000000000000000000000000000FF000000000000FF0000FF000000000000FF0000000000000000000000000000FF000000000000FF0000FF000000000000FF000000
310
0000000000000000000000FF000000000000FF0000FF000000000000FF0000000000000000000000000000FF000000000000FF0000FF000000000000FF0000000000000000000000000000FF000000000000FF0000FF000000000000FF0000000000000000000000000000FF000000000000FF0000FF000000000000FF0000
310
000000000000000000000000FF000000000000FF0000FF000000000000FF0000000000000000000000000000FF000000000000FF0000FF000000000000FF0000000000000000000000000000FF000000000000FF0000FF000000000000FF0000000000000000000000000000FF000000000000FF0000000000000000000000
310
00000000000000000000000000000000000000000000000000000000000000000000000000000000000000000000000000000000000000000000000000000000000000000000000000000000000000000000000000000000000000000000000000000000000000000000000000000000000000000000000000000000000000
310
00000000000000000000000000000000000000000000000000000000000000000000000000000000000000000000000000000000000000000000000000000000000000000000000000000000000000000000000000000000000000000000000000000000000000000000000000000000000000000000000000000000000000
310
0000000000000000000000000000000000000000000000000000000000000000000000000000000000000000000000000000000000000000
102
{BLKREFS
331
47D7
102
}
 70
     4
280
     1
281
     1
  0
BLOCK_RECORD
  5
489E
102
{ACAD_XDICTIONARY
360
48C7
102
}
330
1
100
AcDbSymbolTableRecord
100
AcDbBlockTableRecord
  2
スラストプレ－ト SMVH180
340
0
310
2800000020000000200000000100080000000000000400000000000000000000000000000000000000000000000080000080000000808000800000008000800080800000C0C0C000C0DCC000F0CAA6000020400000206000002080000020A0000020C0000020E00000400000004020000040400000406000004080000040A0
310
000040C0000040E00000600000006020000060400000606000006080000060A0000060C0000060E00000800000008020000080400000806000008080000080A0000080C0000080E00000A0000000A0200000A0400000A0600000A0800000A0A00000A0C00000A0E00000C0000000C0200000C0400000C0600000C0800000C0
310
A00000C0C00000C0E00000E0000000E0200000E0400000E0600000E0800000E0A00000E0C00000E0E00040000000400020004000400040006000400080004000A0004000C0004000E00040200000402020004020400040206000402080004020A0004020C0004020E000404000004040200040404000404060004040800040
310
40A0004040C0004040E00040600000406020004060400040606000406080004060A0004060C0004060E00040800000408020004080400040806000408080004080A0004080C0004080E00040A0000040A0200040A0400040A0600040A0800040A0A00040A0C00040A0E00040C0000040C0200040C0400040C0600040C08000
310
40C0A00040C0C00040C0E00040E0000040E0200040E0400040E0600040E0800040E0A00040E0C00040E0E00080000000800020008000400080006000800080008000A0008000C0008000E00080200000802020008020400080206000802080008020A0008020C0008020E00080400000804020008040400080406000804080
310
008040A0008040C0008040E00080600000806020008060400080606000806080008060A0008060C0008060E00080800000808020008080400080806000808080008080A0008080C0008080E00080A0000080A0200080A0400080A0600080A0800080A0A00080A0C00080A0E00080C0000080C0200080C0400080C0600080C0
310
800080C0A00080C0C00080C0E00080E0000080E0200080E0400080E0600080E0800080E0A00080E0C00080E0E000C0000000C0002000C0004000C0006000C0008000C000A000C000C000C000E000C0200000C0202000C0204000C0206000C0208000C020A000C020C000C020E000C0400000C0402000C0404000C0406000C0
310
408000C040A000C040C000C040E000C0600000C0602000C0604000C0606000C0608000C060A000C060C000C060E000C0800000C0802000C0804000C0806000C0808000C080A000C080C000C080E000C0A00000C0A02000C0A04000C0A06000C0A08000C0A0A000C0A0C000C0A0E000C0C00000C0C02000C0C04000C0C06000
310
C0C08000C0C0A000F0FBFF00A4A0A000808080000000FF0000FF000000FFFF00FF000000FF00FF00FFFF0000FFFFFF0000000000000000000000000000000000000000000000000000000000000000000000000000000000000000000000000000000000000000000000000000000000000000000000000000000000000000
310
00000000000000000000000000000000000000000000000000000000000000000000000000000000000000000000000000000000000000000000000000000000000000000000000000000000000000000000000000000000000000000000000000000000000000000000000000000000000000000000000000000000000000
310
00000000000000000000000000000000000000000000000000000000000000000000000000000000000000000000000000000000000000000000000000000000000000000000000000000000000000000000000000000000000000000000000000000000000000000000000000000000000000000000000000000000000000
310
0000000000000000000000000000000000000000000000000000000000000000000000000000000000000000000000000000000000000000000000000000000000000000000000000000000000000000000000000000000000000000000000000000000000000000000000000000000000000000000000FFFFFFFFFFFFFFFF
310
FFFFFFFFFFFFFFFFFFFFFFFFFFFFFFFFFFFFFF0000000000FF00000000000000000000000000000000000000000000000000000000FFFFFFFF00000000000000000000000000000000000000000000000000000000FFFFFFFFFFFFFFFFFFFFFFFFFFFFFFFFFFFFFFFFFFFFFFFFFFFFFFFFFFFF000000000000000000000000
310
00000000000000000000000000000000000000000000000000000000000000000000000000000000000000000000000000000000000000000000000000000000000000000000000000000000000000000000000000000000000000000000000000000000000000000000000000000000000000000000000000000000000000
310
00000000000000000000000000000000000000000000000000000000000000000000000000000000000000000000000000000000000000000000000000000000000000000000000000000000000000000000000000000000000000000000000000000000000000000000000000000000000000000000000000000000000000
310
00000000000000000000000000000000000000000000000000000000000000000000000000000000000000000000000000000000000000000000000000000000000000000000000000000000000000000000000000000000000000000000000000000000000000000000000000000000000000000000000000000000000000
310
0000000000000000000000000000000000000000000000000000000000000000000000000000000000000000000000000000000000000000
102
{BLKREFS
331
48AC
102
}
 70
     4
280
     1
281
     1
  0
BLOCK_RECORD
  5
490B
330
1
100
AcDbSymbolTableRecord
100
AcDbBlockTableRecord
  2
*D14
340
0
 70
     0
280
     1
281
     0
  0
BLOCK_RECORD
  5
4939
330
1
100
AcDbSymbolTableRecord
100
AcDbBlockTableRecord
  2
*D15
340
0
 70
     0
280
     1
281
     0
  0
BLOCK_RECORD
  5
4955
330
1
100
AcDbSymbolTableRecord
100
AcDbBlockTableRecord
  2
*D16
340
0
 70
     0
280
     1
281
     0
  0
BLOCK_RECORD
  5
49E1
330
1
100
AcDbSymbolTableRecord
100
AcDbBlockTableRecord
  2
*D17
340
0
 70
     0
280
     1
281
     0
  0
BLOCK_RECORD
  5
49F9
330
1
100
AcDbSymbolTableRecord
100
AcDbBlockTableRecord
  2
*D18
340
0
 70
     0
280
     1
281
     0
  0
BLOCK_RECORD
  5
4BF3
330
1
100
AcDbSymbolTableRecord
100
AcDbBlockTableRecord
  2
*D19
340
0
 70
     0
280
     1
281
     0
  0
BLOCK_RECORD
  5
4C0B
330
1
100
AcDbSymbolTableRecord
100
AcDbBlockTableRecord
  2
*D20
340
0
 70
     0
280
     1
281
     0
  0
BLOCK_RECORD
  5
4C23
330
1
100
AcDbSymbolTableRecord
100
AcDbBlockTableRecord
  2
*D21
340
0
 70
     0
280
     1
281
     0
  0
BLOCK_RECORD
  5
4C56
330
1
100
AcDbSymbolTableRecord
100
AcDbBlockTableRecord
  2
*D22
340
0
 70
     0
280
     1
281
     0
  0
BLOCK_RECORD
  5
4C6E
330
1
100
AcDbSymbolTableRecord
100
AcDbBlockTableRecord
  2
*D23
340
0
 70
     0
280
     1
281
     0
  0
BLOCK_RECORD
  5
4CA3
330
1
100
AcDbSymbolTableRecord
100
AcDbBlockTableRecord
  2
*D24
340
0
 70
     0
280
     1
281
     0
  0
BLOCK_RECORD
  5
4CBB
330
1
100
AcDbSymbolTableRecord
100
AcDbBlockTableRecord
  2
*D25
340
0
 70
     0
280
     1
281
     0
  0
BLOCK_RECORD
  5
585A
330
1
100
AcDbSymbolTableRecord
100
AcDbBlockTableRecord
  2
*D26
340
0
 70
     0
280
     1
281
     0
  0
BLOCK_RECORD
  5
5976
330
1
100
AcDbSymbolTableRecord
100
AcDbBlockTableRecord
  2
*D27
340
0
 70
     0
280
     1
281
     0
  0
BLOCK_RECORD
  5
59A0
330
1
100
AcDbSymbolTableRecord
100
AcDbBlockTableRecord
  2
*D28
340
0
 70
     0
280
     1
281
     0
  0
BLOCK_RECORD
  5
5AD7
330
1
100
AcDbSymbolTableRecord
100
AcDbBlockTableRecord
  2
ケース
340
0
310
2800000020000000200000000100080000000000000400000000000000000000000000000000000000000000000080000080000000808000800000008000800080800000C0C0C000C0DCC000F0CAA6000020400000206000002080000020A0000020C0000020E00000400000004020000040400000406000004080000040A0
310
000040C0000040E00000600000006020000060400000606000006080000060A0000060C0000060E00000800000008020000080400000806000008080000080A0000080C0000080E00000A0000000A0200000A0400000A0600000A0800000A0A00000A0C00000A0E00000C0000000C0200000C0400000C0600000C0800000C0
310
A00000C0C00000C0E00000E0000000E0200000E0400000E0600000E0800000E0A00000E0C00000E0E00040000000400020004000400040006000400080004000A0004000C0004000E00040200000402020004020400040206000402080004020A0004020C0004020E000404000004040200040404000404060004040800040
310
40A0004040C0004040E00040600000406020004060400040606000406080004060A0004060C0004060E00040800000408020004080400040806000408080004080A0004080C0004080E00040A0000040A0200040A0400040A0600040A0800040A0A00040A0C00040A0E00040C0000040C0200040C0400040C0600040C08000
310
40C0A00040C0C00040C0E00040E0000040E0200040E0400040E0600040E0800040E0A00040E0C00040E0E00080000000800020008000400080006000800080008000A0008000C0008000E00080200000802020008020400080206000802080008020A0008020C0008020E00080400000804020008040400080406000804080
310
008040A0008040C0008040E00080600000806020008060400080606000806080008060A0008060C0008060E00080800000808020008080400080806000808080008080A0008080C0008080E00080A0000080A0200080A0400080A0600080A0800080A0A00080A0C00080A0E00080C0000080C0200080C0400080C0600080C0
310
800080C0A00080C0C00080C0E00080E0000080E0200080E0400080E0600080E0800080E0A00080E0C00080E0E000C0000000C0002000C0004000C0006000C0008000C000A000C000C000C000E000C0200000C0202000C0204000C0206000C0208000C020A000C020C000C020E000C0400000C0402000C0404000C0406000C0
310
408000C040A000C040C000C040E000C0600000C0602000C0604000C0606000C0608000C060A000C060C000C060E000C0800000C0802000C0804000C0806000C0808000C080A000C080C000C080E000C0A00000C0A02000C0A04000C0A06000C0A08000C0A0A000C0A0C000C0A0E000C0C00000C0C02000C0C04000C0C06000
310
C0C08000C0C0A000F0FBFF00A4A0A000808080000000FF0000FF000000FFFF00FF000000FF00FF00FFFF0000FFFFFF0000000000000000000000000000000000000000000000000000000000000000000000000000000000000000FCFCFCFCFCFCFCFCFCFCFCFC00000000000000000000000000000000000000FC00000000
310
000000000000FC0000000000000000000000000000000000000000FC00000000000000000000FC00000000000000000000000000000000000000FC0000000000000000FCFCFCFCFC000000000000000000000000000000000000FC0000000000000000FC00000000000000000000000000000000000000000000FC00000000
310
00000000FC00000000000000000000000000000000000000000000FC0000000000000000FC00000000000000000000000000000000000000000000FC0000000000000000FC00000000000000000000000000000000000000000000FC0000000000000000FC00000000000000000000000000000000000000000000FC000000
310
0000000000FC00000000000000000000000000000000000000000000FC0000000000000000FCFCFCFCFC000000000000000000000000000000000000FC0000000000000000000000FC00000000000000000000000000000000000000FC0000000000000000000000FC00000000000000000000000000000000000000FC0000
310
00000000FCFCFCFCFCFCFC000000000000000000000000000000000000FC0000000000FC00000000000000000000000000000000000000000000000000FC0000000000FC00FC0000000000000000000000000000000000000000000000FC0000000000FC00FC0000000000000000000000000000000000000000000000FC00
310
00000000FCFCFCFC00000000000000000000000000000000000000000000FC0000000000FC00FC00FC000000000000000000000000000000000000000000FC0000000000FC00FC00FC000000000000000000000000000000000000000000FC0000000000FC00FC00FC000000000000000000000000000000000000000000FC
310
0000000000FC00FC00FC000000000000000000000000000000000000000000FC0000000000FC00FC00FC000000000000000000000000000000000000000000FC0000000000FC00FC00FC000000000000000000000000000000000000000000FC0000000000FC00FC00FC000000000000000000000000000000000000000000
310
FC0000000000FC00FC00FC000000000000000000000000000000000000000000FC0000000000FC00FC00FC000000000000000000000000000000000000000000FC0000000000FC00FC00FC000000000000000000000000000000000000000000FC0000000000FC00FC00FC0000000000000000000000000000000000000000
310
00FC0000000000FC00FC00FC0000000000000000000000000000000000000000000000000000000000000000000000000000000000000000
102
{BLKREFS
331
5AEE
102
}
 70
     4
280
     1
281
     1
  0
ENDTAB
  0
ENDSEC
  0
SECTION
  2
BLOCKS
  0
BLOCK
  5
20
330
1F
100
AcDbEntity
  8
0
100
AcDbBlockBegin
  2
*Model_Space
 70
     0
 10
0.0
 20
0.0
 30
0.0
  3
*Model_Space
  1

  0
ENDBLK
  5
21
330
1F
100
AcDbEntity
  8
0
100
AcDbBlockEnd
  0
BLOCK
  5
1C
330
1B
100
AcDbEntity
 67
     1
  8
0
100
AcDbBlockBegin
  2
*Paper_Space
 70
     0
 10
0.0
 20
0.0
 30
0.0
  3
*Paper_Space
  1

  0
ENDBLK
  5
1D
330
1B
100
AcDbEntity
 67
     1
  8
0
100
AcDbBlockEnd
  0
BLOCK
  5
24
330
23
100
AcDbEntity
 67
     1
  8
0
100
AcDbBlockBegin
  2
*Paper_Space0
 70
     0
 10
0.0
 20
0.0
 30
0.0
  3
*Paper_Space0
  1

  0
ENDBLK
  5
25
330
23
100
AcDbEntity
 67
     1
  8
0
100
AcDbBlockEnd
  0
BLOCK
  5
6D
330
69
100
AcDbEntity
  8
0
100
AcDbBlockBegin
  2
_Open30
 70
     0
 10
0.0
 20
0.0
 30
0.0
  3
_Open30
  1

  0
LINE
  5
6A
330
69
100
AcDbEntity
  8
0
  6
ByBlock
 62
     0
370
    -2
100
AcDbLine
 10
-1.0
 20
0.26794919
 30
0.0
 11
0.0
 21
0.0
 31
0.0
  0
LINE
  5
6B
330
69
100
AcDbEntity
  8
0
  6
ByBlock
 62
     0
370
    -2
100
AcDbLine
 10
0.0
 20
0.0
 30
0.0
 11
-1.0
 21
-0.26794919
 31
0.0
  0
LINE
  5
6C
330
69
100
AcDbEntity
  8
0
  6
ByBlock
 62
     0
370
    -2
100
AcDbLine
 10
0.0
 20
0.0
 30
0.0
 11
-1.0
 21
0.0
 31
0.0
  0
ENDBLK
  5
6E
330
69
100
AcDbEntity
  8
0
100
AcDbBlockEnd
  0
BLOCK
  5
76
330
74
100
AcDbEntity
  8
0
100
AcDbBlockBegin
  2
GENAXEH
 70
     0
 10
0.0
 20
0.0
 30
0.0
  3
GENAXEH
  1

  0
LINE
  5
75
330
74
100
AcDbEntity
  8
0
100
AcDbLine
 10
-1.0
 20
0.0
 30
0.0
 11
1.0
 21
0.0
 31
0.0
  0
ENDBLK
  5
77
330
74
100
AcDbEntity
  8
0
100
AcDbBlockEnd
  0
BLOCK
  5
2CE4
330
2CE1
100
AcDbEntity
  8
0
100
AcDbBlockBegin
  2
ジュウジマルコネジ
 70
     0
 10
0.0
 20
0.0
 30
0.0
  3
ジュウジマルコネジ
  1

  0
LINE
  5
456B
330
2CE1
100
AcDbEntity
  8
AM_7 中心線
100
AcDbLine
 10
-4.008967318641451
 20
0.0
 30
0.0
 11
7.643213681358473
 21
0.0
 31
0.0
  0
LINE
  5
456C
330
2CE1
100
AcDbEntity
  8
AM_0 外形線1
100
AcDbLine
 10
0.0
 20
-5.0
 30
0.0
 11
0.0
 21
5.0
 31
0.0
  0
LINE
  5
456D
330
2CE1
100
AcDbEntity
  8
AM_0 外形線1
100
AcDbLine
 10
0.0
 20
-5.0
 30
0.0
 11
0.7999999999999547
 21
-5.0
 31
0.0
  0
LWPOLYLINE
  5
456E
330
2CE1
100
AcDbEntity
  8
AM_0 外形線1
100
AcDbPolyline
 90
       36
 70
     0
 43
0.0
 10
0.0
 20
3.5
 10
-0.2330620000000181
 20
3.485910999999986
 10
-0.4642479999999978
 20
3.443754000000011
 10
-0.6916949999999816
 20
3.373870000000009
 10
-0.9135739999999259
 20
3.276823000000035
 10
-1.128097000000024
 20
3.153392000000053
 10
-1.333538000000089
 20
3.004570999999998
 10
-1.528241000000206
 20
2.831560000000024
 10
-1.710640000000011
 20
2.635751000000026
 10
-1.879266000000143
 20
2.418720000000006
 10
-2.032761000000164
 20
2.182215000000041
 10
-2.169890000000123
 20
1.928139999999984
 10
-2.289547999999967
 20
1.658541000000013
 10
-2.390771999999969
 20
1.375587999999992
 10
-2.472747000000025
 20
1.081560000000024
 10
-2.5348120000001
 20
0.778823999999986
 10
-2.576469000000087
 20
0.4698170000000347
 10
-2.597382000000151
 20
0.1570269999999709
 10
-2.597382000000151
 20
-0.1570259999999735
 10
-2.576469000000087
 20
-0.4698159999999804
 10
-2.5348120000001
 20
-0.7788229999999885
 10
-2.472747000000025
 20
-1.081558999999969
 10
-2.390771999999969
 20
-1.375586999999995
 10
-2.289547999999967
 20
-1.658540000000015
 10
-2.169890000000123
 20
-1.928138999999987
 10
-2.032761000000164
 20
-2.182213999999986
 10
-1.879266000000143
 20
-2.41871900000001
 10
-1.710640000000011
 20
-2.63575000000003
 10
-1.528241000000206
 20
-2.83155899999997
 10
-1.333538000000089
 20
-3.004570000000001
 10
-1.128097000000024
 20
-3.153390999999998
 10
-0.9135739999999259
 20
-3.276821999999981
 10
-0.6916949999999816
 20
-3.373870000000009
 10
-0.4642479999999978
 20
-3.443753000000014
 10
-0.2330620000000181
 20
-3.485909999999988
 10
0.0
 20
-3.5
  0
LINE
  5
456F
330
2CE1
100
AcDbEntity
  8
AM_0 外形線1
100
AcDbLine
 10
0.0
 20
-2.25
 30
0.0
 11
0.7999999999999547
 21
-2.25
 31
0.0
  0
LINE
  5
4570
330
2CE1
100
AcDbEntity
  8
AM_0 外形線1
100
AcDbLine
 10
0.0
 20
2.25
 30
0.0
 11
0.7999999999999547
 21
2.25
 31
0.0
  0
LINE
  5
4571
330
2CE1
100
AcDbEntity
  8
AM_0 外形線1
100
AcDbLine
 10
0.0
 20
5.0
 30
0.0
 11
0.7999999999999547
 21
5.0
 31
0.0
  0
LINE
  5
4572
330
2CE1
100
AcDbEntity
  8
AM_4 細線
100
AcDbLine
 10
4.849999999999909
 20
1.649999999999976
 30
0.0
 11
0.0
 21
1.649999999999976
 31
0.0
  0
LINE
  5
4573
330
2CE1
100
AcDbEntity
  8
AM_0 外形線1
100
AcDbLine
 10
4.5
 20
2.0
 30
0.0
 11
0.0
 21
2.0
 31
0.0
  0
LINE
  5
4574
330
2CE1
100
AcDbEntity
  8
AM_0 外形線1
100
AcDbLine
 10
4.5
 20
2.0
 30
0.0
 11
5.0
 21
1.5
 31
0.0
  0
LINE
  5
4575
330
2CE1
100
AcDbEntity
  8
AM_0 外形線1
100
AcDbLine
 10
4.5
 20
-2.0
 30
0.0
 11
4.5
 21
2.0
 31
0.0
  0
LINE
  5
4576
330
2CE1
100
AcDbEntity
  8
AM_0 外形線1
100
AcDbLine
 10
5.0
 20
-1.5
 30
0.0
 11
5.0
 21
1.5
 31
0.0
  0
LINE
  5
4577
330
2CE1
100
AcDbEntity
  8
AM_0 外形線1
100
AcDbLine
 10
4.5
 20
-2.0
 30
0.0
 11
5.0
 21
-1.5
 31
0.0
  0
LINE
  5
4578
330
2CE1
100
AcDbEntity
  8
AM_0 外形線1
100
AcDbLine
 10
4.5
 20
-2.0
 30
0.0
 11
0.0
 21
-2.0
 31
0.0
  0
LINE
  5
4579
330
2CE1
100
AcDbEntity
  8
AM_4 細線
100
AcDbLine
 10
4.849999999999909
 20
-1.649999999999976
 30
0.0
 11
0.0
 21
-1.649999999999976
 31
0.0
  0
LINE
  5
45A5
330
2CE1
100
AcDbEntity
  8
AM_0 外形線1
100
AcDbLine
 10
0.7999999999999547
 20
-5.0
 30
0.0
 11
0.7999999999999547
 21
-2.0
 31
0.0
  0
LINE
  5
45A6
330
2CE1
100
AcDbEntity
  8
AM_0 外形線1
100
AcDbLine
 10
0.7999999999999547
 20
2.0
 30
0.0
 11
0.7999999999999547
 21
5.0
 31
0.0
  0
ENDBLK
  5
2CF6
330
2CE1
100
AcDbEntity
  8
0
100
AcDbBlockEnd
  0
BLOCK
  5
2E0D
330
2E0C
100
AcDbEntity
  8
0
100
AcDbBlockBegin
  2
GENDOT
 70
     0
 10
0.0
 20
0.0
 30
0.0
  3
GENDOT
  1

  0
LINE
  5
2E0E
330
2E0C
100
AcDbEntity
  8
0
100
AcDbLine
 10
0.0
 20
0.0
 30
0.0
 11
-1.0
 21
0.0
 31
0.0
  0
LWPOLYLINE
  5
2E0F
330
2E0C
100
AcDbEntity
  8
0
100
AcDbPolyline
 90
        2
 70
     1
 43
0.25
 10
-0.125
 20
0.0
 42
1.0
 10
0.125
 20
0.0
 42
1.0
  0
ENDBLK
  5
2E10
330
2E0C
100
AcDbEntity
  8
0
100
AcDbBlockEnd
  0
BLOCK
  5
43BA
330
43B9
100
AcDbEntity
  8
0
100
AcDbBlockBegin
  2
センタＡ SMVH180
 70
     0
 10
0.0
 20
0.0
 30
0.0
  3
センタＡ SMVH180
  1

  0
LINE
  5
43BC
330
43B9
100
AcDbEntity
  8
AM_0 外形線1
100
AcDbLine
 10
-52.0
 20
0.0
 30
0.0
 11
0.0
 21
0.0
 31
0.0
  0
LINE
  5
43BD
330
43B9
100
AcDbEntity
  8
AM_0 外形線1
100
AcDbLine
 10
48.9000000000001
 20
-90.0
 30
0.0
 11
-48.89999999999986
 21
-90.0
 31
0.0
  0
LINE
  5
43BE
330
43B9
100
AcDbEntity
  8
AM_0 外形線1
100
AcDbLine
 10
-52.5
 20
-60.0
 30
0.0
 11
-52.5
 21
-35.5
 31
0.0
  0
ARC
  5
43BF
330
43B9
100
AcDbEntity
  8
AM_0 外形線1
100
AcDbCircle
 10
-48.89999999999986
 20
-87.0
 30
0.0
 40
3.0
100
AcDbArc
 50
180.0
 51
270.0
  0
LINE
  5
43C0
330
43B9
100
AcDbEntity
  8
AM_0 外形線1
100
AcDbLine
 10
-51.89999999999987
 20
-87.0
 30
0.0
 11
-51.89999999999987
 21
-62.0
 31
0.0
  0
LINE
  5
43C1
330
43B9
100
AcDbEntity
  8
AM_0 外形線1
100
AcDbLine
 10
-51.89999999999987
 20
-62.0
 30
0.0
 11
-52.5
 21
-60.0
 31
0.0
  0
ARC
  5
43C3
330
43B9
100
AcDbEntity
  8
AM_0 外形線1
100
AcDbCircle
 10
0.0
 20
-23.0
 30
0.0
 40
59.9
100
AcDbArc
 50
172.3248759999995
 51
190.5818170000005
  0
LINE
  5
43C5
330
43B9
100
AcDbEntity
  8
AM_0 外形線1
100
AcDbLine
 10
-53.0
 20
-35.0
 30
0.0
 11
-57.6856879999998
 21
-35.0
 31
0.0
  0
LINE
  5
43C6
330
43B9
100
AcDbEntity
  8
AM_0 外形線1
100
AcDbLine
 10
-57.6856879999998
 20
-35.0
 30
0.0
 11
-58.88132199999972
 21
-34.0
 31
0.0
  0
ARC
  5
43C7
330
43B9
100
AcDbEntity
  8
AM_0 外形線1
100
AcDbCircle
 10
-53.0
 20
-35.5
 30
0.0
 40
0.5
100
AcDbArc
 50
0.0
 51
90.0
  0
LINE
  5
43C8
330
43B9
100
AcDbEntity
  8
AM_0 外形線1
100
AcDbLine
 10
-52.5
 20
-13.5
 30
0.0
 11
-52.5
 21
-0.5
 31
0.0
  0
LINE
  5
43C9
330
43B9
100
AcDbEntity
  8
AM_0 外形線1
100
AcDbLine
 10
-58.22001399999999
 20
-14.0
 30
0.0
 11
-53.0
 21
-14.0
 31
0.0
  0
LINE
  5
43CA
330
43B9
100
AcDbEntity
  8
AM_7 中心線
100
AcDbLine
 10
-62.24201199999971
 20
-23.0
 30
0.0
 11
-53.15840899999965
 21
-23.0
 31
0.0
  0
LINE
  5
43CB
330
43B9
100
AcDbEntity
  8
AM_0 外形線1
100
AcDbLine
 10
-59.36337299999991
 20
-15.0
 30
0.0
 11
-58.22001399999999
 21
-14.0
 31
0.0
  0
ARC
  5
43CC
330
43B9
100
AcDbEntity
  8
AM_0 外形線1
100
AcDbCircle
 10
-53.0
 20
-13.5
 30
0.0
 40
0.5
100
AcDbArc
 50
270.0
 51
0.0
  0
LINE
  5
43CD
330
43B9
100
AcDbEntity
  8
AM_0 外形線1
100
AcDbLine
 10
-52.5
 20
-0.5
 30
0.0
 11
-52.0
 21
0.0
 31
0.0
  0
LINE
  5
43CE
330
43B9
100
AcDbEntity
  8
AM_0 外形線1
100
AcDbLine
 10
52.5
 20
-51.0
 30
0.0
 11
52.5
 21
-60.0
 31
0.0
  0
LINE
  5
43CF
330
43B9
100
AcDbEntity
  8
AM_0 外形線1
100
AcDbLine
 10
51.9000000000001
 20
-62.0
 30
0.0
 11
0.0
 21
-62.0
 31
0.0
  0
LINE
  5
43D0
330
43B9
100
AcDbEntity
  8
AM_0 外形線1
100
AcDbLine
 10
52.5
 20
-60.0
 30
0.0
 11
0.0
 21
-60.0
 31
0.0
  0
ARC
  5
43D1
330
43B9
100
AcDbEntity
  8
AM_0 外形線1
100
AcDbCircle
 10
48.9000000000001
 20
-87.0
 30
0.0
 40
3.0
100
AcDbArc
 50
270.0
 51
0.0
  0
LINE
  5
43D2
330
43B9
100
AcDbEntity
  8
AM_0 外形線1
100
AcDbLine
 10
51.9000000000001
 20
-62.0
 30
0.0
 11
51.9000000000001
 21
-87.0
 31
0.0
  0
LINE
  5
43D3
330
43B9
100
AcDbEntity
  8
AM_0 外形線1
100
AcDbLine
 10
52.5
 20
-60.0
 30
0.0
 11
51.9000000000001
 21
-62.0
 31
0.0
  0
LINE
  5
43D4
330
43B9
100
AcDbEntity
  8
AM_0 外形線1
100
AcDbLine
 10
-24.73863375370547
 20
-90.0
 30
0.0
 11
-24.73863375370547
 21
0.0
 31
0.0
  0
ARC
  5
58BE
330
43B9
100
AcDbEntity
  8
AM_0 外形線1
100
AcDbCircle
 10
0.0
 20
-23.0
 30
0.0
 40
55.80000000000001
100
AcDbArc
 50
170.7182009133211
 51
192.4186815058174
  0
ARC
  5
58D6
330
43B9
100
AcDbEntity
  8
AM_7 中心線
100
AcDbCircle
 10
0.0
 20
-23.0
 30
0.0
 40
58.0
100
AcDbArc
 50
169.7366422790006
 51
192.9162244944317
  0
ENDBLK
  5
43BB
330
43B9
100
AcDbEntity
  8
0
100
AcDbBlockEnd
  0
BLOCK
  5
4495
330
4494
100
AcDbEntity
  8
0
100
AcDbBlockBegin
  2
ケースＡ SMVH180
 70
     0
 10
0.0
 20
0.0
 30
0.0
  3
ケースＡ SMVH180
  1

  0
LINE
  5
4497
330
4494
100
AcDbEntity
  8
AM_0 外形線1
100
AcDbLine
 10
-83.79999999999972
 20
-12.25
 30
0.0
 11
-60.5
 21
-12.25
 31
0.0
  0
LINE
  5
4498
330
4494
100
AcDbEntity
  8
AM_0 外形線1
100
AcDbLine
 10
-83.79999999999972
 20
-3.75
 30
0.0
 11
-60.5
 21
-3.75
 31
0.0
  0
LINE
  5
4499
330
4494
100
AcDbEntity
  8
AM_7 中心線
100
AcDbLine
 10
-58.0
 20
-8.0
 30
0.0
 11
-91.64831799999999
 21
-8.0
 31
0.0
  0
LWPOLYLINE
  5
449A
330
4494
100
AcDbEntity
  8
AM_0 外形線1
100
AcDbPolyline
 90
       73
 70
     0
 43
0.0
 10
-65.0
 20
-1.199999999999988
 10
-65.00742099999979
 20
-1.095413000000007
 10
-65.02962499999989
 20
-0.9916220000000064
 10
-65.06644499999993
 20
-0.8894169999999801
 10
-65.11759999999981
 20
-0.7895760000000111
 10
-65.18269999999984
 20
-0.6928579999999444
 10
-65.2612509999999
 20
-0.6000000000000229
 10
-65.3526539999998
 20
-0.5117079999999419
 10
-65.45621399999982
 20
-0.4286549999999353
 10
-65.57114199999978
 20
-0.3514719999999443
 10
-65.69656399999985
 20
-0.2807469999999625
 10
-65.83152599999994
 20
-0.2170179999999391
 10
-65.97499999999991
 20
-0.1607699999999568
 10
-66.1258949999999
 20
-0.1124309999999582
 10
-66.28306099999986
 20
-0.0723689999999806
 10
-66.44530299999996
 20
-0.0408889999999929
 10
-66.61138600000004
 20
-0.0182309999999575
 10
-66.78004699999974
 20
-0.0045669999999518
 10
-66.94999999999982
 20
0.0
 10
-67.11995399999977
 20
-0.0045669999999518
 10
-67.28861400000005
 20
-0.0182309999999575
 10
-67.45469699999967
 20
-0.0408889999999929
 10
-67.61693999999988
 20
-0.0723689999999806
 10
-67.77410599999985
 20
-0.1124309999999582
 10
-67.92499999999972
 20
-0.1607699999999568
 10
-68.06847399999992
 20
-0.2170179999999391
 10
-68.20343599999978
 20
-0.2807469999999625
 10
-68.32885799999984
 20
-0.3514719999999443
 10
-68.4437869999997
 20
-0.4286549999999353
 10
-68.54734699999972
 20
-0.5117079999999419
 10
-68.63874999999985
 20
-0.6000000000000229
 10
-68.71729999999979
 20
-0.6928579999999444
 10
-68.78240099999993
 20
-0.7895760000000111
 10
-68.83355600000005
 20
-0.8894169999999801
 10
-68.87037499999997
 20
-0.9916220000000064
 10
-68.89257999999973
 20
-1.095413000000007
 10
-68.89999999999986
 20
-1.199999999999988
 10
-68.89257999999973
 20
-1.304586999999969
 10
-68.87037499999997
 20
-1.408377999999969
 10
-68.83355600000005
 20
-1.510582999999939
 10
-68.78240099999993
 20
-1.610423999999965
 10
-68.71729999999979
 20
-1.707141999999976
 10
-68.63874999999985
 20
-1.799999999999954
 10
-68.54734699999972
 20
-1.888291999999977
 10
-68.4437869999997
 20
-1.971344999999928
 10
-68.32885799999984
 20
-2.048527999999975
 10
-68.20343599999978
 20
-2.119252999999956
 10
-68.06847399999992
 20
-2.182982999999921
 10
-67.92499999999972
 20
-2.239230999999961
 10
-67.77410599999985
 20
-2.287568999999961
 10
-67.61693999999988
 20
-2.327630999999938
 10
-67.45469699999967
 20
-2.359110999999983
 10
-67.28861400000005
 20
-2.381768999999962
 10
-67.11995399999977
 20
-2.395433999999965
 10
-66.94999999999982
 20
-2.399999999999977
 10
-66.78004699999974
 20
-2.395433999999965
 10
-66.61138600000004
 20
-2.381768999999962
 10
-66.44530299999996
 20
-2.359110999999983
 10
-66.28306099999986
 20
-2.327630999999938
 10
-66.1258949999999
 20
-2.287568999999961
 10
-65.97499999999991
 20
-2.239230999999961
 10
-65.83152599999994
 20
-2.182982999999921
 10
-65.69656399999985
 20
-2.119252999999956
 10
-65.57114199999978
 20
-2.048527999999975
 10
-65.45621399999982
 20
-1.971344999999928
 10
-65.3526539999998
 20
-1.888291999999977
 10
-65.2612509999999
 20
-1.799999999999954
 10
-65.18269999999984
 20
-1.707141999999976
 10
-65.11759999999981
 20
-1.610423999999965
 10
-65.06644499999993
 20
-1.510582999999939
 10
-65.02962499999989
 20
-1.408377999999969
 10
-65.00742099999979
 20
-1.304586999999969
 10
-65.0
 20
-1.199999999999988
  0
ARC
  5
449B
330
4494
100
AcDbEntity
  8
AM_0 外形線1
100
AcDbCircle
 10
-65.5
 20
-1.899999999999976
 30
0.0
 40
0.5
100
AcDbArc
 50
270.0
 51
0.0
  0
ARC
  5
449C
330
4494
100
AcDbEntity
  8
AM_0 外形線1
100
AcDbCircle
 10
-64.0
 20
-53.0
 30
0.0
 40
3.0
100
AcDbArc
 50
180.0
 51
270.0
  0
LINE
  5
449D
330
4494
100
AcDbEntity
  8
AM_0 外形線1
100
AcDbLine
 10
-67.0
 20
-18.0
 30
0.0
 11
-67.0
 21
-53.0
 31
0.0
  0
LINE
  5
449E
330
4494
100
AcDbEntity
  8
AM_4 細線
100
AcDbLine
 10
-90.0
 20
-3.135999999999966
 30
0.0
 11
-83.79999999999972
 21
-3.329749999999988
 31
0.0
  0
LINE
  5
449F
330
4494
100
AcDbEntity
  8
AM_0 外形線1
100
AcDbLine
 10
-90.0
 20
-3.556249999999976
 30
0.0
 11
-83.79999999999972
 21
-3.75
 31
0.0
  0
LINE
  5
44A0
330
4494
100
AcDbEntity
  8
AM_0 外形線1
100
AcDbLine
 10
-90.0
 20
-12.44375000000002
 30
0.0
 11
-83.79999999999972
 21
-12.25
 31
0.0
  0
LINE
  5
44A1
330
4494
100
AcDbEntity
  8
AM_4 細線
100
AcDbLine
 10
-90.0
 20
-12.86400000000003
 30
0.0
 11
-83.79999999999972
 21
-12.67025000000001
 31
0.0
  0
LINE
  5
44A2
330
4494
100
AcDbEntity
  8
AM_0 外形線1
100
AcDbLine
 10
-89.50000000000001
 20
-15.0
 30
0.0
 11
-70.0
 21
-15.0
 31
0.0
  0
LINE
  5
44A3
330
4494
100
AcDbEntity
  8
AM_0 外形線1
100
AcDbLine
 10
-90.0
 20
-14.5
 30
0.0
 11
-89.50000000000001
 21
-15.0
 31
0.0
  0
LINE
  5
44A4
330
4494
100
AcDbEntity
  8
AM_0 外形線1
100
AcDbLine
 10
-90.0
 20
-0.5
 30
0.0
 11
-90.0
 21
-14.5
 31
0.0
  0
LINE
  5
44A5
330
4494
100
AcDbEntity
  8
AM_0 外形線1
100
AcDbLine
 10
-89.50000000000001
 20
0.0
 30
0.0
 11
-90.0
 21
-0.5
 31
0.0
  0
ARC
  5
44A6
330
4494
100
AcDbEntity
  8
AM_0 外形線1
100
AcDbCircle
 10
-70.0
 20
-18.0
 30
0.0
 40
3.0
100
AcDbArc
 50
0.0
 51
90.0
  0
LINE
  5
44A7
330
4494
100
AcDbEntity
  8
AM_4 細線
100
AcDbLine
 10
-83.79999999999972
 20
-3.329749999999988
 30
0.0
 11
-83.79999999999972
 21
-12.67025000000001
 31
0.0
  0
LINE
  5
44A8
330
4494
100
AcDbEntity
  8
AM_0 外形線1
100
AcDbLine
 10
-68.89999999999986
 20
-1.899999999999976
 30
0.0
 11
-68.89999999999986
 21
0.0
 31
0.0
  0
ARC
  5
44A9
330
4494
100
AcDbEntity
  8
AM_0 外形線1
100
AcDbCircle
 10
-68.39999999999986
 20
-1.899999999999976
 30
0.0
 40
0.5
100
AcDbArc
 50
180.0
 51
270.0
  0
LINE
  5
44AA
330
4494
100
AcDbEntity
  8
AM_0 外形線1
100
AcDbLine
 10
-65.5
 20
-2.399999999999977
 30
0.0
 11
-68.39999999999986
 21
-2.399999999999977
 31
0.0
  0
LINE
  5
44AB
330
4494
100
AcDbEntity
  8
AM_3 隠れ線
100
AcDbLine
 10
-56.39999999999986
 20
-19.0
 30
0.0
 11
-56.39999999999986
 21
-38.0
 31
0.0
  0
LINE
  5
44AC
330
4494
100
AcDbEntity
  8
AM_0 外形線1
100
AcDbLine
 10
-60.0
 20
-15.86602599999998
 30
0.0
 11
-60.0
 21
-39.13397499999997
 31
0.0
  0
LINE
  5
44AD
330
4494
100
AcDbEntity
  8
AM_7 中心線
100
AcDbLine
 10
-58.0
 20
-14.794667
 30
0.0
 11
-58.0
 21
-41.0
 31
0.0
  0
LWPOLYLINE
  5
44AE
330
4494
100
AcDbEntity
  8
AM_0 外形線1
100
AcDbPolyline
 90
       73
 70
     0
 43
0.0
 10
-54.8499999999999
 20
-53.29999999999995
 10
-54.64518399999997
 20
-53.28553999999996
 10
-54.44192699999985
 20
-53.24226999999996
 10
-54.24177499999996
 20
-53.17051799999996
 10
-54.04625299999998
 20
-53.070832
 10
-53.85684699999979
 20
-52.94396999999992
 10
-53.67499999999972
 20
-52.79089699999997
 10
-53.50209599999971
 20
-52.61277799999994
 10
-53.33944899999983
 20
-52.41096899999996
 10
-53.1882989999999
 20
-52.187006
 10
-53.04979599999978
 20
-51.94259299999998
 10
-52.92499299999986
 20
-51.67959099999996
 10
-52.81484099999989
 20
-51.39999999999997
 10
-52.72017699999992
 20
-51.10594999999999
 10
-52.64172299999972
 20
-50.79967699999997
 10
-52.58007499999984
 20
-50.48351300000001
 10
-52.53570199999989
 20
-50.15986299999998
 10
-52.50894299999981
 20
-49.83119199999999
 10
-52.5
 20
-49.5
 10
-52.50894299999981
 20
-49.16880800000001
 10
-52.53570199999989
 20
-48.84013699999997
 10
-52.58007499999984
 20
-48.51648799999998
 10
-52.64172299999972
 20
-48.20032399999996
 10
-52.72017699999992
 20
-47.89405099999998
 10
-52.81484099999989
 20
-47.59999999999997
 10
-52.92499299999986
 20
-47.32040999999997
 10
-53.04979599999978
 20
-47.05740700000001
 10
-53.1882989999999
 20
-46.812994
 10
-53.33944899999983
 20
-46.58903099999998
 10
-53.50209599999971
 20
-46.38722199999995
 10
-53.67499999999972
 20
-46.20910399999996
 10
-53.85684699999979
 20
-46.05603099999996
 10
-54.04625299999998
 20
-45.92916799999993
 10
-54.24177499999996
 20
-45.82948199999997
 10
-54.44192699999985
 20
-45.75773099999998
 10
-54.64518399999997
 20
-45.71445999999997
 10
-54.8499999999999
 20
-45.69999999999993
 10
-55.05481599999985
 20
-45.71445999999997
 10
-55.25807299999996
 20
-45.75773099999998
 10
-55.45822499999985
 20
-45.82948199999997
 10
-55.65374799999972
 20
-45.92916799999993
 10
-55.8431529999998
 20
-46.05603099999996
 10
-56.02499999999985
 20
-46.20910399999996
 10
-56.19790499999999
 20
-46.38722199999995
 10
-56.36055099999976
 20
-46.58903099999998
 10
-56.5117009999999
 20
-46.812994
 10
-56.6502049999999
 20
-47.05740700000001
 10
-56.77500799999985
 20
-47.32040999999997
 10
-56.88515999999982
 20
-47.59999999999997
 10
-56.979824
 20
-47.89405099999998
 10
-57.05827799999998
 20
-48.20032399999996
 10
-57.11992599999985
 20
-48.51648799999998
 10
-57.16429799999993
 20
-48.84013699999997
 10
-57.19105799999988
 20
-49.16880800000001
 10
-57.19999999999981
 20
-49.5
 10
-57.19105799999988
 20
-49.83119199999999
 10
-57.16429799999993
 20
-50.15986299999998
 10
-57.11992599999985
 20
-50.48351300000001
 10
-57.05827799999998
 20
-50.79967699999997
 10
-56.979824
 20
-51.10594999999999
 10
-56.88515999999982
 20
-51.39999999999997
 10
-56.77500799999985
 20
-51.67959099999996
 10
-56.6502049999999
 20
-51.94259299999998
 10
-56.5117009999999
 20
-52.187006
 10
-56.36055099999976
 20
-52.41096899999996
 10
-56.19790499999999
 20
-52.61277799999994
 10
-56.02499999999985
 20
-52.79089699999997
 10
-55.8431529999998
 20
-52.94396999999992
 10
-55.65374799999972
 20
-53.070832
 10
-55.45822499999985
 20
-53.17051799999996
 10
-55.25807299999996
 20
-53.24226999999996
 10
-55.05481599999985
 20
-53.28553999999996
 10
-54.8499999999999
 20
-53.29999999999995
  0
LINE
  5
44AF
330
4494
100
AcDbEntity
  8
AM_0 外形線1
100
AcDbLine
 10
-57.19999999999981
 20
-52.79999999999995
 30
0.0
 11
-57.19999999999981
 21
-46.19999999999993
 31
0.0
  0
LINE
  5
44B0
330
4494
100
AcDbEntity
  8
AM_0 外形線1
100
AcDbLine
 10
-52.5
 20
-53.29999999999995
 30
0.0
 11
-56.69999999999982
 21
-53.29999999999995
 31
0.0
  0
LINE
  5
44B1
330
4494
100
AcDbEntity
  8
AM_0 外形線1
100
AcDbLine
 10
-64.0
 20
-56.0
 30
0.0
 11
-52.5
 21
-56.0
 31
0.0
  0
ARC
  5
44B2
330
4494
100
AcDbEntity
  8
AM_0 外形線1
100
AcDbCircle
 10
-56.69999999999982
 20
-52.79999999999995
 30
0.0
 40
0.5
100
AcDbArc
 50
180.0
 51
270.0
  0
LINE
  5
44B3
330
4494
100
AcDbEntity
  8
AM_0 外形線1
100
AcDbLine
 10
-53.75
 20
-56.0
 30
0.0
 11
-53.75
 21
-53.29999999999995
 31
0.0
  0
LINE
  5
44B4
330
4494
100
AcDbEntity
  8
AM_0 外形線1
100
AcDbLine
 10
-52.5
 20
-43.0
 30
0.0
 11
-59.5
 21
-43.0
 31
0.0
  0
LINE
  5
44B5
330
4494
100
AcDbEntity
  8
AM_0 外形線1
100
AcDbLine
 10
-56.69999999999982
 20
-45.69999999999993
 30
0.0
 11
-52.5
 21
-45.69999999999993
 31
0.0
  0
LINE
  5
44B6
330
4494
100
AcDbEntity
  8
AM_3 隠れ線
100
AcDbLine
 10
-58.88132199999972
 20
-39.0
 30
0.0
 11
-57.39999999999986
 21
-39.0
 31
0.0
  0
LINE
  5
44B7
330
4494
100
AcDbEntity
  8
AM_3 隠れ線
100
AcDbLine
 10
-57.39999999999986
 20
-39.0
 30
0.0
 11
-56.39999999999986
 21
-38.0
 31
0.0
  0
LINE
  5
44B8
330
4494
100
AcDbEntity
  8
AM_0 外形線1
100
AcDbLine
 10
-58.88132199999972
 20
-39.0
 30
0.0
 11
-59.5
 21
-39.0
 31
0.0
  0
ARC
  5
44B9
330
4494
100
AcDbEntity
  8
AM_0 外形線1
100
AcDbCircle
 10
-59.5
 20
-40.0
 30
0.0
 40
1.0
100
AcDbArc
 50
90.0
 51
180.0
  0
LINE
  5
44BA
330
4494
100
AcDbEntity
  8
AM_0 外形線1
100
AcDbLine
 10
-60.5
 20
-42.0
 30
0.0
 11
-60.5
 21
-40.0
 31
0.0
  0
ARC
  5
44BB
330
4494
100
AcDbEntity
  8
AM_0 外形線1
100
AcDbCircle
 10
-59.5
 20
-42.0
 30
0.0
 40
1.0
100
AcDbArc
 50
180.0
 51
270.0
  0
ARC
  5
44BC
330
4494
100
AcDbEntity
  8
AM_0 外形線1
100
AcDbCircle
 10
-56.69999999999982
 20
-46.19999999999993
 30
0.0
 40
0.5
100
AcDbArc
 50
90.0
 51
180.0
  0
LINE
  5
44BD
330
4494
100
AcDbEntity
  8
AM_0 外形線1
100
AcDbLine
 10
-53.75
 20
-45.69999999999993
 30
0.0
 11
-53.75
 21
-43.0
 31
0.0
  0
ARC
  5
44BE
330
4494
100
AcDbEntity
  8
AM_0 外形線1
100
AcDbCircle
 10
-59.5
 20
-15.0
 30
0.0
 40
1.0
100
AcDbArc
 50
180.0
 51
270.0
  0
LINE
  5
44BF
330
4494
100
AcDbEntity
  8
AM_0 外形線1
100
AcDbLine
 10
-56.39999999999986
 20
-19.0
 30
0.0
 11
-56.39999999999986
 21
-17.0
 31
0.0
  0
LINE
  5
44C0
330
4494
100
AcDbEntity
  8
AM_0 外形線1
100
AcDbLine
 10
-57.39999999999986
 20
-16.0
 30
0.0
 11
-59.5
 21
-16.0
 31
0.0
  0
LINE
  5
44C1
330
4494
100
AcDbEntity
  8
AM_0 外形線1
100
AcDbLine
 10
-56.39999999999986
 20
-17.0
 30
0.0
 11
-57.39999999999986
 21
-16.0
 31
0.0
  0
LINE
  5
44C2
330
4494
100
AcDbEntity
  8
AM_0 外形線1
100
AcDbLine
 10
-65.0
 20
0.0
 30
0.0
 11
-65.0
 21
-1.899999999999976
 31
0.0
  0
LINE
  5
44C3
330
4494
100
AcDbEntity
  8
AM_0 外形線1
100
AcDbLine
 10
-60.5
 20
-15.0
 30
0.0
 11
-60.49999999999977
 21
0.0
 31
0.0
  0
LINE
  5
44C4
330
4494
100
AcDbEntity
  8
AM_0 外形線1
100
AcDbLine
 10
0.0
 20
0.0
 30
0.0
 11
89.50000000000001
 21
0.0
 31
0.0
  0
LINE
  5
44C5
330
4494
100
AcDbEntity
  8
AM_0 外形線1
100
AcDbLine
 10
89.50000000000001
 20
-15.0
 30
0.0
 11
0.0
 21
-15.0
 31
0.0
  0
LINE
  5
44C6
330
4494
100
AcDbEntity
  8
AM_0 外形線1
100
AcDbLine
 10
64.0
 20
-56.0
 30
0.0
 11
0.0
 21
-56.0
 31
0.0
  0
LINE
  5
44C7
330
4494
100
AcDbEntity
  8
AM_0 外形線1
100
AcDbLine
 10
67.0
 20
-18.0
 30
0.0
 11
67.0
 21
-53.0
 31
0.0
  0
ARC
  5
44C8
330
4494
100
AcDbEntity
  8
AM_0 外形線1
100
AcDbCircle
 10
64.0
 20
-53.0
 30
0.0
 40
3.0
100
AcDbArc
 50
270.0
 51
0.0
  0
ARC
  5
44C9
330
4494
100
AcDbEntity
  8
AM_0 外形線1
100
AcDbCircle
 10
70.0
 20
-18.0
 30
0.0
 40
3.0
100
AcDbArc
 50
90.0
 51
180.0
  0
LINE
  5
44CA
330
4494
100
AcDbEntity
  8
AM_0 外形線1
100
AcDbLine
 10
90.0
 20
-14.5
 30
0.0
 11
89.50000000000001
 21
-15.0
 31
0.0
  0
LINE
  5
44CB
330
4494
100
AcDbEntity
  8
AM_0 外形線1
100
AcDbLine
 10
90.0
 20
-0.5
 30
0.0
 11
90.0
 21
-14.5
 31
0.0
  0
LINE
  5
44CC
330
4494
100
AcDbEntity
  8
AM_0 外形線1
100
AcDbLine
 10
89.50000000000001
 20
0.0
 30
0.0
 11
90.0
 21
-0.5
 31
0.0
  0
LINE
  5
450A
330
4494
100
AcDbEntity
  8
AM_0 外形線1
100
AcDbLine
 10
-60.49999999999977
 20
0.0
 30
0.0
 11
-65.0
 21
0.0
 31
0.0
  0
LINE
  5
450B
330
4494
100
AcDbEntity
  8
AM_0 外形線1
100
AcDbLine
 10
-68.89999999999986
 20
0.0
 30
0.0
 11
-89.50000000000001
 21
0.0
 31
0.0
  0
LINE
  5
4849
330
4494
100
AcDbEntity
  8
AM_7 中心線
100
AcDbLine
 10
81.5
 20
-22.64167199999997
 30
0.0
 11
81.5
 21
28.89561900000007
 31
0.0
  0
ENDBLK
  5
4496
330
4494
100
AcDbEntity
  8
0
100
AcDbBlockEnd
  0
BLOCK
  5
4630
330
462F
100
AcDbEntity
  8
0
100
AcDbBlockBegin
  2
ケースＢ SMVH180
 70
     0
 10
0.0
 20
0.0
 30
0.0
  3
ケースＢ SMVH180
  1

  0
LINE
  5
4632
330
462F
100
AcDbEntity
  8
AM_0 外形線1
100
AcDbLine
 10
-65.0
 20
0.5
 30
0.0
 11
-65.5
 21
0.0
 31
0.0
  0
LINE
  5
4633
330
462F
100
AcDbEntity
  8
AM_0 外形線1
100
AcDbLine
 10
-89.50000000000001
 20
0.0
 30
0.0
 11
-90.0
 21
0.5
 31
0.0
  0
LINE
  5
4634
330
462F
100
AcDbEntity
  8
AM_0 外形線1
100
AcDbLine
 10
-65.5
 20
0.0
 30
0.0
 11
-89.50000000000001
 21
0.0
 31
0.0
  0
LINE
  5
4635
330
462F
100
AcDbEntity
  8
AM_0 外形線1
100
AcDbLine
 10
-83.79999999999972
 20
4.75
 30
0.0
 11
-60.5
 21
4.75
 31
0.0
  0
LINE
  5
4636
330
462F
100
AcDbEntity
  8
AM_0 外形線1
100
AcDbLine
 10
-83.79999999999972
 20
13.25
 30
0.0
 11
-60.5
 21
13.25
 31
0.0
  0
LINE
  5
4637
330
462F
100
AcDbEntity
  8
AM_7 中心線
100
AcDbLine
 10
-58.0
 20
9.0
 30
0.0
 11
-91.64831799999999
 21
9.0
 31
0.0
  0
ARC
  5
4638
330
462F
100
AcDbEntity
  8
AM_0 外形線1
100
AcDbCircle
 10
-64.0
 20
53.0
 30
0.0
 40
3.0
100
AcDbArc
 50
90.0
 51
180.0
  0
LINE
  5
4639
330
462F
100
AcDbEntity
  8
AM_0 外形線1
100
AcDbLine
 10
-67.0
 20
18.0
 30
0.0
 11
-67.0
 21
36.0
 31
0.0
  0
LINE
  5
463A
330
462F
100
AcDbEntity
  8
AM_4 細線
100
AcDbLine
 10
-90.0
 20
13.86400000000003
 30
0.0
 11
-83.79999999999972
 21
13.67025000000001
 31
0.0
  0
LINE
  5
463B
330
462F
100
AcDbEntity
  8
AM_0 外形線1
100
AcDbLine
 10
-90.0
 20
13.44375000000002
 30
0.0
 11
-83.79999999999972
 21
13.25
 31
0.0
  0
LINE
  5
463C
330
462F
100
AcDbEntity
  8
AM_0 外形線1
100
AcDbLine
 10
-90.0
 20
4.556249999999976
 30
0.0
 11
-83.79999999999972
 21
4.75
 31
0.0
  0
LINE
  5
463D
330
462F
100
AcDbEntity
  8
AM_4 細線
100
AcDbLine
 10
-90.0
 20
4.135999999999966
 30
0.0
 11
-83.79999999999972
 21
4.329749999999989
 31
0.0
  0
LINE
  5
463E
330
462F
100
AcDbEntity
  8
AM_0 外形線1
100
AcDbLine
 10
-89.50000000000001
 20
15.0
 30
0.0
 11
-70.0
 21
15.0
 31
0.0
  0
LINE
  5
463F
330
462F
100
AcDbEntity
  8
AM_0 外形線1
100
AcDbLine
 10
-90.0
 20
14.5
 30
0.0
 11
-89.50000000000001
 21
15.0
 31
0.0
  0
LINE
  5
4640
330
462F
100
AcDbEntity
  8
AM_0 外形線1
100
AcDbLine
 10
-90.0
 20
0.5
 30
0.0
 11
-90.0
 21
14.5
 31
0.0
  0
ARC
  5
4641
330
462F
100
AcDbEntity
  8
AM_0 外形線1
100
AcDbCircle
 10
-70.0
 20
18.0
 30
0.0
 40
3.0
100
AcDbArc
 50
270.0
 51
0.0
  0
LINE
  5
4642
330
462F
100
AcDbEntity
  8
AM_4 細線
100
AcDbLine
 10
-83.79999999999972
 20
13.67025000000001
 30
0.0
 11
-83.79999999999972
 21
4.329749999999989
 31
0.0
  0
LINE
  5
4643
330
462F
100
AcDbEntity
  8
AM_0 外形線1
100
AcDbLine
 10
-67.0
 20
46.0
 30
0.0
 11
-67.0
 21
53.0
 31
0.0
  0
LINE
  5
4644
330
462F
100
AcDbEntity
  8
AM_3 隠れ線
100
AcDbLine
 10
-56.39999999999986
 20
19.0
 30
0.0
 11
-56.39999999999986
 21
38.0
 31
0.0
  0
LINE
  5
4645
330
462F
100
AcDbEntity
  8
AM_0 外形線1
100
AcDbLine
 10
-60.0
 20
15.86602500000003
 30
0.0
 11
-60.0
 21
39.13397400000003
 31
0.0
  0
LINE
  5
4646
330
462F
100
AcDbEntity
  8
AM_7 中心線
100
AcDbLine
 10
-58.0
 20
15.15789400000005
 30
0.0
 11
-58.0
 21
41.28638200000006
 31
0.0
  0
LINE
  5
4647
330
462F
100
AcDbEntity
  8
AM_0 外形線1
100
AcDbLine
 10
-56.39999999999986
 20
17.0
 30
0.0
 11
-57.39999999999986
 21
16.0
 31
0.0
  0
LINE
  5
4648
330
462F
100
AcDbEntity
  8
AM_0 外形線1
100
AcDbLine
 10
-60.5
 20
15.0
 30
0.0
 11
-60.5
 21
4.0
 31
0.0
  0
ARC
  5
4649
330
462F
100
AcDbEntity
  8
AM_0 外形線1
100
AcDbCircle
 10
-59.5
 20
15.0
 30
0.0
 40
1.0
100
AcDbArc
 50
90.0
 51
180.0
  0
LINE
  5
464A
330
462F
100
AcDbEntity
  8
AM_0 外形線1
100
AcDbLine
 10
-57.39999999999986
 20
16.0
 30
0.0
 11
-59.5
 21
16.0
 31
0.0
  0
LINE
  5
464B
330
462F
100
AcDbEntity
  8
AM_0 外形線1
100
AcDbLine
 10
-56.39999999999986
 20
19.0
 30
0.0
 11
-56.39999999999986
 21
17.0
 31
0.0
  0
LWPOLYLINE
  5
464C
330
462F
100
AcDbEntity
  8
AM_0 外形線1
100
AcDbPolyline
 90
       73
 70
     0
 43
0.0
 10
-54.8499999999999
 20
53.30000000000001
 10
-55.05481599999985
 20
53.28554000000003
 10
-55.25807299999996
 20
53.24226900000002
 10
-55.45822499999985
 20
53.17051800000001
 10
-55.65374799999972
 20
53.07083200000004
 10
-55.8431529999998
 20
52.94396900000004
 10
-56.02499999999985
 20
52.79089600000003
 10
-56.19790499999999
 20
52.61277800000005
 10
-56.36055099999976
 20
52.41096900000002
 10
-56.5117009999999
 20
52.187006
 10
-56.6502049999999
 20
51.94259300000005
 10
-56.77500799999985
 20
51.67959000000002
 10
-56.88515999999982
 20
51.40000000000004
 10
-56.979824
 20
51.10594900000001
 10
-57.05827799999998
 20
50.79967600000003
 10
-57.11992599999985
 20
50.48351200000002
 10
-57.16429799999993
 20
50.15986300000003
 10
-57.19105799999988
 20
49.83119200000004
 10
-57.19999999999981
 20
49.5
 10
-57.19105799999988
 20
49.16880800000001
 10
-57.16429799999993
 20
48.84013700000003
 10
-57.11992599999985
 20
48.51648700000004
 10
-57.05827799999998
 20
48.20032300000002
 10
-56.979824
 20
47.89404999999999
 10
-56.88515999999982
 20
47.60000000000001
 10
-56.77500799999985
 20
47.32040900000002
 10
-56.6502049999999
 20
47.05740700000001
 10
-56.5117009999999
 20
46.81299400000006
 10
-56.36055099999976
 20
46.58903100000002
 10
-56.19790499999999
 20
46.38722200000001
 10
-56.02499999999985
 20
46.20910300000002
 10
-55.8431529999998
 20
46.05603000000002
 10
-55.65374799999972
 20
45.929168
 10
-55.45822499999985
 20
45.82948200000004
 10
-55.25807299999996
 20
45.75773000000004
 10
-55.05481599999985
 20
45.71446000000003
 10
-54.8499999999999
 20
45.69999999999999
 10
-54.64518399999997
 20
45.71446000000003
 10
-54.44192699999985
 20
45.75773000000004
 10
-54.24177499999996
 20
45.82948200000004
 10
-54.04625299999998
 20
45.929168
 10
-53.85684699999979
 20
46.05603000000002
 10
-53.67499999999972
 20
46.20910300000002
 10
-53.50209599999971
 20
46.38722200000001
 10
-53.33944899999983
 20
46.58903100000002
 10
-53.1882989999999
 20
46.81299400000006
 10
-53.04979599999978
 20
47.05740700000001
 10
-52.92499299999986
 20
47.32040900000002
 10
-52.81484099999989
 20
47.60000000000001
 10
-52.72017699999992
 20
47.89404999999999
 10
-52.64172299999972
 20
48.20032300000002
 10
-52.58007499999984
 20
48.51648700000004
 10
-52.53570199999989
 20
48.84013700000003
 10
-52.50894299999981
 20
49.16880800000001
 10
-52.5
 20
49.5
 10
-52.50894299999981
 20
49.83119200000004
 10
-52.53570199999989
 20
50.15986300000003
 10
-52.58007499999984
 20
50.48351200000002
 10
-52.64172299999972
 20
50.79967600000003
 10
-52.72017699999992
 20
51.10594900000001
 10
-52.81484099999989
 20
51.40000000000004
 10
-52.92499299999986
 20
51.67959000000002
 10
-53.04979599999978
 20
51.94259300000005
 10
-53.1882989999999
 20
52.187006
 10
-53.33944899999983
 20
52.41096900000002
 10
-53.50209599999971
 20
52.61277800000005
 10
-53.67499999999972
 20
52.79089600000003
 10
-53.85684699999979
 20
52.94396900000004
 10
-54.04625299999998
 20
53.07083200000004
 10
-54.24177499999996
 20
53.17051800000001
 10
-54.44192699999985
 20
53.24226900000002
 10
-54.64518399999997
 20
53.28554000000003
 10
-54.8499999999999
 20
53.30000000000001
  0
LINE
  5
464D
330
462F
100
AcDbEntity
  8
AM_0 外形線1
100
AcDbLine
 10
-57.19999999999981
 20
52.80000000000001
 30
0.0
 11
-57.19999999999981
 21
46.19999999999999
 31
0.0
  0
LINE
  5
464E
330
462F
100
AcDbEntity
  8
AM_0 外形線1
100
AcDbLine
 10
-52.5
 20
43.0
 30
0.0
 11
-59.5
 21
43.0
 31
0.0
  0
LINE
  5
464F
330
462F
100
AcDbEntity
  8
AM_0 外形線1
100
AcDbLine
 10
-56.69999999999982
 20
45.69999999999999
 30
0.0
 11
-52.5
 21
45.69999999999999
 31
0.0
  0
LINE
  5
4650
330
462F
100
AcDbEntity
  8
AM_3 隠れ線
100
AcDbLine
 10
-58.88132199999972
 20
39.0
 30
0.0
 11
-57.39999999999986
 21
39.0
 31
0.0
  0
LINE
  5
4651
330
462F
100
AcDbEntity
  8
AM_3 隠れ線
100
AcDbLine
 10
-57.39999999999986
 20
39.0
 30
0.0
 11
-56.39999999999986
 21
38.0
 31
0.0
  0
LINE
  5
4652
330
462F
100
AcDbEntity
  8
AM_0 外形線1
100
AcDbLine
 10
-58.88132199999972
 20
39.0
 30
0.0
 11
-59.5
 21
39.0
 31
0.0
  0
ARC
  5
4653
330
462F
100
AcDbEntity
  8
AM_0 外形線1
100
AcDbCircle
 10
-59.5
 20
40.0
 30
0.0
 40
1.0
100
AcDbArc
 50
180.0
 51
270.0
  0
LINE
  5
4654
330
462F
100
AcDbEntity
  8
AM_0 外形線1
100
AcDbLine
 10
-60.5
 20
42.0
 30
0.0
 11
-60.5
 21
40.0
 31
0.0
  0
ARC
  5
4655
330
462F
100
AcDbEntity
  8
AM_0 外形線1
100
AcDbCircle
 10
-59.5
 20
42.0
 30
0.0
 40
1.0
100
AcDbArc
 50
90.0
 51
180.0
  0
ARC
  5
4656
330
462F
100
AcDbEntity
  8
AM_0 外形線1
100
AcDbCircle
 10
-56.69999999999982
 20
46.19999999999999
 30
0.0
 40
0.5
100
AcDbArc
 50
180.0
 51
270.0
  0
LINE
  5
4657
330
462F
100
AcDbEntity
  8
AM_0 外形線1
100
AcDbLine
 10
-53.75
 20
45.69999999999999
 30
0.0
 11
-53.75
 21
43.0
 31
0.0
  0
LINE
  5
4658
330
462F
100
AcDbEntity
  8
AM_0 外形線1
100
AcDbLine
 10
-52.5
 20
53.30000000000001
 30
0.0
 11
-56.69999999999982
 21
53.30000000000001
 31
0.0
  0
LINE
  5
4659
330
462F
100
AcDbEntity
  8
AM_0 外形線1
100
AcDbLine
 10
-64.0
 20
56.0
 30
0.0
 11
-52.5
 21
56.0
 31
0.0
  0
ARC
  5
465A
330
462F
100
AcDbEntity
  8
AM_0 外形線1
100
AcDbCircle
 10
-56.69999999999982
 20
52.80000000000001
 30
0.0
 40
0.5
100
AcDbArc
 50
90.0
 51
180.0
  0
LINE
  5
465B
330
462F
100
AcDbEntity
  8
AM_0 外形線1
100
AcDbLine
 10
-53.75
 20
56.0
 30
0.0
 11
-53.75
 21
53.30000000000001
 31
0.0
  0
LINE
  5
465C
330
462F
100
AcDbEntity
  8
AM_0 外形線1
100
AcDbLine
 10
89.50000000000001
 20
0.0
 30
0.0
 11
90.0
 21
0.5
 31
0.0
  0
LINE
  5
465D
330
462F
100
AcDbEntity
  8
AM_0 外形線1
100
AcDbLine
 10
89.50000000000001
 20
15.0
 30
0.0
 11
0.0
 21
15.0
 31
0.0
  0
LINE
  5
465E
330
462F
100
AcDbEntity
  8
AM_0 外形線1
100
AcDbLine
 10
64.0
 20
56.0
 30
0.0
 11
0.0
 21
56.0
 31
0.0
  0
LINE
  5
465F
330
462F
100
AcDbEntity
  8
AM_0 外形線1
100
AcDbLine
 10
67.0
 20
18.0
 30
0.0
 11
67.0
 21
53.0
 31
0.0
  0
ARC
  5
4660
330
462F
100
AcDbEntity
  8
AM_0 外形線1
100
AcDbCircle
 10
70.0
 20
18.0
 30
0.0
 40
3.0
100
AcDbArc
 50
180.0
 51
270.0
  0
ARC
  5
4661
330
462F
100
AcDbEntity
  8
AM_0 外形線1
100
AcDbCircle
 10
64.0
 20
53.0
 30
0.0
 40
3.0
100
AcDbArc
 50
0.0
 51
90.0
  0
LINE
  5
4662
330
462F
100
AcDbEntity
  8
AM_0 外形線1
100
AcDbLine
 10
90.0
 20
14.5
 30
0.0
 11
89.50000000000001
 21
15.0
 31
0.0
  0
LINE
  5
4663
330
462F
100
AcDbEntity
  8
AM_0 外形線1
100
AcDbLine
 10
90.0
 20
0.5
 30
0.0
 11
90.0
 21
14.5
 31
0.0
  0
LINE
  5
4664
330
462F
100
AcDbEntity
  8
AM_0 外形線1
100
AcDbLine
 10
-66.50827968135854
 20
43.0
 30
0.0
 11
-66.50827968135854
 21
46.5
 31
0.0
  0
LINE
  5
4665
330
462F
100
AcDbEntity
  8
AM_0 外形線1
100
AcDbLine
 10
-66.50827968135854
 20
35.5
 30
0.0
 11
-66.50827968135854
 21
39.0
 31
0.0
  0
LINE
  5
4666
330
462F
100
AcDbEntity
  8
AM_0 外形線1
100
AcDbLine
 10
-67.00827968135854
 20
35.5
 30
0.0
 11
-66.50827968135854
 21
35.5
 31
0.0
  0
LINE
  5
4667
330
462F
100
AcDbEntity
  8
AM_0 外形線1
100
AcDbLine
 10
-67.00827968135854
 20
46.5
 30
0.0
 11
-66.50827968135854
 21
46.5
 31
0.0
  0
LINE
  5
4668
330
462F
100
AcDbEntity
  8
AM_0 外形線1
100
AcDbLine
 10
-62.45827968135859
 20
42.64999999999997
 30
0.0
 11
-60.2599342076785
 21
42.64999999999997
 31
0.0
  0
LINE
  5
4669
330
462F
100
AcDbEntity
  8
AM_4 細線
100
AcDbLine
 10
-62.8082796813585
 20
43.0
 30
0.0
 11
-59.5
 21
43.0
 31
0.0
  0
LINE
  5
466A
330
462F
100
AcDbEntity
  8
AM_0 外形線1
100
AcDbLine
 10
-60.2599342076785
 20
39.35000000000002
 30
0.0
 11
-62.45827968135859
 21
39.35000000000002
 31
0.0
  0
LINE
  5
466B
330
462F
100
AcDbEntity
  8
AM_4 細線
100
AcDbLine
 10
-59.5
 20
39.0
 30
0.0
 11
-62.8082796813585
 21
39.0
 31
0.0
  0
INSERT
  5
466C
330
462F
100
AcDbEntity
  8
AM_0 外形線1
100
AcDbBlockReference
  2
ジュウジマルコネジ
 10
-67.3082796813585
 20
41.0
 30
0.0
  0
LINE
  5
46EB
330
462F
100
AcDbEntity
  8
AM_0 外形線1
100
AcDbLine
 10
-65.0
 20
0.5
 30
0.0
 11
-65.0
 21
4.0
 31
0.0
  0
LINE
  5
46EC
330
462F
100
AcDbEntity
  8
AM_0 外形線1
100
AcDbLine
 10
-65.0
 20
4.0
 30
0.0
 11
-60.49999999999993
 21
4.0
 31
0.0
  0
LINE
  5
46ED
330
462F
100
AcDbEntity
  8
AM_0 外形線1
100
AcDbLine
 10
89.50000000000001
 20
0.0
 30
0.0
 11
0.0
 21
0.0
 31
0.0
  0
ENDBLK
  5
4631
330
462F
100
AcDbEntity
  8
0
100
AcDbBlockEnd
  0
BLOCK
  5
4722
330
4721
100
AcDbEntity
  8
0
100
AcDbBlockBegin
  2
センタB SMVH180
 70
     0
 10
0.0
 20
0.0
 30
0.0
  3
センタB SMVH180
  1

  0
LINE
  5
4724
330
4721
100
AcDbEntity
  8
AM_0 外形線1
100
AcDbLine
 10
-52.0
 20
0.0
 30
0.0
 11
0.0
 21
0.0
 31
0.0
  0
LINE
  5
4725
330
4721
100
AcDbEntity
  8
AM_0 外形線1
100
AcDbLine
 10
48.9000000000001
 20
90.0
 30
0.0
 11
-48.89999999999986
 21
90.0
 31
0.0
  0
LINE
  5
4726
330
4721
100
AcDbEntity
  8
AM_0 外形線1
100
AcDbLine
 10
-52.5
 20
60.0
 30
0.0
 11
-52.5
 21
35.5
 31
0.0
  0
ARC
  5
4728
330
4721
100
AcDbEntity
  8
AM_0 外形線1
100
AcDbCircle
 10
0.0
 20
23.0
 30
0.0
 40
59.9
100
AcDbArc
 50
169.4181829999994
 51
187.6751240000005
  0
LINE
  5
472A
330
4721
100
AcDbEntity
  8
AM_0 外形線1
100
AcDbLine
 10
-52.5
 20
13.5
 30
0.0
 11
-52.5
 21
0.5
 31
0.0
  0
LINE
  5
472B
330
4721
100
AcDbEntity
  8
AM_0 外形線1
100
AcDbLine
 10
-52.5
 20
0.5
 30
0.0
 11
-52.0
 21
0.0
 31
0.0
  0
LINE
  5
472C
330
4721
100
AcDbEntity
  8
AM_0 外形線1
100
AcDbLine
 10
-58.22001399999999
 20
14.0
 30
0.0
 11
-53.0
 21
14.0
 31
0.0
  0
LINE
  5
472D
330
4721
100
AcDbEntity
  8
AM_7 中心線
100
AcDbLine
 10
-62.52500799999985
 20
23.0
 30
0.0
 11
-52.93178899999976
 21
23.0
 31
0.0
  0
LINE
  5
472E
330
4721
100
AcDbEntity
  8
AM_0 外形線1
100
AcDbLine
 10
-59.36337299999991
 20
15.0
 30
0.0
 11
-58.22001399999999
 21
14.0
 31
0.0
  0
ARC
  5
472F
330
4721
100
AcDbEntity
  8
AM_0 外形線1
100
AcDbCircle
 10
-53.0
 20
13.5
 30
0.0
 40
0.5
100
AcDbArc
 50
0.0
 51
90.0
  0
LINE
  5
4730
330
4721
100
AcDbEntity
  8
AM_0 外形線1
100
AcDbLine
 10
-53.0
 20
35.0
 30
0.0
 11
-57.6856879999998
 21
35.0
 31
0.0
  0
LINE
  5
4731
330
4721
100
AcDbEntity
  8
AM_0 外形線1
100
AcDbLine
 10
-57.6856879999998
 20
35.0
 30
0.0
 11
-58.88132199999972
 21
34.0
 31
0.0
  0
ARC
  5
4732
330
4721
100
AcDbEntity
  8
AM_0 外形線1
100
AcDbCircle
 10
-53.0
 20
35.5
 30
0.0
 40
0.5
100
AcDbArc
 50
270.0
 51
0.0
  0
LINE
  5
4733
330
4721
100
AcDbEntity
  8
AM_0 外形線1
100
AcDbLine
 10
-51.89999999999987
 20
87.0
 30
0.0
 11
-51.89999999999987
 21
62.0
 31
0.0
  0
LINE
  5
4734
330
4721
100
AcDbEntity
  8
AM_0 外形線1
100
AcDbLine
 10
-51.89999999999987
 20
62.0
 30
0.0
 11
-52.5
 21
60.0
 31
0.0
  0
ARC
  5
4735
330
4721
100
AcDbEntity
  8
AM_0 外形線1
100
AcDbCircle
 10
-48.89999999999986
 20
87.0
 30
0.0
 40
3.0
100
AcDbArc
 50
90.0
 51
180.0
  0
LINE
  5
4736
330
4721
100
AcDbEntity
  8
AM_0 外形線1
100
AcDbLine
 10
52.5
 20
51.0
 30
0.0
 11
52.5
 21
60.0
 31
0.0
  0
LINE
  5
4737
330
4721
100
AcDbEntity
  8
AM_0 外形線1
100
AcDbLine
 10
51.9000000000001
 20
62.0
 30
0.0
 11
0.0
 21
62.0
 31
0.0
  0
LINE
  5
4738
330
4721
100
AcDbEntity
  8
AM_0 外形線1
100
AcDbLine
 10
52.5
 20
60.0
 30
0.0
 11
0.0
 21
60.0
 31
0.0
  0
ARC
  5
4739
330
4721
100
AcDbEntity
  8
AM_0 外形線1
100
AcDbCircle
 10
48.9000000000001
 20
87.0
 30
0.0
 40
3.0
100
AcDbArc
 50
0.0
 51
90.0
  0
LINE
  5
473A
330
4721
100
AcDbEntity
  8
AM_0 外形線1
100
AcDbLine
 10
51.9000000000001
 20
62.0
 30
0.0
 11
51.9000000000001
 21
87.0
 31
0.0
  0
LINE
  5
473B
330
4721
100
AcDbEntity
  8
AM_0 外形線1
100
AcDbLine
 10
52.5
 20
60.0
 30
0.0
 11
51.9000000000001
 21
62.0
 31
0.0
  0
LINE
  5
473C
330
4721
100
AcDbEntity
  8
AM_0 外形線1
100
AcDbLine
 10
-28.61817604251246
 20
0.0
 30
0.0
 11
-28.61817604251246
 21
90.00000000000005
 31
0.0
  0
ARC
  5
5931
330
4721
100
AcDbEntity
  8
AM_0 外形線1
100
AcDbCircle
 10
0.0
 20
23.0
 30
0.0
 40
55.80000000000001
100
AcDbArc
 50
167.5813184941858
 51
189.2817990866821
  0
ARC
  5
5932
330
4721
100
AcDbEntity
  8
AM_7 中心線
100
AcDbCircle
 10
0.0
 20
23.0
 30
0.0
 40
58.0
100
AcDbArc
 50
167.0837755055714
 51
190.2633577210026
  0
ENDBLK
  5
4723
330
4721
100
AcDbEntity
  8
0
100
AcDbBlockEnd
  0
BLOCK
  5
47CB
330
47CA
100
AcDbEntity
  8
0
100
AcDbBlockBegin
  2
リーマボルト SMVH180 M8
 70
     0
 10
0.0
 20
0.0
 30
0.0
  3
リーマボルト SMVH180 M8
  1

  0
LINE
  5
47CD
330
47CA
100
AcDbEntity
  8
AM_0 外形線1
100
AcDbLine
 10
-3.752776999999923
 20
0.0
 30
0.0
 11
-3.752776999999923
 21
-4.922649999999974
 31
0.0
  0
LINE
  5
47CE
330
47CA
100
AcDbEntity
  8
AM_0 外形線1
100
AcDbLine
 10
3.752777000000151
 20
0.0
 30
0.0
 11
3.752777000000151
 21
-4.922649999999974
 31
0.0
  0
LINE
  5
47CF
330
47CA
100
AcDbEntity
  8
AM_0 外形線1
100
AcDbLine
 10
-7.5
 20
-4.922649999999974
 30
0.0
 11
-7.5
 21
0.0
 31
0.0
  0
LINE
  5
47D0
330
47CA
100
AcDbEntity
  8
AM_0 外形線1
100
AcDbLine
 10
7.5
 20
0.0
 30
0.0
 11
7.5
 21
-4.922649999999974
 31
0.0
  0
ARC
  5
47D1
330
47CA
100
AcDbEntity
  8
AM_0 外形線1
100
AcDbCircle
 10
5.626388000000132
 20
-2.171211999999968
 30
0.0
 40
3.328787999999998
100
AcDbArc
 50
235.7468130000063
 51
304.2531869999938
  0
LINE
  5
47D2
330
47CA
100
AcDbEntity
  8
AM_0 外形線1
100
AcDbLine
 10
6.5
 20
-5.5
 30
0.0
 11
-6.5
 21
-5.5
 31
0.0
  0
ARC
  5
47D3
330
47CA
100
AcDbEntity
  8
AM_0 外形線1
100
AcDbCircle
 10
-5.626389000000016
 20
-2.171211999999968
 30
0.0
 40
3.328787999999998
100
AcDbArc
 50
235.7468130000063
 51
304.2531869999938
  0
ARC
  5
47D4
330
47CA
100
AcDbEntity
  8
AM_0 外形線1
100
AcDbCircle
 10
0.0
 20
6.985199000000022
 30
0.0
 40
12.4852
100
AcDbArc
 50
252.5076750000007
 51
287.4923249999993
  0
LINE
  5
47D5
330
47CA
100
AcDbEntity
  8
AM_0 外形線1
100
AcDbLine
 10
-6.5
 20
-5.5
 30
0.0
 11
-7.5
 21
-4.922649999999974
 31
0.0
  0
LINE
  5
47D6
330
47CA
100
AcDbEntity
  8
AM_0 外形線1
100
AcDbLine
 10
7.5
 20
-4.922649999999974
 30
0.0
 11
6.5
 21
-5.5
 31
0.0
  0
LINE
  5
47E8
330
47CA
100
AcDbEntity
  8
AM_0 外形線1
100
AcDbLine
 10
0.6666660000000775
 20
30.0
 30
0.0
 11
-1.333333999999922
 21
32.0
 31
0.0
  0
LINE
  5
47E9
330
47CA
100
AcDbEntity
  8
AM_0 外形線1
100
AcDbLine
 10
1.333333000000038
 20
30.0
 30
0.0
 11
-0.6666669999999613
 21
32.0
 31
0.0
  0
LINE
  5
47EA
330
47CA
100
AcDbEntity
  8
AM_0 外形線1
100
AcDbLine
 10
-7.699999999999817
 20
30.0
 30
0.0
 11
-7.699999999999817
 21
32.0
 31
0.0
  0
LINE
  5
47EB
330
47CA
100
AcDbEntity
  8
AM_0 外形線1
100
AcDbLine
 10
7.700000000000272
 20
32.0
 30
0.0
 11
7.700000000000272
 21
30.0
 31
0.0
  0
LINE
  5
47EC
330
47CA
100
AcDbEntity
  8
AM_0 外形線1
100
AcDbLine
 10
4.0
 20
41.0
 30
0.0
 11
-4.0
 21
41.0
 31
0.0
  0
LINE
  5
47ED
330
47CA
100
AcDbEntity
  8
AM_0 外形線1
100
AcDbLine
 10
4.0
 20
41.0
 30
0.0
 11
3.0
 21
42.0
 31
0.0
  0
ARC
  5
47EE
330
47CA
100
AcDbEntity
  8
AM_0 外形線1
100
AcDbCircle
 10
5.626388000000132
 20
35.17121100000004
 30
0.0
 40
3.328787999999998
100
AcDbArc
 50
55.74681300000627
 51
124.2531869999937
  0
LINE
  5
47EF
330
47CA
100
AcDbEntity
  8
AM_0 外形線1
100
AcDbLine
 10
6.5
 20
38.5
 30
0.0
 11
-6.5
 21
38.5
 31
0.0
  0
LINE
  5
47F0
330
47CA
100
AcDbEntity
  8
AM_0 外形線1
100
AcDbLine
 10
-7.699999999999817
 20
32.0
 30
0.0
 11
7.700000000000272
 21
32.0
 31
0.0
  0
LINE
  5
47F1
330
47CA
100
AcDbEntity
  8
AM_4 細線
100
AcDbLine
 10
-3.375
 20
38.5
 30
0.0
 11
-3.375
 21
41.625
 31
0.0
  0
LINE
  5
47F2
330
47CA
100
AcDbEntity
  8
AM_4 細線
100
AcDbLine
 10
3.375
 20
38.5
 30
0.0
 11
3.375
 21
41.625
 31
0.0
  0
LINE
  5
47F3
330
47CA
100
AcDbEntity
  8
AM_0 外形線1
100
AcDbLine
 10
-4.0
 20
41.0
 30
0.0
 11
-4.0
 21
38.5
 31
0.0
  0
LINE
  5
47F4
330
47CA
100
AcDbEntity
  8
AM_0 外形線1
100
AcDbLine
 10
-3.0
 20
42.0
 30
0.0
 11
-4.0
 21
41.0
 31
0.0
  0
LINE
  5
47F5
330
47CA
100
AcDbEntity
  8
AM_0 外形線1
100
AcDbLine
 10
3.0
 20
42.0
 30
0.0
 11
-3.0
 21
42.0
 31
0.0
  0
LINE
  5
47F6
330
47CA
100
AcDbEntity
  8
AM_0 外形線1
100
AcDbLine
 10
-3.752776999999923
 20
32.0
 30
0.0
 11
-3.752776999999923
 21
37.92265000000003
 31
0.0
  0
LINE
  5
47F7
330
47CA
100
AcDbEntity
  8
AM_0 外形線1
100
AcDbLine
 10
3.752777000000151
 20
32.0
 30
0.0
 11
3.752777000000151
 21
37.92265000000003
 31
0.0
  0
ARC
  5
47F8
330
47CA
100
AcDbEntity
  8
AM_0 外形線1
100
AcDbCircle
 10
-5.626389000000016
 20
35.17121100000004
 30
0.0
 40
3.328787999999998
100
AcDbArc
 50
55.74681300000627
 51
124.2531869999937
  0
ARC
  5
47F9
330
47CA
100
AcDbEntity
  8
AM_0 外形線1
100
AcDbCircle
 10
0.0
 20
26.01480000000004
 30
0.0
 40
12.4852
100
AcDbArc
 50
72.50767500000067
 51
107.4923249999993
  0
LINE
  5
47FA
330
47CA
100
AcDbEntity
  8
AM_0 外形線1
100
AcDbLine
 10
-7.5
 20
37.92265000000003
 30
0.0
 11
-7.5
 21
32.0
 31
0.0
  0
LINE
  5
47FB
330
47CA
100
AcDbEntity
  8
AM_0 外形線1
100
AcDbLine
 10
-6.5
 20
38.5
 30
0.0
 11
-7.5
 21
37.92265000000003
 31
0.0
  0
LINE
  5
47FC
330
47CA
100
AcDbEntity
  8
AM_0 外形線1
100
AcDbLine
 10
4.0
 20
38.5
 30
0.0
 11
4.0
 21
41.0
 31
0.0
  0
LINE
  5
47FD
330
47CA
100
AcDbEntity
  8
AM_0 外形線1
100
AcDbLine
 10
7.5
 20
37.92265000000003
 30
0.0
 11
6.5
 21
38.5
 31
0.0
  0
LINE
  5
47FE
330
47CA
100
AcDbEntity
  8
AM_0 外形線1
100
AcDbLine
 10
7.5
 20
32.0
 30
0.0
 11
7.5
 21
37.92265000000003
 31
0.0
  0
LINE
  5
4809
330
47CA
100
AcDbEntity
  8
AM_0 外形線1
100
AcDbLine
 10
7.700000000000272
 20
30.0
 30
0.0
 11
-7.699999999999817
 21
30.0
 31
0.0
  0
LINE
  5
480A
330
47CA
100
AcDbEntity
  8
AM_0 外形線1
100
AcDbLine
 10
-7.5
 20
0.0
 30
0.0
 11
7.5
 21
0.0
 31
0.0
  0
ENDBLK
  5
47CC
330
47CA
100
AcDbEntity
  8
0
100
AcDbBlockEnd
  0
BLOCK
  5
489F
330
489E
100
AcDbEntity
  8
0
100
AcDbBlockBegin
  2
スラストプレ－ト SMVH180
 70
     0
 10
0.0
 20
0.0
 30
0.0
  3
スラストプレ－ト SMVH180
  1

  0
LINE
  5
48A1
330
489E
100
AcDbEntity
  8
AM_0 外形線1
100
AcDbLine
 10
-57.5
 20
9.0
 30
0.0
 11
-65.0
 21
9.0
 31
0.0
  0
LINE
  5
48A2
330
489E
100
AcDbEntity
  8
AM_0 外形線1
100
AcDbLine
 10
-65.0
 20
5.0
 30
0.0
 11
-65.0
 21
9.0
 31
0.0
  0
LINE
  5
48A3
330
489E
100
AcDbEntity
  8
AM_0 外形線1
100
AcDbLine
 10
-65.0
 20
5.0
 30
0.0
 11
-60.0
 21
5.0
 31
0.0
  0
LINE
  5
48A4
330
489E
100
AcDbEntity
  8
AM_0 外形線1
100
AcDbLine
 10
-60.0
 20
1.0
 30
0.0
 11
-60.0
 21
5.0
 31
0.0
  0
LINE
  5
48A5
330
489E
100
AcDbEntity
  8
AM_0 外形線1
100
AcDbLine
 10
-47.5
 20
1.0
 30
0.0
 11
-60.0
 21
1.0
 31
0.0
  0
LINE
  5
48A6
330
489E
100
AcDbEntity
  8
AM_0 外形線1
100
AcDbLine
 10
-37.5
 20
0.0
 30
0.0
 11
-46.5
 21
0.0
 31
0.0
  0
LINE
  5
48A7
330
489E
100
AcDbEntity
  8
AM_0 外形線1
100
AcDbLine
 10
-57.5
 20
9.0
 30
0.0
 11
-57.5
 21
7.0
 31
0.0
  0
LINE
  5
48A8
330
489E
100
AcDbEntity
  8
AM_0 外形線1
100
AcDbLine
 10
0.0
 20
7.0
 30
0.0
 11
-57.5
 21
7.0
 31
0.0
  0
LINE
  5
48A9
330
489E
100
AcDbEntity
  8
AM_0 外形線1
100
AcDbLine
 10
-37.5
 20
-0.0000000000000568
 30
0.0
 11
-37.5
 21
0.9999999999999431
 31
0.0
  0
LINE
  5
48AA
330
489E
100
AcDbEntity
  8
AM_0 外形線1
100
AcDbLine
 10
0.0
 20
1.0
 30
0.0
 11
-37.5
 21
0.9999999999999431
 31
0.0
  0
ARC
  5
48AB
330
489E
100
AcDbEntity
  8
AM_0 外形線1
100
AcDbCircle
 10
-46.5
 20
1.000000000000055
 30
0.0
 40
1.0
100
AcDbArc
 50
180.0
 51
270.0
  0
ENDBLK
  5
48A0
330
489E
100
AcDbEntity
  8
0
100
AcDbBlockEnd
  0
BLOCK
  5
490C
330
490B
100
AcDbEntity
  8
0
100
AcDbBlockBegin
  2
*D14
 70
     1
 10
0.0
 20
0.0
 30
0.0
  3
*D14
  1

  0
LINE
  5
4FC2
330
490B
100
AcDbEntity
  8
AM_5 寸法線
 62
     3
100
AcDbLine
 10
382.0433647999998
 20
306.0413732160782
 30
0.0
 11
382.0433647999998
 21
226.0413732160782
 31
0.0
  0
LINE
  5
4FC3
330
490B
100
AcDbEntity
  8
AM_5 寸法線
 62
     3
100
AcDbLine
 10
487.0433647999998
 20
306.0413732160782
 30
0.0
 11
487.0433647999998
 21
226.0413732160782
 31
0.0
  0
LINE
  5
4FC4
330
490B
100
AcDbEntity
  8
AM_5 寸法線
 62
     3
100
AcDbLine
 10
387.0433647999998
 20
227.2913732160782
 30
0.0
 11
482.0433647999998
 21
227.2913732160782
 31
0.0
  0
INSERT
  5
4FC5
330
490B
100
AcDbEntity
  8
AM_5 寸法線
 62
     3
100
AcDbBlockReference
  2
_Open30
 10
382.0433647999998
 20
227.2913732160782
 30
0.0
 41
5.0
 42
5.0
 43
5.0
 50
180.0
  0
INSERT
  5
4FC6
330
490B
100
AcDbEntity
  8
AM_5 寸法線
 62
     3
100
AcDbBlockReference
  2
_Open30
 10
487.0433647999998
 20
227.2913732160782
 30
0.0
 41
5.0
 42
5.0
 43
5.0
  0
MTEXT
  5
4FC7
330
490B
100
AcDbEntity
  8
AM_5 寸法線
 62
     3
100
AcDbMText
 10
434.5433647999998
 20
233.7913732160782
 30
0.0
 40
7.0
 41
0.0
 46
0.0
 71
     5
 72
     1
  1
%%c105
  7
SEISA
 73
     1
 44
1.0
  0
POINT
  5
4FC8
330
490B
100
AcDbEntity
  8
Defpoints
 62
     0
100
AcDbPoint
 10
382.0433647999998
 20
307.2913732160782
 30
0.0
  0
POINT
  5
4FC9
330
490B
100
AcDbEntity
  8
Defpoints
 62
     0
100
AcDbPoint
 10
487.0433647999998
 20
307.2913732160782
 30
0.0
  0
POINT
  5
4FCA
330
490B
100
AcDbEntity
  8
Defpoints
 62
     0
100
AcDbPoint
 10
487.0433647999998
 20
227.2913732160782
 30
0.0
  0
ENDBLK
  5
490D
330
490B
100
AcDbEntity
  8
0
100
AcDbBlockEnd
  0
BLOCK
  5
493A
330
4939
100
AcDbEntity
  8
0
100
AcDbBlockBegin
  2
*D15
 70
     1
 10
0.0
 20
0.0
 30
0.0
  3
*D15
  1

  0
LINE
  5
530D
330
4939
100
AcDbEntity
  8
AM_5 寸法線
 62
     3
100
AcDbLine
 10
525.2933647999998
 20
372.2913732160782
 30
0.0
 11
555.7933648000003
 21
372.2913732160782
 31
0.0
  0
LINE
  5
530E
330
4939
100
AcDbEntity
  8
AM_5 寸法線
 62
     3
100
AcDbLine
 10
525.2933647999998
 20
357.2913732160782
 30
0.0
 11
555.7933648000003
 21
357.2913732160782
 31
0.0
  0
LINE
  5
530F
330
4939
100
AcDbEntity
  8
AM_5 寸法線
 62
     3
100
AcDbLine
 10
554.5433648000003
 20
377.2913732160782
 30
0.0
 11
554.5433648000003
 21
382.2913732160781
 31
0.0
  0
LINE
  5
5310
330
4939
100
AcDbEntity
  8
AM_5 寸法線
 62
     3
100
AcDbLine
 10
554.5433648000003
 20
352.2913732160782
 30
0.0
 11
554.5433648000003
 21
331.9913732160781
 31
0.0
  0
LINE
  5
5311
330
4939
100
AcDbEntity
  8
AM_5 寸法線
 62
     3
100
AcDbLine
 10
554.5433648000003
 20
372.2913732160782
 30
0.0
 11
554.5433648000003
 21
357.2913732160782
 31
0.0
  0
INSERT
  5
5312
330
4939
100
AcDbEntity
  8
AM_5 寸法線
 62
     3
100
AcDbBlockReference
  2
GENDOT
 10
554.5433648000003
 20
372.2913732160782
 30
0.0
 41
5.0
 42
5.0
 43
5.0
 50
270.0
  0
INSERT
  5
5313
330
4939
100
AcDbEntity
  8
AM_5 寸法線
 62
     3
100
AcDbBlockReference
  2
_Open30
 10
554.5433648000003
 20
357.2913732160782
 30
0.0
 41
5.0
 42
5.0
 43
5.0
 50
90.0
  0
MTEXT
  5
5314
330
4939
100
AcDbEntity
  8
AM_5 寸法線
 62
     3
100
AcDbMText
 10
548.0433648000001
 20
339.6413732160783
 30
0.0
 40
7.0
 41
0.0
 46
0.0
 71
     5
 72
     1
  1
15
  7
SEISA
 11
0.0000000000000001
 21
1.0
 31
0.0
 73
     1
 44
1.0
  0
POINT
  5
5315
330
4939
100
AcDbEntity
  8
Defpoints
 62
     0
100
AcDbPoint
 10
524.0433647999998
 20
372.2913732160782
 30
0.0
  0
POINT
  5
5316
330
4939
100
AcDbEntity
  8
Defpoints
 62
     0
100
AcDbPoint
 10
524.0433647999998
 20
357.2913732160782
 30
0.0
  0
POINT
  5
5317
330
4939
100
AcDbEntity
  8
Defpoints
 62
     0
100
AcDbPoint
 10
554.5433648000003
 20
357.2913732160782
 30
0.0
  0
ENDBLK
  5
493B
330
4939
100
AcDbEntity
  8
0
100
AcDbBlockEnd
  0
BLOCK
  5
4956
330
4955
100
AcDbEntity
  8
0
100
AcDbBlockBegin
  2
*D16
 70
     1
 10
0.0
 20
0.0
 30
0.0
  3
*D16
  1

  0
LINE
  5
52F7
330
4955
100
AcDbEntity
  8
AM_5 寸法線
 62
     3
100
AcDbLine
 10
525.2933647999998
 20
387.2913732160782
 30
0.0
 11
555.7933648000001
 21
387.2913732160782
 31
0.0
  0
LINE
  5
52F8
330
4955
100
AcDbEntity
  8
AM_5 寸法線
 62
     3
100
AcDbLine
 10
525.2933647999998
 20
372.2913732160782
 30
0.0
 11
555.7933648000001
 21
372.2913732160782
 31
0.0
  0
LINE
  5
52F9
330
4955
100
AcDbEntity
  8
AM_5 寸法線
 62
     3
100
AcDbLine
 10
554.5433648000002
 20
367.2913732160782
 30
0.0
 11
554.5433648000002
 21
362.2913732160782
 31
0.0
  0
LINE
  5
52FA
330
4955
100
AcDbEntity
  8
AM_5 寸法線
 62
     3
100
AcDbLine
 10
554.5433648000002
 20
392.2913732160782
 30
0.0
 11
554.5433648000002
 21
412.5913732160781
 31
0.0
  0
LINE
  5
52FB
330
4955
100
AcDbEntity
  8
AM_5 寸法線
 62
     3
100
AcDbLine
 10
554.5433648000002
 20
372.2913732160782
 30
0.0
 11
554.5433648000002
 21
387.2913732160782
 31
0.0
  0
INSERT
  5
52FC
330
4955
100
AcDbEntity
  8
AM_5 寸法線
 62
     3
100
AcDbBlockReference
  2
GENDOT
 10
554.5433648000002
 20
372.2913732160782
 30
0.0
 41
5.0
 42
5.0
 43
5.0
 50
90.0
  0
INSERT
  5
52FD
330
4955
100
AcDbEntity
  8
AM_5 寸法線
 62
     3
100
AcDbBlockReference
  2
_Open30
 10
554.5433648000002
 20
387.2913732160782
 30
0.0
 41
5.0
 42
5.0
 43
5.0
 50
270.0
  0
MTEXT
  5
52FE
330
4955
100
AcDbEntity
  8
AM_5 寸法線
 62
     3
100
AcDbMText
 10
548.0433647999999
 20
404.9413732160783
 30
0.0
 40
7.0
 41
0.0
 46
0.0
 71
     5
 72
     1
  1
15
  7
SEISA
 11
0.0000000000000001
 21
1.0
 31
0.0
 73
     1
 44
1.0
  0
POINT
  5
52FF
330
4955
100
AcDbEntity
  8
Defpoints
 62
     0
100
AcDbPoint
 10
524.0433647999998
 20
387.2913732160782
 30
0.0
  0
POINT
  5
5300
330
4955
100
AcDbEntity
  8
Defpoints
 62
     0
100
AcDbPoint
 10
524.0433647999998
 20
372.2913732160782
 30
0.0
  0
POINT
  5
5301
330
4955
100
AcDbEntity
  8
Defpoints
 62
     0
100
AcDbPoint
 10
554.5433648000002
 20
372.2913732160782
 30
0.0
  0
ENDBLK
  5
4957
330
4955
100
AcDbEntity
  8
0
100
AcDbBlockEnd
  0
BLOCK
  5
49E2
330
49E1
100
AcDbEntity
  8
0
100
AcDbBlockBegin
  2
*D17
 70
     1
 10
0.0
 20
0.0
 30
0.0
  3
*D17
  1

  0
LINE
  5
5811
330
49E1
100
AcDbEntity
  8
AM_5 寸法線
 62
     3
100
AcDbLine
 10
499.7933647999998
 20
428.2913732160781
 30
0.0
 11
575.7933647999997
 21
428.2913732160781
 31
0.0
  0
LINE
  5
5812
330
49E1
100
AcDbEntity
  8
AM_5 寸法線
 62
     3
100
AcDbLine
 10
499.7933647999998
 20
316.2913732160782
 30
0.0
 11
575.7933647999997
 21
316.2913732160782
 31
0.0
  0
LINE
  5
5813
330
49E1
100
AcDbEntity
  8
AM_5 寸法線
 62
     3
100
AcDbLine
 10
574.5433647999997
 20
423.2913732160781
 30
0.0
 11
574.5433647999997
 21
321.2913732160782
 31
0.0
  0
INSERT
  5
5814
330
49E1
100
AcDbEntity
  8
AM_5 寸法線
 62
     3
100
AcDbBlockReference
  2
_Open30
 10
574.5433647999997
 20
428.2913732160781
 30
0.0
 41
5.0
 42
5.0
 43
5.0
 50
90.0
  0
INSERT
  5
5815
330
49E1
100
AcDbEntity
  8
AM_5 寸法線
 62
     3
100
AcDbBlockReference
  2
_Open30
 10
574.5433647999997
 20
316.2913732160782
 30
0.0
 41
5.0
 42
5.0
 43
5.0
 50
270.0
  0
MTEXT
  5
5816
330
49E1
100
AcDbEntity
  8
AM_5 寸法線
 62
     3
100
AcDbMText
 10
568.0433647999997
 20
372.2913732160784
 30
0.0
 40
7.0
 41
0.0
 46
0.0
 71
     5
 72
     1
  1
112
  7
SEISA
 11
0.0000000000000001
 21
1.0
 31
0.0
 73
     1
 44
1.0
  0
POINT
  5
5817
330
49E1
100
AcDbEntity
  8
Defpoints
 62
     0
100
AcDbPoint
 10
498.5433647999998
 20
428.2913732160781
 30
0.0
  0
POINT
  5
5818
330
49E1
100
AcDbEntity
  8
Defpoints
 62
     0
100
AcDbPoint
 10
498.5433647999998
 20
316.2913732160782
 30
0.0
  0
POINT
  5
5819
330
49E1
100
AcDbEntity
  8
Defpoints
 62
     0
100
AcDbPoint
 10
574.5433647999997
 20
316.2913732160782
 30
0.0
  0
ENDBLK
  5
49E3
330
49E1
100
AcDbEntity
  8
0
100
AcDbBlockEnd
  0
BLOCK
  5
49FA
330
49F9
100
AcDbEntity
  8
0
100
AcDbBlockBegin
  2
*D18
 70
     1
 10
0.0
 20
0.0
 30
0.0
  3
*D18
  1

  0
LINE
  5
4EFC
330
49F9
100
AcDbEntity
  8
AM_5 寸法線
 62
     3
100
AcDbLine
 10
484.6933647999998
 20
277.2913732160782
 30
0.0
 11
595.7933647999997
 21
277.2913732160782
 31
0.0
  0
LINE
  5
4EFD
330
49F9
100
AcDbEntity
  8
AM_5 寸法線
 62
     3
100
AcDbLine
 10
484.6933647999998
 20
467.2913732160782
 30
0.0
 11
595.7933647999997
 21
467.2913732160782
 31
0.0
  0
LINE
  5
4EFE
330
49F9
100
AcDbEntity
  8
AM_5 寸法線
 62
     3
100
AcDbLine
 10
594.5433647999997
 20
282.2913732160781
 30
0.0
 11
594.5433647999997
 21
462.2913732160781
 31
0.0
  0
INSERT
  5
4EFF
330
49F9
100
AcDbEntity
  8
AM_5 寸法線
 62
     3
100
AcDbBlockReference
  2
_Open30
 10
594.5433647999997
 20
277.2913732160782
 30
0.0
 41
5.0
 42
5.0
 43
5.0
 50
270.0
  0
INSERT
  5
4F00
330
49F9
100
AcDbEntity
  8
AM_5 寸法線
 62
     3
100
AcDbBlockReference
  2
_Open30
 10
594.5433647999997
 20
467.2913732160782
 30
0.0
 41
5.0
 42
5.0
 43
5.0
 50
90.0
  0
MTEXT
  5
4F01
330
49F9
100
AcDbEntity
  8
AM_5 寸法線
 62
     3
100
AcDbMText
 10
588.0433647999997
 20
372.2913732160784
 30
0.0
 40
7.0
 41
0.0
 46
0.0
 71
     5
 72
     1
  1
190
  7
SEISA
 11
0.0000000000000001
 21
1.0
 31
0.0
 73
     1
 44
1.0
  0
POINT
  5
4F02
330
49F9
100
AcDbEntity
  8
Defpoints
 62
     0
100
AcDbPoint
 10
483.4433647999999
 20
277.2913732160782
 30
0.0
  0
POINT
  5
4F03
330
49F9
100
AcDbEntity
  8
Defpoints
 62
     0
100
AcDbPoint
 10
483.4433647999999
 20
467.2913732160782
 30
0.0
  0
POINT
  5
4F04
330
49F9
100
AcDbEntity
  8
Defpoints
 62
     0
100
AcDbPoint
 10
594.5433647999997
 20
467.2913732160782
 30
0.0
  0
ENDBLK
  5
49FB
330
49F9
100
AcDbEntity
  8
0
100
AcDbBlockEnd
  0
BLOCK
  5
4BF4
330
4BF3
100
AcDbEntity
  8
0
100
AcDbBlockBegin
  2
*D19
 70
     1
 10
0.0
 20
0.0
 30
0.0
  3
*D19
  1

  0
LINE
  5
4F43
330
4BF3
100
AcDbEntity
  8
AM_5 寸法線
 62
     3
100
AcDbLine
 10
344.5433647999998
 20
388.0413732160782
 30
0.0
 11
344.5433647999998
 21
558.5413732160782
 31
0.0
  0
LINE
  5
4F44
330
4BF3
100
AcDbEntity
  8
AM_5 寸法線
 62
     3
100
AcDbLine
 10
524.5433647999998
 20
388.0413732160782
 30
0.0
 11
524.5433647999998
 21
558.5413732160782
 31
0.0
  0
LINE
  5
4F45
330
4BF3
100
AcDbEntity
  8
AM_5 寸法線
 62
     3
100
AcDbLine
 10
349.5433647999998
 20
557.2913732160782
 30
0.0
 11
519.5433647999998
 21
557.2913732160782
 31
0.0
  0
INSERT
  5
4F46
330
4BF3
100
AcDbEntity
  8
AM_5 寸法線
 62
     3
100
AcDbBlockReference
  2
_Open30
 10
344.5433647999998
 20
557.2913732160782
 30
0.0
 41
5.0
 42
5.0
 43
5.0
 50
180.0
  0
INSERT
  5
4F47
330
4BF3
100
AcDbEntity
  8
AM_5 寸法線
 62
     3
100
AcDbBlockReference
  2
_Open30
 10
524.5433647999998
 20
557.2913732160782
 30
0.0
 41
5.0
 42
5.0
 43
5.0
  0
MTEXT
  5
4F48
330
4BF3
100
AcDbEntity
  8
AM_5 寸法線
 62
     3
100
AcDbMText
 10
434.5433647999998
 20
563.7913732160781
 30
0.0
 40
7.0
 41
0.0
 46
0.0
 71
     5
 72
     1
  1
%%c180
  7
SEISA
 73
     1
 44
1.0
  0
POINT
  5
4F49
330
4BF3
100
AcDbEntity
  8
Defpoints
 62
     0
100
AcDbPoint
 10
344.5433647999998
 20
386.7913732160782
 30
0.0
  0
POINT
  5
4F4A
330
4BF3
100
AcDbEntity
  8
Defpoints
 62
     0
100
AcDbPoint
 10
524.5433647999998
 20
386.7913732160782
 30
0.0
  0
POINT
  5
4F4B
330
4BF3
100
AcDbEntity
  8
Defpoints
 62
     0
100
AcDbPoint
 10
524.5433647999998
 20
557.2913732160782
 30
0.0
  0
ENDBLK
  5
4BF5
330
4BF3
100
AcDbEntity
  8
0
100
AcDbBlockEnd
  0
BLOCK
  5
4C0C
330
4C0B
100
AcDbEntity
  8
0
100
AcDbBlockBegin
  2
*D20
 70
     1
 10
0.0
 20
0.0
 30
0.0
  3
*D20
  1

  0
LINE
  5
4F4C
330
4C0B
100
AcDbEntity
  8
AM_5 寸法線
 62
     3
100
AcDbLine
 10
367.5433647999998
 20
426.5413732160781
 30
0.0
 11
367.5433647999998
 21
538.5413732160782
 31
0.0
  0
LINE
  5
4F4D
330
4C0B
100
AcDbEntity
  8
AM_5 寸法線
 62
     3
100
AcDbLine
 10
501.5433647999998
 20
426.5413732160781
 30
0.0
 11
501.5433647999998
 21
538.5413732160782
 31
0.0
  0
LINE
  5
4F4E
330
4C0B
100
AcDbEntity
  8
AM_5 寸法線
 62
     3
100
AcDbLine
 10
372.5433647999998
 20
537.2913732160782
 30
0.0
 11
496.5433647999998
 21
537.2913732160782
 31
0.0
  0
INSERT
  5
4F4F
330
4C0B
100
AcDbEntity
  8
AM_5 寸法線
 62
     3
100
AcDbBlockReference
  2
_Open30
 10
367.5433647999998
 20
537.2913732160782
 30
0.0
 41
5.0
 42
5.0
 43
5.0
 50
180.0
  0
INSERT
  5
4F50
330
4C0B
100
AcDbEntity
  8
AM_5 寸法線
 62
     3
100
AcDbBlockReference
  2
_Open30
 10
501.5433647999998
 20
537.2913732160782
 30
0.0
 41
5.0
 42
5.0
 43
5.0
  0
MTEXT
  5
4F51
330
4C0B
100
AcDbEntity
  8
AM_5 寸法線
 62
     3
100
AcDbMText
 10
434.5433647999998
 20
543.7913732160782
 30
0.0
 40
7.0
 41
0.0
 46
0.0
 71
     5
 72
     1
  1
%%c134
  7
SEISA
 73
     1
 44
1.0
  0
POINT
  5
4F52
330
4C0B
100
AcDbEntity
  8
Defpoints
 62
     0
100
AcDbPoint
 10
367.5433647999998
 20
425.2913732160782
 30
0.0
  0
POINT
  5
4F53
330
4C0B
100
AcDbEntity
  8
Defpoints
 62
     0
100
AcDbPoint
 10
501.5433647999998
 20
425.2913732160782
 30
0.0
  0
POINT
  5
4F54
330
4C0B
100
AcDbEntity
  8
Defpoints
 62
     0
100
AcDbPoint
 10
501.5433647999998
 20
537.2913732160782
 30
0.0
  0
ENDBLK
  5
4C0D
330
4C0B
100
AcDbEntity
  8
0
100
AcDbBlockEnd
  0
BLOCK
  5
4C24
330
4C23
100
AcDbEntity
  8
0
100
AcDbBlockBegin
  2
*D21
 70
     1
 10
0.0
 20
0.0
 30
0.0
  3
*D21
  1

  0
LINE
  5
4F55
330
4C23
100
AcDbEntity
  8
AM_5 寸法線
 62
     3
100
AcDbLine
 10
382.0433647999998
 20
438.5413732160781
 30
0.0
 11
382.0433647999998
 21
518.5413732160782
 31
0.0
  0
LINE
  5
4F56
330
4C23
100
AcDbEntity
  8
AM_5 寸法線
 62
     3
100
AcDbLine
 10
487.0433647999998
 20
438.5413732160781
 30
0.0
 11
487.0433647999998
 21
518.5413732160782
 31
0.0
  0
LINE
  5
4F57
330
4C23
100
AcDbEntity
  8
AM_5 寸法線
 62
     3
100
AcDbLine
 10
387.0433647999998
 20
517.2913732160782
 30
0.0
 11
482.0433647999998
 21
517.2913732160782
 31
0.0
  0
INSERT
  5
4F58
330
4C23
100
AcDbEntity
  8
AM_5 寸法線
 62
     3
100
AcDbBlockReference
  2
_Open30
 10
382.0433647999998
 20
517.2913732160782
 30
0.0
 41
5.0
 42
5.0
 43
5.0
 50
180.0
  0
INSERT
  5
4F59
330
4C23
100
AcDbEntity
  8
AM_5 寸法線
 62
     3
100
AcDbBlockReference
  2
_Open30
 10
487.0433647999998
 20
517.2913732160782
 30
0.0
 41
5.0
 42
5.0
 43
5.0
  0
MTEXT
  5
4F5A
330
4C23
100
AcDbEntity
  8
AM_5 寸法線
 62
     3
100
AcDbMText
 10
434.5433647999998
 20
523.7913732160782
 30
0.0
 40
7.0
 41
0.0
 46
0.0
 71
     5
 72
     1
  1
%%c105
  7
SEISA
 73
     1
 44
1.0
  0
POINT
  5
4F5B
330
4C23
100
AcDbEntity
  8
Defpoints
 62
     0
100
AcDbPoint
 10
382.0433647999998
 20
437.2913732160781
 30
0.0
  0
POINT
  5
4F5C
330
4C23
100
AcDbEntity
  8
Defpoints
 62
     0
100
AcDbPoint
 10
487.0433647999998
 20
437.2913732160781
 30
0.0
  0
POINT
  5
4F5D
330
4C23
100
AcDbEntity
  8
Defpoints
 62
     0
100
AcDbPoint
 10
487.0433647999998
 20
517.2913732160782
 30
0.0
  0
ENDBLK
  5
4C25
330
4C23
100
AcDbEntity
  8
0
100
AcDbBlockEnd
  0
BLOCK
  5
4C57
330
4C56
100
AcDbEntity
  8
0
100
AcDbBlockBegin
  2
*D22
 70
     1
 10
0.0
 20
0.0
 30
0.0
  3
*D22
  1

  0
LINE
  5
4F5E
330
4C56
100
AcDbEntity
  8
AM_5 寸法線
 62
     3
100
AcDbLine
 10
423.7565571033128
 20
277.2913732160782
 30
0.0
 11
420.7081846469917
 21
277.2913732160782
 31
0.0
  0
LINE
  5
4F5F
330
4C56
100
AcDbEntity
  8
AM_5 寸法線
 62
     3
100
AcDbLine
 10
423.7565571033128
 20
367.2913732160782
 30
0.0
 11
420.7081846469917
 21
367.2913732160782
 31
0.0
  0
LINE
  5
4F60
330
4C56
100
AcDbEntity
  8
AM_5 寸法線
 62
     3
100
AcDbLine
 10
421.9581846469917
 20
282.2913732160781
 30
0.0
 11
421.9581846469917
 21
362.2913732160782
 31
0.0
  0
INSERT
  5
4F61
330
4C56
100
AcDbEntity
  8
AM_5 寸法線
 62
     3
100
AcDbBlockReference
  2
_Open30
 10
421.9581846469917
 20
277.2913732160782
 30
0.0
 41
5.0
 42
5.0
 43
5.0
 50
270.0
  0
INSERT
  5
4F62
330
4C56
100
AcDbEntity
  8
AM_5 寸法線
 62
     3
100
AcDbBlockReference
  2
_Open30
 10
421.9581846469917
 20
367.2913732160782
 30
0.0
 41
5.0
 42
5.0
 43
5.0
 50
90.0
  0
MTEXT
  5
4F63
330
4C56
100
AcDbEntity
  8
AM_5 寸法線
 62
     3
100
AcDbMText
 10
415.4581846469918
 20
322.2913732160784
 30
0.0
 40
7.0
 41
0.0
 46
0.0
 71
     5
 72
     1
  1
90
  7
SEISA
 11
0.0000000000000001
 21
1.0
 31
0.0
 73
     1
 44
1.0
  0
POINT
  5
4F64
330
4C56
100
AcDbEntity
  8
Defpoints
 62
     0
100
AcDbPoint
 10
425.0065571033128
 20
277.2913732160782
 30
0.0
  0
POINT
  5
4F65
330
4C56
100
AcDbEntity
  8
Defpoints
 62
     0
100
AcDbPoint
 10
425.0065571033128
 20
367.2913732160782
 30
0.0
  0
POINT
  5
4F66
330
4C56
100
AcDbEntity
  8
Defpoints
 62
     0
100
AcDbPoint
 10
421.9581846469917
 20
367.2913732160782
 30
0.0
  0
ENDBLK
  5
4C58
330
4C56
100
AcDbEntity
  8
0
100
AcDbBlockEnd
  0
BLOCK
  5
4C6F
330
4C6E
100
AcDbEntity
  8
0
100
AcDbBlockBegin
  2
*D23
 70
     1
 10
0.0
 20
0.0
 30
0.0
  3
*D23
  1

  0
LINE
  5
5B67
330
4C6E
100
AcDbEntity
  8
AM_5 寸法線
 62
     3
100
AcDbLine
 10
419.3325705928904
 20
367.2913732160782
 30
0.0
 11
423.2081846469918
 21
367.2913732160782
 31
0.0
  0
LINE
  5
5B68
330
4C6E
100
AcDbEntity
  8
AM_5 寸法線
 62
     3
100
AcDbLine
 10
412.6600014558189
 20
377.2913732160782
 30
0.0
 11
423.2081846469918
 21
377.2913732160782
 31
0.0
  0
LINE
  5
5B69
330
4C6E
100
AcDbEntity
  8
AM_5 寸法線
 62
     3
100
AcDbLine
 10
421.9581846469916
 20
362.2913732160782
 30
0.0
 11
421.9581846469916
 21
357.2913732160782
 31
0.0
  0
LINE
  5
5B6A
330
4C6E
100
AcDbEntity
  8
AM_5 寸法線
 62
     3
100
AcDbLine
 10
421.9581846469916
 20
382.2913732160781
 30
0.0
 11
421.9581846469917
 21
387.2913732160782
 31
0.0
  0
MTEXT
  5
5B6B
330
4C6E
100
AcDbEntity
  8
AM_5 寸法線
 62
     3
100
AcDbMText
 10
416.0569702958772
 20
388.6327941259835
 30
0.0
 40
7.0
 41
0.0
 46
0.0
 71
     5
 72
     1
  1
10
  7
SEISA
 11
0.0000000000000001
 21
1.0
 31
0.0
 73
     1
 44
1.0
  0
LINE
  5
5B6C
330
4C6E
100
AcDbEntity
  8
AM_5 寸法線
 62
     3
100
AcDbLine
 10
421.9581846469916
 20
367.2913732160782
 30
0.0
 11
421.9581846469916
 21
377.2913732160782
 31
0.0
  0
INSERT
  5
5B6D
330
4C6E
100
AcDbEntity
  8
AM_5 寸法線
 62
     3
100
AcDbBlockReference
  2
_Open30
 10
421.9581846469916
 20
367.2913732160782
 30
0.0
 41
5.0
 42
5.0
 43
5.0
 50
90.0
  0
INSERT
  5
5B6E
330
4C6E
100
AcDbEntity
  8
AM_5 寸法線
 62
     3
100
AcDbBlockReference
  2
_Open30
 10
421.9581846469916
 20
377.2913732160782
 30
0.0
 41
5.0
 42
5.0
 43
5.0
 50
270.0
  0
POINT
  5
5B6F
330
4C6E
100
AcDbEntity
  8
Defpoints
 62
     0
100
AcDbPoint
 10
418.0825705928905
 20
367.2913732160782
 30
0.0
  0
POINT
  5
5B70
330
4C6E
100
AcDbEntity
  8
Defpoints
 62
     0
100
AcDbPoint
 10
411.4100014558188
 20
377.2913732160782
 30
0.0
  0
POINT
  5
5B71
330
4C6E
100
AcDbEntity
  8
Defpoints
 62
     0
100
AcDbPoint
 10
421.9581846469916
 20
377.2913732160782
 30
0.0
  0
ENDBLK
  5
4C70
330
4C6E
100
AcDbEntity
  8
0
100
AcDbBlockEnd
  0
BLOCK
  5
4CA4
330
4CA3
100
AcDbEntity
  8
0
100
AcDbBlockBegin
  2
*D24
 70
     1
 10
0.0
 20
0.0
 30
0.0
  3
*D24
  1

  0
LINE
  5
4F75
330
4CA3
100
AcDbEntity
  8
AM_5 寸法線
 62
     3
100
AcDbLine
 10
424.8204589275863
 20
377.2913732160782
 30
0.0
 11
420.7081846469916
 21
377.2913732160782
 31
0.0
  0
LINE
  5
4F76
330
4CA3
100
AcDbEntity
  8
AM_5 寸法線
 62
     3
100
AcDbLine
 10
424.8204589275863
 20
467.2913732160782
 30
0.0
 11
420.7081846469917
 21
467.2913732160782
 31
0.0
  0
LINE
  5
4F77
330
4CA3
100
AcDbEntity
  8
AM_5 寸法線
 62
     3
100
AcDbLine
 10
421.9581846469916
 20
382.2913732160781
 30
0.0
 11
421.9581846469917
 21
462.2913732160781
 31
0.0
  0
INSERT
  5
4F78
330
4CA3
100
AcDbEntity
  8
AM_5 寸法線
 62
     3
100
AcDbBlockReference
  2
_Open30
 10
421.9581846469916
 20
377.2913732160782
 30
0.0
 41
5.0
 42
5.0
 43
5.0
 50
270.0
  0
INSERT
  5
4F79
330
4CA3
100
AcDbEntity
  8
AM_5 寸法線
 62
     3
100
AcDbBlockReference
  2
_Open30
 10
421.9581846469917
 20
467.2913732160782
 30
0.0
 41
5.0
 42
5.0
 43
5.0
 50
90.0
  0
MTEXT
  5
4F7A
330
4CA3
100
AcDbEntity
  8
AM_5 寸法線
 62
     3
100
AcDbMText
 10
415.4581846469916
 20
422.2913732160783
 30
0.0
 40
7.0
 41
0.0
 46
0.0
 71
     5
 72
     1
  1
90
  7
SEISA
 11
0.0000000000000001
 21
1.0
 31
0.0
 73
     1
 44
1.0
  0
POINT
  5
4F7B
330
4CA3
100
AcDbEntity
  8
Defpoints
 62
     0
100
AcDbPoint
 10
426.0704589275865
 20
377.2913732160782
 30
0.0
  0
POINT
  5
4F7C
330
4CA3
100
AcDbEntity
  8
Defpoints
 62
     0
100
AcDbPoint
 10
426.0704589275865
 20
467.2913732160782
 30
0.0
  0
POINT
  5
4F7D
330
4CA3
100
AcDbEntity
  8
Defpoints
 62
     0
100
AcDbPoint
 10
421.9581846469917
 20
467.2913732160782
 30
0.0
  0
ENDBLK
  5
4CA5
330
4CA3
100
AcDbEntity
  8
0
100
AcDbBlockEnd
  0
BLOCK
  5
4CBC
330
4CBB
100
AcDbEntity
  8
0
100
AcDbBlockBegin
  2
*D25
 70
     1
 10
0.0
 20
0.0
 30
0.0
  3
*D25
  1

  0
LINE
  5
4F7E
330
4CBB
100
AcDbEntity
  8
AM_5 寸法線
 62
     3
100
AcDbLine
 10
383.2933647999998
 20
329.2913732160782
 30
0.0
 11
395.2500000000002
 21
329.2913732160782
 31
0.0
  0
LINE
  5
4F7F
330
4CBB
100
AcDbEntity
  8
AM_5 寸法線
 62
     3
100
AcDbLine
 10
382.7933647999998
 20
332.2913732160782
 30
0.0
 11
395.2500000000002
 21
332.2913732160782
 31
0.0
  0
LINE
  5
4F80
330
4CBB
100
AcDbEntity
  8
AM_5 寸法線
 62
     3
100
AcDbLine
 10
394.0000000000002
 20
337.2913732160782
 30
0.0
 11
394.0000000000002
 21
342.2913732160782
 31
0.0
  0
LINE
  5
4F81
330
4CBB
100
AcDbEntity
  8
AM_5 寸法線
 62
     3
100
AcDbLine
 10
394.0000000000002
 20
324.2913732160782
 30
0.0
 11
394.0000000000002
 21
309.0913732160782
 31
0.0
  0
LINE
  5
4F82
330
4CBB
100
AcDbEntity
  8
AM_5 寸法線
 62
     3
100
AcDbLine
 10
394.0000000000002
 20
332.2913732160782
 30
0.0
 11
394.0000000000002
 21
329.2913732160782
 31
0.0
  0
INSERT
  5
4F83
330
4CBB
100
AcDbEntity
  8
AM_5 寸法線
 62
     3
100
AcDbBlockReference
  2
_Open30
 10
394.0000000000002
 20
332.2913732160782
 30
0.0
 41
5.0
 42
5.0
 43
5.0
 50
270.0
  0
INSERT
  5
4F84
330
4CBB
100
AcDbEntity
  8
AM_5 寸法線
 62
     3
100
AcDbBlockReference
  2
_Open30
 10
394.0000000000002
 20
329.2913732160782
 30
0.0
 41
5.0
 42
5.0
 43
5.0
 50
90.0
  0
MTEXT
  5
4F85
330
4CBB
100
AcDbEntity
  8
AM_5 寸法線
 62
     3
100
AcDbMText
 10
387.5
 20
314.1913732160783
 30
0.0
 40
7.0
 41
0.0
 46
0.0
 71
     5
 72
     1
  1
3
  7
SEISA
 11
0.0000000000000001
 21
1.0
 31
0.0
 73
     1
 44
1.0
  0
POINT
  5
4F86
330
4CBB
100
AcDbEntity
  8
Defpoints
 62
     0
100
AcDbPoint
 10
382.0433647999998
 20
329.2913732160782
 30
0.0
  0
POINT
  5
4F87
330
4CBB
100
AcDbEntity
  8
Defpoints
 62
     0
100
AcDbPoint
 10
381.5433647999999
 20
332.2913732160782
 30
0.0
  0
POINT
  5
4F88
330
4CBB
100
AcDbEntity
  8
Defpoints
 62
     0
100
AcDbPoint
 10
394.0000000000002
 20
332.2913732160782
 30
0.0
  0
ENDBLK
  5
4CBD
330
4CBB
100
AcDbEntity
  8
0
100
AcDbBlockEnd
  0
BLOCK
  5
585B
330
585A
100
AcDbEntity
  8
0
100
AcDbBlockBegin
  2
*D26
 70
     1
 10
0.0
 20
0.0
 30
0.0
  3
*D26
  1

  0
LINE
  5
5880
330
585A
100
AcDbEntity
  8
AM_5 寸法線
 62
     3
100
AcDbLine
 10
369.2933647999999
 20
272.2913732160782
 30
0.0
 11
355.9770251462447
 21
272.2913732160782
 31
0.0
  0
LINE
  5
5881
330
585A
100
AcDbEntity
  8
AM_5 寸法線
 62
     3
100
AcDbLine
 10
384.3933648000001
 20
277.2913732160782
 30
0.0
 11
355.9770251462447
 21
277.2913732160783
 31
0.0
  0
LINE
  5
5882
330
585A
100
AcDbEntity
  8
AM_5 寸法線
 62
     3
100
AcDbLine
 10
357.2270251462447
 20
267.2913732160782
 30
0.0
 11
357.2270251462447
 21
262.2913732160782
 31
0.0
  0
LINE
  5
5883
330
585A
100
AcDbEntity
  8
AM_5 寸法線
 62
     3
100
AcDbLine
 10
357.2270251462447
 20
282.2913732160783
 30
0.0
 11
357.2270251462447
 21
297.4913732160782
 31
0.0
  0
LINE
  5
5884
330
585A
100
AcDbEntity
  8
AM_5 寸法線
 62
     3
100
AcDbLine
 10
357.2270251462447
 20
272.2913732160782
 30
0.0
 11
357.2270251462447
 21
277.2913732160783
 31
0.0
  0
INSERT
  5
5885
330
585A
100
AcDbEntity
  8
AM_5 寸法線
 62
     3
100
AcDbBlockReference
  2
_Open30
 10
357.2270251462447
 20
272.2913732160782
 30
0.0
 41
5.0
 42
5.0
 43
5.0
 50
90.0
  0
INSERT
  5
5886
330
585A
100
AcDbEntity
  8
AM_5 寸法線
 62
     3
100
AcDbBlockReference
  2
_Open30
 10
357.2270251462447
 20
277.2913732160783
 30
0.0
 41
5.0
 42
5.0
 43
5.0
 50
270.0
  0
MTEXT
  5
5887
330
585A
100
AcDbEntity
  8
AM_5 寸法線
 62
     3
100
AcDbMText
 10
350.7270251462447
 20
292.3913732160784
 30
0.0
 40
7.0
 41
0.0
 46
0.0
 71
     5
 72
     1
  1
5
  7
SEISA
 11
0.0000000000000001
 21
1.0
 31
0.0
 73
     1
 44
1.0
  0
POINT
  5
5888
330
585A
100
AcDbEntity
  8
Defpoints
 62
     0
100
AcDbPoint
 10
370.5433647999998
 20
272.2913732160782
 30
0.0
  0
POINT
  5
5889
330
585A
100
AcDbEntity
  8
Defpoints
 62
     0
100
AcDbPoint
 10
385.6433648
 20
277.2913732160782
 30
0.0
  0
POINT
  5
588A
330
585A
100
AcDbEntity
  8
Defpoints
 62
     0
100
AcDbPoint
 10
357.2270251462447
 20
277.2913732160783
 30
0.0
  0
ENDBLK
  5
585C
330
585A
100
AcDbEntity
  8
0
100
AcDbBlockEnd
  0
BLOCK
  5
5977
330
5976
100
AcDbEntity
  8
0
100
AcDbBlockBegin
  2
*D27
 70
     1
 10
0.0
 20
0.0
 30
0.0
  3
*D27
  1

  0
LINE
  5
5996
330
5976
100
AcDbEntity
  8
AM_5 寸法線
 62
     3
100
AcDbLine
 10
382.7933647999998
 20
332.2913732160782
 30
0.0
 11
395.2500000000002
 21
332.2913732160782
 31
0.0
  0
LINE
  5
5997
330
5976
100
AcDbEntity
  8
AM_5 寸法線
 62
     3
100
AcDbLine
 10
382.7933647999998
 20
353.2913732160782
 30
0.0
 11
395.2500000000002
 21
353.2913732160782
 31
0.0
  0
LINE
  5
5998
330
5976
100
AcDbEntity
  8
AM_5 寸法線
 62
     3
100
AcDbLine
 10
394.0000000000002
 20
337.2913732160782
 30
0.0
 11
394.0000000000002
 21
348.2913732160782
 31
0.0
  0
INSERT
  5
5999
330
5976
100
AcDbEntity
  8
AM_5 寸法線
 62
     3
100
AcDbBlockReference
  2
_Open30
 10
394.0000000000002
 20
332.2913732160782
 30
0.0
 41
5.0
 42
5.0
 43
5.0
 50
270.0
  0
INSERT
  5
599A
330
5976
100
AcDbEntity
  8
AM_5 寸法線
 62
     3
100
AcDbBlockReference
  2
_Open30
 10
394.0000000000002
 20
353.2913732160782
 30
0.0
 41
5.0
 42
5.0
 43
5.0
 50
90.0
  0
MTEXT
  5
599B
330
5976
100
AcDbEntity
  8
AM_5 寸法線
 62
     3
100
AcDbMText
 10
387.5000000000002
 20
342.7913732160783
 30
0.0
 40
7.0
 41
0.0
 46
0.0
 71
     5
 72
     1
  1
21
  7
SEISA
 11
0.0000000000000001
 21
1.0
 31
0.0
 73
     1
 44
1.0
  0
POINT
  5
599C
330
5976
100
AcDbEntity
  8
Defpoints
 62
     0
100
AcDbPoint
 10
381.5433647999999
 20
332.2913732160782
 30
0.0
  0
POINT
  5
599D
102
{ACAD_REACTORS
330
59AF
102
}
330
5976
100
AcDbEntity
  8
Defpoints
 62
     0
100
AcDbPoint
 10
381.5433647999999
 20
353.2913732160782
 30
0.0
  0
POINT
  5
599E
330
5976
100
AcDbEntity
  8
Defpoints
 62
     0
100
AcDbPoint
 10
394.0000000000002
 20
353.2913732160782
 30
0.0
  0
ENDBLK
  5
5978
330
5976
100
AcDbEntity
  8
0
100
AcDbBlockEnd
  0
BLOCK
  5
59A1
330
59A0
100
AcDbEntity
  8
0
100
AcDbBlockBegin
  2
*D28
 70
     1
 10
0.0
 20
0.0
 30
0.0
  3
*D28
  1

  0
LINE
  5
59E7
330
59A0
100
AcDbEntity
  8
AM_5 寸法線
 62
     3
100
AcDbLine
 10
382.7933647999998
 20
353.2913732160782
 30
0.0
 11
395.2500000000002
 21
353.2913732160782
 31
0.0
  0
LINE
  5
59E8
330
59A0
100
AcDbEntity
  8
AM_5 寸法線
 62
     3
100
AcDbLine
 10
383.7933647999999
 20
367.2913732160782
 30
0.0
 11
395.2500000000002
 21
367.2913732160782
 31
0.0
  0
LINE
  5
59E9
330
59A0
100
AcDbEntity
  8
AM_5 寸法線
 62
     3
100
AcDbLine
 10
394.0000000000002
 20
348.2913732160782
 30
0.0
 11
394.0000000000002
 21
343.2913732160782
 31
0.0
  0
LINE
  5
59EA
330
59A0
100
AcDbEntity
  8
AM_5 寸法線
 62
     3
100
AcDbLine
 10
394.0000000000002
 20
372.2913732160782
 30
0.0
 11
394.0000000000002
 21
377.2913732160782
 31
0.0
  0
MTEXT
  5
59EB
330
59A0
100
AcDbEntity
  8
AM_5 寸法線
 62
     3
100
AcDbMText
 10
389.2340204464979
 20
361.2066246595337
 30
0.0
 40
7.0
 41
0.0
 46
0.0
 71
     5
 72
     1
  1
14
  7
SEISA
 11
0.0000000000000001
 21
1.0
 31
0.0
 73
     1
 44
1.0
  0
LINE
  5
59EC
330
59A0
100
AcDbEntity
  8
AM_5 寸法線
 62
     3
100
AcDbLine
 10
394.0000000000002
 20
353.2913732160782
 30
0.0
 11
394.0000000000002
 21
367.2913732160782
 31
0.0
  0
INSERT
  5
59ED
330
59A0
100
AcDbEntity
  8
AM_5 寸法線
 62
     3
100
AcDbBlockReference
  2
_Open30
 10
394.0000000000002
 20
353.2913732160782
 30
0.0
 41
5.0
 42
5.0
 43
5.0
 50
90.0
  0
INSERT
  5
59EE
330
59A0
100
AcDbEntity
  8
AM_5 寸法線
 62
     3
100
AcDbBlockReference
  2
_Open30
 10
394.0000000000002
 20
367.2913732160782
 30
0.0
 41
5.0
 42
5.0
 43
5.0
 50
270.0
  0
POINT
  5
59EF
330
59A0
100
AcDbEntity
  8
Defpoints
 62
     0
100
AcDbPoint
 10
381.5433647999999
 20
353.2913732160782
 30
0.0
  0
POINT
  5
59F0
330
59A0
100
AcDbEntity
  8
Defpoints
 62
     0
100
AcDbPoint
 10
382.5433647999998
 20
367.2913732160782
 30
0.0
  0
POINT
  5
59F1
330
59A0
100
AcDbEntity
  8
Defpoints
 62
     0
100
AcDbPoint
 10
394.0000000000002
 20
367.2913732160782
 30
0.0
  0
ENDBLK
  5
59A2
330
59A0
100
AcDbEntity
  8
0
100
AcDbBlockEnd
  0
BLOCK
  5
5AD8
330
5AD7
100
AcDbEntity
  8
0
100
AcDbBlockBegin
  2
ケース
 70
     0
 10
0.0
 20
0.0
 30
0.0
  3
ケース
  1

  0
ARC
  5
5ADA
330
5AD7
100
AcDbEntity
  8
AM_11 想像線
 48
0.1
100
AcDbCircle
 10
3.0
 20
-26.53690792370298
 30
0.0
 40
3.0
100
AcDbArc
 50
180.0
 51
270.0
  0
LINE
  5
5ADB
330
5AD7
100
AcDbEntity
  8
AM_11 想像線
 48
0.1
100
AcDbLine
 10
0.0
 20
0.0
 30
0.0
 11
0.0
 21
-26.53690792370298
 31
0.0
  0
LINE
  5
5ADC
330
5AD7
100
AcDbEntity
  8
AM_11 想像線
 48
0.1
100
AcDbLine
 10
10.60000000000013
 20
0.0
 30
0.0
 11
10.60000000000013
 21
-11.53690792370298
 31
0.0
  0
LINE
  5
5ADD
330
5AD7
100
AcDbEntity
  8
AM_11 想像線
 48
0.1
100
AcDbLine
 10
7.0
 20
0.0
 30
0.0
 11
7.0
 21
-12.67088292370295
 31
0.0
  0
LINE
  5
5ADE
330
5AD7
100
AcDbEntity
  8
AM_11 想像線
 48
0.1
100
AcDbLine
 10
9.0
 20
0.0
 30
0.0
 11
9.0
 21
-14.53690792370298
 31
0.0
  0
LINE
  5
5ADF
330
5AD7
100
AcDbEntity
  8
AM_11 想像線
 48
0.1
100
AcDbLine
 10
9.80000000000018
 20
-26.33690792370294
 30
0.0
 11
9.80000000000018
 21
-19.73690792370291
 31
0.0
  0
LINE
  5
5AE0
330
5AD7
100
AcDbEntity
  8
AM_11 想像線
 48
0.1
100
AcDbLine
 10
14.5
 20
-26.83690792370294
 30
0.0
 11
10.30000000000018
 21
-26.83690792370294
 31
0.0
  0
LINE
  5
5AE1
102
{ACAD_REACTORS
330
5869
102
}
330
5AD7
100
AcDbEntity
  8
AM_11 想像線
 48
0.1
100
AcDbLine
 10
3.0
 20
-29.53690792370299
 30
0.0
 11
14.5
 21
-29.53690792370299
 31
0.0
  0
ARC
  5
5AE2
330
5AD7
100
AcDbEntity
  8
AM_11 想像線
 48
0.1
100
AcDbCircle
 10
10.30000000000018
 20
-26.33690792370294
 30
0.0
 40
0.5
100
AcDbArc
 50
180.0
 51
270.0
  0
LINE
  5
5AE3
330
5AD7
100
AcDbEntity
  8
AM_11 想像線
 48
0.1
100
AcDbLine
 10
13.25
 20
-29.53690792370299
 30
0.0
 11
13.25
 21
-26.83690792370294
 31
0.0
  0
LINE
  5
5AE4
330
5AD7
100
AcDbEntity
  8
AM_11 想像線
 48
0.1
100
AcDbLine
 10
14.5
 20
-16.53690792370298
 30
0.0
 11
7.5
 21
-16.53690792370298
 31
0.0
  0
LINE
  5
5AE5
330
5AD7
100
AcDbEntity
  8
AM_11 想像線
 48
0.1
100
AcDbLine
 10
10.30000000000018
 20
-19.23690792370291
 30
0.0
 11
14.5
 21
-19.23690792370291
 31
0.0
  0
LINE
  5
5AE6
330
5AD7
100
AcDbEntity
  8
AM_11 想像線
 48
0.1
100
AcDbLine
 10
8.118678000000272
 20
-12.53690792370298
 30
0.0
 11
9.600000000000136
 21
-12.53690792370298
 31
0.0
  0
LINE
  5
5AE7
330
5AD7
100
AcDbEntity
  8
AM_11 想像線
 48
0.1
100
AcDbLine
 10
9.600000000000136
 20
-12.53690792370298
 30
0.0
 11
10.60000000000013
 21
-11.53690792370298
 31
0.0
  0
LINE
  5
5AE8
330
5AD7
100
AcDbEntity
  8
AM_11 想像線
 48
0.1
100
AcDbLine
 10
8.118678000000272
 20
-12.53690792370298
 30
0.0
 11
7.5
 21
-12.53690792370298
 31
0.0
  0
ARC
  5
5AE9
330
5AD7
100
AcDbEntity
  8
AM_11 想像線
 48
0.1
100
AcDbCircle
 10
7.5
 20
-13.53690792370298
 30
0.0
 40
1.0
100
AcDbArc
 50
90.0
 51
180.0
  0
LINE
  5
5AEA
330
5AD7
100
AcDbEntity
  8
AM_11 想像線
 48
0.1
100
AcDbLine
 10
6.5
 20
-15.53690792370298
 30
0.0
 11
6.5
 21
-13.53690792370298
 31
0.0
  0
ARC
  5
5AEB
330
5AD7
100
AcDbEntity
  8
AM_11 想像線
 48
0.1
100
AcDbCircle
 10
7.5
 20
-15.53690792370298
 30
0.0
 40
1.0
100
AcDbArc
 50
180.0
 51
270.0
  0
ARC
  5
5AEC
330
5AD7
100
AcDbEntity
  8
AM_11 想像線
 48
0.1
100
AcDbCircle
 10
10.30000000000018
 20
-19.73690792370291
 30
0.0
 40
0.5
100
AcDbArc
 50
90.0
 51
180.0
  0
LINE
  5
5AED
330
5AD7
100
AcDbEntity
  8
AM_11 想像線
 48
0.1
100
AcDbLine
 10
13.25
 20
-19.23690792370291
 30
0.0
 11
13.25
 21
-16.53690792370298
 31
0.0
  0
ENDBLK
  5
5AD9
330
5AD7
100
AcDbEntity
  8
0
100
AcDbBlockEnd
  0
ENDSEC
  0
SECTION
  2
ENTITIES
  0
LINE
  5
3FCA
330
1F
100
AcDbEntity
  8
AM_7 中心線
100
AcDbLine
 10
434.5433647999998
 20
471.2913732160782
 30
0.0
 11
434.5433647999998
 21
273.2913732160782
 31
0.0
  0
INSERT
  5
43D8
102
{ACAD_REACTORS
330
4921
330
4A0F
330
4C6C
330
4CD5
330
5869
330
5983
330
59AF
102
}
330
1F
100
AcDbEntity
  8
AM_0 外形線1
100
AcDbBlockReference
  2
センタＡ SMVH180
 10
434.5433647999998
 20
367.2913732160782
 30
0.0
  0
INSERT
  5
44CD
102
{ACAD_REACTORS
330
4953
330
49F7
330
4CD5
102
}
330
1F
100
AcDbEntity
  8
AM_0 外形線1
100
AcDbBlockReference
  2
ケースＡ SMVH180
 10
434.5433647999998
 20
372.2913732160782
 30
0.0
  0
INSERT
  5
466D
102
{ACAD_REACTORS
330
4953
330
496F
330
4C09
330
4C21
102
}
330
1F
100
AcDbEntity
  8
AM_0 外形線1
100
AcDbBlockReference
  2
ケースＢ SMVH180
 10
434.5433647999998
 20
372.2913732160782
 30
0.0
  0
INSERT
  5
4740
102
{ACAD_REACTORS
330
4A0F
330
4C39
330
4CB9
102
}
330
1F
100
AcDbEntity
  8
AM_0 外形線1
100
AcDbBlockReference
  2
センタB SMVH180
 10
434.5433647999998
 20
377.2913732160782
 30
0.0
  0
INSERT
  5
47D7
330
1F
100
AcDbEntity
  8
AM_0 外形線1
100
AcDbBlockReference
  2
リーマボルト SMVH180 M8
 10
516.0433647999998
 20
357.2913732160782
 30
0.0
  0
INSERT
  5
48AC
102
{ACAD_REACTORS
330
4C6C
102
}
330
1F
100
AcDbEntity
  8
AM_0 外形線1
100
AcDbBlockReference
  2
スラストプレ－ト SMVH180
 10
434.5433647999998
 20
367.2913732160782
 30
0.0
  0
DIMENSION
  5
490A
102
{ACAD_XDICTIONARY
360
4917
102
}
102
{ACAD_REACTORS
330
4921
102
}
330
1F
100
AcDbEntity
  8
AM_5 寸法線
100
AcDbDimension
  2
*D14
 10
487.0433647999998
 20
227.2913732160782
 30
0.0
 11
434.5433647999998
 21
233.7913732160782
 31
0.0
 70
    32
  1
%%c<>
 71
     5
 42
105.0
 73
     0
 74
     0
 75
     0
  3
SEISA$0
100
AcDbAlignedDimension
 13
382.0433647999998
 23
307.2913732160782
 33
0.0
 14
487.0433647999998
 24
307.2913732160782
 34
0.0
100
AcDbRotatedDimension
1001
ACAD
1000
DSTYLE
1002
{
1070
    40
1040
2.0
1002
}
1001
ACAD_DSTYLE_DIMINSPECT
1070
   396
1000
100%
1070
   395
1000

1070
   394
1070
    33
1070
   393
1070
     0
  0
DIMENSION
  5
4938
102
{ACAD_XDICTIONARY
360
4947
102
}
102
{ACAD_REACTORS
330
4953
102
}
330
1F
100
AcDbEntity
  8
AM_5 寸法線
100
AcDbDimension
  2
*D15
 10
554.5433648000003
 20
357.2913732160782
 30
0.0
 11
554.5433648000002
 21
339.6413732160783
 31
0.0
 70
   160
 71
     5
 42
15.0
 73
     0
 74
     0
 75
     0
  3
SEISA$0
100
AcDbAlignedDimension
 13
524.0433647999998
 23
372.2913732160782
 33
0.0
 14
524.0433647999998
 24
357.2913732160782
 34
0.0
 50
90.0
100
AcDbRotatedDimension
1001
ACAD_DSTYLE_DIMINSPECT
1070
   396
1000
100%
1070
   395
1000

1070
   394
1070
    33
1070
   393
1070
     0
1001
ACAD
1000
DSTYLE
1002
{
1070
    40
1040
2.0
1070
   173
1070
     1
1070
   342
1005
0
1070
   343
1005
2E0C
1070
   344
1005
69
1002
}
  0
DIMENSION
  5
4954
102
{ACAD_XDICTIONARY
360
4963
102
}
102
{ACAD_REACTORS
330
496F
102
}
330
1F
100
AcDbEntity
  8
AM_5 寸法線
100
AcDbDimension
  2
*D16
 10
554.5433648000002
 20
372.2913732160782
 30
0.0
 11
554.5433647999999
 21
404.9413732160783
 31
0.0
 70
   160
 71
     5
 42
15.0
 73
     0
 74
     0
 75
     0
  3
SEISA$0
100
AcDbAlignedDimension
 13
524.0433647999998
 23
387.2913732160782
 33
0.0
 14
524.0433647999998
 24
372.2913732160782
 34
0.0
 50
90.0
100
AcDbRotatedDimension
1001
ACAD_DSTYLE_DIMINSPECT
1070
   396
1000
100%
1070
   395
1000

1070
   394
1070
    33
1070
   393
1070
     0
1001
ACAD
1000
DSTYLE
1002
{
1070
    40
1040
2.0
1070
   173
1070
     1
1070
   342
1005
0
1070
   343
1005
69
1070
   344
1005
2E0C
1002
}
  0
DIMENSION
  5
49E0
102
{ACAD_XDICTIONARY
360
49ED
102
}
102
{ACAD_REACTORS
330
49F7
102
}
330
1F
100
AcDbEntity
  8
AM_5 寸法線
100
AcDbDimension
  2
*D17
 10
574.5433647999997
 20
316.2913732160782
 30
0.0
 11
568.0433647999997
 21
372.2913732160784
 31
0.0
 70
    32
 71
     5
 42
112.0
 73
     0
 74
     0
 75
     0
  3
SEISA$0
100
AcDbAlignedDimension
 13
498.5433647999998
 23
428.2913732160781
 33
0.0
 14
498.5433647999998
 24
316.2913732160782
 34
0.0
 50
90.0
100
AcDbRotatedDimension
1001
ACAD
1000
DSTYLE
1002
{
1070
    40
1040
2.0
1002
}
  0
DIMENSION
  5
49F8
102
{ACAD_XDICTIONARY
360
4A05
102
}
102
{ACAD_REACTORS
330
4A0F
102
}
330
1F
100
AcDbEntity
  8
AM_5 寸法線
100
AcDbDimension
  2
*D18
 10
594.5433647999997
 20
467.2913732160782
 30
0.0
 11
588.0433647999997
 21
372.2913732160784
 31
0.0
 70
    32
 71
     5
 42
190.0
 73
     0
 74
     0
 75
     0
  3
SEISA$0
100
AcDbAlignedDimension
 13
483.4433647999999
 23
277.2913732160782
 33
0.0
 14
483.4433647999999
 24
467.2913732160782
 34
0.0
 50
90.0
100
AcDbRotatedDimension
1001
ACAD
1000
DSTYLE
1002
{
1070
    40
1040
2.0
1002
}
  0
DIMENSION
  5
4BF2
102
{ACAD_XDICTIONARY
360
4BFF
102
}
102
{ACAD_REACTORS
330
4C09
102
}
330
1F
100
AcDbEntity
  8
AM_5 寸法線
100
AcDbDimension
  2
*D19
 10
524.5433647999998
 20
557.2913732160782
 30
0.0
 11
434.5433647999998
 21
563.7913732160781
 31
0.0
 70
    32
  1
%%c<>
 71
     5
 42
180.0
 73
     0
 74
     0
 75
     0
  3
SEISA$0
100
AcDbAlignedDimension
 13
344.5433647999998
 23
386.7913732160782
 33
0.0
 14
524.5433647999998
 24
386.7913732160782
 34
0.0
100
AcDbRotatedDimension
1001
ACAD
1000
DSTYLE
1002
{
1070
    40
1040
2.0
1002
}
1001
ACAD_DSTYLE_DIMINSPECT
1070
   396
1000
100%
1070
   395
1000

1070
   394
1070
    33
1070
   393
1070
     0
  0
DIMENSION
  5
4C0A
102
{ACAD_XDICTIONARY
360
4C17
102
}
102
{ACAD_REACTORS
330
4C21
102
}
330
1F
100
AcDbEntity
  8
AM_5 寸法線
100
AcDbDimension
  2
*D20
 10
501.5433647999998
 20
537.2913732160782
 30
0.0
 11
434.5433647999998
 21
543.7913732160782
 31
0.0
 70
    32
  1
%%c<>
 71
     5
 42
134.0
 73
     0
 74
     0
 75
     0
  3
SEISA$0
100
AcDbAlignedDimension
 13
367.5433647999998
 23
425.2913732160782
 33
0.0
 14
501.5433647999998
 24
425.2913732160782
 34
0.0
100
AcDbRotatedDimension
1001
ACAD
1000
DSTYLE
1002
{
1070
    40
1040
2.0
1002
}
1001
ACAD_DSTYLE_DIMINSPECT
1070
   396
1000
100%
1070
   395
1000

1070
   394
1070
    33
1070
   393
1070
     0
  0
DIMENSION
  5
4C22
102
{ACAD_XDICTIONARY
360
4C2F
102
}
102
{ACAD_REACTORS
330
4C39
102
}
330
1F
100
AcDbEntity
  8
AM_5 寸法線
100
AcDbDimension
  2
*D21
 10
487.0433647999998
 20
517.2913732160782
 30
0.0
 11
434.5433647999998
 21
523.7913732160782
 31
0.0
 70
    32
  1
%%c<>
 71
     5
 42
105.0
 73
     0
 74
     0
 75
     0
  3
SEISA$0
100
AcDbAlignedDimension
 13
382.0433647999998
 23
437.2913732160781
 33
0.0
 14
487.0433647999998
 24
437.2913732160781
 34
0.0
100
AcDbRotatedDimension
1001
ACAD
1000
DSTYLE
1002
{
1070
    40
1040
2.0
1002
}
1001
ACAD_DSTYLE_DIMINSPECT
1070
   396
1000
100%
1070
   395
1000

1070
   394
1070
    33
1070
   393
1070
     0
  0
DIMENSION
  5
4C55
102
{ACAD_XDICTIONARY
360
4C62
102
}
102
{ACAD_REACTORS
330
4C6C
102
}
330
1F
100
AcDbEntity
  8
AM_5 寸法線
100
AcDbDimension
  2
*D22
 10
421.9581846469917
 20
367.2913732160782
 30
0.0
 11
415.4581846469918
 21
322.2913732160784
 31
0.0
 70
    32
 71
     5
 42
90.0
 73
     0
 74
     0
 75
     0
  3
SEISA$0
100
AcDbAlignedDimension
 13
425.0065571033128
 23
277.2913732160782
 33
0.0
 14
425.0065571033128
 24
367.2913732160782
 34
0.0
 50
90.0
100
AcDbRotatedDimension
1001
ACAD
1000
DSTYLE
1002
{
1070
    40
1040
2.0
1002
}
  0
DIMENSION
  5
4C6D
330
1F
100
AcDbEntity
  8
AM_5 寸法線
100
AcDbDimension
  2
*D23
 10
421.9581846469916
 20
377.2913732160782
 30
0.0
 11
416.0569702958772
 21
388.6327941259835
 31
0.0
 70
   160
 71
     5
 42
10.0
 73
     0
 74
     0
 75
     0
  3
SEISA$0
100
AcDbAlignedDimension
 13
418.0825705928905
 23
367.2913732160782
 33
0.0
 14
411.4100014558188
 24
377.2913732160782
 34
0.0
 50
90.0
100
AcDbRotatedDimension
1001
ACAD
1000
DSTYLE
1002
{
1070
    40
1040
2.0
1070
   279
1070
     2
1002
}
  0
DIMENSION
  5
4CA2
102
{ACAD_XDICTIONARY
360
4CAF
102
}
102
{ACAD_REACTORS
330
4CB9
102
}
330
1F
100
AcDbEntity
  8
AM_5 寸法線
100
AcDbDimension
  2
*D24
 10
421.9581846469917
 20
467.2913732160782
 30
0.0
 11
415.4581846469916
 21
422.2913732160783
 31
0.0
 70
    32
 71
     5
 42
89.99999999999994
 73
     0
 74
     0
 75
     0
  3
SEISA$0
100
AcDbAlignedDimension
 13
426.0704589275865
 23
377.2913732160782
 33
0.0
 14
426.0704589275865
 24
467.2913732160782
 34
0.0
 50
90.0
100
AcDbRotatedDimension
1001
ACAD
1000
DSTYLE
1002
{
1070
    40
1040
2.0
1002
}
  0
DIMENSION
  5
4CBA
102
{ACAD_XDICTIONARY
360
4CC9
102
}
102
{ACAD_REACTORS
330
4CD5
102
}
330
1F
100
AcDbEntity
  8
AM_5 寸法線
100
AcDbDimension
  2
*D25
 10
394.0000000000002
 20
332.2913732160782
 30
0.0
 11
394.0000000000002
 21
314.1913732160783
 31
0.0
 70
   160
 71
     5
 42
3.0
 73
     0
 74
     0
 75
     0
  3
SEISA$0
100
AcDbAlignedDimension
 13
382.0433647999998
 23
329.2913732160782
 33
0.0
 14
381.5433647999999
 24
332.2913732160782
 34
0.0
 50
90.0
100
AcDbRotatedDimension
1001
ACAD
1000
DSTYLE
1002
{
1070
    40
1040
2.0
1002
}
  0
MTEXT
  5
5810
330
1F
100
AcDbEntity
  8
AM_6 文字
100
AcDbMText
 10
513.8240132590875
 20
254.936971576136
 30
0.0
 40
7.0
 41
135.3159547097406
 46
27.45869168716519
 71
     1
 72
     5
  1
{\W0.6;TYPE:SMV180/SMVH180\PSHAFT DIA:MAX/MIN φ75/φ32}
  7
SEISA
 73
     1
 44
1.0
  0
DIMENSION
  5
5859
102
{ACAD_XDICTIONARY
360
5868
102
}
102
{ACAD_REACTORS
330
5869
102
}
330
1F
100
AcDbEntity
  8
AM_5 寸法線
100
AcDbDimension
  2
*D26
 10
357.2270251462447
 20
277.2913732160783
 30
0.0
 11
350.7270251462447
 21
292.3913732160784
 31
0.0
 70
    32
 71
     5
 42
5.000000000000056
 73
     0
 74
     0
 75
     0
  3
SEISA$0
100
AcDbAlignedDimension
 13
370.5433647999998
 23
272.2913732160782
 33
0.0
 14
385.6433648
 24
277.2913732160782
 34
0.0
 50
90.00000000000005
100
AcDbRotatedDimension
1001
ACAD
1000
DSTYLE
1002
{
1070
    40
1040
2.0
1002
}
1001
ACAD_DSTYLE_DIMINSPECT
1070
   396
1000
100%
1070
   395
1000

1070
   394
1070
    33
1070
   393
1070
     0
  0
DIMENSION
  5
5975
102
{ACAD_XDICTIONARY
360
5982
102
}
102
{ACAD_REACTORS
330
5983
330
59AF
102
}
330
1F
100
AcDbEntity
  8
AM_5 寸法線
100
AcDbDimension
  2
*D27
 10
394.0000000000002
 20
353.2913732160782
 30
0.0
 11
387.5000000000002
 21
342.7913732160783
 31
0.0
 70
    32
 71
     5
 42
21.0
 73
     0
 74
     0
 75
     0
  3
SEISA$0
100
AcDbAlignedDimension
 13
381.5433647999999
 23
332.2913732160782
 33
0.0
 14
381.5433647999999
 24
353.2913732160782
 34
0.0
 50
90.00000000000005
100
AcDbRotatedDimension
1001
ACAD
1000
DSTYLE
1002
{
1070
    40
1040
2.0
1002
}
1001
ACAD_DSTYLE_DIMINSPECT
1070
   396
1000
100%
1070
   395
1000

1070
   394
1070
    33
1070
   393
1070
     0
  0
DIMENSION
  5
599F
102
{ACAD_XDICTIONARY
360
59AE
102
}
102
{ACAD_REACTORS
330
59AF
102
}
330
1F
100
AcDbEntity
  8
AM_5 寸法線
100
AcDbDimension
  2
*D28
 10
394.0000000000002
 20
367.2913732160782
 30
0.0
 11
389.2340204464979
 21
361.2066246595337
 31
0.0
 70
   160
 71
     5
 42
14.0
 73
     0
 74
     0
 75
     0
  3
SEISA$0
100
AcDbAlignedDimension
 13
381.5433647999999
 23
353.2913732160782
 33
0.0
 14
382.5433647999998
 24
367.2913732160782
 34
0.0
 50
90.00000000000005
100
AcDbRotatedDimension
1001
ACAD_DSTYLE_DIMINSPECT
1070
   396
1000
100%
1070
   395
1000

1070
   394
1070
    33
1070
   393
1070
     0
1001
ACAD
1000
DSTYLE
1002
{
1070
    40
1040
2.0
1070
   279
1070
     2
1002
}
  0
INSERT
  5
5AEE
330
1F
100
AcDbEntity
  8
AM_11 想像線
100
AcDbBlockReference
  2
ケース
 10
367.5433647999998
 20
301.8282811397812
 30
0.0
  0
ENDSEC
  0
SECTION
  2
OBJECTS
  0
DICTIONARY
  5
C
330
0
100
AcDbDictionary
281
     1
  3
ACAD_COLOR
350
C5
  3
ACAD_GROUP
350
D
  3
ACAD_LAYOUT
350
1A
  3
ACAD_MATERIAL
350
C4
  3
ACAD_MLEADERSTYLE
350
2D5
  3
ACAD_MLINESTYLE
350
17
  3
ACAD_PLOTSETTINGS
350
19
  3
ACAD_PLOTSTYLENAME
350
E
  3
ACAD_SCALELIST
350
2B3
  3
ACAD_TABLESTYLE
350
121
  3
ACAD_VISUALSTYLE
350
27F
  3
ACDB_RECOMPOSE_DATA
350
2F7
  3
AcDbVariableDictionary
350
34
  3
AcmDictionary
350
49
  3
AMG
350
2B
  3
AMGSNAPSETTINGS
350
1DE
  0
DICTIONARY
  5
BF
330
2
100
AcDbDictionary
280
     1
281
     1
  3
ACAD_LAYERSTATES
360
2786
  3
AMLAYER_GROUPCOLORS
360
C0
  0
DICTIONARY
  5
2A97
330
10
100
AcDbDictionary
280
     1
281
     1
  3
ADSK_XREC_LAYER_RECONCILED
360
2A98
  0
DICTIONARY
  5
2A99
330
81
100
AcDbDictionary
280
     1
281
     1
  3
ADSK_XREC_LAYER_RECONCILED
360
2A9A
  0
DICTIONARY
  5
2AA0
330
25C9
100
AcDbDictionary
280
     1
281
     1
  3
ADSK_XREC_LAYER_RECONCILED
360
2AA1
  0
DICTIONARY
  5
2AA2
330
25CA
100
AcDbDictionary
280
     1
281
     1
  3
ADSK_XREC_LAYER_RECONCILED
360
2AA3
  0
DICTIONARY
  5
2AA8
330
26B3
100
AcDbDictionary
280
     1
281
     1
  3
ADSK_XREC_LAYER_RECONCILED
360
2AA9
  0
DICTIONARY
  5
82
330
1F
100
AcDbDictionary
280
     1
281
     1
  3
ACAD_SORTENTS
360
A41
  0
DICTIONARY
  5
2CE2
330
2CE1
100
AcDbDictionary
280
     1
281
     1
  3
ACAD_SORTENTS
360
53FC
  0
DICTIONARY
  5
4415
330
43B9
100
AcDbDictionary
280
     1
281
     1
  3
ACAD_SORTENTS
360
5910
  0
DICTIONARY
  5
4542
330
4494
100
AcDbDictionary
280
     1
281
     1
  3
ACAD_SORTENTS
360
53CF
  0
DICTIONARY
  5
46EE
330
462F
100
AcDbDictionary
280
     1
281
     1
  3
ACAD_SORTENTS
360
547D
  0
DICTIONARY
  5
477D
330
4721
100
AcDbDictionary
280
     1
281
     1
  3
ACAD_SORTENTS
360
594A
  0
DICTIONARY
  5
480B
330
47CA
100
AcDbDictionary
280
     1
281
     1
  3
ACAD_SORTENTS
360
5AAD
  0
DICTIONARY
  5
48C7
330
489E
100
AcDbDictionary
280
     1
281
     1
  3
ACAD_SORTENTS
360
5B2F
  0
DICTIONARY
  5
4917
330
490A
100
AcDbDictionary
280
     1
281
     1
  3
ACAD_DIMASSOC
360
4921
  0
DICTIONARY
  5
4947
330
4938
100
AcDbDictionary
280
     1
281
     1
  3
ACAD_DIMASSOC
360
4953
  0
DICTIONARY
  5
4963
330
4954
100
AcDbDictionary
280
     1
281
     1
  3
ACAD_DIMASSOC
360
496F
  0
DICTIONARY
  5
49ED
330
49E0
100
AcDbDictionary
280
     1
281
     1
  3
ACAD_DIMASSOC
360
49F7
  0
DICTIONARY
  5
4A05
330
49F8
100
AcDbDictionary
280
     1
281
     1
  3
ACAD_DIMASSOC
360
4A0F
  0
DICTIONARY
  5
4BFF
330
4BF2
100
AcDbDictionary
280
     1
281
     1
  3
ACAD_DIMASSOC
360
4C09
  0
DICTIONARY
  5
4C17
330
4C0A
100
AcDbDictionary
280
     1
281
     1
  3
ACAD_DIMASSOC
360
4C21
  0
DICTIONARY
  5
4C2F
330
4C22
100
AcDbDictionary
280
     1
281
     1
  3
ACAD_DIMASSOC
360
4C39
  0
DICTIONARY
  5
4C62
330
4C55
100
AcDbDictionary
280
     1
281
     1
  3
ACAD_DIMASSOC
360
4C6C
  0
DICTIONARY
  5
4CAF
330
4CA2
100
AcDbDictionary
280
     1
281
     1
  3
ACAD_DIMASSOC
360
4CB9
  0
DICTIONARY
  5
4CC9
330
4CBA
100
AcDbDictionary
280
     1
281
     1
  3
ACAD_DIMASSOC
360
4CD5
  0
DICTIONARY
  5
5868
330
5859
100
AcDbDictionary
280
     1
281
     1
  3
ACAD_DIMASSOC
360
5869
  0
DICTIONARY
  5
5982
330
5975
100
AcDbDictionary
280
     1
281
     1
  3
ACAD_DIMASSOC
360
5983
  0
DICTIONARY
  5
59AE
330
599F
100
AcDbDictionary
280
     1
281
     1
  3
ACAD_DIMASSOC
360
59AF
  0
DICTIONARY
  5
C5
102
{ACAD_REACTORS
330
C
102
}
330
C
100
AcDbDictionary
281
     1
  0
DICTIONARY
  5
D
102
{ACAD_REACTORS
330
C
102
}
330
C
100
AcDbDictionary
281
     1
  0
DICTIONARY
  5
1A
102
{ACAD_REACTORS
330
C
102
}
330
C
100
AcDbDictionary
281
     1
  3
Model
350
22
  3
レイアウト1
350
1E
  3
レイアウト2
350
26
  0
DICTIONARY
  5
C4
102
{ACAD_REACTORS
330
C
102
}
330
C
100
AcDbDictionary
281
     1
  3
ByBlock
350
27D
  3
ByLayer
350
27C
  3
Global
350
27E
  0
DICTIONARY
  5
2D5
102
{ACAD_REACTORS
330
C
102
}
330
C
100
AcDbDictionary
281
     1
  3
Standard
350
2D6
  0
DICTIONARY
  5
17
102
{ACAD_REACTORS
330
C
102
}
330
C
100
AcDbDictionary
281
     1
  3
Standard
350
18
  0
DICTIONARY
  5
19
102
{ACAD_REACTORS
330
C
102
}
330
C
100
AcDbDictionary
281
     1
  3
SEISA基本
350
1C7E
  0
ACDBDICTIONARYWDFLT
  5
E
102
{ACAD_REACTORS
330
C
102
}
330
C
100
AcDbDictionary
281
     1
  3
Normal
350
F
100
AcDbDictionaryWithDefault
340
F
  0
DICTIONARY
  5
2B3
102
{ACAD_REACTORS
330
C
102
}
330
C
100
AcDbDictionary
281
     1
  3
*A1
350
5807
  3
A0
350
2B4
  3
A1
350
2B5
  3
A2
350
2B6
  3
A3
350
2B7
  3
A4
350
2B8
  3
A5
350
2B9
  3
A6
350
2BA
  3
A7
350
2BB
  3
A8
350
2BC
  3
A9
350
2BD
  3
B0
350
2BE
  3
B1
350
2BF
  3
B2
350
2C0
  3
B3
350
2C1
  3
B4
350
2C2
  3
B5
350
2C3
  3
B6
350
2C4
  3
B7
350
2C5
  3
B8
350
2C6
  3
B9
350
2C7
  3
C0
350
2C8
  3
C1
350
2C9
  3
C2
350
2CA
  3
C3
350
2CB
  3
C4
350
2CC
  3
C5
350
2CD
  3
C6
350
2CE
  3
C7
350
2CF
  3
C8
350
2D0
  3
C9
350
2D1
  3
D0
350
2D2
  3
D1
350
2D3
  3
D2
350
2D4
  0
DICTIONARY
  5
121
102
{ACAD_REACTORS
330
C
102
}
330
C
100
AcDbDictionary
281
     1
  3
Standard
350
122
  0
DICTIONARY
  5
27F
102
{ACAD_REACTORS
330
C
102
}
330
C
100
AcDbDictionary
281
     1
  3
2dWireframe
350
285
  3
3D Hidden
350
287
  3
3dWireframe
350
286
  3
Basic
350
284
  3
Brighten
350
28B
  3
ColorChange
350
28F
  3
Conceptual
350
288
  3
Dim
350
28A
  3
Facepattern
350
28E
  3
Flat
350
280
  3
FlatWithEdges
350
281
  3
Gouraud
350
282
  3
GouraudWithEdges
350
283
  3
Linepattern
350
28D
  3
Realistic
350
289
  3
Thicken
350
28C
  0
XRECORD
  5
2F7
102
{ACAD_REACTORS
330
C
102
}
330
C
100
AcDbXrecord
280
     1
 90
        1
330
122
  0
DICTIONARY
  5
34
102
{ACAD_REACTORS
330
C
102
}
330
C
100
AcDbDictionary
281
     1
  3
CANNOSCALE
350
2FA
  3
CMLEADERSTYLE
350
2F8
  3
CTABLESTYLE
350
140
  3
DIMASSOC
350
AC
  3
INDEXCTL
350
35
  3
LAYEREVAL
350
5220
  3
LAYERNOTIFY
350
5221
  3
LIGHTINGUNITS
350
2FB
  3
MSLTSCALE
350
2F9
  0
DICTIONARY
  5
49
102
{ACAD_REACTORS
330
C
102
}
330
C
100
AcDbDictionary
281
     1
  3
AcmBOM
350
161B
  3
AcmStdDictionary
350
4A
  3
AMDTSECTSYM_ARROWCOLOR
350
12B
  0
DICTIONARY
  5
2B
102
{ACAD_REACTORS
330
C
102
}
330
C
100
AcDbDictionary
281
     1
  0
DICTIONARY
  5
1DE
102
{ACAD_REACTORS
330
C
102
}
330
C
100
AcDbDictionary
281
     1
  0
DICTIONARY
  5
2786
102
{ACAD_REACTORS
330
BF
102
}
330
BF
100
AcDbDictionary
281
     1
  0
DICTIONARY
  5
C0
102
{ACAD_REACTORS
330
BF
102
}
330
BF
100
AcDbDictionary
280
     1
281
     1
  0
XRECORD
  5
2A98
102
{ACAD_REACTORS
330
2A97
102
}
330
2A97
100
AcDbXrecord
280
     1
290
     1
  0
XRECORD
  5
2A9A
102
{ACAD_REACTORS
330
2A99
102
}
330
2A99
100
AcDbXrecord
280
     1
290
     1
  0
XRECORD
  5
2AA1
102
{ACAD_REACTORS
330
2AA0
102
}
330
2AA0
100
AcDbXrecord
280
     1
290
     1
  0
XRECORD
  5
2AA3
102
{ACAD_REACTORS
330
2AA2
102
}
330
2AA2
100
AcDbXrecord
280
     1
290
     1
  0
XRECORD
  5
2AA9
102
{ACAD_REACTORS
330
2AA8
102
}
330
2AA8
100
AcDbXrecord
280
     1
290
     1
  0
SORTENTSTABLE
  5
A41
102
{ACAD_REACTORS
330
82
102
}
330
82
100
AcDbSortentsTable
330
1F
331
48AC
  5
4954
331
49E0
  5
4A12
331
43D8
  5
47D7
331
4C55
  5
4CEC
331
49F8
  5
4A13
331
490A
  5
49E0
331
4C6D
  5
4D14
331
4BF2
  5
4C6D
331
4CA2
  5
4D19
331
4740
  5
490A
331
466D
  5
48D3
331
4954
  5
4A10
331
4C0A
  5
4CA2
331
47D7
  5
4938
331
5810
  5
5810
331
4C22
  5
4CBA
331
44CD
  5
48AC
331
4CBA
  5
4D1E
331
4938
  5
49F8
331
3FCA
  5
3FCA
  0
SORTENTSTABLE
  5
53FC
102
{ACAD_REACTORS
330
2CE2
102
}
330
2CE2
100
AcDbSortentsTable
330
2CE1
  0
SORTENTSTABLE
  5
5910
102
{ACAD_REACTORS
330
4415
102
}
330
4415
100
AcDbSortentsTable
330
43B9
331
43CD
  5
43CF
331
58D6
  5
43BD
331
58BE
  5
43BC
331
43C1
  5
43C5
331
43BC
  5
43BE
331
43CE
  5
43D0
331
43CF
  5
43D1
331
43BD
  5
43BF
331
43C3
  5
43C6
331
43BE
  5
43C0
331
43D0
  5
43D2
331
43C8
  5
43CA
331
43D1
  5
43D3
331
43BF
  5
43C1
331
43C9
  5
43CB
331
43C5
  5
43C7
331
43D2
  5
43D4
331
43CA
  5
43CC
331
43C6
  5
43C8
331
43D3
  5
58BE
331
43CB
  5
43CD
331
43C7
  5
43C9
331
43D4
  5
58D6
331
43CC
  5
43CE
331
43C0
  5
43C3
  0
SORTENTSTABLE
  5
53CF
102
{ACAD_REACTORS
330
4542
102
}
330
4542
100
AcDbSortentsTable
330
4494
331
44A1
  5
44A2
331
44A0
  5
44A1
331
449F
  5
44A0
331
4497
  5
4498
331
449E
  5
449F
331
449D
  5
449E
331
449C
  5
449D
331
449B
  5
449C
331
449A
  5
449B
331
4499
  5
449A
331
4498
  5
4499
331
4849
  5
4497
331
44CC
  5
450A
331
44CB
  5
44CC
331
44CA
  5
44CB
331
44C9
  5
44CA
331
450B
  5
4849
331
44C8
  5
44C9
331
450A
  5
450B
331
44B7
  5
44B8
331
44B6
  5
44B7
331
44C7
  5
44C8
331
44B5
  5
44B6
331
44B4
  5
44B5
331
44C6
  5
44C7
331
44C5
  5
44C6
331
44B3
  5
44B4
331
44B2
  5
44B3
331
44C4
  5
44C5
331
44C3
  5
44C4
331
44B1
  5
44B2
331
44B0
  5
44B1
331
44C2
  5
44C3
331
44C1
  5
44C2
331
44AF
  5
44B0
331
44AE
  5
44AF
331
44C0
  5
44C1
331
44BF
  5
44C0
331
44AD
  5
44AE
331
44AC
  5
44AD
331
44BE
  5
44BF
331
44BD
  5
44BE
331
44AB
  5
44AC
331
44AA
  5
44AB
331
44BC
  5
44BD
331
44BB
  5
44BC
331
44A9
  5
44AA
331
44A8
  5
44A9
331
44BA
  5
44BB
331
44B9
  5
44BA
331
44A7
  5
44A8
331
44B8
  5
44B9
331
44A6
  5
44A7
331
44A5
  5
44A6
331
44A4
  5
44A5
331
44A3
  5
44A4
331
44A2
  5
44A3
  0
SORTENTSTABLE
  5
547D
102
{ACAD_REACTORS
330
46EE
102
}
330
46EE
100
AcDbSortentsTable
330
462F
  0
SORTENTSTABLE
  5
594A
102
{ACAD_REACTORS
330
477D
102
}
330
477D
100
AcDbSortentsTable
330
4721
331
473C
  5
5932
331
4734
  5
4736
331
4724
  5
4726
331
472C
  5
472E
331
4735
  5
4737
331
4725
  5
4728
331
472D
  5
472F
331
4736
  5
4738
331
4726
  5
472A
331
472E
  5
4730
331
4737
  5
4739
331
472F
  5
4731
331
4738
  5
473A
331
4730
  5
4732
331
4728
  5
472B
331
5931
  5
4724
331
4739
  5
473B
331
4731
  5
4733
331
5932
  5
4725
331
473A
  5
473C
331
4732
  5
4734
331
472A
  5
472C
331
473B
  5
5931
331
4733
  5
4735
331
472B
  5
472D
  0
SORTENTSTABLE
  5
5AAD
102
{ACAD_REACTORS
330
480B
102
}
330
480B
100
AcDbSortentsTable
330
47CA
331
47F6
  5
47EC
331
47FE
  5
47F4
331
47D2
  5
47FA
331
47ED
  5
47D2
331
47F5
  5
47EB
331
47FD
  5
47F3
331
47D1
  5
47F9
331
47EC
  5
47D1
331
47F4
  5
47EA
331
47FC
  5
47F2
331
47D0
  5
47F8
331
47EB
  5
47D0
331
47F3
  5
47E9
331
47FB
  5
47F1
331
47EA
  5
47CF
331
47F2
  5
47E8
331
47CF
  5
47F7
331
47FA
  5
47F0
331
47E9
  5
47CE
331
47F1
  5
47D6
331
47D6
  5
47FE
331
47F9
  5
47EF
331
47CE
  5
47F6
331
47E8
  5
47CD
331
47D5
  5
47FD
331
47F0
  5
47D5
331
47CD
  5
47F5
331
47F8
  5
47EE
331
47D4
  5
47FC
331
47EF
  5
47D4
331
47F7
  5
47ED
331
47D3
  5
47FB
331
47EE
  5
47D3
  0
SORTENTSTABLE
  5
5B2F
102
{ACAD_REACTORS
330
48C7
102
}
330
48C7
100
AcDbSortentsTable
330
489E
  0
DIMASSOC
  5
4921
102
{ACAD_REACTORS
330
4917
102
}
330
4917
100
AcDbDimAssoc
330
490A
 90
        3
 70
     0
 71
     0
  1
AcDbOsnapPointRef
 72
    13
331
43D8
331
43BE
 73
     2
 91
        0
 40
0.0
 10
0.0
 20
0.0
 30
2.000000000000000E+50
 75
     0
  1
AcDbOsnapPointRef
 72
     1
331
43D8
331
43CE
 73
     2
 91
        0
 40
1.0
 10
0.0
 20
0.0
 30
2.000000000000000E+50
 75
     0
  0
DIMASSOC
  5
4953
102
{ACAD_REACTORS
330
4947
102
}
330
4947
100
AcDbDimAssoc
330
4938
 90
        3
 70
     0
 71
     0
  1
AcDbOsnapPointRef
 72
    13
331
466D
331
465C
 73
     2
 91
        0
 40
0.0
 10
0.0
 20
0.0
 30
2.000000000000000E+50
 75
     0
  1
AcDbOsnapPointRef
 72
    13
331
44CD
331
44C5
 73
     2
 91
        0
 40
0.0
 10
0.0
 20
0.0
 30
2.000000000000000E+50
 75
     0
  0
DIMASSOC
  5
496F
102
{ACAD_REACTORS
330
4963
102
}
330
4963
100
AcDbDimAssoc
330
4954
 90
        3
 70
     0
 71
     0
  1
AcDbOsnapPointRef
 72
    13
331
466D
331
465D
 73
     2
 91
        0
 40
0.0
 10
0.0
 20
0.0
 30
2.000000000000000E+50
 75
     0
  1
AcDbOsnapPointRef
 72
    13
331
466D
331
465C
 73
     2
 91
        0
 40
0.0
 10
0.0
 20
0.0
 30
2.000000000000000E+50
 75
     0
  0
DIMASSOC
  5
49F7
102
{ACAD_REACTORS
330
49ED
102
}
330
49ED
100
AcDbDimAssoc
330
49E0
 90
        2
 70
     0
 71
     0
  1
AcDbOsnapPointRef
 72
    13
331
44CD
331
44C6
 73
     2
 91
        0
 40
0.0
 10
0.0
 20
0.0
 30
2.000000000000000E+50
 75
     0
  0
DIMASSOC
  5
4A0F
102
{ACAD_REACTORS
330
4A05
102
}
330
4A05
100
AcDbDimAssoc
330
49F8
 90
        3
 70
     0
 71
     0
  1
AcDbOsnapPointRef
 72
    13
331
43D8
331
43BD
 73
     2
 91
        0
 40
0.0
 10
0.0
 20
0.0
 30
2.000000000000000E+50
 75
     0
  1
AcDbOsnapPointRef
 72
    13
331
4740
331
4725
 73
     2
 91
        0
 40
0.0
 10
0.0
 20
0.0
 30
2.000000000000000E+50
 75
     0
  0
DIMASSOC
  5
4C09
102
{ACAD_REACTORS
330
4BFF
102
}
330
4BFF
100
AcDbDimAssoc
330
4BF2
 90
        3
 70
     0
 71
     0
  1
AcDbOsnapPointRef
 72
    13
331
466D
331
463F
 73
     2
 91
        0
 40
0.0
 10
0.0
 20
0.0
 30
2.000000000000000E+50
 75
     0
  1
AcDbOsnapPointRef
 72
     8
331
466D
331
4663
 73
     2
 91
        0
 40
0.999999999999996
 10
0.0
 20
0.0
 30
0.0
 75
     1
  1
AcDbOsnapPointRef
 72
    13
331
466D
331
463F
 73
     2
 91
        0
 40
0.0
 10
0.0
 20
0.0
 30
2.000000000000000E+50
 75
     0
  0
DIMASSOC
  5
4C21
102
{ACAD_REACTORS
330
4C17
102
}
330
4C17
100
AcDbDimAssoc
330
4C0A
 90
        3
 70
     0
 71
     0
  1
AcDbOsnapPointRef
 72
     1
331
466D
331
4638
 73
     2
 91
        0
 40
3.141592653589792
 10
0.0
 20
0.0
 30
2.000000000000000E+50
 75
     0
  1
AcDbOsnapPointRef
 72
     1
331
466D
331
465F
 73
     2
 91
        0
 40
1.0
 10
0.0
 20
0.0
 30
2.000000000000000E+50
 75
     0
  0
DIMASSOC
  5
4C39
102
{ACAD_REACTORS
330
4C2F
102
}
330
4C2F
100
AcDbDimAssoc
330
4C22
 90
        3
 70
     0
 71
     0
  1
AcDbOsnapPointRef
 72
    13
331
4740
331
4726
 73
     2
 91
        0
 40
0.0
 10
0.0
 20
0.0
 30
2.000000000000000E+50
 75
     0
  1
AcDbOsnapPointRef
 72
     8
331
4740
331
4736
 73
     2
 91
        0
 40
1.0
 10
0.0
 20
0.0
 30
0.0
 75
     1
  1
AcDbOsnapPointRef
 72
    13
331
4740
331
4726
 73
     2
 91
        0
 40
0.0
 10
0.0
 20
0.0
 30
2.000000000000000E+50
 75
     0
  0
DIMASSOC
  5
4C6C
102
{ACAD_REACTORS
330
4C62
102
}
330
4C62
100
AcDbDimAssoc
330
4C55
 90
        3
 70
     0
 71
     0
  1
AcDbOsnapPointRef
 72
    10
331
43D8
331
43BD
 73
     2
 91
        0
 40
0.5975133711317702
 10
0.0
 20
0.0
 30
0.0
 75
     0
  1
AcDbOsnapPointRef
 72
     8
331
48AC
331
48A6
 73
     2
 91
        0
 40
0.2050926386384299
 10
0.0
 20
0.0
 30
0.0
 75
     1
  1
AcDbOsnapPointRef
 72
    10
331
43D8
331
43BD
 73
     2
 91
        0
 40
0.5975133711317702
 10
0.0
 20
0.0
 30
0.0
 75
     0
  0
DIMASSOC
  5
4CB9
102
{ACAD_REACTORS
330
4CAF
102
}
330
4CAF
100
AcDbDimAssoc
330
4CA2
 90
        3
 70
     0
 71
     0
  1
AcDbOsnapPointRef
 72
    10
331
4740
331
4724
 73
     2
 91
        0
 40
0.8370595024535891
 10
0.0
 20
0.0
 30
0.0
 75
     0
  1
AcDbOsnapPointRef
 72
     8
331
4740
331
4725
 73
     2
 91
        0
 40
0.5866350293702812
 10
0.0
 20
0.0
 30
0.0
 75
     1
  1
AcDbOsnapPointRef
 72
    10
331
4740
331
4724
 73
     2
 91
        0
 40
0.8370595024535891
 10
0.0
 20
0.0
 30
0.0
 75
     0
  0
DIMASSOC
  5
4CD5
102
{ACAD_REACTORS
330
4CC9
102
}
330
4CC9
100
AcDbDimAssoc
330
4CBA
 90
        3
 70
     0
 71
     0
  1
AcDbOsnapPointRef
 72
    13
331
44CD
331
44B4
 73
     2
 91
        0
 40
0.0
 10
0.0
 20
0.0
 30
2.000000000000000E+50
 75
     0
  1
AcDbOsnapPointRef
 72
    13
331
43D8
331
43C5
 73
     2
 91
        0
 40
0.0
 10
0.0
 20
0.0
 30
2.000000000000000E+50
 75
     0
  0
DIMASSOC
  5
5869
102
{ACAD_REACTORS
330
5868
102
}
330
5868
100
AcDbDimAssoc
330
5859
 90
        2
 70
     0
 71
     0
  1
AcDbOsnapPointRef
 72
     1
331
43D8
331
43BD
 73
     0
 91
        0
 40
0.0
 10
0.0
 20
0.0
 30
2.000000000000000E+50
 75
     0
  0
DIMASSOC
  5
5983
102
{ACAD_REACTORS
330
5982
102
}
330
5982
100
AcDbDimAssoc
330
5975
 90
        3
 70
     0
 71
     0
  1
AcDbOsnapPointRef
 72
    13
331
43D8
331
43C5
 73
     0
 91
        0
 40
0.0
 10
0.0
 20
0.0
 30
2.000000000000000E+50
 75
     0
  1
AcDbOsnapPointRef
 72
     8
331
43D8
331
43C9
 73
     0
 91
        0
 40
0.9999999999999891
 10
0.0
 20
0.0
 30
0.0
 75
     1
  1
AcDbOsnapPointRef
 72
    13
331
43D8
331
43C5
 73
     0
 91
        0
 40
0.0
 10
0.0
 20
0.0
 30
2.000000000000000E+50
 75
     0
  0
DIMASSOC
  5
59AF
102
{ACAD_REACTORS
330
59AE
102
}
330
59AE
100
AcDbDimAssoc
330
599F
 90
        3
 70
     0
 71
     0
  1
AcDbOsnapPointRef
 72
     4
331
5975
331
599D
 73
     0
 91
        0
 40
0.0
 10
0.0
 20
0.0
 30
0.0
 75
     0
  1
AcDbOsnapPointRef
 72
    13
331
43D8
331
43BC
 73
     0
 91
        0
 40
0.0
 10
0.0
 20
0.0
 30
2.000000000000000E+50
 75
     0
  0
LAYOUT
  5
22
102
{ACAD_REACTORS
330
1A
102
}
330
1A
100
AcDbPlotSettings
  1

  2
KONICA MINOLTA 501 PCL
  4
A4
  6

 40
5.027082920074462
 41
5.027085781097412
 42
5.027069091796875
 43
5.027069091796875
 44
209.9733276367186
 45
296.9259948730469
 46
0.0
 47
15.37321549995485
 48
0.0
 49
0.0
140
0.0
141
0.0
142
1.0
143
1.332905594814125
 70
 11956
 72
     1
 73
     0
 74
     1
  7
SEISA.ctb
 75
     0
147
0.7502406801281749
 76
     0
 77
     2
 78
   300
148
-342.8443023855057
149
-225.9448264375619
100
AcDbLayout
  1
Model
 70
     1
 71
     0
 10
0.0
 20
0.0
 11
12.0
 21
9.0
 12
0.0
 22
0.0
 32
0.0
 14
0.0
 24
0.0
 34
0.0
 15
0.0
 25
0.0
 35
0.0
146
0.0
 13
0.0
 23
0.0
 33
0.0
 16
1.0
 26
0.0
 36
0.0
 17
0.0
 27
1.0
 37
0.0
 76
     0
330
1F
331
27A
1001
ACAD_PSEXT
1000
KONICA MINOLTA 501 PCL
1000
KONICA MINOLTA 501/421/361PCL
1000
IP_192.168.20.231_(1)
1000

1070
     0
  0
LAYOUT
  5
1E
102
{ACAD_REACTORS
330
1A
102
}
330
1A
100
AcDbPlotSettings
  1

  2
none_device
  4
Letter_(8.50_x_11.00_Inches)
  6

 40
6.349999904632567
 41
6.349999904632567
 42
6.350006103515625
 43
6.350006103515625
 44
215.8999938964844
 45
279.3999938964844
 46
0.0
 47
0.0
 48
0.0
 49
0.0
140
0.0
141
0.0
142
1.0
143
1.0
 70
 15024
 72
     1
 73
     1
 74
     5
  7
SEISA.ctb
 75
    16
147
1.0
 76
     0
 77
     2
 78
   300
148
0.0
149
0.0
100
AcDbLayout
  1
レイアウト1
 70
     1
 71
     1
 10
0.0
 20
0.0
 11
420.0
 21
297.0
 12
0.0
 22
0.0
 32
0.0
 14
1.000000000000000E+20
 24
1.000000000000000E+20
 34
1.000000000000000E+20
 15
-1.000000000000000E+20
 25
-1.000000000000000E+20
 35
-1.000000000000000E+20
146
0.0
 13
0.0
 23
0.0
 33
0.0
 16
1.0
 26
0.0
 36
0.0
 17
0.0
 27
1.0
 37
0.0
 76
     0
330
1B
  0
LAYOUT
  5
26
102
{ACAD_REACTORS
330
1A
102
}
330
1A
100
AcDbPlotSettings
  1

  2
none_device
  4
Letter_(8.50_x_11.00_Inches)
  6

 40
6.349999904632567
 41
6.349999904632567
 42
6.350006103515625
 43
6.350006103515625
 44
215.8999938964844
 45
279.3999938964844
 46
0.0
 47
0.0
 48
0.0
 49
0.0
140
0.0
141
0.0
142
1.0
143
1.0
 70
 15024
 72
     1
 73
     1
 74
     5
  7
SEISA.ctb
 75
    16
147
1.0
 76
     0
 77
     2
 78
   300
148
0.0
149
0.0
100
AcDbLayout
  1
レイアウト2
 70
     1
 71
     2
 10
0.0
 20
0.0
 11
12.0
 21
9.0
 12
0.0
 22
0.0
 32
0.0
 14
0.0
 24
0.0
 34
0.0
 15
0.0
 25
0.0
 35
0.0
146
0.0
 13
0.0
 23
0.0
 33
0.0
 16
1.0
 26
0.0
 36
0.0
 17
0.0
 27
1.0
 37
0.0
 76
     0
330
23
  0
MATERIAL
  5
27D
102
{ACAD_REACTORS
330
C4
102
}
330
C4
100
AcDbMaterial
  1
ByBlock
 73
     1
 78
     1
172
     1
176
     1
270
     1
274
     1
 94
       63
  0
MATERIAL
  5
27C
102
{ACAD_REACTORS
330
C4
102
}
330
C4
100
AcDbMaterial
  1
ByLayer
 73
     1
 78
     1
172
     1
176
     1
270
     1
274
     1
 94
       63
  0
MATERIAL
  5
27E
102
{ACAD_REACTORS
330
C4
102
}
330
C4
100
AcDbMaterial
  1
Global
 73
     1
 78
     1
172
     1
176
     1
270
     1
274
     1
 94
       63
  0
MLEADERSTYLE
  5
2D6
102
{ACAD_REACTORS
330
2D5
102
}
330
2D5
100
AcDbMLeaderStyle
170
     2
171
     1
172
     0
 90
        2
 40
0.0
 41
0.0
173
     1
 91
-1056964608
340
14
 92
       -2
290
     1
 42
2.0
291
     1
 43
0.36
  3
Standard
 44
4.0
300

342
11
174
     1
178
     6
175
     1
176
     0
 93
-1056964608
 45
4.0
292
     0
297
     0
 46
4.0
 94
-1056964608
 47
1.0
 49
1.0
140
1.0
293
     1
141
0.0
294
     1
177
     0
142
1.0
295
     0
296
     0
143
0.125
1001
ACAD_MLEADERVER
1070
     2
  0
MLINESTYLE
  5
18
102
{ACAD_REACTORS
330
17
102
}
330
17
100
AcDbMlineStyle
  2
STANDARD
 70
     0
  3

 62
   256
 51
90.0
 52
90.0
 71
     2
 49
0.5
 62
   256
  6
BYLAYER
 49
-0.5
 62
   256
  6
BYLAYER
  0
PLOTSETTINGS
  5
1C7E
102
{ACAD_REACTORS
330
19
102
}
330
19
100
AcDbPlotSettings
  1
SEISA基本
  2
none_device
  4
Letter_(8.50_x_11.00_Inches)
  6

 40
6.349999904632567
 41
6.349999904632567
 42
6.350006103515625
 43
6.350006103515625
 44
215.8999938964844
 45
279.3999938964844
 46
7.302498226506357
 47
0.0
 48
0.0
 49
0.0
140
0.0
141
0.0
142
1.0
143
1.574803221122935
 70
 11956
 72
     1
 73
     1
 74
     2
  7
SEISA.ctb
 75
     0
147
0.6349999711627054
 76
     0
 77
     2
 78
   300
148
0.0
149
0.0
1001
ACAD_PSEXT
1000
なし
1000
なし
1000
適切ではありません
1000
新しいプロッタ環境設定名を選択しない限り、レイアウトは印刷されません。
1070
     0
  0
ACDBPLACEHOLDER
  5
F
102
{ACAD_REACTORS
330
E
102
}
330
E
  0
SCALE
  5
5807
102
{ACAD_REACTORS
330
2B3
102
}
330
2B3
100
AcDbScale
 70
     0
300
1:1.5
140
1.0
141
1.5
290
     0
  0
SCALE
  5
2B4
102
{ACAD_REACTORS
330
2B3
102
}
330
2B3
100
AcDbScale
 70
     0
300
1:1
140
1.0
141
1.0
290
     1
  0
SCALE
  5
2B5
102
{ACAD_REACTORS
330
2B3
102
}
330
2B3
100
AcDbScale
 70
     0
300
1:2
140
1.0
141
2.0
290
     0
  0
SCALE
  5
2B6
102
{ACAD_REACTORS
330
2B3
102
}
330
2B3
100
AcDbScale
 70
     0
300
1:4
140
1.0
141
4.0
290
     0
  0
SCALE
  5
2B7
102
{ACAD_REACTORS
330
2B3
102
}
330
2B3
100
AcDbScale
 70
     0
300
1:5
140
1.0
141
5.0
290
     0
  0
SCALE
  5
2B8
102
{ACAD_REACTORS
330
2B3
102
}
330
2B3
100
AcDbScale
 70
     0
300
1:8
140
1.0
141
8.0
290
     0
  0
SCALE
  5
2B9
102
{ACAD_REACTORS
330
2B3
102
}
330
2B3
100
AcDbScale
 70
     0
300
1:10
140
1.0
141
10.0
290
     0
  0
SCALE
  5
2BA
102
{ACAD_REACTORS
330
2B3
102
}
330
2B3
100
AcDbScale
 70
     0
300
1:16
140
1.0
141
16.0
290
     0
  0
SCALE
  5
2BB
102
{ACAD_REACTORS
330
2B3
102
}
330
2B3
100
AcDbScale
 70
     0
300
1:20
140
1.0
141
20.0
290
     0
  0
SCALE
  5
2BC
102
{ACAD_REACTORS
330
2B3
102
}
330
2B3
100
AcDbScale
 70
     0
300
1:30
140
1.0
141
30.0
290
     0
  0
SCALE
  5
2BD
102
{ACAD_REACTORS
330
2B3
102
}
330
2B3
100
AcDbScale
 70
     0
300
1:40
140
1.0
141
40.0
290
     0
  0
SCALE
  5
2BE
102
{ACAD_REACTORS
330
2B3
102
}
330
2B3
100
AcDbScale
 70
     0
300
1:50
140
1.0
141
50.0
290
     0
  0
SCALE
  5
2BF
102
{ACAD_REACTORS
330
2B3
102
}
330
2B3
100
AcDbScale
 70
     0
300
1:100
140
1.0
141
100.0
290
     0
  0
SCALE
  5
2C0
102
{ACAD_REACTORS
330
2B3
102
}
330
2B3
100
AcDbScale
 70
     0
300
2:1
140
2.0
141
1.0
290
     0
  0
SCALE
  5
2C1
102
{ACAD_REACTORS
330
2B3
102
}
330
2B3
100
AcDbScale
 70
     0
300
4:1
140
4.0
141
1.0
290
     0
  0
SCALE
  5
2C2
102
{ACAD_REACTORS
330
2B3
102
}
330
2B3
100
AcDbScale
 70
     0
300
8:1
140
8.0
141
1.0
290
     0
  0
SCALE
  5
2C3
102
{ACAD_REACTORS
330
2B3
102
}
330
2B3
100
AcDbScale
 70
     0
300
10:1
140
10.0
141
1.0
290
     0
  0
SCALE
  5
2C4
102
{ACAD_REACTORS
330
2B3
102
}
330
2B3
100
AcDbScale
 70
     0
300
100:1
140
100.0
141
1.0
290
     0
  0
SCALE
  5
2C5
102
{ACAD_REACTORS
330
2B3
102
}
330
2B3
100
AcDbScale
 70
     0
300
1/128" = 1'-0"
140
0.0078125
141
12.0
290
     0
  0
SCALE
  5
2C6
102
{ACAD_REACTORS
330
2B3
102
}
330
2B3
100
AcDbScale
 70
     0
300
1/64" = 1'-0"
140
0.015625
141
12.0
290
     0
  0
SCALE
  5
2C7
102
{ACAD_REACTORS
330
2B3
102
}
330
2B3
100
AcDbScale
 70
     0
300
1/32" = 1'-0"
140
0.03125
141
12.0
290
     0
  0
SCALE
  5
2C8
102
{ACAD_REACTORS
330
2B3
102
}
330
2B3
100
AcDbScale
 70
     0
300
1/16" = 1'-0"
140
0.0625
141
12.0
290
     0
  0
SCALE
  5
2C9
102
{ACAD_REACTORS
330
2B3
102
}
330
2B3
100
AcDbScale
 70
     0
300
3/32" = 1'-0"
140
0.09375
141
12.0
290
     0
  0
SCALE
  5
2CA
102
{ACAD_REACTORS
330
2B3
102
}
330
2B3
100
AcDbScale
 70
     0
300
1/8" = 1'-0"
140
0.125
141
12.0
290
     0
  0
SCALE
  5
2CB
102
{ACAD_REACTORS
330
2B3
102
}
330
2B3
100
AcDbScale
 70
     0
300
3/16" = 1'-0"
140
0.1875
141
12.0
290
     0
  0
SCALE
  5
2CC
102
{ACAD_REACTORS
330
2B3
102
}
330
2B3
100
AcDbScale
 70
     0
300
1/4" = 1'-0"
140
0.25
141
12.0
290
     0
  0
SCALE
  5
2CD
102
{ACAD_REACTORS
330
2B3
102
}
330
2B3
100
AcDbScale
 70
     0
300
3/8" = 1'-0"
140
0.375
141
12.0
290
     0
  0
SCALE
  5
2CE
102
{ACAD_REACTORS
330
2B3
102
}
330
2B3
100
AcDbScale
 70
     0
300
1/2" = 1'-0"
140
0.5
141
12.0
290
     0
  0
SCALE
  5
2CF
102
{ACAD_REACTORS
330
2B3
102
}
330
2B3
100
AcDbScale
 70
     0
300
3/4" = 1'-0"
140
0.75
141
12.0
290
     0
  0
SCALE
  5
2D0
102
{ACAD_REACTORS
330
2B3
102
}
330
2B3
100
AcDbScale
 70
     0
300
1" = 1'-0"
140
1.0
141
12.0
290
     0
  0
SCALE
  5
2D1
102
{ACAD_REACTORS
330
2B3
102
}
330
2B3
100
AcDbScale
 70
     0
300
1-1/2" = 1'-0"
140
1.5
141
12.0
290
     0
  0
SCALE
  5
2D2
102
{ACAD_REACTORS
330
2B3
102
}
330
2B3
100
AcDbScale
 70
     0
300
3" = 1'-0"
140
3.0
141
12.0
290
     0
  0
SCALE
  5
2D3
102
{ACAD_REACTORS
330
2B3
102
}
330
2B3
100
AcDbScale
 70
     0
300
6" = 1'-0"
140
6.0
141
12.0
290
     0
  0
SCALE
  5
2D4
102
{ACAD_REACTORS
330
2B3
102
}
330
2B3
100
AcDbScale
 70
     0
300
1'-0" = 1'-0"
140
12.0
141
12.0
290
     0
  0
TABLESTYLE
  5
122
102
{ACAD_XDICTIONARY
360
2F5
102
}
102
{ACAD_REACTORS
330
121
102
}
330
121
100
AcDbTableStyle
  3
Standard
 70
     0
 71
     0
 40
1.5
 41
1.5
280
     0
281
     0
  7
STANDARD
140
4.5
170
     2
 62
     0
 63
     7
283
     0
 90
      512
 91
        0
  1

274
    -2
284
     1
 64
     0
275
    -2
285
     1
 65
     0
276
    -2
286
     1
 66
     0
277
    -2
287
     1
 67
     0
278
    -2
288
     1
 68
     0
279
    -2
289
     1
 69
     0
  7
STANDARD
140
6.0
170
     5
 62
     0
 63
     7
283
     0
 90
      512
 91
        0
  1

274
    -2
284
     1
 64
     0
275
    -2
285
     1
 65
     0
276
    -2
286
     1
 66
     0
277
    -2
287
     1
 67
     0
278
    -2
288
     1
 68
     0
279
    -2
289
     1
 69
     0
  7
STANDARD
140
4.5
170
     5
 62
     0
 63
     7
283
     0
 90
      512
 91
        0
  1

274
    -2
284
     1
 64
     0
275
    -2
285
     1
 65
     0
276
    -2
286
     1
 66
     0
277
    -2
287
     1
 67
     0
278
    -2
288
     1
 68
     0
279
    -2
289
     1
 69
     0
  0
VISUALSTYLE
  5
285
102
{ACAD_REACTORS
330
27F
102
}
330
27F
100
AcDbVisualStyle
  2
2dWireframe
 70
     4
 71
     0
 72
     2
 73
     0
 90
        0
 40
-0.6
 41
-30.0
 62
     5
 63
     7
421
 16777215
 74
     1
 91
        4
 64
     7
 65
   257
 75
     1
175
     1
 42
1.0
 92
        0
 66
   257
 43
1.0
 76
     1
 77
     6
 78
     2
 67
     7
 79
     5
170
     0
171
     0
290
     0
174
     0
 93
        1
 44
0.0
173
     0
291
     0
 45
0.0
  0
VISUALSTYLE
  5
287
102
{ACAD_REACTORS
330
27F
102
}
330
27F
100
AcDbVisualStyle
  2
3D Hidden
 70
     6
 71
     1
 72
     2
 73
     2
 90
        0
 40
-0.6
 41
-30.0
 62
     5
 63
     7
421
 16777215
 74
     2
 91
        2
 64
     7
 65
   257
 75
     2
175
     1
 42
40.0
 92
        0
 66
   257
 43
1.0
 76
     1
 77
     6
 78
     2
 67
     7
 79
     3
170
     0
171
     0
290
     0
174
     0
 93
        1
 44
0.0
173
     0
291
     0
 45
0.0
  0
VISUALSTYLE
  5
286
102
{ACAD_REACTORS
330
27F
102
}
330
27F
100
AcDbVisualStyle
  2
3dWireframe
 70
     5
 71
     0
 72
     2
 73
     0
 90
        0
 40
-0.6
 41
-30.0
 62
     5
 63
     7
421
 16777215
 74
     1
 91
        4
 64
     7
 65
   257
 75
     1
175
     1
 42
1.0
 92
        0
 66
   257
 43
1.0
 76
     1
 77
     6
 78
     2
 67
     7
 79
     5
170
     0
171
     0
290
     0
174
     0
 93
        1
 44
0.0
173
     0
291
     0
 45
0.0
  0
VISUALSTYLE
  5
284
102
{ACAD_REACTORS
330
27F
102
}
330
27F
100
AcDbVisualStyle
  2
Basic
 70
     7
 71
     1
 72
     0
 73
     1
 90
        0
 40
-0.6
 41
-30.0
 62
     5
 63
     7
421
 16777215
 74
     0
 91
        4
 64
     7
 65
   257
 75
     1
175
     1
 42
1.0
 92
        8
 66
     7
 43
1.0
 76
     1
 77
     6
 78
     2
 67
     7
 79
     5
170
     0
171
     0
290
     0
174
     0
 93
        1
 44
0.0
173
     0
291
     1
 45
0.0
  0
VISUALSTYLE
  5
28B
102
{ACAD_REACTORS
330
27F
102
}
330
27F
100
AcDbVisualStyle
  2
Brighten
 70
    12
 71
     2
 72
     2
 73
     0
 90
        0
 40
-0.6
 41
-30.0
 62
     5
 63
     7
421
 16777215
 74
     1
 91
        4
 64
     7
 65
   257
 75
     1
175
     1
 42
1.0
 92
        8
 66
     7
 43
1.0
 76
     1
 77
     6
 78
     2
 67
     7
 79
     5
170
     0
171
     0
290
     0
174
     0
 93
        1
 44
50.0
173
     0
291
     1
 45
0.0
  0
VISUALSTYLE
  5
28F
102
{ACAD_REACTORS
330
27F
102
}
330
27F
100
AcDbVisualStyle
  2
ColorChange
 70
    16
 71
     2
 72
     2
 73
     3
 90
        0
 40
-0.6
 41
-30.0
 62
     5
 63
     8
421
  8421504
 74
     1
 91
        4
 64
     7
 65
   257
 75
     1
175
     1
 42
1.0
 92
        8
 66
     8
424
  8421504
 43
1.0
 76
     1
 77
     6
 78
     2
 67
     7
 79
     5
170
     0
171
     0
290
     0
174
     0
 93
        1
 44
0.0
173
     0
291
     1
 45
0.0
  0
VISUALSTYLE
  5
288
102
{ACAD_REACTORS
330
27F
102
}
330
27F
100
AcDbVisualStyle
  2
Conceptual
 70
     9
 71
     3
 72
     2
 73
     0
 90
        0
 40
-0.6
 41
-30.0
 62
     5
 63
     7
421
 16777215
 74
     2
 91
        2
 64
     7
 65
   257
 75
     1
175
     1
 42
40.0
 92
        8
 66
     7
 43
1.0
 76
     1
 77
     6
 78
     2
 67
     7
 79
     3
170
     0
171
     0
290
     0
174
     0
 93
        1
 44
0.0
173
     0
291
     0
 45
0.0
  0
VISUALSTYLE
  5
28A
102
{ACAD_REACTORS
330
27F
102
}
330
27F
100
AcDbVisualStyle
  2
Dim
 70
    11
 71
     2
 72
     2
 73
     0
 90
        0
 40
-0.6
 41
-30.0
 62
     5
 63
     7
421
 16777215
 74
     1
 91
        4
 64
     7
 65
   257
 75
     1
175
     1
 42
1.0
 92
        8
 66
     7
 43
1.0
 76
     1
 77
     6
 78
     2
 67
     7
 79
     5
170
     0
171
     0
290
     0
174
     0
 93
        1
 44
-50.0
173
     0
291
     1
 45
0.0
  0
VISUALSTYLE
  5
28E
102
{ACAD_REACTORS
330
27F
102
}
330
27F
100
AcDbVisualStyle
  2
Facepattern
 70
    15
 71
     2
 72
     2
 73
     0
 90
        0
 40
-0.6
 41
-30.0
 62
     5
 63
     7
421
 16777215
 74
     1
 91
        4
 64
     7
 65
   257
 75
     1
175
     1
 42
1.0
 92
        8
 66
     7
 43
1.0
 76
     1
 77
     6
 78
     2
 67
     7
 79
     5
170
     0
171
     0
290
     0
174
     0
 93
        1
 44
0.0
173
     0
291
     1
 45
0.0
  0
VISUALSTYLE
  5
280
102
{ACAD_REACTORS
330
27F
102
}
330
27F
100
AcDbVisualStyle
  2
Flat
 70
     0
 71
     2
 72
     1
 73
     1
 90
        2
 40
-0.6
 41
30.0
 62
     5
 63
     7
421
 16777215
 74
     0
 91
        4
 64
     7
 65
   257
 75
     1
175
     1
 42
1.0
 92
        8
 66
     7
 43
1.0
 76
     1
 77
     6
 78
     2
 67
     7
 79
     5
170
     0
171
     0
290
     0
174
     0
 93
       13
 44
0.0
173
     0
291
     1
 45
0.0
  0
VISUALSTYLE
  5
281
102
{ACAD_REACTORS
330
27F
102
}
330
27F
100
AcDbVisualStyle
  2
FlatWithEdges
 70
     1
 71
     2
 72
     1
 73
     1
 90
        2
 40
-0.6
 41
30.0
 62
     5
 63
     7
421
 16777215
 74
     1
 91
        4
 64
     7
 65
   257
 75
     1
175
     1
 42
1.0
 92
        0
 66
   257
 43
1.0
 76
     1
 77
     6
 78
     2
 67
     7
 79
     5
170
     0
171
     0
290
     0
174
     0
 93
       13
 44
0.0
173
     0
291
     1
 45
0.0
  0
VISUALSTYLE
  5
282
102
{ACAD_REACTORS
330
27F
102
}
330
27F
100
AcDbVisualStyle
  2
Gouraud
 70
     2
 71
     2
 72
     2
 73
     1
 90
        2
 40
-0.6
 41
30.0
 62
     5
 63
     7
421
 16777215
 74
     0
 91
        4
 64
     7
 65
   257
 75
     1
175
     1
 42
1.0
 92
        0
 66
     7
 43
1.0
 76
     1
 77
     6
 78
     2
 67
     7
 79
     5
170
     0
171
     0
290
     0
174
     0
 93
       13
 44
0.0
173
     0
291
     1
 45
0.0
  0
VISUALSTYLE
  5
283
102
{ACAD_REACTORS
330
27F
102
}
330
27F
100
AcDbVisualStyle
  2
GouraudWithEdges
 70
     3
 71
     2
 72
     2
 73
     1
 90
        2
 40
-0.6
 41
30.0
 62
     5
 63
     7
421
 16777215
 74
     1
 91
        4
 64
     7
 65
   257
 75
     1
175
     1
 42
1.0
 92
        0
 66
   257
 43
1.0
 76
     1
 77
     6
 78
     2
 67
     7
 79
     5
170
     0
171
     0
290
     0
174
     0
 93
       13
 44
0.0
173
     0
291
     1
 45
0.0
  0
VISUALSTYLE
  5
28D
102
{ACAD_REACTORS
330
27F
102
}
330
27F
100
AcDbVisualStyle
  2
Linepattern
 70
    14
 71
     2
 72
     2
 73
     0
 90
        0
 40
-0.6
 41
-30.0
 62
     5
 63
     7
421
 16777215
 74
     1
 91
        4
 64
     7
 65
   257
 75
     7
175
     7
 42
1.0
 92
        8
 66
     7
 43
1.0
 76
     1
 77
     6
 78
     2
 67
     7
 79
     5
170
     0
171
     0
290
     0
174
     0
 93
        1
 44
0.0
173
     0
291
     1
 45
0.0
  0
VISUALSTYLE
  5
289
102
{ACAD_REACTORS
330
27F
102
}
330
27F
100
AcDbVisualStyle
  2
Realistic
 70
     8
 71
     2
 72
     2
 73
     0
 90
        0
 40
-0.6
 41
-30.0
 62
     5
 63
     7
421
 16777215
 74
     1
 91
        0
 64
     7
 65
   257
 75
     1
175
     1
 42
1.0
 92
        8
 66
     8
424
  7895160
 43
1.0
 76
     1
 77
     6
 78
     2
 67
     7
 79
     5
170
     0
171
     0
290
     0
174
     0
 93
       13
 44
0.0
173
     0
291
     0
 45
0.0
  0
VISUALSTYLE
  5
28C
102
{ACAD_REACTORS
330
27F
102
}
330
27F
100
AcDbVisualStyle
  2
Thicken
 70
    13
 71
     2
 72
     2
 73
     0
 90
        0
 40
-0.6
 41
-30.0
 62
     5
 63
     7
421
 16777215
 74
     1
 91
        4
 64
     7
 65
   257
 75
     1
175
     1
 42
1.0
 92
       12
 66
     7
 43
1.0
 76
     1
 77
     6
 78
     2
 67
     7
 79
     5
170
     0
171
     0
290
     0
174
     0
 93
        1
 44
0.0
173
     0
291
     1
 45
0.0
  0
DICTIONARYVAR
  5
2FA
102
{ACAD_REACTORS
330
34
102
}
330
34
100
DictionaryVariables
280
     0
  1
1:2
  0
DICTIONARYVAR
  5
2F8
102
{ACAD_REACTORS
330
34
102
}
330
34
100
DictionaryVariables
280
     0
  1
STANDARD
  0
DICTIONARYVAR
  5
140
102
{ACAD_REACTORS
330
34
102
}
330
34
100
DictionaryVariables
280
     0
  1
STANDARD
  0
DICTIONARYVAR
  5
AC
102
{ACAD_REACTORS
330
34
102
}
330
34
100
DictionaryVariables
280
     0
  1
1
  0
DICTIONARYVAR
  5
35
102
{ACAD_REACTORS
330
34
102
}
330
34
100
DictionaryVariables
280
     0
  1
1
  0
DICTIONARYVAR
  5
5220
102
{ACAD_REACTORS
330
34
102
}
330
34
100
DictionaryVariables
280
     0
  1
1
  0
DICTIONARYVAR
  5
5221
102
{ACAD_REACTORS
330
34
102
}
330
34
100
DictionaryVariables
280
     0
  1
15
  0
DICTIONARYVAR
  5
2FB
102
{ACAD_REACTORS
330
34
102
}
330
34
100
DictionaryVariables
280
     0
  1
0
  0
DICTIONARYVAR
  5
2F9
102
{ACAD_REACTORS
330
34
102
}
330
34
100
DictionaryVariables
280
     0
  1
0
  0
DICTIONARY
  5
161B
102
{ACAD_REACTORS
330
49
102
}
330
49
100
AcDbDictionary
281
     1
  0
DICTIONARY
  5
4A
102
{ACAD_REACTORS
330
49
102
}
330
49
100
AcDbDictionary
281
     1
  0
XRECORD
  5
12B
102
{ACAD_REACTORS
330
49
102
}
330
49
100
AcDbXrecord
280
     1
 90
-1023410169
  0
DICTIONARY
  5
2F5
330
122
100
AcDbDictionary
280
     1
281
     1
  3
ACAD_ROUNDTRIP_2008_TABLESTYLE_CELLSTYLEMAP
360
5C00
  0
CELLSTYLEMAP
  5
5C00
102
{ACAD_REACTORS
330
2F5
102
}
330
2F5
100
AcDbCellStyleMap
 90
        3
300
CELLSTYLE
  1
TABLEFORMAT_BEGIN
 90
        5
170
     1
 91
        0
 92
    32768
 62
   257
 93
        1
300
CONTENTFORMAT
  1
CONTENTFORMAT_BEGIN
 90
        0
 91
        0
 92
      512
 93
        0
300

 40
0.0
140
1.0
 94
        5
 62
     0
340
11
144
6.0
309
CONTENTFORMAT_END
171
     1
301
MARGIN
  1
CELLMARGIN_BEGIN
 40
1.5
 40
1.5
 40
1.5
 40
1.5
 40
0.18
 40
0.18
309
CELLMARGIN_END
 94
        6
 95
        1
302
GRIDFORMAT
  1
GRIDFORMAT_BEGIN
 90
        0
 91
        1
 62
     0
 92
       -2
340
0
 93
        0
 40
0.045
309
GRIDFORMAT_END
 95
        2
302
GRIDFORMAT
  1
GRIDFORMAT_BEGIN
 90
        0
 91
        1
 62
     0
 92
       -2
340
0
 93
        0
 40
0.045
309
GRIDFORMAT_END
 95
        4
302
GRIDFORMAT
  1
GRIDFORMAT_BEGIN
 90
        0
 91
        1
 62
     0
 92
       -2
340
0
 93
        0
 40
0.045
309
GRIDFORMAT_END
 95
        8
302
GRIDFORMAT
  1
GRIDFORMAT_BEGIN
 90
        0
 91
        1
 62
     0
 92
       -2
340
0
 93
        0
 40
0.045
309
GRIDFORMAT_END
 95
       16
302
GRIDFORMAT
  1
GRIDFORMAT_BEGIN
 90
        0
 91
        1
 62
     0
 92
       -2
340
0
 93
        0
 40
0.045
309
GRIDFORMAT_END
 95
       32
302
GRIDFORMAT
  1
GRIDFORMAT_BEGIN
 90
        0
 91
        1
 62
     0
 92
       -2
340
0
 93
        0
 40
0.045
309
GRIDFORMAT_END
309
TABLEFORMAT_END
  1
CELLSTYLE_BEGIN
 90
        1
 91
        1
300
_TITLE
309
CELLSTYLE_END
300
CELLSTYLE
  1
TABLEFORMAT_BEGIN
 90
        5
170
     1
 91
        0
 92
        0
 62
   257
 93
        1
300
CONTENTFORMAT
  1
CONTENTFORMAT_BEGIN
 90
        0
 91
        0
 92
      512
 93
        0
300

 40
0.0
140
1.0
 94
        5
 62
     0
340
11
144
4.5
309
CONTENTFORMAT_END
171
     1
301
MARGIN
  1
CELLMARGIN_BEGIN
 40
1.5
 40
1.5
 40
1.5
 40
1.5
 40
0.18
 40
0.18
309
CELLMARGIN_END
 94
        6
 95
        1
302
GRIDFORMAT
  1
GRIDFORMAT_BEGIN
 90
        0
 91
        1
 62
     0
 92
       -2
340
0
 93
        0
 40
0.045
309
GRIDFORMAT_END
 95
        2
302
GRIDFORMAT
  1
GRIDFORMAT_BEGIN
 90
        0
 91
        1
 62
     0
 92
       -2
340
0
 93
        0
 40
0.045
309
GRIDFORMAT_END
 95
        4
302
GRIDFORMAT
  1
GRIDFORMAT_BEGIN
 90
        0
 91
        1
 62
     0
 92
       -2
340
0
 93
        0
 40
0.045
309
GRIDFORMAT_END
 95
        8
302
GRIDFORMAT
  1
GRIDFORMAT_BEGIN
 90
        0
 91
        1
 62
     0
 92
       -2
340
0
 93
        0
 40
0.045
309
GRIDFORMAT_END
 95
       16
302
GRIDFORMAT
  1
GRIDFORMAT_BEGIN
 90
        0
 91
        1
 62
     0
 92
       -2
340
0
 93
        0
 40
0.045
309
GRIDFORMAT_END
 95
       32
302
GRIDFORMAT
  1
GRIDFORMAT_BEGIN
 90
        0
 91
        1
 62
     0
 92
       -2
340
0
 93
        0
 40
0.045
309
GRIDFORMAT_END
309
TABLEFORMAT_END
  1
CELLSTYLE_BEGIN
 90
        2
 91
        1
300
_HEADER
309
CELLSTYLE_END
300
CELLSTYLE
  1
TABLEFORMAT_BEGIN
 90
        5
170
     1
 91
        0
 92
        0
 62
   257
 93
        1
300
CONTENTFORMAT
  1
CONTENTFORMAT_BEGIN
 90
        0
 91
        0
 92
      512
 93
        0
300

 40
0.0
140
1.0
 94
        2
 62
     0
340
11
144
4.5
309
CONTENTFORMAT_END
171
     1
301
MARGIN
  1
CELLMARGIN_BEGIN
 40
1.5
 40
1.5
 40
1.5
 40
1.5
 40
0.18
 40
0.18
309
CELLMARGIN_END
 94
        6
 95
        1
302
GRIDFORMAT
  1
GRIDFORMAT_BEGIN
 90
        0
 91
        1
 62
     0
 92
       -2
340
0
 93
        0
 40
0.045
309
GRIDFORMAT_END
 95
        2
302
GRIDFORMAT
  1
GRIDFORMAT_BEGIN
 90
        0
 91
        1
 62
     0
 92
       -2
340
0
 93
        0
 40
0.045
309
GRIDFORMAT_END
 95
        4
302
GRIDFORMAT
  1
GRIDFORMAT_BEGIN
 90
        0
 91
        1
 62
     0
 92
       -2
340
0
 93
        0
 40
0.045
309
GRIDFORMAT_END
 95
        8
302
GRIDFORMAT
  1
GRIDFORMAT_BEGIN
 90
        0
 91
        1
 62
     0
 92
       -2
340
0
 93
        0
 40
0.045
309
GRIDFORMAT_END
 95
       16
302
GRIDFORMAT
  1
GRIDFORMAT_BEGIN
 90
        0
 91
        1
 62
     0
 92
       -2
340
0
 93
        0
 40
0.045
309
GRIDFORMAT_END
 95
       32
302
GRIDFORMAT
  1
GRIDFORMAT_BEGIN
 90
        0
 91
        1
 62
     0
 92
       -2
340
0
 93
        0
 40
0.045
309
GRIDFORMAT_END
309
TABLEFORMAT_END
  1
CELLSTYLE_BEGIN
 90
        3
 91
        2
300
_DATA
309
CELLSTYLE_END
  0
ENDSEC
  0
EOF
