  0
SECTION
  2
HEADER
  9
$ACADVER
  1
AC1021
  9
$ACADMAINTVER
 70
    26
  9
$DWGCODEPAGE
  3
ANSI_932
  9
$LASTSAVEDBY
  1
Htm_Terada
  9
$CUSTOMPROPERTYTAG
  1
AmdtFileType
  9
$CUSTOMPROPERTY
  1
84
  9
$INSBASE
 10
0.0
 20
0.0
 30
0.0
  9
$EXTMIN
 10
352.5534797999999
 20
251.3369199166667
 30
0.0
  9
$EXTMAX
 10
601.492043117506
 20
572.6766658666666
 30
0.0
  9
$LIMMIN
 10
-0.0000002271699202
 20
0.0
  9
$LIMMAX
 10
1188.00000022717
 20
840.0000000000003
  9
$ORTHOMODE
 70
     0
  9
$REGENMODE
 70
     1
  9
$FILLMODE
 70
     1
  9
$QTEXTMODE
 70
     0
  9
$MIRRTEXT
 70
     1
  9
$LTSCALE
 40
2.0
  9
$ATTMODE
 70
     1
  9
$TEXTSIZE
 40
25.0
  9
$TRACEWID
 40
1.0
  9
$TEXTSTYLE
  7
SEISA
  9
$CLAYER
  8
AM_0 外形線1
  9
$CELTYPE
  6
ByLayer
  9
$CECOLOR
 62
   256
  9
$CELTSCALE
 40
1.0
  9
$DISPSILH
 70
     0
  9
$DIMSCALE
 40
2.0
  9
$DIMASZ
 40
2.5
  9
$DIMEXO
 40
0.625
  9
$DIMDLI
 40
10.0
  9
$DIMRND
 40
0.0
  9
$DIMDLE
 40
0.0
  9
$DIMEXE
 40
0.625
  9
$DIMTP
 40
0.1
  9
$DIMTM
 40
0.1
  9
$DIMTXT
 40
3.5
  9
$DIMCEN
 40
0.0
  9
$DIMTSZ
 40
0.0
  9
$DIMTOL
 70
     0
  9
$DIMLIM
 70
     0
  9
$DIMTIH
 70
     0
  9
$DIMTOH
 70
     0
  9
$DIMSE1
 70
     0
  9
$DIMSE2
 70
     0
  9
$DIMTAD
 70
     3
  9
$DIMZIN
 70
     8
  9
$DIMBLK
  1
Open30
  9
$DIMASO
 70
     1
  9
$DIMSHO
 70
     1
  9
$DIMPOST
  1

  9
$DIMAPOST
  1
"
  9
$DIMALT
 70
     0
  9
$DIMALTD
 70
     2
  9
$DIMALTF
 40
0.0393701
  9
$DIMLFAC
 40
1.0
  9
$DIMTOFL
 70
     1
  9
$DIMTVP
 40
0.0
  9
$DIMTIX
 70
     0
  9
$DIMSOXD
 70
     0
  9
$DIMSAH
 70
     0
  9
$DIMBLK1
  1

  9
$DIMBLK2
  1

  9
$DIMSTYLE
  2
SEISA
  9
$DIMCLRD
 70
     3
  9
$DIMCLRE
 70
     3
  9
$DIMCLRT
 70
     3
  9
$DIMTFAC
 40
0.71
  9
$DIMGAP
 40
1.5
  9
$DIMJUST
 70
     0
  9
$DIMSD1
 70
     0
  9
$DIMSD2
 70
     0
  9
$DIMTOLJ
 70
     0
  9
$DIMTZIN
 70
     0
  9
$DIMALTZ
 70
     0
  9
$DIMALTTZ
 70
     8
  9
$DIMUPT
 70
     0
  9
$DIMDEC
 70
     2
  9
$DIMTDEC
 70
     3
  9
$DIMALTU
 70
     2
  9
$DIMALTTD
 70
     2
  9
$DIMTXSTY
  7
SEISA
  9
$DIMAUNIT
 70
     0
  9
$DIMADEC
 70
     0
  9
$DIMALTRND
 40
0.0
  9
$DIMAZIN
 70
     2
  9
$DIMDSEP
 70
    46
  9
$DIMATFIT
 70
     3
  9
$DIMFRAC
 70
     0
  9
$DIMLDRBLK
  1
Open30
  9
$DIMLUNIT
 70
     2
  9
$DIMLWD
 70
    -1
  9
$DIMLWE
 70
    -1
  9
$DIMTMOVE
 70
     0
  9
$DIMFXL
 40
1.0
  9
$DIMFXLON
 70
     0
  9
$DIMJOGANG
 40
0.7853981633974483
  9
$DIMTFILL
 70
     0
  9
$DIMTFILLCLR
 70
     0
  9
$DIMARCSYM
 70
     1
  9
$DIMLTYPE
  6

  9
$DIMLTEX1
  6

  9
$DIMLTEX2
  6

  9
$LUNITS
 70
     2
  9
$LUPREC
 70
     2
  9
$SKETCHINC
 40
1.0
  9
$FILLETRAD
 40
0.4
  9
$AUNITS
 70
     0
  9
$AUPREC
 70
     0
  9
$MENU
  1
.
  9
$ELEVATION
 40
0.0
  9
$PELEVATION
 40
0.0
  9
$THICKNESS
 40
0.0
  9
$LIMCHECK
 70
     0
  9
$CHAMFERA
 40
0.9999999999999431
  9
$CHAMFERB
 40
1.0
  9
$CHAMFERC
 40
0.9999999999999431
  9
$CHAMFERD
 40
0.7853981633973916
  9
$SKPOLY
 70
     0
  9
$TDCREATE
 40
2454964.405341308
  9
$TDUCREATE
 40
2454964.030341308
  9
$TDUPDATE
 40
2456479.545112848
  9
$TDUUPDATE
 40
2456479.170112847
  9
$TDINDWG
 40
0.2323521296
  9
$TDUSRTIMER
 40
0.2323517708
  9
$USRTIMER
 70
     1
  9
$ANGBASE
 50
0.0
  9
$ANGDIR
 70
     0
  9
$PDMODE
 70
     0
  9
$PDSIZE
 40
0.0
  9
$PLINEWID
 40
0.0
  9
$SPLFRAME
 70
     0
  9
$SPLINETYPE
 70
     6
  9
$SPLINESEGS
 70
     8
  9
$HANDSEED
  5
5ED6
  9
$SURFTAB1
 70
     6
  9
$SURFTAB2
 70
     6
  9
$SURFTYPE
 70
     6
  9
$SURFU
 70
     6
  9
$SURFV
 70
     6
  9
$UCSBASE
  2

  9
$UCSNAME
  2

  9
$UCSORG
 10
0.0
 20
0.0
 30
0.0
  9
$UCSXDIR
 10
1.0
 20
0.0
 30
0.0
  9
$UCSYDIR
 10
0.0
 20
1.0
 30
0.0
  9
$UCSORTHOREF
  2

  9
$UCSORTHOVIEW
 70
     0
  9
$UCSORGTOP
 10
0.0
 20
0.0
 30
0.0
  9
$UCSORGBOTTOM
 10
0.0
 20
0.0
 30
0.0
  9
$UCSORGLEFT
 10
0.0
 20
0.0
 30
0.0
  9
$UCSORGRIGHT
 10
0.0
 20
0.0
 30
0.0
  9
$UCSORGFRONT
 10
0.0
 20
0.0
 30
0.0
  9
$UCSORGBACK
 10
0.0
 20
0.0
 30
0.0
  9
$PUCSBASE
  2

  9
$PUCSNAME
  2

  9
$PUCSORG
 10
0.0
 20
0.0
 30
0.0
  9
$PUCSXDIR
 10
1.0
 20
0.0
 30
0.0
  9
$PUCSYDIR
 10
0.0
 20
1.0
 30
0.0
  9
$PUCSORTHOREF
  2

  9
$PUCSORTHOVIEW
 70
     0
  9
$PUCSORGTOP
 10
0.0
 20
0.0
 30
0.0
  9
$PUCSORGBOTTOM
 10
0.0
 20
0.0
 30
0.0
  9
$PUCSORGLEFT
 10
0.0
 20
0.0
 30
0.0
  9
$PUCSORGRIGHT
 10
0.0
 20
0.0
 30
0.0
  9
$PUCSORGFRONT
 10
0.0
 20
0.0
 30
0.0
  9
$PUCSORGBACK
 10
0.0
 20
0.0
 30
0.0
  9
$USERI1
 70
     0
  9
$USERI2
 70
     0
  9
$USERI3
 70
     0
  9
$USERI4
 70
     0
  9
$USERI5
 70
     0
  9
$USERR1
 40
0.0
  9
$USERR2
 40
0.0
  9
$USERR3
 40
0.0
  9
$USERR4
 40
0.0
  9
$USERR5
 40
0.0
  9
$WORLDVIEW
 70
     1
  9
$SHADEDGE
 70
     3
  9
$SHADEDIF
 70
    70
  9
$TILEMODE
 70
     1
  9
$MAXACTVP
 70
    64
  9
$PINSBASE
 10
0.0
 20
0.0
 30
0.0
  9
$PLIMCHECK
 70
     0
  9
$PEXTMIN
 10
1.000000000000000E+20
 20
1.000000000000000E+20
 30
1.000000000000000E+20
  9
$PEXTMAX
 10
-1.000000000000000E+20
 20
-1.000000000000000E+20
 30
-1.000000000000000E+20
  9
$PLIMMIN
 10
0.0
 20
0.0
  9
$PLIMMAX
 10
420.0
 20
297.0
  9
$UNITMODE
 70
     0
  9
$VISRETAIN
 70
     1
  9
$PLINEGEN
 70
     0
  9
$PSLTSCALE
 70
     1
  9
$TREEDEPTH
 70
  3020
  9
$CMLSTYLE
  2
Standard
  9
$CMLJUST
 70
     0
  9
$CMLSCALE
 40
20.0
  9
$PROXYGRAPHICS
 70
     1
  9
$MEASUREMENT
 70
     1
  9
$CELWEIGHT
370
    -1
  9
$ENDCAPS
280
     0
  9
$JOINSTYLE
280
     0
  9
$LWDISPLAY
290
     0
  9
$INSUNITS
 70
     4
  9
$HYPERLINKBASE
  1

  9
$STYLESHEET
  1
SEISA.CTB
  9
$XEDIT
290
     1
  9
$CEPSNTYPE
380
     0
  9
$PSTYLEMODE
290
     1
  9
$FINGERPRINTGUID
  2
{040C3D19-443C-4964-AE9E-4A998FDFA6D6}
  9
$VERSIONGUID
  2
{42FFB815-50ED-44E5-A59B-EC0CF42DD2E6}
  9
$EXTNAMES
290
     1
  9
$PSVPSCALE
 40
0.0
  9
$OLESTARTUP
290
     0
  9
$SORTENTS
280
   127
  9
$INDEXCTL
280
     0
  9
$HIDETEXT
280
     0
  9
$XCLIPFRAME
290
     0
  9
$HALOGAP
280
     0
  9
$OBSCOLOR
 70
   257
  9
$OBSLTYPE
280
     0
  9
$INTERSECTIONDISPLAY
280
     0
  9
$INTERSECTIONCOLOR
 70
   257
  9
$DIMASSOC
280
     2
  9
$PROJECTNAME
  1

  9
$CAMERADISPLAY
290
     0
  9
$LENSLENGTH
 40
50.0
  9
$CAMERAHEIGHT
 40
0.0
  9
$STEPSPERSEC
 40
2.0
  9
$STEPSIZE
 40
6.0
  9
$3DDWFPREC
 40
2.0
  9
$PSOLWIDTH
 40
0.25
  9
$PSOLHEIGHT
 40
4.0
  9
$LOFTANG1
 40
1.570796326794896
  9
$LOFTANG2
 40
1.570796326794896
  9
$LOFTMAG1
 40
0.0
  9
$LOFTMAG2
 40
0.0
  9
$LOFTPARAM
 70
     7
  9
$LOFTNORMALS
280
     1
  9
$LATITUDE
 40
37.795
  9
$LONGITUDE
 40
-122.394
  9
$NORTHDIRECTION
 40
0.0
  9
$TIMEZONE
 70
 -8000
  9
$LIGHTGLYPHDISPLAY
280
     1
  9
$TILEMODELIGHTSYNCH
280
     1
  9
$CMATERIAL
347
27C
  9
$SOLIDHIST
280
     1
  9
$SHOWHIST
280
     1
  9
$DWFFRAME
280
     2
  9
$DGNFRAME
280
     0
  9
$REALWORLDSCALE
290
     1
  9
$INTERFERECOLOR
 62
     1
  9
$INTERFEREOBJVS
345
289
  9
$INTERFEREVPVS
346
286
  9
$CSHADOW
280
     0
  9
$SHADOWPLANELOCATION
 40
0.0
  0
ENDSEC
  0
SECTION
  2
CLASSES
  0
CLASS
  1
ACDBDICTIONARYWDFLT
  2
AcDbDictionaryWithDefault
  3
ObjectDBX Classes
 90
        0
 91
        1
280
     0
281
     0
  0
CLASS
  1
AMGSETTINGSOBJ
  2
AmgSettingsObj
  3
"AcadM|Product Description: AutoCAD Mechanical|Company: Autodesk, Inc."
 90
     1024
 91
        2
280
     0
281
     0
  0
CLASS
  1
ACME_DOCUMENT
  2
AcMeDbDoc
  3
AcMeServices
 90
     1024
 91
        1
280
     0
281
     0
  0
CLASS
  1
ACMESCOPE
  2
AcMeScope
  3
AcMeServices
 90
     1024
 91
        1
280
     0
281
     0
  0
CLASS
  1
ACMECOMMANDHISTORY
  2
AcMeCommandHistory
  3
AcMeServices
 90
     1024
 91
        1
280
     0
281
     0
  0
CLASS
  1
DICTIONARYVAR
  2
AcDbDictionaryVar
  3
ObjectDBX Classes
 90
        0
 91
        9
280
     0
281
     0
  0
CLASS
  1
ACIMSYSVARMAN
  2
AcImSysVarManager
  3
AcMeServices
 90
     1024
 91
        5
280
     0
281
     0
  0
CLASS
  1
ACIMREALSYSVAR
  2
AcImRealSysVar
  3
AcMeServices
 90
     1024
 91
        1
280
     0
281
     0
  0
CLASS
  1
ACIMINTSYSVAR
  2
AcImIntSysVar
  3
AcMeServices
 90
     1024
 91
       27
280
     0
281
     0
  0
CLASS
  1
ACMEDRAWINGMAN
  2
AcMeDrawingMan
  3
AcMeServices
 90
     1024
 91
        1
280
     0
281
     0
  0
CLASS
  1
ACMEVIEW
  2
AcMeView
  3
AcMeServices
 90
     1024
 91
        1
280
     0
281
     0
  0
CLASS
  1
ACDBENTITYCACHE
  2
AcMeEntityCache
  3
AcMeServices
 90
     1024
 91
        1
280
     0
281
     0
  0
CLASS
  1
GSMANAGER
  2
AcMeGSManager
  3
AcMeServices
 90
     1024
 91
        1
280
     0
281
     0
  0
CLASS
  1
AMDTINTERNALREACTOR
  2
AmdtInternalReactor
  3
AcMeServices
 90
     1024
 91
        2
280
     0
281
     0
  0
CLASS
  1
ACMESTATEMGR
  2
AcMeStateMgr
  3
AcMeServices
 90
     1024
 91
        1
280
     0
281
     0
  0
CLASS
  1
ACGREFMASTER
  2
AcGrefMaster
  3
AcAttribServices
 90
     1024
 91
        1
280
     0
281
     0
  0
CLASS
  1
ACME_DATABASE
  2
AcMeDbDatabase
  3
AcMeServices
 90
     1024
 91
        1
280
     0
281
     0
  0
CLASS
  1
ACRFINSADJUSTERMGR
  2
AcRfInsAdjusterMgr
  3
AcMeServices
 90
     1024
 91
        1
280
     0
281
     0
  0
CLASS
  1
ACGREFACADMASTER
  2
AcGrefacadMaster
  3
AcGrefServices
 90
     1024
 91
        1
280
     0
281
     0
  0
CLASS
  1
AMIMASTER
  2
AmiMaster
  3
AmiServices
 90
     1024
 91
        1
280
     0
281
     0
  0
CLASS
  1
ACIMSTRSYSVAR
  2
AcImStrSysVar
  3
AcMeServices
 90
     1024
 91
        5
280
     0
281
     0
  0
CLASS
  1
ACMSTANDARDJIS
  2
AcmStandardJIS
  3
"Amdt_StdImp|Product Description: AutoCAD Mechanical|Company: Autodesk, Inc."
 90
     1024
 91
        0
280
     0
281
     0
  0
CLASS
  1
AMGOBJPROPCFG
  2
AmgObjPropCfg
  3
"AmgLay|Product Description: AutoCAD Mechanical|Company: Autodesk, Inc."
 90
     1025
 91
        1
280
     0
281
     0
  0
CLASS
  1
ACMSURFSTANDARDJIS
  2
AcmSurfTextStdJIS
  3
"Amdt_StdImp|Product Description: AutoCAD Mechanical|Company: Autodesk, Inc."
 90
     1024
 91
        0
280
     0
281
     0
  0
CLASS
  1
ACMFCFSTANDARDJIS
  2
AcmFCFStdJIS
  3
"Amdt_StdImp|Product Description: AutoCAD Mechanical|Company: Autodesk, Inc."
 90
     1024
 91
        0
280
     0
281
     0
  0
CLASS
  1
ACMWELDSTANDARDJIS
  2
AcmWeldingStdJIS
  3
"Amdt_StdImp|Product Description: AutoCAD Mechanical|Company: Autodesk, Inc."
 90
     1024
 91
        0
280
     0
281
     0
  0
CLASS
  1
ACMIDSTANDARDJIS
  2
AcmIdStdJIS
  3
"Amdt_StdImp|Product Description: AutoCAD Mechanical|Company: Autodesk, Inc."
 90
     1024
 91
        0
280
     0
281
     0
  0
CLASS
  1
ACMDATUMSTANDARDJIS
  2
AcmDatumStdJIS
  3
"Amdt_StdImp|Product Description: AutoCAD Mechanical|Company: Autodesk, Inc."
 90
     1024
 91
        0
280
     0
281
     0
  0
CLASS
  1
ACMBOMSTANDARDJIS
  2
AcmBOMStdJIS
  3
"Amdt_StdImp|Product Description: AutoCAD Mechanical|Company: Autodesk, Inc."
 90
     1024
 91
        0
280
     0
281
     0
  0
CLASS
  1
ACMDETAILSTANDARDJIS
  2
AmdtDetailSymStdJIS
  3
"Amdt_StdImp|Product Description: AutoCAD Mechanical|Company: Autodesk, Inc."
 90
     1024
 91
        0
280
     0
281
     0
  0
CLASS
  1
ACMSECTIONSTANDARDJIS
  2
AmdtSectionSymStdJIS
  3
"Amdt_StdImp|Product Description: AutoCAD Mechanical|Company: Autodesk, Inc."
 90
     1024
 91
        0
280
     0
281
     0
  0
CLASS
  1
ACMCENTERLINESTANDARDJIS
  2
AmdtCenterLineStdJIS
  3
"Amdt_StdImp|Product Description: AutoCAD Mechanical|Company: Autodesk, Inc."
 90
     1024
 91
        0
280
     0
281
     0
  0
CLASS
  1
ACMTHREADLINESTANDARDJIS
  2
AmdtThreadLineStdJIS
  3
"Amdt_StdImp|Product Description: AutoCAD Mechanical|Company: Autodesk, Inc."
 90
     1024
 91
        0
280
     0
281
     0
  0
CLASS
  1
ACAMGLAYSTD
  2
AcAmgLayStd
  3
"AmgLay|Product Description: AutoCAD Mechanical|Company: Autodesk, Inc."
 90
     1024
 91
        1
280
     0
281
     0
  0
CLASS
  1
ACAMGDIMSTD
  2
AcAmgDimStd
  3
"AmgDim|Product Description: AutoCAD Mechanical|Company: Autodesk, Inc."
 90
     1024
 91
        1
280
     0
281
     0
  0
CLASS
  1
ACAMGTITLESTD
  2
AcAmgTitleStd
  3
"AmgTitle|Product Description: AutoCAD Mechanical|Company: Autodesk, Inc."
 90
     4095
 91
        1
280
     0
281
     0
  0
CLASS
  1
ACMDATADICTIONARY
  2
AcmDataDictionary
  3
"AcmSymBB|Product Description: AutoCAD Mechanical|Company: Autodesk, Inc."
 90
     1024
 91
        1
280
     0
281
     0
  0
CLASS
  1
ACMDATAENTRYBLOCK
  2
AcmDataEntryBlock
  3
AcmSymBB|Product Description: AutoCAD Mechanical|Company: Autodesk, Inc.
 90
     1024
 91
        0
280
     0
281
     0
  0
CLASS
  1
LAYER_INDEX
  2
AcDbLayerIndex
  3
ObjectDBX Classes
 90
        0
 91
        0
280
     0
281
     0
  0
CLASS
  1
IDBUFFER
  2
AcDbIdBuffer
  3
ObjectDBX Classes
 90
        0
 91
        0
280
     0
281
     0
  0
CLASS
  1
ACMNOTESTANDARDJIS
  2
AmdtNoteStdJIS
  3
"Amdt_StdImp|Product Description: AutoCAD Mechanical|Company: Autodesk, Inc."
 90
     1024
 91
        0
280
     0
281
     0
  0
CLASS
  1
ACAMGHOLECHARTSTDJIS
  2
AcAmgHoleChartStdJIS
  3
AmgDim|Product Description: AutoCAD Mechanical|Company: Autodesk, Inc.
 90
     1024
 91
        0
280
     0
281
     0
  0
CLASS
  1
AM_DRAWING_MGR
  2
AcDmDwgMgr
  3
AcMechDwgViewMgmt
 90
     1024
 91
        1
280
     0
281
     0
  0
CLASS
  1
AM_DWG_DOCUMENT
  2
AcDmDwgDocument
  3
AcMechDwgViewMgmt
 90
     1024
 91
        1
280
     0
281
     0
  0
CLASS
  1
AM_DWG_SHEET
  2
AcDmSheet
  3
AcMechDwgViewMgmt
 90
     1024
 91
        2
280
     0
281
     0
  0
CLASS
  1
AM_VIEWDIMPARMAP
  2
AcDmViewDimParMap
  3
AcMechDwgViewMgmt
 90
     1024
 91
        2
280
     0
281
     0
  0
CLASS
  1
AM_DWGMGR_NAME
  2
AcDmDwgMgrName
  3
AcMechDwgViewMgmt
 90
     1024
 91
        1
280
     0
281
     0
  0
CLASS
  1
AMDTMENUSTATEMGR
  2
AmdtMenuStateMgr
  3
McadcomServices
 90
     1024
 91
        1
280
     0
281
     0
  0
CLASS
  1
AMDTMCOMMENUSTATE
  2
AmdtMcomMenuState
  3
McadcomServices
 90
     1024
 91
        1
280
     0
281
     0
  0
CLASS
  1
MAPIAMMOUDLE
  2
MApiAmModule
  3
MApiAmServices
 90
     1024
 91
        1
280
     0
281
     0
  0
CLASS
  1
AMDTADMENUSTATE
  2
AmdtAdMenuState
  3
DesignerServices
 90
     1024
 91
        1
280
     0
281
     0
  0
CLASS
  1
ADAPPL
  2
AcAdAppl
  3
DesignerServices
 90
     1024
 91
        1
280
     0
281
     0
  0
CLASS
  1
DEPMGR
  2
AcAdDepMgr
  3
DesignerServices
 90
     1024
 91
        1
280
     0
281
     0
  0
CLASS
  1
PARAMMGR
  2
AcAdParamMgr
  3
DesignerServices
 90
     1024
 91
        1
280
     0
281
     0
  0
CLASS
  1
PARAMSCOPE
  2
AcAdParamScope
  3
DesignerServices
 90
     1024
 91
        1
280
     0
281
     0
  0
CLASS
  1
NAMEDAPPL
  2
AcAdNamedAppl
  3
DesignerServices
 90
     1024
 91
        1
280
     0
281
     0
  0
CLASS
  1
AMDTDMMENUSTATE
  2
AmdtDmMenuState
  3
AcMechDwgViewMgmt
 90
     1024
 91
        1
280
     0
281
     0
  0
CLASS
  1
AMDTAMMENUSTATE
  2
AmdtAmMenuState
  3
DesignerAssemblies
 90
     1024
 91
        1
280
     0
281
     0
  0
CLASS
  1
ACAMPROJECT
  2
AcAmProject
  3
DesignerAssemblies
 90
     1024
 91
        1
280
     0
281
     0
  0
CLASS
  1
ACAMGRCOMPDEF
  2
AcAmGrCompDef
  3
DesignerAssemblies
 90
     1024
 91
        1
280
     0
281
     0
  0
CLASS
  1
ACCMCONTEXT
  2
AcCmContext
  3
DesignerAssemblies
 90
     1024
 91
        1
280
     0
281
     0
  0
CLASS
  1
ACAMCOMPDEF
  2
AcAmCompDef
  3
DesignerAssemblies
 90
     1024
 91
        1
280
     0
281
     0
  0
CLASS
  1
ACAMCOMPDEFMGR
  2
AcAmCompDefMgr
  3
DesignerAssemblies
 90
     1024
 91
        1
280
     0
281
     0
  0
CLASS
  1
AMCONTEXTMGR
  2
AcAmContextMgr
  3
DesignerAssemblies
 90
     1024
 91
        1
280
     0
281
     0
  0
CLASS
  1
ACAMCONTEXTMODELER
  2
AcAmContextModeler
  3
DesignerAssemblies
 90
     1024
 91
        1
280
     0
281
     0
  0
CLASS
  1
CATALOGSTATE
  2
AcAmCatalogState
  3
DesignerAssemblies
 90
     1024
 91
        1
280
     0
281
     0
  0
CLASS
  1
ACAMGRCOMPDEFSET
  2
AcAmGrCompDefSet
  3
DesignerAssemblies
 90
     1024
 91
        1
280
     0
281
     0
  0
CLASS
  1
AMDTBROWSERDBTAB
  2
AmdtBrowserDbTab
  3
McadcomServices
 90
     1024
 91
        1
280
     0
281
     0
  0
CLASS
  1
CBROWSERAPPOBJECT
  2
CBrowserAppObject
  3
McadcomServices
 90
     1024
 91
        3
280
     0
281
     0
  0
CLASS
  1
DM_PLACEHOLDER
  2
AcDmSelsetPlaceholder
  3
AcMechDwgViewMgmt
 90
     1024
 91
        1
280
     0
281
     0
  0
CLASS
  1
TABLESTYLE
  2
AcDbTableStyle
  3
ObjectDBX Classes
 90
     4095
 91
        1
280
     0
281
     0
  0
CLASS
  1
VAACXREFPANELOBJECT
  2
VaAcXREFPanelObject
  3
VAAC_ADDIN
 90
        0
 91
        0
280
     0
281
     0
  0
CLASS
  1
VAACIMAGEINVENTORY
  2
VaAcImageInventory
  3
VAAC_ADDIN
 90
        0
 91
        0
280
     0
281
     0
  0
CLASS
  1
AMDTNOTETEMPLATEDB
  2
AmdtNoteTemplateDB
  3
AcmSymBB|Product Description: AutoCAD Mechanical|Company: Autodesk, Inc.
 90
     1024
 91
        6
280
     0
281
     0
  0
CLASS
  1
ACAMGFILTERDAT
  2
AcAmgFilterDat
  3
"AcadM|Product Description: AutoCAD Mechanical|Company: Autodesk, Inc."
 90
     1024
 91
        0
280
     0
281
     0
  0
CLASS
  1
MATERIAL
  2
AcDbMaterial
  3
ObjectDBX Classes
 90
     1153
 91
        3
280
     0
281
     0
  0
CLASS
  1
VISUALSTYLE
  2
AcDbVisualStyle
  3
ObjectDBX Classes
 90
     4095
 91
       16
280
     0
281
     0
  0
CLASS
  1
ACRFATTGENMGR
  2
AcRfAttGeneralMgr
  3
AcAttribServices
 90
     1024
 91
        0
280
     0
281
     0
  0
CLASS
  1
ACRFOBJATTMGR
  2
AcRfObjAttGroupMgr
  3
AcAttribServices
 90
     1024
 91
        0
280
     0
281
     0
  0
CLASS
  1
ACRFMCADAPIATTHOLDER
  2
AcRfMCADAPIAttHolder
  3
AcAttribServices
 90
     1024
 91
        0
280
     0
281
     0
  0
CLASS
  1
AMDTSYSATTR
  2
AmdtSystemAttribute
  3
AcAttribServices
 90
     1024
 91
        0
280
     0
281
     0
  0
CLASS
  1
ACMTAPERSTANDARDJIS
  2
AcmTaperStdJIS
  3
"Amdt_StdImp|Product Description: AutoCAD Mechanical|Company: Autodesk, Inc."
 90
     1024
 91
        0
280
     0
281
     0
  0
CLASS
  1
CAMSSTRUCTBTNSTATE
  2
StructBtnState
  3
DesignerAssemblies
 90
     1024
 91
        0
280
     0
281
     0
  0
CLASS
  1
SCALE
  2
AcDbScale
  3
ObjectDBX Classes
 90
     1153
 91
       34
280
     0
281
     0
  0
CLASS
  1
MLEADERSTYLE
  2
AcDbMLeaderStyle
  3
ACDB_MLEADERSTYLE_CLASS
 90
     4095
 91
        1
280
     0
281
     0
  0
CLASS
  1
ACMANOOTATIONVIEWSTANDARDJIS
  2
AmdtAnViewStdJIS
  3
"Amdt_StdImp|Product Description: AutoCAD Mechanical|Company: Autodesk, Inc."
 90
     1024
 91
        0
280
     0
281
     0
  0
CLASS
  1
ACMSURFSTANDARDJIS2003
  2
AcmSurfTextStdJIS2003
  3
"Amdt_StdImp|Product Description: AutoCAD Mechanical|Company: Autodesk, Inc."
 90
     1024
 91
        0
280
     0
281
     0
  0
CLASS
  1
CELLSTYLEMAP
  2
AcDbCellStyleMap
  3
ObjectDBX Classes
 90
     1152
 91
        2
280
     0
281
     0
  0
CLASS
  1
ACMFCFSTANDARDJIS98
  2
AcmFCFStdJIS98
  3
"Amdt_StdImp|Product Description: AutoCAD Mechanical|Company: Autodesk, Inc."
 90
     1024
 91
        0
280
     0
281
     0
  0
CLASS
  1
SORTENTSTABLE
  2
AcDbSortentsTable
  3
ObjectDBX Classes
 90
        0
 91
       11
280
     0
281
     0
  0
CLASS
  1
DIMASSOC
  2
AcDbDimAssoc
  3
"AcDbDimAssoc|Product Desc:     AcDim ARX App For Dimension|Company:          Autodesk, Inc.|WEB Address:      www.autodesk.com"
 90
        0
 91
       15
280
     0
281
     0
  0
CLASS
  1
STDPART2D
  2
AmgStdPart
  3
AmgStdPart|Product Description: AutoCAD Mechanical|Company: Autodesk, Inc.
 90
     4095
 91
        0
280
     0
281
     1
  0
CLASS
  1
ACMDATAENTRYPART
  2
AcmDataEntryPart
  3
AcmSymBB|Product Description: AutoCAD Mechanical|Company: Autodesk, Inc.
 90
     1024
 91
        0
280
     0
281
     0
  0
CLASS
  1
ACMPARTREF
  2
AcmPartRef
  3
"AcmSymBB|Product Description: AutoCAD Mechanical|Company: Autodesk, Inc."
 90
     4095
 91
        0
280
     0
281
     1
  0
CLASS
  1
ACDBSTDPARTRES_LINE
  2
AcDbStdPartRes_Line
  3
AmgStdPart|Product Description: AutoCAD Mechanical|Company: Autodesk, Inc.
 90
     1024
 91
        0
280
     0
281
     0
  0
CLASS
  1
ACMBOM
  2
AcmBom
  3
"AcmSymBB|Product Description: AutoCAD Mechanical|Company: Autodesk, Inc."
 90
     1024
 91
        0
280
     0
281
     0
  0
CLASS
  1
AMDTFORMULAUPDATEDISPATCHER
  2
AmdtFormulaUpdateDispatcher
  3
AcMeServices
 90
     1024
 91
        0
280
     0
281
     0
  0
CLASS
  1
ACMBOMROW
  2
AcmBomRow
  3
"AcmSymBB|Product Description: AutoCAD Mechanical|Company: Autodesk, Inc."
 90
     1024
 91
        0
280
     0
281
     0
  0
CLASS
  1
ACMPARTLIST
  2
AcmPartList
  3
"AcmSymBB|Product Description: AutoCAD Mechanical|Company: Autodesk, Inc."
 90
     4095
 91
        0
280
     0
281
     1
  0
CLASS
  1
ACDBLINERES
  2
AcDbLineRes
  3
AcGrefServices
 90
     1024
 91
        0
280
     0
281
     0
  0
CLASS
  1
ACRFINSADJ
  2
AcRfInsAdjuster
  3
AcMeServices
 90
     1024
 91
        0
280
     0
281
     0
  0
CLASS
  1
ACMSTANDARDISO
  2
AcmStandardISO
  3
"Amdt_StdImp|Product Description: AutoCAD Mechanical|Company: Autodesk, Inc."
 90
     1024
 91
        1
280
     0
281
     0
  0
CLASS
  1
AMDTEDGESTANDARDISO13715
  2
AmdtEdgeStdISO13715
  3
"Amdt_StdImp|Product Description: AutoCAD Mechanical|Company: Autodesk, Inc."
 90
     1024
 91
        1
280
     0
281
     0
  0
CLASS
  1
ACMSURFSTANDARDISO2002
  2
AcmSurfTextStdISO2002
  3
"Amdt_StdImp|Product Description: AutoCAD Mechanical|Company: Autodesk, Inc."
 90
     1024
 91
        1
280
     0
281
     0
  0
CLASS
  1
ACMFCFSTANDARDISO
  2
AcmFCFStdISO
  3
"Amdt_StdImp|Product Description: AutoCAD Mechanical|Company: Autodesk, Inc."
 90
     1024
 91
        1
280
     0
281
     0
  0
CLASS
  1
ACMWELDSTANDARDISO
  2
AcmWeldingStdISO
  3
"Amdt_StdImp|Product Description: AutoCAD Mechanical|Company: Autodesk, Inc."
 90
     1024
 91
        1
280
     0
281
     0
  0
CLASS
  1
ACMIDSTANDARDISO
  2
AcmIdStdISO
  3
"Amdt_StdImp|Product Description: AutoCAD Mechanical|Company: Autodesk, Inc."
 90
     1024
 91
        1
280
     0
281
     0
  0
CLASS
  1
ACMDATUMSTANDARDISO
  2
AcmDatumStdISO
  3
"Amdt_StdImp|Product Description: AutoCAD Mechanical|Company: Autodesk, Inc."
 90
     1024
 91
        1
280
     0
281
     0
  0
CLASS
  1
ACMBOMSTANDARDISO
  2
AcmBOMStdISO
  3
"Amdt_StdImp|Product Description: AutoCAD Mechanical|Company: Autodesk, Inc."
 90
     1024
 91
        1
280
     0
281
     0
  0
CLASS
  1
ACMDETAILSTANDARDISO
  2
AmdtDetailSymStdISO
  3
"Amdt_StdImp|Product Description: AutoCAD Mechanical|Company: Autodesk, Inc."
 90
     1024
 91
        1
280
     0
281
     0
  0
CLASS
  1
ACMSECTIONSTANDARDISO2001
  2
AmdtSectionSymStdISO2001
  3
"Amdt_StdImp|Product Description: AutoCAD Mechanical|Company: Autodesk, Inc."
 90
     1024
 91
        1
280
     0
281
     0
  0
CLASS
  1
ACMCENTERLINESTANDARDISO
  2
AmdtCenterLineStdISO
  3
"Amdt_StdImp|Product Description: AutoCAD Mechanical|Company: Autodesk, Inc."
 90
     1024
 91
        1
280
     0
281
     0
  0
CLASS
  1
ACMTHREADLINESTANDARDISO
  2
AmdtThreadLineStdISO
  3
"Amdt_StdImp|Product Description: AutoCAD Mechanical|Company: Autodesk, Inc."
 90
     1024
 91
        1
280
     0
281
     0
  0
CLASS
  1
ACMNOTESTANDARDISO
  2
AmdtNoteStdISO
  3
"Amdt_StdImp|Product Description: AutoCAD Mechanical|Company: Autodesk, Inc."
 90
     1024
 91
        1
280
     0
281
     0
  0
CLASS
  1
ACMTAPERSTANDARDISO
  2
AcmTaperStdISO
  3
"Amdt_StdImp|Product Description: AutoCAD Mechanical|Company: Autodesk, Inc."
 90
     1024
 91
        1
280
     0
281
     0
  0
CLASS
  1
ACMANOOTATIONVIEWSTANDARDISO
  2
AmdtAnViewStdISO
  3
"Amdt_StdImp|Product Description: AutoCAD Mechanical|Company: Autodesk, Inc."
 90
     1024
 91
        1
280
     0
281
     0
  0
CLASS
  1
ACAMGHOLECHARTSTDISO
  2
AcAmgHoleChartStdISO
  3
AmgDim|Product Description: AutoCAD Mechanical|Company: Autodesk, Inc.
 90
     1024
 91
        1
280
     0
281
     0
  0
CLASS
  1
EXACXREFPANELOBJECT
  2
ExAcXREFPanelObject
  3
EXAC_ESW
 90
     1025
 91
        0
280
     0
281
     0
  0
CLASS
  1
NPOCOLLECTION
  2
AcDbImpNonPersistentObjectsCollection
  3
ObjectDBX Classes
 90
     1153
 91
        0
280
     0
281
     0
  0
CLASS
  1
ACDBSTDPARTRES_ARC
  2
AcDbStdPartRes_Arc
  3
AmgStdPart|Product Description: AutoCAD Mechanical|Company: Autodesk, Inc.
 90
     1024
 91
        0
280
     0
281
     0
  0
CLASS
  1
AMDTNOTE
  2
AmdtNote
  3
"AcmSymBB|Product Description: AutoCAD Mechanical|Company: Autodesk, Inc."
 90
     4095
 91
        0
280
     0
281
     1
  0
CLASS
  1
PLOTSETTINGS
  2
AcDbPlotSettings
  3
ObjectDBX Classes
 90
        0
 91
        1
280
     0
281
     0
  0
CLASS
  1
ACMSTANDARDANSI
  2
AcmStandardANSI
  3
"Amdt_StdImp|Product Description: AutoCAD Mechanical|Company: Autodesk, Inc."
 90
     1024
 91
        0
280
     0
281
     0
  0
CLASS
  1
ACMSURFSTANDARDANSI
  2
AcmSurfTextStdANSI
  3
"Amdt_StdImp|Product Description: AutoCAD Mechanical|Company: Autodesk, Inc."
 90
     1024
 91
        0
280
     0
281
     0
  0
CLASS
  1
ACMFCFSTANDARDANSI
  2
AcmFCFStdANSI
  3
"Amdt_StdImp|Product Description: AutoCAD Mechanical|Company: Autodesk, Inc."
 90
     1024
 91
        0
280
     0
281
     0
  0
CLASS
  1
ACMWELDSTANDARDANSI
  2
AcmWeldingStdANSI
  3
"Amdt_StdImp|Product Description: AutoCAD Mechanical|Company: Autodesk, Inc."
 90
     1024
 91
        0
280
     0
281
     0
  0
CLASS
  1
ACMIDSTANDARDANSI
  2
AcmIdStdANSI
  3
"Amdt_StdImp|Product Description: AutoCAD Mechanical|Company: Autodesk, Inc."
 90
     1024
 91
        0
280
     0
281
     0
  0
CLASS
  1
ACMDATUMSTANDARDANSI
  2
AcmDatumStdANSI
  3
"Amdt_StdImp|Product Description: AutoCAD Mechanical|Company: Autodesk, Inc."
 90
     1024
 91
        0
280
     0
281
     0
  0
CLASS
  1
ACMBOMSTANDARDANSI
  2
AcmBOMStdANSI
  3
"Amdt_StdImp|Product Description: AutoCAD Mechanical|Company: Autodesk, Inc."
 90
     1024
 91
        0
280
     0
281
     0
  0
CLASS
  1
ACMDETAILSTANDARDANSI
  2
AmdtDetailSymStdANSI
  3
"Amdt_StdImp|Product Description: AutoCAD Mechanical|Company: Autodesk, Inc."
 90
     1024
 91
        0
280
     0
281
     0
  0
CLASS
  1
ACMSECTIONSTANDARDANSI
  2
AmdtSectionSymStdANSI
  3
"Amdt_StdImp|Product Description: AutoCAD Mechanical|Company: Autodesk, Inc."
 90
     1024
 91
        0
280
     0
281
     0
  0
CLASS
  1
ACMCENTERLINESTANDARDANSI
  2
AmdtCenterLineStdANSI
  3
"Amdt_StdImp|Product Description: AutoCAD Mechanical|Company: Autodesk, Inc."
 90
     1024
 91
        0
280
     0
281
     0
  0
CLASS
  1
ACMTHREADLINESTANDARDANSI
  2
AmdtThreadLineStdANSI
  3
"Amdt_StdImp|Product Description: AutoCAD Mechanical|Company: Autodesk, Inc."
 90
     1024
 91
        0
280
     0
281
     0
  0
CLASS
  1
ACMNOTESTANDARDANSI
  2
AmdtNoteStdANSI
  3
"Amdt_StdImp|Product Description: AutoCAD Mechanical|Company: Autodesk, Inc."
 90
     1024
 91
        0
280
     0
281
     0
  0
CLASS
  1
ACMTAPERSTANDARDANSI
  2
AcmTaperStdANSI
  3
"Amdt_StdImp|Product Description: AutoCAD Mechanical|Company: Autodesk, Inc."
 90
     1024
 91
        0
280
     0
281
     0
  0
CLASS
  1
ACMANOOTATIONVIEWSTANDARDANSI
  2
AmdtAnViewStdANSI
  3
"Amdt_StdImp|Product Description: AutoCAD Mechanical|Company: Autodesk, Inc."
 90
     1024
 91
        0
280
     0
281
     0
  0
CLASS
  1
ACAMGHOLECHARTSTDANSI
  2
AcAmgHoleChartStdANSI
  3
AmgDim|Product Description: AutoCAD Mechanical|Company: Autodesk, Inc.
 90
     1024
 91
        0
280
     0
281
     0
  0
CLASS
  1
ACMSTANDARDBSI
  2
AcmStandardBSI
  3
"Amdt_StdImp|Product Description: AutoCAD Mechanical|Company: Autodesk, Inc."
 90
     1024
 91
        0
280
     0
281
     0
  0
CLASS
  1
ACMSURFSTANDARDBSI2002
  2
AcmSurfTextStdBSI2002
  3
"Amdt_StdImp|Product Description: AutoCAD Mechanical|Company: Autodesk, Inc."
 90
     1024
 91
        0
280
     0
281
     0
  0
CLASS
  1
ACMFCFSTANDARDBSI
  2
AcmFCFStdBSI
  3
"Amdt_StdImp|Product Description: AutoCAD Mechanical|Company: Autodesk, Inc."
 90
     1024
 91
        0
280
     0
281
     0
  0
CLASS
  1
ACMWELDSTANDARDBSI
  2
AcmWeldingStdBSI
  3
"Amdt_StdImp|Product Description: AutoCAD Mechanical|Company: Autodesk, Inc."
 90
     1024
 91
        0
280
     0
281
     0
  0
CLASS
  1
ACMIDSTANDARDBSI
  2
AcmIdStdBSI
  3
"Amdt_StdImp|Product Description: AutoCAD Mechanical|Company: Autodesk, Inc."
 90
     1024
 91
        0
280
     0
281
     0
  0
CLASS
  1
ACMDATUMSTANDARDBSI
  2
AcmDatumStdBSI
  3
"Amdt_StdImp|Product Description: AutoCAD Mechanical|Company: Autodesk, Inc."
 90
     1024
 91
        0
280
     0
281
     0
  0
CLASS
  1
ACMBOMSTANDARDBSI
  2
AcmBOMStdBSI
  3
"Amdt_StdImp|Product Description: AutoCAD Mechanical|Company: Autodesk, Inc."
 90
     1024
 91
        0
280
     0
281
     0
  0
CLASS
  1
ACMDETAILSTANDARDBSI
  2
AmdtDetailSymStdBSI
  3
"Amdt_StdImp|Product Description: AutoCAD Mechanical|Company: Autodesk, Inc."
 90
     1024
 91
        0
280
     0
281
     0
  0
CLASS
  1
ACMSECTIONSTANDARDBSI2001
  2
AmdtSectionSymStdBSI2001
  3
"Amdt_StdImp|Product Description: AutoCAD Mechanical|Company: Autodesk, Inc."
 90
     1024
 91
        0
280
     0
281
     0
  0
CLASS
  1
ACMCENTERLINESTANDARDBSI
  2
AmdtCenterLineStdBSI
  3
"Amdt_StdImp|Product Description: AutoCAD Mechanical|Company: Autodesk, Inc."
 90
     1024
 91
        0
280
     0
281
     0
  0
CLASS
  1
ACMTHREADLINESTANDARDBSI
  2
AmdtThreadLineStdBSI
  3
"Amdt_StdImp|Product Description: AutoCAD Mechanical|Company: Autodesk, Inc."
 90
     1024
 91
        0
280
     0
281
     0
  0
CLASS
  1
ACMNOTESTANDARDBSI
  2
AmdtNoteStdBSI
  3
"Amdt_StdImp|Product Description: AutoCAD Mechanical|Company: Autodesk, Inc."
 90
     1024
 91
        0
280
     0
281
     0
  0
CLASS
  1
ACMTAPERSTANDARDBSI
  2
AcmTaperStdBSI
  3
"Amdt_StdImp|Product Description: AutoCAD Mechanical|Company: Autodesk, Inc."
 90
     1024
 91
        0
280
     0
281
     0
  0
CLASS
  1
ACMANOOTATIONVIEWSTANDARDBSI
  2
AmdtAnViewStdBSI
  3
"Amdt_StdImp|Product Description: AutoCAD Mechanical|Company: Autodesk, Inc."
 90
     1024
 91
        0
280
     0
281
     0
  0
CLASS
  1
ACAMGHOLECHARTSTDBSI
  2
AcAmgHoleChartStdBSI
  3
AmgDim|Product Description: AutoCAD Mechanical|Company: Autodesk, Inc.
 90
     1024
 91
        0
280
     0
281
     0
  0
CLASS
  1
AMDTEDGESTANDARDJIS
  2
AmdtEdgeStdJIS
  3
"Amdt_StdImp|Product Description: AutoCAD Mechanical|Company: Autodesk, Inc."
 90
     1024
 91
        0
280
     0
281
     0
  0
CLASS
  1
ACDB_BLKREFOBJECTCONTEXTDATA_CLASS
  2
AcDbBlkRefObjectContextData
  3
ObjectDBX Classes
 90
     1153
 91
        0
280
     0
281
     0
  0
CLASS
  1
ACDBOPPOLYLINERES
  2
AcDbOpPolylineRes
  3
AcGrefServices
 90
     1024
 91
        0
280
     0
281
     0
  0
CLASS
  1
AMDTACMWBLOCKBOMENTITY
  2
AmdtAcmWblockBomEntity
  3
"AcmSymBB|Product Description: AutoCAD Mechanical|Company: Autodesk, Inc."
 90
     4095
 91
        0
280
     0
281
     1
  0
CLASS
  1
ACMSURFSYM
  2
AcmSurfaceTexture
  3
"AcmSymBB|Product Description: AutoCAD Mechanical|Company: Autodesk, Inc."
 90
     4095
 91
        0
280
     0
281
     1
  0
CLASS
  1
ACDBCIRCARCRES
  2
AcDbCircArcRes
  3
AcGrefServices
 90
     1024
 91
        0
280
     0
281
     0
  0
CLASS
  1
ACDBDIMENSIONRES
  2
AcDbDimensionRes
  3
AcmSymBB|Product Description: AutoCAD Mechanical|Company: Autodesk, Inc.
 90
     1024
 91
        0
280
     0
281
     0
  0
CLASS
  1
ACMDIMBREAKPERSREACTOR
  2
AcmDimBreakPersReactor
  3
AmgDim|Product Description: AutoCAD Mechanical|Company: Autodesk, Inc.
 90
     4095
 91
        0
280
     0
281
     0
  0
CLASS
  1
ACMPICKOBJ
  2
AcmPickEnt
  3
"AcmSymBB|Product Description: AutoCAD Mechanical|Company: Autodesk, Inc."
 90
     1024
 91
        0
280
     0
281
     1
  0
CLASS
  1
ACMBALLOON
  2
AcmBalloon
  3
"AcmSymBB|Product Description: AutoCAD Mechanical|Company: Autodesk, Inc."
 90
     4095
 91
        0
280
     0
281
     1
  0
ENDSEC
  0
SECTION
  2
TABLES
  0
TABLE
  2
VPORT
  5
8
330
0
100
AcDbSymbolTable
 70
     1
  0
VPORT
  5
27A
330
8
100
AcDbSymbolTableRecord
100
AcDbViewportTableRecord
  2
*Active
 70
     0
 10
0.0
 20
0.0
 11
1.0
 21
1.0
 12
477.0326869112992
 22
412.0211811457076
 13
0.0
 23
0.0
 14
5.0
 24
5.0
 15
20.0
 25
20.0
 16
0.0
 26
0.0
 36
1.0
 17
0.0
 27
0.0
 37
0.0
 40
323.8524023885159
 41
1.571428571428571
 42
50.0
 43
0.0
 44
0.0
 50
0.0
 51
0.0
 71
     0
 72
 20000
 73
     1
 74
     3
 75
     0
 76
     0
 77
     0
 78
     0
281
     0
 65
     0
110
0.0
120
0.0
130
0.0
111
1.0
121
0.0
131
0.0
112
0.0
122
1.0
132
0.0
 79
     0
146
0.0
348
285
 60
     3
 61
     5
292
     1
282
     0
141
0.0
142
0.0
 63
   250
421
  3355443
  0
ENDTAB
  0
TABLE
  2
LTYPE
  5
5
330
0
100
AcDbSymbolTable
 70
    20
  0
LTYPE
  5
14
330
5
100
AcDbSymbolTableRecord
100
AcDbLinetypeTableRecord
  2
ByBlock
 70
     0
  3

 72
    65
 73
     0
 40
0.0
  0
LTYPE
  5
15
330
5
100
AcDbSymbolTableRecord
100
AcDbLinetypeTableRecord
  2
ByLayer
 70
     0
  3

 72
    65
 73
     0
 40
0.0
  0
LTYPE
  5
16
330
5
100
AcDbSymbolTableRecord
100
AcDbLinetypeTableRecord
  2
Continuous
 70
     0
  3
Solid line
 72
    65
 73
     0
 40
0.0
  0
LTYPE
  5
4D
330
5
100
AcDbSymbolTableRecord
100
AcDbLinetypeTableRecord
  2
AM_ISO02W050
 70
     0
  3
__ __ __ __ __ __ __ __ __ __ __ __ __ __ __
 72
    65
 73
     2
 40
7.5
 49
6.0
 74
     0
 49
-1.5
 74
     0
  0
LTYPE
  5
4E
330
5
100
AcDbSymbolTableRecord
100
AcDbLinetypeTableRecord
  2
AM_ISO08W050
 70
     0
  3
____ . ____ . ____ . ____ . ____ . ____ . ____
 72
    65
 73
     4
 40
18.0
 49
12.0
 74
     0
 49
-1.5
 74
     0
 49
3.0
 74
     0
 49
-1.5
 74
     0
  0
LTYPE
  5
4F
330
5
100
AcDbSymbolTableRecord
100
AcDbLinetypeTableRecord
  2
AM_ISO09W050
 70
     0
  3
_____ . . _____ . . _____ . . ____ .. ____
 72
    65
 73
     6
 40
22.5
 49
12.0
 74
     0
 49
-1.5
 74
     0
 49
3.0
 74
     0
 49
-1.5
 74
     0
 49
3.0
 74
     0
 49
-1.5
 74
     0
  0
LTYPE
  5
50
330
5
100
AcDbSymbolTableRecord
100
AcDbLinetypeTableRecord
  2
Amconstr
 70
     0
  3
_______________________
 72
    65
 73
     2
 40
9999.0
 49
9999.0
 74
     0
 49
0.0
 74
     0
  0
LTYPE
  5
51
330
5
100
AcDbSymbolTableRecord
100
AcDbLinetypeTableRecord
  2
AM_ISO08W050x2
 70
     0
  3
__ . __ . __ . __ . __ . __
 72
    65
 73
     4
 40
9.0
 49
6.0
 74
     0
 49
-0.75
 74
     0
 49
1.5
 74
     0
 49
-0.75
 74
     0
  0
LTYPE
  5
52
330
5
100
AcDbSymbolTableRecord
100
AcDbLinetypeTableRecord
  2
AM_ISO02W050x2
 70
     0
  3
 _ _ _ _ _ _ _ _ _ _ _ _
 72
    65
 73
     2
 40
3.75
 49
3.0
 74
     0
 49
-0.75
 74
     0
  0
LTYPE
  5
55
330
5
100
AcDbSymbolTableRecord
100
AcDbLinetypeTableRecord
  2
Amzigzag
 70
     0
  3
/\/-/\/-/\/-/\/-/\/-/\/
 72
    65
 73
     2
 40
11.0001
 49
0.0001
 74
     4
 75
   136
340
23D
 46
0.04
 50
0.0
 44
0.0
 45
0.0
 49
-11.0
 74
     0
  0
LTYPE
  5
65
330
5
100
AcDbSymbolTableRecord
100
AcDbLinetypeTableRecord
  2
CENTER
 70
     0
  3
__ . __
 72
    65
 73
     4
 40
7.0
 49
4.0
 74
     0
 49
-1.0
 74
     0
 49
1.0
 74
     0
 49
-1.0
 74
     0
  0
LTYPE
  5
E0
330
5
100
AcDbSymbolTableRecord
100
AcDbLinetypeTableRecord
  2
HIDDEN
 70
     0
  3
Hidden __ __ __ __ __ __ __ __ __ __ __ __ __ _
 72
    65
 73
     2
 40
9.524999999999996
 49
6.349999999999998
 74
     0
 49
-3.174999999999998
 74
     0
  0
LTYPE
  5
E1
330
5
100
AcDbSymbolTableRecord
100
AcDbLinetypeTableRecord
  2
PHANTOM2
 70
     0
  3
Phantom (.5x) ___ _ _ ___ _ _ ___ _ _ ___ _ _
 72
    65
 73
     6
 40
31.75
 49
15.875
 74
     0
 49
-3.174999999999998
 74
     0
 49
3.174999999999998
 74
     0
 49
-3.174999999999998
 74
     0
 49
3.174999999999998
 74
     0
 49
-3.174999999999998
 74
     0
  0
LTYPE
  5
5A2
330
5
100
AcDbSymbolTableRecord
100
AcDbLinetypeTableRecord
  2
ACJISWELD
 70
     0
  3
_ _ _ _ _
 72
    65
 73
     2
 40
2.0
 49
2.0
 74
     0
 49
-1.0
 74
     0
  0
LTYPE
  5
5EC1
330
5
100
AcDbSymbolTableRecord
100
AcDbLinetypeTableRecord
  2
ACISOWELD
 70
     0
  3
_ _ _ _ _
 72
    65
 73
     2
 40
2.0
 49
2.0
 74
     0
 49
-1.0
 74
     0
  0
LTYPE
  5
5EC2
330
5
100
AcDbSymbolTableRecord
100
AcDbLinetypeTableRecord
  2
ACISOTGB
 70
     0
  3
__ . . __ . .
 72
    65
 73
     6
 40
9.0
 49
4.0
 74
     0
 49
-1.0
 74
     0
 49
1.0
 74
     0
 49
-1.0
 74
     0
 49
1.0
 74
     0
 49
-1.0
 74
     0
  0
LTYPE
  5
5EC3
330
5
100
AcDbSymbolTableRecord
100
AcDbLinetypeTableRecord
  2
ACISOTGL
 70
     0
  3
_ _ _ _ _
 72
    65
 73
     2
 40
3.0
 49
2.0
 74
     0
 49
-1.0
 74
     0
  0
ENDTAB
  0
TABLE
  2
LAYER
  5
2
102
{ACAD_XDICTIONARY
360
BF
102
}
330
0
100
AcDbSymbolTable
 70
    10
  0
LAYER
  5
10
102
{ACAD_XDICTIONARY
360
29D7
102
}
330
2
100
AcDbSymbolTableRecord
100
AcDbLayerTableRecord
  2
0
 70
     0
 62
     7
  6
Continuous
370
    -3
390
F
347
27E
  0
LAYER
  5
81
102
{ACAD_XDICTIONARY
360
29D9
102
}
330
2
100
AcDbSymbolTableRecord
100
AcDbLayerTableRecord
  2
AM_0 外形線1
 70
     0
 62
     7
  6
Continuous
370
    25
390
F
347
27E
  0
LAYER
  5
427
330
2
100
AcDbSymbolTableRecord
100
AcDbLayerTableRecord
  2
Defpoints
 70
     0
 62
     7
  6
Continuous
290
     0
370
    -3
390
F
347
27E
  0
LAYER
  5
25C9
102
{ACAD_XDICTIONARY
360
29E0
102
}
330
2
100
AcDbSymbolTableRecord
100
AcDbLayerTableRecord
  2
AM_3 隠れ線
 70
     0
 62
     8
  6
ACJISWELD
370
    13
390
F
347
27E
1001
AcAecLayerStandard
1000

1000

  0
LAYER
  5
25CA
102
{ACAD_XDICTIONARY
360
29E2
102
}
330
2
100
AcDbSymbolTableRecord
100
AcDbLayerTableRecord
  2
AM_4 細線
 70
     0
 62
     4
  6
Continuous
370
    13
390
F
347
27E
1001
AcAecLayerStandard
1000

1000

  0
LAYER
  5
26B3
102
{ACAD_XDICTIONARY
360
29E8
102
}
330
2
100
AcDbSymbolTableRecord
100
AcDbLayerTableRecord
  2
AM_5 寸法線
 70
     0
 62
     3
  6
Continuous
370
    13
390
F
347
27E
1001
AcAecLayerStandard
1000

1000

  0
LAYER
  5
2C8B
330
2
100
AcDbSymbolTableRecord
100
AcDbLayerTableRecord
  2
AM_7 中心線
 70
     0
 62
     1
  6
AM_ISO08W050
370
    13
390
F
347
27E
1001
AcAecLayerStandard
1000

1000

  0
LAYER
  5
2C8D
330
2
100
AcDbSymbolTableRecord
100
AcDbLayerTableRecord
  2
AM_6 文字
 70
     0
 62
     2
  6
Continuous
370
    13
390
F
347
27E
1001
AcAecLayerStandard
1000

1000

  0
LAYER
  5
59E8
330
2
100
AcDbSymbolTableRecord
100
AcDbLayerTableRecord
  2
AM_11 想像線
 70
     0
 62
     5
  6
AM_ISO09W050
370
    13
390
F
347
27E
1001
AcAecLayerStandard
1000

1000

  0
ENDTAB
  0
TABLE
  2
STYLE
  5
3
330
0
100
AcDbSymbolTable
 70
    11
  0
STYLE
  5
11
330
3
100
AcDbSymbolTableRecord
100
AcDbTextStyleTableRecord
  2
STANDARD
 70
     0
 40
0.0
 41
1.0
 50
0.0
 71
     0
 42
25.0
  3
ISOCP.SHX
  4
EXTFONT.SHX
  0
STYLE
  5
23D
330
3
100
AcDbSymbolTableRecord
100
AcDbTextStyleTableRecord
  2

 70
     1
 40
0.0
 41
1.0
 50
0.0
 71
     0
 42
2.5
  3
genltshp.shx
  4

  0
STYLE
  5
5D5
330
3
100
AcDbSymbolTableRecord
100
AcDbTextStyleTableRecord
  2
SEISA
 70
     0
 40
0.0
 41
0.9
 50
0.0
 71
     0
 42
25.0
  3
romans.shx
  4
extfont2.shx
  0
STYLE
  5
5EB1
330
3
100
AcDbSymbolTableRecord
100
AcDbTextStyleTableRecord
  2
ACISOTS
 70
     0
 40
1.0
 41
1.0
 50
0.0
 71
     0
 42
25.0
  3
isocp.shx
  4
extfont.shx
  0
STYLE
  5
5EC0
330
3
100
AcDbSymbolTableRecord
100
AcDbTextStyleTableRecord
  2
ACISOGDT
 70
     0
 40
0.0
 41
1.0
 50
0.0
 71
     0
 42
25.0
  3
amgdt.shx
  4

  0
ENDTAB
  0
TABLE
  2
VIEW
  5
6
330
0
100
AcDbSymbolTable
 70
     6
  0
VIEW
  5
91B
330
6
100
AcDbSymbolTableRecord
100
AcDbViewTableRecord
  2
AM_VIEW1
 70
     0
 40
420.0000000000001
 10
381.0851416760021
 20
630.0000000000002
 41
762.1702838063441
 11
0.0
 21
0.0
 31
1.0
 12
0.0
 22
0.0
 32
0.0
 42
50.0
 43
0.0
 44
0.0
 50
0.0
 71
     0
281
     0
 72
     0
 73
     0
  0
VIEW
  5
91C
330
6
100
AcDbSymbolTableRecord
100
AcDbViewTableRecord
  2
AM_VIEW2
 70
     0
 40
420.0000000000001
 10
806.9148583239977
 20
630.0000000000002
 41
762.1702838063441
 11
0.0
 21
0.0
 31
1.0
 12
0.0
 22
0.0
 32
0.0
 42
50.0
 43
0.0
 44
0.0
 50
0.0
 71
     0
281
     0
 72
     0
 73
     0
  0
VIEW
  5
91D
330
6
100
AcDbSymbolTableRecord
100
AcDbViewTableRecord
  2
AM_VIEW3
 70
     0
 40
420.0000000000001
 10
381.0851416760021
 20
210.0
 41
762.1702838063441
 11
0.0
 21
0.0
 31
1.0
 12
0.0
 22
0.0
 32
0.0
 42
50.0
 43
0.0
 44
0.0
 50
0.0
 71
     0
281
     0
 72
     0
 73
     0
  0
VIEW
  5
91E
330
6
100
AcDbSymbolTableRecord
100
AcDbViewTableRecord
  2
AM_VIEW4
 70
     0
 40
420.0000000000001
 10
806.9148583239977
 20
210.0
 41
762.1702838063441
 11
0.0
 21
0.0
 31
1.0
 12
0.0
 22
0.0
 32
0.0
 42
50.0
 43
0.0
 44
0.0
 50
0.0
 71
     0
281
     0
 72
     0
 73
     0
  0
VIEW
  5
91F
330
6
100
AcDbSymbolTableRecord
100
AcDbViewTableRecord
  2
AM_VIEW5
 70
     0
 40
420.0000000000001
 10
594.0
 20
420.0000000000001
 41
762.1702838063442
 11
0.0
 21
0.0
 31
1.0
 12
0.0
 22
0.0
 32
0.0
 42
50.0
 43
0.0
 44
0.0
 50
0.0
 71
     0
281
     0
 72
     0
 73
     0
  0
VIEW
  5
920
330
6
100
AcDbSymbolTableRecord
100
AcDbViewTableRecord
  2
AM_VIEW6
 70
     0
 40
839.9916000000002
 10
594.0
 20
420.0000000000001
 41
1524.325324207012
 11
0.0
 21
0.0
 31
1.0
 12
0.0
 22
0.0
 32
0.0
 42
50.0
 43
0.0
 44
0.0
 50
0.0
 71
     0
281
     0
 72
     0
 73
     0
  0
ENDTAB
  0
TABLE
  2
UCS
  5
7
330
0
100
AcDbSymbolTable
 70
     0
  0
ENDTAB
  0
TABLE
  2
APPID
  5
9
330
0
100
AcDbSymbolTable
 70
   392
  0
APPID
  5
12
330
9
100
AcDbSymbolTableRecord
100
AcDbRegAppTableRecord
  2
ACAD
 70
     0
  0
APPID
  5
30
330
9
100
AcDbSymbolTableRecord
100
AcDbRegAppTableRecord
  2
MCAD_NO_VIS
 70
     0
  0
APPID
  5
31
330
9
100
AcDbSymbolTableRecord
100
AcDbRegAppTableRecord
  2
ACAD_TEMP_GRAPHIC
 70
     0
  0
APPID
  5
44
330
9
100
AcDbSymbolTableRecord
100
AcDbRegAppTableRecord
  2
ACATTRIBSERVICES
 70
     0
  0
APPID
  5
F6
330
9
100
AcDbSymbolTableRecord
100
AcDbRegAppTableRecord
  2
AD_DRAW
 70
     0
  0
APPID
  5
114
330
9
100
AcDbSymbolTableRecord
100
AcDbRegAppTableRecord
  2
DESIGNERASSEMBLIES
 70
     0
  0
APPID
  5
118
330
9
100
AcDbSymbolTableRecord
100
AcDbRegAppTableRecord
  2
ACADM_DIM_EDIT
 70
     0
  0
APPID
  5
119
330
9
100
AcDbSymbolTableRecord
100
AcDbRegAppTableRecord
  2
AMDT_DM_ADJ
 70
     0
  0
APPID
  5
1AF
330
9
100
AcDbSymbolTableRecord
100
AcDbRegAppTableRecord
  2
ACAD_DSTYLE_DIMARC_LENGTH_SYMBOL
 70
     0
  0
APPID
  5
1B0
330
9
100
AcDbSymbolTableRecord
100
AcDbRegAppTableRecord
  2
ACAD_DSTYLE_DIMJOGGED_JOGANGLE_SYMBOL
 70
     0
  0
APPID
  5
2D7
330
9
100
AcDbSymbolTableRecord
100
AcDbRegAppTableRecord
  2
ACAD_MLEADERVER
 70
     0
  0
APPID
  5
355
330
9
100
AcDbSymbolTableRecord
100
AcDbRegAppTableRecord
  2
AcadAnnoPO
 70
     0
  0
APPID
  5
428
330
9
100
AcDbSymbolTableRecord
100
AcDbRegAppTableRecord
  2
ACAD_DSTYLE_DIMTEXT_FILL
 70
     0
  0
APPID
  5
429
330
9
100
AcDbSymbolTableRecord
100
AcDbRegAppTableRecord
  2
GENIUS_GENSCREG_15
 70
     0
  0
APPID
  5
42A
330
9
100
AcDbSymbolTableRecord
100
AcDbRegAppTableRecord
  2
GENIUS_GENOBJ-N-SDF_13
 70
     0
  0
APPID
  5
42B
330
9
100
AcDbSymbolTableRecord
100
AcDbRegAppTableRecord
  2
GENIUS_GENODEF_13
 70
     0
  0
APPID
  5
42C
330
9
100
AcDbSymbolTableRecord
100
AcDbRegAppTableRecord
  2
ACAD_EXEMPT_FROM_CAD_STANDARDS
 70
     0
  0
APPID
  5
42D
330
9
100
AcDbSymbolTableRecord
100
AcDbRegAppTableRecord
  2
AcAecLayerStandard
 70
     0
  0
APPID
  5
42E
330
9
100
AcDbSymbolTableRecord
100
AcDbRegAppTableRecord
  2
GENIUS_GENOBJ-N-CEN_13
 70
     0
  0
APPID
  5
42F
330
9
100
AcDbSymbolTableRecord
100
AcDbRegAppTableRecord
  2
GENIUS_GENCEN_19
 70
     0
  0
APPID
  5
430
330
9
100
AcDbSymbolTableRecord
100
AcDbRegAppTableRecord
  2
ACAD_DSTYLE_DIMINSPECT
 70
     0
  0
APPID
  5
431
330
9
100
AcDbSymbolTableRecord
100
AcDbRegAppTableRecord
  2
GENIUS_AMGTXT_16
 70
     0
  0
APPID
  5
432
330
9
100
AcDbSymbolTableRecord
100
AcDbRegAppTableRecord
  2
GENIUS_GENFIL_13
 70
     0
  0
APPID
  5
433
330
9
100
AcDbSymbolTableRecord
100
AcDbRegAppTableRecord
  2
GENIUS_GENOLIS_13
 70
     0
  0
APPID
  5
434
330
9
100
AcDbSymbolTableRecord
100
AcDbRegAppTableRecord
  2
GENIUS_GENOBJ-N-CHA_13
 70
     0
  0
APPID
  5
435
330
9
100
AcDbSymbolTableRecord
100
AcDbRegAppTableRecord
  2
GENIUS_GENOENT_13
 70
     0
  0
APPID
  5
436
330
9
100
AcDbSymbolTableRecord
100
AcDbRegAppTableRecord
  2
GENIUS_GENOREF_13
 70
     0
  0
APPID
  5
437
330
9
100
AcDbSymbolTableRecord
100
AcDbRegAppTableRecord
  2
GENIUS_GENOBJ-N-FIL_13
 70
     0
  0
APPID
  5
438
330
9
100
AcDbSymbolTableRecord
100
AcDbRegAppTableRecord
  2
GEVID1208829536
 70
     0
  0
APPID
  5
439
330
9
100
AcDbSymbolTableRecord
100
AcDbRegAppTableRecord
  2
GEVDC
 70
     0
  0
APPID
  5
43A
330
9
100
AcDbSymbolTableRecord
100
AcDbRegAppTableRecord
  2
GEVRADREF
 70
     0
  0
APPID
  5
43B
330
9
100
AcDbSymbolTableRecord
100
AcDbRegAppTableRecord
  2
GENIUS_GENBH_13
 70
     0
  0
APPID
  5
43C
330
9
100
AcDbSymbolTableRecord
100
AcDbRegAppTableRecord
  2
GENIUS_GENOBJ-NBEHI-BHF_13
 70
     0
  0
APPID
  5
43D
330
9
100
AcDbSymbolTableRecord
100
AcDbRegAppTableRecord
  2
GENIUS_GENOBJ-NBEHI-BHB_13
 70
     0
  0
APPID
  5
43E
330
9
100
AcDbSymbolTableRecord
100
AcDbRegAppTableRecord
  2
GEVID1208829537
 70
     0
  0
APPID
  5
43F
330
9
100
AcDbSymbolTableRecord
100
AcDbRegAppTableRecord
  2
ACAD_DSTYLE_DIMJAG
 70
     0
  0
APPID
  5
440
330
9
100
AcDbSymbolTableRecord
100
AcDbRegAppTableRecord
  2
ACAD_DSTYLE_DIMTALN
 70
     0
  0
APPID
  5
441
330
9
100
AcDbSymbolTableRecord
100
AcDbRegAppTableRecord
  2
AMG_2DHIDE
 70
     0
  0
APPID
  5
442
330
9
100
AcDbSymbolTableRecord
100
AcDbRegAppTableRecord
  2
AMG_2DSTRUCT_BTR
 70
     0
  0
APPID
  5
443
330
9
100
AcDbSymbolTableRecord
100
AcDbRegAppTableRecord
  2
GEVID1208845772
 70
     0
  0
APPID
  5
444
330
9
100
AcDbSymbolTableRecord
100
AcDbRegAppTableRecord
  2
GEVID1208845773
 70
     0
  0
APPID
  5
445
330
9
100
AcDbSymbolTableRecord
100
AcDbRegAppTableRecord
  2
ACADM_2DVIEW_IGN_NOTIFY
 70
     0
  0
APPID
  5
446
330
9
100
AcDbSymbolTableRecord
100
AcDbRegAppTableRecord
  2
GEVID1208845774
 70
     0
  0
APPID
  5
447
330
9
100
AcDbSymbolTableRecord
100
AcDbRegAppTableRecord
  2
GEVID1208845775
 70
     0
  0
APPID
  5
448
330
9
100
AcDbSymbolTableRecord
100
AcDbRegAppTableRecord
  2
GEVID1208845776
 70
     0
  0
APPID
  5
449
330
9
100
AcDbSymbolTableRecord
100
AcDbRegAppTableRecord
  2
GEVID1208845777
 70
     0
  0
APPID
  5
44A
330
9
100
AcDbSymbolTableRecord
100
AcDbRegAppTableRecord
  2
GEVCON
 70
     0
  0
APPID
  5
44B
330
9
100
AcDbSymbolTableRecord
100
AcDbRegAppTableRecord
  2
GENIUS_GENOBJ-F-SCPASSM_13
 70
     0
  0
APPID
  5
44C
330
9
100
AcDbSymbolTableRecord
100
AcDbRegAppTableRecord
  2
GEVID1208845778
 70
     0
  0
APPID
  5
44D
330
9
100
AcDbSymbolTableRecord
100
AcDbRegAppTableRecord
  2
GEVID1208845779
 70
     0
  0
APPID
  5
44E
330
9
100
AcDbSymbolTableRecord
100
AcDbRegAppTableRecord
  2
GEVID1208845780
 70
     0
  0
APPID
  5
44F
330
9
100
AcDbSymbolTableRecord
100
AcDbRegAppTableRecord
  2
GEVID1208845781
 70
     0
  0
APPID
  5
450
330
9
100
AcDbSymbolTableRecord
100
AcDbRegAppTableRecord
  2
GEVID1208845782
 70
     0
  0
APPID
  5
451
330
9
100
AcDbSymbolTableRecord
100
AcDbRegAppTableRecord
  2
GEVID1208845783
 70
     0
  0
APPID
  5
452
330
9
100
AcDbSymbolTableRecord
100
AcDbRegAppTableRecord
  2
GEVID1208845784
 70
     0
  0
APPID
  5
453
330
9
100
AcDbSymbolTableRecord
100
AcDbRegAppTableRecord
  2
GEVID1208845785
 70
     0
  0
APPID
  5
454
330
9
100
AcDbSymbolTableRecord
100
AcDbRegAppTableRecord
  2
GEVID1208845787
 70
     0
  0
APPID
  5
455
330
9
100
AcDbSymbolTableRecord
100
AcDbRegAppTableRecord
  2
GEVID1208845788
 70
     0
  0
APPID
  5
456
330
9
100
AcDbSymbolTableRecord
100
AcDbRegAppTableRecord
  2
GEVID1208845789
 70
     0
  0
APPID
  5
457
330
9
100
AcDbSymbolTableRecord
100
AcDbRegAppTableRecord
  2
GEVID1208845790
 70
     0
  0
APPID
  5
458
330
9
100
AcDbSymbolTableRecord
100
AcDbRegAppTableRecord
  2
GEVID1208845791
 70
     0
  0
APPID
  5
459
330
9
100
AcDbSymbolTableRecord
100
AcDbRegAppTableRecord
  2
GEVID1208845792
 70
     0
  0
APPID
  5
45A
330
9
100
AcDbSymbolTableRecord
100
AcDbRegAppTableRecord
  2
GEVID1208845793
 70
     0
  0
APPID
  5
45B
330
9
100
AcDbSymbolTableRecord
100
AcDbRegAppTableRecord
  2
GEVID1208845794
 70
     0
  0
APPID
  5
45C
330
9
100
AcDbSymbolTableRecord
100
AcDbRegAppTableRecord
  2
GEVID1208845795
 70
     0
  0
APPID
  5
45D
330
9
100
AcDbSymbolTableRecord
100
AcDbRegAppTableRecord
  2
GEVID1208845796
 70
     0
  0
APPID
  5
45E
330
9
100
AcDbSymbolTableRecord
100
AcDbRegAppTableRecord
  2
GEVID1208845797
 70
     0
  0
APPID
  5
45F
330
9
100
AcDbSymbolTableRecord
100
AcDbRegAppTableRecord
  2
GEVID1208845798
 70
     0
  0
APPID
  5
460
330
9
100
AcDbSymbolTableRecord
100
AcDbRegAppTableRecord
  2
GEVID1208845799
 70
     0
  0
APPID
  5
461
330
9
100
AcDbSymbolTableRecord
100
AcDbRegAppTableRecord
  2
GEVID1208845800
 70
     0
  0
APPID
  5
462
330
9
100
AcDbSymbolTableRecord
100
AcDbRegAppTableRecord
  2
GEVID1208845801
 70
     0
  0
APPID
  5
463
330
9
100
AcDbSymbolTableRecord
100
AcDbRegAppTableRecord
  2
GEVID1208845802
 70
     0
  0
APPID
  5
464
330
9
100
AcDbSymbolTableRecord
100
AcDbRegAppTableRecord
  2
GENIUS_GENOBJ-N-DIM_13
 70
     0
  0
APPID
  5
465
330
9
100
AcDbSymbolTableRecord
100
AcDbRegAppTableRecord
  2
GENIUS_GENDIM_13
 70
     0
  0
APPID
  5
466
330
9
100
AcDbSymbolTableRecord
100
AcDbRegAppTableRecord
  2
GENIUS_GENDIMSH_14
 70
     0
  0
APPID
  5
467
330
9
100
AcDbSymbolTableRecord
100
AcDbRegAppTableRecord
  2
GEVID1208845803
 70
     0
  0
APPID
  5
468
330
9
100
AcDbSymbolTableRecord
100
AcDbRegAppTableRecord
  2
GEVID1208845804
 70
     0
  0
APPID
  5
469
330
9
100
AcDbSymbolTableRecord
100
AcDbRegAppTableRecord
  2
GEVID1208845805
 70
     0
  0
APPID
  5
46A
330
9
100
AcDbSymbolTableRecord
100
AcDbRegAppTableRecord
  2
GEVID1208845806
 70
     0
  0
APPID
  5
46B
330
9
100
AcDbSymbolTableRecord
100
AcDbRegAppTableRecord
  2
GEVID1208845807
 70
     0
  0
APPID
  5
46C
330
9
100
AcDbSymbolTableRecord
100
AcDbRegAppTableRecord
  2
GEVID1208845808
 70
     0
  0
APPID
  5
46D
330
9
100
AcDbSymbolTableRecord
100
AcDbRegAppTableRecord
  2
GEVID1208845809
 70
     0
  0
APPID
  5
46E
330
9
100
AcDbSymbolTableRecord
100
AcDbRegAppTableRecord
  2
GEVID1208845810
 70
     0
  0
APPID
  5
46F
330
9
100
AcDbSymbolTableRecord
100
AcDbRegAppTableRecord
  2
GEVID1208845811
 70
     0
  0
APPID
  5
470
330
9
100
AcDbSymbolTableRecord
100
AcDbRegAppTableRecord
  2
GEVID1208845813
 70
     0
  0
APPID
  5
471
330
9
100
AcDbSymbolTableRecord
100
AcDbRegAppTableRecord
  2
GEVID1208845814
 70
     0
  0
APPID
  5
472
330
9
100
AcDbSymbolTableRecord
100
AcDbRegAppTableRecord
  2
GEVID1208845815
 70
     0
  0
APPID
  5
473
330
9
100
AcDbSymbolTableRecord
100
AcDbRegAppTableRecord
  2
GEVID1208845816
 70
     0
  0
APPID
  5
474
330
9
100
AcDbSymbolTableRecord
100
AcDbRegAppTableRecord
  2
GEVID1208845817
 70
     0
  0
APPID
  5
475
330
9
100
AcDbSymbolTableRecord
100
AcDbRegAppTableRecord
  2
GEVID1208845818
 70
     0
  0
APPID
  5
476
330
9
100
AcDbSymbolTableRecord
100
AcDbRegAppTableRecord
  2
GEVID1208845819
 70
     0
  0
APPID
  5
477
330
9
100
AcDbSymbolTableRecord
100
AcDbRegAppTableRecord
  2
GEVID1208845820
 70
     0
  0
APPID
  5
478
330
9
100
AcDbSymbolTableRecord
100
AcDbRegAppTableRecord
  2
GENIUS_GENOBJ-F-SHCL_13
 70
     0
  0
APPID
  5
479
330
9
100
AcDbSymbolTableRecord
100
AcDbRegAppTableRecord
  2
GENIUS_GEFMSH_13
 70
     0
  0
APPID
  5
47A
330
9
100
AcDbSymbolTableRecord
100
AcDbRegAppTableRecord
  2
GENIUS_GENOBJ-F-SHCA_13
 70
     0
  0
APPID
  5
47B
330
9
100
AcDbSymbolTableRecord
100
AcDbRegAppTableRecord
  2
GENIUS_GEFSH_13
 70
     0
  0
APPID
  5
47C
330
9
100
AcDbSymbolTableRecord
100
AcDbRegAppTableRecord
  2
GENIUS_GEFSHP_13
 70
     0
  0
APPID
  5
47D
330
9
100
AcDbSymbolTableRecord
100
AcDbRegAppTableRecord
  2
GENIUS_GEFSHP0_13
 70
     0
  0
APPID
  5
47E
330
9
100
AcDbSymbolTableRecord
100
AcDbRegAppTableRecord
  2
GENIUS_GEFSH0_13
 70
     0
  0
APPID
  5
47F
330
9
100
AcDbSymbolTableRecord
100
AcDbRegAppTableRecord
  2
GENIUS_GEFSHP1_13
 70
     0
  0
APPID
  5
480
330
9
100
AcDbSymbolTableRecord
100
AcDbRegAppTableRecord
  2
GENIUS_GEFSH1_13
 70
     0
  0
APPID
  5
481
330
9
100
AcDbSymbolTableRecord
100
AcDbRegAppTableRecord
  2
GEVID1208866337
 70
     0
  0
APPID
  5
482
330
9
100
AcDbSymbolTableRecord
100
AcDbRegAppTableRecord
  2
GEVID1208866338
 70
     0
  0
APPID
  5
483
330
9
100
AcDbSymbolTableRecord
100
AcDbRegAppTableRecord
  2
GEVID1208866339
 70
     0
  0
APPID
  5
484
330
9
100
AcDbSymbolTableRecord
100
AcDbRegAppTableRecord
  2
GEVID1208866340
 70
     0
  0
APPID
  5
485
330
9
100
AcDbSymbolTableRecord
100
AcDbRegAppTableRecord
  2
GEVID1208866341
 70
     0
  0
APPID
  5
486
330
9
100
AcDbSymbolTableRecord
100
AcDbRegAppTableRecord
  2
ACAD_PSEXT
 70
     0
  0
APPID
  5
487
330
9
100
AcDbSymbolTableRecord
100
AcDbRegAppTableRecord
  2
GEVID1208866342
 70
     0
  0
APPID
  5
488
330
9
100
AcDbSymbolTableRecord
100
AcDbRegAppTableRecord
  2
GEVID1208913836
 70
     0
  0
APPID
  5
489
330
9
100
AcDbSymbolTableRecord
100
AcDbRegAppTableRecord
  2
GEVID1208913837
 70
     0
  0
APPID
  5
48A
330
9
100
AcDbSymbolTableRecord
100
AcDbRegAppTableRecord
  2
GEVID1208913838
 70
     0
  0
APPID
  5
48B
330
9
100
AcDbSymbolTableRecord
100
AcDbRegAppTableRecord
  2
GEVID1208913839
 70
     0
  0
APPID
  5
48C
330
9
100
AcDbSymbolTableRecord
100
AcDbRegAppTableRecord
  2
GENIUS_GENDTOL_13
 70
     0
  0
APPID
  5
48D
330
9
100
AcDbSymbolTableRecord
100
AcDbRegAppTableRecord
  2
GEVID1208928889
 70
     0
  0
APPID
  5
48E
330
9
100
AcDbSymbolTableRecord
100
AcDbRegAppTableRecord
  2
GEVID1208928890
 70
     0
  0
APPID
  5
48F
330
9
100
AcDbSymbolTableRecord
100
AcDbRegAppTableRecord
  2
GEVID1208928891
 70
     0
  0
APPID
  5
490
330
9
100
AcDbSymbolTableRecord
100
AcDbRegAppTableRecord
  2
GEVID1208928892
 70
     0
  0
APPID
  5
491
330
9
100
AcDbSymbolTableRecord
100
AcDbRegAppTableRecord
  2
GEVID1208933827
 70
     0
  0
APPID
  5
492
330
9
100
AcDbSymbolTableRecord
100
AcDbRegAppTableRecord
  2
GEVID1208933829
 70
     0
  0
APPID
  5
493
330
9
100
AcDbSymbolTableRecord
100
AcDbRegAppTableRecord
  2
GEVID1208933830
 70
     0
  0
APPID
  5
494
330
9
100
AcDbSymbolTableRecord
100
AcDbRegAppTableRecord
  2
GEVID1208933831
 70
     0
  0
APPID
  5
495
330
9
100
AcDbSymbolTableRecord
100
AcDbRegAppTableRecord
  2
GEVID1208933832
 70
     0
  0
APPID
  5
496
330
9
100
AcDbSymbolTableRecord
100
AcDbRegAppTableRecord
  2
GEVID1208933833
 70
     0
  0
APPID
  5
497
330
9
100
AcDbSymbolTableRecord
100
AcDbRegAppTableRecord
  2
GEVID1208933834
 70
     0
  0
APPID
  5
498
330
9
100
AcDbSymbolTableRecord
100
AcDbRegAppTableRecord
  2
GEVID1208933835
 70
     0
  0
APPID
  5
499
330
9
100
AcDbSymbolTableRecord
100
AcDbRegAppTableRecord
  2
GEVID1208933836
 70
     0
  0
APPID
  5
49A
330
9
100
AcDbSymbolTableRecord
100
AcDbRegAppTableRecord
  2
GEVID1208933837
 70
     0
  0
APPID
  5
49B
330
9
100
AcDbSymbolTableRecord
100
AcDbRegAppTableRecord
  2
GEVID1208933838
 70
     0
  0
APPID
  5
49C
330
9
100
AcDbSymbolTableRecord
100
AcDbRegAppTableRecord
  2
GEVID1208933840
 70
     0
  0
APPID
  5
49D
330
9
100
AcDbSymbolTableRecord
100
AcDbRegAppTableRecord
  2
GEVID1208933842
 70
     0
  0
APPID
  5
49E
330
9
100
AcDbSymbolTableRecord
100
AcDbRegAppTableRecord
  2
GEVID1208933843
 70
     0
  0
APPID
  5
49F
330
9
100
AcDbSymbolTableRecord
100
AcDbRegAppTableRecord
  2
GEVID1208933844
 70
     0
  0
APPID
  5
4A0
330
9
100
AcDbSymbolTableRecord
100
AcDbRegAppTableRecord
  2
GEVID1208933845
 70
     0
  0
APPID
  5
4A1
330
9
100
AcDbSymbolTableRecord
100
AcDbRegAppTableRecord
  2
GEVID1208933846
 70
     0
  0
APPID
  5
4A2
330
9
100
AcDbSymbolTableRecord
100
AcDbRegAppTableRecord
  2
GEVID1208933847
 70
     0
  0
APPID
  5
4A3
330
9
100
AcDbSymbolTableRecord
100
AcDbRegAppTableRecord
  2
GEVID1208933848
 70
     0
  0
APPID
  5
4A4
330
9
100
AcDbSymbolTableRecord
100
AcDbRegAppTableRecord
  2
GEVID1208933849
 70
     0
  0
APPID
  5
4A5
330
9
100
AcDbSymbolTableRecord
100
AcDbRegAppTableRecord
  2
GEVID1208933850
 70
     0
  0
APPID
  5
4A6
330
9
100
AcDbSymbolTableRecord
100
AcDbRegAppTableRecord
  2
GEVID1208933851
 70
     0
  0
APPID
  5
4A7
330
9
100
AcDbSymbolTableRecord
100
AcDbRegAppTableRecord
  2
GEVID1208933852
 70
     0
  0
APPID
  5
4A8
330
9
100
AcDbSymbolTableRecord
100
AcDbRegAppTableRecord
  2
GEVID1208933853
 70
     0
  0
APPID
  5
4A9
330
9
100
AcDbSymbolTableRecord
100
AcDbRegAppTableRecord
  2
GEVID1208933854
 70
     0
  0
APPID
  5
4AA
330
9
100
AcDbSymbolTableRecord
100
AcDbRegAppTableRecord
  2
GEVID1208933855
 70
     0
  0
APPID
  5
4AB
330
9
100
AcDbSymbolTableRecord
100
AcDbRegAppTableRecord
  2
GEVID1208933856
 70
     0
  0
APPID
  5
4AC
330
9
100
AcDbSymbolTableRecord
100
AcDbRegAppTableRecord
  2
GEVID1208933857
 70
     0
  0
APPID
  5
4AD
330
9
100
AcDbSymbolTableRecord
100
AcDbRegAppTableRecord
  2
GEVID1208933858
 70
     0
  0
APPID
  5
4AE
330
9
100
AcDbSymbolTableRecord
100
AcDbRegAppTableRecord
  2
GEVID1208933859
 70
     0
  0
APPID
  5
4AF
330
9
100
AcDbSymbolTableRecord
100
AcDbRegAppTableRecord
  2
GEVID1208933860
 70
     0
  0
APPID
  5
4B0
330
9
100
AcDbSymbolTableRecord
100
AcDbRegAppTableRecord
  2
GEVID1208933861
 70
     0
  0
APPID
  5
4B1
330
9
100
AcDbSymbolTableRecord
100
AcDbRegAppTableRecord
  2
GEVID1208933862
 70
     0
  0
APPID
  5
4B2
330
9
100
AcDbSymbolTableRecord
100
AcDbRegAppTableRecord
  2
GEVID1208933863
 70
     0
  0
APPID
  5
4B3
330
9
100
AcDbSymbolTableRecord
100
AcDbRegAppTableRecord
  2
GEVID1208933864
 70
     0
  0
APPID
  5
4B4
330
9
100
AcDbSymbolTableRecord
100
AcDbRegAppTableRecord
  2
GEVID1208933865
 70
     0
  0
APPID
  5
4B5
330
9
100
AcDbSymbolTableRecord
100
AcDbRegAppTableRecord
  2
GEVID1208933866
 70
     0
  0
APPID
  5
4B6
330
9
100
AcDbSymbolTableRecord
100
AcDbRegAppTableRecord
  2
GEVID1208933867
 70
     0
  0
APPID
  5
4B7
330
9
100
AcDbSymbolTableRecord
100
AcDbRegAppTableRecord
  2
GEVID1208933868
 70
     0
  0
APPID
  5
4B8
330
9
100
AcDbSymbolTableRecord
100
AcDbRegAppTableRecord
  2
GEVID1208933869
 70
     0
  0
APPID
  5
4B9
330
9
100
AcDbSymbolTableRecord
100
AcDbRegAppTableRecord
  2
GEVID1208933870
 70
     0
  0
APPID
  5
4BA
330
9
100
AcDbSymbolTableRecord
100
AcDbRegAppTableRecord
  2
GEVID1208933871
 70
     0
  0
APPID
  5
4BB
330
9
100
AcDbSymbolTableRecord
100
AcDbRegAppTableRecord
  2
GEVID1208933872
 70
     0
  0
APPID
  5
4BC
330
9
100
AcDbSymbolTableRecord
100
AcDbRegAppTableRecord
  2
GEVID1208933873
 70
     0
  0
APPID
  5
4BD
330
9
100
AcDbSymbolTableRecord
100
AcDbRegAppTableRecord
  2
GEVID1208933874
 70
     0
  0
APPID
  5
4BE
330
9
100
AcDbSymbolTableRecord
100
AcDbRegAppTableRecord
  2
GEVID1208933875
 70
     0
  0
APPID
  5
4BF
330
9
100
AcDbSymbolTableRecord
100
AcDbRegAppTableRecord
  2
GEVID1208933876
 70
     0
  0
APPID
  5
4C0
330
9
100
AcDbSymbolTableRecord
100
AcDbRegAppTableRecord
  2
ACAD_DSTYLE_DIMRADIAL_EXTENSION
 70
     0
  0
APPID
  5
4C1
330
9
100
AcDbSymbolTableRecord
100
AcDbRegAppTableRecord
  2
GEVID1208999100
 70
     0
  0
APPID
  5
4C2
330
9
100
AcDbSymbolTableRecord
100
AcDbRegAppTableRecord
  2
GEVID1208999101
 70
     0
  0
APPID
  5
4C3
330
9
100
AcDbSymbolTableRecord
100
AcDbRegAppTableRecord
  2
GEVID1208999102
 70
     0
  0
APPID
  5
4C4
330
9
100
AcDbSymbolTableRecord
100
AcDbRegAppTableRecord
  2
GEVID1208999103
 70
     0
  0
APPID
  5
4C5
330
9
100
AcDbSymbolTableRecord
100
AcDbRegAppTableRecord
  2
GEVID1208999105
 70
     0
  0
APPID
  5
4C6
330
9
100
AcDbSymbolTableRecord
100
AcDbRegAppTableRecord
  2
GEVID1208999106
 70
     0
  0
APPID
  5
4C7
330
9
100
AcDbSymbolTableRecord
100
AcDbRegAppTableRecord
  2
GEVID1208999108
 70
     0
  0
APPID
  5
4C8
330
9
100
AcDbSymbolTableRecord
100
AcDbRegAppTableRecord
  2
GEVID1208999109
 70
     0
  0
APPID
  5
4C9
330
9
100
AcDbSymbolTableRecord
100
AcDbRegAppTableRecord
  2
GEVID1208999110
 70
     0
  0
APPID
  5
4CA
330
9
100
AcDbSymbolTableRecord
100
AcDbRegAppTableRecord
  2
GEVID1208999111
 70
     0
  0
APPID
  5
4CB
330
9
100
AcDbSymbolTableRecord
100
AcDbRegAppTableRecord
  2
GEVID1208999112
 70
     0
  0
APPID
  5
4CC
330
9
100
AcDbSymbolTableRecord
100
AcDbRegAppTableRecord
  2
GEVID1208999113
 70
     0
  0
APPID
  5
4CD
330
9
100
AcDbSymbolTableRecord
100
AcDbRegAppTableRecord
  2
GEVID1208999114
 70
     0
  0
APPID
  5
4CE
330
9
100
AcDbSymbolTableRecord
100
AcDbRegAppTableRecord
  2
GEVID1210218799
 70
     0
  0
APPID
  5
4CF
330
9
100
AcDbSymbolTableRecord
100
AcDbRegAppTableRecord
  2
GEVID1210218800
 70
     0
  0
APPID
  5
4D0
330
9
100
AcDbSymbolTableRecord
100
AcDbRegAppTableRecord
  2
GENIUS_GEFWELD_13
 70
     0
  0
APPID
  5
4D1
330
9
100
AcDbSymbolTableRecord
100
AcDbRegAppTableRecord
  2
GENIUS_GENOBJ-F-WELS_13
 70
     0
  0
APPID
  5
4D2
330
9
100
AcDbSymbolTableRecord
100
AcDbRegAppTableRecord
  2
AcadAnnotative
 70
     0
  0
APPID
  5
4D3
330
9
100
AcDbSymbolTableRecord
100
AcDbRegAppTableRecord
  2
GEVID1210145339
 70
     0
  0
APPID
  5
4D4
330
9
100
AcDbSymbolTableRecord
100
AcDbRegAppTableRecord
  2
ACAD_DSTYLE_DIMBREAK
 70
     0
  0
APPID
  5
4D5
330
9
100
AcDbSymbolTableRecord
100
AcDbRegAppTableRecord
  2
GEVID1210145340
 70
     0
  0
APPID
  5
4D6
330
9
100
AcDbSymbolTableRecord
100
AcDbRegAppTableRecord
  2
GEVID1210145341
 70
     0
  0
APPID
  5
4D7
330
9
100
AcDbSymbolTableRecord
100
AcDbRegAppTableRecord
  2
GEVID1210145342
 70
     0
  0
APPID
  5
4D8
330
9
100
AcDbSymbolTableRecord
100
AcDbRegAppTableRecord
  2
GEVID1210145343
 70
     0
  0
APPID
  5
4D9
330
9
100
AcDbSymbolTableRecord
100
AcDbRegAppTableRecord
  2
GEVID1210145344
 70
     0
  0
APPID
  5
4DA
330
9
100
AcDbSymbolTableRecord
100
AcDbRegAppTableRecord
  2
GEVID1210145345
 70
     0
  0
APPID
  5
4DB
330
9
100
AcDbSymbolTableRecord
100
AcDbRegAppTableRecord
  2
GEVID1210152816
 70
     0
  0
APPID
  5
4DC
330
9
100
AcDbSymbolTableRecord
100
AcDbRegAppTableRecord
  2
GEVID1210153850
 70
     0
  0
APPID
  5
4DD
330
9
100
AcDbSymbolTableRecord
100
AcDbRegAppTableRecord
  2
GEVID1210153851
 70
     0
  0
APPID
  5
4DE
330
9
100
AcDbSymbolTableRecord
100
AcDbRegAppTableRecord
  2
GEVID1210153852
 70
     0
  0
APPID
  5
4DF
330
9
100
AcDbSymbolTableRecord
100
AcDbRegAppTableRecord
  2
GEVID1210549898
 70
     0
  0
APPID
  5
4E0
330
9
100
AcDbSymbolTableRecord
100
AcDbRegAppTableRecord
  2
GEVID1210549899
 70
     0
  0
APPID
  5
4E1
330
9
100
AcDbSymbolTableRecord
100
AcDbRegAppTableRecord
  2
GEVID1210549900
 70
     0
  0
APPID
  5
4E2
330
9
100
AcDbSymbolTableRecord
100
AcDbRegAppTableRecord
  2
GEVID1210549901
 70
     0
  0
APPID
  5
4E3
330
9
100
AcDbSymbolTableRecord
100
AcDbRegAppTableRecord
  2
GEVID1210549902
 70
     0
  0
APPID
  5
4E4
330
9
100
AcDbSymbolTableRecord
100
AcDbRegAppTableRecord
  2
GEVID1210549903
 70
     0
  0
APPID
  5
4E5
330
9
100
AcDbSymbolTableRecord
100
AcDbRegAppTableRecord
  2
GEVID1210549904
 70
     0
  0
APPID
  5
4E6
330
9
100
AcDbSymbolTableRecord
100
AcDbRegAppTableRecord
  2
GEVID1210549905
 70
     0
  0
APPID
  5
4E7
330
9
100
AcDbSymbolTableRecord
100
AcDbRegAppTableRecord
  2
GEVID1210549906
 70
     0
  0
APPID
  5
4E8
330
9
100
AcDbSymbolTableRecord
100
AcDbRegAppTableRecord
  2
GEVID1210549907
 70
     0
  0
APPID
  5
4E9
330
9
100
AcDbSymbolTableRecord
100
AcDbRegAppTableRecord
  2
GEVID1210549908
 70
     0
  0
APPID
  5
4EA
330
9
100
AcDbSymbolTableRecord
100
AcDbRegAppTableRecord
  2
GEVID1210549909
 70
     0
  0
APPID
  5
4EB
330
9
100
AcDbSymbolTableRecord
100
AcDbRegAppTableRecord
  2
GEVID1210549910
 70
     0
  0
APPID
  5
4EC
330
9
100
AcDbSymbolTableRecord
100
AcDbRegAppTableRecord
  2
GEVID1210549911
 70
     0
  0
APPID
  5
4ED
330
9
100
AcDbSymbolTableRecord
100
AcDbRegAppTableRecord
  2
GEVID1210549912
 70
     0
  0
APPID
  5
4EE
330
9
100
AcDbSymbolTableRecord
100
AcDbRegAppTableRecord
  2
GEVID1210549913
 70
     0
  0
APPID
  5
4EF
330
9
100
AcDbSymbolTableRecord
100
AcDbRegAppTableRecord
  2
GEVID1210549914
 70
     0
  0
APPID
  5
4F0
330
9
100
AcDbSymbolTableRecord
100
AcDbRegAppTableRecord
  2
GEVID1210549915
 70
     0
  0
APPID
  5
4F1
330
9
100
AcDbSymbolTableRecord
100
AcDbRegAppTableRecord
  2
GEVID1210549916
 70
     0
  0
APPID
  5
4F2
330
9
100
AcDbSymbolTableRecord
100
AcDbRegAppTableRecord
  2
GEVID1210549917
 70
     0
  0
APPID
  5
4F3
330
9
100
AcDbSymbolTableRecord
100
AcDbRegAppTableRecord
  2
GENIUS_GENOBJ-N-CRS_13
 70
     0
  0
APPID
  5
4F4
330
9
100
AcDbSymbolTableRecord
100
AcDbRegAppTableRecord
  2
GEVID1210549918
 70
     0
  0
APPID
  5
4F5
330
9
100
AcDbSymbolTableRecord
100
AcDbRegAppTableRecord
  2
GENIUS_GENOBJ-N-CRC_13
 70
     0
  0
APPID
  5
4F6
330
9
100
AcDbSymbolTableRecord
100
AcDbRegAppTableRecord
  2
GENIUS_GENCRC_14
 70
     0
  0
APPID
  5
4F7
330
9
100
AcDbSymbolTableRecord
100
AcDbRegAppTableRecord
  2
GEVID1210549919
 70
     0
  0
APPID
  5
4F8
330
9
100
AcDbSymbolTableRecord
100
AcDbRegAppTableRecord
  2
GEVID1210549921
 70
     0
  0
APPID
  5
4F9
330
9
100
AcDbSymbolTableRecord
100
AcDbRegAppTableRecord
  2
GEVID1210549922
 70
     0
  0
APPID
  5
4FA
330
9
100
AcDbSymbolTableRecord
100
AcDbRegAppTableRecord
  2
GEVID1210635173
 70
     0
  0
APPID
  5
4FB
330
9
100
AcDbSymbolTableRecord
100
AcDbRegAppTableRecord
  2
GEVID1210635174
 70
     0
  0
APPID
  5
4FC
330
9
100
AcDbSymbolTableRecord
100
AcDbRegAppTableRecord
  2
GEVID1210635175
 70
     0
  0
APPID
  5
4FD
330
9
100
AcDbSymbolTableRecord
100
AcDbRegAppTableRecord
  2
GEVID1210635176
 70
     0
  0
APPID
  5
4FE
330
9
100
AcDbSymbolTableRecord
100
AcDbRegAppTableRecord
  2
GEVID1210635177
 70
     0
  0
APPID
  5
4FF
330
9
100
AcDbSymbolTableRecord
100
AcDbRegAppTableRecord
  2
GEVID1210635178
 70
     0
  0
APPID
  5
500
330
9
100
AcDbSymbolTableRecord
100
AcDbRegAppTableRecord
  2
GENIUS_GENIUS_GENBHEDTMP_13
 70
     0
  0
APPID
  5
501
330
9
100
AcDbSymbolTableRecord
100
AcDbRegAppTableRecord
  2
GEVID1210635179
 70
     0
  0
APPID
  5
502
330
9
100
AcDbSymbolTableRecord
100
AcDbRegAppTableRecord
  2
GEVID1210635180
 70
     0
  0
APPID
  5
503
330
9
100
AcDbSymbolTableRecord
100
AcDbRegAppTableRecord
  2
GEVID1210635181
 70
     0
  0
APPID
  5
504
330
9
100
AcDbSymbolTableRecord
100
AcDbRegAppTableRecord
  2
GEVID1210635182
 70
     0
  0
APPID
  5
505
330
9
100
AcDbSymbolTableRecord
100
AcDbRegAppTableRecord
  2
GEVID1210635184
 70
     0
  0
APPID
  5
506
330
9
100
AcDbSymbolTableRecord
100
AcDbRegAppTableRecord
  2
GEVID1210635185
 70
     0
  0
APPID
  5
507
330
9
100
AcDbSymbolTableRecord
100
AcDbRegAppTableRecord
  2
GEVID1210635186
 70
     0
  0
APPID
  5
508
330
9
100
AcDbSymbolTableRecord
100
AcDbRegAppTableRecord
  2
GEVID1210635187
 70
     0
  0
APPID
  5
509
330
9
100
AcDbSymbolTableRecord
100
AcDbRegAppTableRecord
  2
GEVID1210635188
 70
     0
  0
APPID
  5
50A
330
9
100
AcDbSymbolTableRecord
100
AcDbRegAppTableRecord
  2
GEVID1210635189
 70
     0
  0
APPID
  5
50B
330
9
100
AcDbSymbolTableRecord
100
AcDbRegAppTableRecord
  2
GEVID1210635190
 70
     0
  0
APPID
  5
50C
330
9
100
AcDbSymbolTableRecord
100
AcDbRegAppTableRecord
  2
GENIUS_GENREC_14
 70
     0
  0
APPID
  5
50D
330
9
100
AcDbSymbolTableRecord
100
AcDbRegAppTableRecord
  2
GENIUS_GENOBJ-N-REC_13
 70
     0
  0
APPID
  5
50E
330
9
100
AcDbSymbolTableRecord
100
AcDbRegAppTableRecord
  2
GEVID1210676655
 70
     0
  0
APPID
  5
50F
330
9
100
AcDbSymbolTableRecord
100
AcDbRegAppTableRecord
  2
GEVID1210676656
 70
     0
  0
APPID
  5
510
330
9
100
AcDbSymbolTableRecord
100
AcDbRegAppTableRecord
  2
GEVID1210676657
 70
     0
  0
APPID
  5
511
330
9
100
AcDbSymbolTableRecord
100
AcDbRegAppTableRecord
  2
GEVID1210676659
 70
     0
  0
APPID
  5
512
330
9
100
AcDbSymbolTableRecord
100
AcDbRegAppTableRecord
  2
GEVID1210676660
 70
     0
  0
APPID
  5
513
330
9
100
AcDbSymbolTableRecord
100
AcDbRegAppTableRecord
  2
GEVID1210676661
 70
     0
  0
APPID
  5
514
330
9
100
AcDbSymbolTableRecord
100
AcDbRegAppTableRecord
  2
GEVID1210676662
 70
     0
  0
APPID
  5
515
330
9
100
AcDbSymbolTableRecord
100
AcDbRegAppTableRecord
  2
GEVID1210721646
 70
     0
  0
APPID
  5
516
330
9
100
AcDbSymbolTableRecord
100
AcDbRegAppTableRecord
  2
GEVID1210721647
 70
     0
  0
APPID
  5
517
330
9
100
AcDbSymbolTableRecord
100
AcDbRegAppTableRecord
  2
GEVID1210721648
 70
     0
  0
APPID
  5
518
330
9
100
AcDbSymbolTableRecord
100
AcDbRegAppTableRecord
  2
GEVID1210721649
 70
     0
  0
APPID
  5
519
330
9
100
AcDbSymbolTableRecord
100
AcDbRegAppTableRecord
  2
GEVID1210721650
 70
     0
  0
APPID
  5
51A
330
9
100
AcDbSymbolTableRecord
100
AcDbRegAppTableRecord
  2
GEVID1210721651
 70
     0
  0
APPID
  5
51B
330
9
100
AcDbSymbolTableRecord
100
AcDbRegAppTableRecord
  2
GEVID1210721652
 70
     0
  0
APPID
  5
51C
330
9
100
AcDbSymbolTableRecord
100
AcDbRegAppTableRecord
  2
GEVID1210721653
 70
     0
  0
APPID
  5
51D
330
9
100
AcDbSymbolTableRecord
100
AcDbRegAppTableRecord
  2
PE_URL
 70
     0
  0
APPID
  5
51E
330
9
100
AcDbSymbolTableRecord
100
AcDbRegAppTableRecord
  2
GEVID1210825555
 70
     0
  0
APPID
  5
51F
330
9
100
AcDbSymbolTableRecord
100
AcDbRegAppTableRecord
  2
GEVID1210825556
 70
     0
  0
APPID
  5
520
330
9
100
AcDbSymbolTableRecord
100
AcDbRegAppTableRecord
  2
GEVID1210825557
 70
     0
  0
APPID
  5
521
330
9
100
AcDbSymbolTableRecord
100
AcDbRegAppTableRecord
  2
GEVID1210825558
 70
     0
  0
APPID
  5
522
330
9
100
AcDbSymbolTableRecord
100
AcDbRegAppTableRecord
  2
GEVID1210825559
 70
     0
  0
APPID
  5
523
330
9
100
AcDbSymbolTableRecord
100
AcDbRegAppTableRecord
  2
GEVID1210825560
 70
     0
  0
APPID
  5
524
330
9
100
AcDbSymbolTableRecord
100
AcDbRegAppTableRecord
  2
GEVID1210825561
 70
     0
  0
APPID
  5
525
330
9
100
AcDbSymbolTableRecord
100
AcDbRegAppTableRecord
  2
GEVID1210825562
 70
     0
  0
APPID
  5
526
330
9
100
AcDbSymbolTableRecord
100
AcDbRegAppTableRecord
  2
GEVID1210825563
 70
     0
  0
APPID
  5
527
330
9
100
AcDbSymbolTableRecord
100
AcDbRegAppTableRecord
  2
GEVID1210825564
 70
     0
  0
APPID
  5
528
330
9
100
AcDbSymbolTableRecord
100
AcDbRegAppTableRecord
  2
GEVID1210825565
 70
     0
  0
APPID
  5
529
330
9
100
AcDbSymbolTableRecord
100
AcDbRegAppTableRecord
  2
GEVID1210825566
 70
     0
  0
APPID
  5
52A
330
9
100
AcDbSymbolTableRecord
100
AcDbRegAppTableRecord
  2
GEVID1210825567
 70
     0
  0
APPID
  5
52B
330
9
100
AcDbSymbolTableRecord
100
AcDbRegAppTableRecord
  2
GENIUS_GENOBJ-N-ZOO_13
 70
     0
  0
APPID
  5
52C
330
9
100
AcDbSymbolTableRecord
100
AcDbRegAppTableRecord
  2
GENIUS_GENZOO_17
 70
     0
  0
APPID
  5
52D
330
9
100
AcDbSymbolTableRecord
100
AcDbRegAppTableRecord
  2
ACADANNOTATIVEDECOMPOSITION
 70
     0
  0
APPID
  5
52E
330
9
100
AcDbSymbolTableRecord
100
AcDbRegAppTableRecord
  2
GENIUS_GENOBJ-N-HTC_13
 70
     0
  0
APPID
  5
52F
330
9
100
AcDbSymbolTableRecord
100
AcDbRegAppTableRecord
  2
GENIUS_GENHATCH_13
 70
     0
  0
APPID
  5
530
330
9
100
AcDbSymbolTableRecord
100
AcDbRegAppTableRecord
  2
GEVID1210896020
 70
     0
  0
APPID
  5
531
330
9
100
AcDbSymbolTableRecord
100
AcDbRegAppTableRecord
  2
GEVID1210896021
 70
     0
  0
APPID
  5
532
330
9
100
AcDbSymbolTableRecord
100
AcDbRegAppTableRecord
  2
GEVID1209083540
 70
     0
  0
APPID
  5
533
330
9
100
AcDbSymbolTableRecord
100
AcDbRegAppTableRecord
  2
GEVMK
 70
     0
  0
APPID
  5
534
330
9
100
AcDbSymbolTableRecord
100
AcDbRegAppTableRecord
  2
GEVID1209083542
 70
     0
  0
APPID
  5
535
330
9
100
AcDbSymbolTableRecord
100
AcDbRegAppTableRecord
  2
GEVID1209083543
 70
     0
  0
APPID
  5
536
330
9
100
AcDbSymbolTableRecord
100
AcDbRegAppTableRecord
  2
GEVID1209083544
 70
     0
  0
APPID
  5
537
330
9
100
AcDbSymbolTableRecord
100
AcDbRegAppTableRecord
  2
GEVID1209083545
 70
     0
  0
APPID
  5
538
330
9
100
AcDbSymbolTableRecord
100
AcDbRegAppTableRecord
  2
GEVID1209083546
 70
     0
  0
APPID
  5
539
330
9
100
AcDbSymbolTableRecord
100
AcDbRegAppTableRecord
  2
GEVID1209083547
 70
     0
  0
APPID
  5
53A
330
9
100
AcDbSymbolTableRecord
100
AcDbRegAppTableRecord
  2
GEVID1209083548
 70
     0
  0
APPID
  5
53B
330
9
100
AcDbSymbolTableRecord
100
AcDbRegAppTableRecord
  2
GEVID1209083549
 70
     0
  0
APPID
  5
53C
330
9
100
AcDbSymbolTableRecord
100
AcDbRegAppTableRecord
  2
GEVID1209083550
 70
     0
  0
APPID
  5
53D
330
9
100
AcDbSymbolTableRecord
100
AcDbRegAppTableRecord
  2
GEVID1209083551
 70
     0
  0
APPID
  5
53E
330
9
100
AcDbSymbolTableRecord
100
AcDbRegAppTableRecord
  2
GEVID1209083552
 70
     0
  0
APPID
  5
53F
330
9
100
AcDbSymbolTableRecord
100
AcDbRegAppTableRecord
  2
GEVID1209083553
 70
     0
  0
APPID
  5
540
330
9
100
AcDbSymbolTableRecord
100
AcDbRegAppTableRecord
  2
GEVID1210896022
 70
     0
  0
APPID
  5
541
330
9
100
AcDbSymbolTableRecord
100
AcDbRegAppTableRecord
  2
GEVID1211508364
 70
     0
  0
APPID
  5
542
330
9
100
AcDbSymbolTableRecord
100
AcDbRegAppTableRecord
  2
GEVID1211414908
 70
     0
  0
APPID
  5
543
330
9
100
AcDbSymbolTableRecord
100
AcDbRegAppTableRecord
  2
GEVID1211414909
 70
     0
  0
APPID
  5
544
330
9
100
AcDbSymbolTableRecord
100
AcDbRegAppTableRecord
  2
GEVID1211508359
 70
     0
  0
APPID
  5
545
330
9
100
AcDbSymbolTableRecord
100
AcDbRegAppTableRecord
  2
GEVID1211508360
 70
     0
  0
APPID
  5
546
330
9
100
AcDbSymbolTableRecord
100
AcDbRegAppTableRecord
  2
GEVID1211508361
 70
     0
  0
APPID
  5
547
330
9
100
AcDbSymbolTableRecord
100
AcDbRegAppTableRecord
  2
GEVID1211508362
 70
     0
  0
APPID
  5
548
330
9
100
AcDbSymbolTableRecord
100
AcDbRegAppTableRecord
  2
GEVID1211508363
 70
     0
  0
APPID
  5
549
330
9
100
AcDbSymbolTableRecord
100
AcDbRegAppTableRecord
  2
GEVID1211878469
 70
     0
  0
APPID
  5
54A
330
9
100
AcDbSymbolTableRecord
100
AcDbRegAppTableRecord
  2
GEVID1212642819
 70
     0
  0
APPID
  5
54B
330
9
100
AcDbSymbolTableRecord
100
AcDbRegAppTableRecord
  2
GEVID1212642820
 70
     0
  0
APPID
  5
54C
330
9
100
AcDbSymbolTableRecord
100
AcDbRegAppTableRecord
  2
GEVID1212642821
 70
     0
  0
APPID
  5
54D
330
9
100
AcDbSymbolTableRecord
100
AcDbRegAppTableRecord
  2
GEVID1212642822
 70
     0
  0
APPID
  5
54E
330
9
100
AcDbSymbolTableRecord
100
AcDbRegAppTableRecord
  2
GEVID1212642823
 70
     0
  0
APPID
  5
54F
330
9
100
AcDbSymbolTableRecord
100
AcDbRegAppTableRecord
  2
GEVID1212642825
 70
     0
  0
APPID
  5
550
330
9
100
AcDbSymbolTableRecord
100
AcDbRegAppTableRecord
  2
GEVID1212642826
 70
     0
  0
APPID
  5
551
330
9
100
AcDbSymbolTableRecord
100
AcDbRegAppTableRecord
  2
GEVID1212642827
 70
     0
  0
APPID
  5
552
330
9
100
AcDbSymbolTableRecord
100
AcDbRegAppTableRecord
  2
GEVID1212642828
 70
     0
  0
APPID
  5
553
330
9
100
AcDbSymbolTableRecord
100
AcDbRegAppTableRecord
  2
GEVID1212642831
 70
     0
  0
APPID
  5
554
330
9
100
AcDbSymbolTableRecord
100
AcDbRegAppTableRecord
  2
GEVID1212642834
 70
     0
  0
APPID
  5
555
330
9
100
AcDbSymbolTableRecord
100
AcDbRegAppTableRecord
  2
GEVID1212642835
 70
     0
  0
APPID
  5
556
330
9
100
AcDbSymbolTableRecord
100
AcDbRegAppTableRecord
  2
GEVID1212642836
 70
     0
  0
APPID
  5
557
330
9
100
AcDbSymbolTableRecord
100
AcDbRegAppTableRecord
  2
GEVID1212642837
 70
     0
  0
APPID
  5
558
330
9
100
AcDbSymbolTableRecord
100
AcDbRegAppTableRecord
  2
GEVID1212642839
 70
     0
  0
APPID
  5
559
330
9
100
AcDbSymbolTableRecord
100
AcDbRegAppTableRecord
  2
GEVID1212642840
 70
     0
  0
APPID
  5
55A
330
9
100
AcDbSymbolTableRecord
100
AcDbRegAppTableRecord
  2
GEVID1212642841
 70
     0
  0
APPID
  5
55B
330
9
100
AcDbSymbolTableRecord
100
AcDbRegAppTableRecord
  2
GEVID1212655312
 70
     0
  0
APPID
  5
55C
330
9
100
AcDbSymbolTableRecord
100
AcDbRegAppTableRecord
  2
GEVID1212655313
 70
     0
  0
APPID
  5
55D
330
9
100
AcDbSymbolTableRecord
100
AcDbRegAppTableRecord
  2
GEVID1212656533
 70
     0
  0
APPID
  5
55E
330
9
100
AcDbSymbolTableRecord
100
AcDbRegAppTableRecord
  2
GEVID1212656534
 70
     0
  0
APPID
  5
55F
330
9
100
AcDbSymbolTableRecord
100
AcDbRegAppTableRecord
  2
GEVID1212656535
 70
     0
  0
APPID
  5
560
330
9
100
AcDbSymbolTableRecord
100
AcDbRegAppTableRecord
  2
GEVID1212656536
 70
     0
  0
APPID
  5
561
330
9
100
AcDbSymbolTableRecord
100
AcDbRegAppTableRecord
  2
GEVID1212656538
 70
     0
  0
APPID
  5
562
330
9
100
AcDbSymbolTableRecord
100
AcDbRegAppTableRecord
  2
GEVID1212656541
 70
     0
  0
APPID
  5
563
330
9
100
AcDbSymbolTableRecord
100
AcDbRegAppTableRecord
  2
GEVID1212656543
 70
     0
  0
APPID
  5
564
330
9
100
AcDbSymbolTableRecord
100
AcDbRegAppTableRecord
  2
GENIUS_GENOBJ-F-PFASSM_13
 70
     0
  0
APPID
  5
565
330
9
100
AcDbSymbolTableRecord
100
AcDbRegAppTableRecord
  2
GEVID1212656544
 70
     0
  0
APPID
  5
566
330
9
100
AcDbSymbolTableRecord
100
AcDbRegAppTableRecord
  2
GEVID1212656545
 70
     0
  0
APPID
  5
567
330
9
100
AcDbSymbolTableRecord
100
AcDbRegAppTableRecord
  2
GEVID1212656546
 70
     0
  0
APPID
  5
568
330
9
100
AcDbSymbolTableRecord
100
AcDbRegAppTableRecord
  2
GEVID1212656547
 70
     0
  0
APPID
  5
569
330
9
100
AcDbSymbolTableRecord
100
AcDbRegAppTableRecord
  2
GEVID1212656548
 70
     0
  0
APPID
  5
56A
330
9
100
AcDbSymbolTableRecord
100
AcDbRegAppTableRecord
  2
GEVID1212656549
 70
     0
  0
APPID
  5
56B
330
9
100
AcDbSymbolTableRecord
100
AcDbRegAppTableRecord
  2
GEVID1212656550
 70
     0
  0
APPID
  5
56C
330
9
100
AcDbSymbolTableRecord
100
AcDbRegAppTableRecord
  2
GEVID1212656552
 70
     0
  0
APPID
  5
56D
330
9
100
AcDbSymbolTableRecord
100
AcDbRegAppTableRecord
  2
GEVID1212656553
 70
     0
  0
APPID
  5
56E
330
9
100
AcDbSymbolTableRecord
100
AcDbRegAppTableRecord
  2
GEVID1212656554
 70
     0
  0
APPID
  5
56F
330
9
100
AcDbSymbolTableRecord
100
AcDbRegAppTableRecord
  2
GEVID1212656555
 70
     0
  0
APPID
  5
570
330
9
100
AcDbSymbolTableRecord
100
AcDbRegAppTableRecord
  2
GEVID1212656556
 70
     0
  0
APPID
  5
571
330
9
100
AcDbSymbolTableRecord
100
AcDbRegAppTableRecord
  2
GEVID1212656557
 70
     0
  0
APPID
  5
572
330
9
100
AcDbSymbolTableRecord
100
AcDbRegAppTableRecord
  2
GEVID1212656559
 70
     0
  0
APPID
  5
573
330
9
100
AcDbSymbolTableRecord
100
AcDbRegAppTableRecord
  2
GEVID1212656560
 70
     0
  0
APPID
  5
574
330
9
100
AcDbSymbolTableRecord
100
AcDbRegAppTableRecord
  2
GEVID1212656561
 70
     0
  0
APPID
  5
575
330
9
100
AcDbSymbolTableRecord
100
AcDbRegAppTableRecord
  2
GEVID1212656562
 70
     0
  0
APPID
  5
576
330
9
100
AcDbSymbolTableRecord
100
AcDbRegAppTableRecord
  2
GEVID1212656563
 70
     0
  0
APPID
  5
577
330
9
100
AcDbSymbolTableRecord
100
AcDbRegAppTableRecord
  2
GEVID1212711781
 70
     0
  0
APPID
  5
578
330
9
100
AcDbSymbolTableRecord
100
AcDbRegAppTableRecord
  2
GEVID1212711782
 70
     0
  0
APPID
  5
579
330
9
100
AcDbSymbolTableRecord
100
AcDbRegAppTableRecord
  2
GEVID1212711783
 70
     0
  0
APPID
  5
57A
330
9
100
AcDbSymbolTableRecord
100
AcDbRegAppTableRecord
  2
GEVID1212711784
 70
     0
  0
APPID
  5
57B
330
9
100
AcDbSymbolTableRecord
100
AcDbRegAppTableRecord
  2
GEVID1212711788
 70
     0
  0
APPID
  5
57C
330
9
100
AcDbSymbolTableRecord
100
AcDbRegAppTableRecord
  2
GEVID1212711789
 70
     0
  0
APPID
  5
57D
330
9
100
AcDbSymbolTableRecord
100
AcDbRegAppTableRecord
  2
GEVID1212711790
 70
     0
  0
APPID
  5
57E
330
9
100
AcDbSymbolTableRecord
100
AcDbRegAppTableRecord
  2
GEVID1212711791
 70
     0
  0
APPID
  5
57F
330
9
100
AcDbSymbolTableRecord
100
AcDbRegAppTableRecord
  2
GEVID1212711792
 70
     0
  0
APPID
  5
580
330
9
100
AcDbSymbolTableRecord
100
AcDbRegAppTableRecord
  2
GEVID1212711793
 70
     0
  0
APPID
  5
581
330
9
100
AcDbSymbolTableRecord
100
AcDbRegAppTableRecord
  2
GEVID1212711794
 70
     0
  0
APPID
  5
582
330
9
100
AcDbSymbolTableRecord
100
AcDbRegAppTableRecord
  2
GEVID1212711795
 70
     0
  0
APPID
  5
583
330
9
100
AcDbSymbolTableRecord
100
AcDbRegAppTableRecord
  2
GEVID1212711797
 70
     0
  0
APPID
  5
584
330
9
100
AcDbSymbolTableRecord
100
AcDbRegAppTableRecord
  2
GEVID1212711798
 70
     0
  0
APPID
  5
585
330
9
100
AcDbSymbolTableRecord
100
AcDbRegAppTableRecord
  2
GEVID1212711799
 70
     0
  0
APPID
  5
586
330
9
100
AcDbSymbolTableRecord
100
AcDbRegAppTableRecord
  2
GEVID1212711800
 70
     0
  0
APPID
  5
587
330
9
100
AcDbSymbolTableRecord
100
AcDbRegAppTableRecord
  2
GEVID1212711801
 70
     0
  0
APPID
  5
588
330
9
100
AcDbSymbolTableRecord
100
AcDbRegAppTableRecord
  2
GEVID1212711802
 70
     0
  0
APPID
  5
589
330
9
100
AcDbSymbolTableRecord
100
AcDbRegAppTableRecord
  2
GEVID1212711803
 70
     0
  0
APPID
  5
58A
330
9
100
AcDbSymbolTableRecord
100
AcDbRegAppTableRecord
  2
GEVID1212711804
 70
     0
  0
APPID
  5
58B
330
9
100
AcDbSymbolTableRecord
100
AcDbRegAppTableRecord
  2
GEVID1212711805
 70
     0
  0
APPID
  5
58C
330
9
100
AcDbSymbolTableRecord
100
AcDbRegAppTableRecord
  2
GEVID1212711806
 70
     0
  0
APPID
  5
58D
330
9
100
AcDbSymbolTableRecord
100
AcDbRegAppTableRecord
  2
GEVID1212711807
 70
     0
  0
APPID
  5
58E
330
9
100
AcDbSymbolTableRecord
100
AcDbRegAppTableRecord
  2
GEVID1212711808
 70
     0
  0
APPID
  5
58F
330
9
100
AcDbSymbolTableRecord
100
AcDbRegAppTableRecord
  2
GEVID1212711809
 70
     0
  0
APPID
  5
590
330
9
100
AcDbSymbolTableRecord
100
AcDbRegAppTableRecord
  2
GEVID1212711810
 70
     0
  0
APPID
  5
591
330
9
100
AcDbSymbolTableRecord
100
AcDbRegAppTableRecord
  2
GEVID1212711811
 70
     0
  0
APPID
  5
90A
330
9
100
AcDbSymbolTableRecord
100
AcDbRegAppTableRecord
  2
GENIUS_GENTRA_14
 70
     0
  0
APPID
  5
919
330
9
100
AcDbSymbolTableRecord
100
AcDbRegAppTableRecord
  2
GENIUS_GENOBJ-N-TIT_13
 70
     0
  0
APPID
  5
91A
330
9
100
AcDbSymbolTableRecord
100
AcDbRegAppTableRecord
  2
GENIUS_GENTITLE_13
 70
     0
  0
APPID
  5
949
330
9
100
AcDbSymbolTableRecord
100
AcDbRegAppTableRecord
  2
GENIUS_GENBLLY_14
 70
     0
  0
APPID
  5
DDD
330
9
100
AcDbSymbolTableRecord
100
AcDbRegAppTableRecord
  2
GEVID1213165152
 70
     0
  0
APPID
  5
12F9
330
9
100
AcDbSymbolTableRecord
100
AcDbRegAppTableRecord
  2
AcDbDynamicBlockTrueName
 70
     0
  0
APPID
  5
12FA
330
9
100
AcDbSymbolTableRecord
100
AcDbRegAppTableRecord
  2
ACDBBLOCKREPETAG
 70
     0
  0
APPID
  5
1C15
330
9
100
AcDbSymbolTableRecord
100
AcDbRegAppTableRecord
  2
GEVID1214872427
 70
     0
  0
APPID
  5
1C2A
330
9
100
AcDbSymbolTableRecord
100
AcDbRegAppTableRecord
  2
GEVID1214872428
 70
     0
  0
APPID
  5
1C2F
330
9
100
AcDbSymbolTableRecord
100
AcDbRegAppTableRecord
  2
GEVID1214872429
 70
     0
  0
APPID
  5
1C33
330
9
100
AcDbSymbolTableRecord
100
AcDbRegAppTableRecord
  2
GEVID1214872430
 70
     0
  0
APPID
  5
1C3F
330
9
100
AcDbSymbolTableRecord
100
AcDbRegAppTableRecord
  2
GEVID1214872432
 70
     0
  0
APPID
  5
1C4E
330
9
100
AcDbSymbolTableRecord
100
AcDbRegAppTableRecord
  2
GEVID1214872433
 70
     0
  0
APPID
  5
20DC
330
9
100
AcDbSymbolTableRecord
100
AcDbRegAppTableRecord
  2
AcDbDynamicBlockGUID
 70
     0
  0
APPID
  5
20FD
330
9
100
AcDbSymbolTableRecord
100
AcDbRegAppTableRecord
  2
GENIUS_GENOBJ-N-REV_13
 70
     0
  0
APPID
  5
20FE
330
9
100
AcDbSymbolTableRecord
100
AcDbRegAppTableRecord
  2
GENIUS_GENOBJ-N-RSSYM_13
 70
     0
  0
APPID
  5
20FF
330
9
100
AcDbSymbolTableRecord
100
AcDbRegAppTableRecord
  2
GENIUS_GENSYMENT_13
 70
     0
  0
APPID
  5
2100
330
9
100
AcDbSymbolTableRecord
100
AcDbRegAppTableRecord
  2
GENIUS_GENSCSYM_13
 70
     0
  0
ENDTAB
  0
TABLE
  2
DIMSTYLE
  5
A
330
0
100
AcDbSymbolTable
 70
    29
100
AcDbDimStyleTable
 71
     1
340
5AB
  0
DIMSTYLE
105
5AB
330
A
100
AcDbSymbolTableRecord
100
AcDbDimStyleTableRecord
  2
SEISA
 70
     0
  4
"
 41
2.5
 42
0.625
 43
10.0
 44
0.625
 47
0.1
 48
0.1
 73
     0
 74
     0
 77
     3
 78
     8
 79
     2
 90
     1
140
3.5
141
0.0
143
0.0393701
146
0.71
147
1.5
172
     1
176
     3
177
     3
178
     3
271
     2
272
     3
283
     0
286
     8
340
5D5
341
69
342
69
371
    -1
372
    -1
1001
ACAD_DSTYLE_DIMJAG
1070
   388
1040
1.5
1001
ACAD_DSTYLE_DIMTALN
1070
   392
1070
     1
  0
DIMSTYLE
105
5E9
102
{ACAD_REACTORS
330
49F2
330
4A24
330
4A4B
330
4BDB
330
4CB6
330
4CCE
330
4CE6
330
4D60
330
4D78
330
4DBB
330
4E0B
330
4AB4
330
5A49
330
5B71
330
5B9B
102
}
330
A
100
AcDbSymbolTableRecord
100
AcDbDimStyleTableRecord
  2
SEISA$0
 70
     0
  4
"
 41
2.5
 42
0.625
 43
10.0
 44
0.625
 47
0.1
 48
0.1
 73
     0
 74
     0
 77
     3
 78
     8
 79
     2
 90
     1
140
3.5
141
0.0
143
0.0393701
146
0.71
147
1.5
172
     1
176
     3
177
     3
178
     3
271
     2
272
     3
283
     0
286
     8
340
5D5
341
69
342
69
371
    -1
372
    -1
  0
DIMSTYLE
105
5ECC
330
A
100
AcDbSymbolTableRecord
100
AcDbDimStyleTableRecord
  2
AM_ISO
 70
     0
  4
"
 41
2.5
 42
1.0
 43
10.0
 44
1.0
 47
0.1
 48
0.1
 73
     0
 74
     0
 77
     1
 78
     8
 79
     2
 90
     1
140
3.5
141
0.0
143
0.0393701
146
0.71
147
1.5
172
     1
176
   256
177
   256
178
     2
271
     2
272
     3
274
     4
283
     0
284
     8
340
11
371
    -1
372
    -1
  0
DIMSTYLE
105
5ECD
330
A
100
AcDbSymbolTableRecord
100
AcDbDimStyleTableRecord
  2
AM_ISO$3
 70
     0
  4
"
 41
2.5
 42
1.0
 43
10.0
 44
1.0
 47
0.1
 48
0.1
 73
     0
 77
     1
 78
     8
 79
     2
 90
     1
140
3.5
141
0.0
143
0.0393701
146
0.71
147
1.5
176
   256
177
   256
178
     2
271
     2
272
     3
274
     4
283
     0
284
     8
288
     1
289
     0
340
11
371
    -1
372
    -1
  0
DIMSTYLE
105
5ECE
330
A
100
AcDbSymbolTableRecord
100
AcDbDimStyleTableRecord
  2
AM_ISO$4
 70
     0
  4
"
 41
2.5
 42
1.0
 43
10.0
 44
1.0
 47
0.1
 48
0.1
 73
     0
 77
     1
 78
     8
 79
     2
 90
     1
140
3.5
141
0.0
143
0.0393701
146
0.71
147
1.5
176
   256
177
   256
178
     2
271
     2
272
     3
274
     4
283
     0
284
     8
288
     1
289
     0
340
11
371
    -1
372
    -1
  0
DIMSTYLE
105
5ECF
330
A
100
AcDbSymbolTableRecord
100
AcDbDimStyleTableRecord
  2
AM_ISO$6
 70
     0
  4
"
 41
2.5
 42
1.0
 43
10.0
 44
1.0
 47
0.1
 48
0.1
 73
     0
 74
     0
 78
     8
 79
     2
 90
     1
140
3.5
141
0.0
143
0.0393701
146
0.71
147
1.5
172
     1
176
   256
177
   256
178
     2
271
     2
272
     3
274
     4
283
     0
284
     8
340
11
371
    -1
372
    -1
  0
DIMSTYLE
105
5ED0
330
A
100
AcDbSymbolTableRecord
100
AcDbDimStyleTableRecord
  2
AM_ISO$7
 70
     0
  4
"
 41
2.5
 42
1.0
 43
10.0
 44
1.0
 47
0.1
 48
0.1
 73
     0
 74
     0
 77
     1
 78
     8
 79
     2
 90
     1
140
5.0
141
0.0
143
0.0393701
146
0.71
147
1.5
172
     1
176
   256
177
   256
178
     2
271
     2
272
     3
274
     4
283
     0
284
     8
340
11
371
    -1
372
    -1
  0
DIMSTYLE
105
5ED1
330
A
100
AcDbSymbolTableRecord
100
AcDbDimStyleTableRecord
  2
AM_ISO$SF
 70
     0
  4
"
 41
2.5
 42
1.0
 43
10.0
 44
1.0
 47
0.1
 48
0.1
 73
     0
 74
     0
 75
     1
 76
     1
 77
     1
 78
     8
 79
     2
 90
     1
140
3.5
141
0.0
143
0.0393701
146
0.71
147
1.5
172
     1
176
   256
177
   256
178
     2
271
     2
272
     3
274
     4
283
     0
284
     8
340
11
371
    -1
372
    -1
  0
DIMSTYLE
105
5ED2
330
A
100
AcDbSymbolTableRecord
100
AcDbDimStyleTableRecord
  2
AM_ISO$SH
 70
     0
  4
"
 41
2.5
 42
1.0
 43
10.0
 44
1.0
 47
0.1
 48
0.1
 73
     0
 74
     0
 75
     1
 76
     1
 77
     1
 78
     8
 79
     2
 90
     1
140
3.5
141
0.0
143
0.0393701
144
2.0
146
0.71
147
1.5
172
     1
173
     1
176
   256
177
   256
178
     2
271
     2
272
     3
274
     4
283
     0
284
     8
340
11
343
74
371
    -1
372
    -1
  0
ENDTAB
  0
TABLE
  2
BLOCK_RECORD
  5
1
330
0
100
AcDbSymbolTable
 70
    31
  0
BLOCK_RECORD
  5
1F
102
{ACAD_XDICTIONARY
360
82
102
}
330
1
100
AcDbSymbolTableRecord
100
AcDbBlockTableRecord
  2
*Model_Space
340
22
 70
     0
280
     1
281
     0
  0
BLOCK_RECORD
  5
1B
330
1
100
AcDbSymbolTableRecord
100
AcDbBlockTableRecord
  2
*Paper_Space
340
1E
 70
     0
280
     1
281
     0
  0
BLOCK_RECORD
  5
23
330
1
100
AcDbSymbolTableRecord
100
AcDbBlockTableRecord
  2
*Paper_Space0
340
26
 70
     0
280
     1
281
     0
  0
BLOCK_RECORD
  5
69
330
1
100
AcDbSymbolTableRecord
100
AcDbBlockTableRecord
  2
_Open30
340
0
102
{BLKREFS
331
4A16
331
4A17
331
4BEC
331
4BED
331
4D01
331
4D02
331
4D0A
331
4D0B
331
4D13
331
4D14
331
4DCC
331
4DCD
331
4E42
331
4E43
331
55B1
331
55C7
331
5A75
331
5A76
331
5B95
331
5B96
331
5BDE
331
5BDF
331
5C10
331
5C11
331
5E35
331
5E36
331
5E41
331
5E42
102
}
 70
     0
280
     1
281
     0
  0
BLOCK_RECORD
  5
74
330
1
100
AcDbSymbolTableRecord
100
AcDbBlockTableRecord
  2
GENAXEH
340
0
 70
     0
280
     1
281
     0
  0
BLOCK_RECORD
  5
2AA0
102
{ACAD_XDICTIONARY
360
2AA1
102
}
330
1
100
AcDbSymbolTableRecord
100
AcDbBlockTableRecord
  2
ジュウジマルコネジ
340
0
310
2800000020000000200000000100080000000000000400000000000000000000000000000000000000000000000080000080000000808000800000008000800080800000C0C0C000C0DCC000F0CAA6000020400000206000002080000020A0000020C0000020E00000400000004020000040400000406000004080000040A0
310
000040C0000040E00000600000006020000060400000606000006080000060A0000060C0000060E00000800000008020000080400000806000008080000080A0000080C0000080E00000A0000000A0200000A0400000A0600000A0800000A0A00000A0C00000A0E00000C0000000C0200000C0400000C0600000C0800000C0
310
A00000C0C00000C0E00000E0000000E0200000E0400000E0600000E0800000E0A00000E0C00000E0E00040000000400020004000400040006000400080004000A0004000C0004000E00040200000402020004020400040206000402080004020A0004020C0004020E000404000004040200040404000404060004040800040
310
40A0004040C0004040E00040600000406020004060400040606000406080004060A0004060C0004060E00040800000408020004080400040806000408080004080A0004080C0004080E00040A0000040A0200040A0400040A0600040A0800040A0A00040A0C00040A0E00040C0000040C0200040C0400040C0600040C08000
310
40C0A00040C0C00040C0E00040E0000040E0200040E0400040E0600040E0800040E0A00040E0C00040E0E00080000000800020008000400080006000800080008000A0008000C0008000E00080200000802020008020400080206000802080008020A0008020C0008020E00080400000804020008040400080406000804080
310
008040A0008040C0008040E00080600000806020008060400080606000806080008060A0008060C0008060E00080800000808020008080400080806000808080008080A0008080C0008080E00080A0000080A0200080A0400080A0600080A0800080A0A00080A0C00080A0E00080C0000080C0200080C0400080C0600080C0
310
800080C0A00080C0C00080C0E00080E0000080E0200080E0400080E0600080E0800080E0A00080E0C00080E0E000C0000000C0002000C0004000C0006000C0008000C000A000C000C000C000E000C0200000C0202000C0204000C0206000C0208000C020A000C020C000C020E000C0400000C0402000C0404000C0406000C0
310
408000C040A000C040C000C040E000C0600000C0602000C0604000C0606000C0608000C060A000C060C000C060E000C0800000C0802000C0804000C0806000C0808000C080A000C080C000C080E000C0A00000C0A02000C0A04000C0A06000C0A08000C0A0A000C0A0C000C0A0E000C0C00000C0C02000C0C04000C0C06000
310
C0C08000C0C0A000F0FBFF00A4A0A000808080000000FF0000FF000000FFFF00FF000000FF00FF00FFFF0000FFFFFF0000000000000000000000000000000000000000000000000000000000000000000000000000000000000000000000000000000000000000000000000000000000000000000000000000000000000000
310
0000000000000000000000000000000000000000000000000000000000FFFFFF0000000000000000000000000000000000000000000000000000000000FF00000000000000000000000000000000000000000000000000000000000000FF00000000000000000000000000000000000000000000000000000000000000FF00
310
00000000000000000000000000000000000000000000000000000000FFFFFF00000000000000000000000000000000000000000000000000000000FF0000FF000000000000000000000000000000000000000000000000000000FF000000FF0000000000000000000000000000000000000000000000000000FF00000000FF
310
FFFF0000000000000000000000000000000000000000000000FFFF00000000FFFFFFFFFFFFFFFFFFFFFFFFFE00000000000000000000000000FF0000000000FF00000000000000000000FFFF00000000000000000000000000FF0000000000FF00000000000000000000FFFF00000000000000000000000000FF0000000000
310
FF00000000000000000000FFFF00000000000000000000000000FF0000000000FF00000000000000000000FFFF0000000000000000F9F9F9F9F9F9F9F9F9F9F9FFF9F9F9F9F9F9F9F9F9F9FFFFF9F9F9F9F9F900000000000000FF0000000000FF00000000000000000000FFFF00000000000000000000000000FF00000000
310
00FF00000000000000000000FFFF00000000000000000000000000FF0000000000FF00000000000000000000FFFF00000000000000000000000000FFFF00000000FFFEFEFEFEFEFEFEFEFEFEFEFE0000000000000000000000000000FF00000000FFFFFF00000000000000000000000000000000000000000000000000FF00
310
0000FF00000000000000000000000000000000000000000000000000000000FF0000FF0000000000000000000000000000000000000000000000000000000000FFFFFF00000000000000000000000000000000000000000000000000000000000000FF00000000000000000000000000000000000000000000000000000000
310
000000FF00000000000000000000000000000000000000000000000000000000000000FF00000000000000000000000000000000000000000000000000000000000000FFFFFF000000000000000000000000000000000000000000000000000000000000000000000000000000000000000000000000000000000000000000
310
0000000000000000000000000000000000000000000000000000000000000000000000000000000000000000000000000000000000000000
102
{BLKREFS
331
4863
102
}
 70
     4
280
     1
281
     1
  0
BLOCK_RECORD
  5
2BD1
330
1
100
AcDbSymbolTableRecord
100
AcDbBlockTableRecord
  2
GENDOT
340
0
102
{BLKREFS
331
55B0
331
55C6
102
}
 70
     0
280
     1
281
     0
  0
BLOCK_RECORD
  5
44A6
102
{ACAD_XDICTIONARY
360
4553
102
}
330
1
100
AcDbSymbolTableRecord
100
AcDbBlockTableRecord
  2
センタB SMVH160
340
0
310
2800000020000000200000000100080000000000000400000000000000000000000000000000000000000000000080000080000000808000800000008000800080800000C0C0C000C0DCC000F0CAA6000020400000206000002080000020A0000020C0000020E00000400000004020000040400000406000004080000040A0
310
000040C0000040E00000600000006020000060400000606000006080000060A0000060C0000060E00000800000008020000080400000806000008080000080A0000080C0000080E00000A0000000A0200000A0400000A0600000A0800000A0A00000A0C00000A0E00000C0000000C0200000C0400000C0600000C0800000C0
310
A00000C0C00000C0E00000E0000000E0200000E0400000E0600000E0800000E0A00000E0C00000E0E00040000000400020004000400040006000400080004000A0004000C0004000E00040200000402020004020400040206000402080004020A0004020C0004020E000404000004040200040404000404060004040800040
310
40A0004040C0004040E00040600000406020004060400040606000406080004060A0004060C0004060E00040800000408020004080400040806000408080004080A0004080C0004080E00040A0000040A0200040A0400040A0600040A0800040A0A00040A0C00040A0E00040C0000040C0200040C0400040C0600040C08000
310
40C0A00040C0C00040C0E00040E0000040E0200040E0400040E0600040E0800040E0A00040E0C00040E0E00080000000800020008000400080006000800080008000A0008000C0008000E00080200000802020008020400080206000802080008020A0008020C0008020E00080400000804020008040400080406000804080
310
008040A0008040C0008040E00080600000806020008060400080606000806080008060A0008060C0008060E00080800000808020008080400080806000808080008080A0008080C0008080E00080A0000080A0200080A0400080A0600080A0800080A0A00080A0C00080A0E00080C0000080C0200080C0400080C0600080C0
310
800080C0A00080C0C00080C0E00080E0000080E0200080E0400080E0600080E0800080E0A00080E0C00080E0E000C0000000C0002000C0004000C0006000C0008000C000A000C000C000C000E000C0200000C0202000C0204000C0206000C0208000C020A000C020C000C020E000C0400000C0402000C0404000C0406000C0
310
408000C040A000C040C000C040E000C0600000C0602000C0604000C0606000C0608000C060A000C060C000C060E000C0800000C0802000C0804000C0806000C0808000C080A000C080C000C080E000C0A00000C0A02000C0A04000C0A06000C0A08000C0A0A000C0A0C000C0A0E000C0C00000C0C02000C0C04000C0C06000
310
C0C08000C0C0A000F0FBFF00A4A0A000808080000000FF0000FF000000FFFF00FF000000FF00FF00FFFF0000FFFFFF0000000000000000000000000000000000000000000000000000000000000000000000000000000000000000000000000000000000000000000000000000000000000000000000000000000000000000
310
00000000000000000000000000000000000000000000000000000000000000000000000000000000000000000000000000000000000000000000000000000000000000000000000000000000000000000000000000FFFFFFFFFFFFFFFFFFFFFFFFFFFF000000000000000000000000000000000000FF0000000000FFFF0000
310
00000000000000000000000000000000000000000000FF0000000000FFFF00000000000000000000000000000000000000000000FFFFFF0000000000FFFF00000000000000000000000000000000000000000000FFF9000000000000FFFF000000000000000000000000000000000000000000F9F9F9F90000000000FFFF00
310
000000000000000000000000000000000000000000FFF9000000000000FFFF00000000000000000000000000000000000000000000FFF9000000000000FFFF00000000000000000000000000000000000000000000FFFFFF0000000000FFFF0000000000000000000000000000000000000000000000F9FF0000000000FFFF
310
000000000000000000000000000000000000000000000000FF0000000000FFFF000000000000000000000000000000000000000000000000FF0000000000FFFF000000000000000000000000000000000000000000000000FF0000000000FFFF000000000000000000000000000000000000FF0000000000FF0000000000FF
310
FF000000000000000000000000000000000000FF0000000000FF0000000000FFFF0000000000FFFFFFFFFFFFFFFFFFFFFFFFFFFF0000000000FF0000000000FFFF0000000000FFFFFFFFFFFFFFFFFFFFFFFFFF000000000000FF0000000000FFFF0000000000000000000000000000000000FF000000000000FF0000000000
310
FFFF0000000000000000000000000000000000FF000000000000FF0000000000FFFF0000000000000000000000000000000000FF000000000000FF0000000000FFFF0000000000000000000000000000000000FF000000000000FF0000000000FFFF0000000000000000000000000000000000FF000000000000FFFFFFFFFF
310
FFFFFFFFFFFFFFFFFFFFFFFFFFFFFFFFFFFFFFFFFF00000000000000000000000000000000000000000000000000000000000000000000000000000000000000000000000000000000000000000000000000000000000000000000000000000000000000000000000000000000000000000000000000000000000000000000
310
0000000000000000000000000000000000000000000000000000000000000000000000000000000000000000000000000000000000000000
102
{BLKREFS
331
44C5
102
}
 70
     4
280
     1
281
     1
  0
BLOCK_RECORD
  5
4587
102
{ACAD_XDICTIONARY
360
45E3
102
}
330
1
100
AcDbSymbolTableRecord
100
AcDbBlockTableRecord
  2
センタＡ SMVH160
340
0
310
2800000020000000200000000100080000000000000400000000000000000000000000000000000000000000000080000080000000808000800000008000800080800000C0C0C000C0DCC000F0CAA6000020400000206000002080000020A0000020C0000020E00000400000004020000040400000406000004080000040A0
310
000040C0000040E00000600000006020000060400000606000006080000060A0000060C0000060E00000800000008020000080400000806000008080000080A0000080C0000080E00000A0000000A0200000A0400000A0600000A0800000A0A00000A0C00000A0E00000C0000000C0200000C0400000C0600000C0800000C0
310
A00000C0C00000C0E00000E0000000E0200000E0400000E0600000E0800000E0A00000E0C00000E0E00040000000400020004000400040006000400080004000A0004000C0004000E00040200000402020004020400040206000402080004020A0004020C0004020E000404000004040200040404000404060004040800040
310
40A0004040C0004040E00040600000406020004060400040606000406080004060A0004060C0004060E00040800000408020004080400040806000408080004080A0004080C0004080E00040A0000040A0200040A0400040A0600040A0800040A0A00040A0C00040A0E00040C0000040C0200040C0400040C0600040C08000
310
40C0A00040C0C00040C0E00040E0000040E0200040E0400040E0600040E0800040E0A00040E0C00040E0E00080000000800020008000400080006000800080008000A0008000C0008000E00080200000802020008020400080206000802080008020A0008020C0008020E00080400000804020008040400080406000804080
310
008040A0008040C0008040E00080600000806020008060400080606000806080008060A0008060C0008060E00080800000808020008080400080806000808080008080A0008080C0008080E00080A0000080A0200080A0400080A0600080A0800080A0A00080A0C00080A0E00080C0000080C0200080C0400080C0600080C0
310
800080C0A00080C0C00080C0E00080E0000080E0200080E0400080E0600080E0800080E0A00080E0C00080E0E000C0000000C0002000C0004000C0006000C0008000C000A000C000C000C000E000C0200000C0202000C0204000C0206000C0208000C020A000C020C000C020E000C0400000C0402000C0404000C0406000C0
310
408000C040A000C040C000C040E000C0600000C0602000C0604000C0606000C0608000C060A000C060C000C060E000C0800000C0802000C0804000C0806000C0808000C080A000C080C000C080E000C0A00000C0A02000C0A04000C0A06000C0A08000C0A0A000C0A0C000C0A0E000C0C00000C0C02000C0C04000C0C06000
310
C0C08000C0C0A000F0FBFF00A4A0A000808080000000FF0000FF000000FFFF00FF000000FF00FF00FFFF0000FFFFFF0000000000000000000000000000000000000000000000000000000000000000000000000000000000000000000000000000000000000000000000000000000000000000000000000000000000000000
310
00000000000000000000000000000000000000000000000000000000000000000000000000000000000000000000000000000000000000000000000000000000000000000000000000000000000000000000000000FFFFFFFFFFFFFFFFFFFFFFFFFFFFFFFFFFFFFFFFFFFFFFFFFFFF000000000000FF0000000000FFFF0000
310
000000000000000000000000000000FF000000000000FF0000000000FFFF0000000000000000000000000000000000FF000000000000FF0000000000FFFF0000000000000000000000000000000000FF000000000000FF0000000000FFFF0000000000000000000000000000000000FF000000000000FF0000000000FFFF00
310
00000000000000000000000000000000FF000000000000FF0000000000FFFF0000000000FFFFFFFFFFFFFFFFFFFFFFFFFF000000000000FF0000000000FFFF0000000000FFFFFFFFFFFFFFFFFFFFFFFFFFFF0000000000FF0000000000FFFF000000000000000000000000000000000000FF0000000000FF0000000000FFFF
310
000000000000000000000000000000000000FF0000000000FF0000000000FFFF000000000000000000000000000000000000000000000000FF0000000000FFFF0000000000000000000000000000000000000000000000F9FF0000000000FFFF00000000000000000000000000000000000000000000FFFFFF0000000000FF
310
FF00000000000000000000000000000000000000000000FFFF000000000000FFFF00000000000000000000000000000000000000000000FFFF000000000000FFFF000000000000000000000000000000000000000000F9FFFFF90000000000FFFF00000000000000000000000000000000000000000000FFFF000000000000
310
FFFF00000000000000000000000000000000000000000000FFFFFF0000000000FFFF000000000000000000000000000000000000000000000000FF0000000000FFFF000000000000000000000000000000000000000000000000FF0000000000FFFF000000000000000000000000000000000000000000000000FFFFFFFFFF
310
FFFFFFFFFFFFFFFFFF00000000000000000000000000000000000000000000000000000000000000000000000000000000000000000000000000000000000000000000000000000000000000000000000000000000000000000000000000000000000000000000000000000000000000000000000000000000000000000000
310
0000000000000000000000000000000000000000000000000000000000000000000000000000000000000000000000000000000000000000
102
{BLKREFS
331
45A6
102
}
 70
     4
280
     1
281
     1
  0
BLOCK_RECORD
  5
4662
102
{ACAD_XDICTIONARY
360
4719
102
}
330
1
100
AcDbSymbolTableRecord
100
AcDbBlockTableRecord
  2
ケースＡ SMVH160
340
0
310
2800000020000000200000000100080000000000000400000000000000000000000000000000000000000000000080000080000000808000800000008000800080800000C0C0C000C0DCC000F0CAA6000020400000206000002080000020A0000020C0000020E00000400000004020000040400000406000004080000040A0
310
000040C0000040E00000600000006020000060400000606000006080000060A0000060C0000060E00000800000008020000080400000806000008080000080A0000080C0000080E00000A0000000A0200000A0400000A0600000A0800000A0A00000A0C00000A0E00000C0000000C0200000C0400000C0600000C0800000C0
310
A00000C0C00000C0E00000E0000000E0200000E0400000E0600000E0800000E0A00000E0C00000E0E00040000000400020004000400040006000400080004000A0004000C0004000E00040200000402020004020400040206000402080004020A0004020C0004020E000404000004040200040404000404060004040800040
310
40A0004040C0004040E00040600000406020004060400040606000406080004060A0004060C0004060E00040800000408020004080400040806000408080004080A0004080C0004080E00040A0000040A0200040A0400040A0600040A0800040A0A00040A0C00040A0E00040C0000040C0200040C0400040C0600040C08000
310
40C0A00040C0C00040C0E00040E0000040E0200040E0400040E0600040E0800040E0A00040E0C00040E0E00080000000800020008000400080006000800080008000A0008000C0008000E00080200000802020008020400080206000802080008020A0008020C0008020E00080400000804020008040400080406000804080
310
008040A0008040C0008040E00080600000806020008060400080606000806080008060A0008060C0008060E00080800000808020008080400080806000808080008080A0008080C0008080E00080A0000080A0200080A0400080A0600080A0800080A0A00080A0C00080A0E00080C0000080C0200080C0400080C0600080C0
310
800080C0A00080C0C00080C0E00080E0000080E0200080E0400080E0600080E0800080E0A00080E0C00080E0E000C0000000C0002000C0004000C0006000C0008000C000A000C000C000C000E000C0200000C0202000C0204000C0206000C0208000C020A000C020C000C020E000C0400000C0402000C0404000C0406000C0
310
408000C040A000C040C000C040E000C0600000C0602000C0604000C0606000C0608000C060A000C060C000C060E000C0800000C0802000C0804000C0806000C0808000C080A000C080C000C080E000C0A00000C0A02000C0A04000C0A06000C0A08000C0A0A000C0A0C000C0A0E000C0C00000C0C02000C0C04000C0C06000
310
C0C08000C0C0A000F0FBFF00A4A0A000808080000000FF0000FF000000FFFF00FF000000FF00FF00FFFF0000FFFFFF0000000000000000000000000000000000000000000000000000000000000000000000000000000000000000000000000000000000000000000000000000000000000000000000000000000000000000
310
00000000000000000000000000000000000000000000000000000000000000000000000000000000000000000000000000000000000000000000000000000000000000000000000000000000000000000000000000000000000000000000000000000000000000000000000000000000000000000000000000000000000000
310
000000000000000000000000000000000000000000000000000000000000000000000000000000000000000000000000000000000000000000000000000000000000000000000000000000000000000000000000000000FFFFFF0000000000000000FFFFFFFFFFFFFFFFFFFFFF00000000000000000000FF00FF0000000000
310
00000000000000000000000000FF00000000000000000000FFA4A4000000000000000000000000000000000000FF00000000000000000000FFFFA4000000000000000000000000000000000000FF00000000000000000000FFFFA4000000000000000000000000000000000000FF00000000000000000000FFFFFF00000000
310
0000000000000000000000000000FF00F90000000000FFFFFFFFFFFF0000000000000000FFFFFFFFFFFFFFFFFFFFFFFFFFFFFF0000F9FFFEF9F9FFF90000000000000000000000000000000000000000F900FF000000FEFEFFFFFF000000000000000000000000000000000000000000F900FF000000FF0000FFFF00000000
310
0000000000FFFFFFFFFFFFFFFFFFFFFFFFFFFFFF0000000000000000000000000000000000000000000000000000000000F900000000000000000000000000000000000000000000000000000000000000F900000000000000000000000000000000000000000000000000000000000000F900000000000000000000000000
310
000000000000000000000000000000000000F9000000000000000000000000000000000000000000000000000000000000000000000000000000000000000000000000000000000000000000000000000000000000000000000000000000000000000000000000000000000000000000000000000000000000000000000000
310
00000000000000000000000000000000000000000000000000000000000000000000000000000000000000000000000000000000000000000000000000000000000000000000000000000000000000000000000000000000000000000000000000000000000000000000000000000000000000000000000000000000000000
310
0000000000000000000000000000000000000000000000000000000000000000000000000000000000000000000000000000000000000000
102
{BLKREFS
331
469C
102
}
 70
     4
280
     1
281
     1
  0
BLOCK_RECORD
  5
4827
102
{ACAD_XDICTIONARY
360
48E3
102
}
330
1
100
AcDbSymbolTableRecord
100
AcDbBlockTableRecord
  2
ケースＢ SMVH160
340
0
310
2800000020000000200000000100080000000000000400000000000000000000000000000000000000000000000080000080000000808000800000008000800080800000C0C0C000C0DCC000F0CAA6000020400000206000002080000020A0000020C0000020E00000400000004020000040400000406000004080000040A0
310
000040C0000040E00000600000006020000060400000606000006080000060A0000060C0000060E00000800000008020000080400000806000008080000080A0000080C0000080E00000A0000000A0200000A0400000A0600000A0800000A0A00000A0C00000A0E00000C0000000C0200000C0400000C0600000C0800000C0
310
A00000C0C00000C0E00000E0000000E0200000E0400000E0600000E0800000E0A00000E0C00000E0E00040000000400020004000400040006000400080004000A0004000C0004000E00040200000402020004020400040206000402080004020A0004020C0004020E000404000004040200040404000404060004040800040
310
40A0004040C0004040E00040600000406020004060400040606000406080004060A0004060C0004060E00040800000408020004080400040806000408080004080A0004080C0004080E00040A0000040A0200040A0400040A0600040A0800040A0A00040A0C00040A0E00040C0000040C0200040C0400040C0600040C08000
310
40C0A00040C0C00040C0E00040E0000040E0200040E0400040E0600040E0800040E0A00040E0C00040E0E00080000000800020008000400080006000800080008000A0008000C0008000E00080200000802020008020400080206000802080008020A0008020C0008020E00080400000804020008040400080406000804080
310
008040A0008040C0008040E00080600000806020008060400080606000806080008060A0008060C0008060E00080800000808020008080400080806000808080008080A0008080C0008080E00080A0000080A0200080A0400080A0600080A0800080A0A00080A0C00080A0E00080C0000080C0200080C0400080C0600080C0
310
800080C0A00080C0C00080C0E00080E0000080E0200080E0400080E0600080E0800080E0A00080E0C00080E0E000C0000000C0002000C0004000C0006000C0008000C000A000C000C000C000E000C0200000C0202000C0204000C0206000C0208000C020A000C020C000C020E000C0400000C0402000C0404000C0406000C0
310
408000C040A000C040C000C040E000C0600000C0602000C0604000C0606000C0608000C060A000C060C000C060E000C0800000C0802000C0804000C0806000C0808000C080A000C080C000C080E000C0A00000C0A02000C0A04000C0A06000C0A08000C0A0A000C0A0C000C0A0E000C0C00000C0C02000C0C04000C0C06000
310
C0C08000C0C0A000F0FBFF00A4A0A000808080000000FF0000FF000000FFFF00FF000000FF00FF00FFFF0000FFFFFF0000000000000000000000000000000000000000000000000000000000000000000000000000000000000000000000000000000000000000000000000000000000000000000000000000000000000000
310
00000000000000000000000000000000000000000000000000000000000000000000000000000000000000000000000000000000000000000000000000000000000000000000000000000000000000000000000000000000000000000000000000000000000000000000000000000000000000000000000000000000000000
310
00000000000000000000000000000000000000000000000000000000000000000000000000000000000000000000000000000000000000000000000000000000000000000000000000000000000000000000000000000000000000000000000000000000000000000000000000000000000000000000000000000000000000
310
000000000000000000000000000000000000000000FFFFFFFFFF0000000000000000000000000000000000000000000000FF0000F9FFFFFFFFFFF900000000000000000000000000000000000000000000FF000000FEFEFFFFFF0000000000000000000000000000000000000000000000FF000000FFFFFFFFFFFF00000000
310
00000000FFFFFFFFFFFFFFFFFFFFFFFFFFFFFF000000000000FFFFF9000000000000000000000000000000000000FF00000000000000000000FFFFF9000000000000000000000000000000000000FF00000000000000000000FFFFA4000000000000000000000000000000000000FF000000000000000000F9FFFEFF000000
310
000000000000000000000000000000FF00000000000000000000FF00FF000000000000000000000000000000000000FF00000000000000000000FFFFFF0000000000000000FFFFFFFFFFFFFFFFFFFFFF0000000000000000000000000000000000000000000000000000000000000000000000000000000000000000000000
310
00000000000000000000000000000000000000000000000000000000000000000000000000000000000000000000000000000000000000000000000000000000000000000000000000000000000000000000000000000000000000000000000000000000000000000000000000000000000000000000000000000000000000
310
00000000000000000000000000000000000000000000000000000000000000000000000000000000000000000000000000000000000000000000000000000000000000000000000000000000000000000000000000000000000000000000000000000000000000000000000000000000000000000000000000000000000000
310
0000000000000000000000000000000000000000000000000000000000000000000000000000000000000000000000000000000000000000
102
{BLKREFS
331
4864
102
}
 70
     4
280
     1
281
     1
  0
BLOCK_RECORD
  5
4900
102
{ACAD_XDICTIONARY
360
4927
102
}
330
1
100
AcDbSymbolTableRecord
100
AcDbBlockTableRecord
  2
スラストプレ－ト SMVH160
340
0
310
2800000020000000200000000100080000000000000400000000000000000000000000000000000000000000000080000080000000808000800000008000800080800000C0C0C000C0DCC000F0CAA6000020400000206000002080000020A0000020C0000020E00000400000004020000040400000406000004080000040A0
310
000040C0000040E00000600000006020000060400000606000006080000060A0000060C0000060E00000800000008020000080400000806000008080000080A0000080C0000080E00000A0000000A0200000A0400000A0600000A0800000A0A00000A0C00000A0E00000C0000000C0200000C0400000C0600000C0800000C0
310
A00000C0C00000C0E00000E0000000E0200000E0400000E0600000E0800000E0A00000E0C00000E0E00040000000400020004000400040006000400080004000A0004000C0004000E00040200000402020004020400040206000402080004020A0004020C0004020E000404000004040200040404000404060004040800040
310
40A0004040C0004040E00040600000406020004060400040606000406080004060A0004060C0004060E00040800000408020004080400040806000408080004080A0004080C0004080E00040A0000040A0200040A0400040A0600040A0800040A0A00040A0C00040A0E00040C0000040C0200040C0400040C0600040C08000
310
40C0A00040C0C00040C0E00040E0000040E0200040E0400040E0600040E0800040E0A00040E0C00040E0E00080000000800020008000400080006000800080008000A0008000C0008000E00080200000802020008020400080206000802080008020A0008020C0008020E00080400000804020008040400080406000804080
310
008040A0008040C0008040E00080600000806020008060400080606000806080008060A0008060C0008060E00080800000808020008080400080806000808080008080A0008080C0008080E00080A0000080A0200080A0400080A0600080A0800080A0A00080A0C00080A0E00080C0000080C0200080C0400080C0600080C0
310
800080C0A00080C0C00080C0E00080E0000080E0200080E0400080E0600080E0800080E0A00080E0C00080E0E000C0000000C0002000C0004000C0006000C0008000C000A000C000C000C000E000C0200000C0202000C0204000C0206000C0208000C020A000C020C000C020E000C0400000C0402000C0404000C0406000C0
310
408000C040A000C040C000C040E000C0600000C0602000C0604000C0606000C0608000C060A000C060C000C060E000C0800000C0802000C0804000C0806000C0808000C080A000C080C000C080E000C0A00000C0A02000C0A04000C0A06000C0A08000C0A0A000C0A0C000C0A0E000C0C00000C0C02000C0C04000C0C06000
310
C0C08000C0C0A000F0FBFF00A4A0A000808080000000FF0000FF000000FFFF00FF000000FF00FF00FFFF0000FFFFFF0000000000000000000000000000000000000000000000000000000000000000000000000000000000000000000000000000000000000000000000000000000000000000000000000000000000000000
310
00000000000000000000000000000000000000000000000000000000000000000000000000000000000000000000000000000000000000000000000000000000000000000000000000000000000000000000000000000000000000000000000000000000000000000000000000000000000000000000000000000000000000
310
00000000000000000000000000000000000000000000000000000000000000000000000000000000000000000000000000000000000000000000000000000000000000000000000000000000000000000000000000000000000000000000000000000000000000000000000000000000000000000000000000000000000000
310
0000000000000000000000000000000000000000000000000000000000000000000000000000000000000000000000000000000000000000000000000000000000000000000000000000000000000000000000000000000000000000FF00000000FF0000000000000000000000000000000000000000FFFFFFFFFFFFFF0000
310
0000FFFFFFFFFFFFFFFFFFFFFFFFFFFFFFFFFF00000000FF0000000000000000000000000000000000000000000000000000000000FFFFFF0000000000000000000000000000000000000000000000000000000000000000FFFFFFFFFFFFFFFFFFFFFFFFFFFFFFFFFFFFFFFFFFFFFFFFFFFFFF0000FFFFFFFFFFFFFFFFFFFF
310
FFFFFFFFFFFFFFFFFFFFFFFFFFFFFFFFFFFFFFFF0000000000000000000000000000000000000000000000000000000000000000000000000000000000000000000000000000000000000000000000000000000000000000000000000000000000000000000000000000000000000000000000000000000000000000000000
310
00000000000000000000000000000000000000000000000000000000000000000000000000000000000000000000000000000000000000000000000000000000000000000000000000000000000000000000000000000000000000000000000000000000000000000000000000000000000000000000000000000000000000
310
00000000000000000000000000000000000000000000000000000000000000000000000000000000000000000000000000000000000000000000000000000000000000000000000000000000000000000000000000000000000000000000000000000000000000000000000000000000000000000000000000000000000000
310
0000000000000000000000000000000000000000000000000000000000000000000000000000000000000000000000000000000000000000
102
{BLKREFS
331
490C
102
}
 70
     4
280
     1
281
     1
  0
BLOCK_RECORD
  5
4974
102
{ACAD_XDICTIONARY
360
49E3
102
}
330
1
100
AcDbSymbolTableRecord
100
AcDbBlockTableRecord
  2
リーマボルト SMVH160 M8
340
0
310
2800000020000000200000000100080000000000000400000000000000000000000000000000000000000000000080000080000000808000800000008000800080800000C0C0C000C0DCC000F0CAA6000020400000206000002080000020A0000020C0000020E00000400000004020000040400000406000004080000040A0
310
000040C0000040E00000600000006020000060400000606000006080000060A0000060C0000060E00000800000008020000080400000806000008080000080A0000080C0000080E00000A0000000A0200000A0400000A0600000A0800000A0A00000A0C00000A0E00000C0000000C0200000C0400000C0600000C0800000C0
310
A00000C0C00000C0E00000E0000000E0200000E0400000E0600000E0800000E0A00000E0C00000E0E00040000000400020004000400040006000400080004000A0004000C0004000E00040200000402020004020400040206000402080004020A0004020C0004020E000404000004040200040404000404060004040800040
310
40A0004040C0004040E00040600000406020004060400040606000406080004060A0004060C0004060E00040800000408020004080400040806000408080004080A0004080C0004080E00040A0000040A0200040A0400040A0600040A0800040A0A00040A0C00040A0E00040C0000040C0200040C0400040C0600040C08000
310
40C0A00040C0C00040C0E00040E0000040E0200040E0400040E0600040E0800040E0A00040E0C00040E0E00080000000800020008000400080006000800080008000A0008000C0008000E00080200000802020008020400080206000802080008020A0008020C0008020E00080400000804020008040400080406000804080
310
008040A0008040C0008040E00080600000806020008060400080606000806080008060A0008060C0008060E00080800000808020008080400080806000808080008080A0008080C0008080E00080A0000080A0200080A0400080A0600080A0800080A0A00080A0C00080A0E00080C0000080C0200080C0400080C0600080C0
310
800080C0A00080C0C00080C0E00080E0000080E0200080E0400080E0600080E0800080E0A00080E0C00080E0E000C0000000C0002000C0004000C0006000C0008000C000A000C000C000C000E000C0200000C0202000C0204000C0206000C0208000C020A000C020C000C020E000C0400000C0402000C0404000C0406000C0
310
408000C040A000C040C000C040E000C0600000C0602000C0604000C0606000C0608000C060A000C060C000C060E000C0800000C0802000C0804000C0806000C0808000C080A000C080C000C080E000C0A00000C0A02000C0A04000C0A06000C0A08000C0A0A000C0A0C000C0A0E000C0C00000C0C02000C0C04000C0C06000
310
C0C08000C0C0A000F0FBFF00A4A0A000808080000000FF0000FF000000FFFF00FF000000FF00FF00FFFF0000FFFFFF000000000000000000000000000000000000000000000000000000000000000000000000000000000000000000FFFFFFFFFFFFFFFF0000000000000000000000000000000000000000000000FFFFFFFF
310
FFFFFFFFFFFF00000000000000000000000000000000000000000000FF00FF00000000FF00FF00000000000000000000000000000000000000000000FF00FF00000000FF00FF00000000000000000000000000000000000000000000FF00FF00000000FF00FF00000000000000000000000000000000000000000000000000
310
00000000000000000000000000000000000000000000000000000000000000000000000000000000000000000000000000000000000000000000000000000000000000000000000000000000000000000000000000000000000000000000000000000000000000000000000000000000000000000000000000000000000000
310
00000000000000000000000000000000000000000000000000000000000000000000000000000000000000000000000000000000000000000000000000000000000000000000000000000000000000000000000000000000000000000000000000000000000000000000000000000000000000000000000000000000000000
310
00000000000000000000000000000000000000000000000000000000000000000000000000000000000000000000000000000000000000000000000000000000000000000000000000000000000000000000000000000000000000000000000000000000000000000000000000000000000000000000000000000000000000
310
00000000000000000000000000000000000000000000000000000000000000000000000000000000000000000000000000000000000000000000000000000000000000000000000000000000000000000000000000000000000000000000000000000000000000000000000000000000000000000000000000000000000000
310
00FF00000000FF000000FF00000000000000000000000000000000000000000000FF00000000FF000000FF00000000000000000000000000000000000000000000FFFFFFFFFFFFFFFFFFFF00000000000000000000000000000000000000000000FF00FF00000000FF00FF0000000000000000000000000000000000000000
310
0000FF00FF00000000FF00FF00000000000000000000000000000000000000000000FFFFFFFFFFFFFFFFFFFF0000000000000000000000000000000000000000000000FFFFFFFFFFFFFFFF00000000000000000000000000000000000000000000000000FFFFFFFFFFFF000000000000000000000000000000000000000000
310
000000000000FFFFFFFF00000000000000000000000000000000000000000000000000000000000000000000000000000000000000000000
102
{BLKREFS
331
4998
102
}
 70
     4
280
     1
281
     1
  0
BLOCK_RECORD
  5
49F3
330
1
100
AcDbSymbolTableRecord
100
AcDbBlockTableRecord
  2
*D14
340
0
 70
     0
280
     1
281
     0
  0
BLOCK_RECORD
  5
4A25
330
1
100
AcDbSymbolTableRecord
100
AcDbBlockTableRecord
  2
*D15
340
0
 70
     0
280
     1
281
     0
  0
BLOCK_RECORD
  5
4A4C
330
1
100
AcDbSymbolTableRecord
100
AcDbBlockTableRecord
  2
*D16
340
0
 70
     0
280
     1
281
     0
  0
BLOCK_RECORD
  5
4AB5
330
1
100
AcDbSymbolTableRecord
100
AcDbBlockTableRecord
  2
*D17
340
0
 70
     0
280
     1
281
     0
  0
BLOCK_RECORD
  5
4BDC
330
1
100
AcDbSymbolTableRecord
100
AcDbBlockTableRecord
  2
*D18
340
0
 70
     0
280
     1
281
     0
  0
BLOCK_RECORD
  5
4CB7
330
1
100
AcDbSymbolTableRecord
100
AcDbBlockTableRecord
  2
*D19
340
0
 70
     0
280
     1
281
     0
  0
BLOCK_RECORD
  5
4CCF
330
1
100
AcDbSymbolTableRecord
100
AcDbBlockTableRecord
  2
*D20
340
0
 70
     0
280
     1
281
     0
  0
BLOCK_RECORD
  5
4CE7
330
1
100
AcDbSymbolTableRecord
100
AcDbBlockTableRecord
  2
*D21
340
0
 70
     0
280
     1
281
     0
  0
BLOCK_RECORD
  5
4D61
330
1
100
AcDbSymbolTableRecord
100
AcDbBlockTableRecord
  2
*D22
340
0
 70
     0
280
     1
281
     0
  0
BLOCK_RECORD
  5
4D79
330
1
100
AcDbSymbolTableRecord
100
AcDbBlockTableRecord
  2
*D23
340
0
 70
     0
280
     1
281
     0
  0
BLOCK_RECORD
  5
4DBC
330
1
100
AcDbSymbolTableRecord
100
AcDbBlockTableRecord
  2
*D24
340
0
 70
     0
280
     1
281
     0
  0
BLOCK_RECORD
  5
4E0C
330
1
100
AcDbSymbolTableRecord
100
AcDbBlockTableRecord
  2
*D25
340
0
 70
     0
280
     1
281
     0
  0
BLOCK_RECORD
  5
5A4A
330
1
100
AcDbSymbolTableRecord
100
AcDbBlockTableRecord
  2
*D26
340
0
 70
     0
280
     1
281
     0
  0
BLOCK_RECORD
  5
5B72
330
1
100
AcDbSymbolTableRecord
100
AcDbBlockTableRecord
  2
*D27
340
0
 70
     0
280
     1
281
     0
  0
BLOCK_RECORD
  5
5B9C
330
1
100
AcDbSymbolTableRecord
100
AcDbBlockTableRecord
  2
*D28
340
0
 70
     0
280
     1
281
     0
  0
BLOCK_RECORD
  5
5D38
330
1
100
AcDbSymbolTableRecord
100
AcDbBlockTableRecord
  2
ケース
340
0
310
2800000020000000200000000100080000000000000400000000000000000000000000000000000000000000000080000080000000808000800000008000800080800000C0C0C000C0DCC000F0CAA6000020400000206000002080000020A0000020C0000020E00000400000004020000040400000406000004080000040A0
310
000040C0000040E00000600000006020000060400000606000006080000060A0000060C0000060E00000800000008020000080400000806000008080000080A0000080C0000080E00000A0000000A0200000A0400000A0600000A0800000A0A00000A0C00000A0E00000C0000000C0200000C0400000C0600000C0800000C0
310
A00000C0C00000C0E00000E0000000E0200000E0400000E0600000E0800000E0A00000E0C00000E0E00040000000400020004000400040006000400080004000A0004000C0004000E00040200000402020004020400040206000402080004020A0004020C0004020E000404000004040200040404000404060004040800040
310
40A0004040C0004040E00040600000406020004060400040606000406080004060A0004060C0004060E00040800000408020004080400040806000408080004080A0004080C0004080E00040A0000040A0200040A0400040A0600040A0800040A0A00040A0C00040A0E00040C0000040C0200040C0400040C0600040C08000
310
40C0A00040C0C00040C0E00040E0000040E0200040E0400040E0600040E0800040E0A00040E0C00040E0E00080000000800020008000400080006000800080008000A0008000C0008000E00080200000802020008020400080206000802080008020A0008020C0008020E00080400000804020008040400080406000804080
310
008040A0008040C0008040E00080600000806020008060400080606000806080008060A0008060C0008060E00080800000808020008080400080806000808080008080A0008080C0008080E00080A0000080A0200080A0400080A0600080A0800080A0A00080A0C00080A0E00080C0000080C0200080C0400080C0600080C0
310
800080C0A00080C0C00080C0E00080E0000080E0200080E0400080E0600080E0800080E0A00080E0C00080E0E000C0000000C0002000C0004000C0006000C0008000C000A000C000C000C000E000C0200000C0202000C0204000C0206000C0208000C020A000C020C000C020E000C0400000C0402000C0404000C0406000C0
310
408000C040A000C040C000C040E000C0600000C0602000C0604000C0606000C0608000C060A000C060C000C060E000C0800000C0802000C0804000C0806000C0808000C080A000C080C000C080E000C0A00000C0A02000C0A04000C0A06000C0A08000C0A0A000C0A0C000C0A0E000C0C00000C0C02000C0C04000C0C06000
310
C0C08000C0C0A000F0FBFF00A4A0A000808080000000FF0000FF000000FFFF00FF000000FF00FF00FFFF0000FFFFFF000000000000000000000000000000000000000000000000000000000000000000000000000000000000000000FCFCFCFCFCFCFCFCFCFCFC0000000000000000000000000000000000000000FC000000
310
000000000000FC0000000000000000000000000000000000000000FC00000000000000000000FC00000000000000000000000000000000000000FC00000000000000FCFCFCFCFCFC000000000000000000000000000000000000FC00000000000000FC0000000000000000000000000000000000000000000000FC00000000
310
000000FC0000000000000000000000000000000000000000000000FC00000000000000FC0000000000000000000000000000000000000000000000FC00000000000000FC0000000000000000000000000000000000000000000000FC00000000000000FC0000000000000000000000000000000000000000000000FC000000
310
00000000FC0000000000000000000000000000000000000000000000FC00000000000000FCFCFCFCFCFC000000000000000000000000000000000000FC0000000000000000000000FC00000000000000000000000000000000000000FC000000000000FCFCFCFCFCFCFC000000000000000000000000000000000000FC0000
310
000000FC00000000000000000000000000000000000000000000000000FC0000000000FC00FC0000000000000000000000000000000000000000000000FC0000000000FC00FC0000000000000000000000000000000000000000000000FC0000000000FCFCFCFC00000000000000000000000000000000000000000000FC00
310
00000000FC00FC00FC000000000000000000000000000000000000000000FC0000000000FC00FC0000000000000000000000000000000000000000000000FC0000000000FC00FC0000000000000000000000000000000000000000000000FC0000000000FC00FC0000000000000000000000000000000000000000000000FC
310
0000000000FC00FC0000000000000000000000000000000000000000000000FC0000000000FC00FC0000000000000000000000000000000000000000000000FC0000000000FC00FC0000000000000000000000000000000000000000000000FC0000000000FC00FC0000000000000000000000000000000000000000000000
310
FC0000000000FC00FC0000000000000000000000000000000000000000000000FC0000000000FC00FC0000000000000000000000000000000000000000000000FC0000000000FC00FC0000000000000000000000000000000000000000000000FC0000000000FC00FC00000000000000000000000000000000000000000000
310
00FC0000000000FC00FC00000000000000000000000000000000000000000000000000000000000000000000000000000000000000000000
102
{BLKREFS
331
5D4E
102
}
 70
     4
280
     1
281
     1
  0
ENDTAB
  0
ENDSEC
  0
SECTION
  2
BLOCKS
  0
BLOCK
  5
20
330
1F
100
AcDbEntity
  8
0
100
AcDbBlockBegin
  2
*Model_Space
 70
     0
 10
0.0
 20
0.0
 30
0.0
  3
*Model_Space
  1

  0
ENDBLK
  5
21
330
1F
100
AcDbEntity
  8
0
100
AcDbBlockEnd
  0
BLOCK
  5
1C
330
1B
100
AcDbEntity
 67
     1
  8
0
100
AcDbBlockBegin
  2
*Paper_Space
 70
     0
 10
0.0
 20
0.0
 30
0.0
  3
*Paper_Space
  1

  0
ENDBLK
  5
1D
330
1B
100
AcDbEntity
 67
     1
  8
0
100
AcDbBlockEnd
  0
BLOCK
  5
24
330
23
100
AcDbEntity
 67
     1
  8
0
100
AcDbBlockBegin
  2
*Paper_Space0
 70
     0
 10
0.0
 20
0.0
 30
0.0
  3
*Paper_Space0
  1

  0
ENDBLK
  5
25
330
23
100
AcDbEntity
 67
     1
  8
0
100
AcDbBlockEnd
  0
BLOCK
  5
6D
330
69
100
AcDbEntity
  8
0
100
AcDbBlockBegin
  2
_Open30
 70
     0
 10
0.0
 20
0.0
 30
0.0
  3
_Open30
  1

  0
LINE
  5
6A
330
69
100
AcDbEntity
  8
0
  6
ByBlock
 62
     0
370
    -2
100
AcDbLine
 10
-1.0
 20
0.26794919
 30
0.0
 11
0.0
 21
0.0
 31
0.0
  0
LINE
  5
6B
330
69
100
AcDbEntity
  8
0
  6
ByBlock
 62
     0
370
    -2
100
AcDbLine
 10
0.0
 20
0.0
 30
0.0
 11
-1.0
 21
-0.26794919
 31
0.0
  0
LINE
  5
6C
330
69
100
AcDbEntity
  8
0
  6
ByBlock
 62
     0
370
    -2
100
AcDbLine
 10
0.0
 20
0.0
 30
0.0
 11
-1.0
 21
0.0
 31
0.0
  0
ENDBLK
  5
6E
330
69
100
AcDbEntity
  8
0
100
AcDbBlockEnd
  0
BLOCK
  5
76
330
74
100
AcDbEntity
  8
0
100
AcDbBlockBegin
  2
GENAXEH
 70
     0
 10
0.0
 20
0.0
 30
0.0
  3
GENAXEH
  1

  0
LINE
  5
75
330
74
100
AcDbEntity
  8
0
100
AcDbLine
 10
-1.0
 20
0.0
 30
0.0
 11
1.0
 21
0.0
 31
0.0
  0
ENDBLK
  5
77
330
74
100
AcDbEntity
  8
0
100
AcDbBlockEnd
  0
BLOCK
  5
2AA3
330
2AA0
100
AcDbEntity
  8
0
100
AcDbBlockBegin
  2
ジュウジマルコネジ
 70
     0
 10
0.0
 20
0.0
 30
0.0
  3
ジュウジマルコネジ
  1

  0
LWPOLYLINE
  5
4769
330
2AA0
100
AcDbEntity
  8
AM_0 外形線1
100
AcDbPolyline
 90
       36
 70
     0
 43
0.0
 10
0.0
 20
3.5
 10
-0.2330620000000181
 20
3.485910999999986
 10
-0.4642479999999978
 20
3.443754000000011
 10
-0.6916949999999816
 20
3.373870000000009
 10
-0.9135739999999259
 20
3.276823000000035
 10
-1.128097000000024
 20
3.153392000000053
 10
-1.333537999999862
 20
3.004570999999998
 10
-1.528240999999979
 20
2.831560000000024
 10
-1.710640000000011
 20
2.635751000000026
 10
-1.879265999999915
 20
2.418720000000006
 10
-2.032760999999935
 20
2.182215000000041
 10
-2.169889999999895
 20
1.928139999999984
 10
-2.289547999999967
 20
1.658541000000013
 10
-2.390771999999969
 20
1.375587999999992
 10
-2.472747000000025
 20
1.081560000000024
 10
-2.534811999999873
 20
0.778823999999986
 10
-2.57646899999986
 20
0.4698170000000347
 10
-2.597381999999925
 20
0.1570269999999709
 10
-2.597381999999925
 20
-0.1570259999999735
 10
-2.57646899999986
 20
-0.4698159999999804
 10
-2.534811999999873
 20
-0.7788229999999885
 10
-2.472747000000025
 20
-1.081558999999969
 10
-2.390771999999969
 20
-1.375586999999995
 10
-2.289547999999967
 20
-1.658540000000015
 10
-2.169889999999895
 20
-1.928138999999987
 10
-2.032760999999935
 20
-2.182213999999986
 10
-1.879265999999915
 20
-2.41871900000001
 10
-1.710640000000011
 20
-2.63575000000003
 10
-1.528240999999979
 20
-2.83155899999997
 10
-1.333537999999862
 20
-3.004570000000001
 10
-1.128097000000024
 20
-3.153390999999998
 10
-0.9135739999999259
 20
-3.276821999999981
 10
-0.6916949999999816
 20
-3.373870000000009
 10
-0.4642479999999978
 20
-3.443753000000014
 10
-0.2330620000000181
 20
-3.485909999999988
 10
0.0
 20
-3.5
  0
LINE
  5
476A
330
2AA0
100
AcDbEntity
  8
AM_7 中心線
100
AcDbLine
 10
-4.30977699999994
 20
0.0
 30
0.0
 11
7.134604999999965
 21
0.0
 31
0.0
  0
LINE
  5
476B
330
2AA0
100
AcDbEntity
  8
AM_4 細線
100
AcDbLine
 10
4.850000000000136
 20
-1.649999999999976
 30
0.0
 11
0.0
 21
-1.649999999999976
 31
0.0
  0
LINE
  5
476C
330
2AA0
100
AcDbEntity
  8
AM_0 外形線1
100
AcDbLine
 10
4.5
 20
-2.0
 30
0.0
 11
0.0
 21
-2.0
 31
0.0
  0
LINE
  5
476D
330
2AA0
100
AcDbEntity
  8
AM_0 外形線1
100
AcDbLine
 10
4.5
 20
-2.0
 30
0.0
 11
5.0
 21
-1.5
 31
0.0
  0
LINE
  5
476E
330
2AA0
100
AcDbEntity
  8
AM_0 外形線1
100
AcDbLine
 10
5.0
 20
-1.5
 30
0.0
 11
5.0
 21
1.5
 31
0.0
  0
LINE
  5
476F
330
2AA0
100
AcDbEntity
  8
AM_0 外形線1
100
AcDbLine
 10
4.5
 20
-2.0
 30
0.0
 11
4.5
 21
2.0
 31
0.0
  0
LINE
  5
4770
330
2AA0
100
AcDbEntity
  8
AM_0 外形線1
100
AcDbLine
 10
4.5
 20
2.0
 30
0.0
 11
5.0
 21
1.5
 31
0.0
  0
LINE
  5
4771
330
2AA0
100
AcDbEntity
  8
AM_0 外形線1
100
AcDbLine
 10
4.5
 20
2.0
 30
0.0
 11
0.0
 21
2.0
 31
0.0
  0
LINE
  5
4772
330
2AA0
100
AcDbEntity
  8
AM_4 細線
100
AcDbLine
 10
4.850000000000136
 20
1.649999999999976
 30
0.0
 11
0.0
 21
1.649999999999976
 31
0.0
  0
LINE
  5
4773
330
2AA0
100
AcDbEntity
  8
AM_0 外形線1
100
AcDbLine
 10
0.0
 20
5.0
 30
0.0
 11
0.7999999999999547
 21
5.0
 31
0.0
  0
LINE
  5
4774
330
2AA0
100
AcDbEntity
  8
AM_0 外形線1
100
AcDbLine
 10
0.0
 20
2.25
 30
0.0
 11
0.7999999999999547
 21
2.25
 31
0.0
  0
LINE
  5
4775
330
2AA0
100
AcDbEntity
  8
AM_0 外形線1
100
AcDbLine
 10
0.0
 20
-2.25
 30
0.0
 11
0.7999999999999547
 21
-2.25
 31
0.0
  0
LINE
  5
4776
330
2AA0
100
AcDbEntity
  8
AM_0 外形線1
100
AcDbLine
 10
0.0
 20
-5.0
 30
0.0
 11
0.7999999999999547
 21
-5.0
 31
0.0
  0
LINE
  5
4777
330
2AA0
100
AcDbEntity
  8
AM_0 外形線1
100
AcDbLine
 10
0.0
 20
-5.0
 30
0.0
 11
0.0
 21
5.0
 31
0.0
  0
LINE
  5
479D
330
2AA0
100
AcDbEntity
  8
AM_0 外形線1
100
AcDbLine
 10
0.7999999999999547
 20
-5.0
 30
0.0
 11
0.7999999999999547
 21
-2.0
 31
0.0
  0
LINE
  5
479E
330
2AA0
100
AcDbEntity
  8
AM_0 外形線1
100
AcDbLine
 10
0.7999999999999547
 20
2.0
 30
0.0
 11
0.7999999999999547
 21
5.0
 31
0.0
  0
ENDBLK
  5
2AB5
330
2AA0
100
AcDbEntity
  8
0
100
AcDbBlockEnd
  0
BLOCK
  5
2BD2
330
2BD1
100
AcDbEntity
  8
0
100
AcDbBlockBegin
  2
GENDOT
 70
     0
 10
0.0
 20
0.0
 30
0.0
  3
GENDOT
  1

  0
LINE
  5
2BD3
330
2BD1
100
AcDbEntity
  8
0
100
AcDbLine
 10
0.0
 20
0.0
 30
0.0
 11
-1.0
 21
0.0
 31
0.0
  0
LWPOLYLINE
  5
2BD4
330
2BD1
100
AcDbEntity
  8
0
100
AcDbPolyline
 90
        2
 70
     1
 43
0.25
 10
-0.125
 20
0.0
 42
1.0
 10
0.125
 20
0.0
 42
1.0
  0
ENDBLK
  5
2BD5
330
2BD1
100
AcDbEntity
  8
0
100
AcDbBlockEnd
  0
BLOCK
  5
44A7
330
44A6
100
AcDbEntity
  8
0
100
AcDbBlockBegin
  2
センタB SMVH160
 70
     0
 10
0.0
 20
0.0
 30
0.0
  3
センタB SMVH160
  1

  0
LINE
  5
44A9
330
44A6
100
AcDbEntity
  8
AM_0 外形線1
100
AcDbLine
 10
-46.5
 20
0.0
 30
0.0
 11
0.0
 21
0.0
 31
0.0
  0
LINE
  5
44AA
330
44A6
100
AcDbEntity
  8
AM_0 外形線1
100
AcDbLine
 10
43.9000000000001
 20
80.0
 30
0.0
 11
-43.89999999999985
 21
80.0
 31
0.0
  0
ARC
  5
44AB
330
44A6
100
AcDbEntity
  8
AM_0 外形線1
100
AcDbCircle
 10
0.0
 20
21.5
 30
0.0
 40
53.905
100
AcDbArc
 50
169.8494080000032
 51
186.9257219999986
  0
LINE
  5
44AE
330
44A6
100
AcDbEntity
  8
AM_7 中心線
100
AcDbLine
 10
-56.1240429999998
 20
21.5
 30
0.0
 11
-47.0
 21
21.5
 31
0.0
  0
LINE
  5
44AF
330
44A6
100
AcDbEntity
  8
AM_0 外形線1
100
AcDbLine
 10
-52.38069899999982
 20
14.0
 30
0.0
 11
-47.5
 21
14.0
 31
0.0
  0
LINE
  5
44B0
330
44A6
100
AcDbEntity
  8
AM_0 外形線1
100
AcDbLine
 10
-53.51167099999975
 20
15.0
 30
0.0
 11
-52.38069899999982
 21
14.0
 31
0.0
  0
LINE
  5
44B1
330
44A6
100
AcDbEntity
  8
AM_0 外形線1
100
AcDbLine
 10
-47.0
 20
13.5
 30
0.0
 11
-47.0
 21
0.5
 31
0.0
  0
LINE
  5
44B2
330
44A6
100
AcDbEntity
  8
AM_0 外形線1
100
AcDbLine
 10
-47.0
 20
0.5
 30
0.0
 11
-46.5
 21
0.0
 31
0.0
  0
ARC
  5
44B3
330
44A6
100
AcDbEntity
  8
AM_0 外形線1
100
AcDbCircle
 10
-47.5
 20
13.5
 30
0.0
 40
0.5
100
AcDbArc
 50
0.0
 51
90.0
  0
LINE
  5
44B4
330
44A6
100
AcDbEntity
  8
AM_0 外形線1
100
AcDbLine
 10
-46.89999999999986
 20
56.0
 30
0.0
 11
-47.5
 21
54.0
 31
0.0
  0
LINE
  5
44B5
330
44A6
100
AcDbEntity
  8
AM_0 外形線1
100
AcDbLine
 10
-48.0
 20
32.0
 30
0.0
 11
-51.87247799999977
 21
32.0
 31
0.0
  0
LINE
  5
44B6
330
44A6
100
AcDbEntity
  8
AM_0 外形線1
100
AcDbLine
 10
-51.87247799999977
 20
32.0
 30
0.0
 11
-53.06127599999991
 21
31.0
 31
0.0
  0
LINE
  5
44B7
330
44A6
100
AcDbEntity
  8
AM_0 外形線1
100
AcDbLine
 10
-47.5
 20
54.0
 30
0.0
 11
-47.5
 21
32.5
 31
0.0
  0
ARC
  5
44B8
330
44A6
100
AcDbEntity
  8
AM_0 外形線1
100
AcDbCircle
 10
-48.0
 20
32.5
 30
0.0
 40
0.5
100
AcDbArc
 50
270.0
 51
0.0
  0
LINE
  5
44B9
330
44A6
100
AcDbEntity
  8
AM_0 外形線1
100
AcDbLine
 10
-46.89999999999986
 20
77.0
 30
0.0
 11
-46.89999999999986
 21
56.0
 31
0.0
  0
ARC
  5
44BA
330
44A6
100
AcDbEntity
  8
AM_0 外形線1
100
AcDbCircle
 10
-43.89999999999985
 20
77.0
 30
0.0
 40
3.0
100
AcDbArc
 50
90.0
 51
180.0
  0
LINE
  5
44BB
330
44A6
100
AcDbEntity
  8
AM_0 外形線1
100
AcDbLine
 10
47.5
 20
54.0
 30
0.0
 11
0.0
 21
54.0
 31
0.0
  0
LINE
  5
44BC
330
44A6
100
AcDbEntity
  8
AM_0 外形線1
100
AcDbLine
 10
46.9000000000001
 20
56.0
 30
0.0
 11
0.0
 21
56.0
 31
0.0
  0
LINE
  5
44BD
330
44A6
100
AcDbEntity
  8
AM_0 外形線1
100
AcDbLine
 10
47.5
 20
54.0
 30
0.0
 11
46.9000000000001
 21
56.0
 31
0.0
  0
LINE
  5
44BE
330
44A6
100
AcDbEntity
  8
AM_0 外形線1
100
AcDbLine
 10
47.5
 20
47.0
 30
0.0
 11
47.5
 21
54.0
 31
0.0
  0
LINE
  5
44BF
330
44A6
100
AcDbEntity
  8
AM_0 外形線1
100
AcDbLine
 10
46.9000000000001
 20
56.0
 30
0.0
 11
46.9000000000001
 21
77.0
 31
0.0
  0
ARC
  5
44C0
330
44A6
100
AcDbEntity
  8
AM_0 外形線1
100
AcDbCircle
 10
43.9000000000001
 20
77.0
 30
0.0
 40
3.0
100
AcDbArc
 50
0.0
 51
90.0
  0
LINE
  5
44C1
330
44A6
100
AcDbEntity
  8
AM_0 外形線1
100
AcDbLine
 10
-21.38340478034297
 20
80.0
 30
0.0
 11
-21.38340478034297
 21
0.0
 31
0.0
  0
ARC
  5
5B1A
330
44A6
100
AcDbEntity
  8
AM_0 外形線1
100
AcDbCircle
 10
0.0
 20
21.5
 30
0.0
 40
49.80000000000001
100
AcDbArc
 50
167.8282193450784
 51
188.6618386819979
  0
ARC
  5
5B1B
330
44A6
100
AcDbEntity
  8
AM_7 中心線
100
AcDbCircle
 10
0.0
 20
21.5
 30
0.0
 40
52.0
100
AcDbArc
 50
166.3915172750909
 51
189.4165080863262
  0
ENDBLK
  5
44A8
330
44A6
100
AcDbEntity
  8
0
100
AcDbBlockEnd
  0
BLOCK
  5
4588
330
4587
100
AcDbEntity
  8
0
100
AcDbBlockBegin
  2
センタＡ SMVH160
 70
     0
 10
0.0
 20
0.0
 30
0.0
  3
センタＡ SMVH160
  1

  0
LINE
  5
458A
330
4587
100
AcDbEntity
  8
AM_0 外形線1
100
AcDbLine
 10
43.9000000000001
 20
-80.0
 30
0.0
 11
-43.89999999999985
 21
-80.0
 31
0.0
  0
LINE
  5
458B
330
4587
100
AcDbEntity
  8
AM_0 外形線1
100
AcDbLine
 10
-46.5
 20
-0.0000000000000568
 30
0.0
 11
0.0
 21
0.0
 31
0.0
  0
LINE
  5
458D
330
4587
100
AcDbEntity
  8
AM_0 外形線1
100
AcDbLine
 10
-47.5
 20
-54.0
 30
0.0
 11
-47.5
 21
-32.5
 31
0.0
  0
LINE
  5
458E
330
4587
100
AcDbEntity
  8
AM_0 外形線1
100
AcDbLine
 10
-46.89999999999986
 20
-77.0
 30
0.0
 11
-46.89999999999986
 21
-56.0
 31
0.0
  0
ARC
  5
458F
330
4587
100
AcDbEntity
  8
AM_0 外形線1
100
AcDbCircle
 10
-43.89999999999985
 20
-77.0
 30
0.0
 40
3.0
100
AcDbArc
 50
180.0
 51
270.0
  0
LINE
  5
4590
330
4587
100
AcDbEntity
  8
AM_0 外形線1
100
AcDbLine
 10
-46.89999999999986
 20
-56.0
 30
0.0
 11
-47.5
 21
-54.0
 31
0.0
  0
LINE
  5
4591
330
4587
100
AcDbEntity
  8
AM_0 外形線1
100
AcDbLine
 10
-47.0
 20
-0.5
 30
0.0
 11
-46.5
 21
-0.0000000000000568
 31
0.0
  0
LINE
  5
4592
330
4587
100
AcDbEntity
  8
AM_7 中心線
100
AcDbLine
 10
-55.85151499999985
 20
-21.5
 30
0.0
 11
-47.0
 21
-21.5
 31
0.0
  0
LINE
  5
4593
330
4587
100
AcDbEntity
  8
AM_0 外形線1
100
AcDbLine
 10
-52.38069899999982
 20
-14.0
 30
0.0
 11
-47.5
 21
-14.0
 31
0.0
  0
LINE
  5
4594
330
4587
100
AcDbEntity
  8
AM_0 外形線1
100
AcDbLine
 10
-48.0
 20
-32.0
 30
0.0
 11
-51.87247799999977
 21
-32.0
 31
0.0
  0
ARC
  5
4596
330
4587
100
AcDbEntity
  8
AM_0 外形線1
100
AcDbCircle
 10
0.0
 20
-21.5
 30
0.0
 40
53.905
100
AcDbArc
 50
173.0742780000014
 51
190.1505919999968
  0
LINE
  5
4597
330
4587
100
AcDbEntity
  8
AM_0 外形線1
100
AcDbLine
 10
-51.87247799999977
 20
-32.0
 30
0.0
 11
-53.06127599999991
 21
-31.0
 31
0.0
  0
LINE
  5
4598
330
4587
100
AcDbEntity
  8
AM_0 外形線1
100
AcDbLine
 10
-53.51167099999975
 20
-15.0
 30
0.0
 11
-52.38069899999982
 21
-14.0
 31
0.0
  0
ARC
  5
4599
330
4587
100
AcDbEntity
  8
AM_0 外形線1
100
AcDbCircle
 10
-48.0
 20
-32.5
 30
0.0
 40
0.5
100
AcDbArc
 50
0.0
 51
90.0
  0
ARC
  5
459A
330
4587
100
AcDbEntity
  8
AM_0 外形線1
100
AcDbCircle
 10
-47.5
 20
-13.5
 30
0.0
 40
0.5
100
AcDbArc
 50
270.0
 51
0.0
  0
LINE
  5
459B
330
4587
100
AcDbEntity
  8
AM_0 外形線1
100
AcDbLine
 10
-47.0
 20
-13.5
 30
0.0
 11
-47.0
 21
-0.5
 31
0.0
  0
LINE
  5
459C
330
4587
100
AcDbEntity
  8
AM_0 外形線1
100
AcDbLine
 10
47.5
 20
-54.0
 30
0.0
 11
0.0
 21
-54.0
 31
0.0
  0
LINE
  5
459D
330
4587
100
AcDbEntity
  8
AM_0 外形線1
100
AcDbLine
 10
46.9000000000001
 20
-56.0
 30
0.0
 11
0.0
 21
-56.0
 31
0.0
  0
LINE
  5
459E
330
4587
100
AcDbEntity
  8
AM_0 外形線1
100
AcDbLine
 10
46.9000000000001
 20
-56.0
 30
0.0
 11
46.9000000000001
 21
-77.0
 31
0.0
  0
ARC
  5
459F
330
4587
100
AcDbEntity
  8
AM_0 外形線1
100
AcDbCircle
 10
43.9000000000001
 20
-77.0
 30
0.0
 40
3.0
100
AcDbArc
 50
270.0
 51
0.0
  0
LINE
  5
45A0
330
4587
100
AcDbEntity
  8
AM_0 外形線1
100
AcDbLine
 10
47.5
 20
-47.0
 30
0.0
 11
47.5
 21
-54.0
 31
0.0
  0
LINE
  5
45A1
330
4587
100
AcDbEntity
  8
AM_0 外形線1
100
AcDbLine
 10
47.5
 20
-54.0
 30
0.0
 11
46.9000000000001
 21
-56.0
 31
0.0
  0
LINE
  5
45A2
330
4587
100
AcDbEntity
  8
AM_0 外形線1
100
AcDbLine
 10
-19.07878402833876
 20
0.0
 30
0.0
 11
-19.07878402833876
 21
-80.0
 31
0.0
  0
ARC
  5
5AA7
330
4587
100
AcDbEntity
  8
AM_7 中心線
100
AcDbCircle
 10
0.0
 20
-21.5
 30
0.0
 40
52.0
100
AcDbArc
 50
169.7306429999032
 51
192.5775469111411
  0
ARC
  5
5ABF
330
4587
100
AcDbEntity
  8
AM_0 外形線1
100
AcDbCircle
 10
0.0
 20
-21.5
 30
0.0
 40
49.80000000000001
100
AcDbArc
 50
171.3381613179987
 51
192.1717806549215
  0
ENDBLK
  5
4589
330
4587
100
AcDbEntity
  8
0
100
AcDbBlockEnd
  0
BLOCK
  5
4663
330
4662
100
AcDbEntity
  8
0
100
AcDbBlockBegin
  2
ケースＡ SMVH160
 70
     0
 10
0.0
 20
0.0
 30
0.0
  3
ケースＡ SMVH160
  1

  0
LINE
  5
4665
330
4662
100
AcDbEntity
  8
AM_0 外形線1
100
AcDbLine
 10
-54.5
 20
-39.0
 30
0.0
 11
-54.5
 21
-37.0
 31
0.0
  0
LINE
  5
4666
330
4662
100
AcDbEntity
  8
AM_7 中心線
100
AcDbLine
 10
-52.0
 20
-15.00880200000006
 30
0.0
 11
-52.0
 21
-38.0
 31
0.0
  0
LINE
  5
4667
330
4662
100
AcDbEntity
  8
AM_0 外形線1
100
AcDbLine
 10
-60.0
 20
-18.0
 30
0.0
 11
-60.0
 21
-49.0
 31
0.0
  0
LINE
  5
4668
330
4662
100
AcDbEntity
  8
AM_0 外形線1
100
AcDbLine
 10
-51.69999999999982
 20
-42.20000000000005
 30
0.0
 11
-47.5
 21
-42.20000000000005
 31
0.0
  0
LINE
  5
4669
330
4662
100
AcDbEntity
  8
AM_0 外形線1
100
AcDbLine
 10
-47.5
 20
-40.0
 30
0.0
 11
-53.5
 21
-40.0
 31
0.0
  0
LINE
  5
466A
330
4662
100
AcDbEntity
  8
AM_0 外形線1
100
AcDbLine
 10
-57.0
 20
-52.0
 30
0.0
 11
-47.5
 21
-52.0
 31
0.0
  0
LINE
  5
466B
330
4662
100
AcDbEntity
  8
AM_0 外形線1
100
AcDbLine
 10
-47.5
 20
-49.80000000000007
 30
0.0
 11
-51.69999999999982
 21
-49.80000000000007
 31
0.0
  0
LWPOLYLINE
  5
466C
330
4662
100
AcDbEntity
  8
AM_0 外形線1
100
AcDbPolyline
 90
       73
 70
     0
 43
0.0
 10
-49.8499999999999
 20
-42.20000000000005
 10
-50.05481599999985
 20
-42.21446000000002
 10
-50.25807299999996
 20
-42.25773100000004
 10
-50.45822399999997
 20
-42.32948199999998
 10
-50.65374699999985
 20
-42.42916799999999
 10
-50.8431519999999
 20
-42.55603000000002
 10
-51.02499999999985
 20
-42.70910400000002
 10
-51.19790399999988
 20
-42.88722200000001
 10
-51.36054999999988
 20
-43.08903100000002
 10
-51.5117009999999
 20
-43.312994
 10
-51.65020400000003
 20
-43.55740700000001
 10
-51.77500699999995
 20
-43.82041000000003
 10
-51.88515899999993
 20
-44.10000000000001
 10
-51.97982299999989
 20
-44.39405099999999
 10
-52.0582770000001
 20
-44.70032400000001
 10
-52.11992499999997
 20
-45.01648799999998
 10
-52.16429799999993
 20
-45.34013700000001
 10
-52.191057
 20
-45.66880800000001
 10
-52.19999999999981
 20
-46.0
 10
-52.191057
 20
-46.33119199999998
 10
-52.16429799999993
 20
-46.65986300000001
 10
-52.11992499999997
 20
-46.98351200000002
 10
-52.0582770000001
 20
-47.29967700000003
 10
-51.97982299999989
 20
-47.605949
 10
-51.88515899999993
 20
-47.90000000000002
 10
-51.77500699999995
 20
-48.17959099999995
 10
-51.65020400000003
 20
-48.44259299999999
 10
-51.5117009999999
 20
-48.687006
 10
-51.36054999999988
 20
-48.91096900000001
 10
-51.19790399999988
 20
-49.11277800000005
 10
-51.02499999999985
 20
-49.29089699999997
 10
-50.8431519999999
 20
-49.44397000000003
 10
-50.65374699999985
 20
-49.57083199999999
 10
-50.45822399999997
 20
-49.67051800000001
 10
-50.25807299999996
 20
-49.74226999999996
 10
-50.05481599999985
 20
-49.78554000000002
 10
-49.8499999999999
 20
-49.80000000000007
 10
-49.64518399999997
 20
-49.78554000000002
 10
-49.44192599999997
 20
-49.74226999999996
 10
-49.24177499999996
 20
-49.67051800000001
 10
-49.04625200000009
 20
-49.57083199999999
 10
-48.85684700000002
 20
-49.44397000000003
 10
-48.67499999999972
 20
-49.29089699999997
 10
-48.50209499999983
 20
-49.11277800000005
 10
-48.33944900000004
 20
-48.91096900000001
 10
-48.1882989999999
 20
-48.687006
 10
-48.04979499999991
 20
-48.44259299999999
 10
-47.92499199999975
 20
-48.17959099999995
 10
-47.81484
 20
-47.90000000000002
 10
-47.72017599999981
 20
-47.605949
 10
-47.64172199999984
 20
-47.29967700000003
 10
-47.58007399999995
 20
-46.98351200000002
 10
-47.53570100000001
 20
-46.65986300000001
 10
-47.50894199999993
 20
-46.33119199999998
 10
-47.5
 20
-46.0
 10
-47.50894199999993
 20
-45.66880800000001
 10
-47.53570100000001
 20
-45.34013700000001
 10
-47.58007399999995
 20
-45.01648799999998
 10
-47.64172199999984
 20
-44.70032400000001
 10
-47.72017599999981
 20
-44.39405099999999
 10
-47.81484
 20
-44.10000000000001
 10
-47.92499199999975
 20
-43.82041000000003
 10
-48.04979499999991
 20
-43.55740700000001
 10
-48.1882989999999
 20
-43.312994
 10
-48.33944900000004
 20
-43.08903100000002
 10
-48.50209499999983
 20
-42.88722200000001
 10
-48.67499999999972
 20
-42.70910400000002
 10
-48.85684700000002
 20
-42.55603000000002
 10
-49.04625200000009
 20
-42.42916799999999
 10
-49.24177499999996
 20
-42.32948199999998
 10
-49.44192599999997
 20
-42.25773100000004
 10
-49.64518399999997
 20
-42.21446000000002
 10
-49.8499999999999
 20
-42.20000000000005
  0
ARC
  5
466D
330
4662
100
AcDbEntity
  8
AM_0 外形線1
100
AcDbCircle
 10
-51.69999999999982
 20
-42.70000000000004
 30
0.0
 40
0.5
100
AcDbArc
 50
90.0
 51
180.0
  0
ARC
  5
466E
330
4662
100
AcDbEntity
  8
AM_0 外形線1
100
AcDbCircle
 10
-53.5
 20
-39.0
 30
0.0
 40
1.0
100
AcDbArc
 50
180.0
 51
270.0
  0
ARC
  5
466F
330
4662
100
AcDbEntity
  8
AM_0 外形線1
100
AcDbCircle
 10
-57.0
 20
-49.0
 30
0.0
 40
3.0
100
AcDbArc
 50
180.0
 51
270.0
  0
ARC
  5
4670
330
4662
100
AcDbEntity
  8
AM_0 外形線1
100
AcDbCircle
 10
-51.69999999999982
 20
-49.30000000000006
 30
0.0
 40
0.5
100
AcDbArc
 50
180.0
 51
270.0
  0
LINE
  5
4671
330
4662
100
AcDbEntity
  8
AM_0 外形線1
100
AcDbLine
 10
-52.19999999999981
 20
-49.30000000000006
 30
0.0
 11
-52.19999999999981
 21
-42.70000000000004
 31
0.0
  0
LINE
  5
4672
330
4662
100
AcDbEntity
  8
AM_0 外形線1
100
AcDbLine
 10
-48.5
 20
-42.20000000000005
 30
0.0
 11
-48.5
 21
-40.0
 31
0.0
  0
LINE
  5
4673
330
4662
100
AcDbEntity
  8
AM_0 外形線1
100
AcDbLine
 10
-48.5
 20
-52.0
 30
0.0
 11
-48.5
 21
-49.80000000000007
 31
0.0
  0
LINE
  5
4674
330
4662
100
AcDbEntity
  8
AM_7 中心線
100
AcDbLine
 10
-52.4432069999998
 20
-8.0
 30
0.0
 11
-81.98988499999996
 21
-8.0
 31
0.0
  0
LINE
  5
4675
330
4662
100
AcDbEntity
  8
AM_0 外形線1
100
AcDbLine
 10
-73.79999999999973
 20
-3.75
 30
0.0
 11
-54.5
 21
-3.75
 31
0.0
  0
LINE
  5
4676
330
4662
100
AcDbEntity
  8
AM_0 外形線1
100
AcDbLine
 10
-73.79999999999973
 20
-12.25
 30
0.0
 11
-54.5
 21
-12.25
 31
0.0
  0
LINE
  5
4677
330
4662
100
AcDbEntity
  8
AM_0 外形線1
100
AcDbLine
 10
-63.0
 20
-15.0
 30
0.0
 11
-79.5
 21
-15.0
 31
0.0
  0
LINE
  5
4678
330
4662
100
AcDbEntity
  8
AM_4 細線
100
AcDbLine
 10
-73.79999999999973
 20
-3.329750000000046
 30
0.0
 11
-73.79999999999973
 21
-12.67025000000001
 31
0.0
  0
LINE
  5
4679
330
4662
100
AcDbEntity
  8
AM_0 外形線1
100
AcDbLine
 10
-80.0
 20
-0.5
 30
0.0
 11
-80.0
 21
-14.5
 31
0.0
  0
LINE
  5
467A
330
4662
100
AcDbEntity
  8
AM_4 細線
100
AcDbLine
 10
-80.0
 20
-12.86400000000003
 30
0.0
 11
-73.79999999999973
 21
-12.67025000000001
 31
0.0
  0
LINE
  5
467B
330
4662
100
AcDbEntity
  8
AM_0 外形線1
100
AcDbLine
 10
-80.0
 20
-12.44375000000002
 30
0.0
 11
-73.79999999999973
 21
-12.25
 31
0.0
  0
LINE
  5
467C
330
4662
100
AcDbEntity
  8
AM_0 外形線1
100
AcDbLine
 10
-80.0
 20
-14.5
 30
0.0
 11
-79.5
 21
-15.0
 31
0.0
  0
LINE
  5
467D
330
4662
100
AcDbEntity
  8
AM_0 外形線1
100
AcDbLine
 10
-79.5
 20
0.0
 30
0.0
 11
-80.0
 21
-0.5
 31
0.0
  0
LINE
  5
467E
330
4662
100
AcDbEntity
  8
AM_0 外形線1
100
AcDbLine
 10
-80.0
 20
-3.556250000000034
 30
0.0
 11
-73.79999999999973
 21
-3.75
 31
0.0
  0
LINE
  5
467F
330
4662
100
AcDbEntity
  8
AM_4 細線
100
AcDbLine
 10
-80.0
 20
-3.136000000000023
 30
0.0
 11
-73.79999999999973
 21
-3.329750000000046
 31
0.0
  0
LINE
  5
4680
330
4662
100
AcDbEntity
  8
AM_0 外形線1
100
AcDbLine
 10
-54.5
 20
-15.0
 30
0.0
 11
-54.49999999999977
 21
0.0
 31
0.0
  0
LINE
  5
4681
330
4662
100
AcDbEntity
  8
AM_0 外形線1
100
AcDbLine
 10
-51.39999999999986
 20
-16.0
 30
0.0
 11
-53.5
 21
-16.0
 31
0.0
  0
LINE
  5
4682
330
4662
100
AcDbEntity
  8
AM_0 外形線1
100
AcDbLine
 10
-54.0
 20
-15.86602500000003
 30
0.0
 11
-54.0
 21
-36.13397500000002
 31
0.0
  0
LINE
  5
4683
330
4662
100
AcDbEntity
  8
AM_3 隠れ線
100
AcDbLine
 10
-50.39999999999985
 20
-19.0
 30
0.0
 11
-50.39999999999985
 21
-35.0
 31
0.0
  0
ARC
  5
4684
330
4662
100
AcDbEntity
  8
AM_0 外形線1
100
AcDbCircle
 10
-53.5
 20
-37.0
 30
0.0
 40
1.0
100
AcDbArc
 50
90.0
 51
180.0
  0
LINE
  5
4685
330
4662
100
AcDbEntity
  8
AM_0 外形線1
100
AcDbLine
 10
-53.06127599999991
 20
-36.0
 30
0.0
 11
-53.5
 21
-36.0
 31
0.0
  0
LINE
  5
4686
330
4662
100
AcDbEntity
  8
AM_3 隠れ線
100
AcDbLine
 10
-53.06127599999991
 20
-36.0
 30
0.0
 11
-51.39999999999986
 21
-36.0
 31
0.0
  0
LINE
  5
4687
330
4662
100
AcDbEntity
  8
AM_3 隠れ線
100
AcDbLine
 10
-51.39999999999986
 20
-36.0
 30
0.0
 11
-50.39999999999985
 21
-35.0
 31
0.0
  0
ARC
  5
4688
330
4662
100
AcDbEntity
  8
AM_0 外形線1
100
AcDbCircle
 10
-63.0
 20
-18.0
 30
0.0
 40
3.0
100
AcDbArc
 50
0.0
 51
90.0
  0
LINE
  5
4689
330
4662
100
AcDbEntity
  8
AM_0 外形線1
100
AcDbLine
 10
-50.39999999999985
 20
-17.0
 30
0.0
 11
-51.39999999999986
 21
-16.0
 31
0.0
  0
ARC
  5
468A
330
4662
100
AcDbEntity
  8
AM_0 外形線1
100
AcDbCircle
 10
-53.5
 20
-15.0
 30
0.0
 40
1.0
100
AcDbArc
 50
180.0
 51
270.0
  0
LINE
  5
468B
330
4662
100
AcDbEntity
  8
AM_0 外形線1
100
AcDbLine
 10
-50.39999999999985
 20
-19.0
 30
0.0
 11
-50.39999999999985
 21
-17.0
 31
0.0
  0
ARC
  5
468C
330
4662
100
AcDbEntity
  8
AM_0 外形線1
100
AcDbCircle
 10
-60.89999999999985
 20
-1.900000000000034
 30
0.0
 40
0.5
100
AcDbArc
 50
180.0
 51
270.0
  0
LWPOLYLINE
  5
468D
330
4662
100
AcDbEntity
  8
AM_0 外形線1
100
AcDbPolyline
 90
       73
 70
     0
 43
0.0
 10
-57.5
 20
-1.200000000000044
 10
-57.5074199999999
 20
-1.095413000000007
 10
-57.52962399999979
 20
-0.9916220000000064
 10
-57.56644400000005
 20
-0.8894170000000372
 10
-57.61759899999994
 20
-0.7895760000000111
 10
-57.68269899999996
 20
-0.692858000000058
 10
-57.76125000000002
 20
-0.6000000000000229
 10
-57.8526529999999
 20
-0.5117080000000556
 10
-57.95621299999993
 20
-0.4286549999999921
 10
-58.07114099999989
 20
-0.3514720000000011
 10
-58.19656399999985
 20
-0.2807470000000194
 10
-58.33152599999993
 20
-0.2170179999999959
 10
-58.4749999999999
 20
-0.1607700000000136
 10
-58.62589399999979
 20
-0.112431000000015
 10
-58.78305999999998
 20
-0.0723690000000374
 10
-58.94530200000009
 20
-0.0408890000000497
 10
-59.11138600000004
 20
-0.0182310000000143
 10
-59.28004599999986
 20
-0.0045660000000112
 10
-59.44999999999982
 20
0.0
 10
-59.6199529999999
 20
-0.0045660000000112
 10
-59.78861400000004
 20
-0.0182310000000143
 10
-59.95469700000011
 20
-0.0408890000000497
 10
-60.116939
 20
-0.0723690000000374
 10
-60.27410499999996
 20
-0.112431000000015
 10
-60.42499999999972
 20
-0.1607700000000136
 10
-60.56847399999992
 20
-0.2170179999999959
 10
-60.70343499999989
 20
-0.2807470000000194
 10
-60.82885799999985
 20
-0.3514720000000011
 10
-60.94378599999981
 20
-0.4286549999999921
 10
-61.04734599999982
 20
-0.5117080000000556
 10
-61.13874899999996
 20
-0.6000000000000229
 10
-61.21729999999979
 20
-0.692858000000058
 10
-61.28240000000005
 20
-0.7895760000000111
 10
-61.33355499999993
 20
-0.8894170000000372
 10
-61.37037499999998
 20
-0.9916220000000064
 10
-61.39257899999985
 20
-1.095413000000007
 10
-61.39999999999986
 20
-1.200000000000044
 10
-61.39257899999985
 20
-1.304587000000025
 10
-61.37037499999998
 20
-1.408378000000026
 10
-61.33355499999993
 20
-1.510583000000053
 10
-61.28240000000005
 20
-1.610424000000023
 10
-61.21729999999979
 20
-1.707142000000033
 10
-61.13874899999996
 20
-1.800000000000011
 10
-61.04734599999982
 20
-1.888292000000035
 10
-60.94378599999981
 20
-1.971344999999985
 10
-60.82885799999985
 20
-2.048528000000032
 10
-60.70343499999989
 20
-2.119253000000014
 10
-60.56847399999992
 20
-2.182982000000038
 10
-60.42499999999972
 20
-2.239231000000017
 10
-60.27410499999996
 20
-2.287569000000019
 10
-60.116939
 20
-2.327631000000053
 10
-59.95469700000011
 20
-2.359111000000041
 10
-59.78861400000004
 20
-2.381769000000018
 10
-59.6199529999999
 20
-2.395434000000022
 10
-59.44999999999982
 20
-2.400000000000034
 10
-59.28004599999986
 20
-2.395434000000022
 10
-59.11138600000004
 20
-2.381769000000018
 10
-58.94530200000009
 20
-2.359111000000041
 10
-58.78305999999998
 20
-2.327631000000053
 10
-58.62589399999979
 20
-2.287569000000019
 10
-58.4749999999999
 20
-2.239231000000017
 10
-58.33152599999993
 20
-2.182982000000038
 10
-58.19656399999985
 20
-2.119253000000014
 10
-58.07114099999989
 20
-2.048528000000032
 10
-57.95621299999993
 20
-1.971344999999985
 10
-57.8526529999999
 20
-1.888292000000035
 10
-57.76125000000002
 20
-1.800000000000011
 10
-57.68269899999996
 20
-1.707142000000033
 10
-57.61759899999994
 20
-1.610424000000023
 10
-57.56644400000005
 20
-1.510583000000053
 10
-57.52962399999979
 20
-1.408378000000026
 10
-57.5074199999999
 20
-1.304587000000025
 10
-57.5
 20
-1.200000000000044
  0
LINE
  5
468E
330
4662
100
AcDbEntity
  8
AM_0 外形線1
100
AcDbLine
 10
-61.39999999999986
 20
-1.900000000000034
 30
0.0
 11
-61.39999999999986
 21
0.0
 31
0.0
  0
ARC
  5
468F
330
4662
100
AcDbEntity
  8
AM_0 外形線1
100
AcDbCircle
 10
-58.0
 20
-1.900000000000034
 30
0.0
 40
0.5
100
AcDbArc
 50
270.0
 51
0.0
  0
LINE
  5
4690
330
4662
100
AcDbEntity
  8
AM_0 外形線1
100
AcDbLine
 10
-58.0
 20
-2.400000000000034
 30
0.0
 11
-60.89999999999985
 21
-2.400000000000034
 31
0.0
  0
LINE
  5
4691
330
4662
100
AcDbEntity
  8
AM_0 外形線1
100
AcDbLine
 10
-57.5
 20
0.0
 30
0.0
 11
-57.5
 21
-1.900000000000034
 31
0.0
  0
LINE
  5
4692
330
4662
100
AcDbEntity
  8
AM_7 中心線
100
AcDbLine
 10
71.5
 20
28.22933799999999
 30
0.0
 11
71.5
 21
-21.75919299999998
 31
0.0
  0
LINE
  5
4693
330
4662
100
AcDbEntity
  8
AM_0 外形線1
100
AcDbLine
 10
0.0
 20
0.0
 30
0.0
 11
79.5
 21
0.0
 31
0.0
  0
LINE
  5
4694
330
4662
100
AcDbEntity
  8
AM_0 外形線1
100
AcDbLine
 10
79.5
 20
-15.0
 30
0.0
 11
0.0
 21
-15.0
 31
0.0
  0
LINE
  5
4695
330
4662
100
AcDbEntity
  8
AM_0 外形線1
100
AcDbLine
 10
60.0
 20
-18.0
 30
0.0
 11
60.0
 21
-49.0
 31
0.0
  0
LINE
  5
4696
330
4662
100
AcDbEntity
  8
AM_0 外形線1
100
AcDbLine
 10
57.0
 20
-52.0
 30
0.0
 11
0.0
 21
-52.0
 31
0.0
  0
ARC
  5
4697
330
4662
100
AcDbEntity
  8
AM_0 外形線1
100
AcDbCircle
 10
57.0
 20
-49.0
 30
0.0
 40
3.0
100
AcDbArc
 50
270.0
 51
0.0
  0
ARC
  5
4698
330
4662
100
AcDbEntity
  8
AM_0 外形線1
100
AcDbCircle
 10
63.0
 20
-18.0
 30
0.0
 40
3.0
100
AcDbArc
 50
90.0
 51
180.0
  0
LINE
  5
4699
330
4662
100
AcDbEntity
  8
AM_0 外形線1
100
AcDbLine
 10
80.0
 20
-0.5
 30
0.0
 11
80.0
 21
-14.5
 31
0.0
  0
LINE
  5
469A
330
4662
100
AcDbEntity
  8
AM_0 外形線1
100
AcDbLine
 10
80.0
 20
-14.5
 30
0.0
 11
79.5
 21
-15.0
 31
0.0
  0
LINE
  5
469B
330
4662
100
AcDbEntity
  8
AM_0 外形線1
100
AcDbLine
 10
79.5
 20
0.0
 30
0.0
 11
80.0
 21
-0.5
 31
0.0
  0
LINE
  5
4717
330
4662
100
AcDbEntity
  8
AM_0 外形線1
100
AcDbLine
 10
-57.5
 20
0.0
 30
0.0
 11
-54.49999999999971
 21
-0.0000000000000568
 31
0.0
  0
LINE
  5
4718
330
4662
100
AcDbEntity
  8
AM_0 外形線1
100
AcDbLine
 10
-61.39999999999986
 20
0.0
 30
0.0
 11
-79.5
 21
0.0
 31
0.0
  0
ENDBLK
  5
4664
330
4662
100
AcDbEntity
  8
0
100
AcDbBlockEnd
  0
BLOCK
  5
4828
330
4827
100
AcDbEntity
  8
0
100
AcDbBlockBegin
  2
ケースＢ SMVH160
 70
     0
 10
0.0
 20
0.0
 30
0.0
  3
ケースＢ SMVH160
  1

  0
LINE
  5
482A
330
4827
100
AcDbEntity
  8
AM_3 隠れ線
100
AcDbLine
 10
-50.39999999999985
 20
19.0
 30
0.0
 11
-50.39999999999985
 21
35.0
 31
0.0
  0
LINE
  5
482B
330
4827
100
AcDbEntity
  8
AM_7 中心線
100
AcDbLine
 10
-52.0
 20
15.10450700000001
 30
0.0
 11
-52.0
 21
38.0
 31
0.0
  0
LINE
  5
482C
330
4827
100
AcDbEntity
  8
AM_0 外形線1
100
AcDbLine
 10
-54.0
 20
15.86602499999998
 30
0.0
 11
-54.0
 21
36.13397499999996
 31
0.0
  0
LINE
  5
482D
330
4827
100
AcDbEntity
  8
AM_0 外形線1
100
AcDbLine
 10
-60.0
 20
18.0
 30
0.0
 11
-60.0
 21
33.0
 31
0.0
  0
LINE
  5
482E
330
4827
100
AcDbEntity
  8
AM_7 中心線
100
AcDbLine
 10
-52.59861699999987
 20
8.0
 30
0.0
 11
-81.98988499999996
 21
8.0
 31
0.0
  0
LINE
  5
482F
330
4827
100
AcDbEntity
  8
AM_0 外形線1
100
AcDbLine
 10
-63.0
 20
15.0
 30
0.0
 11
-79.5
 21
15.0
 31
0.0
  0
LINE
  5
4830
330
4827
100
AcDbEntity
  8
AM_0 外形線1
100
AcDbLine
 10
-58.0
 20
0.0
 30
0.0
 11
-79.5
 21
0.0
 31
0.0
  0
LINE
  5
4831
330
4827
100
AcDbEntity
  8
AM_0 外形線1
100
AcDbLine
 10
-73.79999999999973
 20
12.25
 30
0.0
 11
-54.5
 21
12.25
 31
0.0
  0
LINE
  5
4832
330
4827
100
AcDbEntity
  8
AM_0 外形線1
100
AcDbLine
 10
-73.79999999999973
 20
3.75
 30
0.0
 11
-57.5
 21
3.75
 31
0.0
  0
LINE
  5
4833
330
4827
100
AcDbEntity
  8
AM_4 細線
100
AcDbLine
 10
-73.79999999999973
 20
12.67024999999995
 30
0.0
 11
-73.79999999999973
 21
3.329749999999988
 31
0.0
  0
LINE
  5
4834
330
4827
100
AcDbEntity
  8
AM_0 外形線1
100
AcDbLine
 10
-80.0
 20
0.5
 30
0.0
 11
-80.0
 21
14.5
 31
0.0
  0
LINE
  5
4835
330
4827
100
AcDbEntity
  8
AM_4 細線
100
AcDbLine
 10
-80.0
 20
3.135999999999966
 30
0.0
 11
-73.79999999999973
 21
3.329749999999988
 31
0.0
  0
LINE
  5
4836
330
4827
100
AcDbEntity
  8
AM_0 外形線1
100
AcDbLine
 10
-80.0
 20
3.556249999999976
 30
0.0
 11
-73.79999999999973
 21
3.75
 31
0.0
  0
LINE
  5
4837
330
4827
100
AcDbEntity
  8
AM_0 外形線1
100
AcDbLine
 10
-79.5
 20
0.0
 30
0.0
 11
-80.0
 21
0.5
 31
0.0
  0
LINE
  5
4838
330
4827
100
AcDbEntity
  8
AM_0 外形線1
100
AcDbLine
 10
-80.0
 20
14.5
 30
0.0
 11
-79.5
 21
15.0
 31
0.0
  0
LINE
  5
4839
330
4827
100
AcDbEntity
  8
AM_0 外形線1
100
AcDbLine
 10
-80.0
 20
12.44374999999996
 30
0.0
 11
-73.79999999999973
 21
12.25
 31
0.0
  0
LINE
  5
483A
330
4827
100
AcDbEntity
  8
AM_4 細線
100
AcDbLine
 10
-80.0
 20
12.86399999999997
 30
0.0
 11
-73.79999999999973
 21
12.67024999999995
 31
0.0
  0
LINE
  5
483B
330
4827
100
AcDbEntity
  8
AM_0 外形線1
100
AcDbLine
 10
-51.39999999999986
 20
16.0
 30
0.0
 11
-53.5
 21
16.0
 31
0.0
  0
LINE
  5
483C
330
4827
100
AcDbEntity
  8
AM_0 外形線1
100
AcDbLine
 10
-54.5
 20
15.0
 30
0.0
 11
-54.5
 21
4.0
 31
0.0
  0
LINE
  5
483D
330
4827
100
AcDbEntity
  8
AM_0 外形線1
100
AcDbLine
 10
-57.5
 20
0.5
 30
0.0
 11
-58.0
 21
0.0
 31
0.0
  0
ARC
  5
483E
330
4827
100
AcDbEntity
  8
AM_0 外形線1
100
AcDbCircle
 10
-63.0
 20
18.0
 30
0.0
 40
3.0
100
AcDbArc
 50
270.0
 51
0.0
  0
LINE
  5
483F
330
4827
100
AcDbEntity
  8
AM_0 外形線1
100
AcDbLine
 10
-50.39999999999985
 20
17.0
 30
0.0
 11
-51.39999999999986
 21
16.0
 31
0.0
  0
ARC
  5
4840
330
4827
100
AcDbEntity
  8
AM_0 外形線1
100
AcDbCircle
 10
-53.5
 20
15.0
 30
0.0
 40
1.0
100
AcDbArc
 50
90.0
 51
180.0
  0
LINE
  5
4841
330
4827
100
AcDbEntity
  8
AM_0 外形線1
100
AcDbLine
 10
-50.39999999999985
 20
19.0
 30
0.0
 11
-50.39999999999985
 21
17.0
 31
0.0
  0
LINE
  5
4842
330
4827
100
AcDbEntity
  8
AM_0 外形線1
100
AcDbLine
 10
-57.0
 20
52.0
 30
0.0
 11
-47.5
 21
52.0
 31
0.0
  0
LINE
  5
4843
330
4827
100
AcDbEntity
  8
AM_0 外形線1
100
AcDbLine
 10
-47.5
 20
49.79999999999995
 30
0.0
 11
-51.69999999999982
 21
49.79999999999995
 31
0.0
  0
LINE
  5
4844
330
4827
100
AcDbEntity
  8
AM_0 外形線1
100
AcDbLine
 10
-51.69999999999982
 20
42.19999999999997
 30
0.0
 11
-47.5
 21
42.19999999999997
 31
0.0
  0
LINE
  5
4845
330
4827
100
AcDbEntity
  8
AM_0 外形線1
100
AcDbLine
 10
-47.5
 20
40.0
 30
0.0
 11
-53.5
 21
40.0
 31
0.0
  0
LWPOLYLINE
  5
4846
330
4827
100
AcDbEntity
  8
AM_0 外形線1
100
AcDbPolyline
 90
       73
 70
     0
 43
0.0
 10
-49.8499999999999
 20
42.19999999999997
 10
-49.64518399999997
 20
42.21445999999996
 10
-49.44192599999997
 20
42.25772999999997
 10
-49.24177499999996
 20
42.32948199999998
 10
-49.04625200000009
 20
42.42916799999999
 10
-48.85684700000002
 20
42.55603000000002
 10
-48.67499999999972
 20
42.70910300000003
 10
-48.50209499999983
 20
42.88722200000001
 10
-48.33944900000004
 20
43.08903099999997
 10
-48.1882989999999
 20
43.31299399999993
 10
-48.04979499999991
 20
43.55740700000001
 10
-47.92499199999975
 20
43.82040899999998
 10
-47.81484
 20
44.09999999999995
 10
-47.72017599999981
 20
44.39405099999999
 10
-47.64172199999984
 20
44.70032299999997
 10
-47.58007399999995
 20
45.01648799999998
 10
-47.53570100000001
 20
45.34013699999997
 10
-47.50894199999993
 20
45.66880799999995
 10
-47.5
 20
46.0
 10
-47.50894199999993
 20
46.33119199999998
 10
-47.53570100000001
 20
46.65986299999997
 10
-47.58007399999995
 20
46.98351199999996
 10
-47.64172199999984
 20
47.29967599999997
 10
-47.72017599999981
 20
47.605949
 10
-47.81484
 20
47.89999999999998
 10
-47.92499199999975
 20
48.17958999999996
 10
-48.04979499999991
 20
48.44259299999999
 10
-48.1882989999999
 20
48.687006
 10
-48.33944900000004
 20
48.91096899999997
 10
-48.50209499999983
 20
49.11277799999999
 10
-48.67499999999972
 20
49.29089599999997
 10
-48.85684700000002
 20
49.44396999999998
 10
-49.04625200000009
 20
49.57083199999999
 10
-49.24177499999996
 20
49.67051800000001
 10
-49.44192599999997
 20
49.74226899999997
 10
-49.64518399999997
 20
49.78553999999997
 10
-49.8499999999999
 20
49.79999999999995
 10
-50.05481599999985
 20
49.78553999999997
 10
-50.25807299999996
 20
49.74226899999997
 10
-50.45822399999997
 20
49.67051800000001
 10
-50.65374699999985
 20
49.57083199999999
 10
-50.8431519999999
 20
49.44396999999998
 10
-51.02499999999985
 20
49.29089599999997
 10
-51.19790399999988
 20
49.11277799999999
 10
-51.36054999999988
 20
48.91096899999997
 10
-51.5117009999999
 20
48.687006
 10
-51.65020400000003
 20
48.44259299999999
 10
-51.77500699999995
 20
48.17958999999996
 10
-51.88515899999993
 20
47.89999999999998
 10
-51.97982299999989
 20
47.605949
 10
-52.0582770000001
 20
47.29967599999997
 10
-52.11992499999997
 20
46.98351199999996
 10
-52.16429799999993
 20
46.65986299999997
 10
-52.191057
 20
46.33119199999998
 10
-52.19999999999981
 20
46.0
 10
-52.191057
 20
45.66880799999995
 10
-52.16429799999993
 20
45.34013699999997
 10
-52.11992499999997
 20
45.01648799999998
 10
-52.0582770000001
 20
44.70032299999997
 10
-51.97982299999989
 20
44.39405099999999
 10
-51.88515899999993
 20
44.09999999999995
 10
-51.77500699999995
 20
43.82040899999998
 10
-51.65020400000003
 20
43.55740700000001
 10
-51.5117009999999
 20
43.31299399999993
 10
-51.36054999999988
 20
43.08903099999997
 10
-51.19790399999988
 20
42.88722200000001
 10
-51.02499999999985
 20
42.70910300000003
 10
-50.8431519999999
 20
42.55603000000002
 10
-50.65374699999985
 20
42.42916799999999
 10
-50.45822399999997
 20
42.32948199999998
 10
-50.25807299999996
 20
42.25772999999997
 10
-50.05481599999985
 20
42.21445999999996
 10
-49.8499999999999
 20
42.19999999999997
  0
LINE
  5
4847
330
4827
100
AcDbEntity
  8
AM_0 外形線1
100
AcDbLine
 10
-52.19999999999981
 20
49.29999999999996
 30
0.0
 11
-52.19999999999981
 21
42.69999999999997
 31
0.0
  0
LINE
  5
4848
330
4827
100
AcDbEntity
  8
AM_0 外形線1
100
AcDbLine
 10
-60.0
 20
43.0
 30
0.0
 11
-60.0
 21
49.0
 31
0.0
  0
LINE
  5
4849
330
4827
100
AcDbEntity
  8
AM_4 細線
100
AcDbLine
 10
-53.5
 20
36.0
 30
0.0
 11
-55.79999999999995
 21
36.0
 31
0.0
  0
LINE
  5
484A
330
4827
100
AcDbEntity
  8
AM_0 外形線1
100
AcDbLine
 10
-54.25993420767849
 20
36.35000000000002
 30
0.0
 11
-55.44999999999982
 21
36.35000000000002
 31
0.0
  0
LINE
  5
484B
330
4827
100
AcDbEntity
  8
AM_4 細線
100
AcDbLine
 10
-55.79999999999995
 20
40.0
 30
0.0
 11
-53.5
 21
40.0
 31
0.0
  0
LINE
  5
484C
330
4827
100
AcDbEntity
  8
AM_0 外形線1
100
AcDbLine
 10
-55.44999999999982
 20
39.64999999999998
 30
0.0
 11
-54.25993420767849
 21
39.64999999999998
 31
0.0
  0
LINE
  5
484D
330
4827
100
AcDbEntity
  8
AM_0 外形線1
100
AcDbLine
 10
-60.0
 20
43.5
 30
0.0
 11
-59.5
 21
43.5
 31
0.0
  0
LINE
  5
484E
330
4827
100
AcDbEntity
  8
AM_0 外形線1
100
AcDbLine
 10
-60.0
 20
32.5
 30
0.0
 11
-59.5
 21
32.5
 31
0.0
  0
LINE
  5
484F
330
4827
100
AcDbEntity
  8
AM_0 外形線1
100
AcDbLine
 10
-59.5
 20
32.5
 30
0.0
 11
-59.5
 21
36.0
 31
0.0
  0
LINE
  5
4850
330
4827
100
AcDbEntity
  8
AM_0 外形線1
100
AcDbLine
 10
-59.5
 20
40.0
 30
0.0
 11
-59.5
 21
43.5
 31
0.0
  0
ARC
  5
4851
330
4827
100
AcDbEntity
  8
AM_0 外形線1
100
AcDbCircle
 10
-51.69999999999982
 20
42.69999999999997
 30
0.0
 40
0.5
100
AcDbArc
 50
180.0
 51
270.0
  0
ARC
  5
4852
330
4827
100
AcDbEntity
  8
AM_0 外形線1
100
AcDbCircle
 10
-53.5
 20
39.0
 30
0.0
 40
1.0
100
AcDbArc
 50
90.0
 51
180.0
  0
LINE
  5
4853
330
4827
100
AcDbEntity
  8
AM_0 外形線1
100
AcDbLine
 10
-54.5
 20
39.0
 30
0.0
 11
-54.5
 21
37.0
 31
0.0
  0
ARC
  5
4854
330
4827
100
AcDbEntity
  8
AM_0 外形線1
100
AcDbCircle
 10
-53.5
 20
37.0
 30
0.0
 40
1.0
100
AcDbArc
 50
180.0
 51
270.0
  0
LINE
  5
4855
330
4827
100
AcDbEntity
  8
AM_3 隠れ線
100
AcDbLine
 10
-53.06127599999991
 20
36.0
 30
0.0
 11
-51.39999999999986
 21
36.0
 31
0.0
  0
LINE
  5
4856
330
4827
100
AcDbEntity
  8
AM_3 隠れ線
100
AcDbLine
 10
-51.39999999999986
 20
36.0
 30
0.0
 11
-50.39999999999985
 21
35.0
 31
0.0
  0
ARC
  5
4857
330
4827
100
AcDbEntity
  8
AM_0 外形線1
100
AcDbCircle
 10
-51.69999999999982
 20
49.29999999999996
 30
0.0
 40
0.5
100
AcDbArc
 50
90.0
 51
180.0
  0
ARC
  5
4858
330
4827
100
AcDbEntity
  8
AM_0 外形線1
100
AcDbCircle
 10
-57.0
 20
49.0
 30
0.0
 40
3.0
100
AcDbArc
 50
90.0
 51
180.0
  0
LINE
  5
4859
330
4827
100
AcDbEntity
  8
AM_0 外形線1
100
AcDbLine
 10
-48.5
 20
42.19999999999997
 30
0.0
 11
-48.5
 21
40.0
 31
0.0
  0
LINE
  5
485A
330
4827
100
AcDbEntity
  8
AM_0 外形線1
100
AcDbLine
 10
-48.5
 20
52.0
 30
0.0
 11
-48.5
 21
49.79999999999995
 31
0.0
  0
LINE
  5
485B
330
4827
100
AcDbEntity
  8
AM_0 外形線1
100
AcDbLine
 10
60.0
 20
18.0
 30
0.0
 11
60.0
 21
49.0
 31
0.0
  0
LINE
  5
485C
330
4827
100
AcDbEntity
  8
AM_0 外形線1
100
AcDbLine
 10
79.5
 20
15.0
 30
0.0
 11
0.0
 21
15.0
 31
0.0
  0
ARC
  5
485D
330
4827
100
AcDbEntity
  8
AM_0 外形線1
100
AcDbCircle
 10
63.0
 20
18.0
 30
0.0
 40
3.0
100
AcDbArc
 50
180.0
 51
270.0
  0
LINE
  5
485E
330
4827
100
AcDbEntity
  8
AM_0 外形線1
100
AcDbLine
 10
80.0
 20
0.5
 30
0.0
 11
80.0
 21
14.5
 31
0.0
  0
LINE
  5
485F
330
4827
100
AcDbEntity
  8
AM_0 外形線1
100
AcDbLine
 10
79.5
 20
0.0
 30
0.0
 11
80.0
 21
0.5
 31
0.0
  0
LINE
  5
4860
330
4827
100
AcDbEntity
  8
AM_0 外形線1
100
AcDbLine
 10
80.0
 20
14.5
 30
0.0
 11
79.5
 21
15.0
 31
0.0
  0
LINE
  5
4861
330
4827
100
AcDbEntity
  8
AM_0 外形線1
100
AcDbLine
 10
57.0
 20
52.0
 30
0.0
 11
0.0
 21
52.0
 31
0.0
  0
ARC
  5
4862
330
4827
100
AcDbEntity
  8
AM_0 外形線1
100
AcDbCircle
 10
57.0
 20
49.0
 30
0.0
 40
3.0
100
AcDbArc
 50
0.0
 51
90.0
  0
INSERT
  5
4863
330
4827
100
AcDbEntity
  8
AM_0 外形線1
100
AcDbBlockReference
  2
ジュウジマルコネジ
 10
-60.29999999999995
 20
38.0
 30
0.0
  0
LINE
  5
48E0
330
4827
100
AcDbEntity
  8
AM_0 外形線1
100
AcDbLine
 10
-57.5
 20
0.5
 30
0.0
 11
-57.5
 21
4.0
 31
0.0
  0
LINE
  5
48E1
330
4827
100
AcDbEntity
  8
AM_0 外形線1
100
AcDbLine
 10
-57.5
 20
4.0
 30
0.0
 11
-54.5
 21
4.0
 31
0.0
  0
LINE
  5
48E2
330
4827
100
AcDbEntity
  8
AM_0 外形線1
100
AcDbLine
 10
79.5
 20
0.0
 30
0.0
 11
0.0
 21
-0.0000000000000568
 31
0.0
  0
LINE
  5
5329
330
4827
100
AcDbEntity
  8
AM_0 外形線1
100
AcDbLine
 10
-53.06127599999991
 20
36.0
 30
0.0
 11
-53.5
 21
36.0
 31
0.0
  0
ENDBLK
  5
4829
330
4827
100
AcDbEntity
  8
0
100
AcDbBlockEnd
  0
BLOCK
  5
4901
330
4900
100
AcDbEntity
  8
0
100
AcDbBlockBegin
  2
スラストプレ－ト SMVH160
 70
     0
 10
0.0
 20
0.0
 30
0.0
  3
スラストプレ－ト SMVH160
  1

  0
LINE
  5
4903
330
4900
100
AcDbEntity
  8
AM_0 外形線1
100
AcDbLine
 10
0.0
 20
7.0
 30
0.0
 11
-52.0
 21
6.999999999999943
 31
0.0
  0
LINE
  5
4904
330
4900
100
AcDbEntity
  8
AM_0 外形線1
100
AcDbLine
 10
-52.0
 20
9.0
 30
0.0
 11
-57.5
 21
9.0
 31
0.0
  0
LINE
  5
4905
330
4900
100
AcDbEntity
  8
AM_0 外形線1
100
AcDbLine
 10
-42.0
 20
1.0
 30
0.0
 11
-54.0
 21
1.0
 31
0.0
  0
LINE
  5
4906
330
4900
100
AcDbEntity
  8
AM_0 外形線1
100
AcDbLine
 10
-52.0
 20
9.0
 30
0.0
 11
-52.0
 21
6.999999999999943
 31
0.0
  0
LINE
  5
4907
330
4900
100
AcDbEntity
  8
AM_0 外形線1
100
AcDbLine
 10
-54.0
 20
5.0
 30
0.0
 11
-54.0
 21
1.0
 31
0.0
  0
LINE
  5
4908
330
4900
100
AcDbEntity
  8
AM_0 外形線1
100
AcDbLine
 10
-54.0
 20
5.0
 30
0.0
 11
-57.5
 21
5.0
 31
0.0
  0
LINE
  5
4909
330
4900
100
AcDbEntity
  8
AM_0 外形線1
100
AcDbLine
 10
-32.0
 20
-0.0000000000000568
 30
0.0
 11
-32.0
 21
0.9999999999999431
 31
0.0
  0
ARC
  5
490A
330
4900
100
AcDbEntity
  8
AM_0 外形線1
100
AcDbCircle
 10
-41.0
 20
1.00000000000017
 30
0.0
 40
1.0
100
AcDbArc
 50
179.9999999999966
 51
270.0
  0
LINE
  5
490B
330
4900
100
AcDbEntity
  8
AM_0 外形線1
100
AcDbLine
 10
0.0
 20
0.9999999999999431
 30
0.0
 11
-32.0
 21
1.0
 31
0.0
  0
LINE
  5
4925
330
4900
100
AcDbEntity
  8
AM_0 外形線1
100
AcDbLine
 10
-41.0
 20
0.0000000000001705
 30
0.0
 11
-32.0
 21
-0.0000000000000568
 31
0.0
  0
LINE
  5
4926
330
4900
100
AcDbEntity
  8
AM_0 外形線1
100
AcDbLine
 10
-57.5
 20
5.0
 30
0.0
 11
-57.5
 21
9.0
 31
0.0
  0
ENDBLK
  5
4902
330
4900
100
AcDbEntity
  8
0
100
AcDbBlockEnd
  0
BLOCK
  5
4975
330
4974
100
AcDbEntity
  8
0
100
AcDbBlockBegin
  2
リーマボルト SMVH160 M8
 70
     0
 10
0.0
 20
0.0
 30
0.0
  3
リーマボルト SMVH160 M8
  1

  0
ARC
  5
4977
330
4974
100
AcDbEntity
  8
AM_0 外形線1
100
AcDbCircle
 10
-5.626387999999906
 20
35.17121099999997
 30
0.0
 40
3.328787999999998
100
AcDbArc
 50
55.74681300000627
 51
124.2531869999937
  0
LINE
  5
4978
330
4974
100
AcDbEntity
  8
AM_0 外形線1
100
AcDbLine
 10
7.700000000000272
 20
32.0
 30
0.0
 11
-7.699999999999817
 21
32.0
 31
0.0
  0
LINE
  5
4979
330
4974
100
AcDbEntity
  8
AM_0 外形線1
100
AcDbLine
 10
-6.5
 20
38.5
 30
0.0
 11
6.5
 21
38.5
 31
0.0
  0
ARC
  5
497A
330
4974
100
AcDbEntity
  8
AM_0 外形線1
100
AcDbCircle
 10
-5.626387999999906
 20
-2.171212000000025
 30
0.0
 40
3.328787999999998
100
AcDbArc
 50
235.7468130000063
 51
304.2531869999938
  0
LINE
  5
497B
330
4974
100
AcDbEntity
  8
AM_0 外形線1
100
AcDbLine
 10
-6.5
 20
-5.5
 30
0.0
 11
6.5
 21
-5.5
 31
0.0
  0
LINE
  5
497C
330
4974
100
AcDbEntity
  8
AM_0 外形線1
100
AcDbLine
 10
-7.5
 20
0.0
 30
0.0
 11
-7.5
 21
-4.922650000000031
 31
0.0
  0
LINE
  5
497D
330
4974
100
AcDbEntity
  8
AM_0 外形線1
100
AcDbLine
 10
-7.5
 20
-4.922650000000031
 30
0.0
 11
-6.5
 21
-5.5
 31
0.0
  0
LINE
  5
497E
330
4974
100
AcDbEntity
  8
AM_0 外形線1
100
AcDbLine
 10
-7.5
 20
37.92264999999998
 30
0.0
 11
-6.5
 21
38.5
 31
0.0
  0
LINE
  5
497F
330
4974
100
AcDbEntity
  8
AM_0 外形線1
100
AcDbLine
 10
-7.699999999999817
 20
32.0
 30
0.0
 11
-7.699999999999817
 21
30.0
 31
0.0
  0
LINE
  5
4980
330
4974
100
AcDbEntity
  8
AM_0 外形線1
100
AcDbLine
 10
-7.5
 20
32.0
 30
0.0
 11
-7.5
 21
37.92264999999998
 31
0.0
  0
LINE
  5
4981
330
4974
100
AcDbEntity
  8
AM_0 外形線1
100
AcDbLine
 10
6.5
 20
-5.5
 30
0.0
 11
7.5
 21
-4.922650000000031
 31
0.0
  0
ARC
  5
4982
330
4974
100
AcDbEntity
  8
AM_0 外形線1
100
AcDbCircle
 10
5.626389000000016
 20
-2.171212000000025
 30
0.0
 40
3.328787999999998
100
AcDbArc
 50
235.7468130000063
 51
304.2531869999938
  0
LINE
  5
4983
330
4974
100
AcDbEntity
  8
AM_0 外形線1
100
AcDbLine
 10
-3.752775999999812
 20
0.0
 30
0.0
 11
-3.752775999999812
 21
-4.922650000000031
 31
0.0
  0
LINE
  5
4984
330
4974
100
AcDbEntity
  8
AM_0 外形線1
100
AcDbLine
 10
3.752777000000151
 20
0.0
 30
0.0
 11
3.752777000000151
 21
-4.922650000000031
 31
0.0
  0
ARC
  5
4985
330
4974
100
AcDbEntity
  8
AM_0 外形線1
100
AcDbCircle
 10
0.0
 20
6.985199999999963
 30
0.0
 40
12.4852
100
AcDbArc
 50
252.5076750000007
 51
287.4923249999993
  0
LINE
  5
4986
330
4974
100
AcDbEntity
  8
AM_0 外形線1
100
AcDbLine
 10
7.5
 20
-4.922650000000031
 30
0.0
 11
7.5
 21
0.0
 31
0.0
  0
LINE
  5
4987
330
4974
100
AcDbEntity
  8
AM_0 外形線1
100
AcDbLine
 10
6.5
 20
38.5
 30
0.0
 11
7.5
 21
37.92264999999998
 31
0.0
  0
ARC
  5
4988
330
4974
100
AcDbEntity
  8
AM_0 外形線1
100
AcDbCircle
 10
5.626389000000016
 20
35.17121099999997
 30
0.0
 40
3.328787999999998
100
AcDbArc
 50
55.74681300000627
 51
124.2531869999937
  0
LINE
  5
4989
330
4974
100
AcDbEntity
  8
AM_4 細線
100
AcDbLine
 10
-3.375
 20
38.5
 30
0.0
 11
-3.375
 21
41.625
 31
0.0
  0
LINE
  5
498A
330
4974
100
AcDbEntity
  8
AM_4 細線
100
AcDbLine
 10
3.375
 20
38.5
 30
0.0
 11
3.375
 21
41.625
 31
0.0
  0
ARC
  5
498B
330
4974
100
AcDbEntity
  8
AM_0 外形線1
100
AcDbCircle
 10
0.0
 20
26.01479999999998
 30
0.0
 40
12.4852
100
AcDbArc
 50
72.50767500000067
 51
107.4923249999993
  0
LINE
  5
498C
330
4974
100
AcDbEntity
  8
AM_0 外形線1
100
AcDbLine
 10
-4.0
 20
38.5
 30
0.0
 11
-4.0
 21
41.0
 31
0.0
  0
LINE
  5
498D
330
4974
100
AcDbEntity
  8
AM_0 外形線1
100
AcDbLine
 10
-4.0
 20
41.0
 30
0.0
 11
-3.0
 21
42.0
 31
0.0
  0
LINE
  5
498E
330
4974
100
AcDbEntity
  8
AM_0 外形線1
100
AcDbLine
 10
-3.0
 20
42.0
 30
0.0
 11
3.0
 21
42.0
 31
0.0
  0
LINE
  5
498F
330
4974
100
AcDbEntity
  8
AM_0 外形線1
100
AcDbLine
 10
3.0
 20
42.0
 30
0.0
 11
4.0
 21
41.0
 31
0.0
  0
LINE
  5
4990
330
4974
100
AcDbEntity
  8
AM_0 外形線1
100
AcDbLine
 10
4.0
 20
41.0
 30
0.0
 11
4.0
 21
38.5
 31
0.0
  0
LINE
  5
4991
330
4974
100
AcDbEntity
  8
AM_0 外形線1
100
AcDbLine
 10
-4.0
 20
41.0
 30
0.0
 11
4.0
 21
41.0
 31
0.0
  0
LINE
  5
4992
330
4974
100
AcDbEntity
  8
AM_0 外形線1
100
AcDbLine
 10
-1.333333000000038
 20
32.0
 30
0.0
 11
0.6666669999999613
 21
30.0
 31
0.0
  0
LINE
  5
4993
330
4974
100
AcDbEntity
  8
AM_0 外形線1
100
AcDbLine
 10
-0.6666659999998501
 20
32.0
 30
0.0
 11
1.333334000000149
 21
30.0
 31
0.0
  0
LINE
  5
4994
330
4974
100
AcDbEntity
  8
AM_0 外形線1
100
AcDbLine
 10
-3.752775999999812
 20
32.0
 30
0.0
 11
-3.752775999999812
 21
37.92264999999998
 31
0.0
  0
LINE
  5
4995
330
4974
100
AcDbEntity
  8
AM_0 外形線1
100
AcDbLine
 10
3.752777000000151
 20
32.0
 30
0.0
 11
3.752777000000151
 21
37.92264999999998
 31
0.0
  0
LINE
  5
4996
330
4974
100
AcDbEntity
  8
AM_0 外形線1
100
AcDbLine
 10
7.700000000000272
 20
30.0
 30
0.0
 11
7.700000000000272
 21
32.0
 31
0.0
  0
LINE
  5
4997
330
4974
100
AcDbEntity
  8
AM_0 外形線1
100
AcDbLine
 10
7.5
 20
37.92264999999998
 30
0.0
 11
7.5
 21
32.0
 31
0.0
  0
LINE
  5
49E1
330
4974
100
AcDbEntity
  8
AM_0 外形線1
100
AcDbLine
 10
7.5
 20
0.0
 30
0.0
 11
-7.5
 21
0.0
 31
0.0
  0
LINE
  5
49E2
330
4974
100
AcDbEntity
  8
AM_0 外形線1
100
AcDbLine
 10
-7.699999999999817
 20
30.0
 30
0.0
 11
7.700000000000272
 21
30.0
 31
0.0
  0
ENDBLK
  5
4976
330
4974
100
AcDbEntity
  8
0
100
AcDbBlockEnd
  0
BLOCK
  5
49F4
330
49F3
100
AcDbEntity
  8
0
100
AcDbBlockBegin
  2
*D14
 70
     1
 10
0.0
 20
0.0
 30
0.0
  3
*D14
  1

  0
LINE
  5
4A13
330
49F3
100
AcDbEntity
  8
AM_5 寸法線
 62
     3
100
AcDbLine
 10
387.0433647999998
 20
327.4266658666667
 30
0.0
 11
387.0433647999998
 21
251.4266658666667
 31
0.0
  0
LINE
  5
4A14
330
49F3
100
AcDbEntity
  8
AM_5 寸法線
 62
     3
100
AcDbLine
 10
482.0433647999998
 20
327.4266658666667
 30
0.0
 11
482.0433647999998
 21
251.4266658666667
 31
0.0
  0
LINE
  5
4A15
330
49F3
100
AcDbEntity
  8
AM_5 寸法線
 62
     3
100
AcDbLine
 10
392.0433647999999
 20
252.6766658666667
 30
0.0
 11
477.0433647999998
 21
252.6766658666667
 31
0.0
  0
INSERT
  5
4A16
330
49F3
100
AcDbEntity
  8
AM_5 寸法線
 62
     3
100
AcDbBlockReference
  2
_Open30
 10
387.0433647999998
 20
252.6766658666667
 30
0.0
 41
5.0
 42
5.0
 43
5.0
 50
180.0
  0
INSERT
  5
4A17
330
49F3
100
AcDbEntity
  8
AM_5 寸法線
 62
     3
100
AcDbBlockReference
  2
_Open30
 10
482.0433647999998
 20
252.6766658666667
 30
0.0
 41
5.0
 42
5.0
 43
5.0
  0
MTEXT
  5
4A18
330
49F3
100
AcDbEntity
  8
AM_5 寸法線
 62
     3
100
AcDbMText
 10
434.5433647999998
 20
259.1766658666667
 30
0.0
 40
7.0
 41
0.0
 46
0.0
 71
     5
 72
     1
  1
%%c95
  7
SEISA
 73
     1
 44
1.0
  0
POINT
  5
4A19
330
49F3
100
AcDbEntity
  8
Defpoints
 62
     0
100
AcDbPoint
 10
387.0433647999998
 20
328.6766658666667
 30
0.0
  0
POINT
  5
4A1A
330
49F3
100
AcDbEntity
  8
Defpoints
 62
     0
100
AcDbPoint
 10
482.0433647999998
 20
328.6766658666667
 30
0.0
  0
POINT
  5
4A1B
330
49F3
100
AcDbEntity
  8
Defpoints
 62
     0
100
AcDbPoint
 10
482.0433647999998
 20
252.6766658666667
 30
0.0
  0
ENDBLK
  5
49F5
330
49F3
100
AcDbEntity
  8
0
100
AcDbBlockEnd
  0
BLOCK
  5
4A26
330
4A25
100
AcDbEntity
  8
0
100
AcDbBlockBegin
  2
*D15
 70
     1
 10
0.0
 20
0.0
 30
0.0
  3
*D15
  1

  0
LINE
  5
55C1
330
4A25
100
AcDbEntity
  8
AM_5 寸法線
 62
     3
100
AcDbLine
 10
515.2933647999998
 20
372.6766658666667
 30
0.0
 11
545.7933648000001
 21
372.6766658666667
 31
0.0
  0
LINE
  5
55C2
330
4A25
100
AcDbEntity
  8
AM_5 寸法線
 62
     3
100
AcDbLine
 10
515.2933647999998
 20
387.6766658666667
 30
0.0
 11
545.7933648000001
 21
387.6766658666667
 31
0.0
  0
LINE
  5
55C3
330
4A25
100
AcDbEntity
  8
AM_5 寸法線
 62
     3
100
AcDbLine
 10
544.5433648000001
 20
392.6766658666667
 30
0.0
 11
544.5433648000001
 21
397.6766658666667
 31
0.0
  0
LINE
  5
55C4
330
4A25
100
AcDbEntity
  8
AM_5 寸法線
 62
     3
100
AcDbLine
 10
544.5433648000001
 20
367.6766658666667
 30
0.0
 11
544.5433648000001
 21
347.3766658666666
 31
0.0
  0
LINE
  5
55C5
330
4A25
100
AcDbEntity
  8
AM_5 寸法線
 62
     3
100
AcDbLine
 10
544.5433648000001
 20
387.6766658666667
 30
0.0
 11
544.5433648000001
 21
372.6766658666667
 31
0.0
  0
INSERT
  5
55C6
330
4A25
100
AcDbEntity
  8
AM_5 寸法線
 62
     3
100
AcDbBlockReference
  2
GENDOT
 10
544.5433648000001
 20
387.6766658666667
 30
0.0
 41
5.0
 42
5.0
 43
5.0
 50
270.0
  0
INSERT
  5
55C7
330
4A25
100
AcDbEntity
  8
AM_5 寸法線
 62
     3
100
AcDbBlockReference
  2
_Open30
 10
544.5433648000001
 20
372.6766658666667
 30
0.0
 41
5.0
 42
5.0
 43
5.0
 50
90.0
  0
MTEXT
  5
55C8
330
4A25
100
AcDbEntity
  8
AM_5 寸法線
 62
     3
100
AcDbMText
 10
538.0433647999999
 20
355.0266658666668
 30
0.0
 40
7.0
 41
0.0
 46
0.0
 71
     5
 72
     1
  1
15
  7
SEISA
 11
0.0000000000000001
 21
1.0
 31
0.0
 73
     1
 44
1.0
  0
POINT
  5
55C9
330
4A25
100
AcDbEntity
  8
Defpoints
 62
     0
100
AcDbPoint
 10
514.0433647999998
 20
372.6766658666667
 30
0.0
  0
POINT
  5
55CA
330
4A25
100
AcDbEntity
  8
Defpoints
 62
     0
100
AcDbPoint
 10
514.0433647999998
 20
387.6766658666667
 30
0.0
  0
POINT
  5
55CB
330
4A25
100
AcDbEntity
  8
Defpoints
 62
     0
100
AcDbPoint
 10
544.5433648000001
 20
387.6766658666667
 30
0.0
  0
ENDBLK
  5
4A27
330
4A25
100
AcDbEntity
  8
0
100
AcDbBlockEnd
  0
BLOCK
  5
4A4D
330
4A4C
100
AcDbEntity
  8
0
100
AcDbBlockBegin
  2
*D16
 70
     1
 10
0.0
 20
0.0
 30
0.0
  3
*D16
  1

  0
LINE
  5
55AB
330
4A4C
100
AcDbEntity
  8
AM_5 寸法線
 62
     3
100
AcDbLine
 10
515.2933647999998
 20
402.6766658666666
 30
0.0
 11
545.7933648000001
 21
402.6766658666666
 31
0.0
  0
LINE
  5
55AC
330
4A4C
100
AcDbEntity
  8
AM_5 寸法線
 62
     3
100
AcDbLine
 10
515.2933647999998
 20
387.6766658666667
 30
0.0
 11
545.7933648000001
 21
387.6766658666667
 31
0.0
  0
LINE
  5
55AD
330
4A4C
100
AcDbEntity
  8
AM_5 寸法線
 62
     3
100
AcDbLine
 10
544.5433648000003
 20
382.6766658666667
 30
0.0
 11
544.5433648000003
 21
377.6766658666667
 31
0.0
  0
LINE
  5
55AE
330
4A4C
100
AcDbEntity
  8
AM_5 寸法線
 62
     3
100
AcDbLine
 10
544.5433648000003
 20
407.6766658666667
 30
0.0
 11
544.5433648000003
 21
427.9766658666666
 31
0.0
  0
LINE
  5
55AF
330
4A4C
100
AcDbEntity
  8
AM_5 寸法線
 62
     3
100
AcDbLine
 10
544.5433648000003
 20
387.6766658666667
 30
0.0
 11
544.5433648000003
 21
402.6766658666666
 31
0.0
  0
INSERT
  5
55B0
330
4A4C
100
AcDbEntity
  8
AM_5 寸法線
 62
     3
100
AcDbBlockReference
  2
GENDOT
 10
544.5433648000003
 20
387.6766658666667
 30
0.0
 41
5.0
 42
5.0
 43
5.0
 50
90.0
  0
INSERT
  5
55B1
330
4A4C
100
AcDbEntity
  8
AM_5 寸法線
 62
     3
100
AcDbBlockReference
  2
_Open30
 10
544.5433648000003
 20
402.6766658666666
 30
0.0
 41
5.0
 42
5.0
 43
5.0
 50
270.0
  0
MTEXT
  5
55B2
330
4A4C
100
AcDbEntity
  8
AM_5 寸法線
 62
     3
100
AcDbMText
 10
538.0433648000002
 20
420.3266658666667
 30
0.0
 40
7.0
 41
0.0
 46
0.0
 71
     5
 72
     1
  1
15
  7
SEISA
 11
0.0000000000000001
 21
1.0
 31
0.0
 73
     1
 44
1.0
  0
POINT
  5
55B3
330
4A4C
100
AcDbEntity
  8
Defpoints
 62
     0
100
AcDbPoint
 10
514.0433647999998
 20
402.6766658666666
 30
0.0
  0
POINT
  5
55B4
330
4A4C
100
AcDbEntity
  8
Defpoints
 62
     0
100
AcDbPoint
 10
514.0433647999998
 20
387.6766658666667
 30
0.0
  0
POINT
  5
55B5
330
4A4C
100
AcDbEntity
  8
Defpoints
 62
     0
100
AcDbPoint
 10
544.5433648000003
 20
387.6766658666667
 30
0.0
  0
ENDBLK
  5
4A4E
330
4A4C
100
AcDbEntity
  8
0
100
AcDbBlockEnd
  0
BLOCK
  5
4AB6
330
4AB5
100
AcDbEntity
  8
0
100
AcDbBlockBegin
  2
*D17
 70
     1
 10
0.0
 20
0.0
 30
0.0
  3
*D17
  1

  0
LINE
  5
5C0D
330
4AB5
100
AcDbEntity
  8
AM_5 寸法線
 62
     3
100
AcDbLine
 10
492.7933647999998
 20
335.6766658666667
 30
0.0
 11
565.7933647999997
 21
335.6766658666667
 31
0.0
  0
LINE
  5
5C0E
330
4AB5
100
AcDbEntity
  8
AM_5 寸法線
 62
     3
100
AcDbLine
 10
492.7933647999998
 20
439.6766658666666
 30
0.0
 11
565.7933647999997
 21
439.6766658666666
 31
0.0
  0
LINE
  5
5C0F
330
4AB5
100
AcDbEntity
  8
AM_5 寸法線
 62
     3
100
AcDbLine
 10
564.5433647999997
 20
340.6766658666667
 30
0.0
 11
564.5433647999997
 21
434.6766658666666
 31
0.0
  0
INSERT
  5
5C10
330
4AB5
100
AcDbEntity
  8
AM_5 寸法線
 62
     3
100
AcDbBlockReference
  2
_Open30
 10
564.5433647999997
 20
335.6766658666667
 30
0.0
 41
5.0
 42
5.0
 43
5.0
 50
270.0
  0
INSERT
  5
5C11
330
4AB5
100
AcDbEntity
  8
AM_5 寸法線
 62
     3
100
AcDbBlockReference
  2
_Open30
 10
564.5433647999997
 20
439.6766658666666
 30
0.0
 41
5.0
 42
5.0
 43
5.0
 50
90.0
  0
MTEXT
  5
5C12
330
4AB5
100
AcDbEntity
  8
AM_5 寸法線
 62
     3
100
AcDbMText
 10
558.0433647999996
 20
387.6766658666667
 30
0.0
 40
7.0
 41
0.0
 46
0.0
 71
     5
 72
     1
  1
104
  7
SEISA
 11
0.0000000000000001
 21
1.0
 31
0.0
 73
     1
 44
1.0
  0
POINT
  5
5C13
330
4AB5
100
AcDbEntity
  8
Defpoints
 62
     0
100
AcDbPoint
 10
491.5433647999998
 20
335.6766658666667
 30
0.0
  0
POINT
  5
5C14
330
4AB5
100
AcDbEntity
  8
Defpoints
 62
     0
100
AcDbPoint
 10
491.5433647999998
 20
439.6766658666666
 30
0.0
  0
POINT
  5
5C15
330
4AB5
100
AcDbEntity
  8
Defpoints
 62
     0
100
AcDbPoint
 10
564.5433647999997
 20
439.6766658666666
 30
0.0
  0
ENDBLK
  5
4AB7
330
4AB5
100
AcDbEntity
  8
0
100
AcDbBlockEnd
  0
BLOCK
  5
4BDD
330
4BDC
100
AcDbEntity
  8
0
100
AcDbBlockBegin
  2
*D18
 70
     1
 10
0.0
 20
0.0
 30
0.0
  3
*D18
  1

  0
LINE
  5
4BE9
330
4BDC
100
AcDbEntity
  8
AM_5 寸法線
 62
     3
100
AcDbLine
 10
479.6933647999998
 20
302.6766658666667
 30
0.0
 11
585.7933647999997
 21
302.6766658666667
 31
0.0
  0
LINE
  5
4BEA
330
4BDC
100
AcDbEntity
  8
AM_5 寸法線
 62
     3
100
AcDbLine
 10
479.6933647999998
 20
472.6766658666666
 30
0.0
 11
585.7933647999997
 21
472.6766658666666
 31
0.0
  0
LINE
  5
4BEB
330
4BDC
100
AcDbEntity
  8
AM_5 寸法線
 62
     3
100
AcDbLine
 10
584.5433647999997
 20
307.6766658666667
 30
0.0
 11
584.5433647999997
 21
467.6766658666666
 31
0.0
  0
INSERT
  5
4BEC
330
4BDC
100
AcDbEntity
  8
AM_5 寸法線
 62
     3
100
AcDbBlockReference
  2
_Open30
 10
584.5433647999997
 20
302.6766658666667
 30
0.0
 41
5.0
 42
5.0
 43
5.0
 50
270.0
  0
INSERT
  5
4BED
330
4BDC
100
AcDbEntity
  8
AM_5 寸法線
 62
     3
100
AcDbBlockReference
  2
_Open30
 10
584.5433647999997
 20
472.6766658666666
 30
0.0
 41
5.0
 42
5.0
 43
5.0
 50
90.0
  0
MTEXT
  5
4BEE
330
4BDC
100
AcDbEntity
  8
AM_5 寸法線
 62
     3
100
AcDbMText
 10
578.0433647999997
 20
387.6766658666667
 30
0.0
 40
7.0
 41
0.0
 46
0.0
 71
     5
 72
     1
  1
170
  7
SEISA
 11
0.0000000000000001
 21
1.0
 31
0.0
 73
     1
 44
1.0
  0
POINT
  5
4BEF
330
4BDC
100
AcDbEntity
  8
Defpoints
 62
     0
100
AcDbPoint
 10
478.4433647999998
 20
302.6766658666667
 30
0.0
  0
POINT
  5
4BF0
330
4BDC
100
AcDbEntity
  8
Defpoints
 62
     0
100
AcDbPoint
 10
478.4433647999998
 20
472.6766658666666
 30
0.0
  0
POINT
  5
4BF1
330
4BDC
100
AcDbEntity
  8
Defpoints
 62
     0
100
AcDbPoint
 10
584.5433647999997
 20
472.6766658666666
 30
0.0
  0
ENDBLK
  5
4BDE
330
4BDC
100
AcDbEntity
  8
0
100
AcDbBlockEnd
  0
BLOCK
  5
4CB8
330
4CB7
100
AcDbEntity
  8
0
100
AcDbBlockBegin
  2
*D19
 70
     1
 10
0.0
 20
0.0
 30
0.0
  3
*D19
  1

  0
LINE
  5
4D10
330
4CB7
100
AcDbEntity
  8
AM_5 寸法線
 62
     3
100
AcDbLine
 10
354.5433647999999
 20
403.4266658666666
 30
0.0
 11
354.5433647999999
 21
563.9266658666667
 31
0.0
  0
LINE
  5
4D11
330
4CB7
100
AcDbEntity
  8
AM_5 寸法線
 62
     3
100
AcDbLine
 10
514.5433647999998
 20
403.4266658666666
 30
0.0
 11
514.5433647999998
 21
563.9266658666667
 31
0.0
  0
LINE
  5
4D12
330
4CB7
100
AcDbEntity
  8
AM_5 寸法線
 62
     3
100
AcDbLine
 10
359.5433647999998
 20
562.6766658666666
 30
0.0
 11
509.5433647999998
 21
562.6766658666666
 31
0.0
  0
INSERT
  5
4D13
330
4CB7
100
AcDbEntity
  8
AM_5 寸法線
 62
     3
100
AcDbBlockReference
  2
_Open30
 10
354.5433647999999
 20
562.6766658666666
 30
0.0
 41
5.0
 42
5.0
 43
5.0
 50
180.0
  0
INSERT
  5
4D14
330
4CB7
100
AcDbEntity
  8
AM_5 寸法線
 62
     3
100
AcDbBlockReference
  2
_Open30
 10
514.5433647999998
 20
562.6766658666666
 30
0.0
 41
5.0
 42
5.0
 43
5.0
  0
MTEXT
  5
4D15
330
4CB7
100
AcDbEntity
  8
AM_5 寸法線
 62
     3
100
AcDbMText
 10
434.5433647999998
 20
569.1766658666666
 30
0.0
 40
7.0
 41
0.0
 46
0.0
 71
     5
 72
     1
  1
%%c160
  7
SEISA
 73
     1
 44
1.0
  0
POINT
  5
4D16
330
4CB7
100
AcDbEntity
  8
Defpoints
 62
     0
100
AcDbPoint
 10
354.5433647999999
 20
402.1766658666666
 30
0.0
  0
POINT
  5
4D17
330
4CB7
100
AcDbEntity
  8
Defpoints
 62
     0
100
AcDbPoint
 10
514.5433647999998
 20
402.1766658666666
 30
0.0
  0
POINT
  5
4D18
330
4CB7
100
AcDbEntity
  8
Defpoints
 62
     0
100
AcDbPoint
 10
514.5433647999998
 20
562.6766658666666
 30
0.0
  0
ENDBLK
  5
4CB9
330
4CB7
100
AcDbEntity
  8
0
100
AcDbBlockEnd
  0
BLOCK
  5
4CD0
330
4CCF
100
AcDbEntity
  8
0
100
AcDbBlockBegin
  2
*D20
 70
     1
 10
0.0
 20
0.0
 30
0.0
  3
*D20
  1

  0
LINE
  5
4D07
330
4CCF
100
AcDbEntity
  8
AM_5 寸法線
 62
     3
100
AcDbLine
 10
374.5433647999998
 20
437.9266658666666
 30
0.0
 11
374.5433647999998
 21
543.9266658666666
 31
0.0
  0
LINE
  5
4D08
330
4CCF
100
AcDbEntity
  8
AM_5 寸法線
 62
     3
100
AcDbLine
 10
494.5433647999998
 20
437.9266658666666
 30
0.0
 11
494.5433647999998
 21
543.9266658666666
 31
0.0
  0
LINE
  5
4D09
330
4CCF
100
AcDbEntity
  8
AM_5 寸法線
 62
     3
100
AcDbLine
 10
379.5433647999999
 20
542.6766658666666
 30
0.0
 11
489.5433647999998
 21
542.6766658666666
 31
0.0
  0
INSERT
  5
4D0A
330
4CCF
100
AcDbEntity
  8
AM_5 寸法線
 62
     3
100
AcDbBlockReference
  2
_Open30
 10
374.5433647999998
 20
542.6766658666666
 30
0.0
 41
5.0
 42
5.0
 43
5.0
 50
180.0
  0
INSERT
  5
4D0B
330
4CCF
100
AcDbEntity
  8
AM_5 寸法線
 62
     3
100
AcDbBlockReference
  2
_Open30
 10
494.5433647999998
 20
542.6766658666666
 30
0.0
 41
5.0
 42
5.0
 43
5.0
  0
MTEXT
  5
4D0C
330
4CCF
100
AcDbEntity
  8
AM_5 寸法線
 62
     3
100
AcDbMText
 10
434.5433647999998
 20
549.1766658666667
 30
0.0
 40
7.0
 41
0.0
 46
0.0
 71
     5
 72
     1
  1
%%c120
  7
SEISA
 73
     1
 44
1.0
  0
POINT
  5
4D0D
330
4CCF
100
AcDbEntity
  8
Defpoints
 62
     0
100
AcDbPoint
 10
374.5433647999998
 20
436.6766658666667
 30
0.0
  0
POINT
  5
4D0E
330
4CCF
100
AcDbEntity
  8
Defpoints
 62
     0
100
AcDbPoint
 10
494.5433647999998
 20
436.6766658666667
 30
0.0
  0
POINT
  5
4D0F
330
4CCF
100
AcDbEntity
  8
Defpoints
 62
     0
100
AcDbPoint
 10
494.5433647999998
 20
542.6766658666666
 30
0.0
  0
ENDBLK
  5
4CD1
330
4CCF
100
AcDbEntity
  8
0
100
AcDbBlockEnd
  0
BLOCK
  5
4CE8
330
4CE7
100
AcDbEntity
  8
0
100
AcDbBlockBegin
  2
*D21
 70
     1
 10
0.0
 20
0.0
 30
0.0
  3
*D21
  1

  0
LINE
  5
4CFE
330
4CE7
100
AcDbEntity
  8
AM_5 寸法線
 62
     3
100
AcDbLine
 10
387.0433647999998
 20
447.9266658666666
 30
0.0
 11
387.0433647999998
 21
523.9266658666666
 31
0.0
  0
LINE
  5
4CFF
330
4CE7
100
AcDbEntity
  8
AM_5 寸法線
 62
     3
100
AcDbLine
 10
482.0433647999998
 20
447.9266658666666
 30
0.0
 11
482.0433647999998
 21
523.9266658666666
 31
0.0
  0
LINE
  5
4D00
330
4CE7
100
AcDbEntity
  8
AM_5 寸法線
 62
     3
100
AcDbLine
 10
392.0433647999999
 20
522.6766658666666
 30
0.0
 11
477.0433647999998
 21
522.6766658666666
 31
0.0
  0
INSERT
  5
4D01
330
4CE7
100
AcDbEntity
  8
AM_5 寸法線
 62
     3
100
AcDbBlockReference
  2
_Open30
 10
387.0433647999998
 20
522.6766658666666
 30
0.0
 41
5.0
 42
5.0
 43
5.0
 50
180.0
  0
INSERT
  5
4D02
330
4CE7
100
AcDbEntity
  8
AM_5 寸法線
 62
     3
100
AcDbBlockReference
  2
_Open30
 10
482.0433647999998
 20
522.6766658666666
 30
0.0
 41
5.0
 42
5.0
 43
5.0
  0
MTEXT
  5
4D03
330
4CE7
100
AcDbEntity
  8
AM_5 寸法線
 62
     3
100
AcDbMText
 10
434.5433647999998
 20
529.1766658666666
 30
0.0
 40
7.0
 41
0.0
 46
0.0
 71
     5
 72
     1
  1
%%c95
  7
SEISA
 73
     1
 44
1.0
  0
POINT
  5
4D04
330
4CE7
100
AcDbEntity
  8
Defpoints
 62
     0
100
AcDbPoint
 10
387.0433647999998
 20
446.6766658666666
 30
0.0
  0
POINT
  5
4D05
330
4CE7
100
AcDbEntity
  8
Defpoints
 62
     0
100
AcDbPoint
 10
482.0433647999998
 20
446.6766658666666
 30
0.0
  0
POINT
  5
4D06
330
4CE7
100
AcDbEntity
  8
Defpoints
 62
     0
100
AcDbPoint
 10
482.0433647999998
 20
522.6766658666666
 30
0.0
  0
ENDBLK
  5
4CE9
330
4CE7
100
AcDbEntity
  8
0
100
AcDbBlockEnd
  0
BLOCK
  5
4D62
330
4D61
100
AcDbEntity
  8
0
100
AcDbBlockBegin
  2
*D22
 70
     1
 10
0.0
 20
0.0
 30
0.0
  3
*D22
  1

  0
LINE
  5
5E32
330
4D61
100
AcDbEntity
  8
AM_5 寸法線
 62
     3
100
AcDbLine
 10
433.2933648
 20
302.6766658666667
 30
0.0
 11
426.75
 21
302.6766658666667
 31
0.0
  0
LINE
  5
5E33
330
4D61
100
AcDbEntity
  8
AM_5 寸法線
 62
     3
100
AcDbLine
 10
417.7716823999999
 20
382.6766658666667
 30
0.0
 11
429.25
 21
382.6766658666667
 31
0.0
  0
LINE
  5
5E34
330
4D61
100
AcDbEntity
  8
AM_5 寸法線
 62
     3
100
AcDbLine
 10
428.0
 20
307.6766658666667
 30
0.0
 11
428.0
 21
377.6766658666667
 31
0.0
  0
INSERT
  5
5E35
330
4D61
100
AcDbEntity
  8
AM_5 寸法線
 62
     3
100
AcDbBlockReference
  2
_Open30
 10
428.0
 20
302.6766658666667
 30
0.0
 41
5.0
 42
5.0
 43
5.0
 50
270.0
  0
INSERT
  5
5E36
330
4D61
100
AcDbEntity
  8
AM_5 寸法線
 62
     3
100
AcDbBlockReference
  2
_Open30
 10
428.0
 20
382.6766658666667
 30
0.0
 41
5.0
 42
5.0
 43
5.0
 50
90.0
  0
MTEXT
  5
5E37
330
4D61
100
AcDbEntity
  8
AM_5 寸法線
 62
     3
100
AcDbMText
 10
421.4999999999998
 20
342.6766658666668
 30
0.0
 40
7.0
 41
0.0
 46
0.0
 71
     5
 72
     1
  1
80
  7
SEISA
 11
0.0000000000000001
 21
1.0
 31
0.0
 73
     1
 44
1.0
  0
POINT
  5
5E38
330
4D61
100
AcDbEntity
  8
Defpoints
 62
     0
100
AcDbPoint
 10
434.5433647999998
 20
302.6766658666667
 30
0.0
  0
POINT
  5
5E39
330
4D61
100
AcDbEntity
  8
Defpoints
 62
     0
100
AcDbPoint
 10
416.5216823999998
 20
382.6766658666667
 30
0.0
  0
POINT
  5
5E3A
330
4D61
100
AcDbEntity
  8
Defpoints
 62
     0
100
AcDbPoint
 10
428.0
 20
382.6766658666667
 30
0.0
  0
ENDBLK
  5
4D63
330
4D61
100
AcDbEntity
  8
0
100
AcDbBlockEnd
  0
BLOCK
  5
4D7A
330
4D79
100
AcDbEntity
  8
0
100
AcDbBlockBegin
  2
*D23
 70
     1
 10
0.0
 20
0.0
 30
0.0
  3
*D23
  1

  0
LINE
  5
5E3B
330
4D79
100
AcDbEntity
  8
AM_5 寸法線
 62
     3
100
AcDbLine
 10
419.0216823999998
 20
382.6766658666667
 30
0.0
 11
429.25
 21
382.6766658666667
 31
0.0
  0
LINE
  5
5E3C
330
4D79
100
AcDbEntity
  8
AM_5 寸法線
 62
     3
100
AcDbLine
 10
433.2933647999998
 20
392.6766658666667
 30
0.0
 11
426.75
 21
392.6766658666667
 31
0.0
  0
LINE
  5
5E3D
330
4D79
100
AcDbEntity
  8
AM_5 寸法線
 62
     3
100
AcDbLine
 10
428.0
 20
377.6766658666667
 30
0.0
 11
428.0
 21
372.6766658666667
 31
0.0
  0
LINE
  5
5E3E
330
4D79
100
AcDbEntity
  8
AM_5 寸法線
 62
     3
100
AcDbLine
 10
428.0000000000002
 20
397.6766658666667
 30
0.0
 11
428.0000000000002
 21
402.6766658666666
 31
0.0
  0
MTEXT
  5
5E3F
330
4D79
100
AcDbEntity
  8
AM_5 寸法線
 62
     3
100
AcDbMText
 10
421.0905923933351
 20
399.5448908819941
 30
0.0
 40
7.0
 41
0.0
 46
0.0
 71
     5
 72
     1
  1
10
  7
SEISA
 11
0.0000000000000001
 21
1.0
 31
0.0
 73
     1
 44
1.0
  0
LINE
  5
5E40
330
4D79
100
AcDbEntity
  8
AM_5 寸法線
 62
     3
100
AcDbLine
 10
428.0
 20
382.6766658666667
 30
0.0
 11
428.0000000000002
 21
392.6766658666667
 31
0.0
  0
INSERT
  5
5E41
330
4D79
100
AcDbEntity
  8
AM_5 寸法線
 62
     3
100
AcDbBlockReference
  2
_Open30
 10
428.0
 20
382.6766658666667
 30
0.0
 41
5.0
 42
5.0
 43
5.0
 50
90.0
  0
INSERT
  5
5E42
330
4D79
100
AcDbEntity
  8
AM_5 寸法線
 62
     3
100
AcDbBlockReference
  2
_Open30
 10
428.0000000000002
 20
392.6766658666667
 30
0.0
 41
5.0
 42
5.0
 43
5.0
 50
270.0
  0
POINT
  5
5E43
330
4D79
100
AcDbEntity
  8
Defpoints
 62
     0
100
AcDbPoint
 10
417.7716823999999
 20
382.6766658666667
 30
0.0
  0
POINT
  5
5E44
330
4D79
100
AcDbEntity
  8
Defpoints
 62
     0
100
AcDbPoint
 10
434.5433647999998
 20
392.6766658666667
 30
0.0
  0
POINT
  5
5E45
330
4D79
100
AcDbEntity
  8
Defpoints
 62
     0
100
AcDbPoint
 10
428.0000000000002
 20
392.6766658666667
 30
0.0
  0
ENDBLK
  5
4D7B
330
4D79
100
AcDbEntity
  8
0
100
AcDbBlockEnd
  0
BLOCK
  5
4DBD
330
4DBC
100
AcDbEntity
  8
0
100
AcDbBlockBegin
  2
*D24
 70
     1
 10
0.0
 20
0.0
 30
0.0
  3
*D24
  1

  0
LINE
  5
4DC9
330
4DBC
100
AcDbEntity
  8
AM_5 寸法線
 62
     3
100
AcDbLine
 10
433.2933647999998
 20
392.6766658666667
 30
0.0
 11
426.75
 21
392.6766658666667
 31
0.0
  0
LINE
  5
4DCA
330
4DBC
100
AcDbEntity
  8
AM_5 寸法線
 62
     3
100
AcDbLine
 10
433.2933648
 20
472.6766658666666
 30
0.0
 11
426.75
 21
472.6766658666666
 31
0.0
  0
LINE
  5
4DCB
330
4DBC
100
AcDbEntity
  8
AM_5 寸法線
 62
     3
100
AcDbLine
 10
428.0000000000002
 20
397.6766658666667
 30
0.0
 11
428.0000000000002
 21
467.6766658666666
 31
0.0
  0
INSERT
  5
4DCC
330
4DBC
100
AcDbEntity
  8
AM_5 寸法線
 62
     3
100
AcDbBlockReference
  2
_Open30
 10
428.0000000000002
 20
392.6766658666667
 30
0.0
 41
5.0
 42
5.0
 43
5.0
 50
270.0
  0
INSERT
  5
4DCD
330
4DBC
100
AcDbEntity
  8
AM_5 寸法線
 62
     3
100
AcDbBlockReference
  2
_Open30
 10
428.0000000000002
 20
472.6766658666666
 30
0.0
 41
5.0
 42
5.0
 43
5.0
 50
90.0
  0
MTEXT
  5
4DCE
330
4DBC
100
AcDbEntity
  8
AM_5 寸法線
 62
     3
100
AcDbMText
 10
421.4999999999998
 20
432.6766658666667
 30
0.0
 40
7.0
 41
0.0
 46
0.0
 71
     5
 72
     1
  1
80
  7
SEISA
 11
0.0000000000000001
 21
1.0
 31
0.0
 73
     1
 44
1.0
  0
POINT
  5
4DCF
330
4DBC
100
AcDbEntity
  8
Defpoints
 62
     0
100
AcDbPoint
 10
434.5433647999998
 20
392.6766658666667
 30
0.0
  0
POINT
  5
4DD0
330
4DBC
100
AcDbEntity
  8
Defpoints
 62
     0
100
AcDbPoint
 10
434.5433647999998
 20
472.6766658666666
 30
0.0
  0
POINT
  5
4DD1
330
4DBC
100
AcDbEntity
  8
Defpoints
 62
     0
100
AcDbPoint
 10
428.0000000000002
 20
472.6766658666666
 30
0.0
  0
ENDBLK
  5
4DBE
330
4DBC
100
AcDbEntity
  8
0
100
AcDbBlockEnd
  0
BLOCK
  5
4E0D
330
4E0C
100
AcDbEntity
  8
0
100
AcDbBlockBegin
  2
*D25
 70
     1
 10
0.0
 20
0.0
 30
0.0
  3
*D25
  1

  0
LINE
  5
4E3D
330
4E0C
100
AcDbEntity
  8
AM_5 寸法線
 62
     3
100
AcDbLine
 10
388.2933647999998
 20
347.6766658666667
 30
0.0
 11
400.25
 21
347.6766658666667
 31
0.0
  0
LINE
  5
4E3E
330
4E0C
100
AcDbEntity
  8
AM_5 寸法線
 62
     3
100
AcDbLine
 10
387.7933647999999
 20
350.6766658666667
 30
0.0
 11
400.25
 21
350.6766658666667
 31
0.0
  0
LINE
  5
4E3F
330
4E0C
100
AcDbEntity
  8
AM_5 寸法線
 62
     3
100
AcDbLine
 10
399.0
 20
355.6766658666667
 30
0.0
 11
399.0
 21
360.6766658666667
 31
0.0
  0
LINE
  5
4E40
330
4E0C
100
AcDbEntity
  8
AM_5 寸法線
 62
     3
100
AcDbLine
 10
399.0
 20
342.6766658666667
 30
0.0
 11
399.0
 21
327.4766658666667
 31
0.0
  0
LINE
  5
4E41
330
4E0C
100
AcDbEntity
  8
AM_5 寸法線
 62
     3
100
AcDbLine
 10
399.0
 20
350.6766658666667
 30
0.0
 11
399.0
 21
347.6766658666667
 31
0.0
  0
INSERT
  5
4E42
330
4E0C
100
AcDbEntity
  8
AM_5 寸法線
 62
     3
100
AcDbBlockReference
  2
_Open30
 10
399.0
 20
350.6766658666667
 30
0.0
 41
5.0
 42
5.0
 43
5.0
 50
270.0
  0
INSERT
  5
4E43
330
4E0C
100
AcDbEntity
  8
AM_5 寸法線
 62
     3
100
AcDbBlockReference
  2
_Open30
 10
399.0
 20
347.6766658666667
 30
0.0
 41
5.0
 42
5.0
 43
5.0
 50
90.0
  0
MTEXT
  5
4E44
330
4E0C
100
AcDbEntity
  8
AM_5 寸法線
 62
     3
100
AcDbMText
 10
392.4999999999998
 20
332.5766658666668
 30
0.0
 40
7.0
 41
0.0
 46
0.0
 71
     5
 72
     1
  1
3
  7
SEISA
 11
0.0000000000000001
 21
1.0
 31
0.0
 73
     1
 44
1.0
  0
POINT
  5
4E45
330
4E0C
100
AcDbEntity
  8
Defpoints
 62
     0
100
AcDbPoint
 10
387.0433647999998
 20
347.6766658666667
 30
0.0
  0
POINT
  5
4E46
330
4E0C
100
AcDbEntity
  8
Defpoints
 62
     0
100
AcDbPoint
 10
386.5433647999998
 20
350.6766658666667
 30
0.0
  0
POINT
  5
4E47
330
4E0C
100
AcDbEntity
  8
Defpoints
 62
     0
100
AcDbPoint
 10
399.0
 20
350.6766658666667
 30
0.0
  0
ENDBLK
  5
4E0E
330
4E0C
100
AcDbEntity
  8
0
100
AcDbBlockEnd
  0
BLOCK
  5
5A4B
330
5A4A
100
AcDbEntity
  8
0
100
AcDbBlockBegin
  2
*D26
 70
     1
 10
0.0
 20
0.0
 30
0.0
  3
*D26
  1

  0
LINE
  5
5A70
330
5A4A
100
AcDbEntity
  8
AM_5 寸法線
 62
     3
100
AcDbLine
 10
376.2933647999998
 20
295.6766658666666
 30
0.0
 11
361.5712868684473
 21
295.6766658666666
 31
0.0
  0
LINE
  5
5A71
330
5A4A
100
AcDbEntity
  8
AM_5 寸法線
 62
     3
100
AcDbLine
 10
389.3933648
 20
302.6766658666667
 30
0.0
 11
361.5712868684473
 21
302.6766658666667
 31
0.0
  0
LINE
  5
5A72
330
5A4A
100
AcDbEntity
  8
AM_5 寸法線
 62
     3
100
AcDbLine
 10
362.8212868684473
 20
290.6766658666667
 30
0.0
 11
362.8212868684473
 21
285.6766658666667
 31
0.0
  0
LINE
  5
5A73
330
5A4A
100
AcDbEntity
  8
AM_5 寸法線
 62
     3
100
AcDbLine
 10
362.8212868684473
 20
307.6766658666667
 30
0.0
 11
362.8212868684473
 21
322.8766658666667
 31
0.0
  0
LINE
  5
5A74
330
5A4A
100
AcDbEntity
  8
AM_5 寸法線
 62
     3
100
AcDbLine
 10
362.8212868684473
 20
295.6766658666666
 30
0.0
 11
362.8212868684473
 21
302.6766658666667
 31
0.0
  0
INSERT
  5
5A75
330
5A4A
100
AcDbEntity
  8
AM_5 寸法線
 62
     3
100
AcDbBlockReference
  2
_Open30
 10
362.8212868684473
 20
295.6766658666666
 30
0.0
 41
5.0
 42
5.0
 43
5.0
 50
90.0
  0
INSERT
  5
5A76
330
5A4A
100
AcDbEntity
  8
AM_5 寸法線
 62
     3
100
AcDbBlockReference
  2
_Open30
 10
362.8212868684473
 20
302.6766658666667
 30
0.0
 41
5.0
 42
5.0
 43
5.0
 50
270.0
  0
MTEXT
  5
5A77
330
5A4A
100
AcDbEntity
  8
AM_5 寸法線
 62
     3
100
AcDbMText
 10
356.3212868684472
 20
317.7766658666668
 30
0.0
 40
7.0
 41
0.0
 46
0.0
 71
     5
 72
     1
  1
7
  7
SEISA
 11
0.0000000000000001
 21
1.0
 31
0.0
 73
     1
 44
1.0
  0
POINT
  5
5A78
330
5A4A
100
AcDbEntity
  8
Defpoints
 62
     0
100
AcDbPoint
 10
377.5433647999999
 20
295.6766658666666
 30
0.0
  0
POINT
  5
5A79
330
5A4A
100
AcDbEntity
  8
Defpoints
 62
     0
100
AcDbPoint
 10
390.6433648000001
 20
302.6766658666667
 30
0.0
  0
POINT
  5
5A7A
330
5A4A
100
AcDbEntity
  8
Defpoints
 62
     0
100
AcDbPoint
 10
362.8212868684473
 20
302.6766658666667
 30
0.0
  0
ENDBLK
  5
5A4C
330
5A4A
100
AcDbEntity
  8
0
100
AcDbBlockEnd
  0
BLOCK
  5
5B73
330
5B72
100
AcDbEntity
  8
0
100
AcDbBlockBegin
  2
*D27
 70
     1
 10
0.0
 20
0.0
 30
0.0
  3
*D27
  1

  0
LINE
  5
5B92
330
5B72
100
AcDbEntity
  8
AM_5 寸法線
 62
     3
100
AcDbLine
 10
387.7933647999999
 20
350.6766658666667
 30
0.0
 11
400.25
 21
350.6766658666667
 31
0.0
  0
LINE
  5
5B93
330
5B72
100
AcDbEntity
  8
AM_5 寸法線
 62
     3
100
AcDbLine
 10
387.7933647999999
 20
368.6766658666666
 30
0.0
 11
400.25
 21
368.6766658666666
 31
0.0
  0
LINE
  5
5B94
330
5B72
100
AcDbEntity
  8
AM_5 寸法線
 62
     3
100
AcDbLine
 10
399.0000000000002
 20
355.6766658666667
 30
0.0
 11
399.0000000000002
 21
363.6766658666667
 31
0.0
  0
INSERT
  5
5B95
330
5B72
100
AcDbEntity
  8
AM_5 寸法線
 62
     3
100
AcDbBlockReference
  2
_Open30
 10
399.0000000000002
 20
350.6766658666667
 30
0.0
 41
5.0
 42
5.0
 43
5.0
 50
270.0
  0
INSERT
  5
5B96
330
5B72
100
AcDbEntity
  8
AM_5 寸法線
 62
     3
100
AcDbBlockReference
  2
_Open30
 10
399.0000000000002
 20
368.6766658666666
 30
0.0
 41
5.0
 42
5.0
 43
5.0
 50
90.0
  0
MTEXT
  5
5B97
330
5B72
100
AcDbEntity
  8
AM_5 寸法線
 62
     3
100
AcDbMText
 10
392.5
 20
359.6766658666668
 30
0.0
 40
7.0
 41
0.0
 46
0.0
 71
     5
 72
     1
  1
18
  7
SEISA
 11
0.0000000000000001
 21
1.0
 31
0.0
 73
     1
 44
1.0
  0
POINT
  5
5B98
330
5B72
100
AcDbEntity
  8
Defpoints
 62
     0
100
AcDbPoint
 10
386.5433647999998
 20
350.6766658666667
 30
0.0
  0
POINT
  5
5B99
102
{ACAD_REACTORS
330
5BAB
102
}
330
5B72
100
AcDbEntity
  8
Defpoints
 62
     0
100
AcDbPoint
 10
386.5433647999998
 20
368.6766658666666
 30
0.0
  0
POINT
  5
5B9A
330
5B72
100
AcDbEntity
  8
Defpoints
 62
     0
100
AcDbPoint
 10
399.0000000000002
 20
368.6766658666666
 30
0.0
  0
ENDBLK
  5
5B74
330
5B72
100
AcDbEntity
  8
0
100
AcDbBlockEnd
  0
BLOCK
  5
5B9D
330
5B9C
100
AcDbEntity
  8
0
100
AcDbBlockBegin
  2
*D28
 70
     1
 10
0.0
 20
0.0
 30
0.0
  3
*D28
  1

  0
LINE
  5
5BD8
330
5B9C
100
AcDbEntity
  8
AM_5 寸法線
 62
     3
100
AcDbLine
 10
387.7933647999999
 20
368.6766658666666
 30
0.0
 11
400.2500000000003
 21
368.6766658666666
 31
0.0
  0
LINE
  5
5BD9
330
5B9C
100
AcDbEntity
  8
AM_5 寸法線
 62
     3
100
AcDbLine
 10
389.2933647999998
 20
382.6766658666667
 30
0.0
 11
400.2500000000003
 21
382.6766658666667
 31
0.0
  0
LINE
  5
5BDA
330
5B9C
100
AcDbEntity
  8
AM_5 寸法線
 62
     3
100
AcDbLine
 10
399.0000000000003
 20
363.6766658666667
 30
0.0
 11
399.0000000000003
 21
358.6766658666667
 31
0.0
  0
LINE
  5
5BDB
330
5B9C
100
AcDbEntity
  8
AM_5 寸法線
 62
     3
100
AcDbLine
 10
399.0000000000003
 20
387.6766658666667
 30
0.0
 11
399.0000000000003
 21
392.6766658666667
 31
0.0
  0
MTEXT
  5
5BDC
330
5B9C
100
AcDbEntity
  8
AM_5 寸法線
 62
     3
100
AcDbMText
 10
393.7956072806019
 20
376.1854052759647
 30
0.0
 40
7.0
 41
0.0
 46
0.0
 71
     5
 72
     1
  1
14
  7
SEISA
 11
0.0000000000000001
 21
1.0
 31
0.0
 73
     1
 44
1.0
  0
LINE
  5
5BDD
330
5B9C
100
AcDbEntity
  8
AM_5 寸法線
 62
     3
100
AcDbLine
 10
399.0000000000003
 20
368.6766658666666
 30
0.0
 11
399.0000000000003
 21
382.6766658666667
 31
0.0
  0
INSERT
  5
5BDE
330
5B9C
100
AcDbEntity
  8
AM_5 寸法線
 62
     3
100
AcDbBlockReference
  2
_Open30
 10
399.0000000000003
 20
368.6766658666666
 30
0.0
 41
5.0
 42
5.0
 43
5.0
 50
90.0
  0
INSERT
  5
5BDF
330
5B9C
100
AcDbEntity
  8
AM_5 寸法線
 62
     3
100
AcDbBlockReference
  2
_Open30
 10
399.0000000000003
 20
382.6766658666667
 30
0.0
 41
5.0
 42
5.0
 43
5.0
 50
270.0
  0
POINT
  5
5BE0
330
5B9C
100
AcDbEntity
  8
Defpoints
 62
     0
100
AcDbPoint
 10
386.5433647999998
 20
368.6766658666666
 30
0.0
  0
POINT
  5
5BE1
330
5B9C
100
AcDbEntity
  8
Defpoints
 62
     0
100
AcDbPoint
 10
388.0433647999998
 20
382.6766658666667
 30
0.0
  0
POINT
  5
5BE2
330
5B9C
100
AcDbEntity
  8
Defpoints
 62
     0
100
AcDbPoint
 10
399.0000000000003
 20
382.6766658666667
 30
0.0
  0
ENDBLK
  5
5B9E
330
5B9C
100
AcDbEntity
  8
0
100
AcDbBlockEnd
  0
BLOCK
  5
5D39
330
5D38
100
AcDbEntity
  8
0
100
AcDbBlockBegin
  2
ケース
 70
     0
 10
0.0
 20
0.0
 30
0.0
  3
ケース
  1

  0
LINE
  5
5D3B
330
5D38
100
AcDbEntity
  8
AM_11 想像線
 48
0.1
100
AcDbLine
 10
5.5
 20
-16.10050185913951
 30
0.0
 11
5.5
 21
-14.10050185913951
 31
0.0
  0
LINE
  5
5D3C
330
5D38
100
AcDbEntity
  8
AM_11 想像線
 48
0.1
100
AcDbLine
 10
8.0
 20
0.0
 30
0.0
 11
8.0
 21
-15.10050185913951
 31
0.0
  0
LINE
  5
5D3D
330
5D38
100
AcDbEntity
  8
AM_11 想像線
 48
0.1
100
AcDbLine
 10
0.0
 20
0.0
 30
0.0
 11
0.0
 21
-26.10050185913951
 31
0.0
  0
LINE
  5
5D3E
330
5D38
100
AcDbEntity
  8
AM_11 想像線
 48
0.1
100
AcDbLine
 10
8.300000000000181
 20
-19.30050185913956
 30
0.0
 11
12.5
 21
-19.30050185913956
 31
0.0
  0
LINE
  5
5D3F
330
5D38
100
AcDbEntity
  8
AM_11 想像線
 48
0.1
100
AcDbLine
 10
12.5
 20
-17.10050185913951
 30
0.0
 11
6.5
 21
-17.10050185913951
 31
0.0
  0
LINE
  5
5D40
102
{ACAD_REACTORS
330
5A59
102
}
330
5D38
100
AcDbEntity
  8
AM_11 想像線
 48
0.1
100
AcDbLine
 10
3.0
 20
-29.10050185913951
 30
0.0
 11
12.5
 21
-29.10050185913951
 31
0.0
  0
LINE
  5
5D41
330
5D38
100
AcDbEntity
  8
AM_11 想像線
 48
0.1
100
AcDbLine
 10
12.5
 20
-26.90050185913958
 30
0.0
 11
8.300000000000181
 21
-26.90050185913958
 31
0.0
  0
ARC
  5
5D42
330
5D38
100
AcDbEntity
  8
AM_11 想像線
 48
0.1
100
AcDbCircle
 10
8.300000000000181
 20
-19.80050185913956
 30
0.0
 40
0.5
100
AcDbArc
 50
90.0
 51
180.0
  0
ARC
  5
5D43
330
5D38
100
AcDbEntity
  8
AM_11 想像線
 48
0.1
100
AcDbCircle
 10
6.5
 20
-16.10050185913951
 30
0.0
 40
1.0
100
AcDbArc
 50
180.0
 51
270.0
  0
ARC
  5
5D44
330
5D38
100
AcDbEntity
  8
AM_11 想像線
 48
0.1
100
AcDbCircle
 10
3.0
 20
-26.10050185913951
 30
0.0
 40
3.0
100
AcDbArc
 50
180.0
 51
270.0
  0
ARC
  5
5D45
330
5D38
100
AcDbEntity
  8
AM_11 想像線
 48
0.1
100
AcDbCircle
 10
8.300000000000181
 20
-26.40050185913958
 30
0.0
 40
0.5
100
AcDbArc
 50
180.0
 51
270.0
  0
LINE
  5
5D46
330
5D38
100
AcDbEntity
  8
AM_11 想像線
 48
0.1
100
AcDbLine
 10
7.800000000000181
 20
-26.40050185913958
 30
0.0
 11
7.800000000000181
 21
-19.80050185913956
 31
0.0
  0
LINE
  5
5D47
330
5D38
100
AcDbEntity
  8
AM_11 想像線
 48
0.1
100
AcDbLine
 10
11.5
 20
-19.30050185913956
 30
0.0
 11
11.5
 21
-17.10050185913951
 31
0.0
  0
LINE
  5
5D48
330
5D38
100
AcDbEntity
  8
AM_11 想像線
 48
0.1
100
AcDbLine
 10
11.5
 20
-29.10050185913951
 30
0.0
 11
11.5
 21
-26.90050185913958
 31
0.0
  0
LINE
  5
5D49
330
5D38
100
AcDbEntity
  8
AM_11 想像線
 48
0.1
100
AcDbLine
 10
6.0
 20
0.0
 30
0.0
 11
6.0
 21
-13.23447685913953
 31
0.0
  0
ARC
  5
5D4A
330
5D38
100
AcDbEntity
  8
AM_11 想像線
 48
0.1
100
AcDbCircle
 10
6.5
 20
-14.10050185913951
 30
0.0
 40
1.0
100
AcDbArc
 50
90.0
 51
180.0
  0
LINE
  5
5D4B
330
5D38
100
AcDbEntity
  8
AM_11 想像線
 48
0.1
100
AcDbLine
 10
6.938724000000092
 20
-13.10050185913951
 30
0.0
 11
6.5
 21
-13.10050185913951
 31
0.0
  0
LINE
  5
5D4C
330
5D38
100
AcDbEntity
  8
AM_11 想像線
 48
0.1
100
AcDbLine
 10
6.938724000000092
 20
-13.10050185913951
 30
0.0
 11
8.600000000000136
 21
-13.10050185913951
 31
0.0
  0
LINE
  5
5D4D
330
5D38
100
AcDbEntity
  8
AM_11 想像線
 48
0.1
100
AcDbLine
 10
8.600000000000136
 20
-13.10050185913951
 30
0.0
 11
9.600000000000136
 21
-12.10050185913951
 31
0.0
  0
ENDBLK
  5
5D3A
330
5D38
100
AcDbEntity
  8
0
100
AcDbBlockEnd
  0
ENDSEC
  0
SECTION
  2
ENTITIES
  0
LINE
  5
40E0
330
1F
100
AcDbEntity
  8
AM_7 中心線
100
AcDbLine
 10
434.5433647999998
 20
476.6766658666666
 30
0.0
 11
434.5433647999998
 21
298.6766658666667
 31
0.0
  0
INSERT
  5
44C5
102
{ACAD_REACTORS
330
4CFD
330
4D93
330
4DD2
102
}
330
1F
100
AcDbEntity
  8
AM_0 外形線1
100
AcDbBlockReference
  2
センタB SMVH160
 10
434.5433647999998
 20
392.6766658666667
 30
0.0
  0
INSERT
  5
45A6
102
{ACAD_REACTORS
330
4A09
330
4BF2
330
4D77
330
4E26
330
5A59
330
5B7F
330
5BAB
102
}
330
1F
100
AcDbEntity
  8
AM_0 外形線1
100
AcDbBlockReference
  2
センタＡ SMVH160
 10
434.5433647999998
 20
382.6766658666667
 30
0.0
  0
INSERT
  5
469C
102
{ACAD_REACTORS
330
4A3F
330
4E26
330
4ACB
102
}
330
1F
100
AcDbEntity
  8
AM_0 外形線1
100
AcDbBlockReference
  2
ケースＡ SMVH160
 10
434.5433647999998
 20
387.6766658666667
 30
0.0
  0
INSERT
  5
4864
102
{ACAD_REACTORS
330
4A3F
330
4A66
330
4CCD
330
4CE5
102
}
330
1F
100
AcDbEntity
  8
AM_0 外形線1
100
AcDbBlockReference
  2
ケースＢ SMVH160
 10
434.5433647999998
 20
387.6766658666667
 30
0.0
  0
INSERT
  5
490C
330
1F
100
AcDbEntity
  8
AM_0 外形線1
100
AcDbBlockReference
  2
スラストプレ－ト SMVH160
 10
434.5433647999998
 20
382.6766658666667
 30
0.0
  0
INSERT
  5
4998
330
1F
100
AcDbEntity
  8
AM_0 外形線1
100
AcDbBlockReference
  2
リーマボルト SMVH160 M8
 10
506.0433647999998
 20
372.6766658666667
 30
0.0
  0
DIMENSION
  5
49F2
102
{ACAD_XDICTIONARY
360
49FF
102
}
102
{ACAD_REACTORS
330
4A09
102
}
330
1F
100
AcDbEntity
  8
AM_5 寸法線
100
AcDbDimension
  2
*D14
 10
482.0433647999998
 20
252.6766658666667
 30
0.0
 11
434.5433647999998
 21
259.1766658666667
 31
0.0
 70
    32
  1
%%c<>
 71
     5
 42
95.0
 73
     0
 74
     0
 75
     0
  3
SEISA$0
100
AcDbAlignedDimension
 13
387.0433647999998
 23
328.6766658666667
 33
0.0
 14
482.0433647999998
 24
328.6766658666667
 34
0.0
100
AcDbRotatedDimension
1001
ACAD
1000
DSTYLE
1002
{
1070
    40
1040
2.0
1002
}
1001
ACAD_DSTYLE_DIMINSPECT
1070
   396
1000
100%
1070
   395
1000

1070
   394
1070
    33
1070
   393
1070
     0
  0
DIMENSION
  5
4A24
102
{ACAD_XDICTIONARY
360
4A33
102
}
102
{ACAD_REACTORS
330
4A3F
102
}
330
1F
100
AcDbEntity
  8
AM_5 寸法線
100
AcDbDimension
  2
*D15
 10
544.5433648000001
 20
387.6766658666667
 30
0.0
 11
544.5433647999999
 21
355.0266658666668
 31
0.0
 70
   160
 71
     5
 42
15.0
 73
     0
 74
     0
 75
     0
  3
SEISA$0
100
AcDbAlignedDimension
 13
514.0433647999998
 23
372.6766658666667
 33
0.0
 14
514.0433647999998
 24
387.6766658666667
 34
0.0
 50
90.0
100
AcDbRotatedDimension
1001
ACAD_DSTYLE_DIMINSPECT
1070
   396
1000
100%
1070
   395
1000

1070
   394
1070
    33
1070
   393
1070
     0
1001
ACAD
1000
DSTYLE
1002
{
1070
    40
1040
2.0
1070
   173
1070
     1
1070
   342
1005
0
1070
   343
1005
69
1070
   344
1005
2BD1
1002
}
  0
DIMENSION
  5
4A4B
102
{ACAD_XDICTIONARY
360
4A5A
102
}
102
{ACAD_REACTORS
330
4A66
102
}
330
1F
100
AcDbEntity
  8
AM_5 寸法線
100
AcDbDimension
  2
*D16
 10
544.5433648000003
 20
387.6766658666667
 30
0.0
 11
544.5433648000001
 21
420.3266658666667
 31
0.0
 70
   160
 71
     5
 42
15.0
 73
     0
 74
     0
 75
     0
  3
SEISA$0
100
AcDbAlignedDimension
 13
514.0433647999998
 23
402.6766658666666
 33
0.0
 14
514.0433647999998
 24
387.6766658666667
 34
0.0
 50
90.0
100
AcDbRotatedDimension
1001
ACAD_DSTYLE_DIMINSPECT
1070
   396
1000
100%
1070
   395
1000

1070
   394
1070
    33
1070
   393
1070
     0
1001
ACAD
1000
DSTYLE
1002
{
1070
    40
1040
2.0
1070
   173
1070
     1
1070
   342
1005
0
1070
   343
1005
69
1070
   344
1005
2BD1
1002
}
  0
DIMENSION
  5
4AB4
102
{ACAD_XDICTIONARY
360
4AC1
102
}
102
{ACAD_REACTORS
330
4ACB
102
}
330
1F
100
AcDbEntity
  8
AM_5 寸法線
100
AcDbDimension
  2
*D17
 10
564.5433647999997
 20
439.6766658666666
 30
0.0
 11
558.0433647999996
 21
387.6766658666667
 31
0.0
 70
    32
 71
     5
 42
104.0
 73
     0
 74
     0
 75
     0
  3
SEISA$0
100
AcDbAlignedDimension
 13
491.5433647999998
 23
335.6766658666667
 33
0.0
 14
491.5433647999998
 24
439.6766658666666
 34
0.0
 50
90.0
100
AcDbRotatedDimension
1001
ACAD
1000
DSTYLE
1002
{
1070
    40
1040
2.0
1002
}
  0
DIMENSION
  5
4BDB
102
{ACAD_XDICTIONARY
360
4BE8
102
}
102
{ACAD_REACTORS
330
4BF2
102
}
330
1F
100
AcDbEntity
  8
AM_5 寸法線
100
AcDbDimension
  2
*D18
 10
584.5433647999997
 20
472.6766658666666
 30
0.0
 11
578.0433647999997
 21
387.6766658666667
 31
0.0
 70
    32
 71
     5
 42
170.0
 73
     0
 74
     0
 75
     0
  3
SEISA$0
100
AcDbAlignedDimension
 13
478.4433647999998
 23
302.6766658666667
 33
0.0
 14
478.4433647999998
 24
472.6766658666666
 34
0.0
 50
90.0
100
AcDbRotatedDimension
1001
ACAD
1000
DSTYLE
1002
{
1070
    40
1040
2.0
1002
}
  0
DIMENSION
  5
4CB6
102
{ACAD_XDICTIONARY
360
4CC3
102
}
102
{ACAD_REACTORS
330
4CCD
102
}
330
1F
100
AcDbEntity
  8
AM_5 寸法線
100
AcDbDimension
  2
*D19
 10
514.5433647999998
 20
562.6766658666666
 30
0.0
 11
434.5433647999998
 21
569.1766658666666
 31
0.0
 70
    32
  1
%%c<>
 71
     5
 42
160.0
 73
     0
 74
     0
 75
     0
  3
SEISA$0
100
AcDbAlignedDimension
 13
354.5433647999999
 23
402.1766658666666
 33
0.0
 14
514.5433647999998
 24
402.1766658666666
 34
0.0
100
AcDbRotatedDimension
1001
ACAD
1000
DSTYLE
1002
{
1070
    40
1040
2.0
1002
}
1001
ACAD_DSTYLE_DIMINSPECT
1070
   396
1000
100%
1070
   395
1000

1070
   394
1070
    33
1070
   393
1070
     0
  0
DIMENSION
  5
4CCE
102
{ACAD_XDICTIONARY
360
4CDB
102
}
102
{ACAD_REACTORS
330
4CE5
102
}
330
1F
100
AcDbEntity
  8
AM_5 寸法線
100
AcDbDimension
  2
*D20
 10
494.5433647999998
 20
542.6766658666666
 30
0.0
 11
434.5433647999998
 21
549.1766658666667
 31
0.0
 70
    32
  1
%%c<>
 71
     5
 42
120.0
 73
     0
 74
     0
 75
     0
  3
SEISA$0
100
AcDbAlignedDimension
 13
374.5433647999998
 23
436.6766658666667
 33
0.0
 14
494.5433647999998
 24
436.6766658666667
 34
0.0
100
AcDbRotatedDimension
1001
ACAD
1000
DSTYLE
1002
{
1070
    40
1040
2.0
1002
}
1001
ACAD_DSTYLE_DIMINSPECT
1070
   396
1000
100%
1070
   395
1000

1070
   394
1070
    33
1070
   393
1070
     0
  0
DIMENSION
  5
4CE6
102
{ACAD_XDICTIONARY
360
4CF3
102
}
102
{ACAD_REACTORS
330
4CFD
102
}
330
1F
100
AcDbEntity
  8
AM_5 寸法線
100
AcDbDimension
  2
*D21
 10
482.0433647999998
 20
522.6766658666666
 30
0.0
 11
434.5433647999998
 21
529.1766658666666
 31
0.0
 70
    32
  1
%%c<>
 71
     5
 42
95.0
 73
     0
 74
     0
 75
     0
  3
SEISA$0
100
AcDbAlignedDimension
 13
387.0433647999998
 23
446.6766658666666
 33
0.0
 14
482.0433647999998
 24
446.6766658666666
 34
0.0
100
AcDbRotatedDimension
1001
ACAD
1000
DSTYLE
1002
{
1070
    40
1040
2.0
1002
}
1001
ACAD_DSTYLE_DIMINSPECT
1070
   396
1000
100%
1070
   395
1000

1070
   394
1070
    33
1070
   393
1070
     0
  0
DIMENSION
  5
4D60
102
{ACAD_XDICTIONARY
360
4D6D
102
}
102
{ACAD_REACTORS
330
4D77
102
}
330
1F
100
AcDbEntity
  8
AM_5 寸法線
100
AcDbDimension
  2
*D22
 10
428.0
 20
382.6766658666667
 30
0.0
 11
421.4999999999998
 21
342.6766658666668
 31
0.0
 70
    32
 71
     5
 42
79.99999999999992
 73
     0
 74
     0
 75
     0
  3
SEISA$0
100
AcDbAlignedDimension
 13
434.5433647999998
 23
302.6766658666667
 33
0.0
 14
416.5216823999998
 24
382.6766658666667
 34
0.0
 50
90.0
100
AcDbRotatedDimension
1001
ACAD
1000
DSTYLE
1002
{
1070
    40
1040
2.0
1002
}
  0
DIMENSION
  5
4D78
102
{ACAD_XDICTIONARY
360
4D87
102
}
102
{ACAD_REACTORS
330
4D93
102
}
330
1F
100
AcDbEntity
  8
AM_5 寸法線
100
AcDbDimension
  2
*D23
 10
428.0000000000002
 20
392.6766658666667
 30
0.0
 11
421.0905923933351
 21
399.5448908819941
 31
0.0
 70
   160
 71
     5
 42
10.00000000000005
 73
     0
 74
     0
 75
     0
  3
SEISA$0
100
AcDbAlignedDimension
 13
417.7716823999999
 23
382.6766658666667
 33
0.0
 14
434.5433647999998
 24
392.6766658666667
 34
0.0
 50
90.0
100
AcDbRotatedDimension
1001
ACAD
1000
DSTYLE
1002
{
1070
    40
1040
2.0
1070
   279
1070
     2
1002
}
  0
DIMENSION
  5
4DBB
102
{ACAD_XDICTIONARY
360
4DC8
102
}
102
{ACAD_REACTORS
330
4DD2
102
}
330
1F
100
AcDbEntity
  8
AM_5 寸法線
100
AcDbDimension
  2
*D24
 10
428.0000000000002
 20
472.6766658666666
 30
0.0
 11
421.4999999999998
 21
432.6766658666667
 31
0.0
 70
    32
 71
     5
 42
80.0
 73
     0
 74
     0
 75
     0
  3
SEISA$0
100
AcDbAlignedDimension
 13
434.5433647999998
 23
392.6766658666667
 33
0.0
 14
434.5433647999998
 24
472.6766658666666
 34
0.0
 50
90.0
100
AcDbRotatedDimension
1001
ACAD
1000
DSTYLE
1002
{
1070
    40
1040
2.0
1002
}
  0
DIMENSION
  5
4E0B
102
{ACAD_XDICTIONARY
360
4E1A
102
}
102
{ACAD_REACTORS
330
4E26
102
}
330
1F
100
AcDbEntity
  8
AM_5 寸法線
100
AcDbDimension
  2
*D25
 10
399.0
 20
350.6766658666667
 30
0.0
 11
398.9999999999998
 21
332.5766658666668
 31
0.0
 70
   160
 71
     5
 42
3.0
 73
     0
 74
     0
 75
     0
  3
SEISA$0
100
AcDbAlignedDimension
 13
387.0433647999998
 23
347.6766658666667
 33
0.0
 14
386.5433647999998
 24
350.6766658666667
 34
0.0
 50
90.0
100
AcDbRotatedDimension
1001
ACAD
1000
DSTYLE
1002
{
1070
    40
1040
2.0
1002
}
  0
MTEXT
  5
59FA
330
1F
100
AcDbEntity
  8
AM_6 文字
100
AcDbMText
 10
506.0120431175069
 20
285.3618464369043
 30
0.0
 40
7.0
 41
135.3159547097406
 46
27.45869168716519
 71
     1
 72
     5
  1
{\W0.6;TYPE:SMV160/SMVH160\PSHAFT DIA:MAX/MIN φ65/φ22}
  7
SEISA
 73
     1
 44
1.0
  0
DIMENSION
  5
5A49
102
{ACAD_XDICTIONARY
360
5A58
102
}
102
{ACAD_REACTORS
330
5A59
102
}
330
1F
100
AcDbEntity
  8
AM_5 寸法線
100
AcDbDimension
  2
*D26
 10
362.8212868684473
 20
302.6766658666667
 30
0.0
 11
356.3212868684472
 21
317.7766658666668
 31
0.0
 70
    32
 71
     5
 42
7.000000000000056
 73
     0
 74
     0
 75
     0
  3
SEISA$0
100
AcDbAlignedDimension
 13
377.5433647999999
 23
295.6766658666666
 33
0.0
 14
390.6433648000001
 24
302.6766658666667
 34
0.0
 50
90.00000000000005
100
AcDbRotatedDimension
1001
ACAD
1000
DSTYLE
1002
{
1070
    40
1040
2.0
1002
}
1001
ACAD_DSTYLE_DIMINSPECT
1070
   396
1000
100%
1070
   395
1000

1070
   394
1070
    33
1070
   393
1070
     0
  0
DIMENSION
  5
5B71
102
{ACAD_XDICTIONARY
360
5B7E
102
}
102
{ACAD_REACTORS
330
5B7F
330
5BAB
102
}
330
1F
100
AcDbEntity
  8
AM_5 寸法線
100
AcDbDimension
  2
*D27
 10
399.0000000000002
 20
368.6766658666666
 30
0.0
 11
392.5
 21
359.6766658666668
 31
0.0
 70
    32
 71
     5
 42
18.0
 73
     0
 74
     0
 75
     0
  3
SEISA$0
100
AcDbAlignedDimension
 13
386.5433647999998
 23
350.6766658666667
 33
0.0
 14
386.5433647999998
 24
368.6766658666666
 34
0.0
 50
90.00000000000005
100
AcDbRotatedDimension
1001
ACAD
1000
DSTYLE
1002
{
1070
    40
1040
2.0
1002
}
1001
ACAD_DSTYLE_DIMINSPECT
1070
   396
1000
100%
1070
   395
1000

1070
   394
1070
    33
1070
   393
1070
     0
  0
DIMENSION
  5
5B9B
102
{ACAD_XDICTIONARY
360
5BAA
102
}
102
{ACAD_REACTORS
330
5BAB
102
}
330
1F
100
AcDbEntity
  8
AM_5 寸法線
100
AcDbDimension
  2
*D28
 10
399.0000000000003
 20
382.6766658666667
 30
0.0
 11
393.7956072806019
 21
376.1854052759647
 31
0.0
 70
   160
 71
     5
 42
13.99999999999994
 73
     0
 74
     0
 75
     0
  3
SEISA$0
100
AcDbAlignedDimension
 13
386.5433647999998
 23
368.6766658666666
 33
0.0
 14
388.0433647999998
 24
382.6766658666667
 34
0.0
 50
90.00000000000005
100
AcDbRotatedDimension
1001
ACAD_DSTYLE_DIMINSPECT
1070
   396
1000
100%
1070
   395
1000

1070
   394
1070
    33
1070
   393
1070
     0
1001
ACAD
1000
DSTYLE
1002
{
1070
    40
1040
2.0
1070
   279
1070
     2
1002
}
  0
INSERT
  5
5D4E
330
1F
100
AcDbEntity
  8
AM_0 外形線1
100
AcDbBlockReference
  2
ケース
 10
374.5433647999998
 20
324.7771677258062
 30
0.0
  0
ENDSEC
  0
SECTION
  2
OBJECTS
  0
DICTIONARY
  5
C
330
0
100
AcDbDictionary
281
     1
  3
ACAD_COLOR
350
C5
  3
ACAD_GROUP
350
D
  3
ACAD_LAYOUT
350
1A
  3
ACAD_MATERIAL
350
C4
  3
ACAD_MLEADERSTYLE
350
2D5
  3
ACAD_MLINESTYLE
350
17
  3
ACAD_PLOTSETTINGS
350
19
  3
ACAD_PLOTSTYLENAME
350
E
  3
ACAD_SCALELIST
350
2B3
  3
ACAD_TABLESTYLE
350
121
  3
ACAD_VISUALSTYLE
350
27F
  3
ACDB_RECOMPOSE_DATA
350
2F7
  3
AcDbVariableDictionary
350
34
  3
AcmDictionary
350
49
  3
AMG
350
2B
  3
AMGSNAPSETTINGS
350
1DE
  0
DICTIONARY
  5
BF
330
2
100
AcDbDictionary
280
     1
281
     1
  3
ACAD_LAYERSTATES
360
2786
  3
AMLAYER_GROUPCOLORS
360
C0
  0
DICTIONARY
  5
29D7
330
10
100
AcDbDictionary
280
     1
281
     1
  3
ADSK_XREC_LAYER_RECONCILED
360
29D8
  0
DICTIONARY
  5
29D9
330
81
100
AcDbDictionary
280
     1
281
     1
  3
ADSK_XREC_LAYER_RECONCILED
360
29DA
  0
DICTIONARY
  5
29E0
330
25C9
100
AcDbDictionary
280
     1
281
     1
  3
ADSK_XREC_LAYER_RECONCILED
360
29E1
  0
DICTIONARY
  5
29E2
330
25CA
100
AcDbDictionary
280
     1
281
     1
  3
ADSK_XREC_LAYER_RECONCILED
360
29E3
  0
DICTIONARY
  5
29E8
330
26B3
100
AcDbDictionary
280
     1
281
     1
  3
ADSK_XREC_LAYER_RECONCILED
360
29E9
  0
DICTIONARY
  5
82
330
1F
100
AcDbDictionary
280
     1
281
     1
  3
ACAD_SORTENTS
360
A41
  0
DICTIONARY
  5
2AA1
330
2AA0
100
AcDbDictionary
280
     1
281
     1
  3
ACAD_SORTENTS
360
567B
  0
DICTIONARY
  5
4553
330
44A6
100
AcDbDictionary
280
     1
281
     1
  3
ACAD_SORTENTS
360
5CC8
  0
DICTIONARY
  5
45E3
330
4587
100
AcDbDictionary
280
     1
281
     1
  3
ACAD_SORTENTS
360
5C91
  0
DICTIONARY
  5
4719
330
4662
100
AcDbDictionary
280
     1
281
     1
  3
ACAD_SORTENTS
360
564B
  0
DICTIONARY
  5
48E3
330
4827
100
AcDbDictionary
280
     1
281
     1
  3
ACAD_SORTENTS
360
56FC
  0
DICTIONARY
  5
4927
330
4900
100
AcDbDictionary
280
     1
281
     1
  3
ACAD_SORTENTS
360
5DE8
  0
DICTIONARY
  5
49E3
330
4974
100
AcDbDictionary
280
     1
281
     1
  3
ACAD_SORTENTS
360
57EF
  0
DICTIONARY
  5
49FF
330
49F2
100
AcDbDictionary
280
     1
281
     1
  3
ACAD_DIMASSOC
360
4A09
  0
DICTIONARY
  5
4A33
330
4A24
100
AcDbDictionary
280
     1
281
     1
  3
ACAD_DIMASSOC
360
4A3F
  0
DICTIONARY
  5
4A5A
330
4A4B
100
AcDbDictionary
280
     1
281
     1
  3
ACAD_DIMASSOC
360
4A66
  0
DICTIONARY
  5
4AC1
330
4AB4
100
AcDbDictionary
280
     1
281
     1
  3
ACAD_DIMASSOC
360
4ACB
  0
DICTIONARY
  5
4BE8
330
4BDB
100
AcDbDictionary
280
     1
281
     1
  3
ACAD_DIMASSOC
360
4BF2
  0
DICTIONARY
  5
4CC3
330
4CB6
100
AcDbDictionary
280
     1
281
     1
  3
ACAD_DIMASSOC
360
4CCD
  0
DICTIONARY
  5
4CDB
330
4CCE
100
AcDbDictionary
280
     1
281
     1
  3
ACAD_DIMASSOC
360
4CE5
  0
DICTIONARY
  5
4CF3
330
4CE6
100
AcDbDictionary
280
     1
281
     1
  3
ACAD_DIMASSOC
360
4CFD
  0
DICTIONARY
  5
4D6D
330
4D60
100
AcDbDictionary
280
     1
281
     1
  3
ACAD_DIMASSOC
360
4D77
  0
DICTIONARY
  5
4D87
330
4D78
100
AcDbDictionary
280
     1
281
     1
  3
ACAD_DIMASSOC
360
4D93
  0
DICTIONARY
  5
4DC8
330
4DBB
100
AcDbDictionary
280
     1
281
     1
  3
ACAD_DIMASSOC
360
4DD2
  0
DICTIONARY
  5
4E1A
330
4E0B
100
AcDbDictionary
280
     1
281
     1
  3
ACAD_DIMASSOC
360
4E26
  0
DICTIONARY
  5
5A58
330
5A49
100
AcDbDictionary
280
     1
281
     1
  3
ACAD_DIMASSOC
360
5A59
  0
DICTIONARY
  5
5B7E
330
5B71
100
AcDbDictionary
280
     1
281
     1
  3
ACAD_DIMASSOC
360
5B7F
  0
DICTIONARY
  5
5BAA
330
5B9B
100
AcDbDictionary
280
     1
281
     1
  3
ACAD_DIMASSOC
360
5BAB
  0
DICTIONARY
  5
C5
102
{ACAD_REACTORS
330
C
102
}
330
C
100
AcDbDictionary
281
     1
  0
DICTIONARY
  5
D
102
{ACAD_REACTORS
330
C
102
}
330
C
100
AcDbDictionary
281
     1
  0
DICTIONARY
  5
1A
102
{ACAD_REACTORS
330
C
102
}
330
C
100
AcDbDictionary
281
     1
  3
Model
350
22
  3
レイアウト1
350
1E
  3
レイアウト2
350
26
  0
DICTIONARY
  5
C4
102
{ACAD_REACTORS
330
C
102
}
330
C
100
AcDbDictionary
281
     1
  3
ByBlock
350
27D
  3
ByLayer
350
27C
  3
Global
350
27E
  0
DICTIONARY
  5
2D5
102
{ACAD_REACTORS
330
C
102
}
330
C
100
AcDbDictionary
281
     1
  3
Standard
350
2D6
  0
DICTIONARY
  5
17
102
{ACAD_REACTORS
330
C
102
}
330
C
100
AcDbDictionary
281
     1
  3
Standard
350
18
  0
DICTIONARY
  5
19
102
{ACAD_REACTORS
330
C
102
}
330
C
100
AcDbDictionary
281
     1
  3
SEISA基本
350
1C7E
  0
ACDBDICTIONARYWDFLT
  5
E
102
{ACAD_REACTORS
330
C
102
}
330
C
100
AcDbDictionary
281
     1
  3
Normal
350
F
100
AcDbDictionaryWithDefault
340
F
  0
DICTIONARY
  5
2B3
102
{ACAD_REACTORS
330
C
102
}
330
C
100
AcDbDictionary
281
     1
  3
*A1
350
59E9
  3
A0
350
2B4
  3
A1
350
2B5
  3
A2
350
2B6
  3
A3
350
2B7
  3
A4
350
2B8
  3
A5
350
2B9
  3
A6
350
2BA
  3
A7
350
2BB
  3
A8
350
2BC
  3
A9
350
2BD
  3
B0
350
2BE
  3
B1
350
2BF
  3
B2
350
2C0
  3
B3
350
2C1
  3
B4
350
2C2
  3
B5
350
2C3
  3
B6
350
2C4
  3
B7
350
2C5
  3
B8
350
2C6
  3
B9
350
2C7
  3
C0
350
2C8
  3
C1
350
2C9
  3
C2
350
2CA
  3
C3
350
2CB
  3
C4
350
2CC
  3
C5
350
2CD
  3
C6
350
2CE
  3
C7
350
2CF
  3
C8
350
2D0
  3
C9
350
2D1
  3
D0
350
2D2
  3
D1
350
2D3
  3
D2
350
2D4
  0
DICTIONARY
  5
121
102
{ACAD_REACTORS
330
C
102
}
330
C
100
AcDbDictionary
281
     1
  3
Standard
350
122
  0
DICTIONARY
  5
27F
102
{ACAD_REACTORS
330
C
102
}
330
C
100
AcDbDictionary
281
     1
  3
2dWireframe
350
285
  3
3D Hidden
350
287
  3
3dWireframe
350
286
  3
Basic
350
284
  3
Brighten
350
28B
  3
ColorChange
350
28F
  3
Conceptual
350
288
  3
Dim
350
28A
  3
Facepattern
350
28E
  3
Flat
350
280
  3
FlatWithEdges
350
281
  3
Gouraud
350
282
  3
GouraudWithEdges
350
283
  3
Linepattern
350
28D
  3
Realistic
350
289
  3
Thicken
350
28C
  0
XRECORD
  5
2F7
102
{ACAD_REACTORS
330
C
102
}
330
C
100
AcDbXrecord
280
     1
 90
        1
330
122
  0
DICTIONARY
  5
34
102
{ACAD_REACTORS
330
C
102
}
330
C
100
AcDbDictionary
281
     1
  3
CANNOSCALE
350
2FA
  3
CMLEADERSTYLE
350
2F8
  3
CTABLESTYLE
350
140
  3
DIMASSOC
350
AC
  3
INDEXCTL
350
35
  3
LAYEREVAL
350
4D23
  3
LAYERNOTIFY
350
4D24
  3
LIGHTINGUNITS
350
2FB
  3
MSLTSCALE
350
2F9
  0
DICTIONARY
  5
49
102
{ACAD_REACTORS
330
C
102
}
330
C
100
AcDbDictionary
281
     1
  3
AcmBOM
350
161B
  3
AcmStdDictionary
350
4A
  3
AMDTSECTSYM_ARROWCOLOR
350
12B
  0
DICTIONARY
  5
2B
102
{ACAD_REACTORS
330
C
102
}
330
C
100
AcDbDictionary
281
     1
  0
DICTIONARY
  5
1DE
102
{ACAD_REACTORS
330
C
102
}
330
C
100
AcDbDictionary
281
     1
  0
DICTIONARY
  5
2786
102
{ACAD_REACTORS
330
BF
102
}
330
BF
100
AcDbDictionary
281
     1
  0
DICTIONARY
  5
C0
102
{ACAD_REACTORS
330
BF
102
}
330
BF
100
AcDbDictionary
280
     1
281
     1
  0
XRECORD
  5
29D8
102
{ACAD_REACTORS
330
29D7
102
}
330
29D7
100
AcDbXrecord
280
     1
290
     1
  0
XRECORD
  5
29DA
102
{ACAD_REACTORS
330
29D9
102
}
330
29D9
100
AcDbXrecord
280
     1
290
     1
  0
XRECORD
  5
29E1
102
{ACAD_REACTORS
330
29E0
102
}
330
29E0
100
AcDbXrecord
280
     1
290
     1
  0
XRECORD
  5
29E3
102
{ACAD_REACTORS
330
29E2
102
}
330
29E2
100
AcDbXrecord
280
     1
290
     1
  0
XRECORD
  5
29E9
102
{ACAD_REACTORS
330
29E8
102
}
330
29E8
100
AcDbXrecord
280
     1
290
     1
  0
SORTENTSTABLE
  5
A41
102
{ACAD_REACTORS
330
82
102
}
330
82
100
AcDbSortentsTable
330
1F
331
40E0
  5
40E1
331
49F2
  5
4A24
331
4BDB
  5
4CB6
331
4A24
  5
4AFC
331
4DBB
  5
4E73
331
4AB4
  5
4BC3
331
4CB6
  5
4D78
331
469C
  5
49F2
331
4998
  5
4A22
331
4E0B
  5
4EA0
331
59FA
  5
59FA
331
490C
  5
4A21
331
4864
  5
4A20
331
4D60
  5
4E0B
331
44C5
  5
4998
331
45A6
  5
49E5
331
4CCE
  5
4DBB
331
4D78
  5
4E48
331
4CE6
  5
4DEF
331
4A4B
  5
4B44
  0
SORTENTSTABLE
  5
567B
102
{ACAD_REACTORS
330
2AA1
102
}
330
2AA1
100
AcDbSortentsTable
330
2AA0
  0
SORTENTSTABLE
  5
5CC8
102
{ACAD_REACTORS
330
4553
102
}
330
4553
100
AcDbSortentsTable
330
44A6
331
44BC
  5
44BE
331
44B4
  5
44B6
331
44BD
  5
44BF
331
44B5
  5
44B7
331
44C0
  5
5B1A
331
44BE
  5
44C0
331
44C1
  5
5B1B
331
44B6
  5
44B8
331
5B1A
  5
44A9
331
44AE
  5
44B0
331
44BF
  5
44C1
331
44B7
  5
44B9
331
44AF
  5
44B1
331
5B1B
  5
44AA
331
44B8
  5
44BA
331
44B0
  5
44B2
331
44B9
  5
44BB
331
44B1
  5
44B3
331
44A9
  5
44AB
331
44BA
  5
44BC
331
44B2
  5
44B4
331
44AA
  5
44AE
331
44BB
  5
44BD
331
44B3
  5
44B5
331
44AB
  5
44AF
  0
SORTENTSTABLE
  5
5C91
102
{ACAD_REACTORS
330
45E3
102
}
330
45E3
100
AcDbSortentsTable
330
4587
331
4590
  5
4592
331
5AA7
  5
458B
331
459F
  5
45A1
331
4591
  5
4593
331
4598
  5
459A
331
4592
  5
4594
331
458A
  5
458D
331
4599
  5
459B
331
4593
  5
4596
331
458B
  5
458E
331
459A
  5
459C
331
4594
  5
4597
331
459B
  5
459D
331
45A0
  5
45A2
331
458D
  5
458F
331
459C
  5
459E
331
4596
  5
4598
331
458E
  5
4590
331
45A1
  5
5AA7
331
459D
  5
459F
331
4597
  5
4599
331
45A2
  5
5ABF
331
458F
  5
4591
331
459E
  5
45A0
331
5ABF
  5
458A
  0
SORTENTSTABLE
  5
564B
102
{ACAD_REACTORS
330
4719
102
}
330
4719
100
AcDbSortentsTable
330
4662
  0
SORTENTSTABLE
  5
56FC
102
{ACAD_REACTORS
330
48E3
102
}
330
48E3
100
AcDbSortentsTable
330
4827
331
485C
  5
485D
331
4845
  5
4846
331
4835
  5
4836
331
485D
  5
485E
331
4836
  5
4837
331
4846
  5
4847
331
485E
  5
485F
331
4837
  5
4838
331
4847
  5
4848
331
485F
  5
4860
331
4838
  5
4839
331
4848
  5
4849
331
4850
  5
4851
331
4839
  5
483A
331
4851
  5
4852
331
4849
  5
484A
331
482A
  5
482B
331
5329
  5
482A
331
483A
  5
483B
331
484A
  5
484B
331
4852
  5
4853
331
483B
  5
483C
331
482B
  5
482C
331
4853
  5
4854
331
484B
  5
484C
331
482C
  5
482D
331
483C
  5
483D
331
484C
  5
484D
331
4854
  5
4855
331
483D
  5
483E
331
482D
  5
482E
331
4855
  5
4856
331
484D
  5
484E
331
4860
  5
4861
331
482E
  5
482F
331
483E
  5
483F
331
484E
  5
484F
331
4861
  5
4862
331
4856
  5
4857
331
483F
  5
4840
331
482F
  5
4830
331
4857
  5
4858
331
4862
  5
4863
331
484F
  5
4850
331
4830
  5
4831
331
4840
  5
4841
331
4863
  5
48E0
331
4858
  5
4859
331
4841
  5
4842
331
4831
  5
4832
331
48E0
  5
48E1
331
4859
  5
485A
331
4832
  5
4833
331
4842
  5
4843
331
48E1
  5
48E2
331
485A
  5
485B
331
4843
  5
4844
331
4833
  5
4834
331
48E2
  5
5329
331
485B
  5
485C
331
4834
  5
4835
331
4844
  5
4845
  0
SORTENTSTABLE
  5
5DE8
102
{ACAD_REACTORS
330
4927
102
}
330
4927
100
AcDbSortentsTable
330
4900
  0
SORTENTSTABLE
  5
57EF
102
{ACAD_REACTORS
330
49E3
102
}
330
49E3
100
AcDbSortentsTable
330
4974
  0
DIMASSOC
  5
4A09
102
{ACAD_REACTORS
330
49FF
102
}
330
49FF
100
AcDbDimAssoc
330
49F2
 90
        3
 70
     0
 71
     0
  1
AcDbOsnapPointRef
 72
    13
331
45A6
331
458D
 73
     2
 91
        0
 40
0.0
 10
0.0
 20
0.0
 30
2.000000000000000E+50
 75
     0
  1
AcDbOsnapPointRef
 72
    13
331
45A6
331
459C
 73
     2
 91
        0
 40
0.0
 10
0.0
 20
0.0
 30
2.000000000000000E+50
 75
     0
  0
DIMASSOC
  5
4A3F
102
{ACAD_REACTORS
330
4A33
102
}
330
4A33
100
AcDbDimAssoc
330
4A24
 90
        3
 70
     0
 71
     0
  1
AcDbOsnapPointRef
 72
    13
331
469C
331
4694
 73
     2
 91
        0
 40
0.0
 10
0.0
 20
0.0
 30
2.000000000000000E+50
 75
     0
  1
AcDbOsnapPointRef
 72
    13
331
4864
331
485F
 73
     2
 91
        0
 40
0.0
 10
0.0
 20
0.0
 30
2.000000000000000E+50
 75
     0
  0
DIMASSOC
  5
4A66
102
{ACAD_REACTORS
330
4A5A
102
}
330
4A5A
100
AcDbDimAssoc
330
4A4B
 90
        3
 70
     0
 71
     0
  1
AcDbOsnapPointRef
 72
    13
331
4864
331
485C
 73
     2
 91
        0
 40
0.0
 10
0.0
 20
0.0
 30
2.000000000000000E+50
 75
     0
  1
AcDbOsnapPointRef
 72
    13
331
4864
331
485F
 73
     2
 91
        0
 40
0.0
 10
0.0
 20
0.0
 30
2.000000000000000E+50
 75
     0
  0
DIMASSOC
  5
4ACB
102
{ACAD_REACTORS
330
4AC1
102
}
330
4AC1
100
AcDbDimAssoc
330
4AB4
 90
        1
 70
     0
 71
     0
  1
AcDbOsnapPointRef
 72
    13
331
469C
331
4696
 73
     2
 91
        0
 40
0.0
 10
0.0
 20
0.0
 30
2.000000000000000E+50
 75
     0
  0
DIMASSOC
  5
4BF2
102
{ACAD_REACTORS
330
4BE8
102
}
330
4BE8
100
AcDbDimAssoc
330
4BDB
 90
        1
 70
     0
 71
     0
  1
AcDbOsnapPointRef
 72
    13
331
45A6
331
458A
 73
     2
 91
        0
 40
0.0
 10
0.0
 20
0.0
 30
2.000000000000000E+50
 75
     0
  0
DIMASSOC
  5
4CCD
102
{ACAD_REACTORS
330
4CC3
102
}
330
4CC3
100
AcDbDimAssoc
330
4CB6
 90
        3
 70
     0
 71
     0
  1
AcDbOsnapPointRef
 72
     1
331
4864
331
4834
 73
     2
 91
        0
 40
1.0
 10
0.0
 20
0.0
 30
2.000000000000000E+50
 75
     0
  1
AcDbOsnapPointRef
 72
     1
331
4864
331
485E
 73
     2
 91
        0
 40
1.0
 10
0.0
 20
0.0
 30
2.000000000000000E+50
 75
     0
  0
DIMASSOC
  5
4CE5
102
{ACAD_REACTORS
330
4CDB
102
}
330
4CDB
100
AcDbDimAssoc
330
4CCE
 90
        3
 70
     0
 71
     0
  1
AcDbOsnapPointRef
 72
     1
331
4864
331
4848
 73
     2
 91
        0
 40
1.0
 10
0.0
 20
0.0
 30
2.000000000000000E+50
 75
     0
  1
AcDbOsnapPointRef
 72
     1
331
4864
331
485B
 73
     2
 91
        0
 40
1.0
 10
0.0
 20
0.0
 30
2.000000000000000E+50
 75
     0
  0
DIMASSOC
  5
4CFD
102
{ACAD_REACTORS
330
4CF3
102
}
330
4CF3
100
AcDbDimAssoc
330
4CE6
 90
        3
 70
     0
 71
     0
  1
AcDbOsnapPointRef
 72
     1
331
44C5
331
44B4
 73
     2
 91
        0
 40
1.0
 10
0.0
 20
0.0
 30
2.000000000000000E+50
 75
     0
  1
AcDbOsnapPointRef
 72
    13
331
44C5
331
44BB
 73
     2
 91
        0
 40
0.0
 10
0.0
 20
0.0
 30
2.000000000000000E+50
 75
     0
  0
DIMASSOC
  5
4D77
102
{ACAD_REACTORS
330
4D6D
102
}
330
4D6D
100
AcDbDimAssoc
330
4D60
 90
        1
 70
     0
 71
     0
  1
AcDbOsnapPointRef
 72
     2
331
45A6
331
458A
 73
     2
 91
        0
 40
0.5
 10
0.0
 20
0.0
 30
0.0
 75
     0
  0
DIMASSOC
  5
4D93
102
{ACAD_REACTORS
330
4D87
102
}
330
4D87
100
AcDbDimAssoc
330
4D78
 90
        2
 70
     0
 71
     0
  1
AcDbOsnapPointRef
 72
     1
331
44C5
331
44A9
 73
     2
 91
        0
 40
1.0
 10
0.0
 20
0.0
 30
2.000000000000000E+50
 75
     0
  0
DIMASSOC
  5
4DD2
102
{ACAD_REACTORS
330
4DC8
102
}
330
4DC8
100
AcDbDimAssoc
330
4DBB
 90
        3
 70
     0
 71
     0
  1
AcDbOsnapPointRef
 72
     1
331
44C5
331
44A9
 73
     2
 91
        0
 40
1.0
 10
0.0
 20
0.0
 30
2.000000000000000E+50
 75
     0
  1
AcDbOsnapPointRef
 72
     2
331
44C5
331
44AA
 73
     2
 91
        0
 40
0.5
 10
0.0
 20
0.0
 30
0.0
 75
     0
  0
DIMASSOC
  5
4E26
102
{ACAD_REACTORS
330
4E1A
102
}
330
4E1A
100
AcDbDimAssoc
330
4E0B
 90
        3
 70
     0
 71
     0
  1
AcDbOsnapPointRef
 72
    13
331
469C
331
4669
 73
     2
 91
        0
 40
0.0
 10
0.0
 20
0.0
 30
2.000000000000000E+50
 75
     0
  1
AcDbOsnapPointRef
 72
    13
331
45A6
331
4594
 73
     2
 91
        0
 40
0.0
 10
0.0
 20
0.0
 30
2.000000000000000E+50
 75
     0
  0
DIMASSOC
  5
5A59
102
{ACAD_REACTORS
330
5A58
102
}
330
5A58
100
AcDbDimAssoc
330
5A49
 90
        2
 70
     0
 71
     0
  1
AcDbOsnapPointRef
 72
     1
331
45A6
331
458A
 73
     0
 91
        0
 40
0.0
 10
0.0
 20
0.0
 30
2.000000000000000E+50
 75
     0
  0
DIMASSOC
  5
5B7F
102
{ACAD_REACTORS
330
5B7E
102
}
330
5B7E
100
AcDbDimAssoc
330
5B71
 90
        3
 70
     0
 71
     0
  1
AcDbOsnapPointRef
 72
    13
331
45A6
331
4594
 73
     0
 91
        0
 40
0.0
 10
0.0
 20
0.0
 30
2.000000000000000E+50
 75
     0
  1
AcDbOsnapPointRef
 72
     8
331
45A6
331
4593
 73
     0
 91
        0
 40
0.8975556574990552
 10
0.0
 20
0.0
 30
0.0
 75
     1
  1
AcDbOsnapPointRef
 72
    13
331
45A6
331
4594
 73
     0
 91
        0
 40
0.0
 10
0.0
 20
0.0
 30
2.000000000000000E+50
 75
     0
  0
DIMASSOC
  5
5BAB
102
{ACAD_REACTORS
330
5BAA
102
}
330
5BAA
100
AcDbDimAssoc
330
5B9B
 90
        3
 70
     0
 71
     0
  1
AcDbOsnapPointRef
 72
     4
331
5B71
331
5B99
 73
     0
 91
        0
 40
0.0
 10
0.0
 20
0.0
 30
0.0
 75
     0
  1
AcDbOsnapPointRef
 72
    13
331
45A6
331
458B
 73
     0
 91
        0
 40
0.0
 10
0.0
 20
0.0
 30
2.000000000000000E+50
 75
     0
  0
LAYOUT
  5
22
102
{ACAD_REACTORS
330
1A
102
}
330
1A
100
AcDbPlotSettings
  1

  2
KONICA MINOLTA 501 PCL
  4
A4
  6

 40
5.027082920074462
 41
5.027085781097412
 42
5.027069091796875
 43
5.027069091796875
 44
209.9733276367186
 45
296.9259948730469
 46
0.0
 47
14.40328064852636
 48
0.0
 49
0.0
140
0.0
141
0.0
142
1.0
143
1.245405329360343
 70
 11956
 72
     1
 73
     0
 74
     1
  7
SEISA.ctb
 75
     0
147
0.8029514379174958
 76
     0
 77
     2
 78
   300
148
-352.542483393092
149
-251.3232444358562
100
AcDbLayout
  1
Model
 70
     1
 71
     0
 10
0.0
 20
0.0
 11
12.0
 21
9.0
 12
0.0
 22
0.0
 32
0.0
 14
0.0
 24
0.0
 34
0.0
 15
0.0
 25
0.0
 35
0.0
146
0.0
 13
0.0
 23
0.0
 33
0.0
 16
1.0
 26
0.0
 36
0.0
 17
0.0
 27
1.0
 37
0.0
 76
     0
330
1F
331
27A
1001
ACAD_PSEXT
1000
KONICA MINOLTA 501 PCL
1000
KONICA MINOLTA 501/421/361PCL
1000
IP_192.168.20.231_(1)
1000

1070
     0
  0
LAYOUT
  5
1E
102
{ACAD_REACTORS
330
1A
102
}
330
1A
100
AcDbPlotSettings
  1

  2
none_device
  4
Letter_(8.50_x_11.00_Inches)
  6

 40
6.349999904632567
 41
6.349999904632567
 42
6.350006103515625
 43
6.350006103515625
 44
215.8999938964844
 45
279.3999938964844
 46
0.0
 47
0.0
 48
0.0
 49
0.0
140
0.0
141
0.0
142
1.0
143
1.0
 70
 15024
 72
     1
 73
     1
 74
     5
  7
SEISA.ctb
 75
    16
147
1.0
 76
     0
 77
     2
 78
   300
148
0.0
149
0.0
100
AcDbLayout
  1
レイアウト1
 70
     1
 71
     1
 10
0.0
 20
0.0
 11
420.0
 21
297.0
 12
0.0
 22
0.0
 32
0.0
 14
1.000000000000000E+20
 24
1.000000000000000E+20
 34
1.000000000000000E+20
 15
-1.000000000000000E+20
 25
-1.000000000000000E+20
 35
-1.000000000000000E+20
146
0.0
 13
0.0
 23
0.0
 33
0.0
 16
1.0
 26
0.0
 36
0.0
 17
0.0
 27
1.0
 37
0.0
 76
     0
330
1B
  0
LAYOUT
  5
26
102
{ACAD_REACTORS
330
1A
102
}
330
1A
100
AcDbPlotSettings
  1

  2
none_device
  4
Letter_(8.50_x_11.00_Inches)
  6

 40
6.349999904632567
 41
6.349999904632567
 42
6.350006103515625
 43
6.350006103515625
 44
215.8999938964844
 45
279.3999938964844
 46
0.0
 47
0.0
 48
0.0
 49
0.0
140
0.0
141
0.0
142
1.0
143
1.0
 70
 15024
 72
     1
 73
     1
 74
     5
  7
SEISA.ctb
 75
    16
147
1.0
 76
     0
 77
     2
 78
   300
148
0.0
149
0.0
100
AcDbLayout
  1
レイアウト2
 70
     1
 71
     2
 10
0.0
 20
0.0
 11
12.0
 21
9.0
 12
0.0
 22
0.0
 32
0.0
 14
0.0
 24
0.0
 34
0.0
 15
0.0
 25
0.0
 35
0.0
146
0.0
 13
0.0
 23
0.0
 33
0.0
 16
1.0
 26
0.0
 36
0.0
 17
0.0
 27
1.0
 37
0.0
 76
     0
330
23
  0
MATERIAL
  5
27D
102
{ACAD_REACTORS
330
C4
102
}
330
C4
100
AcDbMaterial
  1
ByBlock
 73
     1
 78
     1
172
     1
176
     1
270
     1
274
     1
 94
       63
  0
MATERIAL
  5
27C
102
{ACAD_REACTORS
330
C4
102
}
330
C4
100
AcDbMaterial
  1
ByLayer
 73
     1
 78
     1
172
     1
176
     1
270
     1
274
     1
 94
       63
  0
MATERIAL
  5
27E
102
{ACAD_REACTORS
330
C4
102
}
330
C4
100
AcDbMaterial
  1
Global
 73
     1
 78
     1
172
     1
176
     1
270
     1
274
     1
 94
       63
  0
MLEADERSTYLE
  5
2D6
102
{ACAD_REACTORS
330
2D5
102
}
330
2D5
100
AcDbMLeaderStyle
170
     2
171
     1
172
     0
 90
        2
 40
0.0
 41
0.0
173
     1
 91
-1056964608
340
14
 92
       -2
290
     1
 42
2.0
291
     1
 43
0.36
  3
Standard
 44
4.0
300

342
11
174
     1
178
     6
175
     1
176
     0
 93
-1056964608
 45
4.0
292
     0
297
     0
 46
4.0
 94
-1056964608
 47
1.0
 49
1.0
140
1.0
293
     1
141
0.0
294
     1
177
     0
142
1.0
295
     0
296
     0
143
0.125
1001
ACAD_MLEADERVER
1070
     2
  0
MLINESTYLE
  5
18
102
{ACAD_REACTORS
330
17
102
}
330
17
100
AcDbMlineStyle
  2
STANDARD
 70
     0
  3

 62
   256
 51
90.0
 52
90.0
 71
     2
 49
0.5
 62
   256
  6
BYLAYER
 49
-0.5
 62
   256
  6
BYLAYER
  0
PLOTSETTINGS
  5
1C7E
102
{ACAD_REACTORS
330
19
102
}
330
19
100
AcDbPlotSettings
  1
SEISA基本
  2
none_device
  4
Letter_(8.50_x_11.00_Inches)
  6

 40
6.349999904632567
 41
6.349999904632567
 42
6.350006103515625
 43
6.350006103515625
 44
215.8999938964844
 45
279.3999938964844
 46
7.302498226506357
 47
0.0
 48
0.0
 49
0.0
140
0.0
141
0.0
142
1.0
143
1.574803221122935
 70
 11956
 72
     1
 73
     1
 74
     2
  7
SEISA.ctb
 75
     0
147
0.6349999711627054
 76
     0
 77
     2
 78
   300
148
0.0
149
0.0
1001
ACAD_PSEXT
1000
なし
1000
なし
1000
適切ではありません
1000
新しいプロッタ環境設定名を選択しない限り、レイアウトは印刷されません。
1070
     0
  0
ACDBPLACEHOLDER
  5
F
102
{ACAD_REACTORS
330
E
102
}
330
E
  0
SCALE
  5
59E9
102
{ACAD_REACTORS
330
2B3
102
}
330
2B3
100
AcDbScale
 70
     0
300
1:1.5
140
1.0
141
1.5
290
     0
  0
SCALE
  5
2B4
102
{ACAD_REACTORS
330
2B3
102
}
330
2B3
100
AcDbScale
 70
     0
300
1:1
140
1.0
141
1.0
290
     1
  0
SCALE
  5
2B5
102
{ACAD_REACTORS
330
2B3
102
}
330
2B3
100
AcDbScale
 70
     0
300
1:2
140
1.0
141
2.0
290
     0
  0
SCALE
  5
2B6
102
{ACAD_REACTORS
330
2B3
102
}
330
2B3
100
AcDbScale
 70
     0
300
1:4
140
1.0
141
4.0
290
     0
  0
SCALE
  5
2B7
102
{ACAD_REACTORS
330
2B3
102
}
330
2B3
100
AcDbScale
 70
     0
300
1:5
140
1.0
141
5.0
290
     0
  0
SCALE
  5
2B8
102
{ACAD_REACTORS
330
2B3
102
}
330
2B3
100
AcDbScale
 70
     0
300
1:8
140
1.0
141
8.0
290
     0
  0
SCALE
  5
2B9
102
{ACAD_REACTORS
330
2B3
102
}
330
2B3
100
AcDbScale
 70
     0
300
1:10
140
1.0
141
10.0
290
     0
  0
SCALE
  5
2BA
102
{ACAD_REACTORS
330
2B3
102
}
330
2B3
100
AcDbScale
 70
     0
300
1:16
140
1.0
141
16.0
290
     0
  0
SCALE
  5
2BB
102
{ACAD_REACTORS
330
2B3
102
}
330
2B3
100
AcDbScale
 70
     0
300
1:20
140
1.0
141
20.0
290
     0
  0
SCALE
  5
2BC
102
{ACAD_REACTORS
330
2B3
102
}
330
2B3
100
AcDbScale
 70
     0
300
1:30
140
1.0
141
30.0
290
     0
  0
SCALE
  5
2BD
102
{ACAD_REACTORS
330
2B3
102
}
330
2B3
100
AcDbScale
 70
     0
300
1:40
140
1.0
141
40.0
290
     0
  0
SCALE
  5
2BE
102
{ACAD_REACTORS
330
2B3
102
}
330
2B3
100
AcDbScale
 70
     0
300
1:50
140
1.0
141
50.0
290
     0
  0
SCALE
  5
2BF
102
{ACAD_REACTORS
330
2B3
102
}
330
2B3
100
AcDbScale
 70
     0
300
1:100
140
1.0
141
100.0
290
     0
  0
SCALE
  5
2C0
102
{ACAD_REACTORS
330
2B3
102
}
330
2B3
100
AcDbScale
 70
     0
300
2:1
140
2.0
141
1.0
290
     0
  0
SCALE
  5
2C1
102
{ACAD_REACTORS
330
2B3
102
}
330
2B3
100
AcDbScale
 70
     0
300
4:1
140
4.0
141
1.0
290
     0
  0
SCALE
  5
2C2
102
{ACAD_REACTORS
330
2B3
102
}
330
2B3
100
AcDbScale
 70
     0
300
8:1
140
8.0
141
1.0
290
     0
  0
SCALE
  5
2C3
102
{ACAD_REACTORS
330
2B3
102
}
330
2B3
100
AcDbScale
 70
     0
300
10:1
140
10.0
141
1.0
290
     0
  0
SCALE
  5
2C4
102
{ACAD_REACTORS
330
2B3
102
}
330
2B3
100
AcDbScale
 70
     0
300
100:1
140
100.0
141
1.0
290
     0
  0
SCALE
  5
2C5
102
{ACAD_REACTORS
330
2B3
102
}
330
2B3
100
AcDbScale
 70
     0
300
1/128" = 1'-0"
140
0.0078125
141
12.0
290
     0
  0
SCALE
  5
2C6
102
{ACAD_REACTORS
330
2B3
102
}
330
2B3
100
AcDbScale
 70
     0
300
1/64" = 1'-0"
140
0.015625
141
12.0
290
     0
  0
SCALE
  5
2C7
102
{ACAD_REACTORS
330
2B3
102
}
330
2B3
100
AcDbScale
 70
     0
300
1/32" = 1'-0"
140
0.03125
141
12.0
290
     0
  0
SCALE
  5
2C8
102
{ACAD_REACTORS
330
2B3
102
}
330
2B3
100
AcDbScale
 70
     0
300
1/16" = 1'-0"
140
0.0625
141
12.0
290
     0
  0
SCALE
  5
2C9
102
{ACAD_REACTORS
330
2B3
102
}
330
2B3
100
AcDbScale
 70
     0
300
3/32" = 1'-0"
140
0.09375
141
12.0
290
     0
  0
SCALE
  5
2CA
102
{ACAD_REACTORS
330
2B3
102
}
330
2B3
100
AcDbScale
 70
     0
300
1/8" = 1'-0"
140
0.125
141
12.0
290
     0
  0
SCALE
  5
2CB
102
{ACAD_REACTORS
330
2B3
102
}
330
2B3
100
AcDbScale
 70
     0
300
3/16" = 1'-0"
140
0.1875
141
12.0
290
     0
  0
SCALE
  5
2CC
102
{ACAD_REACTORS
330
2B3
102
}
330
2B3
100
AcDbScale
 70
     0
300
1/4" = 1'-0"
140
0.25
141
12.0
290
     0
  0
SCALE
  5
2CD
102
{ACAD_REACTORS
330
2B3
102
}
330
2B3
100
AcDbScale
 70
     0
300
3/8" = 1'-0"
140
0.375
141
12.0
290
     0
  0
SCALE
  5
2CE
102
{ACAD_REACTORS
330
2B3
102
}
330
2B3
100
AcDbScale
 70
     0
300
1/2" = 1'-0"
140
0.5
141
12.0
290
     0
  0
SCALE
  5
2CF
102
{ACAD_REACTORS
330
2B3
102
}
330
2B3
100
AcDbScale
 70
     0
300
3/4" = 1'-0"
140
0.75
141
12.0
290
     0
  0
SCALE
  5
2D0
102
{ACAD_REACTORS
330
2B3
102
}
330
2B3
100
AcDbScale
 70
     0
300
1" = 1'-0"
140
1.0
141
12.0
290
     0
  0
SCALE
  5
2D1
102
{ACAD_REACTORS
330
2B3
102
}
330
2B3
100
AcDbScale
 70
     0
300
1-1/2" = 1'-0"
140
1.5
141
12.0
290
     0
  0
SCALE
  5
2D2
102
{ACAD_REACTORS
330
2B3
102
}
330
2B3
100
AcDbScale
 70
     0
300
3" = 1'-0"
140
3.0
141
12.0
290
     0
  0
SCALE
  5
2D3
102
{ACAD_REACTORS
330
2B3
102
}
330
2B3
100
AcDbScale
 70
     0
300
6" = 1'-0"
140
6.0
141
12.0
290
     0
  0
SCALE
  5
2D4
102
{ACAD_REACTORS
330
2B3
102
}
330
2B3
100
AcDbScale
 70
     0
300
1'-0" = 1'-0"
140
12.0
141
12.0
290
     0
  0
TABLESTYLE
  5
122
102
{ACAD_XDICTIONARY
360
2F5
102
}
102
{ACAD_REACTORS
330
121
102
}
330
121
100
AcDbTableStyle
  3
Standard
 70
     0
 71
     0
 40
1.5
 41
1.5
280
     0
281
     0
  7
STANDARD
140
4.5
170
     2
 62
     0
 63
     7
283
     0
 90
      512
 91
        0
  1

274
    -2
284
     1
 64
     0
275
    -2
285
     1
 65
     0
276
    -2
286
     1
 66
     0
277
    -2
287
     1
 67
     0
278
    -2
288
     1
 68
     0
279
    -2
289
     1
 69
     0
  7
STANDARD
140
6.0
170
     5
 62
     0
 63
     7
283
     0
 90
      512
 91
        0
  1

274
    -2
284
     1
 64
     0
275
    -2
285
     1
 65
     0
276
    -2
286
     1
 66
     0
277
    -2
287
     1
 67
     0
278
    -2
288
     1
 68
     0
279
    -2
289
     1
 69
     0
  7
STANDARD
140
4.5
170
     5
 62
     0
 63
     7
283
     0
 90
      512
 91
        0
  1

274
    -2
284
     1
 64
     0
275
    -2
285
     1
 65
     0
276
    -2
286
     1
 66
     0
277
    -2
287
     1
 67
     0
278
    -2
288
     1
 68
     0
279
    -2
289
     1
 69
     0
  0
VISUALSTYLE
  5
285
102
{ACAD_REACTORS
330
27F
102
}
330
27F
100
AcDbVisualStyle
  2
2dWireframe
 70
     4
 71
     0
 72
     2
 73
     0
 90
        0
 40
-0.6
 41
-30.0
 62
     5
 63
     7
421
 16777215
 74
     1
 91
        4
 64
     7
 65
   257
 75
     1
175
     1
 42
1.0
 92
        0
 66
   257
 43
1.0
 76
     1
 77
     6
 78
     2
 67
     7
 79
     5
170
     0
171
     0
290
     0
174
     0
 93
        1
 44
0.0
173
     0
291
     0
 45
0.0
  0
VISUALSTYLE
  5
287
102
{ACAD_REACTORS
330
27F
102
}
330
27F
100
AcDbVisualStyle
  2
3D Hidden
 70
     6
 71
     1
 72
     2
 73
     2
 90
        0
 40
-0.6
 41
-30.0
 62
     5
 63
     7
421
 16777215
 74
     2
 91
        2
 64
     7
 65
   257
 75
     2
175
     1
 42
40.0
 92
        0
 66
   257
 43
1.0
 76
     1
 77
     6
 78
     2
 67
     7
 79
     3
170
     0
171
     0
290
     0
174
     0
 93
        1
 44
0.0
173
     0
291
     0
 45
0.0
  0
VISUALSTYLE
  5
286
102
{ACAD_REACTORS
330
27F
102
}
330
27F
100
AcDbVisualStyle
  2
3dWireframe
 70
     5
 71
     0
 72
     2
 73
     0
 90
        0
 40
-0.6
 41
-30.0
 62
     5
 63
     7
421
 16777215
 74
     1
 91
        4
 64
     7
 65
   257
 75
     1
175
     1
 42
1.0
 92
        0
 66
   257
 43
1.0
 76
     1
 77
     6
 78
     2
 67
     7
 79
     5
170
     0
171
     0
290
     0
174
     0
 93
        1
 44
0.0
173
     0
291
     0
 45
0.0
  0
VISUALSTYLE
  5
284
102
{ACAD_REACTORS
330
27F
102
}
330
27F
100
AcDbVisualStyle
  2
Basic
 70
     7
 71
     1
 72
     0
 73
     1
 90
        0
 40
-0.6
 41
-30.0
 62
     5
 63
     7
421
 16777215
 74
     0
 91
        4
 64
     7
 65
   257
 75
     1
175
     1
 42
1.0
 92
        8
 66
     7
 43
1.0
 76
     1
 77
     6
 78
     2
 67
     7
 79
     5
170
     0
171
     0
290
     0
174
     0
 93
        1
 44
0.0
173
     0
291
     1
 45
0.0
  0
VISUALSTYLE
  5
28B
102
{ACAD_REACTORS
330
27F
102
}
330
27F
100
AcDbVisualStyle
  2
Brighten
 70
    12
 71
     2
 72
     2
 73
     0
 90
        0
 40
-0.6
 41
-30.0
 62
     5
 63
     7
421
 16777215
 74
     1
 91
        4
 64
     7
 65
   257
 75
     1
175
     1
 42
1.0
 92
        8
 66
     7
 43
1.0
 76
     1
 77
     6
 78
     2
 67
     7
 79
     5
170
     0
171
     0
290
     0
174
     0
 93
        1
 44
50.0
173
     0
291
     1
 45
0.0
  0
VISUALSTYLE
  5
28F
102
{ACAD_REACTORS
330
27F
102
}
330
27F
100
AcDbVisualStyle
  2
ColorChange
 70
    16
 71
     2
 72
     2
 73
     3
 90
        0
 40
-0.6
 41
-30.0
 62
     5
 63
     8
421
  8421504
 74
     1
 91
        4
 64
     7
 65
   257
 75
     1
175
     1
 42
1.0
 92
        8
 66
     8
424
  8421504
 43
1.0
 76
     1
 77
     6
 78
     2
 67
     7
 79
     5
170
     0
171
     0
290
     0
174
     0
 93
        1
 44
0.0
173
     0
291
     1
 45
0.0
  0
VISUALSTYLE
  5
288
102
{ACAD_REACTORS
330
27F
102
}
330
27F
100
AcDbVisualStyle
  2
Conceptual
 70
     9
 71
     3
 72
     2
 73
     0
 90
        0
 40
-0.6
 41
-30.0
 62
     5
 63
     7
421
 16777215
 74
     2
 91
        2
 64
     7
 65
   257
 75
     1
175
     1
 42
40.0
 92
        8
 66
     7
 43
1.0
 76
     1
 77
     6
 78
     2
 67
     7
 79
     3
170
     0
171
     0
290
     0
174
     0
 93
        1
 44
0.0
173
     0
291
     0
 45
0.0
  0
VISUALSTYLE
  5
28A
102
{ACAD_REACTORS
330
27F
102
}
330
27F
100
AcDbVisualStyle
  2
Dim
 70
    11
 71
     2
 72
     2
 73
     0
 90
        0
 40
-0.6
 41
-30.0
 62
     5
 63
     7
421
 16777215
 74
     1
 91
        4
 64
     7
 65
   257
 75
     1
175
     1
 42
1.0
 92
        8
 66
     7
 43
1.0
 76
     1
 77
     6
 78
     2
 67
     7
 79
     5
170
     0
171
     0
290
     0
174
     0
 93
        1
 44
-50.0
173
     0
291
     1
 45
0.0
  0
VISUALSTYLE
  5
28E
102
{ACAD_REACTORS
330
27F
102
}
330
27F
100
AcDbVisualStyle
  2
Facepattern
 70
    15
 71
     2
 72
     2
 73
     0
 90
        0
 40
-0.6
 41
-30.0
 62
     5
 63
     7
421
 16777215
 74
     1
 91
        4
 64
     7
 65
   257
 75
     1
175
     1
 42
1.0
 92
        8
 66
     7
 43
1.0
 76
     1
 77
     6
 78
     2
 67
     7
 79
     5
170
     0
171
     0
290
     0
174
     0
 93
        1
 44
0.0
173
     0
291
     1
 45
0.0
  0
VISUALSTYLE
  5
280
102
{ACAD_REACTORS
330
27F
102
}
330
27F
100
AcDbVisualStyle
  2
Flat
 70
     0
 71
     2
 72
     1
 73
     1
 90
        2
 40
-0.6
 41
30.0
 62
     5
 63
     7
421
 16777215
 74
     0
 91
        4
 64
     7
 65
   257
 75
     1
175
     1
 42
1.0
 92
        8
 66
     7
 43
1.0
 76
     1
 77
     6
 78
     2
 67
     7
 79
     5
170
     0
171
     0
290
     0
174
     0
 93
       13
 44
0.0
173
     0
291
     1
 45
0.0
  0
VISUALSTYLE
  5
281
102
{ACAD_REACTORS
330
27F
102
}
330
27F
100
AcDbVisualStyle
  2
FlatWithEdges
 70
     1
 71
     2
 72
     1
 73
     1
 90
        2
 40
-0.6
 41
30.0
 62
     5
 63
     7
421
 16777215
 74
     1
 91
        4
 64
     7
 65
   257
 75
     1
175
     1
 42
1.0
 92
        0
 66
   257
 43
1.0
 76
     1
 77
     6
 78
     2
 67
     7
 79
     5
170
     0
171
     0
290
     0
174
     0
 93
       13
 44
0.0
173
     0
291
     1
 45
0.0
  0
VISUALSTYLE
  5
282
102
{ACAD_REACTORS
330
27F
102
}
330
27F
100
AcDbVisualStyle
  2
Gouraud
 70
     2
 71
     2
 72
     2
 73
     1
 90
        2
 40
-0.6
 41
30.0
 62
     5
 63
     7
421
 16777215
 74
     0
 91
        4
 64
     7
 65
   257
 75
     1
175
     1
 42
1.0
 92
        0
 66
     7
 43
1.0
 76
     1
 77
     6
 78
     2
 67
     7
 79
     5
170
     0
171
     0
290
     0
174
     0
 93
       13
 44
0.0
173
     0
291
     1
 45
0.0
  0
VISUALSTYLE
  5
283
102
{ACAD_REACTORS
330
27F
102
}
330
27F
100
AcDbVisualStyle
  2
GouraudWithEdges
 70
     3
 71
     2
 72
     2
 73
     1
 90
        2
 40
-0.6
 41
30.0
 62
     5
 63
     7
421
 16777215
 74
     1
 91
        4
 64
     7
 65
   257
 75
     1
175
     1
 42
1.0
 92
        0
 66
   257
 43
1.0
 76
     1
 77
     6
 78
     2
 67
     7
 79
     5
170
     0
171
     0
290
     0
174
     0
 93
       13
 44
0.0
173
     0
291
     1
 45
0.0
  0
VISUALSTYLE
  5
28D
102
{ACAD_REACTORS
330
27F
102
}
330
27F
100
AcDbVisualStyle
  2
Linepattern
 70
    14
 71
     2
 72
     2
 73
     0
 90
        0
 40
-0.6
 41
-30.0
 62
     5
 63
     7
421
 16777215
 74
     1
 91
        4
 64
     7
 65
   257
 75
     7
175
     7
 42
1.0
 92
        8
 66
     7
 43
1.0
 76
     1
 77
     6
 78
     2
 67
     7
 79
     5
170
     0
171
     0
290
     0
174
     0
 93
        1
 44
0.0
173
     0
291
     1
 45
0.0
  0
VISUALSTYLE
  5
289
102
{ACAD_REACTORS
330
27F
102
}
330
27F
100
AcDbVisualStyle
  2
Realistic
 70
     8
 71
     2
 72
     2
 73
     0
 90
        0
 40
-0.6
 41
-30.0
 62
     5
 63
     7
421
 16777215
 74
     1
 91
        0
 64
     7
 65
   257
 75
     1
175
     1
 42
1.0
 92
        8
 66
     8
424
  7895160
 43
1.0
 76
     1
 77
     6
 78
     2
 67
     7
 79
     5
170
     0
171
     0
290
     0
174
     0
 93
       13
 44
0.0
173
     0
291
     0
 45
0.0
  0
VISUALSTYLE
  5
28C
102
{ACAD_REACTORS
330
27F
102
}
330
27F
100
AcDbVisualStyle
  2
Thicken
 70
    13
 71
     2
 72
     2
 73
     0
 90
        0
 40
-0.6
 41
-30.0
 62
     5
 63
     7
421
 16777215
 74
     1
 91
        4
 64
     7
 65
   257
 75
     1
175
     1
 42
1.0
 92
       12
 66
     7
 43
1.0
 76
     1
 77
     6
 78
     2
 67
     7
 79
     5
170
     0
171
     0
290
     0
174
     0
 93
        1
 44
0.0
173
     0
291
     1
 45
0.0
  0
DICTIONARYVAR
  5
2FA
102
{ACAD_REACTORS
330
34
102
}
330
34
100
DictionaryVariables
280
     0
  1
1:2
  0
DICTIONARYVAR
  5
2F8
102
{ACAD_REACTORS
330
34
102
}
330
34
100
DictionaryVariables
280
     0
  1
STANDARD
  0
DICTIONARYVAR
  5
140
102
{ACAD_REACTORS
330
34
102
}
330
34
100
DictionaryVariables
280
     0
  1
STANDARD
  0
DICTIONARYVAR
  5
AC
102
{ACAD_REACTORS
330
34
102
}
330
34
100
DictionaryVariables
280
     0
  1
1
  0
DICTIONARYVAR
  5
35
102
{ACAD_REACTORS
330
34
102
}
330
34
100
DictionaryVariables
280
     0
  1
1
  0
DICTIONARYVAR
  5
4D23
102
{ACAD_REACTORS
330
34
102
}
330
34
100
DictionaryVariables
280
     0
  1
1
  0
DICTIONARYVAR
  5
4D24
102
{ACAD_REACTORS
330
34
102
}
330
34
100
DictionaryVariables
280
     0
  1
15
  0
DICTIONARYVAR
  5
2FB
102
{ACAD_REACTORS
330
34
102
}
330
34
100
DictionaryVariables
280
     0
  1
0
  0
DICTIONARYVAR
  5
2F9
102
{ACAD_REACTORS
330
34
102
}
330
34
100
DictionaryVariables
280
     0
  1
0
  0
DICTIONARY
  5
161B
102
{ACAD_REACTORS
330
49
102
}
330
49
100
AcDbDictionary
281
     1
  0
DICTIONARY
  5
4A
102
{ACAD_REACTORS
330
49
102
}
330
49
100
AcDbDictionary
281
     1
  0
XRECORD
  5
12B
102
{ACAD_REACTORS
330
49
102
}
330
49
100
AcDbXrecord
280
     1
 90
-1023410169
  0
DICTIONARY
  5
2F5
330
122
100
AcDbDictionary
280
     1
281
     1
  3
ACAD_ROUNDTRIP_2008_TABLESTYLE_CELLSTYLEMAP
360
5ED5
  0
CELLSTYLEMAP
  5
5ED5
102
{ACAD_REACTORS
330
2F5
102
}
330
2F5
100
AcDbCellStyleMap
 90
        3
300
CELLSTYLE
  1
TABLEFORMAT_BEGIN
 90
        5
170
     1
 91
        0
 92
    32768
 62
   257
 93
        1
300
CONTENTFORMAT
  1
CONTENTFORMAT_BEGIN
 90
        0
 91
        0
 92
      512
 93
        0
300

 40
0.0
140
1.0
 94
        5
 62
     0
340
11
144
6.0
309
CONTENTFORMAT_END
171
     1
301
MARGIN
  1
CELLMARGIN_BEGIN
 40
1.5
 40
1.5
 40
1.5
 40
1.5
 40
0.18
 40
0.18
309
CELLMARGIN_END
 94
        6
 95
        1
302
GRIDFORMAT
  1
GRIDFORMAT_BEGIN
 90
        0
 91
        1
 62
     0
 92
       -2
340
0
 93
        0
 40
0.045
309
GRIDFORMAT_END
 95
        2
302
GRIDFORMAT
  1
GRIDFORMAT_BEGIN
 90
        0
 91
        1
 62
     0
 92
       -2
340
0
 93
        0
 40
0.045
309
GRIDFORMAT_END
 95
        4
302
GRIDFORMAT
  1
GRIDFORMAT_BEGIN
 90
        0
 91
        1
 62
     0
 92
       -2
340
0
 93
        0
 40
0.045
309
GRIDFORMAT_END
 95
        8
302
GRIDFORMAT
  1
GRIDFORMAT_BEGIN
 90
        0
 91
        1
 62
     0
 92
       -2
340
0
 93
        0
 40
0.045
309
GRIDFORMAT_END
 95
       16
302
GRIDFORMAT
  1
GRIDFORMAT_BEGIN
 90
        0
 91
        1
 62
     0
 92
       -2
340
0
 93
        0
 40
0.045
309
GRIDFORMAT_END
 95
       32
302
GRIDFORMAT
  1
GRIDFORMAT_BEGIN
 90
        0
 91
        1
 62
     0
 92
       -2
340
0
 93
        0
 40
0.045
309
GRIDFORMAT_END
309
TABLEFORMAT_END
  1
CELLSTYLE_BEGIN
 90
        1
 91
        1
300
_TITLE
309
CELLSTYLE_END
300
CELLSTYLE
  1
TABLEFORMAT_BEGIN
 90
        5
170
     1
 91
        0
 92
        0
 62
   257
 93
        1
300
CONTENTFORMAT
  1
CONTENTFORMAT_BEGIN
 90
        0
 91
        0
 92
      512
 93
        0
300

 40
0.0
140
1.0
 94
        5
 62
     0
340
11
144
4.5
309
CONTENTFORMAT_END
171
     1
301
MARGIN
  1
CELLMARGIN_BEGIN
 40
1.5
 40
1.5
 40
1.5
 40
1.5
 40
0.18
 40
0.18
309
CELLMARGIN_END
 94
        6
 95
        1
302
GRIDFORMAT
  1
GRIDFORMAT_BEGIN
 90
        0
 91
        1
 62
     0
 92
       -2
340
0
 93
        0
 40
0.045
309
GRIDFORMAT_END
 95
        2
302
GRIDFORMAT
  1
GRIDFORMAT_BEGIN
 90
        0
 91
        1
 62
     0
 92
       -2
340
0
 93
        0
 40
0.045
309
GRIDFORMAT_END
 95
        4
302
GRIDFORMAT
  1
GRIDFORMAT_BEGIN
 90
        0
 91
        1
 62
     0
 92
       -2
340
0
 93
        0
 40
0.045
309
GRIDFORMAT_END
 95
        8
302
GRIDFORMAT
  1
GRIDFORMAT_BEGIN
 90
        0
 91
        1
 62
     0
 92
       -2
340
0
 93
        0
 40
0.045
309
GRIDFORMAT_END
 95
       16
302
GRIDFORMAT
  1
GRIDFORMAT_BEGIN
 90
        0
 91
        1
 62
     0
 92
       -2
340
0
 93
        0
 40
0.045
309
GRIDFORMAT_END
 95
       32
302
GRIDFORMAT
  1
GRIDFORMAT_BEGIN
 90
        0
 91
        1
 62
     0
 92
       -2
340
0
 93
        0
 40
0.045
309
GRIDFORMAT_END
309
TABLEFORMAT_END
  1
CELLSTYLE_BEGIN
 90
        2
 91
        1
300
_HEADER
309
CELLSTYLE_END
300
CELLSTYLE
  1
TABLEFORMAT_BEGIN
 90
        5
170
     1
 91
        0
 92
        0
 62
   257
 93
        1
300
CONTENTFORMAT
  1
CONTENTFORMAT_BEGIN
 90
        0
 91
        0
 92
      512
 93
        0
300

 40
0.0
140
1.0
 94
        2
 62
     0
340
11
144
4.5
309
CONTENTFORMAT_END
171
     1
301
MARGIN
  1
CELLMARGIN_BEGIN
 40
1.5
 40
1.5
 40
1.5
 40
1.5
 40
0.18
 40
0.18
309
CELLMARGIN_END
 94
        6
 95
        1
302
GRIDFORMAT
  1
GRIDFORMAT_BEGIN
 90
        0
 91
        1
 62
     0
 92
       -2
340
0
 93
        0
 40
0.045
309
GRIDFORMAT_END
 95
        2
302
GRIDFORMAT
  1
GRIDFORMAT_BEGIN
 90
        0
 91
        1
 62
     0
 92
       -2
340
0
 93
        0
 40
0.045
309
GRIDFORMAT_END
 95
        4
302
GRIDFORMAT
  1
GRIDFORMAT_BEGIN
 90
        0
 91
        1
 62
     0
 92
       -2
340
0
 93
        0
 40
0.045
309
GRIDFORMAT_END
 95
        8
302
GRIDFORMAT
  1
GRIDFORMAT_BEGIN
 90
        0
 91
        1
 62
     0
 92
       -2
340
0
 93
        0
 40
0.045
309
GRIDFORMAT_END
 95
       16
302
GRIDFORMAT
  1
GRIDFORMAT_BEGIN
 90
        0
 91
        1
 62
     0
 92
       -2
340
0
 93
        0
 40
0.045
309
GRIDFORMAT_END
 95
       32
302
GRIDFORMAT
  1
GRIDFORMAT_BEGIN
 90
        0
 91
        1
 62
     0
 92
       -2
340
0
 93
        0
 40
0.045
309
GRIDFORMAT_END
309
TABLEFORMAT_END
  1
CELLSTYLE_BEGIN
 90
        3
 91
        2
300
_DATA
309
CELLSTYLE_END
  0
ENDSEC
  0
EOF
