  0
SECTION
  2
HEADER
  9
$ACADVER
  1
AC1021
  9
$ACADMAINTVER
 70
    26
  9
$DWGCODEPAGE
  3
ANSI_932
  9
$LASTSAVEDBY
  1
Htm_Terada
  9
$CUSTOMPROPERTYTAG
  1
AmdtFileType
  9
$CUSTOMPROPERTY
  1
84
  9
$INSBASE
 10
0.0
 20
0.0
 30
0.0
  9
$EXTMIN
 10
245.644960723358
 20
201.3739030684505
 30
-0.0000000349181948
  9
$EXTMAX
 10
455.288819873613
 20
449.9189770872692
 30
0.0000000814935747
  9
$LIMMIN
 10
-0.0000002271699202
 20
0.0
  9
$LIMMAX
 10
891.000000113585
 20
630.0000000000002
  9
$ORTHOMODE
 70
     1
  9
$REGENMODE
 70
     1
  9
$FILLMODE
 70
     1
  9
$QTEXTMODE
 70
     0
  9
$MIRRTEXT
 70
     1
  9
$LTSCALE
 40
1.5
  9
$ATTMODE
 70
     1
  9
$TEXTSIZE
 40
25.0
  9
$TRACEWID
 40
1.0
  9
$TEXTSTYLE
  7
SEISA
  9
$CLAYER
  8
AM_11 想像線
  9
$CELTYPE
  6
ByLayer
  9
$CECOLOR
 62
   256
  9
$CELTSCALE
 40
1.0
  9
$DISPSILH
 70
     0
  9
$DIMSCALE
 40
1.5
  9
$DIMASZ
 40
2.5
  9
$DIMEXO
 40
0.625
  9
$DIMDLI
 40
10.0
  9
$DIMRND
 40
0.0
  9
$DIMDLE
 40
0.0
  9
$DIMEXE
 40
0.625
  9
$DIMTP
 40
0.1
  9
$DIMTM
 40
0.1
  9
$DIMTXT
 40
3.5
  9
$DIMCEN
 40
0.0
  9
$DIMTSZ
 40
0.0
  9
$DIMTOL
 70
     0
  9
$DIMLIM
 70
     0
  9
$DIMTIH
 70
     0
  9
$DIMTOH
 70
     0
  9
$DIMSE1
 70
     0
  9
$DIMSE2
 70
     0
  9
$DIMTAD
 70
     3
  9
$DIMZIN
 70
     8
  9
$DIMBLK
  1
Open30
  9
$DIMASO
 70
     1
  9
$DIMSHO
 70
     1
  9
$DIMPOST
  1

  9
$DIMAPOST
  1
"
  9
$DIMALT
 70
     0
  9
$DIMALTD
 70
     2
  9
$DIMALTF
 40
0.0393701
  9
$DIMLFAC
 40
1.0
  9
$DIMTOFL
 70
     1
  9
$DIMTVP
 40
0.0
  9
$DIMTIX
 70
     0
  9
$DIMSOXD
 70
     0
  9
$DIMSAH
 70
     0
  9
$DIMBLK1
  1

  9
$DIMBLK2
  1

  9
$DIMSTYLE
  2
SEISA
  9
$DIMCLRD
 70
     3
  9
$DIMCLRE
 70
     3
  9
$DIMCLRT
 70
     3
  9
$DIMTFAC
 40
0.71
  9
$DIMGAP
 40
1.5
  9
$DIMJUST
 70
     0
  9
$DIMSD1
 70
     0
  9
$DIMSD2
 70
     0
  9
$DIMTOLJ
 70
     0
  9
$DIMTZIN
 70
     0
  9
$DIMALTZ
 70
     0
  9
$DIMALTTZ
 70
     8
  9
$DIMUPT
 70
     0
  9
$DIMDEC
 70
     2
  9
$DIMTDEC
 70
     3
  9
$DIMALTU
 70
     2
  9
$DIMALTTD
 70
     2
  9
$DIMTXSTY
  7
SEISA
  9
$DIMAUNIT
 70
     0
  9
$DIMADEC
 70
     0
  9
$DIMALTRND
 40
0.0
  9
$DIMAZIN
 70
     2
  9
$DIMDSEP
 70
    46
  9
$DIMATFIT
 70
     3
  9
$DIMFRAC
 70
     0
  9
$DIMLDRBLK
  1
Open30
  9
$DIMLUNIT
 70
     2
  9
$DIMLWD
 70
    -1
  9
$DIMLWE
 70
    -1
  9
$DIMTMOVE
 70
     0
  9
$DIMFXL
 40
1.0
  9
$DIMFXLON
 70
     0
  9
$DIMJOGANG
 40
0.7853981633974483
  9
$DIMTFILL
 70
     0
  9
$DIMTFILLCLR
 70
     0
  9
$DIMARCSYM
 70
     1
  9
$DIMLTYPE
  6

  9
$DIMLTEX1
  6

  9
$DIMLTEX2
  6

  9
$LUNITS
 70
     2
  9
$LUPREC
 70
     2
  9
$SKETCHINC
 40
1.0
  9
$FILLETRAD
 40
0.4
  9
$AUNITS
 70
     0
  9
$AUPREC
 70
     0
  9
$MENU
  1
.
  9
$ELEVATION
 40
0.0
  9
$PELEVATION
 40
0.0
  9
$THICKNESS
 40
0.0
  9
$LIMCHECK
 70
     0
  9
$CHAMFERA
 40
1.000000000000085
  9
$CHAMFERB
 40
1.000000000000113
  9
$CHAMFERC
 40
1.000000000000085
  9
$CHAMFERD
 40
0.7853981633974341
  9
$SKPOLY
 70
     0
  9
$TDCREATE
 40
2454963.720533843
  9
$TDUCREATE
 40
2454963.345533843
  9
$TDUPDATE
 40
2456479.537494028
  9
$TDUUPDATE
 40
2456479.162494028
  9
$TDINDWG
 40
0.1543968171
  9
$TDUSRTIMER
 40
0.1543964699
  9
$USRTIMER
 70
     1
  9
$ANGBASE
 50
0.0
  9
$ANGDIR
 70
     0
  9
$PDMODE
 70
     0
  9
$PDSIZE
 40
0.0
  9
$PLINEWID
 40
0.0
  9
$SPLFRAME
 70
     0
  9
$SPLINETYPE
 70
     6
  9
$SPLINESEGS
 70
     8
  9
$HANDSEED
  5
5BC7
  9
$SURFTAB1
 70
     6
  9
$SURFTAB2
 70
     6
  9
$SURFTYPE
 70
     6
  9
$SURFU
 70
     6
  9
$SURFV
 70
     6
  9
$UCSBASE
  2

  9
$UCSNAME
  2

  9
$UCSORG
 10
0.0
 20
0.0
 30
0.0
  9
$UCSXDIR
 10
1.0
 20
0.0
 30
0.0
  9
$UCSYDIR
 10
0.0
 20
1.0
 30
0.0
  9
$UCSORTHOREF
  2

  9
$UCSORTHOVIEW
 70
     0
  9
$UCSORGTOP
 10
0.0
 20
0.0
 30
0.0
  9
$UCSORGBOTTOM
 10
0.0
 20
0.0
 30
0.0
  9
$UCSORGLEFT
 10
0.0
 20
0.0
 30
0.0
  9
$UCSORGRIGHT
 10
0.0
 20
0.0
 30
0.0
  9
$UCSORGFRONT
 10
0.0
 20
0.0
 30
0.0
  9
$UCSORGBACK
 10
0.0
 20
0.0
 30
0.0
  9
$PUCSBASE
  2

  9
$PUCSNAME
  2

  9
$PUCSORG
 10
0.0
 20
0.0
 30
0.0
  9
$PUCSXDIR
 10
1.0
 20
0.0
 30
0.0
  9
$PUCSYDIR
 10
0.0
 20
1.0
 30
0.0
  9
$PUCSORTHOREF
  2

  9
$PUCSORTHOVIEW
 70
     0
  9
$PUCSORGTOP
 10
0.0
 20
0.0
 30
0.0
  9
$PUCSORGBOTTOM
 10
0.0
 20
0.0
 30
0.0
  9
$PUCSORGLEFT
 10
0.0
 20
0.0
 30
0.0
  9
$PUCSORGRIGHT
 10
0.0
 20
0.0
 30
0.0
  9
$PUCSORGFRONT
 10
0.0
 20
0.0
 30
0.0
  9
$PUCSORGBACK
 10
0.0
 20
0.0
 30
0.0
  9
$USERI1
 70
     0
  9
$USERI2
 70
     0
  9
$USERI3
 70
     0
  9
$USERI4
 70
     0
  9
$USERI5
 70
     0
  9
$USERR1
 40
0.0
  9
$USERR2
 40
0.0
  9
$USERR3
 40
0.0
  9
$USERR4
 40
0.0
  9
$USERR5
 40
0.0
  9
$WORLDVIEW
 70
     1
  9
$SHADEDGE
 70
     3
  9
$SHADEDIF
 70
    70
  9
$TILEMODE
 70
     1
  9
$MAXACTVP
 70
    64
  9
$PINSBASE
 10
0.0
 20
0.0
 30
0.0
  9
$PLIMCHECK
 70
     0
  9
$PEXTMIN
 10
1.000000000000000E+20
 20
1.000000000000000E+20
 30
1.000000000000000E+20
  9
$PEXTMAX
 10
-1.000000000000000E+20
 20
-1.000000000000000E+20
 30
-1.000000000000000E+20
  9
$PLIMMIN
 10
0.0
 20
0.0
  9
$PLIMMAX
 10
420.0
 20
297.0
  9
$UNITMODE
 70
     0
  9
$VISRETAIN
 70
     1
  9
$PLINEGEN
 70
     0
  9
$PSLTSCALE
 70
     1
  9
$TREEDEPTH
 70
  3020
  9
$CMLSTYLE
  2
Standard
  9
$CMLJUST
 70
     0
  9
$CMLSCALE
 40
20.0
  9
$PROXYGRAPHICS
 70
     1
  9
$MEASUREMENT
 70
     1
  9
$CELWEIGHT
370
    -1
  9
$ENDCAPS
280
     0
  9
$JOINSTYLE
280
     0
  9
$LWDISPLAY
290
     0
  9
$INSUNITS
 70
     4
  9
$HYPERLINKBASE
  1

  9
$STYLESHEET
  1
SEISA.CTB
  9
$XEDIT
290
     1
  9
$CEPSNTYPE
380
     0
  9
$PSTYLEMODE
290
     1
  9
$FINGERPRINTGUID
  2
{FCDD1F2D-C8F3-4307-B44D-BC330201ADC5}
  9
$VERSIONGUID
  2
{220BAA5D-8869-4D07-BBFF-3A80B718CEBF}
  9
$EXTNAMES
290
     1
  9
$PSVPSCALE
 40
0.0
  9
$OLESTARTUP
290
     0
  9
$SORTENTS
280
   127
  9
$INDEXCTL
280
     0
  9
$HIDETEXT
280
     0
  9
$XCLIPFRAME
290
     0
  9
$HALOGAP
280
     0
  9
$OBSCOLOR
 70
   257
  9
$OBSLTYPE
280
     0
  9
$INTERSECTIONDISPLAY
280
     0
  9
$INTERSECTIONCOLOR
 70
   257
  9
$DIMASSOC
280
     2
  9
$PROJECTNAME
  1

  9
$CAMERADISPLAY
290
     0
  9
$LENSLENGTH
 40
50.0
  9
$CAMERAHEIGHT
 40
0.0
  9
$STEPSPERSEC
 40
2.0
  9
$STEPSIZE
 40
6.0
  9
$3DDWFPREC
 40
2.0
  9
$PSOLWIDTH
 40
0.25
  9
$PSOLHEIGHT
 40
4.0
  9
$LOFTANG1
 40
1.570796326794896
  9
$LOFTANG2
 40
1.570796326794896
  9
$LOFTMAG1
 40
0.0
  9
$LOFTMAG2
 40
0.0
  9
$LOFTPARAM
 70
     7
  9
$LOFTNORMALS
280
     1
  9
$LATITUDE
 40
37.795
  9
$LONGITUDE
 40
-122.394
  9
$NORTHDIRECTION
 40
0.0
  9
$TIMEZONE
 70
 -8000
  9
$LIGHTGLYPHDISPLAY
280
     1
  9
$TILEMODELIGHTSYNCH
280
     1
  9
$CMATERIAL
347
27C
  9
$SOLIDHIST
280
     1
  9
$SHOWHIST
280
     1
  9
$DWFFRAME
280
     2
  9
$DGNFRAME
280
     0
  9
$REALWORLDSCALE
290
     1
  9
$INTERFERECOLOR
 62
     1
  9
$INTERFEREOBJVS
345
289
  9
$INTERFEREVPVS
346
286
  9
$CSHADOW
280
     0
  9
$SHADOWPLANELOCATION
 40
0.0
  0
ENDSEC
  0
SECTION
  2
CLASSES
  0
CLASS
  1
ACDBDICTIONARYWDFLT
  2
AcDbDictionaryWithDefault
  3
ObjectDBX Classes
 90
        0
 91
        1
280
     0
281
     0
  0
CLASS
  1
AMGSETTINGSOBJ
  2
AmgSettingsObj
  3
"AcadM|Product Description: AutoCAD Mechanical|Company: Autodesk, Inc."
 90
     1024
 91
        2
280
     0
281
     0
  0
CLASS
  1
ACME_DOCUMENT
  2
AcMeDbDoc
  3
AcMeServices
 90
     1024
 91
        1
280
     0
281
     0
  0
CLASS
  1
ACMESCOPE
  2
AcMeScope
  3
AcMeServices
 90
     1024
 91
        1
280
     0
281
     0
  0
CLASS
  1
ACMECOMMANDHISTORY
  2
AcMeCommandHistory
  3
AcMeServices
 90
     1024
 91
        1
280
     0
281
     0
  0
CLASS
  1
DICTIONARYVAR
  2
AcDbDictionaryVar
  3
ObjectDBX Classes
 90
        0
 91
        9
280
     0
281
     0
  0
CLASS
  1
ACIMSYSVARMAN
  2
AcImSysVarManager
  3
AcMeServices
 90
     1024
 91
        5
280
     0
281
     0
  0
CLASS
  1
ACIMREALSYSVAR
  2
AcImRealSysVar
  3
AcMeServices
 90
     1024
 91
        1
280
     0
281
     0
  0
CLASS
  1
ACIMINTSYSVAR
  2
AcImIntSysVar
  3
AcMeServices
 90
     1024
 91
       27
280
     0
281
     0
  0
CLASS
  1
ACMEDRAWINGMAN
  2
AcMeDrawingMan
  3
AcMeServices
 90
     1024
 91
        1
280
     0
281
     0
  0
CLASS
  1
ACMEVIEW
  2
AcMeView
  3
AcMeServices
 90
     1024
 91
        1
280
     0
281
     0
  0
CLASS
  1
ACDBENTITYCACHE
  2
AcMeEntityCache
  3
AcMeServices
 90
     1024
 91
        1
280
     0
281
     0
  0
CLASS
  1
GSMANAGER
  2
AcMeGSManager
  3
AcMeServices
 90
     1024
 91
        1
280
     0
281
     0
  0
CLASS
  1
AMDTINTERNALREACTOR
  2
AmdtInternalReactor
  3
AcMeServices
 90
     1024
 91
        2
280
     0
281
     0
  0
CLASS
  1
ACMESTATEMGR
  2
AcMeStateMgr
  3
AcMeServices
 90
     1024
 91
        1
280
     0
281
     0
  0
CLASS
  1
ACGREFMASTER
  2
AcGrefMaster
  3
AcAttribServices
 90
     1024
 91
        1
280
     0
281
     0
  0
CLASS
  1
ACME_DATABASE
  2
AcMeDbDatabase
  3
AcMeServices
 90
     1024
 91
        1
280
     0
281
     0
  0
CLASS
  1
ACRFINSADJUSTERMGR
  2
AcRfInsAdjusterMgr
  3
AcMeServices
 90
     1024
 91
        1
280
     0
281
     0
  0
CLASS
  1
ACGREFACADMASTER
  2
AcGrefacadMaster
  3
AcGrefServices
 90
     1024
 91
        1
280
     0
281
     0
  0
CLASS
  1
AMIMASTER
  2
AmiMaster
  3
AmiServices
 90
     1024
 91
        1
280
     0
281
     0
  0
CLASS
  1
ACIMSTRSYSVAR
  2
AcImStrSysVar
  3
AcMeServices
 90
     1024
 91
        5
280
     0
281
     0
  0
CLASS
  1
ACMSTANDARDJIS
  2
AcmStandardJIS
  3
"Amdt_StdImp|Product Description: AutoCAD Mechanical|Company: Autodesk, Inc."
 90
     1024
 91
        0
280
     0
281
     0
  0
CLASS
  1
AMGOBJPROPCFG
  2
AmgObjPropCfg
  3
"AmgLay|Product Description: AutoCAD Mechanical|Company: Autodesk, Inc."
 90
     1025
 91
        1
280
     0
281
     0
  0
CLASS
  1
ACMSURFSTANDARDJIS
  2
AcmSurfTextStdJIS
  3
"Amdt_StdImp|Product Description: AutoCAD Mechanical|Company: Autodesk, Inc."
 90
     1024
 91
        0
280
     0
281
     0
  0
CLASS
  1
ACMFCFSTANDARDJIS
  2
AcmFCFStdJIS
  3
"Amdt_StdImp|Product Description: AutoCAD Mechanical|Company: Autodesk, Inc."
 90
     1024
 91
        0
280
     0
281
     0
  0
CLASS
  1
ACMWELDSTANDARDJIS
  2
AcmWeldingStdJIS
  3
"Amdt_StdImp|Product Description: AutoCAD Mechanical|Company: Autodesk, Inc."
 90
     1024
 91
        0
280
     0
281
     0
  0
CLASS
  1
ACMIDSTANDARDJIS
  2
AcmIdStdJIS
  3
"Amdt_StdImp|Product Description: AutoCAD Mechanical|Company: Autodesk, Inc."
 90
     1024
 91
        0
280
     0
281
     0
  0
CLASS
  1
ACMDATUMSTANDARDJIS
  2
AcmDatumStdJIS
  3
"Amdt_StdImp|Product Description: AutoCAD Mechanical|Company: Autodesk, Inc."
 90
     1024
 91
        0
280
     0
281
     0
  0
CLASS
  1
ACMBOMSTANDARDJIS
  2
AcmBOMStdJIS
  3
"Amdt_StdImp|Product Description: AutoCAD Mechanical|Company: Autodesk, Inc."
 90
     1024
 91
        0
280
     0
281
     0
  0
CLASS
  1
ACMDETAILSTANDARDJIS
  2
AmdtDetailSymStdJIS
  3
"Amdt_StdImp|Product Description: AutoCAD Mechanical|Company: Autodesk, Inc."
 90
     1024
 91
        0
280
     0
281
     0
  0
CLASS
  1
ACMSECTIONSTANDARDJIS
  2
AmdtSectionSymStdJIS
  3
"Amdt_StdImp|Product Description: AutoCAD Mechanical|Company: Autodesk, Inc."
 90
     1024
 91
        0
280
     0
281
     0
  0
CLASS
  1
ACMCENTERLINESTANDARDJIS
  2
AmdtCenterLineStdJIS
  3
"Amdt_StdImp|Product Description: AutoCAD Mechanical|Company: Autodesk, Inc."
 90
     1024
 91
        0
280
     0
281
     0
  0
CLASS
  1
ACMTHREADLINESTANDARDJIS
  2
AmdtThreadLineStdJIS
  3
"Amdt_StdImp|Product Description: AutoCAD Mechanical|Company: Autodesk, Inc."
 90
     1024
 91
        0
280
     0
281
     0
  0
CLASS
  1
ACAMGLAYSTD
  2
AcAmgLayStd
  3
"AmgLay|Product Description: AutoCAD Mechanical|Company: Autodesk, Inc."
 90
     1024
 91
        1
280
     0
281
     0
  0
CLASS
  1
ACAMGDIMSTD
  2
AcAmgDimStd
  3
"AmgDim|Product Description: AutoCAD Mechanical|Company: Autodesk, Inc."
 90
     1024
 91
        1
280
     0
281
     0
  0
CLASS
  1
ACAMGTITLESTD
  2
AcAmgTitleStd
  3
"AmgTitle|Product Description: AutoCAD Mechanical|Company: Autodesk, Inc."
 90
     4095
 91
        1
280
     0
281
     0
  0
CLASS
  1
ACMDATADICTIONARY
  2
AcmDataDictionary
  3
"AcmSymBB|Product Description: AutoCAD Mechanical|Company: Autodesk, Inc."
 90
     1024
 91
        1
280
     0
281
     0
  0
CLASS
  1
ACMDATAENTRYBLOCK
  2
AcmDataEntryBlock
  3
AcmSymBB|Product Description: AutoCAD Mechanical|Company: Autodesk, Inc.
 90
     1024
 91
        0
280
     0
281
     0
  0
CLASS
  1
LAYER_INDEX
  2
AcDbLayerIndex
  3
ObjectDBX Classes
 90
        0
 91
        0
280
     0
281
     0
  0
CLASS
  1
IDBUFFER
  2
AcDbIdBuffer
  3
ObjectDBX Classes
 90
        0
 91
        0
280
     0
281
     0
  0
CLASS
  1
ACMNOTESTANDARDJIS
  2
AmdtNoteStdJIS
  3
"Amdt_StdImp|Product Description: AutoCAD Mechanical|Company: Autodesk, Inc."
 90
     1024
 91
        0
280
     0
281
     0
  0
CLASS
  1
ACAMGHOLECHARTSTDJIS
  2
AcAmgHoleChartStdJIS
  3
AmgDim|Product Description: AutoCAD Mechanical|Company: Autodesk, Inc.
 90
     1024
 91
        0
280
     0
281
     0
  0
CLASS
  1
AM_DRAWING_MGR
  2
AcDmDwgMgr
  3
AcMechDwgViewMgmt
 90
     1024
 91
        1
280
     0
281
     0
  0
CLASS
  1
AM_DWG_DOCUMENT
  2
AcDmDwgDocument
  3
AcMechDwgViewMgmt
 90
     1024
 91
        1
280
     0
281
     0
  0
CLASS
  1
AM_DWG_SHEET
  2
AcDmSheet
  3
AcMechDwgViewMgmt
 90
     1024
 91
        2
280
     0
281
     0
  0
CLASS
  1
AM_VIEWDIMPARMAP
  2
AcDmViewDimParMap
  3
AcMechDwgViewMgmt
 90
     1024
 91
        2
280
     0
281
     0
  0
CLASS
  1
AM_DWGMGR_NAME
  2
AcDmDwgMgrName
  3
AcMechDwgViewMgmt
 90
     1024
 91
        1
280
     0
281
     0
  0
CLASS
  1
AMDTMENUSTATEMGR
  2
AmdtMenuStateMgr
  3
McadcomServices
 90
     1024
 91
        1
280
     0
281
     0
  0
CLASS
  1
AMDTMCOMMENUSTATE
  2
AmdtMcomMenuState
  3
McadcomServices
 90
     1024
 91
        1
280
     0
281
     0
  0
CLASS
  1
MAPIAMMOUDLE
  2
MApiAmModule
  3
MApiAmServices
 90
     1024
 91
        1
280
     0
281
     0
  0
CLASS
  1
AMDTADMENUSTATE
  2
AmdtAdMenuState
  3
DesignerServices
 90
     1024
 91
        1
280
     0
281
     0
  0
CLASS
  1
ADAPPL
  2
AcAdAppl
  3
DesignerServices
 90
     1024
 91
        1
280
     0
281
     0
  0
CLASS
  1
DEPMGR
  2
AcAdDepMgr
  3
DesignerServices
 90
     1024
 91
        1
280
     0
281
     0
  0
CLASS
  1
PARAMMGR
  2
AcAdParamMgr
  3
DesignerServices
 90
     1024
 91
        1
280
     0
281
     0
  0
CLASS
  1
PARAMSCOPE
  2
AcAdParamScope
  3
DesignerServices
 90
     1024
 91
        1
280
     0
281
     0
  0
CLASS
  1
NAMEDAPPL
  2
AcAdNamedAppl
  3
DesignerServices
 90
     1024
 91
        1
280
     0
281
     0
  0
CLASS
  1
AMDTDMMENUSTATE
  2
AmdtDmMenuState
  3
AcMechDwgViewMgmt
 90
     1024
 91
        1
280
     0
281
     0
  0
CLASS
  1
AMDTAMMENUSTATE
  2
AmdtAmMenuState
  3
DesignerAssemblies
 90
     1024
 91
        1
280
     0
281
     0
  0
CLASS
  1
ACAMPROJECT
  2
AcAmProject
  3
DesignerAssemblies
 90
     1024
 91
        1
280
     0
281
     0
  0
CLASS
  1
ACAMGRCOMPDEF
  2
AcAmGrCompDef
  3
DesignerAssemblies
 90
     1024
 91
        1
280
     0
281
     0
  0
CLASS
  1
ACCMCONTEXT
  2
AcCmContext
  3
DesignerAssemblies
 90
     1024
 91
        1
280
     0
281
     0
  0
CLASS
  1
ACAMCOMPDEF
  2
AcAmCompDef
  3
DesignerAssemblies
 90
     1024
 91
        1
280
     0
281
     0
  0
CLASS
  1
ACAMCOMPDEFMGR
  2
AcAmCompDefMgr
  3
DesignerAssemblies
 90
     1024
 91
        1
280
     0
281
     0
  0
CLASS
  1
AMCONTEXTMGR
  2
AcAmContextMgr
  3
DesignerAssemblies
 90
     1024
 91
        1
280
     0
281
     0
  0
CLASS
  1
ACAMCONTEXTMODELER
  2
AcAmContextModeler
  3
DesignerAssemblies
 90
     1024
 91
        1
280
     0
281
     0
  0
CLASS
  1
CATALOGSTATE
  2
AcAmCatalogState
  3
DesignerAssemblies
 90
     1024
 91
        1
280
     0
281
     0
  0
CLASS
  1
ACAMGRCOMPDEFSET
  2
AcAmGrCompDefSet
  3
DesignerAssemblies
 90
     1024
 91
        1
280
     0
281
     0
  0
CLASS
  1
AMDTBROWSERDBTAB
  2
AmdtBrowserDbTab
  3
McadcomServices
 90
     1024
 91
        1
280
     0
281
     0
  0
CLASS
  1
CBROWSERAPPOBJECT
  2
CBrowserAppObject
  3
McadcomServices
 90
     1024
 91
        3
280
     0
281
     0
  0
CLASS
  1
DM_PLACEHOLDER
  2
AcDmSelsetPlaceholder
  3
AcMechDwgViewMgmt
 90
     1024
 91
        1
280
     0
281
     0
  0
CLASS
  1
TABLESTYLE
  2
AcDbTableStyle
  3
ObjectDBX Classes
 90
     4095
 91
        1
280
     0
281
     0
  0
CLASS
  1
VAACXREFPANELOBJECT
  2
VaAcXREFPanelObject
  3
VAAC_ADDIN
 90
        0
 91
        0
280
     0
281
     0
  0
CLASS
  1
VAACIMAGEINVENTORY
  2
VaAcImageInventory
  3
VAAC_ADDIN
 90
        0
 91
        0
280
     0
281
     0
  0
CLASS
  1
AMDTNOTETEMPLATEDB
  2
AmdtNoteTemplateDB
  3
AcmSymBB|Product Description: AutoCAD Mechanical|Company: Autodesk, Inc.
 90
     1024
 91
        6
280
     0
281
     0
  0
CLASS
  1
ACAMGFILTERDAT
  2
AcAmgFilterDat
  3
"AcadM|Product Description: AutoCAD Mechanical|Company: Autodesk, Inc."
 90
     1024
 91
        0
280
     0
281
     0
  0
CLASS
  1
MATERIAL
  2
AcDbMaterial
  3
ObjectDBX Classes
 90
     1153
 91
        3
280
     0
281
     0
  0
CLASS
  1
VISUALSTYLE
  2
AcDbVisualStyle
  3
ObjectDBX Classes
 90
     4095
 91
       16
280
     0
281
     0
  0
CLASS
  1
ACRFATTGENMGR
  2
AcRfAttGeneralMgr
  3
AcAttribServices
 90
     1024
 91
        0
280
     0
281
     0
  0
CLASS
  1
ACRFOBJATTMGR
  2
AcRfObjAttGroupMgr
  3
AcAttribServices
 90
     1024
 91
        0
280
     0
281
     0
  0
CLASS
  1
ACRFMCADAPIATTHOLDER
  2
AcRfMCADAPIAttHolder
  3
AcAttribServices
 90
     1024
 91
        0
280
     0
281
     0
  0
CLASS
  1
AMDTSYSATTR
  2
AmdtSystemAttribute
  3
AcAttribServices
 90
     1024
 91
        0
280
     0
281
     0
  0
CLASS
  1
ACMTAPERSTANDARDJIS
  2
AcmTaperStdJIS
  3
"Amdt_StdImp|Product Description: AutoCAD Mechanical|Company: Autodesk, Inc."
 90
     1024
 91
        0
280
     0
281
     0
  0
CLASS
  1
CAMSSTRUCTBTNSTATE
  2
StructBtnState
  3
DesignerAssemblies
 90
     1024
 91
        0
280
     0
281
     0
  0
CLASS
  1
SCALE
  2
AcDbScale
  3
ObjectDBX Classes
 90
     1153
 91
       34
280
     0
281
     0
  0
CLASS
  1
MLEADERSTYLE
  2
AcDbMLeaderStyle
  3
ACDB_MLEADERSTYLE_CLASS
 90
     4095
 91
        1
280
     0
281
     0
  0
CLASS
  1
ACMANOOTATIONVIEWSTANDARDJIS
  2
AmdtAnViewStdJIS
  3
"Amdt_StdImp|Product Description: AutoCAD Mechanical|Company: Autodesk, Inc."
 90
     1024
 91
        0
280
     0
281
     0
  0
CLASS
  1
ACMSURFSTANDARDJIS2003
  2
AcmSurfTextStdJIS2003
  3
"Amdt_StdImp|Product Description: AutoCAD Mechanical|Company: Autodesk, Inc."
 90
     1024
 91
        0
280
     0
281
     0
  0
CLASS
  1
CELLSTYLEMAP
  2
AcDbCellStyleMap
  3
ObjectDBX Classes
 90
     1152
 91
        2
280
     0
281
     0
  0
CLASS
  1
ACMFCFSTANDARDJIS98
  2
AcmFCFStdJIS98
  3
"Amdt_StdImp|Product Description: AutoCAD Mechanical|Company: Autodesk, Inc."
 90
     1024
 91
        0
280
     0
281
     0
  0
CLASS
  1
SORTENTSTABLE
  2
AcDbSortentsTable
  3
ObjectDBX Classes
 90
        0
 91
       11
280
     0
281
     0
  0
CLASS
  1
DIMASSOC
  2
AcDbDimAssoc
  3
"AcDbDimAssoc|Product Desc:     AcDim ARX App For Dimension|Company:          Autodesk, Inc.|WEB Address:      www.autodesk.com"
 90
        0
 91
       14
280
     0
281
     0
  0
CLASS
  1
STDPART2D
  2
AmgStdPart
  3
AmgStdPart|Product Description: AutoCAD Mechanical|Company: Autodesk, Inc.
 90
     4095
 91
        0
280
     0
281
     1
  0
CLASS
  1
ACMDATAENTRYPART
  2
AcmDataEntryPart
  3
AcmSymBB|Product Description: AutoCAD Mechanical|Company: Autodesk, Inc.
 90
     1024
 91
        0
280
     0
281
     0
  0
CLASS
  1
ACMPARTREF
  2
AcmPartRef
  3
"AcmSymBB|Product Description: AutoCAD Mechanical|Company: Autodesk, Inc."
 90
     4095
 91
        0
280
     0
281
     1
  0
CLASS
  1
ACDBSTDPARTRES_LINE
  2
AcDbStdPartRes_Line
  3
AmgStdPart|Product Description: AutoCAD Mechanical|Company: Autodesk, Inc.
 90
     1024
 91
        0
280
     0
281
     0
  0
CLASS
  1
ACMBOM
  2
AcmBom
  3
"AcmSymBB|Product Description: AutoCAD Mechanical|Company: Autodesk, Inc."
 90
     1024
 91
        0
280
     0
281
     0
  0
CLASS
  1
AMDTFORMULAUPDATEDISPATCHER
  2
AmdtFormulaUpdateDispatcher
  3
AcMeServices
 90
     1024
 91
        0
280
     0
281
     0
  0
CLASS
  1
ACMBOMROW
  2
AcmBomRow
  3
"AcmSymBB|Product Description: AutoCAD Mechanical|Company: Autodesk, Inc."
 90
     1024
 91
        0
280
     0
281
     0
  0
CLASS
  1
ACMPARTLIST
  2
AcmPartList
  3
"AcmSymBB|Product Description: AutoCAD Mechanical|Company: Autodesk, Inc."
 90
     4095
 91
        0
280
     0
281
     1
  0
CLASS
  1
ACDBLINERES
  2
AcDbLineRes
  3
AcGrefServices
 90
     1024
 91
        0
280
     0
281
     0
  0
CLASS
  1
ACRFINSADJ
  2
AcRfInsAdjuster
  3
AcMeServices
 90
     1024
 91
        0
280
     0
281
     0
  0
CLASS
  1
ACMSTANDARDISO
  2
AcmStandardISO
  3
"Amdt_StdImp|Product Description: AutoCAD Mechanical|Company: Autodesk, Inc."
 90
     1024
 91
        1
280
     0
281
     0
  0
CLASS
  1
AMDTEDGESTANDARDISO13715
  2
AmdtEdgeStdISO13715
  3
"Amdt_StdImp|Product Description: AutoCAD Mechanical|Company: Autodesk, Inc."
 90
     1024
 91
        1
280
     0
281
     0
  0
CLASS
  1
ACMSURFSTANDARDISO2002
  2
AcmSurfTextStdISO2002
  3
"Amdt_StdImp|Product Description: AutoCAD Mechanical|Company: Autodesk, Inc."
 90
     1024
 91
        1
280
     0
281
     0
  0
CLASS
  1
ACMFCFSTANDARDISO
  2
AcmFCFStdISO
  3
"Amdt_StdImp|Product Description: AutoCAD Mechanical|Company: Autodesk, Inc."
 90
     1024
 91
        1
280
     0
281
     0
  0
CLASS
  1
ACMWELDSTANDARDISO
  2
AcmWeldingStdISO
  3
"Amdt_StdImp|Product Description: AutoCAD Mechanical|Company: Autodesk, Inc."
 90
     1024
 91
        1
280
     0
281
     0
  0
CLASS
  1
ACMIDSTANDARDISO
  2
AcmIdStdISO
  3
"Amdt_StdImp|Product Description: AutoCAD Mechanical|Company: Autodesk, Inc."
 90
     1024
 91
        1
280
     0
281
     0
  0
CLASS
  1
ACMDATUMSTANDARDISO
  2
AcmDatumStdISO
  3
"Amdt_StdImp|Product Description: AutoCAD Mechanical|Company: Autodesk, Inc."
 90
     1024
 91
        1
280
     0
281
     0
  0
CLASS
  1
ACMBOMSTANDARDISO
  2
AcmBOMStdISO
  3
"Amdt_StdImp|Product Description: AutoCAD Mechanical|Company: Autodesk, Inc."
 90
     1024
 91
        1
280
     0
281
     0
  0
CLASS
  1
ACMDETAILSTANDARDISO
  2
AmdtDetailSymStdISO
  3
"Amdt_StdImp|Product Description: AutoCAD Mechanical|Company: Autodesk, Inc."
 90
     1024
 91
        1
280
     0
281
     0
  0
CLASS
  1
ACMSECTIONSTANDARDISO2001
  2
AmdtSectionSymStdISO2001
  3
"Amdt_StdImp|Product Description: AutoCAD Mechanical|Company: Autodesk, Inc."
 90
     1024
 91
        1
280
     0
281
     0
  0
CLASS
  1
ACMCENTERLINESTANDARDISO
  2
AmdtCenterLineStdISO
  3
"Amdt_StdImp|Product Description: AutoCAD Mechanical|Company: Autodesk, Inc."
 90
     1024
 91
        1
280
     0
281
     0
  0
CLASS
  1
ACMTHREADLINESTANDARDISO
  2
AmdtThreadLineStdISO
  3
"Amdt_StdImp|Product Description: AutoCAD Mechanical|Company: Autodesk, Inc."
 90
     1024
 91
        1
280
     0
281
     0
  0
CLASS
  1
ACMNOTESTANDARDISO
  2
AmdtNoteStdISO
  3
"Amdt_StdImp|Product Description: AutoCAD Mechanical|Company: Autodesk, Inc."
 90
     1024
 91
        1
280
     0
281
     0
  0
CLASS
  1
ACMTAPERSTANDARDISO
  2
AcmTaperStdISO
  3
"Amdt_StdImp|Product Description: AutoCAD Mechanical|Company: Autodesk, Inc."
 90
     1024
 91
        1
280
     0
281
     0
  0
CLASS
  1
ACMANOOTATIONVIEWSTANDARDISO
  2
AmdtAnViewStdISO
  3
"Amdt_StdImp|Product Description: AutoCAD Mechanical|Company: Autodesk, Inc."
 90
     1024
 91
        1
280
     0
281
     0
  0
CLASS
  1
ACAMGHOLECHARTSTDISO
  2
AcAmgHoleChartStdISO
  3
AmgDim|Product Description: AutoCAD Mechanical|Company: Autodesk, Inc.
 90
     1024
 91
        1
280
     0
281
     0
  0
CLASS
  1
EXACXREFPANELOBJECT
  2
ExAcXREFPanelObject
  3
EXAC_ESW
 90
     1025
 91
        0
280
     0
281
     0
  0
CLASS
  1
NPOCOLLECTION
  2
AcDbImpNonPersistentObjectsCollection
  3
ObjectDBX Classes
 90
     1153
 91
        0
280
     0
281
     0
  0
CLASS
  1
ACDBSTDPARTRES_ARC
  2
AcDbStdPartRes_Arc
  3
AmgStdPart|Product Description: AutoCAD Mechanical|Company: Autodesk, Inc.
 90
     1024
 91
        0
280
     0
281
     0
  0
CLASS
  1
AMDTNOTE
  2
AmdtNote
  3
"AcmSymBB|Product Description: AutoCAD Mechanical|Company: Autodesk, Inc."
 90
     4095
 91
        0
280
     0
281
     1
  0
CLASS
  1
PLOTSETTINGS
  2
AcDbPlotSettings
  3
ObjectDBX Classes
 90
        0
 91
        1
280
     0
281
     0
  0
CLASS
  1
ACMSTANDARDANSI
  2
AcmStandardANSI
  3
"Amdt_StdImp|Product Description: AutoCAD Mechanical|Company: Autodesk, Inc."
 90
     1024
 91
        0
280
     0
281
     0
  0
CLASS
  1
ACMSURFSTANDARDANSI
  2
AcmSurfTextStdANSI
  3
"Amdt_StdImp|Product Description: AutoCAD Mechanical|Company: Autodesk, Inc."
 90
     1024
 91
        0
280
     0
281
     0
  0
CLASS
  1
ACMFCFSTANDARDANSI
  2
AcmFCFStdANSI
  3
"Amdt_StdImp|Product Description: AutoCAD Mechanical|Company: Autodesk, Inc."
 90
     1024
 91
        0
280
     0
281
     0
  0
CLASS
  1
ACMWELDSTANDARDANSI
  2
AcmWeldingStdANSI
  3
"Amdt_StdImp|Product Description: AutoCAD Mechanical|Company: Autodesk, Inc."
 90
     1024
 91
        0
280
     0
281
     0
  0
CLASS
  1
ACMIDSTANDARDANSI
  2
AcmIdStdANSI
  3
"Amdt_StdImp|Product Description: AutoCAD Mechanical|Company: Autodesk, Inc."
 90
     1024
 91
        0
280
     0
281
     0
  0
CLASS
  1
ACMDATUMSTANDARDANSI
  2
AcmDatumStdANSI
  3
"Amdt_StdImp|Product Description: AutoCAD Mechanical|Company: Autodesk, Inc."
 90
     1024
 91
        0
280
     0
281
     0
  0
CLASS
  1
ACMBOMSTANDARDANSI
  2
AcmBOMStdANSI
  3
"Amdt_StdImp|Product Description: AutoCAD Mechanical|Company: Autodesk, Inc."
 90
     1024
 91
        0
280
     0
281
     0
  0
CLASS
  1
ACMDETAILSTANDARDANSI
  2
AmdtDetailSymStdANSI
  3
"Amdt_StdImp|Product Description: AutoCAD Mechanical|Company: Autodesk, Inc."
 90
     1024
 91
        0
280
     0
281
     0
  0
CLASS
  1
ACMSECTIONSTANDARDANSI
  2
AmdtSectionSymStdANSI
  3
"Amdt_StdImp|Product Description: AutoCAD Mechanical|Company: Autodesk, Inc."
 90
     1024
 91
        0
280
     0
281
     0
  0
CLASS
  1
ACMCENTERLINESTANDARDANSI
  2
AmdtCenterLineStdANSI
  3
"Amdt_StdImp|Product Description: AutoCAD Mechanical|Company: Autodesk, Inc."
 90
     1024
 91
        0
280
     0
281
     0
  0
CLASS
  1
ACMTHREADLINESTANDARDANSI
  2
AmdtThreadLineStdANSI
  3
"Amdt_StdImp|Product Description: AutoCAD Mechanical|Company: Autodesk, Inc."
 90
     1024
 91
        0
280
     0
281
     0
  0
CLASS
  1
ACMNOTESTANDARDANSI
  2
AmdtNoteStdANSI
  3
"Amdt_StdImp|Product Description: AutoCAD Mechanical|Company: Autodesk, Inc."
 90
     1024
 91
        0
280
     0
281
     0
  0
CLASS
  1
ACMTAPERSTANDARDANSI
  2
AcmTaperStdANSI
  3
"Amdt_StdImp|Product Description: AutoCAD Mechanical|Company: Autodesk, Inc."
 90
     1024
 91
        0
280
     0
281
     0
  0
CLASS
  1
ACMANOOTATIONVIEWSTANDARDANSI
  2
AmdtAnViewStdANSI
  3
"Amdt_StdImp|Product Description: AutoCAD Mechanical|Company: Autodesk, Inc."
 90
     1024
 91
        0
280
     0
281
     0
  0
CLASS
  1
ACAMGHOLECHARTSTDANSI
  2
AcAmgHoleChartStdANSI
  3
AmgDim|Product Description: AutoCAD Mechanical|Company: Autodesk, Inc.
 90
     1024
 91
        0
280
     0
281
     0
  0
CLASS
  1
ACMSTANDARDBSI
  2
AcmStandardBSI
  3
"Amdt_StdImp|Product Description: AutoCAD Mechanical|Company: Autodesk, Inc."
 90
     1024
 91
        0
280
     0
281
     0
  0
CLASS
  1
ACMSURFSTANDARDBSI2002
  2
AcmSurfTextStdBSI2002
  3
"Amdt_StdImp|Product Description: AutoCAD Mechanical|Company: Autodesk, Inc."
 90
     1024
 91
        0
280
     0
281
     0
  0
CLASS
  1
ACMFCFSTANDARDBSI
  2
AcmFCFStdBSI
  3
"Amdt_StdImp|Product Description: AutoCAD Mechanical|Company: Autodesk, Inc."
 90
     1024
 91
        0
280
     0
281
     0
  0
CLASS
  1
ACMWELDSTANDARDBSI
  2
AcmWeldingStdBSI
  3
"Amdt_StdImp|Product Description: AutoCAD Mechanical|Company: Autodesk, Inc."
 90
     1024
 91
        0
280
     0
281
     0
  0
CLASS
  1
ACMIDSTANDARDBSI
  2
AcmIdStdBSI
  3
"Amdt_StdImp|Product Description: AutoCAD Mechanical|Company: Autodesk, Inc."
 90
     1024
 91
        0
280
     0
281
     0
  0
CLASS
  1
ACMDATUMSTANDARDBSI
  2
AcmDatumStdBSI
  3
"Amdt_StdImp|Product Description: AutoCAD Mechanical|Company: Autodesk, Inc."
 90
     1024
 91
        0
280
     0
281
     0
  0
CLASS
  1
ACMBOMSTANDARDBSI
  2
AcmBOMStdBSI
  3
"Amdt_StdImp|Product Description: AutoCAD Mechanical|Company: Autodesk, Inc."
 90
     1024
 91
        0
280
     0
281
     0
  0
CLASS
  1
ACMDETAILSTANDARDBSI
  2
AmdtDetailSymStdBSI
  3
"Amdt_StdImp|Product Description: AutoCAD Mechanical|Company: Autodesk, Inc."
 90
     1024
 91
        0
280
     0
281
     0
  0
CLASS
  1
ACMSECTIONSTANDARDBSI2001
  2
AmdtSectionSymStdBSI2001
  3
"Amdt_StdImp|Product Description: AutoCAD Mechanical|Company: Autodesk, Inc."
 90
     1024
 91
        0
280
     0
281
     0
  0
CLASS
  1
ACMCENTERLINESTANDARDBSI
  2
AmdtCenterLineStdBSI
  3
"Amdt_StdImp|Product Description: AutoCAD Mechanical|Company: Autodesk, Inc."
 90
     1024
 91
        0
280
     0
281
     0
  0
CLASS
  1
ACMTHREADLINESTANDARDBSI
  2
AmdtThreadLineStdBSI
  3
"Amdt_StdImp|Product Description: AutoCAD Mechanical|Company: Autodesk, Inc."
 90
     1024
 91
        0
280
     0
281
     0
  0
CLASS
  1
ACMNOTESTANDARDBSI
  2
AmdtNoteStdBSI
  3
"Amdt_StdImp|Product Description: AutoCAD Mechanical|Company: Autodesk, Inc."
 90
     1024
 91
        0
280
     0
281
     0
  0
CLASS
  1
ACMTAPERSTANDARDBSI
  2
AcmTaperStdBSI
  3
"Amdt_StdImp|Product Description: AutoCAD Mechanical|Company: Autodesk, Inc."
 90
     1024
 91
        0
280
     0
281
     0
  0
CLASS
  1
ACMANOOTATIONVIEWSTANDARDBSI
  2
AmdtAnViewStdBSI
  3
"Amdt_StdImp|Product Description: AutoCAD Mechanical|Company: Autodesk, Inc."
 90
     1024
 91
        0
280
     0
281
     0
  0
CLASS
  1
ACAMGHOLECHARTSTDBSI
  2
AcAmgHoleChartStdBSI
  3
AmgDim|Product Description: AutoCAD Mechanical|Company: Autodesk, Inc.
 90
     1024
 91
        0
280
     0
281
     0
  0
CLASS
  1
AMDTEDGESTANDARDJIS
  2
AmdtEdgeStdJIS
  3
"Amdt_StdImp|Product Description: AutoCAD Mechanical|Company: Autodesk, Inc."
 90
     1024
 91
        0
280
     0
281
     0
  0
CLASS
  1
ACDB_BLKREFOBJECTCONTEXTDATA_CLASS
  2
AcDbBlkRefObjectContextData
  3
ObjectDBX Classes
 90
     1153
 91
        0
280
     0
281
     0
  0
CLASS
  1
ACDBOPPOLYLINERES
  2
AcDbOpPolylineRes
  3
AcGrefServices
 90
     1024
 91
        0
280
     0
281
     0
  0
CLASS
  1
AMDTACMWBLOCKBOMENTITY
  2
AmdtAcmWblockBomEntity
  3
"AcmSymBB|Product Description: AutoCAD Mechanical|Company: Autodesk, Inc."
 90
     4095
 91
        0
280
     0
281
     1
  0
CLASS
  1
ACMSURFSYM
  2
AcmSurfaceTexture
  3
"AcmSymBB|Product Description: AutoCAD Mechanical|Company: Autodesk, Inc."
 90
     4095
 91
        0
280
     0
281
     1
  0
CLASS
  1
ACDBCIRCARCRES
  2
AcDbCircArcRes
  3
AcGrefServices
 90
     1024
 91
        0
280
     0
281
     0
  0
CLASS
  1
ACDBDIMENSIONRES
  2
AcDbDimensionRes
  3
AcmSymBB|Product Description: AutoCAD Mechanical|Company: Autodesk, Inc.
 90
     1024
 91
        0
280
     0
281
     0
  0
CLASS
  1
ACMPICKOBJ
  2
AcmPickEnt
  3
"AcmSymBB|Product Description: AutoCAD Mechanical|Company: Autodesk, Inc."
 90
     1024
 91
        0
280
     0
281
     1
  0
CLASS
  1
ACMBALLOON
  2
AcmBalloon
  3
"AcmSymBB|Product Description: AutoCAD Mechanical|Company: Autodesk, Inc."
 90
     4095
 91
        0
280
     0
281
     1
  0
ENDSEC
  0
SECTION
  2
TABLES
  0
TABLE
  2
VPORT
  5
8
330
0
100
AcDbSymbolTable
 70
     1
  0
VPORT
  5
27A
330
8
100
AcDbSymbolTableRecord
100
AcDbViewportTableRecord
  2
*Active
 70
     0
 10
0.0
 20
0.0
 11
1.0
 21
1.0
 12
368.3195879533362
 22
334.9101108980739
 13
0.0
 23
0.0
 14
3.75
 24
3.75
 15
15.0
 25
15.0
 16
0.0
 26
0.0
 36
1.0
 17
0.0
 27
0.0
 37
0.0
 40
315.3321038462575
 41
1.571428571428571
 42
50.0
 43
0.0
 44
0.0
 50
0.0
 51
0.0
 71
    16
 72
 20000
 73
     1
 74
     3
 75
     0
 76
     0
 77
     0
 78
     0
281
     0
 65
     0
110
0.0
120
0.0
130
0.0
111
1.0
121
0.0
131
0.0
112
0.0
122
1.0
132
0.0
 79
     0
146
0.0
348
285
 60
     3
 61
     5
292
     1
282
     0
141
0.0
142
0.0
 63
   250
421
  3355443
  0
ENDTAB
  0
TABLE
  2
LTYPE
  5
5
330
0
100
AcDbSymbolTable
 70
    20
  0
LTYPE
  5
14
330
5
100
AcDbSymbolTableRecord
100
AcDbLinetypeTableRecord
  2
ByBlock
 70
     0
  3

 72
    65
 73
     0
 40
0.0
  0
LTYPE
  5
15
330
5
100
AcDbSymbolTableRecord
100
AcDbLinetypeTableRecord
  2
ByLayer
 70
     0
  3

 72
    65
 73
     0
 40
0.0
  0
LTYPE
  5
16
330
5
100
AcDbSymbolTableRecord
100
AcDbLinetypeTableRecord
  2
Continuous
 70
     0
  3
Solid line
 72
    65
 73
     0
 40
0.0
  0
LTYPE
  5
4D
330
5
100
AcDbSymbolTableRecord
100
AcDbLinetypeTableRecord
  2
AM_ISO02W050
 70
     0
  3
__ __ __ __ __ __ __ __ __ __ __ __ __ __ __
 72
    65
 73
     2
 40
7.5
 49
6.0
 74
     0
 49
-1.5
 74
     0
  0
LTYPE
  5
4E
330
5
100
AcDbSymbolTableRecord
100
AcDbLinetypeTableRecord
  2
AM_ISO08W050
 70
     0
  3
____ . ____ . ____ . ____ . ____ . ____ . ____
 72
    65
 73
     4
 40
18.0
 49
12.0
 74
     0
 49
-1.5
 74
     0
 49
3.0
 74
     0
 49
-1.5
 74
     0
  0
LTYPE
  5
4F
330
5
100
AcDbSymbolTableRecord
100
AcDbLinetypeTableRecord
  2
AM_ISO09W050
 70
     0
  3
_____ . . _____ . . _____ . . ____ .. ____
 72
    65
 73
     6
 40
22.5
 49
12.0
 74
     0
 49
-1.5
 74
     0
 49
3.0
 74
     0
 49
-1.5
 74
     0
 49
3.0
 74
     0
 49
-1.5
 74
     0
  0
LTYPE
  5
50
330
5
100
AcDbSymbolTableRecord
100
AcDbLinetypeTableRecord
  2
Amconstr
 70
     0
  3
_______________________
 72
    65
 73
     2
 40
9999.0
 49
9999.0
 74
     0
 49
0.0
 74
     0
  0
LTYPE
  5
51
330
5
100
AcDbSymbolTableRecord
100
AcDbLinetypeTableRecord
  2
AM_ISO08W050x2
 70
     0
  3
__ . __ . __ . __ . __ . __
 72
    65
 73
     4
 40
9.0
 49
6.0
 74
     0
 49
-0.75
 74
     0
 49
1.5
 74
     0
 49
-0.75
 74
     0
  0
LTYPE
  5
52
330
5
100
AcDbSymbolTableRecord
100
AcDbLinetypeTableRecord
  2
AM_ISO02W050x2
 70
     0
  3
 _ _ _ _ _ _ _ _ _ _ _ _
 72
    65
 73
     2
 40
3.75
 49
3.0
 74
     0
 49
-0.75
 74
     0
  0
LTYPE
  5
55
330
5
100
AcDbSymbolTableRecord
100
AcDbLinetypeTableRecord
  2
Amzigzag
 70
     0
  3
/\/-/\/-/\/-/\/-/\/-/\/
 72
    65
 73
     2
 40
11.0001
 49
0.0001
 74
     4
 75
   136
340
23D
 46
0.04
 50
0.0
 44
0.0
 45
0.0
 49
-11.0
 74
     0
  0
LTYPE
  5
65
330
5
100
AcDbSymbolTableRecord
100
AcDbLinetypeTableRecord
  2
CENTER
 70
     0
  3
__ . __
 72
    65
 73
     4
 40
7.0
 49
4.0
 74
     0
 49
-1.0
 74
     0
 49
1.0
 74
     0
 49
-1.0
 74
     0
  0
LTYPE
  5
E0
330
5
100
AcDbSymbolTableRecord
100
AcDbLinetypeTableRecord
  2
HIDDEN
 70
     0
  3
Hidden __ __ __ __ __ __ __ __ __ __ __ __ __ _
 72
    65
 73
     2
 40
9.524999999999996
 49
6.349999999999998
 74
     0
 49
-3.174999999999998
 74
     0
  0
LTYPE
  5
E1
330
5
100
AcDbSymbolTableRecord
100
AcDbLinetypeTableRecord
  2
PHANTOM2
 70
     0
  3
Phantom (.5x) ___ _ _ ___ _ _ ___ _ _ ___ _ _
 72
    65
 73
     6
 40
31.75
 49
15.875
 74
     0
 49
-3.174999999999998
 74
     0
 49
3.174999999999998
 74
     0
 49
-3.174999999999998
 74
     0
 49
3.174999999999998
 74
     0
 49
-3.174999999999998
 74
     0
  0
LTYPE
  5
5A2
330
5
100
AcDbSymbolTableRecord
100
AcDbLinetypeTableRecord
  2
ACJISWELD
 70
     0
  3
_ _ _ _ _
 72
    65
 73
     2
 40
2.0
 49
2.0
 74
     0
 49
-1.0
 74
     0
  0
LTYPE
  5
5BB2
330
5
100
AcDbSymbolTableRecord
100
AcDbLinetypeTableRecord
  2
ACISOWELD
 70
     0
  3
_ _ _ _ _
 72
    65
 73
     2
 40
2.0
 49
2.0
 74
     0
 49
-1.0
 74
     0
  0
LTYPE
  5
5BB3
330
5
100
AcDbSymbolTableRecord
100
AcDbLinetypeTableRecord
  2
ACISOTGB
 70
     0
  3
__ . . __ . .
 72
    65
 73
     6
 40
9.0
 49
4.0
 74
     0
 49
-1.0
 74
     0
 49
1.0
 74
     0
 49
-1.0
 74
     0
 49
1.0
 74
     0
 49
-1.0
 74
     0
  0
LTYPE
  5
5BB4
330
5
100
AcDbSymbolTableRecord
100
AcDbLinetypeTableRecord
  2
ACISOTGL
 70
     0
  3
_ _ _ _ _
 72
    65
 73
     2
 40
3.0
 49
2.0
 74
     0
 49
-1.0
 74
     0
  0
ENDTAB
  0
TABLE
  2
LAYER
  5
2
102
{ACAD_XDICTIONARY
360
BF
102
}
330
0
100
AcDbSymbolTable
 70
    10
  0
LAYER
  5
10
102
{ACAD_XDICTIONARY
360
29D7
102
}
330
2
100
AcDbSymbolTableRecord
100
AcDbLayerTableRecord
  2
0
 70
     0
 62
     7
  6
Continuous
370
    -3
390
F
347
27E
  0
LAYER
  5
81
102
{ACAD_XDICTIONARY
360
29D9
102
}
330
2
100
AcDbSymbolTableRecord
100
AcDbLayerTableRecord
  2
AM_0 外形線1
 70
     0
 62
     7
  6
Continuous
370
    25
390
F
347
27E
  0
LAYER
  5
427
330
2
100
AcDbSymbolTableRecord
100
AcDbLayerTableRecord
  2
Defpoints
 70
     0
 62
     7
  6
Continuous
290
     0
370
    -3
390
F
347
27E
  0
LAYER
  5
25C9
102
{ACAD_XDICTIONARY
360
29E0
102
}
330
2
100
AcDbSymbolTableRecord
100
AcDbLayerTableRecord
  2
AM_3 隠れ線
 70
     0
 62
     8
  6
ACJISWELD
370
    13
390
F
347
27E
1001
AcAecLayerStandard
1000

1000

  0
LAYER
  5
25CA
102
{ACAD_XDICTIONARY
360
29E2
102
}
330
2
100
AcDbSymbolTableRecord
100
AcDbLayerTableRecord
  2
AM_4 細線
 70
     0
 62
     4
  6
Continuous
370
    13
390
F
347
27E
1001
AcAecLayerStandard
1000

1000

  0
LAYER
  5
26B3
102
{ACAD_XDICTIONARY
360
29E8
102
}
330
2
100
AcDbSymbolTableRecord
100
AcDbLayerTableRecord
  2
AM_5 寸法線
 70
     0
 62
     3
  6
Continuous
370
    13
390
F
347
27E
1001
AcAecLayerStandard
1000

1000

  0
LAYER
  5
2C74
330
2
100
AcDbSymbolTableRecord
100
AcDbLayerTableRecord
  2
AM_7 中心線
 70
     0
 62
     1
  6
AM_ISO08W050
370
    13
390
F
347
27E
1001
AcAecLayerStandard
1000

1000

  0
LAYER
  5
2C76
330
2
100
AcDbSymbolTableRecord
100
AcDbLayerTableRecord
  2
AM_6 文字
 70
     0
 62
     2
  6
Continuous
370
    13
390
F
347
27E
1001
AcAecLayerStandard
1000

1000

  0
LAYER
  5
5775
330
2
100
AcDbSymbolTableRecord
100
AcDbLayerTableRecord
  2
AM_11 想像線
 70
     0
 62
     5
  6
AM_ISO09W050
370
    13
390
F
347
27E
1001
AcAecLayerStandard
1000

1000

  0
ENDTAB
  0
TABLE
  2
STYLE
  5
3
330
0
100
AcDbSymbolTable
 70
    11
  0
STYLE
  5
11
330
3
100
AcDbSymbolTableRecord
100
AcDbTextStyleTableRecord
  2
STANDARD
 70
     0
 40
0.0
 41
1.0
 50
0.0
 71
     0
 42
25.0
  3
ISOCP.SHX
  4
EXTFONT.SHX
  0
STYLE
  5
23D
330
3
100
AcDbSymbolTableRecord
100
AcDbTextStyleTableRecord
  2

 70
     1
 40
0.0
 41
1.0
 50
0.0
 71
     0
 42
2.5
  3
genltshp.shx
  4

  0
STYLE
  5
5D5
330
3
100
AcDbSymbolTableRecord
100
AcDbTextStyleTableRecord
  2
SEISA
 70
     0
 40
0.0
 41
0.9
 50
0.0
 71
     0
 42
25.0
  3
romans.shx
  4
extfont2.shx
  0
STYLE
  5
5BA2
330
3
100
AcDbSymbolTableRecord
100
AcDbTextStyleTableRecord
  2
ACISOTS
 70
     0
 40
1.0
 41
1.0
 50
0.0
 71
     0
 42
25.0
  3
isocp.shx
  4
extfont.shx
  0
STYLE
  5
5BB1
330
3
100
AcDbSymbolTableRecord
100
AcDbTextStyleTableRecord
  2
ACISOGDT
 70
     0
 40
0.0
 41
1.0
 50
0.0
 71
     0
 42
25.0
  3
amgdt.shx
  4

  0
ENDTAB
  0
TABLE
  2
VIEW
  5
6
330
0
100
AcDbSymbolTable
 70
     6
  0
VIEW
  5
91B
330
6
100
AcDbSymbolTableRecord
100
AcDbViewTableRecord
  2
AM_VIEW1
 70
     0
 40
315.0000000000001
 10
285.8138562002092
 20
472.5000000000001
 41
571.6277128547582
 11
0.0
 21
0.0
 31
1.0
 12
0.0
 22
0.0
 32
0.0
 42
50.0
 43
0.0
 44
0.0
 50
0.0
 71
    16
281
     0
 72
     0
 73
     0
  0
VIEW
  5
91C
330
6
100
AcDbSymbolTableRecord
100
AcDbViewTableRecord
  2
AM_VIEW2
 70
     0
 40
315.0000000000001
 10
605.1861436862059
 20
472.5000000000001
 41
571.6277128547582
 11
0.0
 21
0.0
 31
1.0
 12
0.0
 22
0.0
 32
0.0
 42
50.0
 43
0.0
 44
0.0
 50
0.0
 71
    16
281
     0
 72
     0
 73
     0
  0
VIEW
  5
91D
330
6
100
AcDbSymbolTableRecord
100
AcDbViewTableRecord
  2
AM_VIEW3
 70
     0
 40
315.0000000000001
 10
285.8138562002092
 20
157.5
 41
571.6277128547582
 11
0.0
 21
0.0
 31
1.0
 12
0.0
 22
0.0
 32
0.0
 42
50.0
 43
0.0
 44
0.0
 50
0.0
 71
    16
281
     0
 72
     0
 73
     0
  0
VIEW
  5
91E
330
6
100
AcDbSymbolTableRecord
100
AcDbViewTableRecord
  2
AM_VIEW4
 70
     0
 40
315.0000000000001
 10
605.1861436862059
 20
157.5
 41
571.6277128547582
 11
0.0
 21
0.0
 31
1.0
 12
0.0
 22
0.0
 32
0.0
 42
50.0
 43
0.0
 44
0.0
 50
0.0
 71
    16
281
     0
 72
     0
 73
     0
  0
VIEW
  5
91F
330
6
100
AcDbSymbolTableRecord
100
AcDbViewTableRecord
  2
AM_VIEW5
 70
     0
 40
315.0000000000001
 10
445.4999999432073
 20
315.0000000000001
 41
571.6277128547581
 11
0.0
 21
0.0
 31
1.0
 12
0.0
 22
0.0
 32
0.0
 42
50.0
 43
0.0
 44
0.0
 50
0.0
 71
    16
281
     0
 72
     0
 73
     0
  0
VIEW
  5
920
330
6
100
AcDbSymbolTableRecord
100
AcDbViewTableRecord
  2
AM_VIEW6
 70
     0
 40
629.9937000000002
 10
445.4999999432073
 20
315.0000000000001
 41
1143.243993155259
 11
0.0
 21
0.0
 31
1.0
 12
0.0
 22
0.0
 32
0.0
 42
50.0
 43
0.0
 44
0.0
 50
0.0
 71
    16
281
     0
 72
     0
 73
     0
  0
ENDTAB
  0
TABLE
  2
UCS
  5
7
330
0
100
AcDbSymbolTable
 70
     0
  0
ENDTAB
  0
TABLE
  2
APPID
  5
9
330
0
100
AcDbSymbolTable
 70
   392
  0
APPID
  5
12
330
9
100
AcDbSymbolTableRecord
100
AcDbRegAppTableRecord
  2
ACAD
 70
     0
  0
APPID
  5
30
330
9
100
AcDbSymbolTableRecord
100
AcDbRegAppTableRecord
  2
MCAD_NO_VIS
 70
     0
  0
APPID
  5
31
330
9
100
AcDbSymbolTableRecord
100
AcDbRegAppTableRecord
  2
ACAD_TEMP_GRAPHIC
 70
     0
  0
APPID
  5
44
330
9
100
AcDbSymbolTableRecord
100
AcDbRegAppTableRecord
  2
ACATTRIBSERVICES
 70
     0
  0
APPID
  5
F6
330
9
100
AcDbSymbolTableRecord
100
AcDbRegAppTableRecord
  2
AD_DRAW
 70
     0
  0
APPID
  5
114
330
9
100
AcDbSymbolTableRecord
100
AcDbRegAppTableRecord
  2
DESIGNERASSEMBLIES
 70
     0
  0
APPID
  5
118
330
9
100
AcDbSymbolTableRecord
100
AcDbRegAppTableRecord
  2
ACADM_DIM_EDIT
 70
     0
  0
APPID
  5
119
330
9
100
AcDbSymbolTableRecord
100
AcDbRegAppTableRecord
  2
AMDT_DM_ADJ
 70
     0
  0
APPID
  5
1AF
330
9
100
AcDbSymbolTableRecord
100
AcDbRegAppTableRecord
  2
ACAD_DSTYLE_DIMARC_LENGTH_SYMBOL
 70
     0
  0
APPID
  5
1B0
330
9
100
AcDbSymbolTableRecord
100
AcDbRegAppTableRecord
  2
ACAD_DSTYLE_DIMJOGGED_JOGANGLE_SYMBOL
 70
     0
  0
APPID
  5
2D7
330
9
100
AcDbSymbolTableRecord
100
AcDbRegAppTableRecord
  2
ACAD_MLEADERVER
 70
     0
  0
APPID
  5
355
330
9
100
AcDbSymbolTableRecord
100
AcDbRegAppTableRecord
  2
AcadAnnoPO
 70
     0
  0
APPID
  5
428
330
9
100
AcDbSymbolTableRecord
100
AcDbRegAppTableRecord
  2
ACAD_DSTYLE_DIMTEXT_FILL
 70
     0
  0
APPID
  5
429
330
9
100
AcDbSymbolTableRecord
100
AcDbRegAppTableRecord
  2
GENIUS_GENSCREG_15
 70
     0
  0
APPID
  5
42A
330
9
100
AcDbSymbolTableRecord
100
AcDbRegAppTableRecord
  2
GENIUS_GENOBJ-N-SDF_13
 70
     0
  0
APPID
  5
42B
330
9
100
AcDbSymbolTableRecord
100
AcDbRegAppTableRecord
  2
GENIUS_GENODEF_13
 70
     0
  0
APPID
  5
42C
330
9
100
AcDbSymbolTableRecord
100
AcDbRegAppTableRecord
  2
ACAD_EXEMPT_FROM_CAD_STANDARDS
 70
     0
  0
APPID
  5
42D
330
9
100
AcDbSymbolTableRecord
100
AcDbRegAppTableRecord
  2
AcAecLayerStandard
 70
     0
  0
APPID
  5
42E
330
9
100
AcDbSymbolTableRecord
100
AcDbRegAppTableRecord
  2
GENIUS_GENOBJ-N-CEN_13
 70
     0
  0
APPID
  5
42F
330
9
100
AcDbSymbolTableRecord
100
AcDbRegAppTableRecord
  2
GENIUS_GENCEN_19
 70
     0
  0
APPID
  5
430
330
9
100
AcDbSymbolTableRecord
100
AcDbRegAppTableRecord
  2
ACAD_DSTYLE_DIMINSPECT
 70
     0
  0
APPID
  5
431
330
9
100
AcDbSymbolTableRecord
100
AcDbRegAppTableRecord
  2
GENIUS_AMGTXT_16
 70
     0
  0
APPID
  5
432
330
9
100
AcDbSymbolTableRecord
100
AcDbRegAppTableRecord
  2
GENIUS_GENFIL_13
 70
     0
  0
APPID
  5
433
330
9
100
AcDbSymbolTableRecord
100
AcDbRegAppTableRecord
  2
GENIUS_GENOLIS_13
 70
     0
  0
APPID
  5
434
330
9
100
AcDbSymbolTableRecord
100
AcDbRegAppTableRecord
  2
GENIUS_GENOBJ-N-CHA_13
 70
     0
  0
APPID
  5
435
330
9
100
AcDbSymbolTableRecord
100
AcDbRegAppTableRecord
  2
GENIUS_GENOENT_13
 70
     0
  0
APPID
  5
436
330
9
100
AcDbSymbolTableRecord
100
AcDbRegAppTableRecord
  2
GENIUS_GENOREF_13
 70
     0
  0
APPID
  5
437
330
9
100
AcDbSymbolTableRecord
100
AcDbRegAppTableRecord
  2
GENIUS_GENOBJ-N-FIL_13
 70
     0
  0
APPID
  5
438
330
9
100
AcDbSymbolTableRecord
100
AcDbRegAppTableRecord
  2
GEVID1208829536
 70
     0
  0
APPID
  5
439
330
9
100
AcDbSymbolTableRecord
100
AcDbRegAppTableRecord
  2
GEVDC
 70
     0
  0
APPID
  5
43A
330
9
100
AcDbSymbolTableRecord
100
AcDbRegAppTableRecord
  2
GEVRADREF
 70
     0
  0
APPID
  5
43B
330
9
100
AcDbSymbolTableRecord
100
AcDbRegAppTableRecord
  2
GENIUS_GENBH_13
 70
     0
  0
APPID
  5
43C
330
9
100
AcDbSymbolTableRecord
100
AcDbRegAppTableRecord
  2
GENIUS_GENOBJ-NBEHI-BHF_13
 70
     0
  0
APPID
  5
43D
330
9
100
AcDbSymbolTableRecord
100
AcDbRegAppTableRecord
  2
GENIUS_GENOBJ-NBEHI-BHB_13
 70
     0
  0
APPID
  5
43E
330
9
100
AcDbSymbolTableRecord
100
AcDbRegAppTableRecord
  2
GEVID1208829537
 70
     0
  0
APPID
  5
43F
330
9
100
AcDbSymbolTableRecord
100
AcDbRegAppTableRecord
  2
ACAD_DSTYLE_DIMJAG
 70
     0
  0
APPID
  5
440
330
9
100
AcDbSymbolTableRecord
100
AcDbRegAppTableRecord
  2
ACAD_DSTYLE_DIMTALN
 70
     0
  0
APPID
  5
441
330
9
100
AcDbSymbolTableRecord
100
AcDbRegAppTableRecord
  2
AMG_2DHIDE
 70
     0
  0
APPID
  5
442
330
9
100
AcDbSymbolTableRecord
100
AcDbRegAppTableRecord
  2
AMG_2DSTRUCT_BTR
 70
     0
  0
APPID
  5
443
330
9
100
AcDbSymbolTableRecord
100
AcDbRegAppTableRecord
  2
GEVID1208845772
 70
     0
  0
APPID
  5
444
330
9
100
AcDbSymbolTableRecord
100
AcDbRegAppTableRecord
  2
GEVID1208845773
 70
     0
  0
APPID
  5
445
330
9
100
AcDbSymbolTableRecord
100
AcDbRegAppTableRecord
  2
ACADM_2DVIEW_IGN_NOTIFY
 70
     0
  0
APPID
  5
446
330
9
100
AcDbSymbolTableRecord
100
AcDbRegAppTableRecord
  2
GEVID1208845774
 70
     0
  0
APPID
  5
447
330
9
100
AcDbSymbolTableRecord
100
AcDbRegAppTableRecord
  2
GEVID1208845775
 70
     0
  0
APPID
  5
448
330
9
100
AcDbSymbolTableRecord
100
AcDbRegAppTableRecord
  2
GEVID1208845776
 70
     0
  0
APPID
  5
449
330
9
100
AcDbSymbolTableRecord
100
AcDbRegAppTableRecord
  2
GEVID1208845777
 70
     0
  0
APPID
  5
44A
330
9
100
AcDbSymbolTableRecord
100
AcDbRegAppTableRecord
  2
GEVCON
 70
     0
  0
APPID
  5
44B
330
9
100
AcDbSymbolTableRecord
100
AcDbRegAppTableRecord
  2
GENIUS_GENOBJ-F-SCPASSM_13
 70
     0
  0
APPID
  5
44C
330
9
100
AcDbSymbolTableRecord
100
AcDbRegAppTableRecord
  2
GEVID1208845778
 70
     0
  0
APPID
  5
44D
330
9
100
AcDbSymbolTableRecord
100
AcDbRegAppTableRecord
  2
GEVID1208845779
 70
     0
  0
APPID
  5
44E
330
9
100
AcDbSymbolTableRecord
100
AcDbRegAppTableRecord
  2
GEVID1208845780
 70
     0
  0
APPID
  5
44F
330
9
100
AcDbSymbolTableRecord
100
AcDbRegAppTableRecord
  2
GEVID1208845781
 70
     0
  0
APPID
  5
450
330
9
100
AcDbSymbolTableRecord
100
AcDbRegAppTableRecord
  2
GEVID1208845782
 70
     0
  0
APPID
  5
451
330
9
100
AcDbSymbolTableRecord
100
AcDbRegAppTableRecord
  2
GEVID1208845783
 70
     0
  0
APPID
  5
452
330
9
100
AcDbSymbolTableRecord
100
AcDbRegAppTableRecord
  2
GEVID1208845784
 70
     0
  0
APPID
  5
453
330
9
100
AcDbSymbolTableRecord
100
AcDbRegAppTableRecord
  2
GEVID1208845785
 70
     0
  0
APPID
  5
454
330
9
100
AcDbSymbolTableRecord
100
AcDbRegAppTableRecord
  2
GEVID1208845787
 70
     0
  0
APPID
  5
455
330
9
100
AcDbSymbolTableRecord
100
AcDbRegAppTableRecord
  2
GEVID1208845788
 70
     0
  0
APPID
  5
456
330
9
100
AcDbSymbolTableRecord
100
AcDbRegAppTableRecord
  2
GEVID1208845789
 70
     0
  0
APPID
  5
457
330
9
100
AcDbSymbolTableRecord
100
AcDbRegAppTableRecord
  2
GEVID1208845790
 70
     0
  0
APPID
  5
458
330
9
100
AcDbSymbolTableRecord
100
AcDbRegAppTableRecord
  2
GEVID1208845791
 70
     0
  0
APPID
  5
459
330
9
100
AcDbSymbolTableRecord
100
AcDbRegAppTableRecord
  2
GEVID1208845792
 70
     0
  0
APPID
  5
45A
330
9
100
AcDbSymbolTableRecord
100
AcDbRegAppTableRecord
  2
GEVID1208845793
 70
     0
  0
APPID
  5
45B
330
9
100
AcDbSymbolTableRecord
100
AcDbRegAppTableRecord
  2
GEVID1208845794
 70
     0
  0
APPID
  5
45C
330
9
100
AcDbSymbolTableRecord
100
AcDbRegAppTableRecord
  2
GEVID1208845795
 70
     0
  0
APPID
  5
45D
330
9
100
AcDbSymbolTableRecord
100
AcDbRegAppTableRecord
  2
GEVID1208845796
 70
     0
  0
APPID
  5
45E
330
9
100
AcDbSymbolTableRecord
100
AcDbRegAppTableRecord
  2
GEVID1208845797
 70
     0
  0
APPID
  5
45F
330
9
100
AcDbSymbolTableRecord
100
AcDbRegAppTableRecord
  2
GEVID1208845798
 70
     0
  0
APPID
  5
460
330
9
100
AcDbSymbolTableRecord
100
AcDbRegAppTableRecord
  2
GEVID1208845799
 70
     0
  0
APPID
  5
461
330
9
100
AcDbSymbolTableRecord
100
AcDbRegAppTableRecord
  2
GEVID1208845800
 70
     0
  0
APPID
  5
462
330
9
100
AcDbSymbolTableRecord
100
AcDbRegAppTableRecord
  2
GEVID1208845801
 70
     0
  0
APPID
  5
463
330
9
100
AcDbSymbolTableRecord
100
AcDbRegAppTableRecord
  2
GEVID1208845802
 70
     0
  0
APPID
  5
464
330
9
100
AcDbSymbolTableRecord
100
AcDbRegAppTableRecord
  2
GENIUS_GENOBJ-N-DIM_13
 70
     0
  0
APPID
  5
465
330
9
100
AcDbSymbolTableRecord
100
AcDbRegAppTableRecord
  2
GENIUS_GENDIM_13
 70
     0
  0
APPID
  5
466
330
9
100
AcDbSymbolTableRecord
100
AcDbRegAppTableRecord
  2
GENIUS_GENDIMSH_14
 70
     0
  0
APPID
  5
467
330
9
100
AcDbSymbolTableRecord
100
AcDbRegAppTableRecord
  2
GEVID1208845803
 70
     0
  0
APPID
  5
468
330
9
100
AcDbSymbolTableRecord
100
AcDbRegAppTableRecord
  2
GEVID1208845804
 70
     0
  0
APPID
  5
469
330
9
100
AcDbSymbolTableRecord
100
AcDbRegAppTableRecord
  2
GEVID1208845805
 70
     0
  0
APPID
  5
46A
330
9
100
AcDbSymbolTableRecord
100
AcDbRegAppTableRecord
  2
GEVID1208845806
 70
     0
  0
APPID
  5
46B
330
9
100
AcDbSymbolTableRecord
100
AcDbRegAppTableRecord
  2
GEVID1208845807
 70
     0
  0
APPID
  5
46C
330
9
100
AcDbSymbolTableRecord
100
AcDbRegAppTableRecord
  2
GEVID1208845808
 70
     0
  0
APPID
  5
46D
330
9
100
AcDbSymbolTableRecord
100
AcDbRegAppTableRecord
  2
GEVID1208845809
 70
     0
  0
APPID
  5
46E
330
9
100
AcDbSymbolTableRecord
100
AcDbRegAppTableRecord
  2
GEVID1208845810
 70
     0
  0
APPID
  5
46F
330
9
100
AcDbSymbolTableRecord
100
AcDbRegAppTableRecord
  2
GEVID1208845811
 70
     0
  0
APPID
  5
470
330
9
100
AcDbSymbolTableRecord
100
AcDbRegAppTableRecord
  2
GEVID1208845813
 70
     0
  0
APPID
  5
471
330
9
100
AcDbSymbolTableRecord
100
AcDbRegAppTableRecord
  2
GEVID1208845814
 70
     0
  0
APPID
  5
472
330
9
100
AcDbSymbolTableRecord
100
AcDbRegAppTableRecord
  2
GEVID1208845815
 70
     0
  0
APPID
  5
473
330
9
100
AcDbSymbolTableRecord
100
AcDbRegAppTableRecord
  2
GEVID1208845816
 70
     0
  0
APPID
  5
474
330
9
100
AcDbSymbolTableRecord
100
AcDbRegAppTableRecord
  2
GEVID1208845817
 70
     0
  0
APPID
  5
475
330
9
100
AcDbSymbolTableRecord
100
AcDbRegAppTableRecord
  2
GEVID1208845818
 70
     0
  0
APPID
  5
476
330
9
100
AcDbSymbolTableRecord
100
AcDbRegAppTableRecord
  2
GEVID1208845819
 70
     0
  0
APPID
  5
477
330
9
100
AcDbSymbolTableRecord
100
AcDbRegAppTableRecord
  2
GEVID1208845820
 70
     0
  0
APPID
  5
478
330
9
100
AcDbSymbolTableRecord
100
AcDbRegAppTableRecord
  2
GENIUS_GENOBJ-F-SHCL_13
 70
     0
  0
APPID
  5
479
330
9
100
AcDbSymbolTableRecord
100
AcDbRegAppTableRecord
  2
GENIUS_GEFMSH_13
 70
     0
  0
APPID
  5
47A
330
9
100
AcDbSymbolTableRecord
100
AcDbRegAppTableRecord
  2
GENIUS_GENOBJ-F-SHCA_13
 70
     0
  0
APPID
  5
47B
330
9
100
AcDbSymbolTableRecord
100
AcDbRegAppTableRecord
  2
GENIUS_GEFSH_13
 70
     0
  0
APPID
  5
47C
330
9
100
AcDbSymbolTableRecord
100
AcDbRegAppTableRecord
  2
GENIUS_GEFSHP_13
 70
     0
  0
APPID
  5
47D
330
9
100
AcDbSymbolTableRecord
100
AcDbRegAppTableRecord
  2
GENIUS_GEFSHP0_13
 70
     0
  0
APPID
  5
47E
330
9
100
AcDbSymbolTableRecord
100
AcDbRegAppTableRecord
  2
GENIUS_GEFSH0_13
 70
     0
  0
APPID
  5
47F
330
9
100
AcDbSymbolTableRecord
100
AcDbRegAppTableRecord
  2
GENIUS_GEFSHP1_13
 70
     0
  0
APPID
  5
480
330
9
100
AcDbSymbolTableRecord
100
AcDbRegAppTableRecord
  2
GENIUS_GEFSH1_13
 70
     0
  0
APPID
  5
481
330
9
100
AcDbSymbolTableRecord
100
AcDbRegAppTableRecord
  2
GEVID1208866337
 70
     0
  0
APPID
  5
482
330
9
100
AcDbSymbolTableRecord
100
AcDbRegAppTableRecord
  2
GEVID1208866338
 70
     0
  0
APPID
  5
483
330
9
100
AcDbSymbolTableRecord
100
AcDbRegAppTableRecord
  2
GEVID1208866339
 70
     0
  0
APPID
  5
484
330
9
100
AcDbSymbolTableRecord
100
AcDbRegAppTableRecord
  2
GEVID1208866340
 70
     0
  0
APPID
  5
485
330
9
100
AcDbSymbolTableRecord
100
AcDbRegAppTableRecord
  2
GEVID1208866341
 70
     0
  0
APPID
  5
486
330
9
100
AcDbSymbolTableRecord
100
AcDbRegAppTableRecord
  2
ACAD_PSEXT
 70
     0
  0
APPID
  5
487
330
9
100
AcDbSymbolTableRecord
100
AcDbRegAppTableRecord
  2
GEVID1208866342
 70
     0
  0
APPID
  5
488
330
9
100
AcDbSymbolTableRecord
100
AcDbRegAppTableRecord
  2
GEVID1208913836
 70
     0
  0
APPID
  5
489
330
9
100
AcDbSymbolTableRecord
100
AcDbRegAppTableRecord
  2
GEVID1208913837
 70
     0
  0
APPID
  5
48A
330
9
100
AcDbSymbolTableRecord
100
AcDbRegAppTableRecord
  2
GEVID1208913838
 70
     0
  0
APPID
  5
48B
330
9
100
AcDbSymbolTableRecord
100
AcDbRegAppTableRecord
  2
GEVID1208913839
 70
     0
  0
APPID
  5
48C
330
9
100
AcDbSymbolTableRecord
100
AcDbRegAppTableRecord
  2
GENIUS_GENDTOL_13
 70
     0
  0
APPID
  5
48D
330
9
100
AcDbSymbolTableRecord
100
AcDbRegAppTableRecord
  2
GEVID1208928889
 70
     0
  0
APPID
  5
48E
330
9
100
AcDbSymbolTableRecord
100
AcDbRegAppTableRecord
  2
GEVID1208928890
 70
     0
  0
APPID
  5
48F
330
9
100
AcDbSymbolTableRecord
100
AcDbRegAppTableRecord
  2
GEVID1208928891
 70
     0
  0
APPID
  5
490
330
9
100
AcDbSymbolTableRecord
100
AcDbRegAppTableRecord
  2
GEVID1208928892
 70
     0
  0
APPID
  5
491
330
9
100
AcDbSymbolTableRecord
100
AcDbRegAppTableRecord
  2
GEVID1208933827
 70
     0
  0
APPID
  5
492
330
9
100
AcDbSymbolTableRecord
100
AcDbRegAppTableRecord
  2
GEVID1208933829
 70
     0
  0
APPID
  5
493
330
9
100
AcDbSymbolTableRecord
100
AcDbRegAppTableRecord
  2
GEVID1208933830
 70
     0
  0
APPID
  5
494
330
9
100
AcDbSymbolTableRecord
100
AcDbRegAppTableRecord
  2
GEVID1208933831
 70
     0
  0
APPID
  5
495
330
9
100
AcDbSymbolTableRecord
100
AcDbRegAppTableRecord
  2
GEVID1208933832
 70
     0
  0
APPID
  5
496
330
9
100
AcDbSymbolTableRecord
100
AcDbRegAppTableRecord
  2
GEVID1208933833
 70
     0
  0
APPID
  5
497
330
9
100
AcDbSymbolTableRecord
100
AcDbRegAppTableRecord
  2
GEVID1208933834
 70
     0
  0
APPID
  5
498
330
9
100
AcDbSymbolTableRecord
100
AcDbRegAppTableRecord
  2
GEVID1208933835
 70
     0
  0
APPID
  5
499
330
9
100
AcDbSymbolTableRecord
100
AcDbRegAppTableRecord
  2
GEVID1208933836
 70
     0
  0
APPID
  5
49A
330
9
100
AcDbSymbolTableRecord
100
AcDbRegAppTableRecord
  2
GEVID1208933837
 70
     0
  0
APPID
  5
49B
330
9
100
AcDbSymbolTableRecord
100
AcDbRegAppTableRecord
  2
GEVID1208933838
 70
     0
  0
APPID
  5
49C
330
9
100
AcDbSymbolTableRecord
100
AcDbRegAppTableRecord
  2
GEVID1208933840
 70
     0
  0
APPID
  5
49D
330
9
100
AcDbSymbolTableRecord
100
AcDbRegAppTableRecord
  2
GEVID1208933842
 70
     0
  0
APPID
  5
49E
330
9
100
AcDbSymbolTableRecord
100
AcDbRegAppTableRecord
  2
GEVID1208933843
 70
     0
  0
APPID
  5
49F
330
9
100
AcDbSymbolTableRecord
100
AcDbRegAppTableRecord
  2
GEVID1208933844
 70
     0
  0
APPID
  5
4A0
330
9
100
AcDbSymbolTableRecord
100
AcDbRegAppTableRecord
  2
GEVID1208933845
 70
     0
  0
APPID
  5
4A1
330
9
100
AcDbSymbolTableRecord
100
AcDbRegAppTableRecord
  2
GEVID1208933846
 70
     0
  0
APPID
  5
4A2
330
9
100
AcDbSymbolTableRecord
100
AcDbRegAppTableRecord
  2
GEVID1208933847
 70
     0
  0
APPID
  5
4A3
330
9
100
AcDbSymbolTableRecord
100
AcDbRegAppTableRecord
  2
GEVID1208933848
 70
     0
  0
APPID
  5
4A4
330
9
100
AcDbSymbolTableRecord
100
AcDbRegAppTableRecord
  2
GEVID1208933849
 70
     0
  0
APPID
  5
4A5
330
9
100
AcDbSymbolTableRecord
100
AcDbRegAppTableRecord
  2
GEVID1208933850
 70
     0
  0
APPID
  5
4A6
330
9
100
AcDbSymbolTableRecord
100
AcDbRegAppTableRecord
  2
GEVID1208933851
 70
     0
  0
APPID
  5
4A7
330
9
100
AcDbSymbolTableRecord
100
AcDbRegAppTableRecord
  2
GEVID1208933852
 70
     0
  0
APPID
  5
4A8
330
9
100
AcDbSymbolTableRecord
100
AcDbRegAppTableRecord
  2
GEVID1208933853
 70
     0
  0
APPID
  5
4A9
330
9
100
AcDbSymbolTableRecord
100
AcDbRegAppTableRecord
  2
GEVID1208933854
 70
     0
  0
APPID
  5
4AA
330
9
100
AcDbSymbolTableRecord
100
AcDbRegAppTableRecord
  2
GEVID1208933855
 70
     0
  0
APPID
  5
4AB
330
9
100
AcDbSymbolTableRecord
100
AcDbRegAppTableRecord
  2
GEVID1208933856
 70
     0
  0
APPID
  5
4AC
330
9
100
AcDbSymbolTableRecord
100
AcDbRegAppTableRecord
  2
GEVID1208933857
 70
     0
  0
APPID
  5
4AD
330
9
100
AcDbSymbolTableRecord
100
AcDbRegAppTableRecord
  2
GEVID1208933858
 70
     0
  0
APPID
  5
4AE
330
9
100
AcDbSymbolTableRecord
100
AcDbRegAppTableRecord
  2
GEVID1208933859
 70
     0
  0
APPID
  5
4AF
330
9
100
AcDbSymbolTableRecord
100
AcDbRegAppTableRecord
  2
GEVID1208933860
 70
     0
  0
APPID
  5
4B0
330
9
100
AcDbSymbolTableRecord
100
AcDbRegAppTableRecord
  2
GEVID1208933861
 70
     0
  0
APPID
  5
4B1
330
9
100
AcDbSymbolTableRecord
100
AcDbRegAppTableRecord
  2
GEVID1208933862
 70
     0
  0
APPID
  5
4B2
330
9
100
AcDbSymbolTableRecord
100
AcDbRegAppTableRecord
  2
GEVID1208933863
 70
     0
  0
APPID
  5
4B3
330
9
100
AcDbSymbolTableRecord
100
AcDbRegAppTableRecord
  2
GEVID1208933864
 70
     0
  0
APPID
  5
4B4
330
9
100
AcDbSymbolTableRecord
100
AcDbRegAppTableRecord
  2
GEVID1208933865
 70
     0
  0
APPID
  5
4B5
330
9
100
AcDbSymbolTableRecord
100
AcDbRegAppTableRecord
  2
GEVID1208933866
 70
     0
  0
APPID
  5
4B6
330
9
100
AcDbSymbolTableRecord
100
AcDbRegAppTableRecord
  2
GEVID1208933867
 70
     0
  0
APPID
  5
4B7
330
9
100
AcDbSymbolTableRecord
100
AcDbRegAppTableRecord
  2
GEVID1208933868
 70
     0
  0
APPID
  5
4B8
330
9
100
AcDbSymbolTableRecord
100
AcDbRegAppTableRecord
  2
GEVID1208933869
 70
     0
  0
APPID
  5
4B9
330
9
100
AcDbSymbolTableRecord
100
AcDbRegAppTableRecord
  2
GEVID1208933870
 70
     0
  0
APPID
  5
4BA
330
9
100
AcDbSymbolTableRecord
100
AcDbRegAppTableRecord
  2
GEVID1208933871
 70
     0
  0
APPID
  5
4BB
330
9
100
AcDbSymbolTableRecord
100
AcDbRegAppTableRecord
  2
GEVID1208933872
 70
     0
  0
APPID
  5
4BC
330
9
100
AcDbSymbolTableRecord
100
AcDbRegAppTableRecord
  2
GEVID1208933873
 70
     0
  0
APPID
  5
4BD
330
9
100
AcDbSymbolTableRecord
100
AcDbRegAppTableRecord
  2
GEVID1208933874
 70
     0
  0
APPID
  5
4BE
330
9
100
AcDbSymbolTableRecord
100
AcDbRegAppTableRecord
  2
GEVID1208933875
 70
     0
  0
APPID
  5
4BF
330
9
100
AcDbSymbolTableRecord
100
AcDbRegAppTableRecord
  2
GEVID1208933876
 70
     0
  0
APPID
  5
4C0
330
9
100
AcDbSymbolTableRecord
100
AcDbRegAppTableRecord
  2
ACAD_DSTYLE_DIMRADIAL_EXTENSION
 70
     0
  0
APPID
  5
4C1
330
9
100
AcDbSymbolTableRecord
100
AcDbRegAppTableRecord
  2
GEVID1208999100
 70
     0
  0
APPID
  5
4C2
330
9
100
AcDbSymbolTableRecord
100
AcDbRegAppTableRecord
  2
GEVID1208999101
 70
     0
  0
APPID
  5
4C3
330
9
100
AcDbSymbolTableRecord
100
AcDbRegAppTableRecord
  2
GEVID1208999102
 70
     0
  0
APPID
  5
4C4
330
9
100
AcDbSymbolTableRecord
100
AcDbRegAppTableRecord
  2
GEVID1208999103
 70
     0
  0
APPID
  5
4C5
330
9
100
AcDbSymbolTableRecord
100
AcDbRegAppTableRecord
  2
GEVID1208999105
 70
     0
  0
APPID
  5
4C6
330
9
100
AcDbSymbolTableRecord
100
AcDbRegAppTableRecord
  2
GEVID1208999106
 70
     0
  0
APPID
  5
4C7
330
9
100
AcDbSymbolTableRecord
100
AcDbRegAppTableRecord
  2
GEVID1208999108
 70
     0
  0
APPID
  5
4C8
330
9
100
AcDbSymbolTableRecord
100
AcDbRegAppTableRecord
  2
GEVID1208999109
 70
     0
  0
APPID
  5
4C9
330
9
100
AcDbSymbolTableRecord
100
AcDbRegAppTableRecord
  2
GEVID1208999110
 70
     0
  0
APPID
  5
4CA
330
9
100
AcDbSymbolTableRecord
100
AcDbRegAppTableRecord
  2
GEVID1208999111
 70
     0
  0
APPID
  5
4CB
330
9
100
AcDbSymbolTableRecord
100
AcDbRegAppTableRecord
  2
GEVID1208999112
 70
     0
  0
APPID
  5
4CC
330
9
100
AcDbSymbolTableRecord
100
AcDbRegAppTableRecord
  2
GEVID1208999113
 70
     0
  0
APPID
  5
4CD
330
9
100
AcDbSymbolTableRecord
100
AcDbRegAppTableRecord
  2
GEVID1208999114
 70
     0
  0
APPID
  5
4CE
330
9
100
AcDbSymbolTableRecord
100
AcDbRegAppTableRecord
  2
GEVID1210218799
 70
     0
  0
APPID
  5
4CF
330
9
100
AcDbSymbolTableRecord
100
AcDbRegAppTableRecord
  2
GEVID1210218800
 70
     0
  0
APPID
  5
4D0
330
9
100
AcDbSymbolTableRecord
100
AcDbRegAppTableRecord
  2
GENIUS_GEFWELD_13
 70
     0
  0
APPID
  5
4D1
330
9
100
AcDbSymbolTableRecord
100
AcDbRegAppTableRecord
  2
GENIUS_GENOBJ-F-WELS_13
 70
     0
  0
APPID
  5
4D2
330
9
100
AcDbSymbolTableRecord
100
AcDbRegAppTableRecord
  2
AcadAnnotative
 70
     0
  0
APPID
  5
4D3
330
9
100
AcDbSymbolTableRecord
100
AcDbRegAppTableRecord
  2
GEVID1210145339
 70
     0
  0
APPID
  5
4D4
330
9
100
AcDbSymbolTableRecord
100
AcDbRegAppTableRecord
  2
ACAD_DSTYLE_DIMBREAK
 70
     0
  0
APPID
  5
4D5
330
9
100
AcDbSymbolTableRecord
100
AcDbRegAppTableRecord
  2
GEVID1210145340
 70
     0
  0
APPID
  5
4D6
330
9
100
AcDbSymbolTableRecord
100
AcDbRegAppTableRecord
  2
GEVID1210145341
 70
     0
  0
APPID
  5
4D7
330
9
100
AcDbSymbolTableRecord
100
AcDbRegAppTableRecord
  2
GEVID1210145342
 70
     0
  0
APPID
  5
4D8
330
9
100
AcDbSymbolTableRecord
100
AcDbRegAppTableRecord
  2
GEVID1210145343
 70
     0
  0
APPID
  5
4D9
330
9
100
AcDbSymbolTableRecord
100
AcDbRegAppTableRecord
  2
GEVID1210145344
 70
     0
  0
APPID
  5
4DA
330
9
100
AcDbSymbolTableRecord
100
AcDbRegAppTableRecord
  2
GEVID1210145345
 70
     0
  0
APPID
  5
4DB
330
9
100
AcDbSymbolTableRecord
100
AcDbRegAppTableRecord
  2
GEVID1210152816
 70
     0
  0
APPID
  5
4DC
330
9
100
AcDbSymbolTableRecord
100
AcDbRegAppTableRecord
  2
GEVID1210153850
 70
     0
  0
APPID
  5
4DD
330
9
100
AcDbSymbolTableRecord
100
AcDbRegAppTableRecord
  2
GEVID1210153851
 70
     0
  0
APPID
  5
4DE
330
9
100
AcDbSymbolTableRecord
100
AcDbRegAppTableRecord
  2
GEVID1210153852
 70
     0
  0
APPID
  5
4DF
330
9
100
AcDbSymbolTableRecord
100
AcDbRegAppTableRecord
  2
GEVID1210549898
 70
     0
  0
APPID
  5
4E0
330
9
100
AcDbSymbolTableRecord
100
AcDbRegAppTableRecord
  2
GEVID1210549899
 70
     0
  0
APPID
  5
4E1
330
9
100
AcDbSymbolTableRecord
100
AcDbRegAppTableRecord
  2
GEVID1210549900
 70
     0
  0
APPID
  5
4E2
330
9
100
AcDbSymbolTableRecord
100
AcDbRegAppTableRecord
  2
GEVID1210549901
 70
     0
  0
APPID
  5
4E3
330
9
100
AcDbSymbolTableRecord
100
AcDbRegAppTableRecord
  2
GEVID1210549902
 70
     0
  0
APPID
  5
4E4
330
9
100
AcDbSymbolTableRecord
100
AcDbRegAppTableRecord
  2
GEVID1210549903
 70
     0
  0
APPID
  5
4E5
330
9
100
AcDbSymbolTableRecord
100
AcDbRegAppTableRecord
  2
GEVID1210549904
 70
     0
  0
APPID
  5
4E6
330
9
100
AcDbSymbolTableRecord
100
AcDbRegAppTableRecord
  2
GEVID1210549905
 70
     0
  0
APPID
  5
4E7
330
9
100
AcDbSymbolTableRecord
100
AcDbRegAppTableRecord
  2
GEVID1210549906
 70
     0
  0
APPID
  5
4E8
330
9
100
AcDbSymbolTableRecord
100
AcDbRegAppTableRecord
  2
GEVID1210549907
 70
     0
  0
APPID
  5
4E9
330
9
100
AcDbSymbolTableRecord
100
AcDbRegAppTableRecord
  2
GEVID1210549908
 70
     0
  0
APPID
  5
4EA
330
9
100
AcDbSymbolTableRecord
100
AcDbRegAppTableRecord
  2
GEVID1210549909
 70
     0
  0
APPID
  5
4EB
330
9
100
AcDbSymbolTableRecord
100
AcDbRegAppTableRecord
  2
GEVID1210549910
 70
     0
  0
APPID
  5
4EC
330
9
100
AcDbSymbolTableRecord
100
AcDbRegAppTableRecord
  2
GEVID1210549911
 70
     0
  0
APPID
  5
4ED
330
9
100
AcDbSymbolTableRecord
100
AcDbRegAppTableRecord
  2
GEVID1210549912
 70
     0
  0
APPID
  5
4EE
330
9
100
AcDbSymbolTableRecord
100
AcDbRegAppTableRecord
  2
GEVID1210549913
 70
     0
  0
APPID
  5
4EF
330
9
100
AcDbSymbolTableRecord
100
AcDbRegAppTableRecord
  2
GEVID1210549914
 70
     0
  0
APPID
  5
4F0
330
9
100
AcDbSymbolTableRecord
100
AcDbRegAppTableRecord
  2
GEVID1210549915
 70
     0
  0
APPID
  5
4F1
330
9
100
AcDbSymbolTableRecord
100
AcDbRegAppTableRecord
  2
GEVID1210549916
 70
     0
  0
APPID
  5
4F2
330
9
100
AcDbSymbolTableRecord
100
AcDbRegAppTableRecord
  2
GEVID1210549917
 70
     0
  0
APPID
  5
4F3
330
9
100
AcDbSymbolTableRecord
100
AcDbRegAppTableRecord
  2
GENIUS_GENOBJ-N-CRS_13
 70
     0
  0
APPID
  5
4F4
330
9
100
AcDbSymbolTableRecord
100
AcDbRegAppTableRecord
  2
GEVID1210549918
 70
     0
  0
APPID
  5
4F5
330
9
100
AcDbSymbolTableRecord
100
AcDbRegAppTableRecord
  2
GENIUS_GENOBJ-N-CRC_13
 70
     0
  0
APPID
  5
4F6
330
9
100
AcDbSymbolTableRecord
100
AcDbRegAppTableRecord
  2
GENIUS_GENCRC_14
 70
     0
  0
APPID
  5
4F7
330
9
100
AcDbSymbolTableRecord
100
AcDbRegAppTableRecord
  2
GEVID1210549919
 70
     0
  0
APPID
  5
4F8
330
9
100
AcDbSymbolTableRecord
100
AcDbRegAppTableRecord
  2
GEVID1210549921
 70
     0
  0
APPID
  5
4F9
330
9
100
AcDbSymbolTableRecord
100
AcDbRegAppTableRecord
  2
GEVID1210549922
 70
     0
  0
APPID
  5
4FA
330
9
100
AcDbSymbolTableRecord
100
AcDbRegAppTableRecord
  2
GEVID1210635173
 70
     0
  0
APPID
  5
4FB
330
9
100
AcDbSymbolTableRecord
100
AcDbRegAppTableRecord
  2
GEVID1210635174
 70
     0
  0
APPID
  5
4FC
330
9
100
AcDbSymbolTableRecord
100
AcDbRegAppTableRecord
  2
GEVID1210635175
 70
     0
  0
APPID
  5
4FD
330
9
100
AcDbSymbolTableRecord
100
AcDbRegAppTableRecord
  2
GEVID1210635176
 70
     0
  0
APPID
  5
4FE
330
9
100
AcDbSymbolTableRecord
100
AcDbRegAppTableRecord
  2
GEVID1210635177
 70
     0
  0
APPID
  5
4FF
330
9
100
AcDbSymbolTableRecord
100
AcDbRegAppTableRecord
  2
GEVID1210635178
 70
     0
  0
APPID
  5
500
330
9
100
AcDbSymbolTableRecord
100
AcDbRegAppTableRecord
  2
GENIUS_GENIUS_GENBHEDTMP_13
 70
     0
  0
APPID
  5
501
330
9
100
AcDbSymbolTableRecord
100
AcDbRegAppTableRecord
  2
GEVID1210635179
 70
     0
  0
APPID
  5
502
330
9
100
AcDbSymbolTableRecord
100
AcDbRegAppTableRecord
  2
GEVID1210635180
 70
     0
  0
APPID
  5
503
330
9
100
AcDbSymbolTableRecord
100
AcDbRegAppTableRecord
  2
GEVID1210635181
 70
     0
  0
APPID
  5
504
330
9
100
AcDbSymbolTableRecord
100
AcDbRegAppTableRecord
  2
GEVID1210635182
 70
     0
  0
APPID
  5
505
330
9
100
AcDbSymbolTableRecord
100
AcDbRegAppTableRecord
  2
GEVID1210635184
 70
     0
  0
APPID
  5
506
330
9
100
AcDbSymbolTableRecord
100
AcDbRegAppTableRecord
  2
GEVID1210635185
 70
     0
  0
APPID
  5
507
330
9
100
AcDbSymbolTableRecord
100
AcDbRegAppTableRecord
  2
GEVID1210635186
 70
     0
  0
APPID
  5
508
330
9
100
AcDbSymbolTableRecord
100
AcDbRegAppTableRecord
  2
GEVID1210635187
 70
     0
  0
APPID
  5
509
330
9
100
AcDbSymbolTableRecord
100
AcDbRegAppTableRecord
  2
GEVID1210635188
 70
     0
  0
APPID
  5
50A
330
9
100
AcDbSymbolTableRecord
100
AcDbRegAppTableRecord
  2
GEVID1210635189
 70
     0
  0
APPID
  5
50B
330
9
100
AcDbSymbolTableRecord
100
AcDbRegAppTableRecord
  2
GEVID1210635190
 70
     0
  0
APPID
  5
50C
330
9
100
AcDbSymbolTableRecord
100
AcDbRegAppTableRecord
  2
GENIUS_GENREC_14
 70
     0
  0
APPID
  5
50D
330
9
100
AcDbSymbolTableRecord
100
AcDbRegAppTableRecord
  2
GENIUS_GENOBJ-N-REC_13
 70
     0
  0
APPID
  5
50E
330
9
100
AcDbSymbolTableRecord
100
AcDbRegAppTableRecord
  2
GEVID1210676655
 70
     0
  0
APPID
  5
50F
330
9
100
AcDbSymbolTableRecord
100
AcDbRegAppTableRecord
  2
GEVID1210676656
 70
     0
  0
APPID
  5
510
330
9
100
AcDbSymbolTableRecord
100
AcDbRegAppTableRecord
  2
GEVID1210676657
 70
     0
  0
APPID
  5
511
330
9
100
AcDbSymbolTableRecord
100
AcDbRegAppTableRecord
  2
GEVID1210676659
 70
     0
  0
APPID
  5
512
330
9
100
AcDbSymbolTableRecord
100
AcDbRegAppTableRecord
  2
GEVID1210676660
 70
     0
  0
APPID
  5
513
330
9
100
AcDbSymbolTableRecord
100
AcDbRegAppTableRecord
  2
GEVID1210676661
 70
     0
  0
APPID
  5
514
330
9
100
AcDbSymbolTableRecord
100
AcDbRegAppTableRecord
  2
GEVID1210676662
 70
     0
  0
APPID
  5
515
330
9
100
AcDbSymbolTableRecord
100
AcDbRegAppTableRecord
  2
GEVID1210721646
 70
     0
  0
APPID
  5
516
330
9
100
AcDbSymbolTableRecord
100
AcDbRegAppTableRecord
  2
GEVID1210721647
 70
     0
  0
APPID
  5
517
330
9
100
AcDbSymbolTableRecord
100
AcDbRegAppTableRecord
  2
GEVID1210721648
 70
     0
  0
APPID
  5
518
330
9
100
AcDbSymbolTableRecord
100
AcDbRegAppTableRecord
  2
GEVID1210721649
 70
     0
  0
APPID
  5
519
330
9
100
AcDbSymbolTableRecord
100
AcDbRegAppTableRecord
  2
GEVID1210721650
 70
     0
  0
APPID
  5
51A
330
9
100
AcDbSymbolTableRecord
100
AcDbRegAppTableRecord
  2
GEVID1210721651
 70
     0
  0
APPID
  5
51B
330
9
100
AcDbSymbolTableRecord
100
AcDbRegAppTableRecord
  2
GEVID1210721652
 70
     0
  0
APPID
  5
51C
330
9
100
AcDbSymbolTableRecord
100
AcDbRegAppTableRecord
  2
GEVID1210721653
 70
     0
  0
APPID
  5
51D
330
9
100
AcDbSymbolTableRecord
100
AcDbRegAppTableRecord
  2
PE_URL
 70
     0
  0
APPID
  5
51E
330
9
100
AcDbSymbolTableRecord
100
AcDbRegAppTableRecord
  2
GEVID1210825555
 70
     0
  0
APPID
  5
51F
330
9
100
AcDbSymbolTableRecord
100
AcDbRegAppTableRecord
  2
GEVID1210825556
 70
     0
  0
APPID
  5
520
330
9
100
AcDbSymbolTableRecord
100
AcDbRegAppTableRecord
  2
GEVID1210825557
 70
     0
  0
APPID
  5
521
330
9
100
AcDbSymbolTableRecord
100
AcDbRegAppTableRecord
  2
GEVID1210825558
 70
     0
  0
APPID
  5
522
330
9
100
AcDbSymbolTableRecord
100
AcDbRegAppTableRecord
  2
GEVID1210825559
 70
     0
  0
APPID
  5
523
330
9
100
AcDbSymbolTableRecord
100
AcDbRegAppTableRecord
  2
GEVID1210825560
 70
     0
  0
APPID
  5
524
330
9
100
AcDbSymbolTableRecord
100
AcDbRegAppTableRecord
  2
GEVID1210825561
 70
     0
  0
APPID
  5
525
330
9
100
AcDbSymbolTableRecord
100
AcDbRegAppTableRecord
  2
GEVID1210825562
 70
     0
  0
APPID
  5
526
330
9
100
AcDbSymbolTableRecord
100
AcDbRegAppTableRecord
  2
GEVID1210825563
 70
     0
  0
APPID
  5
527
330
9
100
AcDbSymbolTableRecord
100
AcDbRegAppTableRecord
  2
GEVID1210825564
 70
     0
  0
APPID
  5
528
330
9
100
AcDbSymbolTableRecord
100
AcDbRegAppTableRecord
  2
GEVID1210825565
 70
     0
  0
APPID
  5
529
330
9
100
AcDbSymbolTableRecord
100
AcDbRegAppTableRecord
  2
GEVID1210825566
 70
     0
  0
APPID
  5
52A
330
9
100
AcDbSymbolTableRecord
100
AcDbRegAppTableRecord
  2
GEVID1210825567
 70
     0
  0
APPID
  5
52B
330
9
100
AcDbSymbolTableRecord
100
AcDbRegAppTableRecord
  2
GENIUS_GENOBJ-N-ZOO_13
 70
     0
  0
APPID
  5
52C
330
9
100
AcDbSymbolTableRecord
100
AcDbRegAppTableRecord
  2
GENIUS_GENZOO_17
 70
     0
  0
APPID
  5
52D
330
9
100
AcDbSymbolTableRecord
100
AcDbRegAppTableRecord
  2
ACADANNOTATIVEDECOMPOSITION
 70
     0
  0
APPID
  5
52E
330
9
100
AcDbSymbolTableRecord
100
AcDbRegAppTableRecord
  2
GENIUS_GENOBJ-N-HTC_13
 70
     0
  0
APPID
  5
52F
330
9
100
AcDbSymbolTableRecord
100
AcDbRegAppTableRecord
  2
GENIUS_GENHATCH_13
 70
     0
  0
APPID
  5
530
330
9
100
AcDbSymbolTableRecord
100
AcDbRegAppTableRecord
  2
GEVID1210896020
 70
     0
  0
APPID
  5
531
330
9
100
AcDbSymbolTableRecord
100
AcDbRegAppTableRecord
  2
GEVID1210896021
 70
     0
  0
APPID
  5
532
330
9
100
AcDbSymbolTableRecord
100
AcDbRegAppTableRecord
  2
GEVID1209083540
 70
     0
  0
APPID
  5
533
330
9
100
AcDbSymbolTableRecord
100
AcDbRegAppTableRecord
  2
GEVMK
 70
     0
  0
APPID
  5
534
330
9
100
AcDbSymbolTableRecord
100
AcDbRegAppTableRecord
  2
GEVID1209083542
 70
     0
  0
APPID
  5
535
330
9
100
AcDbSymbolTableRecord
100
AcDbRegAppTableRecord
  2
GEVID1209083543
 70
     0
  0
APPID
  5
536
330
9
100
AcDbSymbolTableRecord
100
AcDbRegAppTableRecord
  2
GEVID1209083544
 70
     0
  0
APPID
  5
537
330
9
100
AcDbSymbolTableRecord
100
AcDbRegAppTableRecord
  2
GEVID1209083545
 70
     0
  0
APPID
  5
538
330
9
100
AcDbSymbolTableRecord
100
AcDbRegAppTableRecord
  2
GEVID1209083546
 70
     0
  0
APPID
  5
539
330
9
100
AcDbSymbolTableRecord
100
AcDbRegAppTableRecord
  2
GEVID1209083547
 70
     0
  0
APPID
  5
53A
330
9
100
AcDbSymbolTableRecord
100
AcDbRegAppTableRecord
  2
GEVID1209083548
 70
     0
  0
APPID
  5
53B
330
9
100
AcDbSymbolTableRecord
100
AcDbRegAppTableRecord
  2
GEVID1209083549
 70
     0
  0
APPID
  5
53C
330
9
100
AcDbSymbolTableRecord
100
AcDbRegAppTableRecord
  2
GEVID1209083550
 70
     0
  0
APPID
  5
53D
330
9
100
AcDbSymbolTableRecord
100
AcDbRegAppTableRecord
  2
GEVID1209083551
 70
     0
  0
APPID
  5
53E
330
9
100
AcDbSymbolTableRecord
100
AcDbRegAppTableRecord
  2
GEVID1209083552
 70
     0
  0
APPID
  5
53F
330
9
100
AcDbSymbolTableRecord
100
AcDbRegAppTableRecord
  2
GEVID1209083553
 70
     0
  0
APPID
  5
540
330
9
100
AcDbSymbolTableRecord
100
AcDbRegAppTableRecord
  2
GEVID1210896022
 70
     0
  0
APPID
  5
541
330
9
100
AcDbSymbolTableRecord
100
AcDbRegAppTableRecord
  2
GEVID1211508364
 70
     0
  0
APPID
  5
542
330
9
100
AcDbSymbolTableRecord
100
AcDbRegAppTableRecord
  2
GEVID1211414908
 70
     0
  0
APPID
  5
543
330
9
100
AcDbSymbolTableRecord
100
AcDbRegAppTableRecord
  2
GEVID1211414909
 70
     0
  0
APPID
  5
544
330
9
100
AcDbSymbolTableRecord
100
AcDbRegAppTableRecord
  2
GEVID1211508359
 70
     0
  0
APPID
  5
545
330
9
100
AcDbSymbolTableRecord
100
AcDbRegAppTableRecord
  2
GEVID1211508360
 70
     0
  0
APPID
  5
546
330
9
100
AcDbSymbolTableRecord
100
AcDbRegAppTableRecord
  2
GEVID1211508361
 70
     0
  0
APPID
  5
547
330
9
100
AcDbSymbolTableRecord
100
AcDbRegAppTableRecord
  2
GEVID1211508362
 70
     0
  0
APPID
  5
548
330
9
100
AcDbSymbolTableRecord
100
AcDbRegAppTableRecord
  2
GEVID1211508363
 70
     0
  0
APPID
  5
549
330
9
100
AcDbSymbolTableRecord
100
AcDbRegAppTableRecord
  2
GEVID1211878469
 70
     0
  0
APPID
  5
54A
330
9
100
AcDbSymbolTableRecord
100
AcDbRegAppTableRecord
  2
GEVID1212642819
 70
     0
  0
APPID
  5
54B
330
9
100
AcDbSymbolTableRecord
100
AcDbRegAppTableRecord
  2
GEVID1212642820
 70
     0
  0
APPID
  5
54C
330
9
100
AcDbSymbolTableRecord
100
AcDbRegAppTableRecord
  2
GEVID1212642821
 70
     0
  0
APPID
  5
54D
330
9
100
AcDbSymbolTableRecord
100
AcDbRegAppTableRecord
  2
GEVID1212642822
 70
     0
  0
APPID
  5
54E
330
9
100
AcDbSymbolTableRecord
100
AcDbRegAppTableRecord
  2
GEVID1212642823
 70
     0
  0
APPID
  5
54F
330
9
100
AcDbSymbolTableRecord
100
AcDbRegAppTableRecord
  2
GEVID1212642825
 70
     0
  0
APPID
  5
550
330
9
100
AcDbSymbolTableRecord
100
AcDbRegAppTableRecord
  2
GEVID1212642826
 70
     0
  0
APPID
  5
551
330
9
100
AcDbSymbolTableRecord
100
AcDbRegAppTableRecord
  2
GEVID1212642827
 70
     0
  0
APPID
  5
552
330
9
100
AcDbSymbolTableRecord
100
AcDbRegAppTableRecord
  2
GEVID1212642828
 70
     0
  0
APPID
  5
553
330
9
100
AcDbSymbolTableRecord
100
AcDbRegAppTableRecord
  2
GEVID1212642831
 70
     0
  0
APPID
  5
554
330
9
100
AcDbSymbolTableRecord
100
AcDbRegAppTableRecord
  2
GEVID1212642834
 70
     0
  0
APPID
  5
555
330
9
100
AcDbSymbolTableRecord
100
AcDbRegAppTableRecord
  2
GEVID1212642835
 70
     0
  0
APPID
  5
556
330
9
100
AcDbSymbolTableRecord
100
AcDbRegAppTableRecord
  2
GEVID1212642836
 70
     0
  0
APPID
  5
557
330
9
100
AcDbSymbolTableRecord
100
AcDbRegAppTableRecord
  2
GEVID1212642837
 70
     0
  0
APPID
  5
558
330
9
100
AcDbSymbolTableRecord
100
AcDbRegAppTableRecord
  2
GEVID1212642839
 70
     0
  0
APPID
  5
559
330
9
100
AcDbSymbolTableRecord
100
AcDbRegAppTableRecord
  2
GEVID1212642840
 70
     0
  0
APPID
  5
55A
330
9
100
AcDbSymbolTableRecord
100
AcDbRegAppTableRecord
  2
GEVID1212642841
 70
     0
  0
APPID
  5
55B
330
9
100
AcDbSymbolTableRecord
100
AcDbRegAppTableRecord
  2
GEVID1212655312
 70
     0
  0
APPID
  5
55C
330
9
100
AcDbSymbolTableRecord
100
AcDbRegAppTableRecord
  2
GEVID1212655313
 70
     0
  0
APPID
  5
55D
330
9
100
AcDbSymbolTableRecord
100
AcDbRegAppTableRecord
  2
GEVID1212656533
 70
     0
  0
APPID
  5
55E
330
9
100
AcDbSymbolTableRecord
100
AcDbRegAppTableRecord
  2
GEVID1212656534
 70
     0
  0
APPID
  5
55F
330
9
100
AcDbSymbolTableRecord
100
AcDbRegAppTableRecord
  2
GEVID1212656535
 70
     0
  0
APPID
  5
560
330
9
100
AcDbSymbolTableRecord
100
AcDbRegAppTableRecord
  2
GEVID1212656536
 70
     0
  0
APPID
  5
561
330
9
100
AcDbSymbolTableRecord
100
AcDbRegAppTableRecord
  2
GEVID1212656538
 70
     0
  0
APPID
  5
562
330
9
100
AcDbSymbolTableRecord
100
AcDbRegAppTableRecord
  2
GEVID1212656541
 70
     0
  0
APPID
  5
563
330
9
100
AcDbSymbolTableRecord
100
AcDbRegAppTableRecord
  2
GEVID1212656543
 70
     0
  0
APPID
  5
564
330
9
100
AcDbSymbolTableRecord
100
AcDbRegAppTableRecord
  2
GENIUS_GENOBJ-F-PFASSM_13
 70
     0
  0
APPID
  5
565
330
9
100
AcDbSymbolTableRecord
100
AcDbRegAppTableRecord
  2
GEVID1212656544
 70
     0
  0
APPID
  5
566
330
9
100
AcDbSymbolTableRecord
100
AcDbRegAppTableRecord
  2
GEVID1212656545
 70
     0
  0
APPID
  5
567
330
9
100
AcDbSymbolTableRecord
100
AcDbRegAppTableRecord
  2
GEVID1212656546
 70
     0
  0
APPID
  5
568
330
9
100
AcDbSymbolTableRecord
100
AcDbRegAppTableRecord
  2
GEVID1212656547
 70
     0
  0
APPID
  5
569
330
9
100
AcDbSymbolTableRecord
100
AcDbRegAppTableRecord
  2
GEVID1212656548
 70
     0
  0
APPID
  5
56A
330
9
100
AcDbSymbolTableRecord
100
AcDbRegAppTableRecord
  2
GEVID1212656549
 70
     0
  0
APPID
  5
56B
330
9
100
AcDbSymbolTableRecord
100
AcDbRegAppTableRecord
  2
GEVID1212656550
 70
     0
  0
APPID
  5
56C
330
9
100
AcDbSymbolTableRecord
100
AcDbRegAppTableRecord
  2
GEVID1212656552
 70
     0
  0
APPID
  5
56D
330
9
100
AcDbSymbolTableRecord
100
AcDbRegAppTableRecord
  2
GEVID1212656553
 70
     0
  0
APPID
  5
56E
330
9
100
AcDbSymbolTableRecord
100
AcDbRegAppTableRecord
  2
GEVID1212656554
 70
     0
  0
APPID
  5
56F
330
9
100
AcDbSymbolTableRecord
100
AcDbRegAppTableRecord
  2
GEVID1212656555
 70
     0
  0
APPID
  5
570
330
9
100
AcDbSymbolTableRecord
100
AcDbRegAppTableRecord
  2
GEVID1212656556
 70
     0
  0
APPID
  5
571
330
9
100
AcDbSymbolTableRecord
100
AcDbRegAppTableRecord
  2
GEVID1212656557
 70
     0
  0
APPID
  5
572
330
9
100
AcDbSymbolTableRecord
100
AcDbRegAppTableRecord
  2
GEVID1212656559
 70
     0
  0
APPID
  5
573
330
9
100
AcDbSymbolTableRecord
100
AcDbRegAppTableRecord
  2
GEVID1212656560
 70
     0
  0
APPID
  5
574
330
9
100
AcDbSymbolTableRecord
100
AcDbRegAppTableRecord
  2
GEVID1212656561
 70
     0
  0
APPID
  5
575
330
9
100
AcDbSymbolTableRecord
100
AcDbRegAppTableRecord
  2
GEVID1212656562
 70
     0
  0
APPID
  5
576
330
9
100
AcDbSymbolTableRecord
100
AcDbRegAppTableRecord
  2
GEVID1212656563
 70
     0
  0
APPID
  5
577
330
9
100
AcDbSymbolTableRecord
100
AcDbRegAppTableRecord
  2
GEVID1212711781
 70
     0
  0
APPID
  5
578
330
9
100
AcDbSymbolTableRecord
100
AcDbRegAppTableRecord
  2
GEVID1212711782
 70
     0
  0
APPID
  5
579
330
9
100
AcDbSymbolTableRecord
100
AcDbRegAppTableRecord
  2
GEVID1212711783
 70
     0
  0
APPID
  5
57A
330
9
100
AcDbSymbolTableRecord
100
AcDbRegAppTableRecord
  2
GEVID1212711784
 70
     0
  0
APPID
  5
57B
330
9
100
AcDbSymbolTableRecord
100
AcDbRegAppTableRecord
  2
GEVID1212711788
 70
     0
  0
APPID
  5
57C
330
9
100
AcDbSymbolTableRecord
100
AcDbRegAppTableRecord
  2
GEVID1212711789
 70
     0
  0
APPID
  5
57D
330
9
100
AcDbSymbolTableRecord
100
AcDbRegAppTableRecord
  2
GEVID1212711790
 70
     0
  0
APPID
  5
57E
330
9
100
AcDbSymbolTableRecord
100
AcDbRegAppTableRecord
  2
GEVID1212711791
 70
     0
  0
APPID
  5
57F
330
9
100
AcDbSymbolTableRecord
100
AcDbRegAppTableRecord
  2
GEVID1212711792
 70
     0
  0
APPID
  5
580
330
9
100
AcDbSymbolTableRecord
100
AcDbRegAppTableRecord
  2
GEVID1212711793
 70
     0
  0
APPID
  5
581
330
9
100
AcDbSymbolTableRecord
100
AcDbRegAppTableRecord
  2
GEVID1212711794
 70
     0
  0
APPID
  5
582
330
9
100
AcDbSymbolTableRecord
100
AcDbRegAppTableRecord
  2
GEVID1212711795
 70
     0
  0
APPID
  5
583
330
9
100
AcDbSymbolTableRecord
100
AcDbRegAppTableRecord
  2
GEVID1212711797
 70
     0
  0
APPID
  5
584
330
9
100
AcDbSymbolTableRecord
100
AcDbRegAppTableRecord
  2
GEVID1212711798
 70
     0
  0
APPID
  5
585
330
9
100
AcDbSymbolTableRecord
100
AcDbRegAppTableRecord
  2
GEVID1212711799
 70
     0
  0
APPID
  5
586
330
9
100
AcDbSymbolTableRecord
100
AcDbRegAppTableRecord
  2
GEVID1212711800
 70
     0
  0
APPID
  5
587
330
9
100
AcDbSymbolTableRecord
100
AcDbRegAppTableRecord
  2
GEVID1212711801
 70
     0
  0
APPID
  5
588
330
9
100
AcDbSymbolTableRecord
100
AcDbRegAppTableRecord
  2
GEVID1212711802
 70
     0
  0
APPID
  5
589
330
9
100
AcDbSymbolTableRecord
100
AcDbRegAppTableRecord
  2
GEVID1212711803
 70
     0
  0
APPID
  5
58A
330
9
100
AcDbSymbolTableRecord
100
AcDbRegAppTableRecord
  2
GEVID1212711804
 70
     0
  0
APPID
  5
58B
330
9
100
AcDbSymbolTableRecord
100
AcDbRegAppTableRecord
  2
GEVID1212711805
 70
     0
  0
APPID
  5
58C
330
9
100
AcDbSymbolTableRecord
100
AcDbRegAppTableRecord
  2
GEVID1212711806
 70
     0
  0
APPID
  5
58D
330
9
100
AcDbSymbolTableRecord
100
AcDbRegAppTableRecord
  2
GEVID1212711807
 70
     0
  0
APPID
  5
58E
330
9
100
AcDbSymbolTableRecord
100
AcDbRegAppTableRecord
  2
GEVID1212711808
 70
     0
  0
APPID
  5
58F
330
9
100
AcDbSymbolTableRecord
100
AcDbRegAppTableRecord
  2
GEVID1212711809
 70
     0
  0
APPID
  5
590
330
9
100
AcDbSymbolTableRecord
100
AcDbRegAppTableRecord
  2
GEVID1212711810
 70
     0
  0
APPID
  5
591
330
9
100
AcDbSymbolTableRecord
100
AcDbRegAppTableRecord
  2
GEVID1212711811
 70
     0
  0
APPID
  5
90A
330
9
100
AcDbSymbolTableRecord
100
AcDbRegAppTableRecord
  2
GENIUS_GENTRA_14
 70
     0
  0
APPID
  5
919
330
9
100
AcDbSymbolTableRecord
100
AcDbRegAppTableRecord
  2
GENIUS_GENOBJ-N-TIT_13
 70
     0
  0
APPID
  5
91A
330
9
100
AcDbSymbolTableRecord
100
AcDbRegAppTableRecord
  2
GENIUS_GENTITLE_13
 70
     0
  0
APPID
  5
949
330
9
100
AcDbSymbolTableRecord
100
AcDbRegAppTableRecord
  2
GENIUS_GENBLLY_14
 70
     0
  0
APPID
  5
DDD
330
9
100
AcDbSymbolTableRecord
100
AcDbRegAppTableRecord
  2
GEVID1213165152
 70
     0
  0
APPID
  5
12F9
330
9
100
AcDbSymbolTableRecord
100
AcDbRegAppTableRecord
  2
AcDbDynamicBlockTrueName
 70
     0
  0
APPID
  5
12FA
330
9
100
AcDbSymbolTableRecord
100
AcDbRegAppTableRecord
  2
ACDBBLOCKREPETAG
 70
     0
  0
APPID
  5
1C15
330
9
100
AcDbSymbolTableRecord
100
AcDbRegAppTableRecord
  2
GEVID1214872427
 70
     0
  0
APPID
  5
1C2A
330
9
100
AcDbSymbolTableRecord
100
AcDbRegAppTableRecord
  2
GEVID1214872428
 70
     0
  0
APPID
  5
1C2F
330
9
100
AcDbSymbolTableRecord
100
AcDbRegAppTableRecord
  2
GEVID1214872429
 70
     0
  0
APPID
  5
1C33
330
9
100
AcDbSymbolTableRecord
100
AcDbRegAppTableRecord
  2
GEVID1214872430
 70
     0
  0
APPID
  5
1C3F
330
9
100
AcDbSymbolTableRecord
100
AcDbRegAppTableRecord
  2
GEVID1214872432
 70
     0
  0
APPID
  5
1C4E
330
9
100
AcDbSymbolTableRecord
100
AcDbRegAppTableRecord
  2
GEVID1214872433
 70
     0
  0
APPID
  5
20DC
330
9
100
AcDbSymbolTableRecord
100
AcDbRegAppTableRecord
  2
AcDbDynamicBlockGUID
 70
     0
  0
APPID
  5
20FD
330
9
100
AcDbSymbolTableRecord
100
AcDbRegAppTableRecord
  2
GENIUS_GENOBJ-N-REV_13
 70
     0
  0
APPID
  5
20FE
330
9
100
AcDbSymbolTableRecord
100
AcDbRegAppTableRecord
  2
GENIUS_GENOBJ-N-RSSYM_13
 70
     0
  0
APPID
  5
20FF
330
9
100
AcDbSymbolTableRecord
100
AcDbRegAppTableRecord
  2
GENIUS_GENSYMENT_13
 70
     0
  0
APPID
  5
2100
330
9
100
AcDbSymbolTableRecord
100
AcDbRegAppTableRecord
  2
GENIUS_GENSCSYM_13
 70
     0
  0
ENDTAB
  0
TABLE
  2
DIMSTYLE
  5
A
330
0
100
AcDbSymbolTable
 70
    29
100
AcDbDimStyleTable
 71
     1
340
5AB
  0
DIMSTYLE
105
5AB
330
A
100
AcDbSymbolTableRecord
100
AcDbDimStyleTableRecord
  2
SEISA
 70
     0
  4
"
 41
2.5
 42
0.625
 43
10.0
 44
0.625
 47
0.1
 48
0.1
 73
     0
 74
     0
 77
     3
 78
     8
 79
     2
 90
     1
140
3.5
141
0.0
143
0.0393701
146
0.71
147
1.5
172
     1
176
     3
177
     3
178
     3
271
     2
272
     3
283
     0
286
     8
340
5D5
341
69
342
69
371
    -1
372
    -1
1001
ACAD_DSTYLE_DIMJAG
1070
   388
1040
1.5
1001
ACAD_DSTYLE_DIMTALN
1070
   392
1070
     1
  0
DIMSTYLE
105
5E9
102
{ACAD_REACTORS
330
4657
330
467C
330
4694
330
46AC
330
478D
330
4868
330
4880
330
4898
330
48DF
330
4900
330
491C
330
57A6
330
57CA
330
587B
330
593F
102
}
330
A
100
AcDbSymbolTableRecord
100
AcDbDimStyleTableRecord
  2
SEISA$0
 70
     0
  4
"
 41
2.5
 42
0.625
 43
10.0
 44
0.625
 47
0.1
 48
0.1
 73
     0
 74
     0
 77
     3
 78
     8
 79
     2
 90
     1
140
3.5
141
0.0
143
0.0393701
146
0.71
147
1.5
172
     1
176
     3
177
     3
178
     3
271
     2
272
     3
283
     0
286
     8
340
5D5
341
69
342
69
371
    -1
372
    -1
  0
DIMSTYLE
105
5BBD
330
A
100
AcDbSymbolTableRecord
100
AcDbDimStyleTableRecord
  2
AM_ISO
 70
     0
  4
"
 41
2.5
 42
1.0
 43
10.0
 44
1.0
 47
0.1
 48
0.1
 73
     0
 74
     0
 77
     1
 78
     8
 79
     2
 90
     1
140
3.5
141
0.0
143
0.0393701
146
0.71
147
1.5
172
     1
176
   256
177
   256
178
     2
271
     2
272
     3
274
     4
283
     0
284
     8
340
11
371
    -1
372
    -1
  0
DIMSTYLE
105
5BBE
330
A
100
AcDbSymbolTableRecord
100
AcDbDimStyleTableRecord
  2
AM_ISO$3
 70
     0
  4
"
 41
2.5
 42
1.0
 43
10.0
 44
1.0
 47
0.1
 48
0.1
 73
     0
 77
     1
 78
     8
 79
     2
 90
     1
140
3.5
141
0.0
143
0.0393701
146
0.71
147
1.5
176
   256
177
   256
178
     2
271
     2
272
     3
274
     4
283
     0
284
     8
288
     1
289
     0
340
11
371
    -1
372
    -1
  0
DIMSTYLE
105
5BBF
330
A
100
AcDbSymbolTableRecord
100
AcDbDimStyleTableRecord
  2
AM_ISO$4
 70
     0
  4
"
 41
2.5
 42
1.0
 43
10.0
 44
1.0
 47
0.1
 48
0.1
 73
     0
 77
     1
 78
     8
 79
     2
 90
     1
140
3.5
141
0.0
143
0.0393701
146
0.71
147
1.5
176
   256
177
   256
178
     2
271
     2
272
     3
274
     4
283
     0
284
     8
288
     1
289
     0
340
11
371
    -1
372
    -1
  0
DIMSTYLE
105
5BC0
330
A
100
AcDbSymbolTableRecord
100
AcDbDimStyleTableRecord
  2
AM_ISO$6
 70
     0
  4
"
 41
2.5
 42
1.0
 43
10.0
 44
1.0
 47
0.1
 48
0.1
 73
     0
 74
     0
 78
     8
 79
     2
 90
     1
140
3.5
141
0.0
143
0.0393701
146
0.71
147
1.5
172
     1
176
   256
177
   256
178
     2
271
     2
272
     3
274
     4
283
     0
284
     8
340
11
371
    -1
372
    -1
  0
DIMSTYLE
105
5BC1
330
A
100
AcDbSymbolTableRecord
100
AcDbDimStyleTableRecord
  2
AM_ISO$7
 70
     0
  4
"
 41
2.5
 42
1.0
 43
10.0
 44
1.0
 47
0.1
 48
0.1
 73
     0
 74
     0
 77
     1
 78
     8
 79
     2
 90
     1
140
5.0
141
0.0
143
0.0393701
146
0.71
147
1.5
172
     1
176
   256
177
   256
178
     2
271
     2
272
     3
274
     4
283
     0
284
     8
340
11
371
    -1
372
    -1
  0
DIMSTYLE
105
5BC2
330
A
100
AcDbSymbolTableRecord
100
AcDbDimStyleTableRecord
  2
AM_ISO$SF
 70
     0
  4
"
 41
2.5
 42
1.0
 43
10.0
 44
1.0
 47
0.1
 48
0.1
 73
     0
 74
     0
 75
     1
 76
     1
 77
     1
 78
     8
 79
     2
 90
     1
140
3.5
141
0.0
143
0.0393701
146
0.71
147
1.5
172
     1
176
   256
177
   256
178
     2
271
     2
272
     3
274
     4
283
     0
284
     8
340
11
371
    -1
372
    -1
  0
DIMSTYLE
105
5BC3
330
A
100
AcDbSymbolTableRecord
100
AcDbDimStyleTableRecord
  2
AM_ISO$SH
 70
     0
  4
"
 41
2.5
 42
1.0
 43
10.0
 44
1.0
 47
0.1
 48
0.1
 73
     0
 74
     0
 75
     1
 76
     1
 77
     1
 78
     8
 79
     2
 90
     1
140
3.5
141
0.0
143
0.0393701
144
2.0
146
0.71
147
1.5
172
     1
173
     1
176
   256
177
   256
178
     2
271
     2
272
     3
274
     4
283
     0
284
     8
340
11
343
74
371
    -1
372
    -1
  0
ENDTAB
  0
TABLE
  2
BLOCK_RECORD
  5
1
330
0
100
AcDbSymbolTable
 70
    31
  0
BLOCK_RECORD
  5
1F
102
{ACAD_XDICTIONARY
360
82
102
}
330
1
100
AcDbSymbolTableRecord
100
AcDbBlockTableRecord
  2
*Model_Space
340
22
 70
     0
280
     1
281
     0
  0
BLOCK_RECORD
  5
1B
330
1
100
AcDbSymbolTableRecord
100
AcDbBlockTableRecord
  2
*Paper_Space
340
1E
 70
     0
280
     1
281
     0
  0
BLOCK_RECORD
  5
23
330
1
100
AcDbSymbolTableRecord
100
AcDbBlockTableRecord
  2
*Paper_Space0
340
26
 70
     0
280
     1
281
     0
  0
BLOCK_RECORD
  5
69
330
1
100
AcDbSymbolTableRecord
100
AcDbBlockTableRecord
  2
_Open30
340
0
102
{BLKREFS
331
479E
331
479F
331
48BC
331
48BD
331
48C5
331
48C6
331
48CE
331
48CF
331
48D7
331
48D8
331
48FA
331
48FB
331
492D
331
492E
331
55AC
331
55D0
331
5837
331
5838
331
58A8
331
58A9
331
58B4
331
58B5
331
596B
331
596C
331
599E
331
599F
331
59D5
331
59D6
102
}
 70
     0
280
     1
281
     0
  0
BLOCK_RECORD
  5
74
330
1
100
AcDbSymbolTableRecord
100
AcDbBlockTableRecord
  2
GENAXEH
340
0
 70
     0
280
     1
281
     0
  0
BLOCK_RECORD
  5
2A89
102
{ACAD_XDICTIONARY
360
2A8A
102
}
330
1
100
AcDbSymbolTableRecord
100
AcDbBlockTableRecord
  2
ジュウジマルコネジ
340
0
310
2800000020000000200000000100080000000000000400000000000000000000000000000000000000000000000080000080000000808000800000008000800080800000C0C0C000C0DCC000F0CAA6000020400000206000002080000020A0000020C0000020E00000400000004020000040400000406000004080000040A0
310
000040C0000040E00000600000006020000060400000606000006080000060A0000060C0000060E00000800000008020000080400000806000008080000080A0000080C0000080E00000A0000000A0200000A0400000A0600000A0800000A0A00000A0C00000A0E00000C0000000C0200000C0400000C0600000C0800000C0
310
A00000C0C00000C0E00000E0000000E0200000E0400000E0600000E0800000E0A00000E0C00000E0E00040000000400020004000400040006000400080004000A0004000C0004000E00040200000402020004020400040206000402080004020A0004020C0004020E000404000004040200040404000404060004040800040
310
40A0004040C0004040E00040600000406020004060400040606000406080004060A0004060C0004060E00040800000408020004080400040806000408080004080A0004080C0004080E00040A0000040A0200040A0400040A0600040A0800040A0A00040A0C00040A0E00040C0000040C0200040C0400040C0600040C08000
310
40C0A00040C0C00040C0E00040E0000040E0200040E0400040E0600040E0800040E0A00040E0C00040E0E00080000000800020008000400080006000800080008000A0008000C0008000E00080200000802020008020400080206000802080008020A0008020C0008020E00080400000804020008040400080406000804080
310
008040A0008040C0008040E00080600000806020008060400080606000806080008060A0008060C0008060E00080800000808020008080400080806000808080008080A0008080C0008080E00080A0000080A0200080A0400080A0600080A0800080A0A00080A0C00080A0E00080C0000080C0200080C0400080C0600080C0
310
800080C0A00080C0C00080C0E00080E0000080E0200080E0400080E0600080E0800080E0A00080E0C00080E0E000C0000000C0002000C0004000C0006000C0008000C000A000C000C000C000E000C0200000C0202000C0204000C0206000C0208000C020A000C020C000C020E000C0400000C0402000C0404000C0406000C0
310
408000C040A000C040C000C040E000C0600000C0602000C0604000C0606000C0608000C060A000C060C000C060E000C0800000C0802000C0804000C0806000C0808000C080A000C080C000C080E000C0A00000C0A02000C0A04000C0A06000C0A08000C0A0A000C0A0C000C0A0E000C0C00000C0C02000C0C04000C0C06000
310
C0C08000C0C0A000F0FBFF00A4A0A000808080000000FF0000FF000000FFFF00FF000000FF00FF00FFFF0000FFFFFF00000000000000000000000000000000000000000000000000000000000000000000000000000000000000FFFFFFFF00000000000000000000000000000000000000000000000000000000FF00000000
310
000000000000000000000000000000000000000000000000000000FF00000000000000000000000000000000000000000000000000000000000000FF00000000000000000000000000000000000000000000000000000000000000FF0000000000000000000000000000000000000000000000000000000000FFFFFF000000
310
00000000000000000000000000000000000000000000000000FF0000FF000000000000000000000000000000000000000000000000000000FF000000FF0000000000000000000000000000000000000000000000000000FF00000000FFFFFFFF00000000000000000000000000000000000000000000FF0000000000FFFFFF
310
FFFFFFFFFFFFFFFFFFFFFF000000000000000000000000FF0000000000FEFEFEFEFEFEFEFEFEFEFEFEFEFEFEFF000000000000000000FFFF0000000000FF000000000000000000000000FF00FF000000000000000000FF000000000000FF000000000000000000000000FF00FF000000000000000000FF000000000000FF00
310
0000000000000000000000FF00FF000000000000000000FF000000000000FF000000000000000000000000FF00FF0000000000000000F9FFF9F9F9F9F9F9FFF9F9F9F9F9F9F9F9F9F9F9F9FFF9FFF9F9F9F90000000000FF000000000000FF000000000000000000000000FF00FF000000000000000000FF000000000000FF
310
000000000000000000000000FF00FF000000000000000000FFFF0000000000FF000000000000000000000000FF00FF00000000000000000000FF0000000000FEFEFEFEFEFEFEFEFEFEFEFEFEFFFEFF00000000000000000000FF0000000000FFFFFFFFFFFFFFFFFFFFFFFFFFFFFF000000000000000000000000FF00000000
310
FFFFFFFF000000000000000000000000000000000000000000000000FF000000FF00000000000000000000000000000000000000000000000000000000FF0000FF0000000000000000000000000000000000000000000000000000000000FFFFFF000000000000000000000000000000000000000000000000000000000000
310
00FF00000000000000000000000000000000000000000000000000000000000000FF00000000000000000000000000000000000000000000000000000000000000FF00000000000000000000000000000000000000000000000000000000000000FF0000000000000000000000000000000000000000000000000000000000
310
0000FFFFFFFF0000000000000000000000000000000000000000000000000000000000000000000000000000000000000000000000000000
102
{BLKREFS
331
43D1
102
}
 70
     4
280
     1
281
     1
  0
BLOCK_RECORD
  5
40EE
102
{ACAD_XDICTIONARY
360
4E5F
102
}
330
1
100
AcDbSymbolTableRecord
100
AcDbBlockTableRecord
  2
センタＡ SMVH140
340
0
310
2800000020000000200000000100080000000000000400000000000000000000000000000000000000000000000080000080000000808000800000008000800080800000C0C0C000C0DCC000F0CAA6000020400000206000002080000020A0000020C0000020E00000400000004020000040400000406000004080000040A0
310
000040C0000040E00000600000006020000060400000606000006080000060A0000060C0000060E00000800000008020000080400000806000008080000080A0000080C0000080E00000A0000000A0200000A0400000A0600000A0800000A0A00000A0C00000A0E00000C0000000C0200000C0400000C0600000C0800000C0
310
A00000C0C00000C0E00000E0000000E0200000E0400000E0600000E0800000E0A00000E0C00000E0E00040000000400020004000400040006000400080004000A0004000C0004000E00040200000402020004020400040206000402080004020A0004020C0004020E000404000004040200040404000404060004040800040
310
40A0004040C0004040E00040600000406020004060400040606000406080004060A0004060C0004060E00040800000408020004080400040806000408080004080A0004080C0004080E00040A0000040A0200040A0400040A0600040A0800040A0A00040A0C00040A0E00040C0000040C0200040C0400040C0600040C08000
310
40C0A00040C0C00040C0E00040E0000040E0200040E0400040E0600040E0800040E0A00040E0C00040E0E00080000000800020008000400080006000800080008000A0008000C0008000E00080200000802020008020400080206000802080008020A0008020C0008020E00080400000804020008040400080406000804080
310
008040A0008040C0008040E00080600000806020008060400080606000806080008060A0008060C0008060E00080800000808020008080400080806000808080008080A0008080C0008080E00080A0000080A0200080A0400080A0600080A0800080A0A00080A0C00080A0E00080C0000080C0200080C0400080C0600080C0
310
800080C0A00080C0C00080C0E00080E0000080E0200080E0400080E0600080E0800080E0A00080E0C00080E0E000C0000000C0002000C0004000C0006000C0008000C000A000C000C000C000E000C0200000C0202000C0204000C0206000C0208000C020A000C020C000C020E000C0400000C0402000C0404000C0406000C0
310
408000C040A000C040C000C040E000C0600000C0602000C0604000C0606000C0608000C060A000C060C000C060E000C0800000C0802000C0804000C0806000C0808000C080A000C080C000C080E000C0A00000C0A02000C0A04000C0A06000C0A08000C0A0A000C0A0C000C0A0E000C0C00000C0C02000C0C04000C0C06000
310
C0C08000C0C0A000F0FBFF00A4A0A000808080000000FF0000FF000000FFFF00FF000000FF00FF00FFFF0000FFFFFF0000000000000000000000000000000000000000000000000000000000000000000000000000000000000000000000000000000000000000000000000000000000000000000000000000000000000000
310
00000000000000000000000000000000000000000000000000000000000000000000000000000000000000000000000000000000000000FFFFFFFFFFFFFFFFFFFFFFFFFFFFFFFFFFFFFFFFFFFFFFFF00000000000000FF0000000000FFFFFFFFFFFFFF000000000000000000000000FF000000000000FF0000000000FFFF00
310
00000000000000000000000000000000FF000000000000FF0000000000FFFF0000000000000000000000000000000000FF000000000000FF0000000000FFFF0000000000000000000000000000000000FF000000000000FF0000000000FFFF0000000000000000000000000000000000FF000000000000FF0000000000FFFF
310
0000000000000000000000000000000000FF000000000000FF0000000000FFFF0000000000000000000000000000000000FF000000000000FF0000000000FFFF0000000000000000000000000000000000FF000000000000FF0000000000FFFF0000000000000000000000000000000000FF000000000000FF0000000000FF
310
FF000000000000000000000000000000000000000000000000FF0000000000FFFF000000000000000000000000000000000000000000000000FF0000000000FFFF00000000000000000000000000000000000000000000F900FF0000000000FFFF000000000000000000000000000000000000000000FFFFFFFF0000000000
310
FFFF000000000000000000000000000000000000000000FFF9FF000000000000FFFF0000000000000000000000000000000000000000F9F9F9F9000000000000FFFF000000000000000000000000000000000000000000FFF9FF000000000000FFFF000000000000000000000000000000000000000000FFFFFFFF00000000
310
00FFFF00000000000000000000000000000000000000000000F900FF0000000000FFFF000000000000000000000000000000000000000000000000FF0000000000FFFF000000000000000000000000000000000000000000000000FF0000000000FFFF000000000000000000000000000000000000000000000000FF000000
310
0000FFFF000000000000000000000000000000000000000000000000FFFFFFFFFFFFFFFFFFFFFFFFFF0000000000000000000000000000000000000000000000000000000000000000000000000000000000000000000000000000000000000000000000000000000000000000000000000000000000000000000000000000
310
0000000000000000000000000000000000000000000000000000000000000000000000000000000000000000000000000000000000000000
102
{BLKREFS
331
4107
102
}
 70
     4
280
     1
281
     1
  0
BLOCK_RECORD
  5
4185
102
{ACAD_XDICTIONARY
360
423B
102
}
330
1
100
AcDbSymbolTableRecord
100
AcDbBlockTableRecord
  2
ケースＡ SMVH140
340
0
310
2800000020000000200000000100080000000000000400000000000000000000000000000000000000000000000080000080000000808000800000008000800080800000C0C0C000C0DCC000F0CAA6000020400000206000002080000020A0000020C0000020E00000400000004020000040400000406000004080000040A0
310
000040C0000040E00000600000006020000060400000606000006080000060A0000060C0000060E00000800000008020000080400000806000008080000080A0000080C0000080E00000A0000000A0200000A0400000A0600000A0800000A0A00000A0C00000A0E00000C0000000C0200000C0400000C0600000C0800000C0
310
A00000C0C00000C0E00000E0000000E0200000E0400000E0600000E0800000E0A00000E0C00000E0E00040000000400020004000400040006000400080004000A0004000C0004000E00040200000402020004020400040206000402080004020A0004020C0004020E000404000004040200040404000404060004040800040
310
40A0004040C0004040E00040600000406020004060400040606000406080004060A0004060C0004060E00040800000408020004080400040806000408080004080A0004080C0004080E00040A0000040A0200040A0400040A0600040A0800040A0A00040A0C00040A0E00040C0000040C0200040C0400040C0600040C08000
310
40C0A00040C0C00040C0E00040E0000040E0200040E0400040E0600040E0800040E0A00040E0C00040E0E00080000000800020008000400080006000800080008000A0008000C0008000E00080200000802020008020400080206000802080008020A0008020C0008020E00080400000804020008040400080406000804080
310
008040A0008040C0008040E00080600000806020008060400080606000806080008060A0008060C0008060E00080800000808020008080400080806000808080008080A0008080C0008080E00080A0000080A0200080A0400080A0600080A0800080A0A00080A0C00080A0E00080C0000080C0200080C0400080C0600080C0
310
800080C0A00080C0C00080C0E00080E0000080E0200080E0400080E0600080E0800080E0A00080E0C00080E0E000C0000000C0002000C0004000C0006000C0008000C000A000C000C000C000E000C0200000C0202000C0204000C0206000C0208000C020A000C020C000C020E000C0400000C0402000C0404000C0406000C0
310
408000C040A000C040C000C040E000C0600000C0602000C0604000C0606000C0608000C060A000C060C000C060E000C0800000C0802000C0804000C0806000C0808000C080A000C080C000C080E000C0A00000C0A02000C0A04000C0A06000C0A08000C0A0A000C0A0C000C0A0E000C0C00000C0C02000C0C04000C0C06000
310
C0C08000C0C0A000F0FBFF00A4A0A000808080000000FF0000FF000000FFFF00FF000000FF00FF00FFFF0000FFFFFF0000000000000000000000000000000000000000000000000000000000000000000000000000000000000000000000000000000000000000000000000000000000000000000000000000000000000000
310
00000000000000000000000000000000000000000000000000000000000000000000000000000000000000000000000000000000000000000000000000000000000000000000000000000000000000000000000000000000000000000000000000000000000000000000000000000000000000000000000000000000000000
310
0000000000000000000000000000000000000000000000000000000000000000000000000000000000000000000000000000000000000000FFFFFF00000000000000FFFFFFFFFFFFFFFFFFFFFF00000000000000000000FF00FFFF0000000000000000000000000000000000FF00000000000000000000FF00FFFF00000000
310
00000000000000000000000000FF00000000000000000000FFFFA4FF0000000000000000000000000000000000FF00000000000000000000FFFFA4000000000000000000000000000000000000FF00000000000000000000FFFFA4000000000000000000000000000000000000FF00000000000000000000FFFFFFFF000000
310
0000000000000000000000000000FF00F90000000000FFFEFFFFFFF90000000000000000FFFFFFFFFFFFFFFFFFFFFFFFFFFFFF0000F9FFFEF9F9FF000000000000000000000000000000000000000000F900FF000000FFFFFFFFFF000000000000000000000000000000000000000000F900FF000000FF0000FFFF00000000
310
0000000000FFFFFFFFFFFFFFFFFFFFFFFFFFFFFF0000000000000000000000000000000000000000000000000000000000F900000000000000000000000000000000000000000000000000000000000000F900000000000000000000000000000000000000000000000000000000000000F900000000000000000000000000
310
000000000000000000000000000000000000F900000000000000000000000000000000000000000000000000000000000000F900000000000000000000000000000000000000000000000000000000000000000000000000000000000000000000000000000000000000000000000000000000000000000000000000000000
310
00000000000000000000000000000000000000000000000000000000000000000000000000000000000000000000000000000000000000000000000000000000000000000000000000000000000000000000000000000000000000000000000000000000000000000000000000000000000000000000000000000000000000
310
0000000000000000000000000000000000000000000000000000000000000000000000000000000000000000000000000000000000000000
102
{BLKREFS
331
41BE
102
}
 70
     4
280
     1
281
     1
  0
BLOCK_RECORD
  5
426F
102
{ACAD_XDICTIONARY
360
51C2
102
}
330
1
100
AcDbSymbolTableRecord
100
AcDbBlockTableRecord
  2
センタB SMVH140
340
0
310
2800000020000000200000000100080000000000000400000000000000000000000000000000000000000000000080000080000000808000800000008000800080800000C0C0C000C0DCC000F0CAA6000020400000206000002080000020A0000020C0000020E00000400000004020000040400000406000004080000040A0
310
000040C0000040E00000600000006020000060400000606000006080000060A0000060C0000060E00000800000008020000080400000806000008080000080A0000080C0000080E00000A0000000A0200000A0400000A0600000A0800000A0A00000A0C00000A0E00000C0000000C0200000C0400000C0600000C0800000C0
310
A00000C0C00000C0E00000E0000000E0200000E0400000E0600000E0800000E0A00000E0C00000E0E00040000000400020004000400040006000400080004000A0004000C0004000E00040200000402020004020400040206000402080004020A0004020C0004020E000404000004040200040404000404060004040800040
310
40A0004040C0004040E00040600000406020004060400040606000406080004060A0004060C0004060E00040800000408020004080400040806000408080004080A0004080C0004080E00040A0000040A0200040A0400040A0600040A0800040A0A00040A0C00040A0E00040C0000040C0200040C0400040C0600040C08000
310
40C0A00040C0C00040C0E00040E0000040E0200040E0400040E0600040E0800040E0A00040E0C00040E0E00080000000800020008000400080006000800080008000A0008000C0008000E00080200000802020008020400080206000802080008020A0008020C0008020E00080400000804020008040400080406000804080
310
008040A0008040C0008040E00080600000806020008060400080606000806080008060A0008060C0008060E00080800000808020008080400080806000808080008080A0008080C0008080E00080A0000080A0200080A0400080A0600080A0800080A0A00080A0C00080A0E00080C0000080C0200080C0400080C0600080C0
310
800080C0A00080C0C00080C0E00080E0000080E0200080E0400080E0600080E0800080E0A00080E0C00080E0E000C0000000C0002000C0004000C0006000C0008000C000A000C000C000C000E000C0200000C0202000C0204000C0206000C0208000C020A000C020C000C020E000C0400000C0402000C0404000C0406000C0
310
408000C040A000C040C000C040E000C0600000C0602000C0604000C0606000C0608000C060A000C060C000C060E000C0800000C0802000C0804000C0806000C0808000C080A000C080C000C080E000C0A00000C0A02000C0A04000C0A06000C0A08000C0A0A000C0A0C000C0A0E000C0C00000C0C02000C0C04000C0C06000
310
C0C08000C0C0A000F0FBFF00A4A0A000808080000000FF0000FF000000FFFF00FF000000FF00FF00FFFF0000FFFFFF0000000000000000000000000000000000000000000000000000000000000000000000000000000000000000000000000000000000000000000000000000000000000000000000000000000000000000
310
000000000000000000000000000000000000000000000000000000000000000000000000000000000000000000000000000000000000FFFFFFFFFFFFFFFFFFFFFFFFFF00000000000000000000000000000000000000FF00000000FFFF00000000000000000000000000000000000000000000000000FF00000000FFFF0000
310
0000000000000000000000000000000000000000000000FF00000000FFFF0000000000000000000000000000000000000000000000F900FF00000000FFFF00000000000000000000000000000000000000000000FFFFFFFF00000000FFFF00000000000000000000000000000000000000000000FFF9000000000000FFFF00
310
0000000000000000000000000000000000000000F9F9F9F90000000000FFFF00000000000000000000000000000000000000000000FFF9FF0000000000FFFF00000000000000000000000000000000000000000000FFFFFFFF00000000FFFF0000000000000000000000000000000000000000000000F900FF00000000FFFF
310
00000000000000000000000000000000000000000000000000FF00000000FFFF00000000000000000000000000000000000000000000000000FF00000000FFFF00000000000000000000000000000000000000000000000000FF00000000FFFF00000000000000000000000000000000000000000000000000FF00000000FF
310
FF000000000000000000000000000000000000FF000000000000FF00000000FFFF000000000000000000000000000000000000FF000000000000FF00000000FFFF000000000000000000000000000000000000FF000000000000FF00000000FFFF000000000000000000000000000000000000FF000000000000FF00000000
310
FFFF000000000000000000000000000000000000FF000000000000FF00000000FFFF000000000000000000000000000000000000FF000000000000FF00000000FFFF000000000000000000000000000000000000FF000000000000FF00000000FFFF000000000000000000000000000000000000FF000000000000FF000000
310
00FFFFFFFFFFFFFFFF000000000000000000000000FF000000000000FFFFFFFFFFFFFFFFFFFFFFFFFFFFFFFFFFFFFFFFFFFFFFFFFF0000000000000000000000000000000000000000000000000000000000000000000000000000000000000000000000000000000000000000000000000000000000000000000000000000
310
0000000000000000000000000000000000000000000000000000000000000000000000000000000000000000000000000000000000000000
102
{BLKREFS
331
4288
102
}
 70
     4
280
     1
281
     1
  0
BLOCK_RECORD
  5
4395
102
{ACAD_XDICTIONARY
360
4451
102
}
330
1
100
AcDbSymbolTableRecord
100
AcDbBlockTableRecord
  2
ケースＢ SMVH140
340
0
310
2800000020000000200000000100080000000000000400000000000000000000000000000000000000000000000080000080000000808000800000008000800080800000C0C0C000C0DCC000F0CAA6000020400000206000002080000020A0000020C0000020E00000400000004020000040400000406000004080000040A0
310
000040C0000040E00000600000006020000060400000606000006080000060A0000060C0000060E00000800000008020000080400000806000008080000080A0000080C0000080E00000A0000000A0200000A0400000A0600000A0800000A0A00000A0C00000A0E00000C0000000C0200000C0400000C0600000C0800000C0
310
A00000C0C00000C0E00000E0000000E0200000E0400000E0600000E0800000E0A00000E0C00000E0E00040000000400020004000400040006000400080004000A0004000C0004000E00040200000402020004020400040206000402080004020A0004020C0004020E000404000004040200040404000404060004040800040
310
40A0004040C0004040E00040600000406020004060400040606000406080004060A0004060C0004060E00040800000408020004080400040806000408080004080A0004080C0004080E00040A0000040A0200040A0400040A0600040A0800040A0A00040A0C00040A0E00040C0000040C0200040C0400040C0600040C08000
310
40C0A00040C0C00040C0E00040E0000040E0200040E0400040E0600040E0800040E0A00040E0C00040E0E00080000000800020008000400080006000800080008000A0008000C0008000E00080200000802020008020400080206000802080008020A0008020C0008020E00080400000804020008040400080406000804080
310
008040A0008040C0008040E00080600000806020008060400080606000806080008060A0008060C0008060E00080800000808020008080400080806000808080008080A0008080C0008080E00080A0000080A0200080A0400080A0600080A0800080A0A00080A0C00080A0E00080C0000080C0200080C0400080C0600080C0
310
800080C0A00080C0C00080C0E00080E0000080E0200080E0400080E0600080E0800080E0A00080E0C00080E0E000C0000000C0002000C0004000C0006000C0008000C000A000C000C000C000E000C0200000C0202000C0204000C0206000C0208000C020A000C020C000C020E000C0400000C0402000C0404000C0406000C0
310
408000C040A000C040C000C040E000C0600000C0602000C0604000C0606000C0608000C060A000C060C000C060E000C0800000C0802000C0804000C0806000C0808000C080A000C080C000C080E000C0A00000C0A02000C0A04000C0A06000C0A08000C0A0A000C0A0C000C0A0E000C0C00000C0C02000C0C04000C0C06000
310
C0C08000C0C0A000F0FBFF00A4A0A000808080000000FF0000FF000000FFFF00FF000000FF00FF00FFFF0000FFFFFF0000000000000000000000000000000000000000000000000000000000000000000000000000000000000000000000000000000000000000000000000000000000000000000000000000000000000000
310
00000000000000000000000000000000000000000000000000000000000000000000000000000000000000000000000000000000000000000000000000000000000000000000000000000000000000000000000000000000000000000000000000000000000000000000000000000000000000000000000000000000000000
310
00000000000000000000000000000000000000000000000000000000000000000000000000000000000000000000000000000000000000000000000000000000000000000000000000000000000000000000000000000000000000000000000000000000000000000000000000000000000000000000000000000000000000
310
000000000000000000000000000000000000000000FFFEFFFFFF0000000000000000000000000000000000000000000000FF0000F9F9F9F9F9F9F900000000000000000000000000000000000000000000FF000000FFFFFFFFFF0000000000000000000000000000000000000000000000FF000000FFFFFFFFFFFFFF000000
310
00000000FFFFFFFFFFFFFFFFFFFFFFFFFFFFFF000000000000FFFFA4000000000000000000000000000000000000FF00000000000000000000FFFFA4000000000000000000000000000000000000FF000000000000000000F9FFFEA4000000000000000000000000000000000000FF00000000000000000000FFFFFFFF0000
310
000000000000000000000000000000FF00000000000000000000FF00FFFF0000000000000000000000000000000000FF00000000000000000000FFFFFFFF00000000000000FFFFFFFFFFFFFFFFFFFFFF0000000000000000000000000000000000000000000000000000000000000000000000000000000000000000000000
310
00000000000000000000000000000000000000000000000000000000000000000000000000000000000000000000000000000000000000000000000000000000000000000000000000000000000000000000000000000000000000000000000000000000000000000000000000000000000000000000000000000000000000
310
00000000000000000000000000000000000000000000000000000000000000000000000000000000000000000000000000000000000000000000000000000000000000000000000000000000000000000000000000000000000000000000000000000000000000000000000000000000000000000000000000000000000000
310
0000000000000000000000000000000000000000000000000000000000000000000000000000000000000000000000000000000000000000
102
{BLKREFS
331
43D2
102
}
 70
     4
280
     1
281
     1
  0
BLOCK_RECORD
  5
4544
102
{ACAD_XDICTIONARY
360
45B3
102
}
330
1
100
AcDbSymbolTableRecord
100
AcDbBlockTableRecord
  2
リーマボルト SMVH140 M6
340
0
310
2800000020000000200000000100080000000000000400000000000000000000000000000000000000000000000080000080000000808000800000008000800080800000C0C0C000C0DCC000F0CAA6000020400000206000002080000020A0000020C0000020E00000400000004020000040400000406000004080000040A0
310
000040C0000040E00000600000006020000060400000606000006080000060A0000060C0000060E00000800000008020000080400000806000008080000080A0000080C0000080E00000A0000000A0200000A0400000A0600000A0800000A0A00000A0C00000A0E00000C0000000C0200000C0400000C0600000C0800000C0
310
A00000C0C00000C0E00000E0000000E0200000E0400000E0600000E0800000E0A00000E0C00000E0E00040000000400020004000400040006000400080004000A0004000C0004000E00040200000402020004020400040206000402080004020A0004020C0004020E000404000004040200040404000404060004040800040
310
40A0004040C0004040E00040600000406020004060400040606000406080004060A0004060C0004060E00040800000408020004080400040806000408080004080A0004080C0004080E00040A0000040A0200040A0400040A0600040A0800040A0A00040A0C00040A0E00040C0000040C0200040C0400040C0600040C08000
310
40C0A00040C0C00040C0E00040E0000040E0200040E0400040E0600040E0800040E0A00040E0C00040E0E00080000000800020008000400080006000800080008000A0008000C0008000E00080200000802020008020400080206000802080008020A0008020C0008020E00080400000804020008040400080406000804080
310
008040A0008040C0008040E00080600000806020008060400080606000806080008060A0008060C0008060E00080800000808020008080400080806000808080008080A0008080C0008080E00080A0000080A0200080A0400080A0600080A0800080A0A00080A0C00080A0E00080C0000080C0200080C0400080C0600080C0
310
800080C0A00080C0C00080C0E00080E0000080E0200080E0400080E0600080E0800080E0A00080E0C00080E0E000C0000000C0002000C0004000C0006000C0008000C000A000C000C000C000E000C0200000C0202000C0204000C0206000C0208000C020A000C020C000C020E000C0400000C0402000C0404000C0406000C0
310
408000C040A000C040C000C040E000C0600000C0602000C0604000C0606000C0608000C060A000C060C000C060E000C0800000C0802000C0804000C0806000C0808000C080A000C080C000C080E000C0A00000C0A02000C0A04000C0A06000C0A08000C0A0A000C0A0C000C0A0E000C0C00000C0C02000C0C04000C0C06000
310
C0C08000C0C0A000F0FBFF00A4A0A000808080000000FF0000FF000000FFFF00FF000000FF00FF00FFFF0000FFFFFF000000000000000000000000000000000000000000000000000000000000000000000000000000000000000000FFFFFFFFFFFFFFFF000000000000000000000000000000000000000000000000FFFFFF
310
FFFFFFFFFF000000000000000000000000000000000000000000000000FF00FF0000FF00FF000000000000000000000000000000000000000000000000FF00FF0000FF00FF00000000000000000000000000000000000000000000000000000000000000000000000000000000000000000000000000000000000000000000
310
00000000000000000000000000000000000000000000000000000000000000000000000000000000000000000000000000000000000000000000000000000000000000000000000000000000000000000000000000000000000000000000000000000000000000000000000000000000000000000000000000000000000000
310
00000000000000000000000000000000000000000000000000000000000000000000000000000000000000000000000000000000000000000000000000000000000000000000000000000000000000000000000000000000000000000000000000000000000000000000000000000000000000000000000000000000000000
310
00000000000000000000000000000000000000000000000000000000000000000000000000000000000000000000000000000000000000000000000000000000000000000000000000000000000000000000000000000000000000000000000000000000000000000000000000000000000000000000000000000000000000
310
00000000000000000000000000000000000000000000000000000000000000000000000000000000000000000000000000000000000000000000000000000000000000000000000000000000000000000000000000000000000000000000000000000000000000000000000000000000000000000000000000000000000000
310
000000000000000000000000000000000000000000000000000000000000000000000000000000000000000000000000000000000000000000000000000000000000FF000000FF0000FF000000000000000000000000000000000000000000000000FFFFFFFFFFFFFFFF000000000000000000000000000000000000000000
310
000000FF00FF0000FF00FF000000000000000000000000000000000000000000000000FF00FF0000FF00FF000000000000000000000000000000000000000000000000FFFFFEFFFFFEFFFF0000000000000000000000000000000000000000000000000000FEFFFFFE00000000000000000000000000000000000000000000
310
000000000000FFFFFFFF00000000000000000000000000000000000000000000000000000000000000000000000000000000000000000000
102
{BLKREFS
331
4568
102
}
 70
     4
280
     1
281
     1
  0
BLOCK_RECORD
  5
45D2
102
{ACAD_XDICTIONARY
360
45FA
102
}
330
1
100
AcDbSymbolTableRecord
100
AcDbBlockTableRecord
  2
スラストプレ－ト SMVH140
340
0
310
2800000020000000200000000100080000000000000400000000000000000000000000000000000000000000000080000080000000808000800000008000800080800000C0C0C000C0DCC000F0CAA6000020400000206000002080000020A0000020C0000020E00000400000004020000040400000406000004080000040A0
310
000040C0000040E00000600000006020000060400000606000006080000060A0000060C0000060E00000800000008020000080400000806000008080000080A0000080C0000080E00000A0000000A0200000A0400000A0600000A0800000A0A00000A0C00000A0E00000C0000000C0200000C0400000C0600000C0800000C0
310
A00000C0C00000C0E00000E0000000E0200000E0400000E0600000E0800000E0A00000E0C00000E0E00040000000400020004000400040006000400080004000A0004000C0004000E00040200000402020004020400040206000402080004020A0004020C0004020E000404000004040200040404000404060004040800040
310
40A0004040C0004040E00040600000406020004060400040606000406080004060A0004060C0004060E00040800000408020004080400040806000408080004080A0004080C0004080E00040A0000040A0200040A0400040A0600040A0800040A0A00040A0C00040A0E00040C0000040C0200040C0400040C0600040C08000
310
40C0A00040C0C00040C0E00040E0000040E0200040E0400040E0600040E0800040E0A00040E0C00040E0E00080000000800020008000400080006000800080008000A0008000C0008000E00080200000802020008020400080206000802080008020A0008020C0008020E00080400000804020008040400080406000804080
310
008040A0008040C0008040E00080600000806020008060400080606000806080008060A0008060C0008060E00080800000808020008080400080806000808080008080A0008080C0008080E00080A0000080A0200080A0400080A0600080A0800080A0A00080A0C00080A0E00080C0000080C0200080C0400080C0600080C0
310
800080C0A00080C0C00080C0E00080E0000080E0200080E0400080E0600080E0800080E0A00080E0C00080E0E000C0000000C0002000C0004000C0006000C0008000C000A000C000C000C000E000C0200000C0202000C0204000C0206000C0208000C020A000C020C000C020E000C0400000C0402000C0404000C0406000C0
310
408000C040A000C040C000C040E000C0600000C0602000C0604000C0606000C0608000C060A000C060C000C060E000C0800000C0802000C0804000C0806000C0808000C080A000C080C000C080E000C0A00000C0A02000C0A04000C0A06000C0A08000C0A0A000C0A0C000C0A0E000C0C00000C0C02000C0C04000C0C06000
310
C0C08000C0C0A000F0FBFF00A4A0A000808080000000FF0000FF000000FFFF00FF000000FF00FF00FFFF0000FFFFFF0000000000000000000000000000000000000000000000000000000000000000000000000000000000000000000000000000000000000000000000000000000000000000000000000000000000000000
310
00000000000000000000000000000000000000000000000000000000000000000000000000000000000000000000000000000000000000000000000000000000000000000000000000000000000000000000000000000000000000000000000000000000000000000000000000000000000000000000000000000000000000
310
00000000000000000000000000000000000000000000000000000000000000000000000000000000000000000000000000000000000000000000000000000000000000000000000000000000000000000000000000000000000000000000000000000000000000000000000000000000000000000000000000000000000000
310
0000000000000000000000000000000000000000000000000000000000000000000000000000000000000000000000000000000000000000000000000000000000000000000000000000000000000000000000000000000000000000000000000000000000000000000000000000000000000000000000FFFFFFFFFFFFFFFF
310
00000000FFFFFFFFFFFFFFFFFFFFFFFFFFFFFF0000000000FF00000000000000000000000000000000000000000000000000000000FFFFFFFF00000000000000000000000000000000000000000000000000000000FFFFFFFFFFFFFFFFFFFFFFFFFFFFFFFFFFFFFFFFFFFFFFFFFFFFFFFFFFFF000000000000000000000000
310
00000000000000000000000000000000000000000000000000000000000000000000000000000000000000000000000000000000000000000000000000000000000000000000000000000000000000000000000000000000000000000000000000000000000000000000000000000000000000000000000000000000000000
310
00000000000000000000000000000000000000000000000000000000000000000000000000000000000000000000000000000000000000000000000000000000000000000000000000000000000000000000000000000000000000000000000000000000000000000000000000000000000000000000000000000000000000
310
00000000000000000000000000000000000000000000000000000000000000000000000000000000000000000000000000000000000000000000000000000000000000000000000000000000000000000000000000000000000000000000000000000000000000000000000000000000000000000000000000000000000000
310
0000000000000000000000000000000000000000000000000000000000000000000000000000000000000000000000000000000000000000
102
{BLKREFS
331
45DF
102
}
 70
     4
280
     1
281
     1
  0
BLOCK_RECORD
  5
4658
330
1
100
AcDbSymbolTableRecord
100
AcDbBlockTableRecord
  2
*D13
340
0
 70
     0
280
     1
281
     0
  0
BLOCK_RECORD
  5
467D
330
1
100
AcDbSymbolTableRecord
100
AcDbBlockTableRecord
  2
*D14
340
0
 70
     0
280
     1
281
     0
  0
BLOCK_RECORD
  5
4695
330
1
100
AcDbSymbolTableRecord
100
AcDbBlockTableRecord
  2
*D15
340
0
 70
     0
280
     1
281
     0
  0
BLOCK_RECORD
  5
46AD
330
1
100
AcDbSymbolTableRecord
100
AcDbBlockTableRecord
  2
*D16
340
0
 70
     0
280
     1
281
     0
  0
BLOCK_RECORD
  5
478E
330
1
100
AcDbSymbolTableRecord
100
AcDbBlockTableRecord
  2
*D17
340
0
 70
     0
280
     1
281
     0
  0
BLOCK_RECORD
  5
4869
330
1
100
AcDbSymbolTableRecord
100
AcDbBlockTableRecord
  2
*D18
340
0
 70
     0
280
     1
281
     0
  0
BLOCK_RECORD
  5
4881
330
1
100
AcDbSymbolTableRecord
100
AcDbBlockTableRecord
  2
*D19
340
0
 70
     0
280
     1
281
     0
  0
BLOCK_RECORD
  5
4899
330
1
100
AcDbSymbolTableRecord
100
AcDbBlockTableRecord
  2
*D20
340
0
 70
     0
280
     1
281
     0
  0
BLOCK_RECORD
  5
48E0
330
1
100
AcDbSymbolTableRecord
100
AcDbBlockTableRecord
  2
*D21
340
0
 70
     0
280
     1
281
     0
  0
BLOCK_RECORD
  5
4901
330
1
100
AcDbSymbolTableRecord
100
AcDbBlockTableRecord
  2
*D22
340
0
 70
     0
280
     1
281
     0
  0
BLOCK_RECORD
  5
491D
330
1
100
AcDbSymbolTableRecord
100
AcDbBlockTableRecord
  2
*D23
340
0
 70
     0
280
     1
281
     0
  0
BLOCK_RECORD
  5
54E1
330
1
100
AcDbSymbolTableRecord
100
AcDbBlockTableRecord
  2
GENDOT
340
0
102
{BLKREFS
331
55AD
331
55D1
102
}
 70
     0
280
     1
281
     0
  0
BLOCK_RECORD
  5
57A7
330
1
100
AcDbSymbolTableRecord
100
AcDbBlockTableRecord
  2
*D25
340
0
 70
     0
280
     1
281
     0
  0
BLOCK_RECORD
  5
57CB
330
1
100
AcDbSymbolTableRecord
100
AcDbBlockTableRecord
  2
*D26
340
0
 70
     0
280
     1
281
     0
  0
BLOCK_RECORD
  5
587C
330
1
100
AcDbSymbolTableRecord
100
AcDbBlockTableRecord
  2
*D27
340
0
 70
     0
280
     1
281
     0
  0
BLOCK_RECORD
  5
5940
330
1
100
AcDbSymbolTableRecord
100
AcDbBlockTableRecord
  2
*D28
340
0
 70
     0
280
     1
281
     0
  0
BLOCK_RECORD
  5
5AC3
330
1
100
AcDbSymbolTableRecord
100
AcDbBlockTableRecord
  2
ケース
340
0
310
2800000020000000200000000100080000000000000400000000000000000000000000000000000000000000000080000080000000808000800000008000800080800000C0C0C000C0DCC000F0CAA6000020400000206000002080000020A0000020C0000020E00000400000004020000040400000406000004080000040A0
310
000040C0000040E00000600000006020000060400000606000006080000060A0000060C0000060E00000800000008020000080400000806000008080000080A0000080C0000080E00000A0000000A0200000A0400000A0600000A0800000A0A00000A0C00000A0E00000C0000000C0200000C0400000C0600000C0800000C0
310
A00000C0C00000C0E00000E0000000E0200000E0400000E0600000E0800000E0A00000E0C00000E0E00040000000400020004000400040006000400080004000A0004000C0004000E00040200000402020004020400040206000402080004020A0004020C0004020E000404000004040200040404000404060004040800040
310
40A0004040C0004040E00040600000406020004060400040606000406080004060A0004060C0004060E00040800000408020004080400040806000408080004080A0004080C0004080E00040A0000040A0200040A0400040A0600040A0800040A0A00040A0C00040A0E00040C0000040C0200040C0400040C0600040C08000
310
40C0A00040C0C00040C0E00040E0000040E0200040E0400040E0600040E0800040E0A00040E0C00040E0E00080000000800020008000400080006000800080008000A0008000C0008000E00080200000802020008020400080206000802080008020A0008020C0008020E00080400000804020008040400080406000804080
310
008040A0008040C0008040E00080600000806020008060400080606000806080008060A0008060C0008060E00080800000808020008080400080806000808080008080A0008080C0008080E00080A0000080A0200080A0400080A0600080A0800080A0A00080A0C00080A0E00080C0000080C0200080C0400080C0600080C0
310
800080C0A00080C0C00080C0E00080E0000080E0200080E0400080E0600080E0800080E0A00080E0C00080E0E000C0000000C0002000C0004000C0006000C0008000C000A000C000C000C000E000C0200000C0202000C0204000C0206000C0208000C020A000C020C000C020E000C0400000C0402000C0404000C0406000C0
310
408000C040A000C040C000C040E000C0600000C0602000C0604000C0606000C0608000C060A000C060C000C060E000C0800000C0802000C0804000C0806000C0808000C080A000C080C000C080E000C0A00000C0A02000C0A04000C0A06000C0A08000C0A0A000C0A0C000C0A0E000C0C00000C0C02000C0C04000C0C06000
310
C0C08000C0C0A000F0FBFF00A4A0A000808080000000FF0000FF000000FFFF00FF000000FF00FF00FFFF0000FFFFFF000000000000000000000000000000000000000000000000000000000000000000000000000000000000000000FCFCFCFCFCFCFCFCFCFCFC0000000000000000000000000000000000000000FC000000
310
000000000000FC0000000000000000000000000000000000000000FC00000000000000000000FC00000000000000000000000000000000000000FC0000000000000000FCFCFCFCFC000000000000000000000000000000000000FC0000000000000000FC00000000000000000000000000000000000000000000FC00000000
310
00000000FC00000000000000000000000000000000000000000000FC0000000000000000FC00000000000000000000000000000000000000000000FC0000000000000000FC00000000000000000000000000000000000000000000FC0000000000000000FC00000000000000000000000000000000000000000000FC000000
310
0000000000FC00000000000000000000000000000000000000000000FC0000000000000000FCFCFCFCFC000000000000000000000000000000000000FC0000000000000000000000FC00000000000000000000000000000000000000FC0000000000000000000000FC00000000000000000000000000000000000000FC0000
310
000000FCFCFCFCFCFCFCFC000000000000000000000000000000000000FC00000000FC0000000000000000000000000000000000000000000000000000FC00000000FC00FC000000000000000000000000000000000000000000000000FC00000000FC00FC000000000000000000000000000000000000000000000000FC00
310
000000FCFCFCFCFC00000000000000000000000000000000000000000000FC00000000FC00FC00FC00000000000000000000000000000000000000000000FC00000000FC00FC00FC00000000000000000000000000000000000000000000FC00000000FC00FC00FC00000000000000000000000000000000000000000000FC
310
00000000FC00FC00FC00000000000000000000000000000000000000000000FC00000000FC00FC00FC00000000000000000000000000000000000000000000FC00000000FC00FC00FC00000000000000000000000000000000000000000000FC00000000FC00FC00FC00000000000000000000000000000000000000000000
310
FC00000000FC00FC00FC00000000000000000000000000000000000000000000FC00000000FC00FC00FC00000000000000000000000000000000000000000000FC00000000FC00FC00FC00000000000000000000000000000000000000000000FC00000000FC00FC00FC000000000000000000000000000000000000000000
310
00FC00000000FC00FC00FC000000000000000000000000000000000000000000000000000000000000000000000000000000000000000000
102
{BLKREFS
331
5AD9
102
}
 70
     4
280
     1
281
     1
  0
ENDTAB
  0
ENDSEC
  0
SECTION
  2
BLOCKS
  0
BLOCK
  5
20
330
1F
100
AcDbEntity
  8
0
100
AcDbBlockBegin
  2
*Model_Space
 70
     0
 10
0.0
 20
0.0
 30
0.0
  3
*Model_Space
  1

  0
ENDBLK
  5
21
330
1F
100
AcDbEntity
  8
0
100
AcDbBlockEnd
  0
BLOCK
  5
1C
330
1B
100
AcDbEntity
 67
     1
  8
0
100
AcDbBlockBegin
  2
*Paper_Space
 70
     0
 10
0.0
 20
0.0
 30
0.0
  3
*Paper_Space
  1

  0
ENDBLK
  5
1D
330
1B
100
AcDbEntity
 67
     1
  8
0
100
AcDbBlockEnd
  0
BLOCK
  5
24
330
23
100
AcDbEntity
 67
     1
  8
0
100
AcDbBlockBegin
  2
*Paper_Space0
 70
     0
 10
0.0
 20
0.0
 30
0.0
  3
*Paper_Space0
  1

  0
ENDBLK
  5
25
330
23
100
AcDbEntity
 67
     1
  8
0
100
AcDbBlockEnd
  0
BLOCK
  5
6D
330
69
100
AcDbEntity
  8
0
100
AcDbBlockBegin
  2
_Open30
 70
     0
 10
0.0
 20
0.0
 30
0.0
  3
_Open30
  1

  0
LINE
  5
6A
330
69
100
AcDbEntity
  8
0
  6
ByBlock
 62
     0
370
    -2
100
AcDbLine
 10
-1.0
 20
0.26794919
 30
0.0
 11
0.0
 21
0.0
 31
0.0
  0
LINE
  5
6B
330
69
100
AcDbEntity
  8
0
  6
ByBlock
 62
     0
370
    -2
100
AcDbLine
 10
0.0
 20
0.0
 30
0.0
 11
-1.0
 21
-0.26794919
 31
0.0
  0
LINE
  5
6C
330
69
100
AcDbEntity
  8
0
  6
ByBlock
 62
     0
370
    -2
100
AcDbLine
 10
0.0
 20
0.0
 30
0.0
 11
-1.0
 21
0.0
 31
0.0
  0
ENDBLK
  5
6E
330
69
100
AcDbEntity
  8
0
100
AcDbBlockEnd
  0
BLOCK
  5
76
330
74
100
AcDbEntity
  8
0
100
AcDbBlockBegin
  2
GENAXEH
 70
     0
 10
0.0
 20
0.0
 30
0.0
  3
GENAXEH
  1

  0
LINE
  5
75
330
74
100
AcDbEntity
  8
0
100
AcDbLine
 10
-1.0
 20
0.0
 30
0.0
 11
1.0
 21
0.0
 31
0.0
  0
ENDBLK
  5
77
330
74
100
AcDbEntity
  8
0
100
AcDbBlockEnd
  0
BLOCK
  5
2A8C
330
2A89
100
AcDbEntity
  8
0
100
AcDbBlockBegin
  2
ジュウジマルコネジ
 70
     0
 10
0.0
 20
0.0
 30
0.0
  3
ジュウジマルコネジ
  1

  0
LINE
  5
42D7
330
2A89
100
AcDbEntity
  8
AM_7 中心線
100
AcDbLine
 10
-2.950000000000044
 20
0.0
 30
0.0
 11
6.549999999999953
 21
0.0
 31
0.0
  0
LINE
  5
42D8
330
2A89
100
AcDbEntity
  8
AM_0 外形線1
100
AcDbLine
 10
0.0
 20
-5.0
 30
0.0
 11
0.0
 21
5.0
 31
0.0
  0
LINE
  5
42D9
330
2A89
100
AcDbEntity
  8
AM_0 外形線1
100
AcDbLine
 10
0.0
 20
-5.0
 30
0.0
 11
0.7999999999999547
 21
-5.0
 31
0.0
  0
LWPOLYLINE
  5
42DA
330
2A89
100
AcDbEntity
  8
AM_0 外形線1
100
AcDbPolyline
 90
       36
 70
     0
 43
0.0
 10
0.0
 20
3.5
 10
-0.2330620000000181
 20
3.485911000000044
 10
-0.4642479999999978
 20
3.443754000000011
 10
-0.6916949999999816
 20
3.373870000000009
 10
-0.9135739999999259
 20
3.276822999999978
 10
-1.128097000000024
 20
3.153391999999995
 10
-1.333538000000089
 20
3.004570999999998
 10
-1.528240999999979
 20
2.831560000000024
 10
-1.710640000000011
 20
2.63575099999997
 10
-1.879266000000143
 20
2.418720000000006
 10
-2.032760999999935
 20
2.182214999999985
 10
-2.169889999999895
 20
1.92814000000004
 10
-2.289547999999967
 20
1.658541000000013
 10
-2.390771999999969
 20
1.375588000000049
 10
-2.472747000000025
 20
1.081560000000024
 10
-2.5348120000001
 20
0.7788240000000429
 10
-2.57646899999986
 20
0.4698169999999779
 10
-2.597381999999925
 20
0.1570270000000278
 10
-2.597381999999925
 20
-0.1570260000000303
 10
-2.57646899999986
 20
-0.4698159999999804
 10
-2.5348120000001
 20
-0.7788229999999885
 10
-2.472747000000025
 20
-1.081558999999969
 10
-2.390771999999969
 20
-1.375586999999995
 10
-2.289547999999967
 20
-1.658539999999958
 10
-2.169889999999895
 20
-1.928138999999987
 10
-2.032760999999935
 20
-2.182213999999986
 10
-1.879266000000143
 20
-2.418718999999953
 10
-1.710640000000011
 20
-2.635749999999973
 10
-1.528240999999979
 20
-2.83155899999997
 10
-1.333538000000089
 20
-3.004570000000001
 10
-1.128097000000024
 20
-3.153390999999998
 10
-0.9135739999999259
 20
-3.276821999999981
 10
-0.6916949999999816
 20
-3.373869999999953
 10
-0.4642479999999978
 20
-3.443752999999958
 10
-0.2330620000000181
 20
-3.485909999999988
 10
0.0
 20
-3.5
  0
LINE
  5
42DB
330
2A89
100
AcDbEntity
  8
AM_0 外形線1
100
AcDbLine
 10
0.0
 20
-2.25
 30
0.0
 11
0.7999999999999547
 21
-2.25
 31
0.0
  0
LINE
  5
42DC
330
2A89
100
AcDbEntity
  8
AM_0 外形線1
100
AcDbLine
 10
0.0
 20
2.25
 30
0.0
 11
0.7999999999999547
 21
2.25
 31
0.0
  0
LINE
  5
42DD
330
2A89
100
AcDbEntity
  8
AM_0 外形線1
100
AcDbLine
 10
0.0
 20
5.0
 30
0.0
 11
0.7999999999999547
 21
5.0
 31
0.0
  0
LINE
  5
42DE
330
2A89
100
AcDbEntity
  8
AM_4 細線
100
AcDbLine
 10
4.850000000000136
 20
1.650000000000034
 30
0.0
 11
0.0
 21
1.650000000000034
 31
0.0
  0
LINE
  5
42DF
330
2A89
100
AcDbEntity
  8
AM_0 外形線1
100
AcDbLine
 10
4.5
 20
2.0
 30
0.0
 11
0.0
 21
2.0
 31
0.0
  0
LINE
  5
42E0
330
2A89
100
AcDbEntity
  8
AM_0 外形線1
100
AcDbLine
 10
4.5
 20
2.0
 30
0.0
 11
5.0
 21
1.5
 31
0.0
  0
LINE
  5
42E1
330
2A89
100
AcDbEntity
  8
AM_0 外形線1
100
AcDbLine
 10
4.5
 20
-2.0
 30
0.0
 11
4.5
 21
2.0
 31
0.0
  0
LINE
  5
42E2
330
2A89
100
AcDbEntity
  8
AM_0 外形線1
100
AcDbLine
 10
5.0
 20
-1.5
 30
0.0
 11
5.0
 21
1.5
 31
0.0
  0
LINE
  5
42E3
330
2A89
100
AcDbEntity
  8
AM_0 外形線1
100
AcDbLine
 10
4.5
 20
-2.0
 30
0.0
 11
5.0
 21
-1.5
 31
0.0
  0
LINE
  5
42E4
330
2A89
100
AcDbEntity
  8
AM_0 外形線1
100
AcDbLine
 10
4.5
 20
-2.0
 30
0.0
 11
0.0
 21
-2.0
 31
0.0
  0
LINE
  5
42E5
330
2A89
100
AcDbEntity
  8
AM_4 細線
100
AcDbLine
 10
4.850000000000136
 20
-1.650000000000034
 30
0.0
 11
0.0
 21
-1.650000000000034
 31
0.0
  0
LINE
  5
430B
330
2A89
100
AcDbEntity
  8
AM_0 外形線1
100
AcDbLine
 10
0.7999999999999547
 20
5.0
 30
0.0
 11
0.7999999999999547
 21
2.0
 31
0.0
  0
LINE
  5
430C
330
2A89
100
AcDbEntity
  8
AM_0 外形線1
100
AcDbLine
 10
0.7999999999999547
 20
-5.0
 30
0.0
 11
0.7999999999999547
 21
-2.0
 31
0.0
  0
ENDBLK
  5
2A9E
330
2A89
100
AcDbEntity
  8
0
100
AcDbBlockEnd
  0
BLOCK
  5
40EF
330
40EE
100
AcDbEntity
  8
0
100
AcDbBlockBegin
  2
センタＡ SMVH140
 70
     0
 10
0.0
 20
0.0
 30
0.0
  3
センタＡ SMVH140
  1

  0
LINE
  5
40F1
330
40EE
100
AcDbEntity
  8
AM_0 外形線1
100
AcDbLine
 10
-39.5
 20
0.0
 30
0.0
 11
0.0
 21
0.0
 31
0.0
  0
LINE
  5
40F2
330
40EE
100
AcDbEntity
  8
AM_0 外形線1
100
AcDbLine
 10
37.0
 20
-71.0
 30
0.0
 11
-37.0
 21
-71.0
 31
0.0
  0
LINE
  5
40F3
330
40EE
100
AcDbEntity
  8
AM_0 外形線1
100
AcDbLine
 10
-40.0
 20
-68.0
 30
0.0
 11
-40.0
 21
-29.0
 31
0.0
  0
ARC
  5
40F4
330
40EE
100
AcDbEntity
  8
AM_0 外形線1
100
AcDbCircle
 10
-37.0
 20
-68.0
 30
0.0
 40
3.0
100
AcDbArc
 50
180.0
 51
270.0
  0
LINE
  5
40F5
330
40EE
100
AcDbEntity
  8
AM_0 外形線1
100
AcDbLine
 10
-40.0
 20
-13.5
 30
0.0
 11
-40.0
 21
-0.5
 31
0.0
  0
ARC
  5
40F8
330
40EE
100
AcDbEntity
  8
AM_0 外形線1
100
AcDbCircle
 10
0.0
 20
-20.0
 30
0.0
 40
47.90999999999999
100
AcDbArc
 50
173.4079919999985
 51
189.6122620000002
  0
LINE
  5
40F9
330
40EE
100
AcDbEntity
  8
AM_0 外形線1
100
AcDbLine
 10
-40.49999999999999
 20
-28.5
 30
0.0
 11
-46.64995399999997
 21
-28.5
 31
0.0
  0
LINE
  5
40FA
330
40EE
100
AcDbEntity
  8
AM_0 外形線1
100
AcDbLine
 10
-46.64995399999997
 20
-28.5
 30
0.0
 11
-47.23735899999996
 21
-28.0
 31
0.0
  0
ARC
  5
40FB
330
40EE
100
AcDbEntity
  8
AM_0 外形線1
100
AcDbCircle
 10
-40.49999999999999
 20
-29.0
 30
0.0
 40
0.5
100
AcDbArc
 50
0.0
 51
90.0
  0
LINE
  5
40FC
330
40EE
100
AcDbEntity
  8
AM_0 外形線1
100
AcDbLine
 10
-47.03281100000004
 20
-14.0
 30
0.0
 11
-40.49999999999999
 21
-14.0
 31
0.0
  0
LINE
  5
40FD
330
40EE
100
AcDbEntity
  8
AM_7 中心線
100
AcDbLine
 10
-50.242706
 20
-20.0
 30
0.0
 11
-40.91230700000004
 21
-20.0
 31
0.0
  0
LINE
  5
40FE
330
40EE
100
AcDbEntity
  8
AM_0 外形線1
100
AcDbLine
 10
-47.59325699999998
 20
-14.5
 30
0.0
 11
-47.03281100000004
 21
-14.0
 31
0.0
  0
ARC
  5
40FF
330
40EE
100
AcDbEntity
  8
AM_0 外形線1
100
AcDbCircle
 10
-40.49999999999999
 20
-13.5
 30
0.0
 40
0.5
100
AcDbArc
 50
270.0
 51
0.0
  0
LINE
  5
4100
330
40EE
100
AcDbEntity
  8
AM_0 外形線1
100
AcDbLine
 10
-40.0
 20
-0.5
 30
0.0
 11
-39.5
 21
0.0
 31
0.0
  0
LINE
  5
4101
330
40EE
100
AcDbEntity
  8
AM_0 外形線1
100
AcDbLine
 10
40.0
 20
-43.0
 30
0.0
 11
40.0
 21
-68.0
 31
0.0
  0
ARC
  5
4102
330
40EE
100
AcDbEntity
  8
AM_0 外形線1
100
AcDbCircle
 10
37.0
 20
-68.0
 30
0.0
 40
3.0
100
AcDbArc
 50
270.0
 51
0.0
  0
LINE
  5
4106
330
40EE
100
AcDbEntity
  8
AM_0 外形線1
100
AcDbLine
 10
-16.88146183124866
 20
0.0000000000000568
 30
0.0
 11
-16.88146183124866
 21
-71.0
 31
0.0
  0
ARC
  5
5792
330
40EE
100
AcDbEntity
  8
AM_7 中心線
100
AcDbCircle
 10
0.0
 20
-20.0
 30
0.0
 40
46.0
100
AcDbArc
 50
170.8537888623078
 51
191.9460860168583
  0
ARC
  5
57A4
330
40EE
100
AcDbEntity
  8
AM_0 外形線1
100
AcDbCircle
 10
0.0
 20
-20.0
 30
0.0
 40
43.80000000000001
100
AcDbArc
 50
172.1265062017445
 51
191.1900460036513
  0
ENDBLK
  5
40F0
330
40EE
100
AcDbEntity
  8
0
100
AcDbBlockEnd
  0
BLOCK
  5
4186
330
4185
100
AcDbEntity
  8
0
100
AcDbBlockBegin
  2
ケースＡ SMVH140
 70
     0
 10
0.0
 20
0.0
 30
0.0
  3
ケースＡ SMVH140
  1

  0
LWPOLYLINE
  5
4188
330
4185
100
AcDbEntity
  8
AM_0 外形線1
100
AcDbPolyline
 90
       73
 70
     0
 43
0.0
 10
-42.3499999999999
 20
-37.20000000000005
 10
-42.55481600000007
 20
-37.2144600000001
 10
-42.75807299999995
 20
-37.25773000000004
 10
-42.95822500000007
 20
-37.3294820000001
 10
-43.15374799999995
 20
-37.42916800000006
 10
-43.34315300000002
 20
-37.55603000000008
 10
-43.52500000000008
 20
-37.7091030000001
 10
-43.69790499999999
 20
-37.88722200000008
 10
-43.86055099999999
 20
-38.0890310000001
 10
-44.01170100000013
 20
-38.31299400000006
 10
-44.15020500000014
 20
-38.55740700000007
 10
-44.27500699999995
 20
-38.82040900000004
 10
-44.38516000000004
 20
-39.10000000000008
 10
-44.47982300000012
 20
-39.39405000000011
 10
-44.55827799999997
 20
-39.70032300000008
 10
-44.61992600000008
 20
-40.0164870000001
 10
-44.66429799999992
 20
-40.34013700000002
 10
-44.69105799999988
 20
-40.66880800000006
 10
-44.70000000000005
 20
-41.00000000000004
 10
-44.69105799999988
 20
-41.3311920000001
 10
-44.66429799999992
 20
-41.65986300000009
 10
-44.61992600000008
 20
-41.98351200000002
 10
-44.55827799999997
 20
-42.29967600000009
 10
-44.47982300000012
 20
-42.60594900000007
 10
-44.38516000000004
 20
-42.90000000000008
 10
-44.27500699999995
 20
-43.17959000000008
 10
-44.15020500000014
 20
-43.4425930000001
 10
-44.01170100000013
 20
-43.6870060000001
 10
-43.86055099999999
 20
-43.91096900000001
 10
-43.69790499999999
 20
-44.11277800000005
 10
-43.52500000000008
 20
-44.29089600000009
 10
-43.34315300000002
 20
-44.44396900000003
 10
-43.15374799999995
 20
-44.5708320000001
 10
-42.95822500000007
 20
-44.67051800000006
 10
-42.75807299999995
 20
-44.74226900000006
 10
-42.55481600000007
 20
-44.78554000000007
 10
-42.3499999999999
 20
-44.80000000000006
 10
-42.14518399999996
 20
-44.78554000000007
 10
-41.94192700000008
 20
-44.74226900000006
 10
-41.74177499999996
 20
-44.67051800000006
 10
-41.54625299999998
 20
-44.5708320000001
 10
-41.35684700000001
 20
-44.44396900000003
 10
-41.17499999999995
 20
-44.29089600000009
 10
-41.00209600000016
 20
-44.11277800000005
 10
-40.83944900000004
 20
-43.91096900000001
 10
-40.6882989999999
 20
-43.6870060000001
 10
-40.54979600000002
 20
-43.4425930000001
 10
-40.42499300000009
 20
-43.17959000000008
 10
-40.31484
 20
-42.90000000000008
 10
-40.22017699999992
 20
-42.60594900000007
 10
-40.14172299999994
 20
-42.29967600000009
 10
-40.08007399999995
 20
-41.98351200000002
 10
-40.03570200000011
 20
-41.65986300000009
 10
-40.00894300000005
 20
-41.3311920000001
 10
-40.0
 20
-41.00000000000004
 10
-40.00894300000005
 20
-40.66880800000006
 10
-40.03570200000011
 20
-40.34013700000002
 10
-40.08007399999995
 20
-40.0164870000001
 10
-40.14172299999994
 20
-39.70032300000008
 10
-40.22017699999992
 20
-39.39405000000011
 10
-40.31484
 20
-39.10000000000008
 10
-40.42499300000009
 20
-38.82040900000004
 10
-40.54979600000002
 20
-38.55740700000007
 10
-40.6882989999999
 20
-38.31299400000006
 10
-40.83944900000004
 20
-38.0890310000001
 10
-41.00209600000016
 20
-37.88722200000008
 10
-41.17499999999995
 20
-37.7091030000001
 10
-41.35684700000001
 20
-37.55603000000008
 10
-41.54625299999998
 20
-37.42916800000006
 10
-41.74177499999996
 20
-37.3294820000001
 10
-41.94192700000008
 20
-37.25773000000004
 10
-42.14518399999996
 20
-37.2144600000001
 10
-42.3499999999999
 20
-37.20000000000005
  0
LINE
  5
4189
330
4185
100
AcDbEntity
  8
AM_0 外形線1
100
AcDbLine
 10
-44.70000000000005
 20
-44.30000000000006
 30
0.0
 11
-44.70000000000005
 21
-37.70000000000005
 31
0.0
  0
LINE
  5
418A
330
4185
100
AcDbEntity
  8
AM_0 外形線1
100
AcDbLine
 10
-53.5
 20
-18.00000000000006
 30
0.0
 11
-53.5
 21
-44.00000000000004
 31
0.0
  0
ARC
  5
418B
330
4185
100
AcDbEntity
  8
AM_0 外形線1
100
AcDbCircle
 10
-50.5
 20
-44.00000000000004
 30
0.0
 40
3.0
100
AcDbArc
 50
180.0
 51
270.0
  0
ARC
  5
418C
330
4185
100
AcDbEntity
  8
AM_0 外形線1
100
AcDbCircle
 10
-44.20000000000004
 20
-44.30000000000006
 30
0.0
 40
0.5
100
AcDbArc
 50
180.0
 51
270.0
  0
LINE
  5
418D
330
4185
100
AcDbEntity
  8
AM_0 外形線1
100
AcDbLine
 10
-50.5
 20
-47.00000000000005
 30
0.0
 11
-40.0
 21
-47.00000000000005
 31
0.0
  0
LINE
  5
418E
330
4185
100
AcDbEntity
  8
AM_0 外形線1
100
AcDbLine
 10
-40.0
 20
-44.80000000000006
 30
0.0
 11
-44.20000000000004
 21
-44.80000000000006
 31
0.0
  0
LINE
  5
418F
330
4185
100
AcDbEntity
  8
AM_0 外形線1
100
AcDbLine
 10
-41.0
 20
-47.00000000000005
 30
0.0
 11
-41.0
 21
-44.80000000000006
 31
0.0
  0
LINE
  5
4190
330
4185
100
AcDbEntity
  8
AM_0 外形線1
100
AcDbLine
 10
-63.79999999999995
 20
-3.750000000000055
 30
0.0
 11
-48.5
 21
-3.750000000000055
 31
0.0
  0
LINE
  5
4191
330
4185
100
AcDbEntity
  8
AM_0 外形線1
100
AcDbLine
 10
-63.79999999999995
 20
-12.25000000000006
 30
0.0
 11
-48.5
 21
-12.25000000000006
 31
0.0
  0
LINE
  5
4192
330
4185
100
AcDbEntity
  8
AM_7 中心線
100
AcDbLine
 10
-46.38464300000009
 20
-8.000000000000056
 30
0.0
 11
-71.99017200000003
 21
-8.000000000000056
 31
0.0
  0
LWPOLYLINE
  5
4193
330
4185
100
AcDbEntity
  8
AM_0 外形線1
100
AcDbPolyline
 90
       73
 70
     0
 43
0.0
 10
-52.5
 20
-1.200000000000044
 10
-52.50742100000002
 20
-1.095413000000064
 10
-52.52962499999989
 20
-0.9916220000000636
 10
-52.56644499999993
 20
-0.8894170000000942
 10
-52.61760000000004
 20
-0.7895760000000678
 10
-52.68270000000007
 20
-0.6928580000001148
 10
-52.76125100000014
 20
-0.6000000000000796
 10
-52.85265400000003
 20
-0.5117080000001124
 10
-52.95621300000015
 20
-0.428655000000049
 10
-53.071142
 20
-0.351472000000058
 10
-53.19656400000007
 20
-0.2807460000000788
 10
-53.33152599999993
 20
-0.2170170000000553
 10
-53.4749999999999
 20
-0.160769000000073
 10
-53.62589499999989
 20
-0.1124300000000744
 10
-53.7830610000001
 20
-0.0723690000000943
 10
-53.94530299999996
 20
-0.0408890000000497
 10
-54.11138600000004
 20
-0.0182310000000712
 10
-54.28004600000008
 20
-0.004566000000068
 10
-54.45000000000003
 20
-0.0000000000000568
 10
-54.61995400000001
 20
-0.004566000000068
 10
-54.78861400000004
 20
-0.0182310000000712
 10
-54.95469700000011
 20
-0.0408890000000497
 10
-55.116939
 20
-0.0723690000000943
 10
-55.27410600000006
 20
-0.1124300000000744
 10
-55.42499999999995
 20
-0.160769000000073
 10
-55.56847399999992
 20
-0.2170170000000553
 10
-55.70343600000001
 20
-0.2807460000000788
 10
-55.82885800000007
 20
-0.351472000000058
 10
-55.94378699999992
 20
-0.428655000000049
 10
-56.04734699999993
 20
-0.5117080000001124
 10
-56.13875000000007
 20
-0.6000000000000796
 10
-56.21730000000003
 20
-0.6928580000001148
 10
-56.28240100000017
 20
-0.7895760000000678
 10
-56.33355600000005
 20
-0.8894170000000942
 10
-56.37037499999998
 20
-0.9916220000000636
 10
-56.39257999999995
 20
-1.095413000000064
 10
-56.4000000000001
 20
-1.200000000000044
 10
-56.39257999999995
 20
-1.304587000000082
 10
-56.37037499999998
 20
-1.408378000000084
 10
-56.33355600000005
 20
-1.510583000000109
 10
-56.28240100000017
 20
-1.61042400000008
 10
-56.21730000000003
 20
-1.707142000000089
 10
-56.13875000000007
 20
-1.800000000000068
 10
-56.04734699999993
 20
-1.888292000000091
 10
-55.94378699999992
 20
-1.971345000000042
 10
-55.82885800000007
 20
-2.048528000000032
 10
-55.70343600000001
 20
-2.119253000000071
 10
-55.56847399999992
 20
-2.182982000000038
 10
-55.42499999999995
 20
-2.239230000000076
 10
-55.27410600000006
 20
-2.287569000000075
 10
-55.116939
 20
-2.327631000000109
 10
-54.95469700000011
 20
-2.359111000000098
 10
-54.78861400000004
 20
-2.381769000000076
 10
-54.61995400000001
 20
-2.395433000000081
 10
-54.45000000000003
 20
-2.400000000000089
 10
-54.28004600000008
 20
-2.395433000000081
 10
-54.11138600000004
 20
-2.381769000000076
 10
-53.94530299999996
 20
-2.359111000000098
 10
-53.7830610000001
 20
-2.327631000000109
 10
-53.62589499999989
 20
-2.287569000000075
 10
-53.4749999999999
 20
-2.239230000000076
 10
-53.33152599999993
 20
-2.182982000000038
 10
-53.19656400000007
 20
-2.119253000000071
 10
-53.071142
 20
-2.048528000000032
 10
-52.95621300000015
 20
-1.971345000000042
 10
-52.85265400000003
 20
-1.888292000000091
 10
-52.76125100000014
 20
-1.800000000000068
 10
-52.68270000000007
 20
-1.707142000000089
 10
-52.61760000000004
 20
-1.61042400000008
 10
-52.56644499999993
 20
-1.510583000000109
 10
-52.52962499999989
 20
-1.408378000000084
 10
-52.50742100000002
 20
-1.304587000000082
 10
-52.5
 20
-1.200000000000044
  0
LINE
  5
4194
330
4185
100
AcDbEntity
  8
AM_0 外形線1
100
AcDbLine
 10
-53.0
 20
-2.400000000000089
 30
0.0
 11
-55.9000000000001
 21
-2.400000000000089
 31
0.0
  0
ARC
  5
4195
330
4185
100
AcDbEntity
  8
AM_0 外形線1
100
AcDbCircle
 10
-56.5
 20
-18.00000000000006
 30
0.0
 40
3.0
100
AcDbArc
 50
0.0
 51
90.0
  0
LINE
  5
4196
330
4185
100
AcDbEntity
  8
AM_4 細線
100
AcDbLine
 10
-63.79999999999995
 20
-3.329750000000103
 30
0.0
 11
-63.79999999999995
 21
-12.67025000000006
 31
0.0
  0
LINE
  5
4197
330
4185
100
AcDbEntity
  8
AM_0 外形線1
100
AcDbLine
 10
-70.0
 20
-0.2000000000000455
 30
0.0
 11
-70.0
 21
-14.80000000000007
 31
0.0
  0
LINE
  5
4198
330
4185
100
AcDbEntity
  8
AM_0 外形線1
100
AcDbLine
 10
-69.79999999999995
 20
-15.00000000000006
 30
0.0
 11
-56.5
 21
-15.00000000000006
 31
0.0
  0
LINE
  5
4199
330
4185
100
AcDbEntity
  8
AM_0 外形線1
100
AcDbLine
 10
-70.0
 20
-12.44375000000008
 30
0.0
 11
-63.79999999999995
 21
-12.25000000000006
 31
0.0
  0
LINE
  5
419A
330
4185
100
AcDbEntity
  8
AM_4 細線
100
AcDbLine
 10
-70.0
 20
-12.86400000000003
 30
0.0
 11
-63.79999999999995
 21
-12.67025000000006
 31
0.0
  0
LINE
  5
419B
330
4185
100
AcDbEntity
  8
AM_0 外形線1
100
AcDbLine
 10
-70.0
 20
-14.80000000000007
 30
0.0
 11
-69.79999999999995
 21
-15.00000000000006
 31
0.0
  0
LINE
  5
419C
330
4185
100
AcDbEntity
  8
AM_4 細線
100
AcDbLine
 10
-70.0
 20
-3.13600000000008
 30
0.0
 11
-63.79999999999995
 21
-3.329750000000103
 31
0.0
  0
LINE
  5
419D
330
4185
100
AcDbEntity
  8
AM_0 外形線1
100
AcDbLine
 10
-70.0
 20
-3.55625000000009
 30
0.0
 11
-63.79999999999995
 21
-3.750000000000055
 31
0.0
  0
LINE
  5
419E
330
4185
100
AcDbEntity
  8
AM_0 外形線1
100
AcDbLine
 10
-69.79999999999995
 20
-0.0000000000000568
 30
0.0
 11
-70.0
 21
-0.2000000000000455
 31
0.0
  0
LINE
  5
419F
330
4185
100
AcDbEntity
  8
AM_0 外形線1
100
AcDbLine
 10
-56.4000000000001
 20
-1.90000000000009
 30
0.0
 11
-56.4000000000001
 21
-0.0000000000000568
 31
0.0
  0
ARC
  5
41A0
330
4185
100
AcDbEntity
  8
AM_0 外形線1
100
AcDbCircle
 10
-55.9000000000001
 20
-1.90000000000009
 30
0.0
 40
0.5
100
AcDbArc
 50
180.0
 51
270.0
  0
LINE
  5
41A1
330
4185
100
AcDbEntity
  8
AM_0 外形線1
100
AcDbLine
 10
-44.4000000000001
 20
-18.00000000000006
 30
0.0
 11
-44.4000000000001
 21
-16.50000000000005
 31
0.0
  0
LINE
  5
41A2
330
4185
100
AcDbEntity
  8
AM_0 外形線1
100
AcDbLine
 10
-48.0
 20
-15.86602500000003
 30
0.0
 11
-48.0
 21
-31.13397400000008
 31
0.0
  0
LINE
  5
41A3
330
4185
100
AcDbEntity
  8
AM_7 中心線
100
AcDbLine
 10
-46.0
 20
-14.00000000000005
 30
0.0
 11
-46.0
 21
-33.00000000000006
 31
0.0
  0
LINE
  5
41A4
330
4185
100
AcDbEntity
  8
AM_3 隠れ線
100
AcDbLine
 10
-44.4000000000001
 20
-18.00000000000006
 30
0.0
 11
-44.4000000000001
 21
-30.50000000000006
 31
0.0
  0
LINE
  5
41A5
330
4185
100
AcDbEntity
  8
AM_3 隠れ線
100
AcDbLine
 10
-44.90000000000009
 20
-31.00000000000006
 30
0.0
 11
-44.4000000000001
 21
-30.50000000000006
 31
0.0
  0
LINE
  5
41A6
330
4185
100
AcDbEntity
  8
AM_0 外形線1
100
AcDbLine
 10
-40.0
 20
-35.00000000000006
 30
0.0
 11
-47.5
 21
-35.00000000000006
 31
0.0
  0
ARC
  5
41A7
330
4185
100
AcDbEntity
  8
AM_0 外形線1
100
AcDbCircle
 10
-44.20000000000004
 20
-37.70000000000005
 30
0.0
 40
0.5
100
AcDbArc
 50
90.0
 51
180.0
  0
LINE
  5
41A8
330
4185
100
AcDbEntity
  8
AM_3 隠れ線
100
AcDbLine
 10
-47.39586600000007
 20
-31.00000000000006
 30
0.0
 11
-44.90000000000009
 21
-31.00000000000006
 31
0.0
  0
ARC
  5
41A9
330
4185
100
AcDbEntity
  8
AM_0 外形線1
100
AcDbCircle
 10
-47.5
 20
-32.00000000000006
 30
0.0
 40
1.0
100
AcDbArc
 50
90.0
 51
180.0
  0
LINE
  5
41AA
330
4185
100
AcDbEntity
  8
AM_0 外形線1
100
AcDbLine
 10
-48.5
 20
-34.00000000000006
 30
0.0
 11
-48.5
 21
-32.00000000000006
 31
0.0
  0
ARC
  5
41AB
330
4185
100
AcDbEntity
  8
AM_0 外形線1
100
AcDbCircle
 10
-47.5
 20
-34.00000000000006
 30
0.0
 40
1.0
100
AcDbArc
 50
180.0
 51
270.0
  0
LINE
  5
41AC
330
4185
100
AcDbEntity
  8
AM_0 外形線1
100
AcDbLine
 10
-41.0
 20
-37.20000000000005
 30
0.0
 11
-41.0
 21
-35.00000000000006
 31
0.0
  0
LINE
  5
41AD
330
4185
100
AcDbEntity
  8
AM_0 外形線1
100
AcDbLine
 10
-44.20000000000004
 20
-37.20000000000005
 30
0.0
 11
-40.0
 21
-37.20000000000005
 31
0.0
  0
LINE
  5
41AE
330
4185
100
AcDbEntity
  8
AM_0 外形線1
100
AcDbLine
 10
-48.5
 20
-15.00000000000006
 30
0.0
 11
-48.5
 21
-0.0000000000000568
 31
0.0
  0
LINE
  5
41AF
330
4185
100
AcDbEntity
  8
AM_0 外形線1
100
AcDbLine
 10
-44.90674834864115
 20
-15.99325165135894
 30
0.0
 11
-47.5
 21
-16.00000000000006
 31
0.0
  0
LINE
  5
41B0
330
4185
100
AcDbEntity
  8
AM_0 外形線1
100
AcDbLine
 10
-44.4000000000001
 20
-16.50000000000005
 30
0.0
 11
-44.90000000000009
 21
-16.00000000000006
 31
0.0
  0
ARC
  5
41B1
330
4185
100
AcDbEntity
  8
AM_0 外形線1
100
AcDbCircle
 10
-47.5
 20
-15.00000000000006
 30
0.0
 40
1.0
100
AcDbArc
 50
180.0
 51
270.0
  0
ARC
  5
41B2
330
4185
100
AcDbEntity
  8
AM_0 外形線1
100
AcDbCircle
 10
-53.0
 20
-1.90000000000009
 30
0.0
 40
0.5
100
AcDbArc
 50
270.0
 51
0.0
  0
LINE
  5
41B3
330
4185
100
AcDbEntity
  8
AM_0 外形線1
100
AcDbLine
 10
-52.5
 20
-1.90000000000009
 30
0.0
 11
-52.5
 21
-0.0000000000000568
 31
0.0
  0
LINE
  5
41B4
330
4185
100
AcDbEntity
  8
AM_7 中心線
100
AcDbLine
 10
63.5
 20
-20.84741700000007
 30
0.0
 11
63.5
 21
25.37344499999995
 31
0.0
  0
ARC
  5
41B5
330
4185
100
AcDbEntity
  8
AM_0 外形線1
100
AcDbCircle
 10
50.5
 20
-44.00000000000004
 30
0.0
 40
3.0
100
AcDbArc
 50
270.0
 51
0.0
  0
LINE
  5
41B6
330
4185
100
AcDbEntity
  8
AM_0 外形線1
100
AcDbLine
 10
69.79999999999995
 20
-15.00000000000006
 30
0.0
 11
0.0
 21
-15.00000000000006
 31
0.0
  0
LINE
  5
41B7
330
4185
100
AcDbEntity
  8
AM_0 外形線1
100
AcDbLine
 10
0.0
 20
-0.0000000000000568
 30
0.0
 11
69.79999999999995
 21
-0.0000000000000568
 31
0.0
  0
LINE
  5
41B8
330
4185
100
AcDbEntity
  8
AM_0 外形線1
100
AcDbLine
 10
0.0
 20
-47.00000000000005
 30
0.0
 11
50.5
 21
-47.00000000000005
 31
0.0
  0
LINE
  5
41B9
330
4185
100
AcDbEntity
  8
AM_0 外形線1
100
AcDbLine
 10
53.5
 20
-44.00000000000004
 30
0.0
 11
53.5
 21
-18.00000000000006
 31
0.0
  0
ARC
  5
41BA
330
4185
100
AcDbEntity
  8
AM_0 外形線1
100
AcDbCircle
 10
56.5
 20
-18.00000000000006
 30
0.0
 40
3.0
100
AcDbArc
 50
90.0
 51
180.0
  0
LINE
  5
41BB
330
4185
100
AcDbEntity
  8
AM_0 外形線1
100
AcDbLine
 10
70.0
 20
-0.2000000000000455
 30
0.0
 11
70.0
 21
-14.80000000000007
 31
0.0
  0
LINE
  5
41BC
330
4185
100
AcDbEntity
  8
AM_0 外形線1
100
AcDbLine
 10
70.0
 20
-14.80000000000007
 30
0.0
 11
69.79999999999995
 21
-15.00000000000006
 31
0.0
  0
LINE
  5
41BD
330
4185
100
AcDbEntity
  8
AM_0 外形線1
100
AcDbLine
 10
69.79999999999995
 20
-0.0000000000000568
 30
0.0
 11
70.0
 21
-0.2000000000000455
 31
0.0
  0
LINE
  5
4239
330
4185
100
AcDbEntity
  8
AM_0 外形線1
100
AcDbLine
 10
-52.5
 20
-0.0000000000000568
 30
0.0
 11
-48.5
 21
-0.0000000000000568
 31
0.0
  0
LINE
  5
423A
330
4185
100
AcDbEntity
  8
AM_0 外形線1
100
AcDbLine
 10
-56.4000000000001
 20
-0.0000000000000568
 30
0.0
 11
-69.79999999999995
 21
-0.0000000000000568
 31
0.0
  0
ENDBLK
  5
4187
330
4185
100
AcDbEntity
  8
0
100
AcDbBlockEnd
  0
BLOCK
  5
4270
330
426F
100
AcDbEntity
  8
0
100
AcDbBlockBegin
  2
センタB SMVH140
 70
     0
 10
0.0
 20
0.0
 30
0.0
  3
センタB SMVH140
  1

  0
LINE
  5
4272
330
426F
100
AcDbEntity
  8
AM_0 外形線1
100
AcDbLine
 10
-39.5
 20
0.0
 30
0.0
 11
0.0
 21
0.0
 31
0.0
  0
LINE
  5
4273
330
426F
100
AcDbEntity
  8
AM_0 外形線1
100
AcDbLine
 10
37.0
 20
71.00000000000004
 30
0.0
 11
-37.0
 21
71.00000000000004
 31
0.0
  0
LINE
  5
4274
330
426F
100
AcDbEntity
  8
AM_0 外形線1
100
AcDbLine
 10
-40.0
 20
67.99999999999993
 30
0.0
 11
-40.0
 21
29.0
 31
0.0
  0
ARC
  5
4276
330
426F
100
AcDbEntity
  8
AM_0 外形線1
100
AcDbCircle
 10
0.0
 20
20.0
 30
0.0
 40
47.90999999999999
100
AcDbArc
 50
170.3877379999998
 51
186.5920080000014
  0
LINE
  5
4278
330
426F
100
AcDbEntity
  8
AM_0 外形線1
100
AcDbLine
 10
-47.03281100000004
 20
14.0
 30
0.0
 11
-40.49999999999999
 21
14.0
 31
0.0
  0
LINE
  5
4279
330
426F
100
AcDbEntity
  8
AM_0 外形線1
100
AcDbLine
 10
-47.59325699999998
 20
14.5
 30
0.0
 11
-47.03281100000004
 21
14.0
 31
0.0
  0
LINE
  5
427A
330
426F
100
AcDbEntity
  8
AM_0 外形線1
100
AcDbLine
 10
-40.0
 20
13.5
 30
0.0
 11
-40.0
 21
0.5
 31
0.0
  0
LINE
  5
427B
330
426F
100
AcDbEntity
  8
AM_0 外形線1
100
AcDbLine
 10
-40.0
 20
0.5
 30
0.0
 11
-39.5
 21
0.0
 31
0.0
  0
ARC
  5
427C
330
426F
100
AcDbEntity
  8
AM_0 外形線1
100
AcDbCircle
 10
-40.49999999999999
 20
13.5
 30
0.0
 40
0.5
100
AcDbArc
 50
0.0
 51
90.0
  0
LINE
  5
427D
330
426F
100
AcDbEntity
  8
AM_7 中心線
100
AcDbLine
 10
-50.05585500000006
 20
20.0
 30
0.0
 11
-40.88353800000003
 21
20.0
 31
0.0
  0
LINE
  5
427E
330
426F
100
AcDbEntity
  8
AM_0 外形線1
100
AcDbLine
 10
-40.49999999999999
 20
28.5
 30
0.0
 11
-46.64995399999997
 21
28.5
 31
0.0
  0
LINE
  5
427F
330
426F
100
AcDbEntity
  8
AM_0 外形線1
100
AcDbLine
 10
-46.64995399999997
 20
28.5
 30
0.0
 11
-47.23735899999996
 21
28.0
 31
0.0
  0
ARC
  5
4280
330
426F
100
AcDbEntity
  8
AM_0 外形線1
100
AcDbCircle
 10
-40.49999999999999
 20
29.0
 30
0.0
 40
0.5
100
AcDbArc
 50
270.0
 51
0.0
  0
ARC
  5
4281
330
426F
100
AcDbEntity
  8
AM_0 外形線1
100
AcDbCircle
 10
-37.0
 20
67.99999999999993
 30
0.0
 40
3.0
100
AcDbArc
 50
90.0
 51
180.0
  0
LINE
  5
4282
330
426F
100
AcDbEntity
  8
AM_0 外形線1
100
AcDbLine
 10
40.0
 20
43.0
 30
0.0
 11
40.0
 21
67.99999999999993
 31
0.0
  0
ARC
  5
4283
330
426F
100
AcDbEntity
  8
AM_0 外形線1
100
AcDbCircle
 10
37.0
 20
67.99999999999993
 30
0.0
 40
3.0
100
AcDbArc
 50
0.0
 51
90.0
  0
LINE
  5
4284
330
426F
100
AcDbEntity
  8
AM_0 外形線1
100
AcDbLine
 10
-19.18973602833921
 20
71.00000000000012
 30
0.0
 11
-19.18973602833921
 21
0.0
 31
0.0
  0
ARC
  5
592B
330
426F
100
AcDbEntity
  8
AM_0 外形線1
100
AcDbCircle
 10
0.0
 20
20.0
 30
0.0
 40
43.80000000000001
100
AcDbArc
 50
168.8099539963487
 51
187.8734937982587
  0
ARC
  5
592C
330
426F
100
AcDbEntity
  8
AM_7 中心線
100
AcDbCircle
 10
0.0
 20
20.0
 30
0.0
 40
46.0
100
AcDbArc
 50
167.5578244042806
 51
188.7386873247126
  0
ENDBLK
  5
4271
330
426F
100
AcDbEntity
  8
0
100
AcDbBlockEnd
  0
BLOCK
  5
4396
330
4395
100
AcDbEntity
  8
0
100
AcDbBlockBegin
  2
ケースＢ SMVH140
 70
     0
 10
0.0
 20
0.0
 30
0.0
  3
ケースＢ SMVH140
  1

  0
LINE
  5
4398
330
4395
100
AcDbEntity
  8
AM_4 細線
100
AcDbLine
 10
-63.79999999999995
 20
3.329749999999988
 30
0.0
 11
-63.79999999999995
 21
12.67024999999995
 31
0.0
  0
LINE
  5
4399
330
4395
100
AcDbEntity
  8
AM_0 外形線1
100
AcDbLine
 10
-48.5
 20
15.0
 30
0.0
 11
-48.5
 21
3.0
 31
0.0
  0
LINE
  5
439A
330
4395
100
AcDbEntity
  8
AM_0 外形線1
100
AcDbLine
 10
-70.0
 20
0.1999999999999886
 30
0.0
 11
-70.0
 21
14.80000000000001
 31
0.0
  0
LINE
  5
439B
330
4395
100
AcDbEntity
  8
AM_0 外形線1
100
AcDbLine
 10
-63.79999999999995
 20
3.75
 30
0.0
 11
-48.5
 21
3.75
 31
0.0
  0
LINE
  5
439C
330
4395
100
AcDbEntity
  8
AM_0 外形線1
100
AcDbLine
 10
-52.70000000000004
 20
0.0
 30
0.0
 11
-69.79999999999995
 21
0.0
 31
0.0
  0
LINE
  5
439D
330
4395
100
AcDbEntity
  8
AM_4 細線
100
AcDbLine
 10
-70.0
 20
3.136000000000023
 30
0.0
 11
-63.79999999999995
 21
3.329749999999988
 31
0.0
  0
LINE
  5
439E
330
4395
100
AcDbEntity
  8
AM_0 外形線1
100
AcDbLine
 10
-70.0
 20
3.556249999999976
 30
0.0
 11
-63.79999999999995
 21
3.75
 31
0.0
  0
LINE
  5
439F
330
4395
100
AcDbEntity
  8
AM_0 外形線1
100
AcDbLine
 10
-69.79999999999995
 20
0.0
 30
0.0
 11
-70.0
 21
0.1999999999999886
 31
0.0
  0
LINE
  5
43A0
330
4395
100
AcDbEntity
  8
AM_0 外形線1
100
AcDbLine
 10
-52.5
 20
0.1999999999999886
 30
0.0
 11
-52.70000000000004
 21
0.0
 31
0.0
  0
LINE
  5
43A1
330
4395
100
AcDbEntity
  8
AM_0 外形線1
100
AcDbLine
 10
-63.79999999999995
 20
12.25
 30
0.0
 11
-48.5
 21
12.25
 31
0.0
  0
LINE
  5
43A2
330
4395
100
AcDbEntity
  8
AM_7 中心線
100
AcDbLine
 10
-46.28650399999992
 20
8.0
 30
0.0
 11
-71.99017200000003
 21
8.0
 31
0.0
  0
ARC
  5
43A3
330
4395
100
AcDbEntity
  8
AM_0 外形線1
100
AcDbCircle
 10
-50.5
 20
44.0
 30
0.0
 40
3.0
100
AcDbArc
 50
90.0
 51
180.0
  0
ARC
  5
43A4
330
4395
100
AcDbEntity
  8
AM_0 外形線1
100
AcDbCircle
 10
-56.5
 20
18.0
 30
0.0
 40
3.0
100
AcDbArc
 50
270.0
 51
0.0
  0
LINE
  5
43A5
330
4395
100
AcDbEntity
  8
AM_0 外形線1
100
AcDbLine
 10
-53.5
 20
18.0
 30
0.0
 11
-53.5
 21
28.0
 31
0.0
  0
LINE
  5
43A6
330
4395
100
AcDbEntity
  8
AM_0 外形線1
100
AcDbLine
 10
-69.79999999999995
 20
15.0
 30
0.0
 11
-56.5
 21
15.0
 31
0.0
  0
LINE
  5
43A7
330
4395
100
AcDbEntity
  8
AM_4 細線
100
AcDbLine
 10
-70.0
 20
12.86399999999997
 30
0.0
 11
-63.79999999999995
 21
12.67024999999995
 31
0.0
  0
LINE
  5
43A8
330
4395
100
AcDbEntity
  8
AM_0 外形線1
100
AcDbLine
 10
-70.0
 20
12.44374999999996
 30
0.0
 11
-63.79999999999995
 21
12.25
 31
0.0
  0
LINE
  5
43A9
330
4395
100
AcDbEntity
  8
AM_0 外形線1
100
AcDbLine
 10
-70.0
 20
14.80000000000001
 30
0.0
 11
-69.79999999999995
 21
15.0
 31
0.0
  0
LINE
  5
43AA
330
4395
100
AcDbEntity
  8
AM_3 隠れ線
100
AcDbLine
 10
-44.90000000000009
 20
31.0
 30
0.0
 11
-44.4000000000001
 21
30.5
 31
0.0
  0
LINE
  5
43AB
330
4395
100
AcDbEntity
  8
AM_0 外形線1
100
AcDbLine
 10
-48.0
 20
15.86602599999998
 30
0.0
 11
-48.0
 21
31.13397500000002
 31
0.0
  0
LINE
  5
43AC
330
4395
100
AcDbEntity
  8
AM_7 中心線
100
AcDbLine
 10
-46.0
 20
14.0
 30
0.0
 11
-46.0
 21
33.0
 31
0.0
  0
LINE
  5
43AD
330
4395
100
AcDbEntity
  8
AM_3 隠れ線
100
AcDbLine
 10
-44.4000000000001
 20
18.0
 30
0.0
 11
-44.4000000000001
 21
30.5
 31
0.0
  0
LINE
  5
43AE
330
4395
100
AcDbEntity
  8
AM_0 外形線1
100
AcDbLine
 10
-44.90000000000009
 20
16.0
 30
0.0
 11
-47.5
 21
16.0
 31
0.0
  0
LINE
  5
43AF
330
4395
100
AcDbEntity
  8
AM_0 外形線1
100
AcDbLine
 10
-44.4000000000001
 20
16.5
 30
0.0
 11
-44.90000000000009
 21
16.0
 31
0.0
  0
ARC
  5
43B0
330
4395
100
AcDbEntity
  8
AM_0 外形線1
100
AcDbCircle
 10
-47.5
 20
15.0
 30
0.0
 40
1.0
100
AcDbArc
 50
90.0
 51
180.0
  0
LINE
  5
43B1
330
4395
100
AcDbEntity
  8
AM_0 外形線1
100
AcDbLine
 10
-44.4000000000001
 20
18.0
 30
0.0
 11
-44.4000000000001
 21
16.5
 31
0.0
  0
LWPOLYLINE
  5
43B2
330
4395
100
AcDbEntity
  8
AM_0 外形線1
100
AcDbPolyline
 90
       73
 70
     0
 43
0.0
 10
-42.3499999999999
 20
37.19999999999999
 10
-42.14518399999996
 20
37.21445999999998
 10
-41.94192700000008
 20
37.25773099999998
 10
-41.74177499999996
 20
37.32948199999999
 10
-41.54625299999998
 20
37.42916799999996
 10
-41.35684700000001
 20
37.55603099999996
 10
-41.17499999999995
 20
37.70910399999997
 10
-41.00209600000016
 20
37.88722200000001
 10
-40.83944900000004
 20
38.08903099999998
 10
-40.6882989999999
 20
38.31299400000001
 10
-40.54979600000002
 20
38.55740699999996
 10
-40.42499300000009
 20
38.82040999999997
 10
-40.31484
 20
39.10000000000002
 10
-40.22017699999992
 20
39.39405099999999
 10
-40.14172299999994
 20
39.70032399999997
 10
-40.08007399999995
 20
40.01648800000004
 10
-40.03570200000011
 20
40.34013699999997
 10
-40.00894300000005
 20
40.66880799999995
 10
-40.0
 20
41.0
 10
-40.00894300000005
 20
41.33119200000003
 10
-40.03570200000011
 20
41.65986300000002
 10
-40.08007399999995
 20
41.98351299999996
 10
-40.14172299999994
 20
42.29967699999996
 10
-40.22017699999992
 20
42.60595000000001
 10
-40.31484
 20
42.90000000000003
 10
-40.42499300000009
 20
43.17959100000002
 10
-40.54979600000002
 20
43.44259299999999
 10
-40.6882989999999
 20
43.68700599999993
 10
-40.83944900000004
 20
43.91096899999996
 10
-41.00209600000016
 20
44.11277799999999
 10
-41.17499999999995
 20
44.29089699999997
 10
-41.35684700000001
 20
44.44396999999997
 10
-41.54625299999998
 20
44.57083199999998
 10
-41.74177499999996
 20
44.67051799999995
 10
-41.94192700000008
 20
44.74227000000001
 10
-42.14518399999996
 20
44.78554000000001
 10
-42.3499999999999
 20
44.80000000000001
 10
-42.55481600000007
 20
44.78554000000001
 10
-42.75807299999995
 20
44.74227000000001
 10
-42.95822500000007
 20
44.67051799999995
 10
-43.15374799999995
 20
44.57083199999998
 10
-43.34315300000002
 20
44.44396999999997
 10
-43.52500000000008
 20
44.29089699999997
 10
-43.69790499999999
 20
44.11277799999999
 10
-43.86055099999999
 20
43.91096899999996
 10
-44.01170100000013
 20
43.68700599999993
 10
-44.15020500000014
 20
43.44259299999999
 10
-44.27500699999995
 20
43.17959100000002
 10
-44.38516000000004
 20
42.90000000000003
 10
-44.47982300000012
 20
42.60595000000001
 10
-44.55827799999997
 20
42.29967699999996
 10
-44.61992600000008
 20
41.98351299999996
 10
-44.66429799999992
 20
41.65986300000002
 10
-44.69105799999988
 20
41.33119200000003
 10
-44.70000000000005
 20
41.0
 10
-44.69105799999988
 20
40.66880799999995
 10
-44.66429799999992
 20
40.34013699999997
 10
-44.61992600000008
 20
40.01648800000004
 10
-44.55827799999997
 20
39.70032399999997
 10
-44.47982300000012
 20
39.39405099999999
 10
-44.38516000000004
 20
39.10000000000002
 10
-44.27500699999995
 20
38.82040999999997
 10
-44.15020500000014
 20
38.55740699999996
 10
-44.01170100000013
 20
38.31299400000001
 10
-43.86055099999999
 20
38.08903099999998
 10
-43.69790499999999
 20
37.88722200000001
 10
-43.52500000000008
 20
37.70910399999997
 10
-43.34315300000002
 20
37.55603099999996
 10
-43.15374799999995
 20
37.42916799999996
 10
-42.95822500000007
 20
37.32948199999999
 10
-42.75807299999995
 20
37.25773099999998
 10
-42.55481600000007
 20
37.21445999999998
 10
-42.3499999999999
 20
37.19999999999999
  0
LINE
  5
43B3
330
4395
100
AcDbEntity
  8
AM_0 外形線1
100
AcDbLine
 10
-44.70000000000005
 20
44.30000000000001
 30
0.0
 11
-44.70000000000005
 21
37.69999999999999
 31
0.0
  0
LINE
  5
43B4
330
4395
100
AcDbEntity
  8
AM_0 外形線1
100
AcDbLine
 10
-40.0
 20
35.0
 30
0.0
 11
-47.5
 21
35.0
 31
0.0
  0
ARC
  5
43B5
330
4395
100
AcDbEntity
  8
AM_0 外形線1
100
AcDbCircle
 10
-44.20000000000004
 20
37.69999999999999
 30
0.0
 40
0.5
100
AcDbArc
 50
180.0
 51
270.0
  0
LINE
  5
43B6
330
4395
100
AcDbEntity
  8
AM_3 隠れ線
100
AcDbLine
 10
-47.39586600000007
 20
31.0
 30
0.0
 11
-44.90000000000009
 21
31.0
 31
0.0
  0
ARC
  5
43B7
330
4395
100
AcDbEntity
  8
AM_0 外形線1
100
AcDbCircle
 10
-47.5
 20
32.0
 30
0.0
 40
1.0
100
AcDbArc
 50
180.0
 51
270.0
  0
LINE
  5
43B8
330
4395
100
AcDbEntity
  8
AM_0 外形線1
100
AcDbLine
 10
-48.5
 20
34.0
 30
0.0
 11
-48.5
 21
32.0
 31
0.0
  0
ARC
  5
43B9
330
4395
100
AcDbEntity
  8
AM_0 外形線1
100
AcDbCircle
 10
-47.5
 20
34.0
 30
0.0
 40
1.0
100
AcDbArc
 50
90.0
 51
180.0
  0
LINE
  5
43BA
330
4395
100
AcDbEntity
  8
AM_0 外形線1
100
AcDbLine
 10
-41.0
 20
37.19999999999999
 30
0.0
 11
-41.0
 21
35.0
 31
0.0
  0
LINE
  5
43BB
330
4395
100
AcDbEntity
  8
AM_0 外形線1
100
AcDbLine
 10
-44.20000000000004
 20
37.19999999999999
 30
0.0
 11
-40.0
 21
37.19999999999999
 31
0.0
  0
ARC
  5
43BC
330
4395
100
AcDbEntity
  8
AM_0 外形線1
100
AcDbCircle
 10
-44.20000000000004
 20
44.30000000000001
 30
0.0
 40
0.5
100
AcDbArc
 50
90.0
 51
180.0
  0
LINE
  5
43BD
330
4395
100
AcDbEntity
  8
AM_0 外形線1
100
AcDbLine
 10
-50.5
 20
47.0
 30
0.0
 11
-40.0
 21
47.0
 31
0.0
  0
LINE
  5
43BE
330
4395
100
AcDbEntity
  8
AM_0 外形線1
100
AcDbLine
 10
-40.0
 20
44.80000000000001
 30
0.0
 11
-44.20000000000004
 21
44.80000000000001
 31
0.0
  0
LINE
  5
43BF
330
4395
100
AcDbEntity
  8
AM_0 外形線1
100
AcDbLine
 10
-41.0
 20
47.0
 30
0.0
 11
-41.0
 21
44.80000000000001
 31
0.0
  0
LINE
  5
43C0
330
4395
100
AcDbEntity
  8
AM_0 外形線1
100
AcDbLine
 10
70.0
 20
0.1999999999999886
 30
0.0
 11
70.0
 21
14.80000000000001
 31
0.0
  0
LINE
  5
43C1
330
4395
100
AcDbEntity
  8
AM_0 外形線1
100
AcDbLine
 10
69.79999999999995
 20
0.0
 30
0.0
 11
70.0
 21
0.1999999999999886
 31
0.0
  0
LINE
  5
43C2
330
4395
100
AcDbEntity
  8
AM_0 外形線1
100
AcDbLine
 10
69.79999999999995
 20
15.0
 30
0.0
 11
0.0
 21
15.0
 31
0.0
  0
ARC
  5
43C3
330
4395
100
AcDbEntity
  8
AM_0 外形線1
100
AcDbCircle
 10
50.5
 20
44.0
 30
0.0
 40
3.0
100
AcDbArc
 50
0.0
 51
90.0
  0
LINE
  5
43C4
330
4395
100
AcDbEntity
  8
AM_0 外形線1
100
AcDbLine
 10
50.5
 20
47.0
 30
0.0
 11
0.0
 21
47.0
 31
0.0
  0
LINE
  5
43C5
330
4395
100
AcDbEntity
  8
AM_0 外形線1
100
AcDbLine
 10
53.5
 20
18.0
 30
0.0
 11
53.5
 21
44.0
 31
0.0
  0
ARC
  5
43C6
330
4395
100
AcDbEntity
  8
AM_0 外形線1
100
AcDbCircle
 10
56.5
 20
18.0
 30
0.0
 40
3.0
100
AcDbArc
 50
180.0
 51
270.0
  0
LINE
  5
43C7
330
4395
100
AcDbEntity
  8
AM_0 外形線1
100
AcDbLine
 10
70.0
 20
14.80000000000001
 30
0.0
 11
69.79999999999995
 21
15.0
 31
0.0
  0
LINE
  5
43C8
330
4395
100
AcDbEntity
  8
AM_0 外形線1
100
AcDbLine
 10
-53.0
 20
35.0
 30
0.0
 11
-53.0
 21
38.5
 31
0.0
  0
LINE
  5
43C9
330
4395
100
AcDbEntity
  8
AM_0 外形線1
100
AcDbLine
 10
-53.0
 20
27.5
 30
0.0
 11
-53.0
 21
31.0
 31
0.0
  0
LINE
  5
43CA
330
4395
100
AcDbEntity
  8
AM_0 外形線1
100
AcDbLine
 10
-53.5
 20
27.5
 30
0.0
 11
-53.0
 21
27.5
 31
0.0
  0
LINE
  5
43CB
330
4395
100
AcDbEntity
  8
AM_0 外形線1
100
AcDbLine
 10
-53.5
 20
38.5
 30
0.0
 11
-53.0
 21
38.5
 31
0.0
  0
LINE
  5
43CC
330
4395
100
AcDbEntity
  8
AM_0 外形線1
100
AcDbLine
 10
-48.94999999999981
 20
34.65000000000003
 30
0.0
 11
-48.2599342076785
 21
34.65000000000003
 31
0.0
  0
LINE
  5
43CD
330
4395
100
AcDbEntity
  8
AM_4 細線
100
AcDbLine
 10
-49.29999999999996
 20
35.0
 30
0.0
 11
-47.5
 21
35.0
 31
0.0
  0
LINE
  5
43CE
330
4395
100
AcDbEntity
  8
AM_0 外形線1
100
AcDbLine
 10
-48.2599342076785
 20
31.34999999999997
 30
0.0
 11
-48.94999999999981
 21
31.34999999999997
 31
0.0
  0
LINE
  5
43CF
330
4395
100
AcDbEntity
  8
AM_4 細線
100
AcDbLine
 10
-47.5
 20
31.0
 30
0.0
 11
-49.29999999999996
 21
31.0
 31
0.0
  0
LINE
  5
43D0
330
4395
100
AcDbEntity
  8
AM_0 外形線1
100
AcDbLine
 10
-53.5
 20
37.99999999999994
 30
0.0
 11
-53.5
 21
44.0
 31
0.0
  0
INSERT
  5
43D1
330
4395
100
AcDbEntity
  8
AM_0 外形線1
100
AcDbBlockReference
  2
ジュウジマルコネジ
 10
-53.79999999999995
 20
33.0
 30
0.0
  0
LINE
  5
444E
330
4395
100
AcDbEntity
  8
AM_0 外形線1
100
AcDbLine
 10
-52.5
 20
0.1999999999999886
 30
0.0
 11
-52.5
 21
3.0
 31
0.0
  0
LINE
  5
444F
330
4395
100
AcDbEntity
  8
AM_0 外形線1
100
AcDbLine
 10
-52.5
 20
3.0
 30
0.0
 11
-48.5
 21
3.0
 31
0.0
  0
LINE
  5
4450
330
4395
100
AcDbEntity
  8
AM_0 外形線1
100
AcDbLine
 10
69.79999999999995
 20
0.0
 30
0.0
 11
0.0
 21
0.0
 31
0.0
  0
ENDBLK
  5
4397
330
4395
100
AcDbEntity
  8
0
100
AcDbBlockEnd
  0
BLOCK
  5
4545
330
4544
100
AcDbEntity
  8
0
100
AcDbBlockBegin
  2
リーマボルト SMVH140 M6
 70
     0
 10
0.0
 20
0.0
 30
0.0
  3
リーマボルト SMVH140 M6
  1

  0
LINE
  5
4547
330
4544
100
AcDbEntity
  8
AM_0 外形線1
100
AcDbLine
 10
2.886751000000002
 20
0.0
 30
0.0
 11
2.886751000000002
 21
-3.566986999999982
 31
0.0
  0
LINE
  5
4548
330
4544
100
AcDbEntity
  8
AM_0 外形線1
100
AcDbLine
 10
-2.886752000000115
 20
0.0
 30
0.0
 11
-2.886752000000115
 21
-3.566986999999982
 31
0.0
  0
LINE
  5
4549
330
4544
100
AcDbEntity
  8
AM_0 外形線1
100
AcDbLine
 10
5.75
 20
-3.566986999999982
 30
0.0
 11
5.75
 21
0.0
 31
0.0
  0
LINE
  5
454A
330
4544
100
AcDbEntity
  8
AM_0 外形線1
100
AcDbLine
 10
-5.75
 20
0.0
 30
0.0
 11
-5.75
 21
-3.566986999999982
 31
0.0
  0
ARC
  5
454B
330
4544
100
AcDbEntity
  8
AM_0 外形線1
100
AcDbCircle
 10
4.318375999999943
 20
-1.416879000000051
 30
0.0
 40
2.583120999999998
100
AcDbArc
 50
236.3428030000036
 51
303.6571969999964
  0
LINE
  5
454C
330
4544
100
AcDbEntity
  8
AM_0 外形線1
100
AcDbLine
 10
5.0
 20
-4.0
 30
0.0
 11
5.75
 21
-3.566986999999982
 31
0.0
  0
ARC
  5
454D
330
4544
100
AcDbEntity
  8
AM_0 外形線1
100
AcDbCircle
 10
-4.318376000000172
 20
-1.416879000000051
 30
0.0
 40
2.583120999999998
100
AcDbArc
 50
236.3428030000036
 51
303.6571969999964
  0
LINE
  5
454E
330
4544
100
AcDbEntity
  8
AM_0 外形線1
100
AcDbLine
 10
-5.0
 20
-4.0
 30
0.0
 11
5.0
 21
-4.0
 31
0.0
  0
LINE
  5
454F
330
4544
100
AcDbEntity
  8
AM_0 外形線1
100
AcDbLine
 10
-5.75
 20
-3.566986999999982
 30
0.0
 11
-5.0
 21
-4.0
 31
0.0
  0
ARC
  5
4550
330
4544
100
AcDbEntity
  8
AM_0 外形線1
100
AcDbCircle
 10
0.0
 20
5.839010999999969
 30
0.0
 40
9.839010999999999
100
AcDbArc
 50
252.9384689999998
 51
287.0615310000003
  0
ARC
  5
4551
330
4544
100
AcDbEntity
  8
AM_0 外形線1
100
AcDbCircle
 10
4.318375999999943
 20
33.91687899999999
 30
0.0
 40
2.583120999999998
100
AcDbArc
 50
56.34280300000366
 51
123.6571969999963
  0
LINE
  5
4552
330
4544
100
AcDbEntity
  8
AM_0 外形線1
100
AcDbLine
 10
5.0
 20
36.5
 30
0.0
 11
5.75
 21
36.06698699999999
 31
0.0
  0
LINE
  5
4553
330
4544
100
AcDbEntity
  8
AM_0 外形線1
100
AcDbLine
 10
6.099999999999909
 20
31.5
 30
0.0
 11
-6.099999999999909
 21
31.5
 31
0.0
  0
LINE
  5
4554
330
4544
100
AcDbEntity
  8
AM_0 外形線1
100
AcDbLine
 10
2.886751000000002
 20
31.5
 30
0.0
 11
2.886751000000002
 21
36.06698699999999
 31
0.0
  0
LINE
  5
4555
330
4544
100
AcDbEntity
  8
AM_0 外形線1
100
AcDbLine
 10
-2.886752000000115
 20
31.5
 30
0.0
 11
-2.886752000000115
 21
36.06698699999999
 31
0.0
  0
LINE
  5
4556
330
4544
100
AcDbEntity
  8
AM_0 外形線1
100
AcDbLine
 10
-5.75
 20
31.5
 30
0.0
 11
-5.75
 21
36.06698699999999
 31
0.0
  0
LINE
  5
4557
330
4544
100
AcDbEntity
  8
AM_0 外形線1
100
AcDbLine
 10
-6.099999999999909
 20
31.5
 30
0.0
 11
-6.099999999999909
 21
30.0
 31
0.0
  0
LINE
  5
4558
330
4544
100
AcDbEntity
  8
AM_0 外形線1
100
AcDbLine
 10
-0.5
 20
31.5
 30
0.0
 11
1.0
 21
30.0
 31
0.0
  0
LINE
  5
4559
330
4544
100
AcDbEntity
  8
AM_0 外形線1
100
AcDbLine
 10
-1.0
 20
31.5
 30
0.0
 11
0.5
 21
30.0
 31
0.0
  0
ARC
  5
455A
330
4544
100
AcDbEntity
  8
AM_0 外形線1
100
AcDbCircle
 10
-4.318376000000172
 20
33.91687899999999
 30
0.0
 40
2.583120999999998
100
AcDbArc
 50
56.34280300000366
 51
123.6571969999963
  0
LINE
  5
455B
330
4544
100
AcDbEntity
  8
AM_0 外形線1
100
AcDbLine
 10
-5.0
 20
36.5
 30
0.0
 11
5.0
 21
36.5
 31
0.0
  0
LINE
  5
455C
330
4544
100
AcDbEntity
  8
AM_0 外形線1
100
AcDbLine
 10
-5.75
 20
36.06698699999999
 30
0.0
 11
-5.0
 21
36.5
 31
0.0
  0
LINE
  5
455D
330
4544
100
AcDbEntity
  8
AM_0 外形線1
100
AcDbLine
 10
-3.0
 20
38.0
 30
0.0
 11
3.0
 21
38.0
 31
0.0
  0
LINE
  5
455E
330
4544
100
AcDbEntity
  8
AM_0 外形線1
100
AcDbLine
 10
3.0
 20
38.0
 30
0.0
 11
3.0
 21
36.5
 31
0.0
  0
LINE
  5
455F
330
4544
100
AcDbEntity
  8
AM_0 外形線1
100
AcDbLine
 10
2.0
 20
39.0
 30
0.0
 11
3.0
 21
38.0
 31
0.0
  0
LINE
  5
4560
330
4544
100
AcDbEntity
  8
AM_0 外形線1
100
AcDbLine
 10
-2.0
 20
39.0
 30
0.0
 11
2.0
 21
39.0
 31
0.0
  0
LINE
  5
4561
330
4544
100
AcDbEntity
  8
AM_0 外形線1
100
AcDbLine
 10
-3.0
 20
38.0
 30
0.0
 11
-2.0
 21
39.0
 31
0.0
  0
LINE
  5
4562
330
4544
100
AcDbEntity
  8
AM_0 外形線1
100
AcDbLine
 10
-3.0
 20
36.5
 30
0.0
 11
-3.0
 21
38.0
 31
0.0
  0
ARC
  5
4563
330
4544
100
AcDbEntity
  8
AM_0 外形線1
100
AcDbCircle
 10
0.0
 20
26.66098899999997
 30
0.0
 40
9.839010999999999
100
AcDbArc
 50
72.93846899999976
 51
107.0615310000002
  0
LINE
  5
4564
330
4544
100
AcDbEntity
  8
AM_4 細線
100
AcDbLine
 10
2.5
 20
36.5
 30
0.0
 11
2.5
 21
38.5
 31
0.0
  0
LINE
  5
4565
330
4544
100
AcDbEntity
  8
AM_4 細線
100
AcDbLine
 10
-2.5
 20
36.5
 30
0.0
 11
-2.5
 21
38.5
 31
0.0
  0
LINE
  5
4566
330
4544
100
AcDbEntity
  8
AM_0 外形線1
100
AcDbLine
 10
5.75
 20
36.06698699999999
 30
0.0
 11
5.75
 21
31.5
 31
0.0
  0
LINE
  5
4567
330
4544
100
AcDbEntity
  8
AM_0 外形線1
100
AcDbLine
 10
6.099999999999909
 20
30.0
 30
0.0
 11
6.099999999999909
 21
31.5
 31
0.0
  0
LINE
  5
45B1
330
4544
100
AcDbEntity
  8
AM_0 外形線1
100
AcDbLine
 10
6.099999999999909
 20
30.0
 30
0.0
 11
-6.099999999999909
 21
30.0
 31
0.0
  0
LINE
  5
45B2
330
4544
100
AcDbEntity
  8
AM_0 外形線1
100
AcDbLine
 10
-5.75
 20
0.0
 30
0.0
 11
5.75
 21
0.0
 31
0.0
  0
ENDBLK
  5
4546
330
4544
100
AcDbEntity
  8
0
100
AcDbBlockEnd
  0
BLOCK
  5
45D3
330
45D2
100
AcDbEntity
  8
0
100
AcDbBlockBegin
  2
スラストプレ－ト SMVH140
 70
     0
 10
0.0
 20
0.0
 30
0.0
  3
スラストプレ－ト SMVH140
  1

  0
LINE
  5
45D5
330
45D2
100
AcDbEntity
  8
AM_0 外形線1
100
AcDbLine
 10
-45.0
 20
7.0
 30
0.0
 11
-52.5
 21
7.0
 31
0.0
  0
LINE
  5
45D6
330
45D2
100
AcDbEntity
  8
AM_0 外形線1
100
AcDbLine
 10
-52.5
 20
4.0
 30
0.0
 11
-48.0
 21
4.0
 31
0.0
  0
LINE
  5
45D7
330
45D2
100
AcDbEntity
  8
AM_0 外形線1
100
AcDbLine
 10
-35.0
 20
1.0
 30
0.0
 11
-48.0
 21
0.9999999999999431
 31
0.0
  0
LINE
  5
45D8
330
45D2
100
AcDbEntity
  8
AM_0 外形線1
100
AcDbLine
 10
0.0
 20
5.5
 30
0.0
 11
-45.0
 21
5.500000000000056
 31
0.0
  0
LINE
  5
45D9
330
45D2
100
AcDbEntity
  8
AM_0 外形線1
100
AcDbLine
 10
-48.0
 20
4.0
 30
0.0
 11
-48.0
 21
0.9999999999999431
 31
0.0
  0
LINE
  5
45DA
330
45D2
100
AcDbEntity
  8
AM_0 外形線1
100
AcDbLine
 10
-45.0
 20
7.0
 30
0.0
 11
-45.0
 21
5.500000000000056
 31
0.0
  0
LINE
  5
45DB
330
45D2
100
AcDbEntity
  8
AM_0 外形線1
100
AcDbLine
 10
-25.0
 20
1.000000000000055
 30
0.0
 11
-25.0
 21
0.0000000000000568
 31
0.0
  0
LINE
  5
45DC
330
45D2
100
AcDbEntity
  8
AM_0 外形線1
100
AcDbLine
 10
0.0
 20
1.0
 30
0.0
 11
-25.0
 21
1.000000000000055
 31
0.0
  0
ARC
  5
45DD
330
45D2
100
AcDbEntity
  8
AM_0 外形線1
100
AcDbCircle
 10
-34.0
 20
1.0
 30
0.0
 40
1.0
100
AcDbArc
 50
180.0
 51
270.0
  0
LINE
  5
45DE
330
45D2
100
AcDbEntity
  8
AM_0 外形線1
100
AcDbLine
 10
-52.5
 20
4.0
 30
0.0
 11
-52.5
 21
7.0
 31
0.0
  0
LINE
  5
45F9
330
45D2
100
AcDbEntity
  8
AM_0 外形線1
100
AcDbLine
 10
-25.0
 20
0.0000000000000568
 30
0.0
 11
-34.0
 21
0.0
 31
0.0
  0
ENDBLK
  5
45D4
330
45D2
100
AcDbEntity
  8
0
100
AcDbBlockEnd
  0
BLOCK
  5
4659
330
4658
100
AcDbEntity
  8
0
100
AcDbBlockBegin
  2
*D13
 70
     1
 10
0.0
 20
0.0
 30
0.0
  3
*D13
  1

  0
LINE
  5
48B9
330
4658
100
AcDbEntity
  8
AM_5 寸法線
 62
     3
100
AcDbLine
 10
285.9075235999999
 20
241.9709021
 30
0.0
 11
285.9075235999999
 21
201.4709021000001
 31
0.0
  0
LINE
  5
48BA
330
4658
100
AcDbEntity
  8
AM_5 寸法線
 62
     3
100
AcDbLine
 10
365.9075235999998
 20
241.9709021000001
 30
0.0
 11
365.9075235999998
 21
201.4709021000001
 31
0.0
  0
LINE
  5
48BB
330
4658
100
AcDbEntity
  8
AM_5 寸法線
 62
     3
100
AcDbLine
 10
289.6575235999999
 20
202.4084021000001
 30
0.0
 11
362.1575235999998
 21
202.4084021000001
 31
0.0
  0
INSERT
  5
48BC
330
4658
100
AcDbEntity
  8
AM_5 寸法線
 62
     3
100
AcDbBlockReference
  2
_Open30
 10
285.9075235999999
 20
202.4084021000001
 30
0.0
 41
3.75
 42
3.75
 43
3.75
 50
180.0
  0
INSERT
  5
48BD
330
4658
100
AcDbEntity
  8
AM_5 寸法線
 62
     3
100
AcDbBlockReference
  2
_Open30
 10
365.9075235999998
 20
202.4084021000001
 30
0.0
 41
3.75
 42
3.75
 43
3.75
  0
MTEXT
  5
48BE
330
4658
100
AcDbEntity
  8
AM_5 寸法線
 62
     3
100
AcDbMText
 10
325.9075235999999
 20
207.2834021000001
 30
0.0
 40
5.25
 41
0.0
 46
0.0
 71
     5
 72
     1
  1
%%c80
  7
SEISA
 73
     1
 44
1.0
  0
POINT
  5
48BF
330
4658
100
AcDbEntity
  8
Defpoints
 62
     0
100
AcDbPoint
 10
285.9075235999999
 20
242.9084020999999
 30
0.0
  0
POINT
  5
48C0
330
4658
100
AcDbEntity
  8
Defpoints
 62
     0
100
AcDbPoint
 10
365.9075235999998
 20
242.9084021000001
 30
0.0
  0
POINT
  5
48C1
330
4658
100
AcDbEntity
  8
Defpoints
 62
     0
100
AcDbPoint
 10
365.9075235999998
 20
202.4084021000001
 30
0.0
  0
ENDBLK
  5
465A
330
4658
100
AcDbEntity
  8
0
100
AcDbBlockEnd
  0
BLOCK
  5
467E
330
467D
100
AcDbEntity
  8
0
100
AcDbBlockBegin
  2
*D14
 70
     1
 10
0.0
 20
0.0
 30
0.0
  3
*D14
  1

  0
LINE
  5
55A9
330
467D
100
AcDbEntity
  8
AM_5 寸法線
 62
     3
100
AcDbLine
 10
396.6450235999998
 20
329.9084021
 30
0.0
 11
419.3450235999998
 21
329.9084021
 31
0.0
  0
LINE
  5
55AA
330
467D
100
AcDbEntity
  8
AM_5 寸法線
 62
     3
100
AcDbLine
 10
396.6450235999998
 20
314.9084021000001
 30
0.0
 11
419.3450235999998
 21
314.9084021000001
 31
0.0
  0
LINE
  5
55AB
330
467D
100
AcDbEntity
  8
AM_5 寸法線
 62
     3
100
AcDbLine
 10
418.4075235999998
 20
326.1584021
 30
0.0
 11
418.4075235999998
 21
318.6584021000001
 31
0.0
  0
INSERT
  5
55AC
330
467D
100
AcDbEntity
  8
AM_5 寸法線
 62
     3
100
AcDbBlockReference
  2
_Open30
 10
418.4075235999998
 20
329.9084021
 30
0.0
 41
3.75
 42
3.75
 43
3.75
 50
90.0
  0
INSERT
  5
55AD
330
467D
100
AcDbEntity
  8
AM_5 寸法線
 62
     3
100
AcDbBlockReference
  2
GENDOT
 10
418.4075235999998
 20
314.9084021000001
 30
0.0
 41
3.75
 42
3.75
 43
3.75
 50
270.0
  0
MTEXT
  5
55AE
330
467D
100
AcDbEntity
  8
AM_5 寸法線
 62
     3
100
AcDbMText
 10
413.5325235999998
 20
322.4084021000002
 30
0.0
 40
5.25
 41
0.0
 46
0.0
 71
     5
 72
     1
  1
15
  7
SEISA
 11
0.0000000000000001
 21
1.0
 31
0.0
 73
     1
 44
1.0
  0
POINT
  5
55AF
330
467D
100
AcDbEntity
  8
Defpoints
 62
     0
100
AcDbPoint
 10
395.7075235999998
 20
329.9084021
 30
0.0
  0
POINT
  5
55B0
330
467D
100
AcDbEntity
  8
Defpoints
 62
     0
100
AcDbPoint
 10
395.7075235999998
 20
314.9084021000001
 30
0.0
  0
POINT
  5
55B1
330
467D
100
AcDbEntity
  8
Defpoints
 62
     0
100
AcDbPoint
 10
418.4075235999998
 20
314.9084021000001
 30
0.0
  0
ENDBLK
  5
467F
330
467D
100
AcDbEntity
  8
0
100
AcDbBlockEnd
  0
BLOCK
  5
4696
330
4695
100
AcDbEntity
  8
0
100
AcDbBlockBegin
  2
*D15
 70
     1
 10
0.0
 20
0.0
 30
0.0
  3
*D15
  1

  0
LINE
  5
55CD
330
4695
100
AcDbEntity
  8
AM_5 寸法線
 62
     3
100
AcDbLine
 10
396.6450235999998
 20
299.9084021000001
 30
0.0
 11
419.3450235999998
 21
299.9084021000001
 31
0.0
  0
LINE
  5
55CE
330
4695
100
AcDbEntity
  8
AM_5 寸法線
 62
     3
100
AcDbLine
 10
396.6450235999998
 20
314.9084021000001
 30
0.0
 11
419.3450235999998
 21
314.9084021000001
 31
0.0
  0
LINE
  5
55CF
330
4695
100
AcDbEntity
  8
AM_5 寸法線
 62
     3
100
AcDbLine
 10
418.4075235999998
 20
303.6584021
 30
0.0
 11
418.4075235999998
 21
311.1584021
 31
0.0
  0
INSERT
  5
55D0
330
4695
100
AcDbEntity
  8
AM_5 寸法線
 62
     3
100
AcDbBlockReference
  2
_Open30
 10
418.4075235999998
 20
299.9084021000001
 30
0.0
 41
3.75
 42
3.75
 43
3.75
 50
270.0
  0
INSERT
  5
55D1
330
4695
100
AcDbEntity
  8
AM_5 寸法線
 62
     3
100
AcDbBlockReference
  2
GENDOT
 10
418.4075235999998
 20
314.9084021000001
 30
0.0
 41
3.75
 42
3.75
 43
3.75
 50
90.0
  0
MTEXT
  5
55D2
330
4695
100
AcDbEntity
  8
AM_5 寸法線
 62
     3
100
AcDbMText
 10
413.5325235999998
 20
307.4084021000002
 30
0.0
 40
5.25
 41
0.0
 46
0.0
 71
     5
 72
     1
  1
15
  7
SEISA
 11
0.0000000000000001
 21
1.0
 31
0.0
 73
     1
 44
1.0
  0
POINT
  5
55D3
330
4695
100
AcDbEntity
  8
Defpoints
 62
     0
100
AcDbPoint
 10
395.7075235999998
 20
299.9084021000001
 30
0.0
  0
POINT
  5
55D4
330
4695
100
AcDbEntity
  8
Defpoints
 62
     0
100
AcDbPoint
 10
395.7075235999998
 20
314.9084021000001
 30
0.0
  0
POINT
  5
55D5
330
4695
100
AcDbEntity
  8
Defpoints
 62
     0
100
AcDbPoint
 10
418.4075235999998
 20
314.9084021000001
 30
0.0
  0
ENDBLK
  5
4697
330
4695
100
AcDbEntity
  8
0
100
AcDbBlockEnd
  0
BLOCK
  5
46AE
330
46AD
100
AcDbEntity
  8
0
100
AcDbBlockBegin
  2
*D16
 70
     1
 10
0.0
 20
0.0
 30
0.0
  3
*D16
  1

  0
LINE
  5
599B
330
46AD
100
AcDbEntity
  8
AM_5 寸法線
 62
     3
100
AcDbLine
 10
377.3450235999998
 20
267.9084021
 30
0.0
 11
434.3450235999998
 21
267.9084021
 31
0.0
  0
LINE
  5
599C
330
46AD
100
AcDbEntity
  8
AM_5 寸法線
 62
     3
100
AcDbLine
 10
377.3450235999998
 20
361.9084021
 30
0.0
 11
434.3450235999998
 21
361.9084021
 31
0.0
  0
LINE
  5
599D
330
46AD
100
AcDbEntity
  8
AM_5 寸法線
 62
     3
100
AcDbLine
 10
433.4075235999998
 20
271.6584021
 30
0.0
 11
433.4075235999998
 21
358.1584021000001
 31
0.0
  0
INSERT
  5
599E
330
46AD
100
AcDbEntity
  8
AM_5 寸法線
 62
     3
100
AcDbBlockReference
  2
_Open30
 10
433.4075235999998
 20
267.9084021
 30
0.0
 41
3.75
 42
3.75
 43
3.75
 50
270.0
  0
INSERT
  5
599F
330
46AD
100
AcDbEntity
  8
AM_5 寸法線
 62
     3
100
AcDbBlockReference
  2
_Open30
 10
433.4075235999998
 20
361.9084021
 30
0.0
 41
3.75
 42
3.75
 43
3.75
 50
90.0
  0
MTEXT
  5
59A0
330
46AD
100
AcDbEntity
  8
AM_5 寸法線
 62
     3
100
AcDbMText
 10
428.5325235999998
 20
314.9084021000001
 30
0.0
 40
5.25
 41
0.0
 46
0.0
 71
     5
 72
     1
  1
94
  7
SEISA
 11
0.0000000000000001
 21
1.0
 31
0.0
 73
     1
 44
1.0
  0
POINT
  5
59A1
330
46AD
100
AcDbEntity
  8
Defpoints
 62
     0
100
AcDbPoint
 10
376.4075235999998
 20
267.9084021
 30
0.0
  0
POINT
  5
59A2
330
46AD
100
AcDbEntity
  8
Defpoints
 62
     0
100
AcDbPoint
 10
376.4075235999998
 20
361.9084021
 30
0.0
  0
POINT
  5
59A3
330
46AD
100
AcDbEntity
  8
Defpoints
 62
     0
100
AcDbPoint
 10
433.4075235999998
 20
361.9084021
 30
0.0
  0
ENDBLK
  5
46AF
330
46AD
100
AcDbEntity
  8
0
100
AcDbBlockEnd
  0
BLOCK
  5
478F
330
478E
100
AcDbEntity
  8
0
100
AcDbBlockBegin
  2
*D17
 70
     1
 10
0.0
 20
0.0
 30
0.0
  3
*D17
  1

  0
LINE
  5
479B
330
478E
100
AcDbEntity
  8
AM_5 寸法線
 62
     3
100
AcDbLine
 10
363.8450235999998
 20
239.9084021000001
 30
0.0
 11
449.3450235999998
 21
239.9084021
 31
0.0
  0
LINE
  5
479C
330
478E
100
AcDbEntity
  8
AM_5 寸法線
 62
     3
100
AcDbLine
 10
363.8450235999998
 20
389.9084021000001
 30
0.0
 11
449.3450235999998
 21
389.9084020999999
 31
0.0
  0
LINE
  5
479D
330
478E
100
AcDbEntity
  8
AM_5 寸法線
 62
     3
100
AcDbLine
 10
448.4075235999998
 20
243.6584021
 30
0.0
 11
448.4075235999998
 21
386.1584020999999
 31
0.0
  0
INSERT
  5
479E
330
478E
100
AcDbEntity
  8
AM_5 寸法線
 62
     3
100
AcDbBlockReference
  2
_Open30
 10
448.4075235999998
 20
239.9084021
 30
0.0
 41
3.75
 42
3.75
 43
3.75
 50
270.0
  0
INSERT
  5
479F
330
478E
100
AcDbEntity
  8
AM_5 寸法線
 62
     3
100
AcDbBlockReference
  2
_Open30
 10
448.4075235999998
 20
389.9084020999999
 30
0.0
 41
3.75
 42
3.75
 43
3.75
 50
90.0
  0
MTEXT
  5
47A0
330
478E
100
AcDbEntity
  8
AM_5 寸法線
 62
     3
100
AcDbMText
 10
443.5325235999997
 20
314.9084021000001
 30
0.0
 40
5.25
 41
0.0
 46
0.0
 71
     5
 72
     1
  1
150
  7
SEISA
 11
0.0000000000000001
 21
1.0
 31
0.0
 73
     1
 44
1.0
  0
POINT
  5
47A1
330
478E
100
AcDbEntity
  8
Defpoints
 62
     0
100
AcDbPoint
 10
362.9075235999998
 20
239.9084021000001
 30
0.0
  0
POINT
  5
47A2
330
478E
100
AcDbEntity
  8
Defpoints
 62
     0
100
AcDbPoint
 10
362.9075235999998
 20
389.9084021000001
 30
0.0
  0
POINT
  5
47A3
330
478E
100
AcDbEntity
  8
Defpoints
 62
     0
100
AcDbPoint
 10
448.4075235999998
 20
389.9084020999999
 30
0.0
  0
ENDBLK
  5
4790
330
478E
100
AcDbEntity
  8
0
100
AcDbBlockEnd
  0
BLOCK
  5
486A
330
4869
100
AcDbEntity
  8
0
100
AcDbBlockBegin
  2
*D18
 70
     1
 10
0.0
 20
0.0
 30
0.0
  3
*D18
  1

  0
LINE
  5
48C2
330
4869
100
AcDbEntity
  8
AM_5 寸法線
 62
     3
100
AcDbLine
 10
255.9075235999999
 20
330.6459021000001
 30
0.0
 11
255.9075235999999
 21
443.3459021000001
 31
0.0
  0
LINE
  5
48C3
330
4869
100
AcDbEntity
  8
AM_5 寸法線
 62
     3
100
AcDbLine
 10
395.9075235999998
 20
330.6459021000001
 30
0.0
 11
395.9075235999998
 21
443.3459021000001
 31
0.0
  0
LINE
  5
48C4
330
4869
100
AcDbEntity
  8
AM_5 寸法線
 62
     3
100
AcDbLine
 10
259.6575235999999
 20
442.4084021000001
 30
0.0
 11
392.1575235999998
 21
442.4084021000001
 31
0.0
  0
INSERT
  5
48C5
330
4869
100
AcDbEntity
  8
AM_5 寸法線
 62
     3
100
AcDbBlockReference
  2
_Open30
 10
255.9075235999999
 20
442.4084021000001
 30
0.0
 41
3.75
 42
3.75
 43
3.75
 50
180.0
  0
INSERT
  5
48C6
330
4869
100
AcDbEntity
  8
AM_5 寸法線
 62
     3
100
AcDbBlockReference
  2
_Open30
 10
395.9075235999998
 20
442.4084021000001
 30
0.0
 41
3.75
 42
3.75
 43
3.75
  0
MTEXT
  5
48C7
330
4869
100
AcDbEntity
  8
AM_5 寸法線
 62
     3
100
AcDbMText
 10
325.9075235999999
 20
447.2834021000001
 30
0.0
 40
5.25
 41
0.0
 46
0.0
 71
     5
 72
     1
  1
%%c140
  7
SEISA
 73
     1
 44
1.0
  0
POINT
  5
48C8
330
4869
100
AcDbEntity
  8
Defpoints
 62
     0
100
AcDbPoint
 10
255.9075235999999
 20
329.7084021000001
 30
0.0
  0
POINT
  5
48C9
330
4869
100
AcDbEntity
  8
Defpoints
 62
     0
100
AcDbPoint
 10
395.9075235999998
 20
329.7084021000001
 30
0.0
  0
POINT
  5
48CA
330
4869
100
AcDbEntity
  8
Defpoints
 62
     0
100
AcDbPoint
 10
395.9075235999998
 20
442.4084021000001
 30
0.0
  0
ENDBLK
  5
486B
330
4869
100
AcDbEntity
  8
0
100
AcDbBlockEnd
  0
BLOCK
  5
4882
330
4881
100
AcDbEntity
  8
0
100
AcDbBlockBegin
  2
*D19
 70
     1
 10
0.0
 20
0.0
 30
0.0
  3
*D19
  1

  0
LINE
  5
48CB
330
4881
100
AcDbEntity
  8
AM_5 寸法線
 62
     3
100
AcDbLine
 10
272.4075236
 20
359.8459021
 30
0.0
 11
272.4075236
 21
428.3459021000001
 31
0.0
  0
LINE
  5
48CC
330
4881
100
AcDbEntity
  8
AM_5 寸法線
 62
     3
100
AcDbLine
 10
379.4075235999998
 20
359.8459021
 30
0.0
 11
379.4075235999998
 21
428.3459021000001
 31
0.0
  0
LINE
  5
48CD
330
4881
100
AcDbEntity
  8
AM_5 寸法線
 62
     3
100
AcDbLine
 10
276.1575235999999
 20
427.4084021000001
 30
0.0
 11
375.6575235999998
 21
427.4084021000001
 31
0.0
  0
INSERT
  5
48CE
330
4881
100
AcDbEntity
  8
AM_5 寸法線
 62
     3
100
AcDbBlockReference
  2
_Open30
 10
272.4075236
 20
427.4084021000001
 30
0.0
 41
3.75
 42
3.75
 43
3.75
 50
180.0
  0
INSERT
  5
48CF
330
4881
100
AcDbEntity
  8
AM_5 寸法線
 62
     3
100
AcDbBlockReference
  2
_Open30
 10
379.4075235999998
 20
427.4084021000001
 30
0.0
 41
3.75
 42
3.75
 43
3.75
  0
MTEXT
  5
48D0
330
4881
100
AcDbEntity
  8
AM_5 寸法線
 62
     3
100
AcDbMText
 10
325.9075235999999
 20
432.2834021000002
 30
0.0
 40
5.25
 41
0.0
 46
0.0
 71
     5
 72
     1
  1
%%c107
  7
SEISA
 73
     1
 44
1.0
  0
POINT
  5
48D1
330
4881
100
AcDbEntity
  8
Defpoints
 62
     0
100
AcDbPoint
 10
272.4075236
 20
358.9084021000001
 30
0.0
  0
POINT
  5
48D2
330
4881
100
AcDbEntity
  8
Defpoints
 62
     0
100
AcDbPoint
 10
379.4075235999998
 20
358.9084021000001
 30
0.0
  0
POINT
  5
48D3
330
4881
100
AcDbEntity
  8
Defpoints
 62
     0
100
AcDbPoint
 10
379.4075235999998
 20
427.4084021000001
 30
0.0
  0
ENDBLK
  5
4883
330
4881
100
AcDbEntity
  8
0
100
AcDbBlockEnd
  0
BLOCK
  5
489A
330
4899
100
AcDbEntity
  8
0
100
AcDbBlockBegin
  2
*D20
 70
     1
 10
0.0
 20
0.0
 30
0.0
  3
*D20
  1

  0
LINE
  5
48D4
330
4899
100
AcDbEntity
  8
AM_5 寸法線
 62
     3
100
AcDbLine
 10
285.9075235999999
 20
387.8459021000001
 30
0.0
 11
285.9075235999999
 21
413.3459021000001
 31
0.0
  0
LINE
  5
48D5
330
4899
100
AcDbEntity
  8
AM_5 寸法線
 62
     3
100
AcDbLine
 10
365.9075235999998
 20
387.8459021000001
 30
0.0
 11
365.9075235999998
 21
413.3459021000001
 31
0.0
  0
LINE
  5
48D6
330
4899
100
AcDbEntity
  8
AM_5 寸法線
 62
     3
100
AcDbLine
 10
289.6575235999999
 20
412.4084021000001
 30
0.0
 11
362.1575235999998
 21
412.4084021000001
 31
0.0
  0
INSERT
  5
48D7
330
4899
100
AcDbEntity
  8
AM_5 寸法線
 62
     3
100
AcDbBlockReference
  2
_Open30
 10
285.9075235999999
 20
412.4084021000001
 30
0.0
 41
3.75
 42
3.75
 43
3.75
 50
180.0
  0
INSERT
  5
48D8
330
4899
100
AcDbEntity
  8
AM_5 寸法線
 62
     3
100
AcDbBlockReference
  2
_Open30
 10
365.9075235999998
 20
412.4084021000001
 30
0.0
 41
3.75
 42
3.75
 43
3.75
  0
MTEXT
  5
48D9
330
4899
100
AcDbEntity
  8
AM_5 寸法線
 62
     3
100
AcDbMText
 10
325.9075235999999
 20
417.2834021000001
 30
0.0
 40
5.25
 41
0.0
 46
0.0
 71
     5
 72
     1
  1
%%c80
  7
SEISA
 73
     1
 44
1.0
  0
POINT
  5
48DA
330
4899
100
AcDbEntity
  8
Defpoints
 62
     0
100
AcDbPoint
 10
285.9075235999999
 20
386.9084021
 30
0.0
  0
POINT
  5
48DB
330
4899
100
AcDbEntity
  8
Defpoints
 62
     0
100
AcDbPoint
 10
365.9075235999998
 20
386.9084021
 30
0.0
  0
POINT
  5
48DC
330
4899
100
AcDbEntity
  8
Defpoints
 62
     0
100
AcDbPoint
 10
365.9075235999998
 20
412.4084021000001
 30
0.0
  0
ENDBLK
  5
489B
330
4899
100
AcDbEntity
  8
0
100
AcDbBlockEnd
  0
BLOCK
  5
48E1
330
48E0
100
AcDbEntity
  8
0
100
AcDbBlockBegin
  2
*D21
 70
     1
 10
0.0
 20
0.0
 30
0.0
  3
*D21
  1

  0
LINE
  5
48F7
330
48E0
100
AcDbEntity
  8
AM_5 寸法線
 62
     3
100
AcDbLine
 10
314.2674497251146
 20
239.9084021000001
 30
0.0
 11
319.4830754824425
 21
239.9084021000001
 31
0.0
  0
LINE
  5
48F8
330
48E0
100
AcDbEntity
  8
AM_5 寸法線
 62
     3
100
AcDbLine
 10
314.2674497251146
 20
310.9084021000001
 30
0.0
 11
319.4830754824425
 21
310.9084021000001
 31
0.0
  0
LINE
  5
48F9
330
48E0
100
AcDbEntity
  8
AM_5 寸法線
 62
     3
100
AcDbLine
 10
318.5455754824425
 20
243.6584021000001
 30
0.0
 11
318.5455754824425
 21
307.1584021
 31
0.0
  0
INSERT
  5
48FA
330
48E0
100
AcDbEntity
  8
AM_5 寸法線
 62
     3
100
AcDbBlockReference
  2
_Open30
 10
318.5455754824425
 20
239.9084021000001
 30
0.0
 41
3.75
 42
3.75
 43
3.75
 50
270.0
  0
INSERT
  5
48FB
330
48E0
100
AcDbEntity
  8
AM_5 寸法線
 62
     3
100
AcDbBlockReference
  2
_Open30
 10
318.5455754824425
 20
310.9084021000001
 30
0.0
 41
3.75
 42
3.75
 43
3.75
 50
90.0
  0
MTEXT
  5
48FC
330
48E0
100
AcDbEntity
  8
AM_5 寸法線
 62
     3
100
AcDbMText
 10
313.6705754824423
 20
275.4084021000001
 30
0.0
 40
5.25
 41
0.0
 46
0.0
 71
     5
 72
     1
  1
71
  7
SEISA
 11
0.0000000000000001
 21
1.0
 31
0.0
 73
     1
 44
1.0
  0
POINT
  5
48FD
330
48E0
100
AcDbEntity
  8
Defpoints
 62
     0
100
AcDbPoint
 10
313.3299497251146
 20
239.9084021000001
 30
0.0
  0
POINT
  5
48FE
330
48E0
100
AcDbEntity
  8
Defpoints
 62
     0
100
AcDbPoint
 10
313.3299497251146
 20
310.9084021000001
 30
0.0
  0
POINT
  5
48FF
330
48E0
100
AcDbEntity
  8
Defpoints
 62
     0
100
AcDbPoint
 10
318.5455754824425
 20
310.9084021000001
 30
0.0
  0
ENDBLK
  5
48E2
330
48E0
100
AcDbEntity
  8
0
100
AcDbBlockEnd
  0
BLOCK
  5
4902
330
4901
100
AcDbEntity
  8
0
100
AcDbBlockBegin
  2
*D22
 70
     1
 10
0.0
 20
0.0
 30
0.0
  3
*D22
  1

  0
LINE
  5
59CF
330
4901
100
AcDbEntity
  8
AM_5 寸法線
 62
     3
100
AcDbLine
 10
315.2049497251147
 20
310.9084021000001
 30
0.0
 11
319.4830754824425
 21
310.9084021000001
 31
0.0
  0
LINE
  5
59D0
330
4901
100
AcDbEntity
  8
AM_5 寸法線
 62
     3
100
AcDbLine
 10
315.8177089229011
 20
318.9084021000001
 30
0.0
 11
319.4830754824425
 21
318.9084021000001
 31
0.0
  0
LINE
  5
59D1
330
4901
100
AcDbEntity
  8
AM_5 寸法線
 62
     3
100
AcDbLine
 10
318.5455754824425
 20
307.1584021
 30
0.0
 11
318.5455754824425
 21
303.4084021
 31
0.0
  0
LINE
  5
59D2
330
4901
100
AcDbEntity
  8
AM_5 寸法線
 62
     3
100
AcDbLine
 10
318.5455754824425
 20
322.6584021000001
 30
0.0
 11
318.5455754824425
 21
326.4084021
 31
0.0
  0
MTEXT
  5
59D3
330
4901
100
AcDbEntity
  8
AM_5 寸法線
 62
     3
100
AcDbMText
 10
314.5127213904572
 20
314.2529306726134
 30
0.0
 40
5.25
 41
0.0
 46
0.0
 71
     5
 72
     1
  1
8
  7
SEISA
 11
0.0000000000000001
 21
1.0
 31
0.0
 73
     1
 44
1.0
  0
LINE
  5
59D4
330
4901
100
AcDbEntity
  8
AM_5 寸法線
 62
     3
100
AcDbLine
 10
318.5455754824425
 20
310.9084021000001
 30
0.0
 11
318.5455754824425
 21
318.9084021000001
 31
0.0
  0
INSERT
  5
59D5
330
4901
100
AcDbEntity
  8
AM_5 寸法線
 62
     3
100
AcDbBlockReference
  2
_Open30
 10
318.5455754824425
 20
310.9084021000001
 30
0.0
 41
3.75
 42
3.75
 43
3.75
 50
90.0
  0
INSERT
  5
59D6
330
4901
100
AcDbEntity
  8
AM_5 寸法線
 62
     3
100
AcDbBlockReference
  2
_Open30
 10
318.5455754824425
 20
318.9084021000001
 30
0.0
 41
3.75
 42
3.75
 43
3.75
 50
270.0
  0
POINT
  5
59D7
330
4901
100
AcDbEntity
  8
Defpoints
 62
     0
100
AcDbPoint
 10
314.2674497251146
 20
310.9084021000001
 30
0.0
  0
POINT
  5
59D8
330
4901
100
AcDbEntity
  8
Defpoints
 62
     0
100
AcDbPoint
 10
314.8802089229012
 20
318.9084021000001
 30
0.0
  0
POINT
  5
59D9
330
4901
100
AcDbEntity
  8
Defpoints
 62
     0
100
AcDbPoint
 10
318.5455754824425
 20
318.9084021000001
 30
0.0
  0
ENDBLK
  5
4903
330
4901
100
AcDbEntity
  8
0
100
AcDbBlockEnd
  0
BLOCK
  5
491E
330
491D
100
AcDbEntity
  8
0
100
AcDbBlockBegin
  2
*D23
 70
     1
 10
0.0
 20
0.0
 30
0.0
  3
*D23
  1

  0
LINE
  5
492A
330
491D
100
AcDbEntity
  8
AM_5 寸法線
 62
     3
100
AcDbLine
 10
316.7552089229011
 20
318.9084021000001
 30
0.0
 11
319.4830754824425
 21
318.9084021000001
 31
0.0
  0
LINE
  5
492B
330
491D
100
AcDbEntity
  8
AM_5 寸法線
 62
     3
100
AcDbLine
 10
316.7552089229011
 20
389.9084021000001
 30
0.0
 11
319.4830754824425
 21
389.9084021000001
 31
0.0
  0
LINE
  5
492C
330
491D
100
AcDbEntity
  8
AM_5 寸法線
 62
     3
100
AcDbLine
 10
318.5455754824425
 20
322.6584021000001
 30
0.0
 11
318.5455754824425
 21
386.1584021000002
 31
0.0
  0
INSERT
  5
492D
330
491D
100
AcDbEntity
  8
AM_5 寸法線
 62
     3
100
AcDbBlockReference
  2
_Open30
 10
318.5455754824425
 20
318.9084021000001
 30
0.0
 41
3.75
 42
3.75
 43
3.75
 50
270.0
  0
INSERT
  5
492E
330
491D
100
AcDbEntity
  8
AM_5 寸法線
 62
     3
100
AcDbBlockReference
  2
_Open30
 10
318.5455754824425
 20
389.9084021000001
 30
0.0
 41
3.75
 42
3.75
 43
3.75
 50
90.0
  0
MTEXT
  5
492F
330
491D
100
AcDbEntity
  8
AM_5 寸法線
 62
     3
100
AcDbMText
 10
313.6705754824423
 20
354.4084021000001
 30
0.0
 40
5.25
 41
0.0
 46
0.0
 71
     5
 72
     1
  1
71
  7
SEISA
 11
0.0000000000000001
 21
1.0
 31
0.0
 73
     1
 44
1.0
  0
POINT
  5
4930
330
491D
100
AcDbEntity
  8
Defpoints
 62
     0
100
AcDbPoint
 10
315.8177089229011
 20
318.9084021000001
 30
0.0
  0
POINT
  5
4931
330
491D
100
AcDbEntity
  8
Defpoints
 62
     0
100
AcDbPoint
 10
315.8177089229011
 20
389.9084021000001
 30
0.0
  0
POINT
  5
4932
330
491D
100
AcDbEntity
  8
Defpoints
 62
     0
100
AcDbPoint
 10
318.5455754824425
 20
389.9084021000001
 30
0.0
  0
ENDBLK
  5
491F
330
491D
100
AcDbEntity
  8
0
100
AcDbBlockEnd
  0
BLOCK
  5
54E4
330
54E1
100
AcDbEntity
  8
0
100
AcDbBlockBegin
  2
GENDOT
 70
     0
 10
0.0
 20
0.0
 30
0.0
  3
GENDOT
  1

  0
LINE
  5
54E2
330
54E1
100
AcDbEntity
  8
0
100
AcDbLine
 10
0.0
 20
0.0
 30
0.0
 11
-1.0
 21
0.0
 31
0.0
  0
LWPOLYLINE
  5
54E3
330
54E1
100
AcDbEntity
  8
0
100
AcDbPolyline
 90
        2
 70
     1
 43
0.25
 10
-0.125
 20
0.0
 42
1.0
 10
0.125
 20
0.0
 42
1.0
  0
ENDBLK
  5
54E5
330
54E1
100
AcDbEntity
  8
0
100
AcDbBlockEnd
  0
BLOCK
  5
57A8
330
57A7
100
AcDbEntity
  8
0
100
AcDbBlockBegin
  2
*D25
 70
     1
 10
0.0
 20
0.0
 30
0.0
  3
*D25
  1

  0
LINE
  5
58AE
330
57A7
100
AcDbEntity
  8
AM_5 寸法線
 62
     3
100
AcDbLine
 10
286.3450235999999
 20
282.4084021
 30
0.0
 11
295.9375000000002
 21
282.4084021
 31
0.0
  0
LINE
  5
58AF
330
57A7
100
AcDbEntity
  8
AM_5 寸法線
 62
     3
100
AcDbLine
 10
286.1899470577538
 20
296.9084021
 30
0.0
 11
295.9375000000002
 21
296.9084021
 31
0.0
  0
LINE
  5
58B0
330
57A7
100
AcDbEntity
  8
AM_5 寸法線
 62
     3
100
AcDbLine
 10
295.0000000000002
 20
286.1584021
 30
0.0
 11
295.0000000000002
 21
293.1584021
 31
0.0
  0
LINE
  5
58B1
330
57A7
100
AcDbEntity
  8
AM_5 寸法線
 62
     3
100
AcDbLine
 10
295.0000000000002
 20
289.6584021000001
 30
0.0
 11
307.0605673315188
 21
287.1787753424889
 31
0.0
  0
LINE
  5
58B2
330
57A7
100
AcDbEntity
  8
AM_5 寸法線
 62
     3
100
AcDbLine
 10
307.0605673315188
 20
287.1787753424889
 30
0.0
 11
307.0605673315188
 21
268.9537753424889
 31
0.0
  0
MTEXT
  5
58B3
330
57A7
100
AcDbEntity
  8
AM_5 寸法線
 62
     3
100
AcDbMText
 10
302.1855673315188
 20
278.0662753424889
 30
0.0
 40
5.25
 41
0.0
 46
0.0
 71
     5
 72
     1
  1
14.5
  7
SEISA
 11
0.0000000000000001
 21
1.0
 31
0.0
 73
     1
 44
1.0
  0
INSERT
  5
58B4
330
57A7
100
AcDbEntity
  8
AM_5 寸法線
 62
     3
100
AcDbBlockReference
  2
_Open30
 10
295.0000000000002
 20
282.4084021
 30
0.0
 41
3.75
 42
3.75
 43
3.75
 50
270.0
  0
INSERT
  5
58B5
330
57A7
100
AcDbEntity
  8
AM_5 寸法線
 62
     3
100
AcDbBlockReference
  2
_Open30
 10
295.0000000000002
 20
296.9084021
 30
0.0
 41
3.75
 42
3.75
 43
3.75
 50
90.0
  0
POINT
  5
58B6
330
57A7
100
AcDbEntity
  8
Defpoints
 62
     0
100
AcDbPoint
 10
285.4075235999999
 20
282.4084021
 30
0.0
  0
POINT
  5
58B7
330
57A7
100
AcDbEntity
  8
Defpoints
 62
     0
100
AcDbPoint
 10
285.2524470577538
 20
296.9084021
 30
0.0
  0
POINT
  5
58B8
330
57A7
100
AcDbEntity
  8
Defpoints
 62
     0
100
AcDbPoint
 10
295.0000000000002
 20
296.9084021
 30
0.0
  0
ENDBLK
  5
57A9
330
57A7
100
AcDbEntity
  8
0
100
AcDbBlockEnd
  0
BLOCK
  5
57CC
330
57CB
100
AcDbEntity
  8
0
100
AcDbBlockBegin
  2
*D26
 70
     1
 10
0.0
 20
0.0
 30
0.0
  3
*D26
  1

  0
LINE
  5
582F
330
57CB
100
AcDbEntity
  8
AM_5 寸法線
 62
     3
100
AcDbLine
 10
286.8450235999999
 20
279.9084021
 30
0.0
 11
295.9375000000002
 21
279.9084021
 31
0.0
  0
LINE
  5
5830
330
57CB
100
AcDbEntity
  8
AM_5 寸法線
 62
     3
100
AcDbLine
 10
286.3450235999999
 20
282.4084021
 30
0.0
 11
295.9375000000002
 21
282.4084021
 31
0.0
  0
LINE
  5
5831
330
57CB
100
AcDbEntity
  8
AM_5 寸法線
 62
     3
100
AcDbLine
 10
295.0000000000002
 20
276.1584021
 30
0.0
 11
295.0000000000002
 21
272.4084021
 31
0.0
  0
LINE
  5
5832
330
57CB
100
AcDbEntity
  8
AM_5 寸法線
 62
     3
100
AcDbLine
 10
295.0000000000002
 20
286.1584021
 30
0.0
 11
295.0000000000002
 21
289.9084021000001
 31
0.0
  0
LINE
  5
5833
330
57CB
100
AcDbEntity
  8
AM_5 寸法線
 62
     3
100
AcDbLine
 10
295.0000000000002
 20
256.8346097451224
 30
0.0
 11
295.0000000000002
 21
279.9084021
 31
0.0
  0
MTEXT
  5
5834
330
57CB
100
AcDbEntity
  8
AM_5 寸法線
 62
     3
100
AcDbMText
 10
290.1250000000001
 20
264.0346097451224
 30
0.0
 40
5.25
 41
0.0
 46
0.0
 71
     5
 72
     1
  1
2.5
  7
SEISA
 11
0.0000000000000001
 21
1.0
 31
0.0
 73
     1
 44
1.0
  0
LINE
  5
5835
330
57CB
100
AcDbEntity
  8
AM_5 寸法線
 62
     3
100
AcDbLine
 10
295.0000000000002
 20
279.9084021
 30
0.0
 11
295.0000000000002
 21
282.4084021
 31
0.0
  0
LINE
  5
5836
330
57CB
100
AcDbEntity
  8
AM_5 寸法線
 62
     3
100
AcDbLine
 10
295.0000000000002
 20
279.9084021
 30
0.0
 11
295.0000000000002
 21
282.4084021
 31
0.0
  0
INSERT
  5
5837
330
57CB
100
AcDbEntity
  8
AM_5 寸法線
 62
     3
100
AcDbBlockReference
  2
_Open30
 10
295.0000000000002
 20
279.9084021
 30
0.0
 41
3.75
 42
3.75
 43
3.75
 50
90.0
  0
INSERT
  5
5838
330
57CB
100
AcDbEntity
  8
AM_5 寸法線
 62
     3
100
AcDbBlockReference
  2
_Open30
 10
295.0000000000002
 20
282.4084021
 30
0.0
 41
3.75
 42
3.75
 43
3.75
 50
270.0
  0
POINT
  5
5839
330
57CB
100
AcDbEntity
  8
Defpoints
 62
     0
100
AcDbPoint
 10
285.9075235999999
 20
279.9084021
 30
0.0
  0
POINT
  5
583A
330
57CB
100
AcDbEntity
  8
Defpoints
 62
     0
100
AcDbPoint
 10
285.4075235999999
 20
282.4084021
 30
0.0
  0
POINT
  5
583B
330
57CB
100
AcDbEntity
  8
Defpoints
 62
     0
100
AcDbPoint
 10
295.0000000000002
 20
282.4084021
 30
0.0
  0
ENDBLK
  5
57CD
330
57CB
100
AcDbEntity
  8
0
100
AcDbBlockEnd
  0
BLOCK
  5
587D
330
587C
100
AcDbEntity
  8
0
100
AcDbBlockBegin
  2
*D27
 70
     1
 10
0.0
 20
0.0
 30
0.0
  3
*D27
  1

  0
LINE
  5
58A5
330
587C
100
AcDbEntity
  8
AM_5 寸法線
 62
     3
100
AcDbLine
 10
286.1899470577538
 20
296.9084021
 30
0.0
 11
295.9718983286771
 21
296.9084021
 31
0.0
  0
LINE
  5
58A6
330
587C
100
AcDbEntity
  8
AM_5 寸法線
 62
     3
100
AcDbLine
 10
287.3450235999999
 20
310.9084021000001
 30
0.0
 11
295.9718983286771
 21
310.9084021000001
 31
0.0
  0
LINE
  5
58A7
330
587C
100
AcDbEntity
  8
AM_5 寸法線
 62
     3
100
AcDbLine
 10
295.0343983286771
 20
300.6584021
 30
0.0
 11
295.0343983286771
 21
307.1584021
 31
0.0
  0
INSERT
  5
58A8
330
587C
100
AcDbEntity
  8
AM_5 寸法線
 62
     3
100
AcDbBlockReference
  2
_Open30
 10
295.0343983286771
 20
296.9084021
 30
0.0
 41
3.75
 42
3.75
 43
3.75
 50
270.0
  0
INSERT
  5
58A9
330
587C
100
AcDbEntity
  8
AM_5 寸法線
 62
     3
100
AcDbBlockReference
  2
_Open30
 10
295.0343983286771
 20
310.9084021000001
 30
0.0
 41
3.75
 42
3.75
 43
3.75
 50
90.0
  0
MTEXT
  5
58AA
330
587C
100
AcDbEntity
  8
AM_5 寸法線
 62
     3
100
AcDbMText
 10
290.159398328677
 20
303.9084021000001
 30
0.0
 40
5.25
 41
0.0
 46
0.0
 71
     5
 72
     1
  1
14
  7
SEISA
 11
0.0000000000000001
 21
1.0
 31
0.0
 73
     1
 44
1.0
  0
POINT
  5
58AB
330
587C
100
AcDbEntity
  8
Defpoints
 62
     0
100
AcDbPoint
 10
285.2524470577538
 20
296.9084021
 30
0.0
  0
POINT
  5
58AC
330
587C
100
AcDbEntity
  8
Defpoints
 62
     0
100
AcDbPoint
 10
286.4075235999999
 20
310.9084021000001
 30
0.0
  0
POINT
  5
58AD
330
587C
100
AcDbEntity
  8
Defpoints
 62
     0
100
AcDbPoint
 10
295.0343983286771
 20
310.9084021000001
 30
0.0
  0
ENDBLK
  5
587E
330
587C
100
AcDbEntity
  8
0
100
AcDbBlockEnd
  0
BLOCK
  5
5941
330
5940
100
AcDbEntity
  8
0
100
AcDbBlockBegin
  2
*D28
 70
     1
 10
0.0
 20
0.0
 30
0.0
  3
*D28
  1

  0
LINE
  5
5966
330
5940
100
AcDbEntity
  8
AM_5 寸法線
 62
     3
100
AcDbLine
 10
274.4700235999999
 20
232.9084020999999
 30
0.0
 11
252.2273165999999
 21
232.9084020999999
 31
0.0
  0
LINE
  5
5967
330
5940
100
AcDbEntity
  8
AM_5 寸法線
 62
     3
100
AcDbLine
 10
287.9700235999999
 20
239.9084021000001
 30
0.0
 11
252.2273165999999
 21
239.9084021000001
 31
0.0
  0
LINE
  5
5968
330
5940
100
AcDbEntity
  8
AM_5 寸法線
 62
     3
100
AcDbLine
 10
253.1648166
 20
229.1584021
 30
0.0
 11
253.1648166
 21
225.4084021
 31
0.0
  0
LINE
  5
5969
330
5940
100
AcDbEntity
  8
AM_5 寸法線
 62
     3
100
AcDbLine
 10
253.1648166
 20
243.6584021000001
 30
0.0
 11
253.1648166
 21
255.0584021000001
 31
0.0
  0
LINE
  5
596A
330
5940
100
AcDbEntity
  8
AM_5 寸法線
 62
     3
100
AcDbLine
 10
253.1648166
 20
232.9084020999999
 30
0.0
 11
253.1648166
 21
239.9084021000001
 31
0.0
  0
INSERT
  5
596B
330
5940
100
AcDbEntity
  8
AM_5 寸法線
 62
     3
100
AcDbBlockReference
  2
_Open30
 10
253.1648166
 20
232.9084020999999
 30
0.0
 41
3.75
 42
3.75
 43
3.75
 50
90.0
  0
INSERT
  5
596C
330
5940
100
AcDbEntity
  8
AM_5 寸法線
 62
     3
100
AcDbBlockReference
  2
_Open30
 10
253.1648166
 20
239.9084021000001
 30
0.0
 41
3.75
 42
3.75
 43
3.75
 50
270.0
  0
MTEXT
  5
596D
330
5940
100
AcDbEntity
  8
AM_5 寸法線
 62
     3
100
AcDbMText
 10
248.2898166
 20
251.2334021
 30
0.0
 40
5.25
 41
0.0
 46
0.0
 71
     5
 72
     1
  1
7
  7
SEISA
 11
0.0000000000000001
 21
1.0
 31
0.0
 73
     1
 44
1.0
  0
POINT
  5
596E
330
5940
100
AcDbEntity
  8
Defpoints
 62
     0
100
AcDbPoint
 10
275.4075235999999
 20
232.9084020999999
 30
0.0
  0
POINT
  5
596F
330
5940
100
AcDbEntity
  8
Defpoints
 62
     0
100
AcDbPoint
 10
288.9075235999999
 20
239.9084021000001
 30
0.0
  0
POINT
  5
5970
330
5940
100
AcDbEntity
  8
Defpoints
 62
     0
100
AcDbPoint
 10
253.1648166
 20
239.9084021000001
 30
0.0
  0
ENDBLK
  5
5942
330
5940
100
AcDbEntity
  8
0
100
AcDbBlockEnd
  0
BLOCK
  5
5AC4
330
5AC3
100
AcDbEntity
  8
0
100
AcDbBlockBegin
  2
ケース
 70
     0
 10
0.0
 20
0.0
 30
0.0
  3
ケース
  1

  0
LINE
  5
5AC6
330
5AC3
100
AcDbEntity
  8
AM_11 想像線
 48
0.1
100
AcDbLine
 10
8.799999999999952
 20
-24.76098584055774
 30
0.0
 11
8.799999999999952
 21
-18.16098584055771
 31
0.0
  0
LINE
  5
5AC7
330
5AC3
100
AcDbEntity
  8
AM_11 想像線
 48
0.1
100
AcDbLine
 10
0.0
 20
0.0
 30
0.0
 11
0.0
 21
-24.46098584055774
 31
0.0
  0
ARC
  5
5AC8
330
5AC3
100
AcDbEntity
  8
AM_11 想像線
 48
0.1
100
AcDbCircle
 10
3.0
 20
-24.46098584055774
 30
0.0
 40
3.0
100
AcDbArc
 50
180.0
 51
270.0
  0
ARC
  5
5AC9
330
5AC3
100
AcDbEntity
  8
AM_11 想像線
 48
0.1
100
AcDbCircle
 10
9.299999999999952
 20
-24.76098584055774
 30
0.0
 40
0.5
100
AcDbArc
 50
180.0
 51
270.0
  0
LINE
  5
5ACA
102
{ACAD_REACTORS
330
594F
102
}
330
5AC3
100
AcDbEntity
  8
AM_11 想像線
 48
0.1
100
AcDbLine
 10
3.0
 20
-27.46098584055773
 30
0.0
 11
13.5
 21
-27.46098584055773
 31
0.0
  0
LINE
  5
5ACB
330
5AC3
100
AcDbEntity
  8
AM_11 想像線
 48
0.1
100
AcDbLine
 10
13.5
 20
-25.26098584055774
 30
0.0
 11
9.299999999999952
 21
-25.26098584055774
 31
0.0
  0
LINE
  5
5ACC
330
5AC3
100
AcDbEntity
  8
AM_11 想像線
 48
0.1
100
AcDbLine
 10
12.5
 20
-27.46098584055773
 30
0.0
 11
12.5
 21
-25.26098584055774
 31
0.0
  0
LINE
  5
5ACD
330
5AC3
100
AcDbEntity
  8
AM_11 想像線
 48
0.1
100
AcDbLine
 10
5.5
 20
0.0
 30
0.0
 11
5.5
 21
-11.59495984055775
 31
0.0
  0
LINE
  5
5ACE
330
5AC3
100
AcDbEntity
  8
AM_11 想像線
 48
0.1
100
AcDbLine
 10
7.5
 20
0.0
 30
0.0
 11
7.5
 21
-13.46098584055772
 31
0.0
  0
LINE
  5
5ACF
330
5AC3
100
AcDbEntity
  8
AM_11 想像線
 48
0.1
100
AcDbLine
 10
9.099999999999909
 20
0.0
 30
0.0
 11
9.099999999999909
 21
-10.96098584055772
 31
0.0
  0
LINE
  5
5AD0
330
5AC3
100
AcDbEntity
  8
AM_11 想像線
 48
0.1
100
AcDbLine
 10
8.599999999999909
 20
-11.46098584055772
 30
0.0
 11
9.099999999999909
 21
-10.96098584055772
 31
0.0
  0
LINE
  5
5AD1
330
5AC3
100
AcDbEntity
  8
AM_11 想像線
 48
0.1
100
AcDbLine
 10
13.5
 20
-15.46098584055772
 30
0.0
 11
6.0
 21
-15.46098584055772
 31
0.0
  0
ARC
  5
5AD2
330
5AC3
100
AcDbEntity
  8
AM_11 想像線
 48
0.1
100
AcDbCircle
 10
9.299999999999952
 20
-18.16098584055771
 30
0.0
 40
0.5
100
AcDbArc
 50
90.0
 51
180.0
  0
LINE
  5
5AD3
330
5AC3
100
AcDbEntity
  8
AM_11 想像線
 48
0.1
100
AcDbLine
 10
6.10413399999993
 20
-11.46098584055772
 30
0.0
 11
8.599999999999909
 21
-11.46098584055772
 31
0.0
  0
ARC
  5
5AD4
330
5AC3
100
AcDbEntity
  8
AM_11 想像線
 48
0.1
100
AcDbCircle
 10
6.0
 20
-12.46098584055772
 30
0.0
 40
1.0
100
AcDbArc
 50
90.0
 51
180.0
  0
LINE
  5
5AD5
330
5AC3
100
AcDbEntity
  8
AM_11 想像線
 48
0.1
100
AcDbLine
 10
5.0
 20
-14.46098584055772
 30
0.0
 11
5.0
 21
-12.46098584055772
 31
0.0
  0
ARC
  5
5AD6
330
5AC3
100
AcDbEntity
  8
AM_11 想像線
 48
0.1
100
AcDbCircle
 10
6.0
 20
-14.46098584055772
 30
0.0
 40
1.0
100
AcDbArc
 50
180.0
 51
270.0
  0
LINE
  5
5AD7
330
5AC3
100
AcDbEntity
  8
AM_11 想像線
 48
0.1
100
AcDbLine
 10
12.5
 20
-17.66098584055771
 30
0.0
 11
12.5
 21
-15.46098584055772
 31
0.0
  0
LINE
  5
5AD8
330
5AC3
100
AcDbEntity
  8
AM_11 想像線
 48
0.1
100
AcDbLine
 10
9.299999999999952
 20
-17.66098584055771
 30
0.0
 11
13.5
 21
-17.66098584055771
 31
0.0
  0
ENDBLK
  5
5AC5
330
5AC3
100
AcDbEntity
  8
0
100
AcDbBlockEnd
  0
ENDSEC
  0
SECTION
  2
ENTITIES
  0
LINE
  5
3C8E
330
1F
100
AcDbEntity
  8
AM_0 外形線1
100
AcDbLine
 10
278.5116575999998
 20
283.9084021000001
 30
0.0
 11
278.4075235999999
 21
283.9084021000001
 31
0.0
  0
LINE
  5
3CC6
330
1F
100
AcDbEntity
  8
AM_0 外形線1
100
AcDbLine
 10
278.5116575999998
 20
345.9084021000002
 30
0.0
 11
278.4075235999999
 21
345.9084021000002
 31
0.0
  0
LINE
  5
3CD4
330
1F
100
AcDbEntity
  8
AM_7 中心線
100
AcDbLine
 10
325.9075235999999
 20
392.9084021000002
 30
0.0
 11
325.9075235999999
 21
236.9084020999999
 31
0.0
  0
INSERT
  5
4107
102
{ACAD_REACTORS
330
466E
330
47A4
330
48F6
330
5889
330
594F
102
}
330
1F
100
AcDbEntity
  8
AM_0 外形線1
100
AcDbBlockReference
  2
センタＡ SMVH140
 10
325.9075235999999
 20
310.9084021000001
 30
0.0
  0
INSERT
  5
41BE
102
{ACAD_REACTORS
330
46AB
330
46C3
330
57DA
102
}
330
1F
100
AcDbEntity
  8
AM_0 外形線1
100
AcDbBlockReference
  2
ケースＡ SMVH140
 10
325.9075235999999
 20
314.9084021000001
 30
0.0
  0
INSERT
  5
4288
102
{ACAD_REACTORS
330
47A4
330
48AF
330
491B
330
4933
102
}
330
1F
100
AcDbEntity
  8
AM_0 外形線1
100
AcDbBlockReference
  2
センタB SMVH140
 10
325.9075235999999
 20
318.9084021000001
 30
0.0
  0
INSERT
  5
43D2
102
{ACAD_REACTORS
330
4693
330
46AB
330
487F
330
4897
102
}
330
1F
100
AcDbEntity
  8
AM_0 外形線1
100
AcDbBlockReference
  2
ケースＢ SMVH140
 10
325.9075235999999
 20
314.9084021000001
 30
0.0
  0
INSERT
  5
4568
330
1F
100
AcDbEntity
  8
AM_0 外形線1
100
AcDbBlockReference
  2
リーマボルト SMVH140 M6
 10
389.4075235999998
 20
299.9084021000001
 30
0.0
  0
INSERT
  5
45DF
330
1F
100
AcDbEntity
  8
AM_0 外形線1
100
AcDbBlockReference
  2
スラストプレ－ト SMVH140
 10
325.9075235999999
 20
310.9084021000001
 30
0.0
  0
DIMENSION
  5
4657
102
{ACAD_XDICTIONARY
360
4664
102
}
102
{ACAD_REACTORS
330
466E
102
}
330
1F
100
AcDbEntity
  8
AM_5 寸法線
100
AcDbDimension
  2
*D13
 10
365.9075235999998
 20
202.4084021000001
 30
0.0
 11
325.9075235999999
 21
207.2834021000001
 31
0.0
 70
    32
  1
%%c<>
 71
     5
 42
80.0
 73
     0
 74
     0
 75
     0
  3
SEISA$0
100
AcDbAlignedDimension
 13
285.9075235999999
 23
242.9084020999999
 33
0.0
 14
365.9075235999998
 24
242.9084021000001
 34
0.0
100
AcDbRotatedDimension
1001
ACAD
1000
DSTYLE
1002
{
1070
    40
1040
1.5
1002
}
1001
ACAD_DSTYLE_DIMINSPECT
1070
   396
1000
100%
1070
   395
1000

1070
   394
1070
    33
1070
   393
1070
     0
  0
DIMENSION
  5
467C
102
{ACAD_XDICTIONARY
360
4689
102
}
102
{ACAD_REACTORS
330
4693
102
}
330
1F
100
AcDbEntity
  8
AM_5 寸法線
100
AcDbDimension
  2
*D14
 10
418.4075235999998
 20
314.9084021000001
 30
0.0
 11
413.5325235999998
 21
322.4084021000002
 31
0.0
 70
    32
 71
     5
 42
15.0
 73
     0
 74
     0
 75
     0
  3
SEISA$0
100
AcDbAlignedDimension
 13
395.7075235999998
 23
329.9084021
 33
0.0
 14
395.7075235999998
 24
314.9084021000001
 34
0.0
 50
90.0
100
AcDbRotatedDimension
1001
ACAD_DSTYLE_DIMINSPECT
1070
   396
1000
100%
1070
   395
1000

1070
   394
1070
    33
1070
   393
1070
     0
1001
ACAD
1000
DSTYLE
1002
{
1070
    40
1040
1.5
1070
   173
1070
     1
1070
   342
1005
0
1070
   343
1005
69
1070
   344
1005
54E1
1002
}
  0
DIMENSION
  5
4694
102
{ACAD_XDICTIONARY
360
46A1
102
}
102
{ACAD_REACTORS
330
46AB
102
}
330
1F
100
AcDbEntity
  8
AM_5 寸法線
100
AcDbDimension
  2
*D15
 10
418.4075235999998
 20
314.9084021000001
 30
0.0
 11
413.5325235999998
 21
307.4084021000002
 31
0.0
 70
    32
 71
     5
 42
15.0
 73
     0
 74
     0
 75
     0
  3
SEISA$0
100
AcDbAlignedDimension
 13
395.7075235999998
 23
299.9084021000001
 33
0.0
 14
395.7075235999998
 24
314.9084021000001
 34
0.0
 50
90.0
100
AcDbRotatedDimension
1001
ACAD_DSTYLE_DIMINSPECT
1070
   396
1000
100%
1070
   395
1000

1070
   394
1070
    33
1070
   393
1070
     0
1001
ACAD
1000
DSTYLE
1002
{
1070
    40
1040
1.5
1070
   173
1070
     1
1070
   342
1005
0
1070
   343
1005
69
1070
   344
1005
54E1
1002
}
  0
DIMENSION
  5
46AC
102
{ACAD_XDICTIONARY
360
46B9
102
}
102
{ACAD_REACTORS
330
46C3
102
}
330
1F
100
AcDbEntity
  8
AM_5 寸法線
100
AcDbDimension
  2
*D16
 10
433.4075235999998
 20
361.9084021
 30
0.0
 11
428.5325235999998
 21
314.9084021000001
 31
0.0
 70
    32
 71
     5
 42
94.0
 73
     0
 74
     0
 75
     0
  3
SEISA$0
100
AcDbAlignedDimension
 13
376.4075235999998
 23
267.9084021
 33
0.0
 14
376.4075235999998
 24
361.9084021
 34
0.0
 50
90.0
100
AcDbRotatedDimension
1001
ACAD
1000
DSTYLE
1002
{
1070
    40
1040
1.5
1002
}
  0
DIMENSION
  5
478D
102
{ACAD_XDICTIONARY
360
479A
102
}
102
{ACAD_REACTORS
330
47A4
102
}
330
1F
100
AcDbEntity
  8
AM_5 寸法線
100
AcDbDimension
  2
*D17
 10
448.4075235999998
 20
389.9084020999999
 30
0.0
 11
443.5325235999997
 21
314.9084021000001
 31
0.0
 70
    32
 71
     5
 42
149.9999999999999
 73
     0
 74
     0
 75
     0
  3
SEISA$0
100
AcDbAlignedDimension
 13
362.9075235999998
 23
239.9084021000001
 33
0.0
 14
362.9075235999998
 24
389.9084021000001
 34
0.0
 50
90.0
100
AcDbRotatedDimension
1001
ACAD
1000
DSTYLE
1002
{
1070
    40
1040
1.5
1002
}
  0
DIMENSION
  5
4868
102
{ACAD_XDICTIONARY
360
4875
102
}
102
{ACAD_REACTORS
330
487F
102
}
330
1F
100
AcDbEntity
  8
AM_5 寸法線
100
AcDbDimension
  2
*D18
 10
395.9075235999998
 20
442.4084021000001
 30
0.0
 11
325.9075235999999
 21
447.2834021000001
 31
0.0
 70
    32
  1
%%c<>
 71
     5
 42
140.0
 73
     0
 74
     0
 75
     0
  3
SEISA$0
100
AcDbAlignedDimension
 13
255.9075235999999
 23
329.7084021000001
 33
0.0
 14
395.9075235999998
 24
329.7084021000001
 34
0.0
100
AcDbRotatedDimension
1001
ACAD
1000
DSTYLE
1002
{
1070
    40
1040
1.5
1002
}
1001
ACAD_DSTYLE_DIMINSPECT
1070
   396
1000
100%
1070
   395
1000

1070
   394
1070
    33
1070
   393
1070
     0
  0
DIMENSION
  5
4880
102
{ACAD_XDICTIONARY
360
488D
102
}
102
{ACAD_REACTORS
330
4897
102
}
330
1F
100
AcDbEntity
  8
AM_5 寸法線
100
AcDbDimension
  2
*D19
 10
379.4075235999998
 20
427.4084021000001
 30
0.0
 11
325.9075235999999
 21
432.2834021000002
 31
0.0
 70
    32
  1
%%c<>
 71
     5
 42
107.0
 73
     0
 74
     0
 75
     0
  3
SEISA$0
100
AcDbAlignedDimension
 13
272.4075236
 23
358.9084021000001
 33
0.0
 14
379.4075235999998
 24
358.9084021000001
 34
0.0
100
AcDbRotatedDimension
1001
ACAD
1000
DSTYLE
1002
{
1070
    40
1040
1.5
1002
}
1001
ACAD_DSTYLE_DIMINSPECT
1070
   396
1000
100%
1070
   395
1000

1070
   394
1070
    33
1070
   393
1070
     0
  0
DIMENSION
  5
4898
102
{ACAD_XDICTIONARY
360
48A5
102
}
102
{ACAD_REACTORS
330
48AF
102
}
330
1F
100
AcDbEntity
  8
AM_5 寸法線
100
AcDbDimension
  2
*D20
 10
365.9075235999998
 20
412.4084021000001
 30
0.0
 11
325.9075235999999
 21
417.2834021000001
 31
0.0
 70
    32
  1
%%c<>
 71
     5
 42
79.99999999999992
 73
     0
 74
     0
 75
     0
  3
SEISA$0
100
AcDbAlignedDimension
 13
285.9075235999999
 23
386.9084021
 33
0.0
 14
365.9075235999998
 24
386.9084021
 34
0.0
100
AcDbRotatedDimension
1001
ACAD
1000
DSTYLE
1002
{
1070
    40
1040
1.5
1002
}
1001
ACAD_DSTYLE_DIMINSPECT
1070
   396
1000
100%
1070
   395
1000

1070
   394
1070
    33
1070
   393
1070
     0
  0
DIMENSION
  5
48DF
102
{ACAD_XDICTIONARY
360
48EC
102
}
102
{ACAD_REACTORS
330
48F6
102
}
330
1F
100
AcDbEntity
  8
AM_5 寸法線
100
AcDbDimension
  2
*D21
 10
318.5455754824425
 20
310.9084021000001
 30
0.0
 11
313.6705754824423
 21
275.4084021000001
 31
0.0
 70
    32
 71
     5
 42
71.0
 73
     0
 74
     0
 75
     0
  3
SEISA$0
100
AcDbAlignedDimension
 13
313.3299497251146
 23
239.9084021000001
 33
0.0
 14
313.3299497251146
 24
310.9084021000001
 34
0.0
 50
90.0
100
AcDbRotatedDimension
1001
ACAD
1000
DSTYLE
1002
{
1070
    40
1040
1.5
1002
}
  0
DIMENSION
  5
4900
102
{ACAD_XDICTIONARY
360
490F
102
}
102
{ACAD_REACTORS
330
491B
102
}
330
1F
100
AcDbEntity
  8
AM_5 寸法線
100
AcDbDimension
  2
*D22
 10
318.5455754824425
 20
318.9084021000001
 30
0.0
 11
314.5127213904572
 21
314.2529306726134
 31
0.0
 70
   160
 71
     5
 42
8.0
 73
     0
 74
     0
 75
     0
  3
SEISA$0
100
AcDbAlignedDimension
 13
314.2674497251146
 23
310.9084021000001
 33
0.0
 14
314.8802089229012
 24
318.9084021000001
 34
0.0
 50
90.0
100
AcDbRotatedDimension
1001
ACAD
1000
DSTYLE
1002
{
1070
    40
1040
1.5
1070
   279
1070
     2
1002
}
  0
DIMENSION
  5
491C
102
{ACAD_XDICTIONARY
360
4929
102
}
102
{ACAD_REACTORS
330
4933
102
}
330
1F
100
AcDbEntity
  8
AM_5 寸法線
100
AcDbDimension
  2
*D23
 10
318.5455754824425
 20
389.9084021000001
 30
0.0
 11
313.6705754824423
 21
354.4084021000001
 31
0.0
 70
    32
 71
     5
 42
71.00000000000012
 73
     0
 74
     0
 75
     0
  3
SEISA$0
100
AcDbAlignedDimension
 13
315.8177089229011
 23
318.9084021000001
 33
0.0
 14
315.8177089229011
 24
389.9084021000001
 34
0.0
 50
90.0
100
AcDbRotatedDimension
1001
ACAD
1000
DSTYLE
1002
{
1070
    40
1040
1.5
1002
}
  0
MTEXT
  5
5702
330
1F
100
AcDbEntity
  8
AM_6 文字
100
AcDbMText
 10
383.6284938180163
 20
227.4464216580048
 30
0.0
 40
5.25
 41
91.53455376455417
 46
27.45869168716519
 71
     1
 72
     5
  1
{\W0.6;TYPE:SMV140/SMVH140\PSHAFT DIA:MAX/MIN φ56/φ22}
  7
SEISA
 73
     1
 44
1.0
  0
DIMENSION
  5
57A6
330
1F
100
AcDbEntity
  8
AM_5 寸法線
100
AcDbDimension
  2
*D25
 10
295.0000000000002
 20
296.9084021
 30
0.0
 11
307.0605673315188
 21
284.9287753424889
 31
0.0
 70
   160
 71
     5
 42
14.5
 73
     0
 74
     0
 75
     0
  3
SEISA$0
100
AcDbAlignedDimension
 13
285.4075235999999
 23
282.4084021
 33
0.0
 14
285.2524470577538
 24
296.9084021
 34
0.0
 50
90.00000000000005
100
AcDbRotatedDimension
1001
ACAD_DSTYLE_DIMINSPECT
1070
   396
1000
100%
1070
   395
1000

1070
   394
1070
    33
1070
   393
1070
     0
1001
ACAD
1000
DSTYLE
1002
{
1070
   342
1005
0
1070
    40
1040
1.5
1070
   173
1070
     1
1070
   279
1070
     1
1070
   343
1005
69
1070
   344
1005
69
1002
}
  0
DIMENSION
  5
57CA
102
{ACAD_XDICTIONARY
360
57D9
102
}
102
{ACAD_REACTORS
330
57DA
102
}
330
1F
100
AcDbEntity
  8
AM_5 寸法線
100
AcDbDimension
  2
*D26
 10
295.0000000000002
 20
282.4084021
 30
0.0
 11
294.7517784663071
 21
264.0346097451224
 31
0.0
 70
   160
 71
     5
 42
2.5
 73
     0
 74
     0
 75
     0
  3
SEISA$0
100
AcDbAlignedDimension
 13
285.9075235999999
 23
279.9084021
 33
0.0
 14
285.4075235999999
 24
282.4084021
 34
0.0
 50
90.0
100
AcDbRotatedDimension
1001
ACAD
1000
DSTYLE
1002
{
1070
    40
1040
1.5
1070
   279
1070
     1
1002
}
  0
DIMENSION
  5
587B
102
{ACAD_XDICTIONARY
360
5888
102
}
102
{ACAD_REACTORS
330
5889
102
}
330
1F
100
AcDbEntity
  8
AM_5 寸法線
100
AcDbDimension
  2
*D27
 10
295.0343983286771
 20
310.9084021000001
 30
0.0
 11
290.159398328677
 21
303.9084021000001
 31
0.0
 70
    32
 71
     5
 42
14.0
 73
     0
 74
     0
 75
     0
  3
SEISA$0
100
AcDbAlignedDimension
 13
285.2524470577538
 23
296.9084021
 33
0.0
 14
286.4075235999999
 24
310.9084021000001
 34
0.0
 50
90.00000000000005
100
AcDbRotatedDimension
1001
ACAD
1000
DSTYLE
1002
{
1070
    40
1040
1.5
1002
}
1001
ACAD_DSTYLE_DIMINSPECT
1070
   396
1000
100%
1070
   395
1000

1070
   394
1070
    33
1070
   393
1070
     0
  0
DIMENSION
  5
593F
102
{ACAD_XDICTIONARY
360
594E
102
}
102
{ACAD_REACTORS
330
594F
102
}
330
1F
100
AcDbEntity
  8
AM_5 寸法線
100
AcDbDimension
  2
*D28
 10
253.1648166
 20
239.9084021000001
 30
0.0
 11
248.2898166
 21
251.2334021
 31
0.0
 70
    32
 71
     5
 42
7.000000000000056
 73
     0
 74
     0
 75
     0
  3
SEISA$0
100
AcDbAlignedDimension
 13
275.4075235999999
 23
232.9084020999999
 33
0.0
 14
288.9075235999999
 24
239.9084021000001
 34
0.0
 50
90.00000000000005
100
AcDbRotatedDimension
1001
ACAD
1000
DSTYLE
1002
{
1070
    40
1040
1.5
1002
}
1001
ACAD_DSTYLE_DIMINSPECT
1070
   396
1000
100%
1070
   395
1000

1070
   394
1070
    33
1070
   393
1070
     0
  0
INSERT
  5
5AD9
330
1F
100
AcDbEntity
  8
AM_11 想像線
100
AcDbBlockReference
  2
ケース
 10
272.4075236
 20
260.3693879405577
 30
0.0
  0
ENDSEC
  0
SECTION
  2
OBJECTS
  0
DICTIONARY
  5
C
330
0
100
AcDbDictionary
281
     1
  3
ACAD_COLOR
350
C5
  3
ACAD_GROUP
350
D
  3
ACAD_LAYOUT
350
1A
  3
ACAD_MATERIAL
350
C4
  3
ACAD_MLEADERSTYLE
350
2D5
  3
ACAD_MLINESTYLE
350
17
  3
ACAD_PLOTSETTINGS
350
19
  3
ACAD_PLOTSTYLENAME
350
E
  3
ACAD_SCALELIST
350
2B3
  3
ACAD_TABLESTYLE
350
121
  3
ACAD_VISUALSTYLE
350
27F
  3
ACDB_RECOMPOSE_DATA
350
2F7
  3
AcDbVariableDictionary
350
34
  3
AcmDictionary
350
49
  3
AMG
350
2B
  3
AMGSNAPSETTINGS
350
1DE
  0
DICTIONARY
  5
BF
330
2
100
AcDbDictionary
280
     1
281
     1
  3
ACAD_LAYERSTATES
360
2786
  3
AMLAYER_GROUPCOLORS
360
C0
  0
DICTIONARY
  5
29D7
330
10
100
AcDbDictionary
280
     1
281
     1
  3
ADSK_XREC_LAYER_RECONCILED
360
29D8
  0
DICTIONARY
  5
29D9
330
81
100
AcDbDictionary
280
     1
281
     1
  3
ADSK_XREC_LAYER_RECONCILED
360
29DA
  0
DICTIONARY
  5
29E0
330
25C9
100
AcDbDictionary
280
     1
281
     1
  3
ADSK_XREC_LAYER_RECONCILED
360
29E1
  0
DICTIONARY
  5
29E2
330
25CA
100
AcDbDictionary
280
     1
281
     1
  3
ADSK_XREC_LAYER_RECONCILED
360
29E3
  0
DICTIONARY
  5
29E8
330
26B3
100
AcDbDictionary
280
     1
281
     1
  3
ADSK_XREC_LAYER_RECONCILED
360
29E9
  0
DICTIONARY
  5
82
330
1F
100
AcDbDictionary
280
     1
281
     1
  3
ACAD_SORTENTS
360
A41
  0
DICTIONARY
  5
2A8A
330
2A89
100
AcDbDictionary
280
     1
281
     1
  3
ACAD_SORTENTS
360
50D7
  0
DICTIONARY
  5
4E5F
330
40EE
100
AcDbDictionary
280
     1
281
     1
  3
ACAD_SORTENTS
360
5A53
  0
DICTIONARY
  5
423B
330
4185
100
AcDbDictionary
280
     1
281
     1
  3
ACAD_SORTENTS
360
50A7
  0
DICTIONARY
  5
51C2
330
426F
100
AcDbDictionary
280
     1
281
     1
  3
ACAD_SORTENTS
360
5A26
  0
DICTIONARY
  5
4451
330
4395
100
AcDbDictionary
280
     1
281
     1
  3
ACAD_SORTENTS
360
5156
  0
DICTIONARY
  5
45B3
330
4544
100
AcDbDictionary
280
     1
281
     1
  3
ACAD_SORTENTS
360
5233
  0
DICTIONARY
  5
45FA
330
45D2
100
AcDbDictionary
280
     1
281
     1
  3
ACAD_SORTENTS
360
5B35
  0
DICTIONARY
  5
4664
330
4657
100
AcDbDictionary
280
     1
281
     1
  3
ACAD_DIMASSOC
360
466E
  0
DICTIONARY
  5
4689
330
467C
100
AcDbDictionary
280
     1
281
     1
  3
ACAD_DIMASSOC
360
4693
  0
DICTIONARY
  5
46A1
330
4694
100
AcDbDictionary
280
     1
281
     1
  3
ACAD_DIMASSOC
360
46AB
  0
DICTIONARY
  5
46B9
330
46AC
100
AcDbDictionary
280
     1
281
     1
  3
ACAD_DIMASSOC
360
46C3
  0
DICTIONARY
  5
479A
330
478D
100
AcDbDictionary
280
     1
281
     1
  3
ACAD_DIMASSOC
360
47A4
  0
DICTIONARY
  5
4875
330
4868
100
AcDbDictionary
280
     1
281
     1
  3
ACAD_DIMASSOC
360
487F
  0
DICTIONARY
  5
488D
330
4880
100
AcDbDictionary
280
     1
281
     1
  3
ACAD_DIMASSOC
360
4897
  0
DICTIONARY
  5
48A5
330
4898
100
AcDbDictionary
280
     1
281
     1
  3
ACAD_DIMASSOC
360
48AF
  0
DICTIONARY
  5
48EC
330
48DF
100
AcDbDictionary
280
     1
281
     1
  3
ACAD_DIMASSOC
360
48F6
  0
DICTIONARY
  5
490F
330
4900
100
AcDbDictionary
280
     1
281
     1
  3
ACAD_DIMASSOC
360
491B
  0
DICTIONARY
  5
4929
330
491C
100
AcDbDictionary
280
     1
281
     1
  3
ACAD_DIMASSOC
360
4933
  0
DICTIONARY
  5
57D9
330
57CA
100
AcDbDictionary
280
     1
281
     1
  3
ACAD_DIMASSOC
360
57DA
  0
DICTIONARY
  5
5888
330
587B
100
AcDbDictionary
280
     1
281
     1
  3
ACAD_DIMASSOC
360
5889
  0
DICTIONARY
  5
594E
330
593F
100
AcDbDictionary
280
     1
281
     1
  3
ACAD_DIMASSOC
360
594F
  0
DICTIONARY
  5
C5
102
{ACAD_REACTORS
330
C
102
}
330
C
100
AcDbDictionary
281
     1
  0
DICTIONARY
  5
D
102
{ACAD_REACTORS
330
C
102
}
330
C
100
AcDbDictionary
281
     1
  0
DICTIONARY
  5
1A
102
{ACAD_REACTORS
330
C
102
}
330
C
100
AcDbDictionary
281
     1
  3
Model
350
22
  3
レイアウト1
350
1E
  3
レイアウト2
350
26
  0
DICTIONARY
  5
C4
102
{ACAD_REACTORS
330
C
102
}
330
C
100
AcDbDictionary
281
     1
  3
ByBlock
350
27D
  3
ByLayer
350
27C
  3
Global
350
27E
  0
DICTIONARY
  5
2D5
102
{ACAD_REACTORS
330
C
102
}
330
C
100
AcDbDictionary
281
     1
  3
Standard
350
2D6
  0
DICTIONARY
  5
17
102
{ACAD_REACTORS
330
C
102
}
330
C
100
AcDbDictionary
281
     1
  3
Standard
350
18
  0
DICTIONARY
  5
19
102
{ACAD_REACTORS
330
C
102
}
330
C
100
AcDbDictionary
281
     1
  3
SEISA基本
350
1C7E
  0
ACDBDICTIONARYWDFLT
  5
E
102
{ACAD_REACTORS
330
C
102
}
330
C
100
AcDbDictionary
281
     1
  3
Normal
350
F
100
AcDbDictionaryWithDefault
340
F
  0
DICTIONARY
  5
2B3
102
{ACAD_REACTORS
330
C
102
}
330
C
100
AcDbDictionary
281
     1
  3
*A1
350
29F2
  3
A0
350
2B4
  3
A1
350
2B5
  3
A2
350
2B6
  3
A3
350
2B7
  3
A4
350
2B8
  3
A5
350
2B9
  3
A6
350
2BA
  3
A7
350
2BB
  3
A8
350
2BC
  3
A9
350
2BD
  3
B0
350
2BE
  3
B1
350
2BF
  3
B2
350
2C0
  3
B3
350
2C1
  3
B4
350
2C2
  3
B5
350
2C3
  3
B6
350
2C4
  3
B7
350
2C5
  3
B8
350
2C6
  3
B9
350
2C7
  3
C0
350
2C8
  3
C1
350
2C9
  3
C2
350
2CA
  3
C3
350
2CB
  3
C4
350
2CC
  3
C5
350
2CD
  3
C6
350
2CE
  3
C7
350
2CF
  3
C8
350
2D0
  3
C9
350
2D1
  3
D0
350
2D2
  3
D1
350
2D3
  3
D2
350
2D4
  0
DICTIONARY
  5
121
102
{ACAD_REACTORS
330
C
102
}
330
C
100
AcDbDictionary
281
     1
  3
Standard
350
122
  0
DICTIONARY
  5
27F
102
{ACAD_REACTORS
330
C
102
}
330
C
100
AcDbDictionary
281
     1
  3
2dWireframe
350
285
  3
3D Hidden
350
287
  3
3dWireframe
350
286
  3
Basic
350
284
  3
Brighten
350
28B
  3
ColorChange
350
28F
  3
Conceptual
350
288
  3
Dim
350
28A
  3
Facepattern
350
28E
  3
Flat
350
280
  3
FlatWithEdges
350
281
  3
Gouraud
350
282
  3
GouraudWithEdges
350
283
  3
Linepattern
350
28D
  3
Realistic
350
289
  3
Thicken
350
28C
  0
XRECORD
  5
2F7
102
{ACAD_REACTORS
330
C
102
}
330
C
100
AcDbXrecord
280
     1
 90
        1
330
122
  0
DICTIONARY
  5
34
102
{ACAD_REACTORS
330
C
102
}
330
C
100
AcDbDictionary
281
     1
  3
CANNOSCALE
350
2FA
  3
CMLEADERSTYLE
350
2F8
  3
CTABLESTYLE
350
140
  3
DIMASSOC
350
AC
  3
INDEXCTL
350
35
  3
LAYEREVAL
350
4C1F
  3
LAYERNOTIFY
350
4C20
  3
LIGHTINGUNITS
350
2FB
  3
MSLTSCALE
350
2F9
  0
DICTIONARY
  5
49
102
{ACAD_REACTORS
330
C
102
}
330
C
100
AcDbDictionary
281
     1
  3
AcmBOM
350
161B
  3
AcmStdDictionary
350
4A
  3
AMDTSECTSYM_ARROWCOLOR
350
12B
  0
DICTIONARY
  5
2B
102
{ACAD_REACTORS
330
C
102
}
330
C
100
AcDbDictionary
281
     1
  0
DICTIONARY
  5
1DE
102
{ACAD_REACTORS
330
C
102
}
330
C
100
AcDbDictionary
281
     1
  0
DICTIONARY
  5
2786
102
{ACAD_REACTORS
330
BF
102
}
330
BF
100
AcDbDictionary
281
     1
  0
DICTIONARY
  5
C0
102
{ACAD_REACTORS
330
BF
102
}
330
BF
100
AcDbDictionary
280
     1
281
     1
  0
XRECORD
  5
29D8
102
{ACAD_REACTORS
330
29D7
102
}
330
29D7
100
AcDbXrecord
280
     1
290
     1
  0
XRECORD
  5
29DA
102
{ACAD_REACTORS
330
29D9
102
}
330
29D9
100
AcDbXrecord
280
     1
290
     1
  0
XRECORD
  5
29E1
102
{ACAD_REACTORS
330
29E0
102
}
330
29E0
100
AcDbXrecord
280
     1
290
     1
  0
XRECORD
  5
29E3
102
{ACAD_REACTORS
330
29E2
102
}
330
29E2
100
AcDbXrecord
280
     1
290
     1
  0
XRECORD
  5
29E9
102
{ACAD_REACTORS
330
29E8
102
}
330
29E8
100
AcDbXrecord
280
     1
290
     1
  0
SORTENTSTABLE
  5
A41
102
{ACAD_REACTORS
330
82
102
}
330
82
100
AcDbSortentsTable
330
1F
331
491C
  5
49AB
331
48DF
  5
49A9
331
3C8E
  5
3C8E
331
3CC6
  5
3CC6
331
4568
  5
4607
331
43D2
  5
4602
331
4900
  5
49AA
331
4107
  5
4568
331
467C
  5
4744
331
4694
  5
4745
331
5702
  5
5702
331
4657
  5
4728
331
46AC
  5
4746
331
478D
  5
4898
331
4288
  5
45FD
331
3CD4
  5
3CD4
331
4868
  5
49A6
331
4880
  5
49A7
331
41BE
  5
45DF
331
4898
  5
49A8
331
45DF
  5
460A
  0
SORTENTSTABLE
  5
50D7
102
{ACAD_REACTORS
330
2A8A
102
}
330
2A8A
100
AcDbSortentsTable
330
2A89
  0
SORTENTSTABLE
  5
5A53
102
{ACAD_REACTORS
330
4E5F
102
}
330
4E5F
100
AcDbSortentsTable
330
40EE
331
40F5
  5
40F9
331
57A4
  5
40F1
331
40F4
  5
40F8
331
40F3
  5
40F5
331
40F2
  5
40F4
331
40F1
  5
40F3
331
5792
  5
40F2
331
40FF
  5
4101
331
4106
  5
57A4
331
40FE
  5
4100
331
40FD
  5
40FF
331
40FC
  5
40FE
331
40FB
  5
40FD
331
4102
  5
5792
331
40FA
  5
40FC
331
4101
  5
4106
331
40F9
  5
40FB
331
4100
  5
4102
331
40F8
  5
40FA
  0
SORTENTSTABLE
  5
50A7
102
{ACAD_REACTORS
330
423B
102
}
330
423B
100
AcDbSortentsTable
330
4185
  0
SORTENTSTABLE
  5
5A26
102
{ACAD_REACTORS
330
51C2
102
}
330
51C2
100
AcDbSortentsTable
330
426F
331
4278
  5
427A
331
4276
  5
4279
331
4274
  5
4278
331
4273
  5
4276
331
4272
  5
4274
331
4284
  5
592C
331
4283
  5
592B
331
4282
  5
4284
331
4281
  5
4283
331
4280
  5
4282
331
427F
  5
4281
331
427E
  5
4280
331
427D
  5
427F
331
427C
  5
427E
331
427B
  5
427D
331
592C
  5
4273
331
427A
  5
427C
331
4279
  5
427B
331
592B
  5
4272
  0
SORTENTSTABLE
  5
5156
102
{ACAD_REACTORS
330
4451
102
}
330
4451
100
AcDbSortentsTable
330
4395
  0
SORTENTSTABLE
  5
5233
102
{ACAD_REACTORS
330
45B3
102
}
330
45B3
100
AcDbSortentsTable
330
4544
  0
SORTENTSTABLE
  5
5B35
102
{ACAD_REACTORS
330
45FA
102
}
330
45FA
100
AcDbSortentsTable
330
45D2
  0
DIMASSOC
  5
466E
102
{ACAD_REACTORS
330
4664
102
}
330
4664
100
AcDbDimAssoc
330
4657
 90
        3
 70
     0
 71
     0
  1
AcDbOsnapPointRef
 72
    13
331
4107
331
40F3
 73
     2
 91
        0
 40
0.0
 10
0.0
 20
0.0
 30
2.000000000000000E+50
 75
     0
  1
AcDbOsnapPointRef
 72
     8
331
4107
331
4101
 73
     2
 91
        0
 40
0.9999999999999987
 10
0.0
 20
0.0
 30
0.0
 75
     1
  1
AcDbOsnapPointRef
 72
    13
331
4107
331
40F3
 73
     2
 91
        0
 40
0.0
 10
0.0
 20
0.0
 30
2.000000000000000E+50
 75
     0
  0
DIMASSOC
  5
4693
102
{ACAD_REACTORS
330
4689
102
}
330
4689
100
AcDbDimAssoc
330
467C
 90
        3
 70
     0
 71
     0
  1
AcDbOsnapPointRef
 72
    13
331
43D2
331
43C2
 73
     2
 91
        0
 40
0.0
 10
0.0
 20
0.0
 30
2.000000000000000E+50
 75
     0
  1
AcDbOsnapPointRef
 72
    13
331
43D2
331
43C1
 73
     2
 91
        0
 40
0.0
 10
0.0
 20
0.0
 30
2.000000000000000E+50
 75
     0
  0
DIMASSOC
  5
46AB
102
{ACAD_REACTORS
330
46A1
102
}
330
46A1
100
AcDbDimAssoc
330
4694
 90
        3
 70
     0
 71
     0
  1
AcDbOsnapPointRef
 72
    13
331
41BE
331
41B6
 73
     2
 91
        0
 40
0.0
 10
0.0
 20
0.0
 30
2.000000000000000E+50
 75
     0
  1
AcDbOsnapPointRef
 72
    13
331
43D2
331
43C1
 73
     2
 91
        0
 40
0.0
 10
0.0
 20
0.0
 30
2.000000000000000E+50
 75
     0
  0
DIMASSOC
  5
46C3
102
{ACAD_REACTORS
330
46B9
102
}
330
46B9
100
AcDbDimAssoc
330
46AC
 90
        1
 70
     0
 71
     0
  1
AcDbOsnapPointRef
 72
    13
331
41BE
331
41B5
 73
     2
 91
        0
 40
4.712388980384688
 10
0.0
 20
0.0
 30
2.000000000000000E+50
 75
     0
  0
DIMASSOC
  5
47A4
102
{ACAD_REACTORS
330
479A
102
}
330
479A
100
AcDbDimAssoc
330
478D
 90
        3
 70
     0
 71
     0
  1
AcDbOsnapPointRef
 72
    13
331
4107
331
40F2
 73
     2
 91
        0
 40
0.0
 10
0.0
 20
0.0
 30
2.000000000000000E+50
 75
     0
  1
AcDbOsnapPointRef
 72
     1
331
4288
331
4283
 73
     2
 91
        0
 40
1.570796326794896
 10
0.0
 20
0.0
 30
2.000000000000000E+50
 75
     0
  0
DIMASSOC
  5
487F
102
{ACAD_REACTORS
330
4875
102
}
330
4875
100
AcDbDimAssoc
330
4868
 90
        3
 70
     0
 71
     0
  1
AcDbOsnapPointRef
 72
     1
331
43D2
331
439A
 73
     2
 91
        0
 40
0.9999999999999998
 10
0.0
 20
0.0
 30
2.000000000000000E+50
 75
     0
  1
AcDbOsnapPointRef
 72
     1
331
43D2
331
43C0
 73
     2
 91
        0
 40
0.9999999999999998
 10
0.0
 20
0.0
 30
2.000000000000000E+50
 75
     0
  0
DIMASSOC
  5
4897
102
{ACAD_REACTORS
330
488D
102
}
330
488D
100
AcDbDimAssoc
330
4880
 90
        3
 70
     0
 71
     0
  1
AcDbOsnapPointRef
 72
     1
331
43D2
331
43A3
 73
     2
 91
        0
 40
3.141592653589792
 10
0.0
 20
0.0
 30
2.000000000000000E+50
 75
     0
  1
AcDbOsnapPointRef
 72
    13
331
43D2
331
43C3
 73
     2
 91
        0
 40
0.0
 10
0.0
 20
0.0
 30
2.000000000000000E+50
 75
     0
  0
DIMASSOC
  5
48AF
102
{ACAD_REACTORS
330
48A5
102
}
330
48A5
100
AcDbDimAssoc
330
4898
 90
        3
 70
     0
 71
     0
  1
AcDbOsnapPointRef
 72
     6
331
4288
331
4274
 73
     2
 91
        0
 40
0.0
 10
0.0
 20
0.0
 30
0.0
332
4288
332
4281
 74
     2
 92
        0
 75
     0
  1
AcDbOsnapPointRef
 72
     1
331
4288
331
4282
 73
     2
 91
        0
 40
1.0
 10
0.0
 20
0.0
 30
2.000000000000000E+50
 75
     0
  0
DIMASSOC
  5
48F6
102
{ACAD_REACTORS
330
48EC
102
}
330
48EC
100
AcDbDimAssoc
330
48DF
 90
        1
 70
     0
 71
     0
  1
AcDbOsnapPointRef
 72
    10
331
4107
331
40F2
 73
     2
 91
        0
 40
0.6699672145254767
 10
0.0
 20
0.0
 30
0.0
 75
     0
  0
DIMASSOC
  5
491B
102
{ACAD_REACTORS
330
490F
102
}
330
490F
100
AcDbDimAssoc
330
4900
 90
        2
 70
     0
 71
     0
  1
AcDbOsnapPointRef
 72
    10
331
4288
331
4272
 73
     2
 91
        0
 40
0.7208274765291463
 10
0.0
 20
0.0
 30
0.0
 75
     0
  0
DIMASSOC
  5
4933
102
{ACAD_REACTORS
330
4929
102
}
330
4929
100
AcDbDimAssoc
330
491C
 90
        2
 70
     0
 71
     0
  1
AcDbOsnapPointRef
 72
     8
331
4288
331
4273
 73
     2
 91
        0
 40
0.6363488469878207
 10
0.0
 20
0.0
 30
0.0
 75
     1
  1
AcDbOsnapPointRef
 72
     0
 40
0.0
 10
315.8177089229011
 20
318.9084021000001
 30
0.0
 75
     0
  0
DIMASSOC
  5
57DA
102
{ACAD_REACTORS
330
57D9
102
}
330
57D9
100
AcDbDimAssoc
330
57CA
 90
        1
 70
     0
 71
     0
  1
AcDbOsnapPointRef
 72
    13
331
41BE
331
41A6
 73
     2
 91
        0
 40
0.0
 10
0.0
 20
0.0
 30
2.000000000000000E+50
 75
     0
  0
DIMASSOC
  5
5889
102
{ACAD_REACTORS
330
5888
102
}
330
5888
100
AcDbDimAssoc
330
587B
 90
        2
 70
     0
 71
     0
  1
AcDbOsnapPointRef
 72
    13
331
4107
331
40F1
 73
     0
 91
        0
 40
0.0
 10
0.0
 20
0.0
 30
2.000000000000000E+50
 75
     0
  0
DIMASSOC
  5
594F
102
{ACAD_REACTORS
330
594E
102
}
330
594E
100
AcDbDimAssoc
330
593F
 90
        2
 70
     0
 71
     0
  1
AcDbOsnapPointRef
 72
     1
331
4107
331
40F2
 73
     0
 91
        0
 40
0.0
 10
0.0
 20
0.0
 30
2.000000000000000E+50
 75
     0
  0
LAYOUT
  5
22
102
{ACAD_REACTORS
330
1A
102
}
330
1A
100
AcDbPlotSettings
  1

  2
KONICA MINOLTA 501 PCL
  4
A4
  6

 40
5.027082920074462
 41
5.027085781097412
 42
5.027069091796875
 43
5.027069091796875
 44
209.9733276367186
 45
296.9259948730469
 46
0.0
 47
24.9279739413125
 48
0.0
 49
0.0
140
0.0
141
0.0
142
1.0
143
1.048643075357893
 70
 11956
 72
     1
 73
     0
 74
     1
  7
SEISA.ctb
 75
     0
147
0.9536133156257275
 76
     0
 77
     2
 78
   300
148
-245.644960723358
149
-201.3739030684505
100
AcDbLayout
  1
Model
 70
     1
 71
     0
 10
0.0
 20
0.0
 11
12.0
 21
9.0
 12
0.0
 22
0.0
 32
0.0
 14
0.0
 24
0.0
 34
0.0
 15
0.0
 25
0.0
 35
0.0
146
0.0
 13
0.0
 23
0.0
 33
0.0
 16
1.0
 26
0.0
 36
0.0
 17
0.0
 27
1.0
 37
0.0
 76
     0
330
1F
331
27A
1001
ACAD_PSEXT
1000
KONICA MINOLTA 501 PCL
1000
KONICA MINOLTA 501/421/361PCL
1000
IP_192.168.20.231_(1)
1000

1070
     0
  0
LAYOUT
  5
1E
102
{ACAD_REACTORS
330
1A
102
}
330
1A
100
AcDbPlotSettings
  1

  2
none_device
  4
Letter_(8.50_x_11.00_Inches)
  6

 40
6.349999904632567
 41
6.349999904632567
 42
6.350006103515625
 43
6.350006103515625
 44
215.8999938964844
 45
279.3999938964844
 46
0.0
 47
0.0
 48
0.0
 49
0.0
140
0.0
141
0.0
142
1.0
143
1.0
 70
 15024
 72
     1
 73
     1
 74
     5
  7
SEISA.ctb
 75
    16
147
1.0
 76
     0
 77
     2
 78
   300
148
0.0
149
0.0
100
AcDbLayout
  1
レイアウト1
 70
     1
 71
     1
 10
0.0
 20
0.0
 11
420.0
 21
297.0
 12
0.0
 22
0.0
 32
0.0
 14
1.000000000000000E+20
 24
1.000000000000000E+20
 34
1.000000000000000E+20
 15
-1.000000000000000E+20
 25
-1.000000000000000E+20
 35
-1.000000000000000E+20
146
0.0
 13
0.0
 23
0.0
 33
0.0
 16
1.0
 26
0.0
 36
0.0
 17
0.0
 27
1.0
 37
0.0
 76
     0
330
1B
  0
LAYOUT
  5
26
102
{ACAD_REACTORS
330
1A
102
}
330
1A
100
AcDbPlotSettings
  1

  2
none_device
  4
Letter_(8.50_x_11.00_Inches)
  6

 40
6.349999904632567
 41
6.349999904632567
 42
6.350006103515625
 43
6.350006103515625
 44
215.8999938964844
 45
279.3999938964844
 46
0.0
 47
0.0
 48
0.0
 49
0.0
140
0.0
141
0.0
142
1.0
143
1.0
 70
 15024
 72
     1
 73
     1
 74
     5
  7
SEISA.ctb
 75
    16
147
1.0
 76
     0
 77
     2
 78
   300
148
0.0
149
0.0
100
AcDbLayout
  1
レイアウト2
 70
     1
 71
     2
 10
0.0
 20
0.0
 11
12.0
 21
9.0
 12
0.0
 22
0.0
 32
0.0
 14
0.0
 24
0.0
 34
0.0
 15
0.0
 25
0.0
 35
0.0
146
0.0
 13
0.0
 23
0.0
 33
0.0
 16
1.0
 26
0.0
 36
0.0
 17
0.0
 27
1.0
 37
0.0
 76
     0
330
23
  0
MATERIAL
  5
27D
102
{ACAD_REACTORS
330
C4
102
}
330
C4
100
AcDbMaterial
  1
ByBlock
 73
     1
 78
     1
172
     1
176
     1
270
     1
274
     1
 94
       63
  0
MATERIAL
  5
27C
102
{ACAD_REACTORS
330
C4
102
}
330
C4
100
AcDbMaterial
  1
ByLayer
 73
     1
 78
     1
172
     1
176
     1
270
     1
274
     1
 94
       63
  0
MATERIAL
  5
27E
102
{ACAD_REACTORS
330
C4
102
}
330
C4
100
AcDbMaterial
  1
Global
 73
     1
 78
     1
172
     1
176
     1
270
     1
274
     1
 94
       63
  0
MLEADERSTYLE
  5
2D6
102
{ACAD_REACTORS
330
2D5
102
}
330
2D5
100
AcDbMLeaderStyle
170
     2
171
     1
172
     0
 90
        2
 40
0.0
 41
0.0
173
     1
 91
-1056964608
340
14
 92
       -2
290
     1
 42
2.0
291
     1
 43
0.36
  3
Standard
 44
4.0
300

342
11
174
     1
178
     6
175
     1
176
     0
 93
-1056964608
 45
4.0
292
     0
297
     0
 46
4.0
 94
-1056964608
 47
1.0
 49
1.0
140
1.0
293
     1
141
0.0
294
     1
177
     0
142
1.0
295
     0
296
     0
143
0.125
1001
ACAD_MLEADERVER
1070
     2
  0
MLINESTYLE
  5
18
102
{ACAD_REACTORS
330
17
102
}
330
17
100
AcDbMlineStyle
  2
STANDARD
 70
     0
  3

 62
   256
 51
90.0
 52
90.0
 71
     2
 49
0.5
 62
   256
  6
BYLAYER
 49
-0.5
 62
   256
  6
BYLAYER
  0
PLOTSETTINGS
  5
1C7E
102
{ACAD_REACTORS
330
19
102
}
330
19
100
AcDbPlotSettings
  1
SEISA基本
  2
none_device
  4
Letter_(8.50_x_11.00_Inches)
  6

 40
6.349999904632567
 41
6.349999904632567
 42
6.350006103515625
 43
6.350006103515625
 44
215.8999938964844
 45
279.3999938964844
 46
7.302498226506357
 47
0.0
 48
0.0
 49
0.0
140
0.0
141
0.0
142
1.0
143
1.574803221122935
 70
 11956
 72
     1
 73
     1
 74
     2
  7
SEISA.ctb
 75
     0
147
0.6349999711627054
 76
     0
 77
     2
 78
   300
148
0.0
149
0.0
1001
ACAD_PSEXT
1000
なし
1000
なし
1000
適切ではありません
1000
新しいプロッタ環境設定名を選択しない限り、レイアウトは印刷されません。
1070
     0
  0
ACDBPLACEHOLDER
  5
F
102
{ACAD_REACTORS
330
E
102
}
330
E
  0
SCALE
  5
29F2
102
{ACAD_REACTORS
330
2B3
102
}
330
2B3
100
AcDbScale
 70
     0
300
1:1.5
140
1.0
141
1.5
290
     0
  0
SCALE
  5
2B4
102
{ACAD_REACTORS
330
2B3
102
}
330
2B3
100
AcDbScale
 70
     0
300
1:1
140
1.0
141
1.0
290
     1
  0
SCALE
  5
2B5
102
{ACAD_REACTORS
330
2B3
102
}
330
2B3
100
AcDbScale
 70
     0
300
1:2
140
1.0
141
2.0
290
     0
  0
SCALE
  5
2B6
102
{ACAD_REACTORS
330
2B3
102
}
330
2B3
100
AcDbScale
 70
     0
300
1:4
140
1.0
141
4.0
290
     0
  0
SCALE
  5
2B7
102
{ACAD_REACTORS
330
2B3
102
}
330
2B3
100
AcDbScale
 70
     0
300
1:5
140
1.0
141
5.0
290
     0
  0
SCALE
  5
2B8
102
{ACAD_REACTORS
330
2B3
102
}
330
2B3
100
AcDbScale
 70
     0
300
1:8
140
1.0
141
8.0
290
     0
  0
SCALE
  5
2B9
102
{ACAD_REACTORS
330
2B3
102
}
330
2B3
100
AcDbScale
 70
     0
300
1:10
140
1.0
141
10.0
290
     0
  0
SCALE
  5
2BA
102
{ACAD_REACTORS
330
2B3
102
}
330
2B3
100
AcDbScale
 70
     0
300
1:16
140
1.0
141
16.0
290
     0
  0
SCALE
  5
2BB
102
{ACAD_REACTORS
330
2B3
102
}
330
2B3
100
AcDbScale
 70
     0
300
1:20
140
1.0
141
20.0
290
     0
  0
SCALE
  5
2BC
102
{ACAD_REACTORS
330
2B3
102
}
330
2B3
100
AcDbScale
 70
     0
300
1:30
140
1.0
141
30.0
290
     0
  0
SCALE
  5
2BD
102
{ACAD_REACTORS
330
2B3
102
}
330
2B3
100
AcDbScale
 70
     0
300
1:40
140
1.0
141
40.0
290
     0
  0
SCALE
  5
2BE
102
{ACAD_REACTORS
330
2B3
102
}
330
2B3
100
AcDbScale
 70
     0
300
1:50
140
1.0
141
50.0
290
     0
  0
SCALE
  5
2BF
102
{ACAD_REACTORS
330
2B3
102
}
330
2B3
100
AcDbScale
 70
     0
300
1:100
140
1.0
141
100.0
290
     0
  0
SCALE
  5
2C0
102
{ACAD_REACTORS
330
2B3
102
}
330
2B3
100
AcDbScale
 70
     0
300
2:1
140
2.0
141
1.0
290
     0
  0
SCALE
  5
2C1
102
{ACAD_REACTORS
330
2B3
102
}
330
2B3
100
AcDbScale
 70
     0
300
4:1
140
4.0
141
1.0
290
     0
  0
SCALE
  5
2C2
102
{ACAD_REACTORS
330
2B3
102
}
330
2B3
100
AcDbScale
 70
     0
300
8:1
140
8.0
141
1.0
290
     0
  0
SCALE
  5
2C3
102
{ACAD_REACTORS
330
2B3
102
}
330
2B3
100
AcDbScale
 70
     0
300
10:1
140
10.0
141
1.0
290
     0
  0
SCALE
  5
2C4
102
{ACAD_REACTORS
330
2B3
102
}
330
2B3
100
AcDbScale
 70
     0
300
100:1
140
100.0
141
1.0
290
     0
  0
SCALE
  5
2C5
102
{ACAD_REACTORS
330
2B3
102
}
330
2B3
100
AcDbScale
 70
     0
300
1/128" = 1'-0"
140
0.0078125
141
12.0
290
     0
  0
SCALE
  5
2C6
102
{ACAD_REACTORS
330
2B3
102
}
330
2B3
100
AcDbScale
 70
     0
300
1/64" = 1'-0"
140
0.015625
141
12.0
290
     0
  0
SCALE
  5
2C7
102
{ACAD_REACTORS
330
2B3
102
}
330
2B3
100
AcDbScale
 70
     0
300
1/32" = 1'-0"
140
0.03125
141
12.0
290
     0
  0
SCALE
  5
2C8
102
{ACAD_REACTORS
330
2B3
102
}
330
2B3
100
AcDbScale
 70
     0
300
1/16" = 1'-0"
140
0.0625
141
12.0
290
     0
  0
SCALE
  5
2C9
102
{ACAD_REACTORS
330
2B3
102
}
330
2B3
100
AcDbScale
 70
     0
300
3/32" = 1'-0"
140
0.09375
141
12.0
290
     0
  0
SCALE
  5
2CA
102
{ACAD_REACTORS
330
2B3
102
}
330
2B3
100
AcDbScale
 70
     0
300
1/8" = 1'-0"
140
0.125
141
12.0
290
     0
  0
SCALE
  5
2CB
102
{ACAD_REACTORS
330
2B3
102
}
330
2B3
100
AcDbScale
 70
     0
300
3/16" = 1'-0"
140
0.1875
141
12.0
290
     0
  0
SCALE
  5
2CC
102
{ACAD_REACTORS
330
2B3
102
}
330
2B3
100
AcDbScale
 70
     0
300
1/4" = 1'-0"
140
0.25
141
12.0
290
     0
  0
SCALE
  5
2CD
102
{ACAD_REACTORS
330
2B3
102
}
330
2B3
100
AcDbScale
 70
     0
300
3/8" = 1'-0"
140
0.375
141
12.0
290
     0
  0
SCALE
  5
2CE
102
{ACAD_REACTORS
330
2B3
102
}
330
2B3
100
AcDbScale
 70
     0
300
1/2" = 1'-0"
140
0.5
141
12.0
290
     0
  0
SCALE
  5
2CF
102
{ACAD_REACTORS
330
2B3
102
}
330
2B3
100
AcDbScale
 70
     0
300
3/4" = 1'-0"
140
0.75
141
12.0
290
     0
  0
SCALE
  5
2D0
102
{ACAD_REACTORS
330
2B3
102
}
330
2B3
100
AcDbScale
 70
     0
300
1" = 1'-0"
140
1.0
141
12.0
290
     0
  0
SCALE
  5
2D1
102
{ACAD_REACTORS
330
2B3
102
}
330
2B3
100
AcDbScale
 70
     0
300
1-1/2" = 1'-0"
140
1.5
141
12.0
290
     0
  0
SCALE
  5
2D2
102
{ACAD_REACTORS
330
2B3
102
}
330
2B3
100
AcDbScale
 70
     0
300
3" = 1'-0"
140
3.0
141
12.0
290
     0
  0
SCALE
  5
2D3
102
{ACAD_REACTORS
330
2B3
102
}
330
2B3
100
AcDbScale
 70
     0
300
6" = 1'-0"
140
6.0
141
12.0
290
     0
  0
SCALE
  5
2D4
102
{ACAD_REACTORS
330
2B3
102
}
330
2B3
100
AcDbScale
 70
     0
300
1'-0" = 1'-0"
140
12.0
141
12.0
290
     0
  0
TABLESTYLE
  5
122
102
{ACAD_XDICTIONARY
360
2F5
102
}
102
{ACAD_REACTORS
330
121
102
}
330
121
100
AcDbTableStyle
  3
Standard
 70
     0
 71
     0
 40
1.5
 41
1.5
280
     0
281
     0
  7
STANDARD
140
4.5
170
     2
 62
     0
 63
     7
283
     0
 90
      512
 91
        0
  1

274
    -2
284
     1
 64
     0
275
    -2
285
     1
 65
     0
276
    -2
286
     1
 66
     0
277
    -2
287
     1
 67
     0
278
    -2
288
     1
 68
     0
279
    -2
289
     1
 69
     0
  7
STANDARD
140
6.0
170
     5
 62
     0
 63
     7
283
     0
 90
      512
 91
        0
  1

274
    -2
284
     1
 64
     0
275
    -2
285
     1
 65
     0
276
    -2
286
     1
 66
     0
277
    -2
287
     1
 67
     0
278
    -2
288
     1
 68
     0
279
    -2
289
     1
 69
     0
  7
STANDARD
140
4.5
170
     5
 62
     0
 63
     7
283
     0
 90
      512
 91
        0
  1

274
    -2
284
     1
 64
     0
275
    -2
285
     1
 65
     0
276
    -2
286
     1
 66
     0
277
    -2
287
     1
 67
     0
278
    -2
288
     1
 68
     0
279
    -2
289
     1
 69
     0
  0
VISUALSTYLE
  5
285
102
{ACAD_REACTORS
330
27F
102
}
330
27F
100
AcDbVisualStyle
  2
2dWireframe
 70
     4
 71
     0
 72
     2
 73
     0
 90
        0
 40
-0.6
 41
-30.0
 62
     5
 63
     7
421
 16777215
 74
     1
 91
        4
 64
     7
 65
   257
 75
     1
175
     1
 42
1.0
 92
        0
 66
   257
 43
1.0
 76
     1
 77
     6
 78
     2
 67
     7
 79
     5
170
     0
171
     0
290
     0
174
     0
 93
        1
 44
0.0
173
     0
291
     0
 45
0.0
  0
VISUALSTYLE
  5
287
102
{ACAD_REACTORS
330
27F
102
}
330
27F
100
AcDbVisualStyle
  2
3D Hidden
 70
     6
 71
     1
 72
     2
 73
     2
 90
        0
 40
-0.6
 41
-30.0
 62
     5
 63
     7
421
 16777215
 74
     2
 91
        2
 64
     7
 65
   257
 75
     2
175
     1
 42
40.0
 92
        0
 66
   257
 43
1.0
 76
     1
 77
     6
 78
     2
 67
     7
 79
     3
170
     0
171
     0
290
     0
174
     0
 93
        1
 44
0.0
173
     0
291
     0
 45
0.0
  0
VISUALSTYLE
  5
286
102
{ACAD_REACTORS
330
27F
102
}
330
27F
100
AcDbVisualStyle
  2
3dWireframe
 70
     5
 71
     0
 72
     2
 73
     0
 90
        0
 40
-0.6
 41
-30.0
 62
     5
 63
     7
421
 16777215
 74
     1
 91
        4
 64
     7
 65
   257
 75
     1
175
     1
 42
1.0
 92
        0
 66
   257
 43
1.0
 76
     1
 77
     6
 78
     2
 67
     7
 79
     5
170
     0
171
     0
290
     0
174
     0
 93
        1
 44
0.0
173
     0
291
     0
 45
0.0
  0
VISUALSTYLE
  5
284
102
{ACAD_REACTORS
330
27F
102
}
330
27F
100
AcDbVisualStyle
  2
Basic
 70
     7
 71
     1
 72
     0
 73
     1
 90
        0
 40
-0.6
 41
-30.0
 62
     5
 63
     7
421
 16777215
 74
     0
 91
        4
 64
     7
 65
   257
 75
     1
175
     1
 42
1.0
 92
        8
 66
     7
 43
1.0
 76
     1
 77
     6
 78
     2
 67
     7
 79
     5
170
     0
171
     0
290
     0
174
     0
 93
        1
 44
0.0
173
     0
291
     1
 45
0.0
  0
VISUALSTYLE
  5
28B
102
{ACAD_REACTORS
330
27F
102
}
330
27F
100
AcDbVisualStyle
  2
Brighten
 70
    12
 71
     2
 72
     2
 73
     0
 90
        0
 40
-0.6
 41
-30.0
 62
     5
 63
     7
421
 16777215
 74
     1
 91
        4
 64
     7
 65
   257
 75
     1
175
     1
 42
1.0
 92
        8
 66
     7
 43
1.0
 76
     1
 77
     6
 78
     2
 67
     7
 79
     5
170
     0
171
     0
290
     0
174
     0
 93
        1
 44
50.0
173
     0
291
     1
 45
0.0
  0
VISUALSTYLE
  5
28F
102
{ACAD_REACTORS
330
27F
102
}
330
27F
100
AcDbVisualStyle
  2
ColorChange
 70
    16
 71
     2
 72
     2
 73
     3
 90
        0
 40
-0.6
 41
-30.0
 62
     5
 63
     8
421
  8421504
 74
     1
 91
        4
 64
     7
 65
   257
 75
     1
175
     1
 42
1.0
 92
        8
 66
     8
424
  8421504
 43
1.0
 76
     1
 77
     6
 78
     2
 67
     7
 79
     5
170
     0
171
     0
290
     0
174
     0
 93
        1
 44
0.0
173
     0
291
     1
 45
0.0
  0
VISUALSTYLE
  5
288
102
{ACAD_REACTORS
330
27F
102
}
330
27F
100
AcDbVisualStyle
  2
Conceptual
 70
     9
 71
     3
 72
     2
 73
     0
 90
        0
 40
-0.6
 41
-30.0
 62
     5
 63
     7
421
 16777215
 74
     2
 91
        2
 64
     7
 65
   257
 75
     1
175
     1
 42
40.0
 92
        8
 66
     7
 43
1.0
 76
     1
 77
     6
 78
     2
 67
     7
 79
     3
170
     0
171
     0
290
     0
174
     0
 93
        1
 44
0.0
173
     0
291
     0
 45
0.0
  0
VISUALSTYLE
  5
28A
102
{ACAD_REACTORS
330
27F
102
}
330
27F
100
AcDbVisualStyle
  2
Dim
 70
    11
 71
     2
 72
     2
 73
     0
 90
        0
 40
-0.6
 41
-30.0
 62
     5
 63
     7
421
 16777215
 74
     1
 91
        4
 64
     7
 65
   257
 75
     1
175
     1
 42
1.0
 92
        8
 66
     7
 43
1.0
 76
     1
 77
     6
 78
     2
 67
     7
 79
     5
170
     0
171
     0
290
     0
174
     0
 93
        1
 44
-50.0
173
     0
291
     1
 45
0.0
  0
VISUALSTYLE
  5
28E
102
{ACAD_REACTORS
330
27F
102
}
330
27F
100
AcDbVisualStyle
  2
Facepattern
 70
    15
 71
     2
 72
     2
 73
     0
 90
        0
 40
-0.6
 41
-30.0
 62
     5
 63
     7
421
 16777215
 74
     1
 91
        4
 64
     7
 65
   257
 75
     1
175
     1
 42
1.0
 92
        8
 66
     7
 43
1.0
 76
     1
 77
     6
 78
     2
 67
     7
 79
     5
170
     0
171
     0
290
     0
174
     0
 93
        1
 44
0.0
173
     0
291
     1
 45
0.0
  0
VISUALSTYLE
  5
280
102
{ACAD_REACTORS
330
27F
102
}
330
27F
100
AcDbVisualStyle
  2
Flat
 70
     0
 71
     2
 72
     1
 73
     1
 90
        2
 40
-0.6
 41
30.0
 62
     5
 63
     7
421
 16777215
 74
     0
 91
        4
 64
     7
 65
   257
 75
     1
175
     1
 42
1.0
 92
        8
 66
     7
 43
1.0
 76
     1
 77
     6
 78
     2
 67
     7
 79
     5
170
     0
171
     0
290
     0
174
     0
 93
       13
 44
0.0
173
     0
291
     1
 45
0.0
  0
VISUALSTYLE
  5
281
102
{ACAD_REACTORS
330
27F
102
}
330
27F
100
AcDbVisualStyle
  2
FlatWithEdges
 70
     1
 71
     2
 72
     1
 73
     1
 90
        2
 40
-0.6
 41
30.0
 62
     5
 63
     7
421
 16777215
 74
     1
 91
        4
 64
     7
 65
   257
 75
     1
175
     1
 42
1.0
 92
        0
 66
   257
 43
1.0
 76
     1
 77
     6
 78
     2
 67
     7
 79
     5
170
     0
171
     0
290
     0
174
     0
 93
       13
 44
0.0
173
     0
291
     1
 45
0.0
  0
VISUALSTYLE
  5
282
102
{ACAD_REACTORS
330
27F
102
}
330
27F
100
AcDbVisualStyle
  2
Gouraud
 70
     2
 71
     2
 72
     2
 73
     1
 90
        2
 40
-0.6
 41
30.0
 62
     5
 63
     7
421
 16777215
 74
     0
 91
        4
 64
     7
 65
   257
 75
     1
175
     1
 42
1.0
 92
        0
 66
     7
 43
1.0
 76
     1
 77
     6
 78
     2
 67
     7
 79
     5
170
     0
171
     0
290
     0
174
     0
 93
       13
 44
0.0
173
     0
291
     1
 45
0.0
  0
VISUALSTYLE
  5
283
102
{ACAD_REACTORS
330
27F
102
}
330
27F
100
AcDbVisualStyle
  2
GouraudWithEdges
 70
     3
 71
     2
 72
     2
 73
     1
 90
        2
 40
-0.6
 41
30.0
 62
     5
 63
     7
421
 16777215
 74
     1
 91
        4
 64
     7
 65
   257
 75
     1
175
     1
 42
1.0
 92
        0
 66
   257
 43
1.0
 76
     1
 77
     6
 78
     2
 67
     7
 79
     5
170
     0
171
     0
290
     0
174
     0
 93
       13
 44
0.0
173
     0
291
     1
 45
0.0
  0
VISUALSTYLE
  5
28D
102
{ACAD_REACTORS
330
27F
102
}
330
27F
100
AcDbVisualStyle
  2
Linepattern
 70
    14
 71
     2
 72
     2
 73
     0
 90
        0
 40
-0.6
 41
-30.0
 62
     5
 63
     7
421
 16777215
 74
     1
 91
        4
 64
     7
 65
   257
 75
     7
175
     7
 42
1.0
 92
        8
 66
     7
 43
1.0
 76
     1
 77
     6
 78
     2
 67
     7
 79
     5
170
     0
171
     0
290
     0
174
     0
 93
        1
 44
0.0
173
     0
291
     1
 45
0.0
  0
VISUALSTYLE
  5
289
102
{ACAD_REACTORS
330
27F
102
}
330
27F
100
AcDbVisualStyle
  2
Realistic
 70
     8
 71
     2
 72
     2
 73
     0
 90
        0
 40
-0.6
 41
-30.0
 62
     5
 63
     7
421
 16777215
 74
     1
 91
        0
 64
     7
 65
   257
 75
     1
175
     1
 42
1.0
 92
        8
 66
     8
424
  7895160
 43
1.0
 76
     1
 77
     6
 78
     2
 67
     7
 79
     5
170
     0
171
     0
290
     0
174
     0
 93
       13
 44
0.0
173
     0
291
     0
 45
0.0
  0
VISUALSTYLE
  5
28C
102
{ACAD_REACTORS
330
27F
102
}
330
27F
100
AcDbVisualStyle
  2
Thicken
 70
    13
 71
     2
 72
     2
 73
     0
 90
        0
 40
-0.6
 41
-30.0
 62
     5
 63
     7
421
 16777215
 74
     1
 91
        4
 64
     7
 65
   257
 75
     1
175
     1
 42
1.0
 92
       12
 66
     7
 43
1.0
 76
     1
 77
     6
 78
     2
 67
     7
 79
     5
170
     0
171
     0
290
     0
174
     0
 93
        1
 44
0.0
173
     0
291
     1
 45
0.0
  0
DICTIONARYVAR
  5
2FA
102
{ACAD_REACTORS
330
34
102
}
330
34
100
DictionaryVariables
280
     0
  1
1:1.5
  0
DICTIONARYVAR
  5
2F8
102
{ACAD_REACTORS
330
34
102
}
330
34
100
DictionaryVariables
280
     0
  1
STANDARD
  0
DICTIONARYVAR
  5
140
102
{ACAD_REACTORS
330
34
102
}
330
34
100
DictionaryVariables
280
     0
  1
STANDARD
  0
DICTIONARYVAR
  5
AC
102
{ACAD_REACTORS
330
34
102
}
330
34
100
DictionaryVariables
280
     0
  1
1
  0
DICTIONARYVAR
  5
35
102
{ACAD_REACTORS
330
34
102
}
330
34
100
DictionaryVariables
280
     0
  1
1
  0
DICTIONARYVAR
  5
4C1F
102
{ACAD_REACTORS
330
34
102
}
330
34
100
DictionaryVariables
280
     0
  1
1
  0
DICTIONARYVAR
  5
4C20
102
{ACAD_REACTORS
330
34
102
}
330
34
100
DictionaryVariables
280
     0
  1
15
  0
DICTIONARYVAR
  5
2FB
102
{ACAD_REACTORS
330
34
102
}
330
34
100
DictionaryVariables
280
     0
  1
0
  0
DICTIONARYVAR
  5
2F9
102
{ACAD_REACTORS
330
34
102
}
330
34
100
DictionaryVariables
280
     0
  1
0
  0
DICTIONARY
  5
161B
102
{ACAD_REACTORS
330
49
102
}
330
49
100
AcDbDictionary
281
     1
  0
DICTIONARY
  5
4A
102
{ACAD_REACTORS
330
49
102
}
330
49
100
AcDbDictionary
281
     1
  0
XRECORD
  5
12B
102
{ACAD_REACTORS
330
49
102
}
330
49
100
AcDbXrecord
280
     1
 90
-1023410169
  0
DICTIONARY
  5
2F5
330
122
100
AcDbDictionary
280
     1
281
     1
  3
ACAD_ROUNDTRIP_2008_TABLESTYLE_CELLSTYLEMAP
360
5BC6
  0
CELLSTYLEMAP
  5
5BC6
102
{ACAD_REACTORS
330
2F5
102
}
330
2F5
100
AcDbCellStyleMap
 90
        3
300
CELLSTYLE
  1
TABLEFORMAT_BEGIN
 90
        5
170
     1
 91
        0
 92
    32768
 62
   257
 93
        1
300
CONTENTFORMAT
  1
CONTENTFORMAT_BEGIN
 90
        0
 91
        0
 92
      512
 93
        0
300

 40
0.0
140
1.0
 94
        5
 62
     0
340
11
144
6.0
309
CONTENTFORMAT_END
171
     1
301
MARGIN
  1
CELLMARGIN_BEGIN
 40
1.5
 40
1.5
 40
1.5
 40
1.5
 40
0.18
 40
0.18
309
CELLMARGIN_END
 94
        6
 95
        1
302
GRIDFORMAT
  1
GRIDFORMAT_BEGIN
 90
        0
 91
        1
 62
     0
 92
       -2
340
0
 93
        0
 40
0.045
309
GRIDFORMAT_END
 95
        2
302
GRIDFORMAT
  1
GRIDFORMAT_BEGIN
 90
        0
 91
        1
 62
     0
 92
       -2
340
0
 93
        0
 40
0.045
309
GRIDFORMAT_END
 95
        4
302
GRIDFORMAT
  1
GRIDFORMAT_BEGIN
 90
        0
 91
        1
 62
     0
 92
       -2
340
0
 93
        0
 40
0.045
309
GRIDFORMAT_END
 95
        8
302
GRIDFORMAT
  1
GRIDFORMAT_BEGIN
 90
        0
 91
        1
 62
     0
 92
       -2
340
0
 93
        0
 40
0.045
309
GRIDFORMAT_END
 95
       16
302
GRIDFORMAT
  1
GRIDFORMAT_BEGIN
 90
        0
 91
        1
 62
     0
 92
       -2
340
0
 93
        0
 40
0.045
309
GRIDFORMAT_END
 95
       32
302
GRIDFORMAT
  1
GRIDFORMAT_BEGIN
 90
        0
 91
        1
 62
     0
 92
       -2
340
0
 93
        0
 40
0.045
309
GRIDFORMAT_END
309
TABLEFORMAT_END
  1
CELLSTYLE_BEGIN
 90
        1
 91
        1
300
_TITLE
309
CELLSTYLE_END
300
CELLSTYLE
  1
TABLEFORMAT_BEGIN
 90
        5
170
     1
 91
        0
 92
        0
 62
   257
 93
        1
300
CONTENTFORMAT
  1
CONTENTFORMAT_BEGIN
 90
        0
 91
        0
 92
      512
 93
        0
300

 40
0.0
140
1.0
 94
        5
 62
     0
340
11
144
4.5
309
CONTENTFORMAT_END
171
     1
301
MARGIN
  1
CELLMARGIN_BEGIN
 40
1.5
 40
1.5
 40
1.5
 40
1.5
 40
0.18
 40
0.18
309
CELLMARGIN_END
 94
        6
 95
        1
302
GRIDFORMAT
  1
GRIDFORMAT_BEGIN
 90
        0
 91
        1
 62
     0
 92
       -2
340
0
 93
        0
 40
0.045
309
GRIDFORMAT_END
 95
        2
302
GRIDFORMAT
  1
GRIDFORMAT_BEGIN
 90
        0
 91
        1
 62
     0
 92
       -2
340
0
 93
        0
 40
0.045
309
GRIDFORMAT_END
 95
        4
302
GRIDFORMAT
  1
GRIDFORMAT_BEGIN
 90
        0
 91
        1
 62
     0
 92
       -2
340
0
 93
        0
 40
0.045
309
GRIDFORMAT_END
 95
        8
302
GRIDFORMAT
  1
GRIDFORMAT_BEGIN
 90
        0
 91
        1
 62
     0
 92
       -2
340
0
 93
        0
 40
0.045
309
GRIDFORMAT_END
 95
       16
302
GRIDFORMAT
  1
GRIDFORMAT_BEGIN
 90
        0
 91
        1
 62
     0
 92
       -2
340
0
 93
        0
 40
0.045
309
GRIDFORMAT_END
 95
       32
302
GRIDFORMAT
  1
GRIDFORMAT_BEGIN
 90
        0
 91
        1
 62
     0
 92
       -2
340
0
 93
        0
 40
0.045
309
GRIDFORMAT_END
309
TABLEFORMAT_END
  1
CELLSTYLE_BEGIN
 90
        2
 91
        1
300
_HEADER
309
CELLSTYLE_END
300
CELLSTYLE
  1
TABLEFORMAT_BEGIN
 90
        5
170
     1
 91
        0
 92
        0
 62
   257
 93
        1
300
CONTENTFORMAT
  1
CONTENTFORMAT_BEGIN
 90
        0
 91
        0
 92
      512
 93
        0
300

 40
0.0
140
1.0
 94
        2
 62
     0
340
11
144
4.5
309
CONTENTFORMAT_END
171
     1
301
MARGIN
  1
CELLMARGIN_BEGIN
 40
1.5
 40
1.5
 40
1.5
 40
1.5
 40
0.18
 40
0.18
309
CELLMARGIN_END
 94
        6
 95
        1
302
GRIDFORMAT
  1
GRIDFORMAT_BEGIN
 90
        0
 91
        1
 62
     0
 92
       -2
340
0
 93
        0
 40
0.045
309
GRIDFORMAT_END
 95
        2
302
GRIDFORMAT
  1
GRIDFORMAT_BEGIN
 90
        0
 91
        1
 62
     0
 92
       -2
340
0
 93
        0
 40
0.045
309
GRIDFORMAT_END
 95
        4
302
GRIDFORMAT
  1
GRIDFORMAT_BEGIN
 90
        0
 91
        1
 62
     0
 92
       -2
340
0
 93
        0
 40
0.045
309
GRIDFORMAT_END
 95
        8
302
GRIDFORMAT
  1
GRIDFORMAT_BEGIN
 90
        0
 91
        1
 62
     0
 92
       -2
340
0
 93
        0
 40
0.045
309
GRIDFORMAT_END
 95
       16
302
GRIDFORMAT
  1
GRIDFORMAT_BEGIN
 90
        0
 91
        1
 62
     0
 92
       -2
340
0
 93
        0
 40
0.045
309
GRIDFORMAT_END
 95
       32
302
GRIDFORMAT
  1
GRIDFORMAT_BEGIN
 90
        0
 91
        1
 62
     0
 92
       -2
340
0
 93
        0
 40
0.045
309
GRIDFORMAT_END
309
TABLEFORMAT_END
  1
CELLSTYLE_BEGIN
 90
        3
 91
        2
300
_DATA
309
CELLSTYLE_END
  0
ENDSEC
  0
EOF
