  0
SECTION
  2
HEADER
  9
$ACADVER
  1
AC1021
  9
$ACADMAINTVER
 70
    26
  9
$DWGCODEPAGE
  3
ANSI_932
  9
$LASTSAVEDBY
  1
Htm_Terada
  9
$CUSTOMPROPERTYTAG
  1
AmdtFileType
  9
$CUSTOMPROPERTY
  1
84
  9
$INSBASE
 10
0.0
 20
0.0
 30
0.0
  9
$EXTMIN
 10
252.8506186934867
 20
191.7608659478844
 30
-0.0000000349181948
  9
$EXTMAX
 10
446.5196700797771
 20
438.0949414289729
 30
0.0000000814935747
  9
$LIMMIN
 10
-0.0000002271699202
 20
0.0
  9
$LIMMAX
 10
891.000000113585
 20
630.0000000000002
  9
$ORTHOMODE
 70
     1
  9
$REGENMODE
 70
     1
  9
$FILLMODE
 70
     1
  9
$QTEXTMODE
 70
     0
  9
$MIRRTEXT
 70
     1
  9
$LTSCALE
 40
1.5
  9
$ATTMODE
 70
     1
  9
$TEXTSIZE
 40
25.0
  9
$TRACEWID
 40
1.0
  9
$TEXTSTYLE
  7
SEISA
  9
$CLAYER
  8
AM_11 想像線
  9
$CELTYPE
  6
ByLayer
  9
$CECOLOR
 62
   256
  9
$CELTSCALE
 40
1.0
  9
$DISPSILH
 70
     0
  9
$DIMSCALE
 40
1.5
  9
$DIMASZ
 40
2.5
  9
$DIMEXO
 40
0.625
  9
$DIMDLI
 40
10.0
  9
$DIMRND
 40
0.0
  9
$DIMDLE
 40
0.0
  9
$DIMEXE
 40
0.625
  9
$DIMTP
 40
0.1
  9
$DIMTM
 40
0.1
  9
$DIMTXT
 40
3.5
  9
$DIMCEN
 40
0.0
  9
$DIMTSZ
 40
0.0
  9
$DIMTOL
 70
     0
  9
$DIMLIM
 70
     0
  9
$DIMTIH
 70
     0
  9
$DIMTOH
 70
     0
  9
$DIMSE1
 70
     0
  9
$DIMSE2
 70
     0
  9
$DIMTAD
 70
     3
  9
$DIMZIN
 70
     8
  9
$DIMBLK
  1
Open30
  9
$DIMASO
 70
     1
  9
$DIMSHO
 70
     1
  9
$DIMPOST
  1

  9
$DIMAPOST
  1
"
  9
$DIMALT
 70
     0
  9
$DIMALTD
 70
     2
  9
$DIMALTF
 40
0.0393701
  9
$DIMLFAC
 40
1.0
  9
$DIMTOFL
 70
     1
  9
$DIMTVP
 40
0.0
  9
$DIMTIX
 70
     0
  9
$DIMSOXD
 70
     0
  9
$DIMSAH
 70
     0
  9
$DIMBLK1
  1

  9
$DIMBLK2
  1

  9
$DIMSTYLE
  2
SEISA
  9
$DIMCLRD
 70
     3
  9
$DIMCLRE
 70
     3
  9
$DIMCLRT
 70
     3
  9
$DIMTFAC
 40
0.71
  9
$DIMGAP
 40
1.5
  9
$DIMJUST
 70
     0
  9
$DIMSD1
 70
     0
  9
$DIMSD2
 70
     0
  9
$DIMTOLJ
 70
     0
  9
$DIMTZIN
 70
     0
  9
$DIMALTZ
 70
     0
  9
$DIMALTTZ
 70
     8
  9
$DIMUPT
 70
     0
  9
$DIMDEC
 70
     2
  9
$DIMTDEC
 70
     3
  9
$DIMALTU
 70
     2
  9
$DIMALTTD
 70
     2
  9
$DIMTXSTY
  7
SEISA
  9
$DIMAUNIT
 70
     0
  9
$DIMADEC
 70
     0
  9
$DIMALTRND
 40
0.0
  9
$DIMAZIN
 70
     2
  9
$DIMDSEP
 70
    46
  9
$DIMATFIT
 70
     3
  9
$DIMFRAC
 70
     0
  9
$DIMLDRBLK
  1
Open30
  9
$DIMLUNIT
 70
     2
  9
$DIMLWD
 70
    -1
  9
$DIMLWE
 70
    -1
  9
$DIMTMOVE
 70
     0
  9
$DIMFXL
 40
1.0
  9
$DIMFXLON
 70
     0
  9
$DIMJOGANG
 40
0.7853981633974483
  9
$DIMTFILL
 70
     0
  9
$DIMTFILLCLR
 70
     0
  9
$DIMARCSYM
 70
     1
  9
$DIMLTYPE
  6

  9
$DIMLTEX1
  6

  9
$DIMLTEX2
  6

  9
$LUNITS
 70
     2
  9
$LUPREC
 70
     2
  9
$SKETCHINC
 40
1.0
  9
$FILLETRAD
 40
0.4
  9
$AUNITS
 70
     0
  9
$AUPREC
 70
     0
  9
$MENU
  1
.
  9
$ELEVATION
 40
0.0
  9
$PELEVATION
 40
0.0
  9
$THICKNESS
 40
0.0
  9
$LIMCHECK
 70
     0
  9
$CHAMFERA
 40
1.0
  9
$CHAMFERB
 40
1.0
  9
$CHAMFERC
 40
1.0
  9
$CHAMFERD
 40
0.7853981633974483
  9
$SKPOLY
 70
     0
  9
$TDCREATE
 40
2454963.600733924
  9
$TDUCREATE
 40
2454963.225733924
  9
$TDUPDATE
 40
2456479.538778565
  9
$TDUUPDATE
 40
2456479.163778565
  9
$TDINDWG
 40
0.1996744560
  9
$TDUSRTIMER
 40
0.1996739120
  9
$USRTIMER
 70
     1
  9
$ANGBASE
 50
0.0
  9
$ANGDIR
 70
     0
  9
$PDMODE
 70
     0
  9
$PDSIZE
 40
0.0
  9
$PLINEWID
 40
0.0
  9
$SPLFRAME
 70
     0
  9
$SPLINETYPE
 70
     6
  9
$SPLINESEGS
 70
     8
  9
$HANDSEED
  5
60CE
  9
$SURFTAB1
 70
     6
  9
$SURFTAB2
 70
     6
  9
$SURFTYPE
 70
     6
  9
$SURFU
 70
     6
  9
$SURFV
 70
     6
  9
$UCSBASE
  2

  9
$UCSNAME
  2

  9
$UCSORG
 10
0.0
 20
0.0
 30
0.0
  9
$UCSXDIR
 10
1.0
 20
0.0
 30
0.0
  9
$UCSYDIR
 10
0.0
 20
1.0
 30
0.0
  9
$UCSORTHOREF
  2

  9
$UCSORTHOVIEW
 70
     0
  9
$UCSORGTOP
 10
0.0
 20
0.0
 30
0.0
  9
$UCSORGBOTTOM
 10
0.0
 20
0.0
 30
0.0
  9
$UCSORGLEFT
 10
0.0
 20
0.0
 30
0.0
  9
$UCSORGRIGHT
 10
0.0
 20
0.0
 30
0.0
  9
$UCSORGFRONT
 10
0.0
 20
0.0
 30
0.0
  9
$UCSORGBACK
 10
0.0
 20
0.0
 30
0.0
  9
$PUCSBASE
  2

  9
$PUCSNAME
  2

  9
$PUCSORG
 10
0.0
 20
0.0
 30
0.0
  9
$PUCSXDIR
 10
1.0
 20
0.0
 30
0.0
  9
$PUCSYDIR
 10
0.0
 20
1.0
 30
0.0
  9
$PUCSORTHOREF
  2

  9
$PUCSORTHOVIEW
 70
     0
  9
$PUCSORGTOP
 10
0.0
 20
0.0
 30
0.0
  9
$PUCSORGBOTTOM
 10
0.0
 20
0.0
 30
0.0
  9
$PUCSORGLEFT
 10
0.0
 20
0.0
 30
0.0
  9
$PUCSORGRIGHT
 10
0.0
 20
0.0
 30
0.0
  9
$PUCSORGFRONT
 10
0.0
 20
0.0
 30
0.0
  9
$PUCSORGBACK
 10
0.0
 20
0.0
 30
0.0
  9
$USERI1
 70
     0
  9
$USERI2
 70
     0
  9
$USERI3
 70
     0
  9
$USERI4
 70
     0
  9
$USERI5
 70
     0
  9
$USERR1
 40
0.0
  9
$USERR2
 40
0.0
  9
$USERR3
 40
0.0
  9
$USERR4
 40
0.0
  9
$USERR5
 40
0.0
  9
$WORLDVIEW
 70
     1
  9
$SHADEDGE
 70
     3
  9
$SHADEDIF
 70
    70
  9
$TILEMODE
 70
     1
  9
$MAXACTVP
 70
    64
  9
$PINSBASE
 10
0.0
 20
0.0
 30
0.0
  9
$PLIMCHECK
 70
     0
  9
$PEXTMIN
 10
1.000000000000000E+20
 20
1.000000000000000E+20
 30
1.000000000000000E+20
  9
$PEXTMAX
 10
-1.000000000000000E+20
 20
-1.000000000000000E+20
 30
-1.000000000000000E+20
  9
$PLIMMIN
 10
0.0
 20
0.0
  9
$PLIMMAX
 10
420.0
 20
297.0
  9
$UNITMODE
 70
     0
  9
$VISRETAIN
 70
     1
  9
$PLINEGEN
 70
     0
  9
$PSLTSCALE
 70
     1
  9
$TREEDEPTH
 70
  3020
  9
$CMLSTYLE
  2
Standard
  9
$CMLJUST
 70
     0
  9
$CMLSCALE
 40
20.0
  9
$PROXYGRAPHICS
 70
     1
  9
$MEASUREMENT
 70
     1
  9
$CELWEIGHT
370
    -1
  9
$ENDCAPS
280
     0
  9
$JOINSTYLE
280
     0
  9
$LWDISPLAY
290
     0
  9
$INSUNITS
 70
     4
  9
$HYPERLINKBASE
  1

  9
$STYLESHEET
  1
SEISA.CTB
  9
$XEDIT
290
     1
  9
$CEPSNTYPE
380
     0
  9
$PSTYLEMODE
290
     1
  9
$FINGERPRINTGUID
  2
{FC289290-799C-4047-A246-AA94FDDA68AC}
  9
$VERSIONGUID
  2
{7B0B2312-F410-4FCD-805F-691F248335E2}
  9
$EXTNAMES
290
     1
  9
$PSVPSCALE
 40
0.0
  9
$OLESTARTUP
290
     0
  9
$SORTENTS
280
   127
  9
$INDEXCTL
280
     0
  9
$HIDETEXT
280
     0
  9
$XCLIPFRAME
290
     0
  9
$HALOGAP
280
     0
  9
$OBSCOLOR
 70
   257
  9
$OBSLTYPE
280
     0
  9
$INTERSECTIONDISPLAY
280
     0
  9
$INTERSECTIONCOLOR
 70
   257
  9
$DIMASSOC
280
     2
  9
$PROJECTNAME
  1

  9
$CAMERADISPLAY
290
     0
  9
$LENSLENGTH
 40
50.0
  9
$CAMERAHEIGHT
 40
0.0
  9
$STEPSPERSEC
 40
2.0
  9
$STEPSIZE
 40
6.0
  9
$3DDWFPREC
 40
2.0
  9
$PSOLWIDTH
 40
0.25
  9
$PSOLHEIGHT
 40
4.0
  9
$LOFTANG1
 40
1.570796326794896
  9
$LOFTANG2
 40
1.570796326794896
  9
$LOFTMAG1
 40
0.0
  9
$LOFTMAG2
 40
0.0
  9
$LOFTPARAM
 70
     7
  9
$LOFTNORMALS
280
     1
  9
$LATITUDE
 40
37.795
  9
$LONGITUDE
 40
-122.394
  9
$NORTHDIRECTION
 40
0.0
  9
$TIMEZONE
 70
 -8000
  9
$LIGHTGLYPHDISPLAY
280
     1
  9
$TILEMODELIGHTSYNCH
280
     1
  9
$CMATERIAL
347
27C
  9
$SOLIDHIST
280
     1
  9
$SHOWHIST
280
     1
  9
$DWFFRAME
280
     2
  9
$DGNFRAME
280
     0
  9
$REALWORLDSCALE
290
     1
  9
$INTERFERECOLOR
 62
     1
  9
$INTERFEREOBJVS
345
289
  9
$INTERFEREVPVS
346
286
  9
$CSHADOW
280
     0
  9
$SHADOWPLANELOCATION
 40
0.0
  0
ENDSEC
  0
SECTION
  2
CLASSES
  0
CLASS
  1
ACDBDICTIONARYWDFLT
  2
AcDbDictionaryWithDefault
  3
ObjectDBX Classes
 90
        0
 91
        1
280
     0
281
     0
  0
CLASS
  1
AMGSETTINGSOBJ
  2
AmgSettingsObj
  3
"AcadM|Product Description: AutoCAD Mechanical|Company: Autodesk, Inc."
 90
     1024
 91
        2
280
     0
281
     0
  0
CLASS
  1
ACME_DOCUMENT
  2
AcMeDbDoc
  3
AcMeServices
 90
     1024
 91
        1
280
     0
281
     0
  0
CLASS
  1
ACMESCOPE
  2
AcMeScope
  3
AcMeServices
 90
     1024
 91
        1
280
     0
281
     0
  0
CLASS
  1
ACMECOMMANDHISTORY
  2
AcMeCommandHistory
  3
AcMeServices
 90
     1024
 91
        1
280
     0
281
     0
  0
CLASS
  1
DICTIONARYVAR
  2
AcDbDictionaryVar
  3
ObjectDBX Classes
 90
        0
 91
        9
280
     0
281
     0
  0
CLASS
  1
ACIMSYSVARMAN
  2
AcImSysVarManager
  3
AcMeServices
 90
     1024
 91
        5
280
     0
281
     0
  0
CLASS
  1
ACIMREALSYSVAR
  2
AcImRealSysVar
  3
AcMeServices
 90
     1024
 91
        1
280
     0
281
     0
  0
CLASS
  1
ACIMINTSYSVAR
  2
AcImIntSysVar
  3
AcMeServices
 90
     1024
 91
       27
280
     0
281
     0
  0
CLASS
  1
ACMEDRAWINGMAN
  2
AcMeDrawingMan
  3
AcMeServices
 90
     1024
 91
        1
280
     0
281
     0
  0
CLASS
  1
ACMEVIEW
  2
AcMeView
  3
AcMeServices
 90
     1024
 91
        1
280
     0
281
     0
  0
CLASS
  1
ACDBENTITYCACHE
  2
AcMeEntityCache
  3
AcMeServices
 90
     1024
 91
        1
280
     0
281
     0
  0
CLASS
  1
GSMANAGER
  2
AcMeGSManager
  3
AcMeServices
 90
     1024
 91
        1
280
     0
281
     0
  0
CLASS
  1
AMDTINTERNALREACTOR
  2
AmdtInternalReactor
  3
AcMeServices
 90
     1024
 91
        2
280
     0
281
     0
  0
CLASS
  1
ACMESTATEMGR
  2
AcMeStateMgr
  3
AcMeServices
 90
     1024
 91
        1
280
     0
281
     0
  0
CLASS
  1
ACGREFMASTER
  2
AcGrefMaster
  3
AcAttribServices
 90
     1024
 91
        1
280
     0
281
     0
  0
CLASS
  1
ACME_DATABASE
  2
AcMeDbDatabase
  3
AcMeServices
 90
     1024
 91
        1
280
     0
281
     0
  0
CLASS
  1
ACRFINSADJUSTERMGR
  2
AcRfInsAdjusterMgr
  3
AcMeServices
 90
     1024
 91
        1
280
     0
281
     0
  0
CLASS
  1
ACGREFACADMASTER
  2
AcGrefacadMaster
  3
AcGrefServices
 90
     1024
 91
        1
280
     0
281
     0
  0
CLASS
  1
AMIMASTER
  2
AmiMaster
  3
AmiServices
 90
     1024
 91
        1
280
     0
281
     0
  0
CLASS
  1
ACIMSTRSYSVAR
  2
AcImStrSysVar
  3
AcMeServices
 90
     1024
 91
        5
280
     0
281
     0
  0
CLASS
  1
ACMSTANDARDJIS
  2
AcmStandardJIS
  3
"Amdt_StdImp|Product Description: AutoCAD Mechanical|Company: Autodesk, Inc."
 90
     1024
 91
        0
280
     0
281
     0
  0
CLASS
  1
AMGOBJPROPCFG
  2
AmgObjPropCfg
  3
"AmgLay|Product Description: AutoCAD Mechanical|Company: Autodesk, Inc."
 90
     1025
 91
        1
280
     0
281
     0
  0
CLASS
  1
ACMSURFSTANDARDJIS
  2
AcmSurfTextStdJIS
  3
"Amdt_StdImp|Product Description: AutoCAD Mechanical|Company: Autodesk, Inc."
 90
     1024
 91
        0
280
     0
281
     0
  0
CLASS
  1
ACMFCFSTANDARDJIS
  2
AcmFCFStdJIS
  3
"Amdt_StdImp|Product Description: AutoCAD Mechanical|Company: Autodesk, Inc."
 90
     1024
 91
        0
280
     0
281
     0
  0
CLASS
  1
ACMWELDSTANDARDJIS
  2
AcmWeldingStdJIS
  3
"Amdt_StdImp|Product Description: AutoCAD Mechanical|Company: Autodesk, Inc."
 90
     1024
 91
        0
280
     0
281
     0
  0
CLASS
  1
ACMIDSTANDARDJIS
  2
AcmIdStdJIS
  3
"Amdt_StdImp|Product Description: AutoCAD Mechanical|Company: Autodesk, Inc."
 90
     1024
 91
        0
280
     0
281
     0
  0
CLASS
  1
ACMDATUMSTANDARDJIS
  2
AcmDatumStdJIS
  3
"Amdt_StdImp|Product Description: AutoCAD Mechanical|Company: Autodesk, Inc."
 90
     1024
 91
        0
280
     0
281
     0
  0
CLASS
  1
ACMBOMSTANDARDJIS
  2
AcmBOMStdJIS
  3
"Amdt_StdImp|Product Description: AutoCAD Mechanical|Company: Autodesk, Inc."
 90
     1024
 91
        0
280
     0
281
     0
  0
CLASS
  1
ACMDETAILSTANDARDJIS
  2
AmdtDetailSymStdJIS
  3
"Amdt_StdImp|Product Description: AutoCAD Mechanical|Company: Autodesk, Inc."
 90
     1024
 91
        0
280
     0
281
     0
  0
CLASS
  1
ACMSECTIONSTANDARDJIS
  2
AmdtSectionSymStdJIS
  3
"Amdt_StdImp|Product Description: AutoCAD Mechanical|Company: Autodesk, Inc."
 90
     1024
 91
        0
280
     0
281
     0
  0
CLASS
  1
ACMCENTERLINESTANDARDJIS
  2
AmdtCenterLineStdJIS
  3
"Amdt_StdImp|Product Description: AutoCAD Mechanical|Company: Autodesk, Inc."
 90
     1024
 91
        0
280
     0
281
     0
  0
CLASS
  1
ACMTHREADLINESTANDARDJIS
  2
AmdtThreadLineStdJIS
  3
"Amdt_StdImp|Product Description: AutoCAD Mechanical|Company: Autodesk, Inc."
 90
     1024
 91
        0
280
     0
281
     0
  0
CLASS
  1
ACAMGLAYSTD
  2
AcAmgLayStd
  3
"AmgLay|Product Description: AutoCAD Mechanical|Company: Autodesk, Inc."
 90
     1024
 91
        1
280
     0
281
     0
  0
CLASS
  1
ACAMGDIMSTD
  2
AcAmgDimStd
  3
"AmgDim|Product Description: AutoCAD Mechanical|Company: Autodesk, Inc."
 90
     1024
 91
        1
280
     0
281
     0
  0
CLASS
  1
ACAMGTITLESTD
  2
AcAmgTitleStd
  3
"AmgTitle|Product Description: AutoCAD Mechanical|Company: Autodesk, Inc."
 90
     4095
 91
        1
280
     0
281
     0
  0
CLASS
  1
ACMDATADICTIONARY
  2
AcmDataDictionary
  3
"AcmSymBB|Product Description: AutoCAD Mechanical|Company: Autodesk, Inc."
 90
     1024
 91
        1
280
     0
281
     0
  0
CLASS
  1
ACMDATAENTRYBLOCK
  2
AcmDataEntryBlock
  3
AcmSymBB|Product Description: AutoCAD Mechanical|Company: Autodesk, Inc.
 90
     1024
 91
        0
280
     0
281
     0
  0
CLASS
  1
LAYER_INDEX
  2
AcDbLayerIndex
  3
ObjectDBX Classes
 90
        0
 91
        0
280
     0
281
     0
  0
CLASS
  1
IDBUFFER
  2
AcDbIdBuffer
  3
ObjectDBX Classes
 90
        0
 91
        0
280
     0
281
     0
  0
CLASS
  1
ACMNOTESTANDARDJIS
  2
AmdtNoteStdJIS
  3
"Amdt_StdImp|Product Description: AutoCAD Mechanical|Company: Autodesk, Inc."
 90
     1024
 91
        0
280
     0
281
     0
  0
CLASS
  1
ACAMGHOLECHARTSTDJIS
  2
AcAmgHoleChartStdJIS
  3
AmgDim|Product Description: AutoCAD Mechanical|Company: Autodesk, Inc.
 90
     1024
 91
        0
280
     0
281
     0
  0
CLASS
  1
AM_DRAWING_MGR
  2
AcDmDwgMgr
  3
AcMechDwgViewMgmt
 90
     1024
 91
        1
280
     0
281
     0
  0
CLASS
  1
AM_DWG_DOCUMENT
  2
AcDmDwgDocument
  3
AcMechDwgViewMgmt
 90
     1024
 91
        1
280
     0
281
     0
  0
CLASS
  1
AM_DWG_SHEET
  2
AcDmSheet
  3
AcMechDwgViewMgmt
 90
     1024
 91
        2
280
     0
281
     0
  0
CLASS
  1
AM_VIEWDIMPARMAP
  2
AcDmViewDimParMap
  3
AcMechDwgViewMgmt
 90
     1024
 91
        2
280
     0
281
     0
  0
CLASS
  1
AM_DWGMGR_NAME
  2
AcDmDwgMgrName
  3
AcMechDwgViewMgmt
 90
     1024
 91
        1
280
     0
281
     0
  0
CLASS
  1
AMDTMENUSTATEMGR
  2
AmdtMenuStateMgr
  3
McadcomServices
 90
     1024
 91
        1
280
     0
281
     0
  0
CLASS
  1
AMDTMCOMMENUSTATE
  2
AmdtMcomMenuState
  3
McadcomServices
 90
     1024
 91
        1
280
     0
281
     0
  0
CLASS
  1
MAPIAMMOUDLE
  2
MApiAmModule
  3
MApiAmServices
 90
     1024
 91
        1
280
     0
281
     0
  0
CLASS
  1
AMDTADMENUSTATE
  2
AmdtAdMenuState
  3
DesignerServices
 90
     1024
 91
        1
280
     0
281
     0
  0
CLASS
  1
ADAPPL
  2
AcAdAppl
  3
DesignerServices
 90
     1024
 91
        1
280
     0
281
     0
  0
CLASS
  1
DEPMGR
  2
AcAdDepMgr
  3
DesignerServices
 90
     1024
 91
        1
280
     0
281
     0
  0
CLASS
  1
PARAMMGR
  2
AcAdParamMgr
  3
DesignerServices
 90
     1024
 91
        1
280
     0
281
     0
  0
CLASS
  1
PARAMSCOPE
  2
AcAdParamScope
  3
DesignerServices
 90
     1024
 91
        1
280
     0
281
     0
  0
CLASS
  1
NAMEDAPPL
  2
AcAdNamedAppl
  3
DesignerServices
 90
     1024
 91
        1
280
     0
281
     0
  0
CLASS
  1
AMDTDMMENUSTATE
  2
AmdtDmMenuState
  3
AcMechDwgViewMgmt
 90
     1024
 91
        1
280
     0
281
     0
  0
CLASS
  1
AMDTAMMENUSTATE
  2
AmdtAmMenuState
  3
DesignerAssemblies
 90
     1024
 91
        1
280
     0
281
     0
  0
CLASS
  1
ACAMPROJECT
  2
AcAmProject
  3
DesignerAssemblies
 90
     1024
 91
        1
280
     0
281
     0
  0
CLASS
  1
ACAMGRCOMPDEF
  2
AcAmGrCompDef
  3
DesignerAssemblies
 90
     1024
 91
        1
280
     0
281
     0
  0
CLASS
  1
ACCMCONTEXT
  2
AcCmContext
  3
DesignerAssemblies
 90
     1024
 91
        1
280
     0
281
     0
  0
CLASS
  1
ACAMCOMPDEF
  2
AcAmCompDef
  3
DesignerAssemblies
 90
     1024
 91
        1
280
     0
281
     0
  0
CLASS
  1
ACAMCOMPDEFMGR
  2
AcAmCompDefMgr
  3
DesignerAssemblies
 90
     1024
 91
        1
280
     0
281
     0
  0
CLASS
  1
AMCONTEXTMGR
  2
AcAmContextMgr
  3
DesignerAssemblies
 90
     1024
 91
        1
280
     0
281
     0
  0
CLASS
  1
ACAMCONTEXTMODELER
  2
AcAmContextModeler
  3
DesignerAssemblies
 90
     1024
 91
        1
280
     0
281
     0
  0
CLASS
  1
CATALOGSTATE
  2
AcAmCatalogState
  3
DesignerAssemblies
 90
     1024
 91
        1
280
     0
281
     0
  0
CLASS
  1
ACAMGRCOMPDEFSET
  2
AcAmGrCompDefSet
  3
DesignerAssemblies
 90
     1024
 91
        1
280
     0
281
     0
  0
CLASS
  1
AMDTBROWSERDBTAB
  2
AmdtBrowserDbTab
  3
McadcomServices
 90
     1024
 91
        1
280
     0
281
     0
  0
CLASS
  1
CBROWSERAPPOBJECT
  2
CBrowserAppObject
  3
McadcomServices
 90
     1024
 91
        3
280
     0
281
     0
  0
CLASS
  1
DM_PLACEHOLDER
  2
AcDmSelsetPlaceholder
  3
AcMechDwgViewMgmt
 90
     1024
 91
        1
280
     0
281
     0
  0
CLASS
  1
TABLESTYLE
  2
AcDbTableStyle
  3
ObjectDBX Classes
 90
     4095
 91
        1
280
     0
281
     0
  0
CLASS
  1
VAACXREFPANELOBJECT
  2
VaAcXREFPanelObject
  3
VAAC_ADDIN
 90
        0
 91
        0
280
     0
281
     0
  0
CLASS
  1
VAACIMAGEINVENTORY
  2
VaAcImageInventory
  3
VAAC_ADDIN
 90
        0
 91
        0
280
     0
281
     0
  0
CLASS
  1
AMDTNOTETEMPLATEDB
  2
AmdtNoteTemplateDB
  3
AcmSymBB|Product Description: AutoCAD Mechanical|Company: Autodesk, Inc.
 90
     1024
 91
        6
280
     0
281
     0
  0
CLASS
  1
ACAMGFILTERDAT
  2
AcAmgFilterDat
  3
"AcadM|Product Description: AutoCAD Mechanical|Company: Autodesk, Inc."
 90
     1024
 91
        0
280
     0
281
     0
  0
CLASS
  1
MATERIAL
  2
AcDbMaterial
  3
ObjectDBX Classes
 90
     1153
 91
        3
280
     0
281
     0
  0
CLASS
  1
VISUALSTYLE
  2
AcDbVisualStyle
  3
ObjectDBX Classes
 90
     4095
 91
       16
280
     0
281
     0
  0
CLASS
  1
ACRFATTGENMGR
  2
AcRfAttGeneralMgr
  3
AcAttribServices
 90
     1024
 91
        0
280
     0
281
     0
  0
CLASS
  1
ACRFOBJATTMGR
  2
AcRfObjAttGroupMgr
  3
AcAttribServices
 90
     1024
 91
        0
280
     0
281
     0
  0
CLASS
  1
ACRFMCADAPIATTHOLDER
  2
AcRfMCADAPIAttHolder
  3
AcAttribServices
 90
     1024
 91
        0
280
     0
281
     0
  0
CLASS
  1
AMDTSYSATTR
  2
AmdtSystemAttribute
  3
AcAttribServices
 90
     1024
 91
        0
280
     0
281
     0
  0
CLASS
  1
ACMTAPERSTANDARDJIS
  2
AcmTaperStdJIS
  3
"Amdt_StdImp|Product Description: AutoCAD Mechanical|Company: Autodesk, Inc."
 90
     1024
 91
        0
280
     0
281
     0
  0
CLASS
  1
CAMSSTRUCTBTNSTATE
  2
StructBtnState
  3
DesignerAssemblies
 90
     1024
 91
        0
280
     0
281
     0
  0
CLASS
  1
SCALE
  2
AcDbScale
  3
ObjectDBX Classes
 90
     1153
 91
       34
280
     0
281
     0
  0
CLASS
  1
MLEADERSTYLE
  2
AcDbMLeaderStyle
  3
ACDB_MLEADERSTYLE_CLASS
 90
     4095
 91
        1
280
     0
281
     0
  0
CLASS
  1
ACMANOOTATIONVIEWSTANDARDJIS
  2
AmdtAnViewStdJIS
  3
"Amdt_StdImp|Product Description: AutoCAD Mechanical|Company: Autodesk, Inc."
 90
     1024
 91
        0
280
     0
281
     0
  0
CLASS
  1
ACMSURFSTANDARDJIS2003
  2
AcmSurfTextStdJIS2003
  3
"Amdt_StdImp|Product Description: AutoCAD Mechanical|Company: Autodesk, Inc."
 90
     1024
 91
        0
280
     0
281
     0
  0
CLASS
  1
CELLSTYLEMAP
  2
AcDbCellStyleMap
  3
ObjectDBX Classes
 90
     1152
 91
        2
280
     0
281
     0
  0
CLASS
  1
ACMFCFSTANDARDJIS98
  2
AcmFCFStdJIS98
  3
"Amdt_StdImp|Product Description: AutoCAD Mechanical|Company: Autodesk, Inc."
 90
     1024
 91
        0
280
     0
281
     0
  0
CLASS
  1
SORTENTSTABLE
  2
AcDbSortentsTable
  3
ObjectDBX Classes
 90
        0
 91
       11
280
     0
281
     0
  0
CLASS
  1
DIMASSOC
  2
AcDbDimAssoc
  3
"AcDbDimAssoc|Product Desc:     AcDim ARX App For Dimension|Company:          Autodesk, Inc.|WEB Address:      www.autodesk.com"
 90
        0
 91
       15
280
     0
281
     0
  0
CLASS
  1
STDPART2D
  2
AmgStdPart
  3
AmgStdPart|Product Description: AutoCAD Mechanical|Company: Autodesk, Inc.
 90
     4095
 91
        0
280
     0
281
     1
  0
CLASS
  1
ACMDATAENTRYPART
  2
AcmDataEntryPart
  3
AcmSymBB|Product Description: AutoCAD Mechanical|Company: Autodesk, Inc.
 90
     1024
 91
        0
280
     0
281
     0
  0
CLASS
  1
ACMPARTREF
  2
AcmPartRef
  3
"AcmSymBB|Product Description: AutoCAD Mechanical|Company: Autodesk, Inc."
 90
     4095
 91
        0
280
     0
281
     1
  0
CLASS
  1
ACDBSTDPARTRES_LINE
  2
AcDbStdPartRes_Line
  3
AmgStdPart|Product Description: AutoCAD Mechanical|Company: Autodesk, Inc.
 90
     1024
 91
        0
280
     0
281
     0
  0
CLASS
  1
ACMBOM
  2
AcmBom
  3
"AcmSymBB|Product Description: AutoCAD Mechanical|Company: Autodesk, Inc."
 90
     1024
 91
        0
280
     0
281
     0
  0
CLASS
  1
AMDTFORMULAUPDATEDISPATCHER
  2
AmdtFormulaUpdateDispatcher
  3
AcMeServices
 90
     1024
 91
        0
280
     0
281
     0
  0
CLASS
  1
ACMBOMROW
  2
AcmBomRow
  3
"AcmSymBB|Product Description: AutoCAD Mechanical|Company: Autodesk, Inc."
 90
     1024
 91
        0
280
     0
281
     0
  0
CLASS
  1
ACMPARTLIST
  2
AcmPartList
  3
"AcmSymBB|Product Description: AutoCAD Mechanical|Company: Autodesk, Inc."
 90
     4095
 91
        0
280
     0
281
     1
  0
CLASS
  1
ACDBLINERES
  2
AcDbLineRes
  3
AcGrefServices
 90
     1024
 91
        0
280
     0
281
     0
  0
CLASS
  1
ACRFINSADJ
  2
AcRfInsAdjuster
  3
AcMeServices
 90
     1024
 91
        0
280
     0
281
     0
  0
CLASS
  1
ACMSTANDARDISO
  2
AcmStandardISO
  3
"Amdt_StdImp|Product Description: AutoCAD Mechanical|Company: Autodesk, Inc."
 90
     1024
 91
        1
280
     0
281
     0
  0
CLASS
  1
AMDTEDGESTANDARDISO13715
  2
AmdtEdgeStdISO13715
  3
"Amdt_StdImp|Product Description: AutoCAD Mechanical|Company: Autodesk, Inc."
 90
     1024
 91
        1
280
     0
281
     0
  0
CLASS
  1
ACMSURFSTANDARDISO2002
  2
AcmSurfTextStdISO2002
  3
"Amdt_StdImp|Product Description: AutoCAD Mechanical|Company: Autodesk, Inc."
 90
     1024
 91
        1
280
     0
281
     0
  0
CLASS
  1
ACMFCFSTANDARDISO
  2
AcmFCFStdISO
  3
"Amdt_StdImp|Product Description: AutoCAD Mechanical|Company: Autodesk, Inc."
 90
     1024
 91
        1
280
     0
281
     0
  0
CLASS
  1
ACMWELDSTANDARDISO
  2
AcmWeldingStdISO
  3
"Amdt_StdImp|Product Description: AutoCAD Mechanical|Company: Autodesk, Inc."
 90
     1024
 91
        1
280
     0
281
     0
  0
CLASS
  1
ACMIDSTANDARDISO
  2
AcmIdStdISO
  3
"Amdt_StdImp|Product Description: AutoCAD Mechanical|Company: Autodesk, Inc."
 90
     1024
 91
        1
280
     0
281
     0
  0
CLASS
  1
ACMDATUMSTANDARDISO
  2
AcmDatumStdISO
  3
"Amdt_StdImp|Product Description: AutoCAD Mechanical|Company: Autodesk, Inc."
 90
     1024
 91
        1
280
     0
281
     0
  0
CLASS
  1
ACMBOMSTANDARDISO
  2
AcmBOMStdISO
  3
"Amdt_StdImp|Product Description: AutoCAD Mechanical|Company: Autodesk, Inc."
 90
     1024
 91
        1
280
     0
281
     0
  0
CLASS
  1
ACMDETAILSTANDARDISO
  2
AmdtDetailSymStdISO
  3
"Amdt_StdImp|Product Description: AutoCAD Mechanical|Company: Autodesk, Inc."
 90
     1024
 91
        1
280
     0
281
     0
  0
CLASS
  1
ACMSECTIONSTANDARDISO2001
  2
AmdtSectionSymStdISO2001
  3
"Amdt_StdImp|Product Description: AutoCAD Mechanical|Company: Autodesk, Inc."
 90
     1024
 91
        1
280
     0
281
     0
  0
CLASS
  1
ACMCENTERLINESTANDARDISO
  2
AmdtCenterLineStdISO
  3
"Amdt_StdImp|Product Description: AutoCAD Mechanical|Company: Autodesk, Inc."
 90
     1024
 91
        1
280
     0
281
     0
  0
CLASS
  1
ACMTHREADLINESTANDARDISO
  2
AmdtThreadLineStdISO
  3
"Amdt_StdImp|Product Description: AutoCAD Mechanical|Company: Autodesk, Inc."
 90
     1024
 91
        1
280
     0
281
     0
  0
CLASS
  1
ACMNOTESTANDARDISO
  2
AmdtNoteStdISO
  3
"Amdt_StdImp|Product Description: AutoCAD Mechanical|Company: Autodesk, Inc."
 90
     1024
 91
        1
280
     0
281
     0
  0
CLASS
  1
ACMTAPERSTANDARDISO
  2
AcmTaperStdISO
  3
"Amdt_StdImp|Product Description: AutoCAD Mechanical|Company: Autodesk, Inc."
 90
     1024
 91
        1
280
     0
281
     0
  0
CLASS
  1
ACMANOOTATIONVIEWSTANDARDISO
  2
AmdtAnViewStdISO
  3
"Amdt_StdImp|Product Description: AutoCAD Mechanical|Company: Autodesk, Inc."
 90
     1024
 91
        1
280
     0
281
     0
  0
CLASS
  1
ACAMGHOLECHARTSTDISO
  2
AcAmgHoleChartStdISO
  3
AmgDim|Product Description: AutoCAD Mechanical|Company: Autodesk, Inc.
 90
     1024
 91
        1
280
     0
281
     0
  0
CLASS
  1
EXACXREFPANELOBJECT
  2
ExAcXREFPanelObject
  3
EXAC_ESW
 90
     1025
 91
        0
280
     0
281
     0
  0
CLASS
  1
NPOCOLLECTION
  2
AcDbImpNonPersistentObjectsCollection
  3
ObjectDBX Classes
 90
     1153
 91
        0
280
     0
281
     0
  0
CLASS
  1
ACDBSTDPARTRES_ARC
  2
AcDbStdPartRes_Arc
  3
AmgStdPart|Product Description: AutoCAD Mechanical|Company: Autodesk, Inc.
 90
     1024
 91
        0
280
     0
281
     0
  0
CLASS
  1
AMDTNOTE
  2
AmdtNote
  3
"AcmSymBB|Product Description: AutoCAD Mechanical|Company: Autodesk, Inc."
 90
     4095
 91
        0
280
     0
281
     1
  0
CLASS
  1
PLOTSETTINGS
  2
AcDbPlotSettings
  3
ObjectDBX Classes
 90
        0
 91
        1
280
     0
281
     0
  0
CLASS
  1
ACMSTANDARDANSI
  2
AcmStandardANSI
  3
"Amdt_StdImp|Product Description: AutoCAD Mechanical|Company: Autodesk, Inc."
 90
     1024
 91
        0
280
     0
281
     0
  0
CLASS
  1
ACMSURFSTANDARDANSI
  2
AcmSurfTextStdANSI
  3
"Amdt_StdImp|Product Description: AutoCAD Mechanical|Company: Autodesk, Inc."
 90
     1024
 91
        0
280
     0
281
     0
  0
CLASS
  1
ACMFCFSTANDARDANSI
  2
AcmFCFStdANSI
  3
"Amdt_StdImp|Product Description: AutoCAD Mechanical|Company: Autodesk, Inc."
 90
     1024
 91
        0
280
     0
281
     0
  0
CLASS
  1
ACMWELDSTANDARDANSI
  2
AcmWeldingStdANSI
  3
"Amdt_StdImp|Product Description: AutoCAD Mechanical|Company: Autodesk, Inc."
 90
     1024
 91
        0
280
     0
281
     0
  0
CLASS
  1
ACMIDSTANDARDANSI
  2
AcmIdStdANSI
  3
"Amdt_StdImp|Product Description: AutoCAD Mechanical|Company: Autodesk, Inc."
 90
     1024
 91
        0
280
     0
281
     0
  0
CLASS
  1
ACMDATUMSTANDARDANSI
  2
AcmDatumStdANSI
  3
"Amdt_StdImp|Product Description: AutoCAD Mechanical|Company: Autodesk, Inc."
 90
     1024
 91
        0
280
     0
281
     0
  0
CLASS
  1
ACMBOMSTANDARDANSI
  2
AcmBOMStdANSI
  3
"Amdt_StdImp|Product Description: AutoCAD Mechanical|Company: Autodesk, Inc."
 90
     1024
 91
        0
280
     0
281
     0
  0
CLASS
  1
ACMDETAILSTANDARDANSI
  2
AmdtDetailSymStdANSI
  3
"Amdt_StdImp|Product Description: AutoCAD Mechanical|Company: Autodesk, Inc."
 90
     1024
 91
        0
280
     0
281
     0
  0
CLASS
  1
ACMSECTIONSTANDARDANSI
  2
AmdtSectionSymStdANSI
  3
"Amdt_StdImp|Product Description: AutoCAD Mechanical|Company: Autodesk, Inc."
 90
     1024
 91
        0
280
     0
281
     0
  0
CLASS
  1
ACMCENTERLINESTANDARDANSI
  2
AmdtCenterLineStdANSI
  3
"Amdt_StdImp|Product Description: AutoCAD Mechanical|Company: Autodesk, Inc."
 90
     1024
 91
        0
280
     0
281
     0
  0
CLASS
  1
ACMTHREADLINESTANDARDANSI
  2
AmdtThreadLineStdANSI
  3
"Amdt_StdImp|Product Description: AutoCAD Mechanical|Company: Autodesk, Inc."
 90
     1024
 91
        0
280
     0
281
     0
  0
CLASS
  1
ACMNOTESTANDARDANSI
  2
AmdtNoteStdANSI
  3
"Amdt_StdImp|Product Description: AutoCAD Mechanical|Company: Autodesk, Inc."
 90
     1024
 91
        0
280
     0
281
     0
  0
CLASS
  1
ACMTAPERSTANDARDANSI
  2
AcmTaperStdANSI
  3
"Amdt_StdImp|Product Description: AutoCAD Mechanical|Company: Autodesk, Inc."
 90
     1024
 91
        0
280
     0
281
     0
  0
CLASS
  1
ACMANOOTATIONVIEWSTANDARDANSI
  2
AmdtAnViewStdANSI
  3
"Amdt_StdImp|Product Description: AutoCAD Mechanical|Company: Autodesk, Inc."
 90
     1024
 91
        0
280
     0
281
     0
  0
CLASS
  1
ACAMGHOLECHARTSTDANSI
  2
AcAmgHoleChartStdANSI
  3
AmgDim|Product Description: AutoCAD Mechanical|Company: Autodesk, Inc.
 90
     1024
 91
        0
280
     0
281
     0
  0
CLASS
  1
ACMSTANDARDBSI
  2
AcmStandardBSI
  3
"Amdt_StdImp|Product Description: AutoCAD Mechanical|Company: Autodesk, Inc."
 90
     1024
 91
        0
280
     0
281
     0
  0
CLASS
  1
ACMSURFSTANDARDBSI2002
  2
AcmSurfTextStdBSI2002
  3
"Amdt_StdImp|Product Description: AutoCAD Mechanical|Company: Autodesk, Inc."
 90
     1024
 91
        0
280
     0
281
     0
  0
CLASS
  1
ACMFCFSTANDARDBSI
  2
AcmFCFStdBSI
  3
"Amdt_StdImp|Product Description: AutoCAD Mechanical|Company: Autodesk, Inc."
 90
     1024
 91
        0
280
     0
281
     0
  0
CLASS
  1
ACMWELDSTANDARDBSI
  2
AcmWeldingStdBSI
  3
"Amdt_StdImp|Product Description: AutoCAD Mechanical|Company: Autodesk, Inc."
 90
     1024
 91
        0
280
     0
281
     0
  0
CLASS
  1
ACMIDSTANDARDBSI
  2
AcmIdStdBSI
  3
"Amdt_StdImp|Product Description: AutoCAD Mechanical|Company: Autodesk, Inc."
 90
     1024
 91
        0
280
     0
281
     0
  0
CLASS
  1
ACMDATUMSTANDARDBSI
  2
AcmDatumStdBSI
  3
"Amdt_StdImp|Product Description: AutoCAD Mechanical|Company: Autodesk, Inc."
 90
     1024
 91
        0
280
     0
281
     0
  0
CLASS
  1
ACMBOMSTANDARDBSI
  2
AcmBOMStdBSI
  3
"Amdt_StdImp|Product Description: AutoCAD Mechanical|Company: Autodesk, Inc."
 90
     1024
 91
        0
280
     0
281
     0
  0
CLASS
  1
ACMDETAILSTANDARDBSI
  2
AmdtDetailSymStdBSI
  3
"Amdt_StdImp|Product Description: AutoCAD Mechanical|Company: Autodesk, Inc."
 90
     1024
 91
        0
280
     0
281
     0
  0
CLASS
  1
ACMSECTIONSTANDARDBSI2001
  2
AmdtSectionSymStdBSI2001
  3
"Amdt_StdImp|Product Description: AutoCAD Mechanical|Company: Autodesk, Inc."
 90
     1024
 91
        0
280
     0
281
     0
  0
CLASS
  1
ACMCENTERLINESTANDARDBSI
  2
AmdtCenterLineStdBSI
  3
"Amdt_StdImp|Product Description: AutoCAD Mechanical|Company: Autodesk, Inc."
 90
     1024
 91
        0
280
     0
281
     0
  0
CLASS
  1
ACMTHREADLINESTANDARDBSI
  2
AmdtThreadLineStdBSI
  3
"Amdt_StdImp|Product Description: AutoCAD Mechanical|Company: Autodesk, Inc."
 90
     1024
 91
        0
280
     0
281
     0
  0
CLASS
  1
ACMNOTESTANDARDBSI
  2
AmdtNoteStdBSI
  3
"Amdt_StdImp|Product Description: AutoCAD Mechanical|Company: Autodesk, Inc."
 90
     1024
 91
        0
280
     0
281
     0
  0
CLASS
  1
ACMTAPERSTANDARDBSI
  2
AcmTaperStdBSI
  3
"Amdt_StdImp|Product Description: AutoCAD Mechanical|Company: Autodesk, Inc."
 90
     1024
 91
        0
280
     0
281
     0
  0
CLASS
  1
ACMANOOTATIONVIEWSTANDARDBSI
  2
AmdtAnViewStdBSI
  3
"Amdt_StdImp|Product Description: AutoCAD Mechanical|Company: Autodesk, Inc."
 90
     1024
 91
        0
280
     0
281
     0
  0
CLASS
  1
ACAMGHOLECHARTSTDBSI
  2
AcAmgHoleChartStdBSI
  3
AmgDim|Product Description: AutoCAD Mechanical|Company: Autodesk, Inc.
 90
     1024
 91
        0
280
     0
281
     0
  0
CLASS
  1
AMDTEDGESTANDARDJIS
  2
AmdtEdgeStdJIS
  3
"Amdt_StdImp|Product Description: AutoCAD Mechanical|Company: Autodesk, Inc."
 90
     1024
 91
        0
280
     0
281
     0
  0
CLASS
  1
ACDB_BLKREFOBJECTCONTEXTDATA_CLASS
  2
AcDbBlkRefObjectContextData
  3
ObjectDBX Classes
 90
     1153
 91
        0
280
     0
281
     0
  0
CLASS
  1
ACDBOPPOLYLINERES
  2
AcDbOpPolylineRes
  3
AcGrefServices
 90
     1024
 91
        0
280
     0
281
     0
  0
CLASS
  1
AMDTACMWBLOCKBOMENTITY
  2
AmdtAcmWblockBomEntity
  3
"AcmSymBB|Product Description: AutoCAD Mechanical|Company: Autodesk, Inc."
 90
     4095
 91
        0
280
     0
281
     1
  0
CLASS
  1
ACMSURFSYM
  2
AcmSurfaceTexture
  3
"AcmSymBB|Product Description: AutoCAD Mechanical|Company: Autodesk, Inc."
 90
     4095
 91
        0
280
     0
281
     1
  0
CLASS
  1
ACDBCIRCARCRES
  2
AcDbCircArcRes
  3
AcGrefServices
 90
     1024
 91
        0
280
     0
281
     0
  0
CLASS
  1
ACDBDIMENSIONRES
  2
AcDbDimensionRes
  3
AcmSymBB|Product Description: AutoCAD Mechanical|Company: Autodesk, Inc.
 90
     1024
 91
        0
280
     0
281
     0
  0
CLASS
  1
ACMPICKOBJ
  2
AcmPickEnt
  3
"AcmSymBB|Product Description: AutoCAD Mechanical|Company: Autodesk, Inc."
 90
     1024
 91
        0
280
     0
281
     1
  0
CLASS
  1
ACMBALLOON
  2
AcmBalloon
  3
"AcmSymBB|Product Description: AutoCAD Mechanical|Company: Autodesk, Inc."
 90
     4095
 91
        0
280
     0
281
     1
  0
ENDSEC
  0
SECTION
  2
TABLES
  0
TABLE
  2
VPORT
  5
8
330
0
100
AcDbSymbolTable
 70
     1
  0
VPORT
  5
27A
330
8
100
AcDbSymbolTableRecord
100
AcDbViewportTableRecord
  2
*Active
 70
     0
 10
0.0
 20
0.0
 11
1.0
 21
1.0
 12
349.6851443866319
 22
314.9279036884288
 13
0.0
 23
0.0
 14
3.75
 24
3.75
 15
15.0
 25
15.0
 16
0.0
 26
0.0
 36
1.0
 17
0.0
 27
0.0
 37
0.0
 40
248.2168837013262
 41
1.571428571428571
 42
50.0
 43
0.0
 44
0.0
 50
0.0
 51
0.0
 71
    16
 72
 20000
 73
     1
 74
     3
 75
     0
 76
     0
 77
     0
 78
     0
281
     0
 65
     0
110
0.0
120
0.0
130
0.0
111
1.0
121
0.0
131
0.0
112
0.0
122
1.0
132
0.0
 79
     0
146
0.0
348
285
 60
     3
 61
     5
292
     1
282
     0
141
0.0
142
0.0
 63
   250
421
  3355443
  0
ENDTAB
  0
TABLE
  2
LTYPE
  5
5
330
0
100
AcDbSymbolTable
 70
    20
  0
LTYPE
  5
14
330
5
100
AcDbSymbolTableRecord
100
AcDbLinetypeTableRecord
  2
ByBlock
 70
     0
  3

 72
    65
 73
     0
 40
0.0
  0
LTYPE
  5
15
330
5
100
AcDbSymbolTableRecord
100
AcDbLinetypeTableRecord
  2
ByLayer
 70
     0
  3

 72
    65
 73
     0
 40
0.0
  0
LTYPE
  5
16
330
5
100
AcDbSymbolTableRecord
100
AcDbLinetypeTableRecord
  2
Continuous
 70
     0
  3
Solid line
 72
    65
 73
     0
 40
0.0
  0
LTYPE
  5
4D
330
5
100
AcDbSymbolTableRecord
100
AcDbLinetypeTableRecord
  2
AM_ISO02W050
 70
     0
  3
__ __ __ __ __ __ __ __ __ __ __ __ __ __ __
 72
    65
 73
     2
 40
7.5
 49
6.0
 74
     0
 49
-1.5
 74
     0
  0
LTYPE
  5
4E
330
5
100
AcDbSymbolTableRecord
100
AcDbLinetypeTableRecord
  2
AM_ISO08W050
 70
     0
  3
____ . ____ . ____ . ____ . ____ . ____ . ____
 72
    65
 73
     4
 40
18.0
 49
12.0
 74
     0
 49
-1.5
 74
     0
 49
3.0
 74
     0
 49
-1.5
 74
     0
  0
LTYPE
  5
4F
330
5
100
AcDbSymbolTableRecord
100
AcDbLinetypeTableRecord
  2
AM_ISO09W050
 70
     0
  3
_____ . . _____ . . _____ . . ____ .. ____
 72
    65
 73
     6
 40
22.5
 49
12.0
 74
     0
 49
-1.5
 74
     0
 49
3.0
 74
     0
 49
-1.5
 74
     0
 49
3.0
 74
     0
 49
-1.5
 74
     0
  0
LTYPE
  5
50
330
5
100
AcDbSymbolTableRecord
100
AcDbLinetypeTableRecord
  2
Amconstr
 70
     0
  3
_______________________
 72
    65
 73
     2
 40
9999.0
 49
9999.0
 74
     0
 49
0.0
 74
     0
  0
LTYPE
  5
51
330
5
100
AcDbSymbolTableRecord
100
AcDbLinetypeTableRecord
  2
AM_ISO08W050x2
 70
     0
  3
__ . __ . __ . __ . __ . __
 72
    65
 73
     4
 40
9.0
 49
6.0
 74
     0
 49
-0.75
 74
     0
 49
1.5
 74
     0
 49
-0.75
 74
     0
  0
LTYPE
  5
52
330
5
100
AcDbSymbolTableRecord
100
AcDbLinetypeTableRecord
  2
AM_ISO02W050x2
 70
     0
  3
 _ _ _ _ _ _ _ _ _ _ _ _
 72
    65
 73
     2
 40
3.75
 49
3.0
 74
     0
 49
-0.75
 74
     0
  0
LTYPE
  5
55
330
5
100
AcDbSymbolTableRecord
100
AcDbLinetypeTableRecord
  2
Amzigzag
 70
     0
  3
/\/-/\/-/\/-/\/-/\/-/\/
 72
    65
 73
     2
 40
11.0001
 49
0.0001
 74
     4
 75
   136
340
23D
 46
0.04
 50
0.0
 44
0.0
 45
0.0
 49
-11.0
 74
     0
  0
LTYPE
  5
65
330
5
100
AcDbSymbolTableRecord
100
AcDbLinetypeTableRecord
  2
CENTER
 70
     0
  3
__ . __
 72
    65
 73
     4
 40
7.0
 49
4.0
 74
     0
 49
-1.0
 74
     0
 49
1.0
 74
     0
 49
-1.0
 74
     0
  0
LTYPE
  5
E0
330
5
100
AcDbSymbolTableRecord
100
AcDbLinetypeTableRecord
  2
HIDDEN
 70
     0
  3
Hidden __ __ __ __ __ __ __ __ __ __ __ __ __ _
 72
    65
 73
     2
 40
9.524999999999996
 49
6.349999999999998
 74
     0
 49
-3.174999999999998
 74
     0
  0
LTYPE
  5
E1
330
5
100
AcDbSymbolTableRecord
100
AcDbLinetypeTableRecord
  2
PHANTOM2
 70
     0
  3
Phantom (.5x) ___ _ _ ___ _ _ ___ _ _ ___ _ _
 72
    65
 73
     6
 40
31.75
 49
15.875
 74
     0
 49
-3.174999999999998
 74
     0
 49
3.174999999999998
 74
     0
 49
-3.174999999999998
 74
     0
 49
3.174999999999998
 74
     0
 49
-3.174999999999998
 74
     0
  0
LTYPE
  5
5A2
330
5
100
AcDbSymbolTableRecord
100
AcDbLinetypeTableRecord
  2
ACJISWELD
 70
     0
  3
_ _ _ _ _
 72
    65
 73
     2
 40
2.0
 49
2.0
 74
     0
 49
-1.0
 74
     0
  0
LTYPE
  5
60B9
330
5
100
AcDbSymbolTableRecord
100
AcDbLinetypeTableRecord
  2
ACISOWELD
 70
     0
  3
_ _ _ _ _
 72
    65
 73
     2
 40
2.0
 49
2.0
 74
     0
 49
-1.0
 74
     0
  0
LTYPE
  5
60BA
330
5
100
AcDbSymbolTableRecord
100
AcDbLinetypeTableRecord
  2
ACISOTGB
 70
     0
  3
__ . . __ . .
 72
    65
 73
     6
 40
9.0
 49
4.0
 74
     0
 49
-1.0
 74
     0
 49
1.0
 74
     0
 49
-1.0
 74
     0
 49
1.0
 74
     0
 49
-1.0
 74
     0
  0
LTYPE
  5
60BB
330
5
100
AcDbSymbolTableRecord
100
AcDbLinetypeTableRecord
  2
ACISOTGL
 70
     0
  3
_ _ _ _ _
 72
    65
 73
     2
 40
3.0
 49
2.0
 74
     0
 49
-1.0
 74
     0
  0
ENDTAB
  0
TABLE
  2
LAYER
  5
2
102
{ACAD_XDICTIONARY
360
BF
102
}
330
0
100
AcDbSymbolTable
 70
    10
  0
LAYER
  5
10
102
{ACAD_XDICTIONARY
360
29D7
102
}
330
2
100
AcDbSymbolTableRecord
100
AcDbLayerTableRecord
  2
0
 70
     0
 62
     7
  6
Continuous
370
    -3
390
F
347
27E
  0
LAYER
  5
81
102
{ACAD_XDICTIONARY
360
29D9
102
}
330
2
100
AcDbSymbolTableRecord
100
AcDbLayerTableRecord
  2
AM_0 外形線1
 70
     0
 62
     7
  6
Continuous
370
    25
390
F
347
27E
  0
LAYER
  5
427
330
2
100
AcDbSymbolTableRecord
100
AcDbLayerTableRecord
  2
Defpoints
 70
     0
 62
     7
  6
Continuous
290
     0
370
    -3
390
F
347
27E
  0
LAYER
  5
25C9
102
{ACAD_XDICTIONARY
360
29E0
102
}
330
2
100
AcDbSymbolTableRecord
100
AcDbLayerTableRecord
  2
AM_3 隠れ線
 70
     0
 62
     8
  6
ACJISWELD
370
    13
390
F
347
27E
1001
AcAecLayerStandard
1000

1000

  0
LAYER
  5
25CA
102
{ACAD_XDICTIONARY
360
29E2
102
}
330
2
100
AcDbSymbolTableRecord
100
AcDbLayerTableRecord
  2
AM_4 細線
 70
     0
 62
     4
  6
Continuous
370
    13
390
F
347
27E
1001
AcAecLayerStandard
1000

1000

  0
LAYER
  5
26B3
102
{ACAD_XDICTIONARY
360
29E8
102
}
330
2
100
AcDbSymbolTableRecord
100
AcDbLayerTableRecord
  2
AM_5 寸法線
 70
     0
 62
     3
  6
Continuous
370
    13
390
F
347
27E
1001
AcAecLayerStandard
1000

1000

  0
LAYER
  5
2C74
330
2
100
AcDbSymbolTableRecord
100
AcDbLayerTableRecord
  2
AM_7 中心線
 70
     0
 62
     1
  6
AM_ISO08W050
370
    13
390
F
347
27E
1001
AcAecLayerStandard
1000

1000

  0
LAYER
  5
2C76
330
2
100
AcDbSymbolTableRecord
100
AcDbLayerTableRecord
  2
AM_6 文字
 70
     0
 62
     2
  6
Continuous
370
    13
390
F
347
27E
1001
AcAecLayerStandard
1000

1000

  0
LAYER
  5
5C65
330
2
100
AcDbSymbolTableRecord
100
AcDbLayerTableRecord
  2
AM_11 想像線
 70
     0
 62
     5
  6
AM_ISO09W050
370
    13
390
F
347
27E
1001
AcAecLayerStandard
1000

1000

  0
ENDTAB
  0
TABLE
  2
STYLE
  5
3
330
0
100
AcDbSymbolTable
 70
    11
  0
STYLE
  5
11
330
3
100
AcDbSymbolTableRecord
100
AcDbTextStyleTableRecord
  2
STANDARD
 70
     0
 40
0.0
 41
1.0
 50
0.0
 71
     0
 42
25.0
  3
ISOCP.SHX
  4
EXTFONT.SHX
  0
STYLE
  5
23D
330
3
100
AcDbSymbolTableRecord
100
AcDbTextStyleTableRecord
  2

 70
     1
 40
0.0
 41
1.0
 50
0.0
 71
     0
 42
2.5
  3
genltshp.shx
  4

  0
STYLE
  5
5D5
330
3
100
AcDbSymbolTableRecord
100
AcDbTextStyleTableRecord
  2
SEISA
 70
     0
 40
0.0
 41
0.9
 50
0.0
 71
     0
 42
25.0
  3
romans.shx
  4
extfont2.shx
  0
STYLE
  5
60A9
330
3
100
AcDbSymbolTableRecord
100
AcDbTextStyleTableRecord
  2
ACISOTS
 70
     0
 40
1.0
 41
1.0
 50
0.0
 71
     0
 42
25.0
  3
isocp.shx
  4
extfont.shx
  0
STYLE
  5
60B8
330
3
100
AcDbSymbolTableRecord
100
AcDbTextStyleTableRecord
  2
ACISOGDT
 70
     0
 40
0.0
 41
1.0
 50
0.0
 71
     0
 42
25.0
  3
amgdt.shx
  4

  0
ENDTAB
  0
TABLE
  2
VIEW
  5
6
330
0
100
AcDbSymbolTable
 70
     6
  0
VIEW
  5
91B
330
6
100
AcDbSymbolTableRecord
100
AcDbViewTableRecord
  2
AM_VIEW1
 70
     0
 40
315.0000000000001
 10
285.8138562002092
 20
472.5000000000001
 41
571.6277128547582
 11
0.0
 21
0.0
 31
1.0
 12
0.0
 22
0.0
 32
0.0
 42
50.0
 43
0.0
 44
0.0
 50
0.0
 71
    16
281
     0
 72
     0
 73
     0
  0
VIEW
  5
91C
330
6
100
AcDbSymbolTableRecord
100
AcDbViewTableRecord
  2
AM_VIEW2
 70
     0
 40
315.0000000000001
 10
605.1861436862059
 20
472.5000000000001
 41
571.6277128547582
 11
0.0
 21
0.0
 31
1.0
 12
0.0
 22
0.0
 32
0.0
 42
50.0
 43
0.0
 44
0.0
 50
0.0
 71
    16
281
     0
 72
     0
 73
     0
  0
VIEW
  5
91D
330
6
100
AcDbSymbolTableRecord
100
AcDbViewTableRecord
  2
AM_VIEW3
 70
     0
 40
315.0000000000001
 10
285.8138562002092
 20
157.5
 41
571.6277128547582
 11
0.0
 21
0.0
 31
1.0
 12
0.0
 22
0.0
 32
0.0
 42
50.0
 43
0.0
 44
0.0
 50
0.0
 71
    16
281
     0
 72
     0
 73
     0
  0
VIEW
  5
91E
330
6
100
AcDbSymbolTableRecord
100
AcDbViewTableRecord
  2
AM_VIEW4
 70
     0
 40
315.0000000000001
 10
605.1861436862059
 20
157.5
 41
571.6277128547582
 11
0.0
 21
0.0
 31
1.0
 12
0.0
 22
0.0
 32
0.0
 42
50.0
 43
0.0
 44
0.0
 50
0.0
 71
    16
281
     0
 72
     0
 73
     0
  0
VIEW
  5
91F
330
6
100
AcDbSymbolTableRecord
100
AcDbViewTableRecord
  2
AM_VIEW5
 70
     0
 40
315.0000000000001
 10
445.4999999432073
 20
315.0000000000001
 41
571.6277128547581
 11
0.0
 21
0.0
 31
1.0
 12
0.0
 22
0.0
 32
0.0
 42
50.0
 43
0.0
 44
0.0
 50
0.0
 71
    16
281
     0
 72
     0
 73
     0
  0
VIEW
  5
920
330
6
100
AcDbSymbolTableRecord
100
AcDbViewTableRecord
  2
AM_VIEW6
 70
     0
 40
629.9937000000002
 10
445.4999999432073
 20
315.0000000000001
 41
1143.243993155259
 11
0.0
 21
0.0
 31
1.0
 12
0.0
 22
0.0
 32
0.0
 42
50.0
 43
0.0
 44
0.0
 50
0.0
 71
    16
281
     0
 72
     0
 73
     0
  0
ENDTAB
  0
TABLE
  2
UCS
  5
7
330
0
100
AcDbSymbolTable
 70
     0
  0
ENDTAB
  0
TABLE
  2
APPID
  5
9
330
0
100
AcDbSymbolTable
 70
   392
  0
APPID
  5
12
330
9
100
AcDbSymbolTableRecord
100
AcDbRegAppTableRecord
  2
ACAD
 70
     0
  0
APPID
  5
30
330
9
100
AcDbSymbolTableRecord
100
AcDbRegAppTableRecord
  2
MCAD_NO_VIS
 70
     0
  0
APPID
  5
31
330
9
100
AcDbSymbolTableRecord
100
AcDbRegAppTableRecord
  2
ACAD_TEMP_GRAPHIC
 70
     0
  0
APPID
  5
44
330
9
100
AcDbSymbolTableRecord
100
AcDbRegAppTableRecord
  2
ACATTRIBSERVICES
 70
     0
  0
APPID
  5
F6
330
9
100
AcDbSymbolTableRecord
100
AcDbRegAppTableRecord
  2
AD_DRAW
 70
     0
  0
APPID
  5
114
330
9
100
AcDbSymbolTableRecord
100
AcDbRegAppTableRecord
  2
DESIGNERASSEMBLIES
 70
     0
  0
APPID
  5
118
330
9
100
AcDbSymbolTableRecord
100
AcDbRegAppTableRecord
  2
ACADM_DIM_EDIT
 70
     0
  0
APPID
  5
119
330
9
100
AcDbSymbolTableRecord
100
AcDbRegAppTableRecord
  2
AMDT_DM_ADJ
 70
     0
  0
APPID
  5
1AF
330
9
100
AcDbSymbolTableRecord
100
AcDbRegAppTableRecord
  2
ACAD_DSTYLE_DIMARC_LENGTH_SYMBOL
 70
     0
  0
APPID
  5
1B0
330
9
100
AcDbSymbolTableRecord
100
AcDbRegAppTableRecord
  2
ACAD_DSTYLE_DIMJOGGED_JOGANGLE_SYMBOL
 70
     0
  0
APPID
  5
2D7
330
9
100
AcDbSymbolTableRecord
100
AcDbRegAppTableRecord
  2
ACAD_MLEADERVER
 70
     0
  0
APPID
  5
355
330
9
100
AcDbSymbolTableRecord
100
AcDbRegAppTableRecord
  2
AcadAnnoPO
 70
     0
  0
APPID
  5
428
330
9
100
AcDbSymbolTableRecord
100
AcDbRegAppTableRecord
  2
ACAD_DSTYLE_DIMTEXT_FILL
 70
     0
  0
APPID
  5
429
330
9
100
AcDbSymbolTableRecord
100
AcDbRegAppTableRecord
  2
GENIUS_GENSCREG_15
 70
     0
  0
APPID
  5
42A
330
9
100
AcDbSymbolTableRecord
100
AcDbRegAppTableRecord
  2
GENIUS_GENOBJ-N-SDF_13
 70
     0
  0
APPID
  5
42B
330
9
100
AcDbSymbolTableRecord
100
AcDbRegAppTableRecord
  2
GENIUS_GENODEF_13
 70
     0
  0
APPID
  5
42C
330
9
100
AcDbSymbolTableRecord
100
AcDbRegAppTableRecord
  2
ACAD_EXEMPT_FROM_CAD_STANDARDS
 70
     0
  0
APPID
  5
42D
330
9
100
AcDbSymbolTableRecord
100
AcDbRegAppTableRecord
  2
AcAecLayerStandard
 70
     0
  0
APPID
  5
42E
330
9
100
AcDbSymbolTableRecord
100
AcDbRegAppTableRecord
  2
GENIUS_GENOBJ-N-CEN_13
 70
     0
  0
APPID
  5
42F
330
9
100
AcDbSymbolTableRecord
100
AcDbRegAppTableRecord
  2
GENIUS_GENCEN_19
 70
     0
  0
APPID
  5
430
330
9
100
AcDbSymbolTableRecord
100
AcDbRegAppTableRecord
  2
ACAD_DSTYLE_DIMINSPECT
 70
     0
  0
APPID
  5
431
330
9
100
AcDbSymbolTableRecord
100
AcDbRegAppTableRecord
  2
GENIUS_AMGTXT_16
 70
     0
  0
APPID
  5
432
330
9
100
AcDbSymbolTableRecord
100
AcDbRegAppTableRecord
  2
GENIUS_GENFIL_13
 70
     0
  0
APPID
  5
433
330
9
100
AcDbSymbolTableRecord
100
AcDbRegAppTableRecord
  2
GENIUS_GENOLIS_13
 70
     0
  0
APPID
  5
434
330
9
100
AcDbSymbolTableRecord
100
AcDbRegAppTableRecord
  2
GENIUS_GENOBJ-N-CHA_13
 70
     0
  0
APPID
  5
435
330
9
100
AcDbSymbolTableRecord
100
AcDbRegAppTableRecord
  2
GENIUS_GENOENT_13
 70
     0
  0
APPID
  5
436
330
9
100
AcDbSymbolTableRecord
100
AcDbRegAppTableRecord
  2
GENIUS_GENOREF_13
 70
     0
  0
APPID
  5
437
330
9
100
AcDbSymbolTableRecord
100
AcDbRegAppTableRecord
  2
GENIUS_GENOBJ-N-FIL_13
 70
     0
  0
APPID
  5
438
330
9
100
AcDbSymbolTableRecord
100
AcDbRegAppTableRecord
  2
GEVID1208829536
 70
     0
  0
APPID
  5
439
330
9
100
AcDbSymbolTableRecord
100
AcDbRegAppTableRecord
  2
GEVDC
 70
     0
  0
APPID
  5
43A
330
9
100
AcDbSymbolTableRecord
100
AcDbRegAppTableRecord
  2
GEVRADREF
 70
     0
  0
APPID
  5
43B
330
9
100
AcDbSymbolTableRecord
100
AcDbRegAppTableRecord
  2
GENIUS_GENBH_13
 70
     0
  0
APPID
  5
43C
330
9
100
AcDbSymbolTableRecord
100
AcDbRegAppTableRecord
  2
GENIUS_GENOBJ-NBEHI-BHF_13
 70
     0
  0
APPID
  5
43D
330
9
100
AcDbSymbolTableRecord
100
AcDbRegAppTableRecord
  2
GENIUS_GENOBJ-NBEHI-BHB_13
 70
     0
  0
APPID
  5
43E
330
9
100
AcDbSymbolTableRecord
100
AcDbRegAppTableRecord
  2
GEVID1208829537
 70
     0
  0
APPID
  5
43F
330
9
100
AcDbSymbolTableRecord
100
AcDbRegAppTableRecord
  2
ACAD_DSTYLE_DIMJAG
 70
     0
  0
APPID
  5
440
330
9
100
AcDbSymbolTableRecord
100
AcDbRegAppTableRecord
  2
ACAD_DSTYLE_DIMTALN
 70
     0
  0
APPID
  5
441
330
9
100
AcDbSymbolTableRecord
100
AcDbRegAppTableRecord
  2
AMG_2DHIDE
 70
     0
  0
APPID
  5
442
330
9
100
AcDbSymbolTableRecord
100
AcDbRegAppTableRecord
  2
AMG_2DSTRUCT_BTR
 70
     0
  0
APPID
  5
443
330
9
100
AcDbSymbolTableRecord
100
AcDbRegAppTableRecord
  2
GEVID1208845772
 70
     0
  0
APPID
  5
444
330
9
100
AcDbSymbolTableRecord
100
AcDbRegAppTableRecord
  2
GEVID1208845773
 70
     0
  0
APPID
  5
445
330
9
100
AcDbSymbolTableRecord
100
AcDbRegAppTableRecord
  2
ACADM_2DVIEW_IGN_NOTIFY
 70
     0
  0
APPID
  5
446
330
9
100
AcDbSymbolTableRecord
100
AcDbRegAppTableRecord
  2
GEVID1208845774
 70
     0
  0
APPID
  5
447
330
9
100
AcDbSymbolTableRecord
100
AcDbRegAppTableRecord
  2
GEVID1208845775
 70
     0
  0
APPID
  5
448
330
9
100
AcDbSymbolTableRecord
100
AcDbRegAppTableRecord
  2
GEVID1208845776
 70
     0
  0
APPID
  5
449
330
9
100
AcDbSymbolTableRecord
100
AcDbRegAppTableRecord
  2
GEVID1208845777
 70
     0
  0
APPID
  5
44A
330
9
100
AcDbSymbolTableRecord
100
AcDbRegAppTableRecord
  2
GEVCON
 70
     0
  0
APPID
  5
44B
330
9
100
AcDbSymbolTableRecord
100
AcDbRegAppTableRecord
  2
GENIUS_GENOBJ-F-SCPASSM_13
 70
     0
  0
APPID
  5
44C
330
9
100
AcDbSymbolTableRecord
100
AcDbRegAppTableRecord
  2
GEVID1208845778
 70
     0
  0
APPID
  5
44D
330
9
100
AcDbSymbolTableRecord
100
AcDbRegAppTableRecord
  2
GEVID1208845779
 70
     0
  0
APPID
  5
44E
330
9
100
AcDbSymbolTableRecord
100
AcDbRegAppTableRecord
  2
GEVID1208845780
 70
     0
  0
APPID
  5
44F
330
9
100
AcDbSymbolTableRecord
100
AcDbRegAppTableRecord
  2
GEVID1208845781
 70
     0
  0
APPID
  5
450
330
9
100
AcDbSymbolTableRecord
100
AcDbRegAppTableRecord
  2
GEVID1208845782
 70
     0
  0
APPID
  5
451
330
9
100
AcDbSymbolTableRecord
100
AcDbRegAppTableRecord
  2
GEVID1208845783
 70
     0
  0
APPID
  5
452
330
9
100
AcDbSymbolTableRecord
100
AcDbRegAppTableRecord
  2
GEVID1208845784
 70
     0
  0
APPID
  5
453
330
9
100
AcDbSymbolTableRecord
100
AcDbRegAppTableRecord
  2
GEVID1208845785
 70
     0
  0
APPID
  5
454
330
9
100
AcDbSymbolTableRecord
100
AcDbRegAppTableRecord
  2
GEVID1208845787
 70
     0
  0
APPID
  5
455
330
9
100
AcDbSymbolTableRecord
100
AcDbRegAppTableRecord
  2
GEVID1208845788
 70
     0
  0
APPID
  5
456
330
9
100
AcDbSymbolTableRecord
100
AcDbRegAppTableRecord
  2
GEVID1208845789
 70
     0
  0
APPID
  5
457
330
9
100
AcDbSymbolTableRecord
100
AcDbRegAppTableRecord
  2
GEVID1208845790
 70
     0
  0
APPID
  5
458
330
9
100
AcDbSymbolTableRecord
100
AcDbRegAppTableRecord
  2
GEVID1208845791
 70
     0
  0
APPID
  5
459
330
9
100
AcDbSymbolTableRecord
100
AcDbRegAppTableRecord
  2
GEVID1208845792
 70
     0
  0
APPID
  5
45A
330
9
100
AcDbSymbolTableRecord
100
AcDbRegAppTableRecord
  2
GEVID1208845793
 70
     0
  0
APPID
  5
45B
330
9
100
AcDbSymbolTableRecord
100
AcDbRegAppTableRecord
  2
GEVID1208845794
 70
     0
  0
APPID
  5
45C
330
9
100
AcDbSymbolTableRecord
100
AcDbRegAppTableRecord
  2
GEVID1208845795
 70
     0
  0
APPID
  5
45D
330
9
100
AcDbSymbolTableRecord
100
AcDbRegAppTableRecord
  2
GEVID1208845796
 70
     0
  0
APPID
  5
45E
330
9
100
AcDbSymbolTableRecord
100
AcDbRegAppTableRecord
  2
GEVID1208845797
 70
     0
  0
APPID
  5
45F
330
9
100
AcDbSymbolTableRecord
100
AcDbRegAppTableRecord
  2
GEVID1208845798
 70
     0
  0
APPID
  5
460
330
9
100
AcDbSymbolTableRecord
100
AcDbRegAppTableRecord
  2
GEVID1208845799
 70
     0
  0
APPID
  5
461
330
9
100
AcDbSymbolTableRecord
100
AcDbRegAppTableRecord
  2
GEVID1208845800
 70
     0
  0
APPID
  5
462
330
9
100
AcDbSymbolTableRecord
100
AcDbRegAppTableRecord
  2
GEVID1208845801
 70
     0
  0
APPID
  5
463
330
9
100
AcDbSymbolTableRecord
100
AcDbRegAppTableRecord
  2
GEVID1208845802
 70
     0
  0
APPID
  5
464
330
9
100
AcDbSymbolTableRecord
100
AcDbRegAppTableRecord
  2
GENIUS_GENOBJ-N-DIM_13
 70
     0
  0
APPID
  5
465
330
9
100
AcDbSymbolTableRecord
100
AcDbRegAppTableRecord
  2
GENIUS_GENDIM_13
 70
     0
  0
APPID
  5
466
330
9
100
AcDbSymbolTableRecord
100
AcDbRegAppTableRecord
  2
GENIUS_GENDIMSH_14
 70
     0
  0
APPID
  5
467
330
9
100
AcDbSymbolTableRecord
100
AcDbRegAppTableRecord
  2
GEVID1208845803
 70
     0
  0
APPID
  5
468
330
9
100
AcDbSymbolTableRecord
100
AcDbRegAppTableRecord
  2
GEVID1208845804
 70
     0
  0
APPID
  5
469
330
9
100
AcDbSymbolTableRecord
100
AcDbRegAppTableRecord
  2
GEVID1208845805
 70
     0
  0
APPID
  5
46A
330
9
100
AcDbSymbolTableRecord
100
AcDbRegAppTableRecord
  2
GEVID1208845806
 70
     0
  0
APPID
  5
46B
330
9
100
AcDbSymbolTableRecord
100
AcDbRegAppTableRecord
  2
GEVID1208845807
 70
     0
  0
APPID
  5
46C
330
9
100
AcDbSymbolTableRecord
100
AcDbRegAppTableRecord
  2
GEVID1208845808
 70
     0
  0
APPID
  5
46D
330
9
100
AcDbSymbolTableRecord
100
AcDbRegAppTableRecord
  2
GEVID1208845809
 70
     0
  0
APPID
  5
46E
330
9
100
AcDbSymbolTableRecord
100
AcDbRegAppTableRecord
  2
GEVID1208845810
 70
     0
  0
APPID
  5
46F
330
9
100
AcDbSymbolTableRecord
100
AcDbRegAppTableRecord
  2
GEVID1208845811
 70
     0
  0
APPID
  5
470
330
9
100
AcDbSymbolTableRecord
100
AcDbRegAppTableRecord
  2
GEVID1208845813
 70
     0
  0
APPID
  5
471
330
9
100
AcDbSymbolTableRecord
100
AcDbRegAppTableRecord
  2
GEVID1208845814
 70
     0
  0
APPID
  5
472
330
9
100
AcDbSymbolTableRecord
100
AcDbRegAppTableRecord
  2
GEVID1208845815
 70
     0
  0
APPID
  5
473
330
9
100
AcDbSymbolTableRecord
100
AcDbRegAppTableRecord
  2
GEVID1208845816
 70
     0
  0
APPID
  5
474
330
9
100
AcDbSymbolTableRecord
100
AcDbRegAppTableRecord
  2
GEVID1208845817
 70
     0
  0
APPID
  5
475
330
9
100
AcDbSymbolTableRecord
100
AcDbRegAppTableRecord
  2
GEVID1208845818
 70
     0
  0
APPID
  5
476
330
9
100
AcDbSymbolTableRecord
100
AcDbRegAppTableRecord
  2
GEVID1208845819
 70
     0
  0
APPID
  5
477
330
9
100
AcDbSymbolTableRecord
100
AcDbRegAppTableRecord
  2
GEVID1208845820
 70
     0
  0
APPID
  5
478
330
9
100
AcDbSymbolTableRecord
100
AcDbRegAppTableRecord
  2
GENIUS_GENOBJ-F-SHCL_13
 70
     0
  0
APPID
  5
479
330
9
100
AcDbSymbolTableRecord
100
AcDbRegAppTableRecord
  2
GENIUS_GEFMSH_13
 70
     0
  0
APPID
  5
47A
330
9
100
AcDbSymbolTableRecord
100
AcDbRegAppTableRecord
  2
GENIUS_GENOBJ-F-SHCA_13
 70
     0
  0
APPID
  5
47B
330
9
100
AcDbSymbolTableRecord
100
AcDbRegAppTableRecord
  2
GENIUS_GEFSH_13
 70
     0
  0
APPID
  5
47C
330
9
100
AcDbSymbolTableRecord
100
AcDbRegAppTableRecord
  2
GENIUS_GEFSHP_13
 70
     0
  0
APPID
  5
47D
330
9
100
AcDbSymbolTableRecord
100
AcDbRegAppTableRecord
  2
GENIUS_GEFSHP0_13
 70
     0
  0
APPID
  5
47E
330
9
100
AcDbSymbolTableRecord
100
AcDbRegAppTableRecord
  2
GENIUS_GEFSH0_13
 70
     0
  0
APPID
  5
47F
330
9
100
AcDbSymbolTableRecord
100
AcDbRegAppTableRecord
  2
GENIUS_GEFSHP1_13
 70
     0
  0
APPID
  5
480
330
9
100
AcDbSymbolTableRecord
100
AcDbRegAppTableRecord
  2
GENIUS_GEFSH1_13
 70
     0
  0
APPID
  5
481
330
9
100
AcDbSymbolTableRecord
100
AcDbRegAppTableRecord
  2
GEVID1208866337
 70
     0
  0
APPID
  5
482
330
9
100
AcDbSymbolTableRecord
100
AcDbRegAppTableRecord
  2
GEVID1208866338
 70
     0
  0
APPID
  5
483
330
9
100
AcDbSymbolTableRecord
100
AcDbRegAppTableRecord
  2
GEVID1208866339
 70
     0
  0
APPID
  5
484
330
9
100
AcDbSymbolTableRecord
100
AcDbRegAppTableRecord
  2
GEVID1208866340
 70
     0
  0
APPID
  5
485
330
9
100
AcDbSymbolTableRecord
100
AcDbRegAppTableRecord
  2
GEVID1208866341
 70
     0
  0
APPID
  5
486
330
9
100
AcDbSymbolTableRecord
100
AcDbRegAppTableRecord
  2
ACAD_PSEXT
 70
     0
  0
APPID
  5
487
330
9
100
AcDbSymbolTableRecord
100
AcDbRegAppTableRecord
  2
GEVID1208866342
 70
     0
  0
APPID
  5
488
330
9
100
AcDbSymbolTableRecord
100
AcDbRegAppTableRecord
  2
GEVID1208913836
 70
     0
  0
APPID
  5
489
330
9
100
AcDbSymbolTableRecord
100
AcDbRegAppTableRecord
  2
GEVID1208913837
 70
     0
  0
APPID
  5
48A
330
9
100
AcDbSymbolTableRecord
100
AcDbRegAppTableRecord
  2
GEVID1208913838
 70
     0
  0
APPID
  5
48B
330
9
100
AcDbSymbolTableRecord
100
AcDbRegAppTableRecord
  2
GEVID1208913839
 70
     0
  0
APPID
  5
48C
330
9
100
AcDbSymbolTableRecord
100
AcDbRegAppTableRecord
  2
GENIUS_GENDTOL_13
 70
     0
  0
APPID
  5
48D
330
9
100
AcDbSymbolTableRecord
100
AcDbRegAppTableRecord
  2
GEVID1208928889
 70
     0
  0
APPID
  5
48E
330
9
100
AcDbSymbolTableRecord
100
AcDbRegAppTableRecord
  2
GEVID1208928890
 70
     0
  0
APPID
  5
48F
330
9
100
AcDbSymbolTableRecord
100
AcDbRegAppTableRecord
  2
GEVID1208928891
 70
     0
  0
APPID
  5
490
330
9
100
AcDbSymbolTableRecord
100
AcDbRegAppTableRecord
  2
GEVID1208928892
 70
     0
  0
APPID
  5
491
330
9
100
AcDbSymbolTableRecord
100
AcDbRegAppTableRecord
  2
GEVID1208933827
 70
     0
  0
APPID
  5
492
330
9
100
AcDbSymbolTableRecord
100
AcDbRegAppTableRecord
  2
GEVID1208933829
 70
     0
  0
APPID
  5
493
330
9
100
AcDbSymbolTableRecord
100
AcDbRegAppTableRecord
  2
GEVID1208933830
 70
     0
  0
APPID
  5
494
330
9
100
AcDbSymbolTableRecord
100
AcDbRegAppTableRecord
  2
GEVID1208933831
 70
     0
  0
APPID
  5
495
330
9
100
AcDbSymbolTableRecord
100
AcDbRegAppTableRecord
  2
GEVID1208933832
 70
     0
  0
APPID
  5
496
330
9
100
AcDbSymbolTableRecord
100
AcDbRegAppTableRecord
  2
GEVID1208933833
 70
     0
  0
APPID
  5
497
330
9
100
AcDbSymbolTableRecord
100
AcDbRegAppTableRecord
  2
GEVID1208933834
 70
     0
  0
APPID
  5
498
330
9
100
AcDbSymbolTableRecord
100
AcDbRegAppTableRecord
  2
GEVID1208933835
 70
     0
  0
APPID
  5
499
330
9
100
AcDbSymbolTableRecord
100
AcDbRegAppTableRecord
  2
GEVID1208933836
 70
     0
  0
APPID
  5
49A
330
9
100
AcDbSymbolTableRecord
100
AcDbRegAppTableRecord
  2
GEVID1208933837
 70
     0
  0
APPID
  5
49B
330
9
100
AcDbSymbolTableRecord
100
AcDbRegAppTableRecord
  2
GEVID1208933838
 70
     0
  0
APPID
  5
49C
330
9
100
AcDbSymbolTableRecord
100
AcDbRegAppTableRecord
  2
GEVID1208933840
 70
     0
  0
APPID
  5
49D
330
9
100
AcDbSymbolTableRecord
100
AcDbRegAppTableRecord
  2
GEVID1208933842
 70
     0
  0
APPID
  5
49E
330
9
100
AcDbSymbolTableRecord
100
AcDbRegAppTableRecord
  2
GEVID1208933843
 70
     0
  0
APPID
  5
49F
330
9
100
AcDbSymbolTableRecord
100
AcDbRegAppTableRecord
  2
GEVID1208933844
 70
     0
  0
APPID
  5
4A0
330
9
100
AcDbSymbolTableRecord
100
AcDbRegAppTableRecord
  2
GEVID1208933845
 70
     0
  0
APPID
  5
4A1
330
9
100
AcDbSymbolTableRecord
100
AcDbRegAppTableRecord
  2
GEVID1208933846
 70
     0
  0
APPID
  5
4A2
330
9
100
AcDbSymbolTableRecord
100
AcDbRegAppTableRecord
  2
GEVID1208933847
 70
     0
  0
APPID
  5
4A3
330
9
100
AcDbSymbolTableRecord
100
AcDbRegAppTableRecord
  2
GEVID1208933848
 70
     0
  0
APPID
  5
4A4
330
9
100
AcDbSymbolTableRecord
100
AcDbRegAppTableRecord
  2
GEVID1208933849
 70
     0
  0
APPID
  5
4A5
330
9
100
AcDbSymbolTableRecord
100
AcDbRegAppTableRecord
  2
GEVID1208933850
 70
     0
  0
APPID
  5
4A6
330
9
100
AcDbSymbolTableRecord
100
AcDbRegAppTableRecord
  2
GEVID1208933851
 70
     0
  0
APPID
  5
4A7
330
9
100
AcDbSymbolTableRecord
100
AcDbRegAppTableRecord
  2
GEVID1208933852
 70
     0
  0
APPID
  5
4A8
330
9
100
AcDbSymbolTableRecord
100
AcDbRegAppTableRecord
  2
GEVID1208933853
 70
     0
  0
APPID
  5
4A9
330
9
100
AcDbSymbolTableRecord
100
AcDbRegAppTableRecord
  2
GEVID1208933854
 70
     0
  0
APPID
  5
4AA
330
9
100
AcDbSymbolTableRecord
100
AcDbRegAppTableRecord
  2
GEVID1208933855
 70
     0
  0
APPID
  5
4AB
330
9
100
AcDbSymbolTableRecord
100
AcDbRegAppTableRecord
  2
GEVID1208933856
 70
     0
  0
APPID
  5
4AC
330
9
100
AcDbSymbolTableRecord
100
AcDbRegAppTableRecord
  2
GEVID1208933857
 70
     0
  0
APPID
  5
4AD
330
9
100
AcDbSymbolTableRecord
100
AcDbRegAppTableRecord
  2
GEVID1208933858
 70
     0
  0
APPID
  5
4AE
330
9
100
AcDbSymbolTableRecord
100
AcDbRegAppTableRecord
  2
GEVID1208933859
 70
     0
  0
APPID
  5
4AF
330
9
100
AcDbSymbolTableRecord
100
AcDbRegAppTableRecord
  2
GEVID1208933860
 70
     0
  0
APPID
  5
4B0
330
9
100
AcDbSymbolTableRecord
100
AcDbRegAppTableRecord
  2
GEVID1208933861
 70
     0
  0
APPID
  5
4B1
330
9
100
AcDbSymbolTableRecord
100
AcDbRegAppTableRecord
  2
GEVID1208933862
 70
     0
  0
APPID
  5
4B2
330
9
100
AcDbSymbolTableRecord
100
AcDbRegAppTableRecord
  2
GEVID1208933863
 70
     0
  0
APPID
  5
4B3
330
9
100
AcDbSymbolTableRecord
100
AcDbRegAppTableRecord
  2
GEVID1208933864
 70
     0
  0
APPID
  5
4B4
330
9
100
AcDbSymbolTableRecord
100
AcDbRegAppTableRecord
  2
GEVID1208933865
 70
     0
  0
APPID
  5
4B5
330
9
100
AcDbSymbolTableRecord
100
AcDbRegAppTableRecord
  2
GEVID1208933866
 70
     0
  0
APPID
  5
4B6
330
9
100
AcDbSymbolTableRecord
100
AcDbRegAppTableRecord
  2
GEVID1208933867
 70
     0
  0
APPID
  5
4B7
330
9
100
AcDbSymbolTableRecord
100
AcDbRegAppTableRecord
  2
GEVID1208933868
 70
     0
  0
APPID
  5
4B8
330
9
100
AcDbSymbolTableRecord
100
AcDbRegAppTableRecord
  2
GEVID1208933869
 70
     0
  0
APPID
  5
4B9
330
9
100
AcDbSymbolTableRecord
100
AcDbRegAppTableRecord
  2
GEVID1208933870
 70
     0
  0
APPID
  5
4BA
330
9
100
AcDbSymbolTableRecord
100
AcDbRegAppTableRecord
  2
GEVID1208933871
 70
     0
  0
APPID
  5
4BB
330
9
100
AcDbSymbolTableRecord
100
AcDbRegAppTableRecord
  2
GEVID1208933872
 70
     0
  0
APPID
  5
4BC
330
9
100
AcDbSymbolTableRecord
100
AcDbRegAppTableRecord
  2
GEVID1208933873
 70
     0
  0
APPID
  5
4BD
330
9
100
AcDbSymbolTableRecord
100
AcDbRegAppTableRecord
  2
GEVID1208933874
 70
     0
  0
APPID
  5
4BE
330
9
100
AcDbSymbolTableRecord
100
AcDbRegAppTableRecord
  2
GEVID1208933875
 70
     0
  0
APPID
  5
4BF
330
9
100
AcDbSymbolTableRecord
100
AcDbRegAppTableRecord
  2
GEVID1208933876
 70
     0
  0
APPID
  5
4C0
330
9
100
AcDbSymbolTableRecord
100
AcDbRegAppTableRecord
  2
ACAD_DSTYLE_DIMRADIAL_EXTENSION
 70
     0
  0
APPID
  5
4C1
330
9
100
AcDbSymbolTableRecord
100
AcDbRegAppTableRecord
  2
GEVID1208999100
 70
     0
  0
APPID
  5
4C2
330
9
100
AcDbSymbolTableRecord
100
AcDbRegAppTableRecord
  2
GEVID1208999101
 70
     0
  0
APPID
  5
4C3
330
9
100
AcDbSymbolTableRecord
100
AcDbRegAppTableRecord
  2
GEVID1208999102
 70
     0
  0
APPID
  5
4C4
330
9
100
AcDbSymbolTableRecord
100
AcDbRegAppTableRecord
  2
GEVID1208999103
 70
     0
  0
APPID
  5
4C5
330
9
100
AcDbSymbolTableRecord
100
AcDbRegAppTableRecord
  2
GEVID1208999105
 70
     0
  0
APPID
  5
4C6
330
9
100
AcDbSymbolTableRecord
100
AcDbRegAppTableRecord
  2
GEVID1208999106
 70
     0
  0
APPID
  5
4C7
330
9
100
AcDbSymbolTableRecord
100
AcDbRegAppTableRecord
  2
GEVID1208999108
 70
     0
  0
APPID
  5
4C8
330
9
100
AcDbSymbolTableRecord
100
AcDbRegAppTableRecord
  2
GEVID1208999109
 70
     0
  0
APPID
  5
4C9
330
9
100
AcDbSymbolTableRecord
100
AcDbRegAppTableRecord
  2
GEVID1208999110
 70
     0
  0
APPID
  5
4CA
330
9
100
AcDbSymbolTableRecord
100
AcDbRegAppTableRecord
  2
GEVID1208999111
 70
     0
  0
APPID
  5
4CB
330
9
100
AcDbSymbolTableRecord
100
AcDbRegAppTableRecord
  2
GEVID1208999112
 70
     0
  0
APPID
  5
4CC
330
9
100
AcDbSymbolTableRecord
100
AcDbRegAppTableRecord
  2
GEVID1208999113
 70
     0
  0
APPID
  5
4CD
330
9
100
AcDbSymbolTableRecord
100
AcDbRegAppTableRecord
  2
GEVID1208999114
 70
     0
  0
APPID
  5
4CE
330
9
100
AcDbSymbolTableRecord
100
AcDbRegAppTableRecord
  2
GEVID1210218799
 70
     0
  0
APPID
  5
4CF
330
9
100
AcDbSymbolTableRecord
100
AcDbRegAppTableRecord
  2
GEVID1210218800
 70
     0
  0
APPID
  5
4D0
330
9
100
AcDbSymbolTableRecord
100
AcDbRegAppTableRecord
  2
GENIUS_GEFWELD_13
 70
     0
  0
APPID
  5
4D1
330
9
100
AcDbSymbolTableRecord
100
AcDbRegAppTableRecord
  2
GENIUS_GENOBJ-F-WELS_13
 70
     0
  0
APPID
  5
4D2
330
9
100
AcDbSymbolTableRecord
100
AcDbRegAppTableRecord
  2
AcadAnnotative
 70
     0
  0
APPID
  5
4D3
330
9
100
AcDbSymbolTableRecord
100
AcDbRegAppTableRecord
  2
GEVID1210145339
 70
     0
  0
APPID
  5
4D4
330
9
100
AcDbSymbolTableRecord
100
AcDbRegAppTableRecord
  2
ACAD_DSTYLE_DIMBREAK
 70
     0
  0
APPID
  5
4D5
330
9
100
AcDbSymbolTableRecord
100
AcDbRegAppTableRecord
  2
GEVID1210145340
 70
     0
  0
APPID
  5
4D6
330
9
100
AcDbSymbolTableRecord
100
AcDbRegAppTableRecord
  2
GEVID1210145341
 70
     0
  0
APPID
  5
4D7
330
9
100
AcDbSymbolTableRecord
100
AcDbRegAppTableRecord
  2
GEVID1210145342
 70
     0
  0
APPID
  5
4D8
330
9
100
AcDbSymbolTableRecord
100
AcDbRegAppTableRecord
  2
GEVID1210145343
 70
     0
  0
APPID
  5
4D9
330
9
100
AcDbSymbolTableRecord
100
AcDbRegAppTableRecord
  2
GEVID1210145344
 70
     0
  0
APPID
  5
4DA
330
9
100
AcDbSymbolTableRecord
100
AcDbRegAppTableRecord
  2
GEVID1210145345
 70
     0
  0
APPID
  5
4DB
330
9
100
AcDbSymbolTableRecord
100
AcDbRegAppTableRecord
  2
GEVID1210152816
 70
     0
  0
APPID
  5
4DC
330
9
100
AcDbSymbolTableRecord
100
AcDbRegAppTableRecord
  2
GEVID1210153850
 70
     0
  0
APPID
  5
4DD
330
9
100
AcDbSymbolTableRecord
100
AcDbRegAppTableRecord
  2
GEVID1210153851
 70
     0
  0
APPID
  5
4DE
330
9
100
AcDbSymbolTableRecord
100
AcDbRegAppTableRecord
  2
GEVID1210153852
 70
     0
  0
APPID
  5
4DF
330
9
100
AcDbSymbolTableRecord
100
AcDbRegAppTableRecord
  2
GEVID1210549898
 70
     0
  0
APPID
  5
4E0
330
9
100
AcDbSymbolTableRecord
100
AcDbRegAppTableRecord
  2
GEVID1210549899
 70
     0
  0
APPID
  5
4E1
330
9
100
AcDbSymbolTableRecord
100
AcDbRegAppTableRecord
  2
GEVID1210549900
 70
     0
  0
APPID
  5
4E2
330
9
100
AcDbSymbolTableRecord
100
AcDbRegAppTableRecord
  2
GEVID1210549901
 70
     0
  0
APPID
  5
4E3
330
9
100
AcDbSymbolTableRecord
100
AcDbRegAppTableRecord
  2
GEVID1210549902
 70
     0
  0
APPID
  5
4E4
330
9
100
AcDbSymbolTableRecord
100
AcDbRegAppTableRecord
  2
GEVID1210549903
 70
     0
  0
APPID
  5
4E5
330
9
100
AcDbSymbolTableRecord
100
AcDbRegAppTableRecord
  2
GEVID1210549904
 70
     0
  0
APPID
  5
4E6
330
9
100
AcDbSymbolTableRecord
100
AcDbRegAppTableRecord
  2
GEVID1210549905
 70
     0
  0
APPID
  5
4E7
330
9
100
AcDbSymbolTableRecord
100
AcDbRegAppTableRecord
  2
GEVID1210549906
 70
     0
  0
APPID
  5
4E8
330
9
100
AcDbSymbolTableRecord
100
AcDbRegAppTableRecord
  2
GEVID1210549907
 70
     0
  0
APPID
  5
4E9
330
9
100
AcDbSymbolTableRecord
100
AcDbRegAppTableRecord
  2
GEVID1210549908
 70
     0
  0
APPID
  5
4EA
330
9
100
AcDbSymbolTableRecord
100
AcDbRegAppTableRecord
  2
GEVID1210549909
 70
     0
  0
APPID
  5
4EB
330
9
100
AcDbSymbolTableRecord
100
AcDbRegAppTableRecord
  2
GEVID1210549910
 70
     0
  0
APPID
  5
4EC
330
9
100
AcDbSymbolTableRecord
100
AcDbRegAppTableRecord
  2
GEVID1210549911
 70
     0
  0
APPID
  5
4ED
330
9
100
AcDbSymbolTableRecord
100
AcDbRegAppTableRecord
  2
GEVID1210549912
 70
     0
  0
APPID
  5
4EE
330
9
100
AcDbSymbolTableRecord
100
AcDbRegAppTableRecord
  2
GEVID1210549913
 70
     0
  0
APPID
  5
4EF
330
9
100
AcDbSymbolTableRecord
100
AcDbRegAppTableRecord
  2
GEVID1210549914
 70
     0
  0
APPID
  5
4F0
330
9
100
AcDbSymbolTableRecord
100
AcDbRegAppTableRecord
  2
GEVID1210549915
 70
     0
  0
APPID
  5
4F1
330
9
100
AcDbSymbolTableRecord
100
AcDbRegAppTableRecord
  2
GEVID1210549916
 70
     0
  0
APPID
  5
4F2
330
9
100
AcDbSymbolTableRecord
100
AcDbRegAppTableRecord
  2
GEVID1210549917
 70
     0
  0
APPID
  5
4F3
330
9
100
AcDbSymbolTableRecord
100
AcDbRegAppTableRecord
  2
GENIUS_GENOBJ-N-CRS_13
 70
     0
  0
APPID
  5
4F4
330
9
100
AcDbSymbolTableRecord
100
AcDbRegAppTableRecord
  2
GEVID1210549918
 70
     0
  0
APPID
  5
4F5
330
9
100
AcDbSymbolTableRecord
100
AcDbRegAppTableRecord
  2
GENIUS_GENOBJ-N-CRC_13
 70
     0
  0
APPID
  5
4F6
330
9
100
AcDbSymbolTableRecord
100
AcDbRegAppTableRecord
  2
GENIUS_GENCRC_14
 70
     0
  0
APPID
  5
4F7
330
9
100
AcDbSymbolTableRecord
100
AcDbRegAppTableRecord
  2
GEVID1210549919
 70
     0
  0
APPID
  5
4F8
330
9
100
AcDbSymbolTableRecord
100
AcDbRegAppTableRecord
  2
GEVID1210549921
 70
     0
  0
APPID
  5
4F9
330
9
100
AcDbSymbolTableRecord
100
AcDbRegAppTableRecord
  2
GEVID1210549922
 70
     0
  0
APPID
  5
4FA
330
9
100
AcDbSymbolTableRecord
100
AcDbRegAppTableRecord
  2
GEVID1210635173
 70
     0
  0
APPID
  5
4FB
330
9
100
AcDbSymbolTableRecord
100
AcDbRegAppTableRecord
  2
GEVID1210635174
 70
     0
  0
APPID
  5
4FC
330
9
100
AcDbSymbolTableRecord
100
AcDbRegAppTableRecord
  2
GEVID1210635175
 70
     0
  0
APPID
  5
4FD
330
9
100
AcDbSymbolTableRecord
100
AcDbRegAppTableRecord
  2
GEVID1210635176
 70
     0
  0
APPID
  5
4FE
330
9
100
AcDbSymbolTableRecord
100
AcDbRegAppTableRecord
  2
GEVID1210635177
 70
     0
  0
APPID
  5
4FF
330
9
100
AcDbSymbolTableRecord
100
AcDbRegAppTableRecord
  2
GEVID1210635178
 70
     0
  0
APPID
  5
500
330
9
100
AcDbSymbolTableRecord
100
AcDbRegAppTableRecord
  2
GENIUS_GENIUS_GENBHEDTMP_13
 70
     0
  0
APPID
  5
501
330
9
100
AcDbSymbolTableRecord
100
AcDbRegAppTableRecord
  2
GEVID1210635179
 70
     0
  0
APPID
  5
502
330
9
100
AcDbSymbolTableRecord
100
AcDbRegAppTableRecord
  2
GEVID1210635180
 70
     0
  0
APPID
  5
503
330
9
100
AcDbSymbolTableRecord
100
AcDbRegAppTableRecord
  2
GEVID1210635181
 70
     0
  0
APPID
  5
504
330
9
100
AcDbSymbolTableRecord
100
AcDbRegAppTableRecord
  2
GEVID1210635182
 70
     0
  0
APPID
  5
505
330
9
100
AcDbSymbolTableRecord
100
AcDbRegAppTableRecord
  2
GEVID1210635184
 70
     0
  0
APPID
  5
506
330
9
100
AcDbSymbolTableRecord
100
AcDbRegAppTableRecord
  2
GEVID1210635185
 70
     0
  0
APPID
  5
507
330
9
100
AcDbSymbolTableRecord
100
AcDbRegAppTableRecord
  2
GEVID1210635186
 70
     0
  0
APPID
  5
508
330
9
100
AcDbSymbolTableRecord
100
AcDbRegAppTableRecord
  2
GEVID1210635187
 70
     0
  0
APPID
  5
509
330
9
100
AcDbSymbolTableRecord
100
AcDbRegAppTableRecord
  2
GEVID1210635188
 70
     0
  0
APPID
  5
50A
330
9
100
AcDbSymbolTableRecord
100
AcDbRegAppTableRecord
  2
GEVID1210635189
 70
     0
  0
APPID
  5
50B
330
9
100
AcDbSymbolTableRecord
100
AcDbRegAppTableRecord
  2
GEVID1210635190
 70
     0
  0
APPID
  5
50C
330
9
100
AcDbSymbolTableRecord
100
AcDbRegAppTableRecord
  2
GENIUS_GENREC_14
 70
     0
  0
APPID
  5
50D
330
9
100
AcDbSymbolTableRecord
100
AcDbRegAppTableRecord
  2
GENIUS_GENOBJ-N-REC_13
 70
     0
  0
APPID
  5
50E
330
9
100
AcDbSymbolTableRecord
100
AcDbRegAppTableRecord
  2
GEVID1210676655
 70
     0
  0
APPID
  5
50F
330
9
100
AcDbSymbolTableRecord
100
AcDbRegAppTableRecord
  2
GEVID1210676656
 70
     0
  0
APPID
  5
510
330
9
100
AcDbSymbolTableRecord
100
AcDbRegAppTableRecord
  2
GEVID1210676657
 70
     0
  0
APPID
  5
511
330
9
100
AcDbSymbolTableRecord
100
AcDbRegAppTableRecord
  2
GEVID1210676659
 70
     0
  0
APPID
  5
512
330
9
100
AcDbSymbolTableRecord
100
AcDbRegAppTableRecord
  2
GEVID1210676660
 70
     0
  0
APPID
  5
513
330
9
100
AcDbSymbolTableRecord
100
AcDbRegAppTableRecord
  2
GEVID1210676661
 70
     0
  0
APPID
  5
514
330
9
100
AcDbSymbolTableRecord
100
AcDbRegAppTableRecord
  2
GEVID1210676662
 70
     0
  0
APPID
  5
515
330
9
100
AcDbSymbolTableRecord
100
AcDbRegAppTableRecord
  2
GEVID1210721646
 70
     0
  0
APPID
  5
516
330
9
100
AcDbSymbolTableRecord
100
AcDbRegAppTableRecord
  2
GEVID1210721647
 70
     0
  0
APPID
  5
517
330
9
100
AcDbSymbolTableRecord
100
AcDbRegAppTableRecord
  2
GEVID1210721648
 70
     0
  0
APPID
  5
518
330
9
100
AcDbSymbolTableRecord
100
AcDbRegAppTableRecord
  2
GEVID1210721649
 70
     0
  0
APPID
  5
519
330
9
100
AcDbSymbolTableRecord
100
AcDbRegAppTableRecord
  2
GEVID1210721650
 70
     0
  0
APPID
  5
51A
330
9
100
AcDbSymbolTableRecord
100
AcDbRegAppTableRecord
  2
GEVID1210721651
 70
     0
  0
APPID
  5
51B
330
9
100
AcDbSymbolTableRecord
100
AcDbRegAppTableRecord
  2
GEVID1210721652
 70
     0
  0
APPID
  5
51C
330
9
100
AcDbSymbolTableRecord
100
AcDbRegAppTableRecord
  2
GEVID1210721653
 70
     0
  0
APPID
  5
51D
330
9
100
AcDbSymbolTableRecord
100
AcDbRegAppTableRecord
  2
PE_URL
 70
     0
  0
APPID
  5
51E
330
9
100
AcDbSymbolTableRecord
100
AcDbRegAppTableRecord
  2
GEVID1210825555
 70
     0
  0
APPID
  5
51F
330
9
100
AcDbSymbolTableRecord
100
AcDbRegAppTableRecord
  2
GEVID1210825556
 70
     0
  0
APPID
  5
520
330
9
100
AcDbSymbolTableRecord
100
AcDbRegAppTableRecord
  2
GEVID1210825557
 70
     0
  0
APPID
  5
521
330
9
100
AcDbSymbolTableRecord
100
AcDbRegAppTableRecord
  2
GEVID1210825558
 70
     0
  0
APPID
  5
522
330
9
100
AcDbSymbolTableRecord
100
AcDbRegAppTableRecord
  2
GEVID1210825559
 70
     0
  0
APPID
  5
523
330
9
100
AcDbSymbolTableRecord
100
AcDbRegAppTableRecord
  2
GEVID1210825560
 70
     0
  0
APPID
  5
524
330
9
100
AcDbSymbolTableRecord
100
AcDbRegAppTableRecord
  2
GEVID1210825561
 70
     0
  0
APPID
  5
525
330
9
100
AcDbSymbolTableRecord
100
AcDbRegAppTableRecord
  2
GEVID1210825562
 70
     0
  0
APPID
  5
526
330
9
100
AcDbSymbolTableRecord
100
AcDbRegAppTableRecord
  2
GEVID1210825563
 70
     0
  0
APPID
  5
527
330
9
100
AcDbSymbolTableRecord
100
AcDbRegAppTableRecord
  2
GEVID1210825564
 70
     0
  0
APPID
  5
528
330
9
100
AcDbSymbolTableRecord
100
AcDbRegAppTableRecord
  2
GEVID1210825565
 70
     0
  0
APPID
  5
529
330
9
100
AcDbSymbolTableRecord
100
AcDbRegAppTableRecord
  2
GEVID1210825566
 70
     0
  0
APPID
  5
52A
330
9
100
AcDbSymbolTableRecord
100
AcDbRegAppTableRecord
  2
GEVID1210825567
 70
     0
  0
APPID
  5
52B
330
9
100
AcDbSymbolTableRecord
100
AcDbRegAppTableRecord
  2
GENIUS_GENOBJ-N-ZOO_13
 70
     0
  0
APPID
  5
52C
330
9
100
AcDbSymbolTableRecord
100
AcDbRegAppTableRecord
  2
GENIUS_GENZOO_17
 70
     0
  0
APPID
  5
52D
330
9
100
AcDbSymbolTableRecord
100
AcDbRegAppTableRecord
  2
ACADANNOTATIVEDECOMPOSITION
 70
     0
  0
APPID
  5
52E
330
9
100
AcDbSymbolTableRecord
100
AcDbRegAppTableRecord
  2
GENIUS_GENOBJ-N-HTC_13
 70
     0
  0
APPID
  5
52F
330
9
100
AcDbSymbolTableRecord
100
AcDbRegAppTableRecord
  2
GENIUS_GENHATCH_13
 70
     0
  0
APPID
  5
530
330
9
100
AcDbSymbolTableRecord
100
AcDbRegAppTableRecord
  2
GEVID1210896020
 70
     0
  0
APPID
  5
531
330
9
100
AcDbSymbolTableRecord
100
AcDbRegAppTableRecord
  2
GEVID1210896021
 70
     0
  0
APPID
  5
532
330
9
100
AcDbSymbolTableRecord
100
AcDbRegAppTableRecord
  2
GEVID1209083540
 70
     0
  0
APPID
  5
533
330
9
100
AcDbSymbolTableRecord
100
AcDbRegAppTableRecord
  2
GEVMK
 70
     0
  0
APPID
  5
534
330
9
100
AcDbSymbolTableRecord
100
AcDbRegAppTableRecord
  2
GEVID1209083542
 70
     0
  0
APPID
  5
535
330
9
100
AcDbSymbolTableRecord
100
AcDbRegAppTableRecord
  2
GEVID1209083543
 70
     0
  0
APPID
  5
536
330
9
100
AcDbSymbolTableRecord
100
AcDbRegAppTableRecord
  2
GEVID1209083544
 70
     0
  0
APPID
  5
537
330
9
100
AcDbSymbolTableRecord
100
AcDbRegAppTableRecord
  2
GEVID1209083545
 70
     0
  0
APPID
  5
538
330
9
100
AcDbSymbolTableRecord
100
AcDbRegAppTableRecord
  2
GEVID1209083546
 70
     0
  0
APPID
  5
539
330
9
100
AcDbSymbolTableRecord
100
AcDbRegAppTableRecord
  2
GEVID1209083547
 70
     0
  0
APPID
  5
53A
330
9
100
AcDbSymbolTableRecord
100
AcDbRegAppTableRecord
  2
GEVID1209083548
 70
     0
  0
APPID
  5
53B
330
9
100
AcDbSymbolTableRecord
100
AcDbRegAppTableRecord
  2
GEVID1209083549
 70
     0
  0
APPID
  5
53C
330
9
100
AcDbSymbolTableRecord
100
AcDbRegAppTableRecord
  2
GEVID1209083550
 70
     0
  0
APPID
  5
53D
330
9
100
AcDbSymbolTableRecord
100
AcDbRegAppTableRecord
  2
GEVID1209083551
 70
     0
  0
APPID
  5
53E
330
9
100
AcDbSymbolTableRecord
100
AcDbRegAppTableRecord
  2
GEVID1209083552
 70
     0
  0
APPID
  5
53F
330
9
100
AcDbSymbolTableRecord
100
AcDbRegAppTableRecord
  2
GEVID1209083553
 70
     0
  0
APPID
  5
540
330
9
100
AcDbSymbolTableRecord
100
AcDbRegAppTableRecord
  2
GEVID1210896022
 70
     0
  0
APPID
  5
541
330
9
100
AcDbSymbolTableRecord
100
AcDbRegAppTableRecord
  2
GEVID1211508364
 70
     0
  0
APPID
  5
542
330
9
100
AcDbSymbolTableRecord
100
AcDbRegAppTableRecord
  2
GEVID1211414908
 70
     0
  0
APPID
  5
543
330
9
100
AcDbSymbolTableRecord
100
AcDbRegAppTableRecord
  2
GEVID1211414909
 70
     0
  0
APPID
  5
544
330
9
100
AcDbSymbolTableRecord
100
AcDbRegAppTableRecord
  2
GEVID1211508359
 70
     0
  0
APPID
  5
545
330
9
100
AcDbSymbolTableRecord
100
AcDbRegAppTableRecord
  2
GEVID1211508360
 70
     0
  0
APPID
  5
546
330
9
100
AcDbSymbolTableRecord
100
AcDbRegAppTableRecord
  2
GEVID1211508361
 70
     0
  0
APPID
  5
547
330
9
100
AcDbSymbolTableRecord
100
AcDbRegAppTableRecord
  2
GEVID1211508362
 70
     0
  0
APPID
  5
548
330
9
100
AcDbSymbolTableRecord
100
AcDbRegAppTableRecord
  2
GEVID1211508363
 70
     0
  0
APPID
  5
549
330
9
100
AcDbSymbolTableRecord
100
AcDbRegAppTableRecord
  2
GEVID1211878469
 70
     0
  0
APPID
  5
54A
330
9
100
AcDbSymbolTableRecord
100
AcDbRegAppTableRecord
  2
GEVID1212642819
 70
     0
  0
APPID
  5
54B
330
9
100
AcDbSymbolTableRecord
100
AcDbRegAppTableRecord
  2
GEVID1212642820
 70
     0
  0
APPID
  5
54C
330
9
100
AcDbSymbolTableRecord
100
AcDbRegAppTableRecord
  2
GEVID1212642821
 70
     0
  0
APPID
  5
54D
330
9
100
AcDbSymbolTableRecord
100
AcDbRegAppTableRecord
  2
GEVID1212642822
 70
     0
  0
APPID
  5
54E
330
9
100
AcDbSymbolTableRecord
100
AcDbRegAppTableRecord
  2
GEVID1212642823
 70
     0
  0
APPID
  5
54F
330
9
100
AcDbSymbolTableRecord
100
AcDbRegAppTableRecord
  2
GEVID1212642825
 70
     0
  0
APPID
  5
550
330
9
100
AcDbSymbolTableRecord
100
AcDbRegAppTableRecord
  2
GEVID1212642826
 70
     0
  0
APPID
  5
551
330
9
100
AcDbSymbolTableRecord
100
AcDbRegAppTableRecord
  2
GEVID1212642827
 70
     0
  0
APPID
  5
552
330
9
100
AcDbSymbolTableRecord
100
AcDbRegAppTableRecord
  2
GEVID1212642828
 70
     0
  0
APPID
  5
553
330
9
100
AcDbSymbolTableRecord
100
AcDbRegAppTableRecord
  2
GEVID1212642831
 70
     0
  0
APPID
  5
554
330
9
100
AcDbSymbolTableRecord
100
AcDbRegAppTableRecord
  2
GEVID1212642834
 70
     0
  0
APPID
  5
555
330
9
100
AcDbSymbolTableRecord
100
AcDbRegAppTableRecord
  2
GEVID1212642835
 70
     0
  0
APPID
  5
556
330
9
100
AcDbSymbolTableRecord
100
AcDbRegAppTableRecord
  2
GEVID1212642836
 70
     0
  0
APPID
  5
557
330
9
100
AcDbSymbolTableRecord
100
AcDbRegAppTableRecord
  2
GEVID1212642837
 70
     0
  0
APPID
  5
558
330
9
100
AcDbSymbolTableRecord
100
AcDbRegAppTableRecord
  2
GEVID1212642839
 70
     0
  0
APPID
  5
559
330
9
100
AcDbSymbolTableRecord
100
AcDbRegAppTableRecord
  2
GEVID1212642840
 70
     0
  0
APPID
  5
55A
330
9
100
AcDbSymbolTableRecord
100
AcDbRegAppTableRecord
  2
GEVID1212642841
 70
     0
  0
APPID
  5
55B
330
9
100
AcDbSymbolTableRecord
100
AcDbRegAppTableRecord
  2
GEVID1212655312
 70
     0
  0
APPID
  5
55C
330
9
100
AcDbSymbolTableRecord
100
AcDbRegAppTableRecord
  2
GEVID1212655313
 70
     0
  0
APPID
  5
55D
330
9
100
AcDbSymbolTableRecord
100
AcDbRegAppTableRecord
  2
GEVID1212656533
 70
     0
  0
APPID
  5
55E
330
9
100
AcDbSymbolTableRecord
100
AcDbRegAppTableRecord
  2
GEVID1212656534
 70
     0
  0
APPID
  5
55F
330
9
100
AcDbSymbolTableRecord
100
AcDbRegAppTableRecord
  2
GEVID1212656535
 70
     0
  0
APPID
  5
560
330
9
100
AcDbSymbolTableRecord
100
AcDbRegAppTableRecord
  2
GEVID1212656536
 70
     0
  0
APPID
  5
561
330
9
100
AcDbSymbolTableRecord
100
AcDbRegAppTableRecord
  2
GEVID1212656538
 70
     0
  0
APPID
  5
562
330
9
100
AcDbSymbolTableRecord
100
AcDbRegAppTableRecord
  2
GEVID1212656541
 70
     0
  0
APPID
  5
563
330
9
100
AcDbSymbolTableRecord
100
AcDbRegAppTableRecord
  2
GEVID1212656543
 70
     0
  0
APPID
  5
564
330
9
100
AcDbSymbolTableRecord
100
AcDbRegAppTableRecord
  2
GENIUS_GENOBJ-F-PFASSM_13
 70
     0
  0
APPID
  5
565
330
9
100
AcDbSymbolTableRecord
100
AcDbRegAppTableRecord
  2
GEVID1212656544
 70
     0
  0
APPID
  5
566
330
9
100
AcDbSymbolTableRecord
100
AcDbRegAppTableRecord
  2
GEVID1212656545
 70
     0
  0
APPID
  5
567
330
9
100
AcDbSymbolTableRecord
100
AcDbRegAppTableRecord
  2
GEVID1212656546
 70
     0
  0
APPID
  5
568
330
9
100
AcDbSymbolTableRecord
100
AcDbRegAppTableRecord
  2
GEVID1212656547
 70
     0
  0
APPID
  5
569
330
9
100
AcDbSymbolTableRecord
100
AcDbRegAppTableRecord
  2
GEVID1212656548
 70
     0
  0
APPID
  5
56A
330
9
100
AcDbSymbolTableRecord
100
AcDbRegAppTableRecord
  2
GEVID1212656549
 70
     0
  0
APPID
  5
56B
330
9
100
AcDbSymbolTableRecord
100
AcDbRegAppTableRecord
  2
GEVID1212656550
 70
     0
  0
APPID
  5
56C
330
9
100
AcDbSymbolTableRecord
100
AcDbRegAppTableRecord
  2
GEVID1212656552
 70
     0
  0
APPID
  5
56D
330
9
100
AcDbSymbolTableRecord
100
AcDbRegAppTableRecord
  2
GEVID1212656553
 70
     0
  0
APPID
  5
56E
330
9
100
AcDbSymbolTableRecord
100
AcDbRegAppTableRecord
  2
GEVID1212656554
 70
     0
  0
APPID
  5
56F
330
9
100
AcDbSymbolTableRecord
100
AcDbRegAppTableRecord
  2
GEVID1212656555
 70
     0
  0
APPID
  5
570
330
9
100
AcDbSymbolTableRecord
100
AcDbRegAppTableRecord
  2
GEVID1212656556
 70
     0
  0
APPID
  5
571
330
9
100
AcDbSymbolTableRecord
100
AcDbRegAppTableRecord
  2
GEVID1212656557
 70
     0
  0
APPID
  5
572
330
9
100
AcDbSymbolTableRecord
100
AcDbRegAppTableRecord
  2
GEVID1212656559
 70
     0
  0
APPID
  5
573
330
9
100
AcDbSymbolTableRecord
100
AcDbRegAppTableRecord
  2
GEVID1212656560
 70
     0
  0
APPID
  5
574
330
9
100
AcDbSymbolTableRecord
100
AcDbRegAppTableRecord
  2
GEVID1212656561
 70
     0
  0
APPID
  5
575
330
9
100
AcDbSymbolTableRecord
100
AcDbRegAppTableRecord
  2
GEVID1212656562
 70
     0
  0
APPID
  5
576
330
9
100
AcDbSymbolTableRecord
100
AcDbRegAppTableRecord
  2
GEVID1212656563
 70
     0
  0
APPID
  5
577
330
9
100
AcDbSymbolTableRecord
100
AcDbRegAppTableRecord
  2
GEVID1212711781
 70
     0
  0
APPID
  5
578
330
9
100
AcDbSymbolTableRecord
100
AcDbRegAppTableRecord
  2
GEVID1212711782
 70
     0
  0
APPID
  5
579
330
9
100
AcDbSymbolTableRecord
100
AcDbRegAppTableRecord
  2
GEVID1212711783
 70
     0
  0
APPID
  5
57A
330
9
100
AcDbSymbolTableRecord
100
AcDbRegAppTableRecord
  2
GEVID1212711784
 70
     0
  0
APPID
  5
57B
330
9
100
AcDbSymbolTableRecord
100
AcDbRegAppTableRecord
  2
GEVID1212711788
 70
     0
  0
APPID
  5
57C
330
9
100
AcDbSymbolTableRecord
100
AcDbRegAppTableRecord
  2
GEVID1212711789
 70
     0
  0
APPID
  5
57D
330
9
100
AcDbSymbolTableRecord
100
AcDbRegAppTableRecord
  2
GEVID1212711790
 70
     0
  0
APPID
  5
57E
330
9
100
AcDbSymbolTableRecord
100
AcDbRegAppTableRecord
  2
GEVID1212711791
 70
     0
  0
APPID
  5
57F
330
9
100
AcDbSymbolTableRecord
100
AcDbRegAppTableRecord
  2
GEVID1212711792
 70
     0
  0
APPID
  5
580
330
9
100
AcDbSymbolTableRecord
100
AcDbRegAppTableRecord
  2
GEVID1212711793
 70
     0
  0
APPID
  5
581
330
9
100
AcDbSymbolTableRecord
100
AcDbRegAppTableRecord
  2
GEVID1212711794
 70
     0
  0
APPID
  5
582
330
9
100
AcDbSymbolTableRecord
100
AcDbRegAppTableRecord
  2
GEVID1212711795
 70
     0
  0
APPID
  5
583
330
9
100
AcDbSymbolTableRecord
100
AcDbRegAppTableRecord
  2
GEVID1212711797
 70
     0
  0
APPID
  5
584
330
9
100
AcDbSymbolTableRecord
100
AcDbRegAppTableRecord
  2
GEVID1212711798
 70
     0
  0
APPID
  5
585
330
9
100
AcDbSymbolTableRecord
100
AcDbRegAppTableRecord
  2
GEVID1212711799
 70
     0
  0
APPID
  5
586
330
9
100
AcDbSymbolTableRecord
100
AcDbRegAppTableRecord
  2
GEVID1212711800
 70
     0
  0
APPID
  5
587
330
9
100
AcDbSymbolTableRecord
100
AcDbRegAppTableRecord
  2
GEVID1212711801
 70
     0
  0
APPID
  5
588
330
9
100
AcDbSymbolTableRecord
100
AcDbRegAppTableRecord
  2
GEVID1212711802
 70
     0
  0
APPID
  5
589
330
9
100
AcDbSymbolTableRecord
100
AcDbRegAppTableRecord
  2
GEVID1212711803
 70
     0
  0
APPID
  5
58A
330
9
100
AcDbSymbolTableRecord
100
AcDbRegAppTableRecord
  2
GEVID1212711804
 70
     0
  0
APPID
  5
58B
330
9
100
AcDbSymbolTableRecord
100
AcDbRegAppTableRecord
  2
GEVID1212711805
 70
     0
  0
APPID
  5
58C
330
9
100
AcDbSymbolTableRecord
100
AcDbRegAppTableRecord
  2
GEVID1212711806
 70
     0
  0
APPID
  5
58D
330
9
100
AcDbSymbolTableRecord
100
AcDbRegAppTableRecord
  2
GEVID1212711807
 70
     0
  0
APPID
  5
58E
330
9
100
AcDbSymbolTableRecord
100
AcDbRegAppTableRecord
  2
GEVID1212711808
 70
     0
  0
APPID
  5
58F
330
9
100
AcDbSymbolTableRecord
100
AcDbRegAppTableRecord
  2
GEVID1212711809
 70
     0
  0
APPID
  5
590
330
9
100
AcDbSymbolTableRecord
100
AcDbRegAppTableRecord
  2
GEVID1212711810
 70
     0
  0
APPID
  5
591
330
9
100
AcDbSymbolTableRecord
100
AcDbRegAppTableRecord
  2
GEVID1212711811
 70
     0
  0
APPID
  5
90A
330
9
100
AcDbSymbolTableRecord
100
AcDbRegAppTableRecord
  2
GENIUS_GENTRA_14
 70
     0
  0
APPID
  5
919
330
9
100
AcDbSymbolTableRecord
100
AcDbRegAppTableRecord
  2
GENIUS_GENOBJ-N-TIT_13
 70
     0
  0
APPID
  5
91A
330
9
100
AcDbSymbolTableRecord
100
AcDbRegAppTableRecord
  2
GENIUS_GENTITLE_13
 70
     0
  0
APPID
  5
949
330
9
100
AcDbSymbolTableRecord
100
AcDbRegAppTableRecord
  2
GENIUS_GENBLLY_14
 70
     0
  0
APPID
  5
DDD
330
9
100
AcDbSymbolTableRecord
100
AcDbRegAppTableRecord
  2
GEVID1213165152
 70
     0
  0
APPID
  5
12F9
330
9
100
AcDbSymbolTableRecord
100
AcDbRegAppTableRecord
  2
AcDbDynamicBlockTrueName
 70
     0
  0
APPID
  5
12FA
330
9
100
AcDbSymbolTableRecord
100
AcDbRegAppTableRecord
  2
ACDBBLOCKREPETAG
 70
     0
  0
APPID
  5
1C15
330
9
100
AcDbSymbolTableRecord
100
AcDbRegAppTableRecord
  2
GEVID1214872427
 70
     0
  0
APPID
  5
1C2A
330
9
100
AcDbSymbolTableRecord
100
AcDbRegAppTableRecord
  2
GEVID1214872428
 70
     0
  0
APPID
  5
1C2F
330
9
100
AcDbSymbolTableRecord
100
AcDbRegAppTableRecord
  2
GEVID1214872429
 70
     0
  0
APPID
  5
1C33
330
9
100
AcDbSymbolTableRecord
100
AcDbRegAppTableRecord
  2
GEVID1214872430
 70
     0
  0
APPID
  5
1C3F
330
9
100
AcDbSymbolTableRecord
100
AcDbRegAppTableRecord
  2
GEVID1214872432
 70
     0
  0
APPID
  5
1C4E
330
9
100
AcDbSymbolTableRecord
100
AcDbRegAppTableRecord
  2
GEVID1214872433
 70
     0
  0
APPID
  5
20DC
330
9
100
AcDbSymbolTableRecord
100
AcDbRegAppTableRecord
  2
AcDbDynamicBlockGUID
 70
     0
  0
APPID
  5
20FD
330
9
100
AcDbSymbolTableRecord
100
AcDbRegAppTableRecord
  2
GENIUS_GENOBJ-N-REV_13
 70
     0
  0
APPID
  5
20FE
330
9
100
AcDbSymbolTableRecord
100
AcDbRegAppTableRecord
  2
GENIUS_GENOBJ-N-RSSYM_13
 70
     0
  0
APPID
  5
20FF
330
9
100
AcDbSymbolTableRecord
100
AcDbRegAppTableRecord
  2
GENIUS_GENSYMENT_13
 70
     0
  0
APPID
  5
2100
330
9
100
AcDbSymbolTableRecord
100
AcDbRegAppTableRecord
  2
GENIUS_GENSCSYM_13
 70
     0
  0
ENDTAB
  0
TABLE
  2
DIMSTYLE
  5
A
330
0
100
AcDbSymbolTable
 70
    29
100
AcDbDimStyleTable
 71
     1
340
5AB
  0
DIMSTYLE
105
5AB
330
A
100
AcDbSymbolTableRecord
100
AcDbDimStyleTableRecord
  2
SEISA
 70
     0
  4
"
 41
2.5
 42
0.625
 43
10.0
 44
0.625
 47
0.1
 48
0.1
 73
     0
 74
     0
 77
     3
 78
     8
 79
     2
 90
     1
140
3.5
141
0.0
143
0.0393701
146
0.71
147
1.5
172
     1
176
     3
177
     3
178
     3
271
     2
272
     3
283
     0
286
     8
340
5D5
341
69
342
69
371
    -1
372
    -1
1001
ACAD_DSTYLE_DIMJAG
1070
   388
1040
1.5
1001
ACAD_DSTYLE_DIMTALN
1070
   392
1070
     1
  0
DIMSTYLE
105
5E9
102
{ACAD_REACTORS
330
497F
330
49B8
330
49D0
330
49E8
330
4A25
330
4A3D
330
4A59
330
4A79
330
4EA9
330
4EC1
330
4ED9
330
4FDD
330
5C9F
330
5CCD
330
5E22
102
}
330
A
100
AcDbSymbolTableRecord
100
AcDbDimStyleTableRecord
  2
SEISA$0
 70
     0
  4
"
 41
2.5
 42
0.625
 43
10.0
 44
0.625
 47
0.1
 48
0.1
 73
     0
 74
     0
 77
     3
 78
     8
 79
     2
 90
     1
140
3.5
141
0.0
143
0.0393701
146
0.71
147
1.5
172
     1
176
     3
177
     3
178
     3
271
     2
272
     3
283
     0
286
     8
340
5D5
341
69
342
69
371
    -1
372
    -1
  0
DIMSTYLE
105
60C4
330
A
100
AcDbSymbolTableRecord
100
AcDbDimStyleTableRecord
  2
AM_ISO
 70
     0
  4
"
 41
2.5
 42
1.0
 43
10.0
 44
1.0
 47
0.1
 48
0.1
 73
     0
 74
     0
 77
     1
 78
     8
 79
     2
 90
     1
140
3.5
141
0.0
143
0.0393701
146
0.71
147
1.5
172
     1
176
   256
177
   256
178
     2
271
     2
272
     3
274
     4
283
     0
284
     8
340
11
371
    -1
372
    -1
  0
DIMSTYLE
105
60C5
330
A
100
AcDbSymbolTableRecord
100
AcDbDimStyleTableRecord
  2
AM_ISO$3
 70
     0
  4
"
 41
2.5
 42
1.0
 43
10.0
 44
1.0
 47
0.1
 48
0.1
 73
     0
 77
     1
 78
     8
 79
     2
 90
     1
140
3.5
141
0.0
143
0.0393701
146
0.71
147
1.5
176
   256
177
   256
178
     2
271
     2
272
     3
274
     4
283
     0
284
     8
288
     1
289
     0
340
11
371
    -1
372
    -1
  0
DIMSTYLE
105
60C6
330
A
100
AcDbSymbolTableRecord
100
AcDbDimStyleTableRecord
  2
AM_ISO$4
 70
     0
  4
"
 41
2.5
 42
1.0
 43
10.0
 44
1.0
 47
0.1
 48
0.1
 73
     0
 77
     1
 78
     8
 79
     2
 90
     1
140
3.5
141
0.0
143
0.0393701
146
0.71
147
1.5
176
   256
177
   256
178
     2
271
     2
272
     3
274
     4
283
     0
284
     8
288
     1
289
     0
340
11
371
    -1
372
    -1
  0
DIMSTYLE
105
60C7
330
A
100
AcDbSymbolTableRecord
100
AcDbDimStyleTableRecord
  2
AM_ISO$6
 70
     0
  4
"
 41
2.5
 42
1.0
 43
10.0
 44
1.0
 47
0.1
 48
0.1
 73
     0
 74
     0
 78
     8
 79
     2
 90
     1
140
3.5
141
0.0
143
0.0393701
146
0.71
147
1.5
172
     1
176
   256
177
   256
178
     2
271
     2
272
     3
274
     4
283
     0
284
     8
340
11
371
    -1
372
    -1
  0
DIMSTYLE
105
60C8
330
A
100
AcDbSymbolTableRecord
100
AcDbDimStyleTableRecord
  2
AM_ISO$7
 70
     0
  4
"
 41
2.5
 42
1.0
 43
10.0
 44
1.0
 47
0.1
 48
0.1
 73
     0
 74
     0
 77
     1
 78
     8
 79
     2
 90
     1
140
5.0
141
0.0
143
0.0393701
146
0.71
147
1.5
172
     1
176
   256
177
   256
178
     2
271
     2
272
     3
274
     4
283
     0
284
     8
340
11
371
    -1
372
    -1
  0
DIMSTYLE
105
60C9
330
A
100
AcDbSymbolTableRecord
100
AcDbDimStyleTableRecord
  2
AM_ISO$SF
 70
     0
  4
"
 41
2.5
 42
1.0
 43
10.0
 44
1.0
 47
0.1
 48
0.1
 73
     0
 74
     0
 75
     1
 76
     1
 77
     1
 78
     8
 79
     2
 90
     1
140
3.5
141
0.0
143
0.0393701
146
0.71
147
1.5
172
     1
176
   256
177
   256
178
     2
271
     2
272
     3
274
     4
283
     0
284
     8
340
11
371
    -1
372
    -1
  0
DIMSTYLE
105
60CA
330
A
100
AcDbSymbolTableRecord
100
AcDbDimStyleTableRecord
  2
AM_ISO$SH
 70
     0
  4
"
 41
2.5
 42
1.0
 43
10.0
 44
1.0
 47
0.1
 48
0.1
 73
     0
 74
     0
 75
     1
 76
     1
 77
     1
 78
     8
 79
     2
 90
     1
140
3.5
141
0.0
143
0.0393701
144
2.0
146
0.71
147
1.5
172
     1
173
     1
176
   256
177
   256
178
     2
271
     2
272
     3
274
     4
283
     0
284
     8
340
11
343
74
371
    -1
372
    -1
  0
ENDTAB
  0
TABLE
  2
BLOCK_RECORD
  5
1
330
0
100
AcDbSymbolTable
 70
    31
  0
BLOCK_RECORD
  5
1F
102
{ACAD_XDICTIONARY
360
82
102
}
330
1
100
AcDbSymbolTableRecord
100
AcDbBlockTableRecord
  2
*Model_Space
340
22
 70
     0
280
     1
281
     0
  0
BLOCK_RECORD
  5
1B
330
1
100
AcDbSymbolTableRecord
100
AcDbBlockTableRecord
  2
*Paper_Space
340
1E
 70
     0
280
     1
281
     0
  0
BLOCK_RECORD
  5
23
330
1
100
AcDbSymbolTableRecord
100
AcDbBlockTableRecord
  2
*Paper_Space0
340
26
 70
     0
280
     1
281
     0
  0
BLOCK_RECORD
  5
69
330
1
100
AcDbSymbolTableRecord
100
AcDbBlockTableRecord
  2
_Open30
340
0
102
{BLKREFS
331
5121
331
5122
331
512A
331
512B
331
5133
331
5134
331
513C
331
513D
331
5159
331
515A
331
5164
331
5165
331
5201
331
5202
331
5B0C
331
5B0D
331
5B73
331
5B86
331
5D0C
331
5D0D
331
5D47
331
5D48
331
5D73
331
5D74
331
5E4E
331
5E4F
331
5E8E
331
5E8F
102
}
 70
     0
280
     1
281
     0
  0
BLOCK_RECORD
  5
74
330
1
100
AcDbSymbolTableRecord
100
AcDbBlockTableRecord
  2
GENAXEH
340
0
 70
     0
280
     1
281
     0
  0
BLOCK_RECORD
  5
2A89
102
{ACAD_XDICTIONARY
360
2A8A
102
}
330
1
100
AcDbSymbolTableRecord
100
AcDbBlockTableRecord
  2
ジュウジマルコネジ
340
0
310
2800000020000000200000000100080000000000000400000000000000000000000000000000000000000000000080000080000000808000800000008000800080800000C0C0C000C0DCC000F0CAA6000020400000206000002080000020A0000020C0000020E00000400000004020000040400000406000004080000040A0
310
000040C0000040E00000600000006020000060400000606000006080000060A0000060C0000060E00000800000008020000080400000806000008080000080A0000080C0000080E00000A0000000A0200000A0400000A0600000A0800000A0A00000A0C00000A0E00000C0000000C0200000C0400000C0600000C0800000C0
310
A00000C0C00000C0E00000E0000000E0200000E0400000E0600000E0800000E0A00000E0C00000E0E00040000000400020004000400040006000400080004000A0004000C0004000E00040200000402020004020400040206000402080004020A0004020C0004020E000404000004040200040404000404060004040800040
310
40A0004040C0004040E00040600000406020004060400040606000406080004060A0004060C0004060E00040800000408020004080400040806000408080004080A0004080C0004080E00040A0000040A0200040A0400040A0600040A0800040A0A00040A0C00040A0E00040C0000040C0200040C0400040C0600040C08000
310
40C0A00040C0C00040C0E00040E0000040E0200040E0400040E0600040E0800040E0A00040E0C00040E0E00080000000800020008000400080006000800080008000A0008000C0008000E00080200000802020008020400080206000802080008020A0008020C0008020E00080400000804020008040400080406000804080
310
008040A0008040C0008040E00080600000806020008060400080606000806080008060A0008060C0008060E00080800000808020008080400080806000808080008080A0008080C0008080E00080A0000080A0200080A0400080A0600080A0800080A0A00080A0C00080A0E00080C0000080C0200080C0400080C0600080C0
310
800080C0A00080C0C00080C0E00080E0000080E0200080E0400080E0600080E0800080E0A00080E0C00080E0E000C0000000C0002000C0004000C0006000C0008000C000A000C000C000C000E000C0200000C0202000C0204000C0206000C0208000C020A000C020C000C020E000C0400000C0402000C0404000C0406000C0
310
408000C040A000C040C000C040E000C0600000C0602000C0604000C0606000C0608000C060A000C060C000C060E000C0800000C0802000C0804000C0806000C0808000C080A000C080C000C080E000C0A00000C0A02000C0A04000C0A06000C0A08000C0A0A000C0A0C000C0A0E000C0C00000C0C02000C0C04000C0C06000
310
C0C08000C0C0A000F0FBFF00A4A0A000808080000000FF0000FF000000FFFF00FF000000FF00FF00FFFF0000FFFFFF00000000000000000000000000000000000000000000000000000000000000000000000000000000000000000000000000000000000000000000000000000000000000000000000000000000FFFFFFFF
310
00000000000000000000000000000000000000000000000000000000FF00000000000000000000000000000000000000000000000000000000000000FF00000000000000000000000000000000000000000000000000000000000000FF0000000000000000000000000000000000000000000000000000000000FFFFFF0000
310
0000000000000000000000000000000000000000000000000000FF0000FF000000000000000000000000000000000000000000000000000000FF000000FF0000000000000000000000000000000000000000000000000000FF00000000FFFFFFFF00000000000000000000000000000000000000000000FF0000000000FFFF
310
FFFFFFFFFFFFFFFFFFFFFFFF000000000000000000000000FF0000000000FEFEFEFEFEFEFEFEFEFEFEFEFEFFFF0000000000000000000000FF0000000000FF000000000000000000000000FFFF00000000000000000000FFFF0000000000FF000000000000000000000000FFFF00000000000000000000FF000000000000FF
310
000000000000000000000000FFFF00000000000000000000FF000000000000FF000000000000000000000000FFFF00000000000000F9F9F9FFF9F9F9F9F9F9F9F9F9F9F9F9F9F9F9F9F9F9F9FFFFF9F9F9F9F90000000000FF000000000000FF000000000000000000000000FFFF00000000000000000000FFFF0000000000
310
FF000000000000000000000000FFFF0000000000000000000000FF0000000000FF000000000000000000000000FFFF0000000000000000000000FF0000000000FEFEFEFEFEFEFEFEFEFEFEFEFEFFFF0000000000000000000000FF0000000000FFFFFFFFFFFFFFFFFFFFFFFFFFFF00000000000000000000000000FF000000
310
00FFFFFFFF000000000000000000000000000000000000000000000000FF000000FF00000000000000000000000000000000000000000000000000000000FF0000FF0000000000000000000000000000000000000000000000000000000000FFFFFF0000000000000000000000000000000000000000000000000000000000
310
0000FF00000000000000000000000000000000000000000000000000000000000000FF00000000000000000000000000000000000000000000000000000000000000FF00000000000000000000000000000000000000000000000000000000000000FFFFFFFF00000000000000000000000000000000000000000000000000
310
0000000000000000000000000000000000000000000000000000000000000000000000000000000000000000000000000000000000000000
102
{BLKREFS
331
446B
102
}
 70
     4
280
     1
281
     1
  0
BLOCK_RECORD
  5
2AE5
102
{ACAD_XDICTIONARY
360
2AE6
102
}
330
1
100
AcDbSymbolTableRecord
100
AcDbBlockTableRecord
  2
リーマボルト SMVH125 M6
340
0
310
2800000020000000200000000100080000000000000400000000000000000000000000000000000000000000000080000080000000808000800000008000800080800000C0C0C000C0DCC000F0CAA6000020400000206000002080000020A0000020C0000020E00000400000004020000040400000406000004080000040A0
310
000040C0000040E00000600000006020000060400000606000006080000060A0000060C0000060E00000800000008020000080400000806000008080000080A0000080C0000080E00000A0000000A0200000A0400000A0600000A0800000A0A00000A0C00000A0E00000C0000000C0200000C0400000C0600000C0800000C0
310
A00000C0C00000C0E00000E0000000E0200000E0400000E0600000E0800000E0A00000E0C00000E0E00040000000400020004000400040006000400080004000A0004000C0004000E00040200000402020004020400040206000402080004020A0004020C0004020E000404000004040200040404000404060004040800040
310
40A0004040C0004040E00040600000406020004060400040606000406080004060A0004060C0004060E00040800000408020004080400040806000408080004080A0004080C0004080E00040A0000040A0200040A0400040A0600040A0800040A0A00040A0C00040A0E00040C0000040C0200040C0400040C0600040C08000
310
40C0A00040C0C00040C0E00040E0000040E0200040E0400040E0600040E0800040E0A00040E0C00040E0E00080000000800020008000400080006000800080008000A0008000C0008000E00080200000802020008020400080206000802080008020A0008020C0008020E00080400000804020008040400080406000804080
310
008040A0008040C0008040E00080600000806020008060400080606000806080008060A0008060C0008060E00080800000808020008080400080806000808080008080A0008080C0008080E00080A0000080A0200080A0400080A0600080A0800080A0A00080A0C00080A0E00080C0000080C0200080C0400080C0600080C0
310
800080C0A00080C0C00080C0E00080E0000080E0200080E0400080E0600080E0800080E0A00080E0C00080E0E000C0000000C0002000C0004000C0006000C0008000C000A000C000C000C000E000C0200000C0202000C0204000C0206000C0208000C020A000C020C000C020E000C0400000C0402000C0404000C0406000C0
310
408000C040A000C040C000C040E000C0600000C0602000C0604000C0606000C0608000C060A000C060C000C060E000C0800000C0802000C0804000C0806000C0808000C080A000C080C000C080E000C0A00000C0A02000C0A04000C0A06000C0A08000C0A0A000C0A0C000C0A0E000C0C00000C0C02000C0C04000C0C06000
310
C0C08000C0C0A000F0FBFF00A4A0A000808080000000FF0000FF000000FFFF00FF000000FF00FF00FFFF0000FFFFFF000000000000000000000000000000000000000000000000000000000000000000000000000000000000000000FFFFFFFFFFFFFFFF000000000000000000000000000000000000000000000000FFFFFF
310
FFFFFFFFFF000000000000000000000000000000000000000000000000FF00FF0000FF00FF000000000000000000000000000000000000000000000000FF00FF0000FF00FF00000000000000000000000000000000000000000000000000000000000000000000000000000000000000000000000000000000000000000000
310
00000000000000000000000000000000000000000000000000000000000000000000000000000000000000000000000000000000000000000000000000000000000000000000000000000000000000000000000000000000000000000000000000000000000000000000000000000000000000000000000000000000000000
310
00000000000000000000000000000000000000000000000000000000000000000000000000000000000000000000000000000000000000000000000000000000000000000000000000000000000000000000000000000000000000000000000000000000000000000000000000000000000000000000000000000000000000
310
00000000000000000000000000000000000000000000000000000000000000000000000000000000000000000000000000000000000000000000000000000000000000000000000000000000000000000000000000000000000000000000000000000000000000000000000000000000000000000000000000000000000000
310
00000000000000000000000000000000000000000000000000000000000000000000000000000000000000000000000000000000000000000000000000000000000000000000000000000000000000000000000000000000000000000000000000000000000000000000000000000000000000000000000000000000000000
310
000000000000000000000000000000000000000000000000000000000000000000000000000000000000000000000000000000000000000000000000000000000000FF000000FF0000FF000000000000000000000000000000000000000000000000FFFFFFFFFFFFFFFF000000000000000000000000000000000000000000
310
000000FF00FF0000FF00FF000000000000000000000000000000000000000000000000FF00FF0000FF00FF000000000000000000000000000000000000000000000000FFFFFEFFFFFFFFFF0000000000000000000000000000000000000000000000000000FEFFFFFF00000000000000000000000000000000000000000000
310
000000000000FFFFFFFF00000000000000000000000000000000000000000000000000000000000000000000000000000000000000000000
102
{BLKREFS
331
4561
102
}
 70
     4
280
     1
281
     1
  0
BLOCK_RECORD
  5
2BBA
330
1
100
AcDbSymbolTableRecord
100
AcDbBlockTableRecord
  2
GENDOT
340
0
102
{BLKREFS
331
5B74
331
5B85
102
}
 70
     0
280
     1
281
     0
  0
BLOCK_RECORD
  5
40F7
102
{ACAD_XDICTIONARY
360
4142
102
}
330
1
100
AcDbSymbolTableRecord
100
AcDbBlockTableRecord
  2
センタＡ SMVH125
340
0
310
2800000020000000200000000100080000000000000400000000000000000000000000000000000000000000000080000080000000808000800000008000800080800000C0C0C000C0DCC000F0CAA6000020400000206000002080000020A0000020C0000020E00000400000004020000040400000406000004080000040A0
310
000040C0000040E00000600000006020000060400000606000006080000060A0000060C0000060E00000800000008020000080400000806000008080000080A0000080C0000080E00000A0000000A0200000A0400000A0600000A0800000A0A00000A0C00000A0E00000C0000000C0200000C0400000C0600000C0800000C0
310
A00000C0C00000C0E00000E0000000E0200000E0400000E0600000E0800000E0A00000E0C00000E0E00040000000400020004000400040006000400080004000A0004000C0004000E00040200000402020004020400040206000402080004020A0004020C0004020E000404000004040200040404000404060004040800040
310
40A0004040C0004040E00040600000406020004060400040606000406080004060A0004060C0004060E00040800000408020004080400040806000408080004080A0004080C0004080E00040A0000040A0200040A0400040A0600040A0800040A0A00040A0C00040A0E00040C0000040C0200040C0400040C0600040C08000
310
40C0A00040C0C00040C0E00040E0000040E0200040E0400040E0600040E0800040E0A00040E0C00040E0E00080000000800020008000400080006000800080008000A0008000C0008000E00080200000802020008020400080206000802080008020A0008020C0008020E00080400000804020008040400080406000804080
310
008040A0008040C0008040E00080600000806020008060400080606000806080008060A0008060C0008060E00080800000808020008080400080806000808080008080A0008080C0008080E00080A0000080A0200080A0400080A0600080A0800080A0A00080A0C00080A0E00080C0000080C0200080C0400080C0600080C0
310
800080C0A00080C0C00080C0E00080E0000080E0200080E0400080E0600080E0800080E0A00080E0C00080E0E000C0000000C0002000C0004000C0006000C0008000C000A000C000C000C000E000C0200000C0202000C0204000C0206000C0208000C020A000C020C000C020E000C0400000C0402000C0404000C0406000C0
310
408000C040A000C040C000C040E000C0600000C0602000C0604000C0606000C0608000C060A000C060C000C060E000C0800000C0802000C0804000C0806000C0808000C080A000C080C000C080E000C0A00000C0A02000C0A04000C0A06000C0A08000C0A0A000C0A0C000C0A0E000C0C00000C0C02000C0C04000C0C06000
310
C0C08000C0C0A000F0FBFF00A4A0A000808080000000FF0000FF000000FFFF00FF000000FF00FF00FFFF0000FFFFFF0000000000000000000000000000000000000000000000000000000000000000000000000000000000000000000000000000000000000000000000000000000000000000000000000000000000000000
310
00000000000000000000000000000000000000000000000000000000000000000000000000000000000000000000000000000000000000FFFFFFFFFFFFFFFFFFFFFFFFFFFFFFFFFFFFFFFFFFFFFFFF000000000000FFFF00000000FFFFFFFFFFFFFFFF000000000000000000000000FF0000000000FF0000000000FFFF0000
310
00000000000000000000000000000000FF0000000000FF0000000000FFFF000000000000000000000000000000000000FF0000000000FF0000000000FFFF000000000000000000000000000000000000FF0000000000FF0000000000FFFF000000000000000000000000000000000000FF0000000000FF0000000000FFFF00
310
0000000000000000000000000000000000FF0000000000FF0000000000FFFF000000000000000000000000000000000000FF0000000000FF0000000000FFFF000000000000000000000000000000000000FF0000000000FF0000000000FFFF000000000000000000000000000000000000FF0000000000FF0000000000FFFF
310
000000000000000000000000000000000000000000000000FF0000000000FFFF000000000000000000000000000000000000000000000000FF0000000000FFFF000000000000000000000000000000000000000000000000FF0000000000FFFF0000000000000000000000000000000000000000000000FFFF0000000000FF
310
FF0000000000000000000000000000000000000000000000FFFF0000000000FFFF0000000000000000000000000000000000000000000000FFFF0000000000FFFF000000000000000000000000000000000000000000F9F9FFF9F900000000FFFF0000000000000000000000000000000000000000000000FFFF0000000000
310
FFFF0000000000000000000000000000000000000000000000FFFF0000000000FFFF000000000000000000000000000000000000000000000000FF0000000000FFFF000000000000000000000000000000000000000000000000FF0000000000FFFF000000000000000000000000000000000000000000000000FF00000000
310
00FFFF000000000000000000000000000000000000000000000000FFFFFFFFFFFFFFFFFFFFFFFFFFFF0000000000000000000000000000000000000000000000000000000000000000000000000000000000000000000000000000000000000000000000000000000000000000000000000000000000000000000000000000
310
0000000000000000000000000000000000000000000000000000000000000000000000000000000000000000000000000000000000000000
102
{BLKREFS
331
4110
102
}
 70
     4
280
     1
281
     1
  0
BLOCK_RECORD
  5
4175
102
{ACAD_XDICTIONARY
360
41BF
102
}
330
1
100
AcDbSymbolTableRecord
100
AcDbBlockTableRecord
  2
センタB SMVH125
340
0
310
2800000020000000200000000100080000000000000400000000000000000000000000000000000000000000000080000080000000808000800000008000800080800000C0C0C000C0DCC000F0CAA6000020400000206000002080000020A0000020C0000020E00000400000004020000040400000406000004080000040A0
310
000040C0000040E00000600000006020000060400000606000006080000060A0000060C0000060E00000800000008020000080400000806000008080000080A0000080C0000080E00000A0000000A0200000A0400000A0600000A0800000A0A00000A0C00000A0E00000C0000000C0200000C0400000C0600000C0800000C0
310
A00000C0C00000C0E00000E0000000E0200000E0400000E0600000E0800000E0A00000E0C00000E0E00040000000400020004000400040006000400080004000A0004000C0004000E00040200000402020004020400040206000402080004020A0004020C0004020E000404000004040200040404000404060004040800040
310
40A0004040C0004040E00040600000406020004060400040606000406080004060A0004060C0004060E00040800000408020004080400040806000408080004080A0004080C0004080E00040A0000040A0200040A0400040A0600040A0800040A0A00040A0C00040A0E00040C0000040C0200040C0400040C0600040C08000
310
40C0A00040C0C00040C0E00040E0000040E0200040E0400040E0600040E0800040E0A00040E0C00040E0E00080000000800020008000400080006000800080008000A0008000C0008000E00080200000802020008020400080206000802080008020A0008020C0008020E00080400000804020008040400080406000804080
310
008040A0008040C0008040E00080600000806020008060400080606000806080008060A0008060C0008060E00080800000808020008080400080806000808080008080A0008080C0008080E00080A0000080A0200080A0400080A0600080A0800080A0A00080A0C00080A0E00080C0000080C0200080C0400080C0600080C0
310
800080C0A00080C0C00080C0E00080E0000080E0200080E0400080E0600080E0800080E0A00080E0C00080E0E000C0000000C0002000C0004000C0006000C0008000C000A000C000C000C000E000C0200000C0202000C0204000C0206000C0208000C020A000C020C000C020E000C0400000C0402000C0404000C0406000C0
310
408000C040A000C040C000C040E000C0600000C0602000C0604000C0606000C0608000C060A000C060C000C060E000C0800000C0802000C0804000C0806000C0808000C080A000C080C000C080E000C0A00000C0A02000C0A04000C0A06000C0A08000C0A0A000C0A0C000C0A0E000C0C00000C0C02000C0C04000C0C06000
310
C0C08000C0C0A000F0FBFF00A4A0A000808080000000FF0000FF000000FFFF00FF000000FF00FF00FFFF0000FFFFFF0000000000000000000000000000000000000000000000000000000000000000000000000000000000000000000000000000000000000000000000000000000000000000000000000000000000000000
310
0000000000000000000000000000000000000000000000000000000000000000000000000000000000000000000000000000000000FFFFFFFFFFFFFFFFFFFFFFFFFFFF000000000000000000000000000000000000FF00000000FFFF00000000000000000000000000000000000000000000000000FF00000000FFFF000000
310
00000000000000000000000000000000000000000000FF00000000FFFF000000000000000000000000000000000000000000000000FFFF00000000FFFF000000000000000000000000000000000000000000000000FFFF00000000FFFF00000000000000000000000000000000000000000000F9F9F9F9F9000000FFFF0000
310
00000000000000000000000000000000000000000000F9FF00000000FFFF000000000000000000000000000000000000000000000000F9FF00000000FFFF000000000000000000000000000000000000000000000000FFFF00000000FFFF00000000000000000000000000000000000000000000000000FF00000000FFFF00
310
000000000000000000000000000000000000000000000000FF00000000FFFF00000000000000000000000000000000000000000000000000FF00000000FFFF00000000000000000000000000000000000000000000000000FF00000000FFFF00000000000000000000000000000000000000000000000000FF00000000FFFF
310
00000000000000000000000000000000000000FF0000000000FF00000000FFFF00000000000000000000000000000000000000FF0000000000FF00000000FFFF00000000000000000000000000000000000000FF0000000000FF00000000FFFF00000000000000000000000000000000000000FF0000000000FF00000000FF
310
FF00000000000000000000000000000000000000FF0000000000FF00000000FFFF00000000000000000000000000000000000000FF0000000000FF00000000FFFF00000000000000000000000000000000000000FF0000000000FF00000000FFFF00000000000000000000000000000000000000FF0000000000FF00000000
310
FFFFFFFFFFFFFFFFFF000000000000000000000000FF000000000000FFFFFFFFFFFFFFFFFFFFFFFFFFFFFFFFFFFFFFFFFFFFFFFFFF0000000000000000000000000000000000000000000000000000000000000000000000000000000000000000000000000000000000000000000000000000000000000000000000000000
310
0000000000000000000000000000000000000000000000000000000000000000000000000000000000000000000000000000000000000000
102
{BLKREFS
331
418E
102
}
 70
     4
280
     1
281
     1
  0
BLOCK_RECORD
  5
423F
102
{ACAD_XDICTIONARY
360
42F9
102
}
330
1
100
AcDbSymbolTableRecord
100
AcDbBlockTableRecord
  2
ケースＡ SMVH125
340
0
310
2800000020000000200000000100080000000000000400000000000000000000000000000000000000000000000080000080000000808000800000008000800080800000C0C0C000C0DCC000F0CAA6000020400000206000002080000020A0000020C0000020E00000400000004020000040400000406000004080000040A0
310
000040C0000040E00000600000006020000060400000606000006080000060A0000060C0000060E00000800000008020000080400000806000008080000080A0000080C0000080E00000A0000000A0200000A0400000A0600000A0800000A0A00000A0C00000A0E00000C0000000C0200000C0400000C0600000C0800000C0
310
A00000C0C00000C0E00000E0000000E0200000E0400000E0600000E0800000E0A00000E0C00000E0E00040000000400020004000400040006000400080004000A0004000C0004000E00040200000402020004020400040206000402080004020A0004020C0004020E000404000004040200040404000404060004040800040
310
40A0004040C0004040E00040600000406020004060400040606000406080004060A0004060C0004060E00040800000408020004080400040806000408080004080A0004080C0004080E00040A0000040A0200040A0400040A0600040A0800040A0A00040A0C00040A0E00040C0000040C0200040C0400040C0600040C08000
310
40C0A00040C0C00040C0E00040E0000040E0200040E0400040E0600040E0800040E0A00040E0C00040E0E00080000000800020008000400080006000800080008000A0008000C0008000E00080200000802020008020400080206000802080008020A0008020C0008020E00080400000804020008040400080406000804080
310
008040A0008040C0008040E00080600000806020008060400080606000806080008060A0008060C0008060E00080800000808020008080400080806000808080008080A0008080C0008080E00080A0000080A0200080A0400080A0600080A0800080A0A00080A0C00080A0E00080C0000080C0200080C0400080C0600080C0
310
800080C0A00080C0C00080C0E00080E0000080E0200080E0400080E0600080E0800080E0A00080E0C00080E0E000C0000000C0002000C0004000C0006000C0008000C000A000C000C000C000E000C0200000C0202000C0204000C0206000C0208000C020A000C020C000C020E000C0400000C0402000C0404000C0406000C0
310
408000C040A000C040C000C040E000C0600000C0602000C0604000C0606000C0608000C060A000C060C000C060E000C0800000C0802000C0804000C0806000C0808000C080A000C080C000C080E000C0A00000C0A02000C0A04000C0A06000C0A08000C0A0A000C0A0C000C0A0E000C0C00000C0C02000C0C04000C0C06000
310
C0C08000C0C0A000F0FBFF00A4A0A000808080000000FF0000FF000000FFFF00FF000000FF00FF00FFFF0000FFFFFF0000000000000000000000000000000000000000000000000000000000000000000000000000000000000000000000000000000000000000000000000000000000000000000000000000000000000000
310
00000000000000000000000000000000000000000000000000000000000000000000000000000000000000000000000000000000000000000000000000000000000000000000000000000000000000000000000000000000000000000000000000000000000000000000000000000000000000000000000000000000000000
310
0000000000000000000000000000000000000000000000000000000000000000000000000000000000000000000000000000000000000000FFFFFF00000000000000FFFFFFFFFFFFFFFFFFFF0000000000000000000000FF00FFFF0000000000000000000000000000000000FF00000000000000000000FF00FFFF00000000
310
00000000000000000000000000FF00000000000000000000FFFFA4FF0000000000000000000000000000000000FF00000000000000000000FF00A4000000000000000000000000000000000000FF00000000000000000000FF00A4000000000000000000000000000000000000FF00F90000000000FFFFFFFF00FFFF000000
310
00000000FFFFFFFFFFFFFFFFFFFFFFFFFFFFFF000000FEFEFFFFFFF90000000000000000000000000000000000000000F900FF0000F9FFFEF9F9FFF90000000000000000000000000000000000000000F900FF000000FEFEFFFFFF000000000000000000000000000000000000000000F900FF000000FF0000FFFF00000000
310
0000000000FFFFFFFFFFFFFFFFFFFFFFFFFFFFFF0000000000000000000000000000000000000000000000000000000000F900000000000000000000000000000000000000000000000000000000000000F900000000000000000000000000000000000000000000000000000000000000F900000000000000000000000000
310
000000000000000000000000000000000000F900000000000000000000000000000000000000000000000000000000000000F900000000000000000000000000000000000000000000000000000000000000000000000000000000000000000000000000000000000000000000000000000000000000000000000000000000
310
00000000000000000000000000000000000000000000000000000000000000000000000000000000000000000000000000000000000000000000000000000000000000000000000000000000000000000000000000000000000000000000000000000000000000000000000000000000000000000000000000000000000000
310
0000000000000000000000000000000000000000000000000000000000000000000000000000000000000000000000000000000000000000
102
{BLKREFS
331
427A
102
}
 70
     4
280
     1
281
     1
  0
BLOCK_RECORD
  5
442A
102
{ACAD_XDICTIONARY
360
44F3
102
}
330
1
100
AcDbSymbolTableRecord
100
AcDbBlockTableRecord
  2
ケースＢ SMVH125
340
0
310
2800000020000000200000000100080000000000000400000000000000000000000000000000000000000000000080000080000000808000800000008000800080800000C0C0C000C0DCC000F0CAA6000020400000206000002080000020A0000020C0000020E00000400000004020000040400000406000004080000040A0
310
000040C0000040E00000600000006020000060400000606000006080000060A0000060C0000060E00000800000008020000080400000806000008080000080A0000080C0000080E00000A0000000A0200000A0400000A0600000A0800000A0A00000A0C00000A0E00000C0000000C0200000C0400000C0600000C0800000C0
310
A00000C0C00000C0E00000E0000000E0200000E0400000E0600000E0800000E0A00000E0C00000E0E00040000000400020004000400040006000400080004000A0004000C0004000E00040200000402020004020400040206000402080004020A0004020C0004020E000404000004040200040404000404060004040800040
310
40A0004040C0004040E00040600000406020004060400040606000406080004060A0004060C0004060E00040800000408020004080400040806000408080004080A0004080C0004080E00040A0000040A0200040A0400040A0600040A0800040A0A00040A0C00040A0E00040C0000040C0200040C0400040C0600040C08000
310
40C0A00040C0C00040C0E00040E0000040E0200040E0400040E0600040E0800040E0A00040E0C00040E0E00080000000800020008000400080006000800080008000A0008000C0008000E00080200000802020008020400080206000802080008020A0008020C0008020E00080400000804020008040400080406000804080
310
008040A0008040C0008040E00080600000806020008060400080606000806080008060A0008060C0008060E00080800000808020008080400080806000808080008080A0008080C0008080E00080A0000080A0200080A0400080A0600080A0800080A0A00080A0C00080A0E00080C0000080C0200080C0400080C0600080C0
310
800080C0A00080C0C00080C0E00080E0000080E0200080E0400080E0600080E0800080E0A00080E0C00080E0E000C0000000C0002000C0004000C0006000C0008000C000A000C000C000C000E000C0200000C0202000C0204000C0206000C0208000C020A000C020C000C020E000C0400000C0402000C0404000C0406000C0
310
408000C040A000C040C000C040E000C0600000C0602000C0604000C0606000C0608000C060A000C060C000C060E000C0800000C0802000C0804000C0806000C0808000C080A000C080C000C080E000C0A00000C0A02000C0A04000C0A06000C0A08000C0A0A000C0A0C000C0A0E000C0C00000C0C02000C0C04000C0C06000
310
C0C08000C0C0A000F0FBFF00A4A0A000808080000000FF0000FF000000FFFF00FF000000FF00FF00FFFF0000FFFFFF0000000000000000000000000000000000000000000000000000000000000000000000000000000000000000000000000000000000000000000000000000000000000000000000000000000000000000
310
00000000000000000000000000000000000000000000000000000000000000000000000000000000000000000000000000000000000000000000000000000000000000000000000000000000000000000000000000000000000000000000000000000000000000000000000000000000000000000000000000000000000000
310
00000000000000000000000000000000000000000000000000000000000000000000000000000000000000000000000000000000000000000000000000000000000000000000000000000000000000000000000000000000000000000000000000000000000000000000000000000000000000000000000000000000000000
310
000000000000000000000000000000000000000000FEFEFFFFFF0000000000000000000000000000000000000000000000FF0000F9FFFFFFFFFFF900000000000000000000000000000000000000000000FF000000FFFFFFFFFF0000000000000000000000000000000000000000000000FF000000FEFEFFFFFFFFFF000000
310
00000000FFFFFFFFFFFFFFFFFFFFFFFFFFFFFF000000000000FF00F9000000000000000000000000000000000000FF00000000000000000000FF00F9000000000000000000000000000000000000FF000000000000000000F9FFFFF9000000000000000000000000000000000000FF00000000000000000000FFFFFFFF0000
310
000000000000000000000000000000FF00000000000000000000FF00FFFF0000000000000000000000000000000000FF00000000000000000000FFFFFFFF00000000000000FFFFFFFFFFFFFFFFFFFFFF0000000000000000000000000000000000000000000000000000000000000000000000000000000000000000000000
310
00000000000000000000000000000000000000000000000000000000000000000000000000000000000000000000000000000000000000000000000000000000000000000000000000000000000000000000000000000000000000000000000000000000000000000000000000000000000000000000000000000000000000
310
00000000000000000000000000000000000000000000000000000000000000000000000000000000000000000000000000000000000000000000000000000000000000000000000000000000000000000000000000000000000000000000000000000000000000000000000000000000000000000000000000000000000000
310
0000000000000000000000000000000000000000000000000000000000000000000000000000000000000000000000000000000000000000
102
{BLKREFS
331
446C
102
}
 70
     4
280
     1
281
     1
  0
BLOCK_RECORD
  5
457D
102
{ACAD_XDICTIONARY
360
45A0
102
}
330
1
100
AcDbSymbolTableRecord
100
AcDbBlockTableRecord
  2
スラストプレ－ト SMVH125
340
0
310
2800000020000000200000000100080000000000000400000000000000000000000000000000000000000000000080000080000000808000800000008000800080800000C0C0C000C0DCC000F0CAA6000020400000206000002080000020A0000020C0000020E00000400000004020000040400000406000004080000040A0
310
000040C0000040E00000600000006020000060400000606000006080000060A0000060C0000060E00000800000008020000080400000806000008080000080A0000080C0000080E00000A0000000A0200000A0400000A0600000A0800000A0A00000A0C00000A0E00000C0000000C0200000C0400000C0600000C0800000C0
310
A00000C0C00000C0E00000E0000000E0200000E0400000E0600000E0800000E0A00000E0C00000E0E00040000000400020004000400040006000400080004000A0004000C0004000E00040200000402020004020400040206000402080004020A0004020C0004020E000404000004040200040404000404060004040800040
310
40A0004040C0004040E00040600000406020004060400040606000406080004060A0004060C0004060E00040800000408020004080400040806000408080004080A0004080C0004080E00040A0000040A0200040A0400040A0600040A0800040A0A00040A0C00040A0E00040C0000040C0200040C0400040C0600040C08000
310
40C0A00040C0C00040C0E00040E0000040E0200040E0400040E0600040E0800040E0A00040E0C00040E0E00080000000800020008000400080006000800080008000A0008000C0008000E00080200000802020008020400080206000802080008020A0008020C0008020E00080400000804020008040400080406000804080
310
008040A0008040C0008040E00080600000806020008060400080606000806080008060A0008060C0008060E00080800000808020008080400080806000808080008080A0008080C0008080E00080A0000080A0200080A0400080A0600080A0800080A0A00080A0C00080A0E00080C0000080C0200080C0400080C0600080C0
310
800080C0A00080C0C00080C0E00080E0000080E0200080E0400080E0600080E0800080E0A00080E0C00080E0E000C0000000C0002000C0004000C0006000C0008000C000A000C000C000C000E000C0200000C0202000C0204000C0206000C0208000C020A000C020C000C020E000C0400000C0402000C0404000C0406000C0
310
408000C040A000C040C000C040E000C0600000C0602000C0604000C0606000C0608000C060A000C060C000C060E000C0800000C0802000C0804000C0806000C0808000C080A000C080C000C080E000C0A00000C0A02000C0A04000C0A06000C0A08000C0A0A000C0A0C000C0A0E000C0C00000C0C02000C0C04000C0C06000
310
C0C08000C0C0A000F0FBFF00A4A0A000808080000000FF0000FF000000FFFF00FF000000FF00FF00FFFF0000FFFFFF0000000000000000000000000000000000000000000000000000000000000000000000000000000000000000000000000000000000000000000000000000000000000000000000000000000000000000
310
00000000000000000000000000000000000000000000000000000000000000000000000000000000000000000000000000000000000000000000000000000000000000000000000000000000000000000000000000000000000000000000000000000000000000000000000000000000000000000000000000000000000000
310
00000000000000000000000000000000000000000000000000000000000000000000000000000000000000000000000000000000000000000000000000000000000000000000000000000000000000000000000000000000000000000000000000000000000000000000000000000000000000000000000000000000000000
310
00000000000000000000000000000000000000000000000000000000000000000000000000000000000000000000000000000000000000000000000000000000000000000000000000000000000000000000000000000000000000000000FF0000000000FF000000000000000000000000000000000000FFFFFFFFFFFFFFFF
310
0000000000FFFFFFFFFFFFFFFFFFFFFFFFFFFF0000000000FF00000000000000000000000000000000000000000000000000000000FFFFFFFF0000000000000000000000000000000000000000000000000000000000000000FFFFFFFFFFFFFFFFFFFFFFFFFFFFFFFFFFFFFFFFFFFFFFFFFFFF0000FFFFFFFFFFFFFFFFFFFF
310
FFFFFFFFFFFFFFFFFFFFFFFFFFFFFFFFFFFFFFFF0000000000000000000000000000000000000000000000000000000000000000000000000000000000000000000000000000000000000000000000000000000000000000000000000000000000000000000000000000000000000000000000000000000000000000000000
310
00000000000000000000000000000000000000000000000000000000000000000000000000000000000000000000000000000000000000000000000000000000000000000000000000000000000000000000000000000000000000000000000000000000000000000000000000000000000000000000000000000000000000
310
00000000000000000000000000000000000000000000000000000000000000000000000000000000000000000000000000000000000000000000000000000000000000000000000000000000000000000000000000000000000000000000000000000000000000000000000000000000000000000000000000000000000000
310
0000000000000000000000000000000000000000000000000000000000000000000000000000000000000000000000000000000000000000
102
{BLKREFS
331
4589
102
}
 70
     4
280
     1
281
     1
  0
BLOCK_RECORD
  5
4980
330
1
100
AcDbSymbolTableRecord
100
AcDbBlockTableRecord
  2
*D14
340
0
 70
     0
280
     1
281
     0
  0
BLOCK_RECORD
  5
49B9
330
1
100
AcDbSymbolTableRecord
100
AcDbBlockTableRecord
  2
*D15
340
0
 70
     0
280
     1
281
     0
  0
BLOCK_RECORD
  5
49D1
330
1
100
AcDbSymbolTableRecord
100
AcDbBlockTableRecord
  2
*D16
340
0
 70
     0
280
     1
281
     0
  0
BLOCK_RECORD
  5
49E9
330
1
100
AcDbSymbolTableRecord
100
AcDbBlockTableRecord
  2
*D17
340
0
 70
     0
280
     1
281
     0
  0
BLOCK_RECORD
  5
4A26
330
1
100
AcDbSymbolTableRecord
100
AcDbBlockTableRecord
  2
*D18
340
0
 70
     0
280
     1
281
     0
  0
BLOCK_RECORD
  5
4A3E
330
1
100
AcDbSymbolTableRecord
100
AcDbBlockTableRecord
  2
*D19
340
0
 70
     0
280
     1
281
     0
  0
BLOCK_RECORD
  5
4A5A
330
1
100
AcDbSymbolTableRecord
100
AcDbBlockTableRecord
  2
*D20
340
0
 70
     0
280
     1
281
     0
  0
BLOCK_RECORD
  5
4A7A
330
1
100
AcDbSymbolTableRecord
100
AcDbBlockTableRecord
  2
*D21
340
0
 70
     0
280
     1
281
     0
  0
BLOCK_RECORD
  5
4EAA
330
1
100
AcDbSymbolTableRecord
100
AcDbBlockTableRecord
  2
*D22
340
0
 70
     0
280
     1
281
     0
  0
BLOCK_RECORD
  5
4EC2
330
1
100
AcDbSymbolTableRecord
100
AcDbBlockTableRecord
  2
*D23
340
0
 70
     0
280
     1
281
     0
  0
BLOCK_RECORD
  5
4EDA
330
1
100
AcDbSymbolTableRecord
100
AcDbBlockTableRecord
  2
*D24
340
0
 70
     0
280
     1
281
     0
  0
BLOCK_RECORD
  5
4FDE
330
1
100
AcDbSymbolTableRecord
100
AcDbBlockTableRecord
  2
*D25
340
0
 70
     0
280
     1
281
     0
  0
BLOCK_RECORD
  5
5CA0
330
1
100
AcDbSymbolTableRecord
100
AcDbBlockTableRecord
  2
*D26
340
0
 70
     0
280
     1
281
     0
  0
BLOCK_RECORD
  5
5CCE
330
1
100
AcDbSymbolTableRecord
100
AcDbBlockTableRecord
  2
*D27
340
0
 70
     0
280
     1
281
     0
  0
BLOCK_RECORD
  5
5E23
330
1
100
AcDbSymbolTableRecord
100
AcDbBlockTableRecord
  2
*D28
340
0
 70
     0
280
     1
281
     0
  0
BLOCK_RECORD
  5
5FC9
330
1
100
AcDbSymbolTableRecord
100
AcDbBlockTableRecord
  2
ケース
340
0
310
2800000020000000200000000100080000000000000400000000000000000000000000000000000000000000000080000080000000808000800000008000800080800000C0C0C000C0DCC000F0CAA6000020400000206000002080000020A0000020C0000020E00000400000004020000040400000406000004080000040A0
310
000040C0000040E00000600000006020000060400000606000006080000060A0000060C0000060E00000800000008020000080400000806000008080000080A0000080C0000080E00000A0000000A0200000A0400000A0600000A0800000A0A00000A0C00000A0E00000C0000000C0200000C0400000C0600000C0800000C0
310
A00000C0C00000C0E00000E0000000E0200000E0400000E0600000E0800000E0A00000E0C00000E0E00040000000400020004000400040006000400080004000A0004000C0004000E00040200000402020004020400040206000402080004020A0004020C0004020E000404000004040200040404000404060004040800040
310
40A0004040C0004040E00040600000406020004060400040606000406080004060A0004060C0004060E00040800000408020004080400040806000408080004080A0004080C0004080E00040A0000040A0200040A0400040A0600040A0800040A0A00040A0C00040A0E00040C0000040C0200040C0400040C0600040C08000
310
40C0A00040C0C00040C0E00040E0000040E0200040E0400040E0600040E0800040E0A00040E0C00040E0E00080000000800020008000400080006000800080008000A0008000C0008000E00080200000802020008020400080206000802080008020A0008020C0008020E00080400000804020008040400080406000804080
310
008040A0008040C0008040E00080600000806020008060400080606000806080008060A0008060C0008060E00080800000808020008080400080806000808080008080A0008080C0008080E00080A0000080A0200080A0400080A0600080A0800080A0A00080A0C00080A0E00080C0000080C0200080C0400080C0600080C0
310
800080C0A00080C0C00080C0E00080E0000080E0200080E0400080E0600080E0800080E0A00080E0C00080E0E000C0000000C0002000C0004000C0006000C0008000C000A000C000C000C000E000C0200000C0202000C0204000C0206000C0208000C020A000C020C000C020E000C0400000C0402000C0404000C0406000C0
310
408000C040A000C040C000C040E000C0600000C0602000C0604000C0606000C0608000C060A000C060C000C060E000C0800000C0802000C0804000C0806000C0808000C080A000C080C000C080E000C0A00000C0A02000C0A04000C0A06000C0A08000C0A0A000C0A0C000C0A0E000C0C00000C0C02000C0C04000C0C06000
310
C0C08000C0C0A000F0FBFF00A4A0A000808080000000FF0000FF000000FFFF00FF000000FF00FF00FFFF0000FFFFFF000000000000000000000000000000000000000000000000000000000000000000000000000000000000000000FCFCFCFCFCFCFCFCFCFCFC0000000000000000000000000000000000000000FC000000
310
000000000000FC000000000000000000000000000000000000000000FC000000000000000000FC0000000000000000000000000000000000000000FC000000000000FCFCFCFCFCFC000000000000000000000000000000000000FC000000000000FC000000000000000000000000000000000000000000000000FC00000000
310
0000FC000000000000000000000000000000000000000000000000FC000000000000FC000000000000000000000000000000000000000000000000FC000000000000FC000000000000000000000000000000000000000000000000FC000000000000FC000000000000000000000000000000000000000000000000FC000000
310
000000FC000000000000000000000000000000000000000000000000FC000000000000FC000000000000000000000000000000000000000000000000FC000000000000FC000000000000000000000000000000000000000000000000FC000000000000FCFCFCFCFCFCFC000000000000000000000000000000000000FC0000
310
000000000000000000FC00000000000000000000000000000000000000FC0000000000000000000000FC00000000000000000000000000000000000000FC000000000000FCFCFCFCFCFCFC000000000000000000000000000000000000FC0000000000FC00FC0000000000000000000000000000000000000000000000FC00
310
00000000FC00FC0000000000000000000000000000000000000000000000FC000000000000FCFCFC00000000000000000000000000000000000000000000FC000000000000FCFC00FC000000000000000000000000000000000000000000FC000000000000FCFC00FC000000000000000000000000000000000000000000FC
310
000000000000FCFC00FC000000000000000000000000000000000000000000FC000000000000FCFC00FC000000000000000000000000000000000000000000FC000000000000FCFC00FC000000000000000000000000000000000000000000FC000000000000FCFC00FC000000000000000000000000000000000000000000
310
FC000000000000FCFC00FC000000000000000000000000000000000000000000FC000000000000FCFC00FC000000000000000000000000000000000000000000FC000000000000FCFC00FC000000000000000000000000000000000000000000FC000000000000FCFC00FC0000000000000000000000000000000000000000
310
00FC000000000000FCFC00FC0000000000000000000000000000000000000000000000000000000000000000000000000000000000000000
102
{BLKREFS
331
5FE0
102
}
 70
     4
280
     1
281
     1
  0
ENDTAB
  0
ENDSEC
  0
SECTION
  2
BLOCKS
  0
BLOCK
  5
20
330
1F
100
AcDbEntity
  8
0
100
AcDbBlockBegin
  2
*Model_Space
 70
     0
 10
0.0
 20
0.0
 30
0.0
  3
*Model_Space
  1

  0
ENDBLK
  5
21
330
1F
100
AcDbEntity
  8
0
100
AcDbBlockEnd
  0
BLOCK
  5
1C
330
1B
100
AcDbEntity
 67
     1
  8
0
100
AcDbBlockBegin
  2
*Paper_Space
 70
     0
 10
0.0
 20
0.0
 30
0.0
  3
*Paper_Space
  1

  0
ENDBLK
  5
1D
330
1B
100
AcDbEntity
 67
     1
  8
0
100
AcDbBlockEnd
  0
BLOCK
  5
24
330
23
100
AcDbEntity
 67
     1
  8
0
100
AcDbBlockBegin
  2
*Paper_Space0
 70
     0
 10
0.0
 20
0.0
 30
0.0
  3
*Paper_Space0
  1

  0
ENDBLK
  5
25
330
23
100
AcDbEntity
 67
     1
  8
0
100
AcDbBlockEnd
  0
BLOCK
  5
6D
330
69
100
AcDbEntity
  8
0
100
AcDbBlockBegin
  2
_Open30
 70
     0
 10
0.0
 20
0.0
 30
0.0
  3
_Open30
  1

  0
LINE
  5
6A
330
69
100
AcDbEntity
  8
0
  6
ByBlock
 62
     0
370
    -2
100
AcDbLine
 10
-1.0
 20
0.26794919
 30
0.0
 11
0.0
 21
0.0
 31
0.0
  0
LINE
  5
6B
330
69
100
AcDbEntity
  8
0
  6
ByBlock
 62
     0
370
    -2
100
AcDbLine
 10
0.0
 20
0.0
 30
0.0
 11
-1.0
 21
-0.26794919
 31
0.0
  0
LINE
  5
6C
330
69
100
AcDbEntity
  8
0
  6
ByBlock
 62
     0
370
    -2
100
AcDbLine
 10
0.0
 20
0.0
 30
0.0
 11
-1.0
 21
0.0
 31
0.0
  0
ENDBLK
  5
6E
330
69
100
AcDbEntity
  8
0
100
AcDbBlockEnd
  0
BLOCK
  5
76
330
74
100
AcDbEntity
  8
0
100
AcDbBlockBegin
  2
GENAXEH
 70
     0
 10
0.0
 20
0.0
 30
0.0
  3
GENAXEH
  1

  0
LINE
  5
75
330
74
100
AcDbEntity
  8
0
100
AcDbLine
 10
-1.0
 20
0.0
 30
0.0
 11
1.0
 21
0.0
 31
0.0
  0
ENDBLK
  5
77
330
74
100
AcDbEntity
  8
0
100
AcDbBlockEnd
  0
BLOCK
  5
2A8C
330
2A89
100
AcDbEntity
  8
0
100
AcDbBlockBegin
  2
ジュウジマルコネジ
 70
     0
 10
0.0
 20
0.0
 30
0.0
  3
ジュウジマルコネジ
  1

  0
LINE
  5
4349
330
2A89
100
AcDbEntity
  8
AM_0 外形線1
100
AcDbLine
 10
0.0
 20
-5.0
 30
0.0
 11
0.0
 21
5.0
 31
0.0
  0
LINE
  5
434A
330
2A89
100
AcDbEntity
  8
AM_4 細線
100
AcDbLine
 10
4.850000000000136
 20
-1.649999999999976
 30
0.0
 11
0.0
 21
-1.649999999999976
 31
0.0
  0
LINE
  5
434B
330
2A89
100
AcDbEntity
  8
AM_0 外形線1
100
AcDbLine
 10
4.5
 20
-2.0
 30
0.0
 11
0.0
 21
-2.0
 31
0.0
  0
LINE
  5
434C
330
2A89
100
AcDbEntity
  8
AM_0 外形線1
100
AcDbLine
 10
4.5
 20
2.0
 30
0.0
 11
0.0
 21
2.0
 31
0.0
  0
LINE
  5
434D
330
2A89
100
AcDbEntity
  8
AM_4 細線
100
AcDbLine
 10
4.850000000000136
 20
1.649999999999976
 30
0.0
 11
0.0
 21
1.649999999999976
 31
0.0
  0
LINE
  5
434E
330
2A89
100
AcDbEntity
  8
AM_0 外形線1
100
AcDbLine
 10
0.0
 20
2.25
 30
0.0
 11
0.7999999999999547
 21
2.25
 31
0.0
  0
LINE
  5
434F
330
2A89
100
AcDbEntity
  8
AM_0 外形線1
100
AcDbLine
 10
0.0
 20
-2.25
 30
0.0
 11
0.7999999999999547
 21
-2.25
 31
0.0
  0
LINE
  5
4350
330
2A89
100
AcDbEntity
  8
AM_0 外形線1
100
AcDbLine
 10
0.0
 20
-5.0
 30
0.0
 11
0.7999999999999547
 21
-5.0
 31
0.0
  0
LINE
  5
4351
330
2A89
100
AcDbEntity
  8
AM_7 中心線
100
AcDbLine
 10
-3.628484076501536
 20
0.0
 30
0.0
 11
6.549999999999953
 21
0.0
 31
0.0
  0
LWPOLYLINE
  5
4352
330
2A89
100
AcDbEntity
  8
AM_0 外形線1
100
AcDbPolyline
 90
       36
 70
     0
 43
0.0
 10
0.0
 20
3.5
 10
-0.2330620000000181
 20
3.485910999999986
 10
-0.4642479999999978
 20
3.443754000000011
 10
-0.6916949999999816
 20
3.373870000000009
 10
-0.9135739999999259
 20
3.276823000000035
 10
-1.128097000000024
 20
3.153392000000053
 10
-1.333537999999862
 20
3.004570999999998
 10
-1.528240999999979
 20
2.831560000000024
 10
-1.710640000000011
 20
2.635751000000026
 10
-1.879265999999915
 20
2.418720000000006
 10
-2.032760999999935
 20
2.182215000000041
 10
-2.169889999999895
 20
1.928139999999984
 10
-2.289547999999967
 20
1.658541000000013
 10
-2.390771999999969
 20
1.375587999999992
 10
-2.472747000000025
 20
1.081560000000024
 10
-2.534811999999873
 20
0.778823999999986
 10
-2.57646899999986
 20
0.4698170000000347
 10
-2.597381999999925
 20
0.1570269999999709
 10
-2.597381999999925
 20
-0.1570259999999735
 10
-2.57646899999986
 20
-0.4698159999999804
 10
-2.534811999999873
 20
-0.7788229999999885
 10
-2.472747000000025
 20
-1.081558999999969
 10
-2.390771999999969
 20
-1.375586999999995
 10
-2.289547999999967
 20
-1.658540000000015
 10
-2.169889999999895
 20
-1.928138999999987
 10
-2.032760999999935
 20
-2.182213999999986
 10
-1.879265999999915
 20
-2.41871900000001
 10
-1.710640000000011
 20
-2.63575000000003
 10
-1.528240999999979
 20
-2.83155899999997
 10
-1.333537999999862
 20
-3.004570000000001
 10
-1.128097000000024
 20
-3.153390999999998
 10
-0.9135739999999259
 20
-3.276821999999981
 10
-0.6916949999999816
 20
-3.373870000000009
 10
-0.4642479999999978
 20
-3.443753000000014
 10
-0.2330620000000181
 20
-3.485909999999988
 10
0.0
 20
-3.5
  0
LINE
  5
4353
330
2A89
100
AcDbEntity
  8
AM_0 外形線1
100
AcDbLine
 10
4.5
 20
-2.0
 30
0.0
 11
5.0
 21
-1.5
 31
0.0
  0
LINE
  5
4354
330
2A89
100
AcDbEntity
  8
AM_0 外形線1
100
AcDbLine
 10
5.0
 20
-1.5
 30
0.0
 11
5.0
 21
1.5
 31
0.0
  0
LINE
  5
4355
330
2A89
100
AcDbEntity
  8
AM_0 外形線1
100
AcDbLine
 10
4.5
 20
-2.0
 30
0.0
 11
4.5
 21
2.0
 31
0.0
  0
LINE
  5
4356
330
2A89
100
AcDbEntity
  8
AM_0 外形線1
100
AcDbLine
 10
4.5
 20
2.0
 30
0.0
 11
5.0
 21
1.5
 31
0.0
  0
LINE
  5
4357
330
2A89
100
AcDbEntity
  8
AM_0 外形線1
100
AcDbLine
 10
0.0
 20
5.0
 30
0.0
 11
0.7999999999999547
 21
5.0
 31
0.0
  0
LINE
  5
43A0
330
2A89
100
AcDbEntity
  8
AM_0 外形線1
100
AcDbLine
 10
0.7999999999999547
 20
5.0
 30
0.0
 11
0.7999999999999547
 21
2.0
 31
0.0
  0
LINE
  5
43A1
330
2A89
100
AcDbEntity
  8
AM_0 外形線1
100
AcDbLine
 10
0.7999999999999547
 20
-5.0
 30
0.0
 11
0.7999999999999547
 21
-2.0
 31
0.0
  0
ENDBLK
  5
2A9E
330
2A89
100
AcDbEntity
  8
0
100
AcDbBlockEnd
  0
BLOCK
  5
2AE8
330
2AE5
100
AcDbEntity
  8
0
100
AcDbBlockBegin
  2
リーマボルト SMVH125 M6
 70
     0
 10
0.0
 20
0.0
 30
0.0
  3
リーマボルト SMVH125 M6
  1

  0
LINE
  5
4540
330
2AE5
100
AcDbEntity
  8
AM_0 外形線1
100
AcDbLine
 10
5.75
 20
31.5
 30
0.0
 11
5.75
 21
36.06698700000004
 31
0.0
  0
LINE
  5
4541
330
2AE5
100
AcDbEntity
  8
AM_0 外形線1
100
AcDbLine
 10
2.886751000000002
 20
31.5
 30
0.0
 11
2.886751000000002
 21
36.06698700000004
 31
0.0
  0
LINE
  5
4542
330
2AE5
100
AcDbEntity
  8
AM_0 外形線1
100
AcDbLine
 10
-5.75
 20
36.06698700000004
 30
0.0
 11
-5.75
 21
31.5
 31
0.0
  0
LINE
  5
4543
330
2AE5
100
AcDbEntity
  8
AM_0 外形線1
100
AcDbLine
 10
-2.886751999999886
 20
31.5
 30
0.0
 11
-2.886751999999886
 21
36.06698700000004
 31
0.0
  0
LINE
  5
4544
330
2AE5
100
AcDbEntity
  8
AM_0 外形線1
100
AcDbLine
 10
-6.099999999999909
 20
31.5
 30
0.0
 11
6.100000000000137
 21
31.5
 31
0.0
  0
LINE
  5
4545
330
2AE5
100
AcDbEntity
  8
AM_0 外形線1
100
AcDbLine
 10
-6.099999999999909
 20
30.0
 30
0.0
 11
-6.099999999999909
 21
31.5
 31
0.0
  0
LINE
  5
4546
330
2AE5
100
AcDbEntity
  8
AM_0 外形線1
100
AcDbLine
 10
5.75
 20
0.0
 30
0.0
 11
5.75
 21
-3.566988000000037
 31
0.0
  0
LINE
  5
4547
330
2AE5
100
AcDbEntity
  8
AM_0 外形線1
100
AcDbLine
 10
2.886751000000002
 20
0.0
 30
0.0
 11
2.886751000000002
 21
-3.566988000000037
 31
0.0
  0
LINE
  5
4548
330
2AE5
100
AcDbEntity
  8
AM_0 外形線1
100
AcDbLine
 10
-5.75
 20
-3.566988000000037
 30
0.0
 11
-5.75
 21
0.0
 31
0.0
  0
LINE
  5
4549
330
2AE5
100
AcDbEntity
  8
AM_0 外形線1
100
AcDbLine
 10
-2.886751999999886
 20
0.0
 30
0.0
 11
-2.886751999999886
 21
-3.566988000000037
 31
0.0
  0
LINE
  5
454A
330
2AE5
100
AcDbEntity
  8
AM_0 外形線1
100
AcDbLine
 10
5.0
 20
-4.0
 30
0.0
 11
-5.0
 21
-4.0
 31
0.0
  0
ARC
  5
454B
330
2AE5
100
AcDbEntity
  8
AM_0 外形線1
100
AcDbCircle
 10
0.0
 20
5.83901000000003
 30
0.0
 40
9.839010999999999
100
AcDbArc
 50
252.938469000006
 51
287.061530999994
  0
LINE
  5
454C
330
2AE5
100
AcDbEntity
  8
AM_0 外形線1
100
AcDbLine
 10
-5.0
 20
-4.0
 30
0.0
 11
-5.75
 21
-3.566988000000037
 31
0.0
  0
ARC
  5
454D
330
2AE5
100
AcDbEntity
  8
AM_0 外形線1
100
AcDbCircle
 10
-4.318375999999943
 20
-1.416879999999991
 30
0.0
 40
2.583120999999998
100
AcDbArc
 50
236.3428030000036
 51
303.6571969999964
  0
LINE
  5
454E
330
2AE5
100
AcDbEntity
  8
AM_0 外形線1
100
AcDbLine
 10
5.75
 20
-3.566988000000037
 30
0.0
 11
5.0
 21
-4.0
 31
0.0
  0
ARC
  5
454F
330
2AE5
100
AcDbEntity
  8
AM_0 外形線1
100
AcDbCircle
 10
4.31837500000006
 20
-1.416879999999991
 30
0.0
 40
2.583120999999998
100
AcDbArc
 50
236.3428030000036
 51
303.6571969999964
  0
LINE
  5
4550
330
2AE5
100
AcDbEntity
  8
AM_0 外形線1
100
AcDbLine
 10
-1.0
 20
31.5
 30
0.0
 11
0.5
 21
30.0
 31
0.0
  0
LINE
  5
4551
330
2AE5
100
AcDbEntity
  8
AM_0 外形線1
100
AcDbLine
 10
-0.5
 20
31.5
 30
0.0
 11
1.0
 21
30.0
 31
0.0
  0
LINE
  5
4552
330
2AE5
100
AcDbEntity
  8
AM_0 外形線1
100
AcDbLine
 10
6.100000000000137
 20
31.5
 30
0.0
 11
6.100000000000137
 21
30.0
 31
0.0
  0
LINE
  5
4553
330
2AE5
100
AcDbEntity
  8
AM_0 外形線1
100
AcDbLine
 10
3.0
 20
38.0
 30
0.0
 11
2.0
 21
39.0
 31
0.0
  0
LINE
  5
4554
330
2AE5
100
AcDbEntity
  8
AM_0 外形線1
100
AcDbLine
 10
5.0
 20
36.5
 30
0.0
 11
-5.0
 21
36.5
 31
0.0
  0
ARC
  5
4555
330
2AE5
100
AcDbEntity
  8
AM_0 外形線1
100
AcDbCircle
 10
0.0
 20
26.66098899999997
 30
0.0
 40
9.839010999999999
100
AcDbArc
 50
72.93846900000599
 51
107.061530999994
  0
LINE
  5
4556
330
2AE5
100
AcDbEntity
  8
AM_0 外形線1
100
AcDbLine
 10
3.0
 20
38.0
 30
0.0
 11
-3.0
 21
38.0
 31
0.0
  0
LINE
  5
4557
330
2AE5
100
AcDbEntity
  8
AM_4 細線
 62
     4
100
AcDbLine
 10
2.5
 20
36.5
 30
0.0
 11
2.5
 21
38.5
 31
0.0
  0
LINE
  5
4558
330
2AE5
100
AcDbEntity
  8
AM_0 外形線1
100
AcDbLine
 10
-5.0
 20
36.5
 30
0.0
 11
-5.75
 21
36.06698700000004
 31
0.0
  0
ARC
  5
4559
330
2AE5
100
AcDbEntity
  8
AM_0 外形線1
100
AcDbCircle
 10
-4.318375999999943
 20
33.91687899999999
 30
0.0
 40
2.583120999999998
100
AcDbArc
 50
56.34280300000366
 51
123.6571969999963
  0
LINE
  5
455A
330
2AE5
100
AcDbEntity
  8
AM_0 外形線1
100
AcDbLine
 10
-2.0
 20
39.0
 30
0.0
 11
-3.0
 21
38.0
 31
0.0
  0
LINE
  5
455B
330
2AE5
100
AcDbEntity
  8
AM_0 外形線1
100
AcDbLine
 10
-3.0
 20
38.0
 30
0.0
 11
-3.0
 21
36.5
 31
0.0
  0
LINE
  5
455C
330
2AE5
100
AcDbEntity
  8
AM_4 細線
 62
     4
100
AcDbLine
 10
-2.5
 20
36.5
 30
0.0
 11
-2.5
 21
38.5
 31
0.0
  0
LINE
  5
455D
330
2AE5
100
AcDbEntity
  8
AM_0 外形線1
100
AcDbLine
 10
2.0
 20
39.0
 30
0.0
 11
-2.0
 21
39.0
 31
0.0
  0
LINE
  5
455E
330
2AE5
100
AcDbEntity
  8
AM_0 外形線1
100
AcDbLine
 10
5.75
 20
36.06698700000004
 30
0.0
 11
5.0
 21
36.5
 31
0.0
  0
ARC
  5
455F
330
2AE5
100
AcDbEntity
  8
AM_0 外形線1
100
AcDbCircle
 10
4.31837500000006
 20
33.91687899999999
 30
0.0
 40
2.583120999999998
100
AcDbArc
 50
56.34280300000366
 51
123.6571969999963
  0
LINE
  5
4560
330
2AE5
100
AcDbEntity
  8
AM_0 外形線1
100
AcDbLine
 10
3.0
 20
36.5
 30
0.0
 11
3.0
 21
38.0
 31
0.0
  0
LINE
  5
59C3
330
2AE5
100
AcDbEntity
  8
AM_0 外形線1
100
AcDbLine
 10
-6.099999999999909
 20
30.0
 30
0.0
 11
6.100000000000137
 21
30.0
 31
0.0
  0
LINE
  5
59C4
330
2AE5
100
AcDbEntity
  8
AM_0 外形線1
100
AcDbLine
 10
-5.75
 20
0.0
 30
0.0
 11
5.749999999999943
 21
0.0
 31
0.0
  0
ENDBLK
  5
2B0C
330
2AE5
100
AcDbEntity
  8
0
100
AcDbBlockEnd
  0
BLOCK
  5
2BBB
330
2BBA
100
AcDbEntity
  8
0
100
AcDbBlockBegin
  2
GENDOT
 70
     0
 10
0.0
 20
0.0
 30
0.0
  3
GENDOT
  1

  0
LINE
  5
2BBC
330
2BBA
100
AcDbEntity
  8
0
100
AcDbLine
 10
0.0
 20
0.0
 30
0.0
 11
-1.0
 21
0.0
 31
0.0
  0
LWPOLYLINE
  5
2BBD
330
2BBA
100
AcDbEntity
  8
0
100
AcDbPolyline
 90
        2
 70
     1
 43
0.25
 10
-0.125
 20
0.0
 42
1.0
 10
0.125
 20
0.0
 42
1.0
  0
ENDBLK
  5
2BBE
330
2BBA
100
AcDbEntity
  8
0
100
AcDbBlockEnd
  0
BLOCK
  5
40F8
330
40F7
100
AcDbEntity
  8
0
100
AcDbBlockBegin
  2
センタＡ SMVH125
 70
     0
 10
0.0
 20
0.0
 30
0.0
  3
センタＡ SMVH125
  1

  0
LINE
  5
40FD
330
40F7
100
AcDbEntity
  8
AM_0 外形線1
100
AcDbLine
 10
-16.77050983124837
 20
0.0000000000000568
 30
0.0
 11
-16.77050983124837
 21
-63.0
 31
0.0
  0
LINE
  5
40FE
330
40F7
100
AcDbEntity
  8
AM_0 外形線1
100
AcDbLine
 10
32.0
 20
-63.0
 30
0.0
 11
-32.0
 21
-63.0
 31
0.0
  0
LINE
  5
40FF
330
40F7
100
AcDbEntity
  8
AM_0 外形線1
100
AcDbLine
 10
-34.5
 20
0.0
 30
0.0
 11
0.0
 21
0.0
 31
0.0
  0
ARC
  5
4100
330
40F7
100
AcDbEntity
  8
AM_0 外形線1
100
AcDbCircle
 10
-35.5
 20
-25.0
 30
0.0
 40
0.5
100
AcDbArc
 50
0.0
 51
90.0
  0
LINE
  5
4101
330
40F7
100
AcDbEntity
  8
AM_0 外形線1
100
AcDbLine
 10
-39.29909700000008
 20
-24.5
 30
0.0
 11
-39.88380800000005
 21
-24.0
 31
0.0
  0
LINE
  5
4104
330
40F7
100
AcDbEntity
  8
AM_0 外形線1
100
AcDbLine
 10
-35.0
 20
-60.0
 30
0.0
 11
-35.0
 21
-25.0
 31
0.0
  0
ARC
  5
4105
330
40F7
100
AcDbEntity
  8
AM_0 外形線1
100
AcDbCircle
 10
-32.0
 20
-60.0
 30
0.0
 40
3.0
100
AcDbArc
 50
180.0
 51
270.0
  0
LINE
  5
4106
330
40F7
100
AcDbEntity
  8
AM_0 外形線1
100
AcDbLine
 10
-35.5
 20
-24.5
 30
0.0
 11
-39.29909700000008
 21
-24.5
 31
0.0
  0
LINE
  5
4107
330
40F7
100
AcDbEntity
  8
AM_0 外形線1
100
AcDbLine
 10
-39.53396199999998
 20
-12.0
 30
0.0
 11
-35.5
 21
-12.0
 31
0.0
  0
LINE
  5
4108
330
40F7
100
AcDbEntity
  8
AM_7 中心線
100
AcDbLine
 10
-43.5
 20
-17.5
 30
0.0
 11
-34.34999999999991
 21
-17.5
 31
0.0
  0
LINE
  5
4109
330
40F7
100
AcDbEntity
  8
AM_0 外形線1
100
AcDbLine
 10
-40.09947799999986
 20
-12.5
 30
0.0
 11
-39.53396199999998
 21
-12.0
 31
0.0
  0
ARC
  5
410A
330
40F7
100
AcDbEntity
  8
AM_0 外形線1
100
AcDbCircle
 10
0.0
 20
-17.5
 30
0.0
 40
40.40999999999999
100
AcDbArc
 50
172.8924780000006
 51
189.2563109999983
  0
ARC
  5
410B
330
40F7
100
AcDbEntity
  8
AM_0 外形線1
100
AcDbCircle
 10
-35.5
 20
-11.5
 30
0.0
 40
0.5
100
AcDbArc
 50
270.0
 51
0.0
  0
LINE
  5
410C
330
40F7
100
AcDbEntity
  8
AM_0 外形線1
100
AcDbLine
 10
-35.0
 20
-0.5
 30
0.0
 11
-34.5
 21
0.0
 31
0.0
  0
LINE
  5
410D
330
40F7
100
AcDbEntity
  8
AM_0 外形線1
100
AcDbLine
 10
-35.0
 20
-11.5
 30
0.0
 11
-35.0
 21
-0.5
 31
0.0
  0
LINE
  5
410E
330
40F7
100
AcDbEntity
  8
AM_0 外形線1
100
AcDbLine
 10
35.0
 20
-39.0
 30
0.0
 11
35.0
 21
-60.0
 31
0.0
  0
ARC
  5
410F
330
40F7
100
AcDbEntity
  8
AM_0 外形線1
100
AcDbCircle
 10
32.0
 20
-60.0
 30
0.0
 40
3.0
100
AcDbArc
 50
270.0
 51
0.0
  0
ARC
  5
5C8B
330
40F7
100
AcDbEntity
  8
AM_0 外形線1
100
AcDbCircle
 10
0.0
 20
-17.5
 30
0.0
 40
37.34999999999985
100
AcDbArc
 50
171.5320769285636
 51
190.8020425354823
  0
ARC
  5
5C8C
330
40F7
100
AcDbEntity
  8
AM_7 中心線
100
AcDbCircle
 10
0.0
 20
-17.5
 30
0.0
 40
38.9999999999999
100
AcDbArc
 50
170.7199021892846
 51
192.3676697735386
  0
ENDBLK
  5
40F9
330
40F7
100
AcDbEntity
  8
0
100
AcDbBlockEnd
  0
BLOCK
  5
4176
330
4175
100
AcDbEntity
  8
0
100
AcDbBlockBegin
  2
センタB SMVH125
 70
     0
 10
0.0
 20
0.0
 30
0.0
  3
センタB SMVH125
  1

  0
LINE
  5
4178
330
4175
100
AcDbEntity
  8
AM_0 外形線1
100
AcDbLine
 10
-19.07878402833893
 20
63.0
 30
0.0
 11
-19.07878402833893
 21
0.0000000000000568
 31
0.0
  0
LINE
  5
417C
330
4175
100
AcDbEntity
  8
AM_0 外形線1
100
AcDbLine
 10
32.0
 20
63.0
 30
0.0
 11
-32.0
 21
63.0
 31
0.0
  0
LINE
  5
417D
330
4175
100
AcDbEntity
  8
AM_0 外形線1
100
AcDbLine
 10
-34.5
 20
0.0
 30
0.0
 11
0.0
 21
0.0
 31
0.0
  0
ARC
  5
417F
330
4175
100
AcDbEntity
  8
AM_0 外形線1
100
AcDbCircle
 10
0.0
 20
17.5
 30
0.0
 40
40.40999999999999
100
AcDbArc
 50
170.7436890000017
 51
187.1075219999993
  0
LINE
  5
4181
330
4175
100
AcDbEntity
  8
AM_0 外形線1
100
AcDbLine
 10
-39.53396199999998
 20
12.0
 30
0.0
 11
-35.5
 21
12.0
 31
0.0
  0
LINE
  5
4182
330
4175
100
AcDbEntity
  8
AM_0 外形線1
100
AcDbLine
 10
-40.09947799999986
 20
12.5
 30
0.0
 11
-39.53396199999998
 21
12.0
 31
0.0
  0
LINE
  5
4183
330
4175
100
AcDbEntity
  8
AM_0 外形線1
100
AcDbLine
 10
-35.0
 20
11.5
 30
0.0
 11
-35.0
 21
0.5
 31
0.0
  0
LINE
  5
4184
330
4175
100
AcDbEntity
  8
AM_0 外形線1
100
AcDbLine
 10
-35.0
 20
0.5
 30
0.0
 11
-34.5
 21
0.0
 31
0.0
  0
ARC
  5
4185
330
4175
100
AcDbEntity
  8
AM_0 外形線1
100
AcDbCircle
 10
-35.5
 20
11.5
 30
0.0
 40
0.5
100
AcDbArc
 50
0.0
 51
90.0
  0
LINE
  5
4186
330
4175
100
AcDbEntity
  8
AM_0 外形線1
100
AcDbLine
 10
-35.0
 20
60.0
 30
0.0
 11
-35.0
 21
25.0
 31
0.0
  0
LINE
  5
4187
330
4175
100
AcDbEntity
  8
AM_0 外形線1
100
AcDbLine
 10
-35.5
 20
24.5
 30
0.0
 11
-39.29909700000008
 21
24.5
 31
0.0
  0
LINE
  5
4188
330
4175
100
AcDbEntity
  8
AM_7 中心線
100
AcDbLine
 10
-43.5
 20
17.5
 30
0.0
 11
-34.34999999999991
 21
17.5
 31
0.0
  0
LINE
  5
4189
330
4175
100
AcDbEntity
  8
AM_0 外形線1
100
AcDbLine
 10
-39.29909700000008
 20
24.5
 30
0.0
 11
-39.88380800000005
 21
24.0
 31
0.0
  0
ARC
  5
418A
330
4175
100
AcDbEntity
  8
AM_0 外形線1
100
AcDbCircle
 10
-35.5
 20
25.0
 30
0.0
 40
0.5
100
AcDbArc
 50
270.0
 51
0.0
  0
ARC
  5
418B
330
4175
100
AcDbEntity
  8
AM_0 外形線1
100
AcDbCircle
 10
-32.0
 20
60.0
 30
0.0
 40
3.0
100
AcDbArc
 50
90.0
 51
180.0
  0
LINE
  5
418C
330
4175
100
AcDbEntity
  8
AM_0 外形線1
100
AcDbLine
 10
35.0
 20
39.0
 30
0.0
 11
35.0
 21
60.0
 31
0.0
  0
ARC
  5
418D
330
4175
100
AcDbEntity
  8
AM_0 外形線1
100
AcDbCircle
 10
32.0
 20
60.0
 30
0.0
 40
3.0
100
AcDbArc
 50
0.0
 51
90.0
  0
ARC
  5
5DFE
330
4175
100
AcDbEntity
  8
AM_0 外形線1
100
AcDbCircle
 10
0.0
 20
17.5
 30
0.0
 40
37.34999999999985
100
AcDbArc
 50
169.1979574645177
 51
188.4679230714364
  0
ARC
  5
5DFF
330
4175
100
AcDbEntity
  8
AM_7 中心線
100
AcDbCircle
 10
0.0
 20
17.5
 30
0.0
 40
38.9999999999999
100
AcDbArc
 50
167.4213357787183
 51
189.6669980658409
  0
ENDBLK
  5
4177
330
4175
100
AcDbEntity
  8
0
100
AcDbBlockEnd
  0
BLOCK
  5
4240
330
423F
100
AcDbEntity
  8
0
100
AcDbBlockBegin
  2
ケースＡ SMVH125
 70
     0
 10
0.0
 20
0.0
 30
0.0
  3
ケースＡ SMVH125
  1

  0
ARC
  5
4242
330
423F
100
AcDbEntity
  8
AM_0 外形線1
100
AcDbCircle
 10
-40.0
 20
-29.0
 30
0.0
 40
1.0
100
AcDbArc
 50
90.0
 51
180.0
  0
LINE
  5
4243
330
423F
100
AcDbEntity
  8
AM_0 外形線1
100
AcDbLine
 10
-46.0
 20
-18.0
 30
0.0
 11
-46.0
 21
-40.0
 31
0.0
  0
LINE
  5
4244
330
423F
100
AcDbEntity
  8
AM_7 中心線
100
AcDbLine
 10
-39.0
 20
-13.03240700000003
 30
0.0
 11
-39.0
 21
-29.70910400000003
 31
0.0
  0
LINE
  5
4245
330
423F
100
AcDbEntity
  8
AM_0 外形線1
100
AcDbLine
 10
-35.0
 20
-40.79999999999995
 30
0.0
 11
-39.19999999999982
 21
-40.79999999999995
 31
0.0
  0
LINE
  5
4246
330
423F
100
AcDbEntity
  8
AM_0 外形線1
100
AcDbLine
 10
-39.19999999999982
 20
-33.19999999999999
 30
0.0
 11
-35.0
 21
-33.19999999999999
 31
0.0
  0
LINE
  5
4247
330
423F
100
AcDbEntity
  8
AM_0 外形線1
100
AcDbLine
 10
-35.0
 20
-31.0
 30
0.0
 11
-40.0
 21
-31.0
 31
0.0
  0
LWPOLYLINE
  5
4248
330
423F
100
AcDbEntity
  8
AM_0 外形線1
100
AcDbPolyline
 90
       73
 70
     0
 43
0.0
 10
-37.3499999999999
 20
-33.19999999999999
 10
-37.55481599999985
 20
-33.21446100000004
 10
-37.75807299999997
 20
-33.25773100000004
 10
-37.95822499999986
 20
-33.32948199999999
 10
-38.15374799999995
 20
-33.429169
 10
-38.3431529999998
 20
-33.55603099999996
 10
-38.52499999999987
 20
-33.70910400000003
 10
-38.69790499999999
 20
-33.88722299999995
 10
-38.860551
 20
-34.08903199999997
 10
-39.0117009999999
 20
-34.312995
 10
-39.15020499999992
 20
-34.55740800000001
 10
-39.27500699999996
 20
-34.82041000000004
 10
-39.38515999999982
 20
-35.10000000000002
 10
-39.4798229999999
 20
-35.39405099999999
 10
-39.55827799999998
 20
-35.70032400000002
 10
-39.61992599999985
 20
-36.01648799999998
 10
-39.66429799999993
 20
-36.34013700000004
 10
-39.69105799999989
 20
-36.66880900000001
 10
-39.69999999999982
 20
-37.0
 10
-39.69105799999989
 20
-37.33119199999999
 10
-39.66429799999993
 20
-37.65986399999996
 10
-39.61992599999985
 20
-37.98351300000002
 10
-39.55827799999998
 20
-38.29967699999997
 10
-39.4798229999999
 20
-38.60595000000001
 10
-39.38515999999982
 20
-38.89999999999998
 10
-39.27500699999996
 20
-39.17959099999996
 10
-39.15020499999992
 20
-39.44259299999999
 10
-39.0117009999999
 20
-39.687006
 10
-38.860551
 20
-39.91096900000002
 10
-38.69790499999999
 20
-40.11277799999999
 10
-38.52499999999987
 20
-40.29089699999996
 10
-38.3431529999998
 20
-40.44396999999998
 10
-38.15374799999995
 20
-40.570832
 10
-37.95822499999986
 20
-40.67051900000001
 10
-37.75807299999997
 20
-40.74226999999996
 10
-37.55481599999985
 20
-40.78553999999996
 10
-37.3499999999999
 20
-40.79999999999995
 10
-37.14518399999997
 20
-40.78553999999996
 10
-36.94192699999985
 20
-40.74226999999996
 10
-36.74177499999996
 20
-40.67051900000001
 10
-36.54625299999998
 20
-40.570832
 10
-36.35684700000002
 20
-40.44396999999998
 10
-36.17499999999973
 20
-40.29089699999996
 10
-36.00209599999971
 20
-40.11277799999999
 10
-35.83944900000006
 20
-39.91096900000002
 10
-35.68829899999992
 20
-39.687006
 10
-35.54979599999979
 20
-39.44259299999999
 10
-35.4249930000001
 20
-39.17959099999996
 10
-35.31484000000001
 20
-38.89999999999998
 10
-35.22017699999992
 20
-38.60595000000001
 10
-35.14172299999997
 20
-38.29967699999997
 10
-35.08007399999997
 20
-37.98351300000002
 10
-35.0357019999999
 20
-37.65986399999996
 10
-35.00894299999982
 20
-37.33119199999999
 10
-35.0
 20
-37.0
 10
-35.00894299999982
 20
-36.66880900000001
 10
-35.0357019999999
 20
-36.34013700000004
 10
-35.08007399999997
 20
-36.01648799999998
 10
-35.14172299999997
 20
-35.70032400000002
 10
-35.22017699999992
 20
-35.39405099999999
 10
-35.31484000000001
 20
-35.10000000000002
 10
-35.4249930000001
 20
-34.82041000000004
 10
-35.54979599999979
 20
-34.55740800000001
 10
-35.68829899999992
 20
-34.312995
 10
-35.83944900000006
 20
-34.08903199999997
 10
-36.00209599999971
 20
-33.88722299999995
 10
-36.17499999999973
 20
-33.70910400000003
 10
-36.35684700000002
 20
-33.55603099999996
 10
-36.54625299999998
 20
-33.429169
 10
-36.74177499999996
 20
-33.32948199999999
 10
-36.94192699999985
 20
-33.25773100000004
 10
-37.14518399999997
 20
-33.21446100000004
 10
-37.3499999999999
 20
-33.19999999999999
  0
LINE
  5
4249
330
423F
100
AcDbEntity
  8
AM_0 外形線1
100
AcDbLine
 10
-43.0
 20
-43.0
 30
0.0
 11
-35.0
 21
-43.0
 31
0.0
  0
ARC
  5
424A
330
423F
100
AcDbEntity
  8
AM_0 外形線1
100
AcDbCircle
 10
-39.19999999999982
 20
-40.29999999999995
 30
0.0
 40
0.5
100
AcDbArc
 50
180.0
 51
270.0
  0
ARC
  5
424B
330
423F
100
AcDbEntity
  8
AM_0 外形線1
100
AcDbCircle
 10
-43.0
 20
-40.0
 30
0.0
 40
3.0
100
AcDbArc
 50
180.0
 51
270.0
  0
LINE
  5
424C
330
423F
100
AcDbEntity
  8
AM_0 外形線1
100
AcDbLine
 10
-39.69999999999982
 20
-40.29999999999995
 30
0.0
 11
-39.69999999999982
 21
-33.69999999999999
 31
0.0
  0
ARC
  5
424D
330
423F
100
AcDbEntity
  8
AM_0 外形線1
100
AcDbCircle
 10
-39.19999999999982
 20
-33.69999999999999
 30
0.0
 40
0.5
100
AcDbArc
 50
90.0
 51
180.0
  0
ARC
  5
424E
330
423F
100
AcDbEntity
  8
AM_0 外形線1
100
AcDbCircle
 10
-40.0
 20
-30.0
 30
0.0
 40
1.0
100
AcDbArc
 50
180.0
 51
270.0
  0
LINE
  5
424F
330
423F
100
AcDbEntity
  8
AM_0 外形線1
100
AcDbLine
 10
-41.0
 20
-30.0
 30
0.0
 11
-41.0
 21
-29.0
 31
0.0
  0
LINE
  5
4250
330
423F
100
AcDbEntity
  8
AM_0 外形線1
100
AcDbLine
 10
-36.0
 20
-43.0
 30
0.0
 11
-36.0
 21
-40.79999999999995
 31
0.0
  0
LINE
  5
4251
330
423F
100
AcDbEntity
  8
AM_0 外形線1
100
AcDbLine
 10
-36.0
 20
-33.19999999999999
 30
0.0
 11
-36.0
 21
-31.0
 31
0.0
  0
LINE
  5
4252
330
423F
100
AcDbEntity
  8
AM_0 外形線1
100
AcDbLine
 10
-62.0999999999999
 20
-15.0
 30
0.0
 11
-49.89999999999986
 21
-15.0
 31
0.0
  0
LINE
  5
4253
330
423F
100
AcDbEntity
  8
AM_0 外形線1
100
AcDbLine
 10
-56.29999999999972
 20
-3.75
 30
0.0
 11
-41.0
 21
-3.75
 31
0.0
  0
LINE
  5
4254
330
423F
100
AcDbEntity
  8
AM_0 外形線1
100
AcDbLine
 10
-56.29999999999972
 20
-12.25
 30
0.0
 11
-41.0
 21
-12.25
 31
0.0
  0
LINE
  5
4255
330
423F
100
AcDbEntity
  8
AM_7 中心線
100
AcDbLine
 10
-63.75
 20
-8.0
 30
0.0
 11
-39.75
 21
-8.0
 31
0.0
  0
LINE
  5
4256
330
423F
100
AcDbEntity
  8
AM_0 外形線1
100
AcDbLine
 10
-62.5
 20
-0.1999999999999886
 30
0.0
 11
-62.5
 21
-14.79999999999995
 31
0.0
  0
LINE
  5
4257
330
423F
100
AcDbEntity
  8
AM_4 細線
100
AcDbLine
 10
-56.29999999999972
 20
-3.329749999999988
 30
0.0
 11
-56.29999999999972
 21
-12.67025000000001
 31
0.0
  0
LINE
  5
4258
330
423F
100
AcDbEntity
  8
AM_0 外形線1
100
AcDbLine
 10
-62.5
 20
-14.79999999999995
 30
0.0
 11
-62.29999999999972
 21
-15.0
 31
0.0
  0
LINE
  5
4259
330
423F
100
AcDbEntity
  8
AM_0 外形線1
100
AcDbLine
 10
-62.29999999999972
 20
-15.0
 30
0.0
 11
-59.5
 21
-15.0
 31
0.0
  0
LINE
  5
425A
330
423F
100
AcDbEntity
  8
AM_0 外形線1
100
AcDbLine
 10
-62.5
 20
-12.44375000000002
 30
0.0
 11
-56.29999999999972
 21
-12.25
 31
0.0
  0
LINE
  5
425B
330
423F
100
AcDbEntity
  8
AM_4 細線
 62
     4
100
AcDbLine
 10
-62.5
 20
-12.86399999999997
 30
0.0
 11
-56.29999999999972
 21
-12.67025000000001
 31
0.0
  0
LINE
  5
425C
330
423F
100
AcDbEntity
  8
AM_0 外形線1
100
AcDbLine
 10
-62.29999999999972
 20
0.0
 30
0.0
 11
-62.5
 21
-0.1999999999999886
 31
0.0
  0
LINE
  5
425D
330
423F
100
AcDbEntity
  8
AM_0 外形線1
100
AcDbLine
 10
-62.5
 20
-3.556249999999976
 30
0.0
 11
-56.29999999999972
 21
-3.75
 31
0.0
  0
LINE
  5
425E
330
423F
100
AcDbEntity
  8
AM_4 細線
 62
     4
100
AcDbLine
 10
-62.5
 20
-3.135999999999966
 30
0.0
 11
-56.29999999999972
 21
-3.329749999999988
 31
0.0
  0
LINE
  5
425F
330
423F
100
AcDbEntity
  8
AM_0 外形線1
100
AcDbLine
 10
-41.0
 20
-13.0
 30
0.0
 11
-41.0
 21
0.0
 31
0.0
  0
LINE
  5
4260
330
423F
100
AcDbEntity
  8
AM_0 外形線1
100
AcDbLine
 10
-38.29999999999973
 20
-14.0
 30
0.0
 11
-40.0
 21
-14.0
 31
0.0
  0
LINE
  5
4261
330
423F
100
AcDbEntity
  8
AM_0 外形線1
100
AcDbLine
 10
-40.49999999999999
 20
-13.86602599999998
 30
0.0
 11
-40.49999999999999
 21
-28.13397499999997
 31
0.0
  0
LINE
  5
4262
330
423F
100
AcDbEntity
  8
AM_3 隠れ線
100
AcDbLine
 10
-37.79999999999973
 20
-27.5
 30
0.0
 11
-37.79999999999973
 21
-16.0
 31
0.0
  0
ARC
  5
4263
330
423F
100
AcDbEntity
  8
AM_0 外形線1
100
AcDbCircle
 10
-49.0
 20
-18.0
 30
0.0
 40
3.0
100
AcDbArc
 50
0.0
 51
90.0
  0
LINE
  5
4264
330
423F
100
AcDbEntity
  8
AM_3 隠れ線
100
AcDbLine
 10
-38.29999999999973
 20
-28.0
 30
0.0
 11
-37.79999999999973
 21
-27.5
 31
0.0
  0
LINE
  5
4265
330
423F
100
AcDbEntity
  8
AM_3 隠れ線
100
AcDbLine
 10
-39.88380800000005
 20
-28.0
 30
0.0
 11
-38.29999999999973
 21
-28.0
 31
0.0
  0
LINE
  5
4266
330
423F
100
AcDbEntity
  8
AM_0 外形線1
100
AcDbLine
 10
-52.5
 20
-15.0
 30
0.0
 11
-49.0
 21
-15.0
 31
0.0
  0
LINE
  5
4267
330
423F
100
AcDbEntity
  8
AM_0 外形線1
100
AcDbLine
 10
-37.79999999999973
 20
-16.0
 30
0.0
 11
-37.79999999999973
 21
-14.5
 31
0.0
  0
LINE
  5
4268
330
423F
100
AcDbEntity
  8
AM_0 外形線1
100
AcDbLine
 10
-37.79999999999973
 20
-14.5
 30
0.0
 11
-38.29999999999973
 21
-14.0
 31
0.0
  0
ARC
  5
4269
330
423F
100
AcDbEntity
  8
AM_0 外形線1
100
AcDbCircle
 10
-40.0
 20
-13.0
 30
0.0
 40
1.0
100
AcDbArc
 50
180.0
 51
270.0
  0
LINE
  5
426A
330
423F
100
AcDbEntity
  8
AM_0 外形線1
100
AcDbLine
 10
-45.49999999999999
 20
-2.399999999999977
 30
0.0
 11
-48.39999999999985
 21
-2.399999999999977
 31
0.0
  0
LWPOLYLINE
  5
426B
330
423F
100
AcDbEntity
  8
AM_0 外形線1
100
AcDbPolyline
 90
       73
 70
     0
 43
0.0
 10
-45.0
 20
-1.199999999999988
 10
-45.00742099999978
 20
-1.095414000000005
 10
-45.02962499999989
 20
-0.9916230000000039
 10
-45.06644499999993
 20
-0.8894179999999778
 10
-45.11760000000004
 20
-0.7895760000000111
 10
-45.18269999999985
 20
-0.6928589999999986
 10
-45.2612509999999
 20
-0.6000000000000229
 10
-45.3526539999998
 20
-0.5117089999999962
 10
-45.45621399999982
 20
-0.4286549999999921
 10
-45.571142
 20
-0.3514719999999443
 10
-45.69656399999984
 20
-0.2807470000000194
 10
-45.83152599999993
 20
-0.2170179999999959
 10
-45.9749999999999
 20
-0.1607699999999568
 10
-46.12589499999989
 20
-0.112431000000015
 10
-46.28306099999985
 20
-0.0723689999999806
 10
-46.44530299999996
 20
-0.0408889999999929
 10
-46.61138600000003
 20
-0.0182310000000143
 10
-46.78004599999986
 20
-0.0045669999999518
 10
-46.94999999999981
 20
0.0
 10
-47.11995399999977
 20
-0.0045669999999518
 10
-47.28861400000004
 20
-0.0182310000000143
 10
-47.45469699999989
 20
-0.0408889999999929
 10
-47.616939
 20
-0.0723689999999806
 10
-47.77410599999984
 20
-0.112431000000015
 10
-47.92499999999972
 20
-0.1607699999999568
 10
-48.06847399999992
 20
-0.2170179999999959
 10
-48.20343599999978
 20
-0.2807470000000194
 10
-48.32885799999985
 20
-0.3514719999999443
 10
-48.44378699999992
 20
-0.4286549999999921
 10
-48.54734699999993
 20
-0.5117089999999962
 10
-48.63874999999985
 20
-0.6000000000000229
 10
-48.71729999999979
 20
-0.6928589999999986
 10
-48.78240099999993
 20
-0.7895760000000111
 10
-48.83355600000005
 20
-0.8894179999999778
 10
-48.87037499999998
 20
-0.9916230000000039
 10
-48.89257999999995
 20
-1.095414000000005
 10
-48.89999999999986
 20
-1.199999999999988
 10
-48.89257999999995
 20
-1.304586999999969
 10
-48.87037499999998
 20
-1.408377999999969
 10
-48.83355600000005
 20
-1.510582999999995
 10
-48.78240099999993
 20
-1.610424999999963
 10
-48.71729999999979
 20
-1.707141999999976
 10
-48.63874999999985
 20
-1.799999999999954
 10
-48.54734699999993
 20
-1.888291999999977
 10
-48.44378699999992
 20
-1.971345999999981
 10
-48.32885799999985
 20
-2.04852900000003
 10
-48.20343599999978
 20
-2.119253999999954
 10
-48.06847399999992
 20
-2.182983000000034
 10
-47.92499999999972
 20
-2.239231000000017
 10
-47.77410599999984
 20
-2.287569999999958
 10
-47.616939
 20
-2.327631999999994
 10
-47.45469699999989
 20
-2.359110999999983
 10
-47.28861400000004
 20
-2.381769999999959
 10
-47.11995399999977
 20
-2.395434000000022
 10
-46.94999999999981
 20
-2.399999999999977
 10
-46.78004599999986
 20
-2.395434000000022
 10
-46.61138600000003
 20
-2.381769999999959
 10
-46.44530299999996
 20
-2.359110999999983
 10
-46.28306099999985
 20
-2.327631999999994
 10
-46.12589499999989
 20
-2.287569999999958
 10
-45.9749999999999
 20
-2.239231000000017
 10
-45.83152599999993
 20
-2.182983000000034
 10
-45.69656399999984
 20
-2.119253999999954
 10
-45.571142
 20
-2.04852900000003
 10
-45.45621399999982
 20
-1.971345999999981
 10
-45.3526539999998
 20
-1.888291999999977
 10
-45.2612509999999
 20
-1.799999999999954
 10
-45.18269999999985
 20
-1.707141999999976
 10
-45.11760000000004
 20
-1.610424999999963
 10
-45.06644499999993
 20
-1.510582999999995
 10
-45.02962499999989
 20
-1.408377999999969
 10
-45.00742099999978
 20
-1.304586999999969
 10
-45.0
 20
-1.199999999999988
  0
ARC
  5
426C
330
423F
100
AcDbEntity
  8
AM_0 外形線1
100
AcDbCircle
 10
-48.39999999999985
 20
-1.899999999999976
 30
0.0
 40
0.5
100
AcDbArc
 50
180.0
 51
270.0
  0
LINE
  5
426D
330
423F
100
AcDbEntity
  8
AM_0 外形線1
100
AcDbLine
 10
-48.89999999999986
 20
-1.899999999999976
 30
0.0
 11
-48.89999999999986
 21
0.0
 31
0.0
  0
ARC
  5
426E
330
423F
100
AcDbEntity
  8
AM_0 外形線1
100
AcDbCircle
 10
-45.49999999999999
 20
-1.899999999999976
 30
0.0
 40
0.5
100
AcDbArc
 50
270.0
 51
0.0
  0
LINE
  5
426F
330
423F
100
AcDbEntity
  8
AM_0 外形線1
100
AcDbLine
 10
-45.0
 20
0.0
 30
0.0
 11
-45.0
 21
-1.899999999999976
 31
0.0
  0
LINE
  5
4270
330
423F
100
AcDbEntity
  8
AM_7 中心線
100
AcDbLine
 10
56.0
 20
24.86469499999998
 30
0.0
 11
56.0
 21
-20.75230499999998
 31
0.0
  0
LINE
  5
4271
330
423F
100
AcDbEntity
  8
AM_0 外形線1
100
AcDbLine
 10
0.0
 20
0.0
 30
0.0
 11
62.30000000000018
 21
0.0
 31
0.0
  0
LINE
  5
4272
330
423F
100
AcDbEntity
  8
AM_0 外形線1
100
AcDbLine
 10
62.30000000000018
 20
-15.0
 30
0.0
 11
0.0
 21
-15.0
 31
0.0
  0
LINE
  5
4273
330
423F
100
AcDbEntity
  8
AM_0 外形線1
100
AcDbLine
 10
46.0
 20
-18.0
 30
0.0
 11
46.0
 21
-40.0
 31
0.0
  0
LINE
  5
4274
330
423F
100
AcDbEntity
  8
AM_0 外形線1
100
AcDbLine
 10
43.0
 20
-43.0
 30
0.0
 11
0.0
 21
-43.0
 31
0.0
  0
ARC
  5
4275
330
423F
100
AcDbEntity
  8
AM_0 外形線1
100
AcDbCircle
 10
43.0
 20
-40.0
 30
0.0
 40
3.0
100
AcDbArc
 50
270.0
 51
0.0
  0
ARC
  5
4276
330
423F
100
AcDbEntity
  8
AM_0 外形線1
100
AcDbCircle
 10
49.0
 20
-18.0
 30
0.0
 40
3.0
100
AcDbArc
 50
90.0
 51
180.0
  0
LINE
  5
4277
330
423F
100
AcDbEntity
  8
AM_0 外形線1
100
AcDbLine
 10
62.5
 20
-0.1999999999999886
 30
0.0
 11
62.5
 21
-14.79999999999995
 31
0.0
  0
LINE
  5
4278
330
423F
100
AcDbEntity
  8
AM_0 外形線1
100
AcDbLine
 10
62.5
 20
-14.79999999999995
 30
0.0
 11
62.30000000000018
 21
-15.0
 31
0.0
  0
LINE
  5
4279
330
423F
100
AcDbEntity
  8
AM_0 外形線1
100
AcDbLine
 10
62.30000000000018
 20
0.0
 30
0.0
 11
62.5
 21
-0.1999999999999886
 31
0.0
  0
LINE
  5
42F7
330
423F
100
AcDbEntity
  8
AM_0 外形線1
100
AcDbLine
 10
-45.0
 20
0.0
 30
0.0
 11
-41.0
 21
0.0
 31
0.0
  0
LINE
  5
42F8
330
423F
100
AcDbEntity
  8
AM_0 外形線1
100
AcDbLine
 10
-48.89999999999986
 20
0.0
 30
0.0
 11
-62.29999999999972
 21
0.0
 31
0.0
  0
LINE
  5
55E6
330
423F
100
AcDbEntity
  8
AM_0 外形線1
100
AcDbLine
 10
-40.0
 20
-28.0
 30
0.0
 11
-39.88380800000005
 21
-28.0
 31
0.0
  0
ENDBLK
  5
4241
330
423F
100
AcDbEntity
  8
0
100
AcDbBlockEnd
  0
BLOCK
  5
442B
330
442A
100
AcDbEntity
  8
0
100
AcDbBlockBegin
  2
ケースＢ SMVH125
 70
     0
 10
0.0
 20
0.0
 30
0.0
  3
ケースＢ SMVH125
  1

  0
LINE
  5
442D
330
442A
100
AcDbEntity
  8
AM_0 外形線1
100
AcDbLine
 10
-40.49999999999999
 20
13.86602500000003
 30
0.0
 11
-40.49999999999999
 21
28.13397459621558
 31
0.0
  0
LINE
  5
442E
330
442A
100
AcDbEntity
  8
AM_3 隠れ線
100
AcDbLine
 10
-37.79999999999973
 20
27.5
 30
0.0
 11
-37.79999999999973
 21
16.0
 31
0.0
  0
LINE
  5
442F
330
442A
100
AcDbEntity
  8
AM_7 中心線
100
AcDbLine
 10
-39.0
 20
13.07560999999998
 30
0.0
 11
-39.0
 21
29.5
 31
0.0
  0
LINE
  5
4430
330
442A
100
AcDbEntity
  8
AM_0 外形線1
100
AcDbLine
 10
-46.0
 20
18.0
 30
0.0
 11
-46.0
 21
24.5
 31
0.0
  0
LINE
  5
4431
330
442A
100
AcDbEntity
  8
AM_0 外形線1
100
AcDbLine
 10
-50.25
 20
15.0
 30
0.0
 11
-61.75
 21
15.0
 31
0.0
  0
LINE
  5
4432
330
442A
100
AcDbEntity
  8
AM_0 外形線1
100
AcDbLine
 10
-56.29999999999972
 20
12.25
 30
0.0
 11
-41.0
 21
12.25
 31
0.0
  0
LINE
  5
4433
330
442A
100
AcDbEntity
  8
AM_7 中心線
100
AcDbLine
 10
-63.75
 20
8.0
 30
0.0
 11
-39.75
 21
8.0
 31
0.0
  0
LINE
  5
4434
330
442A
100
AcDbEntity
  8
AM_0 外形線1
100
AcDbLine
 10
-45.1999999999998
 20
0.0
 30
0.0
 11
-62.29999999999972
 21
0.0
 31
0.0
  0
LINE
  5
4435
330
442A
100
AcDbEntity
  8
AM_0 外形線1
100
AcDbLine
 10
-56.29999999999972
 20
3.75
 30
0.0
 11
-41.0
 21
3.75
 31
0.0
  0
LINE
  5
4436
330
442A
100
AcDbEntity
  8
AM_0 外形線1
100
AcDbLine
 10
-62.5
 20
0.2000000000000455
 30
0.0
 11
-62.5
 21
14.80000000000001
 31
0.0
  0
LINE
  5
4437
330
442A
100
AcDbEntity
  8
AM_4 細線
100
AcDbLine
 10
-56.29999999999972
 20
3.329749999999988
 30
0.0
 11
-56.29999999999972
 21
12.67025000000001
 31
0.0
  0
LINE
  5
4438
330
442A
100
AcDbEntity
  8
AM_0 外形線1
100
AcDbLine
 10
-62.29999999999972
 20
0.0
 30
0.0
 11
-62.5
 21
0.2000000000000455
 31
0.0
  0
LINE
  5
4439
330
442A
100
AcDbEntity
  8
AM_0 外形線1
100
AcDbLine
 10
-62.5
 20
3.556249999999976
 30
0.0
 11
-56.29999999999972
 21
3.75
 31
0.0
  0
LINE
  5
443A
330
442A
100
AcDbEntity
  8
AM_4 細線
 62
     4
100
AcDbLine
 10
-62.5
 20
3.136000000000023
 30
0.0
 11
-56.29999999999972
 21
3.329749999999988
 31
0.0
  0
LINE
  5
443B
330
442A
100
AcDbEntity
  8
AM_0 外形線1
100
AcDbLine
 10
-62.5
 20
14.80000000000001
 30
0.0
 11
-62.29999999999972
 21
15.0
 31
0.0
  0
LINE
  5
443C
330
442A
100
AcDbEntity
  8
AM_0 外形線1
100
AcDbLine
 10
-62.29999999999972
 20
15.0
 30
0.0
 11
-59.5
 21
15.0
 31
0.0
  0
LINE
  5
443D
330
442A
100
AcDbEntity
  8
AM_0 外形線1
100
AcDbLine
 10
-62.5
 20
12.44375000000002
 30
0.0
 11
-56.29999999999972
 21
12.25
 31
0.0
  0
LINE
  5
443E
330
442A
100
AcDbEntity
  8
AM_4 細線
 62
     4
100
AcDbLine
 10
-62.5
 20
12.86400000000003
 30
0.0
 11
-56.29999999999972
 21
12.67025000000001
 31
0.0
  0
LINE
  5
443F
330
442A
100
AcDbEntity
  8
AM_0 外形線1
100
AcDbLine
 10
-38.29999999999973
 20
14.0
 30
0.0
 11
-40.0
 21
14.0
 31
0.0
  0
LINE
  5
4440
330
442A
100
AcDbEntity
  8
AM_0 外形線1
100
AcDbLine
 10
-41.0
 20
13.0
 30
0.0
 11
-41.0
 21
3.0
 31
0.0
  0
LINE
  5
4441
330
442A
100
AcDbEntity
  8
AM_0 外形線1
100
AcDbLine
 10
-45.0
 20
0.2000000000000455
 30
0.0
 11
-45.1999999999998
 21
0.0
 31
0.0
  0
LINE
  5
4442
330
442A
100
AcDbEntity
  8
AM_0 外形線1
100
AcDbLine
 10
-45.0
 20
3.0
 30
0.0
 11
-45.0
 21
0.2000000000000455
 31
0.0
  0
ARC
  5
4443
330
442A
100
AcDbEntity
  8
AM_0 外形線1
100
AcDbCircle
 10
-49.0
 20
18.0
 30
0.0
 40
3.0
100
AcDbArc
 50
270.0
 51
0.0
  0
LINE
  5
4444
330
442A
100
AcDbEntity
  8
AM_0 外形線1
100
AcDbLine
 10
-52.5
 20
15.0
 30
0.0
 11
-49.0
 21
15.0
 31
0.0
  0
LINE
  5
4445
330
442A
100
AcDbEntity
  8
AM_0 外形線1
100
AcDbLine
 10
-37.79999999999973
 20
16.0
 30
0.0
 11
-37.79999999999973
 21
14.5
 31
0.0
  0
LINE
  5
4446
330
442A
100
AcDbEntity
  8
AM_0 外形線1
100
AcDbLine
 10
-37.79999999999973
 20
14.5
 30
0.0
 11
-38.29999999999973
 21
14.0
 31
0.0
  0
ARC
  5
4447
330
442A
100
AcDbEntity
  8
AM_0 外形線1
100
AcDbCircle
 10
-40.0
 20
13.0
 30
0.0
 40
1.0
100
AcDbArc
 50
90.0
 51
180.0
  0
LINE
  5
4448
330
442A
100
AcDbEntity
  8
AM_4 細線
100
AcDbLine
 10
-41.79999999999995
 20
31.5
 30
0.0
 11
-36.0
 21
31.5
 31
0.0
  0
LINE
  5
4449
330
442A
100
AcDbEntity
  8
AM_0 外形線1
100
AcDbLine
 10
-41.4499999999998
 20
31.14999999999998
 30
0.0
 11
-36.0
 21
31.14999999999998
 31
0.0
  0
LINE
  5
444A
330
442A
100
AcDbEntity
  8
AM_0 外形線1
100
AcDbLine
 10
-43.0
 20
43.0
 30
0.0
 11
-35.0
 21
43.0
 31
0.0
  0
LINE
  5
444B
330
442A
100
AcDbEntity
  8
AM_0 外形線1
100
AcDbLine
 10
-35.0
 20
40.8
 30
0.0
 11
-39.19999999999982
 21
40.8
 31
0.0
  0
LINE
  5
444C
330
442A
100
AcDbEntity
  8
AM_0 外形線1
100
AcDbLine
 10
-39.19999999999982
 20
33.20000000000006
 30
0.0
 11
-35.0
 21
33.20000000000006
 31
0.0
  0
LINE
  5
444D
330
442A
100
AcDbEntity
  8
AM_0 外形線1
100
AcDbLine
 10
-35.0
 20
31.0
 30
0.0
 11
-40.0
 21
31.0
 31
0.0
  0
LWPOLYLINE
  5
444E
330
442A
100
AcDbEntity
  8
AM_0 外形線1
100
AcDbPolyline
 90
       73
 70
     0
 43
0.0
 10
-37.3499999999999
 20
33.20000000000006
 10
-37.14518399999997
 20
33.21446000000003
 10
-36.94192699999985
 20
33.25772999999998
 10
-36.74177499999996
 20
33.32948099999999
 10
-36.54625299999998
 20
33.42916800000001
 10
-36.35684700000002
 20
33.55602999999997
 10
-36.17499999999973
 20
33.70910300000004
 10
-36.00209599999971
 20
33.88722200000007
 10
-35.83944900000006
 20
34.08903099999998
 10
-35.68829899999992
 20
34.312994
 10
-35.54979599999979
 20
34.55740700000001
 10
-35.4249930000001
 20
34.82040899999998
 10
-35.31484000000001
 20
35.10000000000002
 10
-35.22017699999992
 20
35.39404999999999
 10
-35.14172299999997
 20
35.70032300000003
 10
-35.08007399999997
 20
36.01648699999998
 10
-35.0357019999999
 20
36.34013600000004
 10
-35.00894299999982
 20
36.66880800000001
 10
-35.0
 20
37.0
 10
-35.00894299999982
 20
37.33119099999999
 10
-35.0357019999999
 20
37.65986299999998
 10
-35.08007399999997
 20
37.98351200000003
 10
-35.14172299999997
 20
38.29967599999998
 10
-35.22017699999992
 20
38.60594900000001
 10
-35.31484000000001
 20
38.89999999999998
 10
-35.4249930000001
 20
39.17958999999996
 10
-35.54979599999979
 20
39.44259199999999
 10
-35.68829899999992
 20
39.687005
 10
-35.83944900000006
 20
39.91096800000003
 10
-36.00209599999971
 20
40.11277700000005
 10
-36.17499999999973
 20
40.29089599999998
 10
-36.35684700000002
 20
40.44396900000004
 10
-36.54625299999998
 20
40.57083099999998
 10
-36.74177499999996
 20
40.670518
 10
-36.94192699999985
 20
40.74226899999996
 10
-37.14518399999997
 20
40.78553900000001
 10
-37.3499999999999
 20
40.8
 10
-37.55481599999985
 20
40.78553900000001
 10
-37.75807299999997
 20
40.74226899999996
 10
-37.95822499999986
 20
40.670518
 10
-38.15374799999995
 20
40.57083099999998
 10
-38.3431529999998
 20
40.44396900000004
 10
-38.52499999999987
 20
40.29089599999998
 10
-38.69790499999999
 20
40.11277700000005
 10
-38.860551
 20
39.91096800000003
 10
-39.0117009999999
 20
39.687005
 10
-39.15020499999992
 20
39.44259199999999
 10
-39.27500699999996
 20
39.17958999999996
 10
-39.38515999999982
 20
38.89999999999998
 10
-39.4798229999999
 20
38.60594900000001
 10
-39.55827799999998
 20
38.29967599999998
 10
-39.61992599999985
 20
37.98351200000003
 10
-39.66429799999993
 20
37.65986299999998
 10
-39.69105799999989
 20
37.33119099999999
 10
-39.69999999999982
 20
37.0
 10
-39.69105799999989
 20
36.66880800000001
 10
-39.66429799999993
 20
36.34013600000004
 10
-39.61992599999985
 20
36.01648699999998
 10
-39.55827799999998
 20
35.70032300000003
 10
-39.4798229999999
 20
35.39404999999999
 10
-39.38515999999982
 20
35.10000000000002
 10
-39.27500699999996
 20
34.82040899999998
 10
-39.15020499999992
 20
34.55740700000001
 10
-39.0117009999999
 20
34.312994
 10
-38.860551
 20
34.08903099999998
 10
-38.69790499999999
 20
33.88722200000007
 10
-38.52499999999987
 20
33.70910300000004
 10
-38.3431529999998
 20
33.55602999999997
 10
-38.15374799999995
 20
33.42916800000001
 10
-37.95822499999986
 20
33.32948099999999
 10
-37.75807299999997
 20
33.25772999999998
 10
-37.55481599999985
 20
33.21446000000003
 10
-37.3499999999999
 20
33.20000000000006
  0
LINE
  5
444F
330
442A
100
AcDbEntity
  8
AM_0 外形線1
100
AcDbLine
 10
-45.49999999999999
 20
31.5
 30
0.0
 11
-45.49999999999999
 21
35.0
 31
0.0
  0
ARC
  5
4450
330
442A
100
AcDbEntity
  8
AM_0 外形線1
100
AcDbCircle
 10
-39.19999999999982
 20
33.70000000000004
 30
0.0
 40
0.5
100
AcDbArc
 50
180.0
 51
270.0
  0
LINE
  5
4451
330
442A
100
AcDbEntity
  8
AM_0 外形線1
100
AcDbLine
 10
-46.0
 20
24.0
 30
0.0
 11
-45.49999999999999
 21
24.0
 31
0.0
  0
LINE
  5
4452
330
442A
100
AcDbEntity
  8
AM_0 外形線1
100
AcDbLine
 10
-39.90796411745396
 20
27.85000000000002
 30
0.0
 11
-41.4499999999998
 21
27.85000000000002
 31
0.0
  0
LINE
  5
4453
330
442A
100
AcDbEntity
  8
AM_4 細線
100
AcDbLine
 10
-39.96208327902832
 20
27.5
 30
0.0
 11
-41.79999999999995
 21
27.5
 31
0.0
  0
LINE
  5
4454
330
442A
100
AcDbEntity
  8
AM_3 隠れ線
100
AcDbLine
 10
-37.79999999999973
 20
27.5
 30
0.0
 11
-39.96208327902832
 21
27.5
 31
0.0
  0
LINE
  5
4455
330
442A
100
AcDbEntity
  8
AM_3 隠れ線
100
AcDbLine
 10
-38.14999999999987
 20
27.85000000000002
 30
0.0
 11
-39.90796411745396
 21
27.85000000000002
 31
0.0
  0
LINE
  5
4456
330
442A
100
AcDbEntity
  8
AM_0 外形線1
100
AcDbLine
 10
-45.49999999999999
 20
24.0
 30
0.0
 11
-45.49999999999999
 21
27.5
 31
0.0
  0
LINE
  5
4457
330
442A
100
AcDbEntity
  8
AM_3 隠れ線
100
AcDbLine
 10
-38.29999999999973
 20
28.0
 30
0.0
 11
-37.79999999999973
 21
27.5
 31
0.0
  0
LINE
  5
4458
330
442A
100
AcDbEntity
  8
AM_0 外形線1
100
AcDbLine
 10
-41.0
 20
30.0
 30
0.0
 11
-41.0
 21
29.0
 31
0.0
  0
ARC
  5
4459
330
442A
100
AcDbEntity
  8
AM_0 外形線1
100
AcDbCircle
 10
-40.0
 20
29.0
 30
0.0
 40
1.0
100
AcDbArc
 50
180.0
 51
270.0
  0
LINE
  5
445A
330
442A
100
AcDbEntity
  8
AM_3 隠れ線
100
AcDbLine
 10
-39.88380800000005
 20
28.0
 30
0.0
 11
-38.29999999999973
 21
28.0
 31
0.0
  0
ARC
  5
445B
330
442A
100
AcDbEntity
  8
AM_0 外形線1
100
AcDbCircle
 10
-40.0
 20
30.0
 30
0.0
 40
1.0
100
AcDbArc
 50
90.0
 51
180.0
  0
LINE
  5
445C
330
442A
100
AcDbEntity
  8
AM_0 外形線1
100
AcDbLine
 10
-46.0
 20
35.0
 30
0.0
 11
-45.49999999999999
 21
35.0
 31
0.0
  0
ARC
  5
445D
330
442A
100
AcDbEntity
  8
AM_0 外形線1
100
AcDbCircle
 10
-43.0
 20
40.0
 30
0.0
 40
3.0
100
AcDbArc
 50
90.0
 51
180.0
  0
LINE
  5
445E
330
442A
100
AcDbEntity
  8
AM_0 外形線1
100
AcDbLine
 10
-46.0
 20
34.5
 30
0.0
 11
-46.0
 21
40.0
 31
0.0
  0
ARC
  5
445F
330
442A
100
AcDbEntity
  8
AM_0 外形線1
100
AcDbCircle
 10
-39.19999999999982
 20
40.30000000000001
 30
0.0
 40
0.5
100
AcDbArc
 50
90.0
 51
180.0
  0
LINE
  5
4460
330
442A
100
AcDbEntity
  8
AM_0 外形線1
100
AcDbLine
 10
-39.69999999999982
 20
40.30000000000001
 30
0.0
 11
-39.69999999999982
 21
33.70000000000004
 31
0.0
  0
LINE
  5
4461
330
442A
100
AcDbEntity
  8
AM_0 外形線1
100
AcDbLine
 10
-36.0
 20
33.20000000000006
 30
0.0
 11
-36.0
 21
31.0
 31
0.0
  0
LINE
  5
4462
330
442A
100
AcDbEntity
  8
AM_0 外形線1
100
AcDbLine
 10
-36.0
 20
43.0
 30
0.0
 11
-36.0
 21
40.8
 31
0.0
  0
LINE
  5
4463
330
442A
100
AcDbEntity
  8
AM_0 外形線1
100
AcDbLine
 10
46.0
 20
18.0
 30
0.0
 11
46.0
 21
40.0
 31
0.0
  0
LINE
  5
4464
330
442A
100
AcDbEntity
  8
AM_0 外形線1
100
AcDbLine
 10
62.30000000000018
 20
15.0
 30
0.0
 11
0.0
 21
15.0
 31
0.0
  0
ARC
  5
4465
330
442A
100
AcDbEntity
  8
AM_0 外形線1
100
AcDbCircle
 10
49.0
 20
18.0
 30
0.0
 40
3.0
100
AcDbArc
 50
180.0
 51
270.0
  0
LINE
  5
4466
330
442A
100
AcDbEntity
  8
AM_0 外形線1
100
AcDbLine
 10
62.5
 20
0.2000000000000455
 30
0.0
 11
62.5
 21
14.80000000000001
 31
0.0
  0
LINE
  5
4467
330
442A
100
AcDbEntity
  8
AM_0 外形線1
100
AcDbLine
 10
62.30000000000018
 20
0.0
 30
0.0
 11
62.5
 21
0.2000000000000455
 31
0.0
  0
LINE
  5
4468
330
442A
100
AcDbEntity
  8
AM_0 外形線1
100
AcDbLine
 10
62.5
 20
14.80000000000001
 30
0.0
 11
62.30000000000018
 21
15.0
 31
0.0
  0
LINE
  5
4469
330
442A
100
AcDbEntity
  8
AM_0 外形線1
100
AcDbLine
 10
43.0
 20
43.0
 30
0.0
 11
0.0
 21
43.0
 31
0.0
  0
ARC
  5
446A
330
442A
100
AcDbEntity
  8
AM_0 外形線1
100
AcDbCircle
 10
43.0
 20
40.0
 30
0.0
 40
3.0
100
AcDbArc
 50
0.0
 51
90.0
  0
INSERT
  5
446B
330
442A
100
AcDbEntity
  8
AM_0 外形線1
100
AcDbBlockReference
  2
ジュウジマルコネジ
 10
-46.29999999999995
 20
29.5
 30
0.0
  0
LINE
  5
44F1
330
442A
100
AcDbEntity
  8
AM_0 外形線1
100
AcDbLine
 10
62.30000000000018
 20
0.0
 30
0.0
 11
0.0
 21
0.0
 31
0.0
  0
LINE
  5
44F2
330
442A
100
AcDbEntity
  8
AM_0 外形線1
100
AcDbLine
 10
-41.0
 20
3.0
 30
0.0
 11
-45.0
 21
3.0
 31
0.0
  0
ENDBLK
  5
442C
330
442A
100
AcDbEntity
  8
0
100
AcDbBlockEnd
  0
BLOCK
  5
457E
330
457D
100
AcDbEntity
  8
0
100
AcDbBlockBegin
  2
スラストプレ－ト SMVH125
 70
     0
 10
0.0
 20
0.0
 30
0.0
  3
スラストプレ－ト SMVH125
  1

  0
LINE
  5
4580
330
457D
100
AcDbEntity
  8
AM_0 外形線1
100
AcDbLine
 10
0.0
 20
5.5
 30
0.0
 11
-40.0
 21
5.5
 31
0.0
  0
LINE
  5
4581
330
457D
100
AcDbEntity
  8
AM_0 外形線1
100
AcDbLine
 10
-40.0
 20
7.0
 30
0.0
 11
-45.0
 21
7.0
 31
0.0
  0
LINE
  5
4582
330
457D
100
AcDbEntity
  8
AM_0 外形線1
100
AcDbLine
 10
-30.0
 20
1.000000000000055
 30
0.0
 11
-40.49999999999999
 21
1.0
 31
0.0
  0
LINE
  5
4583
330
457D
100
AcDbEntity
  8
AM_0 外形線1
100
AcDbLine
 10
-40.0
 20
5.5
 30
0.0
 11
-40.0
 21
7.0
 31
0.0
  0
LINE
  5
4584
330
457D
100
AcDbEntity
  8
AM_0 外形線1
100
AcDbLine
 10
-40.49999999999999
 20
1.0
 30
0.0
 11
-40.49999999999999
 21
4.0
 31
0.0
  0
LINE
  5
4585
330
457D
100
AcDbEntity
  8
AM_0 外形線1
100
AcDbLine
 10
-40.49999999999999
 20
4.0
 30
0.0
 11
-45.0
 21
4.0
 31
0.0
  0
LINE
  5
4586
330
457D
100
AcDbEntity
  8
AM_0 外形線1
100
AcDbLine
 10
-20.0
 20
1.0
 30
0.0
 11
0.0
 21
1.0
 31
0.0
  0
LINE
  5
4587
330
457D
100
AcDbEntity
  8
AM_0 外形線1
100
AcDbLine
 10
-20.0
 20
1.0
 30
0.0
 11
-20.0
 21
0.0
 31
0.0
  0
ARC
  5
4588
330
457D
100
AcDbEntity
  8
AM_0 外形線1
100
AcDbCircle
 10
-29.0
 20
1.000000000000113
 30
0.0
 40
1.0
100
AcDbArc
 50
180.0
 51
270.0
  0
LINE
  5
4641
330
457D
100
AcDbEntity
  8
AM_0 外形線1
100
AcDbLine
 10
-45.0
 20
4.0
 30
0.0
 11
-45.0
 21
7.0
 31
0.0
  0
LINE
  5
4642
330
457D
100
AcDbEntity
  8
AM_0 外形線1
100
AcDbLine
 10
-29.0
 20
0.0
 30
0.0
 11
-20.0
 21
0.0
 31
0.0
  0
ENDBLK
  5
457F
330
457D
100
AcDbEntity
  8
0
100
AcDbBlockEnd
  0
BLOCK
  5
4981
330
4980
100
AcDbEntity
  8
0
100
AcDbBlockBegin
  2
*D14
 70
     1
 10
0.0
 20
0.0
 30
0.0
  3
*D14
  1

  0
LINE
  5
511E
330
4980
100
AcDbEntity
  8
AM_5 寸法線
 62
     3
100
AcDbLine
 10
290.9075235999999
 20
231.1208128434233
 30
0.0
 11
290.9075235999999
 21
191.8286738320344
 31
0.0
  0
LINE
  5
511F
330
4980
100
AcDbEntity
  8
AM_5 寸法線
 62
     3
100
AcDbLine
 10
360.9075235999998
 20
231.1208128434233
 30
0.0
 11
360.9075235999998
 21
191.8286738320344
 31
0.0
  0
LINE
  5
5120
330
4980
100
AcDbEntity
  8
AM_5 寸法線
 62
     3
100
AcDbLine
 10
294.6575235999999
 20
192.7661738320344
 30
0.0
 11
357.1575235999998
 21
192.7661738320344
 31
0.0
  0
INSERT
  5
5121
330
4980
100
AcDbEntity
  8
AM_5 寸法線
 62
     3
100
AcDbBlockReference
  2
_Open30
 10
290.9075235999999
 20
192.7661738320344
 30
0.0
 41
3.75
 42
3.75
 43
3.75
 50
180.0
  0
INSERT
  5
5122
330
4980
100
AcDbEntity
  8
AM_5 寸法線
 62
     3
100
AcDbBlockReference
  2
_Open30
 10
360.9075235999998
 20
192.7661738320344
 30
0.0
 41
3.75
 42
3.75
 43
3.75
  0
MTEXT
  5
5123
330
4980
100
AcDbEntity
  8
AM_5 寸法線
 62
     3
100
AcDbMText
 10
325.9075235999999
 20
197.6411738320344
 30
0.0
 40
5.25
 41
0.0
 46
0.0
 71
     5
 72
     1
  1
%%c70
  7
SEISA
 73
     1
 44
1.0
  0
POINT
  5
5124
330
4980
100
AcDbEntity
  8
Defpoints
 62
     0
100
AcDbPoint
 10
290.9075235999999
 20
232.0583128434233
 30
0.0
  0
POINT
  5
5125
330
4980
100
AcDbEntity
  8
Defpoints
 62
     0
100
AcDbPoint
 10
360.9075235999998
 20
232.0583128434233
 30
0.0
  0
POINT
  5
5126
330
4980
100
AcDbEntity
  8
Defpoints
 62
     0
100
AcDbPoint
 10
360.9075235999998
 20
192.7661738320344
 30
0.0
  0
ENDBLK
  5
4982
330
4980
100
AcDbEntity
  8
0
100
AcDbBlockEnd
  0
BLOCK
  5
49BA
330
49B9
100
AcDbEntity
  8
0
100
AcDbBlockBegin
  2
*D15
 70
     1
 10
0.0
 20
0.0
 30
0.0
  3
*D15
  1

  0
LINE
  5
5127
330
49B9
100
AcDbEntity
  8
AM_5 寸法線
 62
     3
100
AcDbLine
 10
263.4075235999999
 20
311.7958128434233
 30
0.0
 11
263.4075235999999
 21
431.4958128434233
 31
0.0
  0
LINE
  5
5128
330
49B9
100
AcDbEntity
  8
AM_5 寸法線
 62
     3
100
AcDbLine
 10
388.4075235999998
 20
311.7958128434233
 30
0.0
 11
388.4075235999998
 21
431.4958128434233
 31
0.0
  0
LINE
  5
5129
330
49B9
100
AcDbEntity
  8
AM_5 寸法線
 62
     3
100
AcDbLine
 10
267.1575235999999
 20
430.5583128434233
 30
0.0
 11
384.6575235999998
 21
430.5583128434233
 31
0.0
  0
INSERT
  5
512A
330
49B9
100
AcDbEntity
  8
AM_5 寸法線
 62
     3
100
AcDbBlockReference
  2
_Open30
 10
263.4075235999999
 20
430.5583128434233
 30
0.0
 41
3.75
 42
3.75
 43
3.75
 50
180.0
  0
INSERT
  5
512B
330
49B9
100
AcDbEntity
  8
AM_5 寸法線
 62
     3
100
AcDbBlockReference
  2
_Open30
 10
388.4075235999998
 20
430.5583128434233
 30
0.0
 41
3.75
 42
3.75
 43
3.75
  0
MTEXT
  5
512C
330
49B9
100
AcDbEntity
  8
AM_5 寸法線
 62
     3
100
AcDbMText
 10
325.9075235999999
 20
435.4333128434233
 30
0.0
 40
5.25
 41
0.0
 46
0.0
 71
     5
 72
     1
  1
%%c125
  7
SEISA
 73
     1
 44
1.0
  0
POINT
  5
512D
330
49B9
100
AcDbEntity
  8
Defpoints
 62
     0
100
AcDbPoint
 10
263.4075235999999
 20
310.8583128434233
 30
0.0
  0
POINT
  5
512E
330
49B9
100
AcDbEntity
  8
Defpoints
 62
     0
100
AcDbPoint
 10
388.4075235999998
 20
310.8583128434233
 30
0.0
  0
POINT
  5
512F
330
49B9
100
AcDbEntity
  8
Defpoints
 62
     0
100
AcDbPoint
 10
388.4075235999998
 20
430.5583128434233
 30
0.0
  0
ENDBLK
  5
49BB
330
49B9
100
AcDbEntity
  8
0
100
AcDbBlockEnd
  0
BLOCK
  5
49D2
330
49D1
100
AcDbEntity
  8
0
100
AcDbBlockBegin
  2
*D16
 70
     1
 10
0.0
 20
0.0
 30
0.0
  3
*D16
  1

  0
LINE
  5
5130
330
49D1
100
AcDbEntity
  8
AM_5 寸法線
 62
     3
100
AcDbLine
 10
279.9075235999999
 20
336.9958128434233
 30
0.0
 11
279.9075235999999
 21
416.4958128434233
 31
0.0
  0
LINE
  5
5131
330
49D1
100
AcDbEntity
  8
AM_5 寸法線
 62
     3
100
AcDbLine
 10
371.9075235999998
 20
336.9958128434233
 30
0.0
 11
371.9075235999998
 21
416.4958128434233
 31
0.0
  0
LINE
  5
5132
330
49D1
100
AcDbEntity
  8
AM_5 寸法線
 62
     3
100
AcDbLine
 10
283.6575235999999
 20
415.5583128434233
 30
0.0
 11
368.1575235999998
 21
415.5583128434233
 31
0.0
  0
INSERT
  5
5133
330
49D1
100
AcDbEntity
  8
AM_5 寸法線
 62
     3
100
AcDbBlockReference
  2
_Open30
 10
279.9075235999999
 20
415.5583128434233
 30
0.0
 41
3.75
 42
3.75
 43
3.75
 50
180.0
  0
INSERT
  5
5134
330
49D1
100
AcDbEntity
  8
AM_5 寸法線
 62
     3
100
AcDbBlockReference
  2
_Open30
 10
371.9075235999998
 20
415.5583128434233
 30
0.0
 41
3.75
 42
3.75
 43
3.75
  0
MTEXT
  5
5135
330
49D1
100
AcDbEntity
  8
AM_5 寸法線
 62
     3
100
AcDbMText
 10
325.9075235999999
 20
420.4333128434233
 30
0.0
 40
5.25
 41
0.0
 46
0.0
 71
     5
 72
     1
  1
%%c92
  7
SEISA
 73
     1
 44
1.0
  0
POINT
  5
5136
330
49D1
100
AcDbEntity
  8
Defpoints
 62
     0
100
AcDbPoint
 10
279.9075235999999
 20
336.0583128434233
 30
0.0
  0
POINT
  5
5137
330
49D1
100
AcDbEntity
  8
Defpoints
 62
     0
100
AcDbPoint
 10
371.9075235999998
 20
336.0583128434233
 30
0.0
  0
POINT
  5
5138
330
49D1
100
AcDbEntity
  8
Defpoints
 62
     0
100
AcDbPoint
 10
371.9075235999998
 20
415.5583128434233
 30
0.0
  0
ENDBLK
  5
49D3
330
49D1
100
AcDbEntity
  8
0
100
AcDbBlockEnd
  0
BLOCK
  5
49EA
330
49E9
100
AcDbEntity
  8
0
100
AcDbBlockBegin
  2
*D17
 70
     1
 10
0.0
 20
0.0
 30
0.0
  3
*D17
  1

  0
LINE
  5
5139
330
49E9
100
AcDbEntity
  8
AM_5 寸法線
 62
     3
100
AcDbLine
 10
290.9075235999999
 20
360.9958128434233
 30
0.0
 11
290.9075235999999
 21
401.4958128434233
 31
0.0
  0
LINE
  5
513A
330
49E9
100
AcDbEntity
  8
AM_5 寸法線
 62
     3
100
AcDbLine
 10
360.9075235999998
 20
360.9958128434233
 30
0.0
 11
360.9075235999998
 21
401.4958128434233
 31
0.0
  0
LINE
  5
513B
330
49E9
100
AcDbEntity
  8
AM_5 寸法線
 62
     3
100
AcDbLine
 10
294.6575235999999
 20
400.5583128434233
 30
0.0
 11
357.1575235999998
 21
400.5583128434233
 31
0.0
  0
INSERT
  5
513C
330
49E9
100
AcDbEntity
  8
AM_5 寸法線
 62
     3
100
AcDbBlockReference
  2
_Open30
 10
290.9075235999999
 20
400.5583128434233
 30
0.0
 41
3.75
 42
3.75
 43
3.75
 50
180.0
  0
INSERT
  5
513D
330
49E9
100
AcDbEntity
  8
AM_5 寸法線
 62
     3
100
AcDbBlockReference
  2
_Open30
 10
360.9075235999998
 20
400.5583128434233
 30
0.0
 41
3.75
 42
3.75
 43
3.75
  0
MTEXT
  5
513E
330
49E9
100
AcDbEntity
  8
AM_5 寸法線
 62
     3
100
AcDbMText
 10
325.9075235999999
 20
405.4333128434233
 30
0.0
 40
5.25
 41
0.0
 46
0.0
 71
     5
 72
     1
  1
%%c70
  7
SEISA
 73
     1
 44
1.0
  0
POINT
  5
513F
330
49E9
100
AcDbEntity
  8
Defpoints
 62
     0
100
AcDbPoint
 10
290.9075235999999
 20
360.0583128434233
 30
0.0
  0
POINT
  5
5140
330
49E9
100
AcDbEntity
  8
Defpoints
 62
     0
100
AcDbPoint
 10
360.9075235999998
 20
360.0583128434233
 30
0.0
  0
POINT
  5
5141
330
49E9
100
AcDbEntity
  8
Defpoints
 62
     0
100
AcDbPoint
 10
360.9075235999998
 20
400.5583128434233
 30
0.0
  0
ENDBLK
  5
49EB
330
49E9
100
AcDbEntity
  8
0
100
AcDbBlockEnd
  0
BLOCK
  5
4A27
330
4A26
100
AcDbEntity
  8
0
100
AcDbBlockBegin
  2
*D18
 70
     1
 10
0.0
 20
0.0
 30
0.0
  3
*D18
  1

  0
LINE
  5
5D08
330
4A26
100
AcDbEntity
  8
AM_5 寸法線
 62
     3
100
AcDbLine
 10
314.1338742218477
 20
229.0583128434233
 30
0.0
 11
319.2741826000002
 21
229.0583128434233
 31
0.0
  0
LINE
  5
5D09
330
4A26
100
AcDbEntity
  8
AM_5 寸法線
 62
     3
100
AcDbLine
 10
314.1338742218477
 20
292.0583128434233
 30
0.0
 11
319.2741826000002
 21
292.0583128434233
 31
0.0
  0
LINE
  5
5D0A
330
4A26
100
AcDbEntity
  8
AM_5 寸法線
 62
     3
100
AcDbLine
 10
318.3366826000001
 20
232.8083128434233
 30
0.0
 11
318.3366826000001
 21
288.3083128434233
 31
0.0
  0
MTEXT
  5
5D0B
330
4A26
100
AcDbEntity
  8
AM_5 寸法線
 62
     3
100
AcDbMText
 10
313.3414017468504
 20
243.1688388087059
 30
0.0
 40
5.25
 41
0.0
 46
0.0
 71
     5
 72
     1
  1
63
  7
SEISA
 11
0.0000000000000001
 21
1.0
 31
0.0
 73
     1
 44
1.0
  0
INSERT
  5
5D0C
330
4A26
100
AcDbEntity
  8
AM_5 寸法線
 62
     3
100
AcDbBlockReference
  2
_Open30
 10
318.3366826000001
 20
229.0583128434233
 30
0.0
 41
3.75
 42
3.75
 43
3.75
 50
270.0
  0
INSERT
  5
5D0D
330
4A26
100
AcDbEntity
  8
AM_5 寸法線
 62
     3
100
AcDbBlockReference
  2
_Open30
 10
318.3366826000001
 20
292.0583128434233
 30
0.0
 41
3.75
 42
3.75
 43
3.75
 50
90.0
  0
POINT
  5
5D0E
330
4A26
100
AcDbEntity
  8
Defpoints
 62
     0
100
AcDbPoint
 10
313.1963742218477
 20
229.0583128434233
 30
0.0
  0
POINT
  5
5D0F
330
4A26
100
AcDbEntity
  8
Defpoints
 62
     0
100
AcDbPoint
 10
313.1963742218477
 20
292.0583128434233
 30
0.0
  0
POINT
  5
5D10
330
4A26
100
AcDbEntity
  8
Defpoints
 62
     0
100
AcDbPoint
 10
318.3366826000001
 20
292.0583128434233
 30
0.0
  0
ENDBLK
  5
4A28
330
4A26
100
AcDbEntity
  8
0
100
AcDbBlockEnd
  0
BLOCK
  5
4A3F
330
4A3E
100
AcDbEntity
  8
0
100
AcDbBlockBegin
  2
*D19
 70
     1
 10
0.0
 20
0.0
 30
0.0
  3
*D19
  1

  0
LINE
  5
5B06
330
4A3E
100
AcDbEntity
  8
AM_5 寸法線
 62
     3
100
AcDbLine
 10
315.0713742218477
 20
292.0583128434233
 30
0.0
 11
319.2741826000002
 21
292.0583128434233
 31
0.0
  0
LINE
  5
5B07
330
4A3E
100
AcDbEntity
  8
AM_5 寸法線
 62
     3
100
AcDbLine
 10
315.0713742218477
 20
300.0583128434233
 30
0.0
 11
319.2741826000002
 21
300.0583128434233
 31
0.0
  0
LINE
  5
5B08
330
4A3E
100
AcDbEntity
  8
AM_5 寸法線
 62
     3
100
AcDbLine
 10
318.3366826000001
 20
288.3083128434233
 30
0.0
 11
318.3366826000001
 21
284.5583128434233
 31
0.0
  0
LINE
  5
5B09
330
4A3E
100
AcDbEntity
  8
AM_5 寸法線
 62
     3
100
AcDbLine
 10
318.3366826000001
 20
303.8083128434233
 30
0.0
 11
318.3366826000001
 21
307.5583128434233
 31
0.0
  0
MTEXT
  5
5B0A
330
4A3E
100
AcDbEntity
  8
AM_5 寸法線
 62
     3
100
AcDbMText
 10
312.7295881389932
 20
295.4433584040114
 30
0.0
 40
5.25
 41
0.0
 46
0.0
 71
     5
 72
     1
  1
8
  7
SEISA
 11
0.0000000000000001
 21
1.0
 31
0.0
 73
     1
 44
1.0
  0
LINE
  5
5B0B
330
4A3E
100
AcDbEntity
  8
AM_5 寸法線
 62
     3
100
AcDbLine
 10
318.3366826000001
 20
292.0583128434233
 30
0.0
 11
318.3366826000001
 21
300.0583128434233
 31
0.0
  0
INSERT
  5
5B0C
330
4A3E
100
AcDbEntity
  8
AM_5 寸法線
 62
     3
100
AcDbBlockReference
  2
_Open30
 10
318.3366826000001
 20
292.0583128434233
 30
0.0
 41
3.75
 42
3.75
 43
3.75
 50
90.0
  0
INSERT
  5
5B0D
330
4A3E
100
AcDbEntity
  8
AM_5 寸法線
 62
     3
100
AcDbBlockReference
  2
_Open30
 10
318.3366826000001
 20
300.0583128434233
 30
0.0
 41
3.75
 42
3.75
 43
3.75
 50
270.0
  0
POINT
  5
5B0E
330
4A3E
100
AcDbEntity
  8
Defpoints
 62
     0
100
AcDbPoint
 10
314.1338742218477
 20
292.0583128434233
 30
0.0
  0
POINT
  5
5B0F
330
4A3E
100
AcDbEntity
  8
Defpoints
 62
     0
100
AcDbPoint
 10
314.1338742218477
 20
300.0583128434233
 30
0.0
  0
POINT
  5
5B10
330
4A3E
100
AcDbEntity
  8
Defpoints
 62
     0
100
AcDbPoint
 10
318.3366826000001
 20
300.0583128434233
 30
0.0
  0
ENDBLK
  5
4A40
330
4A3E
100
AcDbEntity
  8
0
100
AcDbBlockEnd
  0
BLOCK
  5
4A5B
330
4A5A
100
AcDbEntity
  8
0
100
AcDbBlockBegin
  2
*D20
 70
     1
 10
0.0
 20
0.0
 30
0.0
  3
*D20
  1

  0
LINE
  5
5156
330
4A5A
100
AcDbEntity
  8
AM_5 寸法線
 62
     3
100
AcDbLine
 10
316.0088742218477
 20
300.0583128434233
 30
0.0
 11
319.2741826000002
 21
300.0583128434233
 31
0.0
  0
LINE
  5
5157
330
4A5A
100
AcDbEntity
  8
AM_5 寸法線
 62
     3
100
AcDbLine
 10
316.0088742218477
 20
363.0583128434233
 30
0.0
 11
319.2741826000002
 21
363.0583128434233
 31
0.0
  0
LINE
  5
5158
330
4A5A
100
AcDbEntity
  8
AM_5 寸法線
 62
     3
100
AcDbLine
 10
318.3366826000001
 20
303.8083128434233
 30
0.0
 11
318.3366826000001
 21
359.3083128434233
 31
0.0
  0
INSERT
  5
5159
330
4A5A
100
AcDbEntity
  8
AM_5 寸法線
 62
     3
100
AcDbBlockReference
  2
_Open30
 10
318.3366826000001
 20
300.0583128434233
 30
0.0
 41
3.75
 42
3.75
 43
3.75
 50
270.0
  0
INSERT
  5
515A
330
4A5A
100
AcDbEntity
  8
AM_5 寸法線
 62
     3
100
AcDbBlockReference
  2
_Open30
 10
318.3366826000001
 20
363.0583128434233
 30
0.0
 41
3.75
 42
3.75
 43
3.75
 50
90.0
  0
MTEXT
  5
515B
330
4A5A
100
AcDbEntity
  8
AM_5 寸法線
 62
     3
100
AcDbMText
 10
313.4616826000002
 20
331.5583128434234
 30
0.0
 40
5.25
 41
0.0
 46
0.0
 71
     5
 72
     1
  1
63
  7
SEISA
 11
0.0000000000000001
 21
1.0
 31
0.0
 73
     1
 44
1.0
  0
POINT
  5
515C
330
4A5A
100
AcDbEntity
  8
Defpoints
 62
     0
100
AcDbPoint
 10
315.0713742218477
 20
300.0583128434233
 30
0.0
  0
POINT
  5
515D
330
4A5A
100
AcDbEntity
  8
Defpoints
 62
     0
100
AcDbPoint
 10
315.0713742218477
 20
363.0583128434233
 30
0.0
  0
POINT
  5
515E
330
4A5A
100
AcDbEntity
  8
Defpoints
 62
     0
100
AcDbPoint
 10
318.3366826000001
 20
363.0583128434233
 30
0.0
  0
ENDBLK
  5
4A5C
330
4A5A
100
AcDbEntity
  8
0
100
AcDbBlockEnd
  0
BLOCK
  5
4A7B
330
4A7A
100
AcDbEntity
  8
0
100
AcDbBlockBegin
  2
*D21
 70
     1
 10
0.0
 20
0.0
 30
0.0
  3
*D21
  1

  0
LINE
  5
515F
330
4A7A
100
AcDbEntity
  8
AM_5 寸法線
 62
     3
100
AcDbLine
 10
291.8450235999999
 20
265.0583128434233
 30
0.0
 11
300.494602694318
 21
265.0583128434233
 31
0.0
  0
LINE
  5
5160
330
4A7A
100
AcDbEntity
  8
AM_5 寸法線
 62
     3
100
AcDbLine
 10
291.3450235999999
 20
267.5583128434233
 30
0.0
 11
300.494602694318
 21
267.5583128434233
 31
0.0
  0
LINE
  5
5161
330
4A7A
100
AcDbEntity
  8
AM_5 寸法線
 62
     3
100
AcDbLine
 10
299.557102694318
 20
271.3083128434233
 30
0.0
 11
299.557102694318
 21
275.0583128434233
 31
0.0
  0
LINE
  5
5162
330
4A7A
100
AcDbEntity
  8
AM_5 寸法線
 62
     3
100
AcDbLine
 10
299.557102694318
 20
261.3083128434233
 30
0.0
 11
299.557102694318
 21
243.1583128434233
 31
0.0
  0
LINE
  5
5163
330
4A7A
100
AcDbEntity
  8
AM_5 寸法線
 62
     3
100
AcDbLine
 10
299.557102694318
 20
267.5583128434233
 30
0.0
 11
299.557102694318
 21
265.0583128434233
 31
0.0
  0
INSERT
  5
5164
330
4A7A
100
AcDbEntity
  8
AM_5 寸法線
 62
     3
100
AcDbBlockReference
  2
_Open30
 10
299.557102694318
 20
267.5583128434233
 30
0.0
 41
3.75
 42
3.75
 43
3.75
 50
270.0
  0
INSERT
  5
5165
330
4A7A
100
AcDbEntity
  8
AM_5 寸法線
 62
     3
100
AcDbBlockReference
  2
_Open30
 10
299.557102694318
 20
265.0583128434233
 30
0.0
 41
3.75
 42
3.75
 43
3.75
 50
90.0
  0
MTEXT
  5
5166
330
4A7A
100
AcDbEntity
  8
AM_5 寸法線
 62
     3
100
AcDbMText
 10
294.682102694318
 20
250.3583128434234
 30
0.0
 40
5.25
 41
0.0
 46
0.0
 71
     5
 72
     1
  1
2.5
  7
SEISA
 11
0.0000000000000001
 21
1.0
 31
0.0
 73
     1
 44
1.0
  0
POINT
  5
5167
330
4A7A
100
AcDbEntity
  8
Defpoints
 62
     0
100
AcDbPoint
 10
290.9075235999999
 20
265.0583128434233
 30
0.0
  0
POINT
  5
5168
102
{ACAD_REACTORS
330
5CAE
102
}
330
4A7A
100
AcDbEntity
  8
Defpoints
 62
     0
100
AcDbPoint
 10
290.4075235999999
 20
267.5583128434233
 30
0.0
  0
POINT
  5
5169
330
4A7A
100
AcDbEntity
  8
Defpoints
 62
     0
100
AcDbPoint
 10
299.557102694318
 20
267.5583128434233
 30
0.0
  0
ENDBLK
  5
4A7C
330
4A7A
100
AcDbEntity
  8
0
100
AcDbBlockEnd
  0
BLOCK
  5
4EAB
330
4EAA
100
AcDbEntity
  8
0
100
AcDbBlockBegin
  2
*D22
 70
     1
 10
0.0
 20
0.0
 30
0.0
  3
*D22
  1

  0
LINE
  5
5B70
330
4EAA
100
AcDbEntity
  8
AM_5 寸法線
 62
     3
100
AcDbLine
 10
389.1450236000002
 20
281.0583128434233
 30
0.0
 11
411.8450235999998
 21
281.0583128434233
 31
0.0
  0
LINE
  5
5B71
330
4EAA
100
AcDbEntity
  8
AM_5 寸法線
 62
     3
100
AcDbLine
 10
389.1450236000002
 20
296.0583128434233
 30
0.0
 11
411.8450235999998
 21
296.0583128434233
 31
0.0
  0
LINE
  5
5B72
330
4EAA
100
AcDbEntity
  8
AM_5 寸法線
 62
     3
100
AcDbLine
 10
410.9075235999998
 20
284.8083128434233
 30
0.0
 11
410.9075235999998
 21
292.3083128434233
 31
0.0
  0
INSERT
  5
5B73
330
4EAA
100
AcDbEntity
  8
AM_5 寸法線
 62
     3
100
AcDbBlockReference
  2
_Open30
 10
410.9075235999998
 20
281.0583128434233
 30
0.0
 41
3.75
 42
3.75
 43
3.75
 50
270.0
  0
INSERT
  5
5B74
330
4EAA
100
AcDbEntity
  8
AM_5 寸法線
 62
     3
100
AcDbBlockReference
  2
GENDOT
 10
410.9075235999998
 20
296.0583128434233
 30
0.0
 41
3.75
 42
3.75
 43
3.75
 50
90.0
  0
MTEXT
  5
5B75
330
4EAA
100
AcDbEntity
  8
AM_5 寸法線
 62
     3
100
AcDbMText
 10
406.0325235999997
 20
288.5583128434234
 30
0.0
 40
5.25
 41
0.0
 46
0.0
 71
     5
 72
     1
  1
15
  7
SEISA
 11
0.0000000000000001
 21
1.0
 31
0.0
 73
     1
 44
1.0
  0
POINT
  5
5B76
330
4EAA
100
AcDbEntity
  8
Defpoints
 62
     0
100
AcDbPoint
 10
388.2075236000002
 20
281.0583128434233
 30
0.0
  0
POINT
  5
5B77
330
4EAA
100
AcDbEntity
  8
Defpoints
 62
     0
100
AcDbPoint
 10
388.2075236000002
 20
296.0583128434233
 30
0.0
  0
POINT
  5
5B78
330
4EAA
100
AcDbEntity
  8
Defpoints
 62
     0
100
AcDbPoint
 10
410.9075235999998
 20
296.0583128434233
 30
0.0
  0
ENDBLK
  5
4EAC
330
4EAA
100
AcDbEntity
  8
0
100
AcDbBlockEnd
  0
BLOCK
  5
4EC3
330
4EC2
100
AcDbEntity
  8
0
100
AcDbBlockBegin
  2
*D23
 70
     1
 10
0.0
 20
0.0
 30
0.0
  3
*D23
  1

  0
LINE
  5
5B82
330
4EC2
100
AcDbEntity
  8
AM_5 寸法線
 62
     3
100
AcDbLine
 10
389.1450236000002
 20
296.0583128434233
 30
0.0
 11
411.8450235999998
 21
296.0583128434233
 31
0.0
  0
LINE
  5
5B83
330
4EC2
100
AcDbEntity
  8
AM_5 寸法線
 62
     3
100
AcDbLine
 10
389.1450236000002
 20
311.0583128434233
 30
0.0
 11
411.8450235999998
 21
311.0583128434233
 31
0.0
  0
LINE
  5
5B84
330
4EC2
100
AcDbEntity
  8
AM_5 寸法線
 62
     3
100
AcDbLine
 10
410.9075235999998
 20
299.8083128434233
 30
0.0
 11
410.9075235999998
 21
307.3083128434233
 31
0.0
  0
INSERT
  5
5B85
330
4EC2
100
AcDbEntity
  8
AM_5 寸法線
 62
     3
100
AcDbBlockReference
  2
GENDOT
 10
410.9075235999998
 20
296.0583128434233
 30
0.0
 41
3.75
 42
3.75
 43
3.75
 50
270.0
  0
INSERT
  5
5B86
330
4EC2
100
AcDbEntity
  8
AM_5 寸法線
 62
     3
100
AcDbBlockReference
  2
_Open30
 10
410.9075235999998
 20
311.0583128434233
 30
0.0
 41
3.75
 42
3.75
 43
3.75
 50
90.0
  0
MTEXT
  5
5B87
330
4EC2
100
AcDbEntity
  8
AM_5 寸法線
 62
     3
100
AcDbMText
 10
406.0325235999997
 20
303.5583128434234
 30
0.0
 40
5.25
 41
0.0
 46
0.0
 71
     5
 72
     1
  1
15
  7
SEISA
 11
0.0000000000000001
 21
1.0
 31
0.0
 73
     1
 44
1.0
  0
POINT
  5
5B88
330
4EC2
100
AcDbEntity
  8
Defpoints
 62
     0
100
AcDbPoint
 10
388.2075236000002
 20
296.0583128434233
 30
0.0
  0
POINT
  5
5B89
330
4EC2
100
AcDbEntity
  8
Defpoints
 62
     0
100
AcDbPoint
 10
388.2075236000002
 20
311.0583128434233
 30
0.0
  0
POINT
  5
5B8A
330
4EC2
100
AcDbEntity
  8
Defpoints
 62
     0
100
AcDbPoint
 10
410.9075235999998
 20
311.0583128434233
 30
0.0
  0
ENDBLK
  5
4EC4
330
4EC2
100
AcDbEntity
  8
0
100
AcDbBlockEnd
  0
BLOCK
  5
4EDB
330
4EDA
100
AcDbEntity
  8
0
100
AcDbBlockBegin
  2
*D24
 70
     1
 10
0.0
 20
0.0
 30
0.0
  3
*D24
  1

  0
LINE
  5
5E8B
330
4EDA
100
AcDbEntity
  8
AM_5 寸法線
 62
     3
100
AcDbLine
 10
369.8450235999998
 20
253.0583128434233
 30
0.0
 11
426.8450235999998
 21
253.0583128434233
 31
0.0
  0
LINE
  5
5E8C
330
4EDA
100
AcDbEntity
  8
AM_5 寸法線
 62
     3
100
AcDbLine
 10
369.8450235999998
 20
339.0583128434233
 30
0.0
 11
426.8450235999998
 21
339.0583128434233
 31
0.0
  0
LINE
  5
5E8D
330
4EDA
100
AcDbEntity
  8
AM_5 寸法線
 62
     3
100
AcDbLine
 10
425.9075235999998
 20
256.8083128434233
 30
0.0
 11
425.9075235999998
 21
335.3083128434233
 31
0.0
  0
INSERT
  5
5E8E
330
4EDA
100
AcDbEntity
  8
AM_5 寸法線
 62
     3
100
AcDbBlockReference
  2
_Open30
 10
425.9075235999998
 20
253.0583128434233
 30
0.0
 41
3.75
 42
3.75
 43
3.75
 50
270.0
  0
INSERT
  5
5E8F
330
4EDA
100
AcDbEntity
  8
AM_5 寸法線
 62
     3
100
AcDbBlockReference
  2
_Open30
 10
425.9075235999998
 20
339.0583128434233
 30
0.0
 41
3.75
 42
3.75
 43
3.75
 50
90.0
  0
MTEXT
  5
5E90
330
4EDA
100
AcDbEntity
  8
AM_5 寸法線
 62
     3
100
AcDbMText
 10
421.0325235999998
 20
296.0583128434235
 30
0.0
 40
5.25
 41
0.0
 46
0.0
 71
     5
 72
     1
  1
86
  7
SEISA
 11
0.0000000000000001
 21
1.0
 31
0.0
 73
     1
 44
1.0
  0
POINT
  5
5E91
330
4EDA
100
AcDbEntity
  8
Defpoints
 62
     0
100
AcDbPoint
 10
368.9075235999998
 20
253.0583128434233
 30
0.0
  0
POINT
  5
5E92
330
4EDA
100
AcDbEntity
  8
Defpoints
 62
     0
100
AcDbPoint
 10
368.9075235999998
 20
339.0583128434233
 30
0.0
  0
POINT
  5
5E93
330
4EDA
100
AcDbEntity
  8
Defpoints
 62
     0
100
AcDbPoint
 10
425.9075235999998
 20
339.0583128434233
 30
0.0
  0
ENDBLK
  5
4EDC
330
4EDA
100
AcDbEntity
  8
0
100
AcDbBlockEnd
  0
BLOCK
  5
4FDF
330
4FDE
100
AcDbEntity
  8
0
100
AcDbBlockBegin
  2
*D25
 70
     1
 10
0.0
 20
0.0
 30
0.0
  3
*D25
  1

  0
LINE
  5
51FE
330
4FDE
100
AcDbEntity
  8
AM_5 寸法線
 62
     3
100
AcDbLine
 10
358.8450235999998
 20
229.0583128434233
 30
0.0
 11
441.8450235999998
 21
229.0583128434233
 31
0.0
  0
LINE
  5
51FF
330
4FDE
100
AcDbEntity
  8
AM_5 寸法線
 62
     3
100
AcDbLine
 10
358.8450235999998
 20
363.0583128434233
 30
0.0
 11
441.8450235999998
 21
363.0583128434233
 31
0.0
  0
LINE
  5
5200
330
4FDE
100
AcDbEntity
  8
AM_5 寸法線
 62
     3
100
AcDbLine
 10
440.9075235999998
 20
232.8083128434233
 30
0.0
 11
440.9075235999998
 21
359.3083128434233
 31
0.0
  0
INSERT
  5
5201
330
4FDE
100
AcDbEntity
  8
AM_5 寸法線
 62
     3
100
AcDbBlockReference
  2
_Open30
 10
440.9075235999998
 20
229.0583128434233
 30
0.0
 41
3.75
 42
3.75
 43
3.75
 50
270.0
  0
INSERT
  5
5202
330
4FDE
100
AcDbEntity
  8
AM_5 寸法線
 62
     3
100
AcDbBlockReference
  2
_Open30
 10
440.9075235999998
 20
363.0583128434233
 30
0.0
 41
3.75
 42
3.75
 43
3.75
 50
90.0
  0
MTEXT
  5
5203
330
4FDE
100
AcDbEntity
  8
AM_5 寸法線
 62
     3
100
AcDbMText
 10
436.0325235999998
 20
296.0583128434234
 30
0.0
 40
5.25
 41
0.0
 46
0.0
 71
     5
 72
     1
  1
134
  7
SEISA
 11
0.0000000000000001
 21
1.0
 31
0.0
 73
     1
 44
1.0
  0
POINT
  5
5204
330
4FDE
100
AcDbEntity
  8
Defpoints
 62
     0
100
AcDbPoint
 10
357.9075235999998
 20
229.0583128434233
 30
0.0
  0
POINT
  5
5205
330
4FDE
100
AcDbEntity
  8
Defpoints
 62
     0
100
AcDbPoint
 10
357.9075235999998
 20
363.0583128434233
 30
0.0
  0
POINT
  5
5206
330
4FDE
100
AcDbEntity
  8
Defpoints
 62
     0
100
AcDbPoint
 10
440.9075235999998
 20
363.0583128434233
 30
0.0
  0
ENDBLK
  5
4FE0
330
4FDE
100
AcDbEntity
  8
0
100
AcDbBlockEnd
  0
BLOCK
  5
5CA1
330
5CA0
100
AcDbEntity
  8
0
100
AcDbBlockBegin
  2
*D26
 70
     1
 10
0.0
 20
0.0
 30
0.0
  3
*D26
  1

  0
LINE
  5
5D6D
330
5CA0
100
AcDbEntity
  8
AM_5 寸法線
 62
     3
100
AcDbLine
 10
291.3450235999999
 20
267.5583128434233
 30
0.0
 11
300.4946026943181
 21
267.5583128434233
 31
0.0
  0
LINE
  5
5D6E
330
5CA0
100
AcDbEntity
  8
AM_5 寸法線
 62
     3
100
AcDbLine
 10
291.3450235999999
 20
280.0583128434233
 30
0.0
 11
300.4946026943181
 21
280.0583128434233
 31
0.0
  0
LINE
  5
5D6F
330
5CA0
100
AcDbEntity
  8
AM_5 寸法線
 62
     3
100
AcDbLine
 10
299.5571026943181
 20
271.3083128434233
 30
0.0
 11
299.5571026943181
 21
276.3083128434233
 31
0.0
  0
LINE
  5
5D70
330
5CA0
100
AcDbEntity
  8
AM_5 寸法線
 62
     3
100
AcDbLine
 10
299.5571026943181
 20
273.8083128434233
 30
0.0
 11
317.4420224266729
 21
275.0657901454187
 31
0.0
  0
LINE
  5
5D71
330
5CA0
100
AcDbEntity
  8
AM_5 寸法線
 62
     3
100
AcDbLine
 10
317.4420224266729
 20
275.0657901454187
 30
0.0
 11
317.4420224266729
 21
256.8407901454187
 31
0.0
  0
MTEXT
  5
5D72
330
5CA0
100
AcDbEntity
  8
AM_5 寸法線
 62
     3
100
AcDbMText
 10
312.5670224266728
 20
265.9532901454188
 30
0.0
 40
5.25
 41
0.0
 46
0.0
 71
     5
 72
     1
  1
12.5
  7
SEISA
 11
0.0000000000000001
 21
1.0
 31
0.0
 73
     1
 44
1.0
  0
INSERT
  5
5D73
330
5CA0
100
AcDbEntity
  8
AM_5 寸法線
 62
     3
100
AcDbBlockReference
  2
_Open30
 10
299.5571026943181
 20
267.5583128434233
 30
0.0
 41
3.75
 42
3.75
 43
3.75
 50
270.0
  0
INSERT
  5
5D74
330
5CA0
100
AcDbEntity
  8
AM_5 寸法線
 62
     3
100
AcDbBlockReference
  2
_Open30
 10
299.5571026943181
 20
280.0583128434233
 30
0.0
 41
3.75
 42
3.75
 43
3.75
 50
90.0
  0
POINT
  5
5D75
330
5CA0
100
AcDbEntity
  8
Defpoints
 62
     0
100
AcDbPoint
 10
290.4075235999999
 20
267.5583128434233
 30
0.0
  0
POINT
  5
5D76
330
5CA0
100
AcDbEntity
  8
Defpoints
 62
     0
100
AcDbPoint
 10
290.4075235999999
 20
280.0583128434233
 30
0.0
  0
POINT
  5
5D77
330
5CA0
100
AcDbEntity
  8
Defpoints
 62
     0
100
AcDbPoint
 10
299.5571026943181
 20
280.0583128434233
 30
0.0
  0
ENDBLK
  5
5CA2
330
5CA0
100
AcDbEntity
  8
0
100
AcDbBlockEnd
  0
BLOCK
  5
5CCF
330
5CCE
100
AcDbEntity
  8
0
100
AcDbBlockBegin
  2
*D27
 70
     1
 10
0.0
 20
0.0
 30
0.0
  3
*D27
  1

  0
LINE
  5
5D43
330
5CCE
100
AcDbEntity
  8
AM_5 寸法線
 62
     3
100
AcDbLine
 10
291.3450235999999
 20
280.0583128434233
 30
0.0
 11
300.4946026943183
 21
280.0583128434233
 31
0.0
  0
LINE
  5
5D44
330
5CCE
100
AcDbEntity
  8
AM_5 寸法線
 62
     3
100
AcDbLine
 10
292.3450235999999
 20
292.0583128434233
 30
0.0
 11
300.4946026943183
 21
292.0583128434233
 31
0.0
  0
LINE
  5
5D45
330
5CCE
100
AcDbEntity
  8
AM_5 寸法線
 62
     3
100
AcDbLine
 10
299.5571026943182
 20
283.8083128434233
 30
0.0
 11
299.5571026943182
 21
288.3083128434233
 31
0.0
  0
MTEXT
  5
5D46
330
5CCE
100
AcDbEntity
  8
AM_5 寸法線
 62
     3
100
AcDbMText
 10
295.389903179308
 20
285.7502197497422
 30
0.0
 40
5.25
 41
0.0
 46
0.0
 71
     5
 72
     1
  1
12
  7
SEISA
 11
0.0000000000000001
 21
1.0
 31
0.0
 73
     1
 44
1.0
  0
INSERT
  5
5D47
330
5CCE
100
AcDbEntity
  8
AM_5 寸法線
 62
     3
100
AcDbBlockReference
  2
_Open30
 10
299.5571026943182
 20
280.0583128434233
 30
0.0
 41
3.75
 42
3.75
 43
3.75
 50
270.0
  0
INSERT
  5
5D48
330
5CCE
100
AcDbEntity
  8
AM_5 寸法線
 62
     3
100
AcDbBlockReference
  2
_Open30
 10
299.5571026943182
 20
292.0583128434233
 30
0.0
 41
3.75
 42
3.75
 43
3.75
 50
90.0
  0
POINT
  5
5D49
330
5CCE
100
AcDbEntity
  8
Defpoints
 62
     0
100
AcDbPoint
 10
290.4075235999999
 20
280.0583128434233
 30
0.0
  0
POINT
  5
5D4A
330
5CCE
100
AcDbEntity
  8
Defpoints
 62
     0
100
AcDbPoint
 10
291.4075235999998
 20
292.0583128434233
 30
0.0
  0
POINT
  5
5D4B
330
5CCE
100
AcDbEntity
  8
Defpoints
 62
     0
100
AcDbPoint
 10
299.5571026943182
 20
292.0583128434233
 30
0.0
  0
ENDBLK
  5
5CD0
330
5CCE
100
AcDbEntity
  8
0
100
AcDbBlockEnd
  0
BLOCK
  5
5E24
330
5E23
100
AcDbEntity
  8
0
100
AcDbBlockBegin
  2
*D28
 70
     1
 10
0.0
 20
0.0
 30
0.0
  3
*D28
  1

  0
LINE
  5
5E49
330
5E23
100
AcDbEntity
  8
AM_5 寸法線
 62
     3
100
AcDbLine
 10
292.9700235999998
 20
229.0583128434233
 30
0.0
 11
259.4700235999999
 21
229.0583128434233
 31
0.0
  0
LINE
  5
5E4A
330
5E23
100
AcDbEntity
  8
AM_5 寸法線
 62
     3
100
AcDbLine
 10
281.9700235999999
 20
222.0583128434233
 30
0.0
 11
259.4700235999999
 21
222.0583128434233
 31
0.0
  0
LINE
  5
5E4B
330
5E23
100
AcDbEntity
  8
AM_5 寸法線
 62
     3
100
AcDbLine
 10
260.4075235999999
 20
232.8083128434233
 30
0.0
 11
260.4075235999999
 21
236.5583128434233
 31
0.0
  0
LINE
  5
5E4C
330
5E23
100
AcDbEntity
  8
AM_5 寸法線
 62
     3
100
AcDbLine
 10
260.4075235999999
 20
218.3083128434233
 30
0.0
 11
260.4075235999999
 21
206.9083128434233
 31
0.0
  0
LINE
  5
5E4D
330
5E23
100
AcDbEntity
  8
AM_5 寸法線
 62
     3
100
AcDbLine
 10
260.4075235999999
 20
229.0583128434233
 30
0.0
 11
260.4075235999999
 21
222.0583128434233
 31
0.0
  0
INSERT
  5
5E4E
330
5E23
100
AcDbEntity
  8
AM_5 寸法線
 62
     3
100
AcDbBlockReference
  2
_Open30
 10
260.4075235999999
 20
229.0583128434233
 30
0.0
 41
3.75
 42
3.75
 43
3.75
 50
270.0
  0
INSERT
  5
5E4F
330
5E23
100
AcDbEntity
  8
AM_5 寸法線
 62
     3
100
AcDbBlockReference
  2
_Open30
 10
260.4075235999999
 20
222.0583128434233
 30
0.0
 41
3.75
 42
3.75
 43
3.75
 50
90.0
  0
MTEXT
  5
5E50
330
5E23
100
AcDbEntity
  8
AM_5 寸法線
 62
     3
100
AcDbMText
 10
255.5325235999998
 20
210.7333128434234
 30
0.0
 40
5.25
 41
0.0
 46
0.0
 71
     5
 72
     1
  1
7
  7
SEISA
 11
0.0000000000000001
 21
1.0
 31
0.0
 73
     1
 44
1.0
  0
POINT
  5
5E51
330
5E23
100
AcDbEntity
  8
Defpoints
 62
     0
100
AcDbPoint
 10
293.9075235999999
 20
229.0583128434233
 30
0.0
  0
POINT
  5
5E52
330
5E23
100
AcDbEntity
  8
Defpoints
 62
     0
100
AcDbPoint
 10
282.9075235999999
 20
222.0583128434233
 30
0.0
  0
POINT
  5
5E53
330
5E23
100
AcDbEntity
  8
Defpoints
 62
     0
100
AcDbPoint
 10
260.4075235999999
 20
222.0583128434233
 30
0.0
  0
ENDBLK
  5
5E25
330
5E23
100
AcDbEntity
  8
0
100
AcDbBlockEnd
  0
BLOCK
  5
5FCA
330
5FC9
100
AcDbEntity
  8
0
100
AcDbBlockBegin
  2
ケース
 70
     0
 10
0.0
 20
0.0
 30
0.0
  3
ケース
  1

  0
LINE
  5
5FCC
330
5FC9
100
AcDbEntity
  8
AM_11 想像線
 48
0.1
100
AcDbLine
 10
6.0
 20
-8.433606392290812
 30
0.0
 11
6.116191999999954
 21
-8.433606392290812
 31
0.0
  0
ARC
  5
5FCD
330
5FC9
100
AcDbEntity
  8
AM_11 想像線
 48
0.1
100
AcDbCircle
 10
6.0
 20
-9.433606392290812
 30
0.0
 40
1.0
100
AcDbArc
 50
90.0
 51
180.0
  0
LINE
  5
5FCE
330
5FC9
100
AcDbEntity
  8
AM_11 想像線
 48
0.1
100
AcDbLine
 10
0.0
 20
0.0
 30
0.0
 11
0.0
 21
-20.43360639229081
 31
0.0
  0
LINE
  5
5FCF
330
5FC9
100
AcDbEntity
  8
AM_11 想像線
 48
0.1
100
AcDbLine
 10
7.0
 20
0.0
 30
0.0
 11
7.0
 21
-10.14271039229083
 31
0.0
  0
LINE
  5
5FD0
330
5FC9
100
AcDbEntity
  8
AM_11 想像線
 48
0.1
100
AcDbLine
 10
11.0
 20
-21.23360639229077
 30
0.0
 11
6.800000000000181
 21
-21.23360639229077
 31
0.0
  0
LINE
  5
5FD1
330
5FC9
100
AcDbEntity
  8
AM_11 想像線
 48
0.1
100
AcDbLine
 10
6.800000000000181
 20
-13.6336063922908
 30
0.0
 11
11.0
 21
-13.6336063922908
 31
0.0
  0
LINE
  5
5FD2
330
5FC9
100
AcDbEntity
  8
AM_11 想像線
 48
0.1
100
AcDbLine
 10
11.0
 20
-11.43360639229081
 30
0.0
 11
6.0
 21
-11.43360639229081
 31
0.0
  0
LINE
  5
5FD3
102
{ACAD_REACTORS
330
5E32
102
}
330
5FC9
100
AcDbEntity
  8
AM_11 想像線
 48
0.1
100
AcDbLine
 10
3.0
 20
-23.4336063922908
 30
0.0
 11
11.0
 21
-23.4336063922908
 31
0.0
  0
ARC
  5
5FD4
330
5FC9
100
AcDbEntity
  8
AM_11 想像線
 48
0.1
100
AcDbCircle
 10
6.800000000000181
 20
-20.73360639229077
 30
0.0
 40
0.5
100
AcDbArc
 50
180.0
 51
270.0
  0
ARC
  5
5FD5
330
5FC9
100
AcDbEntity
  8
AM_11 想像線
 48
0.1
100
AcDbCircle
 10
3.0
 20
-20.43360639229081
 30
0.0
 40
3.0
100
AcDbArc
 50
180.0
 51
270.0
  0
LINE
  5
5FD6
330
5FC9
100
AcDbEntity
  8
AM_11 想像線
 48
0.1
100
AcDbLine
 10
6.300000000000181
 20
-20.73360639229077
 30
0.0
 11
6.300000000000181
 21
-14.1336063922908
 31
0.0
  0
ARC
  5
5FD7
330
5FC9
100
AcDbEntity
  8
AM_11 想像線
 48
0.1
100
AcDbCircle
 10
6.800000000000181
 20
-14.1336063922908
 30
0.0
 40
0.5
100
AcDbArc
 50
90.0
 51
180.0
  0
ARC
  5
5FD8
330
5FC9
100
AcDbEntity
  8
AM_11 想像線
 48
0.1
100
AcDbCircle
 10
6.0
 20
-10.43360639229081
 30
0.0
 40
1.0
100
AcDbArc
 50
180.0
 51
270.0
  0
LINE
  5
5FD9
330
5FC9
100
AcDbEntity
  8
AM_11 想像線
 48
0.1
100
AcDbLine
 10
5.0
 20
-10.43360639229081
 30
0.0
 11
5.0
 21
-9.433606392290812
 31
0.0
  0
LINE
  5
5FDA
330
5FC9
100
AcDbEntity
  8
AM_11 想像線
 48
0.1
100
AcDbLine
 10
10.0
 20
-23.4336063922908
 30
0.0
 11
10.0
 21
-21.23360639229077
 31
0.0
  0
LINE
  5
5FDB
330
5FC9
100
AcDbEntity
  8
AM_11 想像線
 48
0.1
100
AcDbLine
 10
10.0
 20
-13.6336063922908
 30
0.0
 11
10.0
 21
-11.43360639229081
 31
0.0
  0
LINE
  5
5FDC
330
5FC9
100
AcDbEntity
  8
AM_11 想像線
 48
0.1
100
AcDbLine
 10
5.5
 20
0.0
 30
0.0
 11
5.5
 21
-8.567581392290776
 31
0.0
  0
LINE
  5
5FDD
330
5FC9
100
AcDbEntity
  8
AM_11 想像線
 48
0.1
100
AcDbLine
 10
8.200000000000272
 20
-7.933606392290812
 30
0.0
 11
8.200000000000272
 21
0.0
 31
0.0
  0
LINE
  5
5FDE
330
5FC9
100
AcDbEntity
  8
AM_11 想像線
 48
0.1
100
AcDbLine
 10
7.700000000000272
 20
-8.433606392290812
 30
0.0
 11
8.200000000000272
 21
-7.933606392290812
 31
0.0
  0
LINE
  5
5FDF
330
5FC9
100
AcDbEntity
  8
AM_11 想像線
 48
0.1
100
AcDbLine
 10
6.116191999999954
 20
-8.433606392290812
 30
0.0
 11
7.700000000000272
 21
-8.433606392290812
 31
0.0
  0
ENDBLK
  5
5FCB
330
5FC9
100
AcDbEntity
  8
0
100
AcDbBlockEnd
  0
ENDSEC
  0
SECTION
  2
ENTITIES
  0
LINE
  5
3D12
330
1F
100
AcDbEntity
  8
AM_0 外形線1
100
AcDbLine
 10
285.9075235999999
 20
324.0583128434233
 30
0.0
 11
286.0237155999998
 21
324.0583128434233
 31
0.0
  0
LINE
  5
3D26
330
1F
100
AcDbEntity
  8
AM_7 中心線
100
AcDbLine
 10
325.9075235999999
 20
226.0583128434233
 30
0.0
 11
325.9075235999999
 21
366.0583128434233
 31
0.0
  0
INSERT
  5
4110
102
{ACAD_REACTORS
330
4996
330
4A3C
330
4A94
330
4FF4
330
5CAE
330
5CDD
330
5E32
102
}
330
1F
100
AcDbEntity
  8
AM_0 外形線1
100
AcDbBlockReference
  2
センタＡ SMVH125
 10
325.9075235999999
 20
292.0583128434233
 30
0.0
  0
INSERT
  5
418E
102
{ACAD_REACTORS
330
49FF
330
4A58
330
4A70
330
4FF4
102
}
330
1F
100
AcDbEntity
  8
AM_0 外形線1
100
AcDbBlockReference
  2
センタB SMVH125
 10
325.9075235999999
 20
300.0583128434233
 30
0.0
  0
INSERT
  5
427A
102
{ACAD_REACTORS
330
4A94
330
4EC0
330
4EF0
102
}
330
1F
100
AcDbEntity
  8
AM_0 外形線1
100
AcDbBlockReference
  2
ケースＡ SMVH125
 10
325.9075235999999
 20
296.0583128434233
 30
0.0
  0
INSERT
  5
446C
102
{ACAD_REACTORS
330
49CF
330
49E7
330
4EC0
330
4ED8
102
}
330
1F
100
AcDbEntity
  8
AM_0 外形線1
100
AcDbBlockReference
  2
ケースＢ SMVH125
 10
325.9075235999999
 20
296.0583128434233
 30
0.0
  0
INSERT
  5
4561
330
1F
100
AcDbEntity
  8
AM_0 外形線1
100
AcDbBlockReference
  2
リーマボルト SMVH125 M6
 10
381.9075235999998
 20
281.0583128434233
 30
0.0
  0
INSERT
  5
4589
102
{ACAD_REACTORS
330
4A3C
102
}
330
1F
100
AcDbEntity
  8
AM_0 外形線1
100
AcDbBlockReference
  2
スラストプレ－ト SMVH125
 10
325.9075235999999
 20
292.0583128434233
 30
0.0
  0
DIMENSION
  5
497F
102
{ACAD_XDICTIONARY
360
498C
102
}
102
{ACAD_REACTORS
330
4996
102
}
330
1F
100
AcDbEntity
  8
AM_5 寸法線
100
AcDbDimension
  2
*D14
 10
360.9075235999998
 20
192.7661738320344
 30
0.0
 11
325.9075235999999
 21
197.6411738320344
 31
0.0
 70
    32
  1
%%c<>
 71
     5
 42
70.00000000000007
 73
     0
 74
     0
 75
     0
  3
SEISA$0
100
AcDbAlignedDimension
 13
290.9075235999999
 23
232.0583128434233
 33
0.0
 14
360.9075235999998
 24
232.0583128434233
 34
0.0
100
AcDbRotatedDimension
1001
ACAD
1000
DSTYLE
1002
{
1070
    40
1040
1.5
1002
}
1001
ACAD_DSTYLE_DIMINSPECT
1070
   396
1000
100%
1070
   395
1000

1070
   394
1070
    33
1070
   393
1070
     0
  0
DIMENSION
  5
49B8
102
{ACAD_XDICTIONARY
360
49C5
102
}
102
{ACAD_REACTORS
330
49CF
102
}
330
1F
100
AcDbEntity
  8
AM_5 寸法線
100
AcDbDimension
  2
*D15
 10
388.4075235999998
 20
430.5583128434233
 30
0.0
 11
325.9075235999999
 21
435.4333128434233
 31
0.0
 70
    32
  1
%%c<>
 71
     5
 42
125.0
 73
     0
 74
     0
 75
     0
  3
SEISA$0
100
AcDbAlignedDimension
 13
263.4075235999999
 23
310.8583128434233
 33
0.0
 14
388.4075235999998
 24
310.8583128434233
 34
0.0
100
AcDbRotatedDimension
1001
ACAD
1000
DSTYLE
1002
{
1070
    40
1040
1.5
1002
}
1001
ACAD_DSTYLE_DIMINSPECT
1070
   396
1000
100%
1070
   395
1000

1070
   394
1070
    33
1070
   393
1070
     0
  0
DIMENSION
  5
49D0
102
{ACAD_XDICTIONARY
360
49DD
102
}
102
{ACAD_REACTORS
330
49E7
102
}
330
1F
100
AcDbEntity
  8
AM_5 寸法線
100
AcDbDimension
  2
*D16
 10
371.9075235999998
 20
415.5583128434233
 30
0.0
 11
325.9075235999999
 21
420.4333128434233
 31
0.0
 70
    32
  1
%%c<>
 71
     5
 42
92.0
 73
     0
 74
     0
 75
     0
  3
SEISA$0
100
AcDbAlignedDimension
 13
279.9075235999999
 23
336.0583128434233
 33
0.0
 14
371.9075235999998
 24
336.0583128434233
 34
0.0
100
AcDbRotatedDimension
1001
ACAD
1000
DSTYLE
1002
{
1070
    40
1040
1.5
1002
}
1001
ACAD_DSTYLE_DIMINSPECT
1070
   396
1000
100%
1070
   395
1000

1070
   394
1070
    33
1070
   393
1070
     0
  0
DIMENSION
  5
49E8
102
{ACAD_XDICTIONARY
360
49F5
102
}
102
{ACAD_REACTORS
330
49FF
102
}
330
1F
100
AcDbEntity
  8
AM_5 寸法線
100
AcDbDimension
  2
*D17
 10
360.9075235999998
 20
400.5583128434233
 30
0.0
 11
325.9075235999999
 21
405.4333128434233
 31
0.0
 70
    32
  1
%%c<>
 71
     5
 42
70.00000000000007
 73
     0
 74
     0
 75
     0
  3
SEISA$0
100
AcDbAlignedDimension
 13
290.9075235999999
 23
360.0583128434233
 33
0.0
 14
360.9075235999998
 24
360.0583128434233
 34
0.0
100
AcDbRotatedDimension
1001
ACAD
1000
DSTYLE
1002
{
1070
    40
1040
1.5
1002
}
1001
ACAD_DSTYLE_DIMINSPECT
1070
   396
1000
100%
1070
   395
1000

1070
   394
1070
    33
1070
   393
1070
     0
  0
DIMENSION
  5
4A25
102
{ACAD_XDICTIONARY
360
4A32
102
}
102
{ACAD_REACTORS
330
4A3C
102
}
330
1F
100
AcDbEntity
  8
AM_5 寸法線
100
AcDbDimension
  2
*D18
 10
318.3366826000001
 20
292.0583128434233
 30
0.0
 11
313.3414017468504
 21
243.1688388087059
 31
0.0
 70
   160
 71
     5
 42
63.0
 73
     0
 74
     0
 75
     0
  3
SEISA$0
100
AcDbAlignedDimension
 13
313.1963742218477
 23
229.0583128434233
 33
0.0
 14
313.1963742218477
 24
292.0583128434233
 34
0.0
 50
90.0
100
AcDbRotatedDimension
1001
ACAD
1000
DSTYLE
1002
{
1070
    40
1040
1.5
1070
   279
1070
     2
1002
}
  0
DIMENSION
  5
4A3D
102
{ACAD_XDICTIONARY
360
4A4C
102
}
102
{ACAD_REACTORS
330
4A58
102
}
330
1F
100
AcDbEntity
  8
AM_5 寸法線
100
AcDbDimension
  2
*D19
 10
318.3366826000001
 20
300.0583128434233
 30
0.0
 11
312.7295881389932
 21
295.4433584040114
 31
0.0
 70
   160
 71
     5
 42
8.0
 73
     0
 74
     0
 75
     0
  3
SEISA$0
100
AcDbAlignedDimension
 13
314.1338742218477
 23
292.0583128434233
 33
0.0
 14
314.1338742218477
 24
300.0583128434233
 34
0.0
 50
90.0
100
AcDbRotatedDimension
1001
ACAD
1000
DSTYLE
1002
{
1070
    40
1040
1.5
1070
   279
1070
     2
1002
}
  0
DIMENSION
  5
4A59
102
{ACAD_XDICTIONARY
360
4A66
102
}
102
{ACAD_REACTORS
330
4A70
102
}
330
1F
100
AcDbEntity
  8
AM_5 寸法線
100
AcDbDimension
  2
*D20
 10
318.3366826000001
 20
363.0583128434233
 30
0.0
 11
313.4616826000002
 21
331.5583128434234
 31
0.0
 70
    32
 71
     5
 42
63.0
 73
     0
 74
     0
 75
     0
  3
SEISA$0
100
AcDbAlignedDimension
 13
315.0713742218477
 23
300.0583128434233
 33
0.0
 14
315.0713742218477
 24
363.0583128434233
 34
0.0
 50
90.0
100
AcDbRotatedDimension
1001
ACAD
1000
DSTYLE
1002
{
1070
    40
1040
1.5
1002
}
  0
DIMENSION
  5
4A79
102
{ACAD_XDICTIONARY
360
4A88
102
}
102
{ACAD_REACTORS
330
4A94
330
5CAE
102
}
330
1F
100
AcDbEntity
  8
AM_5 寸法線
100
AcDbDimension
  2
*D21
 10
299.557102694318
 20
267.5583128434233
 30
0.0
 11
299.557102694318
 21
250.3583128434234
 31
0.0
 70
   160
 71
     5
 42
2.5
 73
     0
 74
     0
 75
     0
  3
SEISA$0
100
AcDbAlignedDimension
 13
290.9075235999999
 23
265.0583128434233
 33
0.0
 14
290.4075235999999
 24
267.5583128434233
 34
0.0
 50
90.0
100
AcDbRotatedDimension
1001
ACAD
1000
DSTYLE
1002
{
1070
    40
1040
1.5
1002
}
  0
DIMENSION
  5
4EA9
102
{ACAD_XDICTIONARY
360
4EB6
102
}
102
{ACAD_REACTORS
330
4EC0
102
}
330
1F
100
AcDbEntity
  8
AM_5 寸法線
100
AcDbDimension
  2
*D22
 10
410.9075235999998
 20
296.0583128434233
 30
0.0
 11
406.0325235999997
 21
288.5583128434234
 31
0.0
 70
    32
 71
     5
 42
15.0
 73
     0
 74
     0
 75
     0
  3
SEISA$0
100
AcDbAlignedDimension
 13
388.2075236000002
 23
281.0583128434233
 33
0.0
 14
388.2075236000002
 24
296.0583128434233
 34
0.0
 50
90.0
100
AcDbRotatedDimension
1001
ACAD_DSTYLE_DIMINSPECT
1070
   396
1000
100%
1070
   395
1000

1070
   394
1070
    33
1070
   393
1070
     0
1001
ACAD
1000
DSTYLE
1002
{
1070
    40
1040
1.5
1070
   173
1070
     1
1070
   342
1005
0
1070
   343
1005
69
1070
   344
1005
2BBA
1002
}
  0
DIMENSION
  5
4EC1
102
{ACAD_XDICTIONARY
360
4ECE
102
}
102
{ACAD_REACTORS
330
4ED8
102
}
330
1F
100
AcDbEntity
  8
AM_5 寸法線
100
AcDbDimension
  2
*D23
 10
410.9075235999998
 20
311.0583128434233
 30
0.0
 11
406.0325235999997
 21
303.5583128434234
 31
0.0
 70
    32
 71
     5
 42
15.0
 73
     0
 74
     0
 75
     0
  3
SEISA$0
100
AcDbAlignedDimension
 13
388.2075236000002
 23
296.0583128434233
 33
0.0
 14
388.2075236000002
 24
311.0583128434233
 34
0.0
 50
90.0
100
AcDbRotatedDimension
1001
ACAD_DSTYLE_DIMINSPECT
1070
   396
1000
100%
1070
   395
1000

1070
   394
1070
    33
1070
   393
1070
     0
1001
ACAD
1000
DSTYLE
1002
{
1070
    40
1040
1.5
1070
   173
1070
     1
1070
   342
1005
0
1070
   343
1005
2BBA
1070
   344
1005
69
1002
}
  0
DIMENSION
  5
4ED9
102
{ACAD_XDICTIONARY
360
4EE6
102
}
102
{ACAD_REACTORS
330
4EF0
102
}
330
1F
100
AcDbEntity
  8
AM_5 寸法線
100
AcDbDimension
  2
*D24
 10
425.9075235999998
 20
339.0583128434233
 30
0.0
 11
421.0325235999998
 21
296.0583128434235
 31
0.0
 70
    32
 71
     5
 42
85.99999999999996
 73
     0
 74
     0
 75
     0
  3
SEISA$0
100
AcDbAlignedDimension
 13
368.9075235999998
 23
253.0583128434233
 33
0.0
 14
368.9075235999998
 24
339.0583128434233
 34
0.0
 50
90.0
100
AcDbRotatedDimension
1001
ACAD
1000
DSTYLE
1002
{
1070
    40
1040
1.5
1002
}
  0
DIMENSION
  5
4FDD
102
{ACAD_XDICTIONARY
360
4FEA
102
}
102
{ACAD_REACTORS
330
4FF4
102
}
330
1F
100
AcDbEntity
  8
AM_5 寸法線
100
AcDbDimension
  2
*D25
 10
440.9075235999998
 20
363.0583128434233
 30
0.0
 11
436.0325235999998
 21
296.0583128434234
 31
0.0
 70
    32
 71
     5
 42
133.9999999999999
 73
     0
 74
     0
 75
     0
  3
SEISA$0
100
AcDbAlignedDimension
 13
357.9075235999998
 23
229.0583128434233
 33
0.0
 14
357.9075235999998
 24
363.0583128434233
 34
0.0
 50
90.0
100
AcDbRotatedDimension
1001
ACAD
1000
DSTYLE
1002
{
1070
    40
1040
1.5
1002
}
  0
MTEXT
  5
5C60
330
1F
100
AcDbEntity
  8
AM_6 文字
100
AcDbMText
 10
374.887971376728
 20
219.8195702628603
 30
0.0
 40
5.25
 41
81.28303937566466
 46
15.9103167730538
 71
     1
 72
     5
  1
{\W0.6;TYPE:SMV125/SMVH125\PSHAFT DIA:MAX/MIN φ50/φ22}
  7
SEISA
 73
     1
 44
1.0
  0
DIMENSION
  5
5C9F
102
{ACAD_XDICTIONARY
360
5CAD
102
}
102
{ACAD_REACTORS
330
5CAE
330
5CDD
102
}
330
1F
100
AcDbEntity
  8
AM_5 寸法線
100
AcDbDimension
  2
*D26
 10
299.5571026943181
 20
280.0583128434233
 30
0.0
 11
317.4420224266728
 21
272.8157901454188
 31
0.0
 70
   160
 71
     5
 42
12.5
 73
     0
 74
     0
 75
     0
  3
SEISA$0
100
AcDbAlignedDimension
 13
290.4075235999999
 23
267.5583128434233
 33
0.0
 14
290.4075235999999
 24
280.0583128434233
 34
0.0
 50
90.00000000000005
100
AcDbRotatedDimension
1001
ACAD_DSTYLE_DIMINSPECT
1070
   396
1000
100%
1070
   395
1000

1070
   394
1070
    33
1070
   393
1070
     0
1001
ACAD
1000
DSTYLE
1002
{
1070
    40
1040
1.5
1070
   279
1070
     1
1002
}
  0
DIMENSION
  5
5CCD
102
{ACAD_XDICTIONARY
360
5CDC
102
}
102
{ACAD_REACTORS
330
5CDD
102
}
330
1F
100
AcDbEntity
  8
AM_5 寸法線
100
AcDbDimension
  2
*D27
 10
299.5571026943182
 20
292.0583128434233
 30
0.0
 11
300.264903179308
 21
285.7502197497422
 31
0.0
 70
   160
 71
     5
 42
12.0
 73
     0
 74
     0
 75
     0
  3
SEISA$0
100
AcDbAlignedDimension
 13
290.4075235999999
 23
280.0583128434233
 33
0.0
 14
291.4075235999998
 24
292.0583128434233
 34
0.0
 50
90.00000000000005
100
AcDbRotatedDimension
1001
ACAD_DSTYLE_DIMINSPECT
1070
   396
1000
100%
1070
   395
1000

1070
   394
1070
    33
1070
   393
1070
     0
1001
ACAD
1000
DSTYLE
1002
{
1070
    40
1040
1.5
1070
   279
1070
     1
1002
}
  0
DIMENSION
  5
5E22
102
{ACAD_XDICTIONARY
360
5E31
102
}
102
{ACAD_REACTORS
330
5E32
102
}
330
1F
100
AcDbEntity
  8
AM_5 寸法線
100
AcDbDimension
  2
*D28
 10
260.4075235999999
 20
222.0583128434233
 30
0.0
 11
255.5325235999998
 21
210.7333128434234
 31
0.0
 70
    32
 71
     5
 42
7.0
 73
     0
 74
     0
 75
     0
  3
SEISA$0
100
AcDbAlignedDimension
 13
293.9075235999999
 23
229.0583128434233
 33
0.0
 14
282.9075235999999
 24
222.0583128434233
 34
0.0
 50
90.00000000000005
100
AcDbRotatedDimension
1001
ACAD
1000
DSTYLE
1002
{
1070
    40
1040
1.5
1002
}
1001
ACAD_DSTYLE_DIMINSPECT
1070
   396
1000
100%
1070
   395
1000

1070
   394
1070
    33
1070
   393
1070
     0
  0
INSERT
  5
5FE0
330
1F
100
AcDbEntity
  8
AM_11 想像線
100
AcDbBlockReference
  2
ケース
 10
279.9075235999999
 20
245.4919192357142
 30
0.0
  0
ENDSEC
  0
SECTION
  2
OBJECTS
  0
DICTIONARY
  5
C
330
0
100
AcDbDictionary
281
     1
  3
ACAD_COLOR
350
C5
  3
ACAD_GROUP
350
D
  3
ACAD_LAYOUT
350
1A
  3
ACAD_MATERIAL
350
C4
  3
ACAD_MLEADERSTYLE
350
2D5
  3
ACAD_MLINESTYLE
350
17
  3
ACAD_PLOTSETTINGS
350
19
  3
ACAD_PLOTSTYLENAME
350
E
  3
ACAD_SCALELIST
350
2B3
  3
ACAD_TABLESTYLE
350
121
  3
ACAD_VISUALSTYLE
350
27F
  3
ACDB_RECOMPOSE_DATA
350
2F7
  3
AcDbVariableDictionary
350
34
  3
AcmDictionary
350
49
  3
AMG
350
2B
  3
AMGSNAPSETTINGS
350
1DE
  0
DICTIONARY
  5
BF
330
2
100
AcDbDictionary
280
     1
281
     1
  3
ACAD_LAYERSTATES
360
2786
  3
AMLAYER_GROUPCOLORS
360
C0
  0
DICTIONARY
  5
29D7
330
10
100
AcDbDictionary
280
     1
281
     1
  3
ADSK_XREC_LAYER_RECONCILED
360
29D8
  0
DICTIONARY
  5
29D9
330
81
100
AcDbDictionary
280
     1
281
     1
  3
ADSK_XREC_LAYER_RECONCILED
360
29DA
  0
DICTIONARY
  5
29E0
330
25C9
100
AcDbDictionary
280
     1
281
     1
  3
ADSK_XREC_LAYER_RECONCILED
360
29E1
  0
DICTIONARY
  5
29E2
330
25CA
100
AcDbDictionary
280
     1
281
     1
  3
ADSK_XREC_LAYER_RECONCILED
360
29E3
  0
DICTIONARY
  5
29E8
330
26B3
100
AcDbDictionary
280
     1
281
     1
  3
ADSK_XREC_LAYER_RECONCILED
360
29E9
  0
DICTIONARY
  5
82
330
1F
100
AcDbDictionary
280
     1
281
     1
  3
ACAD_SORTENTS
360
A41
  0
DICTIONARY
  5
2A8A
330
2A89
100
AcDbDictionary
280
     1
281
     1
  3
ACAD_SORTENTS
360
5865
  0
DICTIONARY
  5
2AE6
330
2AE5
100
AcDbDictionary
280
     1
281
     1
  3
ACAD_SORTENTS
360
59C5
  0
DICTIONARY
  5
4142
330
40F7
100
AcDbDictionary
280
     1
281
     1
  3
ACAD_SORTENTS
360
5F78
  0
DICTIONARY
  5
41BF
330
4175
100
AcDbDictionary
280
     1
281
     1
  3
ACAD_SORTENTS
360
5F4B
  0
DICTIONARY
  5
42F9
330
423F
100
AcDbDictionary
280
     1
281
     1
  3
ACAD_SORTENTS
360
5837
  0
DICTIONARY
  5
44F3
330
442A
100
AcDbDictionary
280
     1
281
     1
  3
ACAD_SORTENTS
360
58EC
  0
DICTIONARY
  5
45A0
330
457D
100
AcDbDictionary
280
     1
281
     1
  3
ACAD_SORTENTS
360
603C
  0
DICTIONARY
  5
498C
330
497F
100
AcDbDictionary
280
     1
281
     1
  3
ACAD_DIMASSOC
360
4996
  0
DICTIONARY
  5
49C5
330
49B8
100
AcDbDictionary
280
     1
281
     1
  3
ACAD_DIMASSOC
360
49CF
  0
DICTIONARY
  5
49DD
330
49D0
100
AcDbDictionary
280
     1
281
     1
  3
ACAD_DIMASSOC
360
49E7
  0
DICTIONARY
  5
49F5
330
49E8
100
AcDbDictionary
280
     1
281
     1
  3
ACAD_DIMASSOC
360
49FF
  0
DICTIONARY
  5
4A32
330
4A25
100
AcDbDictionary
280
     1
281
     1
  3
ACAD_DIMASSOC
360
4A3C
  0
DICTIONARY
  5
4A4C
330
4A3D
100
AcDbDictionary
280
     1
281
     1
  3
ACAD_DIMASSOC
360
4A58
  0
DICTIONARY
  5
4A66
330
4A59
100
AcDbDictionary
280
     1
281
     1
  3
ACAD_DIMASSOC
360
4A70
  0
DICTIONARY
  5
4A88
330
4A79
100
AcDbDictionary
280
     1
281
     1
  3
ACAD_DIMASSOC
360
4A94
  0
DICTIONARY
  5
4EB6
330
4EA9
100
AcDbDictionary
280
     1
281
     1
  3
ACAD_DIMASSOC
360
4EC0
  0
DICTIONARY
  5
4ECE
330
4EC1
100
AcDbDictionary
280
     1
281
     1
  3
ACAD_DIMASSOC
360
4ED8
  0
DICTIONARY
  5
4EE6
330
4ED9
100
AcDbDictionary
280
     1
281
     1
  3
ACAD_DIMASSOC
360
4EF0
  0
DICTIONARY
  5
4FEA
330
4FDD
100
AcDbDictionary
280
     1
281
     1
  3
ACAD_DIMASSOC
360
4FF4
  0
DICTIONARY
  5
5CAD
330
5C9F
100
AcDbDictionary
280
     1
281
     1
  3
ACAD_DIMASSOC
360
5CAE
  0
DICTIONARY
  5
5CDC
330
5CCD
100
AcDbDictionary
280
     1
281
     1
  3
ACAD_DIMASSOC
360
5CDD
  0
DICTIONARY
  5
5E31
330
5E22
100
AcDbDictionary
280
     1
281
     1
  3
ACAD_DIMASSOC
360
5E32
  0
DICTIONARY
  5
C5
102
{ACAD_REACTORS
330
C
102
}
330
C
100
AcDbDictionary
281
     1
  0
DICTIONARY
  5
D
102
{ACAD_REACTORS
330
C
102
}
330
C
100
AcDbDictionary
281
     1
  0
DICTIONARY
  5
1A
102
{ACAD_REACTORS
330
C
102
}
330
C
100
AcDbDictionary
281
     1
  3
Model
350
22
  3
レイアウト1
350
1E
  3
レイアウト2
350
26
  0
DICTIONARY
  5
C4
102
{ACAD_REACTORS
330
C
102
}
330
C
100
AcDbDictionary
281
     1
  3
ByBlock
350
27D
  3
ByLayer
350
27C
  3
Global
350
27E
  0
DICTIONARY
  5
2D5
102
{ACAD_REACTORS
330
C
102
}
330
C
100
AcDbDictionary
281
     1
  3
Standard
350
2D6
  0
DICTIONARY
  5
17
102
{ACAD_REACTORS
330
C
102
}
330
C
100
AcDbDictionary
281
     1
  3
Standard
350
18
  0
DICTIONARY
  5
19
102
{ACAD_REACTORS
330
C
102
}
330
C
100
AcDbDictionary
281
     1
  3
SEISA基本
350
1C7E
  0
ACDBDICTIONARYWDFLT
  5
E
102
{ACAD_REACTORS
330
C
102
}
330
C
100
AcDbDictionary
281
     1
  3
Normal
350
F
100
AcDbDictionaryWithDefault
340
F
  0
DICTIONARY
  5
2B3
102
{ACAD_REACTORS
330
C
102
}
330
C
100
AcDbDictionary
281
     1
  3
*A1
350
29F2
  3
A0
350
2B4
  3
A1
350
2B5
  3
A2
350
2B6
  3
A3
350
2B7
  3
A4
350
2B8
  3
A5
350
2B9
  3
A6
350
2BA
  3
A7
350
2BB
  3
A8
350
2BC
  3
A9
350
2BD
  3
B0
350
2BE
  3
B1
350
2BF
  3
B2
350
2C0
  3
B3
350
2C1
  3
B4
350
2C2
  3
B5
350
2C3
  3
B6
350
2C4
  3
B7
350
2C5
  3
B8
350
2C6
  3
B9
350
2C7
  3
C0
350
2C8
  3
C1
350
2C9
  3
C2
350
2CA
  3
C3
350
2CB
  3
C4
350
2CC
  3
C5
350
2CD
  3
C6
350
2CE
  3
C7
350
2CF
  3
C8
350
2D0
  3
C9
350
2D1
  3
D0
350
2D2
  3
D1
350
2D3
  3
D2
350
2D4
  0
DICTIONARY
  5
121
102
{ACAD_REACTORS
330
C
102
}
330
C
100
AcDbDictionary
281
     1
  3
Standard
350
122
  0
DICTIONARY
  5
27F
102
{ACAD_REACTORS
330
C
102
}
330
C
100
AcDbDictionary
281
     1
  3
2dWireframe
350
285
  3
3D Hidden
350
287
  3
3dWireframe
350
286
  3
Basic
350
284
  3
Brighten
350
28B
  3
ColorChange
350
28F
  3
Conceptual
350
288
  3
Dim
350
28A
  3
Facepattern
350
28E
  3
Flat
350
280
  3
FlatWithEdges
350
281
  3
Gouraud
350
282
  3
GouraudWithEdges
350
283
  3
Linepattern
350
28D
  3
Realistic
350
289
  3
Thicken
350
28C
  0
XRECORD
  5
2F7
102
{ACAD_REACTORS
330
C
102
}
330
C
100
AcDbXrecord
280
     1
 90
        1
330
122
  0
DICTIONARY
  5
34
102
{ACAD_REACTORS
330
C
102
}
330
C
100
AcDbDictionary
281
     1
  3
CANNOSCALE
350
2FA
  3
CMLEADERSTYLE
350
2F8
  3
CTABLESTYLE
350
140
  3
DIMASSOC
350
AC
  3
INDEXCTL
350
35
  3
LAYEREVAL
350
527E
  3
LAYERNOTIFY
350
527F
  3
LIGHTINGUNITS
350
2FB
  3
MSLTSCALE
350
2F9
  0
DICTIONARY
  5
49
102
{ACAD_REACTORS
330
C
102
}
330
C
100
AcDbDictionary
281
     1
  3
AcmBOM
350
161B
  3
AcmStdDictionary
350
4A
  3
AMDTSECTSYM_ARROWCOLOR
350
12B
  0
DICTIONARY
  5
2B
102
{ACAD_REACTORS
330
C
102
}
330
C
100
AcDbDictionary
281
     1
  0
DICTIONARY
  5
1DE
102
{ACAD_REACTORS
330
C
102
}
330
C
100
AcDbDictionary
281
     1
  0
DICTIONARY
  5
2786
102
{ACAD_REACTORS
330
BF
102
}
330
BF
100
AcDbDictionary
281
     1
  0
DICTIONARY
  5
C0
102
{ACAD_REACTORS
330
BF
102
}
330
BF
100
AcDbDictionary
280
     1
281
     1
  0
XRECORD
  5
29D8
102
{ACAD_REACTORS
330
29D7
102
}
330
29D7
100
AcDbXrecord
280
     1
290
     1
  0
XRECORD
  5
29DA
102
{ACAD_REACTORS
330
29D9
102
}
330
29D9
100
AcDbXrecord
280
     1
290
     1
  0
XRECORD
  5
29E1
102
{ACAD_REACTORS
330
29E0
102
}
330
29E0
100
AcDbXrecord
280
     1
290
     1
  0
XRECORD
  5
29E3
102
{ACAD_REACTORS
330
29E2
102
}
330
29E2
100
AcDbXrecord
280
     1
290
     1
  0
XRECORD
  5
29E9
102
{ACAD_REACTORS
330
29E8
102
}
330
29E8
100
AcDbXrecord
280
     1
290
     1
  0
SORTENTSTABLE
  5
A41
102
{ACAD_REACTORS
330
82
102
}
330
82
100
AcDbSortentsTable
330
1F
331
4EC1
  5
4F21
331
4A25
  5
4AB6
331
49E8
  5
4A59
331
5CCD
  5
5CCD
331
4ED9
  5
4F39
331
3D12
  5
3D54
331
4A3D
  5
4B19
331
4110
  5
4561
331
446C
  5
464A
331
4561
  5
464B
331
497F
  5
49E8
331
427A
  5
4649
331
4A59
  5
4B40
331
3D26
  5
3D55
331
49B8
  5
4A25
331
4589
  5
464C
331
5C9F
  5
5C9F
331
4A79
  5
4B6A
331
418E
  5
4589
331
4EA9
  5
4F09
331
5C60
  5
5C60
331
4FDD
  5
511D
331
49D0
  5
4A3D
  0
SORTENTSTABLE
  5
5865
102
{ACAD_REACTORS
330
2A8A
102
}
330
2A8A
100
AcDbSortentsTable
330
2A89
  0
SORTENTSTABLE
  5
59C5
102
{ACAD_REACTORS
330
2AE6
102
}
330
2AE6
100
AcDbSortentsTable
330
2AE5
  0
SORTENTSTABLE
  5
5F78
102
{ACAD_REACTORS
330
4142
102
}
330
4142
100
AcDbSortentsTable
330
40F7
331
4100
  5
4104
331
40FF
  5
4101
331
40FE
  5
4100
331
40FD
  5
40FF
331
410F
  5
5C8C
331
410E
  5
5C8B
331
410D
  5
410F
331
410C
  5
410E
331
410B
  5
410D
331
410A
  5
410C
331
4109
  5
410B
331
4108
  5
410A
331
4107
  5
4109
331
4106
  5
4108
331
4105
  5
4107
331
4104
  5
4106
331
5C8C
  5
40FE
331
4101
  5
4105
331
5C8B
  5
40FD
  0
SORTENTSTABLE
  5
5F4B
102
{ACAD_REACTORS
330
41BF
102
}
330
41BF
100
AcDbSortentsTable
330
4175
331
4185
  5
4187
331
418C
  5
5DFE
331
418B
  5
418D
331
4184
  5
4186
331
4183
  5
4185
331
418A
  5
418C
331
4189
  5
418B
331
4182
  5
4184
331
4181
  5
4183
331
4188
  5
418A
331
417F
  5
4182
331
417D
  5
4181
331
417C
  5
417F
331
5DFF
  5
417C
331
5DFE
  5
4178
331
4178
  5
417D
331
4187
  5
4189
331
418D
  5
5DFF
331
4186
  5
4188
  0
SORTENTSTABLE
  5
5837
102
{ACAD_REACTORS
330
42F9
102
}
330
42F9
100
AcDbSortentsTable
330
423F
331
4277
  5
4278
331
4250
  5
4251
331
4273
  5
4274
331
424C
  5
424D
331
426F
  5
4270
331
4248
  5
4249
331
4244
  5
4245
331
426B
  5
426C
331
55E6
  5
4242
331
4267
  5
4268
331
4263
  5
4264
331
425F
  5
4260
331
425B
  5
425C
331
4257
  5
4258
331
4253
  5
4254
331
424F
  5
4250
331
4276
  5
4277
331
4272
  5
4273
331
424B
  5
424C
331
426E
  5
426F
331
4247
  5
4248
331
426A
  5
426B
331
4243
  5
4244
331
4266
  5
4267
331
4262
  5
4263
331
425E
  5
425F
331
425A
  5
425B
331
4256
  5
4257
331
4252
  5
4253
331
4275
  5
4276
331
424E
  5
424F
331
4271
  5
4272
331
424A
  5
424B
331
4246
  5
4247
331
426D
  5
426E
331
4242
  5
4243
331
4269
  5
426A
331
4265
  5
4266
331
4279
  5
42F7
331
4261
  5
4262
331
425D
  5
425E
331
4259
  5
425A
331
4255
  5
4256
331
4251
  5
4252
331
424D
  5
424E
331
4274
  5
4275
331
4270
  5
4271
331
4249
  5
424A
331
426C
  5
426D
331
4245
  5
4246
331
4268
  5
4269
331
4264
  5
4265
331
4278
  5
4279
331
4260
  5
4261
331
42F7
  5
42F8
331
42F8
  5
55E6
331
425C
  5
425D
331
4258
  5
4259
331
4254
  5
4255
  0
SORTENTSTABLE
  5
58EC
102
{ACAD_REACTORS
330
44F3
102
}
330
44F3
100
AcDbSortentsTable
330
442A
  0
SORTENTSTABLE
  5
603C
102
{ACAD_REACTORS
330
45A0
102
}
330
45A0
100
AcDbSortentsTable
330
457D
  0
DIMASSOC
  5
4996
102
{ACAD_REACTORS
330
498C
102
}
330
498C
100
AcDbDimAssoc
330
497F
 90
        3
 70
     0
 71
     0
  1
AcDbOsnapPointRef
 72
    13
331
4110
331
4104
 73
     2
 91
        0
 40
0.0
 10
0.0
 20
0.0
 30
2.000000000000000E+50
 75
     0
  1
AcDbOsnapPointRef
 72
     8
331
4110
331
410E
 73
     2
 91
        0
 40
1.0
 10
0.0
 20
0.0
 30
0.0
 75
     1
  1
AcDbOsnapPointRef
 72
    13
331
4110
331
4104
 73
     2
 91
        0
 40
0.0
 10
0.0
 20
0.0
 30
2.000000000000000E+50
 75
     0
  0
DIMASSOC
  5
49CF
102
{ACAD_REACTORS
330
49C5
102
}
330
49C5
100
AcDbDimAssoc
330
49B8
 90
        3
 70
     0
 71
     0
  1
AcDbOsnapPointRef
 72
     1
331
446C
331
4436
 73
     2
 91
        0
 40
1.0
 10
0.0
 20
0.0
 30
2.000000000000000E+50
 75
     0
  1
AcDbOsnapPointRef
 72
     1
331
446C
331
4466
 73
     2
 91
        0
 40
1.0
 10
0.0
 20
0.0
 30
2.000000000000000E+50
 75
     0
  0
DIMASSOC
  5
49E7
102
{ACAD_REACTORS
330
49DD
102
}
330
49DD
100
AcDbDimAssoc
330
49D0
 90
        3
 70
     0
 71
     0
  1
AcDbOsnapPointRef
 72
     1
331
446C
331
445D
 73
     2
 91
        0
 40
3.141592653589792
 10
0.0
 20
0.0
 30
2.000000000000000E+50
 75
     0
  1
AcDbOsnapPointRef
 72
     1
331
446C
331
4463
 73
     2
 91
        0
 40
1.0
 10
0.0
 20
0.0
 30
2.000000000000000E+50
 75
     0
  0
DIMASSOC
  5
49FF
102
{ACAD_REACTORS
330
49F5
102
}
330
49F5
100
AcDbDimAssoc
330
49E8
 90
        3
 70
     0
 71
     0
  1
AcDbOsnapPointRef
 72
    13
331
418E
331
4186
 73
     2
 91
        0
 40
0.0
 10
0.0
 20
0.0
 30
2.000000000000000E+50
 75
     0
  1
AcDbOsnapPointRef
 72
     8
331
418E
331
418C
 73
     2
 91
        0
 40
1.0
 10
0.0
 20
0.0
 30
0.0
 75
     1
  1
AcDbOsnapPointRef
 72
    13
331
418E
331
4186
 73
     2
 91
        0
 40
0.0
 10
0.0
 20
0.0
 30
2.000000000000000E+50
 75
     0
  0
DIMASSOC
  5
4A3C
102
{ACAD_REACTORS
330
4A32
102
}
330
4A32
100
AcDbDimAssoc
330
4A25
 90
        3
 70
     0
 71
     0
  1
AcDbOsnapPointRef
 72
    10
331
4110
331
40FE
 73
     2
 91
        0
 40
0.6986117090336279
 10
0.0
 20
0.0
 30
0.0
 75
     0
  1
AcDbOsnapPointRef
 72
     8
331
4589
331
4642
 73
     2
 91
        0
 40
0.5616845042016489
 10
0.0
 20
0.0
 30
0.0
 75
     1
  1
AcDbOsnapPointRef
 72
    10
331
4110
331
40FE
 73
     2
 91
        0
 40
0.6986117090336279
 10
0.0
 20
0.0
 30
0.0
 75
     0
  0
DIMASSOC
  5
4A58
102
{ACAD_REACTORS
330
4A4C
102
}
330
4A4C
100
AcDbDimAssoc
330
4A3D
 90
        2
 70
     0
 71
     0
  1
AcDbOsnapPointRef
 72
     8
331
418E
331
417D
 73
     2
 91
        0
 40
0.65873480063327
 10
0.0
 20
0.0
 30
0.0
 75
     1
  1
AcDbOsnapPointRef
 72
     0
 40
0.0
 10
314.1338742218477
 20
310.9084021000001
 30
0.0
 75
     0
  0
DIMASSOC
  5
4A70
102
{ACAD_REACTORS
330
4A66
102
}
330
4A66
100
AcDbDimAssoc
330
4A59
 90
        2
 70
     0
 71
     0
  1
AcDbOsnapPointRef
 72
     8
331
418E
331
417C
 73
     2
 91
        0
 40
0.6693148340336279
 10
0.0
 20
0.0
 30
0.0
 75
     1
  1
AcDbOsnapPointRef
 72
     0
 40
0.0
 10
315.0713742218477
 20
318.9084021000001
 30
0.0
 75
     0
  0
DIMASSOC
  5
4A94
102
{ACAD_REACTORS
330
4A88
102
}
330
4A88
100
AcDbDimAssoc
330
4A79
 90
        3
 70
     0
 71
     0
  1
AcDbOsnapPointRef
 72
    13
331
427A
331
4247
 73
     2
 91
        0
 40
0.0
 10
0.0
 20
0.0
 30
2.000000000000000E+50
 75
     0
  1
AcDbOsnapPointRef
 72
     1
331
4110
331
4100
 73
     2
 91
        0
 40
1.570796326794896
 10
0.0
 20
0.0
 30
2.000000000000000E+50
 75
     0
  0
DIMASSOC
  5
4EC0
102
{ACAD_REACTORS
330
4EB6
102
}
330
4EB6
100
AcDbDimAssoc
330
4EA9
 90
        3
 70
     0
 71
     0
  1
AcDbOsnapPointRef
 72
    13
331
427A
331
4272
 73
     2
 91
        0
 40
0.0
 10
0.0
 20
0.0
 30
2.000000000000000E+50
 75
     0
  1
AcDbOsnapPointRef
 72
    13
331
446C
331
4467
 73
     2
 91
        0
 40
0.0
 10
0.0
 20
0.0
 30
2.000000000000000E+50
 75
     0
  0
DIMASSOC
  5
4ED8
102
{ACAD_REACTORS
330
4ECE
102
}
330
4ECE
100
AcDbDimAssoc
330
4EC1
 90
        3
 70
     0
 71
     0
  1
AcDbOsnapPointRef
 72
    13
331
446C
331
4467
 73
     2
 91
        0
 40
0.0
 10
0.0
 20
0.0
 30
2.000000000000000E+50
 75
     0
  1
AcDbOsnapPointRef
 72
    13
331
446C
331
4464
 73
     2
 91
        0
 40
0.0
 10
0.0
 20
0.0
 30
2.000000000000000E+50
 75
     0
  0
DIMASSOC
  5
4EF0
102
{ACAD_REACTORS
330
4EE6
102
}
330
4EE6
100
AcDbDimAssoc
330
4ED9
 90
        1
 70
     0
 71
     0
  1
AcDbOsnapPointRef
 72
    13
331
427A
331
4274
 73
     2
 91
        0
 40
0.0
 10
0.0
 20
0.0
 30
2.000000000000000E+50
 75
     0
  0
DIMASSOC
  5
4FF4
102
{ACAD_REACTORS
330
4FEA
102
}
330
4FEA
100
AcDbDimAssoc
330
4FDD
 90
        3
 70
     0
 71
     0
  1
AcDbOsnapPointRef
 72
    13
331
4110
331
40FE
 73
     2
 91
        0
 40
0.0
 10
0.0
 20
0.0
 30
2.000000000000000E+50
 75
     0
  1
AcDbOsnapPointRef
 72
    13
331
418E
331
417C
 73
     2
 91
        0
 40
0.0
 10
0.0
 20
0.0
 30
2.000000000000000E+50
 75
     0
  0
DIMASSOC
  5
5CAE
102
{ACAD_REACTORS
330
5CAD
102
}
330
5CAD
100
AcDbDimAssoc
330
5C9F
 90
        3
 70
     0
 71
     0
  1
AcDbOsnapPointRef
 72
     4
331
4A79
331
5168
 73
     0
 91
        0
 40
0.0
 10
0.0
 20
0.0
 30
0.0
 75
     0
  1
AcDbOsnapPointRef
 72
     1
331
4110
331
4107
 73
     0
 91
        0
 40
0.0
 10
0.0
 20
0.0
 30
2.000000000000000E+50
 75
     0
  0
DIMASSOC
  5
5CDD
102
{ACAD_REACTORS
330
5CDC
102
}
330
5CDC
100
AcDbDimAssoc
330
5CCD
 90
        2
 70
     0
 71
     0
  1
AcDbOsnapPointRef
 72
    13
331
4110
331
40FF
 73
     0
 91
        0
 40
0.0
 10
0.0
 20
0.0
 30
2.000000000000000E+50
 75
     0
  0
DIMASSOC
  5
5E32
102
{ACAD_REACTORS
330
5E31
102
}
330
5E31
100
AcDbDimAssoc
330
5E22
 90
        1
 70
     0
 71
     0
  1
AcDbOsnapPointRef
 72
     1
331
4110
331
40FE
 73
     0
 91
        0
 40
0.0
 10
0.0
 20
0.0
 30
2.000000000000000E+50
 75
     0
  0
LAYOUT
  5
22
102
{ACAD_REACTORS
330
1A
102
}
330
1A
100
AcDbPlotSettings
  1

  2
KONICA MINOLTA 501 PCL
  4
A4
  6

 40
5.027082920074462
 41
5.027085781097412
 42
5.027069091796875
 43
5.027069091796875
 44
209.9733276367186
 45
296.9259948730469
 46
0.0000000000000142
 47
16.29401234963114
 48
0.0
 49
0.0
140
0.0
141
0.0
142
1.0
143
0.968736744765313
 70
 11956
 72
     1
 73
     0
 74
     1
  7
SEISA.ctb
 75
     0
147
1.032272188913677
 76
     0
 77
     2
 78
   300
148
-252.8506186121349
149
-191.7608659478844
100
AcDbLayout
  1
Model
 70
     1
 71
     0
 10
0.0
 20
0.0
 11
12.0
 21
9.0
 12
0.0
 22
0.0
 32
0.0
 14
0.0
 24
0.0
 34
0.0
 15
0.0
 25
0.0
 35
0.0
146
0.0
 13
0.0
 23
0.0
 33
0.0
 16
1.0
 26
0.0
 36
0.0
 17
0.0
 27
1.0
 37
0.0
 76
     0
330
1F
331
27A
1001
ACAD_PSEXT
1000
KONICA MINOLTA 501 PCL
1000
KONICA MINOLTA 501/421/361PCL
1000
IP_192.168.20.231_(1)
1000

1070
     0
  0
LAYOUT
  5
1E
102
{ACAD_REACTORS
330
1A
102
}
330
1A
100
AcDbPlotSettings
  1

  2
none_device
  4
Letter_(8.50_x_11.00_Inches)
  6

 40
6.349999904632567
 41
6.349999904632567
 42
6.350006103515625
 43
6.350006103515625
 44
215.8999938964844
 45
279.3999938964844
 46
0.0
 47
0.0
 48
0.0
 49
0.0
140
0.0
141
0.0
142
1.0
143
1.0
 70
 15024
 72
     1
 73
     1
 74
     5
  7
SEISA.ctb
 75
    16
147
1.0
 76
     0
 77
     2
 78
   300
148
0.0
149
0.0
100
AcDbLayout
  1
レイアウト1
 70
     1
 71
     1
 10
0.0
 20
0.0
 11
420.0
 21
297.0
 12
0.0
 22
0.0
 32
0.0
 14
1.000000000000000E+20
 24
1.000000000000000E+20
 34
1.000000000000000E+20
 15
-1.000000000000000E+20
 25
-1.000000000000000E+20
 35
-1.000000000000000E+20
146
0.0
 13
0.0
 23
0.0
 33
0.0
 16
1.0
 26
0.0
 36
0.0
 17
0.0
 27
1.0
 37
0.0
 76
     0
330
1B
  0
LAYOUT
  5
26
102
{ACAD_REACTORS
330
1A
102
}
330
1A
100
AcDbPlotSettings
  1

  2
none_device
  4
Letter_(8.50_x_11.00_Inches)
  6

 40
6.349999904632567
 41
6.349999904632567
 42
6.350006103515625
 43
6.350006103515625
 44
215.8999938964844
 45
279.3999938964844
 46
0.0
 47
0.0
 48
0.0
 49
0.0
140
0.0
141
0.0
142
1.0
143
1.0
 70
 15024
 72
     1
 73
     1
 74
     5
  7
SEISA.ctb
 75
    16
147
1.0
 76
     0
 77
     2
 78
   300
148
0.0
149
0.0
100
AcDbLayout
  1
レイアウト2
 70
     1
 71
     2
 10
0.0
 20
0.0
 11
12.0
 21
9.0
 12
0.0
 22
0.0
 32
0.0
 14
0.0
 24
0.0
 34
0.0
 15
0.0
 25
0.0
 35
0.0
146
0.0
 13
0.0
 23
0.0
 33
0.0
 16
1.0
 26
0.0
 36
0.0
 17
0.0
 27
1.0
 37
0.0
 76
     0
330
23
  0
MATERIAL
  5
27D
102
{ACAD_REACTORS
330
C4
102
}
330
C4
100
AcDbMaterial
  1
ByBlock
 73
     1
 78
     1
172
     1
176
     1
270
     1
274
     1
 94
       63
  0
MATERIAL
  5
27C
102
{ACAD_REACTORS
330
C4
102
}
330
C4
100
AcDbMaterial
  1
ByLayer
 73
     1
 78
     1
172
     1
176
     1
270
     1
274
     1
 94
       63
  0
MATERIAL
  5
27E
102
{ACAD_REACTORS
330
C4
102
}
330
C4
100
AcDbMaterial
  1
Global
 73
     1
 78
     1
172
     1
176
     1
270
     1
274
     1
 94
       63
  0
MLEADERSTYLE
  5
2D6
102
{ACAD_REACTORS
330
2D5
102
}
330
2D5
100
AcDbMLeaderStyle
170
     2
171
     1
172
     0
 90
        2
 40
0.0
 41
0.0
173
     1
 91
-1056964608
340
14
 92
       -2
290
     1
 42
2.0
291
     1
 43
0.36
  3
Standard
 44
4.0
300

342
11
174
     1
178
     6
175
     1
176
     0
 93
-1056964608
 45
4.0
292
     0
297
     0
 46
4.0
 94
-1056964608
 47
1.0
 49
1.0
140
1.0
293
     1
141
0.0
294
     1
177
     0
142
1.0
295
     0
296
     0
143
0.125
1001
ACAD_MLEADERVER
1070
     2
  0
MLINESTYLE
  5
18
102
{ACAD_REACTORS
330
17
102
}
330
17
100
AcDbMlineStyle
  2
STANDARD
 70
     0
  3

 62
   256
 51
90.0
 52
90.0
 71
     2
 49
0.5
 62
   256
  6
BYLAYER
 49
-0.5
 62
   256
  6
BYLAYER
  0
PLOTSETTINGS
  5
1C7E
102
{ACAD_REACTORS
330
19
102
}
330
19
100
AcDbPlotSettings
  1
SEISA基本
  2
none_device
  4
Letter_(8.50_x_11.00_Inches)
  6

 40
6.349999904632567
 41
6.349999904632567
 42
6.350006103515625
 43
6.350006103515625
 44
215.8999938964844
 45
279.3999938964844
 46
7.302498226506357
 47
0.0
 48
0.0
 49
0.0
140
0.0
141
0.0
142
1.0
143
1.574803221122935
 70
 11956
 72
     1
 73
     1
 74
     2
  7
SEISA.ctb
 75
     0
147
0.6349999711627054
 76
     0
 77
     2
 78
   300
148
0.0
149
0.0
1001
ACAD_PSEXT
1000
なし
1000
なし
1000
適切ではありません
1000
新しいプロッタ環境設定名を選択しない限り、レイアウトは印刷されません。
1070
     0
  0
ACDBPLACEHOLDER
  5
F
102
{ACAD_REACTORS
330
E
102
}
330
E
  0
SCALE
  5
29F2
102
{ACAD_REACTORS
330
2B3
102
}
330
2B3
100
AcDbScale
 70
     0
300
1:1.5
140
1.0
141
1.5
290
     0
  0
SCALE
  5
2B4
102
{ACAD_REACTORS
330
2B3
102
}
330
2B3
100
AcDbScale
 70
     0
300
1:1
140
1.0
141
1.0
290
     1
  0
SCALE
  5
2B5
102
{ACAD_REACTORS
330
2B3
102
}
330
2B3
100
AcDbScale
 70
     0
300
1:2
140
1.0
141
2.0
290
     0
  0
SCALE
  5
2B6
102
{ACAD_REACTORS
330
2B3
102
}
330
2B3
100
AcDbScale
 70
     0
300
1:4
140
1.0
141
4.0
290
     0
  0
SCALE
  5
2B7
102
{ACAD_REACTORS
330
2B3
102
}
330
2B3
100
AcDbScale
 70
     0
300
1:5
140
1.0
141
5.0
290
     0
  0
SCALE
  5
2B8
102
{ACAD_REACTORS
330
2B3
102
}
330
2B3
100
AcDbScale
 70
     0
300
1:8
140
1.0
141
8.0
290
     0
  0
SCALE
  5
2B9
102
{ACAD_REACTORS
330
2B3
102
}
330
2B3
100
AcDbScale
 70
     0
300
1:10
140
1.0
141
10.0
290
     0
  0
SCALE
  5
2BA
102
{ACAD_REACTORS
330
2B3
102
}
330
2B3
100
AcDbScale
 70
     0
300
1:16
140
1.0
141
16.0
290
     0
  0
SCALE
  5
2BB
102
{ACAD_REACTORS
330
2B3
102
}
330
2B3
100
AcDbScale
 70
     0
300
1:20
140
1.0
141
20.0
290
     0
  0
SCALE
  5
2BC
102
{ACAD_REACTORS
330
2B3
102
}
330
2B3
100
AcDbScale
 70
     0
300
1:30
140
1.0
141
30.0
290
     0
  0
SCALE
  5
2BD
102
{ACAD_REACTORS
330
2B3
102
}
330
2B3
100
AcDbScale
 70
     0
300
1:40
140
1.0
141
40.0
290
     0
  0
SCALE
  5
2BE
102
{ACAD_REACTORS
330
2B3
102
}
330
2B3
100
AcDbScale
 70
     0
300
1:50
140
1.0
141
50.0
290
     0
  0
SCALE
  5
2BF
102
{ACAD_REACTORS
330
2B3
102
}
330
2B3
100
AcDbScale
 70
     0
300
1:100
140
1.0
141
100.0
290
     0
  0
SCALE
  5
2C0
102
{ACAD_REACTORS
330
2B3
102
}
330
2B3
100
AcDbScale
 70
     0
300
2:1
140
2.0
141
1.0
290
     0
  0
SCALE
  5
2C1
102
{ACAD_REACTORS
330
2B3
102
}
330
2B3
100
AcDbScale
 70
     0
300
4:1
140
4.0
141
1.0
290
     0
  0
SCALE
  5
2C2
102
{ACAD_REACTORS
330
2B3
102
}
330
2B3
100
AcDbScale
 70
     0
300
8:1
140
8.0
141
1.0
290
     0
  0
SCALE
  5
2C3
102
{ACAD_REACTORS
330
2B3
102
}
330
2B3
100
AcDbScale
 70
     0
300
10:1
140
10.0
141
1.0
290
     0
  0
SCALE
  5
2C4
102
{ACAD_REACTORS
330
2B3
102
}
330
2B3
100
AcDbScale
 70
     0
300
100:1
140
100.0
141
1.0
290
     0
  0
SCALE
  5
2C5
102
{ACAD_REACTORS
330
2B3
102
}
330
2B3
100
AcDbScale
 70
     0
300
1/128" = 1'-0"
140
0.0078125
141
12.0
290
     0
  0
SCALE
  5
2C6
102
{ACAD_REACTORS
330
2B3
102
}
330
2B3
100
AcDbScale
 70
     0
300
1/64" = 1'-0"
140
0.015625
141
12.0
290
     0
  0
SCALE
  5
2C7
102
{ACAD_REACTORS
330
2B3
102
}
330
2B3
100
AcDbScale
 70
     0
300
1/32" = 1'-0"
140
0.03125
141
12.0
290
     0
  0
SCALE
  5
2C8
102
{ACAD_REACTORS
330
2B3
102
}
330
2B3
100
AcDbScale
 70
     0
300
1/16" = 1'-0"
140
0.0625
141
12.0
290
     0
  0
SCALE
  5
2C9
102
{ACAD_REACTORS
330
2B3
102
}
330
2B3
100
AcDbScale
 70
     0
300
3/32" = 1'-0"
140
0.09375
141
12.0
290
     0
  0
SCALE
  5
2CA
102
{ACAD_REACTORS
330
2B3
102
}
330
2B3
100
AcDbScale
 70
     0
300
1/8" = 1'-0"
140
0.125
141
12.0
290
     0
  0
SCALE
  5
2CB
102
{ACAD_REACTORS
330
2B3
102
}
330
2B3
100
AcDbScale
 70
     0
300
3/16" = 1'-0"
140
0.1875
141
12.0
290
     0
  0
SCALE
  5
2CC
102
{ACAD_REACTORS
330
2B3
102
}
330
2B3
100
AcDbScale
 70
     0
300
1/4" = 1'-0"
140
0.25
141
12.0
290
     0
  0
SCALE
  5
2CD
102
{ACAD_REACTORS
330
2B3
102
}
330
2B3
100
AcDbScale
 70
     0
300
3/8" = 1'-0"
140
0.375
141
12.0
290
     0
  0
SCALE
  5
2CE
102
{ACAD_REACTORS
330
2B3
102
}
330
2B3
100
AcDbScale
 70
     0
300
1/2" = 1'-0"
140
0.5
141
12.0
290
     0
  0
SCALE
  5
2CF
102
{ACAD_REACTORS
330
2B3
102
}
330
2B3
100
AcDbScale
 70
     0
300
3/4" = 1'-0"
140
0.75
141
12.0
290
     0
  0
SCALE
  5
2D0
102
{ACAD_REACTORS
330
2B3
102
}
330
2B3
100
AcDbScale
 70
     0
300
1" = 1'-0"
140
1.0
141
12.0
290
     0
  0
SCALE
  5
2D1
102
{ACAD_REACTORS
330
2B3
102
}
330
2B3
100
AcDbScale
 70
     0
300
1-1/2" = 1'-0"
140
1.5
141
12.0
290
     0
  0
SCALE
  5
2D2
102
{ACAD_REACTORS
330
2B3
102
}
330
2B3
100
AcDbScale
 70
     0
300
3" = 1'-0"
140
3.0
141
12.0
290
     0
  0
SCALE
  5
2D3
102
{ACAD_REACTORS
330
2B3
102
}
330
2B3
100
AcDbScale
 70
     0
300
6" = 1'-0"
140
6.0
141
12.0
290
     0
  0
SCALE
  5
2D4
102
{ACAD_REACTORS
330
2B3
102
}
330
2B3
100
AcDbScale
 70
     0
300
1'-0" = 1'-0"
140
12.0
141
12.0
290
     0
  0
TABLESTYLE
  5
122
102
{ACAD_XDICTIONARY
360
2F5
102
}
102
{ACAD_REACTORS
330
121
102
}
330
121
100
AcDbTableStyle
  3
Standard
 70
     0
 71
     0
 40
1.5
 41
1.5
280
     0
281
     0
  7
STANDARD
140
4.5
170
     2
 62
     0
 63
     7
283
     0
 90
      512
 91
        0
  1

274
    -2
284
     1
 64
     0
275
    -2
285
     1
 65
     0
276
    -2
286
     1
 66
     0
277
    -2
287
     1
 67
     0
278
    -2
288
     1
 68
     0
279
    -2
289
     1
 69
     0
  7
STANDARD
140
6.0
170
     5
 62
     0
 63
     7
283
     0
 90
      512
 91
        0
  1

274
    -2
284
     1
 64
     0
275
    -2
285
     1
 65
     0
276
    -2
286
     1
 66
     0
277
    -2
287
     1
 67
     0
278
    -2
288
     1
 68
     0
279
    -2
289
     1
 69
     0
  7
STANDARD
140
4.5
170
     5
 62
     0
 63
     7
283
     0
 90
      512
 91
        0
  1

274
    -2
284
     1
 64
     0
275
    -2
285
     1
 65
     0
276
    -2
286
     1
 66
     0
277
    -2
287
     1
 67
     0
278
    -2
288
     1
 68
     0
279
    -2
289
     1
 69
     0
  0
VISUALSTYLE
  5
285
102
{ACAD_REACTORS
330
27F
102
}
330
27F
100
AcDbVisualStyle
  2
2dWireframe
 70
     4
 71
     0
 72
     2
 73
     0
 90
        0
 40
-0.6
 41
-30.0
 62
     5
 63
     7
421
 16777215
 74
     1
 91
        4
 64
     7
 65
   257
 75
     1
175
     1
 42
1.0
 92
        0
 66
   257
 43
1.0
 76
     1
 77
     6
 78
     2
 67
     7
 79
     5
170
     0
171
     0
290
     0
174
     0
 93
        1
 44
0.0
173
     0
291
     0
 45
0.0
  0
VISUALSTYLE
  5
287
102
{ACAD_REACTORS
330
27F
102
}
330
27F
100
AcDbVisualStyle
  2
3D Hidden
 70
     6
 71
     1
 72
     2
 73
     2
 90
        0
 40
-0.6
 41
-30.0
 62
     5
 63
     7
421
 16777215
 74
     2
 91
        2
 64
     7
 65
   257
 75
     2
175
     1
 42
40.0
 92
        0
 66
   257
 43
1.0
 76
     1
 77
     6
 78
     2
 67
     7
 79
     3
170
     0
171
     0
290
     0
174
     0
 93
        1
 44
0.0
173
     0
291
     0
 45
0.0
  0
VISUALSTYLE
  5
286
102
{ACAD_REACTORS
330
27F
102
}
330
27F
100
AcDbVisualStyle
  2
3dWireframe
 70
     5
 71
     0
 72
     2
 73
     0
 90
        0
 40
-0.6
 41
-30.0
 62
     5
 63
     7
421
 16777215
 74
     1
 91
        4
 64
     7
 65
   257
 75
     1
175
     1
 42
1.0
 92
        0
 66
   257
 43
1.0
 76
     1
 77
     6
 78
     2
 67
     7
 79
     5
170
     0
171
     0
290
     0
174
     0
 93
        1
 44
0.0
173
     0
291
     0
 45
0.0
  0
VISUALSTYLE
  5
284
102
{ACAD_REACTORS
330
27F
102
}
330
27F
100
AcDbVisualStyle
  2
Basic
 70
     7
 71
     1
 72
     0
 73
     1
 90
        0
 40
-0.6
 41
-30.0
 62
     5
 63
     7
421
 16777215
 74
     0
 91
        4
 64
     7
 65
   257
 75
     1
175
     1
 42
1.0
 92
        8
 66
     7
 43
1.0
 76
     1
 77
     6
 78
     2
 67
     7
 79
     5
170
     0
171
     0
290
     0
174
     0
 93
        1
 44
0.0
173
     0
291
     1
 45
0.0
  0
VISUALSTYLE
  5
28B
102
{ACAD_REACTORS
330
27F
102
}
330
27F
100
AcDbVisualStyle
  2
Brighten
 70
    12
 71
     2
 72
     2
 73
     0
 90
        0
 40
-0.6
 41
-30.0
 62
     5
 63
     7
421
 16777215
 74
     1
 91
        4
 64
     7
 65
   257
 75
     1
175
     1
 42
1.0
 92
        8
 66
     7
 43
1.0
 76
     1
 77
     6
 78
     2
 67
     7
 79
     5
170
     0
171
     0
290
     0
174
     0
 93
        1
 44
50.0
173
     0
291
     1
 45
0.0
  0
VISUALSTYLE
  5
28F
102
{ACAD_REACTORS
330
27F
102
}
330
27F
100
AcDbVisualStyle
  2
ColorChange
 70
    16
 71
     2
 72
     2
 73
     3
 90
        0
 40
-0.6
 41
-30.0
 62
     5
 63
     8
421
  8421504
 74
     1
 91
        4
 64
     7
 65
   257
 75
     1
175
     1
 42
1.0
 92
        8
 66
     8
424
  8421504
 43
1.0
 76
     1
 77
     6
 78
     2
 67
     7
 79
     5
170
     0
171
     0
290
     0
174
     0
 93
        1
 44
0.0
173
     0
291
     1
 45
0.0
  0
VISUALSTYLE
  5
288
102
{ACAD_REACTORS
330
27F
102
}
330
27F
100
AcDbVisualStyle
  2
Conceptual
 70
     9
 71
     3
 72
     2
 73
     0
 90
        0
 40
-0.6
 41
-30.0
 62
     5
 63
     7
421
 16777215
 74
     2
 91
        2
 64
     7
 65
   257
 75
     1
175
     1
 42
40.0
 92
        8
 66
     7
 43
1.0
 76
     1
 77
     6
 78
     2
 67
     7
 79
     3
170
     0
171
     0
290
     0
174
     0
 93
        1
 44
0.0
173
     0
291
     0
 45
0.0
  0
VISUALSTYLE
  5
28A
102
{ACAD_REACTORS
330
27F
102
}
330
27F
100
AcDbVisualStyle
  2
Dim
 70
    11
 71
     2
 72
     2
 73
     0
 90
        0
 40
-0.6
 41
-30.0
 62
     5
 63
     7
421
 16777215
 74
     1
 91
        4
 64
     7
 65
   257
 75
     1
175
     1
 42
1.0
 92
        8
 66
     7
 43
1.0
 76
     1
 77
     6
 78
     2
 67
     7
 79
     5
170
     0
171
     0
290
     0
174
     0
 93
        1
 44
-50.0
173
     0
291
     1
 45
0.0
  0
VISUALSTYLE
  5
28E
102
{ACAD_REACTORS
330
27F
102
}
330
27F
100
AcDbVisualStyle
  2
Facepattern
 70
    15
 71
     2
 72
     2
 73
     0
 90
        0
 40
-0.6
 41
-30.0
 62
     5
 63
     7
421
 16777215
 74
     1
 91
        4
 64
     7
 65
   257
 75
     1
175
     1
 42
1.0
 92
        8
 66
     7
 43
1.0
 76
     1
 77
     6
 78
     2
 67
     7
 79
     5
170
     0
171
     0
290
     0
174
     0
 93
        1
 44
0.0
173
     0
291
     1
 45
0.0
  0
VISUALSTYLE
  5
280
102
{ACAD_REACTORS
330
27F
102
}
330
27F
100
AcDbVisualStyle
  2
Flat
 70
     0
 71
     2
 72
     1
 73
     1
 90
        2
 40
-0.6
 41
30.0
 62
     5
 63
     7
421
 16777215
 74
     0
 91
        4
 64
     7
 65
   257
 75
     1
175
     1
 42
1.0
 92
        8
 66
     7
 43
1.0
 76
     1
 77
     6
 78
     2
 67
     7
 79
     5
170
     0
171
     0
290
     0
174
     0
 93
       13
 44
0.0
173
     0
291
     1
 45
0.0
  0
VISUALSTYLE
  5
281
102
{ACAD_REACTORS
330
27F
102
}
330
27F
100
AcDbVisualStyle
  2
FlatWithEdges
 70
     1
 71
     2
 72
     1
 73
     1
 90
        2
 40
-0.6
 41
30.0
 62
     5
 63
     7
421
 16777215
 74
     1
 91
        4
 64
     7
 65
   257
 75
     1
175
     1
 42
1.0
 92
        0
 66
   257
 43
1.0
 76
     1
 77
     6
 78
     2
 67
     7
 79
     5
170
     0
171
     0
290
     0
174
     0
 93
       13
 44
0.0
173
     0
291
     1
 45
0.0
  0
VISUALSTYLE
  5
282
102
{ACAD_REACTORS
330
27F
102
}
330
27F
100
AcDbVisualStyle
  2
Gouraud
 70
     2
 71
     2
 72
     2
 73
     1
 90
        2
 40
-0.6
 41
30.0
 62
     5
 63
     7
421
 16777215
 74
     0
 91
        4
 64
     7
 65
   257
 75
     1
175
     1
 42
1.0
 92
        0
 66
     7
 43
1.0
 76
     1
 77
     6
 78
     2
 67
     7
 79
     5
170
     0
171
     0
290
     0
174
     0
 93
       13
 44
0.0
173
     0
291
     1
 45
0.0
  0
VISUALSTYLE
  5
283
102
{ACAD_REACTORS
330
27F
102
}
330
27F
100
AcDbVisualStyle
  2
GouraudWithEdges
 70
     3
 71
     2
 72
     2
 73
     1
 90
        2
 40
-0.6
 41
30.0
 62
     5
 63
     7
421
 16777215
 74
     1
 91
        4
 64
     7
 65
   257
 75
     1
175
     1
 42
1.0
 92
        0
 66
   257
 43
1.0
 76
     1
 77
     6
 78
     2
 67
     7
 79
     5
170
     0
171
     0
290
     0
174
     0
 93
       13
 44
0.0
173
     0
291
     1
 45
0.0
  0
VISUALSTYLE
  5
28D
102
{ACAD_REACTORS
330
27F
102
}
330
27F
100
AcDbVisualStyle
  2
Linepattern
 70
    14
 71
     2
 72
     2
 73
     0
 90
        0
 40
-0.6
 41
-30.0
 62
     5
 63
     7
421
 16777215
 74
     1
 91
        4
 64
     7
 65
   257
 75
     7
175
     7
 42
1.0
 92
        8
 66
     7
 43
1.0
 76
     1
 77
     6
 78
     2
 67
     7
 79
     5
170
     0
171
     0
290
     0
174
     0
 93
        1
 44
0.0
173
     0
291
     1
 45
0.0
  0
VISUALSTYLE
  5
289
102
{ACAD_REACTORS
330
27F
102
}
330
27F
100
AcDbVisualStyle
  2
Realistic
 70
     8
 71
     2
 72
     2
 73
     0
 90
        0
 40
-0.6
 41
-30.0
 62
     5
 63
     7
421
 16777215
 74
     1
 91
        0
 64
     7
 65
   257
 75
     1
175
     1
 42
1.0
 92
        8
 66
     8
424
  7895160
 43
1.0
 76
     1
 77
     6
 78
     2
 67
     7
 79
     5
170
     0
171
     0
290
     0
174
     0
 93
       13
 44
0.0
173
     0
291
     0
 45
0.0
  0
VISUALSTYLE
  5
28C
102
{ACAD_REACTORS
330
27F
102
}
330
27F
100
AcDbVisualStyle
  2
Thicken
 70
    13
 71
     2
 72
     2
 73
     0
 90
        0
 40
-0.6
 41
-30.0
 62
     5
 63
     7
421
 16777215
 74
     1
 91
        4
 64
     7
 65
   257
 75
     1
175
     1
 42
1.0
 92
       12
 66
     7
 43
1.0
 76
     1
 77
     6
 78
     2
 67
     7
 79
     5
170
     0
171
     0
290
     0
174
     0
 93
        1
 44
0.0
173
     0
291
     1
 45
0.0
  0
DICTIONARYVAR
  5
2FA
102
{ACAD_REACTORS
330
34
102
}
330
34
100
DictionaryVariables
280
     0
  1
1:1.5
  0
DICTIONARYVAR
  5
2F8
102
{ACAD_REACTORS
330
34
102
}
330
34
100
DictionaryVariables
280
     0
  1
STANDARD
  0
DICTIONARYVAR
  5
140
102
{ACAD_REACTORS
330
34
102
}
330
34
100
DictionaryVariables
280
     0
  1
STANDARD
  0
DICTIONARYVAR
  5
AC
102
{ACAD_REACTORS
330
34
102
}
330
34
100
DictionaryVariables
280
     0
  1
1
  0
DICTIONARYVAR
  5
35
102
{ACAD_REACTORS
330
34
102
}
330
34
100
DictionaryVariables
280
     0
  1
1
  0
DICTIONARYVAR
  5
527E
102
{ACAD_REACTORS
330
34
102
}
330
34
100
DictionaryVariables
280
     0
  1
1
  0
DICTIONARYVAR
  5
527F
102
{ACAD_REACTORS
330
34
102
}
330
34
100
DictionaryVariables
280
     0
  1
15
  0
DICTIONARYVAR
  5
2FB
102
{ACAD_REACTORS
330
34
102
}
330
34
100
DictionaryVariables
280
     0
  1
0
  0
DICTIONARYVAR
  5
2F9
102
{ACAD_REACTORS
330
34
102
}
330
34
100
DictionaryVariables
280
     0
  1
0
  0
DICTIONARY
  5
161B
102
{ACAD_REACTORS
330
49
102
}
330
49
100
AcDbDictionary
281
     1
  0
DICTIONARY
  5
4A
102
{ACAD_REACTORS
330
49
102
}
330
49
100
AcDbDictionary
281
     1
  0
XRECORD
  5
12B
102
{ACAD_REACTORS
330
49
102
}
330
49
100
AcDbXrecord
280
     1
 90
-1023410169
  0
DICTIONARY
  5
2F5
330
122
100
AcDbDictionary
280
     1
281
     1
  3
ACAD_ROUNDTRIP_2008_TABLESTYLE_CELLSTYLEMAP
360
60CD
  0
CELLSTYLEMAP
  5
60CD
102
{ACAD_REACTORS
330
2F5
102
}
330
2F5
100
AcDbCellStyleMap
 90
        3
300
CELLSTYLE
  1
TABLEFORMAT_BEGIN
 90
        5
170
     1
 91
        0
 92
    32768
 62
   257
 93
        1
300
CONTENTFORMAT
  1
CONTENTFORMAT_BEGIN
 90
        0
 91
        0
 92
      512
 93
        0
300

 40
0.0
140
1.0
 94
        5
 62
     0
340
11
144
6.0
309
CONTENTFORMAT_END
171
     1
301
MARGIN
  1
CELLMARGIN_BEGIN
 40
1.5
 40
1.5
 40
1.5
 40
1.5
 40
0.18
 40
0.18
309
CELLMARGIN_END
 94
        6
 95
        1
302
GRIDFORMAT
  1
GRIDFORMAT_BEGIN
 90
        0
 91
        1
 62
     0
 92
       -2
340
0
 93
        0
 40
0.045
309
GRIDFORMAT_END
 95
        2
302
GRIDFORMAT
  1
GRIDFORMAT_BEGIN
 90
        0
 91
        1
 62
     0
 92
       -2
340
0
 93
        0
 40
0.045
309
GRIDFORMAT_END
 95
        4
302
GRIDFORMAT
  1
GRIDFORMAT_BEGIN
 90
        0
 91
        1
 62
     0
 92
       -2
340
0
 93
        0
 40
0.045
309
GRIDFORMAT_END
 95
        8
302
GRIDFORMAT
  1
GRIDFORMAT_BEGIN
 90
        0
 91
        1
 62
     0
 92
       -2
340
0
 93
        0
 40
0.045
309
GRIDFORMAT_END
 95
       16
302
GRIDFORMAT
  1
GRIDFORMAT_BEGIN
 90
        0
 91
        1
 62
     0
 92
       -2
340
0
 93
        0
 40
0.045
309
GRIDFORMAT_END
 95
       32
302
GRIDFORMAT
  1
GRIDFORMAT_BEGIN
 90
        0
 91
        1
 62
     0
 92
       -2
340
0
 93
        0
 40
0.045
309
GRIDFORMAT_END
309
TABLEFORMAT_END
  1
CELLSTYLE_BEGIN
 90
        1
 91
        1
300
_TITLE
309
CELLSTYLE_END
300
CELLSTYLE
  1
TABLEFORMAT_BEGIN
 90
        5
170
     1
 91
        0
 92
        0
 62
   257
 93
        1
300
CONTENTFORMAT
  1
CONTENTFORMAT_BEGIN
 90
        0
 91
        0
 92
      512
 93
        0
300

 40
0.0
140
1.0
 94
        5
 62
     0
340
11
144
4.5
309
CONTENTFORMAT_END
171
     1
301
MARGIN
  1
CELLMARGIN_BEGIN
 40
1.5
 40
1.5
 40
1.5
 40
1.5
 40
0.18
 40
0.18
309
CELLMARGIN_END
 94
        6
 95
        1
302
GRIDFORMAT
  1
GRIDFORMAT_BEGIN
 90
        0
 91
        1
 62
     0
 92
       -2
340
0
 93
        0
 40
0.045
309
GRIDFORMAT_END
 95
        2
302
GRIDFORMAT
  1
GRIDFORMAT_BEGIN
 90
        0
 91
        1
 62
     0
 92
       -2
340
0
 93
        0
 40
0.045
309
GRIDFORMAT_END
 95
        4
302
GRIDFORMAT
  1
GRIDFORMAT_BEGIN
 90
        0
 91
        1
 62
     0
 92
       -2
340
0
 93
        0
 40
0.045
309
GRIDFORMAT_END
 95
        8
302
GRIDFORMAT
  1
GRIDFORMAT_BEGIN
 90
        0
 91
        1
 62
     0
 92
       -2
340
0
 93
        0
 40
0.045
309
GRIDFORMAT_END
 95
       16
302
GRIDFORMAT
  1
GRIDFORMAT_BEGIN
 90
        0
 91
        1
 62
     0
 92
       -2
340
0
 93
        0
 40
0.045
309
GRIDFORMAT_END
 95
       32
302
GRIDFORMAT
  1
GRIDFORMAT_BEGIN
 90
        0
 91
        1
 62
     0
 92
       -2
340
0
 93
        0
 40
0.045
309
GRIDFORMAT_END
309
TABLEFORMAT_END
  1
CELLSTYLE_BEGIN
 90
        2
 91
        1
300
_HEADER
309
CELLSTYLE_END
300
CELLSTYLE
  1
TABLEFORMAT_BEGIN
 90
        5
170
     1
 91
        0
 92
        0
 62
   257
 93
        1
300
CONTENTFORMAT
  1
CONTENTFORMAT_BEGIN
 90
        0
 91
        0
 92
      512
 93
        0
300

 40
0.0
140
1.0
 94
        2
 62
     0
340
11
144
4.5
309
CONTENTFORMAT_END
171
     1
301
MARGIN
  1
CELLMARGIN_BEGIN
 40
1.5
 40
1.5
 40
1.5
 40
1.5
 40
0.18
 40
0.18
309
CELLMARGIN_END
 94
        6
 95
        1
302
GRIDFORMAT
  1
GRIDFORMAT_BEGIN
 90
        0
 91
        1
 62
     0
 92
       -2
340
0
 93
        0
 40
0.045
309
GRIDFORMAT_END
 95
        2
302
GRIDFORMAT
  1
GRIDFORMAT_BEGIN
 90
        0
 91
        1
 62
     0
 92
       -2
340
0
 93
        0
 40
0.045
309
GRIDFORMAT_END
 95
        4
302
GRIDFORMAT
  1
GRIDFORMAT_BEGIN
 90
        0
 91
        1
 62
     0
 92
       -2
340
0
 93
        0
 40
0.045
309
GRIDFORMAT_END
 95
        8
302
GRIDFORMAT
  1
GRIDFORMAT_BEGIN
 90
        0
 91
        1
 62
     0
 92
       -2
340
0
 93
        0
 40
0.045
309
GRIDFORMAT_END
 95
       16
302
GRIDFORMAT
  1
GRIDFORMAT_BEGIN
 90
        0
 91
        1
 62
     0
 92
       -2
340
0
 93
        0
 40
0.045
309
GRIDFORMAT_END
 95
       32
302
GRIDFORMAT
  1
GRIDFORMAT_BEGIN
 90
        0
 91
        1
 62
     0
 92
       -2
340
0
 93
        0
 40
0.045
309
GRIDFORMAT_END
309
TABLEFORMAT_END
  1
CELLSTYLE_BEGIN
 90
        3
 91
        2
300
_DATA
309
CELLSTYLE_END
  0
ENDSEC
  0
EOF
