  0
SECTION
  2
HEADER
  9
$ACADVER
  1
AC1021
  9
$ACADMAINTVER
 70
    26
  9
$DWGCODEPAGE
  3
ANSI_932
  9
$LASTSAVEDBY
  1
Htm_Terada
  9
$CUSTOMPROPERTYTAG
  1
AmdtFileType
  9
$CUSTOMPROPERTY
  1
84
  9
$INSBASE
 10
0.0
 20
0.0
 30
0.0
  9
$EXTMIN
 10
160.0018629755677
 20
107.4288951459211
 30
-0.0000000000112498
  9
$EXTMAX
 10
308.9641122703042
 20
278.1243904611614
 30
0.0000000000002956
  9
$LIMMIN
 10
-0.0000002271699202
 20
0.0
  9
$LIMMAX
 10
594.0
 20
420.0000000000001
  9
$ORTHOMODE
 70
     0
  9
$REGENMODE
 70
     1
  9
$FILLMODE
 70
     1
  9
$QTEXTMODE
 70
     0
  9
$MIRRTEXT
 70
     1
  9
$LTSCALE
 40
1.0
  9
$ATTMODE
 70
     1
  9
$TEXTSIZE
 40
25.0
  9
$TRACEWID
 40
1.0
  9
$TEXTSTYLE
  7
SEISA
  9
$CLAYER
  8
AM_0 外形線1
  9
$CELTYPE
  6
ByLayer
  9
$CECOLOR
 62
   256
  9
$CELTSCALE
 40
1.0
  9
$DISPSILH
 70
     0
  9
$DIMSCALE
 40
1.0
  9
$DIMASZ
 40
2.5
  9
$DIMEXO
 40
0.625
  9
$DIMDLI
 40
10.0
  9
$DIMRND
 40
0.0
  9
$DIMDLE
 40
0.0
  9
$DIMEXE
 40
0.625
  9
$DIMTP
 40
0.1
  9
$DIMTM
 40
0.1
  9
$DIMTXT
 40
3.5
  9
$DIMCEN
 40
0.0
  9
$DIMTSZ
 40
0.0
  9
$DIMTOL
 70
     0
  9
$DIMLIM
 70
     0
  9
$DIMTIH
 70
     0
  9
$DIMTOH
 70
     0
  9
$DIMSE1
 70
     0
  9
$DIMSE2
 70
     0
  9
$DIMTAD
 70
     3
  9
$DIMZIN
 70
     8
  9
$DIMBLK
  1
Open30
  9
$DIMASO
 70
     1
  9
$DIMSHO
 70
     1
  9
$DIMPOST
  1

  9
$DIMAPOST
  1
"
  9
$DIMALT
 70
     0
  9
$DIMALTD
 70
     2
  9
$DIMALTF
 40
0.0393701
  9
$DIMLFAC
 40
1.0
  9
$DIMTOFL
 70
     1
  9
$DIMTVP
 40
0.0
  9
$DIMTIX
 70
     0
  9
$DIMSOXD
 70
     0
  9
$DIMSAH
 70
     0
  9
$DIMBLK1
  1

  9
$DIMBLK2
  1

  9
$DIMSTYLE
  2
SEISA
  9
$DIMCLRD
 70
     3
  9
$DIMCLRE
 70
     3
  9
$DIMCLRT
 70
     3
  9
$DIMTFAC
 40
0.71
  9
$DIMGAP
 40
1.5
  9
$DIMJUST
 70
     0
  9
$DIMSD1
 70
     0
  9
$DIMSD2
 70
     0
  9
$DIMTOLJ
 70
     0
  9
$DIMTZIN
 70
     0
  9
$DIMALTZ
 70
     0
  9
$DIMALTTZ
 70
     8
  9
$DIMUPT
 70
     0
  9
$DIMDEC
 70
     2
  9
$DIMTDEC
 70
     3
  9
$DIMALTU
 70
     2
  9
$DIMALTTD
 70
     2
  9
$DIMTXSTY
  7
SEISA
  9
$DIMAUNIT
 70
     0
  9
$DIMADEC
 70
     0
  9
$DIMALTRND
 40
0.0
  9
$DIMAZIN
 70
     2
  9
$DIMDSEP
 70
    46
  9
$DIMATFIT
 70
     3
  9
$DIMFRAC
 70
     0
  9
$DIMLDRBLK
  1
Open30
  9
$DIMLUNIT
 70
     2
  9
$DIMLWD
 70
    -1
  9
$DIMLWE
 70
    -1
  9
$DIMTMOVE
 70
     0
  9
$DIMFXL
 40
1.0
  9
$DIMFXLON
 70
     0
  9
$DIMJOGANG
 40
0.7853981633974483
  9
$DIMTFILL
 70
     0
  9
$DIMTFILLCLR
 70
     0
  9
$DIMARCSYM
 70
     1
  9
$DIMLTYPE
  6

  9
$DIMLTEX1
  6

  9
$DIMLTEX2
  6

  9
$LUNITS
 70
     2
  9
$LUPREC
 70
     2
  9
$SKETCHINC
 40
1.0
  9
$FILLETRAD
 40
0.25
  9
$AUNITS
 70
     0
  9
$AUPREC
 70
     0
  9
$MENU
  1
.
  9
$ELEVATION
 40
0.0
  9
$PELEVATION
 40
0.0
  9
$THICKNESS
 40
0.0
  9
$LIMCHECK
 70
     0
  9
$CHAMFERA
 40
1.000000000000055
  9
$CHAMFERB
 40
1.000000000000026
  9
$CHAMFERC
 40
1.000000000000055
  9
$CHAMFERD
 40
0.7853981633974625
  9
$SKPOLY
 70
     0
  9
$TDCREATE
 40
2454963.473828785
  9
$TDUCREATE
 40
2454963.098828785
  9
$TDUPDATE
 40
2456479.541555625
  9
$TDUUPDATE
 40
2456479.166555625
  9
$TDINDWG
 40
0.2009712037
  9
$TDUSRTIMER
 40
0.2009701042
  9
$USRTIMER
 70
     1
  9
$ANGBASE
 50
0.0
  9
$ANGDIR
 70
     0
  9
$PDMODE
 70
     0
  9
$PDSIZE
 40
0.0
  9
$PLINEWID
 40
0.0
  9
$SPLFRAME
 70
     0
  9
$SPLINETYPE
 70
     6
  9
$SPLINESEGS
 70
     8
  9
$HANDSEED
  5
6770
  9
$SURFTAB1
 70
     6
  9
$SURFTAB2
 70
     6
  9
$SURFTYPE
 70
     6
  9
$SURFU
 70
     6
  9
$SURFV
 70
     6
  9
$UCSBASE
  2

  9
$UCSNAME
  2

  9
$UCSORG
 10
0.0
 20
0.0
 30
0.0
  9
$UCSXDIR
 10
1.0
 20
0.0
 30
0.0
  9
$UCSYDIR
 10
0.0
 20
1.0
 30
0.0
  9
$UCSORTHOREF
  2

  9
$UCSORTHOVIEW
 70
     0
  9
$UCSORGTOP
 10
0.0
 20
0.0
 30
0.0
  9
$UCSORGBOTTOM
 10
0.0
 20
0.0
 30
0.0
  9
$UCSORGLEFT
 10
0.0
 20
0.0
 30
0.0
  9
$UCSORGRIGHT
 10
0.0
 20
0.0
 30
0.0
  9
$UCSORGFRONT
 10
0.0
 20
0.0
 30
0.0
  9
$UCSORGBACK
 10
0.0
 20
0.0
 30
0.0
  9
$PUCSBASE
  2

  9
$PUCSNAME
  2

  9
$PUCSORG
 10
0.0
 20
0.0
 30
0.0
  9
$PUCSXDIR
 10
1.0
 20
0.0
 30
0.0
  9
$PUCSYDIR
 10
0.0
 20
1.0
 30
0.0
  9
$PUCSORTHOREF
  2

  9
$PUCSORTHOVIEW
 70
     0
  9
$PUCSORGTOP
 10
0.0
 20
0.0
 30
0.0
  9
$PUCSORGBOTTOM
 10
0.0
 20
0.0
 30
0.0
  9
$PUCSORGLEFT
 10
0.0
 20
0.0
 30
0.0
  9
$PUCSORGRIGHT
 10
0.0
 20
0.0
 30
0.0
  9
$PUCSORGFRONT
 10
0.0
 20
0.0
 30
0.0
  9
$PUCSORGBACK
 10
0.0
 20
0.0
 30
0.0
  9
$USERI1
 70
     0
  9
$USERI2
 70
     0
  9
$USERI3
 70
     0
  9
$USERI4
 70
     0
  9
$USERI5
 70
     0
  9
$USERR1
 40
0.0
  9
$USERR2
 40
0.0
  9
$USERR3
 40
0.0
  9
$USERR4
 40
0.0
  9
$USERR5
 40
0.0
  9
$WORLDVIEW
 70
     1
  9
$SHADEDGE
 70
     3
  9
$SHADEDIF
 70
    70
  9
$TILEMODE
 70
     1
  9
$MAXACTVP
 70
    64
  9
$PINSBASE
 10
0.0
 20
0.0
 30
0.0
  9
$PLIMCHECK
 70
     0
  9
$PEXTMIN
 10
1.000000000000000E+20
 20
1.000000000000000E+20
 30
1.000000000000000E+20
  9
$PEXTMAX
 10
-1.000000000000000E+20
 20
-1.000000000000000E+20
 30
-1.000000000000000E+20
  9
$PLIMMIN
 10
0.0
 20
0.0
  9
$PLIMMAX
 10
420.0
 20
297.0
  9
$UNITMODE
 70
     0
  9
$VISRETAIN
 70
     1
  9
$PLINEGEN
 70
     0
  9
$PSLTSCALE
 70
     1
  9
$TREEDEPTH
 70
  3020
  9
$CMLSTYLE
  2
Standard
  9
$CMLJUST
 70
     0
  9
$CMLSCALE
 40
20.0
  9
$PROXYGRAPHICS
 70
     1
  9
$MEASUREMENT
 70
     1
  9
$CELWEIGHT
370
    -1
  9
$ENDCAPS
280
     0
  9
$JOINSTYLE
280
     0
  9
$LWDISPLAY
290
     0
  9
$INSUNITS
 70
     4
  9
$HYPERLINKBASE
  1

  9
$STYLESHEET
  1
SEISA.CTB
  9
$XEDIT
290
     1
  9
$CEPSNTYPE
380
     0
  9
$PSTYLEMODE
290
     1
  9
$FINGERPRINTGUID
  2
{3E7EC5D8-C821-4FAC-BBC6-DDE58A9072DB}
  9
$VERSIONGUID
  2
{4FB5D0C0-DF1C-4DE2-94CF-C0ACD03415DB}
  9
$EXTNAMES
290
     1
  9
$PSVPSCALE
 40
0.0
  9
$OLESTARTUP
290
     0
  9
$SORTENTS
280
   127
  9
$INDEXCTL
280
     0
  9
$HIDETEXT
280
     0
  9
$XCLIPFRAME
290
     0
  9
$HALOGAP
280
     0
  9
$OBSCOLOR
 70
   257
  9
$OBSLTYPE
280
     0
  9
$INTERSECTIONDISPLAY
280
     0
  9
$INTERSECTIONCOLOR
 70
   257
  9
$DIMASSOC
280
     2
  9
$PROJECTNAME
  1

  9
$CAMERADISPLAY
290
     0
  9
$LENSLENGTH
 40
50.0
  9
$CAMERAHEIGHT
 40
0.0
  9
$STEPSPERSEC
 40
2.0
  9
$STEPSIZE
 40
6.0
  9
$3DDWFPREC
 40
2.0
  9
$PSOLWIDTH
 40
0.25
  9
$PSOLHEIGHT
 40
4.0
  9
$LOFTANG1
 40
1.570796326794896
  9
$LOFTANG2
 40
1.570796326794896
  9
$LOFTMAG1
 40
0.0
  9
$LOFTMAG2
 40
0.0
  9
$LOFTPARAM
 70
     7
  9
$LOFTNORMALS
280
     1
  9
$LATITUDE
 40
37.795
  9
$LONGITUDE
 40
-122.394
  9
$NORTHDIRECTION
 40
0.0
  9
$TIMEZONE
 70
 -8000
  9
$LIGHTGLYPHDISPLAY
280
     1
  9
$TILEMODELIGHTSYNCH
280
     1
  9
$CMATERIAL
347
27C
  9
$SOLIDHIST
280
     1
  9
$SHOWHIST
280
     1
  9
$DWFFRAME
280
     2
  9
$DGNFRAME
280
     0
  9
$REALWORLDSCALE
290
     1
  9
$INTERFERECOLOR
 62
     1
  9
$INTERFEREOBJVS
345
289
  9
$INTERFEREVPVS
346
286
  9
$CSHADOW
280
     0
  9
$SHADOWPLANELOCATION
 40
0.0
  0
ENDSEC
  0
SECTION
  2
CLASSES
  0
CLASS
  1
ACDBDICTIONARYWDFLT
  2
AcDbDictionaryWithDefault
  3
ObjectDBX Classes
 90
        0
 91
        1
280
     0
281
     0
  0
CLASS
  1
AMGSETTINGSOBJ
  2
AmgSettingsObj
  3
"AcadM|Product Description: AutoCAD Mechanical|Company: Autodesk, Inc."
 90
     1024
 91
        2
280
     0
281
     0
  0
CLASS
  1
ACME_DOCUMENT
  2
AcMeDbDoc
  3
AcMeServices
 90
     1024
 91
        1
280
     0
281
     0
  0
CLASS
  1
ACMESCOPE
  2
AcMeScope
  3
AcMeServices
 90
     1024
 91
        1
280
     0
281
     0
  0
CLASS
  1
ACMECOMMANDHISTORY
  2
AcMeCommandHistory
  3
AcMeServices
 90
     1024
 91
        1
280
     0
281
     0
  0
CLASS
  1
DICTIONARYVAR
  2
AcDbDictionaryVar
  3
ObjectDBX Classes
 90
        0
 91
        9
280
     0
281
     0
  0
CLASS
  1
ACIMSYSVARMAN
  2
AcImSysVarManager
  3
AcMeServices
 90
     1024
 91
        5
280
     0
281
     0
  0
CLASS
  1
ACIMREALSYSVAR
  2
AcImRealSysVar
  3
AcMeServices
 90
     1024
 91
        1
280
     0
281
     0
  0
CLASS
  1
ACIMINTSYSVAR
  2
AcImIntSysVar
  3
AcMeServices
 90
     1024
 91
       27
280
     0
281
     0
  0
CLASS
  1
ACMEDRAWINGMAN
  2
AcMeDrawingMan
  3
AcMeServices
 90
     1024
 91
        1
280
     0
281
     0
  0
CLASS
  1
ACMEVIEW
  2
AcMeView
  3
AcMeServices
 90
     1024
 91
        1
280
     0
281
     0
  0
CLASS
  1
ACDBENTITYCACHE
  2
AcMeEntityCache
  3
AcMeServices
 90
     1024
 91
        1
280
     0
281
     0
  0
CLASS
  1
GSMANAGER
  2
AcMeGSManager
  3
AcMeServices
 90
     1024
 91
        1
280
     0
281
     0
  0
CLASS
  1
AMDTINTERNALREACTOR
  2
AmdtInternalReactor
  3
AcMeServices
 90
     1024
 91
        2
280
     0
281
     0
  0
CLASS
  1
ACMESTATEMGR
  2
AcMeStateMgr
  3
AcMeServices
 90
     1024
 91
        1
280
     0
281
     0
  0
CLASS
  1
ACGREFMASTER
  2
AcGrefMaster
  3
AcAttribServices
 90
     1024
 91
        1
280
     0
281
     0
  0
CLASS
  1
ACME_DATABASE
  2
AcMeDbDatabase
  3
AcMeServices
 90
     1024
 91
        1
280
     0
281
     0
  0
CLASS
  1
ACRFINSADJUSTERMGR
  2
AcRfInsAdjusterMgr
  3
AcMeServices
 90
     1024
 91
        1
280
     0
281
     0
  0
CLASS
  1
ACGREFACADMASTER
  2
AcGrefacadMaster
  3
AcGrefServices
 90
     1024
 91
        1
280
     0
281
     0
  0
CLASS
  1
AMIMASTER
  2
AmiMaster
  3
AmiServices
 90
     1024
 91
        1
280
     0
281
     0
  0
CLASS
  1
ACIMSTRSYSVAR
  2
AcImStrSysVar
  3
AcMeServices
 90
     1024
 91
        5
280
     0
281
     0
  0
CLASS
  1
ACMSTANDARDJIS
  2
AcmStandardJIS
  3
"Amdt_StdImp|Product Description: AutoCAD Mechanical|Company: Autodesk, Inc."
 90
     1024
 91
        0
280
     0
281
     0
  0
CLASS
  1
AMGOBJPROPCFG
  2
AmgObjPropCfg
  3
"AmgLay|Product Description: AutoCAD Mechanical|Company: Autodesk, Inc."
 90
     1025
 91
        1
280
     0
281
     0
  0
CLASS
  1
ACMSURFSTANDARDJIS
  2
AcmSurfTextStdJIS
  3
"Amdt_StdImp|Product Description: AutoCAD Mechanical|Company: Autodesk, Inc."
 90
     1024
 91
        0
280
     0
281
     0
  0
CLASS
  1
ACMFCFSTANDARDJIS
  2
AcmFCFStdJIS
  3
"Amdt_StdImp|Product Description: AutoCAD Mechanical|Company: Autodesk, Inc."
 90
     1024
 91
        0
280
     0
281
     0
  0
CLASS
  1
ACMWELDSTANDARDJIS
  2
AcmWeldingStdJIS
  3
"Amdt_StdImp|Product Description: AutoCAD Mechanical|Company: Autodesk, Inc."
 90
     1024
 91
        0
280
     0
281
     0
  0
CLASS
  1
ACMIDSTANDARDJIS
  2
AcmIdStdJIS
  3
"Amdt_StdImp|Product Description: AutoCAD Mechanical|Company: Autodesk, Inc."
 90
     1024
 91
        0
280
     0
281
     0
  0
CLASS
  1
ACMDATUMSTANDARDJIS
  2
AcmDatumStdJIS
  3
"Amdt_StdImp|Product Description: AutoCAD Mechanical|Company: Autodesk, Inc."
 90
     1024
 91
        0
280
     0
281
     0
  0
CLASS
  1
ACMBOMSTANDARDJIS
  2
AcmBOMStdJIS
  3
"Amdt_StdImp|Product Description: AutoCAD Mechanical|Company: Autodesk, Inc."
 90
     1024
 91
        0
280
     0
281
     0
  0
CLASS
  1
ACMDETAILSTANDARDJIS
  2
AmdtDetailSymStdJIS
  3
"Amdt_StdImp|Product Description: AutoCAD Mechanical|Company: Autodesk, Inc."
 90
     1024
 91
        0
280
     0
281
     0
  0
CLASS
  1
ACMSECTIONSTANDARDJIS
  2
AmdtSectionSymStdJIS
  3
"Amdt_StdImp|Product Description: AutoCAD Mechanical|Company: Autodesk, Inc."
 90
     1024
 91
        0
280
     0
281
     0
  0
CLASS
  1
ACMCENTERLINESTANDARDJIS
  2
AmdtCenterLineStdJIS
  3
"Amdt_StdImp|Product Description: AutoCAD Mechanical|Company: Autodesk, Inc."
 90
     1024
 91
        0
280
     0
281
     0
  0
CLASS
  1
ACMTHREADLINESTANDARDJIS
  2
AmdtThreadLineStdJIS
  3
"Amdt_StdImp|Product Description: AutoCAD Mechanical|Company: Autodesk, Inc."
 90
     1024
 91
        0
280
     0
281
     0
  0
CLASS
  1
ACAMGLAYSTD
  2
AcAmgLayStd
  3
"AmgLay|Product Description: AutoCAD Mechanical|Company: Autodesk, Inc."
 90
     1024
 91
        1
280
     0
281
     0
  0
CLASS
  1
ACAMGDIMSTD
  2
AcAmgDimStd
  3
"AmgDim|Product Description: AutoCAD Mechanical|Company: Autodesk, Inc."
 90
     1024
 91
        1
280
     0
281
     0
  0
CLASS
  1
ACAMGTITLESTD
  2
AcAmgTitleStd
  3
"AmgTitle|Product Description: AutoCAD Mechanical|Company: Autodesk, Inc."
 90
     4095
 91
        1
280
     0
281
     0
  0
CLASS
  1
ACMDATADICTIONARY
  2
AcmDataDictionary
  3
"AcmSymBB|Product Description: AutoCAD Mechanical|Company: Autodesk, Inc."
 90
     1024
 91
        1
280
     0
281
     0
  0
CLASS
  1
ACMDATAENTRYBLOCK
  2
AcmDataEntryBlock
  3
AcmSymBB|Product Description: AutoCAD Mechanical|Company: Autodesk, Inc.
 90
     1024
 91
        0
280
     0
281
     0
  0
CLASS
  1
LAYER_INDEX
  2
AcDbLayerIndex
  3
ObjectDBX Classes
 90
        0
 91
        0
280
     0
281
     0
  0
CLASS
  1
IDBUFFER
  2
AcDbIdBuffer
  3
ObjectDBX Classes
 90
        0
 91
        0
280
     0
281
     0
  0
CLASS
  1
ACMNOTESTANDARDJIS
  2
AmdtNoteStdJIS
  3
"Amdt_StdImp|Product Description: AutoCAD Mechanical|Company: Autodesk, Inc."
 90
     1024
 91
        0
280
     0
281
     0
  0
CLASS
  1
ACAMGHOLECHARTSTDJIS
  2
AcAmgHoleChartStdJIS
  3
AmgDim|Product Description: AutoCAD Mechanical|Company: Autodesk, Inc.
 90
     1024
 91
        0
280
     0
281
     0
  0
CLASS
  1
AM_DRAWING_MGR
  2
AcDmDwgMgr
  3
AcMechDwgViewMgmt
 90
     1024
 91
        1
280
     0
281
     0
  0
CLASS
  1
AM_DWG_DOCUMENT
  2
AcDmDwgDocument
  3
AcMechDwgViewMgmt
 90
     1024
 91
        1
280
     0
281
     0
  0
CLASS
  1
AM_DWG_SHEET
  2
AcDmSheet
  3
AcMechDwgViewMgmt
 90
     1024
 91
        2
280
     0
281
     0
  0
CLASS
  1
AM_VIEWDIMPARMAP
  2
AcDmViewDimParMap
  3
AcMechDwgViewMgmt
 90
     1024
 91
        2
280
     0
281
     0
  0
CLASS
  1
AM_DWGMGR_NAME
  2
AcDmDwgMgrName
  3
AcMechDwgViewMgmt
 90
     1024
 91
        1
280
     0
281
     0
  0
CLASS
  1
AMDTMENUSTATEMGR
  2
AmdtMenuStateMgr
  3
McadcomServices
 90
     1024
 91
        1
280
     0
281
     0
  0
CLASS
  1
AMDTMCOMMENUSTATE
  2
AmdtMcomMenuState
  3
McadcomServices
 90
     1024
 91
        1
280
     0
281
     0
  0
CLASS
  1
MAPIAMMOUDLE
  2
MApiAmModule
  3
MApiAmServices
 90
     1024
 91
        1
280
     0
281
     0
  0
CLASS
  1
AMDTADMENUSTATE
  2
AmdtAdMenuState
  3
DesignerServices
 90
     1024
 91
        1
280
     0
281
     0
  0
CLASS
  1
ADAPPL
  2
AcAdAppl
  3
DesignerServices
 90
     1024
 91
        1
280
     0
281
     0
  0
CLASS
  1
DEPMGR
  2
AcAdDepMgr
  3
DesignerServices
 90
     1024
 91
        1
280
     0
281
     0
  0
CLASS
  1
PARAMMGR
  2
AcAdParamMgr
  3
DesignerServices
 90
     1024
 91
        1
280
     0
281
     0
  0
CLASS
  1
PARAMSCOPE
  2
AcAdParamScope
  3
DesignerServices
 90
     1024
 91
        1
280
     0
281
     0
  0
CLASS
  1
NAMEDAPPL
  2
AcAdNamedAppl
  3
DesignerServices
 90
     1024
 91
        1
280
     0
281
     0
  0
CLASS
  1
AMDTDMMENUSTATE
  2
AmdtDmMenuState
  3
AcMechDwgViewMgmt
 90
     1024
 91
        1
280
     0
281
     0
  0
CLASS
  1
AMDTAMMENUSTATE
  2
AmdtAmMenuState
  3
DesignerAssemblies
 90
     1024
 91
        1
280
     0
281
     0
  0
CLASS
  1
ACAMPROJECT
  2
AcAmProject
  3
DesignerAssemblies
 90
     1024
 91
        1
280
     0
281
     0
  0
CLASS
  1
ACAMGRCOMPDEF
  2
AcAmGrCompDef
  3
DesignerAssemblies
 90
     1024
 91
        1
280
     0
281
     0
  0
CLASS
  1
ACCMCONTEXT
  2
AcCmContext
  3
DesignerAssemblies
 90
     1024
 91
        1
280
     0
281
     0
  0
CLASS
  1
ACAMCOMPDEF
  2
AcAmCompDef
  3
DesignerAssemblies
 90
     1024
 91
        1
280
     0
281
     0
  0
CLASS
  1
ACAMCOMPDEFMGR
  2
AcAmCompDefMgr
  3
DesignerAssemblies
 90
     1024
 91
        1
280
     0
281
     0
  0
CLASS
  1
AMCONTEXTMGR
  2
AcAmContextMgr
  3
DesignerAssemblies
 90
     1024
 91
        1
280
     0
281
     0
  0
CLASS
  1
ACAMCONTEXTMODELER
  2
AcAmContextModeler
  3
DesignerAssemblies
 90
     1024
 91
        1
280
     0
281
     0
  0
CLASS
  1
CATALOGSTATE
  2
AcAmCatalogState
  3
DesignerAssemblies
 90
     1024
 91
        1
280
     0
281
     0
  0
CLASS
  1
ACAMGRCOMPDEFSET
  2
AcAmGrCompDefSet
  3
DesignerAssemblies
 90
     1024
 91
        1
280
     0
281
     0
  0
CLASS
  1
AMDTBROWSERDBTAB
  2
AmdtBrowserDbTab
  3
McadcomServices
 90
     1024
 91
        1
280
     0
281
     0
  0
CLASS
  1
CBROWSERAPPOBJECT
  2
CBrowserAppObject
  3
McadcomServices
 90
     1024
 91
        3
280
     0
281
     0
  0
CLASS
  1
DM_PLACEHOLDER
  2
AcDmSelsetPlaceholder
  3
AcMechDwgViewMgmt
 90
     1024
 91
        1
280
     0
281
     0
  0
CLASS
  1
TABLESTYLE
  2
AcDbTableStyle
  3
ObjectDBX Classes
 90
     4095
 91
        1
280
     0
281
     0
  0
CLASS
  1
VAACXREFPANELOBJECT
  2
VaAcXREFPanelObject
  3
VAAC_ADDIN
 90
        0
 91
        0
280
     0
281
     0
  0
CLASS
  1
VAACIMAGEINVENTORY
  2
VaAcImageInventory
  3
VAAC_ADDIN
 90
        0
 91
        0
280
     0
281
     0
  0
CLASS
  1
AMDTNOTETEMPLATEDB
  2
AmdtNoteTemplateDB
  3
AcmSymBB|Product Description: AutoCAD Mechanical|Company: Autodesk, Inc.
 90
     1024
 91
        6
280
     0
281
     0
  0
CLASS
  1
ACAMGFILTERDAT
  2
AcAmgFilterDat
  3
"AcadM|Product Description: AutoCAD Mechanical|Company: Autodesk, Inc."
 90
     1024
 91
        0
280
     0
281
     0
  0
CLASS
  1
MATERIAL
  2
AcDbMaterial
  3
ObjectDBX Classes
 90
     1153
 91
        3
280
     0
281
     0
  0
CLASS
  1
VISUALSTYLE
  2
AcDbVisualStyle
  3
ObjectDBX Classes
 90
     4095
 91
       16
280
     0
281
     0
  0
CLASS
  1
ACRFATTGENMGR
  2
AcRfAttGeneralMgr
  3
AcAttribServices
 90
     1024
 91
        0
280
     0
281
     0
  0
CLASS
  1
ACRFOBJATTMGR
  2
AcRfObjAttGroupMgr
  3
AcAttribServices
 90
     1024
 91
        0
280
     0
281
     0
  0
CLASS
  1
ACRFMCADAPIATTHOLDER
  2
AcRfMCADAPIAttHolder
  3
AcAttribServices
 90
     1024
 91
        0
280
     0
281
     0
  0
CLASS
  1
AMDTSYSATTR
  2
AmdtSystemAttribute
  3
AcAttribServices
 90
     1024
 91
        0
280
     0
281
     0
  0
CLASS
  1
ACMTAPERSTANDARDJIS
  2
AcmTaperStdJIS
  3
"Amdt_StdImp|Product Description: AutoCAD Mechanical|Company: Autodesk, Inc."
 90
     1024
 91
        0
280
     0
281
     0
  0
CLASS
  1
CAMSSTRUCTBTNSTATE
  2
StructBtnState
  3
DesignerAssemblies
 90
     1024
 91
        0
280
     0
281
     0
  0
CLASS
  1
SCALE
  2
AcDbScale
  3
ObjectDBX Classes
 90
     1153
 91
       34
280
     0
281
     0
  0
CLASS
  1
MLEADERSTYLE
  2
AcDbMLeaderStyle
  3
ACDB_MLEADERSTYLE_CLASS
 90
     4095
 91
        1
280
     0
281
     0
  0
CLASS
  1
ACMANOOTATIONVIEWSTANDARDJIS
  2
AmdtAnViewStdJIS
  3
"Amdt_StdImp|Product Description: AutoCAD Mechanical|Company: Autodesk, Inc."
 90
     1024
 91
        0
280
     0
281
     0
  0
CLASS
  1
ACMSURFSTANDARDJIS2003
  2
AcmSurfTextStdJIS2003
  3
"Amdt_StdImp|Product Description: AutoCAD Mechanical|Company: Autodesk, Inc."
 90
     1024
 91
        0
280
     0
281
     0
  0
CLASS
  1
CELLSTYLEMAP
  2
AcDbCellStyleMap
  3
ObjectDBX Classes
 90
     1152
 91
        2
280
     0
281
     0
  0
CLASS
  1
ACMFCFSTANDARDJIS98
  2
AcmFCFStdJIS98
  3
"Amdt_StdImp|Product Description: AutoCAD Mechanical|Company: Autodesk, Inc."
 90
     1024
 91
        0
280
     0
281
     0
  0
CLASS
  1
SORTENTSTABLE
  2
AcDbSortentsTable
  3
ObjectDBX Classes
 90
        0
 91
        8
280
     0
281
     0
  0
CLASS
  1
DIMASSOC
  2
AcDbDimAssoc
  3
"AcDbDimAssoc|Product Desc:     AcDim ARX App For Dimension|Company:          Autodesk, Inc.|WEB Address:      www.autodesk.com"
 90
        0
 91
       15
280
     0
281
     0
  0
CLASS
  1
STDPART2D
  2
AmgStdPart
  3
AmgStdPart|Product Description: AutoCAD Mechanical|Company: Autodesk, Inc.
 90
     4095
 91
        0
280
     0
281
     1
  0
CLASS
  1
ACMDATAENTRYPART
  2
AcmDataEntryPart
  3
AcmSymBB|Product Description: AutoCAD Mechanical|Company: Autodesk, Inc.
 90
     1024
 91
        0
280
     0
281
     0
  0
CLASS
  1
ACMPARTREF
  2
AcmPartRef
  3
"AcmSymBB|Product Description: AutoCAD Mechanical|Company: Autodesk, Inc."
 90
     4095
 91
        0
280
     0
281
     1
  0
CLASS
  1
ACDBSTDPARTRES_LINE
  2
AcDbStdPartRes_Line
  3
AmgStdPart|Product Description: AutoCAD Mechanical|Company: Autodesk, Inc.
 90
     1024
 91
        0
280
     0
281
     0
  0
CLASS
  1
ACMBOM
  2
AcmBom
  3
"AcmSymBB|Product Description: AutoCAD Mechanical|Company: Autodesk, Inc."
 90
     1024
 91
        0
280
     0
281
     0
  0
CLASS
  1
AMDTFORMULAUPDATEDISPATCHER
  2
AmdtFormulaUpdateDispatcher
  3
AcMeServices
 90
     1024
 91
        0
280
     0
281
     0
  0
CLASS
  1
ACMBOMROW
  2
AcmBomRow
  3
"AcmSymBB|Product Description: AutoCAD Mechanical|Company: Autodesk, Inc."
 90
     1024
 91
        0
280
     0
281
     0
  0
CLASS
  1
ACMPARTLIST
  2
AcmPartList
  3
"AcmSymBB|Product Description: AutoCAD Mechanical|Company: Autodesk, Inc."
 90
     4095
 91
        0
280
     0
281
     1
  0
CLASS
  1
ACDBLINERES
  2
AcDbLineRes
  3
AcGrefServices
 90
     1024
 91
        0
280
     0
281
     0
  0
CLASS
  1
ACRFINSADJ
  2
AcRfInsAdjuster
  3
AcMeServices
 90
     1024
 91
        0
280
     0
281
     0
  0
CLASS
  1
ACMSTANDARDISO
  2
AcmStandardISO
  3
"Amdt_StdImp|Product Description: AutoCAD Mechanical|Company: Autodesk, Inc."
 90
     1024
 91
        1
280
     0
281
     0
  0
CLASS
  1
AMDTEDGESTANDARDISO13715
  2
AmdtEdgeStdISO13715
  3
"Amdt_StdImp|Product Description: AutoCAD Mechanical|Company: Autodesk, Inc."
 90
     1024
 91
        1
280
     0
281
     0
  0
CLASS
  1
ACMSURFSTANDARDISO2002
  2
AcmSurfTextStdISO2002
  3
"Amdt_StdImp|Product Description: AutoCAD Mechanical|Company: Autodesk, Inc."
 90
     1024
 91
        1
280
     0
281
     0
  0
CLASS
  1
ACMFCFSTANDARDISO
  2
AcmFCFStdISO
  3
"Amdt_StdImp|Product Description: AutoCAD Mechanical|Company: Autodesk, Inc."
 90
     1024
 91
        1
280
     0
281
     0
  0
CLASS
  1
ACMWELDSTANDARDISO
  2
AcmWeldingStdISO
  3
"Amdt_StdImp|Product Description: AutoCAD Mechanical|Company: Autodesk, Inc."
 90
     1024
 91
        1
280
     0
281
     0
  0
CLASS
  1
ACMIDSTANDARDISO
  2
AcmIdStdISO
  3
"Amdt_StdImp|Product Description: AutoCAD Mechanical|Company: Autodesk, Inc."
 90
     1024
 91
        1
280
     0
281
     0
  0
CLASS
  1
ACMDATUMSTANDARDISO
  2
AcmDatumStdISO
  3
"Amdt_StdImp|Product Description: AutoCAD Mechanical|Company: Autodesk, Inc."
 90
     1024
 91
        1
280
     0
281
     0
  0
CLASS
  1
ACMBOMSTANDARDISO
  2
AcmBOMStdISO
  3
"Amdt_StdImp|Product Description: AutoCAD Mechanical|Company: Autodesk, Inc."
 90
     1024
 91
        1
280
     0
281
     0
  0
CLASS
  1
ACMDETAILSTANDARDISO
  2
AmdtDetailSymStdISO
  3
"Amdt_StdImp|Product Description: AutoCAD Mechanical|Company: Autodesk, Inc."
 90
     1024
 91
        1
280
     0
281
     0
  0
CLASS
  1
ACMSECTIONSTANDARDISO2001
  2
AmdtSectionSymStdISO2001
  3
"Amdt_StdImp|Product Description: AutoCAD Mechanical|Company: Autodesk, Inc."
 90
     1024
 91
        1
280
     0
281
     0
  0
CLASS
  1
ACMCENTERLINESTANDARDISO
  2
AmdtCenterLineStdISO
  3
"Amdt_StdImp|Product Description: AutoCAD Mechanical|Company: Autodesk, Inc."
 90
     1024
 91
        1
280
     0
281
     0
  0
CLASS
  1
ACMTHREADLINESTANDARDISO
  2
AmdtThreadLineStdISO
  3
"Amdt_StdImp|Product Description: AutoCAD Mechanical|Company: Autodesk, Inc."
 90
     1024
 91
        1
280
     0
281
     0
  0
CLASS
  1
ACMNOTESTANDARDISO
  2
AmdtNoteStdISO
  3
"Amdt_StdImp|Product Description: AutoCAD Mechanical|Company: Autodesk, Inc."
 90
     1024
 91
        1
280
     0
281
     0
  0
CLASS
  1
ACMTAPERSTANDARDISO
  2
AcmTaperStdISO
  3
"Amdt_StdImp|Product Description: AutoCAD Mechanical|Company: Autodesk, Inc."
 90
     1024
 91
        1
280
     0
281
     0
  0
CLASS
  1
ACMANOOTATIONVIEWSTANDARDISO
  2
AmdtAnViewStdISO
  3
"Amdt_StdImp|Product Description: AutoCAD Mechanical|Company: Autodesk, Inc."
 90
     1024
 91
        1
280
     0
281
     0
  0
CLASS
  1
ACAMGHOLECHARTSTDISO
  2
AcAmgHoleChartStdISO
  3
AmgDim|Product Description: AutoCAD Mechanical|Company: Autodesk, Inc.
 90
     1024
 91
        1
280
     0
281
     0
  0
CLASS
  1
EXACXREFPANELOBJECT
  2
ExAcXREFPanelObject
  3
EXAC_ESW
 90
     1025
 91
        0
280
     0
281
     0
  0
CLASS
  1
NPOCOLLECTION
  2
AcDbImpNonPersistentObjectsCollection
  3
ObjectDBX Classes
 90
     1153
 91
        0
280
     0
281
     0
  0
CLASS
  1
ACDBSTDPARTRES_ARC
  2
AcDbStdPartRes_Arc
  3
AmgStdPart|Product Description: AutoCAD Mechanical|Company: Autodesk, Inc.
 90
     1024
 91
        0
280
     0
281
     0
  0
CLASS
  1
AMDTNOTE
  2
AmdtNote
  3
"AcmSymBB|Product Description: AutoCAD Mechanical|Company: Autodesk, Inc."
 90
     4095
 91
        0
280
     0
281
     1
  0
CLASS
  1
PLOTSETTINGS
  2
AcDbPlotSettings
  3
ObjectDBX Classes
 90
        0
 91
        1
280
     0
281
     0
  0
CLASS
  1
ACMSTANDARDANSI
  2
AcmStandardANSI
  3
"Amdt_StdImp|Product Description: AutoCAD Mechanical|Company: Autodesk, Inc."
 90
     1024
 91
        0
280
     0
281
     0
  0
CLASS
  1
ACMSURFSTANDARDANSI
  2
AcmSurfTextStdANSI
  3
"Amdt_StdImp|Product Description: AutoCAD Mechanical|Company: Autodesk, Inc."
 90
     1024
 91
        0
280
     0
281
     0
  0
CLASS
  1
ACMFCFSTANDARDANSI
  2
AcmFCFStdANSI
  3
"Amdt_StdImp|Product Description: AutoCAD Mechanical|Company: Autodesk, Inc."
 90
     1024
 91
        0
280
     0
281
     0
  0
CLASS
  1
ACMWELDSTANDARDANSI
  2
AcmWeldingStdANSI
  3
"Amdt_StdImp|Product Description: AutoCAD Mechanical|Company: Autodesk, Inc."
 90
     1024
 91
        0
280
     0
281
     0
  0
CLASS
  1
ACMIDSTANDARDANSI
  2
AcmIdStdANSI
  3
"Amdt_StdImp|Product Description: AutoCAD Mechanical|Company: Autodesk, Inc."
 90
     1024
 91
        0
280
     0
281
     0
  0
CLASS
  1
ACMDATUMSTANDARDANSI
  2
AcmDatumStdANSI
  3
"Amdt_StdImp|Product Description: AutoCAD Mechanical|Company: Autodesk, Inc."
 90
     1024
 91
        0
280
     0
281
     0
  0
CLASS
  1
ACMBOMSTANDARDANSI
  2
AcmBOMStdANSI
  3
"Amdt_StdImp|Product Description: AutoCAD Mechanical|Company: Autodesk, Inc."
 90
     1024
 91
        0
280
     0
281
     0
  0
CLASS
  1
ACMDETAILSTANDARDANSI
  2
AmdtDetailSymStdANSI
  3
"Amdt_StdImp|Product Description: AutoCAD Mechanical|Company: Autodesk, Inc."
 90
     1024
 91
        0
280
     0
281
     0
  0
CLASS
  1
ACMSECTIONSTANDARDANSI
  2
AmdtSectionSymStdANSI
  3
"Amdt_StdImp|Product Description: AutoCAD Mechanical|Company: Autodesk, Inc."
 90
     1024
 91
        0
280
     0
281
     0
  0
CLASS
  1
ACMCENTERLINESTANDARDANSI
  2
AmdtCenterLineStdANSI
  3
"Amdt_StdImp|Product Description: AutoCAD Mechanical|Company: Autodesk, Inc."
 90
     1024
 91
        0
280
     0
281
     0
  0
CLASS
  1
ACMTHREADLINESTANDARDANSI
  2
AmdtThreadLineStdANSI
  3
"Amdt_StdImp|Product Description: AutoCAD Mechanical|Company: Autodesk, Inc."
 90
     1024
 91
        0
280
     0
281
     0
  0
CLASS
  1
ACMNOTESTANDARDANSI
  2
AmdtNoteStdANSI
  3
"Amdt_StdImp|Product Description: AutoCAD Mechanical|Company: Autodesk, Inc."
 90
     1024
 91
        0
280
     0
281
     0
  0
CLASS
  1
ACMTAPERSTANDARDANSI
  2
AcmTaperStdANSI
  3
"Amdt_StdImp|Product Description: AutoCAD Mechanical|Company: Autodesk, Inc."
 90
     1024
 91
        0
280
     0
281
     0
  0
CLASS
  1
ACMANOOTATIONVIEWSTANDARDANSI
  2
AmdtAnViewStdANSI
  3
"Amdt_StdImp|Product Description: AutoCAD Mechanical|Company: Autodesk, Inc."
 90
     1024
 91
        0
280
     0
281
     0
  0
CLASS
  1
ACAMGHOLECHARTSTDANSI
  2
AcAmgHoleChartStdANSI
  3
AmgDim|Product Description: AutoCAD Mechanical|Company: Autodesk, Inc.
 90
     1024
 91
        0
280
     0
281
     0
  0
CLASS
  1
ACMSTANDARDBSI
  2
AcmStandardBSI
  3
"Amdt_StdImp|Product Description: AutoCAD Mechanical|Company: Autodesk, Inc."
 90
     1024
 91
        0
280
     0
281
     0
  0
CLASS
  1
ACMSURFSTANDARDBSI2002
  2
AcmSurfTextStdBSI2002
  3
"Amdt_StdImp|Product Description: AutoCAD Mechanical|Company: Autodesk, Inc."
 90
     1024
 91
        0
280
     0
281
     0
  0
CLASS
  1
ACMFCFSTANDARDBSI
  2
AcmFCFStdBSI
  3
"Amdt_StdImp|Product Description: AutoCAD Mechanical|Company: Autodesk, Inc."
 90
     1024
 91
        0
280
     0
281
     0
  0
CLASS
  1
ACMWELDSTANDARDBSI
  2
AcmWeldingStdBSI
  3
"Amdt_StdImp|Product Description: AutoCAD Mechanical|Company: Autodesk, Inc."
 90
     1024
 91
        0
280
     0
281
     0
  0
CLASS
  1
ACMIDSTANDARDBSI
  2
AcmIdStdBSI
  3
"Amdt_StdImp|Product Description: AutoCAD Mechanical|Company: Autodesk, Inc."
 90
     1024
 91
        0
280
     0
281
     0
  0
CLASS
  1
ACMDATUMSTANDARDBSI
  2
AcmDatumStdBSI
  3
"Amdt_StdImp|Product Description: AutoCAD Mechanical|Company: Autodesk, Inc."
 90
     1024
 91
        0
280
     0
281
     0
  0
CLASS
  1
ACMBOMSTANDARDBSI
  2
AcmBOMStdBSI
  3
"Amdt_StdImp|Product Description: AutoCAD Mechanical|Company: Autodesk, Inc."
 90
     1024
 91
        0
280
     0
281
     0
  0
CLASS
  1
ACMDETAILSTANDARDBSI
  2
AmdtDetailSymStdBSI
  3
"Amdt_StdImp|Product Description: AutoCAD Mechanical|Company: Autodesk, Inc."
 90
     1024
 91
        0
280
     0
281
     0
  0
CLASS
  1
ACMSECTIONSTANDARDBSI2001
  2
AmdtSectionSymStdBSI2001
  3
"Amdt_StdImp|Product Description: AutoCAD Mechanical|Company: Autodesk, Inc."
 90
     1024
 91
        0
280
     0
281
     0
  0
CLASS
  1
ACMCENTERLINESTANDARDBSI
  2
AmdtCenterLineStdBSI
  3
"Amdt_StdImp|Product Description: AutoCAD Mechanical|Company: Autodesk, Inc."
 90
     1024
 91
        0
280
     0
281
     0
  0
CLASS
  1
ACMTHREADLINESTANDARDBSI
  2
AmdtThreadLineStdBSI
  3
"Amdt_StdImp|Product Description: AutoCAD Mechanical|Company: Autodesk, Inc."
 90
     1024
 91
        0
280
     0
281
     0
  0
CLASS
  1
ACMNOTESTANDARDBSI
  2
AmdtNoteStdBSI
  3
"Amdt_StdImp|Product Description: AutoCAD Mechanical|Company: Autodesk, Inc."
 90
     1024
 91
        0
280
     0
281
     0
  0
CLASS
  1
ACMTAPERSTANDARDBSI
  2
AcmTaperStdBSI
  3
"Amdt_StdImp|Product Description: AutoCAD Mechanical|Company: Autodesk, Inc."
 90
     1024
 91
        0
280
     0
281
     0
  0
CLASS
  1
ACMANOOTATIONVIEWSTANDARDBSI
  2
AmdtAnViewStdBSI
  3
"Amdt_StdImp|Product Description: AutoCAD Mechanical|Company: Autodesk, Inc."
 90
     1024
 91
        0
280
     0
281
     0
  0
CLASS
  1
ACAMGHOLECHARTSTDBSI
  2
AcAmgHoleChartStdBSI
  3
AmgDim|Product Description: AutoCAD Mechanical|Company: Autodesk, Inc.
 90
     1024
 91
        0
280
     0
281
     0
  0
CLASS
  1
AMDTEDGESTANDARDJIS
  2
AmdtEdgeStdJIS
  3
"Amdt_StdImp|Product Description: AutoCAD Mechanical|Company: Autodesk, Inc."
 90
     1024
 91
        0
280
     0
281
     0
  0
CLASS
  1
ACDB_BLKREFOBJECTCONTEXTDATA_CLASS
  2
AcDbBlkRefObjectContextData
  3
ObjectDBX Classes
 90
     1153
 91
        0
280
     0
281
     0
  0
CLASS
  1
ACDBOPPOLYLINERES
  2
AcDbOpPolylineRes
  3
AcGrefServices
 90
     1024
 91
        0
280
     0
281
     0
  0
CLASS
  1
AMDTACMWBLOCKBOMENTITY
  2
AmdtAcmWblockBomEntity
  3
"AcmSymBB|Product Description: AutoCAD Mechanical|Company: Autodesk, Inc."
 90
     4095
 91
        0
280
     0
281
     1
  0
CLASS
  1
ACMSURFSYM
  2
AcmSurfaceTexture
  3
"AcmSymBB|Product Description: AutoCAD Mechanical|Company: Autodesk, Inc."
 90
     4095
 91
        0
280
     0
281
     1
  0
CLASS
  1
ACDBCIRCARCRES
  2
AcDbCircArcRes
  3
AcGrefServices
 90
     1024
 91
        0
280
     0
281
     0
  0
CLASS
  1
ACDBDIMENSIONRES
  2
AcDbDimensionRes
  3
AcmSymBB|Product Description: AutoCAD Mechanical|Company: Autodesk, Inc.
 90
     1024
 91
        0
280
     0
281
     0
  0
CLASS
  1
ACMPICKOBJ
  2
AcmPickEnt
  3
"AcmSymBB|Product Description: AutoCAD Mechanical|Company: Autodesk, Inc."
 90
     1024
 91
        0
280
     0
281
     1
  0
CLASS
  1
ACMBALLOON
  2
AcmBalloon
  3
"AcmSymBB|Product Description: AutoCAD Mechanical|Company: Autodesk, Inc."
 90
     4095
 91
        0
280
     0
281
     1
  0
ENDSEC
  0
SECTION
  2
TABLES
  0
TABLE
  2
VPORT
  5
8
330
0
100
AcDbSymbolTable
 70
     1
  0
VPORT
  5
27A
330
8
100
AcDbSymbolTableRecord
100
AcDbViewportTableRecord
  2
*Active
 70
     0
 10
0.0
 20
0.0
 11
1.0
 21
1.0
 12
234.482987622936
 22
192.7766428035413
 13
0.0
 23
0.0
 14
2.5
 24
2.5
 15
10.0
 25
10.0
 16
0.0
 26
0.0
 36
1.0
 17
0.0
 27
0.0
 37
0.0
 40
172.0001742603249
 41
1.571428571428571
 42
50.0
 43
0.0
 44
0.0
 50
0.0
 51
0.0
 71
    16
 72
 20000
 73
     1
 74
     3
 75
     0
 76
     0
 77
     0
 78
     0
281
     0
 65
     0
110
0.0
120
0.0
130
0.0
111
1.0
121
0.0
131
0.0
112
0.0
122
1.0
132
0.0
 79
     0
146
0.0
348
285
 60
     3
 61
     5
292
     1
282
     0
141
0.0
142
0.0
 63
   250
421
  3355443
  0
ENDTAB
  0
TABLE
  2
LTYPE
  5
5
330
0
100
AcDbSymbolTable
 70
    15
  0
LTYPE
  5
14
330
5
100
AcDbSymbolTableRecord
100
AcDbLinetypeTableRecord
  2
ByBlock
 70
     0
  3

 72
    65
 73
     0
 40
0.0
  0
LTYPE
  5
15
330
5
100
AcDbSymbolTableRecord
100
AcDbLinetypeTableRecord
  2
ByLayer
 70
     0
  3

 72
    65
 73
     0
 40
0.0
  0
LTYPE
  5
16
330
5
100
AcDbSymbolTableRecord
100
AcDbLinetypeTableRecord
  2
Continuous
 70
     0
  3
Solid line
 72
    65
 73
     0
 40
0.0
  0
LTYPE
  5
4D
330
5
100
AcDbSymbolTableRecord
100
AcDbLinetypeTableRecord
  2
AM_ISO02W050
 70
     0
  3
__ __ __ __ __ __ __ __ __ __ __ __ __ __ __
 72
    65
 73
     2
 40
7.5
 49
6.0
 74
     0
 49
-1.5
 74
     0
  0
LTYPE
  5
4E
330
5
100
AcDbSymbolTableRecord
100
AcDbLinetypeTableRecord
  2
AM_ISO08W050
 70
     0
  3
____ . ____ . ____ . ____ . ____ . ____ . ____
 72
    65
 73
     4
 40
18.0
 49
12.0
 74
     0
 49
-1.5
 74
     0
 49
3.0
 74
     0
 49
-1.5
 74
     0
  0
LTYPE
  5
4F
330
5
100
AcDbSymbolTableRecord
100
AcDbLinetypeTableRecord
  2
AM_ISO09W050
 70
     0
  3
_____ . . _____ . . _____ . . ____ .. ____
 72
    65
 73
     6
 40
22.5
 49
12.0
 74
     0
 49
-1.5
 74
     0
 49
3.0
 74
     0
 49
-1.5
 74
     0
 49
3.0
 74
     0
 49
-1.5
 74
     0
  0
LTYPE
  5
50
330
5
100
AcDbSymbolTableRecord
100
AcDbLinetypeTableRecord
  2
Amconstr
 70
     0
  3
_______________________
 72
    65
 73
     2
 40
9999.0
 49
9999.0
 74
     0
 49
0.0
 74
     0
  0
LTYPE
  5
51
330
5
100
AcDbSymbolTableRecord
100
AcDbLinetypeTableRecord
  2
AM_ISO08W050x2
 70
     0
  3
__ . __ . __ . __ . __ . __
 72
    65
 73
     4
 40
9.0
 49
6.0
 74
     0
 49
-0.75
 74
     0
 49
1.5
 74
     0
 49
-0.75
 74
     0
  0
LTYPE
  5
52
330
5
100
AcDbSymbolTableRecord
100
AcDbLinetypeTableRecord
  2
AM_ISO02W050x2
 70
     0
  3
 _ _ _ _ _ _ _ _ _ _ _ _
 72
    65
 73
     2
 40
3.75
 49
3.0
 74
     0
 49
-0.75
 74
     0
  0
LTYPE
  5
55
330
5
100
AcDbSymbolTableRecord
100
AcDbLinetypeTableRecord
  2
Amzigzag
 70
     0
  3
/\/-/\/-/\/-/\/-/\/-/\/
 72
    65
 73
     2
 40
11.0001
 49
0.0001
 74
     4
 75
   136
340
23D
 46
0.04
 50
0.0
 44
0.0
 45
0.0
 49
-11.0
 74
     0
  0
LTYPE
  5
65
330
5
100
AcDbSymbolTableRecord
100
AcDbLinetypeTableRecord
  2
CENTER
 70
     0
  3
__ . __
 72
    65
 73
     4
 40
7.0
 49
4.0
 74
     0
 49
-1.0
 74
     0
 49
1.0
 74
     0
 49
-1.0
 74
     0
  0
LTYPE
  5
E0
330
5
100
AcDbSymbolTableRecord
100
AcDbLinetypeTableRecord
  2
HIDDEN
 70
     0
  3
Hidden __ __ __ __ __ __ __ __ __ __ __ __ __ _
 72
    65
 73
     2
 40
9.524999999999996
 49
6.349999999999997
 74
     0
 49
-3.174999999999998
 74
     0
  0
LTYPE
  5
E1
330
5
100
AcDbSymbolTableRecord
100
AcDbLinetypeTableRecord
  2
PHANTOM2
 70
     0
  3
Phantom (.5x) ___ _ _ ___ _ _ ___ _ _ ___ _ _
 72
    65
 73
     6
 40
31.75
 49
15.875
 74
     0
 49
-3.174999999999998
 74
     0
 49
3.174999999999998
 74
     0
 49
-3.174999999999998
 74
     0
 49
3.174999999999998
 74
     0
 49
-3.174999999999998
 74
     0
  0
LTYPE
  5
5A2
330
5
100
AcDbSymbolTableRecord
100
AcDbLinetypeTableRecord
  2
ACJISWELD
 70
     0
  3
_ _ _ _ _
 72
    65
 73
     2
 40
2.0
 49
2.0
 74
     0
 49
-1.0
 74
     0
  0
LTYPE
  5
66CB
330
5
100
AcDbSymbolTableRecord
100
AcDbLinetypeTableRecord
  2
ACISOWELD
 70
     0
  3
_ _ _ _ _
 72
    65
 73
     2
 40
2.0
 49
2.0
 74
     0
 49
-1.0
 74
     0
  0
LTYPE
  5
66CC
330
5
100
AcDbSymbolTableRecord
100
AcDbLinetypeTableRecord
  2
ACISOTGB
 70
     0
  3
__ . . __ . .
 72
    65
 73
     6
 40
9.0
 49
4.0
 74
     0
 49
-1.0
 74
     0
 49
1.0
 74
     0
 49
-1.0
 74
     0
 49
1.0
 74
     0
 49
-1.0
 74
     0
  0
LTYPE
  5
66CD
330
5
100
AcDbSymbolTableRecord
100
AcDbLinetypeTableRecord
  2
ACISOTGL
 70
     0
  3
_ _ _ _ _
 72
    65
 73
     2
 40
3.0
 49
2.0
 74
     0
 49
-1.0
 74
     0
  0
ENDTAB
  0
TABLE
  2
LAYER
  5
2
102
{ACAD_XDICTIONARY
360
BF
102
}
330
0
100
AcDbSymbolTable
 70
     9
  0
LAYER
  5
10
102
{ACAD_XDICTIONARY
360
29D7
102
}
330
2
100
AcDbSymbolTableRecord
100
AcDbLayerTableRecord
  2
0
 70
     0
 62
     7
  6
Continuous
370
    -3
390
F
347
27E
  0
LAYER
  5
81
102
{ACAD_XDICTIONARY
360
29D9
102
}
330
2
100
AcDbSymbolTableRecord
100
AcDbLayerTableRecord
  2
AM_0 外形線1
 70
     0
 62
     7
  6
Continuous
370
    25
390
F
347
27E
  0
LAYER
  5
427
330
2
100
AcDbSymbolTableRecord
100
AcDbLayerTableRecord
  2
Defpoints
 70
     0
 62
     7
  6
Continuous
290
     0
370
    -3
390
F
347
27E
  0
LAYER
  5
25C9
102
{ACAD_XDICTIONARY
360
29E0
102
}
330
2
100
AcDbSymbolTableRecord
100
AcDbLayerTableRecord
  2
AM_3 隠れ線
 70
     0
 62
     8
  6
ACJISWELD
370
    13
390
F
347
27E
1001
AcAecLayerStandard
1000

1000

  0
LAYER
  5
25CA
102
{ACAD_XDICTIONARY
360
29E2
102
}
330
2
100
AcDbSymbolTableRecord
100
AcDbLayerTableRecord
  2
AM_4 細線
 70
     0
 62
     4
  6
Continuous
370
    13
390
F
347
27E
1001
AcAecLayerStandard
1000

1000

  0
LAYER
  5
26B3
102
{ACAD_XDICTIONARY
360
29E8
102
}
330
2
100
AcDbSymbolTableRecord
100
AcDbLayerTableRecord
  2
AM_5 寸法線
 70
     0
 62
     3
  6
Continuous
370
    13
390
F
347
27E
1001
AcAecLayerStandard
1000

1000

  0
LAYER
  5
354A
330
2
100
AcDbSymbolTableRecord
100
AcDbLayerTableRecord
  2
AM_7 中心線
 70
     0
 62
     1
  6
AM_ISO08W050
370
    13
390
F
347
27E
1001
AcAecLayerStandard
1000

1000

  0
LAYER
  5
354C
330
2
100
AcDbSymbolTableRecord
100
AcDbLayerTableRecord
  2
AM_6 文字
 70
     0
 62
     2
  6
Continuous
370
    13
390
F
347
27E
1001
AcAecLayerStandard
1000

1000

  0
LAYER
  5
631E
330
2
100
AcDbSymbolTableRecord
100
AcDbLayerTableRecord
  2
AM_11 想像線
 70
     0
 62
     5
  6
AM_ISO09W050
370
    13
390
F
347
27E
1001
AcAecLayerStandard
1000

1000

  0
ENDTAB
  0
TABLE
  2
STYLE
  5
3
330
0
100
AcDbSymbolTable
 70
     5
  0
STYLE
  5
11
330
3
100
AcDbSymbolTableRecord
100
AcDbTextStyleTableRecord
  2
STANDARD
 70
     0
 40
0.0
 41
1.0
 50
0.0
 71
     0
 42
25.0
  3
ISOCP.SHX
  4
EXTFONT.SHX
  0
STYLE
  5
23D
330
3
100
AcDbSymbolTableRecord
100
AcDbTextStyleTableRecord
  2

 70
     1
 40
0.0
 41
1.0
 50
0.0
 71
     0
 42
2.5
  3
genltshp.shx
  4

  0
STYLE
  5
5D5
330
3
100
AcDbSymbolTableRecord
100
AcDbTextStyleTableRecord
  2
SEISA
 70
     0
 40
0.0
 41
0.9
 50
0.0
 71
     0
 42
25.0
  3
romans.shx
  4
extfont2.shx
  0
STYLE
  5
66BB
330
3
100
AcDbSymbolTableRecord
100
AcDbTextStyleTableRecord
  2
ACISOTS
 70
     0
 40
1.0
 41
1.0
 50
0.0
 71
     0
 42
25.0
  3
isocp.shx
  4
extfont.shx
  0
STYLE
  5
66CA
330
3
100
AcDbSymbolTableRecord
100
AcDbTextStyleTableRecord
  2
ACISOGDT
 70
     0
 40
0.0
 41
1.0
 50
0.0
 71
     0
 42
25.0
  3
amgdt.shx
  4

  0
ENDTAB
  0
TABLE
  2
VIEW
  5
6
330
0
100
AcDbSymbolTable
 70
     6
  0
VIEW
  5
91B
330
6
100
AcDbSymbolTableRecord
100
AcDbViewTableRecord
  2
AM_VIEW1
 70
     0
 40
210.0
 10
220.0531912621918
 20
315.0000000000001
 41
440.1063829787235
 11
0.0
 21
0.0
 31
1.0
 12
0.0
 22
0.0
 32
0.0
 42
50.0
 43
0.0
 44
0.0
 50
0.0
 71
    16
281
     0
 72
     0
 73
     0
  0
VIEW
  5
91C
330
6
100
AcDbSymbolTableRecord
100
AcDbViewTableRecord
  2
AM_VIEW2
 70
     0
 40
210.0
 10
373.9468085106382
 20
315.0000000000001
 41
440.1063829787235
 11
0.0
 21
0.0
 31
1.0
 12
0.0
 22
0.0
 32
0.0
 42
50.0
 43
0.0
 44
0.0
 50
0.0
 71
    16
281
     0
 72
     0
 73
     0
  0
VIEW
  5
91D
330
6
100
AcDbSymbolTableRecord
100
AcDbViewTableRecord
  2
AM_VIEW3
 70
     0
 40
210.0
 10
220.0531912621918
 20
105.0
 41
440.1063829787235
 11
0.0
 21
0.0
 31
1.0
 12
0.0
 22
0.0
 32
0.0
 42
50.0
 43
0.0
 44
0.0
 50
0.0
 71
    16
281
     0
 72
     0
 73
     0
  0
VIEW
  5
91E
330
6
100
AcDbSymbolTableRecord
100
AcDbViewTableRecord
  2
AM_VIEW4
 70
     0
 40
210.0
 10
373.9468085106382
 20
105.0
 41
440.1063829787235
 11
0.0
 21
0.0
 31
1.0
 12
0.0
 22
0.0
 32
0.0
 42
50.0
 43
0.0
 44
0.0
 50
0.0
 71
    16
281
     0
 72
     0
 73
     0
  0
VIEW
  5
91F
330
6
100
AcDbSymbolTableRecord
100
AcDbViewTableRecord
  2
AM_VIEW5
 70
     0
 40
210.0000000000001
 10
296.999999886415
 20
210.0
 41
440.1063829787235
 11
0.0
 21
0.0
 31
1.0
 12
0.0
 22
0.0
 32
0.0
 42
50.0
 43
0.0
 44
0.0
 50
0.0
 71
    16
281
     0
 72
     0
 73
     0
  0
VIEW
  5
920
330
6
100
AcDbSymbolTableRecord
100
AcDbViewTableRecord
  2
AM_VIEW6
 70
     0
 40
419.9958000000001
 10
296.999999886415
 20
210.0
 41
880.2039638297873
 11
0.0
 21
0.0
 31
1.0
 12
0.0
 22
0.0
 32
0.0
 42
50.0
 43
0.0
 44
0.0
 50
0.0
 71
    16
281
     0
 72
     0
 73
     0
  0
ENDTAB
  0
TABLE
  2
UCS
  5
7
330
0
100
AcDbSymbolTable
 70
     0
  0
ENDTAB
  0
TABLE
  2
APPID
  5
9
330
0
100
AcDbSymbolTable
 70
   392
  0
APPID
  5
12
330
9
100
AcDbSymbolTableRecord
100
AcDbRegAppTableRecord
  2
ACAD
 70
     0
  0
APPID
  5
30
330
9
100
AcDbSymbolTableRecord
100
AcDbRegAppTableRecord
  2
MCAD_NO_VIS
 70
     0
  0
APPID
  5
31
330
9
100
AcDbSymbolTableRecord
100
AcDbRegAppTableRecord
  2
ACAD_TEMP_GRAPHIC
 70
     0
  0
APPID
  5
44
330
9
100
AcDbSymbolTableRecord
100
AcDbRegAppTableRecord
  2
ACATTRIBSERVICES
 70
     0
  0
APPID
  5
F6
330
9
100
AcDbSymbolTableRecord
100
AcDbRegAppTableRecord
  2
AD_DRAW
 70
     0
  0
APPID
  5
114
330
9
100
AcDbSymbolTableRecord
100
AcDbRegAppTableRecord
  2
DESIGNERASSEMBLIES
 70
     0
  0
APPID
  5
118
330
9
100
AcDbSymbolTableRecord
100
AcDbRegAppTableRecord
  2
ACADM_DIM_EDIT
 70
     0
  0
APPID
  5
119
330
9
100
AcDbSymbolTableRecord
100
AcDbRegAppTableRecord
  2
AMDT_DM_ADJ
 70
     0
  0
APPID
  5
1AF
330
9
100
AcDbSymbolTableRecord
100
AcDbRegAppTableRecord
  2
ACAD_DSTYLE_DIMARC_LENGTH_SYMBOL
 70
     0
  0
APPID
  5
1B0
330
9
100
AcDbSymbolTableRecord
100
AcDbRegAppTableRecord
  2
ACAD_DSTYLE_DIMJOGGED_JOGANGLE_SYMBOL
 70
     0
  0
APPID
  5
2D7
330
9
100
AcDbSymbolTableRecord
100
AcDbRegAppTableRecord
  2
ACAD_MLEADERVER
 70
     0
  0
APPID
  5
355
330
9
100
AcDbSymbolTableRecord
100
AcDbRegAppTableRecord
  2
AcadAnnoPO
 70
     0
  0
APPID
  5
428
330
9
100
AcDbSymbolTableRecord
100
AcDbRegAppTableRecord
  2
ACAD_DSTYLE_DIMTEXT_FILL
 70
     0
  0
APPID
  5
429
330
9
100
AcDbSymbolTableRecord
100
AcDbRegAppTableRecord
  2
GENIUS_GENSCREG_15
 70
     0
  0
APPID
  5
42A
330
9
100
AcDbSymbolTableRecord
100
AcDbRegAppTableRecord
  2
GENIUS_GENOBJ-N-SDF_13
 70
     0
  0
APPID
  5
42B
330
9
100
AcDbSymbolTableRecord
100
AcDbRegAppTableRecord
  2
GENIUS_GENODEF_13
 70
     0
  0
APPID
  5
42C
330
9
100
AcDbSymbolTableRecord
100
AcDbRegAppTableRecord
  2
ACAD_EXEMPT_FROM_CAD_STANDARDS
 70
     0
  0
APPID
  5
42D
330
9
100
AcDbSymbolTableRecord
100
AcDbRegAppTableRecord
  2
AcAecLayerStandard
 70
     0
  0
APPID
  5
42E
330
9
100
AcDbSymbolTableRecord
100
AcDbRegAppTableRecord
  2
GENIUS_GENOBJ-N-CEN_13
 70
     0
  0
APPID
  5
42F
330
9
100
AcDbSymbolTableRecord
100
AcDbRegAppTableRecord
  2
GENIUS_GENCEN_19
 70
     0
  0
APPID
  5
430
330
9
100
AcDbSymbolTableRecord
100
AcDbRegAppTableRecord
  2
ACAD_DSTYLE_DIMINSPECT
 70
     0
  0
APPID
  5
431
330
9
100
AcDbSymbolTableRecord
100
AcDbRegAppTableRecord
  2
GENIUS_AMGTXT_16
 70
     0
  0
APPID
  5
432
330
9
100
AcDbSymbolTableRecord
100
AcDbRegAppTableRecord
  2
GENIUS_GENFIL_13
 70
     0
  0
APPID
  5
433
330
9
100
AcDbSymbolTableRecord
100
AcDbRegAppTableRecord
  2
GENIUS_GENOLIS_13
 70
     0
  0
APPID
  5
434
330
9
100
AcDbSymbolTableRecord
100
AcDbRegAppTableRecord
  2
GENIUS_GENOBJ-N-CHA_13
 70
     0
  0
APPID
  5
435
330
9
100
AcDbSymbolTableRecord
100
AcDbRegAppTableRecord
  2
GENIUS_GENOENT_13
 70
     0
  0
APPID
  5
436
330
9
100
AcDbSymbolTableRecord
100
AcDbRegAppTableRecord
  2
GENIUS_GENOREF_13
 70
     0
  0
APPID
  5
437
330
9
100
AcDbSymbolTableRecord
100
AcDbRegAppTableRecord
  2
GENIUS_GENOBJ-N-FIL_13
 70
     0
  0
APPID
  5
438
330
9
100
AcDbSymbolTableRecord
100
AcDbRegAppTableRecord
  2
GEVID1208829536
 70
     0
  0
APPID
  5
439
330
9
100
AcDbSymbolTableRecord
100
AcDbRegAppTableRecord
  2
GEVDC
 70
     0
  0
APPID
  5
43A
330
9
100
AcDbSymbolTableRecord
100
AcDbRegAppTableRecord
  2
GEVRADREF
 70
     0
  0
APPID
  5
43B
330
9
100
AcDbSymbolTableRecord
100
AcDbRegAppTableRecord
  2
GENIUS_GENBH_13
 70
     0
  0
APPID
  5
43C
330
9
100
AcDbSymbolTableRecord
100
AcDbRegAppTableRecord
  2
GENIUS_GENOBJ-NBEHI-BHF_13
 70
     0
  0
APPID
  5
43D
330
9
100
AcDbSymbolTableRecord
100
AcDbRegAppTableRecord
  2
GENIUS_GENOBJ-NBEHI-BHB_13
 70
     0
  0
APPID
  5
43E
330
9
100
AcDbSymbolTableRecord
100
AcDbRegAppTableRecord
  2
GEVID1208829537
 70
     0
  0
APPID
  5
43F
330
9
100
AcDbSymbolTableRecord
100
AcDbRegAppTableRecord
  2
ACAD_DSTYLE_DIMJAG
 70
     0
  0
APPID
  5
440
330
9
100
AcDbSymbolTableRecord
100
AcDbRegAppTableRecord
  2
ACAD_DSTYLE_DIMTALN
 70
     0
  0
APPID
  5
441
330
9
100
AcDbSymbolTableRecord
100
AcDbRegAppTableRecord
  2
AMG_2DHIDE
 70
     0
  0
APPID
  5
442
330
9
100
AcDbSymbolTableRecord
100
AcDbRegAppTableRecord
  2
AMG_2DSTRUCT_BTR
 70
     0
  0
APPID
  5
443
330
9
100
AcDbSymbolTableRecord
100
AcDbRegAppTableRecord
  2
GEVID1208845772
 70
     0
  0
APPID
  5
444
330
9
100
AcDbSymbolTableRecord
100
AcDbRegAppTableRecord
  2
GEVID1208845773
 70
     0
  0
APPID
  5
445
330
9
100
AcDbSymbolTableRecord
100
AcDbRegAppTableRecord
  2
ACADM_2DVIEW_IGN_NOTIFY
 70
     0
  0
APPID
  5
446
330
9
100
AcDbSymbolTableRecord
100
AcDbRegAppTableRecord
  2
GEVID1208845774
 70
     0
  0
APPID
  5
447
330
9
100
AcDbSymbolTableRecord
100
AcDbRegAppTableRecord
  2
GEVID1208845775
 70
     0
  0
APPID
  5
448
330
9
100
AcDbSymbolTableRecord
100
AcDbRegAppTableRecord
  2
GEVID1208845776
 70
     0
  0
APPID
  5
449
330
9
100
AcDbSymbolTableRecord
100
AcDbRegAppTableRecord
  2
GEVID1208845777
 70
     0
  0
APPID
  5
44A
330
9
100
AcDbSymbolTableRecord
100
AcDbRegAppTableRecord
  2
GEVCON
 70
     0
  0
APPID
  5
44B
330
9
100
AcDbSymbolTableRecord
100
AcDbRegAppTableRecord
  2
GENIUS_GENOBJ-F-SCPASSM_13
 70
     0
  0
APPID
  5
44C
330
9
100
AcDbSymbolTableRecord
100
AcDbRegAppTableRecord
  2
GEVID1208845778
 70
     0
  0
APPID
  5
44D
330
9
100
AcDbSymbolTableRecord
100
AcDbRegAppTableRecord
  2
GEVID1208845779
 70
     0
  0
APPID
  5
44E
330
9
100
AcDbSymbolTableRecord
100
AcDbRegAppTableRecord
  2
GEVID1208845780
 70
     0
  0
APPID
  5
44F
330
9
100
AcDbSymbolTableRecord
100
AcDbRegAppTableRecord
  2
GEVID1208845781
 70
     0
  0
APPID
  5
450
330
9
100
AcDbSymbolTableRecord
100
AcDbRegAppTableRecord
  2
GEVID1208845782
 70
     0
  0
APPID
  5
451
330
9
100
AcDbSymbolTableRecord
100
AcDbRegAppTableRecord
  2
GEVID1208845783
 70
     0
  0
APPID
  5
452
330
9
100
AcDbSymbolTableRecord
100
AcDbRegAppTableRecord
  2
GEVID1208845784
 70
     0
  0
APPID
  5
453
330
9
100
AcDbSymbolTableRecord
100
AcDbRegAppTableRecord
  2
GEVID1208845785
 70
     0
  0
APPID
  5
454
330
9
100
AcDbSymbolTableRecord
100
AcDbRegAppTableRecord
  2
GEVID1208845787
 70
     0
  0
APPID
  5
455
330
9
100
AcDbSymbolTableRecord
100
AcDbRegAppTableRecord
  2
GEVID1208845788
 70
     0
  0
APPID
  5
456
330
9
100
AcDbSymbolTableRecord
100
AcDbRegAppTableRecord
  2
GEVID1208845789
 70
     0
  0
APPID
  5
457
330
9
100
AcDbSymbolTableRecord
100
AcDbRegAppTableRecord
  2
GEVID1208845790
 70
     0
  0
APPID
  5
458
330
9
100
AcDbSymbolTableRecord
100
AcDbRegAppTableRecord
  2
GEVID1208845791
 70
     0
  0
APPID
  5
459
330
9
100
AcDbSymbolTableRecord
100
AcDbRegAppTableRecord
  2
GEVID1208845792
 70
     0
  0
APPID
  5
45A
330
9
100
AcDbSymbolTableRecord
100
AcDbRegAppTableRecord
  2
GEVID1208845793
 70
     0
  0
APPID
  5
45B
330
9
100
AcDbSymbolTableRecord
100
AcDbRegAppTableRecord
  2
GEVID1208845794
 70
     0
  0
APPID
  5
45C
330
9
100
AcDbSymbolTableRecord
100
AcDbRegAppTableRecord
  2
GEVID1208845795
 70
     0
  0
APPID
  5
45D
330
9
100
AcDbSymbolTableRecord
100
AcDbRegAppTableRecord
  2
GEVID1208845796
 70
     0
  0
APPID
  5
45E
330
9
100
AcDbSymbolTableRecord
100
AcDbRegAppTableRecord
  2
GEVID1208845797
 70
     0
  0
APPID
  5
45F
330
9
100
AcDbSymbolTableRecord
100
AcDbRegAppTableRecord
  2
GEVID1208845798
 70
     0
  0
APPID
  5
460
330
9
100
AcDbSymbolTableRecord
100
AcDbRegAppTableRecord
  2
GEVID1208845799
 70
     0
  0
APPID
  5
461
330
9
100
AcDbSymbolTableRecord
100
AcDbRegAppTableRecord
  2
GEVID1208845800
 70
     0
  0
APPID
  5
462
330
9
100
AcDbSymbolTableRecord
100
AcDbRegAppTableRecord
  2
GEVID1208845801
 70
     0
  0
APPID
  5
463
330
9
100
AcDbSymbolTableRecord
100
AcDbRegAppTableRecord
  2
GEVID1208845802
 70
     0
  0
APPID
  5
464
330
9
100
AcDbSymbolTableRecord
100
AcDbRegAppTableRecord
  2
GENIUS_GENOBJ-N-DIM_13
 70
     0
  0
APPID
  5
465
330
9
100
AcDbSymbolTableRecord
100
AcDbRegAppTableRecord
  2
GENIUS_GENDIM_13
 70
     0
  0
APPID
  5
466
330
9
100
AcDbSymbolTableRecord
100
AcDbRegAppTableRecord
  2
GENIUS_GENDIMSH_14
 70
     0
  0
APPID
  5
467
330
9
100
AcDbSymbolTableRecord
100
AcDbRegAppTableRecord
  2
GEVID1208845803
 70
     0
  0
APPID
  5
468
330
9
100
AcDbSymbolTableRecord
100
AcDbRegAppTableRecord
  2
GEVID1208845804
 70
     0
  0
APPID
  5
469
330
9
100
AcDbSymbolTableRecord
100
AcDbRegAppTableRecord
  2
GEVID1208845805
 70
     0
  0
APPID
  5
46A
330
9
100
AcDbSymbolTableRecord
100
AcDbRegAppTableRecord
  2
GEVID1208845806
 70
     0
  0
APPID
  5
46B
330
9
100
AcDbSymbolTableRecord
100
AcDbRegAppTableRecord
  2
GEVID1208845807
 70
     0
  0
APPID
  5
46C
330
9
100
AcDbSymbolTableRecord
100
AcDbRegAppTableRecord
  2
GEVID1208845808
 70
     0
  0
APPID
  5
46D
330
9
100
AcDbSymbolTableRecord
100
AcDbRegAppTableRecord
  2
GEVID1208845809
 70
     0
  0
APPID
  5
46E
330
9
100
AcDbSymbolTableRecord
100
AcDbRegAppTableRecord
  2
GEVID1208845810
 70
     0
  0
APPID
  5
46F
330
9
100
AcDbSymbolTableRecord
100
AcDbRegAppTableRecord
  2
GEVID1208845811
 70
     0
  0
APPID
  5
470
330
9
100
AcDbSymbolTableRecord
100
AcDbRegAppTableRecord
  2
GEVID1208845813
 70
     0
  0
APPID
  5
471
330
9
100
AcDbSymbolTableRecord
100
AcDbRegAppTableRecord
  2
GEVID1208845814
 70
     0
  0
APPID
  5
472
330
9
100
AcDbSymbolTableRecord
100
AcDbRegAppTableRecord
  2
GEVID1208845815
 70
     0
  0
APPID
  5
473
330
9
100
AcDbSymbolTableRecord
100
AcDbRegAppTableRecord
  2
GEVID1208845816
 70
     0
  0
APPID
  5
474
330
9
100
AcDbSymbolTableRecord
100
AcDbRegAppTableRecord
  2
GEVID1208845817
 70
     0
  0
APPID
  5
475
330
9
100
AcDbSymbolTableRecord
100
AcDbRegAppTableRecord
  2
GEVID1208845818
 70
     0
  0
APPID
  5
476
330
9
100
AcDbSymbolTableRecord
100
AcDbRegAppTableRecord
  2
GEVID1208845819
 70
     0
  0
APPID
  5
477
330
9
100
AcDbSymbolTableRecord
100
AcDbRegAppTableRecord
  2
GEVID1208845820
 70
     0
  0
APPID
  5
478
330
9
100
AcDbSymbolTableRecord
100
AcDbRegAppTableRecord
  2
GENIUS_GENOBJ-F-SHCL_13
 70
     0
  0
APPID
  5
479
330
9
100
AcDbSymbolTableRecord
100
AcDbRegAppTableRecord
  2
GENIUS_GEFMSH_13
 70
     0
  0
APPID
  5
47A
330
9
100
AcDbSymbolTableRecord
100
AcDbRegAppTableRecord
  2
GENIUS_GENOBJ-F-SHCA_13
 70
     0
  0
APPID
  5
47B
330
9
100
AcDbSymbolTableRecord
100
AcDbRegAppTableRecord
  2
GENIUS_GEFSH_13
 70
     0
  0
APPID
  5
47C
330
9
100
AcDbSymbolTableRecord
100
AcDbRegAppTableRecord
  2
GENIUS_GEFSHP_13
 70
     0
  0
APPID
  5
47D
330
9
100
AcDbSymbolTableRecord
100
AcDbRegAppTableRecord
  2
GENIUS_GEFSHP0_13
 70
     0
  0
APPID
  5
47E
330
9
100
AcDbSymbolTableRecord
100
AcDbRegAppTableRecord
  2
GENIUS_GEFSH0_13
 70
     0
  0
APPID
  5
47F
330
9
100
AcDbSymbolTableRecord
100
AcDbRegAppTableRecord
  2
GENIUS_GEFSHP1_13
 70
     0
  0
APPID
  5
480
330
9
100
AcDbSymbolTableRecord
100
AcDbRegAppTableRecord
  2
GENIUS_GEFSH1_13
 70
     0
  0
APPID
  5
481
330
9
100
AcDbSymbolTableRecord
100
AcDbRegAppTableRecord
  2
GEVID1208866337
 70
     0
  0
APPID
  5
482
330
9
100
AcDbSymbolTableRecord
100
AcDbRegAppTableRecord
  2
GEVID1208866338
 70
     0
  0
APPID
  5
483
330
9
100
AcDbSymbolTableRecord
100
AcDbRegAppTableRecord
  2
GEVID1208866339
 70
     0
  0
APPID
  5
484
330
9
100
AcDbSymbolTableRecord
100
AcDbRegAppTableRecord
  2
GEVID1208866340
 70
     0
  0
APPID
  5
485
330
9
100
AcDbSymbolTableRecord
100
AcDbRegAppTableRecord
  2
GEVID1208866341
 70
     0
  0
APPID
  5
486
330
9
100
AcDbSymbolTableRecord
100
AcDbRegAppTableRecord
  2
ACAD_PSEXT
 70
     0
  0
APPID
  5
487
330
9
100
AcDbSymbolTableRecord
100
AcDbRegAppTableRecord
  2
GEVID1208866342
 70
     0
  0
APPID
  5
488
330
9
100
AcDbSymbolTableRecord
100
AcDbRegAppTableRecord
  2
GEVID1208913836
 70
     0
  0
APPID
  5
489
330
9
100
AcDbSymbolTableRecord
100
AcDbRegAppTableRecord
  2
GEVID1208913837
 70
     0
  0
APPID
  5
48A
330
9
100
AcDbSymbolTableRecord
100
AcDbRegAppTableRecord
  2
GEVID1208913838
 70
     0
  0
APPID
  5
48B
330
9
100
AcDbSymbolTableRecord
100
AcDbRegAppTableRecord
  2
GEVID1208913839
 70
     0
  0
APPID
  5
48C
330
9
100
AcDbSymbolTableRecord
100
AcDbRegAppTableRecord
  2
GENIUS_GENDTOL_13
 70
     0
  0
APPID
  5
48D
330
9
100
AcDbSymbolTableRecord
100
AcDbRegAppTableRecord
  2
GEVID1208928889
 70
     0
  0
APPID
  5
48E
330
9
100
AcDbSymbolTableRecord
100
AcDbRegAppTableRecord
  2
GEVID1208928890
 70
     0
  0
APPID
  5
48F
330
9
100
AcDbSymbolTableRecord
100
AcDbRegAppTableRecord
  2
GEVID1208928891
 70
     0
  0
APPID
  5
490
330
9
100
AcDbSymbolTableRecord
100
AcDbRegAppTableRecord
  2
GEVID1208928892
 70
     0
  0
APPID
  5
491
330
9
100
AcDbSymbolTableRecord
100
AcDbRegAppTableRecord
  2
GEVID1208933827
 70
     0
  0
APPID
  5
492
330
9
100
AcDbSymbolTableRecord
100
AcDbRegAppTableRecord
  2
GEVID1208933829
 70
     0
  0
APPID
  5
493
330
9
100
AcDbSymbolTableRecord
100
AcDbRegAppTableRecord
  2
GEVID1208933830
 70
     0
  0
APPID
  5
494
330
9
100
AcDbSymbolTableRecord
100
AcDbRegAppTableRecord
  2
GEVID1208933831
 70
     0
  0
APPID
  5
495
330
9
100
AcDbSymbolTableRecord
100
AcDbRegAppTableRecord
  2
GEVID1208933832
 70
     0
  0
APPID
  5
496
330
9
100
AcDbSymbolTableRecord
100
AcDbRegAppTableRecord
  2
GEVID1208933833
 70
     0
  0
APPID
  5
497
330
9
100
AcDbSymbolTableRecord
100
AcDbRegAppTableRecord
  2
GEVID1208933834
 70
     0
  0
APPID
  5
498
330
9
100
AcDbSymbolTableRecord
100
AcDbRegAppTableRecord
  2
GEVID1208933835
 70
     0
  0
APPID
  5
499
330
9
100
AcDbSymbolTableRecord
100
AcDbRegAppTableRecord
  2
GEVID1208933836
 70
     0
  0
APPID
  5
49A
330
9
100
AcDbSymbolTableRecord
100
AcDbRegAppTableRecord
  2
GEVID1208933837
 70
     0
  0
APPID
  5
49B
330
9
100
AcDbSymbolTableRecord
100
AcDbRegAppTableRecord
  2
GEVID1208933838
 70
     0
  0
APPID
  5
49C
330
9
100
AcDbSymbolTableRecord
100
AcDbRegAppTableRecord
  2
GEVID1208933840
 70
     0
  0
APPID
  5
49D
330
9
100
AcDbSymbolTableRecord
100
AcDbRegAppTableRecord
  2
GEVID1208933842
 70
     0
  0
APPID
  5
49E
330
9
100
AcDbSymbolTableRecord
100
AcDbRegAppTableRecord
  2
GEVID1208933843
 70
     0
  0
APPID
  5
49F
330
9
100
AcDbSymbolTableRecord
100
AcDbRegAppTableRecord
  2
GEVID1208933844
 70
     0
  0
APPID
  5
4A0
330
9
100
AcDbSymbolTableRecord
100
AcDbRegAppTableRecord
  2
GEVID1208933845
 70
     0
  0
APPID
  5
4A1
330
9
100
AcDbSymbolTableRecord
100
AcDbRegAppTableRecord
  2
GEVID1208933846
 70
     0
  0
APPID
  5
4A2
330
9
100
AcDbSymbolTableRecord
100
AcDbRegAppTableRecord
  2
GEVID1208933847
 70
     0
  0
APPID
  5
4A3
330
9
100
AcDbSymbolTableRecord
100
AcDbRegAppTableRecord
  2
GEVID1208933848
 70
     0
  0
APPID
  5
4A4
330
9
100
AcDbSymbolTableRecord
100
AcDbRegAppTableRecord
  2
GEVID1208933849
 70
     0
  0
APPID
  5
4A5
330
9
100
AcDbSymbolTableRecord
100
AcDbRegAppTableRecord
  2
GEVID1208933850
 70
     0
  0
APPID
  5
4A6
330
9
100
AcDbSymbolTableRecord
100
AcDbRegAppTableRecord
  2
GEVID1208933851
 70
     0
  0
APPID
  5
4A7
330
9
100
AcDbSymbolTableRecord
100
AcDbRegAppTableRecord
  2
GEVID1208933852
 70
     0
  0
APPID
  5
4A8
330
9
100
AcDbSymbolTableRecord
100
AcDbRegAppTableRecord
  2
GEVID1208933853
 70
     0
  0
APPID
  5
4A9
330
9
100
AcDbSymbolTableRecord
100
AcDbRegAppTableRecord
  2
GEVID1208933854
 70
     0
  0
APPID
  5
4AA
330
9
100
AcDbSymbolTableRecord
100
AcDbRegAppTableRecord
  2
GEVID1208933855
 70
     0
  0
APPID
  5
4AB
330
9
100
AcDbSymbolTableRecord
100
AcDbRegAppTableRecord
  2
GEVID1208933856
 70
     0
  0
APPID
  5
4AC
330
9
100
AcDbSymbolTableRecord
100
AcDbRegAppTableRecord
  2
GEVID1208933857
 70
     0
  0
APPID
  5
4AD
330
9
100
AcDbSymbolTableRecord
100
AcDbRegAppTableRecord
  2
GEVID1208933858
 70
     0
  0
APPID
  5
4AE
330
9
100
AcDbSymbolTableRecord
100
AcDbRegAppTableRecord
  2
GEVID1208933859
 70
     0
  0
APPID
  5
4AF
330
9
100
AcDbSymbolTableRecord
100
AcDbRegAppTableRecord
  2
GEVID1208933860
 70
     0
  0
APPID
  5
4B0
330
9
100
AcDbSymbolTableRecord
100
AcDbRegAppTableRecord
  2
GEVID1208933861
 70
     0
  0
APPID
  5
4B1
330
9
100
AcDbSymbolTableRecord
100
AcDbRegAppTableRecord
  2
GEVID1208933862
 70
     0
  0
APPID
  5
4B2
330
9
100
AcDbSymbolTableRecord
100
AcDbRegAppTableRecord
  2
GEVID1208933863
 70
     0
  0
APPID
  5
4B3
330
9
100
AcDbSymbolTableRecord
100
AcDbRegAppTableRecord
  2
GEVID1208933864
 70
     0
  0
APPID
  5
4B4
330
9
100
AcDbSymbolTableRecord
100
AcDbRegAppTableRecord
  2
GEVID1208933865
 70
     0
  0
APPID
  5
4B5
330
9
100
AcDbSymbolTableRecord
100
AcDbRegAppTableRecord
  2
GEVID1208933866
 70
     0
  0
APPID
  5
4B6
330
9
100
AcDbSymbolTableRecord
100
AcDbRegAppTableRecord
  2
GEVID1208933867
 70
     0
  0
APPID
  5
4B7
330
9
100
AcDbSymbolTableRecord
100
AcDbRegAppTableRecord
  2
GEVID1208933868
 70
     0
  0
APPID
  5
4B8
330
9
100
AcDbSymbolTableRecord
100
AcDbRegAppTableRecord
  2
GEVID1208933869
 70
     0
  0
APPID
  5
4B9
330
9
100
AcDbSymbolTableRecord
100
AcDbRegAppTableRecord
  2
GEVID1208933870
 70
     0
  0
APPID
  5
4BA
330
9
100
AcDbSymbolTableRecord
100
AcDbRegAppTableRecord
  2
GEVID1208933871
 70
     0
  0
APPID
  5
4BB
330
9
100
AcDbSymbolTableRecord
100
AcDbRegAppTableRecord
  2
GEVID1208933872
 70
     0
  0
APPID
  5
4BC
330
9
100
AcDbSymbolTableRecord
100
AcDbRegAppTableRecord
  2
GEVID1208933873
 70
     0
  0
APPID
  5
4BD
330
9
100
AcDbSymbolTableRecord
100
AcDbRegAppTableRecord
  2
GEVID1208933874
 70
     0
  0
APPID
  5
4BE
330
9
100
AcDbSymbolTableRecord
100
AcDbRegAppTableRecord
  2
GEVID1208933875
 70
     0
  0
APPID
  5
4BF
330
9
100
AcDbSymbolTableRecord
100
AcDbRegAppTableRecord
  2
GEVID1208933876
 70
     0
  0
APPID
  5
4C0
330
9
100
AcDbSymbolTableRecord
100
AcDbRegAppTableRecord
  2
ACAD_DSTYLE_DIMRADIAL_EXTENSION
 70
     0
  0
APPID
  5
4C1
330
9
100
AcDbSymbolTableRecord
100
AcDbRegAppTableRecord
  2
GEVID1208999100
 70
     0
  0
APPID
  5
4C2
330
9
100
AcDbSymbolTableRecord
100
AcDbRegAppTableRecord
  2
GEVID1208999101
 70
     0
  0
APPID
  5
4C3
330
9
100
AcDbSymbolTableRecord
100
AcDbRegAppTableRecord
  2
GEVID1208999102
 70
     0
  0
APPID
  5
4C4
330
9
100
AcDbSymbolTableRecord
100
AcDbRegAppTableRecord
  2
GEVID1208999103
 70
     0
  0
APPID
  5
4C5
330
9
100
AcDbSymbolTableRecord
100
AcDbRegAppTableRecord
  2
GEVID1208999105
 70
     0
  0
APPID
  5
4C6
330
9
100
AcDbSymbolTableRecord
100
AcDbRegAppTableRecord
  2
GEVID1208999106
 70
     0
  0
APPID
  5
4C7
330
9
100
AcDbSymbolTableRecord
100
AcDbRegAppTableRecord
  2
GEVID1208999108
 70
     0
  0
APPID
  5
4C8
330
9
100
AcDbSymbolTableRecord
100
AcDbRegAppTableRecord
  2
GEVID1208999109
 70
     0
  0
APPID
  5
4C9
330
9
100
AcDbSymbolTableRecord
100
AcDbRegAppTableRecord
  2
GEVID1208999110
 70
     0
  0
APPID
  5
4CA
330
9
100
AcDbSymbolTableRecord
100
AcDbRegAppTableRecord
  2
GEVID1208999111
 70
     0
  0
APPID
  5
4CB
330
9
100
AcDbSymbolTableRecord
100
AcDbRegAppTableRecord
  2
GEVID1208999112
 70
     0
  0
APPID
  5
4CC
330
9
100
AcDbSymbolTableRecord
100
AcDbRegAppTableRecord
  2
GEVID1208999113
 70
     0
  0
APPID
  5
4CD
330
9
100
AcDbSymbolTableRecord
100
AcDbRegAppTableRecord
  2
GEVID1208999114
 70
     0
  0
APPID
  5
4CE
330
9
100
AcDbSymbolTableRecord
100
AcDbRegAppTableRecord
  2
GEVID1210218799
 70
     0
  0
APPID
  5
4CF
330
9
100
AcDbSymbolTableRecord
100
AcDbRegAppTableRecord
  2
GEVID1210218800
 70
     0
  0
APPID
  5
4D0
330
9
100
AcDbSymbolTableRecord
100
AcDbRegAppTableRecord
  2
GENIUS_GEFWELD_13
 70
     0
  0
APPID
  5
4D1
330
9
100
AcDbSymbolTableRecord
100
AcDbRegAppTableRecord
  2
GENIUS_GENOBJ-F-WELS_13
 70
     0
  0
APPID
  5
4D2
330
9
100
AcDbSymbolTableRecord
100
AcDbRegAppTableRecord
  2
AcadAnnotative
 70
     0
  0
APPID
  5
4D3
330
9
100
AcDbSymbolTableRecord
100
AcDbRegAppTableRecord
  2
GEVID1210145339
 70
     0
  0
APPID
  5
4D4
330
9
100
AcDbSymbolTableRecord
100
AcDbRegAppTableRecord
  2
ACAD_DSTYLE_DIMBREAK
 70
     0
  0
APPID
  5
4D5
330
9
100
AcDbSymbolTableRecord
100
AcDbRegAppTableRecord
  2
GEVID1210145340
 70
     0
  0
APPID
  5
4D6
330
9
100
AcDbSymbolTableRecord
100
AcDbRegAppTableRecord
  2
GEVID1210145341
 70
     0
  0
APPID
  5
4D7
330
9
100
AcDbSymbolTableRecord
100
AcDbRegAppTableRecord
  2
GEVID1210145342
 70
     0
  0
APPID
  5
4D8
330
9
100
AcDbSymbolTableRecord
100
AcDbRegAppTableRecord
  2
GEVID1210145343
 70
     0
  0
APPID
  5
4D9
330
9
100
AcDbSymbolTableRecord
100
AcDbRegAppTableRecord
  2
GEVID1210145344
 70
     0
  0
APPID
  5
4DA
330
9
100
AcDbSymbolTableRecord
100
AcDbRegAppTableRecord
  2
GEVID1210145345
 70
     0
  0
APPID
  5
4DB
330
9
100
AcDbSymbolTableRecord
100
AcDbRegAppTableRecord
  2
GEVID1210152816
 70
     0
  0
APPID
  5
4DC
330
9
100
AcDbSymbolTableRecord
100
AcDbRegAppTableRecord
  2
GEVID1210153850
 70
     0
  0
APPID
  5
4DD
330
9
100
AcDbSymbolTableRecord
100
AcDbRegAppTableRecord
  2
GEVID1210153851
 70
     0
  0
APPID
  5
4DE
330
9
100
AcDbSymbolTableRecord
100
AcDbRegAppTableRecord
  2
GEVID1210153852
 70
     0
  0
APPID
  5
4DF
330
9
100
AcDbSymbolTableRecord
100
AcDbRegAppTableRecord
  2
GEVID1210549898
 70
     0
  0
APPID
  5
4E0
330
9
100
AcDbSymbolTableRecord
100
AcDbRegAppTableRecord
  2
GEVID1210549899
 70
     0
  0
APPID
  5
4E1
330
9
100
AcDbSymbolTableRecord
100
AcDbRegAppTableRecord
  2
GEVID1210549900
 70
     0
  0
APPID
  5
4E2
330
9
100
AcDbSymbolTableRecord
100
AcDbRegAppTableRecord
  2
GEVID1210549901
 70
     0
  0
APPID
  5
4E3
330
9
100
AcDbSymbolTableRecord
100
AcDbRegAppTableRecord
  2
GEVID1210549902
 70
     0
  0
APPID
  5
4E4
330
9
100
AcDbSymbolTableRecord
100
AcDbRegAppTableRecord
  2
GEVID1210549903
 70
     0
  0
APPID
  5
4E5
330
9
100
AcDbSymbolTableRecord
100
AcDbRegAppTableRecord
  2
GEVID1210549904
 70
     0
  0
APPID
  5
4E6
330
9
100
AcDbSymbolTableRecord
100
AcDbRegAppTableRecord
  2
GEVID1210549905
 70
     0
  0
APPID
  5
4E7
330
9
100
AcDbSymbolTableRecord
100
AcDbRegAppTableRecord
  2
GEVID1210549906
 70
     0
  0
APPID
  5
4E8
330
9
100
AcDbSymbolTableRecord
100
AcDbRegAppTableRecord
  2
GEVID1210549907
 70
     0
  0
APPID
  5
4E9
330
9
100
AcDbSymbolTableRecord
100
AcDbRegAppTableRecord
  2
GEVID1210549908
 70
     0
  0
APPID
  5
4EA
330
9
100
AcDbSymbolTableRecord
100
AcDbRegAppTableRecord
  2
GEVID1210549909
 70
     0
  0
APPID
  5
4EB
330
9
100
AcDbSymbolTableRecord
100
AcDbRegAppTableRecord
  2
GEVID1210549910
 70
     0
  0
APPID
  5
4EC
330
9
100
AcDbSymbolTableRecord
100
AcDbRegAppTableRecord
  2
GEVID1210549911
 70
     0
  0
APPID
  5
4ED
330
9
100
AcDbSymbolTableRecord
100
AcDbRegAppTableRecord
  2
GEVID1210549912
 70
     0
  0
APPID
  5
4EE
330
9
100
AcDbSymbolTableRecord
100
AcDbRegAppTableRecord
  2
GEVID1210549913
 70
     0
  0
APPID
  5
4EF
330
9
100
AcDbSymbolTableRecord
100
AcDbRegAppTableRecord
  2
GEVID1210549914
 70
     0
  0
APPID
  5
4F0
330
9
100
AcDbSymbolTableRecord
100
AcDbRegAppTableRecord
  2
GEVID1210549915
 70
     0
  0
APPID
  5
4F1
330
9
100
AcDbSymbolTableRecord
100
AcDbRegAppTableRecord
  2
GEVID1210549916
 70
     0
  0
APPID
  5
4F2
330
9
100
AcDbSymbolTableRecord
100
AcDbRegAppTableRecord
  2
GEVID1210549917
 70
     0
  0
APPID
  5
4F3
330
9
100
AcDbSymbolTableRecord
100
AcDbRegAppTableRecord
  2
GENIUS_GENOBJ-N-CRS_13
 70
     0
  0
APPID
  5
4F4
330
9
100
AcDbSymbolTableRecord
100
AcDbRegAppTableRecord
  2
GEVID1210549918
 70
     0
  0
APPID
  5
4F5
330
9
100
AcDbSymbolTableRecord
100
AcDbRegAppTableRecord
  2
GENIUS_GENOBJ-N-CRC_13
 70
     0
  0
APPID
  5
4F6
330
9
100
AcDbSymbolTableRecord
100
AcDbRegAppTableRecord
  2
GENIUS_GENCRC_14
 70
     0
  0
APPID
  5
4F7
330
9
100
AcDbSymbolTableRecord
100
AcDbRegAppTableRecord
  2
GEVID1210549919
 70
     0
  0
APPID
  5
4F8
330
9
100
AcDbSymbolTableRecord
100
AcDbRegAppTableRecord
  2
GEVID1210549921
 70
     0
  0
APPID
  5
4F9
330
9
100
AcDbSymbolTableRecord
100
AcDbRegAppTableRecord
  2
GEVID1210549922
 70
     0
  0
APPID
  5
4FA
330
9
100
AcDbSymbolTableRecord
100
AcDbRegAppTableRecord
  2
GEVID1210635173
 70
     0
  0
APPID
  5
4FB
330
9
100
AcDbSymbolTableRecord
100
AcDbRegAppTableRecord
  2
GEVID1210635174
 70
     0
  0
APPID
  5
4FC
330
9
100
AcDbSymbolTableRecord
100
AcDbRegAppTableRecord
  2
GEVID1210635175
 70
     0
  0
APPID
  5
4FD
330
9
100
AcDbSymbolTableRecord
100
AcDbRegAppTableRecord
  2
GEVID1210635176
 70
     0
  0
APPID
  5
4FE
330
9
100
AcDbSymbolTableRecord
100
AcDbRegAppTableRecord
  2
GEVID1210635177
 70
     0
  0
APPID
  5
4FF
330
9
100
AcDbSymbolTableRecord
100
AcDbRegAppTableRecord
  2
GEVID1210635178
 70
     0
  0
APPID
  5
500
330
9
100
AcDbSymbolTableRecord
100
AcDbRegAppTableRecord
  2
GENIUS_GENIUS_GENBHEDTMP_13
 70
     0
  0
APPID
  5
501
330
9
100
AcDbSymbolTableRecord
100
AcDbRegAppTableRecord
  2
GEVID1210635179
 70
     0
  0
APPID
  5
502
330
9
100
AcDbSymbolTableRecord
100
AcDbRegAppTableRecord
  2
GEVID1210635180
 70
     0
  0
APPID
  5
503
330
9
100
AcDbSymbolTableRecord
100
AcDbRegAppTableRecord
  2
GEVID1210635181
 70
     0
  0
APPID
  5
504
330
9
100
AcDbSymbolTableRecord
100
AcDbRegAppTableRecord
  2
GEVID1210635182
 70
     0
  0
APPID
  5
505
330
9
100
AcDbSymbolTableRecord
100
AcDbRegAppTableRecord
  2
GEVID1210635184
 70
     0
  0
APPID
  5
506
330
9
100
AcDbSymbolTableRecord
100
AcDbRegAppTableRecord
  2
GEVID1210635185
 70
     0
  0
APPID
  5
507
330
9
100
AcDbSymbolTableRecord
100
AcDbRegAppTableRecord
  2
GEVID1210635186
 70
     0
  0
APPID
  5
508
330
9
100
AcDbSymbolTableRecord
100
AcDbRegAppTableRecord
  2
GEVID1210635187
 70
     0
  0
APPID
  5
509
330
9
100
AcDbSymbolTableRecord
100
AcDbRegAppTableRecord
  2
GEVID1210635188
 70
     0
  0
APPID
  5
50A
330
9
100
AcDbSymbolTableRecord
100
AcDbRegAppTableRecord
  2
GEVID1210635189
 70
     0
  0
APPID
  5
50B
330
9
100
AcDbSymbolTableRecord
100
AcDbRegAppTableRecord
  2
GEVID1210635190
 70
     0
  0
APPID
  5
50C
330
9
100
AcDbSymbolTableRecord
100
AcDbRegAppTableRecord
  2
GENIUS_GENREC_14
 70
     0
  0
APPID
  5
50D
330
9
100
AcDbSymbolTableRecord
100
AcDbRegAppTableRecord
  2
GENIUS_GENOBJ-N-REC_13
 70
     0
  0
APPID
  5
50E
330
9
100
AcDbSymbolTableRecord
100
AcDbRegAppTableRecord
  2
GEVID1210676655
 70
     0
  0
APPID
  5
50F
330
9
100
AcDbSymbolTableRecord
100
AcDbRegAppTableRecord
  2
GEVID1210676656
 70
     0
  0
APPID
  5
510
330
9
100
AcDbSymbolTableRecord
100
AcDbRegAppTableRecord
  2
GEVID1210676657
 70
     0
  0
APPID
  5
511
330
9
100
AcDbSymbolTableRecord
100
AcDbRegAppTableRecord
  2
GEVID1210676659
 70
     0
  0
APPID
  5
512
330
9
100
AcDbSymbolTableRecord
100
AcDbRegAppTableRecord
  2
GEVID1210676660
 70
     0
  0
APPID
  5
513
330
9
100
AcDbSymbolTableRecord
100
AcDbRegAppTableRecord
  2
GEVID1210676661
 70
     0
  0
APPID
  5
514
330
9
100
AcDbSymbolTableRecord
100
AcDbRegAppTableRecord
  2
GEVID1210676662
 70
     0
  0
APPID
  5
515
330
9
100
AcDbSymbolTableRecord
100
AcDbRegAppTableRecord
  2
GEVID1210721646
 70
     0
  0
APPID
  5
516
330
9
100
AcDbSymbolTableRecord
100
AcDbRegAppTableRecord
  2
GEVID1210721647
 70
     0
  0
APPID
  5
517
330
9
100
AcDbSymbolTableRecord
100
AcDbRegAppTableRecord
  2
GEVID1210721648
 70
     0
  0
APPID
  5
518
330
9
100
AcDbSymbolTableRecord
100
AcDbRegAppTableRecord
  2
GEVID1210721649
 70
     0
  0
APPID
  5
519
330
9
100
AcDbSymbolTableRecord
100
AcDbRegAppTableRecord
  2
GEVID1210721650
 70
     0
  0
APPID
  5
51A
330
9
100
AcDbSymbolTableRecord
100
AcDbRegAppTableRecord
  2
GEVID1210721651
 70
     0
  0
APPID
  5
51B
330
9
100
AcDbSymbolTableRecord
100
AcDbRegAppTableRecord
  2
GEVID1210721652
 70
     0
  0
APPID
  5
51C
330
9
100
AcDbSymbolTableRecord
100
AcDbRegAppTableRecord
  2
GEVID1210721653
 70
     0
  0
APPID
  5
51D
330
9
100
AcDbSymbolTableRecord
100
AcDbRegAppTableRecord
  2
PE_URL
 70
     0
  0
APPID
  5
51E
330
9
100
AcDbSymbolTableRecord
100
AcDbRegAppTableRecord
  2
GEVID1210825555
 70
     0
  0
APPID
  5
51F
330
9
100
AcDbSymbolTableRecord
100
AcDbRegAppTableRecord
  2
GEVID1210825556
 70
     0
  0
APPID
  5
520
330
9
100
AcDbSymbolTableRecord
100
AcDbRegAppTableRecord
  2
GEVID1210825557
 70
     0
  0
APPID
  5
521
330
9
100
AcDbSymbolTableRecord
100
AcDbRegAppTableRecord
  2
GEVID1210825558
 70
     0
  0
APPID
  5
522
330
9
100
AcDbSymbolTableRecord
100
AcDbRegAppTableRecord
  2
GEVID1210825559
 70
     0
  0
APPID
  5
523
330
9
100
AcDbSymbolTableRecord
100
AcDbRegAppTableRecord
  2
GEVID1210825560
 70
     0
  0
APPID
  5
524
330
9
100
AcDbSymbolTableRecord
100
AcDbRegAppTableRecord
  2
GEVID1210825561
 70
     0
  0
APPID
  5
525
330
9
100
AcDbSymbolTableRecord
100
AcDbRegAppTableRecord
  2
GEVID1210825562
 70
     0
  0
APPID
  5
526
330
9
100
AcDbSymbolTableRecord
100
AcDbRegAppTableRecord
  2
GEVID1210825563
 70
     0
  0
APPID
  5
527
330
9
100
AcDbSymbolTableRecord
100
AcDbRegAppTableRecord
  2
GEVID1210825564
 70
     0
  0
APPID
  5
528
330
9
100
AcDbSymbolTableRecord
100
AcDbRegAppTableRecord
  2
GEVID1210825565
 70
     0
  0
APPID
  5
529
330
9
100
AcDbSymbolTableRecord
100
AcDbRegAppTableRecord
  2
GEVID1210825566
 70
     0
  0
APPID
  5
52A
330
9
100
AcDbSymbolTableRecord
100
AcDbRegAppTableRecord
  2
GEVID1210825567
 70
     0
  0
APPID
  5
52B
330
9
100
AcDbSymbolTableRecord
100
AcDbRegAppTableRecord
  2
GENIUS_GENOBJ-N-ZOO_13
 70
     0
  0
APPID
  5
52C
330
9
100
AcDbSymbolTableRecord
100
AcDbRegAppTableRecord
  2
GENIUS_GENZOO_17
 70
     0
  0
APPID
  5
52D
330
9
100
AcDbSymbolTableRecord
100
AcDbRegAppTableRecord
  2
ACADANNOTATIVEDECOMPOSITION
 70
     0
  0
APPID
  5
52E
330
9
100
AcDbSymbolTableRecord
100
AcDbRegAppTableRecord
  2
GENIUS_GENOBJ-N-HTC_13
 70
     0
  0
APPID
  5
52F
330
9
100
AcDbSymbolTableRecord
100
AcDbRegAppTableRecord
  2
GENIUS_GENHATCH_13
 70
     0
  0
APPID
  5
530
330
9
100
AcDbSymbolTableRecord
100
AcDbRegAppTableRecord
  2
GEVID1210896020
 70
     0
  0
APPID
  5
531
330
9
100
AcDbSymbolTableRecord
100
AcDbRegAppTableRecord
  2
GEVID1210896021
 70
     0
  0
APPID
  5
532
330
9
100
AcDbSymbolTableRecord
100
AcDbRegAppTableRecord
  2
GEVID1209083540
 70
     0
  0
APPID
  5
533
330
9
100
AcDbSymbolTableRecord
100
AcDbRegAppTableRecord
  2
GEVMK
 70
     0
  0
APPID
  5
534
330
9
100
AcDbSymbolTableRecord
100
AcDbRegAppTableRecord
  2
GEVID1209083542
 70
     0
  0
APPID
  5
535
330
9
100
AcDbSymbolTableRecord
100
AcDbRegAppTableRecord
  2
GEVID1209083543
 70
     0
  0
APPID
  5
536
330
9
100
AcDbSymbolTableRecord
100
AcDbRegAppTableRecord
  2
GEVID1209083544
 70
     0
  0
APPID
  5
537
330
9
100
AcDbSymbolTableRecord
100
AcDbRegAppTableRecord
  2
GEVID1209083545
 70
     0
  0
APPID
  5
538
330
9
100
AcDbSymbolTableRecord
100
AcDbRegAppTableRecord
  2
GEVID1209083546
 70
     0
  0
APPID
  5
539
330
9
100
AcDbSymbolTableRecord
100
AcDbRegAppTableRecord
  2
GEVID1209083547
 70
     0
  0
APPID
  5
53A
330
9
100
AcDbSymbolTableRecord
100
AcDbRegAppTableRecord
  2
GEVID1209083548
 70
     0
  0
APPID
  5
53B
330
9
100
AcDbSymbolTableRecord
100
AcDbRegAppTableRecord
  2
GEVID1209083549
 70
     0
  0
APPID
  5
53C
330
9
100
AcDbSymbolTableRecord
100
AcDbRegAppTableRecord
  2
GEVID1209083550
 70
     0
  0
APPID
  5
53D
330
9
100
AcDbSymbolTableRecord
100
AcDbRegAppTableRecord
  2
GEVID1209083551
 70
     0
  0
APPID
  5
53E
330
9
100
AcDbSymbolTableRecord
100
AcDbRegAppTableRecord
  2
GEVID1209083552
 70
     0
  0
APPID
  5
53F
330
9
100
AcDbSymbolTableRecord
100
AcDbRegAppTableRecord
  2
GEVID1209083553
 70
     0
  0
APPID
  5
540
330
9
100
AcDbSymbolTableRecord
100
AcDbRegAppTableRecord
  2
GEVID1210896022
 70
     0
  0
APPID
  5
541
330
9
100
AcDbSymbolTableRecord
100
AcDbRegAppTableRecord
  2
GEVID1211508364
 70
     0
  0
APPID
  5
542
330
9
100
AcDbSymbolTableRecord
100
AcDbRegAppTableRecord
  2
GEVID1211414908
 70
     0
  0
APPID
  5
543
330
9
100
AcDbSymbolTableRecord
100
AcDbRegAppTableRecord
  2
GEVID1211414909
 70
     0
  0
APPID
  5
544
330
9
100
AcDbSymbolTableRecord
100
AcDbRegAppTableRecord
  2
GEVID1211508359
 70
     0
  0
APPID
  5
545
330
9
100
AcDbSymbolTableRecord
100
AcDbRegAppTableRecord
  2
GEVID1211508360
 70
     0
  0
APPID
  5
546
330
9
100
AcDbSymbolTableRecord
100
AcDbRegAppTableRecord
  2
GEVID1211508361
 70
     0
  0
APPID
  5
547
330
9
100
AcDbSymbolTableRecord
100
AcDbRegAppTableRecord
  2
GEVID1211508362
 70
     0
  0
APPID
  5
548
330
9
100
AcDbSymbolTableRecord
100
AcDbRegAppTableRecord
  2
GEVID1211508363
 70
     0
  0
APPID
  5
549
330
9
100
AcDbSymbolTableRecord
100
AcDbRegAppTableRecord
  2
GEVID1211878469
 70
     0
  0
APPID
  5
54A
330
9
100
AcDbSymbolTableRecord
100
AcDbRegAppTableRecord
  2
GEVID1212642819
 70
     0
  0
APPID
  5
54B
330
9
100
AcDbSymbolTableRecord
100
AcDbRegAppTableRecord
  2
GEVID1212642820
 70
     0
  0
APPID
  5
54C
330
9
100
AcDbSymbolTableRecord
100
AcDbRegAppTableRecord
  2
GEVID1212642821
 70
     0
  0
APPID
  5
54D
330
9
100
AcDbSymbolTableRecord
100
AcDbRegAppTableRecord
  2
GEVID1212642822
 70
     0
  0
APPID
  5
54E
330
9
100
AcDbSymbolTableRecord
100
AcDbRegAppTableRecord
  2
GEVID1212642823
 70
     0
  0
APPID
  5
54F
330
9
100
AcDbSymbolTableRecord
100
AcDbRegAppTableRecord
  2
GEVID1212642825
 70
     0
  0
APPID
  5
550
330
9
100
AcDbSymbolTableRecord
100
AcDbRegAppTableRecord
  2
GEVID1212642826
 70
     0
  0
APPID
  5
551
330
9
100
AcDbSymbolTableRecord
100
AcDbRegAppTableRecord
  2
GEVID1212642827
 70
     0
  0
APPID
  5
552
330
9
100
AcDbSymbolTableRecord
100
AcDbRegAppTableRecord
  2
GEVID1212642828
 70
     0
  0
APPID
  5
553
330
9
100
AcDbSymbolTableRecord
100
AcDbRegAppTableRecord
  2
GEVID1212642831
 70
     0
  0
APPID
  5
554
330
9
100
AcDbSymbolTableRecord
100
AcDbRegAppTableRecord
  2
GEVID1212642834
 70
     0
  0
APPID
  5
555
330
9
100
AcDbSymbolTableRecord
100
AcDbRegAppTableRecord
  2
GEVID1212642835
 70
     0
  0
APPID
  5
556
330
9
100
AcDbSymbolTableRecord
100
AcDbRegAppTableRecord
  2
GEVID1212642836
 70
     0
  0
APPID
  5
557
330
9
100
AcDbSymbolTableRecord
100
AcDbRegAppTableRecord
  2
GEVID1212642837
 70
     0
  0
APPID
  5
558
330
9
100
AcDbSymbolTableRecord
100
AcDbRegAppTableRecord
  2
GEVID1212642839
 70
     0
  0
APPID
  5
559
330
9
100
AcDbSymbolTableRecord
100
AcDbRegAppTableRecord
  2
GEVID1212642840
 70
     0
  0
APPID
  5
55A
330
9
100
AcDbSymbolTableRecord
100
AcDbRegAppTableRecord
  2
GEVID1212642841
 70
     0
  0
APPID
  5
55B
330
9
100
AcDbSymbolTableRecord
100
AcDbRegAppTableRecord
  2
GEVID1212655312
 70
     0
  0
APPID
  5
55C
330
9
100
AcDbSymbolTableRecord
100
AcDbRegAppTableRecord
  2
GEVID1212655313
 70
     0
  0
APPID
  5
55D
330
9
100
AcDbSymbolTableRecord
100
AcDbRegAppTableRecord
  2
GEVID1212656533
 70
     0
  0
APPID
  5
55E
330
9
100
AcDbSymbolTableRecord
100
AcDbRegAppTableRecord
  2
GEVID1212656534
 70
     0
  0
APPID
  5
55F
330
9
100
AcDbSymbolTableRecord
100
AcDbRegAppTableRecord
  2
GEVID1212656535
 70
     0
  0
APPID
  5
560
330
9
100
AcDbSymbolTableRecord
100
AcDbRegAppTableRecord
  2
GEVID1212656536
 70
     0
  0
APPID
  5
561
330
9
100
AcDbSymbolTableRecord
100
AcDbRegAppTableRecord
  2
GEVID1212656538
 70
     0
  0
APPID
  5
562
330
9
100
AcDbSymbolTableRecord
100
AcDbRegAppTableRecord
  2
GEVID1212656541
 70
     0
  0
APPID
  5
563
330
9
100
AcDbSymbolTableRecord
100
AcDbRegAppTableRecord
  2
GEVID1212656543
 70
     0
  0
APPID
  5
564
330
9
100
AcDbSymbolTableRecord
100
AcDbRegAppTableRecord
  2
GENIUS_GENOBJ-F-PFASSM_13
 70
     0
  0
APPID
  5
565
330
9
100
AcDbSymbolTableRecord
100
AcDbRegAppTableRecord
  2
GEVID1212656544
 70
     0
  0
APPID
  5
566
330
9
100
AcDbSymbolTableRecord
100
AcDbRegAppTableRecord
  2
GEVID1212656545
 70
     0
  0
APPID
  5
567
330
9
100
AcDbSymbolTableRecord
100
AcDbRegAppTableRecord
  2
GEVID1212656546
 70
     0
  0
APPID
  5
568
330
9
100
AcDbSymbolTableRecord
100
AcDbRegAppTableRecord
  2
GEVID1212656547
 70
     0
  0
APPID
  5
569
330
9
100
AcDbSymbolTableRecord
100
AcDbRegAppTableRecord
  2
GEVID1212656548
 70
     0
  0
APPID
  5
56A
330
9
100
AcDbSymbolTableRecord
100
AcDbRegAppTableRecord
  2
GEVID1212656549
 70
     0
  0
APPID
  5
56B
330
9
100
AcDbSymbolTableRecord
100
AcDbRegAppTableRecord
  2
GEVID1212656550
 70
     0
  0
APPID
  5
56C
330
9
100
AcDbSymbolTableRecord
100
AcDbRegAppTableRecord
  2
GEVID1212656552
 70
     0
  0
APPID
  5
56D
330
9
100
AcDbSymbolTableRecord
100
AcDbRegAppTableRecord
  2
GEVID1212656553
 70
     0
  0
APPID
  5
56E
330
9
100
AcDbSymbolTableRecord
100
AcDbRegAppTableRecord
  2
GEVID1212656554
 70
     0
  0
APPID
  5
56F
330
9
100
AcDbSymbolTableRecord
100
AcDbRegAppTableRecord
  2
GEVID1212656555
 70
     0
  0
APPID
  5
570
330
9
100
AcDbSymbolTableRecord
100
AcDbRegAppTableRecord
  2
GEVID1212656556
 70
     0
  0
APPID
  5
571
330
9
100
AcDbSymbolTableRecord
100
AcDbRegAppTableRecord
  2
GEVID1212656557
 70
     0
  0
APPID
  5
572
330
9
100
AcDbSymbolTableRecord
100
AcDbRegAppTableRecord
  2
GEVID1212656559
 70
     0
  0
APPID
  5
573
330
9
100
AcDbSymbolTableRecord
100
AcDbRegAppTableRecord
  2
GEVID1212656560
 70
     0
  0
APPID
  5
574
330
9
100
AcDbSymbolTableRecord
100
AcDbRegAppTableRecord
  2
GEVID1212656561
 70
     0
  0
APPID
  5
575
330
9
100
AcDbSymbolTableRecord
100
AcDbRegAppTableRecord
  2
GEVID1212656562
 70
     0
  0
APPID
  5
576
330
9
100
AcDbSymbolTableRecord
100
AcDbRegAppTableRecord
  2
GEVID1212656563
 70
     0
  0
APPID
  5
577
330
9
100
AcDbSymbolTableRecord
100
AcDbRegAppTableRecord
  2
GEVID1212711781
 70
     0
  0
APPID
  5
578
330
9
100
AcDbSymbolTableRecord
100
AcDbRegAppTableRecord
  2
GEVID1212711782
 70
     0
  0
APPID
  5
579
330
9
100
AcDbSymbolTableRecord
100
AcDbRegAppTableRecord
  2
GEVID1212711783
 70
     0
  0
APPID
  5
57A
330
9
100
AcDbSymbolTableRecord
100
AcDbRegAppTableRecord
  2
GEVID1212711784
 70
     0
  0
APPID
  5
57B
330
9
100
AcDbSymbolTableRecord
100
AcDbRegAppTableRecord
  2
GEVID1212711788
 70
     0
  0
APPID
  5
57C
330
9
100
AcDbSymbolTableRecord
100
AcDbRegAppTableRecord
  2
GEVID1212711789
 70
     0
  0
APPID
  5
57D
330
9
100
AcDbSymbolTableRecord
100
AcDbRegAppTableRecord
  2
GEVID1212711790
 70
     0
  0
APPID
  5
57E
330
9
100
AcDbSymbolTableRecord
100
AcDbRegAppTableRecord
  2
GEVID1212711791
 70
     0
  0
APPID
  5
57F
330
9
100
AcDbSymbolTableRecord
100
AcDbRegAppTableRecord
  2
GEVID1212711792
 70
     0
  0
APPID
  5
580
330
9
100
AcDbSymbolTableRecord
100
AcDbRegAppTableRecord
  2
GEVID1212711793
 70
     0
  0
APPID
  5
581
330
9
100
AcDbSymbolTableRecord
100
AcDbRegAppTableRecord
  2
GEVID1212711794
 70
     0
  0
APPID
  5
582
330
9
100
AcDbSymbolTableRecord
100
AcDbRegAppTableRecord
  2
GEVID1212711795
 70
     0
  0
APPID
  5
583
330
9
100
AcDbSymbolTableRecord
100
AcDbRegAppTableRecord
  2
GEVID1212711797
 70
     0
  0
APPID
  5
584
330
9
100
AcDbSymbolTableRecord
100
AcDbRegAppTableRecord
  2
GEVID1212711798
 70
     0
  0
APPID
  5
585
330
9
100
AcDbSymbolTableRecord
100
AcDbRegAppTableRecord
  2
GEVID1212711799
 70
     0
  0
APPID
  5
586
330
9
100
AcDbSymbolTableRecord
100
AcDbRegAppTableRecord
  2
GEVID1212711800
 70
     0
  0
APPID
  5
587
330
9
100
AcDbSymbolTableRecord
100
AcDbRegAppTableRecord
  2
GEVID1212711801
 70
     0
  0
APPID
  5
588
330
9
100
AcDbSymbolTableRecord
100
AcDbRegAppTableRecord
  2
GEVID1212711802
 70
     0
  0
APPID
  5
589
330
9
100
AcDbSymbolTableRecord
100
AcDbRegAppTableRecord
  2
GEVID1212711803
 70
     0
  0
APPID
  5
58A
330
9
100
AcDbSymbolTableRecord
100
AcDbRegAppTableRecord
  2
GEVID1212711804
 70
     0
  0
APPID
  5
58B
330
9
100
AcDbSymbolTableRecord
100
AcDbRegAppTableRecord
  2
GEVID1212711805
 70
     0
  0
APPID
  5
58C
330
9
100
AcDbSymbolTableRecord
100
AcDbRegAppTableRecord
  2
GEVID1212711806
 70
     0
  0
APPID
  5
58D
330
9
100
AcDbSymbolTableRecord
100
AcDbRegAppTableRecord
  2
GEVID1212711807
 70
     0
  0
APPID
  5
58E
330
9
100
AcDbSymbolTableRecord
100
AcDbRegAppTableRecord
  2
GEVID1212711808
 70
     0
  0
APPID
  5
58F
330
9
100
AcDbSymbolTableRecord
100
AcDbRegAppTableRecord
  2
GEVID1212711809
 70
     0
  0
APPID
  5
590
330
9
100
AcDbSymbolTableRecord
100
AcDbRegAppTableRecord
  2
GEVID1212711810
 70
     0
  0
APPID
  5
591
330
9
100
AcDbSymbolTableRecord
100
AcDbRegAppTableRecord
  2
GEVID1212711811
 70
     0
  0
APPID
  5
90A
330
9
100
AcDbSymbolTableRecord
100
AcDbRegAppTableRecord
  2
GENIUS_GENTRA_14
 70
     0
  0
APPID
  5
919
330
9
100
AcDbSymbolTableRecord
100
AcDbRegAppTableRecord
  2
GENIUS_GENOBJ-N-TIT_13
 70
     0
  0
APPID
  5
91A
330
9
100
AcDbSymbolTableRecord
100
AcDbRegAppTableRecord
  2
GENIUS_GENTITLE_13
 70
     0
  0
APPID
  5
949
330
9
100
AcDbSymbolTableRecord
100
AcDbRegAppTableRecord
  2
GENIUS_GENBLLY_14
 70
     0
  0
APPID
  5
DDD
330
9
100
AcDbSymbolTableRecord
100
AcDbRegAppTableRecord
  2
GEVID1213165152
 70
     0
  0
APPID
  5
12F9
330
9
100
AcDbSymbolTableRecord
100
AcDbRegAppTableRecord
  2
AcDbDynamicBlockTrueName
 70
     0
  0
APPID
  5
12FA
330
9
100
AcDbSymbolTableRecord
100
AcDbRegAppTableRecord
  2
ACDBBLOCKREPETAG
 70
     0
  0
APPID
  5
1C15
330
9
100
AcDbSymbolTableRecord
100
AcDbRegAppTableRecord
  2
GEVID1214872427
 70
     0
  0
APPID
  5
1C2A
330
9
100
AcDbSymbolTableRecord
100
AcDbRegAppTableRecord
  2
GEVID1214872428
 70
     0
  0
APPID
  5
1C2F
330
9
100
AcDbSymbolTableRecord
100
AcDbRegAppTableRecord
  2
GEVID1214872429
 70
     0
  0
APPID
  5
1C33
330
9
100
AcDbSymbolTableRecord
100
AcDbRegAppTableRecord
  2
GEVID1214872430
 70
     0
  0
APPID
  5
1C3F
330
9
100
AcDbSymbolTableRecord
100
AcDbRegAppTableRecord
  2
GEVID1214872432
 70
     0
  0
APPID
  5
1C4E
330
9
100
AcDbSymbolTableRecord
100
AcDbRegAppTableRecord
  2
GEVID1214872433
 70
     0
  0
APPID
  5
20DC
330
9
100
AcDbSymbolTableRecord
100
AcDbRegAppTableRecord
  2
AcDbDynamicBlockGUID
 70
     0
  0
APPID
  5
20FD
330
9
100
AcDbSymbolTableRecord
100
AcDbRegAppTableRecord
  2
GENIUS_GENOBJ-N-REV_13
 70
     0
  0
APPID
  5
20FE
330
9
100
AcDbSymbolTableRecord
100
AcDbRegAppTableRecord
  2
GENIUS_GENOBJ-N-RSSYM_13
 70
     0
  0
APPID
  5
20FF
330
9
100
AcDbSymbolTableRecord
100
AcDbRegAppTableRecord
  2
GENIUS_GENSYMENT_13
 70
     0
  0
APPID
  5
2100
330
9
100
AcDbSymbolTableRecord
100
AcDbRegAppTableRecord
  2
GENIUS_GENSCSYM_13
 70
     0
  0
ENDTAB
  0
TABLE
  2
DIMSTYLE
  5
A
330
0
100
AcDbSymbolTable
 70
     9
100
AcDbDimStyleTable
 71
     1
340
5AB
  0
DIMSTYLE
105
5AB
330
A
100
AcDbSymbolTableRecord
100
AcDbDimStyleTableRecord
  2
SEISA
 70
     0
  4
"
 41
2.5
 42
0.625
 43
10.0
 44
0.625
 47
0.1
 48
0.1
 73
     0
 74
     0
 77
     3
 78
     8
 79
     2
 90
     1
140
3.5
141
0.0
143
0.0393701
146
0.71
147
1.5
172
     1
176
     3
177
     3
178
     3
271
     2
272
     3
283
     0
286
     8
340
5D5
341
69
342
69
371
    -1
372
    -1
1001
ACAD_DSTYLE_DIMJAG
1070
   388
1040
1.5
1001
ACAD_DSTYLE_DIMTALN
1070
   392
1070
     1
  0
DIMSTYLE
105
5E9
102
{ACAD_REACTORS
330
5048
330
5060
330
5078
330
5110
330
513A
330
5152
330
516E
330
51A4
330
51BC
330
51EC
330
58E9
330
59A0
330
6320
330
6391
330
63BB
102
}
330
A
100
AcDbSymbolTableRecord
100
AcDbDimStyleTableRecord
  2
SEISA$0
 70
     0
  4
"
 41
2.5
 42
0.625
 43
10.0
 44
0.625
 47
0.1
 48
0.1
 73
     0
 74
     0
 77
     3
 78
     8
 79
     2
 90
     1
140
3.5
141
0.0
143
0.0393701
146
0.71
147
1.5
172
     1
176
     3
177
     3
178
     3
271
     2
272
     3
283
     0
286
     8
340
5D5
341
69
342
69
371
    -1
372
    -1
  0
DIMSTYLE
105
66D6
330
A
100
AcDbSymbolTableRecord
100
AcDbDimStyleTableRecord
  2
AM_ISO
 70
     0
  4
"
 41
2.5
 42
1.0
 43
10.0
 44
1.0
 47
0.1
 48
0.1
 73
     0
 74
     0
 77
     1
 78
     8
 79
     2
 90
     1
140
3.5
141
0.0
143
0.0393701
146
0.71
147
1.5
172
     1
176
   256
177
   256
178
     2
271
     2
272
     3
274
     4
283
     0
284
     8
340
11
371
    -1
372
    -1
  0
DIMSTYLE
105
66D7
330
A
100
AcDbSymbolTableRecord
100
AcDbDimStyleTableRecord
  2
AM_ISO$3
 70
     0
  4
"
 41
2.5
 42
1.0
 43
10.0
 44
1.0
 47
0.1
 48
0.1
 73
     0
 77
     1
 78
     8
 79
     2
 90
     1
140
3.5
141
0.0
143
0.0393701
146
0.71
147
1.5
176
   256
177
   256
178
     2
271
     2
272
     3
274
     4
283
     0
284
     8
288
     1
289
     0
340
11
371
    -1
372
    -1
  0
DIMSTYLE
105
66D8
330
A
100
AcDbSymbolTableRecord
100
AcDbDimStyleTableRecord
  2
AM_ISO$4
 70
     0
  4
"
 41
2.5
 42
1.0
 43
10.0
 44
1.0
 47
0.1
 48
0.1
 73
     0
 77
     1
 78
     8
 79
     2
 90
     1
140
3.5
141
0.0
143
0.0393701
146
0.71
147
1.5
176
   256
177
   256
178
     2
271
     2
272
     3
274
     4
283
     0
284
     8
288
     1
289
     0
340
11
371
    -1
372
    -1
  0
DIMSTYLE
105
66D9
330
A
100
AcDbSymbolTableRecord
100
AcDbDimStyleTableRecord
  2
AM_ISO$6
 70
     0
  4
"
 41
2.5
 42
1.0
 43
10.0
 44
1.0
 47
0.1
 48
0.1
 73
     0
 74
     0
 78
     8
 79
     2
 90
     1
140
3.5
141
0.0
143
0.0393701
146
0.71
147
1.5
172
     1
176
   256
177
   256
178
     2
271
     2
272
     3
274
     4
283
     0
284
     8
340
11
371
    -1
372
    -1
  0
DIMSTYLE
105
66DA
330
A
100
AcDbSymbolTableRecord
100
AcDbDimStyleTableRecord
  2
AM_ISO$7
 70
     0
  4
"
 41
2.5
 42
1.0
 43
10.0
 44
1.0
 47
0.1
 48
0.1
 73
     0
 74
     0
 77
     1
 78
     8
 79
     2
 90
     1
140
5.0
141
0.0
143
0.0393701
146
0.71
147
1.5
172
     1
176
   256
177
   256
178
     2
271
     2
272
     3
274
     4
283
     0
284
     8
340
11
371
    -1
372
    -1
  0
DIMSTYLE
105
66DB
330
A
100
AcDbSymbolTableRecord
100
AcDbDimStyleTableRecord
  2
AM_ISO$SF
 70
     0
  4
"
 41
2.5
 42
1.0
 43
10.0
 44
1.0
 47
0.1
 48
0.1
 73
     0
 74
     0
 75
     1
 76
     1
 77
     1
 78
     8
 79
     2
 90
     1
140
3.5
141
0.0
143
0.0393701
146
0.71
147
1.5
172
     1
176
   256
177
   256
178
     2
271
     2
272
     3
274
     4
283
     0
284
     8
340
11
371
    -1
372
    -1
  0
DIMSTYLE
105
66DC
330
A
100
AcDbSymbolTableRecord
100
AcDbDimStyleTableRecord
  2
AM_ISO$SH
 70
     0
  4
"
 41
2.5
 42
1.0
 43
10.0
 44
1.0
 47
0.1
 48
0.1
 73
     0
 74
     0
 75
     1
 76
     1
 77
     1
 78
     8
 79
     2
 90
     1
140
3.5
141
0.0
143
0.0393701
144
2.0
146
0.71
147
1.5
172
     1
173
     1
176
   256
177
   256
178
     2
271
     2
272
     3
274
     4
283
     0
284
     8
340
11
343
74
371
    -1
372
    -1
  0
ENDTAB
  0
TABLE
  2
BLOCK_RECORD
  5
1
330
0
100
AcDbSymbolTable
 70
    28
  0
BLOCK_RECORD
  5
1F
102
{ACAD_XDICTIONARY
360
82
102
}
330
1
100
AcDbSymbolTableRecord
100
AcDbBlockTableRecord
  2
*Model_Space
340
22
 70
     0
280
     1
281
     0
  0
BLOCK_RECORD
  5
1B
330
1
100
AcDbSymbolTableRecord
100
AcDbBlockTableRecord
  2
*Paper_Space
340
1E
 70
     0
280
     1
281
     0
  0
BLOCK_RECORD
  5
23
330
1
100
AcDbSymbolTableRecord
100
AcDbBlockTableRecord
  2
*Paper_Space0
340
26
 70
     0
280
     1
281
     0
  0
BLOCK_RECORD
  5
69
330
1
100
AcDbSymbolTableRecord
100
AcDbBlockTableRecord
  2
_Open30
340
0
102
{BLKREFS
331
50F8
331
50F9
331
5101
331
5102
331
510A
331
510B
331
5134
331
5135
331
5167
331
5168
331
517F
331
5180
331
59B1
331
59B2
331
60CD
331
60DF
331
6344
331
6345
331
638B
331
638C
331
63DF
331
63E0
331
63E8
331
63E9
331
64B8
331
64B9
331
6769
331
676A
102
}
 70
     0
280
     1
281
     0
  0
BLOCK_RECORD
  5
74
330
1
100
AcDbSymbolTableRecord
100
AcDbBlockTableRecord
  2
GENAXEH
340
0
 70
     0
280
     1
281
     0
  0
BLOCK_RECORD
  5
335F
102
{ACAD_XDICTIONARY
360
3360
102
}
330
1
100
AcDbSymbolTableRecord
100
AcDbBlockTableRecord
  2
ジュウジマルコネジ
340
0
310
2800000020000000200000000100080000000000000400000000000000000000000000000000000000000000000080000080000000808000800000008000800080800000C0C0C000C0DCC000F0CAA6000020400000206000002080000020A0000020C0000020E00000400000004020000040400000406000004080000040A0
310
000040C0000040E00000600000006020000060400000606000006080000060A0000060C0000060E00000800000008020000080400000806000008080000080A0000080C0000080E00000A0000000A0200000A0400000A0600000A0800000A0A00000A0C00000A0E00000C0000000C0200000C0400000C0600000C0800000C0
310
A00000C0C00000C0E00000E0000000E0200000E0400000E0600000E0800000E0A00000E0C00000E0E00040000000400020004000400040006000400080004000A0004000C0004000E00040200000402020004020400040206000402080004020A0004020C0004020E000404000004040200040404000404060004040800040
310
40A0004040C0004040E00040600000406020004060400040606000406080004060A0004060C0004060E00040800000408020004080400040806000408080004080A0004080C0004080E00040A0000040A0200040A0400040A0600040A0800040A0A00040A0C00040A0E00040C0000040C0200040C0400040C0600040C08000
310
40C0A00040C0C00040C0E00040E0000040E0200040E0400040E0600040E0800040E0A00040E0C00040E0E00080000000800020008000400080006000800080008000A0008000C0008000E00080200000802020008020400080206000802080008020A0008020C0008020E00080400000804020008040400080406000804080
310
008040A0008040C0008040E00080600000806020008060400080606000806080008060A0008060C0008060E00080800000808020008080400080806000808080008080A0008080C0008080E00080A0000080A0200080A0400080A0600080A0800080A0A00080A0C00080A0E00080C0000080C0200080C0400080C0600080C0
310
800080C0A00080C0C00080C0E00080E0000080E0200080E0400080E0600080E0800080E0A00080E0C00080E0E000C0000000C0002000C0004000C0006000C0008000C000A000C000C000C000E000C0200000C0202000C0204000C0206000C0208000C020A000C020C000C020E000C0400000C0402000C0404000C0406000C0
310
408000C040A000C040C000C040E000C0600000C0602000C0604000C0606000C0608000C060A000C060C000C060E000C0800000C0802000C0804000C0806000C0808000C080A000C080C000C080E000C0A00000C0A02000C0A04000C0A06000C0A08000C0A0A000C0A0C000C0A0E000C0C00000C0C02000C0C04000C0C06000
310
C0C08000C0C0A000F0FBFF00A4A0A000808080000000FF0000FF000000FFFF00FF000000FF00FF00FFFF0000FFFFFF00000000000000000000000000000000000000000000000000000000000000000000000000000000000000000000FF00000000000000000000000000000000000000000000000000000000000000FF00
310
00000000000000000000000000000000000000000000000000000000FFFFFF0000000000000000000000000000000000000000000000000000000000FF00FF0000000000000000000000000000000000000000000000000000000000FF00FF0000000000000000000000000000000000000000000000000000000000FF00FF
310
0000000000000000000000000000000000000000000000000000FFFFFFFF00FF00000000000000000000000000000000000000000000000000FFFF0000FF00FF00000000000000000000000000000000000000000000000000FF000000FF00FF000000000000000000000000000000000000000000000000FF00000000FFFF
310
FFFFFFFFFFFFFFFFFFFFFF00000000000000000000000000FFFF00000000FEFEFEFEFEFEFEFEFEFEFEFEFFFF000000000000000000000000FF0000000000FF0000000000000000000000FFFF000000000000000000000000FF0000000000FF0000000000000000000000FFFF000000000000000000000000FF0000000000FF
310
0000000000000000000000FFFF0000000000000000000000F9F9F9F9F9F9F9FFF9F9F9F9F9F9F9F9F9F9F9FFFFF9F9F9000000000000000000FF0000000000FF0000000000000000000000FFFF000000000000000000000000FF0000000000FF0000000000000000000000FFFF000000000000000000000000FF0000000000
310
FF0000000000000000000000FFFF000000000000000000000000FF0000000000FF0000000000000000000000FFFF000000000000000000000000FFFF00000000FEFEFEFEFEFEFEFEFEFEFEFEFFFF00000000000000000000000000FF00000000FFFFFFFFFFFFFFFFFFFFFFFFFF000000000000000000000000000000FF0000
310
00FF00FF00000000000000000000000000000000000000000000000000FFFF0000FF00FF0000000000000000000000000000000000000000000000000000FFFFFFFF00FF0000000000000000000000000000000000000000000000000000000000FF00FF000000000000000000000000000000000000000000000000000000
310
0000FF00FF0000000000000000000000000000000000000000000000000000000000FF00FF0000000000000000000000000000000000000000000000000000000000FFFFFF00000000000000000000000000000000000000000000000000000000000000FF0000000000000000000000000000000000000000000000000000
310
0000000000FF0000000000000000000000000000000000000000000000000000000000000000000000000000000000000000000000000000
102
{BLKREFS
331
4C73
102
}
 70
     4
280
     1
281
     1
  0
BLOCK_RECORD
  5
4A68
102
{ACAD_XDICTIONARY
360
4B21
102
}
330
1
100
AcDbSymbolTableRecord
100
AcDbBlockTableRecord
  2
ケースＡ SMVH112
340
0
310
2800000020000000200000000100080000000000000400000000000000000000000000000000000000000000000080000080000000808000800000008000800080800000C0C0C000C0DCC000F0CAA6000020400000206000002080000020A0000020C0000020E00000400000004020000040400000406000004080000040A0
310
000040C0000040E00000600000006020000060400000606000006080000060A0000060C0000060E00000800000008020000080400000806000008080000080A0000080C0000080E00000A0000000A0200000A0400000A0600000A0800000A0A00000A0C00000A0E00000C0000000C0200000C0400000C0600000C0800000C0
310
A00000C0C00000C0E00000E0000000E0200000E0400000E0600000E0800000E0A00000E0C00000E0E00040000000400020004000400040006000400080004000A0004000C0004000E00040200000402020004020400040206000402080004020A0004020C0004020E000404000004040200040404000404060004040800040
310
40A0004040C0004040E00040600000406020004060400040606000406080004060A0004060C0004060E00040800000408020004080400040806000408080004080A0004080C0004080E00040A0000040A0200040A0400040A0600040A0800040A0A00040A0C00040A0E00040C0000040C0200040C0400040C0600040C08000
310
40C0A00040C0C00040C0E00040E0000040E0200040E0400040E0600040E0800040E0A00040E0C00040E0E00080000000800020008000400080006000800080008000A0008000C0008000E00080200000802020008020400080206000802080008020A0008020C0008020E00080400000804020008040400080406000804080
310
008040A0008040C0008040E00080600000806020008060400080606000806080008060A0008060C0008060E00080800000808020008080400080806000808080008080A0008080C0008080E00080A0000080A0200080A0400080A0600080A0800080A0A00080A0C00080A0E00080C0000080C0200080C0400080C0600080C0
310
800080C0A00080C0C00080C0E00080E0000080E0200080E0400080E0600080E0800080E0A00080E0C00080E0E000C0000000C0002000C0004000C0006000C0008000C000A000C000C000C000E000C0200000C0202000C0204000C0206000C0208000C020A000C020C000C020E000C0400000C0402000C0404000C0406000C0
310
408000C040A000C040C000C040E000C0600000C0602000C0604000C0606000C0608000C060A000C060C000C060E000C0800000C0802000C0804000C0806000C0808000C080A000C080C000C080E000C0A00000C0A02000C0A04000C0A06000C0A08000C0A0A000C0A0C000C0A0E000C0C00000C0C02000C0C04000C0C06000
310
C0C08000C0C0A000F0FBFF00A4A0A000808080000000FF0000FF000000FFFF00FF000000FF00FF00FFFF0000FFFFFF0000000000000000000000000000000000000000000000000000000000000000000000000000000000000000000000000000000000000000000000000000000000000000000000000000000000000000
310
00000000000000000000000000000000000000000000000000000000000000000000000000000000000000000000000000000000000000000000000000000000000000000000000000000000000000000000000000000000000000000000000000000000000000000000000000000000000000000000000000000000000000
310
00000000000000000000000000000000000000000000000000FFFF00000000000000FFFFFFFFFFFFFFFFFFFF000000000000000000000000FFFFFF00000000000000000000000000000000FF000000000000000000000000FFFFFF00000000000000000000000000000000FF000000000000000000000000FFFFFF00000000
310
000000000000000000000000FF000000000000000000000000FFA4A400000000000000000000000000000000FF000000000000000000000000FFFFA400000000000000000000000000000000FF0000F9000000000000000000FFFFA400000000000000000000000000000000FF0000F90000000000FFFFFFFFFFFFFF000000
310
00000000FFFFFFFFFFFFFFFFFFFFFFFFFFFFFF0000F9FFFEF9F9F9FF0000000000000000000000000000000000000000F900FF000000FFFFFFFFFFFF0000000000000000000000000000000000000000F900FF000000FFFEFFFFFFFF0000000000000000FFFFFFFFFFFFFFFFFFFFFFFFFFFFFF00000000000000FF00000000
310
0000000000000000000000000000000000F900000000000000000000000000000000000000000000000000000000000000F900000000000000000000000000000000000000000000000000000000000000F900000000000000000000000000000000000000000000000000000000000000F900000000000000000000000000
310
000000000000000000000000000000000000F900000000000000000000000000000000000000000000000000000000000000F900000000000000000000000000000000000000000000000000000000000000F90000000000000000000000000000000000000000000000000000000000000000000000000000000000000000
310
00000000000000000000000000000000000000000000000000000000000000000000000000000000000000000000000000000000000000000000000000000000000000000000000000000000000000000000000000000000000000000000000000000000000000000000000000000000000000000000000000000000000000
310
0000000000000000000000000000000000000000000000000000000000000000000000000000000000000000000000000000000000000000
102
{BLKREFS
331
4F4A
102
}
 70
     4
280
     1
281
     1
  0
BLOCK_RECORD
  5
4C33
102
{ACAD_XDICTIONARY
360
4CFD
102
}
330
1
100
AcDbSymbolTableRecord
100
AcDbBlockTableRecord
  2
ケースＢ SMVH112
340
0
310
2800000020000000200000000100080000000000000400000000000000000000000000000000000000000000000080000080000000808000800000008000800080800000C0C0C000C0DCC000F0CAA6000020400000206000002080000020A0000020C0000020E00000400000004020000040400000406000004080000040A0
310
000040C0000040E00000600000006020000060400000606000006080000060A0000060C0000060E00000800000008020000080400000806000008080000080A0000080C0000080E00000A0000000A0200000A0400000A0600000A0800000A0A00000A0C00000A0E00000C0000000C0200000C0400000C0600000C0800000C0
310
A00000C0C00000C0E00000E0000000E0200000E0400000E0600000E0800000E0A00000E0C00000E0E00040000000400020004000400040006000400080004000A0004000C0004000E00040200000402020004020400040206000402080004020A0004020C0004020E000404000004040200040404000404060004040800040
310
40A0004040C0004040E00040600000406020004060400040606000406080004060A0004060C0004060E00040800000408020004080400040806000408080004080A0004080C0004080E00040A0000040A0200040A0400040A0600040A0800040A0A00040A0C00040A0E00040C0000040C0200040C0400040C0600040C08000
310
40C0A00040C0C00040C0E00040E0000040E0200040E0400040E0600040E0800040E0A00040E0C00040E0E00080000000800020008000400080006000800080008000A0008000C0008000E00080200000802020008020400080206000802080008020A0008020C0008020E00080400000804020008040400080406000804080
310
008040A0008040C0008040E00080600000806020008060400080606000806080008060A0008060C0008060E00080800000808020008080400080806000808080008080A0008080C0008080E00080A0000080A0200080A0400080A0600080A0800080A0A00080A0C00080A0E00080C0000080C0200080C0400080C0600080C0
310
800080C0A00080C0C00080C0E00080E0000080E0200080E0400080E0600080E0800080E0A00080E0C00080E0E000C0000000C0002000C0004000C0006000C0008000C000A000C000C000C000E000C0200000C0202000C0204000C0206000C0208000C020A000C020C000C020E000C0400000C0402000C0404000C0406000C0
310
408000C040A000C040C000C040E000C0600000C0602000C0604000C0606000C0608000C060A000C060C000C060E000C0800000C0802000C0804000C0806000C0808000C080A000C080C000C080E000C0A00000C0A02000C0A04000C0A06000C0A08000C0A0A000C0A0C000C0A0E000C0C00000C0C02000C0C04000C0C06000
310
C0C08000C0C0A000F0FBFF00A4A0A000808080000000FF0000FF000000FFFF00FF000000FF00FF00FFFF0000FFFFFF0000000000000000000000000000000000000000000000000000000000000000000000000000000000000000000000000000000000000000000000000000000000000000000000000000000000000000
310
00000000000000000000000000000000000000000000000000000000000000000000000000000000000000000000000000000000000000000000000000000000000000000000000000000000000000000000000000000000000000000000000000000000000000000000000000000000000000000000000000000000000000
310
00000000000000000000000000000000000000000000000000000000000000000000000000000000000000000000000000000000000000000000000000000000000000000000000000000000000000000000000000000000000000000000000000000000000000000000000000000000000000000000000000000000000000
310
000000000000000000000000000000000000000000FFFFFFFFFFFFFFFFFFFFFFFFFFFFFF00000000000000000000000000FF000000FFFE000000FF00000000000000000000000000000000000000000000FF0000F9F9F9F9F9F9F900000000000000000000000000000000000000000000FF000000FFFFFFFFFFFFFF000000
310
00000000FFFFFFFFFFFFFFFFFFFFFFFFFFFFFF00000000000000FFFFA400000000000000000000000000000000FF0000000000000000000000FFFFFFA400000000000000000000000000000000FF0000000000000000000000F9FFFFFF00000000000000000000000000000000FF0000000000000000000000FFFFFFFF0000
310
0000000000000000000000000000FF000000000000000000000000FFFFFF00000000000000000000000000000000FF000000000000000000000000FFFFFF00000000000000FFFFFFFFFFFFFFFFFFFF000000000000000000000000000000000000000000000000000000000000000000000000000000000000000000000000
310
00000000000000000000000000000000000000000000000000000000000000000000000000000000000000000000000000000000000000000000000000000000000000000000000000000000000000000000000000000000000000000000000000000000000000000000000000000000000000000000000000000000000000
310
00000000000000000000000000000000000000000000000000000000000000000000000000000000000000000000000000000000000000000000000000000000000000000000000000000000000000000000000000000000000000000000000000000000000000000000000000000000000000000000000000000000000000
310
0000000000000000000000000000000000000000000000000000000000000000000000000000000000000000000000000000000000000000
102
{BLKREFS
331
4E3A
102
}
 70
     4
280
     1
281
     1
  0
BLOCK_RECORD
  5
4D32
102
{ACAD_XDICTIONARY
360
5A50
102
}
330
1
100
AcDbSymbolTableRecord
100
AcDbBlockTableRecord
  2
センタＡ SMVH112
340
0
310
2800000020000000200000000100080000000000000400000000000000000000000000000000000000000000000080000080000000808000800000008000800080800000C0C0C000C0DCC000F0CAA6000020400000206000002080000020A0000020C0000020E00000400000004020000040400000406000004080000040A0
310
000040C0000040E00000600000006020000060400000606000006080000060A0000060C0000060E00000800000008020000080400000806000008080000080A0000080C0000080E00000A0000000A0200000A0400000A0600000A0800000A0A00000A0C00000A0E00000C0000000C0200000C0400000C0600000C0800000C0
310
A00000C0C00000C0E00000E0000000E0200000E0400000E0600000E0800000E0A00000E0C00000E0E00040000000400020004000400040006000400080004000A0004000C0004000E00040200000402020004020400040206000402080004020A0004020C0004020E000404000004040200040404000404060004040800040
310
40A0004040C0004040E00040600000406020004060400040606000406080004060A0004060C0004060E00040800000408020004080400040806000408080004080A0004080C0004080E00040A0000040A0200040A0400040A0600040A0800040A0A00040A0C00040A0E00040C0000040C0200040C0400040C0600040C08000
310
40C0A00040C0C00040C0E00040E0000040E0200040E0400040E0600040E0800040E0A00040E0C00040E0E00080000000800020008000400080006000800080008000A0008000C0008000E00080200000802020008020400080206000802080008020A0008020C0008020E00080400000804020008040400080406000804080
310
008040A0008040C0008040E00080600000806020008060400080606000806080008060A0008060C0008060E00080800000808020008080400080806000808080008080A0008080C0008080E00080A0000080A0200080A0400080A0600080A0800080A0A00080A0C00080A0E00080C0000080C0200080C0400080C0600080C0
310
800080C0A00080C0C00080C0E00080E0000080E0200080E0400080E0600080E0800080E0A00080E0C00080E0E000C0000000C0002000C0004000C0006000C0008000C000A000C000C000C000E000C0200000C0202000C0204000C0206000C0208000C020A000C020C000C020E000C0400000C0402000C0404000C0406000C0
310
408000C040A000C040C000C040E000C0600000C0602000C0604000C0606000C0608000C060A000C060C000C060E000C0800000C0802000C0804000C0806000C0808000C080A000C080C000C080E000C0A00000C0A02000C0A04000C0A06000C0A08000C0A0A000C0A0C000C0A0E000C0C00000C0C02000C0C04000C0C06000
310
C0C08000C0C0A000F0FBFF00A4A0A000808080000000FF0000FF000000FFFF00FF000000FF00FF00FFFF0000FFFFFF0000000000000000000000000000000000000000000000000000000000000000000000000000000000000000000000000000000000000000000000000000000000000000000000000000000000000000
310
000000000000000000000000000000000000000000000000000000000000000000000000000000000000000000000000000000000000000000000000000000000000000000000000000000000000000000000000000000FFFFFFFFFFFFFFFFFFFFFFFFFFFFFFFFFFFFFFFFFFFFFF0000000000000000FF00000000FFFF0000
310
000000000000000000000000000000FFFF000000000000FF00000000FFFF000000000000000000000000000000000000FF000000000000FF00000000FFFF000000000000000000000000000000000000FF000000000000FF00000000FFFF000000000000000000000000000000000000FF000000000000FF00000000FFFF00
310
0000000000000000000000000000000000FF000000000000FF00000000FFFF000000000000000000000000000000000000FF000000000000FF00000000FFFF00000000000000000000000000000000000000000000000000FF00000000FFFF00000000000000000000000000000000000000000000000000FF00000000FFFF
310
00000000000000000000000000000000000000000000000000FF00000000FFFF0000000000000000000000000000000000000000000000F900FF00000000FFFF00000000000000000000000000000000000000000000FFFFFFFF00000000FFFF00000000000000000000000000000000000000000000FFF9FF0000000000FF
310
FF00000000000000000000000000000000000000000000FFF9FF0000000000FFFF000000000000000000000000000000000000000000F9F9F9F90000000000FFFF00000000000000000000000000000000000000000000FFF9FF0000000000FFFF0000000000000000000000000000000000000000000000FFFFFF00000000
310
FFFF00000000000000000000000000000000000000000000000000FF00000000FFFF00000000000000000000000000000000000000000000000000FF00000000FFFF00000000000000000000000000000000000000000000000000FF00000000FFFF00000000000000000000000000000000000000000000000000FFFFFFFF
310
FFFFFFFFFFFFFFFFFF00000000000000000000000000000000000000000000000000000000000000000000000000000000000000000000000000000000000000000000000000000000000000000000000000000000000000000000000000000000000000000000000000000000000000000000000000000000000000000000
310
0000000000000000000000000000000000000000000000000000000000000000000000000000000000000000000000000000000000000000
102
{BLKREFS
331
4D4C
102
}
 70
     4
280
     1
281
     1
  0
BLOCK_RECORD
  5
4D7E
102
{ACAD_XDICTIONARY
360
4E55
102
}
330
1
100
AcDbSymbolTableRecord
100
AcDbBlockTableRecord
  2
センタB SMVH112
340
0
310
2800000020000000200000000100080000000000000400000000000000000000000000000000000000000000000080000080000000808000800000008000800080800000C0C0C000C0DCC000F0CAA6000020400000206000002080000020A0000020C0000020E00000400000004020000040400000406000004080000040A0
310
000040C0000040E00000600000006020000060400000606000006080000060A0000060C0000060E00000800000008020000080400000806000008080000080A0000080C0000080E00000A0000000A0200000A0400000A0600000A0800000A0A00000A0C00000A0E00000C0000000C0200000C0400000C0600000C0800000C0
310
A00000C0C00000C0E00000E0000000E0200000E0400000E0600000E0800000E0A00000E0C00000E0E00040000000400020004000400040006000400080004000A0004000C0004000E00040200000402020004020400040206000402080004020A0004020C0004020E000404000004040200040404000404060004040800040
310
40A0004040C0004040E00040600000406020004060400040606000406080004060A0004060C0004060E00040800000408020004080400040806000408080004080A0004080C0004080E00040A0000040A0200040A0400040A0600040A0800040A0A00040A0C00040A0E00040C0000040C0200040C0400040C0600040C08000
310
40C0A00040C0C00040C0E00040E0000040E0200040E0400040E0600040E0800040E0A00040E0C00040E0E00080000000800020008000400080006000800080008000A0008000C0008000E00080200000802020008020400080206000802080008020A0008020C0008020E00080400000804020008040400080406000804080
310
008040A0008040C0008040E00080600000806020008060400080606000806080008060A0008060C0008060E00080800000808020008080400080806000808080008080A0008080C0008080E00080A0000080A0200080A0400080A0600080A0800080A0A00080A0C00080A0E00080C0000080C0200080C0400080C0600080C0
310
800080C0A00080C0C00080C0E00080E0000080E0200080E0400080E0600080E0800080E0A00080E0C00080E0E000C0000000C0002000C0004000C0006000C0008000C000A000C000C000C000E000C0200000C0202000C0204000C0206000C0208000C020A000C020C000C020E000C0400000C0402000C0404000C0406000C0
310
408000C040A000C040C000C040E000C0600000C0602000C0604000C0606000C0608000C060A000C060C000C060E000C0800000C0802000C0804000C0806000C0808000C080A000C080C000C080E000C0A00000C0A02000C0A04000C0A06000C0A08000C0A0A000C0A0C000C0A0E000C0C00000C0C02000C0C04000C0C06000
310
C0C08000C0C0A000F0FBFF00A4A0A000808080000000FF0000FF000000FFFF00FF000000FF00FF00FFFF0000FFFFFF0000000000000000000000000000000000000000000000000000000000000000000000000000000000000000000000000000000000000000000000000000000000000000000000000000000000000000
310
00000000000000000000000000000000000000000000000000000000000000000000000000000000000000000000000000000000000000000000000000000000000000000000000000000000000000000000000000000000000000000000000000000000000000000000000000000000000000000000000000000000000000
310
000000000000000000000000000000000000000000000000000000000000000000000000000000000000000000000000000000000000000000000000000000000000000000000000000000000000000000000000FFFFFFFFFF000000000000000000FFFFFFFFFFFFFFFFFFFFFFFFFFFFFF000000FFFFFFFFFFFFFFFFFFFFFF
310
FFFFFFFF00000000000000000000000000FF0000F9F9F9F9F9F9F9FF0000FFFF0000000000000000000000000000000000FF000000FFFFFFFFFFFFFF0000FFFF0000000000000000000000000000000000FF000000FFFFFFFFFFFFFF0000FFFF000000FFFFFFFFFFFFFFFFFFFFFFFFFFFFFF00000000000000FFFFA40000FF
310
FF000000000000000000000000FF0000000000000000000000F9FFFFA40000FFFF000000000000000000000000FF0000000000000000000000FFFFFFFF0000FFFF000000000000000000000000FF000000000000000000000000FFFFFF0000FFFF000000000000000000000000FF000000000000000000000000FFFFFF0000
310
FFFF000000000000000000000000FF00000000000000000000000000FFFF0000FFFF000000FFFFFFFFFFFFFFFFFFFF0000000000000000000000000000FF0000FFFF00000000000000000000FF00000000000000000000000000000000FF0000FFFF00000000000000000000FF0000000000000000000000000000000000FF
310
FFFFFFFFFFFFFFFFFFFFFFFFFF000000000000000000000000000000000000000000000000000000000000000000000000000000000000000000000000000000000000000000000000000000000000000000000000000000000000000000000000000000000000000000000000000000000000000000000000000000000000
310
00000000000000000000000000000000000000000000000000000000000000000000000000000000000000000000000000000000000000000000000000000000000000000000000000000000000000000000000000000000000000000000000000000000000000000000000000000000000000000000000000000000000000
310
0000000000000000000000000000000000000000000000000000000000000000000000000000000000000000000000000000000000000000
102
{BLKREFS
331
4D99
102
}
 70
     4
280
     1
281
     1
  0
BLOCK_RECORD
  5
4EAA
102
{ACAD_XDICTIONARY
360
4F19
102
}
330
1
100
AcDbSymbolTableRecord
100
AcDbBlockTableRecord
  2
リーマボルト SMVH112 M6
340
0
310
2800000020000000200000000100080000000000000400000000000000000000000000000000000000000000000080000080000000808000800000008000800080800000C0C0C000C0DCC000F0CAA6000020400000206000002080000020A0000020C0000020E00000400000004020000040400000406000004080000040A0
310
000040C0000040E00000600000006020000060400000606000006080000060A0000060C0000060E00000800000008020000080400000806000008080000080A0000080C0000080E00000A0000000A0200000A0400000A0600000A0800000A0A00000A0C00000A0E00000C0000000C0200000C0400000C0600000C0800000C0
310
A00000C0C00000C0E00000E0000000E0200000E0400000E0600000E0800000E0A00000E0C00000E0E00040000000400020004000400040006000400080004000A0004000C0004000E00040200000402020004020400040206000402080004020A0004020C0004020E000404000004040200040404000404060004040800040
310
40A0004040C0004040E00040600000406020004060400040606000406080004060A0004060C0004060E00040800000408020004080400040806000408080004080A0004080C0004080E00040A0000040A0200040A0400040A0600040A0800040A0A00040A0C00040A0E00040C0000040C0200040C0400040C0600040C08000
310
40C0A00040C0C00040C0E00040E0000040E0200040E0400040E0600040E0800040E0A00040E0C00040E0E00080000000800020008000400080006000800080008000A0008000C0008000E00080200000802020008020400080206000802080008020A0008020C0008020E00080400000804020008040400080406000804080
310
008040A0008040C0008040E00080600000806020008060400080606000806080008060A0008060C0008060E00080800000808020008080400080806000808080008080A0008080C0008080E00080A0000080A0200080A0400080A0600080A0800080A0A00080A0C00080A0E00080C0000080C0200080C0400080C0600080C0
310
800080C0A00080C0C00080C0E00080E0000080E0200080E0400080E0600080E0800080E0A00080E0C00080E0E000C0000000C0002000C0004000C0006000C0008000C000A000C000C000C000E000C0200000C0202000C0204000C0206000C0208000C020A000C020C000C020E000C0400000C0402000C0404000C0406000C0
310
408000C040A000C040C000C040E000C0600000C0602000C0604000C0606000C0608000C060A000C060C000C060E000C0800000C0802000C0804000C0806000C0808000C080A000C080C000C080E000C0A00000C0A02000C0A04000C0A06000C0A08000C0A0A000C0A0C000C0A0E000C0C00000C0C02000C0C04000C0C06000
310
C0C08000C0C0A000F0FBFF00A4A0A000808080000000FF0000FF000000FFFF00FF000000FF00FF00FFFF0000FFFFFF000000000000000000000000000000000000000000000000000000000000000000000000000000000000000000FFFFFFFFFFFFFFFF000000000000000000000000000000000000000000000000FFFFFF
310
FFFFFFFFFF000000000000000000000000000000000000000000000000FF00FF0000FF00FF000000000000000000000000000000000000000000000000FF00FF0000FF00FF00000000000000000000000000000000000000000000000000000000000000000000000000000000000000000000000000000000000000000000
310
00000000000000000000000000000000000000000000000000000000000000000000000000000000000000000000000000000000000000000000000000000000000000000000000000000000000000000000000000000000000000000000000000000000000000000000000000000000000000000000000000000000000000
310
00000000000000000000000000000000000000000000000000000000000000000000000000000000000000000000000000000000000000000000000000000000000000000000000000000000000000000000000000000000000000000000000000000000000000000000000000000000000000000000000000000000000000
310
00000000000000000000000000000000000000000000000000000000000000000000000000000000000000000000000000000000000000000000000000000000000000000000000000000000000000000000000000000000000000000000000000000000000000000000000000000000000000000000000000000000000000
310
00000000000000000000000000000000000000000000000000000000000000000000000000000000000000000000000000000000000000000000000000000000000000000000000000000000000000000000000000000000000000000000000000000000000000000000000000000000000000000000000000000000000000
310
000000000000000000000000000000000000000000000000000000000000000000000000000000000000000000000000000000000000000000000000000000000000FF000000FF0000FF000000000000000000000000000000000000000000000000FFFFFFFFFFFFFFFF000000000000000000000000000000000000000000
310
000000FF00FF0000FF00FF000000000000000000000000000000000000000000000000FF00FF0000FF00FF000000000000000000000000000000000000000000000000FFFFFFFFFFFFFFFF0000000000000000000000000000000000000000000000000000FFFFFFFF00000000000000000000000000000000000000000000
310
000000000000FFFFFFFF00000000000000000000000000000000000000000000000000000000000000000000000000000000000000000000
102
{BLKREFS
331
4ECE
102
}
 70
     4
280
     1
281
     1
  0
BLOCK_RECORD
  5
4F36
102
{ACAD_XDICTIONARY
360
4F5D
102
}
330
1
100
AcDbSymbolTableRecord
100
AcDbBlockTableRecord
  2
スラストプレ－ト SMVH112
340
0
310
2800000020000000200000000100080000000000000400000000000000000000000000000000000000000000000080000080000000808000800000008000800080800000C0C0C000C0DCC000F0CAA6000020400000206000002080000020A0000020C0000020E00000400000004020000040400000406000004080000040A0
310
000040C0000040E00000600000006020000060400000606000006080000060A0000060C0000060E00000800000008020000080400000806000008080000080A0000080C0000080E00000A0000000A0200000A0400000A0600000A0800000A0A00000A0C00000A0E00000C0000000C0200000C0400000C0600000C0800000C0
310
A00000C0C00000C0E00000E0000000E0200000E0400000E0600000E0800000E0A00000E0C00000E0E00040000000400020004000400040006000400080004000A0004000C0004000E00040200000402020004020400040206000402080004020A0004020C0004020E000404000004040200040404000404060004040800040
310
40A0004040C0004040E00040600000406020004060400040606000406080004060A0004060C0004060E00040800000408020004080400040806000408080004080A0004080C0004080E00040A0000040A0200040A0400040A0600040A0800040A0A00040A0C00040A0E00040C0000040C0200040C0400040C0600040C08000
310
40C0A00040C0C00040C0E00040E0000040E0200040E0400040E0600040E0800040E0A00040E0C00040E0E00080000000800020008000400080006000800080008000A0008000C0008000E00080200000802020008020400080206000802080008020A0008020C0008020E00080400000804020008040400080406000804080
310
008040A0008040C0008040E00080600000806020008060400080606000806080008060A0008060C0008060E00080800000808020008080400080806000808080008080A0008080C0008080E00080A0000080A0200080A0400080A0600080A0800080A0A00080A0C00080A0E00080C0000080C0200080C0400080C0600080C0
310
800080C0A00080C0C00080C0E00080E0000080E0200080E0400080E0600080E0800080E0A00080E0C00080E0E000C0000000C0002000C0004000C0006000C0008000C000A000C000C000C000E000C0200000C0202000C0204000C0206000C0208000C020A000C020C000C020E000C0400000C0402000C0404000C0406000C0
310
408000C040A000C040C000C040E000C0600000C0602000C0604000C0606000C0608000C060A000C060C000C060E000C0800000C0802000C0804000C0806000C0808000C080A000C080C000C080E000C0A00000C0A02000C0A04000C0A06000C0A08000C0A0A000C0A0C000C0A0E000C0C00000C0C02000C0C04000C0C06000
310
C0C08000C0C0A000F0FBFF00A4A0A000808080000000FF0000FF000000FFFF00FF000000FF00FF00FFFF0000FFFFFF0000000000000000000000000000000000000000000000000000000000000000000000000000000000000000000000000000000000000000000000000000000000000000000000000000000000000000
310
00000000000000000000000000000000000000000000000000000000000000000000000000000000000000000000000000000000000000000000000000000000000000000000000000000000000000000000000000000000000000000000000000000000000000000000000000000000000000000000000000000000000000
310
00000000000000000000000000000000000000000000000000FFFF00000000000000FFFFFFFFFFFFFFFFFFFF000000000000000000000000FFFFFF00000000000000000000000000000000FF000000000000000000000000FFFFFF00000000000000000000000000000000FF000000000000000000000000FFFFFF00000000
310
000000000000000000000000FF000000000000000000000000FFA4A400000000000000000000000000000000FF000000000000000000000000FFFFA400000000000000000000000000000000FF0000F9000000000000000000FFFFA400000000000000000000000000000000FF0000F90000000000FFFFFFFFFFFFFF000000
310
00000000FFFFFFFFFFFFFFFFFFFFFFFFFFFFFF0000F9FFFEF9F9F9FF0000000000000000000000000000000000000000F900FF000000FFFFFFFFFFFF0000FF00FF000000000000000000000000000000F900FF000000FFFFFFFFFFFFFFFFFF00FFFFFFFFFFFFFFFFFFFFFFFFFFFFFFFFFFFFFF0000000000000000FFFFFFFF
310
FFFFFFFFFFFF0000000000000000000000F900000000000000000000000000000000000000000000000000000000000000F900000000000000000000000000000000000000000000000000000000000000F900000000000000000000000000000000000000000000000000000000000000F900000000000000000000000000
310
000000000000000000000000000000000000F900000000000000000000000000000000000000000000000000000000000000F900000000000000000000000000000000000000000000000000000000000000F90000000000000000000000000000000000000000000000000000000000000000000000000000000000000000
310
00000000000000000000000000000000000000000000000000000000000000000000000000000000000000000000000000000000000000000000000000000000000000000000000000000000000000000000000000000000000000000000000000000000000000000000000000000000000000000000000000000000000000
310
0000000000000000000000000000000000000000000000000000000000000000000000000000000000000000000000000000000000000000
102
{BLKREFS
331
4F41
102
}
 70
     4
280
     1
281
     1
  0
BLOCK_RECORD
  5
5049
330
1
100
AcDbSymbolTableRecord
100
AcDbBlockTableRecord
  2
*D10
340
0
 70
     0
280
     1
281
     0
  0
BLOCK_RECORD
  5
5061
330
1
100
AcDbSymbolTableRecord
100
AcDbBlockTableRecord
  2
*D11
340
0
 70
     0
280
     1
281
     0
  0
BLOCK_RECORD
  5
5079
330
1
100
AcDbSymbolTableRecord
100
AcDbBlockTableRecord
  2
*D12
340
0
 70
     0
280
     1
281
     0
  0
BLOCK_RECORD
  5
5111
330
1
100
AcDbSymbolTableRecord
100
AcDbBlockTableRecord
  2
*D13
340
0
 70
     0
280
     1
281
     0
  0
BLOCK_RECORD
  5
513B
330
1
100
AcDbSymbolTableRecord
100
AcDbBlockTableRecord
  2
*D14
340
0
 70
     0
280
     1
281
     0
  0
BLOCK_RECORD
  5
5153
330
1
100
AcDbSymbolTableRecord
100
AcDbBlockTableRecord
  2
*D15
340
0
 70
     0
280
     1
281
     0
  0
BLOCK_RECORD
  5
516F
330
1
100
AcDbSymbolTableRecord
100
AcDbBlockTableRecord
  2
*D16
340
0
 70
     0
280
     1
281
     0
  0
BLOCK_RECORD
  5
51A5
330
1
100
AcDbSymbolTableRecord
100
AcDbBlockTableRecord
  2
*D17
340
0
 70
     0
280
     1
281
     0
  0
BLOCK_RECORD
  5
51BD
330
1
100
AcDbSymbolTableRecord
100
AcDbBlockTableRecord
  2
*D18
340
0
 70
     0
280
     1
281
     0
  0
BLOCK_RECORD
  5
51ED
330
1
100
AcDbSymbolTableRecord
100
AcDbBlockTableRecord
  2
*D19
340
0
 70
     0
280
     1
281
     0
  0
BLOCK_RECORD
  5
58EA
330
1
100
AcDbSymbolTableRecord
100
AcDbBlockTableRecord
  2
*D20
340
0
 70
     0
280
     1
281
     0
  0
BLOCK_RECORD
  5
59A1
330
1
100
AcDbSymbolTableRecord
100
AcDbBlockTableRecord
  2
*D21
340
0
 70
     0
280
     1
281
     0
  0
BLOCK_RECORD
  5
60C4
330
1
100
AcDbSymbolTableRecord
100
AcDbBlockTableRecord
  2
GENDOT
340
0
102
{BLKREFS
331
60CC
331
60DE
102
}
 70
     0
280
     1
281
     0
  0
BLOCK_RECORD
  5
6321
330
1
100
AcDbSymbolTableRecord
100
AcDbBlockTableRecord
  2
*D23
340
0
 70
     0
280
     1
281
     0
  0
BLOCK_RECORD
  5
6392
330
1
100
AcDbSymbolTableRecord
100
AcDbBlockTableRecord
  2
*D24
340
0
 70
     0
280
     1
281
     0
  0
BLOCK_RECORD
  5
63BC
330
1
100
AcDbSymbolTableRecord
100
AcDbBlockTableRecord
  2
*D25
340
0
 70
     0
280
     1
281
     0
  0
BLOCK_RECORD
  5
65B3
330
1
100
AcDbSymbolTableRecord
100
AcDbBlockTableRecord
  2
ケース
340
0
310
2800000020000000200000000100080000000000000400000000000000000000000000000000000000000000000080000080000000808000800000008000800080800000C0C0C000C0DCC000F0CAA6000020400000206000002080000020A0000020C0000020E00000400000004020000040400000406000004080000040A0
310
000040C0000040E00000600000006020000060400000606000006080000060A0000060C0000060E00000800000008020000080400000806000008080000080A0000080C0000080E00000A0000000A0200000A0400000A0600000A0800000A0A00000A0C00000A0E00000C0000000C0200000C0400000C0600000C0800000C0
310
A00000C0C00000C0E00000E0000000E0200000E0400000E0600000E0800000E0A00000E0C00000E0E00040000000400020004000400040006000400080004000A0004000C0004000E00040200000402020004020400040206000402080004020A0004020C0004020E000404000004040200040404000404060004040800040
310
40A0004040C0004040E00040600000406020004060400040606000406080004060A0004060C0004060E00040800000408020004080400040806000408080004080A0004080C0004080E00040A0000040A0200040A0400040A0600040A0800040A0A00040A0C00040A0E00040C0000040C0200040C0400040C0600040C08000
310
40C0A00040C0C00040C0E00040E0000040E0200040E0400040E0600040E0800040E0A00040E0C00040E0E00080000000800020008000400080006000800080008000A0008000C0008000E00080200000802020008020400080206000802080008020A0008020C0008020E00080400000804020008040400080406000804080
310
008040A0008040C0008040E00080600000806020008060400080606000806080008060A0008060C0008060E00080800000808020008080400080806000808080008080A0008080C0008080E00080A0000080A0200080A0400080A0600080A0800080A0A00080A0C00080A0E00080C0000080C0200080C0400080C0600080C0
310
800080C0A00080C0C00080C0E00080E0000080E0200080E0400080E0600080E0800080E0A00080E0C00080E0E000C0000000C0002000C0004000C0006000C0008000C000A000C000C000C000E000C0200000C0202000C0204000C0206000C0208000C020A000C020C000C020E000C0400000C0402000C0404000C0406000C0
310
408000C040A000C040C000C040E000C0600000C0602000C0604000C0606000C0608000C060A000C060C000C060E000C0800000C0802000C0804000C0806000C0808000C080A000C080C000C080E000C0A00000C0A02000C0A04000C0A06000C0A08000C0A0A000C0A0C000C0A0E000C0C00000C0C02000C0C04000C0C06000
310
C0C08000C0C0A000F0FBFF00A4A0A000808080000000FF0000FF000000FFFF00FF000000FF00FF00FFFF0000FFFFFF00000000000000000000000000000000000000000000000000000000000000000000000000000000000000000000FCFCFCFCFCFCFCFCFCFC000000000000000000000000000000000000000000FC0000
310
000000000000FC000000000000000000000000000000000000000000FC000000000000000000FC0000000000000000000000000000000000000000FC000000000000FCFCFCFCFCFC000000000000000000000000000000000000FC000000000000FC000000000000000000000000000000000000000000000000FC00000000
310
0000FC000000000000000000000000000000000000000000000000FC000000000000FC000000000000000000000000000000000000000000000000FC000000000000FC000000000000000000000000000000000000000000000000FC000000000000FC000000000000000000000000000000000000000000000000FC000000
310
000000FC000000000000000000000000000000000000000000000000FC000000000000FC000000000000000000000000000000000000000000000000FC000000000000FC000000000000000000000000000000000000000000000000FC000000000000FC000000000000000000000000000000000000000000000000FC0000
310
0000000000FCFCFCFCFCFC000000000000000000000000000000000000FC0000000000000000000000FC00000000000000000000000000000000000000FC0000000000000000000000FC00000000000000000000000000000000000000FC000000000000FCFCFCFCFCFCFC000000000000000000000000000000000000FC00
310
00000000FC00FC0000000000000000000000000000000000000000000000FC0000000000FC00FC0000000000000000000000000000000000000000000000FC0000000000FCFCFCFC00000000000000000000000000000000000000000000FC0000000000FC00FC00FC000000000000000000000000000000000000000000FC
310
0000000000FC00FC00FC000000000000000000000000000000000000000000FC0000000000FC00FC00FC000000000000000000000000000000000000000000FC0000000000FC00FC00FC000000000000000000000000000000000000000000FC0000000000FC00FC00FC000000000000000000000000000000000000000000
310
FC0000000000FC00FC00FC000000000000000000000000000000000000000000FC0000000000FC00FC00FC000000000000000000000000000000000000000000FC0000000000FC00FC00FC000000000000000000000000000000000000000000FC0000000000FC00FC00FC0000000000000000000000000000000000000000
310
00FC0000000000FC00FC00FC0000000000000000000000000000000000000000000000000000000000000000000000000000000000000000
102
{BLKREFS
331
65CA
102
}
 70
     4
280
     1
281
     1
  0
ENDTAB
  0
ENDSEC
  0
SECTION
  2
BLOCKS
  0
BLOCK
  5
20
330
1F
100
AcDbEntity
  8
0
100
AcDbBlockBegin
  2
*Model_Space
 70
     0
 10
0.0
 20
0.0
 30
0.0
  3
*Model_Space
  1

  0
ENDBLK
  5
21
330
1F
100
AcDbEntity
  8
0
100
AcDbBlockEnd
  0
BLOCK
  5
1C
330
1B
100
AcDbEntity
 67
     1
  8
0
100
AcDbBlockBegin
  2
*Paper_Space
 70
     0
 10
0.0
 20
0.0
 30
0.0
  3
*Paper_Space
  1

  0
ENDBLK
  5
1D
330
1B
100
AcDbEntity
 67
     1
  8
0
100
AcDbBlockEnd
  0
BLOCK
  5
24
330
23
100
AcDbEntity
 67
     1
  8
0
100
AcDbBlockBegin
  2
*Paper_Space0
 70
     0
 10
0.0
 20
0.0
 30
0.0
  3
*Paper_Space0
  1

  0
ENDBLK
  5
25
330
23
100
AcDbEntity
 67
     1
  8
0
100
AcDbBlockEnd
  0
BLOCK
  5
6D
330
69
100
AcDbEntity
  8
0
100
AcDbBlockBegin
  2
_Open30
 70
     0
 10
0.0
 20
0.0
 30
0.0
  3
_Open30
  1

  0
LINE
  5
6A
330
69
100
AcDbEntity
  8
0
  6
ByBlock
 62
     0
370
    -2
100
AcDbLine
 10
-1.0
 20
0.26794919
 30
0.0
 11
0.0
 21
0.0
 31
0.0
  0
LINE
  5
6B
330
69
100
AcDbEntity
  8
0
  6
ByBlock
 62
     0
370
    -2
100
AcDbLine
 10
0.0
 20
0.0
 30
0.0
 11
-1.0
 21
-0.26794919
 31
0.0
  0
LINE
  5
6C
330
69
100
AcDbEntity
  8
0
  6
ByBlock
 62
     0
370
    -2
100
AcDbLine
 10
0.0
 20
0.0
 30
0.0
 11
-1.0
 21
0.0
 31
0.0
  0
ENDBLK
  5
6E
330
69
100
AcDbEntity
  8
0
100
AcDbBlockEnd
  0
BLOCK
  5
76
330
74
100
AcDbEntity
  8
0
100
AcDbBlockBegin
  2
GENAXEH
 70
     0
 10
0.0
 20
0.0
 30
0.0
  3
GENAXEH
  1

  0
LINE
  5
75
330
74
100
AcDbEntity
  8
0
100
AcDbLine
 10
-1.0
 20
0.0
 30
0.0
 11
1.0
 21
0.0
 31
0.0
  0
ENDBLK
  5
77
330
74
100
AcDbEntity
  8
0
100
AcDbBlockEnd
  0
BLOCK
  5
3362
330
335F
100
AcDbEntity
  8
0
100
AcDbBlockBegin
  2
ジュウジマルコネジ
 70
     0
 10
0.0
 20
0.0
 30
0.0
  3
ジュウジマルコネジ
  1

  0
LWPOLYLINE
  5
4B71
330
335F
100
AcDbEntity
  8
AM_0 外形線1
100
AcDbPolyline
 90
       36
 70
     0
 43
0.0
 10
0.0
 20
3.5
 10
-0.2330620000000181
 20
3.485911000000013
 10
-0.4642479999999978
 20
3.443754000000011
 10
-0.6916949999999816
 20
3.373870000000009
 10
-0.9135739999999827
 20
3.276823000000006
 10
-1.128096999999967
 20
3.153392000000025
 10
-1.333537999999975
 20
3.004570999999998
 10
-1.528241000000034
 20
2.831560000000024
 10
-1.710640000000011
 20
2.635750999999999
 10
-1.879266000000028
 20
2.418720000000005
 10
-2.032760999999993
 20
2.182215000000013
 10
-2.169890000000008
 20
1.928140000000013
 10
-2.289547999999967
 20
1.658541000000013
 10
-2.390771999999969
 20
1.37558800000002
 10
-2.472746999999969
 20
1.081560000000024
 10
-2.534811999999988
 20
0.7788240000000144
 10
-2.576468999999974
 20
0.4698170000000064
 10
-2.59738199999998
 20
0.1570269999999994
 10
-2.59738199999998
 20
-0.1570260000000019
 10
-2.576468999999974
 20
-0.4698159999999805
 10
-2.534811999999988
 20
-0.7788229999999885
 10
-2.472746999999969
 20
-1.081558999999969
 10
-2.390771999999969
 20
-1.375586999999995
 10
-2.289547999999967
 20
-1.658539999999985
 10
-2.169890000000008
 20
-1.928138999999987
 10
-2.032760999999993
 20
-2.182213999999985
 10
-1.879266000000028
 20
-2.418718999999979
 10
-1.710640000000011
 20
-2.635749999999999
 10
-1.528241000000034
 20
-2.83155899999997
 10
-1.333537999999975
 20
-3.004570000000001
 10
-1.128096999999967
 20
-3.153390999999998
 10
-0.9135739999999827
 20
-3.276821999999981
 10
-0.6916949999999816
 20
-3.373869999999981
 10
-0.4642479999999978
 20
-3.443752999999986
 10
-0.2330620000000181
 20
-3.485909999999988
 10
0.0
 20
-3.5
  0
LINE
  5
4B72
330
335F
100
AcDbEntity
  8
AM_7 中心線
100
AcDbLine
 10
-3.033333000000026
 20
0.0
 30
0.0
 11
6.267308000000013
 21
0.0
 31
0.0
  0
LINE
  5
4B74
330
335F
100
AcDbEntity
  8
AM_0 外形線1
100
AcDbLine
 10
0.0
 20
-5.0
 30
0.0
 11
0.0
 21
5.0
 31
0.0
  0
LINE
  5
4B75
330
335F
100
AcDbEntity
  8
AM_0 外形線1
100
AcDbLine
 10
0.0
 20
-5.0
 30
0.0
 11
0.8000000000000111
 21
-5.0
 31
0.0
  0
LINE
  5
4B76
330
335F
100
AcDbEntity
  8
AM_0 外形線1
100
AcDbLine
 10
0.8000000000000111
 20
2.0
 30
0.0
 11
0.799999999999983
 21
5.0
 31
0.0
  0
LINE
  5
4B77
330
335F
100
AcDbEntity
  8
AM_4 細線
100
AcDbLine
 10
4.850000000000021
 20
1.650000000000004
 30
0.0
 11
0.0
 21
1.650000000000004
 31
0.0
  0
LINE
  5
4B78
330
335F
100
AcDbEntity
  8
AM_4 細線
100
AcDbLine
 10
4.850000000000021
 20
-1.650000000000004
 30
0.0
 11
0.0
 21
-1.650000000000004
 31
0.0
  0
LINE
  5
4B79
330
335F
100
AcDbEntity
  8
AM_0 外形線1
100
AcDbLine
 10
4.5
 20
-2.0
 30
0.0
 11
0.0
 21
-2.0
 31
0.0
  0
LINE
  5
4B7A
330
335F
100
AcDbEntity
  8
AM_0 外形線1
100
AcDbLine
 10
4.5
 20
2.0
 30
0.0
 11
0.0
 21
2.0
 31
0.0
  0
LINE
  5
4B7B
330
335F
100
AcDbEntity
  8
AM_0 外形線1
100
AcDbLine
 10
0.0
 20
2.25
 30
0.0
 11
0.8000000000000111
 21
2.25
 31
0.0
  0
LINE
  5
4B7C
330
335F
100
AcDbEntity
  8
AM_0 外形線1
100
AcDbLine
 10
0.0
 20
-2.25
 30
0.0
 11
0.8000000000000111
 21
-2.25
 31
0.0
  0
LINE
  5
4B7D
330
335F
100
AcDbEntity
  8
AM_0 外形線1
100
AcDbLine
 10
4.5
 20
-2.0
 30
0.0
 11
5.0
 21
-1.5
 31
0.0
  0
LINE
  5
4B7E
330
335F
100
AcDbEntity
  8
AM_0 外形線1
100
AcDbLine
 10
4.5
 20
2.0
 30
0.0
 11
5.0
 21
1.5
 31
0.0
  0
LINE
  5
4B7F
330
335F
100
AcDbEntity
  8
AM_0 外形線1
100
AcDbLine
 10
4.5
 20
-2.0
 30
0.0
 11
4.5
 21
2.0
 31
0.0
  0
LINE
  5
4B80
330
335F
100
AcDbEntity
  8
AM_0 外形線1
100
AcDbLine
 10
5.0
 20
-1.5
 30
0.0
 11
5.0
 21
1.5
 31
0.0
  0
LINE
  5
4B81
330
335F
100
AcDbEntity
  8
AM_0 外形線1
100
AcDbLine
 10
0.0
 20
5.0
 30
0.0
 11
0.8000000000000111
 21
5.0
 31
0.0
  0
LINE
  5
4BAA
330
335F
100
AcDbEntity
  8
AM_0 外形線1
100
AcDbLine
 10
0.799999999999983
 20
-5.0
 30
0.0
 11
0.8000000000000111
 21
-2.0
 31
0.0
  0
ENDBLK
  5
3374
330
335F
100
AcDbEntity
  8
0
100
AcDbBlockEnd
  0
BLOCK
  5
4A69
330
4A68
100
AcDbEntity
  8
0
100
AcDbBlockBegin
  2
ケースＡ SMVH112
 70
     0
 10
0.0
 20
0.0
 30
0.0
  3
ケースＡ SMVH112
  1

  0
LINE
  5
4A6B
330
4A68
100
AcDbEntity
  8
AM_7 中心線
100
AcDbLine
 10
-33.0
 20
-12.32106899999999
 30
0.0
 11
-33.0
 21
-26.794644
 31
0.0
  0
ARC
  5
4A6C
330
4A68
100
AcDbEntity
  8
AM_0 外形線1
100
AcDbCircle
 10
-34.0
 20
-26.0
 30
0.0
 40
1.0
100
AcDbArc
 50
90.0
 51
180.0
  0
LINE
  5
4A6D
330
4A68
100
AcDbEntity
  8
AM_0 外形線1
100
AcDbLine
 10
-39.5
 20
-18.0
 30
0.0
 11
-39.5
 21
-37.0
 31
0.0
  0
LWPOLYLINE
  5
4A6E
330
4A68
100
AcDbEntity
  8
AM_0 外形線1
100
AcDbPolyline
 90
       73
 70
     0
 43
0.0
 10
-31.35000000000002
 20
-30.2
 10
-31.55481600000002
 20
-30.21445999999997
 10
-31.75807300000002
 20
-30.25772999999998
 10
-31.95822399999997
 20
-30.32948099999999
 10
-32.15374699999995
 20
-30.429168
 10
-32.34315299999997
 20
-30.55603
 10
-32.52500000000003
 20
-30.70910299999997
 10
-32.697904
 20
-30.88722200000001
 10
-32.86054999999999
 20
-31.08903099999998
 10
-33.01170099999996
 20
-31.312994
 10
-33.15020400000003
 20
-31.55740700000001
 10
-33.27500700000002
 20
-31.82040899999999
 10
-33.38515899999999
 20
-32.09999999999997
 10
-33.47982300000001
 20
-32.39405
 10
-33.55827700000003
 20
-32.700323
 10
-33.61992500000003
 20
-33.01648699999998
 10
-33.66429800000003
 20
-33.340136
 10
-33.691057
 20
-33.66880800000001
 10
-33.69999999999999
 20
-34.0
 10
-33.691057
 20
-34.33119099999999
 10
-33.66429800000003
 20
-34.65986299999997
 10
-33.61992500000003
 20
-34.98351199999999
 10
-33.55827700000003
 20
-35.29967599999998
 10
-33.47982300000001
 20
-35.60594900000001
 10
-33.38515899999999
 20
-35.89999999999998
 10
-33.27500700000002
 20
-36.17958999999999
 10
-33.15020400000003
 20
-36.44259199999999
 10
-33.01170099999996
 20
-36.687005
 10
-32.86054999999999
 20
-36.91096799999997
 10
-32.697904
 20
-37.112777
 10
-32.52500000000003
 20
-37.29089599999998
 10
-32.34315299999997
 20
-37.44396899999998
 10
-32.15374699999995
 20
-37.570831
 10
-31.95822399999997
 20
-37.67051799999999
 10
-31.75807300000002
 20
-37.74226899999999
 10
-31.55481600000002
 20
-37.78553899999997
 10
-31.35000000000002
 20
-37.79999999999998
 10
-31.14518399999997
 20
-37.78553899999997
 10
-30.94192599999997
 20
-37.74226899999999
 10
-30.74177500000002
 20
-37.67051799999999
 10
-30.54625199999998
 20
-37.570831
 10
-30.35684699999996
 20
-37.44396899999998
 10
-30.17500000000001
 20
-37.29089599999998
 10
-30.002095
 20
-37.112777
 10
-29.839449
 20
-36.91096799999997
 10
-29.68829899999997
 20
-36.687005
 10
-29.54979499999996
 20
-36.44259199999999
 10
-29.42499199999998
 20
-36.17958999999999
 10
-29.31484000000001
 20
-35.89999999999998
 10
-29.22017599999998
 20
-35.60594900000001
 10
-29.14172199999996
 20
-35.29967599999998
 10
-29.08007399999997
 20
-34.98351199999999
 10
-29.03570099999996
 20
-34.65986299999997
 10
-29.00894199999999
 20
-34.33119099999999
 10
-29.0
 20
-34.0
 10
-29.00894199999999
 20
-33.66880800000001
 10
-29.03570099999996
 20
-33.340136
 10
-29.08007399999997
 20
-33.01648699999998
 10
-29.14172199999996
 20
-32.700323
 10
-29.22017599999998
 20
-32.39405
 10
-29.31484000000001
 20
-32.09999999999997
 10
-29.42499199999998
 20
-31.82040899999999
 10
-29.54979499999996
 20
-31.55740700000001
 10
-29.68829899999997
 20
-31.312994
 10
-29.839449
 20
-31.08903099999998
 10
-30.002095
 20
-30.88722200000001
 10
-30.17500000000001
 20
-30.70910299999997
 10
-30.35684699999996
 20
-30.55603
 10
-30.54625199999998
 20
-30.429168
 10
-30.74177500000002
 20
-30.32948099999999
 10
-30.94192599999997
 20
-30.25772999999998
 10
-31.14518399999997
 20
-30.21445999999997
 10
-31.35000000000002
 20
-30.2
  0
LINE
  5
4A6F
330
4A68
100
AcDbEntity
  8
AM_0 外形線1
100
AcDbLine
 10
-29.0
 20
-28.0
 30
0.0
 11
-34.0
 21
-28.0
 31
0.0
  0
LINE
  5
4A70
330
4A68
100
AcDbEntity
  8
AM_0 外形線1
100
AcDbLine
 10
-33.19999999999999
 20
-30.2
 30
0.0
 11
-29.0
 21
-30.2
 31
0.0
  0
LINE
  5
4A71
330
4A68
100
AcDbEntity
  8
AM_0 外形線1
100
AcDbLine
 10
-29.0
 20
-37.79999999999998
 30
0.0
 11
-33.19999999999999
 21
-37.79999999999998
 31
0.0
  0
LINE
  5
4A72
330
4A68
100
AcDbEntity
  8
AM_0 外形線1
100
AcDbLine
 10
-36.5
 20
-40.0
 30
0.0
 11
-29.0
 21
-40.0
 31
0.0
  0
LINE
  5
4A73
330
4A68
100
AcDbEntity
  8
AM_0 外形線1
100
AcDbLine
 10
-33.69999999999999
 20
-37.29999999999999
 30
0.0
 11
-33.69999999999999
 21
-30.69999999999999
 31
0.0
  0
ARC
  5
4A74
330
4A68
100
AcDbEntity
  8
AM_0 外形線1
100
AcDbCircle
 10
-36.5
 20
-37.0
 30
0.0
 40
3.0
100
AcDbArc
 50
180.0
 51
270.0
  0
ARC
  5
4A75
330
4A68
100
AcDbEntity
  8
AM_0 外形線1
100
AcDbCircle
 10
-33.19999999999999
 20
-37.29999999999999
 30
0.0
 40
0.5
100
AcDbArc
 50
180.0
 51
270.0
  0
LINE
  5
4A76
330
4A68
100
AcDbEntity
  8
AM_0 外形線1
100
AcDbLine
 10
-35.0
 20
-27.0
 30
0.0
 11
-35.0
 21
-26.0
 31
0.0
  0
ARC
  5
4A77
330
4A68
100
AcDbEntity
  8
AM_0 外形線1
100
AcDbCircle
 10
-34.0
 20
-27.0
 30
0.0
 40
1.0
100
AcDbArc
 50
180.0
 51
270.0
  0
ARC
  5
4A78
330
4A68
100
AcDbEntity
  8
AM_0 外形線1
100
AcDbCircle
 10
-33.19999999999999
 20
-30.69999999999999
 30
0.0
 40
0.5
100
AcDbArc
 50
90.0
 51
180.0
  0
LINE
  5
4A79
330
4A68
100
AcDbEntity
  8
AM_0 外形線1
100
AcDbLine
 10
-30.0
 20
-40.0
 30
0.0
 11
-30.0
 21
-37.79999999999998
 31
0.0
  0
LINE
  5
4A7A
330
4A68
100
AcDbEntity
  8
AM_0 外形線1
100
AcDbLine
 10
-30.0
 20
-30.2
 30
0.0
 11
-30.0
 21
-28.0
 31
0.0
  0
LINE
  5
4A7B
330
4A68
100
AcDbEntity
  8
AM_7 中心線
100
AcDbLine
 10
-57.25
 20
-8.0
 30
0.0
 11
-33.25
 21
-8.0
 31
0.0
  0
LINE
  5
4A7C
330
4A68
100
AcDbEntity
  8
AM_0 外形線1
100
AcDbLine
 10
-49.80000000000001
 20
-12.25
 30
0.0
 11
-34.96824499999997
 21
-12.25
 31
0.0
  0
LINE
  5
4A7D
330
4A68
100
AcDbEntity
  8
AM_0 外形線1
100
AcDbLine
 10
-49.80000000000001
 20
-3.75
 30
0.0
 11
-35.0
 21
-3.75
 31
0.0
  0
ARC
  5
4A7F
330
4A68
100
AcDbEntity
  8
AM_0 外形線1
100
AcDbCircle
 10
-42.5
 20
-18.0
 30
0.0
 40
3.0
100
AcDbArc
 50
0.0
 51
90.0
  0
LINE
  5
4A80
330
4A68
100
AcDbEntity
  8
AM_4 細線
100
AcDbLine
 10
-49.80000000000001
 20
-3.329749999999988
 30
0.0
 11
-49.80000000000001
 21
-12.67025000000001
 31
0.0
  0
LINE
  5
4A81
330
4A68
100
AcDbEntity
  8
AM_0 外形線1
100
AcDbLine
 10
-56.0
 20
-0.1999999999999886
 30
0.0
 11
-56.0
 21
-14.79999999999998
 31
0.0
  0
LINE
  5
4A82
330
4A68
100
AcDbEntity
  8
AM_4 細線
100
AcDbLine
 10
-56.0
 20
-12.86399999999997
 30
0.0
 11
-49.80000000000001
 21
-12.67025000000001
 31
0.0
  0
LINE
  5
4A83
330
4A68
100
AcDbEntity
  8
AM_0 外形線1
100
AcDbLine
 10
-56.0
 20
-12.44374999999999
 30
0.0
 11
-49.80000000000001
 21
-12.25
 31
0.0
  0
LINE
  5
4A84
330
4A68
100
AcDbEntity
  8
AM_0 外形線1
100
AcDbLine
 10
-55.80000000000001
 20
-15.0
 30
0.0
 11
-42.5
 21
-15.0
 31
0.0
  0
LINE
  5
4A85
330
4A68
100
AcDbEntity
  8
AM_0 外形線1
100
AcDbLine
 10
-56.0
 20
-14.79999999999998
 30
0.0
 11
-55.80000000000001
 21
-15.0
 31
0.0
  0
LINE
  5
4A86
330
4A68
100
AcDbEntity
  8
AM_4 細線
100
AcDbLine
 10
-56.0
 20
-3.135999999999995
 30
0.0
 11
-49.80000000000001
 21
-3.329749999999988
 31
0.0
  0
LINE
  5
4A87
330
4A68
100
AcDbEntity
  8
AM_0 外形線1
100
AcDbLine
 10
-56.0
 20
-3.556249999999976
 30
0.0
 11
-49.80000000000001
 21
-3.75
 31
0.0
  0
LINE
  5
4A88
330
4A68
100
AcDbEntity
  8
AM_0 外形線1
100
AcDbLine
 10
-55.80000000000001
 20
0.0
 30
0.0
 11
-56.0
 21
-0.1999999999999886
 31
0.0
  0
LINE
  5
4A89
330
4A68
100
AcDbEntity
  8
AM_0 外形線1
100
AcDbLine
 10
-35.0
 20
-12.0
 30
0.0
 11
-35.0
 21
0.0
 31
0.0
  0
LINE
  5
4A8A
330
4A68
100
AcDbEntity
  8
AM_0 外形線1
100
AcDbLine
 10
-32.30000000000001
 20
-13.0
 30
0.0
 11
-34.0
 21
-13.0
 31
0.0
  0
LINE
  5
4A8B
330
4A68
100
AcDbEntity
  8
AM_3 隠れ線
100
AcDbLine
 10
-31.80000000000001
 20
-15.0
 30
0.0
 11
-31.80000000000001
 21
-24.5
 31
0.0
  0
LINE
  5
4A8C
330
4A68
100
AcDbEntity
  8
AM_0 外形線1
100
AcDbLine
 10
-34.5
 20
-12.86602499999998
 30
0.0
 11
-34.5
 21
-25.133974
 31
0.0
  0
LINE
  5
4A8D
330
4A68
100
AcDbEntity
  8
AM_3 隠れ線
100
AcDbLine
 10
-33.977733
 20
-25.0
 30
0.0
 11
-32.30000000000001
 21
-25.0
 31
0.0
  0
LINE
  5
4A8E
330
4A68
100
AcDbEntity
  8
AM_3 隠れ線
100
AcDbLine
 10
-32.30000000000001
 20
-25.0
 30
0.0
 11
-31.80000000000001
 21
-24.5
 31
0.0
  0
LINE
  5
4A8F
330
4A68
100
AcDbEntity
  8
AM_0 外形線1
100
AcDbLine
 10
-31.80000000000001
 20
-15.0
 30
0.0
 11
-31.80000000000001
 21
-13.5
 31
0.0
  0
ARC
  5
4A90
330
4A68
100
AcDbEntity
  8
AM_0 外形線1
100
AcDbCircle
 10
-34.0
 20
-12.0
 30
0.0
 40
1.0
100
AcDbArc
 50
180.0
 51
270.0
  0
LINE
  5
4A91
330
4A68
100
AcDbEntity
  8
AM_0 外形線1
100
AcDbLine
 10
-31.80000000000001
 20
-13.5
 30
0.0
 11
-32.30000000000001
 21
-13.0
 31
0.0
  0
LWPOLYLINE
  5
4A93
330
4A68
100
AcDbEntity
  8
AM_0 外形線1
100
AcDbPolyline
 90
       73
 70
     0
 43
0.0
 10
-37.5
 20
-1.199572443737935
 10
-37.50741999999997
 20
-1.094985443737924
 10
-37.52962399999996
 20
-0.9911944437379247
 10
-37.56644399999999
 20
-0.8889894437379266
 10
-37.61759899999999
 20
-0.7891474437379316
 10
-37.68269899999996
 20
-0.6924304437379192
 10
-37.76125000000003
 20
-0.599572443737941
 10
-37.85265299999998
 20
-0.5112804437379169
 10
-37.95621299999999
 20
-0.4282264437379413
 10
-38.07114100000001
 20
-0.3510434437379217
 10
-38.19656400000003
 20
-0.28031844373794
 10
-38.331526
 20
-0.2165894437379165
 10
-38.47500000000002
 20
-0.1603414437379342
 10
-38.62589400000003
 20
-0.1120024437379357
 10
-38.78306000000004
 20
-0.0719404437379296
 10
-38.94530200000004
 20
-0.040461443737911
 10
-39.11138599999997
 20
-0.017802443737935
 10
-39.28004600000003
 20
-0.0041384437379293
 10
-39.44999999999999
 20
0.0004275562620819
 10
-39.61995300000001
 20
-0.0041384437379293
 10
-39.78861399999999
 20
-0.017802443737935
 10
-39.95469699999996
 20
-0.040461443737911
 10
-40.116939
 20
-0.0719404437379296
 10
-40.27410499999996
 20
-0.1120024437379357
 10
-40.42500000000001
 20
-0.1603414437379342
 10
-40.56847399999996
 20
-0.2165894437379165
 10
-40.70343499999999
 20
-0.28031844373794
 10
-40.82885800000002
 20
-0.3510434437379217
 10
-40.94378599999997
 20
-0.4282264437379413
 10
-41.047346
 20
-0.5112804437379169
 10
-41.13874899999996
 20
-0.599572443737941
 10
-41.21730000000002
 20
-0.6924304437379192
 10
-41.28239999999999
 20
-0.7891474437379316
 10
-41.33355499999999
 20
-0.8889894437379266
 10
-41.37037500000002
 20
-0.9911944437379247
 10
-41.39257900000001
 20
-1.094985443737924
 10
-41.40000000000003
 20
-1.199572443737935
 10
-41.39257900000001
 20
-1.304158443737917
 10
-41.37037500000002
 20
-1.407949443737948
 10
-41.33355499999999
 20
-1.510154443737915
 10
-41.28239999999999
 20
-1.609996443737939
 10
-41.21730000000002
 20
-1.706713443737925
 10
-41.13874899999996
 20
-1.799572443737928
 10
-41.047346
 20
-1.887863443737925
 10
-40.94378599999997
 20
-1.970917443737929
 10
-40.82885800000002
 20
-2.048100443737951
 10
-40.70343499999999
 20
-2.118825443737931
 10
-40.56847399999996
 20
-2.182554443737898
 10
-40.42500000000001
 20
-2.238802443737938
 10
-40.27410499999996
 20
-2.287141443737935
 10
-40.116939
 20
-2.327203443737912
 10
-39.95469699999996
 20
-2.35868344373793
 10
-39.78861399999999
 20
-2.381341443737936
 10
-39.61995300000001
 20
-2.395005443737915
 10
-39.44999999999999
 20
-2.399572443737951
 10
-39.28004600000003
 20
-2.395005443737915
 10
-39.11138599999997
 20
-2.381341443737936
 10
-38.94530200000004
 20
-2.35868344373793
 10
-38.78306000000004
 20
-2.327203443737912
 10
-38.62589400000003
 20
-2.287141443737935
 10
-38.47500000000002
 20
-2.238802443737938
 10
-38.331526
 20
-2.182554443737898
 10
-38.19656400000003
 20
-2.118825443737931
 10
-38.07114100000001
 20
-2.048100443737951
 10
-37.95621299999999
 20
-1.970917443737929
 10
-37.85265299999998
 20
-1.887863443737925
 10
-37.76125000000003
 20
-1.799572443737928
 10
-37.68269899999996
 20
-1.706713443737925
 10
-37.61759899999999
 20
-1.609996443737939
 10
-37.56644399999999
 20
-1.510154443737915
 10
-37.52962399999996
 20
-1.407949443737948
 10
-37.50741999999997
 20
-1.304158443737917
 10
-37.5
 20
-1.199572443737935
  0
LINE
  5
4A94
330
4A68
100
AcDbEntity
  8
AM_0 外形線1
100
AcDbLine
 10
-41.40000000000003
 20
-1.899999999999975
 30
0.0
 11
-41.40000000000003
 21
0.0
 31
0.0
  0
ARC
  5
4A95
330
4A68
100
AcDbEntity
  8
AM_0 外形線1
100
AcDbCircle
 10
-40.90000000000003
 20
-1.899999999999975
 30
0.0
 40
0.5
100
AcDbArc
 50
180.0
 51
270.0
  0
LINE
  5
4A96
330
4A68
100
AcDbEntity
  8
AM_0 外形線1
100
AcDbLine
 10
-38.0
 20
-2.399999999999977
 30
0.0
 11
-40.90000000000003
 21
-2.399999999999977
 31
0.0
  0
ARC
  5
4A97
330
4A68
100
AcDbEntity
  8
AM_0 外形線1
100
AcDbCircle
 10
-38.0
 20
-1.899999999999975
 30
0.0
 40
0.5
100
AcDbArc
 50
270.0
 51
0.0
  0
LINE
  5
4A98
330
4A68
100
AcDbEntity
  8
AM_0 外形線1
100
AcDbLine
 10
-35.0
 20
0.0
 30
0.0
 11
-37.5
 21
0.0
 31
0.0
  0
LINE
  5
4A99
330
4A68
100
AcDbEntity
  8
AM_7 中心線
100
AcDbLine
 10
49.5
 20
25.10831800000004
 30
0.0
 11
49.5
 21
-20.0
 31
0.0
  0
LINE
  5
4A9A
330
4A68
100
AcDbEntity
  8
AM_0 外形線1
100
AcDbLine
 10
0.0
 20
0.0
 30
0.0
 11
55.80000000000001
 21
0.0
 31
0.0
  0
LINE
  5
4A9B
330
4A68
100
AcDbEntity
  8
AM_0 外形線1
100
AcDbLine
 10
36.5
 20
-40.0
 30
0.0
 11
0.0
 21
-40.0
 31
0.0
  0
LINE
  5
4A9C
330
4A68
100
AcDbEntity
  8
AM_0 外形線1
100
AcDbLine
 10
55.80000000000001
 20
-15.0
 30
0.0
 11
0.0
 21
-15.0
 31
0.0
  0
LINE
  5
4A9D
330
4A68
100
AcDbEntity
  8
AM_0 外形線1
100
AcDbLine
 10
39.5
 20
-18.0
 30
0.0
 11
39.5
 21
-37.0
 31
0.0
  0
ARC
  5
4A9E
330
4A68
100
AcDbEntity
  8
AM_0 外形線1
100
AcDbCircle
 10
36.5
 20
-37.0
 30
0.0
 40
3.0
100
AcDbArc
 50
270.0
 51
0.0
  0
ARC
  5
4A9F
330
4A68
100
AcDbEntity
  8
AM_0 外形線1
100
AcDbCircle
 10
42.5
 20
-18.0
 30
0.0
 40
3.0
100
AcDbArc
 50
90.0
 51
180.0
  0
LINE
  5
4AA0
330
4A68
100
AcDbEntity
  8
AM_0 外形線1
100
AcDbLine
 10
56.0
 20
-0.1999999999999886
 30
0.0
 11
56.0
 21
-14.79999999999998
 31
0.0
  0
LINE
  5
4AA1
330
4A68
100
AcDbEntity
  8
AM_0 外形線1
100
AcDbLine
 10
56.0
 20
-14.79999999999998
 30
0.0
 11
55.80000000000001
 21
-15.0
 31
0.0
  0
LINE
  5
4AA2
330
4A68
100
AcDbEntity
  8
AM_0 外形線1
100
AcDbLine
 10
55.80000000000001
 20
0.0
 30
0.0
 11
56.0
 21
-0.1999999999999886
 31
0.0
  0
LINE
  5
4B1F
330
4A68
100
AcDbEntity
  8
AM_0 外形線1
100
AcDbLine
 10
-41.40000000000003
 20
0.0
 30
0.0
 11
-55.80000000000001
 21
0.0
 31
0.0
  0
LINE
  5
4B20
330
4A68
100
AcDbEntity
  8
AM_0 外形線1
100
AcDbLine
 10
-37.49999999999996
 20
0.0
 30
0.0
 11
-37.5
 21
-1.899999999999975
 31
0.0
  0
ENDBLK
  5
4A6A
330
4A68
100
AcDbEntity
  8
0
100
AcDbBlockEnd
  0
BLOCK
  5
4C34
330
4C33
100
AcDbEntity
  8
0
100
AcDbBlockBegin
  2
ケースＢ SMVH112
 70
     0
 10
0.0
 20
0.0
 30
0.0
  3
ケースＢ SMVH112
  1

  0
LINE
  5
4C36
330
4C33
100
AcDbEntity
  8
AM_0 外形線1
100
AcDbLine
 10
-35.0
 20
3.0
 30
0.0
 11
-37.5
 21
3.0
 31
0.0
  0
LINE
  5
4C37
330
4C33
100
AcDbEntity
  8
AM_4 細線
100
AcDbLine
 10
-49.80000000000001
 20
3.329749999999988
 30
0.0
 11
-49.80000000000001
 21
12.67025000000001
 31
0.0
  0
LINE
  5
4C38
330
4C33
100
AcDbEntity
  8
AM_0 外形線1
100
AcDbLine
 10
-56.0
 20
0.1999999999999886
 30
0.0
 11
-56.0
 21
14.80000000000001
 31
0.0
  0
LINE
  5
4C39
330
4C33
100
AcDbEntity
  8
AM_0 外形線1
100
AcDbLine
 10
-35.0
 20
12.0
 30
0.0
 11
-35.0
 21
3.0
 31
0.0
  0
LINE
  5
4C3A
330
4C33
100
AcDbEntity
  8
AM_0 外形線1
100
AcDbLine
 10
-49.80000000000001
 20
3.75
 30
0.0
 11
-35.0
 21
3.75
 31
0.0
  0
LINE
  5
4C3B
330
4C33
100
AcDbEntity
  8
AM_4 細線
100
AcDbLine
 10
-56.0
 20
3.136000000000023
 30
0.0
 11
-49.80000000000001
 21
3.329749999999988
 31
0.0
  0
LINE
  5
4C3C
330
4C33
100
AcDbEntity
  8
AM_0 外形線1
100
AcDbLine
 10
-56.0
 20
3.556250000000004
 30
0.0
 11
-49.80000000000001
 21
3.75
 31
0.0
  0
LINE
  5
4C3D
330
4C33
100
AcDbEntity
  8
AM_0 外形線1
100
AcDbLine
 10
-55.80000000000001
 20
0.0
 30
0.0
 11
-56.0
 21
0.1999999999999886
 31
0.0
  0
LINE
  5
4C3E
330
4C33
100
AcDbEntity
  8
AM_0 外形線1
100
AcDbLine
 10
-37.5
 20
0.1999999999999886
 30
0.0
 11
-37.69999999999999
 21
0.0
 31
0.0
  0
LINE
  5
4C3F
330
4C33
100
AcDbEntity
  8
AM_0 外形線1
100
AcDbLine
 10
-30.0
 20
40.0
 30
0.0
 11
-30.0
 21
37.80000000000001
 31
0.0
  0
ARC
  5
4C40
330
4C33
100
AcDbEntity
  8
AM_0 外形線1
100
AcDbCircle
 10
-36.5
 20
37.0
 30
0.0
 40
3.0
100
AcDbArc
 50
90.0
 51
180.0
  0
LINE
  5
4C41
330
4C33
100
AcDbEntity
  8
AM_7 中心線
100
AcDbLine
 10
-57.25
 20
8.0
 30
0.0
 11
-33.25
 21
8.0
 31
0.0
  0
LINE
  5
4C42
330
4C33
100
AcDbEntity
  8
AM_0 外形線1
100
AcDbLine
 10
-49.80000000000001
 20
12.25
 30
0.0
 11
-34.96824499999997
 21
12.25
 31
0.0
  0
ARC
  5
4C43
330
4C33
100
AcDbEntity
  8
AM_0 外形線1
100
AcDbCircle
 10
-42.5
 20
18.0
 30
0.0
 40
3.0
100
AcDbArc
 50
270.0
 51
0.0
  0
LINE
  5
4C44
330
4C33
100
AcDbEntity
  8
AM_4 細線
100
AcDbLine
 10
-56.0
 20
12.864
 30
0.0
 11
-49.80000000000001
 21
12.67025000000001
 31
0.0
  0
LINE
  5
4C45
330
4C33
100
AcDbEntity
  8
AM_0 外形線1
100
AcDbLine
 10
-56.0
 20
12.44374999999999
 30
0.0
 11
-49.80000000000001
 21
12.25
 31
0.0
  0
LINE
  5
4C46
330
4C33
100
AcDbEntity
  8
AM_0 外形線1
100
AcDbLine
 10
-55.80000000000001
 20
15.0
 30
0.0
 11
-42.5
 21
15.0
 31
0.0
  0
LINE
  5
4C47
330
4C33
100
AcDbEntity
  8
AM_0 外形線1
100
AcDbLine
 10
-56.0
 20
14.80000000000001
 30
0.0
 11
-55.80000000000001
 21
15.0
 31
0.0
  0
LINE
  5
4C48
330
4C33
100
AcDbEntity
  8
AM_7 中心線
100
AcDbLine
 10
-33.0
 20
11.91054500000001
 30
0.0
 11
-33.0
 21
27.0
 31
0.0
  0
LINE
  5
4C49
330
4C33
100
AcDbEntity
  8
AM_3 隠れ線
100
AcDbLine
 10
-31.80000000000001
 20
15.0
 30
0.0
 11
-31.80000000000001
 21
24.5
 31
0.0
  0
LINE
  5
4C4A
330
4C33
100
AcDbEntity
  8
AM_0 外形線1
100
AcDbLine
 10
-34.5
 20
12.866026
 30
0.0
 11
-34.5
 21
25.13397499999999
 31
0.0
  0
LINE
  5
4C4B
330
4C33
100
AcDbEntity
  8
AM_0 外形線1
100
AcDbLine
 10
-32.30000000000001
 20
13.0
 30
0.0
 11
-34.0
 21
13.0
 31
0.0
  0
LINE
  5
4C4C
330
4C33
100
AcDbEntity
  8
AM_0 外形線1
100
AcDbLine
 10
-31.80000000000001
 20
15.0
 30
0.0
 11
-31.80000000000001
 21
13.5
 31
0.0
  0
ARC
  5
4C4D
330
4C33
100
AcDbEntity
  8
AM_0 外形線1
100
AcDbCircle
 10
-34.0
 20
12.0
 30
0.0
 40
1.0
100
AcDbArc
 50
90.0
 51
180.0
  0
LINE
  5
4C4E
330
4C33
100
AcDbEntity
  8
AM_0 外形線1
100
AcDbLine
 10
-31.80000000000001
 20
13.5
 30
0.0
 11
-32.30000000000001
 21
13.0
 31
0.0
  0
LINE
  5
4C4F
330
4C33
100
AcDbEntity
  8
AM_0 外形線1
100
AcDbLine
 10
-39.5
 20
18.0
 30
0.0
 11
-39.5
 21
21.5
 31
0.0
  0
LINE
  5
4C50
330
4C33
100
AcDbEntity
  8
AM_0 外形線1
100
AcDbLine
 10
-39.5
 20
21.0
 30
0.0
 11
-39.0
 21
21.0
 31
0.0
  0
LINE
  5
4C51
330
4C33
100
AcDbEntity
  8
AM_0 外形線1
100
AcDbLine
 10
-34.94999999999999
 20
28.15000000000001
 30
0.0
 11
-30.0
 21
28.15000000000001
 31
0.0
  0
LINE
  5
4C52
330
4C33
100
AcDbEntity
  8
AM_4 細線
100
AcDbLine
 10
-35.30000000000001
 20
28.5
 30
0.0
 11
-30.0
 21
28.5
 31
0.0
  0
LWPOLYLINE
  5
4C53
330
4C33
100
AcDbEntity
  8
AM_0 外形線1
100
AcDbPolyline
 90
       73
 70
     0
 43
0.0
 10
-31.35000000000002
 20
30.20000000000002
 10
-31.14518399999997
 20
30.214461
 10
-30.94192599999997
 20
30.25773100000001
 10
-30.74177500000002
 20
30.32948200000002
 10
-30.54625199999998
 20
30.42916900000003
 10
-30.35684699999996
 20
30.55603100000002
 10
-30.17500000000001
 20
30.709104
 10
-30.002095
 20
30.88722300000001
 10
-29.839449
 20
31.089032
 10
-29.68829899999997
 20
31.312995
 10
-29.54979499999996
 20
31.55740800000001
 10
-29.42499199999998
 20
31.82041000000001
 10
-29.31484000000001
 20
32.09999999999999
 10
-29.22017599999998
 20
32.39405100000002
 10
-29.14172199999996
 20
32.700324
 10
-29.08007399999997
 20
33.01648800000001
 10
-29.03570099999996
 20
33.34013700000003
 10
-29.00894199999999
 20
33.66880900000001
 10
-29.0
 20
34.0
 10
-29.00894199999999
 20
34.33119200000002
 10
-29.03570099999996
 20
34.65986400000004
 10
-29.08007399999997
 20
34.98351300000002
 10
-29.14172199999996
 20
35.299677
 10
-29.22017599999998
 20
35.60595000000001
 10
-29.31484000000001
 20
35.90000000000003
 10
-29.42499199999998
 20
36.17959100000002
 10
-29.54979499999996
 20
36.44259300000002
 10
-29.68829899999997
 20
36.687006
 10
-29.839449
 20
36.91096900000002
 10
-30.002095
 20
37.11277800000003
 10
-30.17500000000001
 20
37.29089699999999
 10
-30.35684699999996
 20
37.44397000000001
 10
-30.54625199999998
 20
37.57083200000002
 10
-30.74177500000002
 20
37.67051900000004
 10
-30.94192599999997
 20
37.74226999999999
 10
-31.14518399999997
 20
37.78554000000003
 10
-31.35000000000002
 20
37.80000000000001
 10
-31.55481600000002
 20
37.78554000000003
 10
-31.75807300000002
 20
37.74226999999999
 10
-31.95822399999997
 20
37.67051900000004
 10
-32.15374699999995
 20
37.57083200000002
 10
-32.34315299999997
 20
37.44397000000001
 10
-32.52500000000003
 20
37.29089699999999
 10
-32.697904
 20
37.11277800000003
 10
-32.86054999999999
 20
36.91096900000002
 10
-33.01170099999996
 20
36.687006
 10
-33.15020400000003
 20
36.44259300000002
 10
-33.27500700000002
 20
36.17959100000002
 10
-33.38515899999999
 20
35.90000000000003
 10
-33.47982300000001
 20
35.60595000000001
 10
-33.55827700000003
 20
35.299677
 10
-33.61992500000003
 20
34.98351300000002
 10
-33.66429800000003
 20
34.65986400000004
 10
-33.691057
 20
34.33119200000002
 10
-33.69999999999999
 20
34.0
 10
-33.691057
 20
33.66880900000001
 10
-33.66429800000003
 20
33.34013700000003
 10
-33.61992500000003
 20
33.01648800000001
 10
-33.55827700000003
 20
32.700324
 10
-33.47982300000001
 20
32.39405100000002
 10
-33.38515899999999
 20
32.09999999999999
 10
-33.27500700000002
 20
31.82041000000001
 10
-33.15020400000003
 20
31.55740800000001
 10
-33.01170099999996
 20
31.312995
 10
-32.86054999999999
 20
31.089032
 10
-32.697904
 20
30.88722300000001
 10
-32.52500000000003
 20
30.709104
 10
-32.34315299999997
 20
30.55603100000002
 10
-32.15374699999995
 20
30.42916900000003
 10
-31.95822399999997
 20
30.32948200000002
 10
-31.75807300000002
 20
30.25773100000001
 10
-31.55481600000002
 20
30.214461
 10
-31.35000000000002
 20
30.20000000000002
  0
LINE
  5
4C54
330
4C33
100
AcDbEntity
  8
AM_0 外形線1
100
AcDbLine
 10
-29.0
 20
28.0
 30
0.0
 11
-34.0
 21
28.0
 31
0.0
  0
LINE
  5
4C55
330
4C33
100
AcDbEntity
  8
AM_0 外形線1
100
AcDbLine
 10
-33.19999999999999
 20
30.20000000000002
 30
0.0
 11
-29.0
 21
30.20000000000002
 31
0.0
  0
LINE
  5
4C56
330
4C33
100
AcDbEntity
  8
AM_0 外形線1
100
AcDbLine
 10
-29.0
 20
37.80000000000001
 30
0.0
 11
-33.19999999999999
 21
37.80000000000001
 31
0.0
  0
ARC
  5
4C57
330
4C33
100
AcDbEntity
  8
AM_0 外形線1
100
AcDbCircle
 10
-33.19999999999999
 20
30.70000000000002
 30
0.0
 40
0.5
100
AcDbArc
 50
180.0
 51
270.0
  0
LINE
  5
4C58
330
4C33
100
AcDbEntity
  8
AM_3 隠れ線
100
AcDbLine
 10
-34.05490200000004
 20
24.5
 30
0.0
 11
-31.80000000000001
 21
24.5
 31
0.0
  0
LINE
  5
4C59
330
4C33
100
AcDbEntity
  8
AM_3 隠れ線
100
AcDbLine
 10
-34.00167500000004
 20
24.84999999999999
 30
0.0
 11
-32.15000000000003
 21
24.84999999999999
 31
0.0
  0
LINE
  5
4C5A
330
4C33
100
AcDbEntity
  8
AM_0 外形線1
100
AcDbLine
 10
-34.00167500000004
 20
24.84999999999999
 30
0.0
 11
-34.94999999999999
 21
24.84999999999999
 31
0.0
  0
LINE
  5
4C5B
330
4C33
100
AcDbEntity
  8
AM_4 細線
100
AcDbLine
 10
-34.05490200000004
 20
24.5
 30
0.0
 11
-35.30000000000001
 21
24.5
 31
0.0
  0
LINE
  5
4C5C
330
4C33
100
AcDbEntity
  8
AM_0 外形線1
100
AcDbLine
 10
-35.0
 20
27.0
 30
0.0
 11
-35.0
 21
26.0
 31
0.0
  0
ARC
  5
4C5D
330
4C33
100
AcDbEntity
  8
AM_0 外形線1
100
AcDbCircle
 10
-34.0
 20
27.0
 30
0.0
 40
1.0
100
AcDbArc
 50
143.130101999998
 51
180.0
  0
ARC
  5
4C5E
330
4C33
100
AcDbEntity
  8
AM_0 外形線1
100
AcDbCircle
 10
-34.0
 20
26.0
 30
0.0
 40
1.0
100
AcDbArc
 50
180.0
 51
216.8698980000019
  0
LINE
  5
4C5F
330
4C33
100
AcDbEntity
  8
AM_3 隠れ線
100
AcDbLine
 10
-33.977733
 20
25.0
 30
0.0
 11
-32.30000000000001
 21
25.0
 31
0.0
  0
LINE
  5
4C60
330
4C33
100
AcDbEntity
  8
AM_3 隠れ線
100
AcDbLine
 10
-32.30000000000001
 20
25.0
 30
0.0
 11
-31.80000000000001
 21
24.5
 31
0.0
  0
ARC
  5
4C61
330
4C33
100
AcDbEntity
  8
AM_0 外形線1
100
AcDbCircle
 10
-34.0
 20
26.0
 30
0.0
 40
1.0
100
AcDbArc
 50
216.8698980000019
 51
270.0
  0
ARC
  5
4C62
330
4C33
100
AcDbEntity
  8
AM_0 外形線1
100
AcDbCircle
 10
-34.0
 20
27.0
 30
0.0
 40
1.0
100
AcDbArc
 50
90.0
 51
143.130101999998
  0
LINE
  5
4C63
330
4C33
100
AcDbEntity
  8
AM_0 外形線1
100
AcDbLine
 10
-39.5
 20
31.5
 30
0.0
 11
-39.5
 21
37.0
 31
0.0
  0
LINE
  5
4C64
330
4C33
100
AcDbEntity
  8
AM_0 外形線1
100
AcDbLine
 10
-39.5
 20
32.0
 30
0.0
 11
-39.0
 21
32.0
 31
0.0
  0
LINE
  5
4C65
330
4C33
100
AcDbEntity
  8
AM_0 外形線1
100
AcDbLine
 10
-33.69999999999999
 20
37.30000000000001
 30
0.0
 11
-33.69999999999999
 21
30.70000000000002
 31
0.0
  0
ARC
  5
4C66
330
4C33
100
AcDbEntity
  8
AM_0 外形線1
100
AcDbCircle
 10
-33.19999999999999
 20
37.30000000000001
 30
0.0
 40
0.5
100
AcDbArc
 50
90.0
 51
180.0
  0
LINE
  5
4C67
330
4C33
100
AcDbEntity
  8
AM_0 外形線1
100
AcDbLine
 10
-30.0
 20
30.20000000000002
 30
0.0
 11
-30.0
 21
28.0
 31
0.0
  0
LINE
  5
4C68
330
4C33
100
AcDbEntity
  8
AM_0 外形線1
100
AcDbLine
 10
-36.5
 20
40.0
 30
0.0
 11
-29.0
 21
40.0
 31
0.0
  0
LINE
  5
4C69
330
4C33
100
AcDbEntity
  8
AM_0 外形線1
100
AcDbLine
 10
56.0
 20
0.1999999999999886
 30
0.0
 11
56.0
 21
14.80000000000001
 31
0.0
  0
LINE
  5
4C6A
330
4C33
100
AcDbEntity
  8
AM_0 外形線1
100
AcDbLine
 10
55.80000000000001
 20
0.0
 30
0.0
 11
56.0
 21
0.1999999999999886
 31
0.0
  0
LINE
  5
4C6B
330
4C33
100
AcDbEntity
  8
AM_0 外形線1
100
AcDbLine
 10
36.5
 20
40.0
 30
0.0
 11
0.0
 21
40.0
 31
0.0
  0
LINE
  5
4C6C
330
4C33
100
AcDbEntity
  8
AM_0 外形線1
100
AcDbLine
 10
55.80000000000001
 20
15.0
 30
0.0
 11
0.0
 21
15.0
 31
0.0
  0
ARC
  5
4C6D
330
4C33
100
AcDbEntity
  8
AM_0 外形線1
100
AcDbCircle
 10
36.5
 20
37.0
 30
0.0
 40
3.0
100
AcDbArc
 50
0.0
 51
90.0
  0
LINE
  5
4C6E
330
4C33
100
AcDbEntity
  8
AM_0 外形線1
100
AcDbLine
 10
39.5
 20
18.0
 30
0.0
 11
39.5
 21
37.0
 31
0.0
  0
ARC
  5
4C6F
330
4C33
100
AcDbEntity
  8
AM_0 外形線1
100
AcDbCircle
 10
42.5
 20
18.0
 30
0.0
 40
3.0
100
AcDbArc
 50
180.0
 51
270.0
  0
LINE
  5
4C70
330
4C33
100
AcDbEntity
  8
AM_0 外形線1
100
AcDbLine
 10
56.0
 20
14.80000000000001
 30
0.0
 11
55.80000000000001
 21
15.0
 31
0.0
  0
LINE
  5
4C71
330
4C33
100
AcDbEntity
  8
AM_0 外形線1
100
AcDbLine
 10
-37.69999999999999
 20
0.0
 30
0.0
 11
-55.80000000000001
 21
0.0
 31
0.0
  0
LINE
  5
4C72
330
4C33
100
AcDbEntity
  8
AM_0 外形線1
100
AcDbLine
 10
-37.5
 20
3.0
 30
0.0
 11
-37.5
 21
0.1999999999999886
 31
0.0
  0
INSERT
  5
4C73
330
4C33
100
AcDbEntity
  8
AM_0 外形線1
100
AcDbBlockReference
  2
ジュウジマルコネジ
 10
-39.80000000000001
 20
26.5
 30
0.0
  0
LINE
  5
4C74
330
4C33
100
AcDbEntity
  8
AM_0 外形線1
100
AcDbLine
 10
-39.0
 20
21.0
 30
0.0
 11
-39.0
 21
24.5
 31
0.0
  0
LINE
  5
4C75
330
4C33
100
AcDbEntity
  8
AM_0 外形線1
100
AcDbLine
 10
-39.00000000000031
 20
28.5
 30
0.0
 11
-39.0
 21
32.0
 31
0.0
  0
LINE
  5
4CEC
330
4C33
100
AcDbEntity
  8
AM_0 外形線1
100
AcDbLine
 10
55.80000000000001
 20
0.0
 30
0.0
 11
0.0
 21
0.0
 31
0.0
  0
ENDBLK
  5
4C35
330
4C33
100
AcDbEntity
  8
0
100
AcDbBlockEnd
  0
BLOCK
  5
4D33
330
4D32
100
AcDbEntity
  8
0
100
AcDbBlockBegin
  2
センタＡ SMVH112
 70
     0
 10
0.0
 20
0.0
 30
0.0
  3
センタＡ SMVH112
  1

  0
LINE
  5
4D35
330
4D32
100
AcDbEntity
  8
AM_0 外形線1
100
AcDbLine
 10
-28.5
 20
0.0
 30
0.0
 11
0.0
 21
0.0
 31
0.0
  0
LINE
  5
4D36
330
4D32
100
AcDbEntity
  8
AM_0 外形線1
100
AcDbLine
 10
0.0
 20
-50.0
 30
0.0
 11
-26.0
 21
-50.0
 31
0.0
  0
ARC
  5
4D38
330
4D32
100
AcDbEntity
  8
AM_0 外形線1
100
AcDbCircle
 10
0.0
 20
-15.5
 30
0.0
 40
34.42
100
AcDbArc
 50
173.3264919999994
 51
190.0389290000014
  0
LINE
  5
4D3A
330
4D32
100
AcDbEntity
  8
AM_0 外形線1
100
AcDbLine
 10
-29.0
 20
-47.0
 30
0.0
 11
-29.0
 21
-22.5
 31
0.0
  0
ARC
  5
4D3B
330
4D32
100
AcDbEntity
  8
AM_0 外形線1
100
AcDbCircle
 10
-26.0
 20
-47.0
 30
0.0
 40
3.0
100
AcDbArc
 50
180.0
 51
270.0
  0
LINE
  5
4D3C
330
4D32
100
AcDbEntity
  8
AM_0 外形線1
100
AcDbLine
 10
-29.5
 20
-22.0
 30
0.0
 11
-33.30068599999999
 21
-22.0
 31
0.0
  0
LINE
  5
4D3D
330
4D32
100
AcDbEntity
  8
AM_0 外形線1
100
AcDbLine
 10
-33.30068599999999
 20
-22.0
 30
0.0
 11
-33.89301399999999
 21
-21.5
 31
0.0
  0
ARC
  5
4D3E
330
4D32
100
AcDbEntity
  8
AM_0 外形線1
100
AcDbCircle
 10
-29.5
 20
-22.5
 30
0.0
 40
0.5
100
AcDbArc
 50
0.0
 51
90.0
  0
LINE
  5
4D3F
330
4D32
100
AcDbEntity
  8
AM_0 外形線1
100
AcDbLine
 10
-29.0
 20
-10.5
 30
0.0
 11
-29.0
 21
-0.5
 31
0.0
  0
LINE
  5
4D40
330
4D32
100
AcDbEntity
  8
AM_7 中心線
100
AcDbLine
 10
-36.15753100000001
 20
-15.5
 30
0.0
 11
-29.51446800000002
 21
-15.5
 31
0.0
  0
LINE
  5
4D41
330
4D32
100
AcDbEntity
  8
AM_0 外形線1
100
AcDbLine
 10
-33.624571
 20
-11.0
 30
0.0
 11
-29.5
 21
-11.0
 31
0.0
  0
LINE
  5
4D42
330
4D32
100
AcDbEntity
  8
AM_0 外形線1
100
AcDbLine
 10
-34.18678700000004
 20
-11.5
 30
0.0
 11
-33.624571
 21
-11.0
 31
0.0
  0
ARC
  5
4D43
330
4D32
100
AcDbEntity
  8
AM_0 外形線1
100
AcDbCircle
 10
-29.5
 20
-10.5
 30
0.0
 40
0.5
100
AcDbArc
 50
270.0
 51
0.0
  0
LINE
  5
4D44
330
4D32
100
AcDbEntity
  8
AM_0 外形線1
100
AcDbLine
 10
-29.0
 20
-0.5
 30
0.0
 11
-28.5
 21
0.0
 31
0.0
  0
ARC
  5
4D45
330
4D32
100
AcDbEntity
  8
AM_0 外形線1
100
AcDbCircle
 10
26.0
 20
-47.0
 30
0.0
 40
3.0
100
AcDbArc
 50
270.0
 51
0.0
  0
LINE
  5
4D46
330
4D32
100
AcDbEntity
  8
AM_0 外形線1
100
AcDbLine
 10
0.0
 20
-50.0
 30
0.0
 11
26.0
 21
-50.0
 31
0.0
  0
LINE
  5
4D47
330
4D32
100
AcDbEntity
  8
AM_0 外形線1
100
AcDbLine
 10
29.0
 20
-36.0
 30
0.0
 11
29.0
 21
-47.0
 31
0.0
  0
LINE
  5
4D48
330
4D32
100
AcDbEntity
  8
AM_0 外形線1
100
AcDbLine
 10
-13.45683229480096
 20
-50.0
 30
0.0
 11
-13.45683229480096
 21
0.0
 31
0.0
  0
ARC
  5
6371
330
4D32
100
AcDbEntity
  8
AM_0 外形線1
100
AcDbCircle
 10
-0.0000000000000284
 20
-15.5
 30
0.0
 40
31.35
100
AcDbArc
 50
171.7472182632968
 51
191.966311194825
  0
ARC
  5
6372
330
4D32
100
AcDbEntity
  8
AM_7 中心線
100
AcDbCircle
 10
-0.0000000000000284
 20
-15.5
 30
0.0
 40
33.0
100
AcDbArc
 50
170.7920513574977
 51
193.2586073805286
  0
ENDBLK
  5
4D34
330
4D32
100
AcDbEntity
  8
0
100
AcDbBlockEnd
  0
BLOCK
  5
4D7F
330
4D7E
100
AcDbEntity
  8
0
100
AcDbBlockBegin
  2
センタB SMVH112
 70
     0
 10
0.0
 20
0.0
 30
0.0
  3
センタB SMVH112
  1

  0
LINE
  5
4D81
330
4D7E
100
AcDbEntity
  8
AM_0 外形線1
100
AcDbLine
 10
-28.5
 20
0.0
 30
0.0
 11
0.0
 21
0.0
 31
0.0
  0
LINE
  5
4D82
330
4D7E
100
AcDbEntity
  8
AM_0 外形線1
100
AcDbLine
 10
0.0
 20
50.0
 30
0.0
 11
-26.0
 21
50.0
 31
0.0
  0
LINE
  5
4D83
330
4D7E
100
AcDbEntity
  8
AM_0 外形線1
100
AcDbLine
 10
-29.0
 20
10.5
 30
0.0
 11
-29.0
 21
0.5
 31
0.0
  0
LINE
  5
4D84
330
4D7E
100
AcDbEntity
  8
AM_0 外形線1
100
AcDbLine
 10
-29.0
 20
0.5
 30
0.0
 11
-28.5
 21
0.0
 31
0.0
  0
LINE
  5
4D85
330
4D7E
100
AcDbEntity
  8
AM_0 外形線1
100
AcDbLine
 10
-29.0
 20
47.0
 30
0.0
 11
-29.0
 21
22.5
 31
0.0
  0
ARC
  5
4D87
330
4D7E
100
AcDbEntity
  8
AM_0 外形線1
100
AcDbCircle
 10
0.0
 20
15.5
 30
0.0
 40
34.42
100
AcDbArc
 50
169.9610709999985
 51
186.6735080000005
  0
LINE
  5
4D89
330
4D7E
100
AcDbEntity
  8
AM_7 中心線
100
AcDbLine
 10
-35.97934199999997
 20
15.5
 30
0.0
 11
-29.33432199999998
 21
15.5
 31
0.0
  0
LINE
  5
4D8A
330
4D7E
100
AcDbEntity
  8
AM_0 外形線1
100
AcDbLine
 10
-33.624571
 20
11.0
 30
0.0
 11
-29.5
 21
11.0
 31
0.0
  0
LINE
  5
4D8B
330
4D7E
100
AcDbEntity
  8
AM_0 外形線1
100
AcDbLine
 10
-34.18678700000004
 20
11.5
 30
0.0
 11
-33.624571
 21
11.0
 31
0.0
  0
ARC
  5
4D8C
330
4D7E
100
AcDbEntity
  8
AM_0 外形線1
100
AcDbCircle
 10
-29.5
 20
10.5
 30
0.0
 40
0.5
100
AcDbArc
 50
0.0
 51
90.0
  0
LINE
  5
4D8D
330
4D7E
100
AcDbEntity
  8
AM_0 外形線1
100
AcDbLine
 10
-29.5
 20
22.0
 30
0.0
 11
-33.30068599999999
 21
22.0
 31
0.0
  0
LINE
  5
4D8E
330
4D7E
100
AcDbEntity
  8
AM_0 外形線1
100
AcDbLine
 10
-33.30068599999999
 20
22.0
 30
0.0
 11
-33.89301399999999
 21
21.5
 31
0.0
  0
ARC
  5
4D8F
330
4D7E
100
AcDbEntity
  8
AM_0 外形線1
100
AcDbCircle
 10
-29.5
 20
22.5
 30
0.0
 40
0.5
100
AcDbArc
 50
270.0
 51
0.0
  0
ARC
  5
4D90
330
4D7E
100
AcDbEntity
  8
AM_0 外形線1
100
AcDbCircle
 10
-26.0
 20
47.0
 30
0.0
 40
3.0
100
AcDbArc
 50
90.0
 51
180.0
  0
ARC
  5
4D91
330
4D7E
100
AcDbEntity
  8
AM_0 外形線1
100
AcDbCircle
 10
26.0
 20
47.0
 30
0.0
 40
3.0
100
AcDbArc
 50
0.0
 51
90.0
  0
LINE
  5
4D92
330
4D7E
100
AcDbEntity
  8
AM_0 外形線1
100
AcDbLine
 10
0.0
 20
50.0
 30
0.0
 11
26.0
 21
50.0
 31
0.0
  0
LINE
  5
4D93
330
4D7E
100
AcDbEntity
  8
AM_0 外形線1
100
AcDbLine
 10
29.0
 20
36.0
 30
0.0
 11
29.0
 21
47.0
 31
0.0
  0
LINE
  5
4D94
330
4D7E
100
AcDbEntity
  8
AM_0 外形線1
100
AcDbLine
 10
-15.19868415357075
 20
0.0
 30
0.0
 11
-15.19868415357078
 21
50.0
 31
0.0
  0
ARC
  5
6438
330
4D7E
100
AcDbEntity
  8
AM_0 外形線1
100
AcDbCircle
 10
-0.0000000000000284
 20
15.5
 30
0.0
 40
31.35
100
AcDbArc
 50
168.033688805175
 51
188.2527817367032
  0
ARC
  5
6439
330
4D7E
100
AcDbEntity
  8
AM_7 中心線
100
AcDbCircle
 10
-0.0000000000000284
 20
15.5
 30
0.0
 40
33.0
100
AcDbArc
 50
167.7533102726881
 51
188.8855460506847
  0
ENDBLK
  5
4D80
330
4D7E
100
AcDbEntity
  8
0
100
AcDbBlockEnd
  0
BLOCK
  5
4EAB
330
4EAA
100
AcDbEntity
  8
0
100
AcDbBlockBegin
  2
リーマボルト SMVH112 M6
 70
     0
 10
0.0
 20
0.0
 30
0.0
  3
リーマボルト SMVH112 M6
  1

  0
ARC
  5
4EAD
330
4EAA
100
AcDbEntity
  8
AM_0 外形線1
100
AcDbCircle
 10
0.0
 20
5.839011000000027
 30
0.0
 40
9.839010999999999
100
AcDbArc
 50
252.9384689999998
 51
287.0615310000003
  0
LINE
  5
4EAE
330
4EAA
100
AcDbEntity
  8
AM_0 外形線1
100
AcDbLine
 10
5.0
 20
-4.0
 30
0.0
 11
-5.0
 21
-4.0
 31
0.0
  0
LINE
  5
4EAF
330
4EAA
100
AcDbEntity
  8
AM_0 外形線1
100
AcDbLine
 10
-2.886751000000001
 20
0.0
 30
0.0
 11
-2.886751000000001
 21
-3.566986999999981
 31
0.0
  0
LINE
  5
4EB0
330
4EAA
100
AcDbEntity
  8
AM_0 外形線1
100
AcDbLine
 10
-5.75
 20
-3.566986999999981
 30
0.0
 11
-5.75
 21
0.0
 31
0.0
  0
ARC
  5
4EB1
330
4EAA
100
AcDbEntity
  8
AM_0 外形線1
100
AcDbCircle
 10
-4.318375000000003
 20
-1.416878999999994
 30
0.0
 40
2.583120999999998
100
AcDbArc
 50
236.3428030000036
 51
303.6571969999964
  0
LINE
  5
4EB2
330
4EAA
100
AcDbEntity
  8
AM_0 外形線1
100
AcDbLine
 10
-5.0
 20
-4.0
 30
0.0
 11
-5.75
 21
-3.566986999999981
 31
0.0
  0
LINE
  5
4EB3
330
4EAA
100
AcDbEntity
  8
AM_0 外形線1
100
AcDbLine
 10
2.886752000000001
 20
0.0
 30
0.0
 11
2.886752000000001
 21
-3.566986999999981
 31
0.0
  0
LINE
  5
4EB4
330
4EAA
100
AcDbEntity
  8
AM_0 外形線1
100
AcDbLine
 10
5.75
 20
0.0
 30
0.0
 11
5.75
 21
-3.566986999999981
 31
0.0
  0
ARC
  5
4EB5
330
4EAA
100
AcDbEntity
  8
AM_0 外形線1
100
AcDbCircle
 10
4.318375999999998
 20
-1.416878999999994
 30
0.0
 40
2.583120999999998
100
AcDbArc
 50
236.3428030000036
 51
303.6571969999964
  0
LINE
  5
4EB6
330
4EAA
100
AcDbEntity
  8
AM_0 外形線1
100
AcDbLine
 10
5.75
 20
-3.566986999999981
 30
0.0
 11
5.0
 21
-4.0
 31
0.0
  0
LINE
  5
4EB7
330
4EAA
100
AcDbEntity
  8
AM_0 外形線1
100
AcDbLine
 10
-0.5
 20
31.5
 30
0.0
 11
1.0
 21
30.0
 31
0.0
  0
LINE
  5
4EB8
330
4EAA
100
AcDbEntity
  8
AM_0 外形線1
100
AcDbLine
 10
3.0
 20
38.0
 30
0.0
 11
-3.0
 21
38.0
 31
0.0
  0
LINE
  5
4EB9
330
4EAA
100
AcDbEntity
  8
AM_0 外形線1
100
AcDbLine
 10
2.0
 20
39.0
 30
0.0
 11
-2.0
 21
39.0
 31
0.0
  0
ARC
  5
4EBA
330
4EAA
100
AcDbEntity
  8
AM_0 外形線1
100
AcDbCircle
 10
0.0
 20
26.66099000000003
 30
0.0
 40
9.839010999999999
100
AcDbArc
 50
72.93846899999976
 51
107.0615310000002
  0
LINE
  5
4EBB
330
4EAA
100
AcDbEntity
  8
AM_0 外形線1
100
AcDbLine
 10
5.0
 20
36.5
 30
0.0
 11
-5.0
 21
36.5
 31
0.0
  0
LINE
  5
4EBC
330
4EAA
100
AcDbEntity
  8
AM_0 外形線1
100
AcDbLine
 10
-6.100000000000022
 20
31.5
 30
0.0
 11
6.099999999999965
 21
31.5
 31
0.0
  0
LINE
  5
4EBD
330
4EAA
100
AcDbEntity
  8
AM_4 細線
100
AcDbLine
 10
-2.5
 20
36.5
 30
0.0
 11
-2.5
 21
38.5
 31
0.0
  0
LINE
  5
4EBE
330
4EAA
100
AcDbEntity
  8
AM_0 外形線1
100
AcDbLine
 10
-3.0
 20
38.0
 30
0.0
 11
-3.0
 21
36.5
 31
0.0
  0
ARC
  5
4EBF
330
4EAA
100
AcDbEntity
  8
AM_0 外形線1
100
AcDbCircle
 10
-4.318375000000003
 20
33.91688000000002
 30
0.0
 40
2.583120999999998
100
AcDbArc
 50
56.34280300000366
 51
123.6571969999963
  0
LINE
  5
4EC0
330
4EAA
100
AcDbEntity
  8
AM_0 外形線1
100
AcDbLine
 10
-5.75
 20
36.06698800000001
 30
0.0
 11
-5.75
 21
31.5
 31
0.0
  0
LINE
  5
4EC1
330
4EAA
100
AcDbEntity
  8
AM_0 外形線1
100
AcDbLine
 10
-5.0
 20
36.5
 30
0.0
 11
-5.75
 21
36.06698800000001
 31
0.0
  0
LINE
  5
4EC2
330
4EAA
100
AcDbEntity
  8
AM_0 外形線1
100
AcDbLine
 10
-6.100000000000022
 20
30.0
 30
0.0
 11
-6.100000000000022
 21
31.5
 31
0.0
  0
LINE
  5
4EC3
330
4EAA
100
AcDbEntity
  8
AM_0 外形線1
100
AcDbLine
 10
-1.0
 20
31.5
 30
0.0
 11
0.5
 21
30.0
 31
0.0
  0
LINE
  5
4EC4
330
4EAA
100
AcDbEntity
  8
AM_0 外形線1
100
AcDbLine
 10
-2.886751000000001
 20
31.5
 30
0.0
 11
-2.886751000000001
 21
36.06698800000001
 31
0.0
  0
LINE
  5
4EC5
330
4EAA
100
AcDbEntity
  8
AM_0 外形線1
100
AcDbLine
 10
-2.0
 20
39.0
 30
0.0
 11
-3.0
 21
38.0
 31
0.0
  0
LINE
  5
4EC6
330
4EAA
100
AcDbEntity
  8
AM_4 細線
100
AcDbLine
 10
2.5
 20
36.5
 30
0.0
 11
2.5
 21
38.5
 31
0.0
  0
LINE
  5
4EC7
330
4EAA
100
AcDbEntity
  8
AM_0 外形線1
100
AcDbLine
 10
3.0
 20
36.5
 30
0.0
 11
3.0
 21
38.0
 31
0.0
  0
LINE
  5
4EC8
330
4EAA
100
AcDbEntity
  8
AM_0 外形線1
100
AcDbLine
 10
2.886752000000001
 20
31.5
 30
0.0
 11
2.886752000000001
 21
36.06698800000001
 31
0.0
  0
ARC
  5
4EC9
330
4EAA
100
AcDbEntity
  8
AM_0 外形線1
100
AcDbCircle
 10
4.318375999999998
 20
33.91688000000002
 30
0.0
 40
2.583120999999998
100
AcDbArc
 50
56.34280300000366
 51
123.6571969999963
  0
LINE
  5
4ECA
330
4EAA
100
AcDbEntity
  8
AM_0 外形線1
100
AcDbLine
 10
5.75
 20
36.06698800000001
 30
0.0
 11
5.0
 21
36.5
 31
0.0
  0
LINE
  5
4ECB
330
4EAA
100
AcDbEntity
  8
AM_0 外形線1
100
AcDbLine
 10
5.75
 20
31.5
 30
0.0
 11
5.75
 21
36.06698800000001
 31
0.0
  0
LINE
  5
4ECC
330
4EAA
100
AcDbEntity
  8
AM_0 外形線1
100
AcDbLine
 10
6.099999999999965
 20
31.5
 30
0.0
 11
6.099999999999965
 21
30.0
 31
0.0
  0
LINE
  5
4ECD
330
4EAA
100
AcDbEntity
  8
AM_0 外形線1
100
AcDbLine
 10
3.0
 20
38.0
 30
0.0
 11
2.0
 21
39.0
 31
0.0
  0
LINE
  5
4F17
330
4EAA
100
AcDbEntity
  8
AM_0 外形線1
100
AcDbLine
 10
-5.75
 20
0.0
 30
0.0
 11
5.75
 21
0.0
 31
0.0
  0
LINE
  5
4F18
330
4EAA
100
AcDbEntity
  8
AM_0 外形線1
100
AcDbLine
 10
-6.100000000000022
 20
30.0
 30
0.0
 11
6.099999999999965
 21
30.0
 31
0.0
  0
ENDBLK
  5
4EAC
330
4EAA
100
AcDbEntity
  8
0
100
AcDbBlockEnd
  0
BLOCK
  5
4F37
330
4F36
100
AcDbEntity
  8
0
100
AcDbBlockBegin
  2
スラストプレ－ト SMVH112
 70
     0
 10
0.0
 20
0.0
 30
0.0
  3
スラストプレ－ト SMVH112
  1

  0
LINE
  5
4F39
330
4F36
100
AcDbEntity
  8
AM_0 外形線1
100
AcDbLine
 10
0.0
 20
6.0
 30
0.0
 11
-34.0
 21
6.0
 31
0.0
  0
LINE
  5
4F3A
330
4F36
100
AcDbEntity
  8
AM_0 外形線1
100
AcDbLine
 10
-24.0
 20
1.0
 30
0.0
 11
-34.5
 21
1.0
 31
0.0
  0
LINE
  5
4F3B
330
4F36
100
AcDbEntity
  8
AM_0 外形線1
100
AcDbLine
 10
-34.5
 20
1.0
 30
0.0
 11
-34.5
 21
4.0
 31
0.0
  0
LINE
  5
4F3C
330
4F36
100
AcDbEntity
  8
AM_0 外形線1
100
AcDbLine
 10
-34.0
 20
6.0
 30
0.0
 11
-34.0
 21
7.0
 31
0.0
  0
LINE
  5
4F3D
330
4F36
100
AcDbEntity
  8
AM_0 外形線1
100
AcDbLine
 10
-13.99999999999994
 20
1.0
 30
0.0
 11
0.0000000000000568
 21
1.0
 31
0.0
  0
LINE
  5
4F3E
330
4F36
100
AcDbEntity
  8
AM_0 外形線1
100
AcDbLine
 10
-13.99999999999989
 20
0.0
 30
0.0
 11
-13.99999999999994
 21
1.0
 31
0.0
  0
ARC
  5
4F3F
330
4F36
100
AcDbEntity
  8
AM_0 外形線1
100
AcDbCircle
 10
-22.99999999999994
 20
1.000000000000026
 30
0.0
 40
1.0
100
AcDbArc
 50
180.0
 51
270.0
  0
LINE
  5
4F59
330
4F36
100
AcDbEntity
  8
AM_0 外形線1
100
AcDbLine
 10
-34.0
 20
7.0
 30
0.0
 11
-37.5
 21
6.999999999999971
 31
0.0
  0
LINE
  5
4F5A
330
4F36
100
AcDbEntity
  8
AM_0 外形線1
100
AcDbLine
 10
-37.5
 20
6.999999999999971
 30
0.0
 11
-37.49999999999996
 21
4.0
 31
0.0
  0
LINE
  5
4F5B
330
4F36
100
AcDbEntity
  8
AM_0 外形線1
100
AcDbLine
 10
-37.49999999999996
 20
4.0
 30
0.0
 11
-34.5
 21
4.0
 31
0.0
  0
LINE
  5
4F5C
330
4F36
100
AcDbEntity
  8
AM_0 外形線1
100
AcDbLine
 10
-22.77878707543039
 20
0.0000000000000284
 30
0.0
 11
-13.99999999999989
 21
0.0000000000000284
 31
0.0
  0
ENDBLK
  5
4F38
330
4F36
100
AcDbEntity
  8
0
100
AcDbBlockEnd
  0
BLOCK
  5
504A
330
5049
100
AcDbEntity
  8
0
100
AcDbBlockBegin
  2
*D10
 70
     1
 10
0.0
 20
0.0
 30
0.0
  3
*D10
  1

  0
LINE
  5
50F5
330
5049
100
AcDbEntity
  8
AM_5 寸法線
 62
     3
100
AcDbLine
 10
246.2716823123163
 20
235.7419719071427
 30
0.0
 11
246.2716823123163
 21
253.7353753414594
 31
0.0
  0
LINE
  5
50F6
330
5049
100
AcDbEntity
  8
AM_5 寸法線
 62
     3
100
AcDbLine
 10
188.2716823123163
 20
235.7419719071427
 30
0.0
 11
188.2716823123163
 21
253.7353753414594
 31
0.0
  0
LINE
  5
50F7
330
5049
100
AcDbEntity
  8
AM_5 寸法線
 62
     3
100
AcDbLine
 10
243.7716823123163
 20
253.1103753414594
 30
0.0
 11
190.7716823123163
 21
253.1103753414594
 31
0.0
  0
INSERT
  5
50F8
330
5049
100
AcDbEntity
  8
AM_5 寸法線
 62
     3
100
AcDbBlockReference
  2
_Open30
 10
246.2716823123163
 20
253.1103753414594
 30
0.0
 41
2.5
 42
2.5
 43
2.5
  0
INSERT
  5
50F9
330
5049
100
AcDbEntity
  8
AM_5 寸法線
 62
     3
100
AcDbBlockReference
  2
_Open30
 10
188.2716823123163
 20
253.1103753414594
 30
0.0
 41
2.5
 42
2.5
 43
2.5
 50
180.0
  0
MTEXT
  5
50FA
330
5049
100
AcDbEntity
  8
AM_5 寸法線
 62
     3
100
AcDbMText
 10
217.2716823123163
 20
256.3603753414594
 30
0.0
 40
3.5
 41
0.0
 46
0.0
 71
     5
 72
     1
  1
%%c58
  7
SEISA
 73
     1
 44
1.0
  0
POINT
  5
50FB
330
5049
100
AcDbEntity
  8
Defpoints
 62
     0
100
AcDbPoint
 10
246.2716823123163
 20
235.1169719071427
 30
0.0
  0
POINT
  5
50FC
330
5049
100
AcDbEntity
  8
Defpoints
 62
     0
100
AcDbPoint
 10
188.2716823123163
 20
235.1169719071427
 30
0.0
  0
POINT
  5
50FD
330
5049
100
AcDbEntity
  8
Defpoints
 62
     0
100
AcDbPoint
 10
188.2716823123163
 20
253.1103753414594
 30
0.0
  0
ENDBLK
  5
504B
330
5049
100
AcDbEntity
  8
0
100
AcDbBlockEnd
  0
BLOCK
  5
5062
330
5061
100
AcDbEntity
  8
0
100
AcDbBlockBegin
  2
*D11
 70
     1
 10
0.0
 20
0.0
 30
0.0
  3
*D11
  1

  0
LINE
  5
50FE
330
5061
100
AcDbEntity
  8
AM_5 寸法線
 62
     3
100
AcDbLine
 10
256.7716823123163
 20
221.7419719071427
 30
0.0
 11
256.7716823123163
 21
263.7353753414594
 31
0.0
  0
LINE
  5
50FF
330
5061
100
AcDbEntity
  8
AM_5 寸法線
 62
     3
100
AcDbLine
 10
177.7716823123163
 20
221.7419719071427
 30
0.0
 11
177.7716823123163
 21
263.7353753414594
 31
0.0
  0
LINE
  5
5100
330
5061
100
AcDbEntity
  8
AM_5 寸法線
 62
     3
100
AcDbLine
 10
254.2716823123163
 20
263.1103753414594
 30
0.0
 11
180.2716823123163
 21
263.1103753414594
 31
0.0
  0
INSERT
  5
5101
330
5061
100
AcDbEntity
  8
AM_5 寸法線
 62
     3
100
AcDbBlockReference
  2
_Open30
 10
256.7716823123163
 20
263.1103753414594
 30
0.0
 41
2.5
 42
2.5
 43
2.5
  0
INSERT
  5
5102
330
5061
100
AcDbEntity
  8
AM_5 寸法線
 62
     3
100
AcDbBlockReference
  2
_Open30
 10
177.7716823123163
 20
263.1103753414594
 30
0.0
 41
2.5
 42
2.5
 43
2.5
 50
180.0
  0
MTEXT
  5
5103
330
5061
100
AcDbEntity
  8
AM_5 寸法線
 62
     3
100
AcDbMText
 10
217.2716823123163
 20
266.3603753414594
 30
0.0
 40
3.5
 41
0.0
 46
0.0
 71
     5
 72
     1
  1
%%c79
  7
SEISA
 73
     1
 44
1.0
  0
POINT
  5
5104
330
5061
100
AcDbEntity
  8
Defpoints
 62
     0
100
AcDbPoint
 10
256.7716823123163
 20
221.1169719071427
 30
0.0
  0
POINT
  5
5105
330
5061
100
AcDbEntity
  8
Defpoints
 62
     0
100
AcDbPoint
 10
177.7716823123163
 20
221.1169719071427
 30
0.0
  0
POINT
  5
5106
330
5061
100
AcDbEntity
  8
Defpoints
 62
     0
100
AcDbPoint
 10
177.7716823123163
 20
263.1103753414594
 30
0.0
  0
ENDBLK
  5
5063
330
5061
100
AcDbEntity
  8
0
100
AcDbBlockEnd
  0
BLOCK
  5
507A
330
5079
100
AcDbEntity
  8
0
100
AcDbBlockBegin
  2
*D12
 70
     1
 10
0.0
 20
0.0
 30
0.0
  3
*D12
  1

  0
LINE
  5
5107
330
5079
100
AcDbEntity
  8
AM_5 寸法線
 62
     3
100
AcDbLine
 10
273.2716823123163
 20
199.5419719071427
 30
0.0
 11
273.2716823123163
 21
273.7353753414594
 31
0.0
  0
LINE
  5
5108
330
5079
100
AcDbEntity
  8
AM_5 寸法線
 62
     3
100
AcDbLine
 10
161.2716823123163
 20
199.5419719071427
 30
0.0
 11
161.2716823123163
 21
273.7353753414594
 31
0.0
  0
LINE
  5
5109
330
5079
100
AcDbEntity
  8
AM_5 寸法線
 62
     3
100
AcDbLine
 10
270.7716823123163
 20
273.1103753414594
 30
0.0
 11
163.7716823123163
 21
273.1103753414594
 31
0.0
  0
INSERT
  5
510A
330
5079
100
AcDbEntity
  8
AM_5 寸法線
 62
     3
100
AcDbBlockReference
  2
_Open30
 10
273.2716823123163
 20
273.1103753414594
 30
0.0
 41
2.5
 42
2.5
 43
2.5
  0
INSERT
  5
510B
330
5079
100
AcDbEntity
  8
AM_5 寸法線
 62
     3
100
AcDbBlockReference
  2
_Open30
 10
161.2716823123163
 20
273.1103753414594
 30
0.0
 41
2.5
 42
2.5
 43
2.5
 50
180.0
  0
MTEXT
  5
510C
330
5079
100
AcDbEntity
  8
AM_5 寸法線
 62
     3
100
AcDbMText
 10
217.2716823123163
 20
276.3603753414594
 30
0.0
 40
3.5
 41
0.0
 46
0.0
 71
     5
 72
     1
  1
%%c112
  7
SEISA
 73
     1
 44
1.0
  0
POINT
  5
510D
330
5079
100
AcDbEntity
  8
Defpoints
 62
     0
100
AcDbPoint
 10
273.2716823123163
 20
198.9169719071426
 30
0.0
  0
POINT
  5
510E
330
5079
100
AcDbEntity
  8
Defpoints
 62
     0
100
AcDbPoint
 10
161.2716823123163
 20
198.9169719071426
 30
0.0
  0
POINT
  5
510F
330
5079
100
AcDbEntity
  8
Defpoints
 62
     0
100
AcDbPoint
 10
161.2716823123163
 20
273.1103753414594
 30
0.0
  0
ENDBLK
  5
507B
330
5079
100
AcDbEntity
  8
0
100
AcDbBlockEnd
  0
BLOCK
  5
5112
330
5111
100
AcDbEntity
  8
0
100
AcDbBlockBegin
  2
*D13
 70
     1
 10
0.0
 20
0.0
 30
0.0
  3
*D13
  1

  0
LINE
  5
5131
330
5111
100
AcDbEntity
  8
AM_5 寸法線
 62
     3
100
AcDbLine
 10
188.2716823123163
 20
132.4919719071427
 30
0.0
 11
188.2716823123163
 21
107.4919719071427
 31
0.0
  0
LINE
  5
5132
330
5111
100
AcDbEntity
  8
AM_5 寸法線
 62
     3
100
AcDbLine
 10
246.2716823123163
 20
132.4919719071427
 30
0.0
 11
246.2716823123163
 21
107.4919719071427
 31
0.0
  0
LINE
  5
5133
330
5111
100
AcDbEntity
  8
AM_5 寸法線
 62
     3
100
AcDbLine
 10
190.7716823123163
 20
108.1169719071427
 30
0.0
 11
243.7716823123163
 21
108.1169719071427
 31
0.0
  0
INSERT
  5
5134
330
5111
100
AcDbEntity
  8
AM_5 寸法線
 62
     3
100
AcDbBlockReference
  2
_Open30
 10
188.2716823123163
 20
108.1169719071427
 30
0.0
 41
2.5
 42
2.5
 43
2.5
 50
180.0
  0
INSERT
  5
5135
330
5111
100
AcDbEntity
  8
AM_5 寸法線
 62
     3
100
AcDbBlockReference
  2
_Open30
 10
246.2716823123163
 20
108.1169719071427
 30
0.0
 41
2.5
 42
2.5
 43
2.5
  0
MTEXT
  5
5136
330
5111
100
AcDbEntity
  8
AM_5 寸法線
 62
     3
100
AcDbMText
 10
217.2716823123163
 20
111.3669719071427
 30
0.0
 40
3.5
 41
0.0
 46
0.0
 71
     5
 72
     1
  1
%%c58
  7
SEISA
 73
     1
 44
1.0
  0
POINT
  5
5137
330
5111
100
AcDbEntity
  8
Defpoints
 62
     0
100
AcDbPoint
 10
188.2716823123163
 20
133.1169719071427
 30
0.0
  0
POINT
  5
5138
330
5111
100
AcDbEntity
  8
Defpoints
 62
     0
100
AcDbPoint
 10
246.2716823123163
 20
133.1169719071427
 30
0.0
  0
POINT
  5
5139
330
5111
100
AcDbEntity
  8
Defpoints
 62
     0
100
AcDbPoint
 10
246.2716823123163
 20
108.1169719071427
 30
0.0
  0
ENDBLK
  5
5113
330
5111
100
AcDbEntity
  8
0
100
AcDbBlockEnd
  0
BLOCK
  5
513C
330
513B
100
AcDbEntity
  8
0
100
AcDbBlockBegin
  2
*D14
 70
     1
 10
0.0
 20
0.0
 30
0.0
  3
*D14
  1

  0
LINE
  5
6767
330
513B
100
AcDbEntity
  8
AM_5 寸法線
 62
     3
100
AcDbLine
 10
199.7300020053633
 20
130.1169719071427
 30
0.0
 11
212.0619443123163
 21
130.1169719071427
 31
0.0
  0
LINE
  5
6768
330
513B
100
AcDbEntity
  8
AM_5 寸法線
 62
     3
100
AcDbLine
 10
211.4369443123163
 20
177.6169719071426
 30
0.0
 11
211.4369443123163
 21
132.6169719071427
 31
0.0
  0
INSERT
  5
6769
330
513B
100
AcDbEntity
  8
AM_5 寸法線
 62
     3
100
AcDbBlockReference
  2
_Open30
 10
211.4369443123163
 20
180.1169719071426
 30
0.0
 41
2.5
 42
2.5
 43
2.5
 50
90.0
  0
INSERT
  5
676A
330
513B
100
AcDbEntity
  8
AM_5 寸法線
 62
     3
100
AcDbBlockReference
  2
_Open30
 10
211.4369443123163
 20
130.1169719071427
 30
0.0
 41
2.5
 42
2.5
 43
2.5
 50
270.0
  0
MTEXT
  5
676B
330
513B
100
AcDbEntity
  8
AM_5 寸法線
 62
     3
100
AcDbMText
 10
208.1869443123163
 20
155.1169719071427
 30
0.0
 40
3.5
 41
0.0
 46
0.0
 71
     5
 72
     1
  1
50
  7
SEISA
 11
0.0000000000000001
 21
1.0
 31
0.0
 73
     1
 44
1.0
  0
POINT
  5
676C
330
513B
100
AcDbEntity
  8
Defpoints
 62
     0
100
AcDbPoint
 10
211.4369443123163
 20
180.1169719071426
 30
0.0
  0
POINT
  5
676D
330
513B
100
AcDbEntity
  8
Defpoints
 62
     0
100
AcDbPoint
 10
199.1050020053633
 20
130.1169719071427
 30
0.0
  0
POINT
  5
676E
330
513B
100
AcDbEntity
  8
Defpoints
 62
     0
100
AcDbPoint
 10
211.4369443123163
 20
130.1169719071427
 30
0.0
  0
ENDBLK
  5
513D
330
513B
100
AcDbEntity
  8
0
100
AcDbBlockEnd
  0
BLOCK
  5
5154
330
5153
100
AcDbEntity
  8
0
100
AcDbBlockBegin
  2
*D15
 70
     1
 10
0.0
 20
0.0
 30
0.0
  3
*D15
  1

  0
LINE
  5
5162
330
5153
100
AcDbEntity
  8
AM_5 寸法線
 62
     3
100
AcDbLine
 10
207.7101746737376
 20
180.1169719071426
 30
0.0
 11
212.0619443123163
 21
180.1169719071426
 31
0.0
  0
LINE
  5
5163
330
5153
100
AcDbEntity
  8
AM_5 寸法線
 62
     3
100
AcDbLine
 10
206.7743352330949
 20
188.1169719071426
 30
0.0
 11
212.0619443123163
 21
188.1169719071426
 31
0.0
  0
LINE
  5
5164
330
5153
100
AcDbEntity
  8
AM_5 寸法線
 62
     3
100
AcDbLine
 10
211.4369443123163
 20
177.6169719071426
 30
0.0
 11
211.4369443123163
 21
175.1169719071427
 31
0.0
  0
LINE
  5
5165
330
5153
100
AcDbEntity
  8
AM_5 寸法線
 62
     3
100
AcDbLine
 10
211.4369443123163
 20
190.6169719071426
 30
0.0
 11
211.4369443123163
 21
193.1169719071426
 31
0.0
  0
LINE
  5
5166
330
5153
100
AcDbEntity
  8
AM_5 寸法線
 62
     3
100
AcDbLine
 10
211.4369443123163
 20
180.1169719071426
 30
0.0
 11
211.4369443123163
 21
188.1169719071426
 31
0.0
  0
INSERT
  5
5167
330
5153
100
AcDbEntity
  8
AM_5 寸法線
 62
     3
100
AcDbBlockReference
  2
_Open30
 10
211.4369443123163
 20
180.1169719071426
 30
0.0
 41
2.5
 42
2.5
 43
2.5
 50
90.0
  0
INSERT
  5
5168
330
5153
100
AcDbEntity
  8
AM_5 寸法線
 62
     3
100
AcDbBlockReference
  2
_Open30
 10
211.4369443123163
 20
188.1169719071426
 30
0.0
 41
2.5
 42
2.5
 43
2.5
 50
270.0
  0
MTEXT
  5
5169
330
5153
100
AcDbEntity
  8
AM_5 寸法線
 62
     3
100
AcDbMText
 10
208.1869443123163
 20
184.1169719071428
 30
0.0
 40
3.5
 41
0.0
 46
0.0
 71
     5
 72
     1
  1
8
  7
SEISA
 11
0.0000000000000001
 21
1.0
 31
0.0
 73
     1
 44
1.0
  0
POINT
  5
516A
330
5153
100
AcDbEntity
  8
Defpoints
 62
     0
100
AcDbPoint
 10
207.0851746737376
 20
180.1169719071426
 30
0.0
  0
POINT
  5
516B
330
5153
100
AcDbEntity
  8
Defpoints
 62
     0
100
AcDbPoint
 10
206.1493352330949
 20
188.1169719071426
 30
0.0
  0
POINT
  5
516C
330
5153
100
AcDbEntity
  8
Defpoints
 62
     0
100
AcDbPoint
 10
211.4369443123163
 20
188.1169719071426
 30
0.0
  0
ENDBLK
  5
5155
330
5153
100
AcDbEntity
  8
0
100
AcDbBlockEnd
  0
BLOCK
  5
5170
330
516F
100
AcDbEntity
  8
0
100
AcDbBlockBegin
  2
*D16
 70
     1
 10
0.0
 20
0.0
 30
0.0
  3
*D16
  1

  0
LINE
  5
517C
330
516F
100
AcDbEntity
  8
AM_5 寸法線
 62
     3
100
AcDbLine
 10
206.7699002450709
 20
188.1169719071426
 30
0.0
 11
212.0619443123163
 21
188.1169719071426
 31
0.0
  0
LINE
  5
517D
330
516F
100
AcDbEntity
  8
AM_5 寸法線
 62
     3
100
AcDbLine
 10
206.7699002450708
 20
238.1169719071427
 30
0.0
 11
212.0619443123163
 21
238.1169719071427
 31
0.0
  0
LINE
  5
517E
330
516F
100
AcDbEntity
  8
AM_5 寸法線
 62
     3
100
AcDbLine
 10
211.4369443123163
 20
190.6169719071426
 30
0.0
 11
211.4369443123163
 21
235.6169719071427
 31
0.0
  0
INSERT
  5
517F
330
516F
100
AcDbEntity
  8
AM_5 寸法線
 62
     3
100
AcDbBlockReference
  2
_Open30
 10
211.4369443123163
 20
188.1169719071426
 30
0.0
 41
2.5
 42
2.5
 43
2.5
 50
270.0
  0
INSERT
  5
5180
330
516F
100
AcDbEntity
  8
AM_5 寸法線
 62
     3
100
AcDbBlockReference
  2
_Open30
 10
211.4369443123163
 20
238.1169719071427
 30
0.0
 41
2.5
 42
2.5
 43
2.5
 50
90.0
  0
MTEXT
  5
5181
330
516F
100
AcDbEntity
  8
AM_5 寸法線
 62
     3
100
AcDbMText
 10
208.1869443123163
 20
213.1169719071428
 30
0.0
 40
3.5
 41
0.0
 46
0.0
 71
     5
 72
     1
  1
50
  7
SEISA
 11
0.0000000000000001
 21
1.0
 31
0.0
 73
     1
 44
1.0
  0
POINT
  5
5182
330
516F
100
AcDbEntity
  8
Defpoints
 62
     0
100
AcDbPoint
 10
206.1449002450709
 20
188.1169719071426
 30
0.0
  0
POINT
  5
5183
330
516F
100
AcDbEntity
  8
Defpoints
 62
     0
100
AcDbPoint
 10
206.1449002450708
 20
238.1169719071427
 30
0.0
  0
POINT
  5
5184
330
516F
100
AcDbEntity
  8
Defpoints
 62
     0
100
AcDbPoint
 10
211.4369443123163
 20
238.1169719071427
 30
0.0
  0
ENDBLK
  5
5171
330
516F
100
AcDbEntity
  8
0
100
AcDbBlockEnd
  0
BLOCK
  5
51A6
330
51A5
100
AcDbEntity
  8
0
100
AcDbBlockBegin
  2
*D17
 70
     1
 10
0.0
 20
0.0
 30
0.0
  3
*D17
  1

  0
LINE
  5
60C9
330
51A5
100
AcDbEntity
  8
AM_5 寸法線
 62
     3
100
AcDbLine
 10
273.6966823123164
 20
184.1169719071426
 30
0.0
 11
288.8966823123163
 21
184.1169719071426
 31
0.0
  0
LINE
  5
60CA
330
51A5
100
AcDbEntity
  8
AM_5 寸法線
 62
     3
100
AcDbLine
 10
273.6966823123164
 20
199.1169719071427
 30
0.0
 11
288.8966823123163
 21
199.1169719071427
 31
0.0
  0
LINE
  5
60CB
330
51A5
100
AcDbEntity
  8
AM_5 寸法線
 62
     3
100
AcDbLine
 10
288.2716823123163
 20
186.6169719071427
 30
0.0
 11
288.2716823123163
 21
196.6169719071426
 31
0.0
  0
INSERT
  5
60CC
330
51A5
100
AcDbEntity
  8
AM_5 寸法線
 62
     3
100
AcDbBlockReference
  2
GENDOT
 10
288.2716823123163
 20
184.1169719071426
 30
0.0
 41
2.5
 42
2.5
 43
2.5
 50
270.0
  0
INSERT
  5
60CD
330
51A5
100
AcDbEntity
  8
AM_5 寸法線
 62
     3
100
AcDbBlockReference
  2
_Open30
 10
288.2716823123163
 20
199.1169719071427
 30
0.0
 41
2.5
 42
2.5
 43
2.5
 50
90.0
  0
MTEXT
  5
60CE
330
51A5
100
AcDbEntity
  8
AM_5 寸法線
 62
     3
100
AcDbMText
 10
285.0216823123163
 20
191.6169719071426
 30
0.0
 40
3.5
 41
0.0
 46
0.0
 71
     5
 72
     1
  1
15
  7
SEISA
 11
0.0000000000000001
 21
1.0
 31
0.0
 73
     1
 44
1.0
  0
POINT
  5
60CF
330
51A5
100
AcDbEntity
  8
Defpoints
 62
     0
100
AcDbPoint
 10
273.0716823123163
 20
184.1169719071426
 30
0.0
  0
POINT
  5
60D0
330
51A5
100
AcDbEntity
  8
Defpoints
 62
     0
100
AcDbPoint
 10
273.0716823123163
 20
199.1169719071427
 30
0.0
  0
POINT
  5
60D1
330
51A5
100
AcDbEntity
  8
Defpoints
 62
     0
100
AcDbPoint
 10
288.2716823123163
 20
199.1169719071427
 30
0.0
  0
ENDBLK
  5
51A7
330
51A5
100
AcDbEntity
  8
0
100
AcDbBlockEnd
  0
BLOCK
  5
51BE
330
51BD
100
AcDbEntity
  8
0
100
AcDbBlockBegin
  2
*D18
 70
     1
 10
0.0
 20
0.0
 30
0.0
  3
*D18
  1

  0
LINE
  5
60DB
330
51BD
100
AcDbEntity
  8
AM_5 寸法線
 62
     3
100
AcDbLine
 10
273.6966823123164
 20
184.1169719071426
 30
0.0
 11
288.8966823123163
 21
184.1169719071426
 31
0.0
  0
LINE
  5
60DC
330
51BD
100
AcDbEntity
  8
AM_5 寸法線
 62
     3
100
AcDbLine
 10
273.6966823123164
 20
169.1169719071427
 30
0.0
 11
288.8966823123163
 21
169.1169719071427
 31
0.0
  0
LINE
  5
60DD
330
51BD
100
AcDbEntity
  8
AM_5 寸法線
 62
     3
100
AcDbLine
 10
288.2716823123163
 20
181.6169719071426
 30
0.0
 11
288.2716823123163
 21
171.6169719071427
 31
0.0
  0
INSERT
  5
60DE
330
51BD
100
AcDbEntity
  8
AM_5 寸法線
 62
     3
100
AcDbBlockReference
  2
GENDOT
 10
288.2716823123163
 20
184.1169719071426
 30
0.0
 41
2.5
 42
2.5
 43
2.5
 50
90.0
  0
INSERT
  5
60DF
330
51BD
100
AcDbEntity
  8
AM_5 寸法線
 62
     3
100
AcDbBlockReference
  2
_Open30
 10
288.2716823123163
 20
169.1169719071427
 30
0.0
 41
2.5
 42
2.5
 43
2.5
 50
270.0
  0
MTEXT
  5
60E0
330
51BD
100
AcDbEntity
  8
AM_5 寸法線
 62
     3
100
AcDbMText
 10
285.0216823123163
 20
176.6169719071426
 30
0.0
 40
3.5
 41
0.0
 46
0.0
 71
     5
 72
     1
  1
15
  7
SEISA
 11
0.0000000000000001
 21
1.0
 31
0.0
 73
     1
 44
1.0
  0
POINT
  5
60E1
330
51BD
100
AcDbEntity
  8
Defpoints
 62
     0
100
AcDbPoint
 10
273.0716823123163
 20
184.1169719071426
 30
0.0
  0
POINT
  5
60E2
330
51BD
100
AcDbEntity
  8
Defpoints
 62
     0
100
AcDbPoint
 10
273.0716823123163
 20
169.1169719071427
 30
0.0
  0
POINT
  5
60E3
330
51BD
100
AcDbEntity
  8
Defpoints
 62
     0
100
AcDbPoint
 10
288.2716823123163
 20
169.1169719071427
 30
0.0
  0
ENDBLK
  5
51BF
330
51BD
100
AcDbEntity
  8
0
100
AcDbBlockEnd
  0
BLOCK
  5
51EE
330
51ED
100
AcDbEntity
  8
0
100
AcDbBlockBegin
  2
*D19
 70
     1
 10
0.0
 20
0.0
 30
0.0
  3
*D19
  1

  0
LINE
  5
64B5
330
51ED
100
AcDbEntity
  8
AM_5 寸法線
 62
     3
100
AcDbLine
 10
254.3966823123163
 20
224.1169719071427
 30
0.0
 11
298.8966823123163
 21
224.1169719071427
 31
0.0
  0
LINE
  5
64B6
330
51ED
100
AcDbEntity
  8
AM_5 寸法線
 62
     3
100
AcDbLine
 10
254.3966823123163
 20
144.1169719071427
 30
0.0
 11
298.8966823123163
 21
144.1169719071427
 31
0.0
  0
LINE
  5
64B7
330
51ED
100
AcDbEntity
  8
AM_5 寸法線
 62
     3
100
AcDbLine
 10
298.2716823123163
 20
221.6169719071427
 30
0.0
 11
298.2716823123163
 21
146.6169719071427
 31
0.0
  0
INSERT
  5
64B8
330
51ED
100
AcDbEntity
  8
AM_5 寸法線
 62
     3
100
AcDbBlockReference
  2
_Open30
 10
298.2716823123163
 20
224.1169719071427
 30
0.0
 41
2.5
 42
2.5
 43
2.5
 50
90.0
  0
INSERT
  5
64B9
330
51ED
100
AcDbEntity
  8
AM_5 寸法線
 62
     3
100
AcDbBlockReference
  2
_Open30
 10
298.2716823123163
 20
144.1169719071427
 30
0.0
 41
2.5
 42
2.5
 43
2.5
 50
270.0
  0
MTEXT
  5
64BA
330
51ED
100
AcDbEntity
  8
AM_5 寸法線
 62
     3
100
AcDbMText
 10
295.0216823123163
 20
184.1169719071426
 30
0.0
 40
3.5
 41
0.0
 46
0.0
 71
     5
 72
     1
  1
80
  7
SEISA
 11
0.0000000000000001
 21
1.0
 31
0.0
 73
     1
 44
1.0
  0
POINT
  5
64BB
330
51ED
100
AcDbEntity
  8
Defpoints
 62
     0
100
AcDbPoint
 10
253.7716823123163
 20
224.1169719071427
 30
0.0
  0
POINT
  5
64BC
330
51ED
100
AcDbEntity
  8
Defpoints
 62
     0
100
AcDbPoint
 10
253.7716823123163
 20
144.1169719071427
 30
0.0
  0
POINT
  5
64BD
330
51ED
100
AcDbEntity
  8
Defpoints
 62
     0
100
AcDbPoint
 10
298.2716823123163
 20
144.1169719071427
 30
0.0
  0
ENDBLK
  5
51EF
330
51ED
100
AcDbEntity
  8
0
100
AcDbBlockEnd
  0
BLOCK
  5
58EB
330
58EA
100
AcDbEntity
  8
0
100
AcDbBlockBegin
  2
*D20
 70
     1
 10
0.0
 20
0.0
 30
0.0
  3
*D20
  1

  0
LINE
  5
6386
330
58EA
100
AcDbEntity
  8
AM_5 寸法線
 62
     3
100
AcDbLine
 10
188.8966823123163
 20
156.1169719071427
 30
0.0
 11
197.8238668471327
 21
156.1169719071427
 31
0.0
  0
LINE
  5
6387
330
58EA
100
AcDbEntity
  8
AM_5 寸法線
 62
     3
100
AcDbLine
 10
188.3966823123163
 20
158.1169719071427
 30
0.0
 11
197.8238668471327
 21
158.1169719071427
 31
0.0
  0
LINE
  5
6388
330
58EA
100
AcDbEntity
  8
AM_5 寸法線
 62
     3
100
AcDbLine
 10
197.1988668471326
 20
160.6169719071427
 30
0.0
 11
197.1988668471326
 21
163.1169719071427
 31
0.0
  0
LINE
  5
6389
330
58EA
100
AcDbEntity
  8
AM_5 寸法線
 62
     3
100
AcDbLine
 10
197.1988668471326
 20
153.6169719071427
 30
0.0
 11
197.1988668471326
 21
146.0169719071427
 31
0.0
  0
LINE
  5
638A
330
58EA
100
AcDbEntity
  8
AM_5 寸法線
 62
     3
100
AcDbLine
 10
197.1988668471326
 20
158.1169719071427
 30
0.0
 11
197.1988668471326
 21
156.1169719071427
 31
0.0
  0
INSERT
  5
638B
330
58EA
100
AcDbEntity
  8
AM_5 寸法線
 62
     3
100
AcDbBlockReference
  2
_Open30
 10
197.1988668471326
 20
158.1169719071427
 30
0.0
 41
2.5
 42
2.5
 43
2.5
 50
270.0
  0
INSERT
  5
638C
330
58EA
100
AcDbEntity
  8
AM_5 寸法線
 62
     3
100
AcDbBlockReference
  2
_Open30
 10
197.1988668471326
 20
156.1169719071427
 30
0.0
 41
2.5
 42
2.5
 43
2.5
 50
90.0
  0
MTEXT
  5
638D
330
58EA
100
AcDbEntity
  8
AM_5 寸法線
 62
     3
100
AcDbMText
 10
193.9488668471327
 20
148.5669719071427
 30
0.0
 40
3.5
 41
0.0
 46
0.0
 71
     5
 72
     1
  1
2
  7
SEISA
 11
0.0000000000000001
 21
1.0
 31
0.0
 73
     1
 44
1.0
  0
POINT
  5
638E
330
58EA
100
AcDbEntity
  8
Defpoints
 62
     0
100
AcDbPoint
 10
188.2716823123163
 20
156.1169719071427
 30
0.0
  0
POINT
  5
638F
102
{ACAD_REACTORS
330
63C9
102
}
330
58EA
100
AcDbEntity
  8
Defpoints
 62
     0
100
AcDbPoint
 10
187.7716823123163
 20
158.1169719071427
 30
0.0
  0
POINT
  5
6390
330
58EA
100
AcDbEntity
  8
Defpoints
 62
     0
100
AcDbPoint
 10
197.1988668471326
 20
158.1169719071427
 30
0.0
  0
ENDBLK
  5
58EC
330
58EA
100
AcDbEntity
  8
0
100
AcDbBlockEnd
  0
BLOCK
  5
59A2
330
59A1
100
AcDbEntity
  8
0
100
AcDbBlockBegin
  2
*D21
 70
     1
 10
0.0
 20
0.0
 30
0.0
  3
*D21
  1

  0
LINE
  5
59AE
330
59A1
100
AcDbEntity
  8
AM_5 寸法線
 62
     3
100
AcDbLine
 10
243.8966823123163
 20
238.1169719071427
 30
0.0
 11
308.8966823123163
 21
238.1169719071427
 31
0.0
  0
LINE
  5
59AF
330
59A1
100
AcDbEntity
  8
AM_5 寸法線
 62
     3
100
AcDbLine
 10
243.8966823123163
 20
130.1169719071427
 30
0.0
 11
308.8966823123163
 21
130.1169719071427
 31
0.0
  0
LINE
  5
59B0
330
59A1
100
AcDbEntity
  8
AM_5 寸法線
 62
     3
100
AcDbLine
 10
308.2716823123163
 20
235.6169719071427
 30
0.0
 11
308.2716823123163
 21
132.6169719071427
 31
0.0
  0
INSERT
  5
59B1
330
59A1
100
AcDbEntity
  8
AM_5 寸法線
 62
     3
100
AcDbBlockReference
  2
_Open30
 10
308.2716823123163
 20
238.1169719071427
 30
0.0
 41
2.5
 42
2.5
 43
2.5
 50
90.0
  0
INSERT
  5
59B2
330
59A1
100
AcDbEntity
  8
AM_5 寸法線
 62
     3
100
AcDbBlockReference
  2
_Open30
 10
308.2716823123163
 20
130.1169719071427
 30
0.0
 41
2.5
 42
2.5
 43
2.5
 50
270.0
  0
MTEXT
  5
59B3
330
59A1
100
AcDbEntity
  8
AM_5 寸法線
 62
     3
100
AcDbMText
 10
305.0216823123163
 20
184.1169719071426
 30
0.0
 40
3.5
 41
0.0
 46
0.0
 71
     5
 72
     1
  1
108
  7
SEISA
 11
0.0000000000000001
 21
1.0
 31
0.0
 73
     1
 44
1.0
  0
POINT
  5
59B4
330
59A1
100
AcDbEntity
  8
Defpoints
 62
     0
100
AcDbPoint
 10
243.2716823123163
 20
238.1169719071427
 30
0.0
  0
POINT
  5
59B5
330
59A1
100
AcDbEntity
  8
Defpoints
 62
     0
100
AcDbPoint
 10
243.2716823123163
 20
130.1169719071427
 30
0.0
  0
POINT
  5
59B6
330
59A1
100
AcDbEntity
  8
Defpoints
 62
     0
100
AcDbPoint
 10
308.2716823123163
 20
130.1169719071427
 30
0.0
  0
ENDBLK
  5
59A3
330
59A1
100
AcDbEntity
  8
0
100
AcDbBlockEnd
  0
BLOCK
  5
60C7
330
60C4
100
AcDbEntity
  8
0
100
AcDbBlockBegin
  2
GENDOT
 70
     0
 10
0.0
 20
0.0
 30
0.0
  3
GENDOT
  1

  0
LINE
  5
60C5
330
60C4
100
AcDbEntity
  8
0
100
AcDbLine
 10
0.0
 20
0.0
 30
0.0
 11
-1.0
 21
0.0
 31
0.0
  0
LWPOLYLINE
  5
60C6
330
60C4
100
AcDbEntity
  8
0
100
AcDbPolyline
 90
        2
 70
     1
 43
0.25
 10
-0.125
 20
0.0
 42
1.0
 10
0.125
 20
0.0
 42
1.0
  0
ENDBLK
  5
60C8
330
60C4
100
AcDbEntity
  8
0
100
AcDbBlockEnd
  0
BLOCK
  5
6322
330
6321
100
AcDbEntity
  8
0
100
AcDbBlockBegin
  2
*D23
 70
     1
 10
0.0
 20
0.0
 30
0.0
  3
*D23
  1

  0
LINE
  5
6341
330
6321
100
AcDbEntity
  8
AM_5 寸法線
 62
     3
100
AcDbLine
 10
190.6466823123163
 20
130.1169719071427
 30
0.0
 11
165.1466823123163
 21
130.1169719071427
 31
0.0
  0
LINE
  5
6342
330
6321
100
AcDbEntity
  8
AM_5 寸法線
 62
     3
100
AcDbLine
 10
180.1466823123163
 20
116.1169719071427
 30
0.0
 11
165.1466823123163
 21
116.1169719071427
 31
0.0
  0
LINE
  5
6343
330
6321
100
AcDbEntity
  8
AM_5 寸法線
 62
     3
100
AcDbLine
 10
165.7716823123163
 20
127.6169719071427
 30
0.0
 11
165.7716823123163
 21
118.6169719071427
 31
0.0
  0
INSERT
  5
6344
330
6321
100
AcDbEntity
  8
AM_5 寸法線
 62
     3
100
AcDbBlockReference
  2
_Open30
 10
165.7716823123163
 20
130.1169719071427
 30
0.0
 41
2.5
 42
2.5
 43
2.5
 50
90.0
  0
INSERT
  5
6345
330
6321
100
AcDbEntity
  8
AM_5 寸法線
 62
     3
100
AcDbBlockReference
  2
_Open30
 10
165.7716823123163
 20
116.1169719071427
 30
0.0
 41
2.5
 42
2.5
 43
2.5
 50
270.0
  0
MTEXT
  5
6346
330
6321
100
AcDbEntity
  8
AM_5 寸法線
 62
     3
100
AcDbMText
 10
162.5216823123163
 20
123.1169719071427
 30
0.0
 40
3.5
 41
0.0
 46
0.0
 71
     5
 72
     1
  1
14
  7
SEISA
 11
0.0000000000000001
 21
1.0
 31
0.0
 73
     1
 44
1.0
  0
POINT
  5
6347
330
6321
100
AcDbEntity
  8
Defpoints
 62
     0
100
AcDbPoint
 10
191.2716823123163
 20
130.1169719071427
 30
0.0
  0
POINT
  5
6348
330
6321
100
AcDbEntity
  8
Defpoints
 62
     0
100
AcDbPoint
 10
180.7716823123163
 20
116.1169719071427
 30
0.0
  0
POINT
  5
6349
330
6321
100
AcDbEntity
  8
Defpoints
 62
     0
100
AcDbPoint
 10
165.7716823123163
 20
116.1169719071427
 30
0.0
  0
ENDBLK
  5
6323
330
6321
100
AcDbEntity
  8
0
100
AcDbBlockEnd
  0
BLOCK
  5
6393
330
6392
100
AcDbEntity
  8
0
100
AcDbBlockBegin
  2
*D24
 70
     1
 10
0.0
 20
0.0
 30
0.0
  3
*D24
  1

  0
LINE
  5
63E5
330
6392
100
AcDbEntity
  8
AM_5 寸法線
 62
     3
100
AcDbLine
 10
189.3966823123163
 20
180.1169719071426
 30
0.0
 11
197.8238668471327
 21
180.1169719071426
 31
0.0
  0
LINE
  5
63E6
330
6392
100
AcDbEntity
  8
AM_5 寸法線
 62
     3
100
AcDbLine
 10
188.3966823123163
 20
169.1169719071427
 30
0.0
 11
197.8238668471327
 21
169.1169719071427
 31
0.0
  0
LINE
  5
63E7
330
6392
100
AcDbEntity
  8
AM_5 寸法線
 62
     3
100
AcDbLine
 10
197.1988668471326
 20
177.6169719071426
 30
0.0
 11
197.1988668471326
 21
171.6169719071427
 31
0.0
  0
INSERT
  5
63E8
330
6392
100
AcDbEntity
  8
AM_5 寸法線
 62
     3
100
AcDbBlockReference
  2
_Open30
 10
197.1988668471326
 20
180.1169719071426
 30
0.0
 41
2.5
 42
2.5
 43
2.5
 50
90.0
  0
INSERT
  5
63E9
330
6392
100
AcDbEntity
  8
AM_5 寸法線
 62
     3
100
AcDbBlockReference
  2
_Open30
 10
197.1988668471326
 20
169.1169719071427
 30
0.0
 41
2.5
 42
2.5
 43
2.5
 50
270.0
  0
MTEXT
  5
63EA
330
6392
100
AcDbEntity
  8
AM_5 寸法線
 62
     3
100
AcDbMText
 10
193.9488668471327
 20
174.6169719071426
 30
0.0
 40
3.5
 41
0.0
 46
0.0
 71
     5
 72
     1
  1
11
  7
SEISA
 11
0.0000000000000001
 21
1.0
 31
0.0
 73
     1
 44
1.0
  0
POINT
  5
63EB
330
6392
100
AcDbEntity
  8
Defpoints
 62
     0
100
AcDbPoint
 10
188.7716823123163
 20
180.1169719071426
 30
0.0
  0
POINT
  5
63EC
330
6392
100
AcDbEntity
  8
Defpoints
 62
     0
100
AcDbPoint
 10
187.7716823123163
 20
169.1169719071427
 30
0.0
  0
POINT
  5
63ED
330
6392
100
AcDbEntity
  8
Defpoints
 62
     0
100
AcDbPoint
 10
197.1988668471326
 20
169.1169719071427
 30
0.0
  0
ENDBLK
  5
6394
330
6392
100
AcDbEntity
  8
0
100
AcDbBlockEnd
  0
BLOCK
  5
63BD
330
63BC
100
AcDbEntity
  8
0
100
AcDbBlockBegin
  2
*D25
 70
     1
 10
0.0
 20
0.0
 30
0.0
  3
*D25
  1

  0
LINE
  5
63DC
330
63BC
100
AcDbEntity
  8
AM_5 寸法線
 62
     3
100
AcDbLine
 10
188.3966823123163
 20
169.1169719071427
 30
0.0
 11
197.8238668471327
 21
169.1169719071427
 31
0.0
  0
LINE
  5
63DD
330
63BC
100
AcDbEntity
  8
AM_5 寸法線
 62
     3
100
AcDbLine
 10
188.3966823123163
 20
158.1169719071427
 30
0.0
 11
197.8238668471327
 21
158.1169719071427
 31
0.0
  0
LINE
  5
63DE
330
63BC
100
AcDbEntity
  8
AM_5 寸法線
 62
     3
100
AcDbLine
 10
197.1988668471326
 20
166.6169719071427
 30
0.0
 11
197.1988668471326
 21
160.6169719071427
 31
0.0
  0
INSERT
  5
63DF
330
63BC
100
AcDbEntity
  8
AM_5 寸法線
 62
     3
100
AcDbBlockReference
  2
_Open30
 10
197.1988668471326
 20
169.1169719071427
 30
0.0
 41
2.5
 42
2.5
 43
2.5
 50
90.0
  0
INSERT
  5
63E0
330
63BC
100
AcDbEntity
  8
AM_5 寸法線
 62
     3
100
AcDbBlockReference
  2
_Open30
 10
197.1988668471326
 20
158.1169719071427
 30
0.0
 41
2.5
 42
2.5
 43
2.5
 50
270.0
  0
MTEXT
  5
63E1
330
63BC
100
AcDbEntity
  8
AM_5 寸法線
 62
     3
100
AcDbMText
 10
193.9488668471327
 20
163.6169719071427
 30
0.0
 40
3.5
 41
0.0
 46
0.0
 71
     5
 72
     1
  1
11
  7
SEISA
 11
0.0000000000000001
 21
1.0
 31
0.0
 73
     1
 44
1.0
  0
POINT
  5
63E2
330
63BC
100
AcDbEntity
  8
Defpoints
 62
     0
100
AcDbPoint
 10
187.7716823123163
 20
169.1169719071427
 30
0.0
  0
POINT
  5
63E3
330
63BC
100
AcDbEntity
  8
Defpoints
 62
     0
100
AcDbPoint
 10
187.7716823123163
 20
158.1169719071427
 30
0.0
  0
POINT
  5
63E4
330
63BC
100
AcDbEntity
  8
Defpoints
 62
     0
100
AcDbPoint
 10
197.1988668471326
 20
158.1169719071427
 30
0.0
  0
ENDBLK
  5
63BE
330
63BC
100
AcDbEntity
  8
0
100
AcDbBlockEnd
  0
BLOCK
  5
65B4
330
65B3
100
AcDbEntity
  8
0
100
AcDbBlockBegin
  2
ケース
 70
     0
 10
0.0
 20
0.0
 30
0.0
  3
ケース
  1

  0
LINE
  5
65B6
330
65B3
100
AcDbEntity
  8
AM_11 想像線
 48
0.1
100
AcDbLine
 10
6.515178463788004
 20
0.0
 30
0.0
 11
6.515178463788004
 21
-9.096041407031066
 31
0.0
  0
ARC
  5
65B7
330
65B3
100
AcDbEntity
  8
AM_11 想像線
 48
0.1
100
AcDbCircle
 10
5.515178463788004
 20
-8.301397407031057
 30
0.0
 40
1.0
100
AcDbArc
 50
90.0
 51
180.0
  0
LINE
  5
65B8
330
65B3
100
AcDbEntity
  8
AM_11 想像線
 48
0.1
100
AcDbLine
 10
0.0151784637880042
 20
-0.301397407031061
 30
0.0
 11
0.0151784637880042
 21
-19.30139740703106
 31
0.0
  0
LINE
  5
65B9
330
65B3
100
AcDbEntity
  8
AM_11 想像線
 48
0.1
100
AcDbLine
 10
10.515178463788
 20
-10.30139740703106
 30
0.0
 11
5.515178463788004
 21
-10.30139740703106
 31
0.0
  0
LINE
  5
65BA
330
65B3
100
AcDbEntity
  8
AM_11 想像線
 48
0.1
100
AcDbLine
 10
6.315178463788013
 20
-12.50139740703105
 30
0.0
 11
10.515178463788
 21
-12.50139740703105
 31
0.0
  0
LINE
  5
65BB
330
65B3
100
AcDbEntity
  8
AM_11 想像線
 48
0.1
100
AcDbLine
 10
10.515178463788
 20
-20.10139740703104
 30
0.0
 11
6.315178463788013
 21
-20.10139740703104
 31
0.0
  0
LINE
  5
65BC
330
65B3
100
AcDbEntity
  8
AM_11 想像線
 48
0.1
100
AcDbLine
 10
3.015178463788004
 20
-22.30139740703106
 30
0.0
 11
10.515178463788
 21
-22.30139740703106
 31
0.0
  0
LINE
  5
65BD
330
65B3
100
AcDbEntity
  8
AM_11 想像線
 48
0.1
100
AcDbLine
 10
5.815178463788013
 20
-19.60139740703104
 30
0.0
 11
5.815178463788013
 21
-13.00139740703105
 31
0.0
  0
ARC
  5
65BE
102
{ACAD_REACTORS
330
632E
102
}
330
65B3
100
AcDbEntity
  8
AM_11 想像線
 48
0.1
100
AcDbCircle
 10
3.015178463788004
 20
-19.30139740703106
 30
0.0
 40
3.0
100
AcDbArc
 50
180.0
 51
270.0
  0
ARC
  5
65BF
330
65B3
100
AcDbEntity
  8
AM_11 想像線
 48
0.1
100
AcDbCircle
 10
6.315178463788013
 20
-19.60139740703104
 30
0.0
 40
0.5
100
AcDbArc
 50
180.0
 51
270.0
  0
LINE
  5
65C0
330
65B3
100
AcDbEntity
  8
AM_11 想像線
 48
0.1
100
AcDbLine
 10
4.515178463788004
 20
-9.30139740703106
 30
0.0
 11
4.515178463788004
 21
-8.301397407031057
 31
0.0
  0
ARC
  5
65C1
330
65B3
100
AcDbEntity
  8
AM_11 想像線
 48
0.1
100
AcDbCircle
 10
5.515178463788004
 20
-9.30139740703106
 30
0.0
 40
1.0
100
AcDbArc
 50
180.0
 51
270.0
  0
ARC
  5
65C2
330
65B3
100
AcDbEntity
  8
AM_11 想像線
 48
0.1
100
AcDbCircle
 10
6.315178463788013
 20
-13.00139740703105
 30
0.0
 40
0.5
100
AcDbArc
 50
90.0
 51
180.0
  0
LINE
  5
65C3
330
65B3
100
AcDbEntity
  8
AM_11 想像線
 48
0.1
100
AcDbLine
 10
9.515178463788004
 20
-22.30139740703106
 30
0.0
 11
9.515178463788004
 21
-20.10139740703104
 31
0.0
  0
LINE
  5
65C4
330
65B3
100
AcDbEntity
  8
AM_11 想像線
 48
0.1
100
AcDbLine
 10
9.515178463788004
 20
-12.50139740703105
 30
0.0
 11
9.515178463788004
 21
-10.30139740703106
 31
0.0
  0
ARC
  5
65C5
330
65B3
100
AcDbEntity
  8
AM_11 想像線
 48
0.1
100
AcDbCircle
 10
-2.984821536211993
 20
-0.301397407031061
 30
0.0
 40
3.0
100
AcDbArc
 50
0.0
 51
5.765994069451285
  0
LINE
  5
65C6
330
65B3
100
AcDbEntity
  8
AM_11 想像線
 48
0.1
100
AcDbLine
 10
7.71517846378799
 20
0.0
 30
0.0
 11
7.71517846378799
 21
-6.801397407031058
 31
0.0
  0
LINE
  5
65C7
330
65B3
100
AcDbEntity
  8
AM_11 想像線
 48
0.1
100
AcDbLine
 10
5.015178463788004
 20
0.0
 30
0.0
 11
5.015178463788004
 21
-7.435371407031053
 31
0.0
  0
LINE
  5
65C8
330
65B3
100
AcDbEntity
  8
AM_11 想像線
 48
0.1
100
AcDbLine
 10
5.537445463788001
 20
-7.301397407031058
 30
0.0
 11
7.21517846378799
 21
-7.301397407031058
 31
0.0
  0
LINE
  5
65C9
330
65B3
100
AcDbEntity
  8
AM_11 想像線
 48
0.1
100
AcDbLine
 10
7.21517846378799
 20
-7.301397407031058
 30
0.0
 11
7.71517846378799
 21
-6.801397407031058
 31
0.0
  0
ENDBLK
  5
65B5
330
65B3
100
AcDbEntity
  8
0
100
AcDbBlockEnd
  0
ENDSEC
  0
SECTION
  2
ENTITIES
  0
LINE
  5
44C3
330
1F
100
AcDbEntity
  8
AM_0 外形線1
100
AcDbLine
 10
195.2716823123163
 20
180.1169719071426
 30
0.0
 11
217.2716823123163
 21
180.1169719071426
 31
0.0
  0
LINE
  5
4501
330
1F
100
AcDbEntity
  8
AM_0 外形線1
100
AcDbLine
 10
183.2939493123163
 20
159.1169719071427
 30
0.0
 11
183.2716823123163
 21
159.1169719071427
 31
0.0
  0
LINE
  5
454F
330
1F
100
AcDbEntity
  8
AM_0 外形線1
100
AcDbLine
 10
183.2939493123163
 20
209.1169719071427
 30
0.0
 11
183.2716823123163
 21
209.1169719071427
 31
0.0
  0
LINE
  5
455E
330
1F
100
AcDbEntity
  8
AM_7 中心線
100
AcDbLine
 10
217.2716823123163
 20
128.1169719071427
 30
0.0
 11
217.2716823123163
 21
240.1169719071427
 31
0.0
  0
INSERT
  5
4D4C
102
{ACAD_REACTORS
330
5127
330
5151
330
5904
330
59B7
330
632E
330
639F
102
}
330
1F
100
AcDbEntity
  8
AM_0 外形線1
100
AcDbBlockReference
  2
センタＡ SMVH112
 10
217.2716823123163
 20
180.1169719071426
 30
0.0
  0
INSERT
  5
4D99
102
{ACAD_REACTORS
330
505F
330
516D
330
5185
330
59B7
102
}
330
1F
100
AcDbEntity
  8
AM_0 外形線1
100
AcDbBlockReference
  2
センタB SMVH112
 10
217.2716823123163
 20
188.1169719071426
 30
0.0
  0
INSERT
  5
4E3A
102
{ACAD_REACTORS
330
5077
330
508F
330
51BB
102
}
330
1F
100
AcDbEntity
  8
AM_0 外形線1
100
AcDbBlockReference
  2
ケースＢ SMVH112
 10
217.2716823123163
 20
184.1169719071426
 30
0.0
  0
INSERT
  5
4ECE
330
1F
100
AcDbEntity
  8
AM_0 外形線1
100
AcDbBlockReference
  2
リーマボルト SMVH112 M6
 10
266.7716823123163
 20
169.1169719071427
 30
0.0
  0
INSERT
  5
4F41
102
{ACAD_REACTORS
330
5151
102
}
330
1F
100
AcDbEntity
  8
AM_0 外形線1
100
AcDbBlockReference
  2
スラストプレ－ト SMVH112
 10
217.2716823123163
 20
180.1169719071426
 30
0.0
  0
INSERT
  5
4F4A
102
{ACAD_REACTORS
330
51BB
330
51D3
330
5904
330
5203
102
}
330
1F
100
AcDbEntity
  8
AM_0 外形線1
100
AcDbBlockReference
  2
ケースＡ SMVH112
 10
217.2716823123163
 20
184.1169719071426
 30
0.0
  0
DIMENSION
  5
5048
102
{ACAD_XDICTIONARY
360
5055
102
}
102
{ACAD_REACTORS
330
505F
102
}
330
1F
100
AcDbEntity
  8
AM_5 寸法線
100
AcDbDimension
  2
*D10
 10
188.2716823123163
 20
253.1103753414594
 30
0.0
 11
217.2716823123163
 21
256.3603753414594
 31
0.0
 70
    32
  1
%%c<>
 71
     5
 42
58.0
 73
     0
 74
     0
 75
     0
  3
SEISA$0
100
AcDbAlignedDimension
 13
246.2716823123163
 23
235.1169719071427
 33
0.0
 14
188.2716823123163
 24
235.1169719071427
 34
0.0
100
AcDbRotatedDimension
1001
ACAD_DSTYLE_DIMINSPECT
1070
   396
1000
100%
1070
   395
1000

1070
   394
1070
    33
1070
   393
1070
     0
1001
ACAD
1000
DSTYLE
1002
{
1070
   279
1070
     0
1002
}
  0
DIMENSION
  5
5060
102
{ACAD_XDICTIONARY
360
506D
102
}
102
{ACAD_REACTORS
330
5077
102
}
330
1F
100
AcDbEntity
  8
AM_5 寸法線
100
AcDbDimension
  2
*D11
 10
177.7716823123163
 20
263.1103753414594
 30
0.0
 11
217.2716823123163
 21
263.1103753414594
 31
0.0
 70
   160
  1
%%c<>
 71
     5
 42
79.0
 73
     0
 74
     0
 75
     0
  3
SEISA$0
100
AcDbAlignedDimension
 13
256.7716823123163
 23
221.1169719071427
 33
0.0
 14
177.7716823123163
 24
221.1169719071427
 34
0.0
100
AcDbRotatedDimension
1001
ACAD_DSTYLE_DIMINSPECT
1070
   396
1000
100%
1070
   395
1000

1070
   394
1070
    33
1070
   393
1070
     0
1001
ACAD
1000
DSTYLE
1002
{
1070
   279
1070
     0
1002
}
  0
DIMENSION
  5
5078
102
{ACAD_XDICTIONARY
360
5085
102
}
102
{ACAD_REACTORS
330
508F
102
}
330
1F
100
AcDbEntity
  8
AM_5 寸法線
100
AcDbDimension
  2
*D12
 10
161.2716823123163
 20
273.1103753414594
 30
0.0
 11
217.2716823123163
 21
273.1103753414594
 31
0.0
 70
   160
  1
%%c<>
 71
     5
 42
112.0
 73
     0
 74
     0
 75
     0
  3
SEISA$0
100
AcDbAlignedDimension
 13
273.2716823123163
 23
198.9169719071426
 33
0.0
 14
161.2716823123163
 24
198.9169719071426
 34
0.0
100
AcDbRotatedDimension
1001
ACAD_DSTYLE_DIMINSPECT
1070
   396
1000
100%
1070
   395
1000

1070
   394
1070
    33
1070
   393
1070
     0
1001
ACAD
1000
DSTYLE
1002
{
1070
   279
1070
     0
1002
}
  0
DIMENSION
  5
5110
102
{ACAD_XDICTIONARY
360
511D
102
}
102
{ACAD_REACTORS
330
5127
102
}
330
1F
100
AcDbEntity
  8
AM_5 寸法線
100
AcDbDimension
  2
*D13
 10
246.2716823123163
 20
108.1169719071427
 30
0.0
 11
217.2716823123163
 21
111.3669719071427
 31
0.0
 70
    32
  1
%%c<>
 71
     5
 42
58.0
 73
     0
 74
     0
 75
     0
  3
SEISA$0
100
AcDbAlignedDimension
 13
188.2716823123163
 23
133.1169719071427
 33
0.0
 14
246.2716823123163
 24
133.1169719071427
 34
0.0
100
AcDbRotatedDimension
1001
ACAD_DSTYLE_DIMINSPECT
1070
   396
1000
100%
1070
   395
1000

1070
   394
1070
    33
1070
   393
1070
     0
  0
DIMENSION
  5
513A
102
{ACAD_XDICTIONARY
360
5147
102
}
102
{ACAD_REACTORS
330
5151
102
}
330
1F
100
AcDbEntity
  8
AM_5 寸法線
100
AcDbDimension
  2
*D14
 10
211.4369443123163
 20
130.1169719071427
 30
0.0
 11
208.1869443123163
 21
155.1169719071427
 31
0.0
 70
    32
 71
     5
 42
49.99999999999992
 73
     0
 74
     0
 75
     0
  3
SEISA$0
100
AcDbAlignedDimension
 13
211.4369443123163
 23
180.1169719071426
 33
0.0
 14
199.1050020053633
 24
130.1169719071427
 34
0.0
 50
90.0
100
AcDbRotatedDimension
  0
DIMENSION
  5
5152
102
{ACAD_XDICTIONARY
360
5161
102
}
102
{ACAD_REACTORS
330
516D
102
}
330
1F
100
AcDbEntity
  8
AM_5 寸法線
100
AcDbDimension
  2
*D15
 10
211.4369443123163
 20
188.1169719071426
 30
0.0
 11
208.1869443123163
 21
184.1169719071428
 31
0.0
 70
    32
 71
     5
 42
8.0
 73
     0
 74
     0
 75
     0
  3
SEISA$0
100
AcDbAlignedDimension
 13
207.0851746737376
 23
180.1169719071426
 33
0.0
 14
206.1493352330949
 24
188.1169719071426
 34
0.0
 50
90.0
100
AcDbRotatedDimension
  0
DIMENSION
  5
516E
102
{ACAD_XDICTIONARY
360
517B
102
}
102
{ACAD_REACTORS
330
5185
102
}
330
1F
100
AcDbEntity
  8
AM_5 寸法線
100
AcDbDimension
  2
*D16
 10
211.4369443123163
 20
238.1169719071427
 30
0.0
 11
208.1869443123163
 21
213.1169719071428
 31
0.0
 70
    32
 71
     5
 42
50.0
 73
     0
 74
     0
 75
     0
  3
SEISA$0
100
AcDbAlignedDimension
 13
206.1449002450709
 23
188.1169719071426
 33
0.0
 14
206.1449002450708
 24
238.1169719071427
 34
0.0
 50
90.0
100
AcDbRotatedDimension
  0
DIMENSION
  5
51A4
102
{ACAD_XDICTIONARY
360
51B1
102
}
102
{ACAD_REACTORS
330
51BB
102
}
330
1F
100
AcDbEntity
  8
AM_5 寸法線
100
AcDbDimension
  2
*D17
 10
288.2716823123163
 20
199.1169719071427
 30
0.0
 11
285.0216823123163
 21
191.6169719071426
 31
0.0
 70
    32
 71
     5
 42
15.0
 73
     0
 74
     0
 75
     0
  3
SEISA$0
100
AcDbAlignedDimension
 13
273.0716823123163
 23
184.1169719071426
 33
0.0
 14
273.0716823123163
 24
199.1169719071427
 34
0.0
 50
90.0
100
AcDbRotatedDimension
1001
ACAD_DSTYLE_DIMINSPECT
1070
   396
1000
100%
1070
   395
1000

1070
   394
1070
    33
1070
   393
1070
     0
1001
ACAD
1000
DSTYLE
1002
{
1070
   173
1070
     1
1070
   342
1005
0
1070
   343
1005
60C4
1070
   344
1005
69
1002
}
  0
DIMENSION
  5
51BC
102
{ACAD_XDICTIONARY
360
51C9
102
}
102
{ACAD_REACTORS
330
51D3
102
}
330
1F
100
AcDbEntity
  8
AM_5 寸法線
100
AcDbDimension
  2
*D18
 10
288.2716823123163
 20
169.1169719071427
 30
0.0
 11
285.0216823123163
 21
176.6169719071426
 31
0.0
 70
    32
 71
     5
 42
15.0
 73
     0
 74
     0
 75
     0
  3
SEISA$0
100
AcDbAlignedDimension
 13
273.0716823123163
 23
184.1169719071426
 33
0.0
 14
273.0716823123163
 24
169.1169719071427
 34
0.0
 50
90.0
100
AcDbRotatedDimension
1001
ACAD_DSTYLE_DIMINSPECT
1070
   396
1000
100%
1070
   395
1000

1070
   394
1070
    33
1070
   393
1070
     0
1001
ACAD
1000
DSTYLE
1002
{
1070
   173
1070
     1
1070
   342
1005
0
1070
   343
1005
60C4
1070
   344
1005
69
1002
}
  0
DIMENSION
  5
51EC
102
{ACAD_XDICTIONARY
360
51F9
102
}
102
{ACAD_REACTORS
330
5203
102
}
330
1F
100
AcDbEntity
  8
AM_5 寸法線
100
AcDbDimension
  2
*D19
 10
298.2716823123163
 20
144.1169719071427
 30
0.0
 11
295.0216823123163
 21
184.1169719071426
 31
0.0
 70
    32
 71
     5
 42
80.0
 73
     0
 74
     0
 75
     0
  3
SEISA$0
100
AcDbAlignedDimension
 13
253.7716823123163
 23
224.1169719071427
 33
0.0
 14
253.7716823123163
 24
144.1169719071427
 34
0.0
 50
90.0
100
AcDbRotatedDimension
  0
DIMENSION
  5
58E9
102
{ACAD_XDICTIONARY
360
58F8
102
}
102
{ACAD_REACTORS
330
5904
330
63C9
102
}
330
1F
100
AcDbEntity
  8
AM_5 寸法線
100
AcDbDimension
  2
*D20
 10
197.1988668471326
 20
158.1169719071427
 30
0.0
 11
197.1988668471326
 21
148.5669719071427
 31
0.0
 70
   160
 71
     5
 42
2.0
 73
     0
 74
     0
 75
     0
  3
SEISA$0
100
AcDbAlignedDimension
 13
188.2716823123163
 23
156.1169719071427
 33
0.0
 14
187.7716823123163
 24
158.1169719071427
 34
0.0
 50
90.0
100
AcDbRotatedDimension
  0
DIMENSION
  5
59A0
102
{ACAD_XDICTIONARY
360
59AD
102
}
102
{ACAD_REACTORS
330
59B7
102
}
330
1F
100
AcDbEntity
  8
AM_5 寸法線
100
AcDbDimension
  2
*D21
 10
308.2716823123163
 20
130.1169719071427
 30
0.0
 11
305.0216823123163
 21
184.1169719071426
 31
0.0
 70
    32
 71
     5
 42
108.0
 73
     0
 74
     0
 75
     0
  3
SEISA$0
100
AcDbAlignedDimension
 13
243.2716823123163
 23
238.1169719071427
 33
0.0
 14
243.2716823123163
 24
130.1169719071427
 34
0.0
 50
90.0
100
AcDbRotatedDimension
  0
MTEXT
  5
62E1
330
1F
100
AcDbEntity
  8
AM_6 文字
100
AcDbMText
 10
258.1767112499997
 20
122.4980317586119
 30
0.0
 40
3.5
 41
59.87084415741161
 46
15.9103167730538
 71
     1
 72
     5
  1
{\W0.6;TYPE:SMV112/SMVH112\PSHAFT DIA:MAX/MIN φ40/φ17}
  7
SEISA
 73
     1
 44
1.0
  0
DIMENSION
  5
6320
102
{ACAD_XDICTIONARY
360
632D
102
}
102
{ACAD_REACTORS
330
632E
102
}
330
1F
100
AcDbEntity
  8
AM_5 寸法線
100
AcDbDimension
  2
*D23
 10
165.7716823123163
 20
116.1169719071427
 30
0.0
 11
162.5216823123163
 21
123.1169719071427
 31
0.0
 70
    32
 71
     5
 42
13.99999999999998
 73
     0
 74
     0
 75
     0
  3
SEISA$0
100
AcDbAlignedDimension
 13
191.2716823123163
 23
130.1169719071427
 33
0.0
 14
180.7716823123163
 24
116.1169719071427
 34
0.0
 50
90.00000000000005
100
AcDbRotatedDimension
1001
ACAD_DSTYLE_DIMINSPECT
1070
   396
1000
100%
1070
   395
1000

1070
   394
1070
    33
1070
   393
1070
     0
  0
DIMENSION
  5
6391
102
{ACAD_XDICTIONARY
360
639E
102
}
102
{ACAD_REACTORS
330
639F
102
}
330
1F
100
AcDbEntity
  8
AM_5 寸法線
100
AcDbDimension
  2
*D24
 10
197.1988668471326
 20
169.1169719071427
 30
0.0
 11
193.9488668471327
 21
174.6169719071426
 31
0.0
 70
    32
 71
     5
 42
11.0
 73
     0
 74
     0
 75
     0
  3
SEISA$0
100
AcDbAlignedDimension
 13
188.7716823123163
 23
180.1169719071426
 33
0.0
 14
187.7716823123163
 24
169.1169719071427
 34
0.0
 50
90.00000000000005
100
AcDbRotatedDimension
1001
ACAD_DSTYLE_DIMINSPECT
1070
   396
1000
100%
1070
   395
1000

1070
   394
1070
    33
1070
   393
1070
     0
  0
DIMENSION
  5
63BB
102
{ACAD_XDICTIONARY
360
63C8
102
}
102
{ACAD_REACTORS
330
63C9
102
}
330
1F
100
AcDbEntity
  8
AM_5 寸法線
100
AcDbDimension
  2
*D25
 10
197.1988668471326
 20
158.1169719071427
 30
0.0
 11
193.9488668471327
 21
163.6169719071427
 31
0.0
 70
    32
 71
     5
 42
11.0
 73
     0
 74
     0
 75
     0
  3
SEISA$0
100
AcDbAlignedDimension
 13
187.7716823123163
 23
169.1169719071427
 33
0.0
 14
187.7716823123163
 24
158.1169719071427
 34
0.0
 50
90.00000000000005
100
AcDbRotatedDimension
1001
ACAD_DSTYLE_DIMINSPECT
1070
   396
1000
100%
1070
   395
1000

1070
   394
1070
    33
1070
   393
1070
     0
  0
INSERT
  5
65CA
330
1F
100
AcDbEntity
  8
AM_11 想像線
100
AcDbBlockReference
  2
ケース
 10
177.7565038485283
 20
138.4183693141738
 30
0.0
  0
ENDSEC
  0
SECTION
  2
OBJECTS
  0
DICTIONARY
  5
C
330
0
100
AcDbDictionary
281
     1
  3
ACAD_COLOR
350
C5
  3
ACAD_GROUP
350
D
  3
ACAD_LAYOUT
350
1A
  3
ACAD_MATERIAL
350
C4
  3
ACAD_MLEADERSTYLE
350
2D5
  3
ACAD_MLINESTYLE
350
17
  3
ACAD_PLOTSETTINGS
350
19
  3
ACAD_PLOTSTYLENAME
350
E
  3
ACAD_SCALELIST
350
2B3
  3
ACAD_TABLESTYLE
350
121
  3
ACAD_VISUALSTYLE
350
27F
  3
ACDB_RECOMPOSE_DATA
350
2F7
  3
AcDbVariableDictionary
350
34
  3
AcmDictionary
350
49
  3
AMG
350
2B
  3
AMGSNAPSETTINGS
350
1DE
  0
DICTIONARY
  5
BF
330
2
100
AcDbDictionary
280
     1
281
     1
  3
ACAD_LAYERSTATES
360
2786
  3
AMLAYER_GROUPCOLORS
360
C0
  0
DICTIONARY
  5
29D7
330
10
100
AcDbDictionary
280
     1
281
     1
  3
ADSK_XREC_LAYER_RECONCILED
360
29D8
  0
DICTIONARY
  5
29D9
330
81
100
AcDbDictionary
280
     1
281
     1
  3
ADSK_XREC_LAYER_RECONCILED
360
29DA
  0
DICTIONARY
  5
29E0
330
25C9
100
AcDbDictionary
280
     1
281
     1
  3
ADSK_XREC_LAYER_RECONCILED
360
29E1
  0
DICTIONARY
  5
29E2
330
25CA
100
AcDbDictionary
280
     1
281
     1
  3
ADSK_XREC_LAYER_RECONCILED
360
29E3
  0
DICTIONARY
  5
29E8
330
26B3
100
AcDbDictionary
280
     1
281
     1
  3
ADSK_XREC_LAYER_RECONCILED
360
29E9
  0
DICTIONARY
  5
82
330
1F
100
AcDbDictionary
280
     1
281
     1
  3
ACAD_SORTENTS
360
A41
  0
DICTIONARY
  5
3360
330
335F
100
AcDbDictionary
280
     1
281
     1
  3
ACAD_SORTENTS
360
5C24
  0
DICTIONARY
  5
4B21
330
4A68
100
AcDbDictionary
280
     1
281
     1
  3
ACAD_SORTENTS
360
5DBA
  0
DICTIONARY
  5
4CFD
330
4C33
100
AcDbDictionary
280
     1
281
     1
  3
ACAD_SORTENTS
360
5D3E
  0
DICTIONARY
  5
5A50
330
4D32
100
AcDbDictionary
280
     1
281
     1
  3
ACAD_SORTENTS
360
6534
  0
DICTIONARY
  5
4E55
330
4D7E
100
AcDbDictionary
280
     1
281
     1
  3
ACAD_SORTENTS
360
6563
  0
DICTIONARY
  5
4F19
330
4EAA
100
AcDbDictionary
280
     1
281
     1
  3
ACAD_SORTENTS
360
5E8D
  0
DICTIONARY
  5
4F5D
330
4F36
100
AcDbDictionary
280
     1
281
     1
  3
ACAD_SORTENTS
360
6647
  0
DICTIONARY
  5
5055
330
5048
100
AcDbDictionary
280
     1
281
     1
  3
ACAD_DIMASSOC
360
505F
  0
DICTIONARY
  5
506D
330
5060
100
AcDbDictionary
280
     1
281
     1
  3
ACAD_DIMASSOC
360
5077
  0
DICTIONARY
  5
5085
330
5078
100
AcDbDictionary
280
     1
281
     1
  3
ACAD_DIMASSOC
360
508F
  0
DICTIONARY
  5
511D
330
5110
100
AcDbDictionary
280
     1
281
     1
  3
ACAD_DIMASSOC
360
5127
  0
DICTIONARY
  5
5147
330
513A
100
AcDbDictionary
280
     1
281
     1
  3
ACAD_DIMASSOC
360
5151
  0
DICTIONARY
  5
5161
330
5152
100
AcDbDictionary
280
     1
281
     1
  3
ACAD_DIMASSOC
360
516D
  0
DICTIONARY
  5
517B
330
516E
100
AcDbDictionary
280
     1
281
     1
  3
ACAD_DIMASSOC
360
5185
  0
DICTIONARY
  5
51B1
330
51A4
100
AcDbDictionary
280
     1
281
     1
  3
ACAD_DIMASSOC
360
51BB
  0
DICTIONARY
  5
51C9
330
51BC
100
AcDbDictionary
280
     1
281
     1
  3
ACAD_DIMASSOC
360
51D3
  0
DICTIONARY
  5
51F9
330
51EC
100
AcDbDictionary
280
     1
281
     1
  3
ACAD_DIMASSOC
360
5203
  0
DICTIONARY
  5
58F8
330
58E9
100
AcDbDictionary
280
     1
281
     1
  3
ACAD_DIMASSOC
360
5904
  0
DICTIONARY
  5
59AD
330
59A0
100
AcDbDictionary
280
     1
281
     1
  3
ACAD_DIMASSOC
360
59B7
  0
DICTIONARY
  5
632D
330
6320
100
AcDbDictionary
280
     1
281
     1
  3
ACAD_DIMASSOC
360
632E
  0
DICTIONARY
  5
639E
330
6391
100
AcDbDictionary
280
     1
281
     1
  3
ACAD_DIMASSOC
360
639F
  0
DICTIONARY
  5
63C8
330
63BB
100
AcDbDictionary
280
     1
281
     1
  3
ACAD_DIMASSOC
360
63C9
  0
DICTIONARY
  5
C5
102
{ACAD_REACTORS
330
C
102
}
330
C
100
AcDbDictionary
281
     1
  0
DICTIONARY
  5
D
102
{ACAD_REACTORS
330
C
102
}
330
C
100
AcDbDictionary
281
     1
  0
DICTIONARY
  5
1A
102
{ACAD_REACTORS
330
C
102
}
330
C
100
AcDbDictionary
281
     1
  3
Model
350
22
  3
レイアウト1
350
1E
  3
レイアウト2
350
26
  0
DICTIONARY
  5
C4
102
{ACAD_REACTORS
330
C
102
}
330
C
100
AcDbDictionary
281
     1
  3
ByBlock
350
27D
  3
ByLayer
350
27C
  3
Global
350
27E
  0
DICTIONARY
  5
2D5
102
{ACAD_REACTORS
330
C
102
}
330
C
100
AcDbDictionary
281
     1
  3
Standard
350
2D6
  0
DICTIONARY
  5
17
102
{ACAD_REACTORS
330
C
102
}
330
C
100
AcDbDictionary
281
     1
  3
Standard
350
18
  0
DICTIONARY
  5
19
102
{ACAD_REACTORS
330
C
102
}
330
C
100
AcDbDictionary
281
     1
  3
SEISA基本
350
1C7E
  0
ACDBDICTIONARYWDFLT
  5
E
102
{ACAD_REACTORS
330
C
102
}
330
C
100
AcDbDictionary
281
     1
  3
Normal
350
F
100
AcDbDictionaryWithDefault
340
F
  0
DICTIONARY
  5
2B3
102
{ACAD_REACTORS
330
C
102
}
330
C
100
AcDbDictionary
281
     1
  3
*A1
350
62D8
  3
A0
350
2B4
  3
A1
350
2B5
  3
A2
350
2B6
  3
A3
350
2B7
  3
A4
350
2B8
  3
A5
350
2B9
  3
A6
350
2BA
  3
A7
350
2BB
  3
A8
350
2BC
  3
A9
350
2BD
  3
B0
350
2BE
  3
B1
350
2BF
  3
B2
350
2C0
  3
B3
350
2C1
  3
B4
350
2C2
  3
B5
350
2C3
  3
B6
350
2C4
  3
B7
350
2C5
  3
B8
350
2C6
  3
B9
350
2C7
  3
C0
350
2C8
  3
C1
350
2C9
  3
C2
350
2CA
  3
C3
350
2CB
  3
C4
350
2CC
  3
C5
350
2CD
  3
C6
350
2CE
  3
C7
350
2CF
  3
C8
350
2D0
  3
C9
350
2D1
  3
D0
350
2D2
  3
D1
350
2D3
  3
D2
350
2D4
  0
DICTIONARY
  5
121
102
{ACAD_REACTORS
330
C
102
}
330
C
100
AcDbDictionary
281
     1
  3
Standard
350
122
  0
DICTIONARY
  5
27F
102
{ACAD_REACTORS
330
C
102
}
330
C
100
AcDbDictionary
281
     1
  3
2dWireframe
350
285
  3
3D Hidden
350
287
  3
3dWireframe
350
286
  3
Basic
350
284
  3
Brighten
350
28B
  3
ColorChange
350
28F
  3
Conceptual
350
288
  3
Dim
350
28A
  3
Facepattern
350
28E
  3
Flat
350
280
  3
FlatWithEdges
350
281
  3
Gouraud
350
282
  3
GouraudWithEdges
350
283
  3
Linepattern
350
28D
  3
Realistic
350
289
  3
Thicken
350
28C
  0
XRECORD
  5
2F7
102
{ACAD_REACTORS
330
C
102
}
330
C
100
AcDbXrecord
280
     1
 90
        1
330
122
  0
DICTIONARY
  5
34
102
{ACAD_REACTORS
330
C
102
}
330
C
100
AcDbDictionary
281
     1
  3
CANNOSCALE
350
2FA
  3
CMLEADERSTYLE
350
2F8
  3
CTABLESTYLE
350
140
  3
DIMASSOC
350
AC
  3
INDEXCTL
350
35
  3
LAYEREVAL
350
595C
  3
LAYERNOTIFY
350
595D
  3
LIGHTINGUNITS
350
2FB
  3
MSLTSCALE
350
2F9
  0
DICTIONARY
  5
49
102
{ACAD_REACTORS
330
C
102
}
330
C
100
AcDbDictionary
281
     1
  3
AcmBOM
350
161B
  3
AcmStdDictionary
350
4A
  3
AMDTSECTSYM_ARROWCOLOR
350
12B
  0
DICTIONARY
  5
2B
102
{ACAD_REACTORS
330
C
102
}
330
C
100
AcDbDictionary
281
     1
  0
DICTIONARY
  5
1DE
102
{ACAD_REACTORS
330
C
102
}
330
C
100
AcDbDictionary
281
     1
  0
DICTIONARY
  5
2786
102
{ACAD_REACTORS
330
BF
102
}
330
BF
100
AcDbDictionary
281
     1
  0
DICTIONARY
  5
C0
102
{ACAD_REACTORS
330
BF
102
}
330
BF
100
AcDbDictionary
280
     1
281
     1
  0
XRECORD
  5
29D8
102
{ACAD_REACTORS
330
29D7
102
}
330
29D7
100
AcDbXrecord
280
     1
290
     1
  0
XRECORD
  5
29DA
102
{ACAD_REACTORS
330
29D9
102
}
330
29D9
100
AcDbXrecord
280
     1
290
     1
  0
XRECORD
  5
29E1
102
{ACAD_REACTORS
330
29E0
102
}
330
29E0
100
AcDbXrecord
280
     1
290
     1
  0
XRECORD
  5
29E3
102
{ACAD_REACTORS
330
29E2
102
}
330
29E2
100
AcDbXrecord
280
     1
290
     1
  0
XRECORD
  5
29E9
102
{ACAD_REACTORS
330
29E8
102
}
330
29E8
100
AcDbXrecord
280
     1
290
     1
  0
SORTENTSTABLE
  5
A41
102
{ACAD_REACTORS
330
82
102
}
330
82
100
AcDbSortentsTable
330
1F
331
51BC
  5
5299
331
44C3
  5
44C3
331
4ECE
  5
4F72
331
58E9
  5
5ACE
331
51EC
  5
537A
331
4F4A
  5
5048
331
62E1
  5
62E1
331
4501
  5
4501
331
4F41
  5
4F73
331
455E
  5
455E
331
4E3A
  5
4F71
331
5048
  5
5152
331
516E
  5
51BC
331
4D4C
  5
4F6F
331
59A0
  5
5AD0
331
5060
  5
516E
331
513A
  5
51A3
331
454F
  5
454F
331
4D99
  5
4F70
331
51A4
  5
5281
331
5078
  5
51A0
331
5110
  5
51A2
331
5152
  5
51A4
  0
SORTENTSTABLE
  5
5C24
102
{ACAD_REACTORS
330
3360
102
}
330
3360
100
AcDbSortentsTable
330
335F
331
4B74
  5
4B75
331
4B7A
  5
4B7B
331
4B78
  5
4B79
331
4B81
  5
4BAA
331
4B7F
  5
4B80
331
4B7D
  5
4B7E
331
4B77
  5
4B78
331
4B7B
  5
4B7C
331
4B75
  5
4B76
331
4B79
  5
4B7A
331
4BAA
  5
4B74
331
4B80
  5
4B81
331
4B7E
  5
4B7F
331
4B76
  5
4B77
331
4B7C
  5
4B7D
  0
SORTENTSTABLE
  5
5DBA
102
{ACAD_REACTORS
330
4B21
102
}
330
4B21
100
AcDbSortentsTable
330
4A68
331
4A91
  5
4A93
331
4A85
  5
4A86
331
4A8B
  5
4A8C
331
4A7F
  5
4A80
331
4B20
  5
4A94
331
4A9E
  5
4AA0
331
4A98
  5
4A9A
331
4A86
  5
4A87
331
4A80
  5
4A81
331
4A8C
  5
4A8D
331
4A9F
  5
4AA1
331
4A99
  5
4A9B
331
4A87
  5
4A88
331
4A93
  5
4A95
331
4A8D
  5
4A8E
331
4A81
  5
4A82
331
4AA0
  5
4AA2
331
4A9A
  5
4A9C
331
4A94
  5
4A96
331
4A82
  5
4A83
331
4A8E
  5
4A8F
331
4A88
  5
4A89
331
4AA1
  5
4B1F
331
4A9B
  5
4A9D
331
4A95
  5
4A97
331
4A8F
  5
4A90
331
4A83
  5
4A84
331
4A89
  5
4A8A
331
4AA2
  5
4B20
331
4A9C
  5
4A9E
331
4A96
  5
4A98
331
4B1F
  5
4A7F
331
4A84
  5
4A85
331
4A90
  5
4A91
331
4A8A
  5
4A8B
331
4A9D
  5
4A9F
331
4A97
  5
4A99
  0
SORTENTSTABLE
  5
5D3E
102
{ACAD_REACTORS
330
4CFD
102
}
330
4CFD
100
AcDbSortentsTable
330
4C33
  0
SORTENTSTABLE
  5
6534
102
{ACAD_REACTORS
330
5A50
102
}
330
5A50
100
AcDbSortentsTable
330
4D32
331
4D3A
  5
4D3C
331
6371
  5
4D35
331
4D44
  5
4D46
331
4D3F
  5
4D41
331
4D38
  5
4D3B
331
4D42
  5
4D44
331
4D3D
  5
4D3F
331
4D47
  5
6371
331
4D36
  5
4D3A
331
4D45
  5
4D47
331
4D40
  5
4D42
331
6372
  5
4D36
331
4D3B
  5
4D3D
331
4D3E
  5
4D40
331
4D48
  5
6372
331
4D43
  5
4D45
331
4D3C
  5
4D3E
331
4D35
  5
4D38
331
4D46
  5
4D48
331
4D41
  5
4D43
  0
SORTENTSTABLE
  5
6563
102
{ACAD_REACTORS
330
4E55
102
}
330
4E55
100
AcDbSortentsTable
330
4D7E
331
4D92
  5
4D94
331
4D83
  5
4D85
331
4D8D
  5
4D8F
331
4D90
  5
4D92
331
4D81
  5
4D83
331
4D8B
  5
4D8D
331
4D8E
  5
4D90
331
4D89
  5
4D8B
331
6438
  5
4D81
331
4D93
  5
6438
331
4D84
  5
4D87
331
4D8C
  5
4D8E
331
4D91
  5
4D93
331
4D87
  5
4D8A
331
4D82
  5
4D84
331
4D8A
  5
4D8C
331
6439
  5
4D82
331
4D94
  5
6439
331
4D85
  5
4D89
331
4D8F
  5
4D91
  0
SORTENTSTABLE
  5
5E8D
102
{ACAD_REACTORS
330
4F19
102
}
330
4F19
100
AcDbSortentsTable
330
4EAA
  0
SORTENTSTABLE
  5
6647
102
{ACAD_REACTORS
330
4F5D
102
}
330
4F5D
100
AcDbSortentsTable
330
4F36
  0
DIMASSOC
  5
505F
102
{ACAD_REACTORS
330
5055
102
}
330
5055
100
AcDbDimAssoc
330
5048
 90
        3
 70
     0
 71
     0
  1
AcDbOsnapPointRef
 72
    13
331
4D99
331
4D91
 73
     2
 91
        0
 40
0.0
 10
0.0
 20
0.0
 30
2.000000000000000E+50
 75
     0
  1
AcDbOsnapPointRef
 72
    13
331
4D99
331
4D85
 73
     2
 91
        0
 40
0.0
 10
0.0
 20
0.0
 30
2.000000000000000E+50
 75
     0
  0
DIMASSOC
  5
5077
102
{ACAD_REACTORS
330
506D
102
}
330
506D
100
AcDbDimAssoc
330
5060
 90
        3
 70
     0
 71
     0
  1
AcDbOsnapPointRef
 72
    13
331
4E3A
331
4C6D
 73
     2
 91
        0
 40
0.0
 10
0.0
 20
0.0
 30
2.000000000000000E+50
 75
     0
  1
AcDbOsnapPointRef
 72
     1
331
4E3A
331
4C40
 73
     2
 91
        0
 40
3.141592653589792
 10
0.0
 20
0.0
 30
2.000000000000000E+50
 75
     0
  0
DIMASSOC
  5
508F
102
{ACAD_REACTORS
330
5085
102
}
330
5085
100
AcDbDimAssoc
330
5078
 90
        3
 70
     0
 71
     0
  1
AcDbOsnapPointRef
 72
     1
331
4E3A
331
4C69
 73
     2
 91
        0
 40
0.9999999999999998
 10
0.0
 20
0.0
 30
2.000000000000000E+50
 75
     0
  1
AcDbOsnapPointRef
 72
     1
331
4E3A
331
4C38
 73
     2
 91
        0
 40
0.9999999999999998
 10
0.0
 20
0.0
 30
2.000000000000000E+50
 75
     0
  0
DIMASSOC
  5
5127
102
{ACAD_REACTORS
330
511D
102
}
330
511D
100
AcDbDimAssoc
330
5110
 90
        3
 70
     0
 71
     0
  1
AcDbOsnapPointRef
 72
    13
331
4D4C
331
4D3A
 73
     2
 91
        0
 40
0.0
 10
0.0
 20
0.0
 30
2.000000000000000E+50
 75
     0
  1
AcDbOsnapPointRef
 72
     1
331
4D4C
331
4D45
 73
     2
 91
        0
 40
6.283185307179584
 10
0.0
 20
0.0
 30
2.000000000000000E+50
 75
     0
  0
DIMASSOC
  5
5151
102
{ACAD_REACTORS
330
5147
102
}
330
5147
100
AcDbDimAssoc
330
513A
 90
        2
 70
     0
 71
     0
  1
AcDbOsnapPointRef
 72
     8
331
4D4C
331
4D36
 73
     2
 91
        0
 40
0.4158272168684133
 10
0.0
 20
0.0
 30
0.0
 75
     1
  1
AcDbOsnapPointRef
 72
    10
331
4F41
331
4F5C
 73
     2
 91
        0
 40
0.5253694763124495
 10
0.0
 20
0.0
 30
0.0
 75
     0
  0
DIMASSOC
  5
516D
102
{ACAD_REACTORS
330
5161
102
}
330
5161
100
AcDbDimAssoc
330
5152
 90
        2
 70
     0
 71
     0
  1
AcDbOsnapPointRef
 72
    10
331
4D99
331
4D81
 73
     2
 91
        0
 40
0.6097422077466172
 10
0.0
 20
0.0
 30
0.0
 75
     0
  0
DIMASSOC
  5
5185
102
{ACAD_REACTORS
330
517B
102
}
330
517B
100
AcDbDimAssoc
330
516E
 90
        3
 70
     0
 71
     0
  1
AcDbOsnapPointRef
 72
    10
331
4D99
331
4D81
 73
     2
 91
        0
 40
0.6095865941317379
 10
0.0
 20
0.0
 30
0.0
 75
     0
  1
AcDbOsnapPointRef
 72
     8
331
4D99
331
4D82
 73
     2
 91
        0
 40
0.4279531564325194
 10
0.0
 20
0.0
 30
0.0
 75
     1
  1
AcDbOsnapPointRef
 72
    10
331
4D99
331
4D81
 73
     2
 91
        0
 40
0.6095865941317379
 10
0.0
 20
0.0
 30
0.0
 75
     0
  0
DIMASSOC
  5
51BB
102
{ACAD_REACTORS
330
51B1
102
}
330
51B1
100
AcDbDimAssoc
330
51A4
 90
        3
 70
     0
 71
     0
  1
AcDbOsnapPointRef
 72
     1
331
4F4A
331
4A9A
 73
     2
 91
        0
 40
1.0
 10
0.0
 20
0.0
 30
2.000000000000000E+50
 75
     0
  1
AcDbOsnapPointRef
 72
    13
331
4E3A
331
4C6C
 73
     2
 91
        0
 40
0.0
 10
0.0
 20
0.0
 30
2.000000000000000E+50
 75
     0
  0
DIMASSOC
  5
51D3
102
{ACAD_REACTORS
330
51C9
102
}
330
51C9
100
AcDbDimAssoc
330
51BC
 90
        3
 70
     0
 71
     0
  1
AcDbOsnapPointRef
 72
     1
331
4F4A
331
4A9A
 73
     2
 91
        0
 40
1.0
 10
0.0
 20
0.0
 30
2.000000000000000E+50
 75
     0
  1
AcDbOsnapPointRef
 72
    13
331
4F4A
331
4A9C
 73
     2
 91
        0
 40
0.0
 10
0.0
 20
0.0
 30
2.000000000000000E+50
 75
     0
  0
DIMASSOC
  5
5203
102
{ACAD_REACTORS
330
51F9
102
}
330
51F9
100
AcDbDimAssoc
330
51EC
 90
        2
 70
     0
 71
     0
  1
AcDbOsnapPointRef
 72
    13
331
4F4A
331
4A9B
 73
     2
 91
        0
 40
0.0
 10
0.0
 20
0.0
 30
2.000000000000000E+50
 75
     0
  0
DIMASSOC
  5
5904
102
{ACAD_REACTORS
330
58F8
102
}
330
58F8
100
AcDbDimAssoc
330
58E9
 90
        3
 70
     0
 71
     0
  1
AcDbOsnapPointRef
 72
    13
331
4F4A
331
4A6F
 73
     2
 91
        0
 40
0.0
 10
0.0
 20
0.0
 30
2.000000000000000E+50
 75
     0
  1
AcDbOsnapPointRef
 72
    13
331
4D4C
331
4D3C
 73
     2
 91
        0
 40
0.0
 10
0.0
 20
0.0
 30
2.000000000000000E+50
 75
     0
  0
DIMASSOC
  5
59B7
102
{ACAD_REACTORS
330
59AD
102
}
330
59AD
100
AcDbDimAssoc
330
59A0
 90
        3
 70
     0
 71
     0
  1
AcDbOsnapPointRef
 72
     1
331
4D99
331
4D91
 73
     2
 91
        0
 40
1.570796326794896
 10
0.0
 20
0.0
 30
2.000000000000000E+50
 75
     0
  1
AcDbOsnapPointRef
 72
    13
331
4D4C
331
4D45
 73
     2
 91
        0
 40
4.712388980384688
 10
0.0
 20
0.0
 30
2.000000000000000E+50
 75
     0
  0
DIMASSOC
  5
632E
102
{ACAD_REACTORS
330
632D
102
}
330
632D
100
AcDbDimAssoc
330
6320
 90
        1
 70
     0
 71
     0
  1
AcDbOsnapPointRef
 72
     1
331
4D4C
331
4D3B
 73
     0
 91
        0
 40
0.0
 10
0.0
 20
0.0
 30
2.000000000000000E+50
 75
     0
  0
DIMASSOC
  5
639F
102
{ACAD_REACTORS
330
639E
102
}
330
639E
100
AcDbDimAssoc
330
6391
 90
        3
 70
     0
 71
     0
  1
AcDbOsnapPointRef
 72
    13
331
4D4C
331
4D35
 73
     0
 91
        0
 40
0.0
 10
0.0
 20
0.0
 30
2.000000000000000E+50
 75
     0
  1
AcDbOsnapPointRef
 72
     1
331
4D4C
331
4D41
 73
     0
 91
        0
 40
0.0
 10
0.0
 20
0.0
 30
2.000000000000000E+50
 75
     0
  0
DIMASSOC
  5
63C9
102
{ACAD_REACTORS
330
63C8
102
}
330
63C8
100
AcDbDimAssoc
330
63BB
 90
        2
 70
     0
 71
     0
  1
AcDbOsnapPointRef
 72
     4
331
58E9
331
638F
 73
     0
 91
        0
 40
0.0
 10
0.0
 20
0.0
 30
0.0
 75
     0
  0
LAYOUT
  5
22
102
{ACAD_REACTORS
330
1A
102
}
330
1A
100
AcDbPlotSettings
  1

  2
KONICA MINOLTA 501 PCL
  4
A4
  6

 40
5.027082920074462
 41
5.027085781097412
 42
5.027069091796875
 43
5.027069091796875
 44
209.9733276367186
 45
296.9259948730469
 46
0.0
 47
28.89246060729572
 48
0.0
 49
0.0
140
0.0
141
0.0
142
1.0
143
0.7451123626793425
 70
 11956
 72
     1
 73
     0
 74
     1
  7
SEISA.ctb
 75
     0
147
1.34207946356454
 76
     0
 77
     2
 78
   300
148
-160.0018629755677
149
-107.4288951459211
100
AcDbLayout
  1
Model
 70
     1
 71
     0
 10
0.0
 20
0.0
 11
12.0
 21
9.0
 12
0.0
 22
0.0
 32
0.0
 14
0.0
 24
0.0
 34
0.0
 15
0.0
 25
0.0
 35
0.0
146
0.0
 13
0.0
 23
0.0
 33
0.0
 16
1.0
 26
0.0
 36
0.0
 17
0.0
 27
1.0
 37
0.0
 76
     0
330
1F
331
27A
1001
ACAD_PSEXT
1000
KONICA MINOLTA 501 PCL
1000
KONICA MINOLTA 501/421/361PCL
1000
IP_192.168.20.231_(1)
1000

1070
     0
  0
LAYOUT
  5
1E
102
{ACAD_REACTORS
330
1A
102
}
330
1A
100
AcDbPlotSettings
  1

  2
none_device
  4
Letter_(8.50_x_11.00_Inches)
  6

 40
6.349999904632567
 41
6.349999904632567
 42
6.350006103515625
 43
6.350006103515625
 44
215.8999938964844
 45
279.3999938964844
 46
0.0
 47
0.0
 48
0.0
 49
0.0
140
0.0
141
0.0
142
1.0
143
1.0
 70
 15024
 72
     1
 73
     1
 74
     5
  7
SEISA.ctb
 75
    16
147
1.0
 76
     0
 77
     2
 78
   300
148
0.0
149
0.0
100
AcDbLayout
  1
レイアウト1
 70
     1
 71
     1
 10
0.0
 20
0.0
 11
420.0
 21
297.0
 12
0.0
 22
0.0
 32
0.0
 14
1.000000000000000E+20
 24
1.000000000000000E+20
 34
1.000000000000000E+20
 15
-1.000000000000000E+20
 25
-1.000000000000000E+20
 35
-1.000000000000000E+20
146
0.0
 13
0.0
 23
0.0
 33
0.0
 16
1.0
 26
0.0
 36
0.0
 17
0.0
 27
1.0
 37
0.0
 76
     0
330
1B
  0
LAYOUT
  5
26
102
{ACAD_REACTORS
330
1A
102
}
330
1A
100
AcDbPlotSettings
  1

  2
none_device
  4
Letter_(8.50_x_11.00_Inches)
  6

 40
6.349999904632567
 41
6.349999904632567
 42
6.350006103515625
 43
6.350006103515625
 44
215.8999938964844
 45
279.3999938964844
 46
0.0
 47
0.0
 48
0.0
 49
0.0
140
0.0
141
0.0
142
1.0
143
1.0
 70
 15024
 72
     1
 73
     1
 74
     5
  7
SEISA.ctb
 75
    16
147
1.0
 76
     0
 77
     2
 78
   300
148
0.0
149
0.0
100
AcDbLayout
  1
レイアウト2
 70
     1
 71
     2
 10
0.0
 20
0.0
 11
12.0
 21
9.0
 12
0.0
 22
0.0
 32
0.0
 14
0.0
 24
0.0
 34
0.0
 15
0.0
 25
0.0
 35
0.0
146
0.0
 13
0.0
 23
0.0
 33
0.0
 16
1.0
 26
0.0
 36
0.0
 17
0.0
 27
1.0
 37
0.0
 76
     0
330
23
  0
MATERIAL
  5
27D
102
{ACAD_REACTORS
330
C4
102
}
330
C4
100
AcDbMaterial
  1
ByBlock
 73
     1
 78
     1
172
     1
176
     1
270
     1
274
     1
 94
       63
  0
MATERIAL
  5
27C
102
{ACAD_REACTORS
330
C4
102
}
330
C4
100
AcDbMaterial
  1
ByLayer
 73
     1
 78
     1
172
     1
176
     1
270
     1
274
     1
 94
       63
  0
MATERIAL
  5
27E
102
{ACAD_REACTORS
330
C4
102
}
330
C4
100
AcDbMaterial
  1
Global
 73
     1
 78
     1
172
     1
176
     1
270
     1
274
     1
 94
       63
  0
MLEADERSTYLE
  5
2D6
102
{ACAD_REACTORS
330
2D5
102
}
330
2D5
100
AcDbMLeaderStyle
170
     2
171
     1
172
     0
 90
        2
 40
0.0
 41
0.0
173
     1
 91
-1056964608
340
14
 92
       -2
290
     1
 42
2.0
291
     1
 43
0.36
  3
Standard
 44
4.0
300

342
11
174
     1
178
     6
175
     1
176
     0
 93
-1056964608
 45
4.0
292
     0
297
     0
 46
4.0
 94
-1056964608
 47
1.0
 49
1.0
140
1.0
293
     1
141
0.0
294
     1
177
     0
142
1.0
295
     0
296
     0
143
0.125
1001
ACAD_MLEADERVER
1070
     2
  0
MLINESTYLE
  5
18
102
{ACAD_REACTORS
330
17
102
}
330
17
100
AcDbMlineStyle
  2
STANDARD
 70
     0
  3

 62
   256
 51
90.0
 52
90.0
 71
     2
 49
0.5
 62
   256
  6
BYLAYER
 49
-0.5
 62
   256
  6
BYLAYER
  0
PLOTSETTINGS
  5
1C7E
102
{ACAD_REACTORS
330
19
102
}
330
19
100
AcDbPlotSettings
  1
SEISA基本
  2
none_device
  4
Letter_(8.50_x_11.00_Inches)
  6

 40
6.349999904632567
 41
6.349999904632567
 42
6.350006103515625
 43
6.350006103515625
 44
215.8999938964844
 45
279.3999938964844
 46
7.302498226506357
 47
0.0
 48
0.0
 49
0.0
140
0.0
141
0.0
142
1.0
143
1.574803221122935
 70
 11956
 72
     1
 73
     1
 74
     2
  7
SEISA.ctb
 75
     0
147
0.6349999711627054
 76
     0
 77
     2
 78
   300
148
0.0
149
0.0
1001
ACAD_PSEXT
1000
なし
1000
なし
1000
適切ではありません
1000
新しいプロッタ環境設定名を選択しない限り、レイアウトは印刷されません。
1070
     0
  0
ACDBPLACEHOLDER
  5
F
102
{ACAD_REACTORS
330
E
102
}
330
E
  0
SCALE
  5
62D8
102
{ACAD_REACTORS
330
2B3
102
}
330
2B3
100
AcDbScale
 70
     0
300
1:1.5
140
1.0
141
1.5
290
     0
  0
SCALE
  5
2B4
102
{ACAD_REACTORS
330
2B3
102
}
330
2B3
100
AcDbScale
 70
     0
300
1:1
140
1.0
141
1.0
290
     1
  0
SCALE
  5
2B5
102
{ACAD_REACTORS
330
2B3
102
}
330
2B3
100
AcDbScale
 70
     0
300
1:2
140
1.0
141
2.0
290
     0
  0
SCALE
  5
2B6
102
{ACAD_REACTORS
330
2B3
102
}
330
2B3
100
AcDbScale
 70
     0
300
1:4
140
1.0
141
4.0
290
     0
  0
SCALE
  5
2B7
102
{ACAD_REACTORS
330
2B3
102
}
330
2B3
100
AcDbScale
 70
     0
300
1:5
140
1.0
141
5.0
290
     0
  0
SCALE
  5
2B8
102
{ACAD_REACTORS
330
2B3
102
}
330
2B3
100
AcDbScale
 70
     0
300
1:8
140
1.0
141
8.0
290
     0
  0
SCALE
  5
2B9
102
{ACAD_REACTORS
330
2B3
102
}
330
2B3
100
AcDbScale
 70
     0
300
1:10
140
1.0
141
10.0
290
     0
  0
SCALE
  5
2BA
102
{ACAD_REACTORS
330
2B3
102
}
330
2B3
100
AcDbScale
 70
     0
300
1:16
140
1.0
141
16.0
290
     0
  0
SCALE
  5
2BB
102
{ACAD_REACTORS
330
2B3
102
}
330
2B3
100
AcDbScale
 70
     0
300
1:20
140
1.0
141
20.0
290
     0
  0
SCALE
  5
2BC
102
{ACAD_REACTORS
330
2B3
102
}
330
2B3
100
AcDbScale
 70
     0
300
1:30
140
1.0
141
30.0
290
     0
  0
SCALE
  5
2BD
102
{ACAD_REACTORS
330
2B3
102
}
330
2B3
100
AcDbScale
 70
     0
300
1:40
140
1.0
141
40.0
290
     0
  0
SCALE
  5
2BE
102
{ACAD_REACTORS
330
2B3
102
}
330
2B3
100
AcDbScale
 70
     0
300
1:50
140
1.0
141
50.0
290
     0
  0
SCALE
  5
2BF
102
{ACAD_REACTORS
330
2B3
102
}
330
2B3
100
AcDbScale
 70
     0
300
1:100
140
1.0
141
100.0
290
     0
  0
SCALE
  5
2C0
102
{ACAD_REACTORS
330
2B3
102
}
330
2B3
100
AcDbScale
 70
     0
300
2:1
140
2.0
141
1.0
290
     0
  0
SCALE
  5
2C1
102
{ACAD_REACTORS
330
2B3
102
}
330
2B3
100
AcDbScale
 70
     0
300
4:1
140
4.0
141
1.0
290
     0
  0
SCALE
  5
2C2
102
{ACAD_REACTORS
330
2B3
102
}
330
2B3
100
AcDbScale
 70
     0
300
8:1
140
8.0
141
1.0
290
     0
  0
SCALE
  5
2C3
102
{ACAD_REACTORS
330
2B3
102
}
330
2B3
100
AcDbScale
 70
     0
300
10:1
140
10.0
141
1.0
290
     0
  0
SCALE
  5
2C4
102
{ACAD_REACTORS
330
2B3
102
}
330
2B3
100
AcDbScale
 70
     0
300
100:1
140
100.0
141
1.0
290
     0
  0
SCALE
  5
2C5
102
{ACAD_REACTORS
330
2B3
102
}
330
2B3
100
AcDbScale
 70
     0
300
1/128" = 1'-0"
140
0.0078125
141
12.0
290
     0
  0
SCALE
  5
2C6
102
{ACAD_REACTORS
330
2B3
102
}
330
2B3
100
AcDbScale
 70
     0
300
1/64" = 1'-0"
140
0.015625
141
12.0
290
     0
  0
SCALE
  5
2C7
102
{ACAD_REACTORS
330
2B3
102
}
330
2B3
100
AcDbScale
 70
     0
300
1/32" = 1'-0"
140
0.03125
141
12.0
290
     0
  0
SCALE
  5
2C8
102
{ACAD_REACTORS
330
2B3
102
}
330
2B3
100
AcDbScale
 70
     0
300
1/16" = 1'-0"
140
0.0625
141
12.0
290
     0
  0
SCALE
  5
2C9
102
{ACAD_REACTORS
330
2B3
102
}
330
2B3
100
AcDbScale
 70
     0
300
3/32" = 1'-0"
140
0.09375
141
12.0
290
     0
  0
SCALE
  5
2CA
102
{ACAD_REACTORS
330
2B3
102
}
330
2B3
100
AcDbScale
 70
     0
300
1/8" = 1'-0"
140
0.125
141
12.0
290
     0
  0
SCALE
  5
2CB
102
{ACAD_REACTORS
330
2B3
102
}
330
2B3
100
AcDbScale
 70
     0
300
3/16" = 1'-0"
140
0.1875
141
12.0
290
     0
  0
SCALE
  5
2CC
102
{ACAD_REACTORS
330
2B3
102
}
330
2B3
100
AcDbScale
 70
     0
300
1/4" = 1'-0"
140
0.25
141
12.0
290
     0
  0
SCALE
  5
2CD
102
{ACAD_REACTORS
330
2B3
102
}
330
2B3
100
AcDbScale
 70
     0
300
3/8" = 1'-0"
140
0.375
141
12.0
290
     0
  0
SCALE
  5
2CE
102
{ACAD_REACTORS
330
2B3
102
}
330
2B3
100
AcDbScale
 70
     0
300
1/2" = 1'-0"
140
0.5
141
12.0
290
     0
  0
SCALE
  5
2CF
102
{ACAD_REACTORS
330
2B3
102
}
330
2B3
100
AcDbScale
 70
     0
300
3/4" = 1'-0"
140
0.75
141
12.0
290
     0
  0
SCALE
  5
2D0
102
{ACAD_REACTORS
330
2B3
102
}
330
2B3
100
AcDbScale
 70
     0
300
1" = 1'-0"
140
1.0
141
12.0
290
     0
  0
SCALE
  5
2D1
102
{ACAD_REACTORS
330
2B3
102
}
330
2B3
100
AcDbScale
 70
     0
300
1-1/2" = 1'-0"
140
1.5
141
12.0
290
     0
  0
SCALE
  5
2D2
102
{ACAD_REACTORS
330
2B3
102
}
330
2B3
100
AcDbScale
 70
     0
300
3" = 1'-0"
140
3.0
141
12.0
290
     0
  0
SCALE
  5
2D3
102
{ACAD_REACTORS
330
2B3
102
}
330
2B3
100
AcDbScale
 70
     0
300
6" = 1'-0"
140
6.0
141
12.0
290
     0
  0
SCALE
  5
2D4
102
{ACAD_REACTORS
330
2B3
102
}
330
2B3
100
AcDbScale
 70
     0
300
1'-0" = 1'-0"
140
12.0
141
12.0
290
     0
  0
TABLESTYLE
  5
122
102
{ACAD_XDICTIONARY
360
2F5
102
}
102
{ACAD_REACTORS
330
121
102
}
330
121
100
AcDbTableStyle
  3
Standard
 70
     0
 71
     0
 40
1.5
 41
1.5
280
     0
281
     0
  7
STANDARD
140
4.5
170
     2
 62
     0
 63
     7
283
     0
 90
      512
 91
        0
  1

274
    -2
284
     1
 64
     0
275
    -2
285
     1
 65
     0
276
    -2
286
     1
 66
     0
277
    -2
287
     1
 67
     0
278
    -2
288
     1
 68
     0
279
    -2
289
     1
 69
     0
  7
STANDARD
140
6.0
170
     5
 62
     0
 63
     7
283
     0
 90
      512
 91
        0
  1

274
    -2
284
     1
 64
     0
275
    -2
285
     1
 65
     0
276
    -2
286
     1
 66
     0
277
    -2
287
     1
 67
     0
278
    -2
288
     1
 68
     0
279
    -2
289
     1
 69
     0
  7
STANDARD
140
4.5
170
     5
 62
     0
 63
     7
283
     0
 90
      512
 91
        0
  1

274
    -2
284
     1
 64
     0
275
    -2
285
     1
 65
     0
276
    -2
286
     1
 66
     0
277
    -2
287
     1
 67
     0
278
    -2
288
     1
 68
     0
279
    -2
289
     1
 69
     0
  0
VISUALSTYLE
  5
285
102
{ACAD_REACTORS
330
27F
102
}
330
27F
100
AcDbVisualStyle
  2
2dWireframe
 70
     4
 71
     0
 72
     2
 73
     0
 90
        0
 40
-0.6
 41
-30.0
 62
     5
 63
     7
421
 16777215
 74
     1
 91
        4
 64
     7
 65
   257
 75
     1
175
     1
 42
1.0
 92
        0
 66
   257
 43
1.0
 76
     1
 77
     6
 78
     2
 67
     7
 79
     5
170
     0
171
     0
290
     0
174
     0
 93
        1
 44
0.0
173
     0
291
     0
 45
0.0
  0
VISUALSTYLE
  5
287
102
{ACAD_REACTORS
330
27F
102
}
330
27F
100
AcDbVisualStyle
  2
3D Hidden
 70
     6
 71
     1
 72
     2
 73
     2
 90
        0
 40
-0.6
 41
-30.0
 62
     5
 63
     7
421
 16777215
 74
     2
 91
        2
 64
     7
 65
   257
 75
     2
175
     1
 42
40.0
 92
        0
 66
   257
 43
1.0
 76
     1
 77
     6
 78
     2
 67
     7
 79
     3
170
     0
171
     0
290
     0
174
     0
 93
        1
 44
0.0
173
     0
291
     0
 45
0.0
  0
VISUALSTYLE
  5
286
102
{ACAD_REACTORS
330
27F
102
}
330
27F
100
AcDbVisualStyle
  2
3dWireframe
 70
     5
 71
     0
 72
     2
 73
     0
 90
        0
 40
-0.6
 41
-30.0
 62
     5
 63
     7
421
 16777215
 74
     1
 91
        4
 64
     7
 65
   257
 75
     1
175
     1
 42
1.0
 92
        0
 66
   257
 43
1.0
 76
     1
 77
     6
 78
     2
 67
     7
 79
     5
170
     0
171
     0
290
     0
174
     0
 93
        1
 44
0.0
173
     0
291
     0
 45
0.0
  0
VISUALSTYLE
  5
284
102
{ACAD_REACTORS
330
27F
102
}
330
27F
100
AcDbVisualStyle
  2
Basic
 70
     7
 71
     1
 72
     0
 73
     1
 90
        0
 40
-0.6
 41
-30.0
 62
     5
 63
     7
421
 16777215
 74
     0
 91
        4
 64
     7
 65
   257
 75
     1
175
     1
 42
1.0
 92
        8
 66
     7
 43
1.0
 76
     1
 77
     6
 78
     2
 67
     7
 79
     5
170
     0
171
     0
290
     0
174
     0
 93
        1
 44
0.0
173
     0
291
     1
 45
0.0
  0
VISUALSTYLE
  5
28B
102
{ACAD_REACTORS
330
27F
102
}
330
27F
100
AcDbVisualStyle
  2
Brighten
 70
    12
 71
     2
 72
     2
 73
     0
 90
        0
 40
-0.6
 41
-30.0
 62
     5
 63
     7
421
 16777215
 74
     1
 91
        4
 64
     7
 65
   257
 75
     1
175
     1
 42
1.0
 92
        8
 66
     7
 43
1.0
 76
     1
 77
     6
 78
     2
 67
     7
 79
     5
170
     0
171
     0
290
     0
174
     0
 93
        1
 44
50.0
173
     0
291
     1
 45
0.0
  0
VISUALSTYLE
  5
28F
102
{ACAD_REACTORS
330
27F
102
}
330
27F
100
AcDbVisualStyle
  2
ColorChange
 70
    16
 71
     2
 72
     2
 73
     3
 90
        0
 40
-0.6
 41
-30.0
 62
     5
 63
     8
421
  8421504
 74
     1
 91
        4
 64
     7
 65
   257
 75
     1
175
     1
 42
1.0
 92
        8
 66
     8
424
  8421504
 43
1.0
 76
     1
 77
     6
 78
     2
 67
     7
 79
     5
170
     0
171
     0
290
     0
174
     0
 93
        1
 44
0.0
173
     0
291
     1
 45
0.0
  0
VISUALSTYLE
  5
288
102
{ACAD_REACTORS
330
27F
102
}
330
27F
100
AcDbVisualStyle
  2
Conceptual
 70
     9
 71
     3
 72
     2
 73
     0
 90
        0
 40
-0.6
 41
-30.0
 62
     5
 63
     7
421
 16777215
 74
     2
 91
        2
 64
     7
 65
   257
 75
     1
175
     1
 42
40.0
 92
        8
 66
     7
 43
1.0
 76
     1
 77
     6
 78
     2
 67
     7
 79
     3
170
     0
171
     0
290
     0
174
     0
 93
        1
 44
0.0
173
     0
291
     0
 45
0.0
  0
VISUALSTYLE
  5
28A
102
{ACAD_REACTORS
330
27F
102
}
330
27F
100
AcDbVisualStyle
  2
Dim
 70
    11
 71
     2
 72
     2
 73
     0
 90
        0
 40
-0.6
 41
-30.0
 62
     5
 63
     7
421
 16777215
 74
     1
 91
        4
 64
     7
 65
   257
 75
     1
175
     1
 42
1.0
 92
        8
 66
     7
 43
1.0
 76
     1
 77
     6
 78
     2
 67
     7
 79
     5
170
     0
171
     0
290
     0
174
     0
 93
        1
 44
-50.0
173
     0
291
     1
 45
0.0
  0
VISUALSTYLE
  5
28E
102
{ACAD_REACTORS
330
27F
102
}
330
27F
100
AcDbVisualStyle
  2
Facepattern
 70
    15
 71
     2
 72
     2
 73
     0
 90
        0
 40
-0.6
 41
-30.0
 62
     5
 63
     7
421
 16777215
 74
     1
 91
        4
 64
     7
 65
   257
 75
     1
175
     1
 42
1.0
 92
        8
 66
     7
 43
1.0
 76
     1
 77
     6
 78
     2
 67
     7
 79
     5
170
     0
171
     0
290
     0
174
     0
 93
        1
 44
0.0
173
     0
291
     1
 45
0.0
  0
VISUALSTYLE
  5
280
102
{ACAD_REACTORS
330
27F
102
}
330
27F
100
AcDbVisualStyle
  2
Flat
 70
     0
 71
     2
 72
     1
 73
     1
 90
        2
 40
-0.6
 41
30.0
 62
     5
 63
     7
421
 16777215
 74
     0
 91
        4
 64
     7
 65
   257
 75
     1
175
     1
 42
1.0
 92
        8
 66
     7
 43
1.0
 76
     1
 77
     6
 78
     2
 67
     7
 79
     5
170
     0
171
     0
290
     0
174
     0
 93
       13
 44
0.0
173
     0
291
     1
 45
0.0
  0
VISUALSTYLE
  5
281
102
{ACAD_REACTORS
330
27F
102
}
330
27F
100
AcDbVisualStyle
  2
FlatWithEdges
 70
     1
 71
     2
 72
     1
 73
     1
 90
        2
 40
-0.6
 41
30.0
 62
     5
 63
     7
421
 16777215
 74
     1
 91
        4
 64
     7
 65
   257
 75
     1
175
     1
 42
1.0
 92
        0
 66
   257
 43
1.0
 76
     1
 77
     6
 78
     2
 67
     7
 79
     5
170
     0
171
     0
290
     0
174
     0
 93
       13
 44
0.0
173
     0
291
     1
 45
0.0
  0
VISUALSTYLE
  5
282
102
{ACAD_REACTORS
330
27F
102
}
330
27F
100
AcDbVisualStyle
  2
Gouraud
 70
     2
 71
     2
 72
     2
 73
     1
 90
        2
 40
-0.6
 41
30.0
 62
     5
 63
     7
421
 16777215
 74
     0
 91
        4
 64
     7
 65
   257
 75
     1
175
     1
 42
1.0
 92
        0
 66
     7
 43
1.0
 76
     1
 77
     6
 78
     2
 67
     7
 79
     5
170
     0
171
     0
290
     0
174
     0
 93
       13
 44
0.0
173
     0
291
     1
 45
0.0
  0
VISUALSTYLE
  5
283
102
{ACAD_REACTORS
330
27F
102
}
330
27F
100
AcDbVisualStyle
  2
GouraudWithEdges
 70
     3
 71
     2
 72
     2
 73
     1
 90
        2
 40
-0.6
 41
30.0
 62
     5
 63
     7
421
 16777215
 74
     1
 91
        4
 64
     7
 65
   257
 75
     1
175
     1
 42
1.0
 92
        0
 66
   257
 43
1.0
 76
     1
 77
     6
 78
     2
 67
     7
 79
     5
170
     0
171
     0
290
     0
174
     0
 93
       13
 44
0.0
173
     0
291
     1
 45
0.0
  0
VISUALSTYLE
  5
28D
102
{ACAD_REACTORS
330
27F
102
}
330
27F
100
AcDbVisualStyle
  2
Linepattern
 70
    14
 71
     2
 72
     2
 73
     0
 90
        0
 40
-0.6
 41
-30.0
 62
     5
 63
     7
421
 16777215
 74
     1
 91
        4
 64
     7
 65
   257
 75
     7
175
     7
 42
1.0
 92
        8
 66
     7
 43
1.0
 76
     1
 77
     6
 78
     2
 67
     7
 79
     5
170
     0
171
     0
290
     0
174
     0
 93
        1
 44
0.0
173
     0
291
     1
 45
0.0
  0
VISUALSTYLE
  5
289
102
{ACAD_REACTORS
330
27F
102
}
330
27F
100
AcDbVisualStyle
  2
Realistic
 70
     8
 71
     2
 72
     2
 73
     0
 90
        0
 40
-0.6
 41
-30.0
 62
     5
 63
     7
421
 16777215
 74
     1
 91
        0
 64
     7
 65
   257
 75
     1
175
     1
 42
1.0
 92
        8
 66
     8
424
  7895160
 43
1.0
 76
     1
 77
     6
 78
     2
 67
     7
 79
     5
170
     0
171
     0
290
     0
174
     0
 93
       13
 44
0.0
173
     0
291
     0
 45
0.0
  0
VISUALSTYLE
  5
28C
102
{ACAD_REACTORS
330
27F
102
}
330
27F
100
AcDbVisualStyle
  2
Thicken
 70
    13
 71
     2
 72
     2
 73
     0
 90
        0
 40
-0.6
 41
-30.0
 62
     5
 63
     7
421
 16777215
 74
     1
 91
        4
 64
     7
 65
   257
 75
     1
175
     1
 42
1.0
 92
       12
 66
     7
 43
1.0
 76
     1
 77
     6
 78
     2
 67
     7
 79
     5
170
     0
171
     0
290
     0
174
     0
 93
        1
 44
0.0
173
     0
291
     1
 45
0.0
  0
DICTIONARYVAR
  5
2FA
102
{ACAD_REACTORS
330
34
102
}
330
34
100
DictionaryVariables
280
     0
  1
1:1
  0
DICTIONARYVAR
  5
2F8
102
{ACAD_REACTORS
330
34
102
}
330
34
100
DictionaryVariables
280
     0
  1
STANDARD
  0
DICTIONARYVAR
  5
140
102
{ACAD_REACTORS
330
34
102
}
330
34
100
DictionaryVariables
280
     0
  1
STANDARD
  0
DICTIONARYVAR
  5
AC
102
{ACAD_REACTORS
330
34
102
}
330
34
100
DictionaryVariables
280
     0
  1
1
  0
DICTIONARYVAR
  5
35
102
{ACAD_REACTORS
330
34
102
}
330
34
100
DictionaryVariables
280
     0
  1
1
  0
DICTIONARYVAR
  5
595C
102
{ACAD_REACTORS
330
34
102
}
330
34
100
DictionaryVariables
280
     0
  1
1
  0
DICTIONARYVAR
  5
595D
102
{ACAD_REACTORS
330
34
102
}
330
34
100
DictionaryVariables
280
     0
  1
15
  0
DICTIONARYVAR
  5
2FB
102
{ACAD_REACTORS
330
34
102
}
330
34
100
DictionaryVariables
280
     0
  1
0
  0
DICTIONARYVAR
  5
2F9
102
{ACAD_REACTORS
330
34
102
}
330
34
100
DictionaryVariables
280
     0
  1
0
  0
DICTIONARY
  5
161B
102
{ACAD_REACTORS
330
49
102
}
330
49
100
AcDbDictionary
281
     1
  0
DICTIONARY
  5
4A
102
{ACAD_REACTORS
330
49
102
}
330
49
100
AcDbDictionary
281
     1
  0
XRECORD
  5
12B
102
{ACAD_REACTORS
330
49
102
}
330
49
100
AcDbXrecord
280
     1
 90
-1023410169
  0
DICTIONARY
  5
2F5
330
122
100
AcDbDictionary
280
     1
281
     1
  3
ACAD_ROUNDTRIP_2008_TABLESTYLE_CELLSTYLEMAP
360
676F
  0
CELLSTYLEMAP
  5
676F
102
{ACAD_REACTORS
330
2F5
102
}
330
2F5
100
AcDbCellStyleMap
 90
        3
300
CELLSTYLE
  1
TABLEFORMAT_BEGIN
 90
        5
170
     1
 91
        0
 92
    32768
 62
   257
 93
        1
300
CONTENTFORMAT
  1
CONTENTFORMAT_BEGIN
 90
        0
 91
        0
 92
      512
 93
        0
300

 40
0.0
140
1.0
 94
        5
 62
     0
340
11
144
6.0
309
CONTENTFORMAT_END
171
     1
301
MARGIN
  1
CELLMARGIN_BEGIN
 40
1.5
 40
1.5
 40
1.5
 40
1.5
 40
0.18
 40
0.18
309
CELLMARGIN_END
 94
        6
 95
        1
302
GRIDFORMAT
  1
GRIDFORMAT_BEGIN
 90
        0
 91
        1
 62
     0
 92
       -2
340
0
 93
        0
 40
0.045
309
GRIDFORMAT_END
 95
        2
302
GRIDFORMAT
  1
GRIDFORMAT_BEGIN
 90
        0
 91
        1
 62
     0
 92
       -2
340
0
 93
        0
 40
0.045
309
GRIDFORMAT_END
 95
        4
302
GRIDFORMAT
  1
GRIDFORMAT_BEGIN
 90
        0
 91
        1
 62
     0
 92
       -2
340
0
 93
        0
 40
0.045
309
GRIDFORMAT_END
 95
        8
302
GRIDFORMAT
  1
GRIDFORMAT_BEGIN
 90
        0
 91
        1
 62
     0
 92
       -2
340
0
 93
        0
 40
0.045
309
GRIDFORMAT_END
 95
       16
302
GRIDFORMAT
  1
GRIDFORMAT_BEGIN
 90
        0
 91
        1
 62
     0
 92
       -2
340
0
 93
        0
 40
0.045
309
GRIDFORMAT_END
 95
       32
302
GRIDFORMAT
  1
GRIDFORMAT_BEGIN
 90
        0
 91
        1
 62
     0
 92
       -2
340
0
 93
        0
 40
0.045
309
GRIDFORMAT_END
309
TABLEFORMAT_END
  1
CELLSTYLE_BEGIN
 90
        1
 91
        1
300
_TITLE
309
CELLSTYLE_END
300
CELLSTYLE
  1
TABLEFORMAT_BEGIN
 90
        5
170
     1
 91
        0
 92
        0
 62
   257
 93
        1
300
CONTENTFORMAT
  1
CONTENTFORMAT_BEGIN
 90
        0
 91
        0
 92
      512
 93
        0
300

 40
0.0
140
1.0
 94
        5
 62
     0
340
11
144
4.5
309
CONTENTFORMAT_END
171
     1
301
MARGIN
  1
CELLMARGIN_BEGIN
 40
1.5
 40
1.5
 40
1.5
 40
1.5
 40
0.18
 40
0.18
309
CELLMARGIN_END
 94
        6
 95
        1
302
GRIDFORMAT
  1
GRIDFORMAT_BEGIN
 90
        0
 91
        1
 62
     0
 92
       -2
340
0
 93
        0
 40
0.045
309
GRIDFORMAT_END
 95
        2
302
GRIDFORMAT
  1
GRIDFORMAT_BEGIN
 90
        0
 91
        1
 62
     0
 92
       -2
340
0
 93
        0
 40
0.045
309
GRIDFORMAT_END
 95
        4
302
GRIDFORMAT
  1
GRIDFORMAT_BEGIN
 90
        0
 91
        1
 62
     0
 92
       -2
340
0
 93
        0
 40
0.045
309
GRIDFORMAT_END
 95
        8
302
GRIDFORMAT
  1
GRIDFORMAT_BEGIN
 90
        0
 91
        1
 62
     0
 92
       -2
340
0
 93
        0
 40
0.045
309
GRIDFORMAT_END
 95
       16
302
GRIDFORMAT
  1
GRIDFORMAT_BEGIN
 90
        0
 91
        1
 62
     0
 92
       -2
340
0
 93
        0
 40
0.045
309
GRIDFORMAT_END
 95
       32
302
GRIDFORMAT
  1
GRIDFORMAT_BEGIN
 90
        0
 91
        1
 62
     0
 92
       -2
340
0
 93
        0
 40
0.045
309
GRIDFORMAT_END
309
TABLEFORMAT_END
  1
CELLSTYLE_BEGIN
 90
        2
 91
        1
300
_HEADER
309
CELLSTYLE_END
300
CELLSTYLE
  1
TABLEFORMAT_BEGIN
 90
        5
170
     1
 91
        0
 92
        0
 62
   257
 93
        1
300
CONTENTFORMAT
  1
CONTENTFORMAT_BEGIN
 90
        0
 91
        0
 92
      512
 93
        0
300

 40
0.0
140
1.0
 94
        2
 62
     0
340
11
144
4.5
309
CONTENTFORMAT_END
171
     1
301
MARGIN
  1
CELLMARGIN_BEGIN
 40
1.5
 40
1.5
 40
1.5
 40
1.5
 40
0.18
 40
0.18
309
CELLMARGIN_END
 94
        6
 95
        1
302
GRIDFORMAT
  1
GRIDFORMAT_BEGIN
 90
        0
 91
        1
 62
     0
 92
       -2
340
0
 93
        0
 40
0.045
309
GRIDFORMAT_END
 95
        2
302
GRIDFORMAT
  1
GRIDFORMAT_BEGIN
 90
        0
 91
        1
 62
     0
 92
       -2
340
0
 93
        0
 40
0.045
309
GRIDFORMAT_END
 95
        4
302
GRIDFORMAT
  1
GRIDFORMAT_BEGIN
 90
        0
 91
        1
 62
     0
 92
       -2
340
0
 93
        0
 40
0.045
309
GRIDFORMAT_END
 95
        8
302
GRIDFORMAT
  1
GRIDFORMAT_BEGIN
 90
        0
 91
        1
 62
     0
 92
       -2
340
0
 93
        0
 40
0.045
309
GRIDFORMAT_END
 95
       16
302
GRIDFORMAT
  1
GRIDFORMAT_BEGIN
 90
        0
 91
        1
 62
     0
 92
       -2
340
0
 93
        0
 40
0.045
309
GRIDFORMAT_END
 95
       32
302
GRIDFORMAT
  1
GRIDFORMAT_BEGIN
 90
        0
 91
        1
 62
     0
 92
       -2
340
0
 93
        0
 40
0.045
309
GRIDFORMAT_END
309
TABLEFORMAT_END
  1
CELLSTYLE_BEGIN
 90
        3
 91
        2
300
_DATA
309
CELLSTYLE_END
  0
ENDSEC
  0
EOF
