  0
SECTION
  2
HEADER
  9
$ACADVER
  1
AC1021
  9
$ACADMAINTVER
 70
    26
  9
$DWGCODEPAGE
  3
ANSI_932
  9
$LASTSAVEDBY
  1
Htm_Terada
  9
$CUSTOMPROPERTYTAG
  1
AmdtFileType
  9
$CUSTOMPROPERTY
  1
84
  9
$INSBASE
 10
0.0
 20
0.0
 30
0.0
  9
$EXTMIN
 10
165.9839186488821
 20
124.155579735706
 30
-0.0000000349181948
  9
$EXTMAX
 10
307.9671029914186
 20
287.8656014100016
 30
0.0000000814935747
  9
$LIMMIN
 10
-0.0000002271699202
 20
0.0
  9
$LIMMAX
 10
594.0
 20
420.0000000000001
  9
$ORTHOMODE
 70
     0
  9
$REGENMODE
 70
     1
  9
$FILLMODE
 70
     1
  9
$QTEXTMODE
 70
     0
  9
$MIRRTEXT
 70
     1
  9
$LTSCALE
 40
1.0
  9
$ATTMODE
 70
     1
  9
$TEXTSIZE
 40
25.0
  9
$TRACEWID
 40
1.0
  9
$TEXTSTYLE
  7
SEISA
  9
$CLAYER
  8
AM_0 外形線1
  9
$CELTYPE
  6
ByLayer
  9
$CECOLOR
 62
   256
  9
$CELTSCALE
 40
1.0
  9
$DISPSILH
 70
     0
  9
$DIMSCALE
 40
1.0
  9
$DIMASZ
 40
2.5
  9
$DIMEXO
 40
0.625
  9
$DIMDLI
 40
10.0
  9
$DIMRND
 40
0.0
  9
$DIMDLE
 40
0.0
  9
$DIMEXE
 40
0.625
  9
$DIMTP
 40
0.1
  9
$DIMTM
 40
0.1
  9
$DIMTXT
 40
3.5
  9
$DIMCEN
 40
0.0
  9
$DIMTSZ
 40
0.0
  9
$DIMTOL
 70
     0
  9
$DIMLIM
 70
     0
  9
$DIMTIH
 70
     0
  9
$DIMTOH
 70
     0
  9
$DIMSE1
 70
     0
  9
$DIMSE2
 70
     0
  9
$DIMTAD
 70
     3
  9
$DIMZIN
 70
     8
  9
$DIMBLK
  1
Open30
  9
$DIMASO
 70
     1
  9
$DIMSHO
 70
     1
  9
$DIMPOST
  1

  9
$DIMAPOST
  1
"
  9
$DIMALT
 70
     0
  9
$DIMALTD
 70
     2
  9
$DIMALTF
 40
0.0393701
  9
$DIMLFAC
 40
1.0
  9
$DIMTOFL
 70
     1
  9
$DIMTVP
 40
0.0
  9
$DIMTIX
 70
     0
  9
$DIMSOXD
 70
     0
  9
$DIMSAH
 70
     0
  9
$DIMBLK1
  1

  9
$DIMBLK2
  1

  9
$DIMSTYLE
  2
SEISA
  9
$DIMCLRD
 70
     3
  9
$DIMCLRE
 70
     3
  9
$DIMCLRT
 70
     3
  9
$DIMTFAC
 40
0.71
  9
$DIMGAP
 40
1.5
  9
$DIMJUST
 70
     0
  9
$DIMSD1
 70
     0
  9
$DIMSD2
 70
     0
  9
$DIMTOLJ
 70
     0
  9
$DIMTZIN
 70
     0
  9
$DIMALTZ
 70
     0
  9
$DIMALTTZ
 70
     8
  9
$DIMUPT
 70
     0
  9
$DIMDEC
 70
     2
  9
$DIMTDEC
 70
     3
  9
$DIMALTU
 70
     2
  9
$DIMALTTD
 70
     2
  9
$DIMTXSTY
  7
SEISA
  9
$DIMAUNIT
 70
     0
  9
$DIMADEC
 70
     0
  9
$DIMALTRND
 40
0.0
  9
$DIMAZIN
 70
     2
  9
$DIMDSEP
 70
    46
  9
$DIMATFIT
 70
     3
  9
$DIMFRAC
 70
     0
  9
$DIMLDRBLK
  1
Open30
  9
$DIMLUNIT
 70
     2
  9
$DIMLWD
 70
    -1
  9
$DIMLWE
 70
    -1
  9
$DIMTMOVE
 70
     0
  9
$DIMFXL
 40
1.0
  9
$DIMFXLON
 70
     0
  9
$DIMJOGANG
 40
0.7853981633974483
  9
$DIMTFILL
 70
     0
  9
$DIMTFILLCLR
 70
     0
  9
$DIMARCSYM
 70
     1
  9
$DIMLTYPE
  6

  9
$DIMLTEX1
  6

  9
$DIMLTEX2
  6

  9
$LUNITS
 70
     2
  9
$LUPREC
 70
     2
  9
$SKETCHINC
 40
1.0
  9
$FILLETRAD
 40
0.25
  9
$AUNITS
 70
     0
  9
$AUPREC
 70
     0
  9
$MENU
  1
.
  9
$ELEVATION
 40
0.0
  9
$PELEVATION
 40
0.0
  9
$THICKNESS
 40
0.0
  9
$LIMCHECK
 70
     0
  9
$CHAMFERA
 40
1.000000000000026
  9
$CHAMFERB
 40
1.000000000000085
  9
$CHAMFERC
 40
1.000000000000026
  9
$CHAMFERD
 40
0.7853981633974483
  9
$SKPOLY
 70
     0
  9
$TDCREATE
 40
2454959.395739468
  9
$TDUCREATE
 40
2454959.020739468
  9
$TDUPDATE
 40
2456479.577495290
  9
$TDUUPDATE
 40
2456479.202495290
  9
$TDINDWG
 40
0.3119080324
  9
$TDUSRTIMER
 40
0.3119065856
  9
$USRTIMER
 70
     1
  9
$ANGBASE
 50
0.0
  9
$ANGDIR
 70
     0
  9
$PDMODE
 70
     0
  9
$PDSIZE
 40
0.0
  9
$PLINEWID
 40
0.0
  9
$SPLFRAME
 70
     0
  9
$SPLINETYPE
 70
     6
  9
$SPLINESEGS
 70
     8
  9
$HANDSEED
  5
7219
  9
$SURFTAB1
 70
     6
  9
$SURFTAB2
 70
     6
  9
$SURFTYPE
 70
     6
  9
$SURFU
 70
     6
  9
$SURFV
 70
     6
  9
$UCSBASE
  2

  9
$UCSNAME
  2

  9
$UCSORG
 10
0.0
 20
0.0
 30
0.0
  9
$UCSXDIR
 10
1.0
 20
0.0
 30
0.0
  9
$UCSYDIR
 10
0.0
 20
1.0
 30
0.0
  9
$UCSORTHOREF
  2

  9
$UCSORTHOVIEW
 70
     0
  9
$UCSORGTOP
 10
0.0
 20
0.0
 30
0.0
  9
$UCSORGBOTTOM
 10
0.0
 20
0.0
 30
0.0
  9
$UCSORGLEFT
 10
0.0
 20
0.0
 30
0.0
  9
$UCSORGRIGHT
 10
0.0
 20
0.0
 30
0.0
  9
$UCSORGFRONT
 10
0.0
 20
0.0
 30
0.0
  9
$UCSORGBACK
 10
0.0
 20
0.0
 30
0.0
  9
$PUCSBASE
  2

  9
$PUCSNAME
  2

  9
$PUCSORG
 10
0.0
 20
0.0
 30
0.0
  9
$PUCSXDIR
 10
1.0
 20
0.0
 30
0.0
  9
$PUCSYDIR
 10
0.0
 20
1.0
 30
0.0
  9
$PUCSORTHOREF
  2

  9
$PUCSORTHOVIEW
 70
     0
  9
$PUCSORGTOP
 10
0.0
 20
0.0
 30
0.0
  9
$PUCSORGBOTTOM
 10
0.0
 20
0.0
 30
0.0
  9
$PUCSORGLEFT
 10
0.0
 20
0.0
 30
0.0
  9
$PUCSORGRIGHT
 10
0.0
 20
0.0
 30
0.0
  9
$PUCSORGFRONT
 10
0.0
 20
0.0
 30
0.0
  9
$PUCSORGBACK
 10
0.0
 20
0.0
 30
0.0
  9
$USERI1
 70
     0
  9
$USERI2
 70
     0
  9
$USERI3
 70
     0
  9
$USERI4
 70
     0
  9
$USERI5
 70
     0
  9
$USERR1
 40
0.0
  9
$USERR2
 40
0.0
  9
$USERR3
 40
0.0
  9
$USERR4
 40
0.0
  9
$USERR5
 40
0.0
  9
$WORLDVIEW
 70
     1
  9
$SHADEDGE
 70
     3
  9
$SHADEDIF
 70
    70
  9
$TILEMODE
 70
     1
  9
$MAXACTVP
 70
    64
  9
$PINSBASE
 10
0.0
 20
0.0
 30
0.0
  9
$PLIMCHECK
 70
     0
  9
$PEXTMIN
 10
1.000000000000000E+20
 20
1.000000000000000E+20
 30
1.000000000000000E+20
  9
$PEXTMAX
 10
-1.000000000000000E+20
 20
-1.000000000000000E+20
 30
-1.000000000000000E+20
  9
$PLIMMIN
 10
0.0
 20
0.0
  9
$PLIMMAX
 10
420.0
 20
297.0
  9
$UNITMODE
 70
     0
  9
$VISRETAIN
 70
     1
  9
$PLINEGEN
 70
     0
  9
$PSLTSCALE
 70
     1
  9
$TREEDEPTH
 70
  3020
  9
$CMLSTYLE
  2
Standard
  9
$CMLJUST
 70
     0
  9
$CMLSCALE
 40
20.0
  9
$PROXYGRAPHICS
 70
     1
  9
$MEASUREMENT
 70
     1
  9
$CELWEIGHT
370
    -1
  9
$ENDCAPS
280
     0
  9
$JOINSTYLE
280
     0
  9
$LWDISPLAY
290
     0
  9
$INSUNITS
 70
     4
  9
$HYPERLINKBASE
  1

  9
$STYLESHEET
  1
SEISA.ctb
  9
$XEDIT
290
     1
  9
$CEPSNTYPE
380
     0
  9
$PSTYLEMODE
290
     1
  9
$FINGERPRINTGUID
  2
{F97D7883-D870-49C0-8725-381449310C3B}
  9
$VERSIONGUID
  2
{90839D97-3C54-46F7-9269-AEEAF2B2E5E9}
  9
$EXTNAMES
290
     1
  9
$PSVPSCALE
 40
0.0
  9
$OLESTARTUP
290
     0
  9
$SORTENTS
280
   127
  9
$INDEXCTL
280
     0
  9
$HIDETEXT
280
     0
  9
$XCLIPFRAME
290
     0
  9
$HALOGAP
280
     0
  9
$OBSCOLOR
 70
   257
  9
$OBSLTYPE
280
     0
  9
$INTERSECTIONDISPLAY
280
     0
  9
$INTERSECTIONCOLOR
 70
   257
  9
$DIMASSOC
280
     2
  9
$PROJECTNAME
  1

  9
$CAMERADISPLAY
290
     0
  9
$LENSLENGTH
 40
50.0
  9
$CAMERAHEIGHT
 40
0.0
  9
$STEPSPERSEC
 40
2.0
  9
$STEPSIZE
 40
6.0
  9
$3DDWFPREC
 40
2.0
  9
$PSOLWIDTH
 40
0.25
  9
$PSOLHEIGHT
 40
4.0
  9
$LOFTANG1
 40
1.570796326794896
  9
$LOFTANG2
 40
1.570796326794896
  9
$LOFTMAG1
 40
0.0
  9
$LOFTMAG2
 40
0.0
  9
$LOFTPARAM
 70
     7
  9
$LOFTNORMALS
280
     1
  9
$LATITUDE
 40
37.795
  9
$LONGITUDE
 40
-122.394
  9
$NORTHDIRECTION
 40
0.0
  9
$TIMEZONE
 70
 -8000
  9
$LIGHTGLYPHDISPLAY
280
     1
  9
$TILEMODELIGHTSYNCH
280
     1
  9
$CMATERIAL
347
27C
  9
$SOLIDHIST
280
     1
  9
$SHOWHIST
280
     1
  9
$DWFFRAME
280
     2
  9
$DGNFRAME
280
     0
  9
$REALWORLDSCALE
290
     1
  9
$INTERFERECOLOR
 62
     1
  9
$INTERFEREOBJVS
345
289
  9
$INTERFEREVPVS
346
286
  9
$CSHADOW
280
     0
  9
$SHADOWPLANELOCATION
 40
0.0
  0
ENDSEC
  0
SECTION
  2
CLASSES
  0
CLASS
  1
ACDBDICTIONARYWDFLT
  2
AcDbDictionaryWithDefault
  3
ObjectDBX Classes
 90
        0
 91
        1
280
     0
281
     0
  0
CLASS
  1
AMGSETTINGSOBJ
  2
AmgSettingsObj
  3
"AcadM|Product Description: AutoCAD Mechanical|Company: Autodesk, Inc."
 90
     1024
 91
        2
280
     0
281
     0
  0
CLASS
  1
ACME_DOCUMENT
  2
AcMeDbDoc
  3
AcMeServices
 90
     1024
 91
        1
280
     0
281
     0
  0
CLASS
  1
ACMESCOPE
  2
AcMeScope
  3
AcMeServices
 90
     1024
 91
        1
280
     0
281
     0
  0
CLASS
  1
ACMECOMMANDHISTORY
  2
AcMeCommandHistory
  3
AcMeServices
 90
     1024
 91
        1
280
     0
281
     0
  0
CLASS
  1
DICTIONARYVAR
  2
AcDbDictionaryVar
  3
ObjectDBX Classes
 90
        0
 91
        9
280
     0
281
     0
  0
CLASS
  1
ACIMSYSVARMAN
  2
AcImSysVarManager
  3
AcMeServices
 90
     1024
 91
        5
280
     0
281
     0
  0
CLASS
  1
ACIMREALSYSVAR
  2
AcImRealSysVar
  3
AcMeServices
 90
     1024
 91
        1
280
     0
281
     0
  0
CLASS
  1
ACIMINTSYSVAR
  2
AcImIntSysVar
  3
AcMeServices
 90
     1024
 91
       27
280
     0
281
     0
  0
CLASS
  1
ACMEDRAWINGMAN
  2
AcMeDrawingMan
  3
AcMeServices
 90
     1024
 91
        1
280
     0
281
     0
  0
CLASS
  1
ACMEVIEW
  2
AcMeView
  3
AcMeServices
 90
     1024
 91
        1
280
     0
281
     0
  0
CLASS
  1
ACDBENTITYCACHE
  2
AcMeEntityCache
  3
AcMeServices
 90
     1024
 91
        1
280
     0
281
     0
  0
CLASS
  1
GSMANAGER
  2
AcMeGSManager
  3
AcMeServices
 90
     1024
 91
        1
280
     0
281
     0
  0
CLASS
  1
AMDTINTERNALREACTOR
  2
AmdtInternalReactor
  3
AcMeServices
 90
     1024
 91
        2
280
     0
281
     0
  0
CLASS
  1
ACMESTATEMGR
  2
AcMeStateMgr
  3
AcMeServices
 90
     1024
 91
        1
280
     0
281
     0
  0
CLASS
  1
ACGREFMASTER
  2
AcGrefMaster
  3
AcAttribServices
 90
     1024
 91
        1
280
     0
281
     0
  0
CLASS
  1
ACME_DATABASE
  2
AcMeDbDatabase
  3
AcMeServices
 90
     1024
 91
        1
280
     0
281
     0
  0
CLASS
  1
ACRFINSADJUSTERMGR
  2
AcRfInsAdjusterMgr
  3
AcMeServices
 90
     1024
 91
        1
280
     0
281
     0
  0
CLASS
  1
ACGREFACADMASTER
  2
AcGrefacadMaster
  3
AcGrefServices
 90
     1024
 91
        1
280
     0
281
     0
  0
CLASS
  1
AMIMASTER
  2
AmiMaster
  3
AmiServices
 90
     1024
 91
        1
280
     0
281
     0
  0
CLASS
  1
ACIMSTRSYSVAR
  2
AcImStrSysVar
  3
AcMeServices
 90
     1024
 91
        5
280
     0
281
     0
  0
CLASS
  1
ACMSTANDARDJIS
  2
AcmStandardJIS
  3
"Amdt_StdImp|Product Description: AutoCAD Mechanical|Company: Autodesk, Inc."
 90
     1024
 91
        0
280
     0
281
     0
  0
CLASS
  1
AMGOBJPROPCFG
  2
AmgObjPropCfg
  3
"AmgLay|Product Description: AutoCAD Mechanical|Company: Autodesk, Inc."
 90
     1025
 91
        1
280
     0
281
     0
  0
CLASS
  1
ACMSURFSTANDARDJIS
  2
AcmSurfTextStdJIS
  3
"Amdt_StdImp|Product Description: AutoCAD Mechanical|Company: Autodesk, Inc."
 90
     1024
 91
        0
280
     0
281
     0
  0
CLASS
  1
ACMFCFSTANDARDJIS
  2
AcmFCFStdJIS
  3
"Amdt_StdImp|Product Description: AutoCAD Mechanical|Company: Autodesk, Inc."
 90
     1024
 91
        0
280
     0
281
     0
  0
CLASS
  1
ACMWELDSTANDARDJIS
  2
AcmWeldingStdJIS
  3
"Amdt_StdImp|Product Description: AutoCAD Mechanical|Company: Autodesk, Inc."
 90
     1024
 91
        0
280
     0
281
     0
  0
CLASS
  1
ACMIDSTANDARDJIS
  2
AcmIdStdJIS
  3
"Amdt_StdImp|Product Description: AutoCAD Mechanical|Company: Autodesk, Inc."
 90
     1024
 91
        0
280
     0
281
     0
  0
CLASS
  1
ACMDATUMSTANDARDJIS
  2
AcmDatumStdJIS
  3
"Amdt_StdImp|Product Description: AutoCAD Mechanical|Company: Autodesk, Inc."
 90
     1024
 91
        0
280
     0
281
     0
  0
CLASS
  1
ACMBOMSTANDARDJIS
  2
AcmBOMStdJIS
  3
"Amdt_StdImp|Product Description: AutoCAD Mechanical|Company: Autodesk, Inc."
 90
     1024
 91
        0
280
     0
281
     0
  0
CLASS
  1
ACMDETAILSTANDARDJIS
  2
AmdtDetailSymStdJIS
  3
"Amdt_StdImp|Product Description: AutoCAD Mechanical|Company: Autodesk, Inc."
 90
     1024
 91
        0
280
     0
281
     0
  0
CLASS
  1
ACMSECTIONSTANDARDJIS
  2
AmdtSectionSymStdJIS
  3
"Amdt_StdImp|Product Description: AutoCAD Mechanical|Company: Autodesk, Inc."
 90
     1024
 91
        0
280
     0
281
     0
  0
CLASS
  1
ACMCENTERLINESTANDARDJIS
  2
AmdtCenterLineStdJIS
  3
"Amdt_StdImp|Product Description: AutoCAD Mechanical|Company: Autodesk, Inc."
 90
     1024
 91
        0
280
     0
281
     0
  0
CLASS
  1
ACMTHREADLINESTANDARDJIS
  2
AmdtThreadLineStdJIS
  3
"Amdt_StdImp|Product Description: AutoCAD Mechanical|Company: Autodesk, Inc."
 90
     1024
 91
        0
280
     0
281
     0
  0
CLASS
  1
ACAMGLAYSTD
  2
AcAmgLayStd
  3
"AmgLay|Product Description: AutoCAD Mechanical|Company: Autodesk, Inc."
 90
     1024
 91
        1
280
     0
281
     0
  0
CLASS
  1
ACAMGDIMSTD
  2
AcAmgDimStd
  3
"AmgDim|Product Description: AutoCAD Mechanical|Company: Autodesk, Inc."
 90
     1024
 91
        1
280
     0
281
     0
  0
CLASS
  1
ACAMGTITLESTD
  2
AcAmgTitleStd
  3
"AmgTitle|Product Description: AutoCAD Mechanical|Company: Autodesk, Inc."
 90
     4095
 91
        1
280
     0
281
     0
  0
CLASS
  1
ACMDATADICTIONARY
  2
AcmDataDictionary
  3
"AcmSymBB|Product Description: AutoCAD Mechanical|Company: Autodesk, Inc."
 90
     1024
 91
        1
280
     0
281
     0
  0
CLASS
  1
ACMDATAENTRYBLOCK
  2
AcmDataEntryBlock
  3
AcmSymBB|Product Description: AutoCAD Mechanical|Company: Autodesk, Inc.
 90
     1024
 91
        0
280
     0
281
     0
  0
CLASS
  1
LAYER_INDEX
  2
AcDbLayerIndex
  3
ObjectDBX Classes
 90
        0
 91
        0
280
     0
281
     0
  0
CLASS
  1
IDBUFFER
  2
AcDbIdBuffer
  3
ObjectDBX Classes
 90
        0
 91
        0
280
     0
281
     0
  0
CLASS
  1
ACMNOTESTANDARDJIS
  2
AmdtNoteStdJIS
  3
"Amdt_StdImp|Product Description: AutoCAD Mechanical|Company: Autodesk, Inc."
 90
     1024
 91
        0
280
     0
281
     0
  0
CLASS
  1
ACAMGHOLECHARTSTDJIS
  2
AcAmgHoleChartStdJIS
  3
AmgDim|Product Description: AutoCAD Mechanical|Company: Autodesk, Inc.
 90
     1024
 91
        0
280
     0
281
     0
  0
CLASS
  1
AM_DRAWING_MGR
  2
AcDmDwgMgr
  3
AcMechDwgViewMgmt
 90
     1024
 91
        1
280
     0
281
     0
  0
CLASS
  1
AM_DWG_DOCUMENT
  2
AcDmDwgDocument
  3
AcMechDwgViewMgmt
 90
     1024
 91
        1
280
     0
281
     0
  0
CLASS
  1
AM_DWG_SHEET
  2
AcDmSheet
  3
AcMechDwgViewMgmt
 90
     1024
 91
        2
280
     0
281
     0
  0
CLASS
  1
AM_VIEWDIMPARMAP
  2
AcDmViewDimParMap
  3
AcMechDwgViewMgmt
 90
     1024
 91
        2
280
     0
281
     0
  0
CLASS
  1
AM_DWGMGR_NAME
  2
AcDmDwgMgrName
  3
AcMechDwgViewMgmt
 90
     1024
 91
        1
280
     0
281
     0
  0
CLASS
  1
AMDTMENUSTATEMGR
  2
AmdtMenuStateMgr
  3
McadcomServices
 90
     1024
 91
        1
280
     0
281
     0
  0
CLASS
  1
AMDTMCOMMENUSTATE
  2
AmdtMcomMenuState
  3
McadcomServices
 90
     1024
 91
        1
280
     0
281
     0
  0
CLASS
  1
MAPIAMMOUDLE
  2
MApiAmModule
  3
MApiAmServices
 90
     1024
 91
        1
280
     0
281
     0
  0
CLASS
  1
AMDTADMENUSTATE
  2
AmdtAdMenuState
  3
DesignerServices
 90
     1024
 91
        1
280
     0
281
     0
  0
CLASS
  1
ADAPPL
  2
AcAdAppl
  3
DesignerServices
 90
     1024
 91
        1
280
     0
281
     0
  0
CLASS
  1
DEPMGR
  2
AcAdDepMgr
  3
DesignerServices
 90
     1024
 91
        1
280
     0
281
     0
  0
CLASS
  1
PARAMMGR
  2
AcAdParamMgr
  3
DesignerServices
 90
     1024
 91
        1
280
     0
281
     0
  0
CLASS
  1
PARAMSCOPE
  2
AcAdParamScope
  3
DesignerServices
 90
     1024
 91
        1
280
     0
281
     0
  0
CLASS
  1
NAMEDAPPL
  2
AcAdNamedAppl
  3
DesignerServices
 90
     1024
 91
        1
280
     0
281
     0
  0
CLASS
  1
AMDTDMMENUSTATE
  2
AmdtDmMenuState
  3
AcMechDwgViewMgmt
 90
     1024
 91
        1
280
     0
281
     0
  0
CLASS
  1
AMDTAMMENUSTATE
  2
AmdtAmMenuState
  3
DesignerAssemblies
 90
     1024
 91
        1
280
     0
281
     0
  0
CLASS
  1
ACAMPROJECT
  2
AcAmProject
  3
DesignerAssemblies
 90
     1024
 91
        1
280
     0
281
     0
  0
CLASS
  1
ACAMGRCOMPDEF
  2
AcAmGrCompDef
  3
DesignerAssemblies
 90
     1024
 91
        1
280
     0
281
     0
  0
CLASS
  1
ACCMCONTEXT
  2
AcCmContext
  3
DesignerAssemblies
 90
     1024
 91
        1
280
     0
281
     0
  0
CLASS
  1
ACAMCOMPDEF
  2
AcAmCompDef
  3
DesignerAssemblies
 90
     1024
 91
        1
280
     0
281
     0
  0
CLASS
  1
ACAMCOMPDEFMGR
  2
AcAmCompDefMgr
  3
DesignerAssemblies
 90
     1024
 91
        1
280
     0
281
     0
  0
CLASS
  1
AMCONTEXTMGR
  2
AcAmContextMgr
  3
DesignerAssemblies
 90
     1024
 91
        1
280
     0
281
     0
  0
CLASS
  1
ACAMCONTEXTMODELER
  2
AcAmContextModeler
  3
DesignerAssemblies
 90
     1024
 91
        1
280
     0
281
     0
  0
CLASS
  1
CATALOGSTATE
  2
AcAmCatalogState
  3
DesignerAssemblies
 90
     1024
 91
        1
280
     0
281
     0
  0
CLASS
  1
ACAMGRCOMPDEFSET
  2
AcAmGrCompDefSet
  3
DesignerAssemblies
 90
     1024
 91
        1
280
     0
281
     0
  0
CLASS
  1
AMDTBROWSERDBTAB
  2
AmdtBrowserDbTab
  3
McadcomServices
 90
     1024
 91
        1
280
     0
281
     0
  0
CLASS
  1
CBROWSERAPPOBJECT
  2
CBrowserAppObject
  3
McadcomServices
 90
     1024
 91
        3
280
     0
281
     0
  0
CLASS
  1
DM_PLACEHOLDER
  2
AcDmSelsetPlaceholder
  3
AcMechDwgViewMgmt
 90
     1024
 91
        1
280
     0
281
     0
  0
CLASS
  1
TABLESTYLE
  2
AcDbTableStyle
  3
ObjectDBX Classes
 90
     4095
 91
        1
280
     0
281
     0
  0
CLASS
  1
VAACXREFPANELOBJECT
  2
VaAcXREFPanelObject
  3
VAAC_ADDIN
 90
        0
 91
        0
280
     0
281
     0
  0
CLASS
  1
VAACIMAGEINVENTORY
  2
VaAcImageInventory
  3
VAAC_ADDIN
 90
        0
 91
        0
280
     0
281
     0
  0
CLASS
  1
AMDTNOTETEMPLATEDB
  2
AmdtNoteTemplateDB
  3
AcmSymBB|Product Description: AutoCAD Mechanical|Company: Autodesk, Inc.
 90
     1024
 91
        6
280
     0
281
     0
  0
CLASS
  1
ACAMGFILTERDAT
  2
AcAmgFilterDat
  3
"AcadM|Product Description: AutoCAD Mechanical|Company: Autodesk, Inc."
 90
     1024
 91
        0
280
     0
281
     0
  0
CLASS
  1
MATERIAL
  2
AcDbMaterial
  3
ObjectDBX Classes
 90
     1153
 91
        3
280
     0
281
     0
  0
CLASS
  1
VISUALSTYLE
  2
AcDbVisualStyle
  3
ObjectDBX Classes
 90
     4095
 91
       16
280
     0
281
     0
  0
CLASS
  1
ACRFATTGENMGR
  2
AcRfAttGeneralMgr
  3
AcAttribServices
 90
     1024
 91
        0
280
     0
281
     0
  0
CLASS
  1
ACRFOBJATTMGR
  2
AcRfObjAttGroupMgr
  3
AcAttribServices
 90
     1024
 91
        0
280
     0
281
     0
  0
CLASS
  1
ACRFMCADAPIATTHOLDER
  2
AcRfMCADAPIAttHolder
  3
AcAttribServices
 90
     1024
 91
        0
280
     0
281
     0
  0
CLASS
  1
AMDTSYSATTR
  2
AmdtSystemAttribute
  3
AcAttribServices
 90
     1024
 91
        0
280
     0
281
     0
  0
CLASS
  1
ACMTAPERSTANDARDJIS
  2
AcmTaperStdJIS
  3
"Amdt_StdImp|Product Description: AutoCAD Mechanical|Company: Autodesk, Inc."
 90
     1024
 91
        0
280
     0
281
     0
  0
CLASS
  1
CAMSSTRUCTBTNSTATE
  2
StructBtnState
  3
DesignerAssemblies
 90
     1024
 91
        0
280
     0
281
     0
  0
CLASS
  1
SCALE
  2
AcDbScale
  3
ObjectDBX Classes
 90
     1153
 91
       34
280
     0
281
     0
  0
CLASS
  1
MLEADERSTYLE
  2
AcDbMLeaderStyle
  3
ACDB_MLEADERSTYLE_CLASS
 90
     4095
 91
        1
280
     0
281
     0
  0
CLASS
  1
ACMANOOTATIONVIEWSTANDARDJIS
  2
AmdtAnViewStdJIS
  3
"Amdt_StdImp|Product Description: AutoCAD Mechanical|Company: Autodesk, Inc."
 90
     1024
 91
        0
280
     0
281
     0
  0
CLASS
  1
ACMSURFSTANDARDJIS2003
  2
AcmSurfTextStdJIS2003
  3
"Amdt_StdImp|Product Description: AutoCAD Mechanical|Company: Autodesk, Inc."
 90
     1024
 91
        0
280
     0
281
     0
  0
CLASS
  1
CELLSTYLEMAP
  2
AcDbCellStyleMap
  3
ObjectDBX Classes
 90
     1152
 91
        2
280
     0
281
     0
  0
CLASS
  1
ACMFCFSTANDARDJIS98
  2
AcmFCFStdJIS98
  3
"Amdt_StdImp|Product Description: AutoCAD Mechanical|Company: Autodesk, Inc."
 90
     1024
 91
        0
280
     0
281
     0
  0
CLASS
  1
SORTENTSTABLE
  2
AcDbSortentsTable
  3
ObjectDBX Classes
 90
        0
 91
        8
280
     0
281
     0
  0
CLASS
  1
DIMASSOC
  2
AcDbDimAssoc
  3
"AcDbDimAssoc|Product Desc:     AcDim ARX App For Dimension|Company:          Autodesk, Inc.|WEB Address:      www.autodesk.com"
 90
        0
 91
       14
280
     0
281
     0
  0
CLASS
  1
STDPART2D
  2
AmgStdPart
  3
AmgStdPart|Product Description: AutoCAD Mechanical|Company: Autodesk, Inc.
 90
     4095
 91
        0
280
     0
281
     1
  0
CLASS
  1
ACMDATAENTRYPART
  2
AcmDataEntryPart
  3
AcmSymBB|Product Description: AutoCAD Mechanical|Company: Autodesk, Inc.
 90
     1024
 91
        0
280
     0
281
     0
  0
CLASS
  1
ACMPARTREF
  2
AcmPartRef
  3
"AcmSymBB|Product Description: AutoCAD Mechanical|Company: Autodesk, Inc."
 90
     4095
 91
        0
280
     0
281
     1
  0
CLASS
  1
ACDBSTDPARTRES_LINE
  2
AcDbStdPartRes_Line
  3
AmgStdPart|Product Description: AutoCAD Mechanical|Company: Autodesk, Inc.
 90
     1024
 91
        0
280
     0
281
     0
  0
CLASS
  1
ACMBOM
  2
AcmBom
  3
"AcmSymBB|Product Description: AutoCAD Mechanical|Company: Autodesk, Inc."
 90
     1024
 91
        0
280
     0
281
     0
  0
CLASS
  1
AMDTFORMULAUPDATEDISPATCHER
  2
AmdtFormulaUpdateDispatcher
  3
AcMeServices
 90
     1024
 91
        0
280
     0
281
     0
  0
CLASS
  1
ACMBOMROW
  2
AcmBomRow
  3
"AcmSymBB|Product Description: AutoCAD Mechanical|Company: Autodesk, Inc."
 90
     1024
 91
        0
280
     0
281
     0
  0
CLASS
  1
ACMPARTLIST
  2
AcmPartList
  3
"AcmSymBB|Product Description: AutoCAD Mechanical|Company: Autodesk, Inc."
 90
     4095
 91
        0
280
     0
281
     1
  0
CLASS
  1
ACDBLINERES
  2
AcDbLineRes
  3
AcGrefServices
 90
     1024
 91
        0
280
     0
281
     0
  0
CLASS
  1
ACRFINSADJ
  2
AcRfInsAdjuster
  3
AcMeServices
 90
     1024
 91
        0
280
     0
281
     0
  0
CLASS
  1
ACMSTANDARDISO
  2
AcmStandardISO
  3
"Amdt_StdImp|Product Description: AutoCAD Mechanical|Company: Autodesk, Inc."
 90
     1024
 91
        1
280
     0
281
     0
  0
CLASS
  1
AMDTEDGESTANDARDISO13715
  2
AmdtEdgeStdISO13715
  3
"Amdt_StdImp|Product Description: AutoCAD Mechanical|Company: Autodesk, Inc."
 90
     1024
 91
        1
280
     0
281
     0
  0
CLASS
  1
ACMSURFSTANDARDISO2002
  2
AcmSurfTextStdISO2002
  3
"Amdt_StdImp|Product Description: AutoCAD Mechanical|Company: Autodesk, Inc."
 90
     1024
 91
        1
280
     0
281
     0
  0
CLASS
  1
ACMFCFSTANDARDISO
  2
AcmFCFStdISO
  3
"Amdt_StdImp|Product Description: AutoCAD Mechanical|Company: Autodesk, Inc."
 90
     1024
 91
        1
280
     0
281
     0
  0
CLASS
  1
ACMWELDSTANDARDISO
  2
AcmWeldingStdISO
  3
"Amdt_StdImp|Product Description: AutoCAD Mechanical|Company: Autodesk, Inc."
 90
     1024
 91
        1
280
     0
281
     0
  0
CLASS
  1
ACMIDSTANDARDISO
  2
AcmIdStdISO
  3
"Amdt_StdImp|Product Description: AutoCAD Mechanical|Company: Autodesk, Inc."
 90
     1024
 91
        1
280
     0
281
     0
  0
CLASS
  1
ACMDATUMSTANDARDISO
  2
AcmDatumStdISO
  3
"Amdt_StdImp|Product Description: AutoCAD Mechanical|Company: Autodesk, Inc."
 90
     1024
 91
        1
280
     0
281
     0
  0
CLASS
  1
ACMBOMSTANDARDISO
  2
AcmBOMStdISO
  3
"Amdt_StdImp|Product Description: AutoCAD Mechanical|Company: Autodesk, Inc."
 90
     1024
 91
        1
280
     0
281
     0
  0
CLASS
  1
ACMDETAILSTANDARDISO
  2
AmdtDetailSymStdISO
  3
"Amdt_StdImp|Product Description: AutoCAD Mechanical|Company: Autodesk, Inc."
 90
     1024
 91
        1
280
     0
281
     0
  0
CLASS
  1
ACMSECTIONSTANDARDISO2001
  2
AmdtSectionSymStdISO2001
  3
"Amdt_StdImp|Product Description: AutoCAD Mechanical|Company: Autodesk, Inc."
 90
     1024
 91
        1
280
     0
281
     0
  0
CLASS
  1
ACMCENTERLINESTANDARDISO
  2
AmdtCenterLineStdISO
  3
"Amdt_StdImp|Product Description: AutoCAD Mechanical|Company: Autodesk, Inc."
 90
     1024
 91
        1
280
     0
281
     0
  0
CLASS
  1
ACMTHREADLINESTANDARDISO
  2
AmdtThreadLineStdISO
  3
"Amdt_StdImp|Product Description: AutoCAD Mechanical|Company: Autodesk, Inc."
 90
     1024
 91
        1
280
     0
281
     0
  0
CLASS
  1
ACMNOTESTANDARDISO
  2
AmdtNoteStdISO
  3
"Amdt_StdImp|Product Description: AutoCAD Mechanical|Company: Autodesk, Inc."
 90
     1024
 91
        1
280
     0
281
     0
  0
CLASS
  1
ACMTAPERSTANDARDISO
  2
AcmTaperStdISO
  3
"Amdt_StdImp|Product Description: AutoCAD Mechanical|Company: Autodesk, Inc."
 90
     1024
 91
        1
280
     0
281
     0
  0
CLASS
  1
ACMANOOTATIONVIEWSTANDARDISO
  2
AmdtAnViewStdISO
  3
"Amdt_StdImp|Product Description: AutoCAD Mechanical|Company: Autodesk, Inc."
 90
     1024
 91
        1
280
     0
281
     0
  0
CLASS
  1
ACAMGHOLECHARTSTDISO
  2
AcAmgHoleChartStdISO
  3
AmgDim|Product Description: AutoCAD Mechanical|Company: Autodesk, Inc.
 90
     1024
 91
        1
280
     0
281
     0
  0
CLASS
  1
EXACXREFPANELOBJECT
  2
ExAcXREFPanelObject
  3
EXAC_ESW
 90
     1025
 91
        0
280
     0
281
     0
  0
CLASS
  1
NPOCOLLECTION
  2
AcDbImpNonPersistentObjectsCollection
  3
ObjectDBX Classes
 90
     1153
 91
        0
280
     0
281
     0
  0
CLASS
  1
ACDBSTDPARTRES_ARC
  2
AcDbStdPartRes_Arc
  3
AmgStdPart|Product Description: AutoCAD Mechanical|Company: Autodesk, Inc.
 90
     1024
 91
        0
280
     0
281
     0
  0
CLASS
  1
AMDTNOTE
  2
AmdtNote
  3
"AcmSymBB|Product Description: AutoCAD Mechanical|Company: Autodesk, Inc."
 90
     4095
 91
        0
280
     0
281
     1
  0
CLASS
  1
PLOTSETTINGS
  2
AcDbPlotSettings
  3
ObjectDBX Classes
 90
        0
 91
        1
280
     0
281
     0
  0
CLASS
  1
ACMSTANDARDANSI
  2
AcmStandardANSI
  3
"Amdt_StdImp|Product Description: AutoCAD Mechanical|Company: Autodesk, Inc."
 90
     1024
 91
        0
280
     0
281
     0
  0
CLASS
  1
ACMSURFSTANDARDANSI
  2
AcmSurfTextStdANSI
  3
"Amdt_StdImp|Product Description: AutoCAD Mechanical|Company: Autodesk, Inc."
 90
     1024
 91
        0
280
     0
281
     0
  0
CLASS
  1
ACMFCFSTANDARDANSI
  2
AcmFCFStdANSI
  3
"Amdt_StdImp|Product Description: AutoCAD Mechanical|Company: Autodesk, Inc."
 90
     1024
 91
        0
280
     0
281
     0
  0
CLASS
  1
ACMWELDSTANDARDANSI
  2
AcmWeldingStdANSI
  3
"Amdt_StdImp|Product Description: AutoCAD Mechanical|Company: Autodesk, Inc."
 90
     1024
 91
        0
280
     0
281
     0
  0
CLASS
  1
ACMIDSTANDARDANSI
  2
AcmIdStdANSI
  3
"Amdt_StdImp|Product Description: AutoCAD Mechanical|Company: Autodesk, Inc."
 90
     1024
 91
        0
280
     0
281
     0
  0
CLASS
  1
ACMDATUMSTANDARDANSI
  2
AcmDatumStdANSI
  3
"Amdt_StdImp|Product Description: AutoCAD Mechanical|Company: Autodesk, Inc."
 90
     1024
 91
        0
280
     0
281
     0
  0
CLASS
  1
ACMBOMSTANDARDANSI
  2
AcmBOMStdANSI
  3
"Amdt_StdImp|Product Description: AutoCAD Mechanical|Company: Autodesk, Inc."
 90
     1024
 91
        0
280
     0
281
     0
  0
CLASS
  1
ACMDETAILSTANDARDANSI
  2
AmdtDetailSymStdANSI
  3
"Amdt_StdImp|Product Description: AutoCAD Mechanical|Company: Autodesk, Inc."
 90
     1024
 91
        0
280
     0
281
     0
  0
CLASS
  1
ACMSECTIONSTANDARDANSI
  2
AmdtSectionSymStdANSI
  3
"Amdt_StdImp|Product Description: AutoCAD Mechanical|Company: Autodesk, Inc."
 90
     1024
 91
        0
280
     0
281
     0
  0
CLASS
  1
ACMCENTERLINESTANDARDANSI
  2
AmdtCenterLineStdANSI
  3
"Amdt_StdImp|Product Description: AutoCAD Mechanical|Company: Autodesk, Inc."
 90
     1024
 91
        0
280
     0
281
     0
  0
CLASS
  1
ACMTHREADLINESTANDARDANSI
  2
AmdtThreadLineStdANSI
  3
"Amdt_StdImp|Product Description: AutoCAD Mechanical|Company: Autodesk, Inc."
 90
     1024
 91
        0
280
     0
281
     0
  0
CLASS
  1
ACMNOTESTANDARDANSI
  2
AmdtNoteStdANSI
  3
"Amdt_StdImp|Product Description: AutoCAD Mechanical|Company: Autodesk, Inc."
 90
     1024
 91
        0
280
     0
281
     0
  0
CLASS
  1
ACMTAPERSTANDARDANSI
  2
AcmTaperStdANSI
  3
"Amdt_StdImp|Product Description: AutoCAD Mechanical|Company: Autodesk, Inc."
 90
     1024
 91
        0
280
     0
281
     0
  0
CLASS
  1
ACMANOOTATIONVIEWSTANDARDANSI
  2
AmdtAnViewStdANSI
  3
"Amdt_StdImp|Product Description: AutoCAD Mechanical|Company: Autodesk, Inc."
 90
     1024
 91
        0
280
     0
281
     0
  0
CLASS
  1
ACAMGHOLECHARTSTDANSI
  2
AcAmgHoleChartStdANSI
  3
AmgDim|Product Description: AutoCAD Mechanical|Company: Autodesk, Inc.
 90
     1024
 91
        0
280
     0
281
     0
  0
CLASS
  1
ACMSTANDARDBSI
  2
AcmStandardBSI
  3
"Amdt_StdImp|Product Description: AutoCAD Mechanical|Company: Autodesk, Inc."
 90
     1024
 91
        0
280
     0
281
     0
  0
CLASS
  1
ACMSURFSTANDARDBSI2002
  2
AcmSurfTextStdBSI2002
  3
"Amdt_StdImp|Product Description: AutoCAD Mechanical|Company: Autodesk, Inc."
 90
     1024
 91
        0
280
     0
281
     0
  0
CLASS
  1
ACMFCFSTANDARDBSI
  2
AcmFCFStdBSI
  3
"Amdt_StdImp|Product Description: AutoCAD Mechanical|Company: Autodesk, Inc."
 90
     1024
 91
        0
280
     0
281
     0
  0
CLASS
  1
ACMWELDSTANDARDBSI
  2
AcmWeldingStdBSI
  3
"Amdt_StdImp|Product Description: AutoCAD Mechanical|Company: Autodesk, Inc."
 90
     1024
 91
        0
280
     0
281
     0
  0
CLASS
  1
ACMIDSTANDARDBSI
  2
AcmIdStdBSI
  3
"Amdt_StdImp|Product Description: AutoCAD Mechanical|Company: Autodesk, Inc."
 90
     1024
 91
        0
280
     0
281
     0
  0
CLASS
  1
ACMDATUMSTANDARDBSI
  2
AcmDatumStdBSI
  3
"Amdt_StdImp|Product Description: AutoCAD Mechanical|Company: Autodesk, Inc."
 90
     1024
 91
        0
280
     0
281
     0
  0
CLASS
  1
ACMBOMSTANDARDBSI
  2
AcmBOMStdBSI
  3
"Amdt_StdImp|Product Description: AutoCAD Mechanical|Company: Autodesk, Inc."
 90
     1024
 91
        0
280
     0
281
     0
  0
CLASS
  1
ACMDETAILSTANDARDBSI
  2
AmdtDetailSymStdBSI
  3
"Amdt_StdImp|Product Description: AutoCAD Mechanical|Company: Autodesk, Inc."
 90
     1024
 91
        0
280
     0
281
     0
  0
CLASS
  1
ACMSECTIONSTANDARDBSI2001
  2
AmdtSectionSymStdBSI2001
  3
"Amdt_StdImp|Product Description: AutoCAD Mechanical|Company: Autodesk, Inc."
 90
     1024
 91
        0
280
     0
281
     0
  0
CLASS
  1
ACMCENTERLINESTANDARDBSI
  2
AmdtCenterLineStdBSI
  3
"Amdt_StdImp|Product Description: AutoCAD Mechanical|Company: Autodesk, Inc."
 90
     1024
 91
        0
280
     0
281
     0
  0
CLASS
  1
ACMTHREADLINESTANDARDBSI
  2
AmdtThreadLineStdBSI
  3
"Amdt_StdImp|Product Description: AutoCAD Mechanical|Company: Autodesk, Inc."
 90
     1024
 91
        0
280
     0
281
     0
  0
CLASS
  1
ACMNOTESTANDARDBSI
  2
AmdtNoteStdBSI
  3
"Amdt_StdImp|Product Description: AutoCAD Mechanical|Company: Autodesk, Inc."
 90
     1024
 91
        0
280
     0
281
     0
  0
CLASS
  1
ACMTAPERSTANDARDBSI
  2
AcmTaperStdBSI
  3
"Amdt_StdImp|Product Description: AutoCAD Mechanical|Company: Autodesk, Inc."
 90
     1024
 91
        0
280
     0
281
     0
  0
CLASS
  1
ACMANOOTATIONVIEWSTANDARDBSI
  2
AmdtAnViewStdBSI
  3
"Amdt_StdImp|Product Description: AutoCAD Mechanical|Company: Autodesk, Inc."
 90
     1024
 91
        0
280
     0
281
     0
  0
CLASS
  1
ACAMGHOLECHARTSTDBSI
  2
AcAmgHoleChartStdBSI
  3
AmgDim|Product Description: AutoCAD Mechanical|Company: Autodesk, Inc.
 90
     1024
 91
        0
280
     0
281
     0
  0
CLASS
  1
AMDTEDGESTANDARDJIS
  2
AmdtEdgeStdJIS
  3
"Amdt_StdImp|Product Description: AutoCAD Mechanical|Company: Autodesk, Inc."
 90
     1024
 91
        0
280
     0
281
     0
  0
CLASS
  1
ACMSURFSYM
  2
AcmSurfaceTexture
  3
"AcmSymBB|Product Description: AutoCAD Mechanical|Company: Autodesk, Inc."
 90
     4095
 91
        0
280
     0
281
     1
  0
CLASS
  1
ACDBDIMENSIONRES
  2
AcDbDimensionRes
  3
AcmSymBB|Product Description: AutoCAD Mechanical|Company: Autodesk, Inc.
 90
     1024
 91
        0
280
     0
281
     0
  0
CLASS
  1
ACDBCIRCARCRES
  2
AcDbCircArcRes
  3
AcGrefServices
 90
     1024
 91
        0
280
     0
281
     0
  0
CLASS
  1
AMDTACMWBLOCKBOMENTITY
  2
AmdtAcmWblockBomEntity
  3
"AcmSymBB|Product Description: AutoCAD Mechanical|Company: Autodesk, Inc."
 90
     4095
 91
        0
280
     0
281
     1
  0
CLASS
  1
ACDBOPPOLYLINERES
  2
AcDbOpPolylineRes
  3
AcGrefServices
 90
     1024
 91
        0
280
     0
281
     0
  0
CLASS
  1
ACDB_BLKREFOBJECTCONTEXTDATA_CLASS
  2
AcDbBlkRefObjectContextData
  3
ObjectDBX Classes
 90
     1153
 91
        0
280
     0
281
     0
  0
CLASS
  1
ACMBALLOON
  2
AcmBalloon
  3
"AcmSymBB|Product Description: AutoCAD Mechanical|Company: Autodesk, Inc."
 90
     4095
 91
        0
280
     0
281
     1
  0
CLASS
  1
ACMPICKOBJ
  2
AcmPickEnt
  3
"AcmSymBB|Product Description: AutoCAD Mechanical|Company: Autodesk, Inc."
 90
     1024
 91
        0
280
     0
281
     1
  0
ENDSEC
  0
SECTION
  2
TABLES
  0
TABLE
  2
VPORT
  5
8
330
0
100
AcDbSymbolTable
 70
     1
  0
VPORT
  5
27A
330
8
100
AcDbSymbolTableRecord
100
AcDbViewportTableRecord
  2
*Active
 70
     0
 10
0.0
 20
0.0
 11
1.0
 21
1.0
 12
236.9755108201503
 22
206.0105905728538
 13
0.0
 23
0.0
 14
2.5
 24
2.5
 15
10.0
 25
10.0
 16
0.0
 26
0.0
 36
1.0
 17
0.0
 27
0.0
 37
0.0
 40
164.9613084641628
 41
1.571428571428571
 42
50.0
 43
0.0
 44
0.0
 50
0.0
 51
0.0
 71
     0
 72
 20000
 73
     1
 74
     3
 75
     0
 76
     0
 77
     0
 78
     0
281
     0
 65
     0
110
0.0
120
0.0
130
0.0
111
1.0
121
0.0
131
0.0
112
0.0
122
1.0
132
0.0
 79
     0
146
0.0
348
285
 60
     3
 61
     5
292
     1
282
     0
141
0.0
142
0.0
 63
   250
421
  3355443
  0
ENDTAB
  0
TABLE
  2
LTYPE
  5
5
330
0
100
AcDbSymbolTable
 70
    15
  0
LTYPE
  5
14
330
5
100
AcDbSymbolTableRecord
100
AcDbLinetypeTableRecord
  2
ByBlock
 70
     0
  3

 72
    65
 73
     0
 40
0.0
  0
LTYPE
  5
15
330
5
100
AcDbSymbolTableRecord
100
AcDbLinetypeTableRecord
  2
ByLayer
 70
     0
  3

 72
    65
 73
     0
 40
0.0
  0
LTYPE
  5
16
330
5
100
AcDbSymbolTableRecord
100
AcDbLinetypeTableRecord
  2
Continuous
 70
     0
  3
Solid line
 72
    65
 73
     0
 40
0.0
  0
LTYPE
  5
4D
330
5
100
AcDbSymbolTableRecord
100
AcDbLinetypeTableRecord
  2
AM_ISO02W050
 70
     0
  3
__ __ __ __ __ __ __ __ __ __ __ __ __ __ __
 72
    65
 73
     2
 40
7.5
 49
6.0
 74
     0
 49
-1.5
 74
     0
  0
LTYPE
  5
4E
330
5
100
AcDbSymbolTableRecord
100
AcDbLinetypeTableRecord
  2
AM_ISO08W050
 70
     0
  3
____ . ____ . ____ . ____ . ____ . ____ . ____
 72
    65
 73
     4
 40
18.0
 49
12.0
 74
     0
 49
-1.5
 74
     0
 49
3.0
 74
     0
 49
-1.5
 74
     0
  0
LTYPE
  5
4F
330
5
100
AcDbSymbolTableRecord
100
AcDbLinetypeTableRecord
  2
AM_ISO09W050
 70
     0
  3
_____ . . _____ . . _____ . . ____ .. ____
 72
    65
 73
     6
 40
22.5
 49
12.0
 74
     0
 49
-1.5
 74
     0
 49
3.0
 74
     0
 49
-1.5
 74
     0
 49
3.0
 74
     0
 49
-1.5
 74
     0
  0
LTYPE
  5
50
330
5
100
AcDbSymbolTableRecord
100
AcDbLinetypeTableRecord
  2
Amconstr
 70
     0
  3
_______________________
 72
    65
 73
     2
 40
9999.0
 49
9999.0
 74
     0
 49
0.0
 74
     0
  0
LTYPE
  5
51
330
5
100
AcDbSymbolTableRecord
100
AcDbLinetypeTableRecord
  2
AM_ISO08W050x2
 70
     0
  3
__ . __ . __ . __ . __ . __
 72
    65
 73
     4
 40
9.0
 49
6.0
 74
     0
 49
-0.75
 74
     0
 49
1.5
 74
     0
 49
-0.75
 74
     0
  0
LTYPE
  5
52
330
5
100
AcDbSymbolTableRecord
100
AcDbLinetypeTableRecord
  2
AM_ISO02W050x2
 70
     0
  3
 _ _ _ _ _ _ _ _ _ _ _ _
 72
    65
 73
     2
 40
3.75
 49
3.0
 74
     0
 49
-0.75
 74
     0
  0
LTYPE
  5
55
330
5
100
AcDbSymbolTableRecord
100
AcDbLinetypeTableRecord
  2
Amzigzag
 70
     0
  3
/\/-/\/-/\/-/\/-/\/-/\/
 72
    65
 73
     2
 40
11.0001
 49
0.0001
 74
     4
 75
   136
340
23D
 46
0.04
 50
0.0
 44
0.0
 45
0.0
 49
-11.0
 74
     0
  0
LTYPE
  5
65
330
5
100
AcDbSymbolTableRecord
100
AcDbLinetypeTableRecord
  2
CENTER
 70
     0
  3
__ . __
 72
    65
 73
     4
 40
7.0
 49
4.0
 74
     0
 49
-1.0
 74
     0
 49
1.0
 74
     0
 49
-1.0
 74
     0
  0
LTYPE
  5
E0
330
5
100
AcDbSymbolTableRecord
100
AcDbLinetypeTableRecord
  2
HIDDEN
 70
     0
  3
Hidden __ __ __ __ __ __ __ __ __ __ __ __ __ _
 72
    65
 73
     2
 40
9.524999999999996
 49
6.349999999999997
 74
     0
 49
-3.174999999999998
 74
     0
  0
LTYPE
  5
E1
330
5
100
AcDbSymbolTableRecord
100
AcDbLinetypeTableRecord
  2
PHANTOM2
 70
     0
  3
Phantom (.5x) ___ _ _ ___ _ _ ___ _ _ ___ _ _
 72
    65
 73
     6
 40
31.75
 49
15.875
 74
     0
 49
-3.174999999999998
 74
     0
 49
3.174999999999998
 74
     0
 49
-3.174999999999998
 74
     0
 49
3.174999999999998
 74
     0
 49
-3.174999999999998
 74
     0
  0
LTYPE
  5
5A2
330
5
100
AcDbSymbolTableRecord
100
AcDbLinetypeTableRecord
  2
ACJISWELD
 70
     0
  3
_ _ _ _ _
 72
    65
 73
     2
 40
2.0
 49
2.0
 74
     0
 49
-1.0
 74
     0
  0
LTYPE
  5
717B
330
5
100
AcDbSymbolTableRecord
100
AcDbLinetypeTableRecord
  2
ACISOWELD
 70
     0
  3
_ _ _ _ _
 72
    65
 73
     2
 40
2.0
 49
2.0
 74
     0
 49
-1.0
 74
     0
  0
LTYPE
  5
717C
330
5
100
AcDbSymbolTableRecord
100
AcDbLinetypeTableRecord
  2
ACISOTGB
 70
     0
  3
__ . . __ . .
 72
    65
 73
     6
 40
9.0
 49
4.0
 74
     0
 49
-1.0
 74
     0
 49
1.0
 74
     0
 49
-1.0
 74
     0
 49
1.0
 74
     0
 49
-1.0
 74
     0
  0
LTYPE
  5
717D
330
5
100
AcDbSymbolTableRecord
100
AcDbLinetypeTableRecord
  2
ACISOTGL
 70
     0
  3
_ _ _ _ _
 72
    65
 73
     2
 40
3.0
 49
2.0
 74
     0
 49
-1.0
 74
     0
  0
ENDTAB
  0
TABLE
  2
LAYER
  5
2
102
{ACAD_XDICTIONARY
360
BF
102
}
330
0
100
AcDbSymbolTable
 70
     9
  0
LAYER
  5
10
102
{ACAD_XDICTIONARY
360
29F7
102
}
330
2
100
AcDbSymbolTableRecord
100
AcDbLayerTableRecord
  2
0
 70
     0
 62
     7
  6
Continuous
370
    -3
390
F
347
27E
  0
LAYER
  5
81
102
{ACAD_XDICTIONARY
360
29F9
102
}
330
2
100
AcDbSymbolTableRecord
100
AcDbLayerTableRecord
  2
AM_0 外形線1
 70
     0
 62
     7
  6
Continuous
370
    25
390
F
347
27E
  0
LAYER
  5
427
330
2
100
AcDbSymbolTableRecord
100
AcDbLayerTableRecord
  2
Defpoints
 70
     0
 62
     7
  6
Continuous
290
     0
370
    -3
390
F
347
27E
  0
LAYER
  5
3840
330
2
100
AcDbSymbolTableRecord
100
AcDbLayerTableRecord
  2
AM_5 寸法線
 70
     0
 62
     3
  6
Continuous
370
    13
390
F
347
27E
1001
AcAecLayerStandard
1000

1000

  0
LAYER
  5
3841
330
2
100
AcDbSymbolTableRecord
100
AcDbLayerTableRecord
  2
AM_4 細線
 70
     0
 62
     4
  6
Continuous
370
    13
390
F
347
27E
1001
AcAecLayerStandard
1000

1000

  0
LAYER
  5
3842
330
2
100
AcDbSymbolTableRecord
100
AcDbLayerTableRecord
  2
AM_7 中心線
 70
     0
 62
     1
  6
AM_ISO08W050
370
    13
390
F
347
27E
1001
AcAecLayerStandard
1000

1000

  0
LAYER
  5
3843
330
2
100
AcDbSymbolTableRecord
100
AcDbLayerTableRecord
  2
AM_3 隠れ線
 70
     0
 62
     8
  6
ACJISWELD
370
    13
390
F
347
27E
1001
AcAecLayerStandard
1000

1000

  0
LAYER
  5
3846
330
2
100
AcDbSymbolTableRecord
100
AcDbLayerTableRecord
  2
AM_6 文字
 70
     0
 62
     2
  6
Continuous
370
    13
390
F
347
27E
1001
AcAecLayerStandard
1000

1000

  0
LAYER
  5
6D52
330
2
100
AcDbSymbolTableRecord
100
AcDbLayerTableRecord
  2
AM_11 想像線
 70
     0
 62
     5
  6
AM_ISO09W050
370
    13
390
F
347
27E
1001
AcAecLayerStandard
1000

1000

  0
ENDTAB
  0
TABLE
  2
STYLE
  5
3
330
0
100
AcDbSymbolTable
 70
     6
  0
STYLE
  5
11
330
3
100
AcDbSymbolTableRecord
100
AcDbTextStyleTableRecord
  2
STANDARD
 70
     0
 40
0.0
 41
1.0
 50
0.0
 71
     0
 42
25.0
  3
ISOCP.SHX
  4
EXTFONT.SHX
  0
STYLE
  5
23D
330
3
100
AcDbSymbolTableRecord
100
AcDbTextStyleTableRecord
  2

 70
     1
 40
0.0
 41
1.0
 50
0.0
 71
     0
 42
2.5
  3
genltshp.shx
  4

  0
STYLE
  5
5D5
330
3
100
AcDbSymbolTableRecord
100
AcDbTextStyleTableRecord
  2
SEISA
 70
     0
 40
0.0
 41
0.9
 50
0.0
 71
     0
 42
25.0
  3
romans.shx
  4
extfont2.shx
  0
STYLE
  5
716B
330
3
100
AcDbSymbolTableRecord
100
AcDbTextStyleTableRecord
  2
ACISOTS
 70
     0
 40
1.0
 41
1.0
 50
0.0
 71
     0
 42
25.0
  3
isocp.shx
  4
extfont.shx
  0
STYLE
  5
717A
330
3
100
AcDbSymbolTableRecord
100
AcDbTextStyleTableRecord
  2
ACISOGDT
 70
     0
 40
0.0
 41
1.0
 50
0.0
 71
     0
 42
25.0
  3
amgdt.shx
  4

  0
ENDTAB
  0
TABLE
  2
VIEW
  5
6
330
0
100
AcDbSymbolTable
 70
     6
  0
VIEW
  5
91B
330
6
100
AcDbSymbolTableRecord
100
AcDbViewTableRecord
  2
AM_VIEW1
 70
     0
 40
210.0
 10
203.0172411521405
 20
315.0000000000001
 41
406.0344827586208
 11
0.0
 21
0.0
 31
1.0
 12
0.0
 22
0.0
 32
0.0
 42
50.0
 43
0.0
 44
0.0
 50
0.0
 71
     0
281
     0
 72
     0
 73
     0
  0
VIEW
  5
91C
330
6
100
AcDbSymbolTableRecord
100
AcDbViewTableRecord
  2
AM_VIEW2
 70
     0
 40
210.0
 10
390.9827586206897
 20
315.0000000000001
 41
406.0344827586207
 11
0.0
 21
0.0
 31
1.0
 12
0.0
 22
0.0
 32
0.0
 42
50.0
 43
0.0
 44
0.0
 50
0.0
 71
     0
281
     0
 72
     0
 73
     0
  0
VIEW
  5
91D
330
6
100
AcDbSymbolTableRecord
100
AcDbViewTableRecord
  2
AM_VIEW3
 70
     0
 40
210.0
 10
203.0172411521405
 20
105.0
 41
406.0344827586208
 11
0.0
 21
0.0
 31
1.0
 12
0.0
 22
0.0
 32
0.0
 42
50.0
 43
0.0
 44
0.0
 50
0.0
 71
     0
281
     0
 72
     0
 73
     0
  0
VIEW
  5
91E
330
6
100
AcDbSymbolTableRecord
100
AcDbViewTableRecord
  2
AM_VIEW4
 70
     0
 40
210.0
 10
390.9827586206897
 20
105.0
 41
406.0344827586207
 11
0.0
 21
0.0
 31
1.0
 12
0.0
 22
0.0
 32
0.0
 42
50.0
 43
0.0
 44
0.0
 50
0.0
 71
     0
281
     0
 72
     0
 73
     0
  0
VIEW
  5
91F
330
6
100
AcDbSymbolTableRecord
100
AcDbViewTableRecord
  2
AM_VIEW5
 70
     0
 40
210.0000000000001
 10
296.999999886415
 20
210.0
 41
406.0344827586207
 11
0.0
 21
0.0
 31
1.0
 12
0.0
 22
0.0
 32
0.0
 42
50.0
 43
0.0
 44
0.0
 50
0.0
 71
     0
281
     0
 72
     0
 73
     0
  0
VIEW
  5
920
330
6
100
AcDbSymbolTableRecord
100
AcDbViewTableRecord
  2
AM_VIEW6
 70
     0
 40
419.9958000000001
 10
296.999999886415
 20
210.0
 41
812.0608448275863
 11
0.0
 21
0.0
 31
1.0
 12
0.0
 22
0.0
 32
0.0
 42
50.0
 43
0.0
 44
0.0
 50
0.0
 71
     0
281
     0
 72
     0
 73
     0
  0
ENDTAB
  0
TABLE
  2
UCS
  5
7
330
0
100
AcDbSymbolTable
 70
     0
  0
ENDTAB
  0
TABLE
  2
APPID
  5
9
330
0
100
AcDbSymbolTable
 70
   392
  0
APPID
  5
12
330
9
100
AcDbSymbolTableRecord
100
AcDbRegAppTableRecord
  2
ACAD
 70
     0
  0
APPID
  5
30
330
9
100
AcDbSymbolTableRecord
100
AcDbRegAppTableRecord
  2
MCAD_NO_VIS
 70
     0
  0
APPID
  5
31
330
9
100
AcDbSymbolTableRecord
100
AcDbRegAppTableRecord
  2
ACAD_TEMP_GRAPHIC
 70
     0
  0
APPID
  5
44
330
9
100
AcDbSymbolTableRecord
100
AcDbRegAppTableRecord
  2
ACATTRIBSERVICES
 70
     0
  0
APPID
  5
F6
330
9
100
AcDbSymbolTableRecord
100
AcDbRegAppTableRecord
  2
AD_DRAW
 70
     0
  0
APPID
  5
114
330
9
100
AcDbSymbolTableRecord
100
AcDbRegAppTableRecord
  2
DESIGNERASSEMBLIES
 70
     0
  0
APPID
  5
118
330
9
100
AcDbSymbolTableRecord
100
AcDbRegAppTableRecord
  2
ACADM_DIM_EDIT
 70
     0
  0
APPID
  5
119
330
9
100
AcDbSymbolTableRecord
100
AcDbRegAppTableRecord
  2
AMDT_DM_ADJ
 70
     0
  0
APPID
  5
1AF
330
9
100
AcDbSymbolTableRecord
100
AcDbRegAppTableRecord
  2
ACAD_DSTYLE_DIMARC_LENGTH_SYMBOL
 70
     0
  0
APPID
  5
1B0
330
9
100
AcDbSymbolTableRecord
100
AcDbRegAppTableRecord
  2
ACAD_DSTYLE_DIMJOGGED_JOGANGLE_SYMBOL
 70
     0
  0
APPID
  5
2D7
330
9
100
AcDbSymbolTableRecord
100
AcDbRegAppTableRecord
  2
ACAD_MLEADERVER
 70
     0
  0
APPID
  5
355
330
9
100
AcDbSymbolTableRecord
100
AcDbRegAppTableRecord
  2
AcadAnnoPO
 70
     0
  0
APPID
  5
428
330
9
100
AcDbSymbolTableRecord
100
AcDbRegAppTableRecord
  2
ACAD_DSTYLE_DIMTEXT_FILL
 70
     0
  0
APPID
  5
429
330
9
100
AcDbSymbolTableRecord
100
AcDbRegAppTableRecord
  2
GENIUS_GENSCREG_15
 70
     0
  0
APPID
  5
42A
330
9
100
AcDbSymbolTableRecord
100
AcDbRegAppTableRecord
  2
GENIUS_GENOBJ-N-SDF_13
 70
     0
  0
APPID
  5
42B
330
9
100
AcDbSymbolTableRecord
100
AcDbRegAppTableRecord
  2
GENIUS_GENODEF_13
 70
     0
  0
APPID
  5
42C
330
9
100
AcDbSymbolTableRecord
100
AcDbRegAppTableRecord
  2
ACAD_EXEMPT_FROM_CAD_STANDARDS
 70
     0
  0
APPID
  5
42D
330
9
100
AcDbSymbolTableRecord
100
AcDbRegAppTableRecord
  2
AcAecLayerStandard
 70
     0
  0
APPID
  5
42E
330
9
100
AcDbSymbolTableRecord
100
AcDbRegAppTableRecord
  2
GENIUS_GENOBJ-N-CEN_13
 70
     0
  0
APPID
  5
42F
330
9
100
AcDbSymbolTableRecord
100
AcDbRegAppTableRecord
  2
GENIUS_GENCEN_19
 70
     0
  0
APPID
  5
430
330
9
100
AcDbSymbolTableRecord
100
AcDbRegAppTableRecord
  2
ACAD_DSTYLE_DIMINSPECT
 70
     0
  0
APPID
  5
431
330
9
100
AcDbSymbolTableRecord
100
AcDbRegAppTableRecord
  2
GENIUS_AMGTXT_16
 70
     0
  0
APPID
  5
432
330
9
100
AcDbSymbolTableRecord
100
AcDbRegAppTableRecord
  2
GENIUS_GENFIL_13
 70
     0
  0
APPID
  5
433
330
9
100
AcDbSymbolTableRecord
100
AcDbRegAppTableRecord
  2
GENIUS_GENOLIS_13
 70
     0
  0
APPID
  5
434
330
9
100
AcDbSymbolTableRecord
100
AcDbRegAppTableRecord
  2
GENIUS_GENOBJ-N-CHA_13
 70
     0
  0
APPID
  5
435
330
9
100
AcDbSymbolTableRecord
100
AcDbRegAppTableRecord
  2
GENIUS_GENOENT_13
 70
     0
  0
APPID
  5
436
330
9
100
AcDbSymbolTableRecord
100
AcDbRegAppTableRecord
  2
GENIUS_GENOREF_13
 70
     0
  0
APPID
  5
437
330
9
100
AcDbSymbolTableRecord
100
AcDbRegAppTableRecord
  2
GENIUS_GENOBJ-N-FIL_13
 70
     0
  0
APPID
  5
438
330
9
100
AcDbSymbolTableRecord
100
AcDbRegAppTableRecord
  2
GEVID1208829536
 70
     0
  0
APPID
  5
439
330
9
100
AcDbSymbolTableRecord
100
AcDbRegAppTableRecord
  2
GEVDC
 70
     0
  0
APPID
  5
43A
330
9
100
AcDbSymbolTableRecord
100
AcDbRegAppTableRecord
  2
GEVRADREF
 70
     0
  0
APPID
  5
43B
330
9
100
AcDbSymbolTableRecord
100
AcDbRegAppTableRecord
  2
GENIUS_GENBH_13
 70
     0
  0
APPID
  5
43C
330
9
100
AcDbSymbolTableRecord
100
AcDbRegAppTableRecord
  2
GENIUS_GENOBJ-NBEHI-BHF_13
 70
     0
  0
APPID
  5
43D
330
9
100
AcDbSymbolTableRecord
100
AcDbRegAppTableRecord
  2
GENIUS_GENOBJ-NBEHI-BHB_13
 70
     0
  0
APPID
  5
43E
330
9
100
AcDbSymbolTableRecord
100
AcDbRegAppTableRecord
  2
GEVID1208829537
 70
     0
  0
APPID
  5
43F
330
9
100
AcDbSymbolTableRecord
100
AcDbRegAppTableRecord
  2
ACAD_DSTYLE_DIMJAG
 70
     0
  0
APPID
  5
440
330
9
100
AcDbSymbolTableRecord
100
AcDbRegAppTableRecord
  2
ACAD_DSTYLE_DIMTALN
 70
     0
  0
APPID
  5
441
330
9
100
AcDbSymbolTableRecord
100
AcDbRegAppTableRecord
  2
AMG_2DHIDE
 70
     0
  0
APPID
  5
442
330
9
100
AcDbSymbolTableRecord
100
AcDbRegAppTableRecord
  2
AMG_2DSTRUCT_BTR
 70
     0
  0
APPID
  5
443
330
9
100
AcDbSymbolTableRecord
100
AcDbRegAppTableRecord
  2
GEVID1208845772
 70
     0
  0
APPID
  5
444
330
9
100
AcDbSymbolTableRecord
100
AcDbRegAppTableRecord
  2
GEVID1208845773
 70
     0
  0
APPID
  5
445
330
9
100
AcDbSymbolTableRecord
100
AcDbRegAppTableRecord
  2
ACADM_2DVIEW_IGN_NOTIFY
 70
     0
  0
APPID
  5
446
330
9
100
AcDbSymbolTableRecord
100
AcDbRegAppTableRecord
  2
GEVID1208845774
 70
     0
  0
APPID
  5
447
330
9
100
AcDbSymbolTableRecord
100
AcDbRegAppTableRecord
  2
GEVID1208845775
 70
     0
  0
APPID
  5
448
330
9
100
AcDbSymbolTableRecord
100
AcDbRegAppTableRecord
  2
GEVID1208845776
 70
     0
  0
APPID
  5
449
330
9
100
AcDbSymbolTableRecord
100
AcDbRegAppTableRecord
  2
GEVID1208845777
 70
     0
  0
APPID
  5
44A
330
9
100
AcDbSymbolTableRecord
100
AcDbRegAppTableRecord
  2
GEVCON
 70
     0
  0
APPID
  5
44B
330
9
100
AcDbSymbolTableRecord
100
AcDbRegAppTableRecord
  2
GENIUS_GENOBJ-F-SCPASSM_13
 70
     0
  0
APPID
  5
44C
330
9
100
AcDbSymbolTableRecord
100
AcDbRegAppTableRecord
  2
GEVID1208845778
 70
     0
  0
APPID
  5
44D
330
9
100
AcDbSymbolTableRecord
100
AcDbRegAppTableRecord
  2
GEVID1208845779
 70
     0
  0
APPID
  5
44E
330
9
100
AcDbSymbolTableRecord
100
AcDbRegAppTableRecord
  2
GEVID1208845780
 70
     0
  0
APPID
  5
44F
330
9
100
AcDbSymbolTableRecord
100
AcDbRegAppTableRecord
  2
GEVID1208845781
 70
     0
  0
APPID
  5
450
330
9
100
AcDbSymbolTableRecord
100
AcDbRegAppTableRecord
  2
GEVID1208845782
 70
     0
  0
APPID
  5
451
330
9
100
AcDbSymbolTableRecord
100
AcDbRegAppTableRecord
  2
GEVID1208845783
 70
     0
  0
APPID
  5
452
330
9
100
AcDbSymbolTableRecord
100
AcDbRegAppTableRecord
  2
GEVID1208845784
 70
     0
  0
APPID
  5
453
330
9
100
AcDbSymbolTableRecord
100
AcDbRegAppTableRecord
  2
GEVID1208845785
 70
     0
  0
APPID
  5
454
330
9
100
AcDbSymbolTableRecord
100
AcDbRegAppTableRecord
  2
GEVID1208845787
 70
     0
  0
APPID
  5
455
330
9
100
AcDbSymbolTableRecord
100
AcDbRegAppTableRecord
  2
GEVID1208845788
 70
     0
  0
APPID
  5
456
330
9
100
AcDbSymbolTableRecord
100
AcDbRegAppTableRecord
  2
GEVID1208845789
 70
     0
  0
APPID
  5
457
330
9
100
AcDbSymbolTableRecord
100
AcDbRegAppTableRecord
  2
GEVID1208845790
 70
     0
  0
APPID
  5
458
330
9
100
AcDbSymbolTableRecord
100
AcDbRegAppTableRecord
  2
GEVID1208845791
 70
     0
  0
APPID
  5
459
330
9
100
AcDbSymbolTableRecord
100
AcDbRegAppTableRecord
  2
GEVID1208845792
 70
     0
  0
APPID
  5
45A
330
9
100
AcDbSymbolTableRecord
100
AcDbRegAppTableRecord
  2
GEVID1208845793
 70
     0
  0
APPID
  5
45B
330
9
100
AcDbSymbolTableRecord
100
AcDbRegAppTableRecord
  2
GEVID1208845794
 70
     0
  0
APPID
  5
45C
330
9
100
AcDbSymbolTableRecord
100
AcDbRegAppTableRecord
  2
GEVID1208845795
 70
     0
  0
APPID
  5
45D
330
9
100
AcDbSymbolTableRecord
100
AcDbRegAppTableRecord
  2
GEVID1208845796
 70
     0
  0
APPID
  5
45E
330
9
100
AcDbSymbolTableRecord
100
AcDbRegAppTableRecord
  2
GEVID1208845797
 70
     0
  0
APPID
  5
45F
330
9
100
AcDbSymbolTableRecord
100
AcDbRegAppTableRecord
  2
GEVID1208845798
 70
     0
  0
APPID
  5
460
330
9
100
AcDbSymbolTableRecord
100
AcDbRegAppTableRecord
  2
GEVID1208845799
 70
     0
  0
APPID
  5
461
330
9
100
AcDbSymbolTableRecord
100
AcDbRegAppTableRecord
  2
GEVID1208845800
 70
     0
  0
APPID
  5
462
330
9
100
AcDbSymbolTableRecord
100
AcDbRegAppTableRecord
  2
GEVID1208845801
 70
     0
  0
APPID
  5
463
330
9
100
AcDbSymbolTableRecord
100
AcDbRegAppTableRecord
  2
GEVID1208845802
 70
     0
  0
APPID
  5
464
330
9
100
AcDbSymbolTableRecord
100
AcDbRegAppTableRecord
  2
GENIUS_GENOBJ-N-DIM_13
 70
     0
  0
APPID
  5
465
330
9
100
AcDbSymbolTableRecord
100
AcDbRegAppTableRecord
  2
GENIUS_GENDIM_13
 70
     0
  0
APPID
  5
466
330
9
100
AcDbSymbolTableRecord
100
AcDbRegAppTableRecord
  2
GENIUS_GENDIMSH_14
 70
     0
  0
APPID
  5
467
330
9
100
AcDbSymbolTableRecord
100
AcDbRegAppTableRecord
  2
GEVID1208845803
 70
     0
  0
APPID
  5
468
330
9
100
AcDbSymbolTableRecord
100
AcDbRegAppTableRecord
  2
GEVID1208845804
 70
     0
  0
APPID
  5
469
330
9
100
AcDbSymbolTableRecord
100
AcDbRegAppTableRecord
  2
GEVID1208845805
 70
     0
  0
APPID
  5
46A
330
9
100
AcDbSymbolTableRecord
100
AcDbRegAppTableRecord
  2
GEVID1208845806
 70
     0
  0
APPID
  5
46B
330
9
100
AcDbSymbolTableRecord
100
AcDbRegAppTableRecord
  2
GEVID1208845807
 70
     0
  0
APPID
  5
46C
330
9
100
AcDbSymbolTableRecord
100
AcDbRegAppTableRecord
  2
GEVID1208845808
 70
     0
  0
APPID
  5
46D
330
9
100
AcDbSymbolTableRecord
100
AcDbRegAppTableRecord
  2
GEVID1208845809
 70
     0
  0
APPID
  5
46E
330
9
100
AcDbSymbolTableRecord
100
AcDbRegAppTableRecord
  2
GEVID1208845810
 70
     0
  0
APPID
  5
46F
330
9
100
AcDbSymbolTableRecord
100
AcDbRegAppTableRecord
  2
GEVID1208845811
 70
     0
  0
APPID
  5
470
330
9
100
AcDbSymbolTableRecord
100
AcDbRegAppTableRecord
  2
GEVID1208845813
 70
     0
  0
APPID
  5
471
330
9
100
AcDbSymbolTableRecord
100
AcDbRegAppTableRecord
  2
GEVID1208845814
 70
     0
  0
APPID
  5
472
330
9
100
AcDbSymbolTableRecord
100
AcDbRegAppTableRecord
  2
GEVID1208845815
 70
     0
  0
APPID
  5
473
330
9
100
AcDbSymbolTableRecord
100
AcDbRegAppTableRecord
  2
GEVID1208845816
 70
     0
  0
APPID
  5
474
330
9
100
AcDbSymbolTableRecord
100
AcDbRegAppTableRecord
  2
GEVID1208845817
 70
     0
  0
APPID
  5
475
330
9
100
AcDbSymbolTableRecord
100
AcDbRegAppTableRecord
  2
GEVID1208845818
 70
     0
  0
APPID
  5
476
330
9
100
AcDbSymbolTableRecord
100
AcDbRegAppTableRecord
  2
GEVID1208845819
 70
     0
  0
APPID
  5
477
330
9
100
AcDbSymbolTableRecord
100
AcDbRegAppTableRecord
  2
GEVID1208845820
 70
     0
  0
APPID
  5
478
330
9
100
AcDbSymbolTableRecord
100
AcDbRegAppTableRecord
  2
GENIUS_GENOBJ-F-SHCL_13
 70
     0
  0
APPID
  5
479
330
9
100
AcDbSymbolTableRecord
100
AcDbRegAppTableRecord
  2
GENIUS_GEFMSH_13
 70
     0
  0
APPID
  5
47A
330
9
100
AcDbSymbolTableRecord
100
AcDbRegAppTableRecord
  2
GENIUS_GENOBJ-F-SHCA_13
 70
     0
  0
APPID
  5
47B
330
9
100
AcDbSymbolTableRecord
100
AcDbRegAppTableRecord
  2
GENIUS_GEFSH_13
 70
     0
  0
APPID
  5
47C
330
9
100
AcDbSymbolTableRecord
100
AcDbRegAppTableRecord
  2
GENIUS_GEFSHP_13
 70
     0
  0
APPID
  5
47D
330
9
100
AcDbSymbolTableRecord
100
AcDbRegAppTableRecord
  2
GENIUS_GEFSHP0_13
 70
     0
  0
APPID
  5
47E
330
9
100
AcDbSymbolTableRecord
100
AcDbRegAppTableRecord
  2
GENIUS_GEFSH0_13
 70
     0
  0
APPID
  5
47F
330
9
100
AcDbSymbolTableRecord
100
AcDbRegAppTableRecord
  2
GENIUS_GEFSHP1_13
 70
     0
  0
APPID
  5
480
330
9
100
AcDbSymbolTableRecord
100
AcDbRegAppTableRecord
  2
GENIUS_GEFSH1_13
 70
     0
  0
APPID
  5
481
330
9
100
AcDbSymbolTableRecord
100
AcDbRegAppTableRecord
  2
GEVID1208866337
 70
     0
  0
APPID
  5
482
330
9
100
AcDbSymbolTableRecord
100
AcDbRegAppTableRecord
  2
GEVID1208866338
 70
     0
  0
APPID
  5
483
330
9
100
AcDbSymbolTableRecord
100
AcDbRegAppTableRecord
  2
GEVID1208866339
 70
     0
  0
APPID
  5
484
330
9
100
AcDbSymbolTableRecord
100
AcDbRegAppTableRecord
  2
GEVID1208866340
 70
     0
  0
APPID
  5
485
330
9
100
AcDbSymbolTableRecord
100
AcDbRegAppTableRecord
  2
GEVID1208866341
 70
     0
  0
APPID
  5
486
330
9
100
AcDbSymbolTableRecord
100
AcDbRegAppTableRecord
  2
ACAD_PSEXT
 70
     0
  0
APPID
  5
487
330
9
100
AcDbSymbolTableRecord
100
AcDbRegAppTableRecord
  2
GEVID1208866342
 70
     0
  0
APPID
  5
488
330
9
100
AcDbSymbolTableRecord
100
AcDbRegAppTableRecord
  2
GEVID1208913836
 70
     0
  0
APPID
  5
489
330
9
100
AcDbSymbolTableRecord
100
AcDbRegAppTableRecord
  2
GEVID1208913837
 70
     0
  0
APPID
  5
48A
330
9
100
AcDbSymbolTableRecord
100
AcDbRegAppTableRecord
  2
GEVID1208913838
 70
     0
  0
APPID
  5
48B
330
9
100
AcDbSymbolTableRecord
100
AcDbRegAppTableRecord
  2
GEVID1208913839
 70
     0
  0
APPID
  5
48C
330
9
100
AcDbSymbolTableRecord
100
AcDbRegAppTableRecord
  2
GENIUS_GENDTOL_13
 70
     0
  0
APPID
  5
48D
330
9
100
AcDbSymbolTableRecord
100
AcDbRegAppTableRecord
  2
GEVID1208928889
 70
     0
  0
APPID
  5
48E
330
9
100
AcDbSymbolTableRecord
100
AcDbRegAppTableRecord
  2
GEVID1208928890
 70
     0
  0
APPID
  5
48F
330
9
100
AcDbSymbolTableRecord
100
AcDbRegAppTableRecord
  2
GEVID1208928891
 70
     0
  0
APPID
  5
490
330
9
100
AcDbSymbolTableRecord
100
AcDbRegAppTableRecord
  2
GEVID1208928892
 70
     0
  0
APPID
  5
491
330
9
100
AcDbSymbolTableRecord
100
AcDbRegAppTableRecord
  2
GEVID1208933827
 70
     0
  0
APPID
  5
492
330
9
100
AcDbSymbolTableRecord
100
AcDbRegAppTableRecord
  2
GEVID1208933829
 70
     0
  0
APPID
  5
493
330
9
100
AcDbSymbolTableRecord
100
AcDbRegAppTableRecord
  2
GEVID1208933830
 70
     0
  0
APPID
  5
494
330
9
100
AcDbSymbolTableRecord
100
AcDbRegAppTableRecord
  2
GEVID1208933831
 70
     0
  0
APPID
  5
495
330
9
100
AcDbSymbolTableRecord
100
AcDbRegAppTableRecord
  2
GEVID1208933832
 70
     0
  0
APPID
  5
496
330
9
100
AcDbSymbolTableRecord
100
AcDbRegAppTableRecord
  2
GEVID1208933833
 70
     0
  0
APPID
  5
497
330
9
100
AcDbSymbolTableRecord
100
AcDbRegAppTableRecord
  2
GEVID1208933834
 70
     0
  0
APPID
  5
498
330
9
100
AcDbSymbolTableRecord
100
AcDbRegAppTableRecord
  2
GEVID1208933835
 70
     0
  0
APPID
  5
499
330
9
100
AcDbSymbolTableRecord
100
AcDbRegAppTableRecord
  2
GEVID1208933836
 70
     0
  0
APPID
  5
49A
330
9
100
AcDbSymbolTableRecord
100
AcDbRegAppTableRecord
  2
GEVID1208933837
 70
     0
  0
APPID
  5
49B
330
9
100
AcDbSymbolTableRecord
100
AcDbRegAppTableRecord
  2
GEVID1208933838
 70
     0
  0
APPID
  5
49C
330
9
100
AcDbSymbolTableRecord
100
AcDbRegAppTableRecord
  2
GEVID1208933840
 70
     0
  0
APPID
  5
49D
330
9
100
AcDbSymbolTableRecord
100
AcDbRegAppTableRecord
  2
GEVID1208933842
 70
     0
  0
APPID
  5
49E
330
9
100
AcDbSymbolTableRecord
100
AcDbRegAppTableRecord
  2
GEVID1208933843
 70
     0
  0
APPID
  5
49F
330
9
100
AcDbSymbolTableRecord
100
AcDbRegAppTableRecord
  2
GEVID1208933844
 70
     0
  0
APPID
  5
4A0
330
9
100
AcDbSymbolTableRecord
100
AcDbRegAppTableRecord
  2
GEVID1208933845
 70
     0
  0
APPID
  5
4A1
330
9
100
AcDbSymbolTableRecord
100
AcDbRegAppTableRecord
  2
GEVID1208933846
 70
     0
  0
APPID
  5
4A2
330
9
100
AcDbSymbolTableRecord
100
AcDbRegAppTableRecord
  2
GEVID1208933847
 70
     0
  0
APPID
  5
4A3
330
9
100
AcDbSymbolTableRecord
100
AcDbRegAppTableRecord
  2
GEVID1208933848
 70
     0
  0
APPID
  5
4A4
330
9
100
AcDbSymbolTableRecord
100
AcDbRegAppTableRecord
  2
GEVID1208933849
 70
     0
  0
APPID
  5
4A5
330
9
100
AcDbSymbolTableRecord
100
AcDbRegAppTableRecord
  2
GEVID1208933850
 70
     0
  0
APPID
  5
4A6
330
9
100
AcDbSymbolTableRecord
100
AcDbRegAppTableRecord
  2
GEVID1208933851
 70
     0
  0
APPID
  5
4A7
330
9
100
AcDbSymbolTableRecord
100
AcDbRegAppTableRecord
  2
GEVID1208933852
 70
     0
  0
APPID
  5
4A8
330
9
100
AcDbSymbolTableRecord
100
AcDbRegAppTableRecord
  2
GEVID1208933853
 70
     0
  0
APPID
  5
4A9
330
9
100
AcDbSymbolTableRecord
100
AcDbRegAppTableRecord
  2
GEVID1208933854
 70
     0
  0
APPID
  5
4AA
330
9
100
AcDbSymbolTableRecord
100
AcDbRegAppTableRecord
  2
GEVID1208933855
 70
     0
  0
APPID
  5
4AB
330
9
100
AcDbSymbolTableRecord
100
AcDbRegAppTableRecord
  2
GEVID1208933856
 70
     0
  0
APPID
  5
4AC
330
9
100
AcDbSymbolTableRecord
100
AcDbRegAppTableRecord
  2
GEVID1208933857
 70
     0
  0
APPID
  5
4AD
330
9
100
AcDbSymbolTableRecord
100
AcDbRegAppTableRecord
  2
GEVID1208933858
 70
     0
  0
APPID
  5
4AE
330
9
100
AcDbSymbolTableRecord
100
AcDbRegAppTableRecord
  2
GEVID1208933859
 70
     0
  0
APPID
  5
4AF
330
9
100
AcDbSymbolTableRecord
100
AcDbRegAppTableRecord
  2
GEVID1208933860
 70
     0
  0
APPID
  5
4B0
330
9
100
AcDbSymbolTableRecord
100
AcDbRegAppTableRecord
  2
GEVID1208933861
 70
     0
  0
APPID
  5
4B1
330
9
100
AcDbSymbolTableRecord
100
AcDbRegAppTableRecord
  2
GEVID1208933862
 70
     0
  0
APPID
  5
4B2
330
9
100
AcDbSymbolTableRecord
100
AcDbRegAppTableRecord
  2
GEVID1208933863
 70
     0
  0
APPID
  5
4B3
330
9
100
AcDbSymbolTableRecord
100
AcDbRegAppTableRecord
  2
GEVID1208933864
 70
     0
  0
APPID
  5
4B4
330
9
100
AcDbSymbolTableRecord
100
AcDbRegAppTableRecord
  2
GEVID1208933865
 70
     0
  0
APPID
  5
4B5
330
9
100
AcDbSymbolTableRecord
100
AcDbRegAppTableRecord
  2
GEVID1208933866
 70
     0
  0
APPID
  5
4B6
330
9
100
AcDbSymbolTableRecord
100
AcDbRegAppTableRecord
  2
GEVID1208933867
 70
     0
  0
APPID
  5
4B7
330
9
100
AcDbSymbolTableRecord
100
AcDbRegAppTableRecord
  2
GEVID1208933868
 70
     0
  0
APPID
  5
4B8
330
9
100
AcDbSymbolTableRecord
100
AcDbRegAppTableRecord
  2
GEVID1208933869
 70
     0
  0
APPID
  5
4B9
330
9
100
AcDbSymbolTableRecord
100
AcDbRegAppTableRecord
  2
GEVID1208933870
 70
     0
  0
APPID
  5
4BA
330
9
100
AcDbSymbolTableRecord
100
AcDbRegAppTableRecord
  2
GEVID1208933871
 70
     0
  0
APPID
  5
4BB
330
9
100
AcDbSymbolTableRecord
100
AcDbRegAppTableRecord
  2
GEVID1208933872
 70
     0
  0
APPID
  5
4BC
330
9
100
AcDbSymbolTableRecord
100
AcDbRegAppTableRecord
  2
GEVID1208933873
 70
     0
  0
APPID
  5
4BD
330
9
100
AcDbSymbolTableRecord
100
AcDbRegAppTableRecord
  2
GEVID1208933874
 70
     0
  0
APPID
  5
4BE
330
9
100
AcDbSymbolTableRecord
100
AcDbRegAppTableRecord
  2
GEVID1208933875
 70
     0
  0
APPID
  5
4BF
330
9
100
AcDbSymbolTableRecord
100
AcDbRegAppTableRecord
  2
GEVID1208933876
 70
     0
  0
APPID
  5
4C0
330
9
100
AcDbSymbolTableRecord
100
AcDbRegAppTableRecord
  2
ACAD_DSTYLE_DIMRADIAL_EXTENSION
 70
     0
  0
APPID
  5
4C1
330
9
100
AcDbSymbolTableRecord
100
AcDbRegAppTableRecord
  2
GEVID1208999100
 70
     0
  0
APPID
  5
4C2
330
9
100
AcDbSymbolTableRecord
100
AcDbRegAppTableRecord
  2
GEVID1208999101
 70
     0
  0
APPID
  5
4C3
330
9
100
AcDbSymbolTableRecord
100
AcDbRegAppTableRecord
  2
GEVID1208999102
 70
     0
  0
APPID
  5
4C4
330
9
100
AcDbSymbolTableRecord
100
AcDbRegAppTableRecord
  2
GEVID1208999103
 70
     0
  0
APPID
  5
4C5
330
9
100
AcDbSymbolTableRecord
100
AcDbRegAppTableRecord
  2
GEVID1208999105
 70
     0
  0
APPID
  5
4C6
330
9
100
AcDbSymbolTableRecord
100
AcDbRegAppTableRecord
  2
GEVID1208999106
 70
     0
  0
APPID
  5
4C7
330
9
100
AcDbSymbolTableRecord
100
AcDbRegAppTableRecord
  2
GEVID1208999108
 70
     0
  0
APPID
  5
4C8
330
9
100
AcDbSymbolTableRecord
100
AcDbRegAppTableRecord
  2
GEVID1208999109
 70
     0
  0
APPID
  5
4C9
330
9
100
AcDbSymbolTableRecord
100
AcDbRegAppTableRecord
  2
GEVID1208999110
 70
     0
  0
APPID
  5
4CA
330
9
100
AcDbSymbolTableRecord
100
AcDbRegAppTableRecord
  2
GEVID1208999111
 70
     0
  0
APPID
  5
4CB
330
9
100
AcDbSymbolTableRecord
100
AcDbRegAppTableRecord
  2
GEVID1208999112
 70
     0
  0
APPID
  5
4CC
330
9
100
AcDbSymbolTableRecord
100
AcDbRegAppTableRecord
  2
GEVID1208999113
 70
     0
  0
APPID
  5
4CD
330
9
100
AcDbSymbolTableRecord
100
AcDbRegAppTableRecord
  2
GEVID1208999114
 70
     0
  0
APPID
  5
4CE
330
9
100
AcDbSymbolTableRecord
100
AcDbRegAppTableRecord
  2
GEVID1210218799
 70
     0
  0
APPID
  5
4CF
330
9
100
AcDbSymbolTableRecord
100
AcDbRegAppTableRecord
  2
GEVID1210218800
 70
     0
  0
APPID
  5
4D0
330
9
100
AcDbSymbolTableRecord
100
AcDbRegAppTableRecord
  2
GENIUS_GEFWELD_13
 70
     0
  0
APPID
  5
4D1
330
9
100
AcDbSymbolTableRecord
100
AcDbRegAppTableRecord
  2
GENIUS_GENOBJ-F-WELS_13
 70
     0
  0
APPID
  5
4D2
330
9
100
AcDbSymbolTableRecord
100
AcDbRegAppTableRecord
  2
AcadAnnotative
 70
     0
  0
APPID
  5
4D3
330
9
100
AcDbSymbolTableRecord
100
AcDbRegAppTableRecord
  2
GEVID1210145339
 70
     0
  0
APPID
  5
4D4
330
9
100
AcDbSymbolTableRecord
100
AcDbRegAppTableRecord
  2
ACAD_DSTYLE_DIMBREAK
 70
     0
  0
APPID
  5
4D5
330
9
100
AcDbSymbolTableRecord
100
AcDbRegAppTableRecord
  2
GEVID1210145340
 70
     0
  0
APPID
  5
4D6
330
9
100
AcDbSymbolTableRecord
100
AcDbRegAppTableRecord
  2
GEVID1210145341
 70
     0
  0
APPID
  5
4D7
330
9
100
AcDbSymbolTableRecord
100
AcDbRegAppTableRecord
  2
GEVID1210145342
 70
     0
  0
APPID
  5
4D8
330
9
100
AcDbSymbolTableRecord
100
AcDbRegAppTableRecord
  2
GEVID1210145343
 70
     0
  0
APPID
  5
4D9
330
9
100
AcDbSymbolTableRecord
100
AcDbRegAppTableRecord
  2
GEVID1210145344
 70
     0
  0
APPID
  5
4DA
330
9
100
AcDbSymbolTableRecord
100
AcDbRegAppTableRecord
  2
GEVID1210145345
 70
     0
  0
APPID
  5
4DB
330
9
100
AcDbSymbolTableRecord
100
AcDbRegAppTableRecord
  2
GEVID1210152816
 70
     0
  0
APPID
  5
4DC
330
9
100
AcDbSymbolTableRecord
100
AcDbRegAppTableRecord
  2
GEVID1210153850
 70
     0
  0
APPID
  5
4DD
330
9
100
AcDbSymbolTableRecord
100
AcDbRegAppTableRecord
  2
GEVID1210153851
 70
     0
  0
APPID
  5
4DE
330
9
100
AcDbSymbolTableRecord
100
AcDbRegAppTableRecord
  2
GEVID1210153852
 70
     0
  0
APPID
  5
4DF
330
9
100
AcDbSymbolTableRecord
100
AcDbRegAppTableRecord
  2
GEVID1210549898
 70
     0
  0
APPID
  5
4E0
330
9
100
AcDbSymbolTableRecord
100
AcDbRegAppTableRecord
  2
GEVID1210549899
 70
     0
  0
APPID
  5
4E1
330
9
100
AcDbSymbolTableRecord
100
AcDbRegAppTableRecord
  2
GEVID1210549900
 70
     0
  0
APPID
  5
4E2
330
9
100
AcDbSymbolTableRecord
100
AcDbRegAppTableRecord
  2
GEVID1210549901
 70
     0
  0
APPID
  5
4E3
330
9
100
AcDbSymbolTableRecord
100
AcDbRegAppTableRecord
  2
GEVID1210549902
 70
     0
  0
APPID
  5
4E4
330
9
100
AcDbSymbolTableRecord
100
AcDbRegAppTableRecord
  2
GEVID1210549903
 70
     0
  0
APPID
  5
4E5
330
9
100
AcDbSymbolTableRecord
100
AcDbRegAppTableRecord
  2
GEVID1210549904
 70
     0
  0
APPID
  5
4E6
330
9
100
AcDbSymbolTableRecord
100
AcDbRegAppTableRecord
  2
GEVID1210549905
 70
     0
  0
APPID
  5
4E7
330
9
100
AcDbSymbolTableRecord
100
AcDbRegAppTableRecord
  2
GEVID1210549906
 70
     0
  0
APPID
  5
4E8
330
9
100
AcDbSymbolTableRecord
100
AcDbRegAppTableRecord
  2
GEVID1210549907
 70
     0
  0
APPID
  5
4E9
330
9
100
AcDbSymbolTableRecord
100
AcDbRegAppTableRecord
  2
GEVID1210549908
 70
     0
  0
APPID
  5
4EA
330
9
100
AcDbSymbolTableRecord
100
AcDbRegAppTableRecord
  2
GEVID1210549909
 70
     0
  0
APPID
  5
4EB
330
9
100
AcDbSymbolTableRecord
100
AcDbRegAppTableRecord
  2
GEVID1210549910
 70
     0
  0
APPID
  5
4EC
330
9
100
AcDbSymbolTableRecord
100
AcDbRegAppTableRecord
  2
GEVID1210549911
 70
     0
  0
APPID
  5
4ED
330
9
100
AcDbSymbolTableRecord
100
AcDbRegAppTableRecord
  2
GEVID1210549912
 70
     0
  0
APPID
  5
4EE
330
9
100
AcDbSymbolTableRecord
100
AcDbRegAppTableRecord
  2
GEVID1210549913
 70
     0
  0
APPID
  5
4EF
330
9
100
AcDbSymbolTableRecord
100
AcDbRegAppTableRecord
  2
GEVID1210549914
 70
     0
  0
APPID
  5
4F0
330
9
100
AcDbSymbolTableRecord
100
AcDbRegAppTableRecord
  2
GEVID1210549915
 70
     0
  0
APPID
  5
4F1
330
9
100
AcDbSymbolTableRecord
100
AcDbRegAppTableRecord
  2
GEVID1210549916
 70
     0
  0
APPID
  5
4F2
330
9
100
AcDbSymbolTableRecord
100
AcDbRegAppTableRecord
  2
GEVID1210549917
 70
     0
  0
APPID
  5
4F3
330
9
100
AcDbSymbolTableRecord
100
AcDbRegAppTableRecord
  2
GENIUS_GENOBJ-N-CRS_13
 70
     0
  0
APPID
  5
4F4
330
9
100
AcDbSymbolTableRecord
100
AcDbRegAppTableRecord
  2
GEVID1210549918
 70
     0
  0
APPID
  5
4F5
330
9
100
AcDbSymbolTableRecord
100
AcDbRegAppTableRecord
  2
GENIUS_GENOBJ-N-CRC_13
 70
     0
  0
APPID
  5
4F6
330
9
100
AcDbSymbolTableRecord
100
AcDbRegAppTableRecord
  2
GENIUS_GENCRC_14
 70
     0
  0
APPID
  5
4F7
330
9
100
AcDbSymbolTableRecord
100
AcDbRegAppTableRecord
  2
GEVID1210549919
 70
     0
  0
APPID
  5
4F8
330
9
100
AcDbSymbolTableRecord
100
AcDbRegAppTableRecord
  2
GEVID1210549921
 70
     0
  0
APPID
  5
4F9
330
9
100
AcDbSymbolTableRecord
100
AcDbRegAppTableRecord
  2
GEVID1210549922
 70
     0
  0
APPID
  5
4FA
330
9
100
AcDbSymbolTableRecord
100
AcDbRegAppTableRecord
  2
GEVID1210635173
 70
     0
  0
APPID
  5
4FB
330
9
100
AcDbSymbolTableRecord
100
AcDbRegAppTableRecord
  2
GEVID1210635174
 70
     0
  0
APPID
  5
4FC
330
9
100
AcDbSymbolTableRecord
100
AcDbRegAppTableRecord
  2
GEVID1210635175
 70
     0
  0
APPID
  5
4FD
330
9
100
AcDbSymbolTableRecord
100
AcDbRegAppTableRecord
  2
GEVID1210635176
 70
     0
  0
APPID
  5
4FE
330
9
100
AcDbSymbolTableRecord
100
AcDbRegAppTableRecord
  2
GEVID1210635177
 70
     0
  0
APPID
  5
4FF
330
9
100
AcDbSymbolTableRecord
100
AcDbRegAppTableRecord
  2
GEVID1210635178
 70
     0
  0
APPID
  5
500
330
9
100
AcDbSymbolTableRecord
100
AcDbRegAppTableRecord
  2
GENIUS_GENIUS_GENBHEDTMP_13
 70
     0
  0
APPID
  5
501
330
9
100
AcDbSymbolTableRecord
100
AcDbRegAppTableRecord
  2
GEVID1210635179
 70
     0
  0
APPID
  5
502
330
9
100
AcDbSymbolTableRecord
100
AcDbRegAppTableRecord
  2
GEVID1210635180
 70
     0
  0
APPID
  5
503
330
9
100
AcDbSymbolTableRecord
100
AcDbRegAppTableRecord
  2
GEVID1210635181
 70
     0
  0
APPID
  5
504
330
9
100
AcDbSymbolTableRecord
100
AcDbRegAppTableRecord
  2
GEVID1210635182
 70
     0
  0
APPID
  5
505
330
9
100
AcDbSymbolTableRecord
100
AcDbRegAppTableRecord
  2
GEVID1210635184
 70
     0
  0
APPID
  5
506
330
9
100
AcDbSymbolTableRecord
100
AcDbRegAppTableRecord
  2
GEVID1210635185
 70
     0
  0
APPID
  5
507
330
9
100
AcDbSymbolTableRecord
100
AcDbRegAppTableRecord
  2
GEVID1210635186
 70
     0
  0
APPID
  5
508
330
9
100
AcDbSymbolTableRecord
100
AcDbRegAppTableRecord
  2
GEVID1210635187
 70
     0
  0
APPID
  5
509
330
9
100
AcDbSymbolTableRecord
100
AcDbRegAppTableRecord
  2
GEVID1210635188
 70
     0
  0
APPID
  5
50A
330
9
100
AcDbSymbolTableRecord
100
AcDbRegAppTableRecord
  2
GEVID1210635189
 70
     0
  0
APPID
  5
50B
330
9
100
AcDbSymbolTableRecord
100
AcDbRegAppTableRecord
  2
GEVID1210635190
 70
     0
  0
APPID
  5
50C
330
9
100
AcDbSymbolTableRecord
100
AcDbRegAppTableRecord
  2
GENIUS_GENREC_14
 70
     0
  0
APPID
  5
50D
330
9
100
AcDbSymbolTableRecord
100
AcDbRegAppTableRecord
  2
GENIUS_GENOBJ-N-REC_13
 70
     0
  0
APPID
  5
50E
330
9
100
AcDbSymbolTableRecord
100
AcDbRegAppTableRecord
  2
GEVID1210676655
 70
     0
  0
APPID
  5
50F
330
9
100
AcDbSymbolTableRecord
100
AcDbRegAppTableRecord
  2
GEVID1210676656
 70
     0
  0
APPID
  5
510
330
9
100
AcDbSymbolTableRecord
100
AcDbRegAppTableRecord
  2
GEVID1210676657
 70
     0
  0
APPID
  5
511
330
9
100
AcDbSymbolTableRecord
100
AcDbRegAppTableRecord
  2
GEVID1210676659
 70
     0
  0
APPID
  5
512
330
9
100
AcDbSymbolTableRecord
100
AcDbRegAppTableRecord
  2
GEVID1210676660
 70
     0
  0
APPID
  5
513
330
9
100
AcDbSymbolTableRecord
100
AcDbRegAppTableRecord
  2
GEVID1210676661
 70
     0
  0
APPID
  5
514
330
9
100
AcDbSymbolTableRecord
100
AcDbRegAppTableRecord
  2
GEVID1210676662
 70
     0
  0
APPID
  5
515
330
9
100
AcDbSymbolTableRecord
100
AcDbRegAppTableRecord
  2
GEVID1210721646
 70
     0
  0
APPID
  5
516
330
9
100
AcDbSymbolTableRecord
100
AcDbRegAppTableRecord
  2
GEVID1210721647
 70
     0
  0
APPID
  5
517
330
9
100
AcDbSymbolTableRecord
100
AcDbRegAppTableRecord
  2
GEVID1210721648
 70
     0
  0
APPID
  5
518
330
9
100
AcDbSymbolTableRecord
100
AcDbRegAppTableRecord
  2
GEVID1210721649
 70
     0
  0
APPID
  5
519
330
9
100
AcDbSymbolTableRecord
100
AcDbRegAppTableRecord
  2
GEVID1210721650
 70
     0
  0
APPID
  5
51A
330
9
100
AcDbSymbolTableRecord
100
AcDbRegAppTableRecord
  2
GEVID1210721651
 70
     0
  0
APPID
  5
51B
330
9
100
AcDbSymbolTableRecord
100
AcDbRegAppTableRecord
  2
GEVID1210721652
 70
     0
  0
APPID
  5
51C
330
9
100
AcDbSymbolTableRecord
100
AcDbRegAppTableRecord
  2
GEVID1210721653
 70
     0
  0
APPID
  5
51D
330
9
100
AcDbSymbolTableRecord
100
AcDbRegAppTableRecord
  2
PE_URL
 70
     0
  0
APPID
  5
51E
330
9
100
AcDbSymbolTableRecord
100
AcDbRegAppTableRecord
  2
GEVID1210825555
 70
     0
  0
APPID
  5
51F
330
9
100
AcDbSymbolTableRecord
100
AcDbRegAppTableRecord
  2
GEVID1210825556
 70
     0
  0
APPID
  5
520
330
9
100
AcDbSymbolTableRecord
100
AcDbRegAppTableRecord
  2
GEVID1210825557
 70
     0
  0
APPID
  5
521
330
9
100
AcDbSymbolTableRecord
100
AcDbRegAppTableRecord
  2
GEVID1210825558
 70
     0
  0
APPID
  5
522
330
9
100
AcDbSymbolTableRecord
100
AcDbRegAppTableRecord
  2
GEVID1210825559
 70
     0
  0
APPID
  5
523
330
9
100
AcDbSymbolTableRecord
100
AcDbRegAppTableRecord
  2
GEVID1210825560
 70
     0
  0
APPID
  5
524
330
9
100
AcDbSymbolTableRecord
100
AcDbRegAppTableRecord
  2
GEVID1210825561
 70
     0
  0
APPID
  5
525
330
9
100
AcDbSymbolTableRecord
100
AcDbRegAppTableRecord
  2
GEVID1210825562
 70
     0
  0
APPID
  5
526
330
9
100
AcDbSymbolTableRecord
100
AcDbRegAppTableRecord
  2
GEVID1210825563
 70
     0
  0
APPID
  5
527
330
9
100
AcDbSymbolTableRecord
100
AcDbRegAppTableRecord
  2
GEVID1210825564
 70
     0
  0
APPID
  5
528
330
9
100
AcDbSymbolTableRecord
100
AcDbRegAppTableRecord
  2
GEVID1210825565
 70
     0
  0
APPID
  5
529
330
9
100
AcDbSymbolTableRecord
100
AcDbRegAppTableRecord
  2
GEVID1210825566
 70
     0
  0
APPID
  5
52A
330
9
100
AcDbSymbolTableRecord
100
AcDbRegAppTableRecord
  2
GEVID1210825567
 70
     0
  0
APPID
  5
52B
330
9
100
AcDbSymbolTableRecord
100
AcDbRegAppTableRecord
  2
GENIUS_GENOBJ-N-ZOO_13
 70
     0
  0
APPID
  5
52C
330
9
100
AcDbSymbolTableRecord
100
AcDbRegAppTableRecord
  2
GENIUS_GENZOO_17
 70
     0
  0
APPID
  5
52D
330
9
100
AcDbSymbolTableRecord
100
AcDbRegAppTableRecord
  2
ACADANNOTATIVEDECOMPOSITION
 70
     0
  0
APPID
  5
52E
330
9
100
AcDbSymbolTableRecord
100
AcDbRegAppTableRecord
  2
GENIUS_GENOBJ-N-HTC_13
 70
     0
  0
APPID
  5
52F
330
9
100
AcDbSymbolTableRecord
100
AcDbRegAppTableRecord
  2
GENIUS_GENHATCH_13
 70
     0
  0
APPID
  5
530
330
9
100
AcDbSymbolTableRecord
100
AcDbRegAppTableRecord
  2
GEVID1210896020
 70
     0
  0
APPID
  5
531
330
9
100
AcDbSymbolTableRecord
100
AcDbRegAppTableRecord
  2
GEVID1210896021
 70
     0
  0
APPID
  5
532
330
9
100
AcDbSymbolTableRecord
100
AcDbRegAppTableRecord
  2
GEVID1209083540
 70
     0
  0
APPID
  5
533
330
9
100
AcDbSymbolTableRecord
100
AcDbRegAppTableRecord
  2
GEVMK
 70
     0
  0
APPID
  5
534
330
9
100
AcDbSymbolTableRecord
100
AcDbRegAppTableRecord
  2
GEVID1209083542
 70
     0
  0
APPID
  5
535
330
9
100
AcDbSymbolTableRecord
100
AcDbRegAppTableRecord
  2
GEVID1209083543
 70
     0
  0
APPID
  5
536
330
9
100
AcDbSymbolTableRecord
100
AcDbRegAppTableRecord
  2
GEVID1209083544
 70
     0
  0
APPID
  5
537
330
9
100
AcDbSymbolTableRecord
100
AcDbRegAppTableRecord
  2
GEVID1209083545
 70
     0
  0
APPID
  5
538
330
9
100
AcDbSymbolTableRecord
100
AcDbRegAppTableRecord
  2
GEVID1209083546
 70
     0
  0
APPID
  5
539
330
9
100
AcDbSymbolTableRecord
100
AcDbRegAppTableRecord
  2
GEVID1209083547
 70
     0
  0
APPID
  5
53A
330
9
100
AcDbSymbolTableRecord
100
AcDbRegAppTableRecord
  2
GEVID1209083548
 70
     0
  0
APPID
  5
53B
330
9
100
AcDbSymbolTableRecord
100
AcDbRegAppTableRecord
  2
GEVID1209083549
 70
     0
  0
APPID
  5
53C
330
9
100
AcDbSymbolTableRecord
100
AcDbRegAppTableRecord
  2
GEVID1209083550
 70
     0
  0
APPID
  5
53D
330
9
100
AcDbSymbolTableRecord
100
AcDbRegAppTableRecord
  2
GEVID1209083551
 70
     0
  0
APPID
  5
53E
330
9
100
AcDbSymbolTableRecord
100
AcDbRegAppTableRecord
  2
GEVID1209083552
 70
     0
  0
APPID
  5
53F
330
9
100
AcDbSymbolTableRecord
100
AcDbRegAppTableRecord
  2
GEVID1209083553
 70
     0
  0
APPID
  5
540
330
9
100
AcDbSymbolTableRecord
100
AcDbRegAppTableRecord
  2
GEVID1210896022
 70
     0
  0
APPID
  5
541
330
9
100
AcDbSymbolTableRecord
100
AcDbRegAppTableRecord
  2
GEVID1211508364
 70
     0
  0
APPID
  5
542
330
9
100
AcDbSymbolTableRecord
100
AcDbRegAppTableRecord
  2
GEVID1211414908
 70
     0
  0
APPID
  5
543
330
9
100
AcDbSymbolTableRecord
100
AcDbRegAppTableRecord
  2
GEVID1211414909
 70
     0
  0
APPID
  5
544
330
9
100
AcDbSymbolTableRecord
100
AcDbRegAppTableRecord
  2
GEVID1211508359
 70
     0
  0
APPID
  5
545
330
9
100
AcDbSymbolTableRecord
100
AcDbRegAppTableRecord
  2
GEVID1211508360
 70
     0
  0
APPID
  5
546
330
9
100
AcDbSymbolTableRecord
100
AcDbRegAppTableRecord
  2
GEVID1211508361
 70
     0
  0
APPID
  5
547
330
9
100
AcDbSymbolTableRecord
100
AcDbRegAppTableRecord
  2
GEVID1211508362
 70
     0
  0
APPID
  5
548
330
9
100
AcDbSymbolTableRecord
100
AcDbRegAppTableRecord
  2
GEVID1211508363
 70
     0
  0
APPID
  5
549
330
9
100
AcDbSymbolTableRecord
100
AcDbRegAppTableRecord
  2
GEVID1211878469
 70
     0
  0
APPID
  5
54A
330
9
100
AcDbSymbolTableRecord
100
AcDbRegAppTableRecord
  2
GEVID1212642819
 70
     0
  0
APPID
  5
54B
330
9
100
AcDbSymbolTableRecord
100
AcDbRegAppTableRecord
  2
GEVID1212642820
 70
     0
  0
APPID
  5
54C
330
9
100
AcDbSymbolTableRecord
100
AcDbRegAppTableRecord
  2
GEVID1212642821
 70
     0
  0
APPID
  5
54D
330
9
100
AcDbSymbolTableRecord
100
AcDbRegAppTableRecord
  2
GEVID1212642822
 70
     0
  0
APPID
  5
54E
330
9
100
AcDbSymbolTableRecord
100
AcDbRegAppTableRecord
  2
GEVID1212642823
 70
     0
  0
APPID
  5
54F
330
9
100
AcDbSymbolTableRecord
100
AcDbRegAppTableRecord
  2
GEVID1212642825
 70
     0
  0
APPID
  5
550
330
9
100
AcDbSymbolTableRecord
100
AcDbRegAppTableRecord
  2
GEVID1212642826
 70
     0
  0
APPID
  5
551
330
9
100
AcDbSymbolTableRecord
100
AcDbRegAppTableRecord
  2
GEVID1212642827
 70
     0
  0
APPID
  5
552
330
9
100
AcDbSymbolTableRecord
100
AcDbRegAppTableRecord
  2
GEVID1212642828
 70
     0
  0
APPID
  5
553
330
9
100
AcDbSymbolTableRecord
100
AcDbRegAppTableRecord
  2
GEVID1212642831
 70
     0
  0
APPID
  5
554
330
9
100
AcDbSymbolTableRecord
100
AcDbRegAppTableRecord
  2
GEVID1212642834
 70
     0
  0
APPID
  5
555
330
9
100
AcDbSymbolTableRecord
100
AcDbRegAppTableRecord
  2
GEVID1212642835
 70
     0
  0
APPID
  5
556
330
9
100
AcDbSymbolTableRecord
100
AcDbRegAppTableRecord
  2
GEVID1212642836
 70
     0
  0
APPID
  5
557
330
9
100
AcDbSymbolTableRecord
100
AcDbRegAppTableRecord
  2
GEVID1212642837
 70
     0
  0
APPID
  5
558
330
9
100
AcDbSymbolTableRecord
100
AcDbRegAppTableRecord
  2
GEVID1212642839
 70
     0
  0
APPID
  5
559
330
9
100
AcDbSymbolTableRecord
100
AcDbRegAppTableRecord
  2
GEVID1212642840
 70
     0
  0
APPID
  5
55A
330
9
100
AcDbSymbolTableRecord
100
AcDbRegAppTableRecord
  2
GEVID1212642841
 70
     0
  0
APPID
  5
55B
330
9
100
AcDbSymbolTableRecord
100
AcDbRegAppTableRecord
  2
GEVID1212655312
 70
     0
  0
APPID
  5
55C
330
9
100
AcDbSymbolTableRecord
100
AcDbRegAppTableRecord
  2
GEVID1212655313
 70
     0
  0
APPID
  5
55D
330
9
100
AcDbSymbolTableRecord
100
AcDbRegAppTableRecord
  2
GEVID1212656533
 70
     0
  0
APPID
  5
55E
330
9
100
AcDbSymbolTableRecord
100
AcDbRegAppTableRecord
  2
GEVID1212656534
 70
     0
  0
APPID
  5
55F
330
9
100
AcDbSymbolTableRecord
100
AcDbRegAppTableRecord
  2
GEVID1212656535
 70
     0
  0
APPID
  5
560
330
9
100
AcDbSymbolTableRecord
100
AcDbRegAppTableRecord
  2
GEVID1212656536
 70
     0
  0
APPID
  5
561
330
9
100
AcDbSymbolTableRecord
100
AcDbRegAppTableRecord
  2
GEVID1212656538
 70
     0
  0
APPID
  5
562
330
9
100
AcDbSymbolTableRecord
100
AcDbRegAppTableRecord
  2
GEVID1212656541
 70
     0
  0
APPID
  5
563
330
9
100
AcDbSymbolTableRecord
100
AcDbRegAppTableRecord
  2
GEVID1212656543
 70
     0
  0
APPID
  5
564
330
9
100
AcDbSymbolTableRecord
100
AcDbRegAppTableRecord
  2
GENIUS_GENOBJ-F-PFASSM_13
 70
     0
  0
APPID
  5
565
330
9
100
AcDbSymbolTableRecord
100
AcDbRegAppTableRecord
  2
GEVID1212656544
 70
     0
  0
APPID
  5
566
330
9
100
AcDbSymbolTableRecord
100
AcDbRegAppTableRecord
  2
GEVID1212656545
 70
     0
  0
APPID
  5
567
330
9
100
AcDbSymbolTableRecord
100
AcDbRegAppTableRecord
  2
GEVID1212656546
 70
     0
  0
APPID
  5
568
330
9
100
AcDbSymbolTableRecord
100
AcDbRegAppTableRecord
  2
GEVID1212656547
 70
     0
  0
APPID
  5
569
330
9
100
AcDbSymbolTableRecord
100
AcDbRegAppTableRecord
  2
GEVID1212656548
 70
     0
  0
APPID
  5
56A
330
9
100
AcDbSymbolTableRecord
100
AcDbRegAppTableRecord
  2
GEVID1212656549
 70
     0
  0
APPID
  5
56B
330
9
100
AcDbSymbolTableRecord
100
AcDbRegAppTableRecord
  2
GEVID1212656550
 70
     0
  0
APPID
  5
56C
330
9
100
AcDbSymbolTableRecord
100
AcDbRegAppTableRecord
  2
GEVID1212656552
 70
     0
  0
APPID
  5
56D
330
9
100
AcDbSymbolTableRecord
100
AcDbRegAppTableRecord
  2
GEVID1212656553
 70
     0
  0
APPID
  5
56E
330
9
100
AcDbSymbolTableRecord
100
AcDbRegAppTableRecord
  2
GEVID1212656554
 70
     0
  0
APPID
  5
56F
330
9
100
AcDbSymbolTableRecord
100
AcDbRegAppTableRecord
  2
GEVID1212656555
 70
     0
  0
APPID
  5
570
330
9
100
AcDbSymbolTableRecord
100
AcDbRegAppTableRecord
  2
GEVID1212656556
 70
     0
  0
APPID
  5
571
330
9
100
AcDbSymbolTableRecord
100
AcDbRegAppTableRecord
  2
GEVID1212656557
 70
     0
  0
APPID
  5
572
330
9
100
AcDbSymbolTableRecord
100
AcDbRegAppTableRecord
  2
GEVID1212656559
 70
     0
  0
APPID
  5
573
330
9
100
AcDbSymbolTableRecord
100
AcDbRegAppTableRecord
  2
GEVID1212656560
 70
     0
  0
APPID
  5
574
330
9
100
AcDbSymbolTableRecord
100
AcDbRegAppTableRecord
  2
GEVID1212656561
 70
     0
  0
APPID
  5
575
330
9
100
AcDbSymbolTableRecord
100
AcDbRegAppTableRecord
  2
GEVID1212656562
 70
     0
  0
APPID
  5
576
330
9
100
AcDbSymbolTableRecord
100
AcDbRegAppTableRecord
  2
GEVID1212656563
 70
     0
  0
APPID
  5
577
330
9
100
AcDbSymbolTableRecord
100
AcDbRegAppTableRecord
  2
GEVID1212711781
 70
     0
  0
APPID
  5
578
330
9
100
AcDbSymbolTableRecord
100
AcDbRegAppTableRecord
  2
GEVID1212711782
 70
     0
  0
APPID
  5
579
330
9
100
AcDbSymbolTableRecord
100
AcDbRegAppTableRecord
  2
GEVID1212711783
 70
     0
  0
APPID
  5
57A
330
9
100
AcDbSymbolTableRecord
100
AcDbRegAppTableRecord
  2
GEVID1212711784
 70
     0
  0
APPID
  5
57B
330
9
100
AcDbSymbolTableRecord
100
AcDbRegAppTableRecord
  2
GEVID1212711788
 70
     0
  0
APPID
  5
57C
330
9
100
AcDbSymbolTableRecord
100
AcDbRegAppTableRecord
  2
GEVID1212711789
 70
     0
  0
APPID
  5
57D
330
9
100
AcDbSymbolTableRecord
100
AcDbRegAppTableRecord
  2
GEVID1212711790
 70
     0
  0
APPID
  5
57E
330
9
100
AcDbSymbolTableRecord
100
AcDbRegAppTableRecord
  2
GEVID1212711791
 70
     0
  0
APPID
  5
57F
330
9
100
AcDbSymbolTableRecord
100
AcDbRegAppTableRecord
  2
GEVID1212711792
 70
     0
  0
APPID
  5
580
330
9
100
AcDbSymbolTableRecord
100
AcDbRegAppTableRecord
  2
GEVID1212711793
 70
     0
  0
APPID
  5
581
330
9
100
AcDbSymbolTableRecord
100
AcDbRegAppTableRecord
  2
GEVID1212711794
 70
     0
  0
APPID
  5
582
330
9
100
AcDbSymbolTableRecord
100
AcDbRegAppTableRecord
  2
GEVID1212711795
 70
     0
  0
APPID
  5
583
330
9
100
AcDbSymbolTableRecord
100
AcDbRegAppTableRecord
  2
GEVID1212711797
 70
     0
  0
APPID
  5
584
330
9
100
AcDbSymbolTableRecord
100
AcDbRegAppTableRecord
  2
GEVID1212711798
 70
     0
  0
APPID
  5
585
330
9
100
AcDbSymbolTableRecord
100
AcDbRegAppTableRecord
  2
GEVID1212711799
 70
     0
  0
APPID
  5
586
330
9
100
AcDbSymbolTableRecord
100
AcDbRegAppTableRecord
  2
GEVID1212711800
 70
     0
  0
APPID
  5
587
330
9
100
AcDbSymbolTableRecord
100
AcDbRegAppTableRecord
  2
GEVID1212711801
 70
     0
  0
APPID
  5
588
330
9
100
AcDbSymbolTableRecord
100
AcDbRegAppTableRecord
  2
GEVID1212711802
 70
     0
  0
APPID
  5
589
330
9
100
AcDbSymbolTableRecord
100
AcDbRegAppTableRecord
  2
GEVID1212711803
 70
     0
  0
APPID
  5
58A
330
9
100
AcDbSymbolTableRecord
100
AcDbRegAppTableRecord
  2
GEVID1212711804
 70
     0
  0
APPID
  5
58B
330
9
100
AcDbSymbolTableRecord
100
AcDbRegAppTableRecord
  2
GEVID1212711805
 70
     0
  0
APPID
  5
58C
330
9
100
AcDbSymbolTableRecord
100
AcDbRegAppTableRecord
  2
GEVID1212711806
 70
     0
  0
APPID
  5
58D
330
9
100
AcDbSymbolTableRecord
100
AcDbRegAppTableRecord
  2
GEVID1212711807
 70
     0
  0
APPID
  5
58E
330
9
100
AcDbSymbolTableRecord
100
AcDbRegAppTableRecord
  2
GEVID1212711808
 70
     0
  0
APPID
  5
58F
330
9
100
AcDbSymbolTableRecord
100
AcDbRegAppTableRecord
  2
GEVID1212711809
 70
     0
  0
APPID
  5
590
330
9
100
AcDbSymbolTableRecord
100
AcDbRegAppTableRecord
  2
GEVID1212711810
 70
     0
  0
APPID
  5
591
330
9
100
AcDbSymbolTableRecord
100
AcDbRegAppTableRecord
  2
GEVID1212711811
 70
     0
  0
APPID
  5
90A
330
9
100
AcDbSymbolTableRecord
100
AcDbRegAppTableRecord
  2
GENIUS_GENTRA_14
 70
     0
  0
APPID
  5
919
330
9
100
AcDbSymbolTableRecord
100
AcDbRegAppTableRecord
  2
GENIUS_GENOBJ-N-TIT_13
 70
     0
  0
APPID
  5
91A
330
9
100
AcDbSymbolTableRecord
100
AcDbRegAppTableRecord
  2
GENIUS_GENTITLE_13
 70
     0
  0
APPID
  5
949
330
9
100
AcDbSymbolTableRecord
100
AcDbRegAppTableRecord
  2
GENIUS_GENBLLY_14
 70
     0
  0
APPID
  5
DDD
330
9
100
AcDbSymbolTableRecord
100
AcDbRegAppTableRecord
  2
GEVID1213165152
 70
     0
  0
APPID
  5
12F9
330
9
100
AcDbSymbolTableRecord
100
AcDbRegAppTableRecord
  2
AcDbDynamicBlockTrueName
 70
     0
  0
APPID
  5
12FA
330
9
100
AcDbSymbolTableRecord
100
AcDbRegAppTableRecord
  2
ACDBBLOCKREPETAG
 70
     0
  0
APPID
  5
1C15
330
9
100
AcDbSymbolTableRecord
100
AcDbRegAppTableRecord
  2
GEVID1214872427
 70
     0
  0
APPID
  5
1C2A
330
9
100
AcDbSymbolTableRecord
100
AcDbRegAppTableRecord
  2
GEVID1214872428
 70
     0
  0
APPID
  5
1C2F
330
9
100
AcDbSymbolTableRecord
100
AcDbRegAppTableRecord
  2
GEVID1214872429
 70
     0
  0
APPID
  5
1C33
330
9
100
AcDbSymbolTableRecord
100
AcDbRegAppTableRecord
  2
GEVID1214872430
 70
     0
  0
APPID
  5
1C3F
330
9
100
AcDbSymbolTableRecord
100
AcDbRegAppTableRecord
  2
GEVID1214872432
 70
     0
  0
APPID
  5
1C4E
330
9
100
AcDbSymbolTableRecord
100
AcDbRegAppTableRecord
  2
GEVID1214872433
 70
     0
  0
APPID
  5
20DC
330
9
100
AcDbSymbolTableRecord
100
AcDbRegAppTableRecord
  2
AcDbDynamicBlockGUID
 70
     0
  0
APPID
  5
20FD
330
9
100
AcDbSymbolTableRecord
100
AcDbRegAppTableRecord
  2
GENIUS_GENOBJ-N-REV_13
 70
     0
  0
APPID
  5
20FE
330
9
100
AcDbSymbolTableRecord
100
AcDbRegAppTableRecord
  2
GENIUS_GENOBJ-N-RSSYM_13
 70
     0
  0
APPID
  5
20FF
330
9
100
AcDbSymbolTableRecord
100
AcDbRegAppTableRecord
  2
GENIUS_GENSYMENT_13
 70
     0
  0
APPID
  5
2100
330
9
100
AcDbSymbolTableRecord
100
AcDbRegAppTableRecord
  2
GENIUS_GENSCSYM_13
 70
     0
  0
ENDTAB
  0
TABLE
  2
DIMSTYLE
  5
A
330
0
100
AcDbSymbolTable
 70
    10
100
AcDbDimStyleTable
 71
     1
340
5AB
  0
DIMSTYLE
105
5AB
330
A
100
AcDbSymbolTableRecord
100
AcDbDimStyleTableRecord
  2
SEISA
 70
     0
  4
"
 41
2.5
 42
0.625
 43
10.0
 44
0.625
 47
0.1
 48
0.1
 73
     0
 74
     0
 77
     3
 78
     8
 79
     2
 90
     1
140
3.5
141
0.0
143
0.0393701
146
0.71
147
1.5
172
     1
176
     3
177
     3
178
     3
271
     2
272
     3
283
     0
286
     8
340
5D5
341
69
342
69
371
    -1
372
    -1
1001
ACAD_DSTYLE_DIMJAG
1070
   388
1040
1.5
1001
ACAD_DSTYLE_DIMTALN
1070
   392
1070
     1
  0
DIMSTYLE
105
5E9
102
{ACAD_REACTORS
330
5D47
330
5D5F
330
5D77
330
5DDF
330
5E1E
330
5E36
330
5EB0
330
5EF8
330
613C
330
61B9
330
61D1
330
61ED
330
6DD9
330
6E03
330
6ECC
102
}
330
A
100
AcDbSymbolTableRecord
100
AcDbDimStyleTableRecord
  2
SEISA$0
 70
     0
  4
"
 41
2.5
 42
0.625
 43
10.0
 44
0.625
 47
0.1
 48
0.1
 73
     0
 74
     0
 77
     3
 78
     8
 79
     2
 90
     1
140
3.5
141
0.0
143
0.0393701
146
0.71
147
1.5
172
     1
176
     3
177
     3
178
     3
271
     2
272
     3
283
     0
286
     8
340
5D5
341
69
342
69
371
    -1
372
    -1
  0
DIMSTYLE
105
7186
330
A
100
AcDbSymbolTableRecord
100
AcDbDimStyleTableRecord
  2
AM_ISO
 70
     0
  4
"
 41
2.5
 42
1.0
 43
10.0
 44
1.0
 47
0.1
 48
0.1
 73
     0
 74
     0
 77
     1
 78
     8
 79
     2
 90
     1
140
3.5
141
0.0
143
0.0393701
146
0.71
147
1.5
172
     1
176
   256
177
   256
178
     2
271
     2
272
     3
274
     4
283
     0
284
     8
340
11
371
    -1
372
    -1
  0
DIMSTYLE
105
7187
330
A
100
AcDbSymbolTableRecord
100
AcDbDimStyleTableRecord
  2
AM_ISO$3
 70
     0
  4
"
 41
2.5
 42
1.0
 43
10.0
 44
1.0
 47
0.1
 48
0.1
 73
     0
 77
     1
 78
     8
 79
     2
 90
     1
140
3.5
141
0.0
143
0.0393701
146
0.71
147
1.5
176
   256
177
   256
178
     2
271
     2
272
     3
274
     4
283
     0
284
     8
288
     1
289
     0
340
11
371
    -1
372
    -1
  0
DIMSTYLE
105
7188
330
A
100
AcDbSymbolTableRecord
100
AcDbDimStyleTableRecord
  2
AM_ISO$4
 70
     0
  4
"
 41
2.5
 42
1.0
 43
10.0
 44
1.0
 47
0.1
 48
0.1
 73
     0
 77
     1
 78
     8
 79
     2
 90
     1
140
3.5
141
0.0
143
0.0393701
146
0.71
147
1.5
176
   256
177
   256
178
     2
271
     2
272
     3
274
     4
283
     0
284
     8
288
     1
289
     0
340
11
371
    -1
372
    -1
  0
DIMSTYLE
105
7189
330
A
100
AcDbSymbolTableRecord
100
AcDbDimStyleTableRecord
  2
AM_ISO$6
 70
     0
  4
"
 41
2.5
 42
1.0
 43
10.0
 44
1.0
 47
0.1
 48
0.1
 73
     0
 74
     0
 78
     8
 79
     2
 90
     1
140
3.5
141
0.0
143
0.0393701
146
0.71
147
1.5
172
     1
176
   256
177
   256
178
     2
271
     2
272
     3
274
     4
283
     0
284
     8
340
11
371
    -1
372
    -1
  0
DIMSTYLE
105
718A
330
A
100
AcDbSymbolTableRecord
100
AcDbDimStyleTableRecord
  2
AM_ISO$7
 70
     0
  4
"
 41
2.5
 42
1.0
 43
10.0
 44
1.0
 47
0.1
 48
0.1
 73
     0
 74
     0
 77
     1
 78
     8
 79
     2
 90
     1
140
5.0
141
0.0
143
0.0393701
146
0.71
147
1.5
172
     1
176
   256
177
   256
178
     2
271
     2
272
     3
274
     4
283
     0
284
     8
340
11
371
    -1
372
    -1
  0
DIMSTYLE
105
718B
330
A
100
AcDbSymbolTableRecord
100
AcDbDimStyleTableRecord
  2
AM_ISO$SF
 70
     0
  4
"
 41
2.5
 42
1.0
 43
10.0
 44
1.0
 47
0.1
 48
0.1
 73
     0
 74
     0
 75
     1
 76
     1
 77
     1
 78
     8
 79
     2
 90
     1
140
3.5
141
0.0
143
0.0393701
146
0.71
147
1.5
172
     1
176
   256
177
   256
178
     2
271
     2
272
     3
274
     4
283
     0
284
     8
340
11
371
    -1
372
    -1
  0
DIMSTYLE
105
718C
330
A
100
AcDbSymbolTableRecord
100
AcDbDimStyleTableRecord
  2
AM_ISO$SH
 70
     0
  4
"
 41
2.5
 42
1.0
 43
10.0
 44
1.0
 47
0.1
 48
0.1
 73
     0
 74
     0
 75
     1
 76
     1
 77
     1
 78
     8
 79
     2
 90
     1
140
3.5
141
0.0
143
0.0393701
144
2.0
146
0.71
147
1.5
172
     1
173
     1
176
   256
177
   256
178
     2
271
     2
272
     3
274
     4
283
     0
284
     8
340
11
343
74
371
    -1
372
    -1
  0
ENDTAB
  0
TABLE
  2
BLOCK_RECORD
  5
1
330
0
100
AcDbSymbolTable
 70
    29
  0
BLOCK_RECORD
  5
1F
102
{ACAD_XDICTIONARY
360
82
102
}
330
1
100
AcDbSymbolTableRecord
100
AcDbBlockTableRecord
  2
*Model_Space
340
22
 70
     0
280
     1
281
     0
  0
BLOCK_RECORD
  5
1B
330
1
100
AcDbSymbolTableRecord
100
AcDbBlockTableRecord
  2
*Paper_Space
340
1E
 70
     0
280
     1
281
     0
  0
BLOCK_RECORD
  5
23
330
1
100
AcDbSymbolTableRecord
100
AcDbBlockTableRecord
  2
*Paper_Space0
340
26
 70
     0
280
     1
281
     0
  0
BLOCK_RECORD
  5
69
330
1
100
AcDbSymbolTableRecord
100
AcDbBlockTableRecord
  2
_Open30
340
0
102
{BLKREFS
331
5D9B
331
5D9C
331
5DAD
331
5DAE
331
5DBF
331
5DC0
331
5E03
331
5E04
331
5F09
331
5F0A
331
61CA
331
61CB
331
61E6
331
61E7
331
61FE
331
61FF
331
6C6C
331
6C7F
331
6E42
331
6E43
331
6E56
331
6E57
331
6E5F
331
6E60
331
6EFD
331
6EFE
331
6F52
331
6F53
102
}
 70
     0
280
     1
281
     0
  0
BLOCK_RECORD
  5
74
330
1
100
AcDbSymbolTableRecord
100
AcDbBlockTableRecord
  2
GENAXEH
340
0
 70
     0
280
     1
281
     0
  0
BLOCK_RECORD
  5
5220
102
{ACAD_XDICTIONARY
360
52E8
102
}
330
1
100
AcDbSymbolTableRecord
100
AcDbBlockTableRecord
  2
ケースＡ SMVH100
340
0
310
2800000020000000200000000100080000000000000400000000000000000000000000000000000000000000000080000080000000808000800000008000800080800000C0C0C000C0DCC000F0CAA6000020400000206000002080000020A0000020C0000020E00000400000004020000040400000406000004080000040A0
310
000040C0000040E00000600000006020000060400000606000006080000060A0000060C0000060E00000800000008020000080400000806000008080000080A0000080C0000080E00000A0000000A0200000A0400000A0600000A0800000A0A00000A0C00000A0E00000C0000000C0200000C0400000C0600000C0800000C0
310
A00000C0C00000C0E00000E0000000E0200000E0400000E0600000E0800000E0A00000E0C00000E0E00040000000400020004000400040006000400080004000A0004000C0004000E00040200000402020004020400040206000402080004020A0004020C0004020E000404000004040200040404000404060004040800040
310
40A0004040C0004040E00040600000406020004060400040606000406080004060A0004060C0004060E00040800000408020004080400040806000408080004080A0004080C0004080E00040A0000040A0200040A0400040A0600040A0800040A0A00040A0C00040A0E00040C0000040C0200040C0400040C0600040C08000
310
40C0A00040C0C00040C0E00040E0000040E0200040E0400040E0600040E0800040E0A00040E0C00040E0E00080000000800020008000400080006000800080008000A0008000C0008000E00080200000802020008020400080206000802080008020A0008020C0008020E00080400000804020008040400080406000804080
310
008040A0008040C0008040E00080600000806020008060400080606000806080008060A0008060C0008060E00080800000808020008080400080806000808080008080A0008080C0008080E00080A0000080A0200080A0400080A0600080A0800080A0A00080A0C00080A0E00080C0000080C0200080C0400080C0600080C0
310
800080C0A00080C0C00080C0E00080E0000080E0200080E0400080E0600080E0800080E0A00080E0C00080E0E000C0000000C0002000C0004000C0006000C0008000C000A000C000C000C000E000C0200000C0202000C0204000C0206000C0208000C020A000C020C000C020E000C0400000C0402000C0404000C0406000C0
310
408000C040A000C040C000C040E000C0600000C0602000C0604000C0606000C0608000C060A000C060C000C060E000C0800000C0802000C0804000C0806000C0808000C080A000C080C000C080E000C0A00000C0A02000C0A04000C0A06000C0A08000C0A0A000C0A0C000C0A0E000C0C00000C0C02000C0C04000C0C06000
310
C0C08000C0C0A000F0FBFF00A4A0A000808080000000FF0000FF000000FFFF00FF000000FF00FF00FFFF0000FFFFFF0000000000000000000000000000000000000000000000000000000000000000000000000000000000000000000000000000000000000000000000000000000000000000000000000000000000000000
310
00000000000000000000000000000000000000000000000000000000000000000000000000000000000000000000000000000000000000000000000000000000000000000000000000000000000000000000000000000000000000000000000000000000000000000000000000000000000000000000000000000000000000
310
00000000000000000000000000000000000000000000000000FFFFFF000000000000FFFFFFFFFFFFFFFFFF00000000000000000000000000FF00FFFF000000000000000000000000000000FF000000000000000000000000FF00FFFF000000000000000000000000000000FF000000000000000000000000FF00A4FF000000
310
000000000000000000000000FF000000000000000000000000FF00A400000000000000000000000000000000FF0000F90000000000FFFFFFFFFF00FF00000000000000FFFFFFFFFFFFFFFFFFFFFFFFF9FFFF000000FFFEFFFFFFFFFFFF000000000000000000000000000000000000F900FF0000F9F9FFF9F9F9F9FF000000
310
00000000000000000000000000000000F900FF000000FFFF00000000FF00000000000000000000000000000000000000F900FF000000FFFFFFFFFFFFFF00000000000000000000000000000000000000F900FF000000FFFFFFFFFFFFFF00000000000000FFFFFFFFFFFFFFFFFFFFFFFFF9FFFF000000000000000000000000
310
0000000000000000000000000000000000F900000000000000000000000000000000000000000000000000000000000000F900000000000000000000000000000000000000000000000000000000000000F900000000000000000000000000000000000000000000000000000000000000F900000000000000000000000000
310
000000000000000000000000000000000000F900000000000000000000000000000000000000000000000000000000000000F900000000000000000000000000000000000000000000000000000000000000F90000000000000000000000000000000000000000000000000000000000000000000000000000000000000000
310
00000000000000000000000000000000000000000000000000000000000000000000000000000000000000000000000000000000000000000000000000000000000000000000000000000000000000000000000000000000000000000000000000000000000000000000000000000000000000000000000000000000000000
310
0000000000000000000000000000000000000000000000000000000000000000000000000000000000000000000000000000000000000000
102
{BLKREFS
331
5260
102
}
 70
     4
280
     1
281
     0
  0
BLOCK_RECORD
  5
53FD
102
{ACAD_XDICTIONARY
360
54EE
102
}
330
1
100
AcDbSymbolTableRecord
100
AcDbBlockTableRecord
  2
ケースＢ SMVH100
340
0
310
2800000020000000200000000100080000000000000400000000000000000000000000000000000000000000000080000080000000808000800000008000800080800000C0C0C000C0DCC000F0CAA6000020400000206000002080000020A0000020C0000020E00000400000004020000040400000406000004080000040A0
310
000040C0000040E00000600000006020000060400000606000006080000060A0000060C0000060E00000800000008020000080400000806000008080000080A0000080C0000080E00000A0000000A0200000A0400000A0600000A0800000A0A00000A0C00000A0E00000C0000000C0200000C0400000C0600000C0800000C0
310
A00000C0C00000C0E00000E0000000E0200000E0400000E0600000E0800000E0A00000E0C00000E0E00040000000400020004000400040006000400080004000A0004000C0004000E00040200000402020004020400040206000402080004020A0004020C0004020E000404000004040200040404000404060004040800040
310
40A0004040C0004040E00040600000406020004060400040606000406080004060A0004060C0004060E00040800000408020004080400040806000408080004080A0004080C0004080E00040A0000040A0200040A0400040A0600040A0800040A0A00040A0C00040A0E00040C0000040C0200040C0400040C0600040C08000
310
40C0A00040C0C00040C0E00040E0000040E0200040E0400040E0600040E0800040E0A00040E0C00040E0E00080000000800020008000400080006000800080008000A0008000C0008000E00080200000802020008020400080206000802080008020A0008020C0008020E00080400000804020008040400080406000804080
310
008040A0008040C0008040E00080600000806020008060400080606000806080008060A0008060C0008060E00080800000808020008080400080806000808080008080A0008080C0008080E00080A0000080A0200080A0400080A0600080A0800080A0A00080A0C00080A0E00080C0000080C0200080C0400080C0600080C0
310
800080C0A00080C0C00080C0E00080E0000080E0200080E0400080E0600080E0800080E0A00080E0C00080E0E000C0000000C0002000C0004000C0006000C0008000C000A000C000C000C000E000C0200000C0202000C0204000C0206000C0208000C020A000C020C000C020E000C0400000C0402000C0404000C0406000C0
310
408000C040A000C040C000C040E000C0600000C0602000C0604000C0606000C0608000C060A000C060C000C060E000C0800000C0802000C0804000C0806000C0808000C080A000C080C000C080E000C0A00000C0A02000C0A04000C0A06000C0A08000C0A0A000C0A0C000C0A0E000C0C00000C0C02000C0C04000C0C06000
310
C0C08000C0C0A000F0FBFF00A4A0A000808080000000FF0000FF000000FFFF00FF000000FF00FF00FFFF0000FFFFFF0000000000000000000000000000000000000000000000000000000000000000000000000000000000000000000000000000000000000000000000000000000000000000000000000000000000000000
310
00000000000000000000000000000000000000000000000000000000000000000000000000000000000000000000000000000000000000000000000000000000000000000000000000000000000000000000000000000000000000000000000000000000000000000000000000000000000000000000000000000000000000
310
00000000000000000000000000000000000000000000000000000000000000000000000000000000000000000000000000000000000000000000000000000000000000000000000000000000000000000000000000000000000000000000000000000000000000000000000000000000000000000000000000000000000000
310
000000000000000000000000000000000000000000FF000000FFFF00000000000000000000000000000000000000000000FF000000FFFFFFFFFFFFFFFFFFFFFFFFFFFFFF00000000000000000000000000FF0000F9FFFFF9F9F9F9FF000000000000000000000000000000000000000000FF000000FFFFFFFFFFFFFFFF0000
310
000000000000000000000000000000000000FF000000FFFFFFFFFF00FF00000000000000FFFFFFFFFFFFFFFFFFFFFFFFFFFFFF00000000000000FF00FF00000000000000000000000000000000FF000000000000000000000000FF00A400000000000000000000000000000000FF000000000000000000000000FF00FFFF00
310
0000000000000000000000000000FF000000000000000000000000FF00FFFF000000000000000000000000000000FF00000000000000000000000000FFFFFF000000000000FFFFFFFFFFFFFFFFFF00000000000000000000000000000000000000000000000000000000000000000000000000000000000000000000000000
310
00000000000000000000000000000000000000000000000000000000000000000000000000000000000000000000000000000000000000000000000000000000000000000000000000000000000000000000000000000000000000000000000000000000000000000000000000000000000000000000000000000000000000
310
00000000000000000000000000000000000000000000000000000000000000000000000000000000000000000000000000000000000000000000000000000000000000000000000000000000000000000000000000000000000000000000000000000000000000000000000000000000000000000000000000000000000000
310
0000000000000000000000000000000000000000000000000000000000000000000000000000000000000000000000000000000000000000
102
{BLKREFS
331
5441
102
}
 70
     4
280
     1
281
     0
  0
BLOCK_RECORD
  5
551A
102
{ACAD_XDICTIONARY
360
5553
102
}
330
1
100
AcDbSymbolTableRecord
100
AcDbBlockTableRecord
  2
ジュウジマルコネジ
340
0
310
2800000020000000200000000100080000000000000400000000000000000000000000000000000000000000000080000080000000808000800000008000800080800000C0C0C000C0DCC000F0CAA6000020400000206000002080000020A0000020C0000020E00000400000004020000040400000406000004080000040A0
310
000040C0000040E00000600000006020000060400000606000006080000060A0000060C0000060E00000800000008020000080400000806000008080000080A0000080C0000080E00000A0000000A0200000A0400000A0600000A0800000A0A00000A0C00000A0E00000C0000000C0200000C0400000C0600000C0800000C0
310
A00000C0C00000C0E00000E0000000E0200000E0400000E0600000E0800000E0A00000E0C00000E0E00040000000400020004000400040006000400080004000A0004000C0004000E00040200000402020004020400040206000402080004020A0004020C0004020E000404000004040200040404000404060004040800040
310
40A0004040C0004040E00040600000406020004060400040606000406080004060A0004060C0004060E00040800000408020004080400040806000408080004080A0004080C0004080E00040A0000040A0200040A0400040A0600040A0800040A0A00040A0C00040A0E00040C0000040C0200040C0400040C0600040C08000
310
40C0A00040C0C00040C0E00040E0000040E0200040E0400040E0600040E0800040E0A00040E0C00040E0E00080000000800020008000400080006000800080008000A0008000C0008000E00080200000802020008020400080206000802080008020A0008020C0008020E00080400000804020008040400080406000804080
310
008040A0008040C0008040E00080600000806020008060400080606000806080008060A0008060C0008060E00080800000808020008080400080806000808080008080A0008080C0008080E00080A0000080A0200080A0400080A0600080A0800080A0A00080A0C00080A0E00080C0000080C0200080C0400080C0600080C0
310
800080C0A00080C0C00080C0E00080E0000080E0200080E0400080E0600080E0800080E0A00080E0C00080E0E000C0000000C0002000C0004000C0006000C0008000C000A000C000C000C000E000C0200000C0202000C0204000C0206000C0208000C020A000C020C000C020E000C0400000C0402000C0404000C0406000C0
310
408000C040A000C040C000C040E000C0600000C0602000C0604000C0606000C0608000C060A000C060C000C060E000C0800000C0802000C0804000C0806000C0808000C080A000C080C000C080E000C0A00000C0A02000C0A04000C0A06000C0A08000C0A0A000C0A0C000C0A0E000C0C00000C0C02000C0C04000C0C06000
310
C0C08000C0C0A000F0FBFF00A4A0A000808080000000FF0000FF000000FFFF00FF000000FF00FF00FFFF0000FFFFFF00000000000000000000000000000000000000000000000000000000000000000000000000000000000000000000FFFFFF0000000000000000000000000000000000000000000000000000000000FF00
310
000000000000000000000000000000000000000000000000000000000000FF00000000000000000000000000000000000000000000000000000000000000FF00000000000000000000000000000000000000000000000000000000000000FF00000000000000000000000000000000000000000000000000000000FFFFFFFF
310
000000000000000000000000000000000000000000000000000000FFFF0000FF0000000000000000000000000000000000000000000000000000FF00000000FF00000000000000000000000000000000000000000000000000FF0000000000FFFFFF0000000000000000000000000000000000000000000000FF0000000000
310
FFFFFFFFFFFFFFFFFFFFFFFFFF000000000000000000000000FF000000000000FEFEFEFEFEFEFEFEFEFEFEFEFFFFFF00000000000000000000FF000000000000FF0000000000000000000000FF00FF00000000000000000000FF000000000000FF0000000000000000000000FF00FF000000000000000000FF000000000000
310
00FF0000000000000000000000FF00FF000000000000000000FF00000000000000FF0000000000000000000000FF00FF00000000000000F9F9FFF9F9F9F9F9F9F9F9F9F9F9F9F9F9F9F9F9F9F9FFF9FFF90000000000000000FF00000000000000FF0000000000000000000000FF00FF00000000000000000000FF00000000
310
0000FF0000000000000000000000FF00FF00000000000000000000FF000000000000FF0000000000000000000000FF00FF00000000000000000000FF000000000000FEFEFEFEFEFEFEFEFEFEFEFEFFFEFF0000000000000000000000FF0000000000FFFFFFFFFFFFFFFFFFFFFFFFFFFF000000000000000000000000FF0000
310
000000FFFFFF000000000000000000000000000000000000000000000000FF00000000FF000000000000000000000000000000000000000000000000000000FFFF0000FF00000000000000000000000000000000000000000000000000000000FFFFFFFF000000000000000000000000000000000000000000000000000000
310
00000000FF00000000000000000000000000000000000000000000000000000000000000FF00000000000000000000000000000000000000000000000000000000000000FF00000000000000000000000000000000000000000000000000000000000000FF0000000000000000000000000000000000000000000000000000
310
0000000000FFFFFF000000000000000000000000000000000000000000000000000000000000000000000000000000000000000000000000
102
{BLKREFS
331
55F5
102
}
 70
     4
280
     1
281
     0
  0
BLOCK_RECORD
  5
56B4
102
{ACAD_XDICTIONARY
360
574F
102
}
330
1
100
AcDbSymbolTableRecord
100
AcDbBlockTableRecord
  2
センタＡ SMVH100
340
0
310
2800000020000000200000000100080000000000000400000000000000000000000000000000000000000000000080000080000000808000800000008000800080800000C0C0C000C0DCC000F0CAA6000020400000206000002080000020A0000020C0000020E00000400000004020000040400000406000004080000040A0
310
000040C0000040E00000600000006020000060400000606000006080000060A0000060C0000060E00000800000008020000080400000806000008080000080A0000080C0000080E00000A0000000A0200000A0400000A0600000A0800000A0A00000A0C00000A0E00000C0000000C0200000C0400000C0600000C0800000C0
310
A00000C0C00000C0E00000E0000000E0200000E0400000E0600000E0800000E0A00000E0C00000E0E00040000000400020004000400040006000400080004000A0004000C0004000E00040200000402020004020400040206000402080004020A0004020C0004020E000404000004040200040404000404060004040800040
310
40A0004040C0004040E00040600000406020004060400040606000406080004060A0004060C0004060E00040800000408020004080400040806000408080004080A0004080C0004080E00040A0000040A0200040A0400040A0600040A0800040A0A00040A0C00040A0E00040C0000040C0200040C0400040C0600040C08000
310
40C0A00040C0C00040C0E00040E0000040E0200040E0400040E0600040E0800040E0A00040E0C00040E0E00080000000800020008000400080006000800080008000A0008000C0008000E00080200000802020008020400080206000802080008020A0008020C0008020E00080400000804020008040400080406000804080
310
008040A0008040C0008040E00080600000806020008060400080606000806080008060A0008060C0008060E00080800000808020008080400080806000808080008080A0008080C0008080E00080A0000080A0200080A0400080A0600080A0800080A0A00080A0C00080A0E00080C0000080C0200080C0400080C0600080C0
310
800080C0A00080C0C00080C0E00080E0000080E0200080E0400080E0600080E0800080E0A00080E0C00080E0E000C0000000C0002000C0004000C0006000C0008000C000A000C000C000C000E000C0200000C0202000C0204000C0206000C0208000C020A000C020C000C020E000C0400000C0402000C0404000C0406000C0
310
408000C040A000C040C000C040E000C0600000C0602000C0604000C0606000C0608000C060A000C060C000C060E000C0800000C0802000C0804000C0806000C0808000C080A000C080C000C080E000C0A00000C0A02000C0A04000C0A06000C0A08000C0A0A000C0A0C000C0A0E000C0C00000C0C02000C0C04000C0C06000
310
C0C08000C0C0A000F0FBFF00A4A0A000808080000000FF0000FF000000FFFF00FF000000FF00FF00FFFF0000FFFFFF0000000000000000000000000000000000000000000000000000000000000000000000000000000000000000000000000000000000000000000000000000000000000000000000000000000000000000
310
00000000000000000000000000000000000000000000000000000000000000000000000000000000000000000000000000000000000000FFFFFFFFFFFFFFFFFFFFFFFFFFFFFFFFFFFFFFFFFFFFFFFF00000000000000FF000000FF00FF000000000000000000000000000000000000FF000000000000FF000000FF00FF0000
310
00000000000000000000000000000000FF000000000000FF000000FF00FF000000000000000000000000000000000000FF000000000000FF000000FF00FF000000000000000000000000000000000000FF000000000000FF000000FF00FF000000000000000000000000000000000000FF000000000000FF000000FF00FF00
310
0000000000000000000000000000000000FF000000000000FF000000FF00FF000000000000000000000000000000000000FF000000000000FF000000FF00FF000000000000000000000000000000000000FF000000000000FF000000FF00FF00000000000000000000000000000000000000000000000000FF000000FF00FF
310
00000000000000000000000000000000000000000000000000FF000000FF00FF00000000000000000000000000000000000000000000000000FF000000FF00FF0000000000000000000000000000000000000000000000FFFFFF000000FF00FF0000000000000000000000000000000000000000000000FFFF00000000FF00
310
FF0000000000000000000000000000000000000000000000F9FF00000000FF00FF000000000000000000000000000000000000000000F9F9F9F9F9000000FF00FF00000000000000000000000000000000000000000000FFF9FF00000000FF00FF00000000000000000000000000000000000000000000FFFFFFFF000000FF
310
00FF0000000000000000000000000000000000000000000000F900FF000000FF00FF00000000000000000000000000000000000000000000000000FF000000FF00FF00000000000000000000000000000000000000000000000000FF000000FF00FF00000000000000000000000000000000000000000000000000FF000000
310
FF00FF00000000000000000000000000000000000000000000000000FFFFFFFFFFFFFFFFFFFFFFFFFF0000000000000000000000000000000000000000000000000000000000000000000000000000000000000000000000000000000000000000000000000000000000000000000000000000000000000000000000000000
310
0000000000000000000000000000000000000000000000000000000000000000000000000000000000000000000000000000000000000000
102
{BLKREFS
331
56CD
102
}
 70
     4
280
     1
281
     0
  0
BLOCK_RECORD
  5
56EC
102
{ACAD_XDICTIONARY
360
6860
102
}
330
1
100
AcDbSymbolTableRecord
100
AcDbBlockTableRecord
  2
センタB SMVH100
340
0
310
2800000020000000200000000100080000000000000400000000000000000000000000000000000000000000000080000080000000808000800000008000800080800000C0C0C000C0DCC000F0CAA6000020400000206000002080000020A0000020C0000020E00000400000004020000040400000406000004080000040A0
310
000040C0000040E00000600000006020000060400000606000006080000060A0000060C0000060E00000800000008020000080400000806000008080000080A0000080C0000080E00000A0000000A0200000A0400000A0600000A0800000A0A00000A0C00000A0E00000C0000000C0200000C0400000C0600000C0800000C0
310
A00000C0C00000C0E00000E0000000E0200000E0400000E0600000E0800000E0A00000E0C00000E0E00040000000400020004000400040006000400080004000A0004000C0004000E00040200000402020004020400040206000402080004020A0004020C0004020E000404000004040200040404000404060004040800040
310
40A0004040C0004040E00040600000406020004060400040606000406080004060A0004060C0004060E00040800000408020004080400040806000408080004080A0004080C0004080E00040A0000040A0200040A0400040A0600040A0800040A0A00040A0C00040A0E00040C0000040C0200040C0400040C0600040C08000
310
40C0A00040C0C00040C0E00040E0000040E0200040E0400040E0600040E0800040E0A00040E0C00040E0E00080000000800020008000400080006000800080008000A0008000C0008000E00080200000802020008020400080206000802080008020A0008020C0008020E00080400000804020008040400080406000804080
310
008040A0008040C0008040E00080600000806020008060400080606000806080008060A0008060C0008060E00080800000808020008080400080806000808080008080A0008080C0008080E00080A0000080A0200080A0400080A0600080A0800080A0A00080A0C00080A0E00080C0000080C0200080C0400080C0600080C0
310
800080C0A00080C0C00080C0E00080E0000080E0200080E0400080E0600080E0800080E0A00080E0C00080E0E000C0000000C0002000C0004000C0006000C0008000C000A000C000C000C000E000C0200000C0202000C0204000C0206000C0208000C020A000C020C000C020E000C0400000C0402000C0404000C0406000C0
310
408000C040A000C040C000C040E000C0600000C0602000C0604000C0606000C0608000C060A000C060C000C060E000C0800000C0802000C0804000C0806000C0808000C080A000C080C000C080E000C0A00000C0A02000C0A04000C0A06000C0A08000C0A0A000C0A0C000C0A0E000C0C00000C0C02000C0C04000C0C06000
310
C0C08000C0C0A000F0FBFF00A4A0A000808080000000FF0000FF000000FFFF00FF000000FF00FF00FFFF0000FFFFFF0000000000000000000000000000000000000000000000000000000000000000000000000000000000000000000000000000000000000000000000000000000000000000000000000000000000000000
310
000000000000000000000000000000000000000000000000000000000000000000000000000000000000000000000000000000000000FFFFFFFFFFFFFFFFFFFFFFFFFF00000000000000000000000000000000000000FF0000FF00FF0000000000000000000000000000000000000000000000000000FF0000FF00FF000000
310
0000000000000000000000000000000000000000000000FF0000FF00FF000000000000000000000000000000000000000000000000F900FF0000FF00FF0000000000000000000000000000000000000000000000FFFFFFFF0000FF00FF0000000000000000000000000000000000000000000000FFF9FF000000FF00FF0000
310
0000000000000000000000000000000000000000F9F9F9F9F90000FF00FF000000000000000000000000000000000000000000000000FFFF000000FF00FF000000000000000000000000000000000000000000000000FFFF000000FF00FF000000000000000000000000000000000000000000000000FFFFFF0000FF00FF00
310
00000000000000000000000000000000000000000000000000FF0000FF00FF0000000000000000000000000000000000000000000000000000FF0000FF00FF0000000000000000000000000000000000000000000000000000FF0000FF00FF0000000000000000000000000000000000000000000000000000FF0000FF00FF
310
0000000000000000000000000000000000000000000000000000FF0000FF00FF00000000000000000000000000000000000000FF000000000000FF0000FF00FF00000000000000000000000000000000000000FF000000000000FF0000FF00FF00000000000000000000000000000000000000FF000000000000FF0000FF00
310
FF00000000000000000000000000000000000000FF000000000000FF0000FF00FF00000000000000000000000000000000000000FF000000000000FF0000FF00FF00000000000000000000000000000000000000FF000000000000FF0000FF00FF00000000000000000000000000000000000000FF000000000000FF0000FF
310
00FF00000000000000000000000000000000000000FF00000000000000FFFFFFFFFFFFFFFFFFFFFFFFFFFFFFFFFFFFFFFFFFFFFFFF0000000000000000000000000000000000000000000000000000000000000000000000000000000000000000000000000000000000000000000000000000000000000000000000000000
310
0000000000000000000000000000000000000000000000000000000000000000000000000000000000000000000000000000000000000000
102
{BLKREFS
331
5705
102
}
 70
     4
280
     1
281
     0
  0
BLOCK_RECORD
  5
5761
102
{ACAD_XDICTIONARY
360
5786
102
}
330
1
100
AcDbSymbolTableRecord
100
AcDbBlockTableRecord
  2
スラストプレ－ト SMVH100
340
0
310
2800000020000000200000000100080000000000000400000000000000000000000000000000000000000000000080000080000000808000800000008000800080800000C0C0C000C0DCC000F0CAA6000020400000206000002080000020A0000020C0000020E00000400000004020000040400000406000004080000040A0
310
000040C0000040E00000600000006020000060400000606000006080000060A0000060C0000060E00000800000008020000080400000806000008080000080A0000080C0000080E00000A0000000A0200000A0400000A0600000A0800000A0A00000A0C00000A0E00000C0000000C0200000C0400000C0600000C0800000C0
310
A00000C0C00000C0E00000E0000000E0200000E0400000E0600000E0800000E0A00000E0C00000E0E00040000000400020004000400040006000400080004000A0004000C0004000E00040200000402020004020400040206000402080004020A0004020C0004020E000404000004040200040404000404060004040800040
310
40A0004040C0004040E00040600000406020004060400040606000406080004060A0004060C0004060E00040800000408020004080400040806000408080004080A0004080C0004080E00040A0000040A0200040A0400040A0600040A0800040A0A00040A0C00040A0E00040C0000040C0200040C0400040C0600040C08000
310
40C0A00040C0C00040C0E00040E0000040E0200040E0400040E0600040E0800040E0A00040E0C00040E0E00080000000800020008000400080006000800080008000A0008000C0008000E00080200000802020008020400080206000802080008020A0008020C0008020E00080400000804020008040400080406000804080
310
008040A0008040C0008040E00080600000806020008060400080606000806080008060A0008060C0008060E00080800000808020008080400080806000808080008080A0008080C0008080E00080A0000080A0200080A0400080A0600080A0800080A0A00080A0C00080A0E00080C0000080C0200080C0400080C0600080C0
310
800080C0A00080C0C00080C0E00080E0000080E0200080E0400080E0600080E0800080E0A00080E0C00080E0E000C0000000C0002000C0004000C0006000C0008000C000A000C000C000C000E000C0200000C0202000C0204000C0206000C0208000C020A000C020C000C020E000C0400000C0402000C0404000C0406000C0
310
408000C040A000C040C000C040E000C0600000C0602000C0604000C0606000C0608000C060A000C060C000C060E000C0800000C0802000C0804000C0806000C0808000C080A000C080C000C080E000C0A00000C0A02000C0A04000C0A06000C0A08000C0A0A000C0A0C000C0A0E000C0C00000C0C02000C0C04000C0C06000
310
C0C08000C0C0A000F0FBFF00A4A0A000808080000000FF0000FF000000FFFF00FF000000FF00FF00FFFF0000FFFFFF0000000000000000000000000000000000000000000000000000000000000000000000000000000000000000000000000000000000000000000000000000000000000000000000000000000000000000
310
00000000000000000000000000000000000000000000000000000000000000000000000000000000000000000000000000000000000000000000000000000000000000000000000000000000000000000000000000000000000000000000000000000000000000000000000000000000000000000000000000000000000000
310
00000000000000000000000000000000000000000000000000000000000000000000000000000000000000000000000000000000000000000000000000000000000000000000000000000000000000000000000000000000000000000000000000000000000000000000000000000000000000000000000000000000000000
310
0000000000000000000000000000000000000000000000000000000000000000000000000000000000000000000000000000000000000000000000000000FF0000000000000000FF00000000000000000000000000FFFFFFFFFFFFFFFFFF000000000000000000FFFFFFFFFFFFFFFFFFFFFF000000FF000000000000000000
310
00000000000000000000000000000000000000000000FF000000000000000000000000000000000000000000000000000000000000FFFF00000000000000000000000000000000000000000000000000000000000000000000000000000000000000000000000000000000000000000000000000000000FFFFFFFFFFFFFFFF
310
FFFFFFFFFFFFFFFFFFFFFFFFFFFFFFFFFFFFFFFF00000000FF000000000000000000000000000000000000000000000000000000000000000000000000000000000000000000000000000000000000000000000000000000000000000000000000000000000000000000000000000000000000000000000000000000000000
310
00000000000000000000000000000000000000000000000000000000000000000000000000000000000000000000000000000000000000000000000000000000000000000000000000000000000000000000000000000000000000000000000000000000000000000000000000000000000000000000000000000000000000
310
00000000000000000000000000000000000000000000000000000000000000000000000000000000000000000000000000000000000000000000000000000000000000000000000000000000000000000000000000000000000000000000000000000000000000000000000000000000000000000000000000000000000000
310
0000000000000000000000000000000000000000000000000000000000000000000000000000000000000000000000000000000000000000
102
{BLKREFS
331
576C
102
}
 70
     4
280
     1
281
     0
  0
BLOCK_RECORD
  5
5867
102
{ACAD_XDICTIONARY
360
58D5
102
}
330
1
100
AcDbSymbolTableRecord
100
AcDbBlockTableRecord
  2
リーマボルト SMVH100 M6
340
0
310
2800000020000000200000000100080000000000000400000000000000000000000000000000000000000000000080000080000000808000800000008000800080800000C0C0C000C0DCC000F0CAA6000020400000206000002080000020A0000020C0000020E00000400000004020000040400000406000004080000040A0
310
000040C0000040E00000600000006020000060400000606000006080000060A0000060C0000060E00000800000008020000080400000806000008080000080A0000080C0000080E00000A0000000A0200000A0400000A0600000A0800000A0A00000A0C00000A0E00000C0000000C0200000C0400000C0600000C0800000C0
310
A00000C0C00000C0E00000E0000000E0200000E0400000E0600000E0800000E0A00000E0C00000E0E00040000000400020004000400040006000400080004000A0004000C0004000E00040200000402020004020400040206000402080004020A0004020C0004020E000404000004040200040404000404060004040800040
310
40A0004040C0004040E00040600000406020004060400040606000406080004060A0004060C0004060E00040800000408020004080400040806000408080004080A0004080C0004080E00040A0000040A0200040A0400040A0600040A0800040A0A00040A0C00040A0E00040C0000040C0200040C0400040C0600040C08000
310
40C0A00040C0C00040C0E00040E0000040E0200040E0400040E0600040E0800040E0A00040E0C00040E0E00080000000800020008000400080006000800080008000A0008000C0008000E00080200000802020008020400080206000802080008020A0008020C0008020E00080400000804020008040400080406000804080
310
008040A0008040C0008040E00080600000806020008060400080606000806080008060A0008060C0008060E00080800000808020008080400080806000808080008080A0008080C0008080E00080A0000080A0200080A0400080A0600080A0800080A0A00080A0C00080A0E00080C0000080C0200080C0400080C0600080C0
310
800080C0A00080C0C00080C0E00080E0000080E0200080E0400080E0600080E0800080E0A00080E0C00080E0E000C0000000C0002000C0004000C0006000C0008000C000A000C000C000C000E000C0200000C0202000C0204000C0206000C0208000C020A000C020C000C020E000C0400000C0402000C0404000C0406000C0
310
408000C040A000C040C000C040E000C0600000C0602000C0604000C0606000C0608000C060A000C060C000C060E000C0800000C0802000C0804000C0806000C0808000C080A000C080C000C080E000C0A00000C0A02000C0A04000C0A06000C0A08000C0A0A000C0A0C000C0A0E000C0C00000C0C02000C0C04000C0C06000
310
C0C08000C0C0A000F0FBFF00A4A0A000808080000000FF0000FF000000FFFF00FF000000FF00FF00FFFF0000FFFFFF000000000000000000000000000000000000000000000000000000000000000000000000000000000000000000FFFFFFFFFFFFFFFF000000000000000000000000000000000000000000000000FFFFFF
310
FFFFFFFFFF000000000000000000000000000000000000000000000000FF00FF0000FF00FF000000000000000000000000000000000000000000000000FF00FF0000FF00FF00000000000000000000000000000000000000000000000000000000000000000000000000000000000000000000000000000000000000000000
310
00000000000000000000000000000000000000000000000000000000000000000000000000000000000000000000000000000000000000000000000000000000000000000000000000000000000000000000000000000000000000000000000000000000000000000000000000000000000000000000000000000000000000
310
00000000000000000000000000000000000000000000000000000000000000000000000000000000000000000000000000000000000000000000000000000000000000000000000000000000000000000000000000000000000000000000000000000000000000000000000000000000000000000000000000000000000000
310
00000000000000000000000000000000000000000000000000000000000000000000000000000000000000000000000000000000000000000000000000000000000000000000000000000000000000000000000000000000000000000000000000000000000000000000000000000000000000000000000000000000000000
310
00000000000000000000000000000000000000000000000000000000000000000000000000000000000000000000000000000000000000000000000000000000000000000000000000000000000000000000000000000000000000000000000000000000000000000000000000000000000000000000000000000000000000
310
000000000000000000000000000000000000000000000000000000000000000000000000000000000000000000000000000000000000000000000000000000000000FF000000FF000000000000000000000000000000000000000000000000000000FFFFFFFFFFFFFFFF000000000000000000000000000000000000000000
310
000000FF00FF0000FF00FF000000000000000000000000000000000000000000000000FF00FF0000FF00FF000000000000000000000000000000000000000000000000FFFFFFFFFFFFFFFF0000000000000000000000000000000000000000000000000000FFFFFFFF00000000000000000000000000000000000000000000
310
000000000000FFFFFFFF00000000000000000000000000000000000000000000000000000000000000000000000000000000000000000000
102
{BLKREFS
331
588A
102
}
 70
     4
280
     1
281
     0
  0
BLOCK_RECORD
  5
5D48
330
1
100
AcDbSymbolTableRecord
100
AcDbBlockTableRecord
  2
*D10
340
0
 70
     0
280
     1
281
     0
  0
BLOCK_RECORD
  5
5D60
330
1
100
AcDbSymbolTableRecord
100
AcDbBlockTableRecord
  2
*D11
340
0
 70
     0
280
     1
281
     0
  0
BLOCK_RECORD
  5
5D78
330
1
100
AcDbSymbolTableRecord
100
AcDbBlockTableRecord
  2
*D12
340
0
 70
     0
280
     1
281
     0
  0
BLOCK_RECORD
  5
5DE0
330
1
100
AcDbSymbolTableRecord
100
AcDbBlockTableRecord
  2
*D13
340
0
 70
     0
280
     1
281
     0
  0
BLOCK_RECORD
  5
5E1F
330
1
100
AcDbSymbolTableRecord
100
AcDbBlockTableRecord
  2
*D14
340
0
 70
     0
280
     1
281
     0
  0
BLOCK_RECORD
  5
5E37
330
1
100
AcDbSymbolTableRecord
100
AcDbBlockTableRecord
  2
*D15
340
0
 70
     0
280
     1
281
     0
  0
BLOCK_RECORD
  5
5EB1
330
1
100
AcDbSymbolTableRecord
100
AcDbBlockTableRecord
  2
*D16
340
0
 70
     0
280
     1
281
     0
  0
BLOCK_RECORD
  5
5EF9
330
1
100
AcDbSymbolTableRecord
100
AcDbBlockTableRecord
  2
*D17
340
0
 70
     0
280
     1
281
     0
  0
BLOCK_RECORD
  5
5FA6
330
1
100
AcDbSymbolTableRecord
100
AcDbBlockTableRecord
  2
GENDOT
340
0
102
{BLKREFS
331
6C6D
331
6C7E
102
}
 70
     0
280
     1
281
     0
  0
BLOCK_RECORD
  5
613D
330
1
100
AcDbSymbolTableRecord
100
AcDbBlockTableRecord
  2
*D19
340
0
 70
     0
280
     1
281
     0
  0
BLOCK_RECORD
  5
61BA
330
1
100
AcDbSymbolTableRecord
100
AcDbBlockTableRecord
  2
*D20
340
0
 70
     0
280
     1
281
     0
  0
BLOCK_RECORD
  5
61D2
330
1
100
AcDbSymbolTableRecord
100
AcDbBlockTableRecord
  2
*D21
340
0
 70
     0
280
     1
281
     0
  0
BLOCK_RECORD
  5
61EE
330
1
100
AcDbSymbolTableRecord
100
AcDbBlockTableRecord
  2
*D22
340
0
 70
     0
280
     1
281
     0
  0
BLOCK_RECORD
  5
6DDA
330
1
100
AcDbSymbolTableRecord
100
AcDbBlockTableRecord
  2
*D23
340
0
 70
     0
280
     1
281
     0
  0
BLOCK_RECORD
  5
6E04
330
1
100
AcDbSymbolTableRecord
100
AcDbBlockTableRecord
  2
*D24
340
0
 70
     0
280
     1
281
     0
  0
BLOCK_RECORD
  5
6ECD
330
1
100
AcDbSymbolTableRecord
100
AcDbBlockTableRecord
  2
*D25
340
0
 70
     0
280
     1
281
     0
  0
BLOCK_RECORD
  5
708F
330
1
100
AcDbSymbolTableRecord
100
AcDbBlockTableRecord
  2
ケース
340
0
310
2800000020000000200000000100080000000000000400000000000000000000000000000000000000000000000080000080000000808000800000008000800080800000C0C0C000C0DCC000F0CAA6000020400000206000002080000020A0000020C0000020E00000400000004020000040400000406000004080000040A0
310
000040C0000040E00000600000006020000060400000606000006080000060A0000060C0000060E00000800000008020000080400000806000008080000080A0000080C0000080E00000A0000000A0200000A0400000A0600000A0800000A0A00000A0C00000A0E00000C0000000C0200000C0400000C0600000C0800000C0
310
A00000C0C00000C0E00000E0000000E0200000E0400000E0600000E0800000E0A00000E0C00000E0E00040000000400020004000400040006000400080004000A0004000C0004000E00040200000402020004020400040206000402080004020A0004020C0004020E000404000004040200040404000404060004040800040
310
40A0004040C0004040E00040600000406020004060400040606000406080004060A0004060C0004060E00040800000408020004080400040806000408080004080A0004080C0004080E00040A0000040A0200040A0400040A0600040A0800040A0A00040A0C00040A0E00040C0000040C0200040C0400040C0600040C08000
310
40C0A00040C0C00040C0E00040E0000040E0200040E0400040E0600040E0800040E0A00040E0C00040E0E00080000000800020008000400080006000800080008000A0008000C0008000E00080200000802020008020400080206000802080008020A0008020C0008020E00080400000804020008040400080406000804080
310
008040A0008040C0008040E00080600000806020008060400080606000806080008060A0008060C0008060E00080800000808020008080400080806000808080008080A0008080C0008080E00080A0000080A0200080A0400080A0600080A0800080A0A00080A0C00080A0E00080C0000080C0200080C0400080C0600080C0
310
800080C0A00080C0C00080C0E00080E0000080E0200080E0400080E0600080E0800080E0A00080E0C00080E0E000C0000000C0002000C0004000C0006000C0008000C000A000C000C000C000E000C0200000C0202000C0204000C0206000C0208000C020A000C020C000C020E000C0400000C0402000C0404000C0406000C0
310
408000C040A000C040C000C040E000C0600000C0602000C0604000C0606000C0608000C060A000C060C000C060E000C0800000C0802000C0804000C0806000C0808000C080A000C080C000C080E000C0A00000C0A02000C0A04000C0A06000C0A08000C0A0A000C0A0C000C0A0E000C0C00000C0C02000C0C04000C0C06000
310
C0C08000C0C0A000F0FBFF00A4A0A000808080000000FF0000FF000000FFFF00FF000000FF00FF00FFFF0000FFFFFF000000000000000000000000000000000000000000000000000000000000000000000000000000000000000000FCFCFCFCFCFCFCFCFCFCFCFCFC000000000000000000000000000000000000FC000000
310
0000000000000000FC000000000000000000000000000000000000FC000000000000000000000000FC000000000000000000000000000000000000FC000000000000000000000000FC0000000000000000000000000000000000FC00000000000000000000FCFCFCFCFC000000000000000000000000000000FC0000000000
310
000000000000FC00000000000000000000000000000000000000FC0000000000000000000000FC00000000000000000000000000000000000000FC0000000000000000000000FC00000000000000000000000000000000000000FC0000000000000000000000FC00000000000000000000000000000000000000FC00000000
310
00000000000000FC00000000000000000000000000000000000000FC0000000000000000000000FC00000000000000000000000000000000000000FC0000000000000000000000FCFCFCFCFC000000000000000000000000000000FC0000000000000000000000000000FC00000000000000000000000000000000FC000000
310
0000000000000000000000FC00000000000000000000000000000000FC0000000000000000000000000000FC00000000000000000000000000000000FC00000000000000FCFCFCFCFCFCFCFCFC000000000000000000000000000000FC000000000000FC0000FC000000000000000000000000000000000000000000FC0000
310
00000000FC0000FC000000000000000000000000000000000000000000FC000000000000FC0000FC000000000000000000000000000000000000000000FC00000000000000FCFCFCFC0000000000000000000000000000000000000000FC00000000000000FC00FC00FC00000000000000000000000000000000000000FC00
310
000000000000FC00FC00FC00000000000000000000000000000000000000FC00000000000000FC00FC00FC00000000000000000000000000000000000000FC00000000000000FC00FC00FC00000000000000000000000000000000000000FC00000000000000FC00FC00FC00000000000000000000000000000000000000FC
310
00000000000000FC00FC00FC00000000000000000000000000000000000000FC00000000000000FC00FC00FC00000000000000000000000000000000000000FC00000000000000FC00FC00FC000000000000000000000000000000000000FC0000000000000000FC00FC00FC000000000000000000000000000000000000FC
310
0000000000000000FC00FC00FC00000000000000000000000000000000000000000000000000000000000000000000000000000000000000
102
{BLKREFS
331
70A6
102
}
 70
     4
280
     1
281
     1
  0
ENDTAB
  0
ENDSEC
  0
SECTION
  2
BLOCKS
  0
BLOCK
  5
20
330
1F
100
AcDbEntity
  8
0
100
AcDbBlockBegin
  2
*Model_Space
 70
     0
 10
0.0
 20
0.0
 30
0.0
  3
*Model_Space
  1

  0
ENDBLK
  5
21
330
1F
100
AcDbEntity
  8
0
100
AcDbBlockEnd
  0
BLOCK
  5
1C
330
1B
100
AcDbEntity
 67
     1
  8
0
100
AcDbBlockBegin
  2
*Paper_Space
 70
     0
 10
0.0
 20
0.0
 30
0.0
  3
*Paper_Space
  1

  0
ENDBLK
  5
1D
330
1B
100
AcDbEntity
 67
     1
  8
0
100
AcDbBlockEnd
  0
BLOCK
  5
24
330
23
100
AcDbEntity
 67
     1
  8
0
100
AcDbBlockBegin
  2
*Paper_Space0
 70
     0
 10
0.0
 20
0.0
 30
0.0
  3
*Paper_Space0
  1

  0
ENDBLK
  5
25
330
23
100
AcDbEntity
 67
     1
  8
0
100
AcDbBlockEnd
  0
BLOCK
  5
6D
330
69
100
AcDbEntity
  8
0
100
AcDbBlockBegin
  2
_Open30
 70
     0
 10
0.0
 20
0.0
 30
0.0
  3
_Open30
  1

  0
LINE
  5
6A
330
69
100
AcDbEntity
  8
0
  6
ByBlock
 62
     0
370
    -2
100
AcDbLine
 10
-1.0
 20
0.26794919
 30
0.0
 11
0.0
 21
0.0
 31
0.0
  0
LINE
  5
6B
330
69
100
AcDbEntity
  8
0
  6
ByBlock
 62
     0
370
    -2
100
AcDbLine
 10
0.0
 20
0.0
 30
0.0
 11
-1.0
 21
-0.26794919
 31
0.0
  0
LINE
  5
6C
330
69
100
AcDbEntity
  8
0
  6
ByBlock
 62
     0
370
    -2
100
AcDbLine
 10
0.0
 20
0.0
 30
0.0
 11
-1.0
 21
0.0
 31
0.0
  0
ENDBLK
  5
6E
330
69
100
AcDbEntity
  8
0
100
AcDbBlockEnd
  0
BLOCK
  5
76
330
74
100
AcDbEntity
  8
0
100
AcDbBlockBegin
  2
GENAXEH
 70
     0
 10
0.0
 20
0.0
 30
0.0
  3
GENAXEH
  1

  0
LINE
  5
75
330
74
100
AcDbEntity
  8
0
100
AcDbLine
 10
-1.0
 20
0.0
 30
0.0
 11
1.0
 21
0.0
 31
0.0
  0
ENDBLK
  5
77
330
74
100
AcDbEntity
  8
0
100
AcDbBlockEnd
  0
BLOCK
  5
5221
330
5220
100
AcDbEntity
  8
0
100
AcDbBlockBegin
  2
ケースＡ SMVH100
 70
     0
 10
0.0
 20
0.0
 30
0.0
  3
ケースＡ SMVH100
  1

  0
LINE
  5
5223
330
5220
100
AcDbEntity
  8
AM_0 外形線1
100
AcDbLine
 10
0.0
 20
-34.0
 30
0.0
 11
30.5
 21
-34.0
 31
0.0
  0
LINE
  5
5224
330
5220
100
AcDbEntity
  8
AM_0 外形線1
100
AcDbLine
 10
49.80000000000001
 20
-15.0
 30
0.0
 11
0.0
 21
-15.0
 31
0.0
  0
LINE
  5
5225
330
5220
100
AcDbEntity
  8
AM_0 外形線1
100
AcDbLine
 10
0.0
 20
0.0
 30
0.0
 11
49.80000000000001
 21
0.0
 31
0.0
  0
LINE
  5
5226
330
5220
100
AcDbEntity
  8
AM_4 細線
100
AcDbLine
 10
-43.80000000000001
 20
-3.329749999999988
 30
0.0
 11
-43.80000000000001
 21
-3.75
 31
0.0
  0
LINE
  5
5227
330
5220
100
AcDbEntity
  8
AM_0 外形線1
100
AcDbLine
 10
-29.0
 20
-11.0
 30
0.0
 11
-29.0
 21
0.0
 31
0.0
  0
LINE
  5
5228
330
5220
100
AcDbEntity
  8
AM_0 外形線1
100
AcDbLine
 10
-50.0
 20
-0.1999999999999886
 30
0.0
 11
-50.0
 21
-14.80000000000001
 31
0.0
  0
LINE
  5
5229
330
5220
100
AcDbEntity
  8
AM_7 中心線
100
AcDbLine
 10
-51.25
 20
-8.0
 30
0.0
 11
-27.25
 21
-8.0
 31
0.0
  0
LINE
  5
522A
330
5220
100
AcDbEntity
  8
AM_4 細線
100
AcDbLine
 10
-50.0
 20
-12.864
 30
0.0
 11
-43.80000000000001
 21
-12.67025000000001
 31
0.0
  0
LINE
  5
522B
330
5220
100
AcDbEntity
  8
AM_0 外形線1
100
AcDbLine
 10
-50.0
 20
-12.44374999999999
 30
0.0
 11
-43.80000000000001
 21
-12.25
 31
0.0
  0
LINE
  5
522C
330
5220
100
AcDbEntity
  8
AM_0 外形線1
100
AcDbLine
 10
-49.80000000000001
 20
-15.0
 30
0.0
 11
-37.39999999999998
 21
-15.0
 31
0.0
  0
LINE
  5
522E
330
5220
100
AcDbEntity
  8
AM_0 外形線1
100
AcDbLine
 10
-50.0
 20
-14.80000000000001
 30
0.0
 11
-49.80000000000001
 21
-15.0
 31
0.0
  0
LINE
  5
522F
330
5220
100
AcDbEntity
  8
AM_7 中心線
100
AcDbLine
 10
-27.0
 20
-11.37200899999999
 30
0.0
 11
-27.0
 21
-24.0
 31
0.0
  0
LINE
  5
5230
330
5220
100
AcDbEntity
  8
AM_3 隠れ線
100
AcDbLine
 10
-25.80000000000001
 20
-14.0
 30
0.0
 11
-25.80000000000001
 21
-21.5
 31
0.0
  0
LINE
  5
5231
330
5220
100
AcDbEntity
  8
AM_0 外形線1
100
AcDbLine
 10
-33.5
 20
-18.0
 30
0.0
 11
-33.5
 21
-31.0
 31
0.0
  0
LINE
  5
5232
330
5220
100
AcDbEntity
  8
AM_0 外形線1
100
AcDbLine
 10
-28.5
 20
-11.86602499999998
 30
0.0
 11
-28.5
 21
-22.13397500000002
 31
0.0
  0
ARC
  5
5233
330
5220
100
AcDbEntity
  8
AM_0 外形線1
100
AcDbCircle
 10
-30.5
 20
-31.0
 30
0.0
 40
3.0
100
AcDbArc
 50
180.0
 51
270.0
  0
LWPOLYLINE
  5
5234
330
5220
100
AcDbEntity
  8
AM_0 外形線1
100
AcDbPolyline
 90
       73
 70
     0
 43
0.0
 10
-24.5
 20
-27.19999999999999
 10
-24.63073399999996
 20
-27.208752
 10
-24.760472
 20
-27.23494199999999
 10
-24.88822900000002
 20
-27.27837099999999
 10
-25.01302999999996
 20
-27.338707
 10
-25.13392700000003
 20
-27.415492
 10
-25.25
 20
-27.50814200000002
 10
-25.360365
 20
-27.61595
 10
-25.464181
 20
-27.73809799999998
 10
-25.56065999999999
 20
-27.87365399999999
 10
-25.649067
 20
-28.02158800000001
 10
-25.72872799999999
 20
-28.18077399999999
 10
-25.799038
 20
-28.34999999999999
 10
-25.85946200000001
 20
-28.52797800000002
 10
-25.90953900000001
 20
-28.71335400000001
 10
-25.94888900000001
 20
-28.90471600000001
 10
-25.97721200000001
 20
-29.10060899999999
 10
-25.99429199999998
 20
-29.299542
 10
-26.0
 20
-29.5
 10
-25.99429199999998
 20
-29.700458
 10
-25.97721200000001
 20
-29.89939100000001
 10
-25.94888900000001
 20
-30.09528399999999
 10
-25.90953900000001
 20
-30.28664599999999
 10
-25.85946200000001
 20
-30.47202199999998
 10
-25.799038
 20
-30.65000000000001
 10
-25.72872799999999
 20
-30.81922600000002
 10
-25.649067
 20
-30.97841199999999
 10
-25.56065999999999
 20
-31.12634600000002
 10
-25.464181
 20
-31.26190200000002
 10
-25.360365
 20
-31.38405
 10
-25.25
 20
-31.49185799999998
 10
-25.13392700000003
 20
-31.58450800000001
 10
-25.01302999999996
 20
-31.661293
 10
-24.88822900000002
 20
-31.72162900000001
 10
-24.760472
 20
-31.76505800000001
 10
-24.63073399999996
 20
-31.791248
 10
-24.5
 20
-31.80000000000001
 10
-24.36926600000004
 20
-31.791248
 10
-24.23952800000001
 20
-31.76505800000001
 10
-24.11177099999998
 20
-31.72162900000001
 10
-23.98697000000004
 20
-31.661293
 10
-23.86607299999997
 20
-31.58450800000001
 10
-23.75
 20
-31.49185799999998
 10
-23.639635
 20
-31.38405
 10
-23.535819
 20
-31.26190200000002
 10
-23.43934000000002
 20
-31.12634600000002
 10
-23.350933
 20
-30.97841199999999
 10
-23.27127200000001
 20
-30.81922600000002
 10
-23.200962
 20
-30.65000000000001
 10
-23.14053799999999
 20
-30.47202199999998
 10
-23.09046100000001
 20
-30.28664599999999
 10
-23.05111099999999
 20
-30.09528399999999
 10
-23.02278799999999
 20
-29.89939100000001
 10
-23.00570800000004
 20
-29.700458
 10
-23.0
 20
-29.5
 10
-23.00570800000004
 20
-29.299542
 10
-23.02278799999999
 20
-29.10060899999999
 10
-23.05111099999999
 20
-28.90471600000001
 10
-23.09046100000001
 20
-28.71335400000001
 10
-23.14053799999999
 20
-28.52797800000002
 10
-23.200962
 20
-28.34999999999999
 10
-23.27127200000001
 20
-28.18077399999999
 10
-23.350933
 20
-28.02158800000001
 10
-23.43934000000002
 20
-27.87365399999999
 10
-23.535819
 20
-27.73809799999998
 10
-23.639635
 20
-27.61595
 10
-23.75
 20
-27.50814200000002
 10
-23.86607299999997
 20
-27.415492
 10
-23.98697000000004
 20
-27.338707
 10
-24.11177099999998
 20
-27.27837099999999
 10
-24.23952800000001
 20
-27.23494199999999
 10
-24.36926600000004
 20
-27.208752
 10
-24.5
 20
-27.19999999999999
  0
LINE
  5
5235
330
5220
100
AcDbEntity
  8
AM_0 外形線1
100
AcDbLine
 10
-26.0
 20
-31.30000000000001
 30
0.0
 11
-26.0
 21
-27.7
 31
0.0
  0
LINE
  5
5236
330
5220
100
AcDbEntity
  8
AM_0 外形線1
100
AcDbLine
 10
-30.5
 20
-34.0
 30
0.0
 11
-23.0
 21
-34.0
 31
0.0
  0
ARC
  5
5237
330
5220
100
AcDbEntity
  8
AM_0 外形線1
100
AcDbCircle
 10
-25.5
 20
-31.30000000000001
 30
0.0
 40
0.5
100
AcDbArc
 50
180.0
 51
270.0
  0
LINE
  5
5238
330
5220
100
AcDbEntity
  8
AM_0 外形線1
100
AcDbLine
 10
-23.0
 20
-31.80000000000001
 30
0.0
 11
-25.5
 21
-31.80000000000001
 31
0.0
  0
LINE
  5
5239
330
5220
100
AcDbEntity
  8
AM_0 外形線1
100
AcDbLine
 10
-24.0
 20
-34.0
 30
0.0
 11
-24.0
 21
-31.80000000000001
 31
0.0
  0
LINE
  5
523A
330
5220
100
AcDbEntity
  8
AM_3 隠れ線
100
AcDbLine
 10
-28.0
 20
-22.0
 30
0.0
 11
-26.30000000000001
 21
-22.0
 31
0.0
  0
LINE
  5
523B
330
5220
100
AcDbEntity
  8
AM_0 外形線1
100
AcDbLine
 10
-23.0
 20
-25.0
 30
0.0
 11
-28.0
 21
-25.0
 31
0.0
  0
ARC
  5
523C
330
5220
100
AcDbEntity
  8
AM_0 外形線1
100
AcDbCircle
 10
-28.0
 20
-23.0
 30
0.0
 40
1.0
100
AcDbArc
 50
93.79504300000403
 51
180.0
  0
LINE
  5
523D
330
5220
100
AcDbEntity
  8
AM_0 外形線1
100
AcDbLine
 10
-29.0
 20
-24.0
 30
0.0
 11
-29.0
 21
-23.0
 31
0.0
  0
ARC
  5
523E
330
5220
100
AcDbEntity
  8
AM_0 外形線1
100
AcDbCircle
 10
-28.0
 20
-24.0
 30
0.0
 40
1.0
100
AcDbArc
 50
180.0
 51
270.0
  0
LINE
  5
523F
330
5220
100
AcDbEntity
  8
AM_3 隠れ線
100
AcDbLine
 10
-26.30000000000001
 20
-22.0
 30
0.0
 11
-25.80000000000001
 21
-21.5
 31
0.0
  0
LINE
  5
5240
330
5220
100
AcDbEntity
  8
AM_0 外形線1
100
AcDbLine
 10
-24.0
 20
-27.19999999999999
 30
0.0
 11
-24.0
 21
-25.0
 31
0.0
  0
LINE
  5
5241
330
5220
100
AcDbEntity
  8
AM_0 外形線1
100
AcDbLine
 10
-25.5
 20
-27.19999999999999
 30
0.0
 11
-23.0
 21
-27.19999999999999
 31
0.0
  0
ARC
  5
5242
330
5220
100
AcDbEntity
  8
AM_0 外形線1
100
AcDbCircle
 10
-25.5
 20
-27.7
 30
0.0
 40
0.5
100
AcDbArc
 50
90.0
 51
180.0
  0
LINE
  5
5243
330
5220
100
AcDbEntity
  8
AM_0 外形線1
100
AcDbLine
 10
-43.80000000000001
 20
-12.25
 30
0.0
 11
-28.5
 21
-12.25
 31
0.0
  0
ARC
  5
5244
330
5220
100
AcDbEntity
  8
AM_0 外形線1
100
AcDbCircle
 10
-36.5
 20
-18.0
 30
0.0
 40
3.0
100
AcDbArc
 50
0.0
 51
90.0
  0
LINE
  5
5245
330
5220
100
AcDbEntity
  8
AM_0 外形線1
100
AcDbLine
 10
-40.0
 20
-15.0
 30
0.0
 11
-36.5
 21
-15.0
 31
0.0
  0
LINE
  5
5246
330
5220
100
AcDbEntity
  8
AM_0 外形線1
100
AcDbLine
 10
-25.80000000000001
 20
-14.0
 30
0.0
 11
-25.80000000000001
 21
-12.5
 31
0.0
  0
LINE
  5
5247
330
5220
100
AcDbEntity
  8
AM_0 外形線1
100
AcDbLine
 10
-26.30000000000001
 20
-12.0
 30
0.0
 11
-28.0
 21
-12.0
 31
0.0
  0
ARC
  5
5248
330
5220
100
AcDbEntity
  8
AM_0 外形線1
100
AcDbCircle
 10
-28.0
 20
-11.0
 30
0.0
 40
1.0
100
AcDbArc
 50
180.0
 51
270.0
  0
LINE
  5
5249
330
5220
100
AcDbEntity
  8
AM_0 外形線1
100
AcDbLine
 10
-25.80000000000001
 20
-12.5
 30
0.0
 11
-26.30000000000001
 21
-12.0
 31
0.0
  0
LINE
  5
524B
330
5220
100
AcDbEntity
  8
AM_4 細線
100
AcDbLine
 10
-50.0
 20
-3.135999999999995
 30
0.0
 11
-43.80000000000001
 21
-3.329749999999988
 31
0.0
  0
LINE
  5
524C
330
5220
100
AcDbEntity
  8
AM_0 外形線1
100
AcDbLine
 10
-50.0
 20
-3.556250000000004
 30
0.0
 11
-43.80000000000001
 21
-3.75
 31
0.0
  0
LINE
  5
524D
330
5220
100
AcDbEntity
  8
AM_0 外形線1
100
AcDbLine
 10
-49.80000000000001
 20
0.0
 30
0.0
 11
-50.0
 21
-0.1999999999999886
 31
0.0
  0
LINE
  5
524E
330
5220
100
AcDbEntity
  8
AM_0 外形線1
100
AcDbLine
 10
-43.80000000000001
 20
-3.75
 30
0.0
 11
-29.0
 21
-3.75
 31
0.0
  0
LWPOLYLINE
  5
524F
330
5220
100
AcDbEntity
  8
AM_0 外形線1
100
AcDbPolyline
 90
       73
 70
     0
 43
0.0
 10
-32.5
 20
-1.199999999999988
 10
-32.50742000000002
 20
-1.095412999999979
 10
-32.52962500000001
 20
-0.9916220000000064
 10
-32.56644500000005
 20
-0.8894169999999801
 10
-32.61759900000004
 20
-0.7895760000000111
 10
-32.68270000000001
 20
-0.6928580000000011
 10
-32.76125000000002
 20
-0.5999999999999944
 10
-32.85265400000004
 20
-0.5117079999999988
 10
-32.95621299999999
 20
-0.4286549999999921
 10
-33.07114200000001
 20
-0.3514720000000011
 10
-33.19656400000003
 20
-0.280746999999991
 10
-33.331526
 20
-0.2170179999999959
 10
-33.47500000000002
 20
-0.1607699999999852
 10
-33.62589400000002
 20
-0.112431000000015
 10
-33.78306099999998
 20
-0.0723689999999806
 10
-33.94530299999997
 20
-0.0408889999999929
 10
-34.11138599999998
 20
-0.0182310000000143
 10
-34.28004599999996
 20
-0.0045659999999828
 10
-34.44999999999999
 20
0.0
 10
-34.61995400000001
 20
-0.0045659999999828
 10
-34.78861399999999
 20
-0.0182310000000143
 10
-34.95469700000001
 20
-0.0408889999999929
 10
-35.116939
 20
-0.0723689999999806
 10
-35.27410600000003
 20
-0.112431000000015
 10
-35.42500000000001
 20
-0.1607699999999852
 10
-35.56847400000004
 20
-0.2170179999999959
 10
-35.70343600000001
 20
-0.280746999999991
 10
-35.82885800000003
 20
-0.3514720000000011
 10
-35.943787
 20
-0.4286549999999921
 10
-36.047346
 20
-0.5117079999999988
 10
-36.13875000000002
 20
-0.5999999999999944
 10
-36.21730000000003
 20
-0.6928580000000011
 10
-36.28240099999999
 20
-0.7895760000000111
 10
-36.33355499999999
 20
-0.8894169999999801
 10
-36.37037500000003
 20
-0.9916220000000064
 10
-36.39258000000001
 20
-1.095412999999979
 10
-36.39999999999998
 20
-1.199999999999988
 10
-36.39258000000001
 20
-1.304586999999997
 10
-36.37037500000003
 20
-1.408377999999999
 10
-36.33355499999999
 20
-1.510582999999995
 10
-36.28240099999999
 20
-1.610423999999994
 10
-36.21730000000003
 20
-1.707142000000004
 10
-36.13875000000002
 20
-1.800000000000011
 10
-36.047346
 20
-1.888291999999976
 10
-35.943787
 20
-1.971344999999985
 10
-35.82885800000003
 20
-2.048528000000004
 10
-35.70343600000001
 20
-2.119253000000014
 10
-35.56847400000004
 20
-2.182982000000007
 10
-35.42500000000001
 20
-2.23923000000002
 10
-35.27410600000003
 20
-2.28756899999999
 10
-35.116939
 20
-2.327630999999996
 10
-34.95469700000001
 20
-2.35911100000001
 10
-34.78861399999999
 20
-2.38176899999999
 10
-34.61995400000001
 20
-2.395434000000022
 10
-34.44999999999999
 20
-2.400000000000003
 10
-34.28004599999996
 20
-2.395434000000022
 10
-34.11138599999998
 20
-2.38176899999999
 10
-33.94530299999997
 20
-2.35911100000001
 10
-33.78306099999998
 20
-2.327630999999996
 10
-33.62589400000002
 20
-2.28756899999999
 10
-33.47500000000002
 20
-2.23923000000002
 10
-33.331526
 20
-2.182982000000007
 10
-33.19656400000003
 20
-2.119253000000014
 10
-33.07114200000001
 20
-2.048528000000004
 10
-32.95621299999999
 20
-1.971344999999985
 10
-32.85265400000004
 20
-1.888291999999976
 10
-32.76125000000002
 20
-1.800000000000011
 10
-32.68270000000001
 20
-1.707142000000004
 10
-32.61759900000004
 20
-1.610423999999994
 10
-32.56644500000005
 20
-1.510582999999995
 10
-32.52962500000001
 20
-1.408377999999999
 10
-32.50742000000002
 20
-1.304586999999997
 10
-32.5
 20
-1.199999999999988
  0
LINE
  5
5250
330
5220
100
AcDbEntity
  8
AM_0 外形線1
100
AcDbLine
 10
-33.0
 20
-2.400000000000003
 30
0.0
 11
-35.89999999999998
 21
-2.400000000000003
 31
0.0
  0
LINE
  5
5251
330
5220
100
AcDbEntity
  8
AM_0 外形線1
100
AcDbLine
 10
-36.39999999999998
 20
-1.900000000000004
 30
0.0
 11
-36.39999999999998
 21
0.0
 31
0.0
  0
ARC
  5
5252
330
5220
100
AcDbEntity
  8
AM_0 外形線1
100
AcDbCircle
 10
-35.89999999999998
 20
-1.900000000000004
 30
0.0
 40
0.5
100
AcDbArc
 50
180.0
 51
270.0
  0
ARC
  5
5254
330
5220
100
AcDbEntity
  8
AM_0 外形線1
100
AcDbCircle
 10
-33.0
 20
-1.900000000000004
 30
0.0
 40
0.5
100
AcDbArc
 50
270.0
 51
0.0
  0
LINE
  5
5256
330
5220
100
AcDbEntity
  8
AM_7 中心線
100
AcDbLine
 10
43.5
 20
-20.97350900000001
 30
0.0
 11
43.5
 21
26.08889399999998
 31
0.0
  0
LINE
  5
5257
330
5220
100
AcDbEntity
  8
AM_0 外形線1
100
AcDbLine
 10
50.0
 20
-0.1999999999999886
 30
0.0
 11
50.0
 21
-14.80000000000001
 31
0.0
  0
LINE
  5
5258
330
5220
100
AcDbEntity
  8
AM_0 外形線1
100
AcDbLine
 10
33.5
 20
-29.370161
 30
0.0
 11
33.5
 21
-18.0
 31
0.0
  0
LINE
  5
5259
330
5220
100
AcDbEntity
  8
AM_0 外形線1
100
AcDbLine
 10
33.5
 20
-31.0
 30
0.0
 11
33.5
 21
-29.370161
 31
0.0
  0
ARC
  5
525A
330
5220
100
AcDbEntity
  8
AM_0 外形線1
100
AcDbCircle
 10
30.5
 20
-31.0
 30
0.0
 40
3.0
100
AcDbArc
 50
270.0
 51
0.0
  0
ARC
  5
525B
330
5220
100
AcDbEntity
  8
AM_0 外形線1
100
AcDbCircle
 10
36.5
 20
-18.0
 30
0.0
 40
3.0
100
AcDbArc
 50
90.0
 51
180.0
  0
LINE
  5
525C
330
5220
100
AcDbEntity
  8
AM_0 外形線1
100
AcDbLine
 10
50.0
 20
-14.80000000000001
 30
0.0
 11
49.80000000000001
 21
-15.0
 31
0.0
  0
LINE
  5
525D
330
5220
100
AcDbEntity
  8
AM_0 外形線1
100
AcDbLine
 10
49.80000000000001
 20
0.0
 30
0.0
 11
50.0
 21
-0.1999999999999886
 31
0.0
  0
LINE
  5
525E
330
5220
100
AcDbEntity
  8
AM_0 外形線1
100
AcDbLine
 10
-43.80000000000001
 20
-3.75
 30
0.0
 11
-43.80000000000001
 21
-12.25
 31
0.0
  0
LINE
  5
525F
330
5220
100
AcDbEntity
  8
AM_4 細線
100
AcDbLine
 10
-43.80000000000001
 20
-12.25
 30
0.0
 11
-43.80000000000001
 21
-12.67025000000001
 31
0.0
  0
LINE
  5
52E5
330
5220
100
AcDbEntity
  8
AM_0 外形線1
100
AcDbLine
 10
-36.39999999999998
 20
0.0
 30
0.0
 11
-49.80000000000001
 21
0.0
 31
0.0
  0
LINE
  5
52E6
330
5220
100
AcDbEntity
  8
AM_0 外形線1
100
AcDbLine
 10
-32.5
 20
0.0
 30
0.0
 11
-32.5
 21
-1.900000000000004
 31
0.0
  0
LINE
  5
52E7
330
5220
100
AcDbEntity
  8
AM_0 外形線1
100
AcDbLine
 10
-29.0
 20
0.0
 30
0.0
 11
-32.5
 21
0.0
 31
0.0
  0
ENDBLK
  5
5222
330
5220
100
AcDbEntity
  8
0
100
AcDbBlockEnd
  0
BLOCK
  5
53FE
330
53FD
100
AcDbEntity
  8
0
100
AcDbBlockBegin
  2
ケースＢ SMVH100
 70
     0
 10
0.0
 20
0.0
 30
0.0
  3
ケースＢ SMVH100
  1

  0
LINE
  5
5400
330
53FD
100
AcDbEntity
  8
AM_0 外形線1
100
AcDbLine
 10
30.5
 20
34.0
 30
0.0
 11
0.0
 21
34.0
 31
0.0
  0
LINE
  5
5401
330
53FD
100
AcDbEntity
  8
AM_0 外形線1
100
AcDbLine
 10
49.80000000000001
 20
15.0
 30
0.0
 11
0.0
 21
15.0
 31
0.0
  0
LINE
  5
5402
330
53FD
100
AcDbEntity
  8
AM_7 中心線
100
AcDbLine
 10
-51.25
 20
8.0
 30
0.0
 11
-27.25
 21
8.0
 31
0.0
  0
LINE
  5
5403
330
53FD
100
AcDbEntity
  8
AM_4 細線
100
AcDbLine
 10
-50.0
 20
3.135999999999995
 30
0.0
 11
-43.80000000000001
 21
3.329749999999988
 31
0.0
  0
LINE
  5
5404
330
53FD
100
AcDbEntity
  8
AM_4 細線
100
AcDbLine
 10
-50.0
 20
12.864
 30
0.0
 11
-43.80000000000001
 21
12.67025000000001
 31
0.0
  0
LINE
  5
5405
330
53FD
100
AcDbEntity
  8
AM_0 外形線1
100
AcDbLine
 10
-50.0
 20
3.556250000000004
 30
0.0
 11
-43.80000000000001
 21
3.75
 31
0.0
  0
LINE
  5
5406
330
53FD
100
AcDbEntity
  8
AM_0 外形線1
100
AcDbLine
 10
-50.0
 20
12.44374999999999
 30
0.0
 11
-43.80000000000001
 21
12.25
 31
0.0
  0
LINE
  5
5408
330
53FD
100
AcDbEntity
  8
AM_0 外形線1
100
AcDbLine
 10
-50.0
 20
0.1999999999999886
 30
0.0
 11
-50.0
 21
14.80000000000001
 31
0.0
  0
LINE
  5
5409
330
53FD
100
AcDbEntity
  8
AM_0 外形線1
100
AcDbLine
 10
-49.80000000000001
 20
0.0
 30
0.0
 11
-50.0
 21
0.1999999999999886
 31
0.0
  0
LINE
  5
540B
330
53FD
100
AcDbEntity
  8
AM_0 外形線1
100
AcDbLine
 10
-50.0
 20
14.80000000000001
 30
0.0
 11
-49.80000000000001
 21
15.0
 31
0.0
  0
LINE
  5
540C
330
53FD
100
AcDbEntity
  8
AM_0 外形線1
100
AcDbLine
 10
-33.0
 20
25.5
 30
0.0
 11
-33.0
 21
29.0
 31
0.0
  0
LINE
  5
540D
330
53FD
100
AcDbEntity
  8
AM_0 外形線1
100
AcDbLine
 10
-24.0
 20
27.19999999999999
 30
0.0
 11
-24.0
 21
25.0
 31
0.0
  0
ARC
  5
540E
330
53FD
100
AcDbEntity
  8
AM_0 外形線1
100
AcDbCircle
 10
-25.5
 20
27.7
 30
0.0
 40
0.5
100
AcDbArc
 50
180.0
 51
270.0
  0
LINE
  5
540F
330
53FD
100
AcDbEntity
  8
AM_0 外形線1
100
AcDbLine
 10
-29.0
 20
3.0
 30
0.0
 11
-32.5
 21
3.0
 31
0.0
  0
LINE
  5
5410
330
53FD
100
AcDbEntity
  8
AM_4 細線
100
AcDbLine
 10
-43.80000000000001
 20
3.329749999999988
 30
0.0
 11
-43.80000000000001
 21
3.75
 31
0.0
  0
ARC
  5
5411
330
53FD
100
AcDbEntity
  8
AM_0 外形線1
100
AcDbCircle
 10
-28.0
 20
11.0
 30
0.0
 40
1.0
100
AcDbArc
 50
90.0
 51
180.0
  0
LINE
  5
5412
330
53FD
100
AcDbEntity
  8
AM_0 外形線1
100
AcDbLine
 10
-43.80000000000001
 20
3.75
 30
0.0
 11
-29.0
 21
3.75
 31
0.0
  0
LINE
  5
5413
330
53FD
100
AcDbEntity
  8
AM_0 外形線1
100
AcDbLine
 10
-29.0
 20
11.0
 30
0.0
 11
-29.0
 21
3.0
 31
0.0
  0
LINE
  5
5414
330
53FD
100
AcDbEntity
  8
AM_0 外形線1
100
AcDbLine
 10
-32.5
 20
0.1999999999999886
 30
0.0
 11
-32.69999999999999
 21
0.0
 31
0.0
  0
LINE
  5
5415
330
53FD
100
AcDbEntity
  8
AM_0 外形線1
100
AcDbLine
 10
-43.80000000000001
 20
12.25
 30
0.0
 11
-28.5
 21
12.25
 31
0.0
  0
ARC
  5
5416
330
53FD
100
AcDbEntity
  8
AM_0 外形線1
100
AcDbCircle
 10
-36.5
 20
18.0
 30
0.0
 40
3.0
100
AcDbArc
 50
270.0
 51
0.0
  0
LINE
  5
5417
330
53FD
100
AcDbEntity
  8
AM_0 外形線1
100
AcDbLine
 10
-49.80000000000001
 20
15.0
 30
0.0
 11
-36.5
 21
15.0
 31
0.0
  0
LINE
  5
5418
330
53FD
100
AcDbEntity
  8
AM_0 外形線1
100
AcDbLine
 10
-33.0
 20
18.0
 30
0.0
 11
-33.0
 21
21.5
 31
0.0
  0
LINE
  5
5419
330
53FD
100
AcDbEntity
  8
AM_7 中心線
100
AcDbLine
 10
-27.0
 20
11.32977500000001
 30
0.0
 11
-27.0
 21
23.660979
 31
0.0
  0
LINE
  5
541A
330
53FD
100
AcDbEntity
  8
AM_3 隠れ線
100
AcDbLine
 10
-25.80000000000001
 20
14.0
 30
0.0
 11
-25.80000000000001
 21
21.5
 31
0.0
  0
LINE
  5
541B
330
53FD
100
AcDbEntity
  8
AM_0 外形線1
100
AcDbLine
 10
-28.5
 20
11.86602500000001
 30
0.0
 11
-28.5
 21
22.13397499999999
 31
0.0
  0
LINE
  5
541C
330
53FD
100
AcDbEntity
  8
AM_0 外形線1
100
AcDbLine
 10
-26.30000000000001
 20
12.0
 30
0.0
 11
-28.0
 21
12.0
 31
0.0
  0
LINE
  5
541D
330
53FD
100
AcDbEntity
  8
AM_0 外形線1
100
AcDbLine
 10
-33.5
 20
18.0
 30
0.0
 11
-33.5
 21
18.5
 31
0.0
  0
LINE
  5
541E
330
53FD
100
AcDbEntity
  8
AM_0 外形線1
100
AcDbLine
 10
-33.5
 20
18.0
 30
0.0
 11
-33.0
 21
18.0
 31
0.0
  0
LINE
  5
541F
330
53FD
100
AcDbEntity
  8
AM_0 外形線1
100
AcDbLine
 10
-25.80000000000001
 20
14.0
 30
0.0
 11
-25.80000000000001
 21
12.5
 31
0.0
  0
LINE
  5
5420
330
53FD
100
AcDbEntity
  8
AM_0 外形線1
100
AcDbLine
 10
-25.80000000000001
 20
12.5
 30
0.0
 11
-26.30000000000001
 21
12.0
 31
0.0
  0
LINE
  5
5421
330
53FD
100
AcDbEntity
  8
AM_3 隠れ線
100
AcDbLine
 10
-28.09017799999998
 20
21.85
 30
0.0
 11
-26.14999999999998
 21
21.85
 31
0.0
  0
LINE
  5
5422
330
53FD
100
AcDbEntity
  8
AM_3 隠れ線
100
AcDbLine
 10
-28.14215000000002
 20
21.5
 30
0.0
 11
-25.80000000000001
 21
21.5
 31
0.0
  0
LINE
  5
5423
330
53FD
100
AcDbEntity
  8
AM_0 外形線1
100
AcDbLine
 10
-28.94999999999999
 20
25.15000000000001
 30
0.0
 11
-24.0
 21
25.15000000000001
 31
0.0
  0
LINE
  5
5424
330
53FD
100
AcDbEntity
  8
AM_4 細線
100
AcDbLine
 10
-29.30000000000001
 20
25.5
 30
0.0
 11
-24.0
 21
25.5
 31
0.0
  0
LINE
  5
5425
330
53FD
100
AcDbEntity
  8
AM_3 隠れ線
100
AcDbLine
 10
-28.0
 20
22.0
 30
0.0
 11
-26.30000000000001
 21
22.0
 31
0.0
  0
LINE
  5
5426
330
53FD
100
AcDbEntity
  8
AM_0 外形線1
100
AcDbLine
 10
-23.0
 20
25.0
 30
0.0
 11
-28.0
 21
25.0
 31
0.0
  0
LINE
  5
5427
330
53FD
100
AcDbEntity
  8
AM_4 細線
100
AcDbLine
 10
-28.14215000000002
 20
21.5
 30
0.0
 11
-29.30000000000001
 21
21.5
 31
0.0
  0
LINE
  5
5428
330
53FD
100
AcDbEntity
  8
AM_0 外形線1
100
AcDbLine
 10
-28.09017799999998
 20
21.85
 30
0.0
 11
-28.94999999999999
 21
21.85
 31
0.0
  0
ARC
  5
5429
330
53FD
100
AcDbEntity
  8
AM_0 外形線1
100
AcDbCircle
 10
-28.0
 20
23.0
 30
0.0
 40
1.0
100
AcDbArc
 50
180.0
 51
266.2049569999959
  0
LINE
  5
542A
330
53FD
100
AcDbEntity
  8
AM_0 外形線1
100
AcDbLine
 10
-29.0
 20
24.0
 30
0.0
 11
-29.0
 21
23.0
 31
0.0
  0
ARC
  5
542B
330
53FD
100
AcDbEntity
  8
AM_0 外形線1
100
AcDbCircle
 10
-28.0
 20
24.0
 30
0.0
 40
1.0
100
AcDbArc
 50
90.0
 51
180.0
  0
LINE
  5
542C
330
53FD
100
AcDbEntity
  8
AM_3 隠れ線
100
AcDbLine
 10
-26.30000000000001
 20
22.0
 30
0.0
 11
-25.80000000000001
 21
21.5
 31
0.0
  0
ARC
  5
542D
330
53FD
100
AcDbEntity
  8
AM_0 外形線1
100
AcDbCircle
 10
-30.5
 20
31.0
 30
0.0
 40
3.0
100
AcDbArc
 50
90.0
 51
180.0
  0
LINE
  5
542E
330
53FD
100
AcDbEntity
  8
AM_0 外形線1
100
AcDbLine
 10
-30.5
 20
34.0
 30
0.0
 11
-23.0
 21
34.0
 31
0.0
  0
LINE
  5
542F
330
53FD
100
AcDbEntity
  8
AM_0 外形線1
100
AcDbLine
 10
-33.5
 20
28.5
 30
0.0
 11
-33.5
 21
31.0
 31
0.0
  0
LINE
  5
5430
330
53FD
100
AcDbEntity
  8
AM_0 外形線1
100
AcDbLine
 10
-33.5
 20
29.0
 30
0.0
 11
-33.0
 21
29.0
 31
0.0
  0
LWPOLYLINE
  5
5431
330
53FD
100
AcDbEntity
  8
AM_0 外形線1
100
AcDbPolyline
 90
       73
 70
     0
 43
0.0
 10
-24.5
 20
27.19999999999999
 10
-24.36926600000004
 20
27.208752
 10
-24.23952800000001
 20
27.23494199999999
 10
-24.11177099999998
 20
27.27837099999999
 10
-23.98697000000004
 20
27.338707
 10
-23.86607299999997
 20
27.415492
 10
-23.75
 20
27.50814199999999
 10
-23.639635
 20
27.61595
 10
-23.535819
 20
27.73809800000001
 10
-23.43934000000002
 20
27.87365400000002
 10
-23.350933
 20
28.02158799999998
 10
-23.27127200000001
 20
28.18077399999999
 10
-23.200962
 20
28.34999999999999
 10
-23.14053799999999
 20
28.52797799999999
 10
-23.09046100000001
 20
28.71335400000001
 10
-23.05111099999999
 20
28.90471599999998
 10
-23.02278799999999
 20
29.10060900000002
 10
-23.00570800000004
 20
29.299542
 10
-23.0
 20
29.5
 10
-23.00570800000004
 20
29.700458
 10
-23.02278799999999
 20
29.89939099999998
 10
-23.05111099999999
 20
30.09528400000002
 10
-23.09046100000001
 20
30.28664599999999
 10
-23.14053799999999
 20
30.47202200000001
 10
-23.200962
 20
30.65000000000001
 10
-23.27127200000001
 20
30.81922600000002
 10
-23.350933
 20
30.97841200000002
 10
-23.43934000000002
 20
31.12634599999998
 10
-23.535819
 20
31.26190199999999
 10
-23.639635
 20
31.38405
 10
-23.75
 20
31.49185800000001
 10
-23.86607299999997
 20
31.58450800000001
 10
-23.98697000000004
 20
31.661293
 10
-24.11177099999998
 20
31.72162900000001
 10
-24.23952800000001
 20
31.76505800000001
 10
-24.36926600000004
 20
31.791248
 10
-24.5
 20
31.80000000000001
 10
-24.63073399999996
 20
31.791248
 10
-24.760472
 20
31.76505800000001
 10
-24.88822900000002
 20
31.72162900000001
 10
-25.01302999999996
 20
31.661293
 10
-25.13392700000003
 20
31.58450800000001
 10
-25.25
 20
31.49185800000001
 10
-25.360365
 20
31.38405
 10
-25.464181
 20
31.26190199999999
 10
-25.56065999999999
 20
31.12634599999998
 10
-25.649067
 20
30.97841200000002
 10
-25.72872799999999
 20
30.81922600000002
 10
-25.799038
 20
30.65000000000001
 10
-25.85946200000001
 20
30.47202200000001
 10
-25.90953900000001
 20
30.28664599999999
 10
-25.94888900000001
 20
30.09528400000002
 10
-25.97721200000001
 20
29.89939099999998
 10
-25.99429199999998
 20
29.700458
 10
-26.0
 20
29.5
 10
-25.99429199999998
 20
29.299542
 10
-25.97721200000001
 20
29.10060900000002
 10
-25.94888900000001
 20
28.90471599999998
 10
-25.90953900000001
 20
28.71335400000001
 10
-25.85946200000001
 20
28.52797799999999
 10
-25.799038
 20
28.34999999999999
 10
-25.72872799999999
 20
28.18077399999999
 10
-25.649067
 20
28.02158799999998
 10
-25.56065999999999
 20
27.87365400000002
 10
-25.464181
 20
27.73809800000001
 10
-25.360365
 20
27.61595
 10
-25.25
 20
27.50814199999999
 10
-25.13392700000003
 20
27.415492
 10
-25.01302999999996
 20
27.338707
 10
-24.88822900000002
 20
27.27837099999999
 10
-24.760472
 20
27.23494199999999
 10
-24.63073399999996
 20
27.208752
 10
-24.5
 20
27.19999999999999
  0
LINE
  5
5432
330
53FD
100
AcDbEntity
  8
AM_0 外形線1
100
AcDbLine
 10
-25.5
 20
27.19999999999999
 30
0.0
 11
-23.0
 21
27.19999999999999
 31
0.0
  0
LINE
  5
5433
330
53FD
100
AcDbEntity
  8
AM_0 外形線1
100
AcDbLine
 10
-26.0
 20
31.30000000000001
 30
0.0
 11
-26.0
 21
27.7
 31
0.0
  0
ARC
  5
5434
330
53FD
100
AcDbEntity
  8
AM_0 外形線1
100
AcDbCircle
 10
-25.5
 20
31.30000000000001
 30
0.0
 40
0.5
100
AcDbArc
 50
90.0
 51
180.0
  0
LINE
  5
5435
330
53FD
100
AcDbEntity
  8
AM_0 外形線1
100
AcDbLine
 10
-23.0
 20
31.80000000000001
 30
0.0
 11
-25.5
 21
31.80000000000001
 31
0.0
  0
LINE
  5
5436
330
53FD
100
AcDbEntity
  8
AM_0 外形線1
100
AcDbLine
 10
-24.0
 20
34.0
 30
0.0
 11
-24.0
 21
31.80000000000001
 31
0.0
  0
LINE
  5
5437
330
53FD
100
AcDbEntity
  8
AM_0 外形線1
100
AcDbLine
 10
33.5
 20
18.0
 30
0.0
 11
33.5
 21
31.0
 31
0.0
  0
ARC
  5
5438
330
53FD
100
AcDbEntity
  8
AM_0 外形線1
100
AcDbCircle
 10
36.5
 20
18.0
 30
0.0
 40
3.0
100
AcDbArc
 50
180.0
 51
270.0
  0
ARC
  5
5439
330
53FD
100
AcDbEntity
  8
AM_0 外形線1
100
AcDbCircle
 10
30.5
 20
31.0
 30
0.0
 40
3.0
100
AcDbArc
 50
0.0
 51
90.0
  0
LINE
  5
543A
330
53FD
100
AcDbEntity
  8
AM_0 外形線1
100
AcDbLine
 10
50.0
 20
0.1999999999999886
 30
0.0
 11
50.0
 21
14.80000000000001
 31
0.0
  0
LINE
  5
543B
330
53FD
100
AcDbEntity
  8
AM_0 外形線1
100
AcDbLine
 10
49.80000000000001
 20
0.0
 30
0.0
 11
50.0
 21
0.1999999999999886
 31
0.0
  0
LINE
  5
543C
330
53FD
100
AcDbEntity
  8
AM_0 外形線1
100
AcDbLine
 10
50.0
 20
14.80000000000001
 30
0.0
 11
49.80000000000001
 21
15.0
 31
0.0
  0
LINE
  5
543D
330
53FD
100
AcDbEntity
  8
AM_4 細線
100
AcDbLine
 10
-43.80000000000001
 20
12.24913265004557
 30
0.0
 11
-43.80000000000001
 21
12.67025000000001
 31
0.0
  0
LINE
  5
543E
330
53FD
100
AcDbEntity
  8
AM_0 外形線1
100
AcDbLine
 10
-43.80000000000001
 20
3.75
 30
0.0
 11
-43.80000000000001
 21
12.25
 31
0.0
  0
LINE
  5
543F
330
53FD
100
AcDbEntity
  8
AM_0 外形線1
100
AcDbLine
 10
-32.69999999999999
 20
0.0
 30
0.0
 11
-49.80000000000011
 21
0.0
 31
0.0
  0
LINE
  5
5440
330
53FD
100
AcDbEntity
  8
AM_0 外形線1
100
AcDbLine
 10
-32.5
 20
3.0
 30
0.0
 11
-32.5
 21
0.1999999999999886
 31
0.0
  0
LINE
  5
54ED
330
53FD
100
AcDbEntity
  8
AM_0 外形線1
100
AcDbLine
 10
49.80000000000001
 20
0.0
 30
0.0
 11
0.0
 21
0.0
 31
0.0
  0
INSERT
  5
55F5
330
53FD
100
AcDbEntity
  8
AM_0 外形線1
100
AcDbBlockReference
  2
ジュウジマルコネジ
 10
-33.80000000000001
 20
23.5
 30
0.0
  0
ENDBLK
  5
53FF
330
53FD
100
AcDbEntity
  8
0
100
AcDbBlockEnd
  0
BLOCK
  5
551B
330
551A
100
AcDbEntity
  8
0
100
AcDbBlockBegin
  2
ジュウジマルコネジ
 70
     0
 10
0.0
 20
0.0
 30
0.0
  3
ジュウジマルコネジ
  1

  0
LINE
  5
551D
330
551A
100
AcDbEntity
  8
AM_0 外形線1
100
AcDbLine
 10
0.0
 20
-5.0
 30
0.0
 11
0.0
 21
5.0
 31
0.0
  0
LINE
  5
551E
330
551A
100
AcDbEntity
  8
AM_0 外形線1
100
AcDbLine
 10
0.0
 20
2.25
 30
0.0
 11
0.8000000000000111
 21
2.25
 31
0.0
  0
LINE
  5
551F
330
551A
100
AcDbEntity
  8
AM_0 外形線1
100
AcDbLine
 10
0.0
 20
-2.25
 30
0.0
 11
0.8000000000000111
 21
-2.25
 31
0.0
  0
LINE
  5
5520
330
551A
100
AcDbEntity
  8
AM_0 外形線1
100
AcDbLine
 10
0.0
 20
-5.0
 30
0.0
 11
0.8000000000000111
 21
-5.0
 31
0.0
  0
LINE
  5
5521
330
551A
100
AcDbEntity
  8
AM_4 細線
100
AcDbLine
 10
4.850000000000021
 20
1.650000000000004
 30
0.0
 11
0.0
 21
1.650000000000004
 31
0.0
  0
LINE
  5
5522
330
551A
100
AcDbEntity
  8
AM_4 細線
100
AcDbLine
 10
4.850000000000021
 20
-1.650000000000004
 30
0.0
 11
0.0
 21
-1.650000000000004
 31
0.0
  0
LINE
  5
5523
330
551A
100
AcDbEntity
  8
AM_0 外形線1
100
AcDbLine
 10
4.5
 20
-2.0
 30
0.0
 11
0.0
 21
-2.0
 31
0.0
  0
LINE
  5
5524
330
551A
100
AcDbEntity
  8
AM_0 外形線1
100
AcDbLine
 10
4.5
 20
2.0
 30
0.0
 11
0.0
 21
2.0
 31
0.0
  0
LINE
  5
5525
330
551A
100
AcDbEntity
  8
AM_7 中心線
100
AcDbLine
 10
-3.472610999999971
 20
0.0
 30
0.0
 11
5.466667000000028
 21
0.0
 31
0.0
  0
LWPOLYLINE
  5
5526
330
551A
100
AcDbEntity
  8
AM_0 外形線1
100
AcDbPolyline
 90
       36
 70
     0
 43
0.0
 10
0.0
 20
3.5
 10
-0.2330620000000181
 20
3.485910000000017
 10
-0.4642479999999978
 20
3.443754000000011
 10
-0.691695999999979
 20
3.373869999999981
 10
-0.91357499999998
 20
3.276822000000009
 10
-1.128097999999965
 20
3.153390999999998
 10
-1.333537999999975
 20
3.004570999999998
 10
-1.528241999999975
 20
2.831558999999998
 10
-1.710641000000008
 20
2.635749999999999
 10
-1.879266999999968
 20
2.418718999999979
 10
-2.032761999999991
 20
2.182213999999985
 10
-2.169889999999952
 20
1.928138999999987
 10
-2.289547999999967
 20
1.658539999999985
 10
-2.390772000000024
 20
1.375587999999992
 10
-2.472747000000024
 20
1.081558999999997
 10
-2.534812999999983
 20
0.7788229999999885
 10
-2.576468999999974
 20
0.4698159999999805
 10
-2.59738199999998
 20
0.1570269999999994
 10
-2.59738199999998
 20
-0.1570269999999994
 10
-2.576468999999974
 20
-0.4698159999999805
 10
-2.534812999999983
 20
-0.7788229999999885
 10
-2.472747000000024
 20
-1.081558999999997
 10
-2.390772000000024
 20
-1.375587999999992
 10
-2.289547999999967
 20
-1.658539999999985
 10
-2.169889999999952
 20
-1.928138999999987
 10
-2.032761999999991
 20
-2.182213999999985
 10
-1.879266999999968
 20
-2.418718999999979
 10
-1.710641000000008
 20
-2.635749999999999
 10
-1.528241999999975
 20
-2.831558999999998
 10
-1.333537999999975
 20
-3.004570999999998
 10
-1.128097999999965
 20
-3.153390999999998
 10
-0.91357499999998
 20
-3.276822000000009
 10
-0.691695999999979
 20
-3.373869999999981
 10
-0.4642479999999978
 20
-3.443754000000011
 10
-0.2330620000000181
 20
-3.485910000000017
 10
0.0
 20
-3.5
  0
LINE
  5
5527
330
551A
100
AcDbEntity
  8
AM_0 外形線1
100
AcDbLine
 10
4.5
 20
-2.0
 30
0.0
 11
5.0
 21
-1.5
 31
0.0
  0
LINE
  5
5528
330
551A
100
AcDbEntity
  8
AM_0 外形線1
100
AcDbLine
 10
4.5
 20
2.0
 30
0.0
 11
5.0
 21
1.5
 31
0.0
  0
LINE
  5
5529
330
551A
100
AcDbEntity
  8
AM_0 外形線1
100
AcDbLine
 10
4.5
 20
-2.0
 30
0.0
 11
4.5
 21
2.0
 31
0.0
  0
LINE
  5
552A
330
551A
100
AcDbEntity
  8
AM_0 外形線1
100
AcDbLine
 10
5.0
 20
-1.5
 30
0.0
 11
5.0
 21
1.5
 31
0.0
  0
LINE
  5
552B
330
551A
100
AcDbEntity
  8
AM_0 外形線1
100
AcDbLine
 10
0.0
 20
5.0
 30
0.0
 11
0.8000000000000111
 21
5.0
 31
0.0
  0
LINE
  5
5551
330
551A
100
AcDbEntity
  8
AM_0 外形線1
100
AcDbLine
 10
0.8000000000000111
 20
5.0
 30
0.0
 11
0.8000000000000111
 21
2.0
 31
0.0
  0
LINE
  5
5552
330
551A
100
AcDbEntity
  8
AM_0 外形線1
100
AcDbLine
 10
0.8000000000000111
 20
-5.0
 30
0.0
 11
0.8000000000000111
 21
-2.0
 31
0.0
  0
ENDBLK
  5
551C
330
551A
100
AcDbEntity
  8
0
100
AcDbBlockEnd
  0
BLOCK
  5
56B5
330
56B4
100
AcDbEntity
  8
0
100
AcDbBlockBegin
  2
センタＡ SMVH100
 70
     0
 10
0.0
 20
0.0
 30
0.0
  3
センタＡ SMVH100
  1

  0
LINE
  5
56B7
330
56B4
100
AcDbEntity
  8
AM_0 外形線1
100
AcDbLine
 10
20.0
 20
-45.0
 30
0.0
 11
-20.0
 21
-45.0
 31
0.0
  0
LINE
  5
56B8
330
56B4
100
AcDbEntity
  8
AM_0 外形線1
100
AcDbLine
 10
-22.5
 20
-9.5
 30
0.0
 11
-22.5
 21
-0.5
 31
0.0
  0
LINE
  5
56B9
330
56B4
100
AcDbEntity
  8
AM_0 外形線1
100
AcDbLine
 10
-23.0
 20
-42.0
 30
0.0
 11
-23.0
 21
-19.5
 31
0.0
  0
ARC
  5
56BA
330
56B4
100
AcDbEntity
  8
AM_0 外形線1
100
AcDbCircle
 10
-20.0
 20
-42.0
 30
0.0
 40
3.0
100
AcDbArc
 50
180.0
 51
270.0
  0
ARC
  5
56BB
330
56B4
100
AcDbEntity
  8
AM_0 外形線1
100
AcDbCircle
 10
0.0
 20
-13.5
 30
0.0
 40
28.425
100
AcDbArc
 50
173.9350149999999
 51
190.1487690000002
  0
LINE
  5
56BE
330
56B4
100
AcDbEntity
  8
AM_0 外形線1
100
AcDbLine
 10
-27.98025000000001
 20
-18.50861699999999
 30
0.0
 11
-27.38782200000003
 21
-19.0
 31
0.0
  0
LINE
  5
56BF
330
56B4
100
AcDbEntity
  8
AM_0 外形線1
100
AcDbLine
 10
-23.5
 20
-19.0
 30
0.0
 11
-27.38782200000003
 21
-19.0
 31
0.0
  0
ARC
  5
56C0
330
56B4
100
AcDbEntity
  8
AM_0 外形線1
100
AcDbCircle
 10
-23.5
 20
-19.5
 30
0.0
 40
0.5
100
AcDbArc
 50
0.0
 51
90.0
  0
LINE
  5
56C1
330
56B4
100
AcDbEntity
  8
AM_7 中心線
100
AcDbLine
 10
-30.19279599999999
 20
-13.5
 30
0.0
 11
-23.16782000000001
 21
-13.5
 31
0.0
  0
LINE
  5
56C2
330
56B4
100
AcDbEntity
  8
AM_0 外形線1
100
AcDbLine
 10
-28.26589699999999
 20
-10.49671699999999
 30
0.0
 11
-27.70869799999997
 21
-10.0
 31
0.0
  0
ARC
  5
56C3
330
56B4
100
AcDbEntity
  8
AM_0 外形線1
100
AcDbCircle
 10
-23.0
 20
-9.5
 30
0.0
 40
0.5
100
AcDbArc
 50
270.0
 51
0.0
  0
LINE
  5
56C4
330
56B4
100
AcDbEntity
  8
AM_0 外形線1
100
AcDbLine
 10
-27.70869799999997
 20
-10.0
 30
0.0
 11
-23.0
 21
-10.0
 31
0.0
  0
LINE
  5
56C5
330
56B4
100
AcDbEntity
  8
AM_0 外形線1
100
AcDbLine
 10
-22.5
 20
-0.5
 30
0.0
 11
-22.0
 21
0.0
 31
0.0
  0
LINE
  5
56C6
330
56B4
100
AcDbEntity
  8
AM_0 外形線1
100
AcDbLine
 10
-22.0
 20
0.0
 30
0.0
 11
0.0
 21
0.0
 31
0.0
  0
LINE
  5
56C7
330
56B4
100
AcDbEntity
  8
AM_0 外形線1
100
AcDbLine
 10
23.0
 20
-42.0
 30
0.0
 11
23.0
 21
-30.0
 31
0.0
  0
ARC
  5
56C8
330
56B4
100
AcDbEntity
  8
AM_0 外形線1
100
AcDbCircle
 10
20.0
 20
-42.0
 30
0.0
 40
3.0
100
AcDbArc
 50
270.0
 51
0.0
  0
LINE
  5
56C9
330
56B4
100
AcDbEntity
  8
AM_0 外形線1
100
AcDbLine
 10
-11.84271928232709
 20
0.0
 30
0.0
 11
-11.84271928232709
 21
-45.0
 31
0.0
  0
ARC
  5
6DC5
330
56B4
100
AcDbEntity
  8
AM_0 外形線1
100
AcDbCircle
 10
0.0
 20
-13.5
 30
0.0
 40
25.35
100
AcDbArc
 50
172.063989192056
 51
192.5306898290408
  0
ARC
  5
6DC6
330
56B4
100
AcDbEntity
  8
AM_7 中心線
100
AcDbCircle
 10
0.0
 20
-13.5
 30
0.0
 40
27.00000000000003
100
AcDbArc
 50
171.0509644885906
 51
194.0669508323444
  0
ENDBLK
  5
56B6
330
56B4
100
AcDbEntity
  8
0
100
AcDbBlockEnd
  0
BLOCK
  5
56ED
330
56EC
100
AcDbEntity
  8
0
100
AcDbBlockBegin
  2
センタB SMVH100
 70
     0
 10
0.0
 20
0.0
 30
0.0
  3
センタB SMVH100
  1

  0
LINE
  5
56EF
330
56EC
100
AcDbEntity
  8
AM_0 外形線1
100
AcDbLine
 10
20.0
 20
45.0
 30
0.0
 11
-20.0
 21
45.0
 31
0.0
  0
LINE
  5
56F0
330
56EC
100
AcDbEntity
  8
AM_0 外形線1
100
AcDbLine
 10
-23.0
 20
42.0
 30
0.0
 11
-23.0
 21
19.5
 31
0.0
  0
LINE
  5
56F1
330
56EC
100
AcDbEntity
  8
AM_0 外形線1
100
AcDbLine
 10
-22.5
 20
0.5
 30
0.0
 11
-22.0
 21
0.0
 31
0.0
  0
LINE
  5
56F2
330
56EC
100
AcDbEntity
  8
AM_0 外形線1
100
AcDbLine
 10
-22.5
 20
9.5
 30
0.0
 11
-22.5
 21
0.5
 31
0.0
  0
ARC
  5
56F5
330
56EC
100
AcDbEntity
  8
AM_0 外形線1
100
AcDbCircle
 10
0.0
 20
13.5
 30
0.0
 40
28.425
100
AcDbArc
 50
169.8512309999998
 51
186.064985
  0
LINE
  5
56F6
330
56EC
100
AcDbEntity
  8
AM_0 外形線1
100
AcDbLine
 10
-28.26589699999999
 20
10.49671699999999
 30
0.0
 11
-27.70869799999997
 21
10.0
 31
0.0
  0
LINE
  5
56F7
330
56EC
100
AcDbEntity
  8
AM_7 中心線
100
AcDbLine
 10
-30.19279599999999
 20
13.5
 30
0.0
 11
-23.16782000000001
 21
13.5
 31
0.0
  0
LINE
  5
56F8
330
56EC
100
AcDbEntity
  8
AM_0 外形線1
100
AcDbLine
 10
-27.70869799999997
 20
10.0
 30
0.0
 11
-23.0
 21
10.0
 31
0.0
  0
ARC
  5
56F9
330
56EC
100
AcDbEntity
  8
AM_0 外形線1
100
AcDbCircle
 10
-23.0
 20
9.5
 30
0.0
 40
0.5
100
AcDbArc
 50
0.0
 51
90.0
  0
LINE
  5
56FA
330
56EC
100
AcDbEntity
  8
AM_0 外形線1
100
AcDbLine
 10
-27.98025000000001
 20
18.50861699999999
 30
0.0
 11
-27.38782200000003
 21
19.0
 31
0.0
  0
LINE
  5
56FB
330
56EC
100
AcDbEntity
  8
AM_0 外形線1
100
AcDbLine
 10
-23.5
 20
19.0
 30
0.0
 11
-27.38782200000003
 21
19.0
 31
0.0
  0
ARC
  5
56FC
330
56EC
100
AcDbEntity
  8
AM_0 外形線1
100
AcDbCircle
 10
-23.5
 20
19.5
 30
0.0
 40
0.5
100
AcDbArc
 50
270.0
 51
0.0
  0
LINE
  5
56FD
330
56EC
100
AcDbEntity
  8
AM_0 外形線1
100
AcDbLine
 10
-22.0
 20
0.0
 30
0.0
 11
0.0
 21
0.0
 31
0.0
  0
ARC
  5
56FE
330
56EC
100
AcDbEntity
  8
AM_0 外形線1
100
AcDbCircle
 10
-20.0
 20
42.0
 30
0.0
 40
3.0
100
AcDbArc
 50
90.0
 51
180.0
  0
LINE
  5
56FF
330
56EC
100
AcDbEntity
  8
AM_0 外形線1
100
AcDbLine
 10
23.0
 20
30.0
 30
0.0
 11
23.0
 21
42.0
 31
0.0
  0
ARC
  5
5700
330
56EC
100
AcDbEntity
  8
AM_0 外形線1
100
AcDbCircle
 10
20.0
 20
42.0
 30
0.0
 40
3.0
100
AcDbArc
 50
0.0
 51
90.0
  0
LINE
  5
5701
330
56EC
100
AcDbEntity
  8
AM_0 外形線1
100
AcDbLine
 10
-13.41640786499869
 20
45.0
 30
0.0
 11
-13.41640786499874
 21
0.0
 31
0.0
  0
ARC
  5
6EB8
330
56EC
100
AcDbEntity
  8
AM_0 外形線1
100
AcDbCircle
 10
0.0000000000001137
 20
13.49999999999966
 30
0.0
 40
25.35
100
AcDbArc
 50
167.4693101709592
 51
187.936010807942
  0
ARC
  5
6EB9
330
56EC
100
AcDbEntity
  8
AM_7 中心線
100
AcDbCircle
 10
0.0000000000001137
 20
13.49999999999966
 30
0.0
 40
27.00000000000003
100
AcDbArc
 50
166.564141932355
 51
188.7528747545787
  0
ENDBLK
  5
56EE
330
56EC
100
AcDbEntity
  8
0
100
AcDbBlockEnd
  0
BLOCK
  5
5762
330
5761
100
AcDbEntity
  8
0
100
AcDbBlockBegin
  2
スラストプレ－ト SMVH100
 70
     0
 10
0.0
 20
0.0
 30
0.0
  3
スラストプレ－ト SMVH100
  1

  0
LINE
  5
5764
330
5761
100
AcDbEntity
  8
AM_0 外形線1
100
AcDbLine
 10
-27.5
 20
6.0
 30
0.0
 11
0.0
 21
6.0
 31
0.0
  0
LINE
  5
5765
330
5761
100
AcDbEntity
  8
AM_0 外形線1
100
AcDbLine
 10
-28.5
 20
1.0
 30
0.0
 11
-20.0
 21
1.0
 31
0.0
  0
LINE
  5
5766
330
5761
100
AcDbEntity
  8
AM_0 外形線1
100
AcDbLine
 10
-28.5
 20
4.0
 30
0.0
 11
-28.5
 21
1.0
 31
0.0
  0
LINE
  5
5767
330
5761
100
AcDbEntity
  8
AM_0 外形線1
100
AcDbLine
 10
-27.5
 20
6.0
 30
0.0
 11
-27.5
 21
7.0
 31
0.0
  0
LINE
  5
5768
330
5761
100
AcDbEntity
  8
AM_0 外形線1
100
AcDbLine
 10
-9.999999999999943
 20
1.0
 30
0.0
 11
0.0
 21
1.0
 31
0.0
  0
LINE
  5
5769
330
5761
100
AcDbEntity
  8
AM_0 外形線1
100
AcDbLine
 10
-9.999999999999943
 20
0.0
 30
0.0
 11
-9.999999999999943
 21
1.0
 31
0.0
  0
ARC
  5
576A
330
5761
100
AcDbEntity
  8
AM_0 外形線1
100
AcDbCircle
 10
-19.0
 20
1.000000000000026
 30
0.0
 40
1.0
100
AcDbArc
 50
180.0
 51
270.0
  0
LINE
  5
576B
330
5761
100
AcDbEntity
  8
AM_0 外形線1
100
AcDbLine
 10
-28.5
 20
4.0
 30
0.0
 11
-32.5
 21
4.0
 31
0.0
  0
LINE
  5
5783
330
5761
100
AcDbEntity
  8
AM_0 外形線1
100
AcDbLine
 10
-32.5
 20
4.0
 30
0.0
 11
-32.5
 21
7.0
 31
0.0
  0
LINE
  5
5784
330
5761
100
AcDbEntity
  8
AM_0 外形線1
100
AcDbLine
 10
-32.5
 20
7.0
 30
0.0
 11
-27.5
 21
7.0
 31
0.0
  0
LINE
  5
5785
330
5761
100
AcDbEntity
  8
AM_0 外形線1
100
AcDbLine
 10
-9.999999999999943
 20
0.0
 30
0.0
 11
-19.0
 21
0.0000000000000284
 31
0.0
  0
ENDBLK
  5
5763
330
5761
100
AcDbEntity
  8
0
100
AcDbBlockEnd
  0
BLOCK
  5
5868
330
5867
100
AcDbEntity
  8
0
100
AcDbBlockBegin
  2
リーマボルト SMVH100 M6
 70
     0
 10
0.0
 20
0.0
 30
0.0
  3
リーマボルト SMVH100 M6
  1

  0
ARC
  5
586A
330
5867
100
AcDbEntity
  8
AM_0 外形線1
100
AcDbCircle
 10
4.318375999999998
 20
-1.416878999999994
 30
0.0
 40
2.583120999999998
100
AcDbArc
 50
236.3428030000036
 51
303.6571969999964
  0
LINE
  5
586B
330
5867
100
AcDbEntity
  8
AM_0 外形線1
100
AcDbLine
 10
-5.0
 20
-4.0
 30
0.0
 11
5.0
 21
-4.0
 31
0.0
  0
ARC
  5
586C
330
5867
100
AcDbEntity
  8
AM_0 外形線1
100
AcDbCircle
 10
0.0
 20
5.839011000000027
 30
0.0
 40
9.839010999999999
100
AcDbArc
 50
252.9384689999998
 51
287.0615310000003
  0
ARC
  5
586D
330
5867
100
AcDbEntity
  8
AM_0 外形線1
100
AcDbCircle
 10
-4.318375999999998
 20
-1.416878999999994
 30
0.0
 40
2.583120999999998
100
AcDbArc
 50
236.3428030000036
 51
303.6571969999964
  0
LINE
  5
586E
330
5867
100
AcDbEntity
  8
AM_0 外形線1
100
AcDbLine
 10
-2.886751000000001
 20
0.0
 30
0.0
 11
-2.886751000000001
 21
-3.566987000000011
 31
0.0
  0
LINE
  5
586F
330
5867
100
AcDbEntity
  8
AM_0 外形線1
100
AcDbLine
 10
-5.75
 20
-3.566987000000011
 30
0.0
 11
-5.0
 21
-4.0
 31
0.0
  0
LINE
  5
5870
330
5867
100
AcDbEntity
  8
AM_0 外形線1
100
AcDbLine
 10
-5.75
 20
0.0
 30
0.0
 11
-5.75
 21
-3.566987000000011
 31
0.0
  0
LINE
  5
5871
330
5867
100
AcDbEntity
  8
AM_0 外形線1
100
AcDbLine
 10
2.886751000000001
 20
0.0
 30
0.0
 11
2.886751000000001
 21
-3.566987000000011
 31
0.0
  0
LINE
  5
5872
330
5867
100
AcDbEntity
  8
AM_0 外形線1
100
AcDbLine
 10
5.75
 20
-3.566987000000011
 30
0.0
 11
5.75
 21
0.0
 31
0.0
  0
LINE
  5
5873
330
5867
100
AcDbEntity
  8
AM_0 外形線1
100
AcDbLine
 10
5.0
 20
-4.0
 30
0.0
 11
5.75
 21
-3.566987000000011
 31
0.0
  0
ARC
  5
5874
330
5867
100
AcDbEntity
  8
AM_0 外形線1
100
AcDbCircle
 10
4.318375999999998
 20
33.91687899999999
 30
0.0
 40
2.583120999999998
100
AcDbArc
 50
56.34280300000366
 51
123.6571969999963
  0
LINE
  5
5875
330
5867
100
AcDbEntity
  8
AM_0 外形線1
100
AcDbLine
 10
6.100000000000022
 20
31.5
 30
0.0
 11
-6.100000000000022
 21
31.5
 31
0.0
  0
LINE
  5
5876
330
5867
100
AcDbEntity
  8
AM_0 外形線1
100
AcDbLine
 10
-5.0
 20
36.5
 30
0.0
 11
5.0
 21
36.5
 31
0.0
  0
LINE
  5
5877
330
5867
100
AcDbEntity
  8
AM_0 外形線1
100
AcDbLine
 10
2.886751000000001
 20
31.5
 30
0.0
 11
2.886751000000001
 21
36.06698700000001
 31
0.0
  0
LINE
  5
5878
330
5867
100
AcDbEntity
  8
AM_0 外形線1
100
AcDbLine
 10
-2.886751000000001
 20
31.5
 30
0.0
 11
-2.886751000000001
 21
36.06698700000001
 31
0.0
  0
LINE
  5
5879
330
5867
100
AcDbEntity
  8
AM_0 外形線1
100
AcDbLine
 10
-5.75
 20
31.5
 30
0.0
 11
-5.75
 21
36.06698700000001
 31
0.0
  0
LINE
  5
587A
330
5867
100
AcDbEntity
  8
AM_0 外形線1
100
AcDbLine
 10
-6.100000000000022
 20
31.5
 30
0.0
 11
-6.100000000000022
 21
30.0
 31
0.0
  0
LINE
  5
587B
330
5867
100
AcDbEntity
  8
AM_0 外形線1
100
AcDbLine
 10
-0.5
 20
31.5
 30
0.0
 11
1.0
 21
30.0
 31
0.0
  0
LINE
  5
587C
330
5867
100
AcDbEntity
  8
AM_0 外形線1
100
AcDbLine
 10
-1.0
 20
31.5
 30
0.0
 11
0.5
 21
30.0
 31
0.0
  0
LINE
  5
587D
330
5867
100
AcDbEntity
  8
AM_0 外形線1
100
AcDbLine
 10
-3.0
 20
38.0
 30
0.0
 11
3.0
 21
38.0
 31
0.0
  0
LINE
  5
587E
330
5867
100
AcDbEntity
  8
AM_0 外形線1
100
AcDbLine
 10
-2.0
 20
39.0
 30
0.0
 11
2.0
 21
39.0
 31
0.0
  0
ARC
  5
587F
330
5867
100
AcDbEntity
  8
AM_0 外形線1
100
AcDbCircle
 10
0.0
 20
26.660989
 30
0.0
 40
9.839010999999999
100
AcDbArc
 50
72.93846899999976
 51
107.0615310000002
  0
LINE
  5
5880
330
5867
100
AcDbEntity
  8
AM_4 細線
100
AcDbLine
 10
-2.5
 20
36.5
 30
0.0
 11
-2.5
 21
38.5
 31
0.0
  0
LINE
  5
5881
330
5867
100
AcDbEntity
  8
AM_0 外形線1
100
AcDbLine
 10
-3.0
 20
38.0
 30
0.0
 11
-2.0
 21
39.0
 31
0.0
  0
LINE
  5
5882
330
5867
100
AcDbEntity
  8
AM_0 外形線1
100
AcDbLine
 10
-3.0
 20
36.5
 30
0.0
 11
-3.0
 21
38.0
 31
0.0
  0
ARC
  5
5883
330
5867
100
AcDbEntity
  8
AM_0 外形線1
100
AcDbCircle
 10
-4.318375999999998
 20
33.91687899999999
 30
0.0
 40
2.583120999999998
100
AcDbArc
 50
56.34280300000366
 51
123.6571969999963
  0
LINE
  5
5884
330
5867
100
AcDbEntity
  8
AM_0 外形線1
100
AcDbLine
 10
-5.75
 20
36.06698700000001
 30
0.0
 11
-5.0
 21
36.5
 31
0.0
  0
LINE
  5
5885
330
5867
100
AcDbEntity
  8
AM_4 細線
100
AcDbLine
 10
2.5
 20
36.5
 30
0.0
 11
2.5
 21
38.5
 31
0.0
  0
LINE
  5
5886
330
5867
100
AcDbEntity
  8
AM_0 外形線1
100
AcDbLine
 10
3.0
 20
38.0
 30
0.0
 11
3.0
 21
36.5
 31
0.0
  0
LINE
  5
5887
330
5867
100
AcDbEntity
  8
AM_0 外形線1
100
AcDbLine
 10
2.0
 20
39.0
 30
0.0
 11
3.0
 21
38.0
 31
0.0
  0
LINE
  5
5888
330
5867
100
AcDbEntity
  8
AM_0 外形線1
100
AcDbLine
 10
5.75
 20
36.06698700000001
 30
0.0
 11
5.75
 21
31.5
 31
0.0
  0
LINE
  5
5889
330
5867
100
AcDbEntity
  8
AM_0 外形線1
100
AcDbLine
 10
5.0
 20
36.5
 30
0.0
 11
5.75
 21
36.06698700000001
 31
0.0
  0
LINE
  5
58D2
330
5867
100
AcDbEntity
  8
AM_0 外形線1
100
AcDbLine
 10
-5.75
 20
0.0
 30
0.0
 11
5.75
 21
0.0
 31
0.0
  0
LINE
  5
58D3
330
5867
100
AcDbEntity
  8
AM_0 外形線1
100
AcDbLine
 10
-6.100000000000022
 20
30.0
 30
0.0
 11
6.100000000000022
 21
30.0
 31
0.0
  0
LINE
  5
58D4
330
5867
100
AcDbEntity
  8
AM_0 外形線1
100
AcDbLine
 10
6.100000000000022
 20
31.5
 30
0.0
 11
6.100000000000022
 21
30.0
 31
0.0
  0
ENDBLK
  5
5869
330
5867
100
AcDbEntity
  8
0
100
AcDbBlockEnd
  0
BLOCK
  5
5D49
330
5D48
100
AcDbEntity
  8
0
100
AcDbBlockBegin
  2
*D10
 70
     1
 10
0.0
 20
0.0
 30
0.0
  3
*D10
  1

  0
LINE
  5
5D98
330
5D48
100
AcDbEntity
  8
AM_5 寸法線
 62
     3
100
AcDbLine
 10
240.2716824
 20
240.4633329333333
 30
0.0
 11
240.2716824
 21
263.4633329333333
 31
0.0
  0
LINE
  5
5D99
330
5D48
100
AcDbEntity
  8
AM_5 寸法線
 62
     3
100
AcDbLine
 10
194.2716824
 20
240.4633329333333
 30
0.0
 11
194.2716824
 21
263.4633329333333
 31
0.0
  0
LINE
  5
5D9A
330
5D48
100
AcDbEntity
  8
AM_5 寸法線
 62
     3
100
AcDbLine
 10
237.7716824
 20
262.8383329333333
 30
0.0
 11
196.7716824
 21
262.8383329333333
 31
0.0
  0
INSERT
  5
5D9B
330
5D48
100
AcDbEntity
  8
AM_5 寸法線
 62
     3
100
AcDbBlockReference
  2
_Open30
 10
240.2716824
 20
262.8383329333333
 30
0.0
 41
2.5
 42
2.5
 43
2.5
  0
INSERT
  5
5D9C
330
5D48
100
AcDbEntity
  8
AM_5 寸法線
 62
     3
100
AcDbBlockReference
  2
_Open30
 10
194.2716824
 20
262.8383329333333
 30
0.0
 41
2.5
 42
2.5
 43
2.5
 50
180.0
  0
MTEXT
  5
5D9D
330
5D48
100
AcDbEntity
  8
AM_5 寸法線
 62
     3
100
AcDbMText
 10
217.2716824
 20
266.0883329333334
 30
0.0
 40
3.5
 41
0.0
 46
0.0
 71
     5
 72
     1
  1
%%c46
  7
SEISA
 73
     1
 44
1.0
  0
POINT
  5
5D9E
330
5D48
100
AcDbEntity
  8
Defpoints
 62
     0
100
AcDbPoint
 10
240.2716824
 20
239.8383329333333
 30
0.0
  0
POINT
  5
5D9F
330
5D48
100
AcDbEntity
  8
Defpoints
 62
     0
100
AcDbPoint
 10
194.2716824
 20
239.8383329333333
 30
0.0
  0
POINT
  5
5DA0
330
5D48
100
AcDbEntity
  8
Defpoints
 62
     0
100
AcDbPoint
 10
194.2716824
 20
262.8383329333333
 30
0.0
  0
ENDBLK
  5
5D4A
330
5D48
100
AcDbEntity
  8
0
100
AcDbBlockEnd
  0
BLOCK
  5
5D61
330
5D60
100
AcDbEntity
  8
0
100
AcDbBlockBegin
  2
*D11
 70
     1
 10
0.0
 20
0.0
 30
0.0
  3
*D11
  1

  0
LINE
  5
5DAA
330
5D60
100
AcDbEntity
  8
AM_5 寸法線
 62
     3
100
AcDbLine
 10
250.7716824
 20
225.4633329333334
 30
0.0
 11
250.7716824
 21
273.4633329333334
 31
0.0
  0
LINE
  5
5DAB
330
5D60
100
AcDbEntity
  8
AM_5 寸法線
 62
     3
100
AcDbLine
 10
183.7716823999999
 20
225.4633329333334
 30
0.0
 11
183.7716823999999
 21
273.4633329333334
 31
0.0
  0
LINE
  5
5DAC
330
5D60
100
AcDbEntity
  8
AM_5 寸法線
 62
     3
100
AcDbLine
 10
248.2716824
 20
272.8383329333333
 30
0.0
 11
186.2716823999999
 21
272.8383329333333
 31
0.0
  0
INSERT
  5
5DAD
330
5D60
100
AcDbEntity
  8
AM_5 寸法線
 62
     3
100
AcDbBlockReference
  2
_Open30
 10
250.7716824
 20
272.8383329333333
 30
0.0
 41
2.5
 42
2.5
 43
2.5
  0
INSERT
  5
5DAE
330
5D60
100
AcDbEntity
  8
AM_5 寸法線
 62
     3
100
AcDbBlockReference
  2
_Open30
 10
183.7716823999999
 20
272.8383329333333
 30
0.0
 41
2.5
 42
2.5
 43
2.5
 50
180.0
  0
MTEXT
  5
5DAF
330
5D60
100
AcDbEntity
  8
AM_5 寸法線
 62
     3
100
AcDbMText
 10
217.2716824
 20
276.0883329333333
 30
0.0
 40
3.5
 41
0.0
 46
0.0
 71
     5
 72
     1
  1
%%c67
  7
SEISA
 73
     1
 44
1.0
  0
POINT
  5
5DB0
330
5D60
100
AcDbEntity
  8
Defpoints
 62
     0
100
AcDbPoint
 10
250.7716824
 20
224.8383329333333
 30
0.0
  0
POINT
  5
5DB1
330
5D60
100
AcDbEntity
  8
Defpoints
 62
     0
100
AcDbPoint
 10
183.7716823999999
 20
224.8383329333333
 30
0.0
  0
POINT
  5
5DB2
330
5D60
100
AcDbEntity
  8
Defpoints
 62
     0
100
AcDbPoint
 10
183.7716823999999
 20
272.8383329333333
 30
0.0
  0
ENDBLK
  5
5D62
330
5D60
100
AcDbEntity
  8
0
100
AcDbBlockEnd
  0
BLOCK
  5
5D79
330
5D78
100
AcDbEntity
  8
0
100
AcDbBlockBegin
  2
*D12
 70
     1
 10
0.0
 20
0.0
 30
0.0
  3
*D12
  1

  0
LINE
  5
5DBC
330
5D78
100
AcDbEntity
  8
AM_5 寸法線
 62
     3
100
AcDbLine
 10
267.2716824
 20
209.2633329333334
 30
0.0
 11
267.2716824
 21
283.4633329333333
 31
0.0
  0
LINE
  5
5DBD
330
5D78
100
AcDbEntity
  8
AM_5 寸法線
 62
     3
100
AcDbLine
 10
167.2716823999999
 20
209.2633329333334
 30
0.0
 11
167.2716823999999
 21
283.4633329333333
 31
0.0
  0
LINE
  5
5DBE
330
5D78
100
AcDbEntity
  8
AM_5 寸法線
 62
     3
100
AcDbLine
 10
264.7716824
 20
282.8383329333334
 30
0.0
 11
169.7716823999999
 21
282.8383329333334
 31
0.0
  0
INSERT
  5
5DBF
330
5D78
100
AcDbEntity
  8
AM_5 寸法線
 62
     3
100
AcDbBlockReference
  2
_Open30
 10
267.2716824
 20
282.8383329333334
 30
0.0
 41
2.5
 42
2.5
 43
2.5
  0
INSERT
  5
5DC0
330
5D78
100
AcDbEntity
  8
AM_5 寸法線
 62
     3
100
AcDbBlockReference
  2
_Open30
 10
167.2716823999999
 20
282.8383329333334
 30
0.0
 41
2.5
 42
2.5
 43
2.5
 50
180.0
  0
MTEXT
  5
5DC1
330
5D78
100
AcDbEntity
  8
AM_5 寸法線
 62
     3
100
AcDbMText
 10
217.2716824
 20
286.0883329333333
 30
0.0
 40
3.5
 41
0.0
 46
0.0
 71
     5
 72
     1
  1
%%c100
  7
SEISA
 73
     1
 44
1.0
  0
POINT
  5
5DC2
330
5D78
100
AcDbEntity
  8
Defpoints
 62
     0
100
AcDbPoint
 10
267.2716824
 20
208.6383329333334
 30
0.0
  0
POINT
  5
5DC3
330
5D78
100
AcDbEntity
  8
Defpoints
 62
     0
100
AcDbPoint
 10
167.2716823999999
 20
208.6383329333334
 30
0.0
  0
POINT
  5
5DC4
330
5D78
100
AcDbEntity
  8
Defpoints
 62
     0
100
AcDbPoint
 10
167.2716823999999
 20
282.8383329333334
 30
0.0
  0
ENDBLK
  5
5D7A
330
5D78
100
AcDbEntity
  8
0
100
AcDbBlockEnd
  0
BLOCK
  5
5DE1
330
5DE0
100
AcDbEntity
  8
0
100
AcDbBlockBegin
  2
*D13
 70
     1
 10
0.0
 20
0.0
 30
0.0
  3
*D13
  1

  0
LINE
  5
5E00
330
5DE0
100
AcDbEntity
  8
AM_5 寸法線
 62
     3
100
AcDbLine
 10
240.2716824
 20
147.2133329333333
 30
0.0
 11
240.2716824
 21
124.2133329333333
 31
0.0
  0
LINE
  5
5E01
330
5DE0
100
AcDbEntity
  8
AM_5 寸法線
 62
     3
100
AcDbLine
 10
194.2716824
 20
147.2133329333333
 30
0.0
 11
194.2716824
 21
124.2133329333333
 31
0.0
  0
LINE
  5
5E02
330
5DE0
100
AcDbEntity
  8
AM_5 寸法線
 62
     3
100
AcDbLine
 10
237.7716824
 20
124.8383329333333
 30
0.0
 11
196.7716824
 21
124.8383329333333
 31
0.0
  0
INSERT
  5
5E03
330
5DE0
100
AcDbEntity
  8
AM_5 寸法線
 62
     3
100
AcDbBlockReference
  2
_Open30
 10
240.2716824
 20
124.8383329333333
 30
0.0
 41
2.5
 42
2.5
 43
2.5
  0
INSERT
  5
5E04
330
5DE0
100
AcDbEntity
  8
AM_5 寸法線
 62
     3
100
AcDbBlockReference
  2
_Open30
 10
194.2716824
 20
124.8383329333333
 30
0.0
 41
2.5
 42
2.5
 43
2.5
 50
180.0
  0
MTEXT
  5
5E05
330
5DE0
100
AcDbEntity
  8
AM_5 寸法線
 62
     3
100
AcDbMText
 10
217.2716824
 20
128.0883329333333
 30
0.0
 40
3.5
 41
0.0
 46
0.0
 71
     5
 72
     1
  1
%%c46
  7
SEISA
 73
     1
 44
1.0
  0
POINT
  5
5E06
330
5DE0
100
AcDbEntity
  8
Defpoints
 62
     0
100
AcDbPoint
 10
240.2716824
 20
147.8383329333333
 30
0.0
  0
POINT
  5
5E07
330
5DE0
100
AcDbEntity
  8
Defpoints
 62
     0
100
AcDbPoint
 10
194.2716824
 20
147.8383329333333
 30
0.0
  0
POINT
  5
5E08
330
5DE0
100
AcDbEntity
  8
Defpoints
 62
     0
100
AcDbPoint
 10
194.2716824
 20
124.8383329333333
 30
0.0
  0
ENDBLK
  5
5DE2
330
5DE0
100
AcDbEntity
  8
0
100
AcDbBlockEnd
  0
BLOCK
  5
5E20
330
5E1F
100
AcDbEntity
  8
0
100
AcDbBlockBegin
  2
*D14
 70
     1
 10
0.0
 20
0.0
 30
0.0
  3
*D14
  1

  0
LINE
  5
6C69
330
5E1F
100
AcDbEntity
  8
AM_5 寸法線
 62
     3
100
AcDbLine
 10
267.6966824
 20
208.8383329333333
 30
0.0
 11
287.8966824
 21
208.8383329333333
 31
0.0
  0
LINE
  5
6C6A
330
5E1F
100
AcDbEntity
  8
AM_5 寸法線
 62
     3
100
AcDbLine
 10
267.6966824
 20
193.8383329333333
 30
0.0
 11
287.8966824
 21
193.8383329333333
 31
0.0
  0
LINE
  5
6C6B
330
5E1F
100
AcDbEntity
  8
AM_5 寸法線
 62
     3
100
AcDbLine
 10
287.2716824
 20
206.3383329333333
 30
0.0
 11
287.2716824
 21
196.3383329333333
 31
0.0
  0
INSERT
  5
6C6C
330
5E1F
100
AcDbEntity
  8
AM_5 寸法線
 62
     3
100
AcDbBlockReference
  2
_Open30
 10
287.2716824
 20
208.8383329333333
 30
0.0
 41
2.5
 42
2.5
 43
2.5
 50
90.0
  0
INSERT
  5
6C6D
330
5E1F
100
AcDbEntity
  8
AM_5 寸法線
 62
     3
100
AcDbBlockReference
  2
GENDOT
 10
287.2716824
 20
193.8383329333333
 30
0.0
 41
2.5
 42
2.5
 43
2.5
 50
270.0
  0
MTEXT
  5
6C6E
330
5E1F
100
AcDbEntity
  8
AM_5 寸法線
 62
     3
100
AcDbMText
 10
284.0216823999999
 20
201.3383329333334
 30
0.0
 40
3.5
 41
0.0
 46
0.0
 71
     5
 72
     1
  1
15
  7
SEISA
 11
0.0000000000000001
 21
1.0
 31
0.0
 73
     1
 44
1.0
  0
POINT
  5
6C6F
330
5E1F
100
AcDbEntity
  8
Defpoints
 62
     0
100
AcDbPoint
 10
267.0716824
 20
208.8383329333333
 30
0.0
  0
POINT
  5
6C70
330
5E1F
100
AcDbEntity
  8
Defpoints
 62
     0
100
AcDbPoint
 10
267.0716824
 20
193.8383329333333
 30
0.0
  0
POINT
  5
6C71
330
5E1F
100
AcDbEntity
  8
Defpoints
 62
     0
100
AcDbPoint
 10
287.2716824
 20
193.8383329333333
 30
0.0
  0
ENDBLK
  5
5E21
330
5E1F
100
AcDbEntity
  8
0
100
AcDbBlockEnd
  0
BLOCK
  5
5E38
330
5E37
100
AcDbEntity
  8
0
100
AcDbBlockBegin
  2
*D15
 70
     1
 10
0.0
 20
0.0
 30
0.0
  3
*D15
  1

  0
LINE
  5
6C7B
330
5E37
100
AcDbEntity
  8
AM_5 寸法線
 62
     3
100
AcDbLine
 10
267.6966824
 20
193.8383329333333
 30
0.0
 11
287.8966824
 21
193.8383329333333
 31
0.0
  0
LINE
  5
6C7C
330
5E37
100
AcDbEntity
  8
AM_5 寸法線
 62
     3
100
AcDbLine
 10
267.6966824
 20
178.8383329333333
 30
0.0
 11
287.8966824
 21
178.8383329333333
 31
0.0
  0
LINE
  5
6C7D
330
5E37
100
AcDbEntity
  8
AM_5 寸法線
 62
     3
100
AcDbLine
 10
287.2716824
 20
191.3383329333333
 30
0.0
 11
287.2716824
 21
181.3383329333333
 31
0.0
  0
INSERT
  5
6C7E
330
5E37
100
AcDbEntity
  8
AM_5 寸法線
 62
     3
100
AcDbBlockReference
  2
GENDOT
 10
287.2716824
 20
193.8383329333333
 30
0.0
 41
2.5
 42
2.5
 43
2.5
 50
90.0
  0
INSERT
  5
6C7F
330
5E37
100
AcDbEntity
  8
AM_5 寸法線
 62
     3
100
AcDbBlockReference
  2
_Open30
 10
287.2716824
 20
178.8383329333333
 30
0.0
 41
2.5
 42
2.5
 43
2.5
 50
270.0
  0
MTEXT
  5
6C80
330
5E37
100
AcDbEntity
  8
AM_5 寸法線
 62
     3
100
AcDbMText
 10
284.0216823999999
 20
186.3383329333333
 30
0.0
 40
3.5
 41
0.0
 46
0.0
 71
     5
 72
     1
  1
15
  7
SEISA
 11
0.0000000000000001
 21
1.0
 31
0.0
 73
     1
 44
1.0
  0
POINT
  5
6C81
330
5E37
100
AcDbEntity
  8
Defpoints
 62
     0
100
AcDbPoint
 10
267.0716824
 20
193.8383329333333
 30
0.0
  0
POINT
  5
6C82
330
5E37
100
AcDbEntity
  8
Defpoints
 62
     0
100
AcDbPoint
 10
267.0716824
 20
178.8383329333333
 30
0.0
  0
POINT
  5
6C83
330
5E37
100
AcDbEntity
  8
Defpoints
 62
     0
100
AcDbPoint
 10
287.2716824
 20
178.8383329333333
 30
0.0
  0
ENDBLK
  5
5E39
330
5E37
100
AcDbEntity
  8
0
100
AcDbBlockEnd
  0
BLOCK
  5
5EB2
330
5EB1
100
AcDbEntity
  8
0
100
AcDbBlockBegin
  2
*D16
 70
     1
 10
0.0
 20
0.0
 30
0.0
  3
*D16
  1

  0
LINE
  5
6F4F
330
5EB1
100
AcDbEntity
  8
AM_5 寸法線
 62
     3
100
AcDbLine
 10
248.3966824
 20
227.8383329333333
 30
0.0
 11
297.8966824
 21
227.8383329333333
 31
0.0
  0
LINE
  5
6F50
330
5EB1
100
AcDbEntity
  8
AM_5 寸法線
 62
     3
100
AcDbLine
 10
248.3966824
 20
159.8383329333333
 30
0.0
 11
297.8966824
 21
159.8383329333333
 31
0.0
  0
LINE
  5
6F51
330
5EB1
100
AcDbEntity
  8
AM_5 寸法線
 62
     3
100
AcDbLine
 10
297.2716824
 20
225.3383329333333
 30
0.0
 11
297.2716824
 21
162.3383329333333
 31
0.0
  0
INSERT
  5
6F52
330
5EB1
100
AcDbEntity
  8
AM_5 寸法線
 62
     3
100
AcDbBlockReference
  2
_Open30
 10
297.2716824
 20
227.8383329333333
 30
0.0
 41
2.5
 42
2.5
 43
2.5
 50
90.0
  0
INSERT
  5
6F53
330
5EB1
100
AcDbEntity
  8
AM_5 寸法線
 62
     3
100
AcDbBlockReference
  2
_Open30
 10
297.2716824
 20
159.8383329333333
 30
0.0
 41
2.5
 42
2.5
 43
2.5
 50
270.0
  0
MTEXT
  5
6F54
330
5EB1
100
AcDbEntity
  8
AM_5 寸法線
 62
     3
100
AcDbMText
 10
294.0216823999999
 20
193.8383329333333
 30
0.0
 40
3.5
 41
0.0
 46
0.0
 71
     5
 72
     1
  1
68
  7
SEISA
 11
0.0000000000000001
 21
1.0
 31
0.0
 73
     1
 44
1.0
  0
POINT
  5
6F55
330
5EB1
100
AcDbEntity
  8
Defpoints
 62
     0
100
AcDbPoint
 10
247.7716824
 20
227.8383329333333
 30
0.0
  0
POINT
  5
6F56
330
5EB1
100
AcDbEntity
  8
Defpoints
 62
     0
100
AcDbPoint
 10
247.7716824
 20
159.8383329333333
 30
0.0
  0
POINT
  5
6F57
330
5EB1
100
AcDbEntity
  8
Defpoints
 62
     0
100
AcDbPoint
 10
297.2716824
 20
159.8383329333333
 30
0.0
  0
ENDBLK
  5
5EB3
330
5EB1
100
AcDbEntity
  8
0
100
AcDbBlockEnd
  0
BLOCK
  5
5EFA
330
5EF9
100
AcDbEntity
  8
0
100
AcDbBlockBegin
  2
*D17
 70
     1
 10
0.0
 20
0.0
 30
0.0
  3
*D17
  1

  0
LINE
  5
5F06
330
5EF9
100
AcDbEntity
  8
AM_5 寸法線
 62
     3
100
AcDbLine
 10
237.8966824
 20
242.8383329333333
 30
0.0
 11
307.8966824
 21
242.8383329333333
 31
0.0
  0
LINE
  5
5F07
330
5EF9
100
AcDbEntity
  8
AM_5 寸法線
 62
     3
100
AcDbLine
 10
237.8966824
 20
144.8383329333333
 30
0.0
 11
307.8966824
 21
144.8383329333333
 31
0.0
  0
LINE
  5
5F08
330
5EF9
100
AcDbEntity
  8
AM_5 寸法線
 62
     3
100
AcDbLine
 10
307.2716824
 20
240.3383329333333
 30
0.0
 11
307.2716824
 21
147.3383329333333
 31
0.0
  0
INSERT
  5
5F09
330
5EF9
100
AcDbEntity
  8
AM_5 寸法線
 62
     3
100
AcDbBlockReference
  2
_Open30
 10
307.2716824
 20
242.8383329333333
 30
0.0
 41
2.5
 42
2.5
 43
2.5
 50
90.0
  0
INSERT
  5
5F0A
330
5EF9
100
AcDbEntity
  8
AM_5 寸法線
 62
     3
100
AcDbBlockReference
  2
_Open30
 10
307.2716824
 20
144.8383329333333
 30
0.0
 41
2.5
 42
2.5
 43
2.5
 50
270.0
  0
MTEXT
  5
5F0B
330
5EF9
100
AcDbEntity
  8
AM_5 寸法線
 62
     3
100
AcDbMText
 10
304.0216823999998
 20
193.8383329333333
 30
0.0
 40
3.5
 41
0.0
 46
0.0
 71
     5
 72
     1
  1
98
  7
SEISA
 11
0.0000000000000001
 21
1.0
 31
0.0
 73
     1
 44
1.0
  0
POINT
  5
5F0C
330
5EF9
100
AcDbEntity
  8
Defpoints
 62
     0
100
AcDbPoint
 10
237.2716824
 20
242.8383329333333
 30
0.0
  0
POINT
  5
5F0D
330
5EF9
100
AcDbEntity
  8
Defpoints
 62
     0
100
AcDbPoint
 10
237.2716824
 20
144.8383329333333
 30
0.0
  0
POINT
  5
5F0E
330
5EF9
100
AcDbEntity
  8
Defpoints
 62
     0
100
AcDbPoint
 10
307.2716824
 20
144.8383329333333
 30
0.0
  0
ENDBLK
  5
5EFB
330
5EF9
100
AcDbEntity
  8
0
100
AcDbBlockEnd
  0
BLOCK
  5
5FA9
330
5FA6
100
AcDbEntity
  8
0
100
AcDbBlockBegin
  2
GENDOT
 70
     0
 10
0.0
 20
0.0
 30
0.0
  3
GENDOT
  1

  0
LINE
  5
5FA7
330
5FA6
100
AcDbEntity
  8
0
100
AcDbLine
 10
0.0
 20
0.0
 30
0.0
 11
-1.0
 21
0.0
 31
0.0
  0
LWPOLYLINE
  5
5FA8
330
5FA6
100
AcDbEntity
  8
0
100
AcDbPolyline
 90
        2
 70
     1
 43
0.25
 10
-0.125
 20
0.0
 42
1.0
 10
0.125
 20
0.0
 42
1.0
  0
ENDBLK
  5
5FAA
330
5FA6
100
AcDbEntity
  8
0
100
AcDbBlockEnd
  0
BLOCK
  5
613E
330
613D
100
AcDbEntity
  8
0
100
AcDbBlockBegin
  2
*D19
 70
     1
 10
0.0
 20
0.0
 30
0.0
  3
*D19
  1

  0
LINE
  5
6E51
330
613D
100
AcDbEntity
  8
AM_5 寸法線
 62
     3
100
AcDbLine
 10
194.3966824
 20
170.8383329333333
 30
0.0
 11
201.8393152416467
 21
170.8383329333333
 31
0.0
  0
LINE
  5
6E52
330
613D
100
AcDbEntity
  8
AM_5 寸法線
 62
     3
100
AcDbLine
 10
194.8966824
 20
168.8383329333333
 30
0.0
 11
201.8393152416467
 21
168.8383329333333
 31
0.0
  0
LINE
  5
6E53
330
613D
100
AcDbEntity
  8
AM_5 寸法線
 62
     3
100
AcDbLine
 10
201.2143152416468
 20
173.3383329333333
 30
0.0
 11
201.2143152416468
 21
175.8383329333333
 31
0.0
  0
LINE
  5
6E54
330
613D
100
AcDbEntity
  8
AM_5 寸法線
 62
     3
100
AcDbLine
 10
201.2143152416468
 20
166.3383329333333
 30
0.0
 11
201.2143152416468
 21
158.7383329333333
 31
0.0
  0
LINE
  5
6E55
330
613D
100
AcDbEntity
  8
AM_5 寸法線
 62
     3
100
AcDbLine
 10
201.2143152416468
 20
170.8383329333333
 30
0.0
 11
201.2143152416468
 21
168.8383329333333
 31
0.0
  0
INSERT
  5
6E56
330
613D
100
AcDbEntity
  8
AM_5 寸法線
 62
     3
100
AcDbBlockReference
  2
_Open30
 10
201.2143152416468
 20
170.8383329333333
 30
0.0
 41
2.5
 42
2.5
 43
2.5
 50
270.0
  0
INSERT
  5
6E57
330
613D
100
AcDbEntity
  8
AM_5 寸法線
 62
     3
100
AcDbBlockReference
  2
_Open30
 10
201.2143152416468
 20
168.8383329333333
 30
0.0
 41
2.5
 42
2.5
 43
2.5
 50
90.0
  0
MTEXT
  5
6E58
330
613D
100
AcDbEntity
  8
AM_5 寸法線
 62
     3
100
AcDbMText
 10
197.9643152416467
 20
161.2883329333334
 30
0.0
 40
3.5
 41
0.0
 46
0.0
 71
     5
 72
     1
  1
2
  7
SEISA
 11
0.0000000000000001
 21
1.0
 31
0.0
 73
     1
 44
1.0
  0
POINT
  5
6E59
330
613D
100
AcDbEntity
  8
Defpoints
 62
     0
100
AcDbPoint
 10
193.7716823999999
 20
170.8383329333333
 30
0.0
  0
POINT
  5
6E5A
330
613D
100
AcDbEntity
  8
Defpoints
 62
     0
100
AcDbPoint
 10
194.2716824
 20
168.8383329333333
 30
0.0
  0
POINT
  5
6E5B
330
613D
100
AcDbEntity
  8
Defpoints
 62
     0
100
AcDbPoint
 10
201.2143152416468
 20
168.8383329333333
 30
0.0
  0
ENDBLK
  5
613F
330
613D
100
AcDbEntity
  8
0
100
AcDbBlockEnd
  0
BLOCK
  5
61BB
330
61BA
100
AcDbEntity
  8
0
100
AcDbBlockBegin
  2
*D20
 70
     1
 10
0.0
 20
0.0
 30
0.0
  3
*D20
  1

  0
LINE
  5
61C7
330
61BA
100
AcDbEntity
  8
AM_5 寸法線
 62
     3
100
AcDbLine
 10
216.6466824
 20
242.8383329333333
 30
0.0
 11
210.5909444
 21
242.8383329333333
 31
0.0
  0
LINE
  5
61C8
330
61BA
100
AcDbEntity
  8
AM_5 寸法線
 62
     3
100
AcDbLine
 10
216.6466824
 20
197.8383329333333
 30
0.0
 11
210.5909444
 21
197.8383329333333
 31
0.0
  0
LINE
  5
61C9
330
61BA
100
AcDbEntity
  8
AM_5 寸法線
 62
     3
100
AcDbLine
 10
211.2159444
 20
240.3383329333333
 30
0.0
 11
211.2159444
 21
200.3383329333333
 31
0.0
  0
INSERT
  5
61CA
330
61BA
100
AcDbEntity
  8
AM_5 寸法線
 62
     3
100
AcDbBlockReference
  2
_Open30
 10
211.2159444
 20
242.8383329333333
 30
0.0
 41
2.5
 42
2.5
 43
2.5
 50
90.0
  0
INSERT
  5
61CB
330
61BA
100
AcDbEntity
  8
AM_5 寸法線
 62
     3
100
AcDbBlockReference
  2
_Open30
 10
211.2159444
 20
197.8383329333333
 30
0.0
 41
2.5
 42
2.5
 43
2.5
 50
270.0
  0
MTEXT
  5
61CC
330
61BA
100
AcDbEntity
  8
AM_5 寸法線
 62
     3
100
AcDbMText
 10
207.9659444
 20
220.3383329333334
 30
0.0
 40
3.5
 41
0.0
 46
0.0
 71
     5
 72
     1
  1
45
  7
SEISA
 11
0.0000000000000001
 21
1.0
 31
0.0
 73
     1
 44
1.0
  0
POINT
  5
61CD
330
61BA
100
AcDbEntity
  8
Defpoints
 62
     0
100
AcDbPoint
 10
217.2716824
 20
242.8383329333333
 30
0.0
  0
POINT
  5
61CE
330
61BA
100
AcDbEntity
  8
Defpoints
 62
     0
100
AcDbPoint
 10
217.2716824
 20
197.8383329333333
 30
0.0
  0
POINT
  5
61CF
330
61BA
100
AcDbEntity
  8
Defpoints
 62
     0
100
AcDbPoint
 10
211.2159444
 20
197.8383329333333
 30
0.0
  0
ENDBLK
  5
61BC
330
61BA
100
AcDbEntity
  8
0
100
AcDbBlockEnd
  0
BLOCK
  5
61D3
330
61D2
100
AcDbEntity
  8
0
100
AcDbBlockBegin
  2
*D21
 70
     1
 10
0.0
 20
0.0
 30
0.0
  3
*D21
  1

  0
LINE
  5
61E1
330
61D2
100
AcDbEntity
  8
AM_5 寸法線
 62
     3
100
AcDbLine
 10
216.6466824
 20
197.8383329333333
 30
0.0
 11
210.5909444
 21
197.8383329333333
 31
0.0
  0
LINE
  5
61E2
330
61D2
100
AcDbEntity
  8
AM_5 寸法線
 62
     3
100
AcDbLine
 10
216.6466824
 20
189.8383329333333
 30
0.0
 11
210.5909444
 21
189.8383329333333
 31
0.0
  0
LINE
  5
61E3
330
61D2
100
AcDbEntity
  8
AM_5 寸法線
 62
     3
100
AcDbLine
 10
211.2159444
 20
200.3383329333333
 30
0.0
 11
211.2159444
 21
202.8383329333333
 31
0.0
  0
LINE
  5
61E4
330
61D2
100
AcDbEntity
  8
AM_5 寸法線
 62
     3
100
AcDbLine
 10
211.2159444
 20
187.3383329333333
 30
0.0
 11
211.2159444
 21
184.8383329333333
 31
0.0
  0
LINE
  5
61E5
330
61D2
100
AcDbEntity
  8
AM_5 寸法線
 62
     3
100
AcDbLine
 10
211.2159444
 20
197.8383329333333
 30
0.0
 11
211.2159444
 21
189.8383329333333
 31
0.0
  0
INSERT
  5
61E6
330
61D2
100
AcDbEntity
  8
AM_5 寸法線
 62
     3
100
AcDbBlockReference
  2
_Open30
 10
211.2159444
 20
197.8383329333333
 30
0.0
 41
2.5
 42
2.5
 43
2.5
 50
270.0
  0
INSERT
  5
61E7
330
61D2
100
AcDbEntity
  8
AM_5 寸法線
 62
     3
100
AcDbBlockReference
  2
_Open30
 10
211.2159444
 20
189.8383329333333
 30
0.0
 41
2.5
 42
2.5
 43
2.5
 50
90.0
  0
MTEXT
  5
61E8
330
61D2
100
AcDbEntity
  8
AM_5 寸法線
 62
     3
100
AcDbMText
 10
207.9659444
 20
193.8383329333334
 30
0.0
 40
3.5
 41
0.0
 46
0.0
 71
     5
 72
     1
  1
8
  7
SEISA
 11
0.0000000000000001
 21
1.0
 31
0.0
 73
     1
 44
1.0
  0
POINT
  5
61E9
330
61D2
100
AcDbEntity
  8
Defpoints
 62
     0
100
AcDbPoint
 10
217.2716824
 20
197.8383329333333
 30
0.0
  0
POINT
  5
61EA
330
61D2
100
AcDbEntity
  8
Defpoints
 62
     0
100
AcDbPoint
 10
217.2716824
 20
189.8383329333333
 30
0.0
  0
POINT
  5
61EB
330
61D2
100
AcDbEntity
  8
Defpoints
 62
     0
100
AcDbPoint
 10
211.2159444
 20
189.8383329333333
 30
0.0
  0
ENDBLK
  5
61D4
330
61D2
100
AcDbEntity
  8
0
100
AcDbBlockEnd
  0
BLOCK
  5
61EF
330
61EE
100
AcDbEntity
  8
0
100
AcDbBlockBegin
  2
*D22
 70
     1
 10
0.0
 20
0.0
 30
0.0
  3
*D22
  1

  0
LINE
  5
61FB
330
61EE
100
AcDbEntity
  8
AM_5 寸法線
 62
     3
100
AcDbLine
 10
216.6466824
 20
189.8383329333333
 30
0.0
 11
210.5909444
 21
189.8383329333333
 31
0.0
  0
LINE
  5
61FC
330
61EE
100
AcDbEntity
  8
AM_5 寸法線
 62
     3
100
AcDbLine
 10
216.6466824
 20
144.8383329333333
 30
0.0
 11
210.5909444
 21
144.8383329333333
 31
0.0
  0
LINE
  5
61FD
330
61EE
100
AcDbEntity
  8
AM_5 寸法線
 62
     3
100
AcDbLine
 10
211.2159444
 20
187.3383329333333
 30
0.0
 11
211.2159444
 21
147.3383329333333
 31
0.0
  0
INSERT
  5
61FE
330
61EE
100
AcDbEntity
  8
AM_5 寸法線
 62
     3
100
AcDbBlockReference
  2
_Open30
 10
211.2159444
 20
189.8383329333333
 30
0.0
 41
2.5
 42
2.5
 43
2.5
 50
90.0
  0
INSERT
  5
61FF
330
61EE
100
AcDbEntity
  8
AM_5 寸法線
 62
     3
100
AcDbBlockReference
  2
_Open30
 10
211.2159444
 20
144.8383329333333
 30
0.0
 41
2.5
 42
2.5
 43
2.5
 50
270.0
  0
MTEXT
  5
6200
330
61EE
100
AcDbEntity
  8
AM_5 寸法線
 62
     3
100
AcDbMText
 10
207.9659444
 20
167.3383329333334
 30
0.0
 40
3.5
 41
0.0
 46
0.0
 71
     5
 72
     1
  1
45
  7
SEISA
 11
0.0000000000000001
 21
1.0
 31
0.0
 73
     1
 44
1.0
  0
POINT
  5
6201
330
61EE
100
AcDbEntity
  8
Defpoints
 62
     0
100
AcDbPoint
 10
217.2716824
 20
189.8383329333333
 30
0.0
  0
POINT
  5
6202
330
61EE
100
AcDbEntity
  8
Defpoints
 62
     0
100
AcDbPoint
 10
217.2716824
 20
144.8383329333333
 30
0.0
  0
POINT
  5
6203
330
61EE
100
AcDbEntity
  8
Defpoints
 62
     0
100
AcDbPoint
 10
211.2159444
 20
144.8383329333333
 30
0.0
  0
ENDBLK
  5
61F0
330
61EE
100
AcDbEntity
  8
0
100
AcDbBlockEnd
  0
BLOCK
  5
6DDB
330
6DDA
100
AcDbEntity
  8
0
100
AcDbBlockBegin
  2
*D23
 70
     1
 10
0.0
 20
0.0
 30
0.0
  3
*D23
  1

  0
LINE
  5
6E3F
330
6DDA
100
AcDbEntity
  8
AM_5 寸法線
 62
     3
100
AcDbLine
 10
195.8966823999999
 20
189.8383329333333
 30
0.0
 11
201.8393152416467
 21
189.8383329333333
 31
0.0
  0
LINE
  5
6E40
330
6DDA
100
AcDbEntity
  8
AM_5 寸法線
 62
     3
100
AcDbLine
 10
194.8966824
 20
179.8383329333333
 30
0.0
 11
201.8393152416467
 21
179.8383329333333
 31
0.0
  0
LINE
  5
6E41
330
6DDA
100
AcDbEntity
  8
AM_5 寸法線
 62
     3
100
AcDbLine
 10
201.2143152416468
 20
187.3383329333333
 30
0.0
 11
201.2143152416468
 21
182.3383329333333
 31
0.0
  0
INSERT
  5
6E42
330
6DDA
100
AcDbEntity
  8
AM_5 寸法線
 62
     3
100
AcDbBlockReference
  2
_Open30
 10
201.2143152416468
 20
189.8383329333333
 30
0.0
 41
2.5
 42
2.5
 43
2.5
 50
90.0
  0
INSERT
  5
6E43
330
6DDA
100
AcDbEntity
  8
AM_5 寸法線
 62
     3
100
AcDbBlockReference
  2
_Open30
 10
201.2143152416468
 20
179.8383329333333
 30
0.0
 41
2.5
 42
2.5
 43
2.5
 50
270.0
  0
MTEXT
  5
6E44
330
6DDA
100
AcDbEntity
  8
AM_5 寸法線
 62
     3
100
AcDbMText
 10
197.9643152416467
 20
184.8383329333334
 30
0.0
 40
3.5
 41
0.0
 46
0.0
 71
     5
 72
     1
  1
10
  7
SEISA
 11
0.0000000000000001
 21
1.0
 31
0.0
 73
     1
 44
1.0
  0
POINT
  5
6E45
330
6DDA
100
AcDbEntity
  8
Defpoints
 62
     0
100
AcDbPoint
 10
195.2716823999999
 20
189.8383329333333
 30
0.0
  0
POINT
  5
6E46
330
6DDA
100
AcDbEntity
  8
Defpoints
 62
     0
100
AcDbPoint
 10
194.2716824
 20
179.8383329333333
 30
0.0
  0
POINT
  5
6E47
330
6DDA
100
AcDbEntity
  8
Defpoints
 62
     0
100
AcDbPoint
 10
201.2143152416468
 20
179.8383329333333
 30
0.0
  0
ENDBLK
  5
6DDC
330
6DDA
100
AcDbEntity
  8
0
100
AcDbBlockEnd
  0
BLOCK
  5
6E05
330
6E04
100
AcDbEntity
  8
0
100
AcDbBlockBegin
  2
*D24
 70
     1
 10
0.0
 20
0.0
 30
0.0
  3
*D24
  1

  0
LINE
  5
6E5C
330
6E04
100
AcDbEntity
  8
AM_5 寸法線
 62
     3
100
AcDbLine
 10
194.8966824
 20
179.8383329333333
 30
0.0
 11
201.8393152416467
 21
179.8383329333333
 31
0.0
  0
LINE
  5
6E5D
330
6E04
100
AcDbEntity
  8
AM_5 寸法線
 62
     3
100
AcDbLine
 10
194.3966824
 20
170.8383329333333
 30
0.0
 11
201.8393152416467
 21
170.8383329333333
 31
0.0
  0
LINE
  5
6E5E
330
6E04
100
AcDbEntity
  8
AM_5 寸法線
 62
     3
100
AcDbLine
 10
201.2143152416468
 20
177.3383329333333
 30
0.0
 11
201.2143152416468
 21
173.3383329333333
 31
0.0
  0
INSERT
  5
6E5F
330
6E04
100
AcDbEntity
  8
AM_5 寸法線
 62
     3
100
AcDbBlockReference
  2
_Open30
 10
201.2143152416468
 20
179.8383329333333
 30
0.0
 41
2.5
 42
2.5
 43
2.5
 50
90.0
  0
INSERT
  5
6E60
330
6E04
100
AcDbEntity
  8
AM_5 寸法線
 62
     3
100
AcDbBlockReference
  2
_Open30
 10
201.2143152416468
 20
170.8383329333333
 30
0.0
 41
2.5
 42
2.5
 43
2.5
 50
270.0
  0
MTEXT
  5
6E61
330
6E04
100
AcDbEntity
  8
AM_5 寸法線
 62
     3
100
AcDbMText
 10
197.9643152416467
 20
175.3383329333334
 30
0.0
 40
3.5
 41
0.0
 46
0.0
 71
     5
 72
     1
  1
9
  7
SEISA
 11
0.0000000000000001
 21
1.0
 31
0.0
 73
     1
 44
1.0
  0
POINT
  5
6E62
330
6E04
100
AcDbEntity
  8
Defpoints
 62
     0
100
AcDbPoint
 10
194.2716824
 20
179.8383329333333
 30
0.0
  0
POINT
  5
6E63
330
6E04
100
AcDbEntity
  8
Defpoints
 62
     0
100
AcDbPoint
 10
193.7716823999999
 20
170.8383329333333
 30
0.0
  0
POINT
  5
6E64
330
6E04
100
AcDbEntity
  8
Defpoints
 62
     0
100
AcDbPoint
 10
201.2143152416468
 20
170.8383329333333
 30
0.0
  0
ENDBLK
  5
6E06
330
6E04
100
AcDbEntity
  8
0
100
AcDbBlockEnd
  0
BLOCK
  5
6ECE
330
6ECD
100
AcDbEntity
  8
0
100
AcDbBlockBegin
  2
*D25
 70
     1
 10
0.0
 20
0.0
 30
0.0
  3
*D25
  1

  0
LINE
  5
6EFA
330
6ECD
100
AcDbEntity
  8
AM_5 寸法線
 62
     3
100
AcDbLine
 10
186.1466824
 20
134.8383329333333
 30
0.0
 11
170.6604034581985
 21
134.8383329333333
 31
0.0
  0
LINE
  5
6EFB
330
6ECD
100
AcDbEntity
  8
AM_5 寸法線
 62
     3
100
AcDbLine
 10
196.6466824
 20
144.8383329333333
 30
0.0
 11
170.6604034581985
 21
144.8383329333333
 31
0.0
  0
LINE
  5
6EFC
330
6ECD
100
AcDbEntity
  8
AM_5 寸法線
 62
     3
100
AcDbLine
 10
171.2854034581985
 20
137.3383329333333
 30
0.0
 11
171.2854034581985
 21
142.3383329333333
 31
0.0
  0
INSERT
  5
6EFD
330
6ECD
100
AcDbEntity
  8
AM_5 寸法線
 62
     3
100
AcDbBlockReference
  2
_Open30
 10
171.2854034581985
 20
134.8383329333333
 30
0.0
 41
2.5
 42
2.5
 43
2.5
 50
270.0
  0
INSERT
  5
6EFE
330
6ECD
100
AcDbEntity
  8
AM_5 寸法線
 62
     3
100
AcDbBlockReference
  2
_Open30
 10
171.2854034581985
 20
144.8383329333333
 30
0.0
 41
2.5
 42
2.5
 43
2.5
 50
90.0
  0
MTEXT
  5
6EFF
330
6ECD
100
AcDbEntity
  8
AM_5 寸法線
 62
     3
100
AcDbMText
 10
168.0354034581985
 20
139.8383329333334
 30
0.0
 40
3.5
 41
0.0
 46
0.0
 71
     5
 72
     1
  1
10
  7
SEISA
 11
0.0000000000000001
 21
1.0
 31
0.0
 73
     1
 44
1.0
  0
POINT
  5
6F00
330
6ECD
100
AcDbEntity
  8
Defpoints
 62
     0
100
AcDbPoint
 10
186.7716824
 20
134.8383329333333
 30
0.0
  0
POINT
  5
6F01
330
6ECD
100
AcDbEntity
  8
Defpoints
 62
     0
100
AcDbPoint
 10
197.2716823999999
 20
144.8383329333333
 30
0.0
  0
POINT
  5
6F02
330
6ECD
100
AcDbEntity
  8
Defpoints
 62
     0
100
AcDbPoint
 10
171.2854034581985
 20
144.8383329333333
 30
0.0
  0
ENDBLK
  5
6ECF
330
6ECD
100
AcDbEntity
  8
0
100
AcDbBlockEnd
  0
BLOCK
  5
7090
330
708F
100
AcDbEntity
  8
0
100
AcDbBlockBegin
  2
ケース
 70
     0
 10
0.0
 20
0.0
 30
0.0
  3
ケース
  1

  0
LINE
  5
7092
330
708F
100
AcDbEntity
  8
AM_11 想像線
 48
0.1
100
AcDbLine
 10
7.065770594147636
 20
0.0
 30
0.0
 11
7.065770594147636
 21
-7.753432975532177
 31
0.0
  0
LINE
  5
7093
330
708F
100
AcDbEntity
  8
AM_11 想像線
 48
0.1
100
AcDbLine
 10
8.265770594147625
 20
0.0
 30
0.0
 11
8.265770594147625
 21
-5.253432975532176
 31
0.0
  0
LINE
  5
7094
330
708F
100
AcDbEntity
  8
AM_11 想像線
 48
0.1
100
AcDbLine
 10
0.5657705941476367
 20
-1.753432975532175
 30
0.0
 11
0.5657705941476367
 21
-14.75343297553218
 31
0.0
  0
LINE
  5
7095
330
708F
100
AcDbEntity
  8
AM_11 想像線
 48
0.1
100
AcDbLine
 10
5.565770594147636
 20
0.0
 30
0.0
 11
5.565770594147636
 21
-5.887407975532196
 31
0.0
  0
ARC
  5
7096
330
708F
100
AcDbEntity
  8
AM_11 想像線
 48
0.1
100
AcDbCircle
 10
3.565770594147636
 20
-14.75343297553218
 30
0.0
 40
3.0
100
AcDbArc
 50
180.0
 51
270.0
  0
LINE
  5
7097
330
708F
100
AcDbEntity
  8
AM_11 想像線
 48
0.1
100
AcDbLine
 10
8.065770594147636
 20
-15.05343297553219
 30
0.0
 11
8.065770594147636
 21
-11.45343297553216
 31
0.0
  0
LINE
  5
7098
330
708F
100
AcDbEntity
  8
AM_11 想像線
 48
0.1
100
AcDbLine
 10
3.565770594147636
 20
-17.75343297553218
 30
0.0
 11
11.06577059414763
 21
-17.75343297553218
 31
0.0
  0
ARC
  5
7099
330
708F
100
AcDbEntity
  8
AM_11 想像線
 48
0.1
100
AcDbCircle
 10
8.565770594147636
 20
-15.05343297553219
 30
0.0
 40
0.5
100
AcDbArc
 50
180.0
 51
270.0
  0
LINE
  5
709A
330
708F
100
AcDbEntity
  8
AM_11 想像線
 48
0.1
100
AcDbLine
 10
11.06577059414763
 20
-15.55343297553219
 30
0.0
 11
8.565770594147636
 21
-15.55343297553219
 31
0.0
  0
LINE
  5
709B
330
708F
100
AcDbEntity
  8
AM_11 想像線
 48
0.1
100
AcDbLine
 10
10.06577059414763
 20
-17.75343297553218
 30
0.0
 11
10.06577059414763
 21
-15.55343297553219
 31
0.0
  0
LINE
  5
709C
330
708F
100
AcDbEntity
  8
AM_11 想像線
 48
0.1
100
AcDbLine
 10
6.065770594147636
 20
-5.753432975532177
 30
0.0
 11
7.765770594147625
 21
-5.753432975532177
 31
0.0
  0
LINE
  5
709D
330
708F
100
AcDbEntity
  8
AM_11 想像線
 48
0.1
100
AcDbLine
 10
11.06577059414763
 20
-8.753432975532177
 30
0.0
 11
6.065770594147636
 21
-8.753432975532177
 31
0.0
  0
ARC
  5
709E
330
708F
100
AcDbEntity
  8
AM_11 想像線
 48
0.1
100
AcDbCircle
 10
6.065770594147636
 20
-6.753432975532177
 30
0.0
 40
1.0
100
AcDbArc
 50
93.79504300000403
 51
180.0
  0
LINE
  5
709F
330
708F
100
AcDbEntity
  8
AM_11 想像線
 48
0.1
100
AcDbLine
 10
5.065770594147636
 20
-7.753432975532177
 30
0.0
 11
5.065770594147636
 21
-6.753432975532177
 31
0.0
  0
ARC
  5
70A0
330
708F
100
AcDbEntity
  8
AM_11 想像線
 48
0.1
100
AcDbCircle
 10
6.065770594147636
 20
-7.753432975532177
 30
0.0
 40
1.0
100
AcDbArc
 50
180.0
 51
270.0
  0
LINE
  5
70A1
330
708F
100
AcDbEntity
  8
AM_11 想像線
 48
0.1
100
AcDbLine
 10
7.765770594147625
 20
-5.753432975532177
 30
0.0
 11
8.265770594147625
 21
-5.253432975532176
 31
0.0
  0
LINE
  5
70A2
330
708F
100
AcDbEntity
  8
AM_11 想像線
 48
0.1
100
AcDbLine
 10
10.06577059414763
 20
-10.95343297553216
 30
0.0
 11
10.06577059414763
 21
-8.753432975532177
 31
0.0
  0
LINE
  5
70A3
330
708F
100
AcDbEntity
  8
AM_11 想像線
 48
0.1
100
AcDbLine
 10
8.565770594147636
 20
-10.95343297553216
 30
0.0
 11
11.06577059414763
 21
-10.95343297553216
 31
0.0
  0
ARC
  5
70A4
330
708F
100
AcDbEntity
  8
AM_11 想像線
 48
0.1
100
AcDbCircle
 10
8.565770594147636
 20
-11.45343297553216
 30
0.0
 40
0.5
100
AcDbArc
 50
90.0
 51
180.0
  0
ARC
  5
70A5
330
708F
100
AcDbEntity
  8
AM_11 想像線
 48
0.1
100
AcDbCircle
 10
-2.434229405852363
 20
-1.753432975532175
 30
0.0
 40
3.0
100
AcDbArc
 50
0.0
 51
35.76609754754496
  0
ENDBLK
  5
7091
330
708F
100
AcDbEntity
  8
0
100
AcDbBlockEnd
  0
ENDSEC
  0
SECTION
  2
ENTITIES
  0
LINE
  5
40D7
330
1F
100
AcDbEntity
  8
AM_7 中心線
100
AcDbLine
 10
217.2716824
 20
244.8383329333333
 30
0.0
 11
217.2716824
 21
142.8383329333333
 31
0.0
  0
ARC
  5
40F5
330
1F
100
AcDbEntity
  8
AM_3 隠れ線
100
AcDbCircle
 10
189.2716824
 20
170.8383329333333
 30
0.0
 40
1.0
100
AcDbArc
 50
90.0
 51
93.79504300000403
  0
ARC
  5
415D
330
1F
100
AcDbEntity
  8
AM_3 隠れ線
100
AcDbCircle
 10
189.2716824
 20
216.8383329333333
 30
0.0
 40
1.0
100
AcDbArc
 50
266.2049569999959
 51
270.0
  0
LINE
  5
41AF
330
1F
100
AcDbEntity
  8
AM_0 外形線1
100
AcDbLine
 10
266.8716824
 20
208.8383329333333
 30
0.0
 11
266.8716824
 21
210.3383329333333
 31
0.0
  0
INSERT
  5
5260
102
{ACAD_REACTORS
330
5E4D
330
5EC7
330
6157
102
}
330
1F
100
AcDbEntity
  8
AM_0 外形線1
100
AcDbBlockReference
  2
ケースＡ SMVH100
 10
217.2716824
 20
193.8383329333333
 30
0.0
  0
INSERT
  5
5441
102
{ACAD_REACTORS
330
5D76
330
5D8E
330
5E35
330
5E4D
102
}
330
1F
100
AcDbEntity
  8
AM_0 外形線1
100
AcDbBlockReference
  2
ケースＢ SMVH100
 10
217.2716824
 20
193.8383329333333
 30
0.0
  0
INSERT
  5
56CD
102
{ACAD_REACTORS
330
5DF6
330
5F0F
330
6157
330
61EC
330
6204
330
6DE7
330
6EDB
102
}
330
1F
100
AcDbEntity
  8
AM_0 外形線1
100
AcDbBlockReference
  2
センタＡ SMVH100
 10
217.2716824
 20
189.8383329333333
 30
0.0
  0
INSERT
  5
5705
102
{ACAD_REACTORS
330
5D5E
330
5F0F
330
61D0
330
61EC
102
}
330
1F
100
AcDbEntity
  8
AM_0 外形線1
100
AcDbBlockReference
  2
センタB SMVH100
 10
217.2716824
 20
197.8383329333333
 30
0.0
  0
INSERT
  5
576C
330
1F
100
AcDbEntity
  8
AM_0 外形線1
100
AcDbBlockReference
  2
スラストプレ－ト SMVH100
 10
217.2716824
 20
189.8383329333333
 30
0.0
  0
INSERT
  5
588A
330
1F
100
AcDbEntity
  8
AM_0 外形線1
100
AcDbBlockReference
  2
リーマボルト SMVH100 M6
 10
260.7716824
 20
178.8383329333333
 30
0.0
  0
DIMENSION
  5
5D47
102
{ACAD_XDICTIONARY
360
5D54
102
}
102
{ACAD_REACTORS
330
5D5E
102
}
330
1F
100
AcDbEntity
  8
AM_5 寸法線
100
AcDbDimension
  2
*D10
 10
194.2716824
 20
262.8383329333333
 30
0.0
 11
217.2716824
 21
266.0883329333334
 31
0.0
 70
    32
  1
%%c<>
 71
     5
 42
46.0
 73
     0
 74
     0
 75
     0
  3
SEISA$0
100
AcDbAlignedDimension
 13
240.2716824
 23
239.8383329333333
 33
0.0
 14
194.2716824
 24
239.8383329333333
 34
0.0
100
AcDbRotatedDimension
1001
ACAD_DSTYLE_DIMINSPECT
1070
   396
1000
100%
1070
   395
1000

1070
   394
1070
    33
1070
   393
1070
     0
  0
DIMENSION
  5
5D5F
102
{ACAD_XDICTIONARY
360
5D6C
102
}
102
{ACAD_REACTORS
330
5D76
102
}
330
1F
100
AcDbEntity
  8
AM_5 寸法線
100
AcDbDimension
  2
*D11
 10
183.7716823999999
 20
272.8383329333333
 30
0.0
 11
217.2716824
 21
276.0883329333333
 31
0.0
 70
    32
  1
%%c<>
 71
     5
 42
67.0
 73
     0
 74
     0
 75
     0
  3
SEISA$0
100
AcDbAlignedDimension
 13
250.7716824
 23
224.8383329333333
 33
0.0
 14
183.7716823999999
 24
224.8383329333333
 34
0.0
100
AcDbRotatedDimension
1001
ACAD_DSTYLE_DIMINSPECT
1070
   396
1000
100%
1070
   395
1000

1070
   394
1070
    33
1070
   393
1070
     0
  0
DIMENSION
  5
5D77
102
{ACAD_XDICTIONARY
360
5D84
102
}
102
{ACAD_REACTORS
330
5D8E
102
}
330
1F
100
AcDbEntity
  8
AM_5 寸法線
100
AcDbDimension
  2
*D12
 10
167.2716823999999
 20
282.8383329333334
 30
0.0
 11
217.2716824
 21
286.0883329333333
 31
0.0
 70
    32
  1
%%c<>
 71
     5
 42
100.0
 73
     0
 74
     0
 75
     0
  3
SEISA$0
100
AcDbAlignedDimension
 13
267.2716824
 23
208.6383329333334
 33
0.0
 14
167.2716823999999
 24
208.6383329333334
 34
0.0
100
AcDbRotatedDimension
1001
ACAD_DSTYLE_DIMINSPECT
1070
   396
1000
100%
1070
   395
1000

1070
   394
1070
    33
1070
   393
1070
     0
  0
DIMENSION
  5
5DDF
102
{ACAD_XDICTIONARY
360
5DEC
102
}
102
{ACAD_REACTORS
330
5DF6
102
}
330
1F
100
AcDbEntity
  8
AM_5 寸法線
100
AcDbDimension
  2
*D13
 10
194.2716824
 20
124.8383329333333
 30
0.0
 11
217.2716824
 21
128.0883329333333
 31
0.0
 70
    32
  1
%%c<>
 71
     5
 42
46.0
 73
     0
 74
     0
 75
     0
  3
SEISA$0
100
AcDbAlignedDimension
 13
240.2716824
 23
147.8383329333333
 33
0.0
 14
194.2716824
 24
147.8383329333333
 34
0.0
100
AcDbRotatedDimension
1001
ACAD_DSTYLE_DIMINSPECT
1070
   396
1000
100%
1070
   395
1000

1070
   394
1070
    33
1070
   393
1070
     0
  0
DIMENSION
  5
5E1E
102
{ACAD_XDICTIONARY
360
5E2B
102
}
102
{ACAD_REACTORS
330
5E35
102
}
330
1F
100
AcDbEntity
  8
AM_5 寸法線
100
AcDbDimension
  2
*D14
 10
287.2716824
 20
193.8383329333333
 30
0.0
 11
284.0216823999999
 21
201.3383329333334
 31
0.0
 70
    32
 71
     5
 42
15.0
 73
     0
 74
     0
 75
     0
  3
SEISA$0
100
AcDbAlignedDimension
 13
267.0716824
 23
208.8383329333333
 33
0.0
 14
267.0716824
 24
193.8383329333333
 34
0.0
 50
90.0
100
AcDbRotatedDimension
1001
ACAD_DSTYLE_DIMINSPECT
1070
   396
1000
100%
1070
   395
1000

1070
   394
1070
    33
1070
   393
1070
     0
1001
ACAD
1000
DSTYLE
1002
{
1070
   173
1070
     1
1070
   342
1005
0
1070
   343
1005
69
1070
   344
1005
5FA6
1002
}
  0
DIMENSION
  5
5E36
102
{ACAD_XDICTIONARY
360
5E43
102
}
102
{ACAD_REACTORS
330
5E4D
102
}
330
1F
100
AcDbEntity
  8
AM_5 寸法線
100
AcDbDimension
  2
*D15
 10
287.2716824
 20
178.8383329333333
 30
0.0
 11
284.0216823999999
 21
186.3383329333333
 31
0.0
 70
    32
 71
     5
 42
15.0
 73
     0
 74
     0
 75
     0
  3
SEISA$0
100
AcDbAlignedDimension
 13
267.0716824
 23
193.8383329333333
 33
0.0
 14
267.0716824
 24
178.8383329333333
 34
0.0
 50
90.0
100
AcDbRotatedDimension
1001
ACAD_DSTYLE_DIMINSPECT
1070
   396
1000
100%
1070
   395
1000

1070
   394
1070
    33
1070
   393
1070
     0
1001
ACAD
1000
DSTYLE
1002
{
1070
   173
1070
     1
1070
   342
1005
0
1070
   343
1005
5FA6
1070
   344
1005
69
1002
}
  0
DIMENSION
  5
5EB0
102
{ACAD_XDICTIONARY
360
5EBD
102
}
102
{ACAD_REACTORS
330
5EC7
102
}
330
1F
100
AcDbEntity
  8
AM_5 寸法線
100
AcDbDimension
  2
*D16
 10
297.2716824
 20
159.8383329333333
 30
0.0
 11
294.0216823999999
 21
193.8383329333333
 31
0.0
 70
    32
 71
     5
 42
68.0
 73
     0
 74
     0
 75
     0
  3
SEISA$0
100
AcDbAlignedDimension
 13
247.7716824
 23
227.8383329333333
 33
0.0
 14
247.7716824
 24
159.8383329333333
 34
0.0
 50
90.0
100
AcDbRotatedDimension
  0
DIMENSION
  5
5EF8
102
{ACAD_XDICTIONARY
360
5F05
102
}
102
{ACAD_REACTORS
330
5F0F
102
}
330
1F
100
AcDbEntity
  8
AM_5 寸法線
100
AcDbDimension
  2
*D17
 10
307.2716824
 20
144.8383329333333
 30
0.0
 11
304.0216823999998
 21
193.8383329333333
 31
0.0
 70
    32
 71
     5
 42
98.0
 73
     0
 74
     0
 75
     0
  3
SEISA$0
100
AcDbAlignedDimension
 13
237.2716824
 23
242.8383329333333
 33
0.0
 14
237.2716824
 24
144.8383329333333
 34
0.0
 50
90.0
100
AcDbRotatedDimension
  0
DIMENSION
  5
613C
102
{ACAD_XDICTIONARY
360
614B
102
}
102
{ACAD_REACTORS
330
6157
102
}
330
1F
100
AcDbEntity
  8
AM_5 寸法線
100
AcDbDimension
  2
*D19
 10
201.2143152416468
 20
168.8383329333333
 30
0.0
 11
197.9643152416467
 21
161.2883329333334
 31
0.0
 70
    32
 71
     5
 42
1.999999999999971
 73
     0
 74
     0
 75
     0
  3
SEISA$0
100
AcDbAlignedDimension
 13
193.7716823999999
 23
170.8383329333333
 33
0.0
 14
194.2716824
 24
168.8383329333333
 34
0.0
 50
90.0
100
AcDbRotatedDimension
  0
DIMENSION
  5
61B9
102
{ACAD_XDICTIONARY
360
61C6
102
}
102
{ACAD_REACTORS
330
61D0
102
}
330
1F
100
AcDbEntity
  8
AM_5 寸法線
100
AcDbDimension
  2
*D20
 10
211.2159444
 20
197.8383329333333
 30
0.0
 11
207.9659444
 21
220.3383329333334
 31
0.0
 70
    32
 71
     5
 42
45.0
 73
     0
 74
     0
 75
     0
  3
SEISA$0
100
AcDbAlignedDimension
 13
217.2716824
 23
242.8383329333333
 33
0.0
 14
217.2716824
 24
197.8383329333333
 34
0.0
 50
90.0
100
AcDbRotatedDimension
  0
DIMENSION
  5
61D1
102
{ACAD_XDICTIONARY
360
61E0
102
}
102
{ACAD_REACTORS
330
61EC
102
}
330
1F
100
AcDbEntity
  8
AM_5 寸法線
100
AcDbDimension
  2
*D21
 10
211.2159444
 20
189.8383329333333
 30
0.0
 11
207.9659444
 21
193.8383329333334
 31
0.0
 70
    32
 71
     5
 42
8.0
 73
     0
 74
     0
 75
     0
  3
SEISA$0
100
AcDbAlignedDimension
 13
217.2716824
 23
197.8383329333333
 33
0.0
 14
217.2716824
 24
189.8383329333333
 34
0.0
 50
90.0
100
AcDbRotatedDimension
  0
DIMENSION
  5
61ED
102
{ACAD_XDICTIONARY
360
61FA
102
}
102
{ACAD_REACTORS
330
6204
102
}
330
1F
100
AcDbEntity
  8
AM_5 寸法線
100
AcDbDimension
  2
*D22
 10
211.2159444
 20
144.8383329333333
 30
0.0
 11
207.9659444
 21
167.3383329333334
 31
0.0
 70
    32
 71
     5
 42
45.0
 73
     0
 74
     0
 75
     0
  3
SEISA$0
100
AcDbAlignedDimension
 13
217.2716824
 23
189.8383329333333
 33
0.0
 14
217.2716824
 24
144.8383329333333
 34
0.0
 50
90.0
100
AcDbRotatedDimension
  0
MTEXT
  5
6D5C
330
1F
100
AcDbEntity
  8
AM_6 文字
100
AcDbMText
 10
251.4683153171197
 20
139.0668063380477
 30
0.0
 40
3.5
 41
59.87084415741161
 46
15.9103167730538
 71
     1
 72
     5
  1
{\W0.6;TYPE:SMV100/SMVH100\PSHAFT DIA:MAX/MIN φ32/φ17}
  7
SEISA
 73
     1
 44
1.0
  0
DIMENSION
  5
6DD9
102
{ACAD_XDICTIONARY
360
6DE6
102
}
102
{ACAD_REACTORS
330
6DE7
102
}
330
1F
100
AcDbEntity
  8
AM_5 寸法線
100
AcDbDimension
  2
*D23
 10
201.2143152416468
 20
179.8383329333333
 30
0.0
 11
197.9643152416467
 21
184.8383329333334
 31
0.0
 70
    32
 71
     5
 42
10.0
 73
     0
 74
     0
 75
     0
  3
SEISA$0
100
AcDbAlignedDimension
 13
195.2716823999999
 23
189.8383329333333
 33
0.0
 14
194.2716824
 24
179.8383329333333
 34
0.0
 50
90.00000000000005
100
AcDbRotatedDimension
1001
ACAD_DSTYLE_DIMINSPECT
1070
   396
1000
100%
1070
   395
1000

1070
   394
1070
    33
1070
   393
1070
     0
  0
DIMENSION
  5
6E03
330
1F
100
AcDbEntity
  8
AM_5 寸法線
100
AcDbDimension
  2
*D24
 10
201.2143152416468
 20
170.8383329333333
 30
0.0
 11
197.9643152416467
 21
175.3383329333334
 31
0.0
 70
    32
 71
     5
 42
9.0
 73
     0
 74
     0
 75
     0
  3
SEISA$0
100
AcDbAlignedDimension
 13
194.2716824
 23
179.8383329333333
 33
0.0
 14
193.7716823999999
 24
170.8383329333333
 34
0.0
 50
90.00000000000005
100
AcDbRotatedDimension
1001
ACAD_DSTYLE_DIMINSPECT
1070
   396
1000
100%
1070
   395
1000

1070
   394
1070
    33
1070
   393
1070
     0
  0
DIMENSION
  5
6ECC
102
{ACAD_XDICTIONARY
360
6EDA
102
}
102
{ACAD_REACTORS
330
6EDB
102
}
330
1F
100
AcDbEntity
  8
AM_5 寸法線
100
AcDbDimension
  2
*D25
 10
171.2854034581985
 20
144.8383329333333
 30
0.0
 11
168.0354034581985
 21
139.8383329333334
 31
0.0
 70
    32
 71
     5
 42
10.00000000000003
 73
     0
 74
     0
 75
     0
  3
SEISA$0
100
AcDbAlignedDimension
 13
186.7716824
 23
134.8383329333333
 33
0.0
 14
197.2716823999999
 24
144.8383329333333
 34
0.0
 50
90.00000000000005
100
AcDbRotatedDimension
1001
ACAD_DSTYLE_DIMINSPECT
1070
   396
1000
100%
1070
   395
1000

1070
   394
1070
    33
1070
   393
1070
     0
  0
INSERT
  5
70A6
330
1F
100
AcDbEntity
  8
AM_0 外形線1
100
AcDbBlockReference
  2
ケース
 10
183.2059118058523
 20
152.5917659088655
 30
0.0
  0
ENDSEC
  0
SECTION
  2
OBJECTS
  0
DICTIONARY
  5
C
330
0
100
AcDbDictionary
281
     1
  3
ACAD_COLOR
350
C5
  3
ACAD_GROUP
350
D
  3
ACAD_LAYOUT
350
1A
  3
ACAD_MATERIAL
350
C4
  3
ACAD_MLEADERSTYLE
350
2D5
  3
ACAD_MLINESTYLE
350
17
  3
ACAD_PLOTSETTINGS
350
19
  3
ACAD_PLOTSTYLENAME
350
E
  3
ACAD_SCALELIST
350
2B3
  3
ACAD_TABLESTYLE
350
121
  3
ACAD_VISUALSTYLE
350
27F
  3
ACDB_RECOMPOSE_DATA
350
2F7
  3
AcDbVariableDictionary
350
34
  3
AcmDictionary
350
49
  3
AMG
350
2B
  3
AMGSNAPSETTINGS
350
1DE
  0
DICTIONARY
  5
BF
330
2
100
AcDbDictionary
280
     1
281
     1
  3
ACAD_LAYERSTATES
360
33E1
  3
AMLAYER_GROUPCOLORS
360
C0
  0
DICTIONARY
  5
29F7
330
10
100
AcDbDictionary
280
     1
281
     1
  3
ADSK_XREC_LAYER_RECONCILED
360
29F8
  0
DICTIONARY
  5
29F9
330
81
100
AcDbDictionary
280
     1
281
     1
  3
ADSK_XREC_LAYER_RECONCILED
360
29FA
  0
DICTIONARY
  5
82
330
1F
100
AcDbDictionary
280
     1
281
     1
  3
ACAD_SORTENTS
360
A41
  0
DICTIONARY
  5
52E8
330
5220
100
AcDbDictionary
280
     1
281
     1
  3
ACAD_SORTENTS
360
669B
  0
DICTIONARY
  5
54EE
330
53FD
100
AcDbDictionary
280
     1
281
     1
  3
ACAD_SORTENTS
360
67BA
  0
DICTIONARY
  5
5553
330
551A
100
AcDbDictionary
280
     1
281
     1
  3
ACAD_SORTENTS
360
66E9
  0
DICTIONARY
  5
574F
330
56B4
100
AcDbDictionary
280
     1
281
     1
  3
ACAD_SORTENTS
360
703E
  0
DICTIONARY
  5
6860
330
56EC
100
AcDbDictionary
280
     1
281
     1
  3
ACAD_SORTENTS
360
7011
  0
DICTIONARY
  5
5786
330
5761
100
AcDbDictionary
280
     1
281
     1
  3
ACAD_SORTENTS
360
70E1
  0
DICTIONARY
  5
58D5
330
5867
100
AcDbDictionary
280
     1
281
     1
  3
ACAD_SORTENTS
360
6958
  0
DICTIONARY
  5
5D54
330
5D47
100
AcDbDictionary
280
     1
281
     1
  3
ACAD_DIMASSOC
360
5D5E
  0
DICTIONARY
  5
5D6C
330
5D5F
100
AcDbDictionary
280
     1
281
     1
  3
ACAD_DIMASSOC
360
5D76
  0
DICTIONARY
  5
5D84
330
5D77
100
AcDbDictionary
280
     1
281
     1
  3
ACAD_DIMASSOC
360
5D8E
  0
DICTIONARY
  5
5DEC
330
5DDF
100
AcDbDictionary
280
     1
281
     1
  3
ACAD_DIMASSOC
360
5DF6
  0
DICTIONARY
  5
5E2B
330
5E1E
100
AcDbDictionary
280
     1
281
     1
  3
ACAD_DIMASSOC
360
5E35
  0
DICTIONARY
  5
5E43
330
5E36
100
AcDbDictionary
280
     1
281
     1
  3
ACAD_DIMASSOC
360
5E4D
  0
DICTIONARY
  5
5EBD
330
5EB0
100
AcDbDictionary
280
     1
281
     1
  3
ACAD_DIMASSOC
360
5EC7
  0
DICTIONARY
  5
5F05
330
5EF8
100
AcDbDictionary
280
     1
281
     1
  3
ACAD_DIMASSOC
360
5F0F
  0
DICTIONARY
  5
614B
330
613C
100
AcDbDictionary
280
     1
281
     1
  3
ACAD_DIMASSOC
360
6157
  0
DICTIONARY
  5
61C6
330
61B9
100
AcDbDictionary
280
     1
281
     1
  3
ACAD_DIMASSOC
360
61D0
  0
DICTIONARY
  5
61E0
330
61D1
100
AcDbDictionary
280
     1
281
     1
  3
ACAD_DIMASSOC
360
61EC
  0
DICTIONARY
  5
61FA
330
61ED
100
AcDbDictionary
280
     1
281
     1
  3
ACAD_DIMASSOC
360
6204
  0
DICTIONARY
  5
6DE6
330
6DD9
100
AcDbDictionary
280
     1
281
     1
  3
ACAD_DIMASSOC
360
6DE7
  0
DICTIONARY
  5
6EDA
330
6ECC
100
AcDbDictionary
280
     1
281
     1
  3
ACAD_DIMASSOC
360
6EDB
  0
DICTIONARY
  5
C5
102
{ACAD_REACTORS
330
C
102
}
330
C
100
AcDbDictionary
281
     1
  0
DICTIONARY
  5
D
102
{ACAD_REACTORS
330
C
102
}
330
C
100
AcDbDictionary
281
     1
  0
DICTIONARY
  5
1A
102
{ACAD_REACTORS
330
C
102
}
330
C
100
AcDbDictionary
281
     1
  3
Model
350
22
  3
レイアウト1
350
1E
  3
レイアウト2
350
26
  0
DICTIONARY
  5
C4
102
{ACAD_REACTORS
330
C
102
}
330
C
100
AcDbDictionary
281
     1
  3
ByBlock
350
27D
  3
ByLayer
350
27C
  3
Global
350
27E
  0
DICTIONARY
  5
2D5
102
{ACAD_REACTORS
330
C
102
}
330
C
100
AcDbDictionary
281
     1
  3
Standard
350
2D6
  0
DICTIONARY
  5
17
102
{ACAD_REACTORS
330
C
102
}
330
C
100
AcDbDictionary
281
     1
  3
Standard
350
18
  0
DICTIONARY
  5
19
102
{ACAD_REACTORS
330
C
102
}
330
C
100
AcDbDictionary
281
     1
  3
SEISA基本
350
1C7E
  0
ACDBDICTIONARYWDFLT
  5
E
102
{ACAD_REACTORS
330
C
102
}
330
C
100
AcDbDictionary
281
     1
  3
Normal
350
F
100
AcDbDictionaryWithDefault
340
F
  0
DICTIONARY
  5
2B3
102
{ACAD_REACTORS
330
C
102
}
330
C
100
AcDbDictionary
281
     1
  3
*A1
350
6D53
  3
A0
350
2B4
  3
A1
350
2B5
  3
A2
350
2B6
  3
A3
350
2B7
  3
A4
350
2B8
  3
A5
350
2B9
  3
A6
350
2BA
  3
A7
350
2BB
  3
A8
350
2BC
  3
A9
350
2BD
  3
B0
350
2BE
  3
B1
350
2BF
  3
B2
350
2C0
  3
B3
350
2C1
  3
B4
350
2C2
  3
B5
350
2C3
  3
B6
350
2C4
  3
B7
350
2C5
  3
B8
350
2C6
  3
B9
350
2C7
  3
C0
350
2C8
  3
C1
350
2C9
  3
C2
350
2CA
  3
C3
350
2CB
  3
C4
350
2CC
  3
C5
350
2CD
  3
C6
350
2CE
  3
C7
350
2CF
  3
C8
350
2D0
  3
C9
350
2D1
  3
D0
350
2D2
  3
D1
350
2D3
  3
D2
350
2D4
  0
DICTIONARY
  5
121
102
{ACAD_REACTORS
330
C
102
}
330
C
100
AcDbDictionary
281
     1
  3
Standard
350
122
  0
DICTIONARY
  5
27F
102
{ACAD_REACTORS
330
C
102
}
330
C
100
AcDbDictionary
281
     1
  3
2dWireframe
350
285
  3
3D Hidden
350
287
  3
3dWireframe
350
286
  3
Basic
350
284
  3
Brighten
350
28B
  3
ColorChange
350
28F
  3
Conceptual
350
288
  3
Dim
350
28A
  3
Facepattern
350
28E
  3
Flat
350
280
  3
FlatWithEdges
350
281
  3
Gouraud
350
282
  3
GouraudWithEdges
350
283
  3
Linepattern
350
28D
  3
Realistic
350
289
  3
Thicken
350
28C
  0
XRECORD
  5
2F7
102
{ACAD_REACTORS
330
C
102
}
330
C
100
AcDbXrecord
280
     1
 90
        1
330
122
  0
DICTIONARY
  5
34
102
{ACAD_REACTORS
330
C
102
}
330
C
100
AcDbDictionary
281
     1
  3
CANNOSCALE
350
2FA
  3
CMLEADERSTYLE
350
2F8
  3
CTABLESTYLE
350
140
  3
DIMASSOC
350
AC
  3
INDEXCTL
350
35
  3
LAYEREVAL
350
464F
  3
LAYERNOTIFY
350
4650
  3
LIGHTINGUNITS
350
2FB
  3
MSLTSCALE
350
2F9
  0
DICTIONARY
  5
49
102
{ACAD_REACTORS
330
C
102
}
330
C
100
AcDbDictionary
281
     1
  3
AcmBOM
350
161B
  3
AcmStdDictionary
350
4A
  3
AMDTSECTSYM_ARROWCOLOR
350
12B
  0
DICTIONARY
  5
2B
102
{ACAD_REACTORS
330
C
102
}
330
C
100
AcDbDictionary
281
     1
  0
DICTIONARY
  5
1DE
102
{ACAD_REACTORS
330
C
102
}
330
C
100
AcDbDictionary
281
     1
  0
DICTIONARY
  5
33E1
102
{ACAD_REACTORS
330
BF
102
}
330
BF
100
AcDbDictionary
281
     1
  0
DICTIONARY
  5
C0
102
{ACAD_REACTORS
330
BF
102
}
330
BF
100
AcDbDictionary
280
     1
281
     1
  0
XRECORD
  5
29F8
102
{ACAD_REACTORS
330
29F7
102
}
330
29F7
100
AcDbXrecord
280
     1
290
     1
  0
XRECORD
  5
29FA
102
{ACAD_REACTORS
330
29F9
102
}
330
29F9
100
AcDbXrecord
280
     1
290
     1
  0
SORTENTSTABLE
  5
A41
102
{ACAD_REACTORS
330
82
102
}
330
82
100
AcDbSortentsTable
330
1F
331
5E36
  5
6029
331
56CD
  5
599E
331
5D5F
  5
5EE0
331
5D47
  5
5EC8
331
5E1E
  5
5F4C
331
5260
  5
57B8
331
5D77
  5
5EF8
331
40F5
  5
40F5
331
41AF
  5
41AF
331
61ED
  5
62EE
331
5DDF
  5
5F10
331
576C
  5
59AC
331
415D
  5
415D
331
5705
  5
59A5
331
61B9
  5
62B0
331
61D1
  5
62B6
331
6D5C
  5
6D5C
331
613C
  5
626C
331
588A
  5
59B3
331
5EB0
  5
604E
331
5441
  5
5997
331
40D7
  5
40D7
331
5EF8
  5
613C
  0
SORTENTSTABLE
  5
669B
102
{ACAD_REACTORS
330
52E8
102
}
330
52E8
100
AcDbSortentsTable
330
5220
331
525F
  5
52E7
331
5250
  5
5251
331
5259
  5
525C
331
525E
  5
52E6
331
524F
  5
5250
331
5254
  5
5257
331
5258
  5
525B
331
525D
  5
52E5
331
524E
  5
524F
331
52E7
  5
5256
331
525C
  5
525F
331
524D
  5
524E
331
5252
  5
5254
331
52E6
  5
5258
331
525B
  5
525E
331
5257
  5
525A
331
524C
  5
524D
331
5251
  5
5252
331
52E5
  5
524B
331
525A
  5
525D
331
5256
  5
5259
331
524B
  5
524C
  0
SORTENTSTABLE
  5
67BA
102
{ACAD_REACTORS
330
54EE
102
}
330
54EE
100
AcDbSortentsTable
330
53FD
331
5432
  5
5433
331
5414
  5
5415
331
542A
  5
542B
331
540C
  5
540D
331
5405
  5
5406
331
5425
  5
5426
331
543B
  5
543C
331
541D
  5
541E
331
5415
  5
5416
331
5433
  5
5434
331
542B
  5
542C
331
540D
  5
540E
331
5406
  5
5408
331
5440
  5
54ED
331
5426
  5
5427
331
543C
  5
543D
331
541E
  5
541F
331
5434
  5
5435
331
5416
  5
5417
331
542C
  5
542D
331
540E
  5
540F
331
5427
  5
5428
331
543D
  5
543E
331
541F
  5
5420
331
5435
  5
5436
331
5417
  5
5418
331
542D
  5
542E
331
540F
  5
5410
331
5400
  5
5401
331
543E
  5
543F
331
5420
  5
5421
331
5436
  5
5437
331
5418
  5
5419
331
54ED
  5
55F5
331
542E
  5
542F
331
5410
  5
5411
331
5408
  5
5409
331
5401
  5
5402
331
543F
  5
5440
331
5421
  5
5422
331
5437
  5
5438
331
5419
  5
541A
331
542F
  5
5430
331
5411
  5
5412
331
5409
  5
540B
331
5402
  5
5403
331
5422
  5
5423
331
5438
  5
5439
331
55F5
  5
5400
331
541A
  5
541B
331
5430
  5
5431
331
5412
  5
5413
331
5428
  5
5429
331
5403
  5
5404
331
5423
  5
5424
331
5439
  5
543A
331
541B
  5
541C
331
5413
  5
5414
331
5431
  5
5432
331
5429
  5
542A
331
540B
  5
540C
331
5404
  5
5405
331
5424
  5
5425
331
543A
  5
543B
331
541C
  5
541D
  0
SORTENTSTABLE
  5
66E9
102
{ACAD_REACTORS
330
5553
102
}
330
5553
100
AcDbSortentsTable
330
551A
  0
SORTENTSTABLE
  5
703E
102
{ACAD_REACTORS
330
574F
102
}
330
574F
100
AcDbSortentsTable
330
56B4
331
56C7
  5
56C9
331
56C6
  5
56C8
331
56C5
  5
56C7
331
56C4
  5
56C6
331
56C3
  5
56C5
331
56C2
  5
56C4
331
56C1
  5
56C3
331
56C9
  5
6DC6
331
56C0
  5
56C2
331
56C8
  5
6DC5
331
56BF
  5
56C1
331
56BE
  5
56C0
331
56B7
  5
56B9
331
56BB
  5
56BF
331
6DC6
  5
56B8
331
56BA
  5
56BE
331
6DC5
  5
56B7
331
56B9
  5
56BB
331
56B8
  5
56BA
  0
SORTENTSTABLE
  5
7011
102
{ACAD_REACTORS
330
6860
102
}
330
6860
100
AcDbSortentsTable
330
56EC
331
56FC
  5
56FE
331
56FB
  5
56FD
331
56FA
  5
56FC
331
56F9
  5
56FB
331
56F8
  5
56FA
331
5701
  5
6EB9
331
5700
  5
6EB8
331
56F7
  5
56F9
331
56F6
  5
56F8
331
56F5
  5
56F7
331
56EF
  5
56F1
331
56F2
  5
56F6
331
56F1
  5
56F5
331
56F0
  5
56F2
331
6EB9
  5
56F0
331
6EB8
  5
56EF
331
56FF
  5
5701
331
56FE
  5
5700
331
56FD
  5
56FF
  0
SORTENTSTABLE
  5
70E1
102
{ACAD_REACTORS
330
5786
102
}
330
5786
100
AcDbSortentsTable
330
5761
  0
SORTENTSTABLE
  5
6958
102
{ACAD_REACTORS
330
58D5
102
}
330
58D5
100
AcDbSortentsTable
330
5867
  0
DIMASSOC
  5
5D5E
102
{ACAD_REACTORS
330
5D54
102
}
330
5D54
100
AcDbDimAssoc
330
5D47
 90
        3
 70
     0
 71
     0
  1
AcDbOsnapPointRef
 72
     1
331
5705
331
56FF
 73
     2
 91
        0
 40
1.0
 10
0.0
 20
0.0
 30
2.000000000000000E+50
 75
     0
  1
AcDbOsnapPointRef
 72
    13
331
5705
331
56F0
 73
     2
 91
        0
 40
0.0
 10
0.0
 20
0.0
 30
2.000000000000000E+50
 75
     0
  0
DIMASSOC
  5
5D76
102
{ACAD_REACTORS
330
5D6C
102
}
330
5D6C
100
AcDbDimAssoc
330
5D5F
 90
        3
 70
     0
 71
     0
  1
AcDbOsnapPointRef
 72
     1
331
5441
331
5437
 73
     2
 91
        0
 40
1.0
 10
0.0
 20
0.0
 30
2.000000000000000E+50
 75
     0
  1
AcDbOsnapPointRef
 72
     1
331
5441
331
542D
 73
     2
 91
        0
 40
3.141592653589792
 10
0.0
 20
0.0
 30
2.000000000000000E+50
 75
     0
  0
DIMASSOC
  5
5D8E
102
{ACAD_REACTORS
330
5D84
102
}
330
5D84
100
AcDbDimAssoc
330
5D77
 90
        3
 70
     0
 71
     0
  1
AcDbOsnapPointRef
 72
     1
331
5441
331
543A
 73
     2
 91
        0
 40
0.9999999999999998
 10
0.0
 20
0.0
 30
2.000000000000000E+50
 75
     0
  1
AcDbOsnapPointRef
 72
     8
331
5441
331
5408
 73
     2
 91
        0
 40
0.9999999999999998
 10
0.0
 20
0.0
 30
0.0
 75
     1
  1
AcDbOsnapPointRef
 72
     1
331
5441
331
543A
 73
     2
 91
        0
 40
0.9999999999999998
 10
0.0
 20
0.0
 30
2.000000000000000E+50
 75
     0
  0
DIMASSOC
  5
5DF6
102
{ACAD_REACTORS
330
5DEC
102
}
330
5DEC
100
AcDbDimAssoc
330
5DDF
 90
        3
 70
     0
 71
     0
  1
AcDbOsnapPointRef
 72
    13
331
56CD
331
56C7
 73
     2
 91
        0
 40
0.0
 10
0.0
 20
0.0
 30
2.000000000000000E+50
 75
     0
  1
AcDbOsnapPointRef
 72
    13
331
56CD
331
56B9
 73
     2
 91
        0
 40
0.0
 10
0.0
 20
0.0
 30
2.000000000000000E+50
 75
     0
  0
DIMASSOC
  5
5E35
102
{ACAD_REACTORS
330
5E2B
102
}
330
5E2B
100
AcDbDimAssoc
330
5E1E
 90
        3
 70
     0
 71
     0
  1
AcDbOsnapPointRef
 72
    13
331
5441
331
5401
 73
     2
 91
        0
 40
0.0
 10
0.0
 20
0.0
 30
2.000000000000000E+50
 75
     0
  1
AcDbOsnapPointRef
 72
    13
331
5441
331
543B
 73
     2
 91
        0
 40
0.0
 10
0.0
 20
0.0
 30
2.000000000000000E+50
 75
     0
  0
DIMASSOC
  5
5E4D
102
{ACAD_REACTORS
330
5E43
102
}
330
5E43
100
AcDbDimAssoc
330
5E36
 90
        3
 70
     0
 71
     0
  1
AcDbOsnapPointRef
 72
    13
331
5441
331
543B
 73
     2
 91
        0
 40
0.0
 10
0.0
 20
0.0
 30
2.000000000000000E+50
 75
     0
  1
AcDbOsnapPointRef
 72
    13
331
5260
331
5224
 73
     2
 91
        0
 40
0.0
 10
0.0
 20
0.0
 30
2.000000000000000E+50
 75
     0
  0
DIMASSOC
  5
5EC7
102
{ACAD_REACTORS
330
5EBD
102
}
330
5EBD
100
AcDbDimAssoc
330
5EB0
 90
        2
 70
     0
 71
     0
  1
AcDbOsnapPointRef
 72
     1
331
5260
331
5223
 73
     2
 91
        0
 40
1.0
 10
0.0
 20
0.0
 30
2.000000000000000E+50
 75
     0
  0
DIMASSOC
  5
5F0F
102
{ACAD_REACTORS
330
5F05
102
}
330
5F05
100
AcDbDimAssoc
330
5EF8
 90
        3
 70
     0
 71
     0
  1
AcDbOsnapPointRef
 72
    13
331
5705
331
56EF
 73
     2
 91
        0
 40
0.0
 10
0.0
 20
0.0
 30
2.000000000000000E+50
 75
     0
  1
AcDbOsnapPointRef
 72
    13
331
56CD
331
56B7
 73
     2
 91
        0
 40
0.0
 10
0.0
 20
0.0
 30
2.000000000000000E+50
 75
     0
  0
DIMASSOC
  5
6157
102
{ACAD_REACTORS
330
614B
102
}
330
614B
100
AcDbDimAssoc
330
613C
 90
        3
 70
     0
 71
     0
  1
AcDbOsnapPointRef
 72
     6
331
56CD
331
56BF
 73
     2
 91
        0
 40
0.0
 10
0.0
 20
0.0
 30
0.0
332
56CD
332
56C0
 74
     2
 92
        0
 75
     0
  1
AcDbOsnapPointRef
 72
    13
331
5260
331
523B
 73
     2
 91
        0
 40
0.0
 10
0.0
 20
0.0
 30
2.000000000000000E+50
 75
     0
  0
DIMASSOC
  5
61D0
102
{ACAD_REACTORS
330
61C6
102
}
330
61C6
100
AcDbDimAssoc
330
61B9
 90
        3
 70
     0
 71
     0
  1
AcDbOsnapPointRef
 72
     2
331
5705
331
56EF
 73
     2
 91
        0
 40
0.5
 10
0.0
 20
0.0
 30
0.0
 75
     0
  1
AcDbOsnapPointRef
 72
     1
331
5705
331
56FD
 73
     2
 91
        0
 40
1.0
 10
0.0
 20
0.0
 30
2.000000000000000E+50
 75
     0
  0
DIMASSOC
  5
61EC
102
{ACAD_REACTORS
330
61E0
102
}
330
61E0
100
AcDbDimAssoc
330
61D1
 90
        3
 70
     0
 71
     0
  1
AcDbOsnapPointRef
 72
     1
331
5705
331
56FD
 73
     2
 91
        0
 40
1.0
 10
0.0
 20
0.0
 30
2.000000000000000E+50
 75
     0
  1
AcDbOsnapPointRef
 72
     1
331
56CD
331
56C6
 73
     2
 91
        0
 40
1.0
 10
0.0
 20
0.0
 30
2.000000000000000E+50
 75
     0
  0
DIMASSOC
  5
6204
102
{ACAD_REACTORS
330
61FA
102
}
330
61FA
100
AcDbDimAssoc
330
61ED
 90
        3
 70
     0
 71
     0
  1
AcDbOsnapPointRef
 72
     1
331
56CD
331
56C6
 73
     2
 91
        0
 40
1.0
 10
0.0
 20
0.0
 30
2.000000000000000E+50
 75
     0
  1
AcDbOsnapPointRef
 72
     2
331
56CD
331
56B7
 73
     2
 91
        0
 40
0.5
 10
0.0
 20
0.0
 30
0.0
 75
     0
  0
DIMASSOC
  5
6DE7
102
{ACAD_REACTORS
330
6DE6
102
}
330
6DE6
100
AcDbDimAssoc
330
6DD9
 90
        3
 70
     0
 71
     0
  1
AcDbOsnapPointRef
 72
     1
331
56CD
331
56C5
 73
     0
 91
        0
 40
0.0
 10
0.0
 20
0.0
 30
2.000000000000000E+50
 75
     0
  1
AcDbOsnapPointRef
 72
    13
331
56CD
331
56C3
 73
     0
 91
        0
 40
0.0
 10
0.0
 20
0.0
 30
2.000000000000000E+50
 75
     0
  0
DIMASSOC
  5
6EDB
102
{ACAD_REACTORS
330
6EDA
102
}
330
6EDA
100
AcDbDimAssoc
330
6ECC
 90
        2
 70
     0
 71
     0
  1
AcDbOsnapPointRef
 72
     1
331
56CD
331
56B7
 73
     0
 91
        0
 40
0.0
 10
0.0
 20
0.0
 30
2.000000000000000E+50
 75
     0
  0
LAYOUT
  5
22
102
{ACAD_REACTORS
330
1A
102
}
330
1A
100
AcDbPlotSettings
  1

  2
KONICA MINOLTA 501 PCL
  4
A4
  6

 40
5.027082920074462
 41
5.027085781097412
 42
5.027069091796875
 43
5.027069091796875
 44
209.9733276367186
 45
296.9259948730469
 46
0.0
 47
28.18011444041085
 48
0.0
 49
0.0
140
0.0
141
0.0
142
1.0
143
0.7102029302530291
 70
 11956
 72
     1
 73
     0
 74
     1
  7
SEISA.ctb
 75
     0
147
1.408048259732923
 76
     0
 77
     2
 78
   300
148
-165.9839186488821
149
-124.155579735706
100
AcDbLayout
  1
Model
 70
     1
 71
     0
 10
0.0
 20
0.0
 11
12.0
 21
9.0
 12
0.0
 22
0.0
 32
0.0
 14
0.0
 24
0.0
 34
0.0
 15
0.0
 25
0.0
 35
0.0
146
0.0
 13
0.0
 23
0.0
 33
0.0
 16
1.0
 26
0.0
 36
0.0
 17
0.0
 27
1.0
 37
0.0
 76
     0
330
1F
331
27A
1001
ACAD_PSEXT
1000
KONICA MINOLTA 501 PCL
1000
KONICA MINOLTA 501/421/361PCL
1000
IP_192.168.20.231_(1)
1000

1070
     0
  0
LAYOUT
  5
1E
102
{ACAD_REACTORS
330
1A
102
}
330
1A
100
AcDbPlotSettings
  1

  2
none_device
  4
Letter_(8.50_x_11.00_Inches)
  6

 40
6.349999904632567
 41
6.349999904632567
 42
6.350006103515625
 43
6.350006103515625
 44
215.8999938964844
 45
279.3999938964844
 46
0.0
 47
0.0
 48
0.0
 49
0.0
140
0.0
141
0.0
142
1.0
143
1.0
 70
 15024
 72
     1
 73
     1
 74
     5
  7
SEISA.ctb
 75
    16
147
1.0
 76
     0
 77
     2
 78
   300
148
0.0
149
0.0
100
AcDbLayout
  1
レイアウト1
 70
     1
 71
     1
 10
0.0
 20
0.0
 11
420.0
 21
297.0
 12
0.0
 22
0.0
 32
0.0
 14
1.000000000000000E+20
 24
1.000000000000000E+20
 34
1.000000000000000E+20
 15
-1.000000000000000E+20
 25
-1.000000000000000E+20
 35
-1.000000000000000E+20
146
0.0
 13
0.0
 23
0.0
 33
0.0
 16
1.0
 26
0.0
 36
0.0
 17
0.0
 27
1.0
 37
0.0
 76
     0
330
1B
  0
LAYOUT
  5
26
102
{ACAD_REACTORS
330
1A
102
}
330
1A
100
AcDbPlotSettings
  1

  2
none_device
  4
Letter_(8.50_x_11.00_Inches)
  6

 40
6.349999904632567
 41
6.349999904632567
 42
6.350006103515625
 43
6.350006103515625
 44
215.8999938964844
 45
279.3999938964844
 46
0.0
 47
0.0
 48
0.0
 49
0.0
140
0.0
141
0.0
142
1.0
143
1.0
 70
 15024
 72
     1
 73
     1
 74
     5
  7
SEISA.ctb
 75
    16
147
1.0
 76
     0
 77
     2
 78
   300
148
0.0
149
0.0
100
AcDbLayout
  1
レイアウト2
 70
     1
 71
     2
 10
0.0
 20
0.0
 11
12.0
 21
9.0
 12
0.0
 22
0.0
 32
0.0
 14
0.0
 24
0.0
 34
0.0
 15
0.0
 25
0.0
 35
0.0
146
0.0
 13
0.0
 23
0.0
 33
0.0
 16
1.0
 26
0.0
 36
0.0
 17
0.0
 27
1.0
 37
0.0
 76
     0
330
23
  0
MATERIAL
  5
27D
102
{ACAD_REACTORS
330
C4
102
}
330
C4
100
AcDbMaterial
  1
ByBlock
 73
     1
 78
     1
172
     1
176
     1
270
     1
274
     1
 94
       63
  0
MATERIAL
  5
27C
102
{ACAD_REACTORS
330
C4
102
}
330
C4
100
AcDbMaterial
  1
ByLayer
 73
     1
 78
     1
172
     1
176
     1
270
     1
274
     1
 94
       63
  0
MATERIAL
  5
27E
102
{ACAD_REACTORS
330
C4
102
}
330
C4
100
AcDbMaterial
  1
Global
 73
     1
 78
     1
172
     1
176
     1
270
     1
274
     1
 94
       63
  0
MLEADERSTYLE
  5
2D6
102
{ACAD_REACTORS
330
2D5
102
}
330
2D5
100
AcDbMLeaderStyle
170
     2
171
     1
172
     0
 90
        2
 40
0.0
 41
0.0
173
     1
 91
-1056964608
340
14
 92
       -2
290
     1
 42
2.0
291
     1
 43
0.36
  3
Standard
 44
4.0
300

342
11
174
     1
178
     6
175
     1
176
     0
 93
-1056964608
 45
4.0
292
     0
297
     0
 46
4.0
 94
-1056964608
 47
1.0
 49
1.0
140
1.0
293
     1
141
0.0
294
     1
177
     0
142
1.0
295
     0
296
     0
143
0.125
1001
ACAD_MLEADERVER
1070
     2
  0
MLINESTYLE
  5
18
102
{ACAD_REACTORS
330
17
102
}
330
17
100
AcDbMlineStyle
  2
STANDARD
 70
     0
  3

 62
   256
 51
90.0
 52
90.0
 71
     2
 49
0.5
 62
   256
  6
BYLAYER
 49
-0.5
 62
   256
  6
BYLAYER
  0
PLOTSETTINGS
  5
1C7E
102
{ACAD_REACTORS
330
19
102
}
330
19
100
AcDbPlotSettings
  1
SEISA基本
  2
none_device
  4
Letter_(8.50_x_11.00_Inches)
  6

 40
6.349999904632567
 41
6.349999904632567
 42
6.350006103515625
 43
6.350006103515625
 44
215.8999938964844
 45
279.3999938964844
 46
7.302498226506357
 47
0.0
 48
0.0
 49
0.0
140
0.0
141
0.0
142
1.0
143
1.574803221122935
 70
 11956
 72
     1
 73
     1
 74
     2
  7
SEISA.ctb
 75
     0
147
0.6349999711627054
 76
     0
 77
     2
 78
   300
148
0.0
149
0.0
1001
ACAD_PSEXT
1000
なし
1000
なし
1000
適切ではありません
1000
新しいプロッタ環境設定名を選択しない限り、レイアウトは印刷されません。
1070
     0
  0
ACDBPLACEHOLDER
  5
F
102
{ACAD_REACTORS
330
E
102
}
330
E
  0
SCALE
  5
6D53
102
{ACAD_REACTORS
330
2B3
102
}
330
2B3
100
AcDbScale
 70
     0
300
1:1.5
140
1.0
141
1.5
290
     0
  0
SCALE
  5
2B4
102
{ACAD_REACTORS
330
2B3
102
}
330
2B3
100
AcDbScale
 70
     0
300
1:1
140
1.0
141
1.0
290
     1
  0
SCALE
  5
2B5
102
{ACAD_REACTORS
330
2B3
102
}
330
2B3
100
AcDbScale
 70
     0
300
1:2
140
1.0
141
2.0
290
     0
  0
SCALE
  5
2B6
102
{ACAD_REACTORS
330
2B3
102
}
330
2B3
100
AcDbScale
 70
     0
300
1:4
140
1.0
141
4.0
290
     0
  0
SCALE
  5
2B7
102
{ACAD_REACTORS
330
2B3
102
}
330
2B3
100
AcDbScale
 70
     0
300
1:5
140
1.0
141
5.0
290
     0
  0
SCALE
  5
2B8
102
{ACAD_REACTORS
330
2B3
102
}
330
2B3
100
AcDbScale
 70
     0
300
1:8
140
1.0
141
8.0
290
     0
  0
SCALE
  5
2B9
102
{ACAD_REACTORS
330
2B3
102
}
330
2B3
100
AcDbScale
 70
     0
300
1:10
140
1.0
141
10.0
290
     0
  0
SCALE
  5
2BA
102
{ACAD_REACTORS
330
2B3
102
}
330
2B3
100
AcDbScale
 70
     0
300
1:16
140
1.0
141
16.0
290
     0
  0
SCALE
  5
2BB
102
{ACAD_REACTORS
330
2B3
102
}
330
2B3
100
AcDbScale
 70
     0
300
1:20
140
1.0
141
20.0
290
     0
  0
SCALE
  5
2BC
102
{ACAD_REACTORS
330
2B3
102
}
330
2B3
100
AcDbScale
 70
     0
300
1:30
140
1.0
141
30.0
290
     0
  0
SCALE
  5
2BD
102
{ACAD_REACTORS
330
2B3
102
}
330
2B3
100
AcDbScale
 70
     0
300
1:40
140
1.0
141
40.0
290
     0
  0
SCALE
  5
2BE
102
{ACAD_REACTORS
330
2B3
102
}
330
2B3
100
AcDbScale
 70
     0
300
1:50
140
1.0
141
50.0
290
     0
  0
SCALE
  5
2BF
102
{ACAD_REACTORS
330
2B3
102
}
330
2B3
100
AcDbScale
 70
     0
300
1:100
140
1.0
141
100.0
290
     0
  0
SCALE
  5
2C0
102
{ACAD_REACTORS
330
2B3
102
}
330
2B3
100
AcDbScale
 70
     0
300
2:1
140
2.0
141
1.0
290
     0
  0
SCALE
  5
2C1
102
{ACAD_REACTORS
330
2B3
102
}
330
2B3
100
AcDbScale
 70
     0
300
4:1
140
4.0
141
1.0
290
     0
  0
SCALE
  5
2C2
102
{ACAD_REACTORS
330
2B3
102
}
330
2B3
100
AcDbScale
 70
     0
300
8:1
140
8.0
141
1.0
290
     0
  0
SCALE
  5
2C3
102
{ACAD_REACTORS
330
2B3
102
}
330
2B3
100
AcDbScale
 70
     0
300
10:1
140
10.0
141
1.0
290
     0
  0
SCALE
  5
2C4
102
{ACAD_REACTORS
330
2B3
102
}
330
2B3
100
AcDbScale
 70
     0
300
100:1
140
100.0
141
1.0
290
     0
  0
SCALE
  5
2C5
102
{ACAD_REACTORS
330
2B3
102
}
330
2B3
100
AcDbScale
 70
     0
300
1/128" = 1'-0"
140
0.0078125
141
12.0
290
     0
  0
SCALE
  5
2C6
102
{ACAD_REACTORS
330
2B3
102
}
330
2B3
100
AcDbScale
 70
     0
300
1/64" = 1'-0"
140
0.015625
141
12.0
290
     0
  0
SCALE
  5
2C7
102
{ACAD_REACTORS
330
2B3
102
}
330
2B3
100
AcDbScale
 70
     0
300
1/32" = 1'-0"
140
0.03125
141
12.0
290
     0
  0
SCALE
  5
2C8
102
{ACAD_REACTORS
330
2B3
102
}
330
2B3
100
AcDbScale
 70
     0
300
1/16" = 1'-0"
140
0.0625
141
12.0
290
     0
  0
SCALE
  5
2C9
102
{ACAD_REACTORS
330
2B3
102
}
330
2B3
100
AcDbScale
 70
     0
300
3/32" = 1'-0"
140
0.09375
141
12.0
290
     0
  0
SCALE
  5
2CA
102
{ACAD_REACTORS
330
2B3
102
}
330
2B3
100
AcDbScale
 70
     0
300
1/8" = 1'-0"
140
0.125
141
12.0
290
     0
  0
SCALE
  5
2CB
102
{ACAD_REACTORS
330
2B3
102
}
330
2B3
100
AcDbScale
 70
     0
300
3/16" = 1'-0"
140
0.1875
141
12.0
290
     0
  0
SCALE
  5
2CC
102
{ACAD_REACTORS
330
2B3
102
}
330
2B3
100
AcDbScale
 70
     0
300
1/4" = 1'-0"
140
0.25
141
12.0
290
     0
  0
SCALE
  5
2CD
102
{ACAD_REACTORS
330
2B3
102
}
330
2B3
100
AcDbScale
 70
     0
300
3/8" = 1'-0"
140
0.375
141
12.0
290
     0
  0
SCALE
  5
2CE
102
{ACAD_REACTORS
330
2B3
102
}
330
2B3
100
AcDbScale
 70
     0
300
1/2" = 1'-0"
140
0.5
141
12.0
290
     0
  0
SCALE
  5
2CF
102
{ACAD_REACTORS
330
2B3
102
}
330
2B3
100
AcDbScale
 70
     0
300
3/4" = 1'-0"
140
0.75
141
12.0
290
     0
  0
SCALE
  5
2D0
102
{ACAD_REACTORS
330
2B3
102
}
330
2B3
100
AcDbScale
 70
     0
300
1" = 1'-0"
140
1.0
141
12.0
290
     0
  0
SCALE
  5
2D1
102
{ACAD_REACTORS
330
2B3
102
}
330
2B3
100
AcDbScale
 70
     0
300
1-1/2" = 1'-0"
140
1.5
141
12.0
290
     0
  0
SCALE
  5
2D2
102
{ACAD_REACTORS
330
2B3
102
}
330
2B3
100
AcDbScale
 70
     0
300
3" = 1'-0"
140
3.0
141
12.0
290
     0
  0
SCALE
  5
2D3
102
{ACAD_REACTORS
330
2B3
102
}
330
2B3
100
AcDbScale
 70
     0
300
6" = 1'-0"
140
6.0
141
12.0
290
     0
  0
SCALE
  5
2D4
102
{ACAD_REACTORS
330
2B3
102
}
330
2B3
100
AcDbScale
 70
     0
300
1'-0" = 1'-0"
140
12.0
141
12.0
290
     0
  0
TABLESTYLE
  5
122
102
{ACAD_XDICTIONARY
360
2F5
102
}
102
{ACAD_REACTORS
330
121
102
}
330
121
100
AcDbTableStyle
  3
Standard
 70
     0
 71
     0
 40
1.5
 41
1.5
280
     0
281
     0
  7
STANDARD
140
4.5
170
     2
 62
     0
 63
     7
283
     0
 90
      512
 91
        0
  1

274
    -2
284
     1
 64
     0
275
    -2
285
     1
 65
     0
276
    -2
286
     1
 66
     0
277
    -2
287
     1
 67
     0
278
    -2
288
     1
 68
     0
279
    -2
289
     1
 69
     0
  7
STANDARD
140
6.0
170
     5
 62
     0
 63
     7
283
     0
 90
      512
 91
        0
  1

274
    -2
284
     1
 64
     0
275
    -2
285
     1
 65
     0
276
    -2
286
     1
 66
     0
277
    -2
287
     1
 67
     0
278
    -2
288
     1
 68
     0
279
    -2
289
     1
 69
     0
  7
STANDARD
140
4.5
170
     5
 62
     0
 63
     7
283
     0
 90
      512
 91
        0
  1

274
    -2
284
     1
 64
     0
275
    -2
285
     1
 65
     0
276
    -2
286
     1
 66
     0
277
    -2
287
     1
 67
     0
278
    -2
288
     1
 68
     0
279
    -2
289
     1
 69
     0
  0
VISUALSTYLE
  5
285
102
{ACAD_REACTORS
330
27F
102
}
330
27F
100
AcDbVisualStyle
  2
2dWireframe
 70
     4
 71
     0
 72
     2
 73
     0
 90
        0
 40
-0.6
 41
-30.0
 62
     5
 63
     7
421
 16777215
 74
     1
 91
        4
 64
     7
 65
   257
 75
     1
175
     1
 42
1.0
 92
        0
 66
   257
 43
1.0
 76
     1
 77
     6
 78
     2
 67
     7
 79
     5
170
     0
171
     0
290
     0
174
     0
 93
        1
 44
0.0
173
     0
291
     0
 45
0.0
  0
VISUALSTYLE
  5
287
102
{ACAD_REACTORS
330
27F
102
}
330
27F
100
AcDbVisualStyle
  2
3D Hidden
 70
     6
 71
     1
 72
     2
 73
     2
 90
        0
 40
-0.6
 41
-30.0
 62
     5
 63
     7
421
 16777215
 74
     2
 91
        2
 64
     7
 65
   257
 75
     2
175
     1
 42
40.0
 92
        0
 66
   257
 43
1.0
 76
     1
 77
     6
 78
     2
 67
     7
 79
     3
170
     0
171
     0
290
     0
174
     0
 93
        1
 44
0.0
173
     0
291
     0
 45
0.0
  0
VISUALSTYLE
  5
286
102
{ACAD_REACTORS
330
27F
102
}
330
27F
100
AcDbVisualStyle
  2
3dWireframe
 70
     5
 71
     0
 72
     2
 73
     0
 90
        0
 40
-0.6
 41
-30.0
 62
     5
 63
     7
421
 16777215
 74
     1
 91
        4
 64
     7
 65
   257
 75
     1
175
     1
 42
1.0
 92
        0
 66
   257
 43
1.0
 76
     1
 77
     6
 78
     2
 67
     7
 79
     5
170
     0
171
     0
290
     0
174
     0
 93
        1
 44
0.0
173
     0
291
     0
 45
0.0
  0
VISUALSTYLE
  5
284
102
{ACAD_REACTORS
330
27F
102
}
330
27F
100
AcDbVisualStyle
  2
Basic
 70
     7
 71
     1
 72
     0
 73
     1
 90
        0
 40
-0.6
 41
-30.0
 62
     5
 63
     7
421
 16777215
 74
     0
 91
        4
 64
     7
 65
   257
 75
     1
175
     1
 42
1.0
 92
        8
 66
     7
 43
1.0
 76
     1
 77
     6
 78
     2
 67
     7
 79
     5
170
     0
171
     0
290
     0
174
     0
 93
        1
 44
0.0
173
     0
291
     1
 45
0.0
  0
VISUALSTYLE
  5
28B
102
{ACAD_REACTORS
330
27F
102
}
330
27F
100
AcDbVisualStyle
  2
Brighten
 70
    12
 71
     2
 72
     2
 73
     0
 90
        0
 40
-0.6
 41
-30.0
 62
     5
 63
     7
421
 16777215
 74
     1
 91
        4
 64
     7
 65
   257
 75
     1
175
     1
 42
1.0
 92
        8
 66
     7
 43
1.0
 76
     1
 77
     6
 78
     2
 67
     7
 79
     5
170
     0
171
     0
290
     0
174
     0
 93
        1
 44
50.0
173
     0
291
     1
 45
0.0
  0
VISUALSTYLE
  5
28F
102
{ACAD_REACTORS
330
27F
102
}
330
27F
100
AcDbVisualStyle
  2
ColorChange
 70
    16
 71
     2
 72
     2
 73
     3
 90
        0
 40
-0.6
 41
-30.0
 62
     5
 63
     8
421
  8421504
 74
     1
 91
        4
 64
     7
 65
   257
 75
     1
175
     1
 42
1.0
 92
        8
 66
     8
424
  8421504
 43
1.0
 76
     1
 77
     6
 78
     2
 67
     7
 79
     5
170
     0
171
     0
290
     0
174
     0
 93
        1
 44
0.0
173
     0
291
     1
 45
0.0
  0
VISUALSTYLE
  5
288
102
{ACAD_REACTORS
330
27F
102
}
330
27F
100
AcDbVisualStyle
  2
Conceptual
 70
     9
 71
     3
 72
     2
 73
     0
 90
        0
 40
-0.6
 41
-30.0
 62
     5
 63
     7
421
 16777215
 74
     2
 91
        2
 64
     7
 65
   257
 75
     1
175
     1
 42
40.0
 92
        8
 66
     7
 43
1.0
 76
     1
 77
     6
 78
     2
 67
     7
 79
     3
170
     0
171
     0
290
     0
174
     0
 93
        1
 44
0.0
173
     0
291
     0
 45
0.0
  0
VISUALSTYLE
  5
28A
102
{ACAD_REACTORS
330
27F
102
}
330
27F
100
AcDbVisualStyle
  2
Dim
 70
    11
 71
     2
 72
     2
 73
     0
 90
        0
 40
-0.6
 41
-30.0
 62
     5
 63
     7
421
 16777215
 74
     1
 91
        4
 64
     7
 65
   257
 75
     1
175
     1
 42
1.0
 92
        8
 66
     7
 43
1.0
 76
     1
 77
     6
 78
     2
 67
     7
 79
     5
170
     0
171
     0
290
     0
174
     0
 93
        1
 44
-50.0
173
     0
291
     1
 45
0.0
  0
VISUALSTYLE
  5
28E
102
{ACAD_REACTORS
330
27F
102
}
330
27F
100
AcDbVisualStyle
  2
Facepattern
 70
    15
 71
     2
 72
     2
 73
     0
 90
        0
 40
-0.6
 41
-30.0
 62
     5
 63
     7
421
 16777215
 74
     1
 91
        4
 64
     7
 65
   257
 75
     1
175
     1
 42
1.0
 92
        8
 66
     7
 43
1.0
 76
     1
 77
     6
 78
     2
 67
     7
 79
     5
170
     0
171
     0
290
     0
174
     0
 93
        1
 44
0.0
173
     0
291
     1
 45
0.0
  0
VISUALSTYLE
  5
280
102
{ACAD_REACTORS
330
27F
102
}
330
27F
100
AcDbVisualStyle
  2
Flat
 70
     0
 71
     2
 72
     1
 73
     1
 90
        2
 40
-0.6
 41
30.0
 62
     5
 63
     7
421
 16777215
 74
     0
 91
        4
 64
     7
 65
   257
 75
     1
175
     1
 42
1.0
 92
        8
 66
     7
 43
1.0
 76
     1
 77
     6
 78
     2
 67
     7
 79
     5
170
     0
171
     0
290
     0
174
     0
 93
       13
 44
0.0
173
     0
291
     1
 45
0.0
  0
VISUALSTYLE
  5
281
102
{ACAD_REACTORS
330
27F
102
}
330
27F
100
AcDbVisualStyle
  2
FlatWithEdges
 70
     1
 71
     2
 72
     1
 73
     1
 90
        2
 40
-0.6
 41
30.0
 62
     5
 63
     7
421
 16777215
 74
     1
 91
        4
 64
     7
 65
   257
 75
     1
175
     1
 42
1.0
 92
        0
 66
   257
 43
1.0
 76
     1
 77
     6
 78
     2
 67
     7
 79
     5
170
     0
171
     0
290
     0
174
     0
 93
       13
 44
0.0
173
     0
291
     1
 45
0.0
  0
VISUALSTYLE
  5
282
102
{ACAD_REACTORS
330
27F
102
}
330
27F
100
AcDbVisualStyle
  2
Gouraud
 70
     2
 71
     2
 72
     2
 73
     1
 90
        2
 40
-0.6
 41
30.0
 62
     5
 63
     7
421
 16777215
 74
     0
 91
        4
 64
     7
 65
   257
 75
     1
175
     1
 42
1.0
 92
        0
 66
     7
 43
1.0
 76
     1
 77
     6
 78
     2
 67
     7
 79
     5
170
     0
171
     0
290
     0
174
     0
 93
       13
 44
0.0
173
     0
291
     1
 45
0.0
  0
VISUALSTYLE
  5
283
102
{ACAD_REACTORS
330
27F
102
}
330
27F
100
AcDbVisualStyle
  2
GouraudWithEdges
 70
     3
 71
     2
 72
     2
 73
     1
 90
        2
 40
-0.6
 41
30.0
 62
     5
 63
     7
421
 16777215
 74
     1
 91
        4
 64
     7
 65
   257
 75
     1
175
     1
 42
1.0
 92
        0
 66
   257
 43
1.0
 76
     1
 77
     6
 78
     2
 67
     7
 79
     5
170
     0
171
     0
290
     0
174
     0
 93
       13
 44
0.0
173
     0
291
     1
 45
0.0
  0
VISUALSTYLE
  5
28D
102
{ACAD_REACTORS
330
27F
102
}
330
27F
100
AcDbVisualStyle
  2
Linepattern
 70
    14
 71
     2
 72
     2
 73
     0
 90
        0
 40
-0.6
 41
-30.0
 62
     5
 63
     7
421
 16777215
 74
     1
 91
        4
 64
     7
 65
   257
 75
     7
175
     7
 42
1.0
 92
        8
 66
     7
 43
1.0
 76
     1
 77
     6
 78
     2
 67
     7
 79
     5
170
     0
171
     0
290
     0
174
     0
 93
        1
 44
0.0
173
     0
291
     1
 45
0.0
  0
VISUALSTYLE
  5
289
102
{ACAD_REACTORS
330
27F
102
}
330
27F
100
AcDbVisualStyle
  2
Realistic
 70
     8
 71
     2
 72
     2
 73
     0
 90
        0
 40
-0.6
 41
-30.0
 62
     5
 63
     7
421
 16777215
 74
     1
 91
        0
 64
     7
 65
   257
 75
     1
175
     1
 42
1.0
 92
        8
 66
     8
424
  7895160
 43
1.0
 76
     1
 77
     6
 78
     2
 67
     7
 79
     5
170
     0
171
     0
290
     0
174
     0
 93
       13
 44
0.0
173
     0
291
     0
 45
0.0
  0
VISUALSTYLE
  5
28C
102
{ACAD_REACTORS
330
27F
102
}
330
27F
100
AcDbVisualStyle
  2
Thicken
 70
    13
 71
     2
 72
     2
 73
     0
 90
        0
 40
-0.6
 41
-30.0
 62
     5
 63
     7
421
 16777215
 74
     1
 91
        4
 64
     7
 65
   257
 75
     1
175
     1
 42
1.0
 92
       12
 66
     7
 43
1.0
 76
     1
 77
     6
 78
     2
 67
     7
 79
     5
170
     0
171
     0
290
     0
174
     0
 93
        1
 44
0.0
173
     0
291
     1
 45
0.0
  0
DICTIONARYVAR
  5
2FA
102
{ACAD_REACTORS
330
34
102
}
330
34
100
DictionaryVariables
280
     0
  1
1:1
  0
DICTIONARYVAR
  5
2F8
102
{ACAD_REACTORS
330
34
102
}
330
34
100
DictionaryVariables
280
     0
  1
STANDARD
  0
DICTIONARYVAR
  5
140
102
{ACAD_REACTORS
330
34
102
}
330
34
100
DictionaryVariables
280
     0
  1
STANDARD
  0
DICTIONARYVAR
  5
AC
102
{ACAD_REACTORS
330
34
102
}
330
34
100
DictionaryVariables
280
     0
  1
1
  0
DICTIONARYVAR
  5
35
102
{ACAD_REACTORS
330
34
102
}
330
34
100
DictionaryVariables
280
     0
  1
1
  0
DICTIONARYVAR
  5
464F
102
{ACAD_REACTORS
330
34
102
}
330
34
100
DictionaryVariables
280
     0
  1
1
  0
DICTIONARYVAR
  5
4650
102
{ACAD_REACTORS
330
34
102
}
330
34
100
DictionaryVariables
280
     0
  1
15
  0
DICTIONARYVAR
  5
2FB
102
{ACAD_REACTORS
330
34
102
}
330
34
100
DictionaryVariables
280
     0
  1
0
  0
DICTIONARYVAR
  5
2F9
102
{ACAD_REACTORS
330
34
102
}
330
34
100
DictionaryVariables
280
     0
  1
0
  0
DICTIONARY
  5
161B
102
{ACAD_REACTORS
330
49
102
}
330
49
100
AcDbDictionary
281
     1
  0
DICTIONARY
  5
4A
102
{ACAD_REACTORS
330
49
102
}
330
49
100
AcDbDictionary
281
     1
  0
XRECORD
  5
12B
102
{ACAD_REACTORS
330
49
102
}
330
49
100
AcDbXrecord
280
     1
 90
-1023410169
  0
DICTIONARY
  5
2F5
330
122
100
AcDbDictionary
280
     1
281
     1
  3
ACAD_ROUNDTRIP_2008_TABLESTYLE_CELLSTYLEMAP
360
7218
  0
CELLSTYLEMAP
  5
7218
102
{ACAD_REACTORS
330
2F5
102
}
330
2F5
100
AcDbCellStyleMap
 90
        3
300
CELLSTYLE
  1
TABLEFORMAT_BEGIN
 90
        5
170
     1
 91
        0
 92
    32768
 62
   257
 93
        1
300
CONTENTFORMAT
  1
CONTENTFORMAT_BEGIN
 90
        0
 91
        0
 92
      512
 93
        0
300

 40
0.0
140
1.0
 94
        5
 62
     0
340
11
144
6.0
309
CONTENTFORMAT_END
171
     1
301
MARGIN
  1
CELLMARGIN_BEGIN
 40
1.5
 40
1.5
 40
1.5
 40
1.5
 40
0.18
 40
0.18
309
CELLMARGIN_END
 94
        6
 95
        1
302
GRIDFORMAT
  1
GRIDFORMAT_BEGIN
 90
        0
 91
        1
 62
     0
 92
       -2
340
0
 93
        0
 40
0.045
309
GRIDFORMAT_END
 95
        2
302
GRIDFORMAT
  1
GRIDFORMAT_BEGIN
 90
        0
 91
        1
 62
     0
 92
       -2
340
0
 93
        0
 40
0.045
309
GRIDFORMAT_END
 95
        4
302
GRIDFORMAT
  1
GRIDFORMAT_BEGIN
 90
        0
 91
        1
 62
     0
 92
       -2
340
0
 93
        0
 40
0.045
309
GRIDFORMAT_END
 95
        8
302
GRIDFORMAT
  1
GRIDFORMAT_BEGIN
 90
        0
 91
        1
 62
     0
 92
       -2
340
0
 93
        0
 40
0.045
309
GRIDFORMAT_END
 95
       16
302
GRIDFORMAT
  1
GRIDFORMAT_BEGIN
 90
        0
 91
        1
 62
     0
 92
       -2
340
0
 93
        0
 40
0.045
309
GRIDFORMAT_END
 95
       32
302
GRIDFORMAT
  1
GRIDFORMAT_BEGIN
 90
        0
 91
        1
 62
     0
 92
       -2
340
0
 93
        0
 40
0.045
309
GRIDFORMAT_END
309
TABLEFORMAT_END
  1
CELLSTYLE_BEGIN
 90
        1
 91
        1
300
_TITLE
309
CELLSTYLE_END
300
CELLSTYLE
  1
TABLEFORMAT_BEGIN
 90
        5
170
     1
 91
        0
 92
        0
 62
   257
 93
        1
300
CONTENTFORMAT
  1
CONTENTFORMAT_BEGIN
 90
        0
 91
        0
 92
      512
 93
        0
300

 40
0.0
140
1.0
 94
        5
 62
     0
340
11
144
4.5
309
CONTENTFORMAT_END
171
     1
301
MARGIN
  1
CELLMARGIN_BEGIN
 40
1.5
 40
1.5
 40
1.5
 40
1.5
 40
0.18
 40
0.18
309
CELLMARGIN_END
 94
        6
 95
        1
302
GRIDFORMAT
  1
GRIDFORMAT_BEGIN
 90
        0
 91
        1
 62
     0
 92
       -2
340
0
 93
        0
 40
0.045
309
GRIDFORMAT_END
 95
        2
302
GRIDFORMAT
  1
GRIDFORMAT_BEGIN
 90
        0
 91
        1
 62
     0
 92
       -2
340
0
 93
        0
 40
0.045
309
GRIDFORMAT_END
 95
        4
302
GRIDFORMAT
  1
GRIDFORMAT_BEGIN
 90
        0
 91
        1
 62
     0
 92
       -2
340
0
 93
        0
 40
0.045
309
GRIDFORMAT_END
 95
        8
302
GRIDFORMAT
  1
GRIDFORMAT_BEGIN
 90
        0
 91
        1
 62
     0
 92
       -2
340
0
 93
        0
 40
0.045
309
GRIDFORMAT_END
 95
       16
302
GRIDFORMAT
  1
GRIDFORMAT_BEGIN
 90
        0
 91
        1
 62
     0
 92
       -2
340
0
 93
        0
 40
0.045
309
GRIDFORMAT_END
 95
       32
302
GRIDFORMAT
  1
GRIDFORMAT_BEGIN
 90
        0
 91
        1
 62
     0
 92
       -2
340
0
 93
        0
 40
0.045
309
GRIDFORMAT_END
309
TABLEFORMAT_END
  1
CELLSTYLE_BEGIN
 90
        2
 91
        1
300
_HEADER
309
CELLSTYLE_END
300
CELLSTYLE
  1
TABLEFORMAT_BEGIN
 90
        5
170
     1
 91
        0
 92
        0
 62
   257
 93
        1
300
CONTENTFORMAT
  1
CONTENTFORMAT_BEGIN
 90
        0
 91
        0
 92
      512
 93
        0
300

 40
0.0
140
1.0
 94
        2
 62
     0
340
11
144
4.5
309
CONTENTFORMAT_END
171
     1
301
MARGIN
  1
CELLMARGIN_BEGIN
 40
1.5
 40
1.5
 40
1.5
 40
1.5
 40
0.18
 40
0.18
309
CELLMARGIN_END
 94
        6
 95
        1
302
GRIDFORMAT
  1
GRIDFORMAT_BEGIN
 90
        0
 91
        1
 62
     0
 92
       -2
340
0
 93
        0
 40
0.045
309
GRIDFORMAT_END
 95
        2
302
GRIDFORMAT
  1
GRIDFORMAT_BEGIN
 90
        0
 91
        1
 62
     0
 92
       -2
340
0
 93
        0
 40
0.045
309
GRIDFORMAT_END
 95
        4
302
GRIDFORMAT
  1
GRIDFORMAT_BEGIN
 90
        0
 91
        1
 62
     0
 92
       -2
340
0
 93
        0
 40
0.045
309
GRIDFORMAT_END
 95
        8
302
GRIDFORMAT
  1
GRIDFORMAT_BEGIN
 90
        0
 91
        1
 62
     0
 92
       -2
340
0
 93
        0
 40
0.045
309
GRIDFORMAT_END
 95
       16
302
GRIDFORMAT
  1
GRIDFORMAT_BEGIN
 90
        0
 91
        1
 62
     0
 92
       -2
340
0
 93
        0
 40
0.045
309
GRIDFORMAT_END
 95
       32
302
GRIDFORMAT
  1
GRIDFORMAT_BEGIN
 90
        0
 91
        1
 62
     0
 92
       -2
340
0
 93
        0
 40
0.045
309
GRIDFORMAT_END
309
TABLEFORMAT_END
  1
CELLSTYLE_BEGIN
 90
        3
 91
        2
300
_DATA
309
CELLSTYLE_END
  0
ENDSEC
  0
EOF
