  0
SECTION
  2
HEADER
  9
$ACADVER
  1
AC1021
  9
$ACADMAINTVER
 70
    26
  9
$DWGCODEPAGE
  3
ANSI_932
  9
$LASTSAVEDBY
  1
Htm_Terada
  9
$CUSTOMPROPERTYTAG
  1
AmdtFileType
  9
$CUSTOMPROPERTY
  1
84
  9
$INSBASE
 10
0.0
 20
0.0
 30
0.0
  9
$EXTMIN
 10
726.8990668986767
 20
708.4886722576895
 30
0.0
  9
$EXTMAX
 10
1615.703958230979
 20
1324.538037132689
 30
0.0
  9
$LIMMIN
 10
0.0000009571692772
 20
0.0000018469103225
  9
$LIMMAX
 10
2100.000000957169
 20
1485.00000184691
  9
$ORTHOMODE
 70
     1
  9
$REGENMODE
 70
     1
  9
$FILLMODE
 70
     1
  9
$QTEXTMODE
 70
     0
  9
$MIRRTEXT
 70
     1
  9
$LTSCALE
 40
5.0
  9
$ATTMODE
 70
     1
  9
$TEXTSIZE
 40
25.0
  9
$TRACEWID
 40
1.0
  9
$TEXTSTYLE
  7
SEISA
  9
$CLAYER
  8
AM_11 想像線
  9
$CELTYPE
  6
ByLayer
  9
$CECOLOR
 62
   256
  9
$CELTSCALE
 40
1.0
  9
$DISPSILH
 70
     0
  9
$DIMSCALE
 40
5.0
  9
$DIMASZ
 40
2.5
  9
$DIMEXO
 40
0.625
  9
$DIMDLI
 40
10.0
  9
$DIMRND
 40
0.0
  9
$DIMDLE
 40
0.0
  9
$DIMEXE
 40
0.625
  9
$DIMTP
 40
0.1
  9
$DIMTM
 40
0.1
  9
$DIMTXT
 40
3.5
  9
$DIMCEN
 40
0.0
  9
$DIMTSZ
 40
0.0
  9
$DIMTOL
 70
     0
  9
$DIMLIM
 70
     0
  9
$DIMTIH
 70
     0
  9
$DIMTOH
 70
     0
  9
$DIMSE1
 70
     0
  9
$DIMSE2
 70
     0
  9
$DIMTAD
 70
     3
  9
$DIMZIN
 70
     8
  9
$DIMBLK
  1
Open30
  9
$DIMASO
 70
     1
  9
$DIMSHO
 70
     1
  9
$DIMPOST
  1

  9
$DIMAPOST
  1
"
  9
$DIMALT
 70
     0
  9
$DIMALTD
 70
     2
  9
$DIMALTF
 40
0.0393701
  9
$DIMLFAC
 40
1.0
  9
$DIMTOFL
 70
     1
  9
$DIMTVP
 40
0.0
  9
$DIMTIX
 70
     0
  9
$DIMSOXD
 70
     0
  9
$DIMSAH
 70
     0
  9
$DIMBLK1
  1

  9
$DIMBLK2
  1

  9
$DIMSTYLE
  2
SEISA
  9
$DIMCLRD
 70
     3
  9
$DIMCLRE
 70
     3
  9
$DIMCLRT
 70
     3
  9
$DIMTFAC
 40
0.71
  9
$DIMGAP
 40
1.5
  9
$DIMJUST
 70
     0
  9
$DIMSD1
 70
     0
  9
$DIMSD2
 70
     0
  9
$DIMTOLJ
 70
     0
  9
$DIMTZIN
 70
     0
  9
$DIMALTZ
 70
     0
  9
$DIMALTTZ
 70
     8
  9
$DIMUPT
 70
     0
  9
$DIMDEC
 70
     2
  9
$DIMTDEC
 70
     2
  9
$DIMALTU
 70
     2
  9
$DIMALTTD
 70
     2
  9
$DIMTXSTY
  7
SEISA
  9
$DIMAUNIT
 70
     0
  9
$DIMADEC
 70
     0
  9
$DIMALTRND
 40
0.0
  9
$DIMAZIN
 70
     2
  9
$DIMDSEP
 70
    46
  9
$DIMATFIT
 70
     3
  9
$DIMFRAC
 70
     0
  9
$DIMLDRBLK
  1
Open30
  9
$DIMLUNIT
 70
     2
  9
$DIMLWD
 70
    -1
  9
$DIMLWE
 70
    -1
  9
$DIMTMOVE
 70
     0
  9
$DIMFXL
 40
1.0
  9
$DIMFXLON
 70
     0
  9
$DIMJOGANG
 40
0.7853981633974483
  9
$DIMTFILL
 70
     0
  9
$DIMTFILLCLR
 70
     0
  9
$DIMARCSYM
 70
     1
  9
$DIMLTYPE
  6

  9
$DIMLTEX1
  6

  9
$DIMLTEX2
  6

  9
$LUNITS
 70
     2
  9
$LUPREC
 70
     2
  9
$SKETCHINC
 40
1.0
  9
$FILLETRAD
 40
12.5
  9
$AUNITS
 70
     0
  9
$AUPREC
 70
     0
  9
$MENU
  1
.
  9
$ELEVATION
 40
0.0
  9
$PELEVATION
 40
0.0
  9
$THICKNESS
 40
0.0
  9
$LIMCHECK
 70
     0
  9
$CHAMFERA
 40
4.999999999999771
  9
$CHAMFERB
 40
5.000000000000113
  9
$CHAMFERC
 40
4.999999999999771
  9
$CHAMFERD
 40
0.7853981633973801
  9
$SKPOLY
 70
     0
  9
$TDCREATE
 40
2454914.526446412
  9
$TDUCREATE
 40
2454914.151446412
  9
$TDUPDATE
 40
2456478.706464653
  9
$TDUUPDATE
 40
2456478.331464653
  9
$TDINDWG
 40
0.4071491782
  9
$TDUSRTIMER
 40
0.4071482755
  9
$USRTIMER
 70
     1
  9
$ANGBASE
 50
0.0
  9
$ANGDIR
 70
     0
  9
$PDMODE
 70
     0
  9
$PDSIZE
 40
0.0
  9
$PLINEWID
 40
0.0
  9
$SPLFRAME
 70
     0
  9
$SPLINETYPE
 70
     6
  9
$SPLINESEGS
 70
     8
  9
$HANDSEED
  5
6C75
  9
$SURFTAB1
 70
     6
  9
$SURFTAB2
 70
     6
  9
$SURFTYPE
 70
     6
  9
$SURFU
 70
     6
  9
$SURFV
 70
     6
  9
$UCSBASE
  2

  9
$UCSNAME
  2

  9
$UCSORG
 10
0.0
 20
0.0
 30
0.0
  9
$UCSXDIR
 10
1.0
 20
0.0
 30
0.0
  9
$UCSYDIR
 10
0.0
 20
1.0
 30
0.0
  9
$UCSORTHOREF
  2

  9
$UCSORTHOVIEW
 70
     0
  9
$UCSORGTOP
 10
0.0
 20
0.0
 30
0.0
  9
$UCSORGBOTTOM
 10
0.0
 20
0.0
 30
0.0
  9
$UCSORGLEFT
 10
0.0
 20
0.0
 30
0.0
  9
$UCSORGRIGHT
 10
0.0
 20
0.0
 30
0.0
  9
$UCSORGFRONT
 10
0.0
 20
0.0
 30
0.0
  9
$UCSORGBACK
 10
0.0
 20
0.0
 30
0.0
  9
$PUCSBASE
  2

  9
$PUCSNAME
  2

  9
$PUCSORG
 10
0.0
 20
0.0
 30
0.0
  9
$PUCSXDIR
 10
1.0
 20
0.0
 30
0.0
  9
$PUCSYDIR
 10
0.0
 20
1.0
 30
0.0
  9
$PUCSORTHOREF
  2

  9
$PUCSORTHOVIEW
 70
     0
  9
$PUCSORGTOP
 10
0.0
 20
0.0
 30
0.0
  9
$PUCSORGBOTTOM
 10
0.0
 20
0.0
 30
0.0
  9
$PUCSORGLEFT
 10
0.0
 20
0.0
 30
0.0
  9
$PUCSORGRIGHT
 10
0.0
 20
0.0
 30
0.0
  9
$PUCSORGFRONT
 10
0.0
 20
0.0
 30
0.0
  9
$PUCSORGBACK
 10
0.0
 20
0.0
 30
0.0
  9
$USERI1
 70
     0
  9
$USERI2
 70
     0
  9
$USERI3
 70
     0
  9
$USERI4
 70
     0
  9
$USERI5
 70
     0
  9
$USERR1
 40
0.0
  9
$USERR2
 40
0.0
  9
$USERR3
 40
0.0
  9
$USERR4
 40
0.0
  9
$USERR5
 40
0.0
  9
$WORLDVIEW
 70
     1
  9
$SHADEDGE
 70
     3
  9
$SHADEDIF
 70
    70
  9
$TILEMODE
 70
     1
  9
$MAXACTVP
 70
    64
  9
$PINSBASE
 10
0.0
 20
0.0
 30
0.0
  9
$PLIMCHECK
 70
     0
  9
$PEXTMIN
 10
1.000000000000000E+20
 20
1.000000000000000E+20
 30
1.000000000000000E+20
  9
$PEXTMAX
 10
-1.000000000000000E+20
 20
-1.000000000000000E+20
 30
-1.000000000000000E+20
  9
$PLIMMIN
 10
0.0
 20
0.0
  9
$PLIMMAX
 10
420.0
 20
297.0
  9
$UNITMODE
 70
     0
  9
$VISRETAIN
 70
     1
  9
$PLINEGEN
 70
     0
  9
$PSLTSCALE
 70
     1
  9
$TREEDEPTH
 70
  3020
  9
$CMLSTYLE
  2
Standard
  9
$CMLJUST
 70
     0
  9
$CMLSCALE
 40
20.0
  9
$PROXYGRAPHICS
 70
     1
  9
$MEASUREMENT
 70
     1
  9
$CELWEIGHT
370
    -1
  9
$ENDCAPS
280
     0
  9
$JOINSTYLE
280
     0
  9
$LWDISPLAY
290
     0
  9
$INSUNITS
 70
     4
  9
$HYPERLINKBASE
  1

  9
$STYLESHEET
  1
SEISA.CTB
  9
$XEDIT
290
     1
  9
$CEPSNTYPE
380
     0
  9
$PSTYLEMODE
290
     1
  9
$FINGERPRINTGUID
  2
{442E7A15-4FE8-415D-8805-0D11B7555ECE}
  9
$VERSIONGUID
  2
{E6743008-40A9-443D-AA10-FC00C52F511F}
  9
$EXTNAMES
290
     1
  9
$PSVPSCALE
 40
0.0
  9
$OLESTARTUP
290
     0
  9
$SORTENTS
280
   127
  9
$INDEXCTL
280
     0
  9
$HIDETEXT
280
     0
  9
$XCLIPFRAME
290
     0
  9
$HALOGAP
280
     0
  9
$OBSCOLOR
 70
   257
  9
$OBSLTYPE
280
     0
  9
$INTERSECTIONDISPLAY
280
     0
  9
$INTERSECTIONCOLOR
 70
   257
  9
$DIMASSOC
280
     2
  9
$PROJECTNAME
  1

  9
$CAMERADISPLAY
290
     0
  9
$LENSLENGTH
 40
50.0
  9
$CAMERAHEIGHT
 40
0.0
  9
$STEPSPERSEC
 40
2.0
  9
$STEPSIZE
 40
6.0
  9
$3DDWFPREC
 40
2.0
  9
$PSOLWIDTH
 40
0.25
  9
$PSOLHEIGHT
 40
4.0
  9
$LOFTANG1
 40
1.570796326794896
  9
$LOFTANG2
 40
1.570796326794896
  9
$LOFTMAG1
 40
0.0
  9
$LOFTMAG2
 40
0.0
  9
$LOFTPARAM
 70
     7
  9
$LOFTNORMALS
280
     1
  9
$LATITUDE
 40
37.795
  9
$LONGITUDE
 40
-122.394
  9
$NORTHDIRECTION
 40
0.0
  9
$TIMEZONE
 70
 -8000
  9
$LIGHTGLYPHDISPLAY
280
     1
  9
$TILEMODELIGHTSYNCH
280
     1
  9
$CMATERIAL
347
27C
  9
$SOLIDHIST
280
     1
  9
$SHOWHIST
280
     1
  9
$DWFFRAME
280
     2
  9
$DGNFRAME
280
     0
  9
$REALWORLDSCALE
290
     1
  9
$INTERFERECOLOR
 62
     1
  9
$INTERFEREOBJVS
345
289
  9
$INTERFEREVPVS
346
286
  9
$CSHADOW
280
     0
  9
$SHADOWPLANELOCATION
 40
0.0
  0
ENDSEC
  0
SECTION
  2
CLASSES
  0
CLASS
  1
ACDBDICTIONARYWDFLT
  2
AcDbDictionaryWithDefault
  3
ObjectDBX Classes
 90
        0
 91
        1
280
     0
281
     0
  0
CLASS
  1
AMGSETTINGSOBJ
  2
AmgSettingsObj
  3
"AcadM|Product Description: AutoCAD Mechanical|Company: Autodesk, Inc."
 90
     1024
 91
        2
280
     0
281
     0
  0
CLASS
  1
ACME_DOCUMENT
  2
AcMeDbDoc
  3
AcMeServices
 90
     1024
 91
        1
280
     0
281
     0
  0
CLASS
  1
ACMESCOPE
  2
AcMeScope
  3
AcMeServices
 90
     1024
 91
        1
280
     0
281
     0
  0
CLASS
  1
ACMECOMMANDHISTORY
  2
AcMeCommandHistory
  3
AcMeServices
 90
     1024
 91
        1
280
     0
281
     0
  0
CLASS
  1
DICTIONARYVAR
  2
AcDbDictionaryVar
  3
ObjectDBX Classes
 90
        0
 91
        9
280
     0
281
     0
  0
CLASS
  1
ACIMSYSVARMAN
  2
AcImSysVarManager
  3
AcMeServices
 90
     1024
 91
        5
280
     0
281
     0
  0
CLASS
  1
ACIMREALSYSVAR
  2
AcImRealSysVar
  3
AcMeServices
 90
     1024
 91
        1
280
     0
281
     0
  0
CLASS
  1
ACIMINTSYSVAR
  2
AcImIntSysVar
  3
AcMeServices
 90
     1024
 91
       27
280
     0
281
     0
  0
CLASS
  1
ACMEDRAWINGMAN
  2
AcMeDrawingMan
  3
AcMeServices
 90
     1024
 91
        1
280
     0
281
     0
  0
CLASS
  1
ACMEVIEW
  2
AcMeView
  3
AcMeServices
 90
     1024
 91
        1
280
     0
281
     0
  0
CLASS
  1
ACDBENTITYCACHE
  2
AcMeEntityCache
  3
AcMeServices
 90
     1024
 91
        1
280
     0
281
     0
  0
CLASS
  1
GSMANAGER
  2
AcMeGSManager
  3
AcMeServices
 90
     1024
 91
        1
280
     0
281
     0
  0
CLASS
  1
AMDTINTERNALREACTOR
  2
AmdtInternalReactor
  3
AcMeServices
 90
     1024
 91
        2
280
     0
281
     0
  0
CLASS
  1
ACMESTATEMGR
  2
AcMeStateMgr
  3
AcMeServices
 90
     1024
 91
        1
280
     0
281
     0
  0
CLASS
  1
ACGREFMASTER
  2
AcGrefMaster
  3
AcAttribServices
 90
     1024
 91
        1
280
     0
281
     0
  0
CLASS
  1
ACME_DATABASE
  2
AcMeDbDatabase
  3
AcMeServices
 90
     1024
 91
        1
280
     0
281
     0
  0
CLASS
  1
ACRFINSADJUSTERMGR
  2
AcRfInsAdjusterMgr
  3
AcMeServices
 90
     1024
 91
        1
280
     0
281
     0
  0
CLASS
  1
ACGREFACADMASTER
  2
AcGrefacadMaster
  3
AcGrefServices
 90
     1024
 91
        1
280
     0
281
     0
  0
CLASS
  1
AMIMASTER
  2
AmiMaster
  3
AmiServices
 90
     1024
 91
        1
280
     0
281
     0
  0
CLASS
  1
ACIMSTRSYSVAR
  2
AcImStrSysVar
  3
AcMeServices
 90
     1024
 91
        5
280
     0
281
     0
  0
CLASS
  1
ACMSTANDARDJIS
  2
AcmStandardJIS
  3
"Amdt_StdImp|Product Description: AutoCAD Mechanical|Company: Autodesk, Inc."
 90
     1024
 91
        0
280
     0
281
     0
  0
CLASS
  1
AMGOBJPROPCFG
  2
AmgObjPropCfg
  3
"AmgLay|Product Description: AutoCAD Mechanical|Company: Autodesk, Inc."
 90
     1025
 91
        1
280
     0
281
     0
  0
CLASS
  1
ACMSURFSTANDARDJIS
  2
AcmSurfTextStdJIS
  3
"Amdt_StdImp|Product Description: AutoCAD Mechanical|Company: Autodesk, Inc."
 90
     1024
 91
        0
280
     0
281
     0
  0
CLASS
  1
ACMFCFSTANDARDJIS
  2
AcmFCFStdJIS
  3
"Amdt_StdImp|Product Description: AutoCAD Mechanical|Company: Autodesk, Inc."
 90
     1024
 91
        0
280
     0
281
     0
  0
CLASS
  1
ACMWELDSTANDARDJIS
  2
AcmWeldingStdJIS
  3
"Amdt_StdImp|Product Description: AutoCAD Mechanical|Company: Autodesk, Inc."
 90
     1024
 91
        0
280
     0
281
     0
  0
CLASS
  1
ACMIDSTANDARDJIS
  2
AcmIdStdJIS
  3
"Amdt_StdImp|Product Description: AutoCAD Mechanical|Company: Autodesk, Inc."
 90
     1024
 91
        0
280
     0
281
     0
  0
CLASS
  1
ACMDATUMSTANDARDJIS
  2
AcmDatumStdJIS
  3
"Amdt_StdImp|Product Description: AutoCAD Mechanical|Company: Autodesk, Inc."
 90
     1024
 91
        0
280
     0
281
     0
  0
CLASS
  1
ACMBOMSTANDARDJIS
  2
AcmBOMStdJIS
  3
"Amdt_StdImp|Product Description: AutoCAD Mechanical|Company: Autodesk, Inc."
 90
     1024
 91
        0
280
     0
281
     0
  0
CLASS
  1
ACMDETAILSTANDARDJIS
  2
AmdtDetailSymStdJIS
  3
"Amdt_StdImp|Product Description: AutoCAD Mechanical|Company: Autodesk, Inc."
 90
     1024
 91
        0
280
     0
281
     0
  0
CLASS
  1
ACMSECTIONSTANDARDJIS
  2
AmdtSectionSymStdJIS
  3
"Amdt_StdImp|Product Description: AutoCAD Mechanical|Company: Autodesk, Inc."
 90
     1024
 91
        0
280
     0
281
     0
  0
CLASS
  1
ACMCENTERLINESTANDARDJIS
  2
AmdtCenterLineStdJIS
  3
"Amdt_StdImp|Product Description: AutoCAD Mechanical|Company: Autodesk, Inc."
 90
     1024
 91
        0
280
     0
281
     0
  0
CLASS
  1
ACMTHREADLINESTANDARDJIS
  2
AmdtThreadLineStdJIS
  3
"Amdt_StdImp|Product Description: AutoCAD Mechanical|Company: Autodesk, Inc."
 90
     1024
 91
        0
280
     0
281
     0
  0
CLASS
  1
ACAMGLAYSTD
  2
AcAmgLayStd
  3
"AmgLay|Product Description: AutoCAD Mechanical|Company: Autodesk, Inc."
 90
     1024
 91
        1
280
     0
281
     0
  0
CLASS
  1
ACAMGDIMSTD
  2
AcAmgDimStd
  3
"AmgDim|Product Description: AutoCAD Mechanical|Company: Autodesk, Inc."
 90
     1024
 91
        1
280
     0
281
     0
  0
CLASS
  1
ACAMGTITLESTD
  2
AcAmgTitleStd
  3
"AmgTitle|Product Description: AutoCAD Mechanical|Company: Autodesk, Inc."
 90
     4095
 91
        1
280
     0
281
     0
  0
CLASS
  1
ACMDATADICTIONARY
  2
AcmDataDictionary
  3
"AcmSymBB|Product Description: AutoCAD Mechanical|Company: Autodesk, Inc."
 90
     1024
 91
        1
280
     0
281
     0
  0
CLASS
  1
ACMDATAENTRYBLOCK
  2
AcmDataEntryBlock
  3
AcmSymBB|Product Description: AutoCAD Mechanical|Company: Autodesk, Inc.
 90
     1024
 91
        0
280
     0
281
     0
  0
CLASS
  1
LAYER_INDEX
  2
AcDbLayerIndex
  3
ObjectDBX Classes
 90
        0
 91
        0
280
     0
281
     0
  0
CLASS
  1
IDBUFFER
  2
AcDbIdBuffer
  3
ObjectDBX Classes
 90
        0
 91
        0
280
     0
281
     0
  0
CLASS
  1
ACMNOTESTANDARDJIS
  2
AmdtNoteStdJIS
  3
"Amdt_StdImp|Product Description: AutoCAD Mechanical|Company: Autodesk, Inc."
 90
     1024
 91
        0
280
     0
281
     0
  0
CLASS
  1
ACAMGHOLECHARTSTDJIS
  2
AcAmgHoleChartStdJIS
  3
AmgDim|Product Description: AutoCAD Mechanical|Company: Autodesk, Inc.
 90
     1024
 91
        0
280
     0
281
     0
  0
CLASS
  1
AM_DRAWING_MGR
  2
AcDmDwgMgr
  3
AcMechDwgViewMgmt
 90
     1024
 91
        1
280
     0
281
     0
  0
CLASS
  1
AM_DWG_DOCUMENT
  2
AcDmDwgDocument
  3
AcMechDwgViewMgmt
 90
     1024
 91
        1
280
     0
281
     0
  0
CLASS
  1
AM_DWG_SHEET
  2
AcDmSheet
  3
AcMechDwgViewMgmt
 90
     1024
 91
        2
280
     0
281
     0
  0
CLASS
  1
AM_VIEWDIMPARMAP
  2
AcDmViewDimParMap
  3
AcMechDwgViewMgmt
 90
     1024
 91
        2
280
     0
281
     0
  0
CLASS
  1
AM_DWGMGR_NAME
  2
AcDmDwgMgrName
  3
AcMechDwgViewMgmt
 90
     1024
 91
        1
280
     0
281
     0
  0
CLASS
  1
AMDTMENUSTATEMGR
  2
AmdtMenuStateMgr
  3
McadcomServices
 90
     1024
 91
        1
280
     0
281
     0
  0
CLASS
  1
AMDTMCOMMENUSTATE
  2
AmdtMcomMenuState
  3
McadcomServices
 90
     1024
 91
        1
280
     0
281
     0
  0
CLASS
  1
MAPIAMMOUDLE
  2
MApiAmModule
  3
MApiAmServices
 90
     1024
 91
        1
280
     0
281
     0
  0
CLASS
  1
AMDTADMENUSTATE
  2
AmdtAdMenuState
  3
DesignerServices
 90
     1024
 91
        1
280
     0
281
     0
  0
CLASS
  1
ADAPPL
  2
AcAdAppl
  3
DesignerServices
 90
     1024
 91
        1
280
     0
281
     0
  0
CLASS
  1
DEPMGR
  2
AcAdDepMgr
  3
DesignerServices
 90
     1024
 91
        1
280
     0
281
     0
  0
CLASS
  1
PARAMMGR
  2
AcAdParamMgr
  3
DesignerServices
 90
     1024
 91
        1
280
     0
281
     0
  0
CLASS
  1
PARAMSCOPE
  2
AcAdParamScope
  3
DesignerServices
 90
     1024
 91
        1
280
     0
281
     0
  0
CLASS
  1
NAMEDAPPL
  2
AcAdNamedAppl
  3
DesignerServices
 90
     1024
 91
        1
280
     0
281
     0
  0
CLASS
  1
AMDTDMMENUSTATE
  2
AmdtDmMenuState
  3
AcMechDwgViewMgmt
 90
     1024
 91
        1
280
     0
281
     0
  0
CLASS
  1
AMDTAMMENUSTATE
  2
AmdtAmMenuState
  3
DesignerAssemblies
 90
     1024
 91
        1
280
     0
281
     0
  0
CLASS
  1
ACAMPROJECT
  2
AcAmProject
  3
DesignerAssemblies
 90
     1024
 91
        1
280
     0
281
     0
  0
CLASS
  1
ACAMGRCOMPDEF
  2
AcAmGrCompDef
  3
DesignerAssemblies
 90
     1024
 91
        1
280
     0
281
     0
  0
CLASS
  1
ACCMCONTEXT
  2
AcCmContext
  3
DesignerAssemblies
 90
     1024
 91
        1
280
     0
281
     0
  0
CLASS
  1
ACAMCOMPDEF
  2
AcAmCompDef
  3
DesignerAssemblies
 90
     1024
 91
        1
280
     0
281
     0
  0
CLASS
  1
ACAMCOMPDEFMGR
  2
AcAmCompDefMgr
  3
DesignerAssemblies
 90
     1024
 91
        1
280
     0
281
     0
  0
CLASS
  1
AMCONTEXTMGR
  2
AcAmContextMgr
  3
DesignerAssemblies
 90
     1024
 91
        1
280
     0
281
     0
  0
CLASS
  1
ACAMCONTEXTMODELER
  2
AcAmContextModeler
  3
DesignerAssemblies
 90
     1024
 91
        1
280
     0
281
     0
  0
CLASS
  1
CATALOGSTATE
  2
AcAmCatalogState
  3
DesignerAssemblies
 90
     1024
 91
        1
280
     0
281
     0
  0
CLASS
  1
ACAMGRCOMPDEFSET
  2
AcAmGrCompDefSet
  3
DesignerAssemblies
 90
     1024
 91
        1
280
     0
281
     0
  0
CLASS
  1
AMDTBROWSERDBTAB
  2
AmdtBrowserDbTab
  3
McadcomServices
 90
     1024
 91
        1
280
     0
281
     0
  0
CLASS
  1
CBROWSERAPPOBJECT
  2
CBrowserAppObject
  3
McadcomServices
 90
     1024
 91
        3
280
     0
281
     0
  0
CLASS
  1
DM_PLACEHOLDER
  2
AcDmSelsetPlaceholder
  3
AcMechDwgViewMgmt
 90
     1024
 91
        1
280
     0
281
     0
  0
CLASS
  1
TABLESTYLE
  2
AcDbTableStyle
  3
ObjectDBX Classes
 90
     4095
 91
        1
280
     0
281
     0
  0
CLASS
  1
VAACXREFPANELOBJECT
  2
VaAcXREFPanelObject
  3
VAAC_ADDIN
 90
        0
 91
        0
280
     0
281
     0
  0
CLASS
  1
VAACIMAGEINVENTORY
  2
VaAcImageInventory
  3
VAAC_ADDIN
 90
        0
 91
        0
280
     0
281
     0
  0
CLASS
  1
AMDTNOTETEMPLATEDB
  2
AmdtNoteTemplateDB
  3
AcmSymBB|Product Description: AutoCAD Mechanical|Company: Autodesk, Inc.
 90
     1024
 91
        6
280
     0
281
     0
  0
CLASS
  1
ACAMGFILTERDAT
  2
AcAmgFilterDat
  3
"AcadM|Product Description: AutoCAD Mechanical|Company: Autodesk, Inc."
 90
     1024
 91
        0
280
     0
281
     0
  0
CLASS
  1
MATERIAL
  2
AcDbMaterial
  3
ObjectDBX Classes
 90
     1153
 91
        3
280
     0
281
     0
  0
CLASS
  1
VISUALSTYLE
  2
AcDbVisualStyle
  3
ObjectDBX Classes
 90
     4095
 91
       16
280
     0
281
     0
  0
CLASS
  1
ACRFATTGENMGR
  2
AcRfAttGeneralMgr
  3
AcAttribServices
 90
     1024
 91
        0
280
     0
281
     0
  0
CLASS
  1
ACRFOBJATTMGR
  2
AcRfObjAttGroupMgr
  3
AcAttribServices
 90
     1024
 91
        0
280
     0
281
     0
  0
CLASS
  1
ACRFMCADAPIATTHOLDER
  2
AcRfMCADAPIAttHolder
  3
AcAttribServices
 90
     1024
 91
        0
280
     0
281
     0
  0
CLASS
  1
AMDTSYSATTR
  2
AmdtSystemAttribute
  3
AcAttribServices
 90
     1024
 91
        0
280
     0
281
     0
  0
CLASS
  1
ACMTAPERSTANDARDJIS
  2
AcmTaperStdJIS
  3
"Amdt_StdImp|Product Description: AutoCAD Mechanical|Company: Autodesk, Inc."
 90
     1024
 91
        0
280
     0
281
     0
  0
CLASS
  1
CAMSSTRUCTBTNSTATE
  2
StructBtnState
  3
DesignerAssemblies
 90
     1024
 91
        0
280
     0
281
     0
  0
CLASS
  1
SCALE
  2
AcDbScale
  3
ObjectDBX Classes
 90
     1153
 91
       36
280
     0
281
     0
  0
CLASS
  1
MLEADERSTYLE
  2
AcDbMLeaderStyle
  3
ACDB_MLEADERSTYLE_CLASS
 90
     4095
 91
        1
280
     0
281
     0
  0
CLASS
  1
ACMANOOTATIONVIEWSTANDARDJIS
  2
AmdtAnViewStdJIS
  3
"Amdt_StdImp|Product Description: AutoCAD Mechanical|Company: Autodesk, Inc."
 90
     1024
 91
        0
280
     0
281
     0
  0
CLASS
  1
ACMSURFSTANDARDJIS2003
  2
AcmSurfTextStdJIS2003
  3
"Amdt_StdImp|Product Description: AutoCAD Mechanical|Company: Autodesk, Inc."
 90
     1024
 91
        0
280
     0
281
     0
  0
CLASS
  1
CELLSTYLEMAP
  2
AcDbCellStyleMap
  3
ObjectDBX Classes
 90
     1152
 91
        2
280
     0
281
     0
  0
CLASS
  1
ACMFCFSTANDARDJIS98
  2
AcmFCFStdJIS98
  3
"Amdt_StdImp|Product Description: AutoCAD Mechanical|Company: Autodesk, Inc."
 90
     1024
 91
        0
280
     0
281
     0
  0
CLASS
  1
SORTENTSTABLE
  2
AcDbSortentsTable
  3
ObjectDBX Classes
 90
        0
 91
        9
280
     0
281
     0
  0
CLASS
  1
DIMASSOC
  2
AcDbDimAssoc
  3
"AcDbDimAssoc|Product Desc:     AcDim ARX App For Dimension|Company:          Autodesk, Inc.|WEB Address:      www.autodesk.com"
 90
        0
 91
       17
280
     0
281
     0
  0
CLASS
  1
STDPART2D
  2
AmgStdPart
  3
AmgStdPart|Product Description: AutoCAD Mechanical|Company: Autodesk, Inc.
 90
     4095
 91
        0
280
     0
281
     1
  0
CLASS
  1
ACMDATAENTRYPART
  2
AcmDataEntryPart
  3
AcmSymBB|Product Description: AutoCAD Mechanical|Company: Autodesk, Inc.
 90
     1024
 91
        0
280
     0
281
     0
  0
CLASS
  1
ACMPARTREF
  2
AcmPartRef
  3
"AcmSymBB|Product Description: AutoCAD Mechanical|Company: Autodesk, Inc."
 90
     4095
 91
        0
280
     0
281
     1
  0
CLASS
  1
ACDBSTDPARTRES_LINE
  2
AcDbStdPartRes_Line
  3
AmgStdPart|Product Description: AutoCAD Mechanical|Company: Autodesk, Inc.
 90
     1024
 91
        0
280
     0
281
     0
  0
CLASS
  1
ACMBOM
  2
AcmBom
  3
"AcmSymBB|Product Description: AutoCAD Mechanical|Company: Autodesk, Inc."
 90
     1024
 91
        0
280
     0
281
     0
  0
CLASS
  1
AMDTFORMULAUPDATEDISPATCHER
  2
AmdtFormulaUpdateDispatcher
  3
AcMeServices
 90
     1024
 91
        0
280
     0
281
     0
  0
CLASS
  1
ACMBOMROW
  2
AcmBomRow
  3
"AcmSymBB|Product Description: AutoCAD Mechanical|Company: Autodesk, Inc."
 90
     1024
 91
        0
280
     0
281
     0
  0
CLASS
  1
ACMPARTLIST
  2
AcmPartList
  3
"AcmSymBB|Product Description: AutoCAD Mechanical|Company: Autodesk, Inc."
 90
     4095
 91
        0
280
     0
281
     1
  0
CLASS
  1
ACDBLINERES
  2
AcDbLineRes
  3
AcGrefServices
 90
     1024
 91
        0
280
     0
281
     0
  0
CLASS
  1
ACRFINSADJ
  2
AcRfInsAdjuster
  3
AcMeServices
 90
     1024
 91
        0
280
     0
281
     0
  0
CLASS
  1
ACMSTANDARDISO
  2
AcmStandardISO
  3
"Amdt_StdImp|Product Description: AutoCAD Mechanical|Company: Autodesk, Inc."
 90
     1024
 91
        1
280
     0
281
     0
  0
CLASS
  1
AMDTEDGESTANDARDISO13715
  2
AmdtEdgeStdISO13715
  3
"Amdt_StdImp|Product Description: AutoCAD Mechanical|Company: Autodesk, Inc."
 90
     1024
 91
        1
280
     0
281
     0
  0
CLASS
  1
ACMSURFSTANDARDISO2002
  2
AcmSurfTextStdISO2002
  3
"Amdt_StdImp|Product Description: AutoCAD Mechanical|Company: Autodesk, Inc."
 90
     1024
 91
        1
280
     0
281
     0
  0
CLASS
  1
ACMFCFSTANDARDISO
  2
AcmFCFStdISO
  3
"Amdt_StdImp|Product Description: AutoCAD Mechanical|Company: Autodesk, Inc."
 90
     1024
 91
        1
280
     0
281
     0
  0
CLASS
  1
ACMWELDSTANDARDISO
  2
AcmWeldingStdISO
  3
"Amdt_StdImp|Product Description: AutoCAD Mechanical|Company: Autodesk, Inc."
 90
     1024
 91
        1
280
     0
281
     0
  0
CLASS
  1
ACMIDSTANDARDISO
  2
AcmIdStdISO
  3
"Amdt_StdImp|Product Description: AutoCAD Mechanical|Company: Autodesk, Inc."
 90
     1024
 91
        1
280
     0
281
     0
  0
CLASS
  1
ACMDATUMSTANDARDISO
  2
AcmDatumStdISO
  3
"Amdt_StdImp|Product Description: AutoCAD Mechanical|Company: Autodesk, Inc."
 90
     1024
 91
        1
280
     0
281
     0
  0
CLASS
  1
ACMBOMSTANDARDISO
  2
AcmBOMStdISO
  3
"Amdt_StdImp|Product Description: AutoCAD Mechanical|Company: Autodesk, Inc."
 90
     1024
 91
        1
280
     0
281
     0
  0
CLASS
  1
ACMDETAILSTANDARDISO
  2
AmdtDetailSymStdISO
  3
"Amdt_StdImp|Product Description: AutoCAD Mechanical|Company: Autodesk, Inc."
 90
     1024
 91
        1
280
     0
281
     0
  0
CLASS
  1
ACMSECTIONSTANDARDISO2001
  2
AmdtSectionSymStdISO2001
  3
"Amdt_StdImp|Product Description: AutoCAD Mechanical|Company: Autodesk, Inc."
 90
     1024
 91
        1
280
     0
281
     0
  0
CLASS
  1
ACMCENTERLINESTANDARDISO
  2
AmdtCenterLineStdISO
  3
"Amdt_StdImp|Product Description: AutoCAD Mechanical|Company: Autodesk, Inc."
 90
     1024
 91
        1
280
     0
281
     0
  0
CLASS
  1
ACMTHREADLINESTANDARDISO
  2
AmdtThreadLineStdISO
  3
"Amdt_StdImp|Product Description: AutoCAD Mechanical|Company: Autodesk, Inc."
 90
     1024
 91
        1
280
     0
281
     0
  0
CLASS
  1
ACMNOTESTANDARDISO
  2
AmdtNoteStdISO
  3
"Amdt_StdImp|Product Description: AutoCAD Mechanical|Company: Autodesk, Inc."
 90
     1024
 91
        1
280
     0
281
     0
  0
CLASS
  1
ACMTAPERSTANDARDISO
  2
AcmTaperStdISO
  3
"Amdt_StdImp|Product Description: AutoCAD Mechanical|Company: Autodesk, Inc."
 90
     1024
 91
        1
280
     0
281
     0
  0
CLASS
  1
ACMANOOTATIONVIEWSTANDARDISO
  2
AmdtAnViewStdISO
  3
"Amdt_StdImp|Product Description: AutoCAD Mechanical|Company: Autodesk, Inc."
 90
     1024
 91
        1
280
     0
281
     0
  0
CLASS
  1
ACAMGHOLECHARTSTDISO
  2
AcAmgHoleChartStdISO
  3
AmgDim|Product Description: AutoCAD Mechanical|Company: Autodesk, Inc.
 90
     1024
 91
        1
280
     0
281
     0
  0
CLASS
  1
EXACXREFPANELOBJECT
  2
ExAcXREFPanelObject
  3
EXAC_ESW
 90
     1025
 91
        0
280
     0
281
     0
  0
CLASS
  1
NPOCOLLECTION
  2
AcDbImpNonPersistentObjectsCollection
  3
ObjectDBX Classes
 90
     1153
 91
        0
280
     0
281
     0
  0
CLASS
  1
ACDBSTDPARTRES_ARC
  2
AcDbStdPartRes_Arc
  3
AmgStdPart|Product Description: AutoCAD Mechanical|Company: Autodesk, Inc.
 90
     1024
 91
        0
280
     0
281
     0
  0
CLASS
  1
AMDTNOTE
  2
AmdtNote
  3
"AcmSymBB|Product Description: AutoCAD Mechanical|Company: Autodesk, Inc."
 90
     4095
 91
        0
280
     0
281
     1
  0
CLASS
  1
PLOTSETTINGS
  2
AcDbPlotSettings
  3
ObjectDBX Classes
 90
        0
 91
        1
280
     0
281
     0
  0
CLASS
  1
ACMSTANDARDANSI
  2
AcmStandardANSI
  3
"Amdt_StdImp|Product Description: AutoCAD Mechanical|Company: Autodesk, Inc."
 90
     1024
 91
        0
280
     0
281
     0
  0
CLASS
  1
ACMSURFSTANDARDANSI
  2
AcmSurfTextStdANSI
  3
"Amdt_StdImp|Product Description: AutoCAD Mechanical|Company: Autodesk, Inc."
 90
     1024
 91
        0
280
     0
281
     0
  0
CLASS
  1
ACMFCFSTANDARDANSI
  2
AcmFCFStdANSI
  3
"Amdt_StdImp|Product Description: AutoCAD Mechanical|Company: Autodesk, Inc."
 90
     1024
 91
        0
280
     0
281
     0
  0
CLASS
  1
ACMWELDSTANDARDANSI
  2
AcmWeldingStdANSI
  3
"Amdt_StdImp|Product Description: AutoCAD Mechanical|Company: Autodesk, Inc."
 90
     1024
 91
        0
280
     0
281
     0
  0
CLASS
  1
ACMIDSTANDARDANSI
  2
AcmIdStdANSI
  3
"Amdt_StdImp|Product Description: AutoCAD Mechanical|Company: Autodesk, Inc."
 90
     1024
 91
        0
280
     0
281
     0
  0
CLASS
  1
ACMDATUMSTANDARDANSI
  2
AcmDatumStdANSI
  3
"Amdt_StdImp|Product Description: AutoCAD Mechanical|Company: Autodesk, Inc."
 90
     1024
 91
        0
280
     0
281
     0
  0
CLASS
  1
ACMBOMSTANDARDANSI
  2
AcmBOMStdANSI
  3
"Amdt_StdImp|Product Description: AutoCAD Mechanical|Company: Autodesk, Inc."
 90
     1024
 91
        0
280
     0
281
     0
  0
CLASS
  1
ACMDETAILSTANDARDANSI
  2
AmdtDetailSymStdANSI
  3
"Amdt_StdImp|Product Description: AutoCAD Mechanical|Company: Autodesk, Inc."
 90
     1024
 91
        0
280
     0
281
     0
  0
CLASS
  1
ACMSECTIONSTANDARDANSI
  2
AmdtSectionSymStdANSI
  3
"Amdt_StdImp|Product Description: AutoCAD Mechanical|Company: Autodesk, Inc."
 90
     1024
 91
        0
280
     0
281
     0
  0
CLASS
  1
ACMCENTERLINESTANDARDANSI
  2
AmdtCenterLineStdANSI
  3
"Amdt_StdImp|Product Description: AutoCAD Mechanical|Company: Autodesk, Inc."
 90
     1024
 91
        0
280
     0
281
     0
  0
CLASS
  1
ACMTHREADLINESTANDARDANSI
  2
AmdtThreadLineStdANSI
  3
"Amdt_StdImp|Product Description: AutoCAD Mechanical|Company: Autodesk, Inc."
 90
     1024
 91
        0
280
     0
281
     0
  0
CLASS
  1
ACMNOTESTANDARDANSI
  2
AmdtNoteStdANSI
  3
"Amdt_StdImp|Product Description: AutoCAD Mechanical|Company: Autodesk, Inc."
 90
     1024
 91
        0
280
     0
281
     0
  0
CLASS
  1
ACMTAPERSTANDARDANSI
  2
AcmTaperStdANSI
  3
"Amdt_StdImp|Product Description: AutoCAD Mechanical|Company: Autodesk, Inc."
 90
     1024
 91
        0
280
     0
281
     0
  0
CLASS
  1
ACMANOOTATIONVIEWSTANDARDANSI
  2
AmdtAnViewStdANSI
  3
"Amdt_StdImp|Product Description: AutoCAD Mechanical|Company: Autodesk, Inc."
 90
     1024
 91
        0
280
     0
281
     0
  0
CLASS
  1
ACAMGHOLECHARTSTDANSI
  2
AcAmgHoleChartStdANSI
  3
AmgDim|Product Description: AutoCAD Mechanical|Company: Autodesk, Inc.
 90
     1024
 91
        0
280
     0
281
     0
  0
CLASS
  1
ACMSTANDARDBSI
  2
AcmStandardBSI
  3
"Amdt_StdImp|Product Description: AutoCAD Mechanical|Company: Autodesk, Inc."
 90
     1024
 91
        0
280
     0
281
     0
  0
CLASS
  1
ACMSURFSTANDARDBSI2002
  2
AcmSurfTextStdBSI2002
  3
"Amdt_StdImp|Product Description: AutoCAD Mechanical|Company: Autodesk, Inc."
 90
     1024
 91
        0
280
     0
281
     0
  0
CLASS
  1
ACMFCFSTANDARDBSI
  2
AcmFCFStdBSI
  3
"Amdt_StdImp|Product Description: AutoCAD Mechanical|Company: Autodesk, Inc."
 90
     1024
 91
        0
280
     0
281
     0
  0
CLASS
  1
ACMWELDSTANDARDBSI
  2
AcmWeldingStdBSI
  3
"Amdt_StdImp|Product Description: AutoCAD Mechanical|Company: Autodesk, Inc."
 90
     1024
 91
        0
280
     0
281
     0
  0
CLASS
  1
ACMIDSTANDARDBSI
  2
AcmIdStdBSI
  3
"Amdt_StdImp|Product Description: AutoCAD Mechanical|Company: Autodesk, Inc."
 90
     1024
 91
        0
280
     0
281
     0
  0
CLASS
  1
ACMDATUMSTANDARDBSI
  2
AcmDatumStdBSI
  3
"Amdt_StdImp|Product Description: AutoCAD Mechanical|Company: Autodesk, Inc."
 90
     1024
 91
        0
280
     0
281
     0
  0
CLASS
  1
ACMBOMSTANDARDBSI
  2
AcmBOMStdBSI
  3
"Amdt_StdImp|Product Description: AutoCAD Mechanical|Company: Autodesk, Inc."
 90
     1024
 91
        0
280
     0
281
     0
  0
CLASS
  1
ACMDETAILSTANDARDBSI
  2
AmdtDetailSymStdBSI
  3
"Amdt_StdImp|Product Description: AutoCAD Mechanical|Company: Autodesk, Inc."
 90
     1024
 91
        0
280
     0
281
     0
  0
CLASS
  1
ACMSECTIONSTANDARDBSI2001
  2
AmdtSectionSymStdBSI2001
  3
"Amdt_StdImp|Product Description: AutoCAD Mechanical|Company: Autodesk, Inc."
 90
     1024
 91
        0
280
     0
281
     0
  0
CLASS
  1
ACMCENTERLINESTANDARDBSI
  2
AmdtCenterLineStdBSI
  3
"Amdt_StdImp|Product Description: AutoCAD Mechanical|Company: Autodesk, Inc."
 90
     1024
 91
        0
280
     0
281
     0
  0
CLASS
  1
ACMTHREADLINESTANDARDBSI
  2
AmdtThreadLineStdBSI
  3
"Amdt_StdImp|Product Description: AutoCAD Mechanical|Company: Autodesk, Inc."
 90
     1024
 91
        0
280
     0
281
     0
  0
CLASS
  1
ACMNOTESTANDARDBSI
  2
AmdtNoteStdBSI
  3
"Amdt_StdImp|Product Description: AutoCAD Mechanical|Company: Autodesk, Inc."
 90
     1024
 91
        0
280
     0
281
     0
  0
CLASS
  1
ACMTAPERSTANDARDBSI
  2
AcmTaperStdBSI
  3
"Amdt_StdImp|Product Description: AutoCAD Mechanical|Company: Autodesk, Inc."
 90
     1024
 91
        0
280
     0
281
     0
  0
CLASS
  1
ACMANOOTATIONVIEWSTANDARDBSI
  2
AmdtAnViewStdBSI
  3
"Amdt_StdImp|Product Description: AutoCAD Mechanical|Company: Autodesk, Inc."
 90
     1024
 91
        0
280
     0
281
     0
  0
CLASS
  1
ACAMGHOLECHARTSTDBSI
  2
AcAmgHoleChartStdBSI
  3
AmgDim|Product Description: AutoCAD Mechanical|Company: Autodesk, Inc.
 90
     1024
 91
        0
280
     0
281
     0
  0
CLASS
  1
AMDTEDGESTANDARDJIS
  2
AmdtEdgeStdJIS
  3
"Amdt_StdImp|Product Description: AutoCAD Mechanical|Company: Autodesk, Inc."
 90
     1024
 91
        0
280
     0
281
     0
  0
CLASS
  1
ACMSURFSYM
  2
AcmSurfaceTexture
  3
"AcmSymBB|Product Description: AutoCAD Mechanical|Company: Autodesk, Inc."
 90
     4095
 91
        0
280
     0
281
     1
  0
CLASS
  1
ACDBDIMENSIONRES
  2
AcDbDimensionRes
  3
AcmSymBB|Product Description: AutoCAD Mechanical|Company: Autodesk, Inc.
 90
     1024
 91
        0
280
     0
281
     0
  0
CLASS
  1
ACDBCIRCARCRES
  2
AcDbCircArcRes
  3
AcGrefServices
 90
     1024
 91
        0
280
     0
281
     0
  0
CLASS
  1
ACDBOPPOLYLINERES
  2
AcDbOpPolylineRes
  3
AcGrefServices
 90
     1024
 91
        0
280
     0
281
     0
  0
CLASS
  1
ACDBELLIPSERES
  2
AcDbEllipseRes
  3
AcGrefServices
 90
     1024
 91
        0
280
     0
281
     0
  0
CLASS
  1
AMDTACMWBLOCKBOMENTITY
  2
AmdtAcmWblockBomEntity
  3
"AcmSymBB|Product Description: AutoCAD Mechanical|Company: Autodesk, Inc."
 90
     4095
 91
        0
280
     0
281
     1
  0
CLASS
  1
ACDB_BLKREFOBJECTCONTEXTDATA_CLASS
  2
AcDbBlkRefObjectContextData
  3
ObjectDBX Classes
 90
     1153
 91
        0
280
     0
281
     0
  0
CLASS
  1
ACMPICKOBJ
  2
AcmPickEnt
  3
"AcmSymBB|Product Description: AutoCAD Mechanical|Company: Autodesk, Inc."
 90
     1024
 91
        0
280
     0
281
     1
  0
CLASS
  1
ACMBALLOON
  2
AcmBalloon
  3
"AcmSymBB|Product Description: AutoCAD Mechanical|Company: Autodesk, Inc."
 90
     4095
 91
        0
280
     0
281
     1
  0
ENDSEC
  0
SECTION
  2
TABLES
  0
TABLE
  2
VPORT
  5
8
330
0
100
AcDbSymbolTable
 70
     1
  0
VPORT
  5
27A
330
8
100
AcDbSymbolTableRecord
100
AcDbViewportTableRecord
  2
*Active
 70
     0
 10
0.0
 20
0.0
 11
1.0
 21
1.0
 12
1396.649491892183
 22
1016.507612129779
 13
0.0
 23
0.0
 14
12.5
 24
12.5
 15
50.0
 25
50.0
 16
0.0
 26
0.0
 36
1.0
 17
0.0
 27
0.0
 37
0.0
 40
695.5906975485991
 41
1.648033126293995
 42
50.0
 43
0.0
 44
0.0
 50
0.0
 51
0.0
 71
    16
 72
 20000
 73
     1
 74
     3
 75
     0
 76
     0
 77
     0
 78
     0
281
     0
 65
     0
110
0.0
120
0.0
130
0.0
111
1.0
121
0.0
131
0.0
112
0.0
122
1.0
132
0.0
 79
     0
146
0.0
348
285
 60
     3
 61
     5
292
     1
282
     0
141
0.0
142
0.0
 63
   250
421
  3355443
  0
ENDTAB
  0
TABLE
  2
LTYPE
  5
5
330
0
100
AcDbSymbolTable
 70
    22
  0
LTYPE
  5
14
330
5
100
AcDbSymbolTableRecord
100
AcDbLinetypeTableRecord
  2
ByBlock
 70
     0
  3

 72
    65
 73
     0
 40
0.0
  0
LTYPE
  5
15
330
5
100
AcDbSymbolTableRecord
100
AcDbLinetypeTableRecord
  2
ByLayer
 70
     0
  3

 72
    65
 73
     0
 40
0.0
  0
LTYPE
  5
16
330
5
100
AcDbSymbolTableRecord
100
AcDbLinetypeTableRecord
  2
Continuous
 70
     0
  3
Solid line
 72
    65
 73
     0
 40
0.0
  0
LTYPE
  5
4D
330
5
100
AcDbSymbolTableRecord
100
AcDbLinetypeTableRecord
  2
AM_ISO02W050
 70
     0
  3
__ __ __ __ __ __ __ __ __ __ __ __ __ __ __
 72
    65
 73
     2
 40
7.5
 49
6.0
 74
     0
 49
-1.5
 74
     0
  0
LTYPE
  5
4E
330
5
100
AcDbSymbolTableRecord
100
AcDbLinetypeTableRecord
  2
AM_ISO08W050
 70
     0
  3
____ . ____ . ____ . ____ . ____ . ____ . ____
 72
    65
 73
     4
 40
18.0
 49
12.0
 74
     0
 49
-1.5
 74
     0
 49
3.0
 74
     0
 49
-1.5
 74
     0
  0
LTYPE
  5
4F
330
5
100
AcDbSymbolTableRecord
100
AcDbLinetypeTableRecord
  2
AM_ISO09W050
 70
     0
  3
_____ . . _____ . . _____ . . ____ .. ____
 72
    65
 73
     6
 40
22.5
 49
12.0
 74
     0
 49
-1.5
 74
     0
 49
3.0
 74
     0
 49
-1.5
 74
     0
 49
3.0
 74
     0
 49
-1.5
 74
     0
  0
LTYPE
  5
50
330
5
100
AcDbSymbolTableRecord
100
AcDbLinetypeTableRecord
  2
Amconstr
 70
     0
  3
_______________________
 72
    65
 73
     2
 40
9999.0
 49
9999.0
 74
     0
 49
0.0
 74
     0
  0
LTYPE
  5
51
330
5
100
AcDbSymbolTableRecord
100
AcDbLinetypeTableRecord
  2
AM_ISO08W050x2
 70
     0
  3
__ . __ . __ . __ . __ . __
 72
    65
 73
     4
 40
9.0
 49
6.0
 74
     0
 49
-0.75
 74
     0
 49
1.5
 74
     0
 49
-0.75
 74
     0
  0
LTYPE
  5
52
330
5
100
AcDbSymbolTableRecord
100
AcDbLinetypeTableRecord
  2
AM_ISO02W050x2
 70
     0
  3
 _ _ _ _ _ _ _ _ _ _ _ _
 72
    65
 73
     2
 40
3.75
 49
3.0
 74
     0
 49
-0.75
 74
     0
  0
LTYPE
  5
55
330
5
100
AcDbSymbolTableRecord
100
AcDbLinetypeTableRecord
  2
Amzigzag
 70
     0
  3
/\/-/\/-/\/-/\/-/\/-/\/
 72
    65
 73
     2
 40
11.0001
 49
0.0001
 74
     4
 75
   136
340
23D
 46
0.04
 50
0.0
 44
0.0
 45
0.0
 49
-11.0
 74
     0
  0
LTYPE
  5
65
330
5
100
AcDbSymbolTableRecord
100
AcDbLinetypeTableRecord
  2
CENTER
 70
     0
  3
__ . __
 72
    65
 73
     4
 40
7.0
 49
4.0
 74
     0
 49
-1.0
 74
     0
 49
1.0
 74
     0
 49
-1.0
 74
     0
  0
LTYPE
  5
E0
330
5
100
AcDbSymbolTableRecord
100
AcDbLinetypeTableRecord
  2
HIDDEN
 70
     0
  3
Hidden __ __ __ __ __ __ __ __ __ __ __ __ __ _
 72
    65
 73
     2
 40
9.524999999999996
 49
6.349999999999998
 74
     0
 49
-3.174999999999998
 74
     0
  0
LTYPE
  5
E1
330
5
100
AcDbSymbolTableRecord
100
AcDbLinetypeTableRecord
  2
PHANTOM2
 70
     0
  3
Phantom (.5x) ___ _ _ ___ _ _ ___ _ _ ___ _ _
 72
    65
 73
     6
 40
31.75
 49
15.875
 74
     0
 49
-3.174999999999998
 74
     0
 49
3.174999999999998
 74
     0
 49
-3.174999999999998
 74
     0
 49
3.174999999999998
 74
     0
 49
-3.174999999999998
 74
     0
  0
LTYPE
  5
5A2
330
5
100
AcDbSymbolTableRecord
100
AcDbLinetypeTableRecord
  2
ACJISWELD
 70
     0
  3
_ _ _ _ _
 72
    65
 73
     2
 40
2.0
 49
2.0
 74
     0
 49
-1.0
 74
     0
  0
LTYPE
  5
6C60
330
5
100
AcDbSymbolTableRecord
100
AcDbLinetypeTableRecord
  2
ACISOWELD
 70
     0
  3
_ _ _ _ _
 72
    65
 73
     2
 40
2.0
 49
2.0
 74
     0
 49
-1.0
 74
     0
  0
LTYPE
  5
6C61
330
5
100
AcDbSymbolTableRecord
100
AcDbLinetypeTableRecord
  2
ACISOTGB
 70
     0
  3
__ . . __ . .
 72
    65
 73
     6
 40
9.0
 49
4.0
 74
     0
 49
-1.0
 74
     0
 49
1.0
 74
     0
 49
-1.0
 74
     0
 49
1.0
 74
     0
 49
-1.0
 74
     0
  0
LTYPE
  5
6C62
330
5
100
AcDbSymbolTableRecord
100
AcDbLinetypeTableRecord
  2
ACISOTGL
 70
     0
  3
_ _ _ _ _
 72
    65
 73
     2
 40
3.0
 49
2.0
 74
     0
 49
-1.0
 74
     0
  0
ENDTAB
  0
TABLE
  2
LAYER
  5
2
102
{ACAD_XDICTIONARY
360
BF
102
}
330
0
100
AcDbSymbolTable
 70
    10
  0
LAYER
  5
10
102
{ACAD_XDICTIONARY
360
29F7
102
}
330
2
100
AcDbSymbolTableRecord
100
AcDbLayerTableRecord
  2
0
 70
     0
 62
     7
  6
Continuous
370
    -3
390
F
347
27E
  0
LAYER
  5
81
102
{ACAD_XDICTIONARY
360
29F9
102
}
330
2
100
AcDbSymbolTableRecord
100
AcDbLayerTableRecord
  2
AM_0 外形線1
 70
     0
 62
     7
  6
Continuous
370
    25
390
F
347
27E
  0
LAYER
  5
427
330
2
100
AcDbSymbolTableRecord
100
AcDbLayerTableRecord
  2
Defpoints
 70
     0
 62
     7
  6
Continuous
290
     0
370
    -3
390
F
347
27E
  0
LAYER
  5
36BD
330
2
100
AcDbSymbolTableRecord
100
AcDbLayerTableRecord
  2
AM_5 寸法線
 70
     0
 62
     3
  6
Continuous
370
    13
390
F
347
27E
1001
AcAecLayerStandard
1000

1000

  0
LAYER
  5
36BE
330
2
100
AcDbSymbolTableRecord
100
AcDbLayerTableRecord
  2
AM_4 細線
 70
     0
 62
     4
  6
Continuous
370
    13
390
F
347
27E
1001
AcAecLayerStandard
1000

1000

  0
LAYER
  5
36BF
330
2
100
AcDbSymbolTableRecord
100
AcDbLayerTableRecord
  2
AM_7 中心線
 70
     0
 62
     1
  6
AM_ISO08W050
370
    13
390
F
347
27E
1001
AcAecLayerStandard
1000

1000

  0
LAYER
  5
36C0
330
2
100
AcDbSymbolTableRecord
100
AcDbLayerTableRecord
  2
AM_3 隠れ線
 70
     0
 62
     8
  6
ACJISWELD
370
    13
390
F
347
27E
1001
AcAecLayerStandard
1000

1000

  0
LAYER
  5
36C2
330
2
100
AcDbSymbolTableRecord
100
AcDbLayerTableRecord
  2
AM_6 文字
 70
     0
 62
     2
  6
Continuous
370
    13
390
F
347
27E
1001
AcAecLayerStandard
1000

1000

  0
LAYER
  5
6928
330
2
100
AcDbSymbolTableRecord
100
AcDbLayerTableRecord
  2
AM_11 想像線
 70
     0
 62
     5
  6
AM_ISO09W050
370
    13
390
F
347
27E
1001
AcAecLayerStandard
1000

1000

  0
ENDTAB
  0
TABLE
  2
STYLE
  5
3
330
0
100
AcDbSymbolTable
 70
    10
  0
STYLE
  5
11
330
3
100
AcDbSymbolTableRecord
100
AcDbTextStyleTableRecord
  2
STANDARD
 70
     0
 40
0.0
 41
1.0
 50
0.0
 71
     0
 42
25.0
  3
ISOCP.SHX
  4
EXTFONT.SHX
  0
STYLE
  5
23D
330
3
100
AcDbSymbolTableRecord
100
AcDbTextStyleTableRecord
  2

 70
     1
 40
0.0
 41
1.0
 50
0.0
 71
     0
 42
2.5
  3
genltshp.shx
  4

  0
STYLE
  5
5D5
330
3
100
AcDbSymbolTableRecord
100
AcDbTextStyleTableRecord
  2
SEISA
 70
     0
 40
0.0
 41
0.9
 50
0.0
 71
     0
 42
25.0
  3
romans.shx
  4
extfont2.shx
  0
STYLE
  5
6C50
330
3
100
AcDbSymbolTableRecord
100
AcDbTextStyleTableRecord
  2
ACISOTS
 70
     0
 40
1.0
 41
1.0
 50
0.0
 71
     0
 42
25.0
  3
isocp.shx
  4
extfont.shx
  0
STYLE
  5
6C5F
330
3
100
AcDbSymbolTableRecord
100
AcDbTextStyleTableRecord
  2
ACISOGDT
 70
     0
 40
0.0
 41
1.0
 50
0.0
 71
     0
 42
25.0
  3
amgdt.shx
  4

  0
ENDTAB
  0
TABLE
  2
VIEW
  5
6
330
0
100
AcDbSymbolTable
 70
     6
  0
VIEW
  5
91B
330
6
100
AcDbSymbolTableRecord
100
AcDbViewTableRecord
  2
AM_VIEW1
 70
     0
 40
742.4999999999998
 10
730.6126856862332
 20
1113.75000184691
 41
1461.225369458128
 11
0.0
 21
0.0
 31
1.0
 12
0.0
 22
0.0
 32
0.0
 42
50.0
 43
0.0
 44
0.0
 50
0.0
 71
    16
281
     0
 72
     0
 73
     0
  0
VIEW
  5
91C
330
6
100
AcDbSymbolTableRecord
100
AcDbViewTableRecord
  2
AM_VIEW2
 70
     0
 40
742.4999999999998
 10
1369.387316228105
 20
1113.75000184691
 41
1461.225369458128
 11
0.0
 21
0.0
 31
1.0
 12
0.0
 22
0.0
 32
0.0
 42
50.0
 43
0.0
 44
0.0
 50
0.0
 71
    16
281
     0
 72
     0
 73
     0
  0
VIEW
  5
91D
330
6
100
AcDbSymbolTableRecord
100
AcDbViewTableRecord
  2
AM_VIEW3
 70
     0
 40
742.4999999999998
 10
730.6126856862332
 20
371.2500018469103
 41
1461.225369458128
 11
0.0
 21
0.0
 31
1.0
 12
0.0
 22
0.0
 32
0.0
 42
50.0
 43
0.0
 44
0.0
 50
0.0
 71
    16
281
     0
 72
     0
 73
     0
  0
VIEW
  5
91E
330
6
100
AcDbSymbolTableRecord
100
AcDbViewTableRecord
  2
AM_VIEW4
 70
     0
 40
742.4999999999998
 10
1369.387316228105
 20
371.2500018469103
 41
1461.225369458128
 11
0.0
 21
0.0
 31
1.0
 12
0.0
 22
0.0
 32
0.0
 42
50.0
 43
0.0
 44
0.0
 50
0.0
 71
    16
281
     0
 72
     0
 73
     0
  0
VIEW
  5
91F
330
6
100
AcDbSymbolTableRecord
100
AcDbViewTableRecord
  2
AM_VIEW5
 70
     0
 40
742.5000000000001
 10
1050.000000957169
 20
742.5000018469104
 41
1461.225369458128
 11
0.0
 21
0.0
 31
1.0
 12
0.0
 22
0.0
 32
0.0
 42
50.0
 43
0.0
 44
0.0
 50
0.0
 71
    16
281
     0
 72
     0
 73
     0
  0
VIEW
  5
920
330
6
100
AcDbSymbolTableRecord
100
AcDbViewTableRecord
  2
AM_VIEW6
 70
     0
 40
1484.98515
 10
1050.000000957169
 20
742.5000018469102
 41
2922.421514408867
 11
0.0
 21
0.0
 31
1.0
 12
0.0
 22
0.0
 32
0.0
 42
50.0
 43
0.0
 44
0.0
 50
0.0
 71
    16
281
     0
 72
     0
 73
     0
  0
ENDTAB
  0
TABLE
  2
UCS
  5
7
330
0
100
AcDbSymbolTable
 70
     0
  0
ENDTAB
  0
TABLE
  2
APPID
  5
9
330
0
100
AcDbSymbolTable
 70
   396
  0
APPID
  5
12
330
9
100
AcDbSymbolTableRecord
100
AcDbRegAppTableRecord
  2
ACAD
 70
     0
  0
APPID
  5
30
330
9
100
AcDbSymbolTableRecord
100
AcDbRegAppTableRecord
  2
MCAD_NO_VIS
 70
     0
  0
APPID
  5
31
330
9
100
AcDbSymbolTableRecord
100
AcDbRegAppTableRecord
  2
ACAD_TEMP_GRAPHIC
 70
     0
  0
APPID
  5
44
330
9
100
AcDbSymbolTableRecord
100
AcDbRegAppTableRecord
  2
ACATTRIBSERVICES
 70
     0
  0
APPID
  5
F6
330
9
100
AcDbSymbolTableRecord
100
AcDbRegAppTableRecord
  2
AD_DRAW
 70
     0
  0
APPID
  5
114
330
9
100
AcDbSymbolTableRecord
100
AcDbRegAppTableRecord
  2
DESIGNERASSEMBLIES
 70
     0
  0
APPID
  5
118
330
9
100
AcDbSymbolTableRecord
100
AcDbRegAppTableRecord
  2
ACADM_DIM_EDIT
 70
     0
  0
APPID
  5
119
330
9
100
AcDbSymbolTableRecord
100
AcDbRegAppTableRecord
  2
AMDT_DM_ADJ
 70
     0
  0
APPID
  5
1AF
330
9
100
AcDbSymbolTableRecord
100
AcDbRegAppTableRecord
  2
ACAD_DSTYLE_DIMARC_LENGTH_SYMBOL
 70
     0
  0
APPID
  5
1B0
330
9
100
AcDbSymbolTableRecord
100
AcDbRegAppTableRecord
  2
ACAD_DSTYLE_DIMJOGGED_JOGANGLE_SYMBOL
 70
     0
  0
APPID
  5
2D7
330
9
100
AcDbSymbolTableRecord
100
AcDbRegAppTableRecord
  2
ACAD_MLEADERVER
 70
     0
  0
APPID
  5
355
330
9
100
AcDbSymbolTableRecord
100
AcDbRegAppTableRecord
  2
AcadAnnoPO
 70
     0
  0
APPID
  5
428
330
9
100
AcDbSymbolTableRecord
100
AcDbRegAppTableRecord
  2
ACAD_DSTYLE_DIMTEXT_FILL
 70
     0
  0
APPID
  5
429
330
9
100
AcDbSymbolTableRecord
100
AcDbRegAppTableRecord
  2
GENIUS_GENSCREG_15
 70
     0
  0
APPID
  5
42A
330
9
100
AcDbSymbolTableRecord
100
AcDbRegAppTableRecord
  2
GENIUS_GENOBJ-N-SDF_13
 70
     0
  0
APPID
  5
42B
330
9
100
AcDbSymbolTableRecord
100
AcDbRegAppTableRecord
  2
GENIUS_GENODEF_13
 70
     0
  0
APPID
  5
42C
330
9
100
AcDbSymbolTableRecord
100
AcDbRegAppTableRecord
  2
ACAD_EXEMPT_FROM_CAD_STANDARDS
 70
     0
  0
APPID
  5
42D
330
9
100
AcDbSymbolTableRecord
100
AcDbRegAppTableRecord
  2
AcAecLayerStandard
 70
     0
  0
APPID
  5
42E
330
9
100
AcDbSymbolTableRecord
100
AcDbRegAppTableRecord
  2
GENIUS_GENOBJ-N-CEN_13
 70
     0
  0
APPID
  5
42F
330
9
100
AcDbSymbolTableRecord
100
AcDbRegAppTableRecord
  2
GENIUS_GENCEN_19
 70
     0
  0
APPID
  5
430
330
9
100
AcDbSymbolTableRecord
100
AcDbRegAppTableRecord
  2
ACAD_DSTYLE_DIMINSPECT
 70
     0
  0
APPID
  5
431
330
9
100
AcDbSymbolTableRecord
100
AcDbRegAppTableRecord
  2
GENIUS_AMGTXT_16
 70
     0
  0
APPID
  5
432
330
9
100
AcDbSymbolTableRecord
100
AcDbRegAppTableRecord
  2
GENIUS_GENFIL_13
 70
     0
  0
APPID
  5
433
330
9
100
AcDbSymbolTableRecord
100
AcDbRegAppTableRecord
  2
GENIUS_GENOLIS_13
 70
     0
  0
APPID
  5
434
330
9
100
AcDbSymbolTableRecord
100
AcDbRegAppTableRecord
  2
GENIUS_GENOBJ-N-CHA_13
 70
     0
  0
APPID
  5
435
330
9
100
AcDbSymbolTableRecord
100
AcDbRegAppTableRecord
  2
GENIUS_GENOENT_13
 70
     0
  0
APPID
  5
436
330
9
100
AcDbSymbolTableRecord
100
AcDbRegAppTableRecord
  2
GENIUS_GENOREF_13
 70
     0
  0
APPID
  5
437
330
9
100
AcDbSymbolTableRecord
100
AcDbRegAppTableRecord
  2
GENIUS_GENOBJ-N-FIL_13
 70
     0
  0
APPID
  5
438
330
9
100
AcDbSymbolTableRecord
100
AcDbRegAppTableRecord
  2
GEVID1208829536
 70
     0
  0
APPID
  5
439
330
9
100
AcDbSymbolTableRecord
100
AcDbRegAppTableRecord
  2
GEVDC
 70
     0
  0
APPID
  5
43A
330
9
100
AcDbSymbolTableRecord
100
AcDbRegAppTableRecord
  2
GEVRADREF
 70
     0
  0
APPID
  5
43B
330
9
100
AcDbSymbolTableRecord
100
AcDbRegAppTableRecord
  2
GENIUS_GENBH_13
 70
     0
  0
APPID
  5
43C
330
9
100
AcDbSymbolTableRecord
100
AcDbRegAppTableRecord
  2
GENIUS_GENOBJ-NBEHI-BHF_13
 70
     0
  0
APPID
  5
43D
330
9
100
AcDbSymbolTableRecord
100
AcDbRegAppTableRecord
  2
GENIUS_GENOBJ-NBEHI-BHB_13
 70
     0
  0
APPID
  5
43E
330
9
100
AcDbSymbolTableRecord
100
AcDbRegAppTableRecord
  2
GEVID1208829537
 70
     0
  0
APPID
  5
43F
330
9
100
AcDbSymbolTableRecord
100
AcDbRegAppTableRecord
  2
ACAD_DSTYLE_DIMJAG
 70
     0
  0
APPID
  5
440
330
9
100
AcDbSymbolTableRecord
100
AcDbRegAppTableRecord
  2
ACAD_DSTYLE_DIMTALN
 70
     0
  0
APPID
  5
441
330
9
100
AcDbSymbolTableRecord
100
AcDbRegAppTableRecord
  2
AMG_2DHIDE
 70
     0
  0
APPID
  5
442
330
9
100
AcDbSymbolTableRecord
100
AcDbRegAppTableRecord
  2
AMG_2DSTRUCT_BTR
 70
     0
  0
APPID
  5
443
330
9
100
AcDbSymbolTableRecord
100
AcDbRegAppTableRecord
  2
GEVID1208845772
 70
     0
  0
APPID
  5
444
330
9
100
AcDbSymbolTableRecord
100
AcDbRegAppTableRecord
  2
GEVID1208845773
 70
     0
  0
APPID
  5
445
330
9
100
AcDbSymbolTableRecord
100
AcDbRegAppTableRecord
  2
ACADM_2DVIEW_IGN_NOTIFY
 70
     0
  0
APPID
  5
446
330
9
100
AcDbSymbolTableRecord
100
AcDbRegAppTableRecord
  2
GEVID1208845774
 70
     0
  0
APPID
  5
447
330
9
100
AcDbSymbolTableRecord
100
AcDbRegAppTableRecord
  2
GEVID1208845775
 70
     0
  0
APPID
  5
448
330
9
100
AcDbSymbolTableRecord
100
AcDbRegAppTableRecord
  2
GEVID1208845776
 70
     0
  0
APPID
  5
449
330
9
100
AcDbSymbolTableRecord
100
AcDbRegAppTableRecord
  2
GEVID1208845777
 70
     0
  0
APPID
  5
44A
330
9
100
AcDbSymbolTableRecord
100
AcDbRegAppTableRecord
  2
GEVCON
 70
     0
  0
APPID
  5
44B
330
9
100
AcDbSymbolTableRecord
100
AcDbRegAppTableRecord
  2
GENIUS_GENOBJ-F-SCPASSM_13
 70
     0
  0
APPID
  5
44C
330
9
100
AcDbSymbolTableRecord
100
AcDbRegAppTableRecord
  2
GEVID1208845778
 70
     0
  0
APPID
  5
44D
330
9
100
AcDbSymbolTableRecord
100
AcDbRegAppTableRecord
  2
GEVID1208845779
 70
     0
  0
APPID
  5
44E
330
9
100
AcDbSymbolTableRecord
100
AcDbRegAppTableRecord
  2
GEVID1208845780
 70
     0
  0
APPID
  5
44F
330
9
100
AcDbSymbolTableRecord
100
AcDbRegAppTableRecord
  2
GEVID1208845781
 70
     0
  0
APPID
  5
450
330
9
100
AcDbSymbolTableRecord
100
AcDbRegAppTableRecord
  2
GEVID1208845782
 70
     0
  0
APPID
  5
451
330
9
100
AcDbSymbolTableRecord
100
AcDbRegAppTableRecord
  2
GEVID1208845783
 70
     0
  0
APPID
  5
452
330
9
100
AcDbSymbolTableRecord
100
AcDbRegAppTableRecord
  2
GEVID1208845784
 70
     0
  0
APPID
  5
453
330
9
100
AcDbSymbolTableRecord
100
AcDbRegAppTableRecord
  2
GEVID1208845785
 70
     0
  0
APPID
  5
454
330
9
100
AcDbSymbolTableRecord
100
AcDbRegAppTableRecord
  2
GEVID1208845787
 70
     0
  0
APPID
  5
455
330
9
100
AcDbSymbolTableRecord
100
AcDbRegAppTableRecord
  2
GEVID1208845788
 70
     0
  0
APPID
  5
456
330
9
100
AcDbSymbolTableRecord
100
AcDbRegAppTableRecord
  2
GEVID1208845789
 70
     0
  0
APPID
  5
457
330
9
100
AcDbSymbolTableRecord
100
AcDbRegAppTableRecord
  2
GEVID1208845790
 70
     0
  0
APPID
  5
458
330
9
100
AcDbSymbolTableRecord
100
AcDbRegAppTableRecord
  2
GEVID1208845791
 70
     0
  0
APPID
  5
459
330
9
100
AcDbSymbolTableRecord
100
AcDbRegAppTableRecord
  2
GEVID1208845792
 70
     0
  0
APPID
  5
45A
330
9
100
AcDbSymbolTableRecord
100
AcDbRegAppTableRecord
  2
GEVID1208845793
 70
     0
  0
APPID
  5
45B
330
9
100
AcDbSymbolTableRecord
100
AcDbRegAppTableRecord
  2
GEVID1208845794
 70
     0
  0
APPID
  5
45C
330
9
100
AcDbSymbolTableRecord
100
AcDbRegAppTableRecord
  2
GEVID1208845795
 70
     0
  0
APPID
  5
45D
330
9
100
AcDbSymbolTableRecord
100
AcDbRegAppTableRecord
  2
GEVID1208845796
 70
     0
  0
APPID
  5
45E
330
9
100
AcDbSymbolTableRecord
100
AcDbRegAppTableRecord
  2
GEVID1208845797
 70
     0
  0
APPID
  5
45F
330
9
100
AcDbSymbolTableRecord
100
AcDbRegAppTableRecord
  2
GEVID1208845798
 70
     0
  0
APPID
  5
460
330
9
100
AcDbSymbolTableRecord
100
AcDbRegAppTableRecord
  2
GEVID1208845799
 70
     0
  0
APPID
  5
461
330
9
100
AcDbSymbolTableRecord
100
AcDbRegAppTableRecord
  2
GEVID1208845800
 70
     0
  0
APPID
  5
462
330
9
100
AcDbSymbolTableRecord
100
AcDbRegAppTableRecord
  2
GEVID1208845801
 70
     0
  0
APPID
  5
463
330
9
100
AcDbSymbolTableRecord
100
AcDbRegAppTableRecord
  2
GEVID1208845802
 70
     0
  0
APPID
  5
464
330
9
100
AcDbSymbolTableRecord
100
AcDbRegAppTableRecord
  2
GENIUS_GENOBJ-N-DIM_13
 70
     0
  0
APPID
  5
465
330
9
100
AcDbSymbolTableRecord
100
AcDbRegAppTableRecord
  2
GENIUS_GENDIM_13
 70
     0
  0
APPID
  5
466
330
9
100
AcDbSymbolTableRecord
100
AcDbRegAppTableRecord
  2
GENIUS_GENDIMSH_14
 70
     0
  0
APPID
  5
467
330
9
100
AcDbSymbolTableRecord
100
AcDbRegAppTableRecord
  2
GEVID1208845803
 70
     0
  0
APPID
  5
468
330
9
100
AcDbSymbolTableRecord
100
AcDbRegAppTableRecord
  2
GEVID1208845804
 70
     0
  0
APPID
  5
469
330
9
100
AcDbSymbolTableRecord
100
AcDbRegAppTableRecord
  2
GEVID1208845805
 70
     0
  0
APPID
  5
46A
330
9
100
AcDbSymbolTableRecord
100
AcDbRegAppTableRecord
  2
GEVID1208845806
 70
     0
  0
APPID
  5
46B
330
9
100
AcDbSymbolTableRecord
100
AcDbRegAppTableRecord
  2
GEVID1208845807
 70
     0
  0
APPID
  5
46C
330
9
100
AcDbSymbolTableRecord
100
AcDbRegAppTableRecord
  2
GEVID1208845808
 70
     0
  0
APPID
  5
46D
330
9
100
AcDbSymbolTableRecord
100
AcDbRegAppTableRecord
  2
GEVID1208845809
 70
     0
  0
APPID
  5
46E
330
9
100
AcDbSymbolTableRecord
100
AcDbRegAppTableRecord
  2
GEVID1208845810
 70
     0
  0
APPID
  5
46F
330
9
100
AcDbSymbolTableRecord
100
AcDbRegAppTableRecord
  2
GEVID1208845811
 70
     0
  0
APPID
  5
470
330
9
100
AcDbSymbolTableRecord
100
AcDbRegAppTableRecord
  2
GEVID1208845813
 70
     0
  0
APPID
  5
471
330
9
100
AcDbSymbolTableRecord
100
AcDbRegAppTableRecord
  2
GEVID1208845814
 70
     0
  0
APPID
  5
472
330
9
100
AcDbSymbolTableRecord
100
AcDbRegAppTableRecord
  2
GEVID1208845815
 70
     0
  0
APPID
  5
473
330
9
100
AcDbSymbolTableRecord
100
AcDbRegAppTableRecord
  2
GEVID1208845816
 70
     0
  0
APPID
  5
474
330
9
100
AcDbSymbolTableRecord
100
AcDbRegAppTableRecord
  2
GEVID1208845817
 70
     0
  0
APPID
  5
475
330
9
100
AcDbSymbolTableRecord
100
AcDbRegAppTableRecord
  2
GEVID1208845818
 70
     0
  0
APPID
  5
476
330
9
100
AcDbSymbolTableRecord
100
AcDbRegAppTableRecord
  2
GEVID1208845819
 70
     0
  0
APPID
  5
477
330
9
100
AcDbSymbolTableRecord
100
AcDbRegAppTableRecord
  2
GEVID1208845820
 70
     0
  0
APPID
  5
478
330
9
100
AcDbSymbolTableRecord
100
AcDbRegAppTableRecord
  2
GENIUS_GENOBJ-F-SHCL_13
 70
     0
  0
APPID
  5
479
330
9
100
AcDbSymbolTableRecord
100
AcDbRegAppTableRecord
  2
GENIUS_GEFMSH_13
 70
     0
  0
APPID
  5
47A
330
9
100
AcDbSymbolTableRecord
100
AcDbRegAppTableRecord
  2
GENIUS_GENOBJ-F-SHCA_13
 70
     0
  0
APPID
  5
47B
330
9
100
AcDbSymbolTableRecord
100
AcDbRegAppTableRecord
  2
GENIUS_GEFSH_13
 70
     0
  0
APPID
  5
47C
330
9
100
AcDbSymbolTableRecord
100
AcDbRegAppTableRecord
  2
GENIUS_GEFSHP_13
 70
     0
  0
APPID
  5
47D
330
9
100
AcDbSymbolTableRecord
100
AcDbRegAppTableRecord
  2
GENIUS_GEFSHP0_13
 70
     0
  0
APPID
  5
47E
330
9
100
AcDbSymbolTableRecord
100
AcDbRegAppTableRecord
  2
GENIUS_GEFSH0_13
 70
     0
  0
APPID
  5
47F
330
9
100
AcDbSymbolTableRecord
100
AcDbRegAppTableRecord
  2
GENIUS_GEFSHP1_13
 70
     0
  0
APPID
  5
480
330
9
100
AcDbSymbolTableRecord
100
AcDbRegAppTableRecord
  2
GENIUS_GEFSH1_13
 70
     0
  0
APPID
  5
481
330
9
100
AcDbSymbolTableRecord
100
AcDbRegAppTableRecord
  2
GEVID1208866337
 70
     0
  0
APPID
  5
482
330
9
100
AcDbSymbolTableRecord
100
AcDbRegAppTableRecord
  2
GEVID1208866338
 70
     0
  0
APPID
  5
483
330
9
100
AcDbSymbolTableRecord
100
AcDbRegAppTableRecord
  2
GEVID1208866339
 70
     0
  0
APPID
  5
484
330
9
100
AcDbSymbolTableRecord
100
AcDbRegAppTableRecord
  2
GEVID1208866340
 70
     0
  0
APPID
  5
485
330
9
100
AcDbSymbolTableRecord
100
AcDbRegAppTableRecord
  2
GEVID1208866341
 70
     0
  0
APPID
  5
486
330
9
100
AcDbSymbolTableRecord
100
AcDbRegAppTableRecord
  2
ACAD_PSEXT
 70
     0
  0
APPID
  5
487
330
9
100
AcDbSymbolTableRecord
100
AcDbRegAppTableRecord
  2
GEVID1208866342
 70
     0
  0
APPID
  5
488
330
9
100
AcDbSymbolTableRecord
100
AcDbRegAppTableRecord
  2
GEVID1208913836
 70
     0
  0
APPID
  5
489
330
9
100
AcDbSymbolTableRecord
100
AcDbRegAppTableRecord
  2
GEVID1208913837
 70
     0
  0
APPID
  5
48A
330
9
100
AcDbSymbolTableRecord
100
AcDbRegAppTableRecord
  2
GEVID1208913838
 70
     0
  0
APPID
  5
48B
330
9
100
AcDbSymbolTableRecord
100
AcDbRegAppTableRecord
  2
GEVID1208913839
 70
     0
  0
APPID
  5
48C
330
9
100
AcDbSymbolTableRecord
100
AcDbRegAppTableRecord
  2
GENIUS_GENDTOL_13
 70
     0
  0
APPID
  5
48D
330
9
100
AcDbSymbolTableRecord
100
AcDbRegAppTableRecord
  2
GEVID1208928889
 70
     0
  0
APPID
  5
48E
330
9
100
AcDbSymbolTableRecord
100
AcDbRegAppTableRecord
  2
GEVID1208928890
 70
     0
  0
APPID
  5
48F
330
9
100
AcDbSymbolTableRecord
100
AcDbRegAppTableRecord
  2
GEVID1208928891
 70
     0
  0
APPID
  5
490
330
9
100
AcDbSymbolTableRecord
100
AcDbRegAppTableRecord
  2
GEVID1208928892
 70
     0
  0
APPID
  5
491
330
9
100
AcDbSymbolTableRecord
100
AcDbRegAppTableRecord
  2
GEVID1208933827
 70
     0
  0
APPID
  5
492
330
9
100
AcDbSymbolTableRecord
100
AcDbRegAppTableRecord
  2
GEVID1208933829
 70
     0
  0
APPID
  5
493
330
9
100
AcDbSymbolTableRecord
100
AcDbRegAppTableRecord
  2
GEVID1208933830
 70
     0
  0
APPID
  5
494
330
9
100
AcDbSymbolTableRecord
100
AcDbRegAppTableRecord
  2
GEVID1208933831
 70
     0
  0
APPID
  5
495
330
9
100
AcDbSymbolTableRecord
100
AcDbRegAppTableRecord
  2
GEVID1208933832
 70
     0
  0
APPID
  5
496
330
9
100
AcDbSymbolTableRecord
100
AcDbRegAppTableRecord
  2
GEVID1208933833
 70
     0
  0
APPID
  5
497
330
9
100
AcDbSymbolTableRecord
100
AcDbRegAppTableRecord
  2
GEVID1208933834
 70
     0
  0
APPID
  5
498
330
9
100
AcDbSymbolTableRecord
100
AcDbRegAppTableRecord
  2
GEVID1208933835
 70
     0
  0
APPID
  5
499
330
9
100
AcDbSymbolTableRecord
100
AcDbRegAppTableRecord
  2
GEVID1208933836
 70
     0
  0
APPID
  5
49A
330
9
100
AcDbSymbolTableRecord
100
AcDbRegAppTableRecord
  2
GEVID1208933837
 70
     0
  0
APPID
  5
49B
330
9
100
AcDbSymbolTableRecord
100
AcDbRegAppTableRecord
  2
GEVID1208933838
 70
     0
  0
APPID
  5
49C
330
9
100
AcDbSymbolTableRecord
100
AcDbRegAppTableRecord
  2
GEVID1208933840
 70
     0
  0
APPID
  5
49D
330
9
100
AcDbSymbolTableRecord
100
AcDbRegAppTableRecord
  2
GEVID1208933842
 70
     0
  0
APPID
  5
49E
330
9
100
AcDbSymbolTableRecord
100
AcDbRegAppTableRecord
  2
GEVID1208933843
 70
     0
  0
APPID
  5
49F
330
9
100
AcDbSymbolTableRecord
100
AcDbRegAppTableRecord
  2
GEVID1208933844
 70
     0
  0
APPID
  5
4A0
330
9
100
AcDbSymbolTableRecord
100
AcDbRegAppTableRecord
  2
GEVID1208933845
 70
     0
  0
APPID
  5
4A1
330
9
100
AcDbSymbolTableRecord
100
AcDbRegAppTableRecord
  2
GEVID1208933846
 70
     0
  0
APPID
  5
4A2
330
9
100
AcDbSymbolTableRecord
100
AcDbRegAppTableRecord
  2
GEVID1208933847
 70
     0
  0
APPID
  5
4A3
330
9
100
AcDbSymbolTableRecord
100
AcDbRegAppTableRecord
  2
GEVID1208933848
 70
     0
  0
APPID
  5
4A4
330
9
100
AcDbSymbolTableRecord
100
AcDbRegAppTableRecord
  2
GEVID1208933849
 70
     0
  0
APPID
  5
4A5
330
9
100
AcDbSymbolTableRecord
100
AcDbRegAppTableRecord
  2
GEVID1208933850
 70
     0
  0
APPID
  5
4A6
330
9
100
AcDbSymbolTableRecord
100
AcDbRegAppTableRecord
  2
GEVID1208933851
 70
     0
  0
APPID
  5
4A7
330
9
100
AcDbSymbolTableRecord
100
AcDbRegAppTableRecord
  2
GEVID1208933852
 70
     0
  0
APPID
  5
4A8
330
9
100
AcDbSymbolTableRecord
100
AcDbRegAppTableRecord
  2
GEVID1208933853
 70
     0
  0
APPID
  5
4A9
330
9
100
AcDbSymbolTableRecord
100
AcDbRegAppTableRecord
  2
GEVID1208933854
 70
     0
  0
APPID
  5
4AA
330
9
100
AcDbSymbolTableRecord
100
AcDbRegAppTableRecord
  2
GEVID1208933855
 70
     0
  0
APPID
  5
4AB
330
9
100
AcDbSymbolTableRecord
100
AcDbRegAppTableRecord
  2
GEVID1208933856
 70
     0
  0
APPID
  5
4AC
330
9
100
AcDbSymbolTableRecord
100
AcDbRegAppTableRecord
  2
GEVID1208933857
 70
     0
  0
APPID
  5
4AD
330
9
100
AcDbSymbolTableRecord
100
AcDbRegAppTableRecord
  2
GEVID1208933858
 70
     0
  0
APPID
  5
4AE
330
9
100
AcDbSymbolTableRecord
100
AcDbRegAppTableRecord
  2
GEVID1208933859
 70
     0
  0
APPID
  5
4AF
330
9
100
AcDbSymbolTableRecord
100
AcDbRegAppTableRecord
  2
GEVID1208933860
 70
     0
  0
APPID
  5
4B0
330
9
100
AcDbSymbolTableRecord
100
AcDbRegAppTableRecord
  2
GEVID1208933861
 70
     0
  0
APPID
  5
4B1
330
9
100
AcDbSymbolTableRecord
100
AcDbRegAppTableRecord
  2
GEVID1208933862
 70
     0
  0
APPID
  5
4B2
330
9
100
AcDbSymbolTableRecord
100
AcDbRegAppTableRecord
  2
GEVID1208933863
 70
     0
  0
APPID
  5
4B3
330
9
100
AcDbSymbolTableRecord
100
AcDbRegAppTableRecord
  2
GEVID1208933864
 70
     0
  0
APPID
  5
4B4
330
9
100
AcDbSymbolTableRecord
100
AcDbRegAppTableRecord
  2
GEVID1208933865
 70
     0
  0
APPID
  5
4B5
330
9
100
AcDbSymbolTableRecord
100
AcDbRegAppTableRecord
  2
GEVID1208933866
 70
     0
  0
APPID
  5
4B6
330
9
100
AcDbSymbolTableRecord
100
AcDbRegAppTableRecord
  2
GEVID1208933867
 70
     0
  0
APPID
  5
4B7
330
9
100
AcDbSymbolTableRecord
100
AcDbRegAppTableRecord
  2
GEVID1208933868
 70
     0
  0
APPID
  5
4B8
330
9
100
AcDbSymbolTableRecord
100
AcDbRegAppTableRecord
  2
GEVID1208933869
 70
     0
  0
APPID
  5
4B9
330
9
100
AcDbSymbolTableRecord
100
AcDbRegAppTableRecord
  2
GEVID1208933870
 70
     0
  0
APPID
  5
4BA
330
9
100
AcDbSymbolTableRecord
100
AcDbRegAppTableRecord
  2
GEVID1208933871
 70
     0
  0
APPID
  5
4BB
330
9
100
AcDbSymbolTableRecord
100
AcDbRegAppTableRecord
  2
GEVID1208933872
 70
     0
  0
APPID
  5
4BC
330
9
100
AcDbSymbolTableRecord
100
AcDbRegAppTableRecord
  2
GEVID1208933873
 70
     0
  0
APPID
  5
4BD
330
9
100
AcDbSymbolTableRecord
100
AcDbRegAppTableRecord
  2
GEVID1208933874
 70
     0
  0
APPID
  5
4BE
330
9
100
AcDbSymbolTableRecord
100
AcDbRegAppTableRecord
  2
GEVID1208933875
 70
     0
  0
APPID
  5
4BF
330
9
100
AcDbSymbolTableRecord
100
AcDbRegAppTableRecord
  2
GEVID1208933876
 70
     0
  0
APPID
  5
4C0
330
9
100
AcDbSymbolTableRecord
100
AcDbRegAppTableRecord
  2
ACAD_DSTYLE_DIMRADIAL_EXTENSION
 70
     0
  0
APPID
  5
4C1
330
9
100
AcDbSymbolTableRecord
100
AcDbRegAppTableRecord
  2
GEVID1208999100
 70
     0
  0
APPID
  5
4C2
330
9
100
AcDbSymbolTableRecord
100
AcDbRegAppTableRecord
  2
GEVID1208999101
 70
     0
  0
APPID
  5
4C3
330
9
100
AcDbSymbolTableRecord
100
AcDbRegAppTableRecord
  2
GEVID1208999102
 70
     0
  0
APPID
  5
4C4
330
9
100
AcDbSymbolTableRecord
100
AcDbRegAppTableRecord
  2
GEVID1208999103
 70
     0
  0
APPID
  5
4C5
330
9
100
AcDbSymbolTableRecord
100
AcDbRegAppTableRecord
  2
GEVID1208999105
 70
     0
  0
APPID
  5
4C6
330
9
100
AcDbSymbolTableRecord
100
AcDbRegAppTableRecord
  2
GEVID1208999106
 70
     0
  0
APPID
  5
4C7
330
9
100
AcDbSymbolTableRecord
100
AcDbRegAppTableRecord
  2
GEVID1208999108
 70
     0
  0
APPID
  5
4C8
330
9
100
AcDbSymbolTableRecord
100
AcDbRegAppTableRecord
  2
GEVID1208999109
 70
     0
  0
APPID
  5
4C9
330
9
100
AcDbSymbolTableRecord
100
AcDbRegAppTableRecord
  2
GEVID1208999110
 70
     0
  0
APPID
  5
4CA
330
9
100
AcDbSymbolTableRecord
100
AcDbRegAppTableRecord
  2
GEVID1208999111
 70
     0
  0
APPID
  5
4CB
330
9
100
AcDbSymbolTableRecord
100
AcDbRegAppTableRecord
  2
GEVID1208999112
 70
     0
  0
APPID
  5
4CC
330
9
100
AcDbSymbolTableRecord
100
AcDbRegAppTableRecord
  2
GEVID1208999113
 70
     0
  0
APPID
  5
4CD
330
9
100
AcDbSymbolTableRecord
100
AcDbRegAppTableRecord
  2
GEVID1208999114
 70
     0
  0
APPID
  5
4CE
330
9
100
AcDbSymbolTableRecord
100
AcDbRegAppTableRecord
  2
GEVID1210218799
 70
     0
  0
APPID
  5
4CF
330
9
100
AcDbSymbolTableRecord
100
AcDbRegAppTableRecord
  2
GEVID1210218800
 70
     0
  0
APPID
  5
4D0
330
9
100
AcDbSymbolTableRecord
100
AcDbRegAppTableRecord
  2
GENIUS_GEFWELD_13
 70
     0
  0
APPID
  5
4D1
330
9
100
AcDbSymbolTableRecord
100
AcDbRegAppTableRecord
  2
GENIUS_GENOBJ-F-WELS_13
 70
     0
  0
APPID
  5
4D2
330
9
100
AcDbSymbolTableRecord
100
AcDbRegAppTableRecord
  2
AcadAnnotative
 70
     0
  0
APPID
  5
4D3
330
9
100
AcDbSymbolTableRecord
100
AcDbRegAppTableRecord
  2
GEVID1210145339
 70
     0
  0
APPID
  5
4D4
330
9
100
AcDbSymbolTableRecord
100
AcDbRegAppTableRecord
  2
ACAD_DSTYLE_DIMBREAK
 70
     0
  0
APPID
  5
4D5
330
9
100
AcDbSymbolTableRecord
100
AcDbRegAppTableRecord
  2
GEVID1210145340
 70
     0
  0
APPID
  5
4D6
330
9
100
AcDbSymbolTableRecord
100
AcDbRegAppTableRecord
  2
GEVID1210145341
 70
     0
  0
APPID
  5
4D7
330
9
100
AcDbSymbolTableRecord
100
AcDbRegAppTableRecord
  2
GEVID1210145342
 70
     0
  0
APPID
  5
4D8
330
9
100
AcDbSymbolTableRecord
100
AcDbRegAppTableRecord
  2
GEVID1210145343
 70
     0
  0
APPID
  5
4D9
330
9
100
AcDbSymbolTableRecord
100
AcDbRegAppTableRecord
  2
GEVID1210145344
 70
     0
  0
APPID
  5
4DA
330
9
100
AcDbSymbolTableRecord
100
AcDbRegAppTableRecord
  2
GEVID1210145345
 70
     0
  0
APPID
  5
4DB
330
9
100
AcDbSymbolTableRecord
100
AcDbRegAppTableRecord
  2
GEVID1210152816
 70
     0
  0
APPID
  5
4DC
330
9
100
AcDbSymbolTableRecord
100
AcDbRegAppTableRecord
  2
GEVID1210153850
 70
     0
  0
APPID
  5
4DD
330
9
100
AcDbSymbolTableRecord
100
AcDbRegAppTableRecord
  2
GEVID1210153851
 70
     0
  0
APPID
  5
4DE
330
9
100
AcDbSymbolTableRecord
100
AcDbRegAppTableRecord
  2
GEVID1210153852
 70
     0
  0
APPID
  5
4DF
330
9
100
AcDbSymbolTableRecord
100
AcDbRegAppTableRecord
  2
GEVID1210549898
 70
     0
  0
APPID
  5
4E0
330
9
100
AcDbSymbolTableRecord
100
AcDbRegAppTableRecord
  2
GEVID1210549899
 70
     0
  0
APPID
  5
4E1
330
9
100
AcDbSymbolTableRecord
100
AcDbRegAppTableRecord
  2
GEVID1210549900
 70
     0
  0
APPID
  5
4E2
330
9
100
AcDbSymbolTableRecord
100
AcDbRegAppTableRecord
  2
GEVID1210549901
 70
     0
  0
APPID
  5
4E3
330
9
100
AcDbSymbolTableRecord
100
AcDbRegAppTableRecord
  2
GEVID1210549902
 70
     0
  0
APPID
  5
4E4
330
9
100
AcDbSymbolTableRecord
100
AcDbRegAppTableRecord
  2
GEVID1210549903
 70
     0
  0
APPID
  5
4E5
330
9
100
AcDbSymbolTableRecord
100
AcDbRegAppTableRecord
  2
GEVID1210549904
 70
     0
  0
APPID
  5
4E6
330
9
100
AcDbSymbolTableRecord
100
AcDbRegAppTableRecord
  2
GEVID1210549905
 70
     0
  0
APPID
  5
4E7
330
9
100
AcDbSymbolTableRecord
100
AcDbRegAppTableRecord
  2
GEVID1210549906
 70
     0
  0
APPID
  5
4E8
330
9
100
AcDbSymbolTableRecord
100
AcDbRegAppTableRecord
  2
GEVID1210549907
 70
     0
  0
APPID
  5
4E9
330
9
100
AcDbSymbolTableRecord
100
AcDbRegAppTableRecord
  2
GEVID1210549908
 70
     0
  0
APPID
  5
4EA
330
9
100
AcDbSymbolTableRecord
100
AcDbRegAppTableRecord
  2
GEVID1210549909
 70
     0
  0
APPID
  5
4EB
330
9
100
AcDbSymbolTableRecord
100
AcDbRegAppTableRecord
  2
GEVID1210549910
 70
     0
  0
APPID
  5
4EC
330
9
100
AcDbSymbolTableRecord
100
AcDbRegAppTableRecord
  2
GEVID1210549911
 70
     0
  0
APPID
  5
4ED
330
9
100
AcDbSymbolTableRecord
100
AcDbRegAppTableRecord
  2
GEVID1210549912
 70
     0
  0
APPID
  5
4EE
330
9
100
AcDbSymbolTableRecord
100
AcDbRegAppTableRecord
  2
GEVID1210549913
 70
     0
  0
APPID
  5
4EF
330
9
100
AcDbSymbolTableRecord
100
AcDbRegAppTableRecord
  2
GEVID1210549914
 70
     0
  0
APPID
  5
4F0
330
9
100
AcDbSymbolTableRecord
100
AcDbRegAppTableRecord
  2
GEVID1210549915
 70
     0
  0
APPID
  5
4F1
330
9
100
AcDbSymbolTableRecord
100
AcDbRegAppTableRecord
  2
GEVID1210549916
 70
     0
  0
APPID
  5
4F2
330
9
100
AcDbSymbolTableRecord
100
AcDbRegAppTableRecord
  2
GEVID1210549917
 70
     0
  0
APPID
  5
4F3
330
9
100
AcDbSymbolTableRecord
100
AcDbRegAppTableRecord
  2
GENIUS_GENOBJ-N-CRS_13
 70
     0
  0
APPID
  5
4F4
330
9
100
AcDbSymbolTableRecord
100
AcDbRegAppTableRecord
  2
GEVID1210549918
 70
     0
  0
APPID
  5
4F5
330
9
100
AcDbSymbolTableRecord
100
AcDbRegAppTableRecord
  2
GENIUS_GENOBJ-N-CRC_13
 70
     0
  0
APPID
  5
4F6
330
9
100
AcDbSymbolTableRecord
100
AcDbRegAppTableRecord
  2
GENIUS_GENCRC_14
 70
     0
  0
APPID
  5
4F7
330
9
100
AcDbSymbolTableRecord
100
AcDbRegAppTableRecord
  2
GEVID1210549919
 70
     0
  0
APPID
  5
4F8
330
9
100
AcDbSymbolTableRecord
100
AcDbRegAppTableRecord
  2
GEVID1210549921
 70
     0
  0
APPID
  5
4F9
330
9
100
AcDbSymbolTableRecord
100
AcDbRegAppTableRecord
  2
GEVID1210549922
 70
     0
  0
APPID
  5
4FA
330
9
100
AcDbSymbolTableRecord
100
AcDbRegAppTableRecord
  2
GEVID1210635173
 70
     0
  0
APPID
  5
4FB
330
9
100
AcDbSymbolTableRecord
100
AcDbRegAppTableRecord
  2
GEVID1210635174
 70
     0
  0
APPID
  5
4FC
330
9
100
AcDbSymbolTableRecord
100
AcDbRegAppTableRecord
  2
GEVID1210635175
 70
     0
  0
APPID
  5
4FD
330
9
100
AcDbSymbolTableRecord
100
AcDbRegAppTableRecord
  2
GEVID1210635176
 70
     0
  0
APPID
  5
4FE
330
9
100
AcDbSymbolTableRecord
100
AcDbRegAppTableRecord
  2
GEVID1210635177
 70
     0
  0
APPID
  5
4FF
330
9
100
AcDbSymbolTableRecord
100
AcDbRegAppTableRecord
  2
GEVID1210635178
 70
     0
  0
APPID
  5
500
330
9
100
AcDbSymbolTableRecord
100
AcDbRegAppTableRecord
  2
GENIUS_GENIUS_GENBHEDTMP_13
 70
     0
  0
APPID
  5
501
330
9
100
AcDbSymbolTableRecord
100
AcDbRegAppTableRecord
  2
GEVID1210635179
 70
     0
  0
APPID
  5
502
330
9
100
AcDbSymbolTableRecord
100
AcDbRegAppTableRecord
  2
GEVID1210635180
 70
     0
  0
APPID
  5
503
330
9
100
AcDbSymbolTableRecord
100
AcDbRegAppTableRecord
  2
GEVID1210635181
 70
     0
  0
APPID
  5
504
330
9
100
AcDbSymbolTableRecord
100
AcDbRegAppTableRecord
  2
GEVID1210635182
 70
     0
  0
APPID
  5
505
330
9
100
AcDbSymbolTableRecord
100
AcDbRegAppTableRecord
  2
GEVID1210635184
 70
     0
  0
APPID
  5
506
330
9
100
AcDbSymbolTableRecord
100
AcDbRegAppTableRecord
  2
GEVID1210635185
 70
     0
  0
APPID
  5
507
330
9
100
AcDbSymbolTableRecord
100
AcDbRegAppTableRecord
  2
GEVID1210635186
 70
     0
  0
APPID
  5
508
330
9
100
AcDbSymbolTableRecord
100
AcDbRegAppTableRecord
  2
GEVID1210635187
 70
     0
  0
APPID
  5
509
330
9
100
AcDbSymbolTableRecord
100
AcDbRegAppTableRecord
  2
GEVID1210635188
 70
     0
  0
APPID
  5
50A
330
9
100
AcDbSymbolTableRecord
100
AcDbRegAppTableRecord
  2
GEVID1210635189
 70
     0
  0
APPID
  5
50B
330
9
100
AcDbSymbolTableRecord
100
AcDbRegAppTableRecord
  2
GEVID1210635190
 70
     0
  0
APPID
  5
50C
330
9
100
AcDbSymbolTableRecord
100
AcDbRegAppTableRecord
  2
GENIUS_GENREC_14
 70
     0
  0
APPID
  5
50D
330
9
100
AcDbSymbolTableRecord
100
AcDbRegAppTableRecord
  2
GENIUS_GENOBJ-N-REC_13
 70
     0
  0
APPID
  5
50E
330
9
100
AcDbSymbolTableRecord
100
AcDbRegAppTableRecord
  2
GEVID1210676655
 70
     0
  0
APPID
  5
50F
330
9
100
AcDbSymbolTableRecord
100
AcDbRegAppTableRecord
  2
GEVID1210676656
 70
     0
  0
APPID
  5
510
330
9
100
AcDbSymbolTableRecord
100
AcDbRegAppTableRecord
  2
GEVID1210676657
 70
     0
  0
APPID
  5
511
330
9
100
AcDbSymbolTableRecord
100
AcDbRegAppTableRecord
  2
GEVID1210676659
 70
     0
  0
APPID
  5
512
330
9
100
AcDbSymbolTableRecord
100
AcDbRegAppTableRecord
  2
GEVID1210676660
 70
     0
  0
APPID
  5
513
330
9
100
AcDbSymbolTableRecord
100
AcDbRegAppTableRecord
  2
GEVID1210676661
 70
     0
  0
APPID
  5
514
330
9
100
AcDbSymbolTableRecord
100
AcDbRegAppTableRecord
  2
GEVID1210676662
 70
     0
  0
APPID
  5
515
330
9
100
AcDbSymbolTableRecord
100
AcDbRegAppTableRecord
  2
GEVID1210721646
 70
     0
  0
APPID
  5
516
330
9
100
AcDbSymbolTableRecord
100
AcDbRegAppTableRecord
  2
GEVID1210721647
 70
     0
  0
APPID
  5
517
330
9
100
AcDbSymbolTableRecord
100
AcDbRegAppTableRecord
  2
GEVID1210721648
 70
     0
  0
APPID
  5
518
330
9
100
AcDbSymbolTableRecord
100
AcDbRegAppTableRecord
  2
GEVID1210721649
 70
     0
  0
APPID
  5
519
330
9
100
AcDbSymbolTableRecord
100
AcDbRegAppTableRecord
  2
GEVID1210721650
 70
     0
  0
APPID
  5
51A
330
9
100
AcDbSymbolTableRecord
100
AcDbRegAppTableRecord
  2
GEVID1210721651
 70
     0
  0
APPID
  5
51B
330
9
100
AcDbSymbolTableRecord
100
AcDbRegAppTableRecord
  2
GEVID1210721652
 70
     0
  0
APPID
  5
51C
330
9
100
AcDbSymbolTableRecord
100
AcDbRegAppTableRecord
  2
GEVID1210721653
 70
     0
  0
APPID
  5
51D
330
9
100
AcDbSymbolTableRecord
100
AcDbRegAppTableRecord
  2
PE_URL
 70
     0
  0
APPID
  5
51E
330
9
100
AcDbSymbolTableRecord
100
AcDbRegAppTableRecord
  2
GEVID1210825555
 70
     0
  0
APPID
  5
51F
330
9
100
AcDbSymbolTableRecord
100
AcDbRegAppTableRecord
  2
GEVID1210825556
 70
     0
  0
APPID
  5
520
330
9
100
AcDbSymbolTableRecord
100
AcDbRegAppTableRecord
  2
GEVID1210825557
 70
     0
  0
APPID
  5
521
330
9
100
AcDbSymbolTableRecord
100
AcDbRegAppTableRecord
  2
GEVID1210825558
 70
     0
  0
APPID
  5
522
330
9
100
AcDbSymbolTableRecord
100
AcDbRegAppTableRecord
  2
GEVID1210825559
 70
     0
  0
APPID
  5
523
330
9
100
AcDbSymbolTableRecord
100
AcDbRegAppTableRecord
  2
GEVID1210825560
 70
     0
  0
APPID
  5
524
330
9
100
AcDbSymbolTableRecord
100
AcDbRegAppTableRecord
  2
GEVID1210825561
 70
     0
  0
APPID
  5
525
330
9
100
AcDbSymbolTableRecord
100
AcDbRegAppTableRecord
  2
GEVID1210825562
 70
     0
  0
APPID
  5
526
330
9
100
AcDbSymbolTableRecord
100
AcDbRegAppTableRecord
  2
GEVID1210825563
 70
     0
  0
APPID
  5
527
330
9
100
AcDbSymbolTableRecord
100
AcDbRegAppTableRecord
  2
GEVID1210825564
 70
     0
  0
APPID
  5
528
330
9
100
AcDbSymbolTableRecord
100
AcDbRegAppTableRecord
  2
GEVID1210825565
 70
     0
  0
APPID
  5
529
330
9
100
AcDbSymbolTableRecord
100
AcDbRegAppTableRecord
  2
GEVID1210825566
 70
     0
  0
APPID
  5
52A
330
9
100
AcDbSymbolTableRecord
100
AcDbRegAppTableRecord
  2
GEVID1210825567
 70
     0
  0
APPID
  5
52B
330
9
100
AcDbSymbolTableRecord
100
AcDbRegAppTableRecord
  2
GENIUS_GENOBJ-N-ZOO_13
 70
     0
  0
APPID
  5
52C
330
9
100
AcDbSymbolTableRecord
100
AcDbRegAppTableRecord
  2
GENIUS_GENZOO_17
 70
     0
  0
APPID
  5
52D
330
9
100
AcDbSymbolTableRecord
100
AcDbRegAppTableRecord
  2
ACADANNOTATIVEDECOMPOSITION
 70
     0
  0
APPID
  5
52E
330
9
100
AcDbSymbolTableRecord
100
AcDbRegAppTableRecord
  2
GENIUS_GENOBJ-N-HTC_13
 70
     0
  0
APPID
  5
52F
330
9
100
AcDbSymbolTableRecord
100
AcDbRegAppTableRecord
  2
GENIUS_GENHATCH_13
 70
     0
  0
APPID
  5
530
330
9
100
AcDbSymbolTableRecord
100
AcDbRegAppTableRecord
  2
GEVID1210896020
 70
     0
  0
APPID
  5
531
330
9
100
AcDbSymbolTableRecord
100
AcDbRegAppTableRecord
  2
GEVID1210896021
 70
     0
  0
APPID
  5
532
330
9
100
AcDbSymbolTableRecord
100
AcDbRegAppTableRecord
  2
GEVID1209083540
 70
     0
  0
APPID
  5
533
330
9
100
AcDbSymbolTableRecord
100
AcDbRegAppTableRecord
  2
GEVMK
 70
     0
  0
APPID
  5
534
330
9
100
AcDbSymbolTableRecord
100
AcDbRegAppTableRecord
  2
GEVID1209083542
 70
     0
  0
APPID
  5
535
330
9
100
AcDbSymbolTableRecord
100
AcDbRegAppTableRecord
  2
GEVID1209083543
 70
     0
  0
APPID
  5
536
330
9
100
AcDbSymbolTableRecord
100
AcDbRegAppTableRecord
  2
GEVID1209083544
 70
     0
  0
APPID
  5
537
330
9
100
AcDbSymbolTableRecord
100
AcDbRegAppTableRecord
  2
GEVID1209083545
 70
     0
  0
APPID
  5
538
330
9
100
AcDbSymbolTableRecord
100
AcDbRegAppTableRecord
  2
GEVID1209083546
 70
     0
  0
APPID
  5
539
330
9
100
AcDbSymbolTableRecord
100
AcDbRegAppTableRecord
  2
GEVID1209083547
 70
     0
  0
APPID
  5
53A
330
9
100
AcDbSymbolTableRecord
100
AcDbRegAppTableRecord
  2
GEVID1209083548
 70
     0
  0
APPID
  5
53B
330
9
100
AcDbSymbolTableRecord
100
AcDbRegAppTableRecord
  2
GEVID1209083549
 70
     0
  0
APPID
  5
53C
330
9
100
AcDbSymbolTableRecord
100
AcDbRegAppTableRecord
  2
GEVID1209083550
 70
     0
  0
APPID
  5
53D
330
9
100
AcDbSymbolTableRecord
100
AcDbRegAppTableRecord
  2
GEVID1209083551
 70
     0
  0
APPID
  5
53E
330
9
100
AcDbSymbolTableRecord
100
AcDbRegAppTableRecord
  2
GEVID1209083552
 70
     0
  0
APPID
  5
53F
330
9
100
AcDbSymbolTableRecord
100
AcDbRegAppTableRecord
  2
GEVID1209083553
 70
     0
  0
APPID
  5
540
330
9
100
AcDbSymbolTableRecord
100
AcDbRegAppTableRecord
  2
GEVID1210896022
 70
     0
  0
APPID
  5
541
330
9
100
AcDbSymbolTableRecord
100
AcDbRegAppTableRecord
  2
GEVID1211508364
 70
     0
  0
APPID
  5
542
330
9
100
AcDbSymbolTableRecord
100
AcDbRegAppTableRecord
  2
GEVID1211414908
 70
     0
  0
APPID
  5
543
330
9
100
AcDbSymbolTableRecord
100
AcDbRegAppTableRecord
  2
GEVID1211414909
 70
     0
  0
APPID
  5
544
330
9
100
AcDbSymbolTableRecord
100
AcDbRegAppTableRecord
  2
GEVID1211508359
 70
     0
  0
APPID
  5
545
330
9
100
AcDbSymbolTableRecord
100
AcDbRegAppTableRecord
  2
GEVID1211508360
 70
     0
  0
APPID
  5
546
330
9
100
AcDbSymbolTableRecord
100
AcDbRegAppTableRecord
  2
GEVID1211508361
 70
     0
  0
APPID
  5
547
330
9
100
AcDbSymbolTableRecord
100
AcDbRegAppTableRecord
  2
GEVID1211508362
 70
     0
  0
APPID
  5
548
330
9
100
AcDbSymbolTableRecord
100
AcDbRegAppTableRecord
  2
GEVID1211508363
 70
     0
  0
APPID
  5
549
330
9
100
AcDbSymbolTableRecord
100
AcDbRegAppTableRecord
  2
GEVID1211878469
 70
     0
  0
APPID
  5
54A
330
9
100
AcDbSymbolTableRecord
100
AcDbRegAppTableRecord
  2
GEVID1212642819
 70
     0
  0
APPID
  5
54B
330
9
100
AcDbSymbolTableRecord
100
AcDbRegAppTableRecord
  2
GEVID1212642820
 70
     0
  0
APPID
  5
54C
330
9
100
AcDbSymbolTableRecord
100
AcDbRegAppTableRecord
  2
GEVID1212642821
 70
     0
  0
APPID
  5
54D
330
9
100
AcDbSymbolTableRecord
100
AcDbRegAppTableRecord
  2
GEVID1212642822
 70
     0
  0
APPID
  5
54E
330
9
100
AcDbSymbolTableRecord
100
AcDbRegAppTableRecord
  2
GEVID1212642823
 70
     0
  0
APPID
  5
54F
330
9
100
AcDbSymbolTableRecord
100
AcDbRegAppTableRecord
  2
GEVID1212642825
 70
     0
  0
APPID
  5
550
330
9
100
AcDbSymbolTableRecord
100
AcDbRegAppTableRecord
  2
GEVID1212642826
 70
     0
  0
APPID
  5
551
330
9
100
AcDbSymbolTableRecord
100
AcDbRegAppTableRecord
  2
GEVID1212642827
 70
     0
  0
APPID
  5
552
330
9
100
AcDbSymbolTableRecord
100
AcDbRegAppTableRecord
  2
GEVID1212642828
 70
     0
  0
APPID
  5
553
330
9
100
AcDbSymbolTableRecord
100
AcDbRegAppTableRecord
  2
GEVID1212642831
 70
     0
  0
APPID
  5
554
330
9
100
AcDbSymbolTableRecord
100
AcDbRegAppTableRecord
  2
GEVID1212642834
 70
     0
  0
APPID
  5
555
330
9
100
AcDbSymbolTableRecord
100
AcDbRegAppTableRecord
  2
GEVID1212642835
 70
     0
  0
APPID
  5
556
330
9
100
AcDbSymbolTableRecord
100
AcDbRegAppTableRecord
  2
GEVID1212642836
 70
     0
  0
APPID
  5
557
330
9
100
AcDbSymbolTableRecord
100
AcDbRegAppTableRecord
  2
GEVID1212642837
 70
     0
  0
APPID
  5
558
330
9
100
AcDbSymbolTableRecord
100
AcDbRegAppTableRecord
  2
GEVID1212642839
 70
     0
  0
APPID
  5
559
330
9
100
AcDbSymbolTableRecord
100
AcDbRegAppTableRecord
  2
GEVID1212642840
 70
     0
  0
APPID
  5
55A
330
9
100
AcDbSymbolTableRecord
100
AcDbRegAppTableRecord
  2
GEVID1212642841
 70
     0
  0
APPID
  5
55B
330
9
100
AcDbSymbolTableRecord
100
AcDbRegAppTableRecord
  2
GEVID1212655312
 70
     0
  0
APPID
  5
55C
330
9
100
AcDbSymbolTableRecord
100
AcDbRegAppTableRecord
  2
GEVID1212655313
 70
     0
  0
APPID
  5
55D
330
9
100
AcDbSymbolTableRecord
100
AcDbRegAppTableRecord
  2
GEVID1212656533
 70
     0
  0
APPID
  5
55E
330
9
100
AcDbSymbolTableRecord
100
AcDbRegAppTableRecord
  2
GEVID1212656534
 70
     0
  0
APPID
  5
55F
330
9
100
AcDbSymbolTableRecord
100
AcDbRegAppTableRecord
  2
GEVID1212656535
 70
     0
  0
APPID
  5
560
330
9
100
AcDbSymbolTableRecord
100
AcDbRegAppTableRecord
  2
GEVID1212656536
 70
     0
  0
APPID
  5
561
330
9
100
AcDbSymbolTableRecord
100
AcDbRegAppTableRecord
  2
GEVID1212656538
 70
     0
  0
APPID
  5
562
330
9
100
AcDbSymbolTableRecord
100
AcDbRegAppTableRecord
  2
GEVID1212656541
 70
     0
  0
APPID
  5
563
330
9
100
AcDbSymbolTableRecord
100
AcDbRegAppTableRecord
  2
GEVID1212656543
 70
     0
  0
APPID
  5
564
330
9
100
AcDbSymbolTableRecord
100
AcDbRegAppTableRecord
  2
GENIUS_GENOBJ-F-PFASSM_13
 70
     0
  0
APPID
  5
565
330
9
100
AcDbSymbolTableRecord
100
AcDbRegAppTableRecord
  2
GEVID1212656544
 70
     0
  0
APPID
  5
566
330
9
100
AcDbSymbolTableRecord
100
AcDbRegAppTableRecord
  2
GEVID1212656545
 70
     0
  0
APPID
  5
567
330
9
100
AcDbSymbolTableRecord
100
AcDbRegAppTableRecord
  2
GEVID1212656546
 70
     0
  0
APPID
  5
568
330
9
100
AcDbSymbolTableRecord
100
AcDbRegAppTableRecord
  2
GEVID1212656547
 70
     0
  0
APPID
  5
569
330
9
100
AcDbSymbolTableRecord
100
AcDbRegAppTableRecord
  2
GEVID1212656548
 70
     0
  0
APPID
  5
56A
330
9
100
AcDbSymbolTableRecord
100
AcDbRegAppTableRecord
  2
GEVID1212656549
 70
     0
  0
APPID
  5
56B
330
9
100
AcDbSymbolTableRecord
100
AcDbRegAppTableRecord
  2
GEVID1212656550
 70
     0
  0
APPID
  5
56C
330
9
100
AcDbSymbolTableRecord
100
AcDbRegAppTableRecord
  2
GEVID1212656552
 70
     0
  0
APPID
  5
56D
330
9
100
AcDbSymbolTableRecord
100
AcDbRegAppTableRecord
  2
GEVID1212656553
 70
     0
  0
APPID
  5
56E
330
9
100
AcDbSymbolTableRecord
100
AcDbRegAppTableRecord
  2
GEVID1212656554
 70
     0
  0
APPID
  5
56F
330
9
100
AcDbSymbolTableRecord
100
AcDbRegAppTableRecord
  2
GEVID1212656555
 70
     0
  0
APPID
  5
570
330
9
100
AcDbSymbolTableRecord
100
AcDbRegAppTableRecord
  2
GEVID1212656556
 70
     0
  0
APPID
  5
571
330
9
100
AcDbSymbolTableRecord
100
AcDbRegAppTableRecord
  2
GEVID1212656557
 70
     0
  0
APPID
  5
572
330
9
100
AcDbSymbolTableRecord
100
AcDbRegAppTableRecord
  2
GEVID1212656559
 70
     0
  0
APPID
  5
573
330
9
100
AcDbSymbolTableRecord
100
AcDbRegAppTableRecord
  2
GEVID1212656560
 70
     0
  0
APPID
  5
574
330
9
100
AcDbSymbolTableRecord
100
AcDbRegAppTableRecord
  2
GEVID1212656561
 70
     0
  0
APPID
  5
575
330
9
100
AcDbSymbolTableRecord
100
AcDbRegAppTableRecord
  2
GEVID1212656562
 70
     0
  0
APPID
  5
576
330
9
100
AcDbSymbolTableRecord
100
AcDbRegAppTableRecord
  2
GEVID1212656563
 70
     0
  0
APPID
  5
577
330
9
100
AcDbSymbolTableRecord
100
AcDbRegAppTableRecord
  2
GEVID1212711781
 70
     0
  0
APPID
  5
578
330
9
100
AcDbSymbolTableRecord
100
AcDbRegAppTableRecord
  2
GEVID1212711782
 70
     0
  0
APPID
  5
579
330
9
100
AcDbSymbolTableRecord
100
AcDbRegAppTableRecord
  2
GEVID1212711783
 70
     0
  0
APPID
  5
57A
330
9
100
AcDbSymbolTableRecord
100
AcDbRegAppTableRecord
  2
GEVID1212711784
 70
     0
  0
APPID
  5
57B
330
9
100
AcDbSymbolTableRecord
100
AcDbRegAppTableRecord
  2
GEVID1212711788
 70
     0
  0
APPID
  5
57C
330
9
100
AcDbSymbolTableRecord
100
AcDbRegAppTableRecord
  2
GEVID1212711789
 70
     0
  0
APPID
  5
57D
330
9
100
AcDbSymbolTableRecord
100
AcDbRegAppTableRecord
  2
GEVID1212711790
 70
     0
  0
APPID
  5
57E
330
9
100
AcDbSymbolTableRecord
100
AcDbRegAppTableRecord
  2
GEVID1212711791
 70
     0
  0
APPID
  5
57F
330
9
100
AcDbSymbolTableRecord
100
AcDbRegAppTableRecord
  2
GEVID1212711792
 70
     0
  0
APPID
  5
580
330
9
100
AcDbSymbolTableRecord
100
AcDbRegAppTableRecord
  2
GEVID1212711793
 70
     0
  0
APPID
  5
581
330
9
100
AcDbSymbolTableRecord
100
AcDbRegAppTableRecord
  2
GEVID1212711794
 70
     0
  0
APPID
  5
582
330
9
100
AcDbSymbolTableRecord
100
AcDbRegAppTableRecord
  2
GEVID1212711795
 70
     0
  0
APPID
  5
583
330
9
100
AcDbSymbolTableRecord
100
AcDbRegAppTableRecord
  2
GEVID1212711797
 70
     0
  0
APPID
  5
584
330
9
100
AcDbSymbolTableRecord
100
AcDbRegAppTableRecord
  2
GEVID1212711798
 70
     0
  0
APPID
  5
585
330
9
100
AcDbSymbolTableRecord
100
AcDbRegAppTableRecord
  2
GEVID1212711799
 70
     0
  0
APPID
  5
586
330
9
100
AcDbSymbolTableRecord
100
AcDbRegAppTableRecord
  2
GEVID1212711800
 70
     0
  0
APPID
  5
587
330
9
100
AcDbSymbolTableRecord
100
AcDbRegAppTableRecord
  2
GEVID1212711801
 70
     0
  0
APPID
  5
588
330
9
100
AcDbSymbolTableRecord
100
AcDbRegAppTableRecord
  2
GEVID1212711802
 70
     0
  0
APPID
  5
589
330
9
100
AcDbSymbolTableRecord
100
AcDbRegAppTableRecord
  2
GEVID1212711803
 70
     0
  0
APPID
  5
58A
330
9
100
AcDbSymbolTableRecord
100
AcDbRegAppTableRecord
  2
GEVID1212711804
 70
     0
  0
APPID
  5
58B
330
9
100
AcDbSymbolTableRecord
100
AcDbRegAppTableRecord
  2
GEVID1212711805
 70
     0
  0
APPID
  5
58C
330
9
100
AcDbSymbolTableRecord
100
AcDbRegAppTableRecord
  2
GEVID1212711806
 70
     0
  0
APPID
  5
58D
330
9
100
AcDbSymbolTableRecord
100
AcDbRegAppTableRecord
  2
GEVID1212711807
 70
     0
  0
APPID
  5
58E
330
9
100
AcDbSymbolTableRecord
100
AcDbRegAppTableRecord
  2
GEVID1212711808
 70
     0
  0
APPID
  5
58F
330
9
100
AcDbSymbolTableRecord
100
AcDbRegAppTableRecord
  2
GEVID1212711809
 70
     0
  0
APPID
  5
590
330
9
100
AcDbSymbolTableRecord
100
AcDbRegAppTableRecord
  2
GEVID1212711810
 70
     0
  0
APPID
  5
591
330
9
100
AcDbSymbolTableRecord
100
AcDbRegAppTableRecord
  2
GEVID1212711811
 70
     0
  0
APPID
  5
90A
330
9
100
AcDbSymbolTableRecord
100
AcDbRegAppTableRecord
  2
GENIUS_GENTRA_14
 70
     0
  0
APPID
  5
919
330
9
100
AcDbSymbolTableRecord
100
AcDbRegAppTableRecord
  2
GENIUS_GENOBJ-N-TIT_13
 70
     0
  0
APPID
  5
91A
330
9
100
AcDbSymbolTableRecord
100
AcDbRegAppTableRecord
  2
GENIUS_GENTITLE_13
 70
     0
  0
APPID
  5
949
330
9
100
AcDbSymbolTableRecord
100
AcDbRegAppTableRecord
  2
GENIUS_GENBLLY_14
 70
     0
  0
APPID
  5
DDD
330
9
100
AcDbSymbolTableRecord
100
AcDbRegAppTableRecord
  2
GEVID1213165152
 70
     0
  0
APPID
  5
12F9
330
9
100
AcDbSymbolTableRecord
100
AcDbRegAppTableRecord
  2
AcDbDynamicBlockTrueName
 70
     0
  0
APPID
  5
12FA
330
9
100
AcDbSymbolTableRecord
100
AcDbRegAppTableRecord
  2
ACDBBLOCKREPETAG
 70
     0
  0
APPID
  5
1C15
330
9
100
AcDbSymbolTableRecord
100
AcDbRegAppTableRecord
  2
GEVID1214872427
 70
     0
  0
APPID
  5
1C2A
330
9
100
AcDbSymbolTableRecord
100
AcDbRegAppTableRecord
  2
GEVID1214872428
 70
     0
  0
APPID
  5
1C2F
330
9
100
AcDbSymbolTableRecord
100
AcDbRegAppTableRecord
  2
GEVID1214872429
 70
     0
  0
APPID
  5
1C33
330
9
100
AcDbSymbolTableRecord
100
AcDbRegAppTableRecord
  2
GEVID1214872430
 70
     0
  0
APPID
  5
1C3F
330
9
100
AcDbSymbolTableRecord
100
AcDbRegAppTableRecord
  2
GEVID1214872432
 70
     0
  0
APPID
  5
1C4E
330
9
100
AcDbSymbolTableRecord
100
AcDbRegAppTableRecord
  2
GEVID1214872433
 70
     0
  0
APPID
  5
20DC
330
9
100
AcDbSymbolTableRecord
100
AcDbRegAppTableRecord
  2
AcDbDynamicBlockGUID
 70
     0
  0
APPID
  5
20FD
330
9
100
AcDbSymbolTableRecord
100
AcDbRegAppTableRecord
  2
GENIUS_GENOBJ-N-REV_13
 70
     0
  0
APPID
  5
20FE
330
9
100
AcDbSymbolTableRecord
100
AcDbRegAppTableRecord
  2
GENIUS_GENOBJ-N-RSSYM_13
 70
     0
  0
APPID
  5
20FF
330
9
100
AcDbSymbolTableRecord
100
AcDbRegAppTableRecord
  2
GENIUS_GENSYMENT_13
 70
     0
  0
APPID
  5
2100
330
9
100
AcDbSymbolTableRecord
100
AcDbRegAppTableRecord
  2
GENIUS_GENSCSYM_13
 70
     0
  0
APPID
  5
4C01
330
9
100
AcDbSymbolTableRecord
100
AcDbRegAppTableRecord
  2
GEVID1237775411
 70
     0
  0
APPID
  5
4C07
330
9
100
AcDbSymbolTableRecord
100
AcDbRegAppTableRecord
  2
GEVID1237775412
 70
     0
  0
APPID
  5
5204
330
9
100
AcDbSymbolTableRecord
100
AcDbRegAppTableRecord
  2
GEVID1237775413
 70
     0
  0
APPID
  5
521B
330
9
100
AcDbSymbolTableRecord
100
AcDbRegAppTableRecord
  2
GEVID1237775414
 70
     0
  0
ENDTAB
  0
TABLE
  2
DIMSTYLE
  5
A
330
0
100
AcDbSymbolTable
 70
    29
100
AcDbDimStyleTable
 71
     1
340
5AB
  0
DIMSTYLE
105
5AB
330
A
100
AcDbSymbolTableRecord
100
AcDbDimStyleTableRecord
  2
SEISA
 70
     0
  4
"
 40
5.0
 41
2.5
 42
0.625
 43
10.0
 44
0.625
 47
0.1
 48
0.1
 73
     0
 74
     0
 77
     3
 78
     8
 79
     2
 90
     1
140
3.5
141
0.0
143
0.0393701
146
0.71
147
1.5
172
     1
176
     3
177
     3
178
     3
271
     2
272
     2
283
     0
286
     8
340
5D5
341
69
342
69
371
    -1
372
    -1
1001
ACAD_DSTYLE_DIMJAG
1070
   388
1040
1.5
1001
ACAD_DSTYLE_DIMTALN
1070
   392
1070
     1
  0
DIMSTYLE
105
5E9
102
{ACAD_REACTORS
330
4D64
330
4DA8
330
4DC0
330
4DDC
330
4E7F
330
4EFC
330
4F18
330
503D
330
5055
330
506D
330
5085
330
5120
330
5138
330
5150
330
697E
330
69AC
330
69F4
102
}
330
A
100
AcDbSymbolTableRecord
100
AcDbDimStyleTableRecord
  2
SEISA$0
 70
     0
  4
"
 40
5.0
 41
2.5
 42
0.625
 43
10.0
 44
0.625
 47
0.1
 48
0.1
 73
     0
 74
     0
 77
     3
 78
     8
 79
     2
 90
     1
140
3.5
141
0.0
143
0.0393701
146
0.71
147
1.5
172
     1
176
     3
177
     3
178
     3
271
     2
272
     2
283
     0
286
     8
340
5D5
341
69
342
69
371
    -1
372
    -1
  0
DIMSTYLE
105
6C6B
330
A
100
AcDbSymbolTableRecord
100
AcDbDimStyleTableRecord
  2
AM_ISO
 70
     0
  4
"
 41
2.5
 42
1.0
 43
10.0
 44
1.0
 47
0.1
 48
0.1
 73
     0
 74
     0
 77
     1
 78
     8
 79
     2
 90
     1
140
3.5
141
0.0
143
0.0393701
146
0.71
147
1.5
172
     1
176
   256
177
   256
178
     2
271
     2
272
     3
274
     4
283
     0
284
     8
340
11
371
    -1
372
    -1
  0
DIMSTYLE
105
6C6C
330
A
100
AcDbSymbolTableRecord
100
AcDbDimStyleTableRecord
  2
AM_ISO$3
 70
     0
  4
"
 41
2.5
 42
1.0
 43
10.0
 44
1.0
 47
0.1
 48
0.1
 73
     0
 77
     1
 78
     8
 79
     2
 90
     1
140
3.5
141
0.0
143
0.0393701
146
0.71
147
1.5
176
   256
177
   256
178
     2
271
     2
272
     3
274
     4
283
     0
284
     8
288
     1
289
     0
340
11
371
    -1
372
    -1
  0
DIMSTYLE
105
6C6D
330
A
100
AcDbSymbolTableRecord
100
AcDbDimStyleTableRecord
  2
AM_ISO$4
 70
     0
  4
"
 41
2.5
 42
1.0
 43
10.0
 44
1.0
 47
0.1
 48
0.1
 73
     0
 77
     1
 78
     8
 79
     2
 90
     1
140
3.5
141
0.0
143
0.0393701
146
0.71
147
1.5
176
   256
177
   256
178
     2
271
     2
272
     3
274
     4
283
     0
284
     8
288
     1
289
     0
340
11
371
    -1
372
    -1
  0
DIMSTYLE
105
6C6E
330
A
100
AcDbSymbolTableRecord
100
AcDbDimStyleTableRecord
  2
AM_ISO$6
 70
     0
  4
"
 41
2.5
 42
1.0
 43
10.0
 44
1.0
 47
0.1
 48
0.1
 73
     0
 74
     0
 78
     8
 79
     2
 90
     1
140
3.5
141
0.0
143
0.0393701
146
0.71
147
1.5
172
     1
176
   256
177
   256
178
     2
271
     2
272
     3
274
     4
283
     0
284
     8
340
11
371
    -1
372
    -1
  0
DIMSTYLE
105
6C6F
330
A
100
AcDbSymbolTableRecord
100
AcDbDimStyleTableRecord
  2
AM_ISO$7
 70
     0
  4
"
 41
2.5
 42
1.0
 43
10.0
 44
1.0
 47
0.1
 48
0.1
 73
     0
 74
     0
 77
     1
 78
     8
 79
     2
 90
     1
140
5.0
141
0.0
143
0.0393701
146
0.71
147
1.5
172
     1
176
   256
177
   256
178
     2
271
     2
272
     3
274
     4
283
     0
284
     8
340
11
371
    -1
372
    -1
  0
DIMSTYLE
105
6C70
330
A
100
AcDbSymbolTableRecord
100
AcDbDimStyleTableRecord
  2
AM_ISO$SF
 70
     0
  4
"
 41
2.5
 42
1.0
 43
10.0
 44
1.0
 47
0.1
 48
0.1
 73
     0
 74
     0
 75
     1
 76
     1
 77
     1
 78
     8
 79
     2
 90
     1
140
3.5
141
0.0
143
0.0393701
146
0.71
147
1.5
172
     1
176
   256
177
   256
178
     2
271
     2
272
     3
274
     4
283
     0
284
     8
340
11
371
    -1
372
    -1
  0
DIMSTYLE
105
6C71
330
A
100
AcDbSymbolTableRecord
100
AcDbDimStyleTableRecord
  2
AM_ISO$SH
 70
     0
  4
"
 41
2.5
 42
1.0
 43
10.0
 44
1.0
 47
0.1
 48
0.1
 73
     0
 74
     0
 75
     1
 76
     1
 77
     1
 78
     8
 79
     2
 90
     1
140
3.5
141
0.0
143
0.0393701
144
2.0
146
0.71
147
1.5
172
     1
173
     1
176
   256
177
   256
178
     2
271
     2
272
     3
274
     4
283
     0
284
     8
340
11
343
74
371
    -1
372
    -1
  0
ENDTAB
  0
TABLE
  2
BLOCK_RECORD
  5
1
330
0
100
AcDbSymbolTable
 70
    31
  0
BLOCK_RECORD
  5
1F
102
{ACAD_XDICTIONARY
360
82
102
}
330
1
100
AcDbSymbolTableRecord
100
AcDbBlockTableRecord
  2
*Model_Space
340
22
 70
     0
280
     1
281
     0
  0
BLOCK_RECORD
  5
1B
330
1
100
AcDbSymbolTableRecord
100
AcDbBlockTableRecord
  2
*Paper_Space
340
1E
 70
     0
280
     1
281
     0
  0
BLOCK_RECORD
  5
23
330
1
100
AcDbSymbolTableRecord
100
AcDbBlockTableRecord
  2
*Paper_Space0
340
26
 70
     0
280
     1
281
     0
  0
BLOCK_RECORD
  5
69
330
1
100
AcDbSymbolTableRecord
100
AcDbBlockTableRecord
  2
_Open30
340
0
102
{BLKREFS
331
6418
331
6419
331
6421
331
6422
331
642D
331
642E
331
6454
331
645F
331
6479
331
647A
331
6482
331
6483
331
648B
331
648C
331
6494
331
6495
331
649D
331
649E
331
64A6
331
64A7
331
64AF
331
64B0
331
69A6
331
69A7
331
69EF
331
69F0
331
6A27
331
6A28
331
6A51
331
6A52
331
6A63
331
6A64
102
}
 70
     0
280
     1
281
     0
  0
BLOCK_RECORD
  5
74
330
1
100
AcDbSymbolTableRecord
100
AcDbBlockTableRecord
  2
GENAXEH
340
0
 70
     0
280
     1
281
     0
  0
BLOCK_RECORD
  5
3463
102
{ACAD_XDICTIONARY
360
3464
102
}
330
1
100
AcDbSymbolTableRecord
100
AcDbBlockTableRecord
  2
ロッカクアナツキプラグ R1／4
340
0
310
2800000020000000200000000100080000000000000400000000000000000000000000000000000000000000000080000080000000808000800000008000800080800000C0C0C000C0DCC000F0CAA6000020400000206000002080000020A0000020C0000020E00000400000004020000040400000406000004080000040A0
310
000040C0000040E00000600000006020000060400000606000006080000060A0000060C0000060E00000800000008020000080400000806000008080000080A0000080C0000080E00000A0000000A0200000A0400000A0600000A0800000A0A00000A0C00000A0E00000C0000000C0200000C0400000C0600000C0800000C0
310
A00000C0C00000C0E00000E0000000E0200000E0400000E0600000E0800000E0A00000E0C00000E0E00040000000400020004000400040006000400080004000A0004000C0004000E00040200000402020004020400040206000402080004020A0004020C0004020E000404000004040200040404000404060004040800040
310
40A0004040C0004040E00040600000406020004060400040606000406080004060A0004060C0004060E00040800000408020004080400040806000408080004080A0004080C0004080E00040A0000040A0200040A0400040A0600040A0800040A0A00040A0C00040A0E00040C0000040C0200040C0400040C0600040C08000
310
40C0A00040C0C00040C0E00040E0000040E0200040E0400040E0600040E0800040E0A00040E0C00040E0E00080000000800020008000400080006000800080008000A0008000C0008000E00080200000802020008020400080206000802080008020A0008020C0008020E00080400000804020008040400080406000804080
310
008040A0008040C0008040E00080600000806020008060400080606000806080008060A0008060C0008060E00080800000808020008080400080806000808080008080A0008080C0008080E00080A0000080A0200080A0400080A0600080A0800080A0A00080A0C00080A0E00080C0000080C0200080C0400080C0600080C0
310
800080C0A00080C0C00080C0E00080E0000080E0200080E0400080E0600080E0800080E0A00080E0C00080E0E000C0000000C0002000C0004000C0006000C0008000C000A000C000C000C000E000C0200000C0202000C0204000C0206000C0208000C020A000C020C000C020E000C0400000C0402000C0404000C0406000C0
310
408000C040A000C040C000C040E000C0600000C0602000C0604000C0606000C0608000C060A000C060C000C060E000C0800000C0802000C0804000C0806000C0808000C080A000C080C000C080E000C0A00000C0A02000C0A04000C0A06000C0A08000C0A0A000C0A0C000C0A0E000C0C00000C0C02000C0C04000C0C06000
310
C0C08000C0C0A000F0FBFF00A4A0A000808080000000FF0000FF000000FFFF00FF000000FF00FF00FFFF0000FFFFFF00000000000000000000000000000000000000000000000000000000000000000000000000000000000000000000000000F9000000000000000000000000000000000000000000000000000000000000
310
00F9000000000000000000000000000000000000000000000000000000000000FFF9000000000000000000000000000000000000000000000000000000FFFFFF00F9FFFFFF00000000000000000000000000000000000000000000FFFFFEFEFEFEFEFEFEFEFEFF000000000000000000000000000000000000FFFFFEFE0000
310
0000F900000000FEFFFF000000000000000000000000000000FF00FE000000000000F90000000000FE00FF00000000000000000000000000FF00FE00000000000000F9000000000000FEFEFF000000000000000000000000FFFE0000000000000000F900000000000000FE00FF00000000000000000000FFFE000000000000
310
000000FF0000000000000000FEFF00000000000000000000FFFE00000000000000FFFFF9FF00000000000000FEFF000000000000000000FFFE000000000000FFFF0000F900FFFF000000000000FEFF0000000000000000FFFE0000000000FF00000000F9000000FF0000000000FEFF0000000000000000FFFE0000000000FF
310
00000000F9000000FF0000000000FEFF00000000000000FF00FE0000000000FF00000000F9000000FF0000000000FE00FF00000000F9F9F9F9F9F9F9F9F9F9FFF9F9F9F9F9F9F9F9FFF9F9F9F9F9F9F9F9F9F90000000000FFFE0000000000FF00000000F9000000FF0000000000FE00FF00000000000000FFFE0000000000
310
FF00000000F9000000FF0000000000FEFF0000000000000000FFFE000000000000FFFF0000F90000FF000000000000FEFF000000000000000000FFFE00000000000000FFFFF9FFFF000000000000FEFF00000000000000000000FFFE000000000000000000FF0000000000000000FEFF0000000000000000000000FFFE0000
310
000000000000F900000000000000FE00FF0000000000000000000000FF00FE00000000000000F900000000000000FEFF00000000000000000000000000FF00FE000000000000F90000000000FEFEFF000000000000000000000000000000FF00FE0000000000F900000000FE00FF0000000000000000000000000000000000
310
FFFFFEFEFEFEFEFEFEFEFEFEFFFF000000000000000000000000000000000000000000FFFFFF00F900FFFF000000000000000000000000000000000000000000000000000000FFF9FF000000000000000000000000000000000000000000000000000000000000F90000000000000000000000000000000000000000000000
310
0000000000000000F90000000000000000000000000000000000000000000000000000000000000000000000000000000000000000000000
102
{BLKREFS
331
46F3
102
}
 70
     4
280
     1
281
     0
  0
BLOCK_RECORD
  5
46B6
102
{ACAD_XDICTIONARY
360
4797
102
}
330
1
100
AcDbSymbolTableRecord
100
AcDbBlockTableRecord
  2
ケースＡ SEM400
340
0
310
2800000020000000200000000100080000000000000400000000000000000000000000000000000000000000000080000080000000808000800000008000800080800000C0C0C000C0DCC000F0CAA6000020400000206000002080000020A0000020C0000020E00000400000004020000040400000406000004080000040A0
310
000040C0000040E00000600000006020000060400000606000006080000060A0000060C0000060E00000800000008020000080400000806000008080000080A0000080C0000080E00000A0000000A0200000A0400000A0600000A0800000A0A00000A0C00000A0E00000C0000000C0200000C0400000C0600000C0800000C0
310
A00000C0C00000C0E00000E0000000E0200000E0400000E0600000E0800000E0A00000E0C00000E0E00040000000400020004000400040006000400080004000A0004000C0004000E00040200000402020004020400040206000402080004020A0004020C0004020E000404000004040200040404000404060004040800040
310
40A0004040C0004040E00040600000406020004060400040606000406080004060A0004060C0004060E00040800000408020004080400040806000408080004080A0004080C0004080E00040A0000040A0200040A0400040A0600040A0800040A0A00040A0C00040A0E00040C0000040C0200040C0400040C0600040C08000
310
40C0A00040C0C00040C0E00040E0000040E0200040E0400040E0600040E0800040E0A00040E0C00040E0E00080000000800020008000400080006000800080008000A0008000C0008000E00080200000802020008020400080206000802080008020A0008020C0008020E00080400000804020008040400080406000804080
310
008040A0008040C0008040E00080600000806020008060400080606000806080008060A0008060C0008060E00080800000808020008080400080806000808080008080A0008080C0008080E00080A0000080A0200080A0400080A0600080A0800080A0A00080A0C00080A0E00080C0000080C0200080C0400080C0600080C0
310
800080C0A00080C0C00080C0E00080E0000080E0200080E0400080E0600080E0800080E0A00080E0C00080E0E000C0000000C0002000C0004000C0006000C0008000C000A000C000C000C000E000C0200000C0202000C0204000C0206000C0208000C020A000C020C000C020E000C0400000C0402000C0404000C0406000C0
310
408000C040A000C040C000C040E000C0600000C0602000C0604000C0606000C0608000C060A000C060C000C060E000C0800000C0802000C0804000C0806000C0808000C080A000C080C000C080E000C0A00000C0A02000C0A04000C0A06000C0A08000C0A0A000C0A0C000C0A0E000C0C00000C0C02000C0C04000C0C06000
310
C0C08000C0C0A000F0FBFF00A4A0A000808080000000FF0000FF000000FFFF00FF000000FF00FF00FFFF0000FFFFFF0000000000000000000000000000000000000000000000000000000000000000000000000000000000000000FFFF000000000000000000000000000000000000000000000000000000000000FFFF0000
310
00000000000000000000000000000000000000000000000000000000FFFF000000000000000000000000000000000000000000000000000000000000FFFFFFFFFFFFFFFFFF0000000000000000000000000000000000000000000000FFFF000000000000FF0000000000000000000000000000000000000000000000FFFF00
310
0000000000FF0000000000000000000000000000000000000000000000FFFF000000000000FF0000000000000000000000000000000000000000000000FFFF000000000000FF0000000000000000000000000000000000000000000000FFFF000000000000FF0000000000000000000000000000000000000000000000FFFF
310
000000000000FF0000000000000000000000000000000000000000000000FFFF000000000000FF0000000000000000000000000000000000000000000000F9FF000000000000FF0000000000000000000000000000000000000000000000FFFE000000000000FF0000000000000000000000000000000000000000000000FF
310
FF000000000000FF0000000000000000000000000000000000000000000000FFFF000000000000FF0000000000000000000000000000000000000000000000FFFF000000000000FF00000000000000000000000000000000000000000000000000000000000000000000000000000000000000000000000000000000000000
310
00000000000000000000000000000000000000000000000000000000000000000000000000000000000000000000000000000000000000000000000000000000000000000000000000000000000000000000000000000000000000000000000000000000000000000000000000000000000000000000000000000000000000
310
0000000000000000000000000000000000000000000000000000000000000000000000000000FAFAFAFAFAFAFAFA00000000000000000000000000000000000000000000000000FAFA00FAFAFA0000000000000000000000000000000000000000000000000000FAFA00FAFAFA000000000000000000000000000000000000
310
0000000000FFFFFFFFFFFF0000000000000000000000000000000000000000000000FFFFFFFFFFFFFFFFFF0000000000000000000000000000000000000000F9F9FFFFFFF9F9000000000000000000000000000000000000000000000000000000FFFFFF000000000000000000000000000000000000000000000000000000
310
000000FFFF000000000000000000000000000000000000000000000000000000000000000000000000000000000000000000000000000000
102
{BLKREFS
331
46F4
102
}
 70
     4
280
     1
281
     0
  0
BLOCK_RECORD
  5
47FE
102
{ACAD_XDICTIONARY
360
486F
102
}
330
1
100
AcDbSymbolTableRecord
100
AcDbBlockTableRecord
  2
リジット SEM400
340
0
310
2800000020000000200000000100080000000000000400000000000000000000000000000000000000000000000080000080000000808000800000008000800080800000C0C0C000C0DCC000F0CAA6000020400000206000002080000020A0000020C0000020E00000400000004020000040400000406000004080000040A0
310
000040C0000040E00000600000006020000060400000606000006080000060A0000060C0000060E00000800000008020000080400000806000008080000080A0000080C0000080E00000A0000000A0200000A0400000A0600000A0800000A0A00000A0C00000A0E00000C0000000C0200000C0400000C0600000C0800000C0
310
A00000C0C00000C0E00000E0000000E0200000E0400000E0600000E0800000E0A00000E0C00000E0E00040000000400020004000400040006000400080004000A0004000C0004000E00040200000402020004020400040206000402080004020A0004020C0004020E000404000004040200040404000404060004040800040
310
40A0004040C0004040E00040600000406020004060400040606000406080004060A0004060C0004060E00040800000408020004080400040806000408080004080A0004080C0004080E00040A0000040A0200040A0400040A0600040A0800040A0A00040A0C00040A0E00040C0000040C0200040C0400040C0600040C08000
310
40C0A00040C0C00040C0E00040E0000040E0200040E0400040E0600040E0800040E0A00040E0C00040E0E00080000000800020008000400080006000800080008000A0008000C0008000E00080200000802020008020400080206000802080008020A0008020C0008020E00080400000804020008040400080406000804080
310
008040A0008040C0008040E00080600000806020008060400080606000806080008060A0008060C0008060E00080800000808020008080400080806000808080008080A0008080C0008080E00080A0000080A0200080A0400080A0600080A0800080A0A00080A0C00080A0E00080C0000080C0200080C0400080C0600080C0
310
800080C0A00080C0C00080C0E00080E0000080E0200080E0400080E0600080E0800080E0A00080E0C00080E0E000C0000000C0002000C0004000C0006000C0008000C000A000C000C000C000E000C0200000C0202000C0204000C0206000C0208000C020A000C020C000C020E000C0400000C0402000C0404000C0406000C0
310
408000C040A000C040C000C040E000C0600000C0602000C0604000C0606000C0608000C060A000C060C000C060E000C0800000C0802000C0804000C0806000C0808000C080A000C080C000C080E000C0A00000C0A02000C0A04000C0A06000C0A08000C0A0A000C0A0C000C0A0E000C0C00000C0C02000C0C04000C0C06000
310
C0C08000C0C0A000F0FBFF00A4A0A000808080000000FF0000FF000000FFFF00FF000000FF00FF00FFFF0000FFFFFF0000000000000000000000000000000000000000000000000000000000000000000000000000000000000000000000000000000000FFFFFF000000000000000000000000000000000000000000000000
310
0000000000FF00000000000000000000000000000000000000000000000000000000000000F9F9F9F9F90000000000000000000000000000FFFFFFFFFFFFFFFFFFFFFFFFFFFF000000000000000000000000000000000000FF000000000000000000000000FF000000000000000000000000000000000000FF000000000000
310
000000000000FF000000000000000000000000000000000000FF000000000000000000000000FF000000000000000000000000000000000000FF000000000000000000000000FF000000000000000000000000000000000000FF000000000000000000000000FF000000000000000000000000000000000000FF0000000000
310
00000000000000FF000000000000000000000000000000000000FF000000000000000000000000FF000000000000000000000000000000000000FF000000000000000000000000FF000000000000000000000000000000000000FF000000000000000000000000FF000000000000000000000000000000000000FF00000000
310
0000000000000000FF000000000000000000000000000000000000FF000000000000000000000000FF000000000000000000000000000000000000FF00000000000000000000A4A4A4A40000000000000000000000000000000000FF00000000000000000000000000FF0000000000000000000000000000000000FF000000
310
00000000000000000000FF0000000000000000000000000000000000FF00000000000000000000000000FF0000000000000000000000000000000000FF00000000000000000000000000FF0000000000000000000000000000000000FF00000000000000000000000000FF0000000000000000000000000000000000FFFFFF
310
FFFFFFFFFFFFFFFFFFFFFFFF0000000000000000000000000000000000FFFFFFFFFFFFFFFFFFFFFFFFFFFFFF0000000000000000000000000000000000FF00000000000000000000000000FF0000000000000000000000000000000000FF00000000000000000000000000FF0000000000000000000000000000000000FF00
310
000000000000000000000000FF0000000000000000000000000000000000FFFFFFFFFFFFFFFFFFFFFFFFFFFFFFFF0000000000000000000000000000000000000000000000000000000000FF00000000000000000000000000000000000000000000000000000000000000FF00000000000000000000000000000000000000
310
000000000000000000000000FFFFFF0000000000000000000000000000000000000000000000000000000000000000000000000000000000
102
{BLKREFS
331
4820
102
}
 70
     4
280
     1
281
     0
  0
BLOCK_RECORD
  5
48DA
102
{ACAD_XDICTIONARY
360
494A
102
}
330
1
100
AcDbSymbolTableRecord
100
AcDbBlockTableRecord
  2
センタ SEM400
340
0
310
2800000020000000200000000100080000000000000400000000000000000000000000000000000000000000000080000080000000808000800000008000800080800000C0C0C000C0DCC000F0CAA6000020400000206000002080000020A0000020C0000020E00000400000004020000040400000406000004080000040A0
310
000040C0000040E00000600000006020000060400000606000006080000060A0000060C0000060E00000800000008020000080400000806000008080000080A0000080C0000080E00000A0000000A0200000A0400000A0600000A0800000A0A00000A0C00000A0E00000C0000000C0200000C0400000C0600000C0800000C0
310
A00000C0C00000C0E00000E0000000E0200000E0400000E0600000E0800000E0A00000E0C00000E0E00040000000400020004000400040006000400080004000A0004000C0004000E00040200000402020004020400040206000402080004020A0004020C0004020E000404000004040200040404000404060004040800040
310
40A0004040C0004040E00040600000406020004060400040606000406080004060A0004060C0004060E00040800000408020004080400040806000408080004080A0004080C0004080E00040A0000040A0200040A0400040A0600040A0800040A0A00040A0C00040A0E00040C0000040C0200040C0400040C0600040C08000
310
40C0A00040C0C00040C0E00040E0000040E0200040E0400040E0600040E0800040E0A00040E0C00040E0E00080000000800020008000400080006000800080008000A0008000C0008000E00080200000802020008020400080206000802080008020A0008020C0008020E00080400000804020008040400080406000804080
310
008040A0008040C0008040E00080600000806020008060400080606000806080008060A0008060C0008060E00080800000808020008080400080806000808080008080A0008080C0008080E00080A0000080A0200080A0400080A0600080A0800080A0A00080A0C00080A0E00080C0000080C0200080C0400080C0600080C0
310
800080C0A00080C0C00080C0E00080E0000080E0200080E0400080E0600080E0800080E0A00080E0C00080E0E000C0000000C0002000C0004000C0006000C0008000C000A000C000C000C000E000C0200000C0202000C0204000C0206000C0208000C020A000C020C000C020E000C0400000C0402000C0404000C0406000C0
310
408000C040A000C040C000C040E000C0600000C0602000C0604000C0606000C0608000C060A000C060C000C060E000C0800000C0802000C0804000C0806000C0808000C080A000C080C000C080E000C0A00000C0A02000C0A04000C0A06000C0A08000C0A0A000C0A0C000C0A0E000C0C00000C0C02000C0C04000C0C06000
310
C0C08000C0C0A000F0FBFF00A4A0A000808080000000FF0000FF000000FFFF00FF000000FF00FF00FFFF0000FFFFFF00000000000000000000000000000000000000000000000000000000000000000000000000000000000000000000000000FFFFFFFFFFFFFFFFFF00000000000000000000000000000000000000000000
310
00000000FF0000000000FF00000000000000000000000000000000000000000000000000FF0000000000FF00000000000000000000000000000000000000000000000000FF0000000000FF00000000000000000000000000000000000000000000000000FF0000000000FF0000000000000000000000000000000000000000
310
0000000000FF0000000000FF00000000000000000000000000000000000000000000000000FF0000000000FF00000000000000000000000000000000000000000000000000FF0000000000FF00000000000000000000000000000000000000000000000000FF0000000000FF00000000000000000000000000000000000000
310
000000000000FF0000000000FF00000000000000000000000000000000000000000000000000FF0000000000FF00000000000000000000000000000000000000000000000000FF0000000000FF00000000000000000000000000000000000000000000000000FF0000000000FF000000000000000000000000000000000000
310
00000000000000FF0000000000FF000000000000000000000000A4A4A4A4A40000000000000000FF00000000FFFF000000000000000000000000FF0000000000000000000000000000000000FFFF000000000000000000000000FF0000000000000000000000000000000000FFFF000000000000000000000000FF00000000
310
00000000000000000000000000FFFF000000000000000000000000FF0000000000000000000000000000000000FFFF000000000000000000000000FF0000000000000000000000000000000000FFFF000000000000000000000000FF0000000000000000000000000000000000FFFF000000000000000000000000FF000000
310
0000000000000000000000000000FFFF000000000000000000000000FFFFFFFFFFFFFFFFFFFFFFFFFFFFFFFFFFFFFFFF000000000000000000000000FF000000000000000000000000000000000000FF000000000000000000000000FF000000000000000000000000000000000000FF000000000000000000000000FF0000
310
00000000000000000000000000000000FF000000000000000000000000FF000000000000000000000000000000000000FF000000000000000000000000FFFFFFFFFFF9FFFFFFFFFFFFFFFFFFFFFFFFFF00000000000000000000000000000000FFFFF9FFFFFF00000000000000000000000000000000000000000000000000
310
000000F900000000000000000000000000000000000000000000000000000000000000000000000000000000000000000000000000000000
102
{BLKREFS
331
48FF
102
}
 70
     4
280
     1
281
     0
  0
BLOCK_RECORD
  5
4ADE
102
{ACAD_XDICTIONARY
360
4B72
102
}
330
1
100
AcDbSymbolTableRecord
100
AcDbBlockTableRecord
  2
リーマボルト SEM400 M16
340
0
310
2800000020000000200000000100080000000000000400000000000000000000000000000000000000000000000080000080000000808000800000008000800080800000C0C0C000C0DCC000F0CAA6000020400000206000002080000020A0000020C0000020E00000400000004020000040400000406000004080000040A0
310
000040C0000040E00000600000006020000060400000606000006080000060A0000060C0000060E00000800000008020000080400000806000008080000080A0000080C0000080E00000A0000000A0200000A0400000A0600000A0800000A0A00000A0C00000A0E00000C0000000C0200000C0400000C0600000C0800000C0
310
A00000C0C00000C0E00000E0000000E0200000E0400000E0600000E0800000E0A00000E0C00000E0E00040000000400020004000400040006000400080004000A0004000C0004000E00040200000402020004020400040206000402080004020A0004020C0004020E000404000004040200040404000404060004040800040
310
40A0004040C0004040E00040600000406020004060400040606000406080004060A0004060C0004060E00040800000408020004080400040806000408080004080A0004080C0004080E00040A0000040A0200040A0400040A0600040A0800040A0A00040A0C00040A0E00040C0000040C0200040C0400040C0600040C08000
310
40C0A00040C0C00040C0E00040E0000040E0200040E0400040E0600040E0800040E0A00040E0C00040E0E00080000000800020008000400080006000800080008000A0008000C0008000E00080200000802020008020400080206000802080008020A0008020C0008020E00080400000804020008040400080406000804080
310
008040A0008040C0008040E00080600000806020008060400080606000806080008060A0008060C0008060E00080800000808020008080400080806000808080008080A0008080C0008080E00080A0000080A0200080A0400080A0600080A0800080A0A00080A0C00080A0E00080C0000080C0200080C0400080C0600080C0
310
800080C0A00080C0C00080C0E00080E0000080E0200080E0400080E0600080E0800080E0A00080E0C00080E0E000C0000000C0002000C0004000C0006000C0008000C000A000C000C000C000E000C0200000C0202000C0204000C0206000C0208000C020A000C020C000C020E000C0400000C0402000C0404000C0406000C0
310
408000C040A000C040C000C040E000C0600000C0602000C0604000C0606000C0608000C060A000C060C000C060E000C0800000C0802000C0804000C0806000C0808000C080A000C080C000C080E000C0A00000C0A02000C0A04000C0A06000C0A08000C0A0A000C0A0C000C0A0E000C0C00000C0C02000C0C04000C0C06000
310
C0C08000C0C0A000F0FBFF00A4A0A000808080000000FF0000FF000000FFFF00FF000000FF00FF00FFFF0000FFFFFF0000000000000000000000000000000000000000000000000000000000000000000000000000000000000000000000000000000000000000000000000000000000000000000000000000000000000000
310
00000000000000000000000000000000000000000000000000000000000000000000000000000000000000000000000000000000000000000000000000000000000000000000000000000000000000000000000000000000000000000000000000000000000000000000000000000000000000000000000000000000000000
310
0000000000000000000000000000000000000000000000000000000000000000000000000000000000000000000000000000000000000000000000000000000000000000000000000000000000000000000000000000000000000000000000000000000000000000000000000000000000000000FFFFFFFF00000000000000
310
0000000000000000FFFFFFFFFFFFFF0000000000FFFF00000000000000000000000000000000000000FF00000000FF0000000000FFFF0000FFFF00000000000000000000000000FFFFFF00000000FFFFFF000000FFFFFFFFFFFF00000000000000000000000000FFFFFFFFFFFFFFFFFEFEFF0000FFFF000000FF0000000000
310
0000000000000000FFFFFF00000000FF00FFFF0000FFFF000000FF00000000000000000000000000FFFFFF00000000FF00FFFF0000FFFF000000FF00000000000000000000000000FFFFFF00000000FF00FFFF0000FFFF000000FF00000000000000000000000000FFFFFF00000000FF00FFFF0000FFFFFFFFFFFF00000000
310
000000000000000000FFFFFFFFFFFFFFFEFEFEFF0000FFFF0000FFFF00000000000000000000000000FFFFFF00000000FFFFFF000000FFFF00000000000000000000000000000000000000FF00000000FF000000000000FFFFFFFF000000000000000000000000000000FFFFFFFFFFFFFF0000000000000000000000000000
310
00000000000000000000000000000000000000000000000000000000000000000000000000000000000000000000000000000000000000000000000000000000000000000000000000000000000000000000000000000000000000000000000000000000000000000000000000000000000000000000000000000000000000
310
00000000000000000000000000000000000000000000000000000000000000000000000000000000000000000000000000000000000000000000000000000000000000000000000000000000000000000000000000000000000000000000000000000000000000000000000000000000000000000000000000000000000000
310
0000000000000000000000000000000000000000000000000000000000000000000000000000000000000000000000000000000000000000
102
{BLKREFS
331
4B0D
102
}
 70
     4
280
     1
281
     0
  0
BLOCK_RECORD
  5
4D65
330
1
100
AcDbSymbolTableRecord
100
AcDbBlockTableRecord
  2
*D11
340
0
 70
     0
280
     1
281
     0
  0
BLOCK_RECORD
  5
4DA9
330
1
100
AcDbSymbolTableRecord
100
AcDbBlockTableRecord
  2
*D12
340
0
 70
     0
280
     1
281
     0
  0
BLOCK_RECORD
  5
4DC1
330
1
100
AcDbSymbolTableRecord
100
AcDbBlockTableRecord
  2
*D13
340
0
 70
     0
280
     1
281
     0
  0
BLOCK_RECORD
  5
4DDD
330
1
100
AcDbSymbolTableRecord
100
AcDbBlockTableRecord
  2
*D14
340
0
 70
     0
280
     1
281
     0
  0
BLOCK_RECORD
  5
4E80
330
1
100
AcDbSymbolTableRecord
100
AcDbBlockTableRecord
  2
*D15
340
0
 70
     0
280
     1
281
     0
  0
BLOCK_RECORD
  5
4EFD
330
1
100
AcDbSymbolTableRecord
100
AcDbBlockTableRecord
  2
*D16
340
0
 70
     0
280
     1
281
     0
  0
BLOCK_RECORD
  5
4F19
330
1
100
AcDbSymbolTableRecord
100
AcDbBlockTableRecord
  2
*D17
340
0
 70
     0
280
     1
281
     0
  0
BLOCK_RECORD
  5
503E
330
1
100
AcDbSymbolTableRecord
100
AcDbBlockTableRecord
  2
*D18
340
0
 70
     0
280
     1
281
     0
  0
BLOCK_RECORD
  5
5056
330
1
100
AcDbSymbolTableRecord
100
AcDbBlockTableRecord
  2
*D19
340
0
 70
     0
280
     1
281
     0
  0
BLOCK_RECORD
  5
506E
330
1
100
AcDbSymbolTableRecord
100
AcDbBlockTableRecord
  2
*D20
340
0
 70
     0
280
     1
281
     0
  0
BLOCK_RECORD
  5
5086
330
1
100
AcDbSymbolTableRecord
100
AcDbBlockTableRecord
  2
*D21
340
0
 70
     0
280
     1
281
     0
  0
BLOCK_RECORD
  5
5121
330
1
100
AcDbSymbolTableRecord
100
AcDbBlockTableRecord
  2
*D22
340
0
 70
     0
280
     1
281
     0
  0
BLOCK_RECORD
  5
5139
330
1
100
AcDbSymbolTableRecord
100
AcDbBlockTableRecord
  2
*D23
340
0
 70
     0
280
     1
281
     0
  0
BLOCK_RECORD
  5
5151
330
1
100
AcDbSymbolTableRecord
100
AcDbBlockTableRecord
  2
*D24
340
0
 70
     0
280
     1
281
     0
  0
BLOCK_RECORD
  5
5EB8
330
1
100
AcDbSymbolTableRecord
100
AcDbBlockTableRecord
  2
GENDOT
340
0
102
{BLKREFS
331
6453
331
645E
102
}
 70
     0
280
     1
281
     0
  0
BLOCK_RECORD
  5
697F
330
1
100
AcDbSymbolTableRecord
100
AcDbBlockTableRecord
  2
*D26
340
0
 70
     0
280
     1
281
     0
  0
BLOCK_RECORD
  5
69AD
330
1
100
AcDbSymbolTableRecord
100
AcDbBlockTableRecord
  2
*D27
340
0
 70
     0
280
     1
281
     0
  0
BLOCK_RECORD
  5
69F5
330
1
100
AcDbSymbolTableRecord
100
AcDbBlockTableRecord
  2
*D28
340
0
 70
     0
280
     1
281
     0
  0
BLOCK_RECORD
  5
6BAB
330
1
100
AcDbSymbolTableRecord
100
AcDbBlockTableRecord
  2
ケース
340
0
310
2800000020000000200000000100080000000000000400000000000000000000000000000000000000000000000080000080000000808000800000008000800080800000C0C0C000C0DCC000F0CAA6000020400000206000002080000020A0000020C0000020E00000400000004020000040400000406000004080000040A0
310
000040C0000040E00000600000006020000060400000606000006080000060A0000060C0000060E00000800000008020000080400000806000008080000080A0000080C0000080E00000A0000000A0200000A0400000A0600000A0800000A0A00000A0C00000A0E00000C0000000C0200000C0400000C0600000C0800000C0
310
A00000C0C00000C0E00000E0000000E0200000E0400000E0600000E0800000E0A00000E0C00000E0E00040000000400020004000400040006000400080004000A0004000C0004000E00040200000402020004020400040206000402080004020A0004020C0004020E000404000004040200040404000404060004040800040
310
40A0004040C0004040E00040600000406020004060400040606000406080004060A0004060C0004060E00040800000408020004080400040806000408080004080A0004080C0004080E00040A0000040A0200040A0400040A0600040A0800040A0A00040A0C00040A0E00040C0000040C0200040C0400040C0600040C08000
310
40C0A00040C0C00040C0E00040E0000040E0200040E0400040E0600040E0800040E0A00040E0C00040E0E00080000000800020008000400080006000800080008000A0008000C0008000E00080200000802020008020400080206000802080008020A0008020C0008020E00080400000804020008040400080406000804080
310
008040A0008040C0008040E00080600000806020008060400080606000806080008060A0008060C0008060E00080800000808020008080400080806000808080008080A0008080C0008080E00080A0000080A0200080A0400080A0600080A0800080A0A00080A0C00080A0E00080C0000080C0200080C0400080C0600080C0
310
800080C0A00080C0C00080C0E00080E0000080E0200080E0400080E0600080E0800080E0A00080E0C00080E0E000C0000000C0002000C0004000C0006000C0008000C000A000C000C000C000E000C0200000C0202000C0204000C0206000C0208000C020A000C020C000C020E000C0400000C0402000C0404000C0406000C0
310
408000C040A000C040C000C040E000C0600000C0602000C0604000C0606000C0608000C060A000C060C000C060E000C0800000C0802000C0804000C0806000C0808000C080A000C080C000C080E000C0A00000C0A02000C0A04000C0A06000C0A08000C0A0A000C0A0C000C0A0E000C0C00000C0C02000C0C04000C0C06000
310
C0C08000C0C0A000F0FBFF00A4A0A000808080000000FF0000FF000000FFFF00FF000000FF00FF00FFFF0000FFFFFF0000000000000000000000000000000000000000000000000000000000000000000000000000000000000000000000000000000000000000000000000000000000000000000000000000000000000000
310
00000000000000000000000000000000000000000000000000000000000000000000000000000000000000000000000000000000000000000000000000000000000000000000000000000000000000000000000000000000000000000000000000000000000000000000000000000000000000000000000000000000000000
310
00000000000000000000000000000000000000000000000000000000000000000000FC0000FC00000000000000FC0000FC0000000000000000000000000000000000FCFCFCFC00000000000000FCFCFCFC0000000000000000000000000000000000FC0000FC00000000000000FC0000FC0000000000000000000000000000
310
000000FC0000FC00000000000000FC0000FC0000000000000000000000000000000000FC0000FC00000000000000FC0000FC0000FCFCFCFCFCFCFCFCFCFCFC00000000FC0000FCFCFCFCFCFCFCFCFC0000FC000000000000000000000000FC00000000FC00000000000000000000000000FC0000FCFCFCFCFCFCFCFCFCFCFC
310
FCFC0000FC00000000000000000000000000FC000000000000000000000000FC00000000FC00000000000000000000000000FC000000000000000000000000FC00000000FC00000000000000000000000000FC0000FCFCFCFCFCFCFCFCFCFCFC00000000FC00000000000000000000000000FC000000000000000000000000
310
00FCFCFCFCFC00000000000000000000000000FC00000000000000000000000000000000000000000000000000000000000000FC00000000000000000000000000000000000000000000000000000000000000FC00000000000000000000000000000000000000000000000000000000000000FC0000000000000000000000
310
00000000000000000000000000000000000000FC000000000000000000000000000000000000000000000000000000000000FC00000000FCFCFCFCFCFCFCFCFCFCFCFCFCFCFCFCFCFCFCFCFCFCFCFCFCFCFC000000000000000000000000000000000000000000000000000000000000000000000000000000000000000000
310
00000000000000000000000000000000000000000000000000000000000000000000000000000000000000000000000000000000000000000000000000000000000000000000000000000000000000000000000000000000000000000000000000000000000000000000000000000000000000000000000000000000000000
310
0000000000000000000000000000000000000000000000000000000000000000000000000000000000000000000000000000000000000000
102
{BLKREFS
331
6BC6
102
}
 70
     4
280
     1
281
     1
  0
ENDTAB
  0
ENDSEC
  0
SECTION
  2
BLOCKS
  0
BLOCK
  5
20
330
1F
100
AcDbEntity
  8
0
100
AcDbBlockBegin
  2
*Model_Space
 70
     0
 10
0.0
 20
0.0
 30
0.0
  3
*Model_Space
  1

  0
ENDBLK
  5
21
330
1F
100
AcDbEntity
  8
0
100
AcDbBlockEnd
  0
BLOCK
  5
1C
330
1B
100
AcDbEntity
 67
     1
  8
0
100
AcDbBlockBegin
  2
*Paper_Space
 70
     0
 10
0.0
 20
0.0
 30
0.0
  3
*Paper_Space
  1

  0
ENDBLK
  5
1D
330
1B
100
AcDbEntity
 67
     1
  8
0
100
AcDbBlockEnd
  0
BLOCK
  5
24
330
23
100
AcDbEntity
 67
     1
  8
0
100
AcDbBlockBegin
  2
*Paper_Space0
 70
     0
 10
0.0
 20
0.0
 30
0.0
  3
*Paper_Space0
  1

  0
ENDBLK
  5
25
330
23
100
AcDbEntity
 67
     1
  8
0
100
AcDbBlockEnd
  0
BLOCK
  5
6D
330
69
100
AcDbEntity
  8
0
100
AcDbBlockBegin
  2
_Open30
 70
     0
 10
0.0
 20
0.0
 30
0.0
  3
_Open30
  1

  0
LINE
  5
6A
330
69
100
AcDbEntity
  8
0
  6
ByBlock
 62
     0
370
    -2
100
AcDbLine
 10
-1.0
 20
0.26794919
 30
0.0
 11
0.0
 21
0.0
 31
0.0
  0
LINE
  5
6B
330
69
100
AcDbEntity
  8
0
  6
ByBlock
 62
     0
370
    -2
100
AcDbLine
 10
0.0
 20
0.0
 30
0.0
 11
-1.0
 21
-0.26794919
 31
0.0
  0
LINE
  5
6C
330
69
100
AcDbEntity
  8
0
  6
ByBlock
 62
     0
370
    -2
100
AcDbLine
 10
0.0
 20
0.0
 30
0.0
 11
-1.0
 21
0.0
 31
0.0
  0
ENDBLK
  5
6E
330
69
100
AcDbEntity
  8
0
100
AcDbBlockEnd
  0
BLOCK
  5
76
330
74
100
AcDbEntity
  8
0
100
AcDbBlockBegin
  2
GENAXEH
 70
     0
 10
0.0
 20
0.0
 30
0.0
  3
GENAXEH
  1

  0
LINE
  5
75
330
74
100
AcDbEntity
  8
0
100
AcDbLine
 10
-1.0
 20
0.0
 30
0.0
 11
1.0
 21
0.0
 31
0.0
  0
ENDBLK
  5
77
330
74
100
AcDbEntity
  8
0
100
AcDbBlockEnd
  0
BLOCK
  5
3466
330
3463
100
AcDbEntity
  8
0
100
AcDbBlockBegin
  2
ロッカクアナツキプラグ R1／4
 70
     0
 10
0.0
 20
0.0
 30
0.0
  3
ロッカクアナツキプラグ R1／4
  1

  0
CIRCLE
  5
4630
330
3463
100
AcDbEntity
  8
AM_0 外形線1
100
AcDbCircle
 10
0.0
 20
0.0
 30
0.0
 40
7.174975999999999
  0
LINE
  5
4631
330
3463
100
AcDbEntity
  8
AM_7 中心線
100
AcDbLine
 10
0.0
 20
8.404976000000031
 30
0.0
 11
0.0
 21
-8.404975999999804
 31
0.0
  0
CIRCLE
  5
4632
330
3463
100
AcDbEntity
  8
AM_4 細線
100
AcDbCircle
 10
0.0
 20
0.0
 30
0.0
 40
6.504976
  0
LINE
  5
4633
330
3463
100
AcDbEntity
  8
AM_7 中心線
100
AcDbLine
 10
8.404975999999804
 20
0.0
 30
0.0
 11
-8.404976000000031
 21
0.0
 31
0.0
  0
LINE
  5
4634
330
3463
100
AcDbEntity
  8
AM_0 外形線1
100
AcDbLine
 10
2.611065999999937
 20
-1.507499999999935
 30
0.0
 11
2.611065999999937
 21
1.507500000000162
 31
0.0
  0
LINE
  5
4635
330
3463
100
AcDbEntity
  8
AM_0 外形線1
100
AcDbLine
 10
0.0
 20
-3.014999999999871
 30
0.0
 11
2.611065999999937
 21
-1.507499999999935
 31
0.0
  0
LINE
  5
4636
330
3463
100
AcDbEntity
  8
AM_0 外形線1
100
AcDbLine
 10
-2.611067000000048
 20
-1.507499999999935
 30
0.0
 11
0.0
 21
-3.014999999999871
 31
0.0
  0
LINE
  5
4637
330
3463
100
AcDbEntity
  8
AM_0 外形線1
100
AcDbLine
 10
-2.611067000000048
 20
1.507500000000162
 30
0.0
 11
-2.611067000000048
 21
-1.507499999999935
 31
0.0
  0
LINE
  5
4638
330
3463
100
AcDbEntity
  8
AM_0 外形線1
100
AcDbLine
 10
0.0
 20
3.0150000000001
 30
0.0
 11
-2.611067000000048
 21
1.507500000000162
 31
0.0
  0
LINE
  5
4639
330
3463
100
AcDbEntity
  8
AM_0 外形線1
100
AcDbLine
 10
2.611065999999937
 20
1.507500000000162
 30
0.0
 11
0.0
 21
3.0150000000001
 31
0.0
  0
ENDBLK
  5
3471
330
3463
100
AcDbEntity
  8
0
100
AcDbBlockEnd
  0
BLOCK
  5
46B7
330
46B6
100
AcDbEntity
  8
0
100
AcDbBlockBegin
  2
ケースＡ SEM400
 70
     0
 10
0.0
 20
0.0
 30
0.0
  3
ケースＡ SEM400
  1

  0
LINE
  5
46B9
330
46B6
100
AcDbEntity
  8
AM_0 外形線1
100
AcDbLine
 10
-0.0000000000002274
 20
0.0
 30
0.0
 11
-0.0000000000002274
 21
-199.0
 31
0.0
  0
LINE
  5
46BA
330
46B6
100
AcDbEntity
  8
AM_0 外形線1
100
AcDbLine
 10
113.9999999999997
 20
-160.5
 30
0.0
 11
113.9999999999997
 21
-154.4503549999999
 31
0.0
  0
LINE
  5
46BB
330
46B6
100
AcDbEntity
  8
AM_0 外形線1
100
AcDbLine
 10
20.99999999999977
 20
-199.0
 30
0.0
 11
20.99999999999977
 21
0.0
 31
0.0
  0
LINE
  5
46BC
330
46B6
100
AcDbEntity
  8
AM_0 外形線1
100
AcDbLine
 10
0.9999999999997726
 20
-200.0
 30
0.0
 11
19.99999999999977
 21
-200.0
 31
0.0
  0
LINE
  5
46BD
330
46B6
100
AcDbEntity
  8
AM_0 外形線1
100
AcDbLine
 10
-0.0000000000002274
 20
-199.0
 30
0.0
 11
0.9999999999997726
 21
-200.0
 31
0.0
  0
LINE
  5
46BE
330
46B6
100
AcDbEntity
  8
AM_0 外形線1
100
AcDbLine
 10
24.99999999999977
 20
-164.5
 30
0.0
 11
109.9999999999997
 21
-164.5
 31
0.0
  0
LINE
  5
46BF
330
46B6
100
AcDbEntity
  8
AM_0 外形線1
100
AcDbLine
 10
19.99999999999977
 20
-200.0
 30
0.0
 11
20.99999999999977
 21
-199.0
 31
0.0
  0
ARC
  5
46C0
330
46B6
100
AcDbEntity
  8
AM_0 外形線1
100
AcDbCircle
 10
24.99999999999977
 20
-168.5
 30
0.0
 40
4.0
100
AcDbArc
 50
90.0
 51
180.0
  0
ARC
  5
46C1
330
46B6
100
AcDbEntity
  8
AM_0 外形線1
100
AcDbCircle
 10
109.9999999999997
 20
-160.5
 30
0.0
 40
4.0
100
AcDbArc
 50
270.0
 51
0.0
  0
LINE
  5
46C2
330
46B6
100
AcDbEntity
  8
AM_0 外形線1
100
AcDbLine
 10
113.9999999999997
 20
-154.4503549999999
 30
0.0
 11
113.9999999999997
 21
0.0
 31
0.0
  0
LWPOLYLINE
  5
46C3
330
46B6
100
AcDbEntity
  8
AM_0 外形線1
100
AcDbPolyline
 90
       73
 70
     0
 43
0.0
 10
1.34999999999968
 20
163.0
 10
1.467659999999795
 20
163.0083720000001
 10
1.584424999999781
 20
163.033423
 10
1.699404999999841
 20
163.074963
 10
1.811726999999791
 20
163.1326759999999
 10
1.920533999999634
 20
163.2061229999999
 10
2.024999999999636
 20
163.2947439999998
 10
2.124327999999876
 20
163.397866
 10
2.217762999999877
 20
163.5147019999999
 10
2.304593999999724
 20
163.6443650000001
 10
2.384159999999837
 20
163.785867
 10
2.455854999999701
 20
163.938132
 10
2.519133999999667
 20
164.0999999999999
 10
2.573514999999814
 20
164.27024
 10
2.618584999999939
 20
164.447556
 10
2.653998999999656
 20
164.6305980000002
 10
2.679489999999759
 20
164.817974
 10
2.69486199999983
 20
165.0082569999999
 10
2.699999999999589
 20
165.2
 10
2.69486199999983
 20
165.3917430000001
 10
2.679489999999759
 20
165.582026
 10
2.653998999999656
 20
165.7694019999999
 10
2.618584999999939
 20
165.952444
 10
2.573514999999814
 20
166.1297599999998
 10
2.519133999999667
 20
166.2999999999999
 10
2.455854999999701
 20
166.4618679999998
 10
2.384159999999837
 20
166.614133
 10
2.304593999999724
 20
166.755635
 10
2.217762999999877
 20
166.8852980000001
 10
2.124327999999876
 20
167.0021339999998
 10
2.024999999999636
 20
167.105256
 10
1.920533999999634
 20
167.1938769999999
 10
1.811726999999791
 20
167.2673239999999
 10
1.699404999999841
 20
167.325037
 10
1.584424999999781
 20
167.366577
 10
1.467659999999795
 20
167.3916279999998
 10
1.34999999999968
 20
167.4000000000001
 10
1.232338999999682
 20
167.3916279999998
 10
1.115573999999696
 20
167.366577
 10
1.000593999999863
 20
167.325037
 10
0.8882719999996878
 20
167.2673239999999
 10
0.7794649999996182
 20
167.1938769999999
 10
0.6749999999997272
 20
167.105256
 10
0.5756709999998293
 20
167.0021339999998
 10
0.4822359999998298
 20
166.8852980000001
 10
0.3954049999997551
 20
166.755635
 10
0.3158399999997528
 20
166.614133
 10
0.2441439999997783
 20
166.4618679999998
 10
0.1808649999998124
 20
166.2999999999999
 10
0.1264839999996639
 20
166.1297599999998
 10
0.0814149999996516
 20
165.952444
 10
0.0459999999995944
 20
165.7694019999999
 10
0.0205089999997199
 20
165.582026
 10
0.0051369999998769
 20
165.3917430000001
 10
-0.0000000000002274
 20
165.2
 10
0.0051369999998769
 20
165.0082569999999
 10
0.0205089999997199
 20
164.817974
 10
0.0459999999995944
 20
164.6305980000002
 10
0.0814149999996516
 20
164.447556
 10
0.1264839999996639
 20
164.27024
 10
0.1808649999998124
 20
164.0999999999999
 10
0.2441439999997783
 20
163.938132
 10
0.3158399999997528
 20
163.785867
 10
0.3954049999997551
 20
163.6443650000001
 10
0.4822359999998298
 20
163.5147019999999
 10
0.5756709999998293
 20
163.397866
 10
0.6749999999997272
 20
163.2947439999998
 10
0.7794649999996182
 20
163.2061229999999
 10
0.8882719999996878
 20
163.1326759999999
 10
1.000593999999863
 20
163.074963
 10
1.115573999999696
 20
163.033423
 10
1.232338999999682
 20
163.0083720000001
 10
1.34999999999968
 20
163.0
  0
LINE
  5
46C4
330
46B6
100
AcDbEntity
  8
AM_7 中心線
100
AcDbLine
 10
-36.00000000000023
 20
184.0
 30
0.0
 11
48.99999999999977
 21
184.0
 31
0.0
  0
LINE
  5
46C5
330
46B6
100
AcDbEntity
  8
AM_0 外形線1
100
AcDbLine
 10
2.199999999999589
 20
167.4000000000001
 30
0.0
 11
-0.0000000000002274
 21
167.4000000000001
 31
0.0
  0
LINE
  5
46C6
330
46B6
100
AcDbEntity
  8
AM_0 外形線1
100
AcDbLine
 10
-4.500000000000226
 20
163.0
 30
0.0
 11
2.199999999999589
 21
163.0
 31
0.0
  0
LINE
  5
46C7
330
46B6
100
AcDbEntity
  8
AM_0 外形線1
100
AcDbLine
 10
37.99999999999978
 20
157.0
 30
0.0
 11
-5.000000000000226
 21
157.0
 31
0.0
  0
LINE
  5
46C8
330
46B6
100
AcDbEntity
  8
AM_0 外形線1
100
AcDbLine
 10
-0.0000000000002274
 20
174.9999999999998
 30
0.0
 11
20.99999999999977
 21
175.0
 31
0.0
  0
LINE
  5
46C9
330
46B6
100
AcDbEntity
  8
AM_0 外形線1
100
AcDbLine
 10
-0.0000000000002274
 20
193.0
 30
0.0
 11
20.99999999999977
 21
193.0
 31
0.0
  0
LINE
  5
46CA
330
46B6
100
AcDbEntity
  8
AM_0 外形線1
100
AcDbLine
 10
0.9999999999997726
 20
200.0
 30
0.0
 11
19.99999999999977
 21
200.0
 31
0.0
  0
LINE
  5
46CB
330
46B6
100
AcDbEntity
  8
AM_0 外形線1
100
AcDbLine
 10
-5.000000000000226
 20
157.0
 30
0.0
 11
-5.000000000000226
 21
162.5
 31
0.0
  0
LINE
  5
46CC
330
46B6
100
AcDbEntity
  8
AM_0 外形線1
100
AcDbLine
 10
-5.000000000000226
 20
162.5
 30
0.0
 11
-4.500000000000226
 21
163.0
 31
0.0
  0
LINE
  5
46CD
330
46B6
100
AcDbEntity
  8
AM_0 外形線1
100
AcDbLine
 10
-0.0000000000002274
 20
167.4000000000001
 30
0.0
 11
-0.0000000000002274
 21
175.0
 31
0.0
  0
LINE
  5
46CE
330
46B6
100
AcDbEntity
  8
AM_0 外形線1
100
AcDbLine
 10
-0.0000000000002274
 20
193.0
 30
0.0
 11
-0.0000000000002274
 21
199.0
 31
0.0
  0
LINE
  5
46CF
330
46B6
100
AcDbEntity
  8
AM_0 外形線1
100
AcDbLine
 10
-0.0000000000002274
 20
199.0
 30
0.0
 11
0.9999999999997726
 21
200.0
 31
0.0
  0
LINE
  5
46D0
330
46B6
100
AcDbEntity
  8
AM_0 外形線1
100
AcDbLine
 10
20.99999999999977
 20
168.5
 30
0.0
 11
20.99999999999977
 21
199.0
 31
0.0
  0
LINE
  5
46D1
330
46B6
100
AcDbEntity
  8
AM_3 隠れ線
100
AcDbLine
 10
43.99999999999977
 20
148.7999999999999
 30
0.0
 11
88.49999999999978
 21
148.7999999999999
 31
0.0
  0
LINE
  5
46D2
330
46B6
100
AcDbEntity
  8
AM_7 中心線
100
AcDbLine
 10
36.99999999999977
 20
152.0
 30
0.0
 11
91.49999999999977
 21
152.0
 31
0.0
  0
LINE
  5
46D3
330
46B6
100
AcDbEntity
  8
AM_0 外形線1
100
AcDbLine
 10
24.99999999999977
 20
164.5
 30
0.0
 11
109.9999999999997
 21
164.5
 31
0.0
  0
LINE
  5
46D4
330
46B6
100
AcDbEntity
  8
AM_0 外形線1
100
AcDbLine
 10
38.99999999999977
 20
156.0
 30
0.0
 11
89.49999999999977
 21
156.0
 31
0.0
  0
LINE
  5
46D5
330
46B6
100
AcDbEntity
  8
AM_0 外形線1
100
AcDbLine
 10
43.99999999999977
 20
148.7999999999999
 30
0.0
 11
39.99999999999977
 21
148.7999999999999
 31
0.0
  0
ARC
  5
46D6
330
46B6
100
AcDbEntity
  8
AM_0 外形線1
100
AcDbCircle
 10
37.99999999999978
 20
156.0
 30
0.0
 40
1.0
100
AcDbArc
 50
0.0
 51
90.0
  0
LINE
  5
46D7
330
46B6
100
AcDbEntity
  8
AM_0 外形線1
100
AcDbLine
 10
38.99999999999977
 20
149.7999999999999
 30
0.0
 11
38.99999999999977
 21
156.0
 31
0.0
  0
LINE
  5
46D8
330
46B6
100
AcDbEntity
  8
AM_0 外形線1
100
AcDbLine
 10
39.99999999999977
 20
148.7999999999999
 30
0.0
 11
38.99999999999977
 21
149.7999999999999
 31
0.0
  0
ARC
  5
46D9
330
46B6
100
AcDbEntity
  8
AM_0 外形線1
100
AcDbCircle
 10
24.99999999999977
 20
168.5
 30
0.0
 40
4.0
100
AcDbArc
 50
180.0
 51
270.0
  0
ARC
  5
46DA
330
46B6
100
AcDbEntity
  8
AM_0 外形線1
100
AcDbCircle
 10
2.199999999999589
 20
166.9000000000001
 30
0.0
 40
0.5
100
AcDbArc
 50
0.0
 51
90.0
  0
LINE
  5
46DB
330
46B6
100
AcDbEntity
  8
AM_0 外形線1
100
AcDbLine
 10
2.699999999999589
 20
163.5
 30
0.0
 11
2.699999999999589
 21
166.9000000000001
 31
0.0
  0
ARC
  5
46DC
330
46B6
100
AcDbEntity
  8
AM_0 外形線1
100
AcDbCircle
 10
2.199999999999589
 20
163.5
 30
0.0
 40
0.5
100
AcDbArc
 50
270.0
 51
0.0
  0
ARC
  5
46DE
330
46B6
100
AcDbEntity
  8
AM_0 外形線1
100
AcDbCircle
 10
109.9999999999997
 20
160.5
 30
0.0
 40
4.0
100
AcDbArc
 50
0.0
 51
90.0
  0
LWPOLYLINE
  5
46DF
330
46B6
100
AcDbEntity
  8
AM_0 外形線1
100
AcDbPolyline
 90
       73
 70
     0
 43
0.0
 10
110.5999999999996
 20
145.95
 10
110.5786899999998
 20
146.2506869999999
 10
110.5149229999997
 20
146.549086
 10
110.4091839999996
 20
146.842926
 10
110.2622779999997
 20
147.1299690000001
 10
110.0753229999998
 20
147.4080330000001
 10
109.8497419999996
 20
147.6749999999999
 10
109.5872509999997
 20
147.9288390000001
 10
109.2898479999997
 20
148.167617
 10
108.9597979999996
 20
148.3895179999999
 10
108.5996099999997
 20
148.5928529999998
 10
108.2120279999997
 20
148.776075
 10
107.7999999999997
 20
148.9377880000002
 10
107.3666619999997
 20
149.0767619999999
 10
106.9153119999998
 20
149.1919400000001
 10
106.4493859999998
 20
149.2824439999999
 10
105.9724289999997
 20
149.3475869999997
 10
105.4880719999996
 20
149.386872
 10
104.9999999999998
 20
149.4000000000001
 10
104.5119269999998
 20
149.386872
 10
104.0275699999997
 20
149.3475869999997
 10
103.5506129999996
 20
149.2824439999999
 10
103.0846869999998
 20
149.1919400000001
 10
102.6333369999997
 20
149.0767619999999
 10
102.1999999999996
 20
148.9377880000002
 10
101.7879709999997
 20
148.776075
 10
101.4003889999997
 20
148.5928529999998
 10
101.0402019999999
 20
148.3895179999999
 10
100.7101509999998
 20
148.167617
 10
100.4127479999997
 20
147.9288390000001
 10
100.1502569999997
 20
147.6749999999999
 10
99.92467599999963
 20
147.4080330000001
 10
99.73772099999974
 20
147.1299690000001
 10
99.5908149999998
 20
146.842926
 10
99.4850759999997
 20
146.549086
 10
99.42130899999959
 20
146.2506869999999
 10
99.39999999999963
 20
145.95
 10
99.42130899999959
 20
145.6493130000001
 10
99.4850759999997
 20
145.3509140000001
 10
99.5908149999998
 20
145.057074
 10
99.73772099999974
 20
144.770031
 10
99.92467599999963
 20
144.4919669999999
 10
100.1502569999997
 20
144.2249999999999
 10
100.4127479999997
 20
143.9711609999999
 10
100.7101509999998
 20
143.732383
 10
101.0402019999999
 20
143.5104820000001
 10
101.4003889999997
 20
143.3071469999999
 10
101.7879709999997
 20
143.1239249999999
 10
102.1999999999996
 20
142.9622119999999
 10
102.6333369999997
 20
142.8232379999999
 10
103.0846869999998
 20
142.7080599999999
 10
103.5506129999996
 20
142.6175560000001
 10
104.0275699999997
 20
142.5524130000001
 10
104.5119269999998
 20
142.513128
 10
104.9999999999998
 20
142.5
 10
105.4880719999996
 20
142.513128
 10
105.9724289999997
 20
142.5524130000001
 10
106.4493859999998
 20
142.6175560000001
 10
106.9153119999998
 20
142.7080599999999
 10
107.3666619999997
 20
142.8232379999999
 10
107.7999999999997
 20
142.9622119999999
 10
108.2120279999997
 20
143.1239249999999
 10
108.5996099999997
 20
143.3071469999999
 10
108.9597979999996
 20
143.5104820000001
 10
109.2898479999997
 20
143.732383
 10
109.5872509999997
 20
143.9711609999999
 10
109.8497419999996
 20
144.2249999999999
 10
110.0753229999998
 20
144.4919669999999
 10
110.2622779999997
 20
144.770031
 10
110.4091839999996
 20
145.057074
 10
110.5149229999997
 20
145.3509140000001
 10
110.5786899999998
 20
145.6493130000001
 10
110.5999999999996
 20
145.95
  0
LINE
  5
46E0
330
46B6
100
AcDbEntity
  8
AM_0 外形線1
100
AcDbLine
 10
110.0999999999997
 20
149.4000000000001
 30
0.0
 11
99.89999999999964
 21
149.4000000000001
 31
0.0
  0
LINE
  5
46E1
330
46B6
100
AcDbEntity
  8
AM_3 隠れ線
100
AcDbLine
 10
89.49999999999977
 20
149.7999999999999
 30
0.0
 11
88.49999999999978
 21
148.7999999999999
 31
0.0
  0
ARC
  5
46E2
330
46B6
100
AcDbEntity
  8
AM_0 外形線1
100
AcDbCircle
 10
90.49999999999977
 20
156.0
 30
0.0
 40
1.0
100
AcDbArc
 50
90.0
 51
180.0
  0
LINE
  5
46E3
330
46B6
100
AcDbEntity
  8
AM_0 外形線1
100
AcDbLine
 10
94.99999999999976
 20
157.0
 30
0.0
 11
90.49999999999977
 21
157.0
 31
0.0
  0
ARC
  5
46E4
330
46B6
100
AcDbEntity
  8
AM_0 外形線1
100
AcDbCircle
 10
94.99999999999976
 20
156.0
 30
0.0
 40
1.0
100
AcDbArc
 50
0.0
 51
90.0
  0
LINE
  5
46E5
330
46B6
100
AcDbEntity
  8
AM_0 外形線1
100
AcDbLine
 10
95.99999999999978
 20
144.0
 30
0.0
 11
95.99999999999978
 21
156.0
 31
0.0
  0
LINE
  5
46E6
330
46B6
100
AcDbEntity
  8
AM_0 外形線1
100
AcDbLine
 10
99.39999999999963
 20
144.0
 30
0.0
 11
95.99999999999978
 21
144.0
 31
0.0
  0
LINE
  5
46E7
330
46B6
100
AcDbEntity
  8
AM_0 外形線1
100
AcDbLine
 10
99.39999999999963
 20
148.9000000000001
 30
0.0
 11
99.39999999999963
 21
144.0
 31
0.0
  0
ARC
  5
46E8
330
46B6
100
AcDbEntity
  8
AM_0 外形線1
100
AcDbCircle
 10
99.89999999999964
 20
148.9000000000001
 30
0.0
 40
0.5
100
AcDbArc
 50
90.0
 51
180.0
  0
LINE
  5
46E9
330
46B6
100
AcDbEntity
  8
AM_0 外形線1
100
AcDbLine
 10
99.39999999999963
 20
144.0
 30
0.0
 11
99.39999999999963
 21
142.5
 31
0.0
  0
LINE
  5
46EA
330
46B6
100
AcDbEntity
  8
AM_0 外形線1
100
AcDbLine
 10
95.99999999999978
 20
144.0
 30
0.0
 11
95.99999999999978
 21
142.5
 31
0.0
  0
LINE
  5
46EB
330
46B6
100
AcDbEntity
  8
AM_0 外形線1
100
AcDbLine
 10
89.49999999999977
 20
152.8717200000001
 30
0.0
 11
89.49999999999977
 21
156.0
 31
0.0
  0
ARC
  5
46EC
330
46B6
100
AcDbEntity
  8
AM_0 外形線1
100
AcDbCircle
 10
110.0999999999997
 20
148.9000000000001
 30
0.0
 40
0.5
100
AcDbArc
 50
0.0
 51
90.0
  0
LINE
  5
46ED
330
46B6
100
AcDbEntity
  8
AM_0 外形線1
100
AcDbLine
 10
110.5999999999996
 20
144.0
 30
0.0
 11
110.5999999999996
 21
148.9000000000001
 31
0.0
  0
LINE
  5
46EE
330
46B6
100
AcDbEntity
  8
AM_0 外形線1
100
AcDbLine
 10
113.9999999999997
 20
144.0
 30
0.0
 11
110.5999999999996
 21
144.0
 31
0.0
  0
LINE
  5
46EF
330
46B6
100
AcDbEntity
  8
AM_0 外形線1
100
AcDbLine
 10
113.9999999999997
 20
160.5
 30
0.0
 11
113.9999999999997
 21
144.0
 31
0.0
  0
LINE
  5
46F0
330
46B6
100
AcDbEntity
  8
AM_0 外形線1
100
AcDbLine
 10
113.9999999999997
 20
144.0
 30
0.0
 11
113.9999999999997
 21
142.5
 31
0.0
  0
LINE
  5
46F1
330
46B6
100
AcDbEntity
  8
AM_0 外形線1
100
AcDbLine
 10
110.5999999999996
 20
144.0
 30
0.0
 11
110.5999999999996
 21
142.5
 31
0.0
  0
LINE
  5
46F2
330
46B6
100
AcDbEntity
  8
AM_0 外形線1
100
AcDbLine
 10
19.99999999999977
 20
200.0
 30
0.0
 11
20.99999999999977
 21
199.0
 31
0.0
  0
INSERT
  5
46F3
330
46B6
100
AcDbEntity
  8
AM_0 外形線1
100
AcDbBlockReference
  2
ロッカクアナツキプラグ R1／4
 10
10.49999999999977
 20
-47.6227040000001
 30
0.0
  0
LINE
  5
476D
330
46B6
100
AcDbEntity
  8
AM_3 隠れ線
100
AcDbLine
 10
89.49999999999977
 20
152.8717200000001
 30
0.0
 11
89.49999999999977
 21
149.7999999999999
 31
0.0
  0
ENDBLK
  5
46B8
330
46B6
100
AcDbEntity
  8
0
100
AcDbBlockEnd
  0
BLOCK
  5
47FF
330
47FE
100
AcDbEntity
  8
0
100
AcDbBlockBegin
  2
リジット SEM400
 70
     0
 10
0.0
 20
0.0
 30
0.0
  3
リジット SEM400
  1

  0
LINE
  5
4801
330
47FE
100
AcDbEntity
  8
AM_0 外形線1
100
AcDbLine
 10
-21.0
 20
-199.0
 30
0.0
 11
-21.0
 21
0.0
 31
0.0
  0
LINE
  5
4802
330
47FE
100
AcDbEntity
  8
AM_0 外形線1
100
AcDbLine
 10
-209.0
 20
-158.5
 30
0.0
 11
-209.0
 21
0.0
 31
0.0
  0
LINE
  5
4803
330
47FE
100
AcDbEntity
  8
AM_0 外形線1
100
AcDbLine
 10
-26.0
 20
-162.5
 30
0.0
 11
-205.0
 21
-162.5
 31
0.0
  0
ARC
  5
4804
330
47FE
100
AcDbEntity
  8
AM_0 外形線1
100
AcDbCircle
 10
-205.0
 20
-158.5
 30
0.0
 40
4.0
100
AcDbArc
 50
180.0
 51
270.0
  0
LINE
  5
4805
330
47FE
100
AcDbEntity
  8
AM_0 外形線1
100
AcDbLine
 10
-1.0
 20
-200.0
 30
0.0
 11
-20.0
 21
-200.0
 31
0.0
  0
LINE
  5
4806
330
47FE
100
AcDbEntity
  8
AM_0 外形線1
100
AcDbLine
 10
-20.0
 20
-200.0
 30
0.0
 11
-21.0
 21
-199.0
 31
0.0
  0
LINE
  5
4807
330
47FE
100
AcDbEntity
  8
AM_0 外形線1
100
AcDbLine
 10
0.0
 20
-199.0
 30
0.0
 11
-1.0
 21
-200.0
 31
0.0
  0
LINE
  5
4808
330
47FE
100
AcDbEntity
  8
AM_7 中心線
100
AcDbLine
 10
29.21235920240452
 20
-184.0
 30
0.0
 11
-29.21235920240452
 21
-184.0
 31
0.0
  0
ARC
  5
4809
330
47FE
100
AcDbEntity
  8
AM_0 外形線1
100
AcDbCircle
 10
-26.0
 20
-167.5
 30
0.0
 40
5.0
100
AcDbArc
 50
0.0
 51
90.0
  0
LINE
  5
480A
330
47FE
100
AcDbEntity
  8
AM_0 外形線1
100
AcDbLine
 10
-26.0
 20
162.5
 30
0.0
 11
-205.0
 21
162.5
 31
0.0
  0
LINE
  5
480B
330
47FE
100
AcDbEntity
  8
AM_0 外形線1
100
AcDbLine
 10
-209.0
 20
158.5
 30
0.0
 11
-209.0
 21
0.0
 31
0.0
  0
ARC
  5
480C
330
47FE
100
AcDbEntity
  8
AM_0 外形線1
100
AcDbCircle
 10
-205.0
 20
158.5
 30
0.0
 40
4.0
100
AcDbArc
 50
90.0
 51
180.0
  0
LINE
  5
480D
330
47FE
100
AcDbEntity
  8
AM_0 外形線1
100
AcDbLine
 10
-9.0
 20
0.0
 30
0.0
 11
-9.0
 21
159.0
 31
0.0
  0
LINE
  5
480E
330
47FE
100
AcDbEntity
  8
AM_3 隠れ線
100
AcDbLine
 10
-9.0
 20
8.0
 30
0.0
 11
-41.0
 21
8.0
 31
0.0
  0
LINE
  5
480F
330
47FE
100
AcDbEntity
  8
AM_3 隠れ線
100
AcDbLine
 10
-9.0
 20
7.0
 30
0.0
 11
-46.0
 21
7.0
 31
0.0
  0
LINE
  5
4810
330
47FE
100
AcDbEntity
  8
AM_3 隠れ線
100
AcDbLine
 10
-41.57735100000013
 20
7.0
 30
0.0
 11
-41.57735100000013
 21
0.0
 31
0.0
  0
LINE
  5
4811
330
47FE
100
AcDbEntity
  8
AM_3 隠れ線
100
AcDbLine
 10
-41.0
 20
8.0
 30
0.0
 11
-41.0
 21
0.0
 31
0.0
  0
LINE
  5
4812
330
47FE
100
AcDbEntity
  8
AM_3 隠れ線
100
AcDbLine
 10
-46.0
 20
7.0
 30
0.0
 11
-50.04145199999993
 21
0.0
 31
0.0
  0
LINE
  5
4813
330
47FE
100
AcDbEntity
  8
AM_3 隠れ線
100
AcDbLine
 10
-46.0
 20
7.0
 30
0.0
 11
-46.0
 21
0.0
 31
0.0
  0
LINE
  5
4814
330
47FE
100
AcDbEntity
  8
AM_0 外形線1
100
AcDbLine
 10
-21.0
 20
167.5
 30
0.0
 11
-21.0
 21
199.0
 31
0.0
  0
ARC
  5
4816
330
47FE
100
AcDbEntity
  8
AM_0 外形線1
100
AcDbCircle
 10
-26.0
 20
167.5
 30
0.0
 40
5.0
100
AcDbArc
 50
270.0
 51
0.0
  0
ARC
  5
4817
330
47FE
100
AcDbEntity
  8
AM_0 外形線1
100
AcDbCircle
 10
-5.0
 20
159.0
 30
0.0
 40
4.0
100
AcDbArc
 50
90.0
 51
180.0
  0
LINE
  5
4818
330
47FE
100
AcDbEntity
  8
AM_0 外形線1
100
AcDbLine
 10
-0.5
 20
163.0
 30
0.0
 11
0.0
 21
163.5
 31
0.0
  0
LINE
  5
4819
330
47FE
100
AcDbEntity
  8
AM_0 外形線1
100
AcDbLine
 10
-1.0
 20
200.0
 30
0.0
 11
-20.0
 21
200.0
 31
0.0
  0
LINE
  5
481A
330
47FE
100
AcDbEntity
  8
AM_0 外形線1
100
AcDbLine
 10
-20.0
 20
200.0
 30
0.0
 11
-21.0
 21
199.0
 31
0.0
  0
LINE
  5
481B
330
47FE
100
AcDbEntity
  8
AM_0 外形線1
100
AcDbLine
 10
0.0
 20
199.0
 30
0.0
 11
-1.0
 21
200.0
 31
0.0
  0
LINE
  5
481D
330
47FE
100
AcDbEntity
  8
AM_0 外形線1
100
AcDbLine
 10
-9.0
 20
95.0
 30
0.0
 11
-209.0
 21
95.0
 31
0.0
  0
LINE
  5
4869
330
47FE
100
AcDbEntity
  8
AM_0 外形線1
100
AcDbLine
 10
0.0000000000002274
 20
0.0
 30
0.0
 11
0.0
 21
-199.0
 31
0.0
  0
LINE
  5
486A
330
47FE
100
AcDbEntity
  8
AM_0 外形線1
100
AcDbLine
 10
-0.5
 20
163.0
 30
0.0
 11
-5.0
 21
163.0
 31
0.0
  0
LINE
  5
486B
330
47FE
100
AcDbEntity
  8
AM_0 外形線1
100
AcDbLine
 10
0.0
 20
163.5
 30
0.0
 11
-0.0000000000002274
 21
174.9999999999998
 31
0.0
  0
LINE
  5
486C
330
47FE
100
AcDbEntity
  8
AM_0 外形線1
100
AcDbLine
 10
-0.0000000000002274
 20
174.9999999999998
 30
0.0
 11
-21.0
 21
174.9999999999998
 31
0.0
  0
LINE
  5
486D
330
47FE
100
AcDbEntity
  8
AM_0 外形線1
100
AcDbLine
 10
0.0
 20
199.0
 30
0.0
 11
0.0
 21
193.0
 31
0.0
  0
LINE
  5
486E
330
47FE
100
AcDbEntity
  8
AM_0 外形線1
100
AcDbLine
 10
0.0
 20
193.0
 30
0.0
 11
-21.0
 21
193.0
 31
0.0
  0
ENDBLK
  5
4800
330
47FE
100
AcDbEntity
  8
0
100
AcDbBlockEnd
  0
BLOCK
  5
48DB
330
48DA
100
AcDbEntity
  8
0
100
AcDbBlockBegin
  2
センタ SEM400
 70
     0
 10
0.0
 20
0.0
 30
0.0
  3
センタ SEM400
  1

  0
LINE
  5
48DD
330
48DA
100
AcDbEntity
  8
AM_0 外形線1
100
AcDbLine
 10
195.9999999999998
 20
141.6999999999999
 30
0.0
 11
137.4999999999998
 21
141.6999999999999
 31
0.0
  0
LINE
  5
48DE
330
48DA
100
AcDbEntity
  8
AM_0 外形線1
100
AcDbLine
 10
0.0
 20
141.0
 30
0.0
 11
0.0
 21
0.0
 31
0.0
  0
LINE
  5
48DF
330
48DA
100
AcDbEntity
  8
AM_0 外形線1
100
AcDbLine
 10
137.4999999999998
 20
-141.6999999999999
 30
0.0
 11
137.4999999999998
 21
0.0
 31
0.0
  0
LINE
  5
48E0
330
48DA
100
AcDbEntity
  8
AM_0 外形線1
100
AcDbLine
 10
135.4999999999997
 20
-142.5
 30
0.0
 11
135.4999999999997
 21
0.0
 31
0.0
  0
LINE
  5
48E1
330
48DA
100
AcDbEntity
  8
AM_3 隠れ線
100
AcDbLine
 10
0.0
 20
7.0
 30
0.0
 11
37.0
 21
7.0
 31
0.0
  0
LINE
  5
48E2
330
48DA
100
AcDbEntity
  8
AM_3 隠れ線
100
AcDbLine
 10
0.0
 20
8.0
 30
0.0
 11
32.0
 21
8.0
 31
0.0
  0
LINE
  5
48E3
330
48DA
100
AcDbEntity
  8
AM_3 隠れ線
100
AcDbLine
 10
32.0
 20
8.0
 30
0.0
 11
32.57735000000002
 21
7.0
 31
0.0
  0
LINE
  5
48E4
330
48DA
100
AcDbEntity
  8
AM_3 隠れ線
100
AcDbLine
 10
32.0
 20
8.0
 30
0.0
 11
32.0
 21
0.0
 31
0.0
  0
LINE
  5
48E5
330
48DA
100
AcDbEntity
  8
AM_3 隠れ線
100
AcDbLine
 10
32.57735000000002
 20
7.0
 30
0.0
 11
32.57735000000002
 21
0.0
 31
0.0
  0
LINE
  5
48E6
330
48DA
100
AcDbEntity
  8
AM_3 隠れ線
100
AcDbLine
 10
37.0
 20
7.0
 30
0.0
 11
37.0
 21
0.0
 31
0.0
  0
LINE
  5
48E7
330
48DA
100
AcDbEntity
  8
AM_3 隠れ線
100
AcDbLine
 10
37.0
 20
7.0
 30
0.0
 11
41.04145099999981
 21
0.0
 31
0.0
  0
ARC
  5
48EA
330
48DA
100
AcDbEntity
  8
AM_0 外形線1
100
AcDbCircle
 10
56.0
 20
0.0
 30
0.0
 40
155.81
100
AcDbArc
 50
81.32527699999478
 51
97.37491799998863
  0
LINE
  5
48EB
330
48DA
100
AcDbEntity
  8
AM_0 外形線1
100
AcDbLine
 10
34.5
 20
142.0
 30
0.0
 11
1.0
 21
142.0
 31
0.0
  0
LINE
  5
48EC
330
48DA
100
AcDbEntity
  8
AM_0 外形線1
100
AcDbLine
 10
1.0
 20
142.0
 30
0.0
 11
0.0
 21
141.0
 31
0.0
  0
ARC
  5
48ED
330
48DA
100
AcDbEntity
  8
AM_0 外形線1
100
AcDbCircle
 10
34.5
 20
142.5
 30
0.0
 40
0.5
100
AcDbArc
 50
270.0
 51
0.0
  0
LINE
  5
48EE
330
48DA
100
AcDbEntity
  8
AM_0 外形線1
100
AcDbLine
 10
35.0
 20
153.3883289999999
 30
0.0
 11
35.0
 21
142.5
 31
0.0
  0
LINE
  5
48EF
330
48DA
100
AcDbEntity
  8
AM_0 外形線1
100
AcDbLine
 10
36.0
 20
154.5210539999998
 30
0.0
 11
35.0
 21
153.3883289999999
 31
0.0
  0
LINE
  5
48F0
330
48DA
100
AcDbEntity
  8
AM_7 中心線
100
AcDbLine
 10
56.0
 20
160.8099999999999
 30
0.0
 11
56.0
 21
142.5999999999999
 31
0.0
  0
LINE
  5
48F1
330
48DA
100
AcDbEntity
  8
AM_0 外形線1
100
AcDbLine
 10
135.4999999999997
 20
142.5
 30
0.0
 11
81.0
 21
142.5
 31
0.0
  0
LINE
  5
48F2
330
48DA
100
AcDbEntity
  8
AM_0 外形線1
100
AcDbLine
 10
80.5
 20
152.8717200000001
 30
0.0
 11
79.5
 21
154.0276149999999
 31
0.0
  0
ARC
  5
48F3
330
48DA
100
AcDbEntity
  8
AM_0 外形線1
100
AcDbCircle
 10
81.0
 20
143.0
 30
0.0
 40
0.5
100
AcDbArc
 50
180.0
 51
270.0
  0
LINE
  5
48F4
330
48DA
100
AcDbEntity
  8
AM_0 外形線1
100
AcDbLine
 10
137.4999999999998
 20
141.6999999999999
 30
0.0
 11
135.4999999999997
 21
142.5
 31
0.0
  0
LINE
  5
48F5
330
48DA
100
AcDbEntity
  8
AM_0 外形線1
100
AcDbLine
 10
199.9999999999998
 20
-137.7
 30
0.0
 11
199.9999999999998
 21
137.7
 31
0.0
  0
ARC
  5
48F6
330
48DA
100
AcDbEntity
  8
AM_0 外形線1
100
AcDbCircle
 10
195.9999999999998
 20
137.7
 30
0.0
 40
4.0
100
AcDbArc
 50
0.0
 51
90.0
  0
LINE
  5
48F7
330
48DA
100
AcDbEntity
  8
AM_0 外形線1
100
AcDbLine
 10
105.0
 20
-142.5
 30
0.0
 11
135.4999999999997
 21
-142.5
 31
0.0
  0
LINE
  5
48F8
330
48DA
100
AcDbEntity
  8
AM_0 外形線1
100
AcDbLine
 10
135.499991029091
 20
-142.499994402305
 30
0.0
 11
137.499991029091
 21
-141.699994402305
 31
0.0
  0
LINE
  5
48F9
330
48DA
100
AcDbEntity
  8
AM_0 外形線1
100
AcDbLine
 10
137.4999896268537
 20
-141.6999899425657
 30
0.0
 11
195.9999896268536
 21
-141.6999899425657
 31
0.0
  0
ARC
  5
48FA
330
48DA
100
AcDbEntity
  8
AM_0 外形線1
100
AcDbCircle
 10
195.9999896268536
 20
-137.6999899425657
 30
0.0
 40
4.0
100
AcDbArc
 50
270.0
 51
0.0
  0
LINE
  5
48FC
330
48DA
100
AcDbEntity
  8
AM_0 外形線1
100
AcDbLine
 10
-0.0000000000004547
 20
84.99999999999976
 30
0.0
 11
199.9999999999998
 21
85.0
 31
0.0
  0
LINE
  5
4942
330
48DA
100
AcDbEntity
  8
AM_0 外形線1
100
AcDbLine
 10
80.5
 20
152.8717200000001
 30
0.0
 11
80.5
 21
143.0
 31
0.0
  0
ARC
  5
697B
330
48DA
100
AcDbEntity
  8
AM_7 中心線
100
AcDbCircle
 10
56.0
 20
0.0
 30
0.0
 40
152.0
100
AcDbArc
 50
79.53632879397661
 51
98.95527303673755
  0
ARC
  5
697C
330
48DA
100
AcDbEntity
  8
AM_0 外形線1
100
AcDbCircle
 10
56.0
 20
0.0
 30
0.0
 40
147.5999999999999
100
AcDbArc
 50
80.4452984104649
 51
98.17959450763082
  0
ENDBLK
  5
48DC
330
48DA
100
AcDbEntity
  8
0
100
AcDbBlockEnd
  0
BLOCK
  5
4ADF
330
4ADE
100
AcDbEntity
  8
0
100
AcDbBlockBegin
  2
リーマボルト SEM400 M16
 70
     0
 10
0.0
 20
0.0
 30
0.0
  3
リーマボルト SEM400 M16
  1

  0
LINE
  5
4AE1
330
4ADE
100
AcDbEntity
  8
AM_0 外形線1
100
AcDbLine
 10
2.0
 20
-9.0
 30
0.0
 11
2.0
 21
9.0
 31
0.0
  0
ARC
  5
4AE2
330
4ADE
100
AcDbEntity
  8
AM_0 外形線1
100
AcDbCircle
 10
-3.858872999999903
 20
10.38910200000009
 30
0.0
 40
6.141127
100
AcDbArc
 50
145.6975910000181
 51
214.3024089999818
  0
LINE
  5
4AE3
330
4ADE
100
AcDbEntity
  8
AM_0 外形線1
100
AcDbLine
 10
-10.0
 20
12.0
 30
0.0
 11
-10.0
 21
-12.0
 31
0.0
  0
ARC
  5
4AE4
330
4ADE
100
AcDbEntity
  8
AM_0 外形線1
100
AcDbCircle
 10
1.0
 20
-9.0
 30
0.0
 40
1.0
100
AcDbArc
 50
0.0
 51
180.0
  0
ARC
  5
4AE5
330
4ADE
100
AcDbEntity
  8
AM_0 外形線1
100
AcDbCircle
 10
-3.858872999999903
 20
-10.38910200000009
 30
0.0
 40
6.141127
100
AcDbArc
 50
145.6975910000181
 51
214.3024089999818
  0
ARC
  5
4AE6
330
4ADE
100
AcDbEntity
  8
AM_0 外形線1
100
AcDbCircle
 10
13.00389700000005
 20
0.0
 30
0.0
 40
23.003897
100
AcDbArc
 50
162.4717979999939
 51
197.528202000006
  0
LINE
  5
4AE7
330
4ADE
100
AcDbEntity
  8
AM_0 外形線1
100
AcDbLine
 10
0.0
 20
-6.928202999999937
 30
0.0
 11
-8.931902000000036
 21
-6.928202999999937
 31
0.0
  0
LINE
  5
4AE8
330
4ADE
100
AcDbEntity
  8
AM_0 外形線1
100
AcDbLine
 10
0.0
 20
6.928202999999937
 30
0.0
 11
-8.931902000000036
 21
6.928202999999937
 31
0.0
  0
LINE
  5
4AE9
330
4ADE
100
AcDbEntity
  8
AM_0 外形線1
100
AcDbLine
 10
-8.931902000000036
 20
-13.84999999999991
 30
0.0
 11
0.0
 21
-13.84999999999991
 31
0.0
  0
LINE
  5
4AEA
330
4ADE
100
AcDbEntity
  8
AM_0 外形線1
100
AcDbLine
 10
-10.0
 20
-12.0
 30
0.0
 11
-8.931902000000036
 21
-13.84999999999991
 31
0.0
  0
ARC
  5
4AEB
330
4ADE
100
AcDbEntity
  8
AM_0 外形線1
100
AcDbCircle
 10
1.0
 20
9.0
 30
0.0
 40
1.0
100
AcDbArc
 50
180.0
 51
0.0
  0
LINE
  5
4AEC
330
4ADE
100
AcDbEntity
  8
AM_0 外形線1
100
AcDbLine
 10
-8.931902000000036
 20
13.84999999999991
 30
0.0
 11
-10.0
 21
12.0
 31
0.0
  0
LINE
  5
4AED
330
4ADE
100
AcDbEntity
  8
AM_0 外形線1
100
AcDbLine
 10
0.0
 20
13.84999999999991
 30
0.0
 11
-8.931902000000036
 21
13.84999999999991
 31
0.0
  0
LINE
  5
4AEE
330
4ADE
100
AcDbEntity
  8
AM_0 外形線1
100
AcDbLine
 10
63.0
 20
8.0
 30
0.0
 11
63.0
 21
-8.0
 31
0.0
  0
LINE
  5
4AEF
330
4ADE
100
AcDbEntity
  8
AM_0 外形線1
100
AcDbLine
 10
63.0
 20
8.0
 30
0.0
 11
65.0
 21
6.0
 31
0.0
  0
ARC
  5
4AF0
330
4ADE
100
AcDbEntity
  8
AM_0 外形線1
100
AcDbCircle
 10
52.85887299999989
 20
10.38910200000009
 30
0.0
 40
6.141127
100
AcDbArc
 50
325.6975910000182
 51
34.30240899998182
  0
LINE
  5
4AF1
330
4ADE
100
AcDbEntity
  8
AM_0 外形線1
100
AcDbLine
 10
46.0
 20
-13.84999999999991
 30
0.0
 11
46.0
 21
13.84999999999991
 31
0.0
  0
LINE
  5
4AF2
330
4ADE
100
AcDbEntity
  8
AM_0 外形線1
100
AcDbLine
 10
59.0
 20
12.0
 30
0.0
 11
59.0
 21
-12.0
 31
0.0
  0
LINE
  5
4AF3
330
4ADE
100
AcDbEntity
  8
AM_0 外形線1
100
AcDbLine
 10
40.0
 20
9.0
 30
0.0
 11
40.0
 21
-9.0
 31
0.0
  0
LINE
  5
4AF4
330
4ADE
100
AcDbEntity
  8
AM_0 外形線1
100
AcDbLine
 10
41.0
 20
8.422649999999974
 30
0.0
 11
41.0
 21
-8.422649999999974
 31
0.0
  0
LINE
  5
4AF5
330
4ADE
100
AcDbEntity
  8
AM_4 細線
100
AcDbLine
 10
59.0
 20
-7.0
 30
0.0
 11
64.0
 21
-7.0
 31
0.0
  0
LINE
  5
4AF6
330
4ADE
100
AcDbEntity
  8
AM_0 外形線1
100
AcDbLine
 10
65.0
 20
-6.0
 30
0.0
 11
63.0
 21
-8.0
 31
0.0
  0
LINE
  5
4AF7
330
4ADE
100
AcDbEntity
  8
AM_0 外形線1
100
AcDbLine
 10
46.0
 20
1.333333000000038
 30
0.0
 11
42.0
 21
-2.66666699999996
 31
0.0
  0
LINE
  5
4AF8
330
4ADE
100
AcDbEntity
  8
AM_0 外形線1
100
AcDbLine
 10
46.0
 20
2.66666699999996
 30
0.0
 11
42.0
 21
-1.333333000000038
 31
0.0
  0
LINE
  5
4AF9
330
4ADE
100
AcDbEntity
  8
AM_0 外形線1
100
AcDbLine
 10
42.0
 20
-14.0
 30
0.0
 11
46.0
 21
-14.0
 31
0.0
  0
LINE
  5
4AFA
330
4ADE
100
AcDbEntity
  8
AM_0 外形線1
100
AcDbLine
 10
41.0
 20
-8.422649999999974
 30
0.0
 11
42.0
 21
-8.422649999999974
 31
0.0
  0
LINE
  5
4AFB
330
4ADE
100
AcDbEntity
  8
AM_0 外形線1
100
AcDbLine
 10
41.0
 20
-8.422649999999974
 30
0.0
 11
40.0
 21
-9.0
 31
0.0
  0
LINE
  5
4AFC
330
4ADE
100
AcDbEntity
  8
AM_0 外形線1
100
AcDbLine
 10
63.0
 20
-8.0
 30
0.0
 11
59.0
 21
-8.0
 31
0.0
  0
LINE
  5
4AFD
330
4ADE
100
AcDbEntity
  8
AM_0 外形線1
100
AcDbLine
 10
46.0
 20
-6.928202999999937
 30
0.0
 11
57.93190200000004
 21
-6.928202999999937
 31
0.0
  0
LINE
  5
4AFE
330
4ADE
100
AcDbEntity
  8
AM_0 外形線1
100
AcDbLine
 10
46.0
 20
6.928202999999937
 30
0.0
 11
57.93190200000004
 21
6.928202999999937
 31
0.0
  0
ARC
  5
4AFF
330
4ADE
100
AcDbEntity
  8
AM_0 外形線1
100
AcDbCircle
 10
52.85887299999989
 20
-10.38910200000009
 30
0.0
 40
6.141127
100
AcDbArc
 50
325.6975910000182
 51
34.30240899998182
  0
ARC
  5
4B00
330
4ADE
100
AcDbEntity
  8
AM_0 外形線1
100
AcDbCircle
 10
35.99610200000006
 20
0.0
 30
0.0
 40
23.003897
100
AcDbArc
 50
342.471797999994
 51
17.52820200000604
  0
LINE
  5
4B01
330
4ADE
100
AcDbEntity
  8
AM_0 外形線1
100
AcDbLine
 10
57.93190200000004
 20
-13.84999999999991
 30
0.0
 11
46.0
 21
-13.84999999999991
 31
0.0
  0
LINE
  5
4B02
330
4ADE
100
AcDbEntity
  8
AM_0 外形線1
100
AcDbLine
 10
59.0
 20
-12.0
 30
0.0
 11
57.93190200000004
 21
-13.84999999999991
 31
0.0
  0
LINE
  5
4B03
330
4ADE
100
AcDbEntity
  8
AM_0 外形線1
100
AcDbLine
 10
46.0
 20
-14.0
 30
0.0
 11
46.0
 21
-13.84999999999991
 31
0.0
  0
LINE
  5
4B04
330
4ADE
100
AcDbEntity
  8
AM_0 外形線1
100
AcDbLine
 10
65.0
 20
6.0
 30
0.0
 11
65.0
 21
-6.0
 31
0.0
  0
LINE
  5
4B05
330
4ADE
100
AcDbEntity
  8
AM_4 細線
100
AcDbLine
 10
59.0
 20
7.0
 30
0.0
 11
64.0
 21
7.0
 31
0.0
  0
LINE
  5
4B06
330
4ADE
100
AcDbEntity
  8
AM_0 外形線1
100
AcDbLine
 10
46.0
 20
14.0
 30
0.0
 11
42.0
 21
14.0
 31
0.0
  0
LINE
  5
4B07
330
4ADE
100
AcDbEntity
  8
AM_0 外形線1
100
AcDbLine
 10
41.0
 20
8.422649999999974
 30
0.0
 11
42.0
 21
8.422649999999974
 31
0.0
  0
LINE
  5
4B08
330
4ADE
100
AcDbEntity
  8
AM_0 外形線1
100
AcDbLine
 10
40.0
 20
9.0
 30
0.0
 11
41.0
 21
8.422649999999974
 31
0.0
  0
LINE
  5
4B09
330
4ADE
100
AcDbEntity
  8
AM_0 外形線1
100
AcDbLine
 10
59.0
 20
8.0
 30
0.0
 11
63.0
 21
8.0
 31
0.0
  0
LINE
  5
4B0A
330
4ADE
100
AcDbEntity
  8
AM_0 外形線1
100
AcDbLine
 10
57.93190200000004
 20
13.84999999999991
 30
0.0
 11
59.0
 21
12.0
 31
0.0
  0
LINE
  5
4B0B
330
4ADE
100
AcDbEntity
  8
AM_0 外形線1
100
AcDbLine
 10
46.0
 20
13.84999999999991
 30
0.0
 11
57.93190200000004
 21
13.84999999999991
 31
0.0
  0
LINE
  5
4B0C
330
4ADE
100
AcDbEntity
  8
AM_0 外形線1
100
AcDbLine
 10
46.0
 20
13.84999999999991
 30
0.0
 11
46.0
 21
14.0
 31
0.0
  0
LINE
  5
4B6E
330
4ADE
100
AcDbEntity
  8
AM_0 外形線1
100
AcDbLine
 10
0.0
 20
13.84999999999991
 30
0.0
 11
0.0
 21
-13.84999999999991
 31
0.0
  0
LINE
  5
4B6F
330
4ADE
100
AcDbEntity
  8
AM_0 外形線1
100
AcDbLine
 10
2.0
 20
9.0
 30
0.0
 11
40.0
 21
9.0
 31
0.0
  0
LINE
  5
4B70
330
4ADE
100
AcDbEntity
  8
AM_0 外形線1
100
AcDbLine
 10
1.99999999999909
 20
-8.999999999997497
 30
0.0
 11
39.99999999999909
 21
-9.000000000001136
 31
0.0
  0
LINE
  5
4B71
330
4ADE
100
AcDbEntity
  8
AM_0 外形線1
100
AcDbLine
 10
42.0
 20
14.0
 30
0.0
 11
42.0
 21
-14.0
 31
0.0
  0
ENDBLK
  5
4AE0
330
4ADE
100
AcDbEntity
  8
0
100
AcDbBlockEnd
  0
BLOCK
  5
4D66
330
4D65
100
AcDbEntity
  8
0
100
AcDbBlockBegin
  2
*D11
 70
     1
 10
0.0
 20
0.0
 30
0.0
  3
*D11
  1

  0
LINE
  5
6415
330
4D65
100
AcDbEntity
  8
AM_5 寸法線
 62
     3
100
AcDbLine
 10
852.7740668986771
 20
1249.338037132689
 30
0.0
 11
748.7740668986771
 21
1249.338037132689
 31
0.0
  0
LINE
  5
6416
330
4D65
100
AcDbEntity
  8
AM_5 寸法線
 62
     3
100
AcDbLine
 10
852.7740668986771
 20
924.3380371326896
 30
0.0
 11
748.7740668986771
 21
924.3380371326896
 31
0.0
  0
LINE
  5
6417
330
4D65
100
AcDbEntity
  8
AM_5 寸法線
 62
     3
100
AcDbLine
 10
751.8990668986771
 20
1236.838037132689
 30
0.0
 11
751.8990668986771
 21
936.8380371326896
 31
0.0
  0
INSERT
  5
6418
330
4D65
100
AcDbEntity
  8
AM_5 寸法線
 62
     3
100
AcDbBlockReference
  2
_Open30
 10
751.8990668986771
 20
1249.338037132689
 30
0.0
 41
12.5
 42
12.5
 43
12.5
 50
90.0
  0
INSERT
  5
6419
330
4D65
100
AcDbEntity
  8
AM_5 寸法線
 62
     3
100
AcDbBlockReference
  2
_Open30
 10
751.8990668986771
 20
924.3380371326896
 30
0.0
 41
12.5
 42
12.5
 43
12.5
 50
270.0
  0
MTEXT
  5
641A
330
4D65
100
AcDbEntity
  8
AM_5 寸法線
 62
     3
100
AcDbMText
 10
735.6490668986769
 20
1086.83803713269
 30
0.0
 40
17.5
 41
0.0
 46
0.0
 71
     5
 72
     1
  1
%%c325
  7
SEISA
 11
0.0000000000000001
 21
1.0
 31
0.0
 73
     1
 44
1.0
  0
POINT
  5
641B
330
4D65
100
AcDbEntity
  8
Defpoints
 62
     0
100
AcDbPoint
 10
855.8990668986771
 20
1249.338037132689
 30
0.0
  0
POINT
  5
641C
330
4D65
100
AcDbEntity
  8
Defpoints
 62
     0
100
AcDbPoint
 10
855.8990668986771
 20
924.3380371326896
 30
0.0
  0
POINT
  5
641D
330
4D65
100
AcDbEntity
  8
Defpoints
 62
     0
100
AcDbPoint
 10
751.8990668986771
 20
924.3380371326896
 30
0.0
  0
ENDBLK
  5
4D67
330
4D65
100
AcDbEntity
  8
0
100
AcDbBlockEnd
  0
BLOCK
  5
4DAA
330
4DA9
100
AcDbEntity
  8
0
100
AcDbBlockBegin
  2
*D12
 70
     1
 10
0.0
 20
0.0
 30
0.0
  3
*D12
  1

  0
LINE
  5
641E
330
4DA9
100
AcDbEntity
  8
AM_5 寸法線
 62
     3
100
AcDbLine
 10
1051.899066898677
 20
1089.963037132689
 30
0.0
 11
1051.899066898677
 21
1131.08291859175
 31
0.0
  0
LINE
  5
641F
330
4DA9
100
AcDbEntity
  8
AM_5 寸法線
 62
     3
100
AcDbLine
 10
851.899066898677
 20
1089.963037132689
 30
0.0
 11
851.899066898677
 21
1131.08291859175
 31
0.0
  0
LINE
  5
6420
330
4DA9
100
AcDbEntity
  8
AM_5 寸法線
 62
     3
100
AcDbLine
 10
1039.399066898677
 20
1127.95791859175
 30
0.0
 11
864.3990668986772
 21
1127.95791859175
 31
0.0
  0
INSERT
  5
6421
330
4DA9
100
AcDbEntity
  8
AM_5 寸法線
 62
     3
100
AcDbBlockReference
  2
_Open30
 10
1051.899066898677
 20
1127.95791859175
 30
0.0
 41
12.5
 42
12.5
 43
12.5
  0
INSERT
  5
6422
330
4DA9
100
AcDbEntity
  8
AM_5 寸法線
 62
     3
100
AcDbBlockReference
  2
_Open30
 10
851.899066898677
 20
1127.95791859175
 30
0.0
 41
12.5
 42
12.5
 43
12.5
 50
180.0
  0
MTEXT
  5
6423
330
4DA9
100
AcDbEntity
  8
AM_5 寸法線
 62
     3
100
AcDbMText
 10
951.8990668986772
 20
1144.20791859175
 30
0.0
 40
17.5
 41
0.0
 46
0.0
 71
     5
 72
     1
  1
200
  7
SEISA
 73
     1
 44
1.0
  0
POINT
  5
6424
330
4DA9
100
AcDbEntity
  8
Defpoints
 62
     0
100
AcDbPoint
 10
1051.899066898677
 20
1086.83803713269
 30
0.0
  0
POINT
  5
6425
330
4DA9
100
AcDbEntity
  8
Defpoints
 62
     0
100
AcDbPoint
 10
851.899066898677
 20
1086.83803713269
 30
0.0
  0
POINT
  5
6426
330
4DA9
100
AcDbEntity
  8
Defpoints
 62
     0
100
AcDbPoint
 10
851.899066898677
 20
1127.95791859175
 30
0.0
  0
ENDBLK
  5
4DAB
330
4DA9
100
AcDbEntity
  8
0
100
AcDbBlockEnd
  0
BLOCK
  5
4DC2
330
4DC1
100
AcDbEntity
  8
0
100
AcDbBlockBegin
  2
*D13
 70
     1
 10
0.0
 20
0.0
 30
0.0
  3
*D13
  1

  0
LINE
  5
6427
330
4DC1
100
AcDbEntity
  8
AM_5 寸法線
 62
     3
100
AcDbLine
 10
1069.899066898677
 20
1089.963037132689
 30
0.0
 11
1069.899066898677
 21
1131.08291859175
 31
0.0
  0
LINE
  5
6428
330
4DC1
100
AcDbEntity
  8
AM_5 寸法線
 62
     3
100
AcDbLine
 10
1051.899066898677
 20
1089.963037132689
 30
0.0
 11
1051.899066898677
 21
1131.08291859175
 31
0.0
  0
LINE
  5
6429
330
4DC1
100
AcDbEntity
  8
AM_5 寸法線
 62
     3
100
AcDbLine
 10
1082.399066898677
 20
1127.95791859175
 30
0.0
 11
1094.899066898677
 21
1127.95791859175
 31
0.0
  0
LINE
  5
642A
330
4DC1
100
AcDbEntity
  8
AM_5 寸法線
 62
     3
100
AcDbLine
 10
1039.399066898677
 20
1127.95791859175
 30
0.0
 11
1026.899066898677
 21
1127.95791859175
 31
0.0
  0
MTEXT
  5
642B
330
4DC1
100
AcDbEntity
  8
AM_5 寸法線
 62
     3
100
AcDbMText
 10
1088.910068770419
 20
1143.942296370904
 30
0.0
 40
17.5
 41
0.0
 46
0.0
 71
     5
 72
     1
  1
18
  7
SEISA
 73
     1
 44
1.0
  0
LINE
  5
642C
330
4DC1
100
AcDbEntity
  8
AM_5 寸法線
 62
     3
100
AcDbLine
 10
1069.899066898677
 20
1127.95791859175
 30
0.0
 11
1051.899066898677
 21
1127.95791859175
 31
0.0
  0
INSERT
  5
642D
330
4DC1
100
AcDbEntity
  8
AM_5 寸法線
 62
     3
100
AcDbBlockReference
  2
_Open30
 10
1069.899066898677
 20
1127.95791859175
 30
0.0
 41
12.5
 42
12.5
 43
12.5
 50
180.0
  0
INSERT
  5
642E
330
4DC1
100
AcDbEntity
  8
AM_5 寸法線
 62
     3
100
AcDbBlockReference
  2
_Open30
 10
1051.899066898677
 20
1127.95791859175
 30
0.0
 41
12.5
 42
12.5
 43
12.5
  0
POINT
  5
642F
330
4DC1
100
AcDbEntity
  8
Defpoints
 62
     0
100
AcDbPoint
 10
1069.899066898677
 20
1086.83803713269
 30
0.0
  0
POINT
  5
6430
330
4DC1
100
AcDbEntity
  8
Defpoints
 62
     0
100
AcDbPoint
 10
1051.899066898677
 20
1086.83803713269
 30
0.0
  0
POINT
  5
6431
330
4DC1
100
AcDbEntity
  8
Defpoints
 62
     0
100
AcDbPoint
 10
1051.899066898677
 20
1127.95791859175
 30
0.0
  0
ENDBLK
  5
4DC3
330
4DC1
100
AcDbEntity
  8
0
100
AcDbBlockEnd
  0
BLOCK
  5
4DDE
330
4DDD
100
AcDbEntity
  8
0
100
AcDbBlockBegin
  2
*D14
 70
     1
 10
0.0
 20
0.0
 30
0.0
  3
*D14
  1

  0
LINE
  5
6A5F
330
4DDD
100
AcDbEntity
  8
AM_5 寸法線
 62
     3
100
AcDbLine
 10
1069.899066898677
 20
1089.963037132689
 30
0.0
 11
1069.899066898677
 21
1131.08291859175
 31
0.0
  0
LINE
  5
6A60
330
4DDD
100
AcDbEntity
  8
AM_5 寸法線
 62
     3
100
AcDbLine
 10
1269.899066898677
 20
1089.963037132689
 30
0.0
 11
1269.899066898677
 21
1131.08291859175
 31
0.0
  0
LINE
  5
6A61
330
4DDD
100
AcDbEntity
  8
AM_5 寸法線
 62
     3
100
AcDbLine
 10
1082.399066898677
 20
1127.95791859175
 30
0.0
 11
1257.399066898677
 21
1127.95791859175
 31
0.0
  0
MTEXT
  5
6A62
330
4DDD
100
AcDbEntity
  8
AM_5 寸法線
 62
     3
100
AcDbMText
 10
1237.974419994957
 20
1147.361270784417
 30
0.0
 40
17.5
 41
0.0
 46
0.0
 71
     5
 72
     1
  1
200
  7
SEISA
 73
     1
 44
1.0
  0
INSERT
  5
6A63
330
4DDD
100
AcDbEntity
  8
AM_5 寸法線
 62
     3
100
AcDbBlockReference
  2
_Open30
 10
1069.899066898677
 20
1127.95791859175
 30
0.0
 41
12.5
 42
12.5
 43
12.5
 50
180.0
  0
INSERT
  5
6A64
330
4DDD
100
AcDbEntity
  8
AM_5 寸法線
 62
     3
100
AcDbBlockReference
  2
_Open30
 10
1269.899066898677
 20
1127.95791859175
 30
0.0
 41
12.5
 42
12.5
 43
12.5
  0
POINT
  5
6A65
330
4DDD
100
AcDbEntity
  8
Defpoints
 62
     0
100
AcDbPoint
 10
1069.899066898677
 20
1086.83803713269
 30
0.0
  0
POINT
  5
6A66
330
4DDD
100
AcDbEntity
  8
Defpoints
 62
     0
100
AcDbPoint
 10
1269.899066898677
 20
1086.83803713269
 30
0.0
  0
POINT
  5
6A67
330
4DDD
100
AcDbEntity
  8
Defpoints
 62
     0
100
AcDbPoint
 10
1269.899066898677
 20
1127.95791859175
 30
0.0
  0
ENDBLK
  5
4DDF
330
4DDD
100
AcDbEntity
  8
0
100
AcDbBlockEnd
  0
BLOCK
  5
4E81
330
4E80
100
AcDbEntity
  8
0
100
AcDbBlockBegin
  2
*D15
 70
     1
 10
0.0
 20
0.0
 30
0.0
  3
*D15
  1

  0
LINE
  5
6A22
330
4E80
100
AcDbEntity
  8
AM_5 寸法線
 62
     3
100
AcDbLine
 10
1156.899066898677
 20
1226.213037132689
 30
0.0
 11
1156.899066898677
 21
1184.68293953016
 31
0.0
  0
LINE
  5
6A23
330
4E80
100
AcDbEntity
  8
AM_5 寸法線
 62
     3
100
AcDbLine
 10
1150.399066898677
 20
1226.713037132689
 30
0.0
 11
1150.399066898677
 21
1184.68293953016
 31
0.0
  0
LINE
  5
6A24
330
4E80
100
AcDbEntity
  8
AM_5 寸法線
 62
     3
100
AcDbLine
 10
1137.899066898677
 20
1187.80793953016
 30
0.0
 11
1125.399066898677
 21
1187.80793953016
 31
0.0
  0
LINE
  5
6A25
330
4E80
100
AcDbEntity
  8
AM_5 寸法線
 62
     3
100
AcDbLine
 10
1169.399066898677
 20
1187.80793953016
 30
0.0
 11
1229.149066898677
 21
1187.80793953016
 31
0.0
  0
LINE
  5
6A26
330
4E80
100
AcDbEntity
  8
AM_5 寸法線
 62
     3
100
AcDbLine
 10
1150.399066898677
 20
1187.80793953016
 30
0.0
 11
1156.899066898677
 21
1187.80793953016
 31
0.0
  0
INSERT
  5
6A27
330
4E80
100
AcDbEntity
  8
AM_5 寸法線
 62
     3
100
AcDbBlockReference
  2
_Open30
 10
1150.399066898677
 20
1187.80793953016
 30
0.0
 41
12.5
 42
12.5
 43
12.5
  0
INSERT
  5
6A28
330
4E80
100
AcDbEntity
  8
AM_5 寸法線
 62
     3
100
AcDbBlockReference
  2
_Open30
 10
1156.899066898677
 20
1187.80793953016
 30
0.0
 41
12.5
 42
12.5
 43
12.5
 50
180.0
  0
MTEXT
  5
6A29
330
4E80
100
AcDbEntity
  8
AM_5 寸法線
 62
     3
100
AcDbMText
 10
1205.524066898677
 20
1204.05793953016
 30
0.0
 40
17.5
 41
0.0
 46
0.0
 71
     5
 72
     1
  1
6.5
  7
SEISA
 73
     1
 44
1.0
  0
POINT
  5
6A2A
330
4E80
100
AcDbEntity
  8
Defpoints
 62
     0
100
AcDbPoint
 10
1156.899066898677
 20
1229.338037132689
 30
0.0
  0
POINT
  5
6A2B
330
4E80
100
AcDbEntity
  8
Defpoints
 62
     0
100
AcDbPoint
 10
1150.399066898677
 20
1229.83803713269
 30
0.0
  0
POINT
  5
6A2C
330
4E80
100
AcDbEntity
  8
Defpoints
 62
     0
100
AcDbPoint
 10
1150.399066898677
 20
1187.80793953016
 30
0.0
  0
ENDBLK
  5
4E82
330
4E80
100
AcDbEntity
  8
0
100
AcDbBlockEnd
  0
BLOCK
  5
4EFE
330
4EFD
100
AcDbEntity
  8
0
100
AcDbBlockBegin
  2
*D16
 70
     1
 10
0.0
 20
0.0
 30
0.0
  3
*D16
  1

  0
LINE
  5
644D
330
4EFD
100
AcDbEntity
  8
AM_5 寸法線
 62
     3
100
AcDbLine
 10
1060.899066898677
 20
884.7130371326896
 30
0.0
 11
1060.899066898677
 21
808.7130371326896
 31
0.0
  0
LINE
  5
644E
330
4EFD
100
AcDbEntity
  8
AM_5 寸法線
 62
     3
100
AcDbLine
 10
1039.899066898677
 20
884.7130371326896
 30
0.0
 11
1039.899066898677
 21
808.7130371326896
 31
0.0
  0
LINE
  5
644F
330
4EFD
100
AcDbEntity
  8
AM_5 寸法線
 62
     3
100
AcDbLine
 10
1073.399066898677
 20
811.8380371326896
 30
0.0
 11
1085.899066898677
 21
811.8380371326896
 31
0.0
  0
LINE
  5
6450
330
4EFD
100
AcDbEntity
  8
AM_5 寸法線
 62
     3
100
AcDbLine
 10
1027.399066898677
 20
811.8380371326896
 30
0.0
 11
1014.899066898677
 21
811.8380371326896
 31
0.0
  0
MTEXT
  5
6451
330
4EFD
100
AcDbEntity
  8
AM_5 寸法線
 62
     3
100
AcDbMText
 10
1013.896679483631
 20
828.0347612719092
 30
0.0
 40
17.5
 41
0.0
 46
0.0
 71
     5
 72
     1
  1
21
  7
SEISA
 73
     1
 44
1.0
  0
LINE
  5
6452
330
4EFD
100
AcDbEntity
  8
AM_5 寸法線
 62
     3
100
AcDbLine
 10
1060.899066898677
 20
811.8380371326896
 30
0.0
 11
1039.899066898677
 21
811.8380371326896
 31
0.0
  0
INSERT
  5
6453
330
4EFD
100
AcDbEntity
  8
AM_5 寸法線
 62
     3
100
AcDbBlockReference
  2
GENDOT
 10
1060.899066898677
 20
811.8380371326896
 30
0.0
 41
12.5
 42
12.5
 43
12.5
 50
180.0
  0
INSERT
  5
6454
330
4EFD
100
AcDbEntity
  8
AM_5 寸法線
 62
     3
100
AcDbBlockReference
  2
_Open30
 10
1039.899066898677
 20
811.8380371326896
 30
0.0
 41
12.5
 42
12.5
 43
12.5
  0
POINT
  5
6455
330
4EFD
100
AcDbEntity
  8
Defpoints
 62
     0
100
AcDbPoint
 10
1060.899066898677
 20
887.8380371326896
 30
0.0
  0
POINT
  5
6456
330
4EFD
100
AcDbEntity
  8
Defpoints
 62
     0
100
AcDbPoint
 10
1039.899066898677
 20
887.8380371326896
 30
0.0
  0
POINT
  5
6457
330
4EFD
100
AcDbEntity
  8
Defpoints
 62
     0
100
AcDbPoint
 10
1039.899066898677
 20
811.8380371326896
 30
0.0
  0
ENDBLK
  5
4EFF
330
4EFD
100
AcDbEntity
  8
0
100
AcDbBlockEnd
  0
BLOCK
  5
4F1A
330
4F19
100
AcDbEntity
  8
0
100
AcDbBlockBegin
  2
*D17
 70
     1
 10
0.0
 20
0.0
 30
0.0
  3
*D17
  1

  0
LINE
  5
6458
330
4F19
100
AcDbEntity
  8
AM_5 寸法線
 62
     3
100
AcDbLine
 10
1060.899066898677
 20
884.7130371326896
 30
0.0
 11
1060.899066898677
 21
808.7130371326896
 31
0.0
  0
LINE
  5
6459
330
4F19
100
AcDbEntity
  8
AM_5 寸法線
 62
     3
100
AcDbLine
 10
1081.899066898677
 20
884.7130371326896
 30
0.0
 11
1081.899066898677
 21
808.7130371326896
 31
0.0
  0
LINE
  5
645A
330
4F19
100
AcDbEntity
  8
AM_5 寸法線
 62
     3
100
AcDbLine
 10
1048.399066898677
 20
811.8380371326896
 30
0.0
 11
1035.899066898677
 21
811.8380371326896
 31
0.0
  0
LINE
  5
645B
330
4F19
100
AcDbEntity
  8
AM_5 寸法線
 62
     3
100
AcDbLine
 10
1094.399066898677
 20
811.8380371326896
 30
0.0
 11
1106.899066898677
 21
811.8380371326896
 31
0.0
  0
MTEXT
  5
645C
330
4F19
100
AcDbEntity
  8
AM_5 寸法線
 62
     3
100
AcDbMText
 10
1101.593722320796
 20
827.881576437225
 30
0.0
 40
17.5
 41
0.0
 46
0.0
 71
     5
 72
     1
  1
21
  7
SEISA
 73
     1
 44
1.0
  0
LINE
  5
645D
330
4F19
100
AcDbEntity
  8
AM_5 寸法線
 62
     3
100
AcDbLine
 10
1060.899066898677
 20
811.8380371326896
 30
0.0
 11
1081.899066898677
 21
811.8380371326896
 31
0.0
  0
INSERT
  5
645E
330
4F19
100
AcDbEntity
  8
AM_5 寸法線
 62
     3
100
AcDbBlockReference
  2
GENDOT
 10
1060.899066898677
 20
811.8380371326896
 30
0.0
 41
12.5
 42
12.5
 43
12.5
  0
INSERT
  5
645F
330
4F19
100
AcDbEntity
  8
AM_5 寸法線
 62
     3
100
AcDbBlockReference
  2
_Open30
 10
1081.899066898677
 20
811.8380371326896
 30
0.0
 41
12.5
 42
12.5
 43
12.5
 50
180.0
  0
POINT
  5
6460
330
4F19
100
AcDbEntity
  8
Defpoints
 62
     0
100
AcDbPoint
 10
1060.899066898677
 20
887.8380371326896
 30
0.0
  0
POINT
  5
6461
330
4F19
100
AcDbEntity
  8
Defpoints
 62
     0
100
AcDbPoint
 10
1081.899066898677
 20
887.8380371326896
 30
0.0
  0
POINT
  5
6462
330
4F19
100
AcDbEntity
  8
Defpoints
 62
     0
100
AcDbPoint
 10
1081.899066898677
 20
811.8380371326896
 30
0.0
  0
ENDBLK
  5
4F1B
330
4F19
100
AcDbEntity
  8
0
100
AcDbBlockEnd
  0
BLOCK
  5
503F
330
503E
100
AcDbEntity
  8
0
100
AcDbBlockBegin
  2
*D18
 70
     1
 10
0.0
 20
0.0
 30
0.0
  3
*D18
  1

  0
LINE
  5
6476
330
503E
100
AcDbEntity
  8
AM_5 寸法線
 62
     3
100
AcDbLine
 10
1060.899066898677
 20
884.7130371326896
 30
0.0
 11
1060.899066898677
 21
758.7130371326894
 31
0.0
  0
LINE
  5
6477
330
503E
100
AcDbEntity
  8
AM_5 寸法線
 62
     3
100
AcDbLine
 10
851.899066898677
 20
925.2130371326897
 30
0.0
 11
851.899066898677
 21
758.7130371326894
 31
0.0
  0
LINE
  5
6478
330
503E
100
AcDbEntity
  8
AM_5 寸法線
 62
     3
100
AcDbLine
 10
1048.399066898677
 20
761.8380371326894
 30
0.0
 11
864.3990668986772
 21
761.8380371326894
 31
0.0
  0
INSERT
  5
6479
330
503E
100
AcDbEntity
  8
AM_5 寸法線
 62
     3
100
AcDbBlockReference
  2
_Open30
 10
1060.899066898677
 20
761.8380371326894
 30
0.0
 41
12.5
 42
12.5
 43
12.5
  0
INSERT
  5
647A
330
503E
100
AcDbEntity
  8
AM_5 寸法線
 62
     3
100
AcDbBlockReference
  2
_Open30
 10
851.899066898677
 20
761.8380371326894
 30
0.0
 41
12.5
 42
12.5
 43
12.5
 50
180.0
  0
MTEXT
  5
647B
330
503E
100
AcDbEntity
  8
AM_5 寸法線
 62
     3
100
AcDbMText
 10
956.3990668986772
 20
778.0880371326897
 30
0.0
 40
17.5
 41
0.0
 46
0.0
 71
     5
 72
     1
  1
209
  7
SEISA
 73
     1
 44
1.0
  0
POINT
  5
647C
330
503E
100
AcDbEntity
  8
Defpoints
 62
     0
100
AcDbPoint
 10
1060.899066898677
 20
887.8380371326896
 30
0.0
  0
POINT
  5
647D
330
503E
100
AcDbEntity
  8
Defpoints
 62
     0
100
AcDbPoint
 10
851.899066898677
 20
928.3380371326897
 30
0.0
  0
POINT
  5
647E
330
503E
100
AcDbEntity
  8
Defpoints
 62
     0
100
AcDbPoint
 10
851.899066898677
 20
761.8380371326894
 30
0.0
  0
ENDBLK
  5
5040
330
503E
100
AcDbEntity
  8
0
100
AcDbBlockEnd
  0
BLOCK
  5
5057
330
5056
100
AcDbEntity
  8
0
100
AcDbBlockBegin
  2
*D19
 70
     1
 10
0.0
 20
0.0
 30
0.0
  3
*D19
  1

  0
LINE
  5
647F
330
5056
100
AcDbEntity
  8
AM_5 寸法線
 62
     3
100
AcDbLine
 10
1060.899066898677
 20
884.7130371326896
 30
0.0
 11
1060.899066898677
 21
758.7130371326894
 31
0.0
  0
LINE
  5
6480
330
5056
100
AcDbEntity
  8
AM_5 寸法線
 62
     3
100
AcDbLine
 10
1174.899066898677
 20
923.2130371326897
 30
0.0
 11
1174.899066898677
 21
758.7130371326894
 31
0.0
  0
LINE
  5
6481
330
5056
100
AcDbEntity
  8
AM_5 寸法線
 62
     3
100
AcDbLine
 10
1073.399066898677
 20
761.8380371326894
 30
0.0
 11
1162.399066898677
 21
761.8380371326894
 31
0.0
  0
INSERT
  5
6482
330
5056
100
AcDbEntity
  8
AM_5 寸法線
 62
     3
100
AcDbBlockReference
  2
_Open30
 10
1060.899066898677
 20
761.8380371326894
 30
0.0
 41
12.5
 42
12.5
 43
12.5
 50
180.0
  0
INSERT
  5
6483
330
5056
100
AcDbEntity
  8
AM_5 寸法線
 62
     3
100
AcDbBlockReference
  2
_Open30
 10
1174.899066898677
 20
761.8380371326894
 30
0.0
 41
12.5
 42
12.5
 43
12.5
  0
MTEXT
  5
6484
330
5056
100
AcDbEntity
  8
AM_5 寸法線
 62
     3
100
AcDbMText
 10
1117.899066898677
 20
778.0880371326897
 30
0.0
 40
17.5
 41
0.0
 46
0.0
 71
     5
 72
     1
  1
114
  7
SEISA
 73
     1
 44
1.0
  0
POINT
  5
6485
330
5056
100
AcDbEntity
  8
Defpoints
 62
     0
100
AcDbPoint
 10
1060.899066898677
 20
887.8380371326896
 30
0.0
  0
POINT
  5
6486
330
5056
100
AcDbEntity
  8
Defpoints
 62
     0
100
AcDbPoint
 10
1174.899066898677
 20
926.3380371326897
 30
0.0
  0
POINT
  5
6487
330
5056
100
AcDbEntity
  8
Defpoints
 62
     0
100
AcDbPoint
 10
1174.899066898677
 20
761.8380371326894
 30
0.0
  0
ENDBLK
  5
5058
330
5056
100
AcDbEntity
  8
0
100
AcDbBlockEnd
  0
BLOCK
  5
506F
330
506E
100
AcDbEntity
  8
0
100
AcDbBlockBegin
  2
*D20
 70
     1
 10
0.0
 20
0.0
 30
0.0
  3
*D20
  1

  0
LINE
  5
6488
330
506E
100
AcDbEntity
  8
AM_5 寸法線
 62
     3
100
AcDbLine
 10
1174.899066898677
 20
923.2130371326897
 30
0.0
 11
1174.899066898677
 21
758.7130371326894
 31
0.0
  0
LINE
  5
6489
330
506E
100
AcDbEntity
  8
AM_5 寸法線
 62
     3
100
AcDbLine
 10
1269.899056525531
 20
946.0130471901241
 30
0.0
 11
1269.899056525531
 21
758.7130371326894
 31
0.0
  0
LINE
  5
648A
330
506E
100
AcDbEntity
  8
AM_5 寸法線
 62
     3
100
AcDbLine
 10
1187.399066898677
 20
761.8380371326894
 30
0.0
 11
1257.399056525531
 21
761.8380371326894
 31
0.0
  0
INSERT
  5
648B
330
506E
100
AcDbEntity
  8
AM_5 寸法線
 62
     3
100
AcDbBlockReference
  2
_Open30
 10
1174.899066898677
 20
761.8380371326894
 30
0.0
 41
12.5
 42
12.5
 43
12.5
 50
180.0
  0
INSERT
  5
648C
330
506E
100
AcDbEntity
  8
AM_5 寸法線
 62
     3
100
AcDbBlockReference
  2
_Open30
 10
1269.899056525531
 20
761.8380371326894
 30
0.0
 41
12.5
 42
12.5
 43
12.5
  0
MTEXT
  5
648D
330
506E
100
AcDbEntity
  8
AM_5 寸法線
 62
     3
100
AcDbMText
 10
1222.399061712104
 20
778.0880371326897
 30
0.0
 40
17.5
 41
0.0
 46
0.0
 71
     5
 72
     1
  1
95
  7
SEISA
 73
     1
 44
1.0
  0
POINT
  5
648E
330
506E
100
AcDbEntity
  8
Defpoints
 62
     0
100
AcDbPoint
 10
1174.899066898677
 20
926.3380371326897
 30
0.0
  0
POINT
  5
648F
330
506E
100
AcDbEntity
  8
Defpoints
 62
     0
100
AcDbPoint
 10
1269.899056525531
 20
949.1380471901241
 30
0.0
  0
POINT
  5
6490
330
506E
100
AcDbEntity
  8
Defpoints
 62
     0
100
AcDbPoint
 10
1269.899056525531
 20
761.8380371326894
 30
0.0
  0
ENDBLK
  5
5070
330
506E
100
AcDbEntity
  8
0
100
AcDbBlockEnd
  0
BLOCK
  5
5087
330
5086
100
AcDbEntity
  8
0
100
AcDbBlockBegin
  2
*D21
 70
     1
 10
0.0
 20
0.0
 30
0.0
  3
*D21
  1

  0
LINE
  5
6491
330
5086
100
AcDbEntity
  8
AM_5 寸法線
 62
     3
100
AcDbLine
 10
851.899066898677
 20
925.2130371326897
 30
0.0
 11
851.899066898677
 21
708.7130371326894
 31
0.0
  0
LINE
  5
6492
330
5086
100
AcDbEntity
  8
AM_5 寸法線
 62
     3
100
AcDbLine
 10
1269.899056525531
 20
946.0130471901241
 30
0.0
 11
1269.899056525531
 21
708.7130371326894
 31
0.0
  0
LINE
  5
6493
330
5086
100
AcDbEntity
  8
AM_5 寸法線
 62
     3
100
AcDbLine
 10
864.3990668986772
 20
711.8380371326894
 30
0.0
 11
1257.399056525531
 21
711.8380371326894
 31
0.0
  0
INSERT
  5
6494
330
5086
100
AcDbEntity
  8
AM_5 寸法線
 62
     3
100
AcDbBlockReference
  2
_Open30
 10
851.899066898677
 20
711.8380371326894
 30
0.0
 41
12.5
 42
12.5
 43
12.5
 50
180.0
  0
INSERT
  5
6495
330
5086
100
AcDbEntity
  8
AM_5 寸法線
 62
     3
100
AcDbBlockReference
  2
_Open30
 10
1269.899056525531
 20
711.8380371326894
 30
0.0
 41
12.5
 42
12.5
 43
12.5
  0
MTEXT
  5
6496
330
5086
100
AcDbEntity
  8
AM_5 寸法線
 62
     3
100
AcDbMText
 10
1060.899061712104
 20
728.0880371326897
 30
0.0
 40
17.5
 41
0.0
 46
0.0
 71
     5
 72
     1
  1
418
  7
SEISA
 73
     1
 44
1.0
  0
POINT
  5
6497
330
5086
100
AcDbEntity
  8
Defpoints
 62
     0
100
AcDbPoint
 10
851.899066898677
 20
928.3380371326897
 30
0.0
  0
POINT
  5
6498
330
5086
100
AcDbEntity
  8
Defpoints
 62
     0
100
AcDbPoint
 10
1269.899056525531
 20
949.1380471901241
 30
0.0
  0
POINT
  5
6499
330
5086
100
AcDbEntity
  8
Defpoints
 62
     0
100
AcDbPoint
 10
1269.899056525531
 20
711.8380371326894
 30
0.0
  0
ENDBLK
  5
5088
330
5086
100
AcDbEntity
  8
0
100
AcDbBlockEnd
  0
BLOCK
  5
5122
330
5121
100
AcDbEntity
  8
0
100
AcDbBlockBegin
  2
*D22
 70
     1
 10
0.0
 20
0.0
 30
0.0
  3
*D22
  1

  0
LINE
  5
649A
330
5121
100
AcDbEntity
  8
AM_5 寸法線
 62
     3
100
AcDbLine
 10
1208.524066898677
 20
1229.338037132689
 30
0.0
 11
1373.024066898677
 21
1229.338037132689
 31
0.0
  0
LINE
  5
649B
330
5121
100
AcDbEntity
  8
AM_5 寸法線
 62
     3
100
AcDbLine
 10
1208.524057927768
 20
944.3380427303846
 30
0.0
 11
1373.024066898677
 21
944.3380427303843
 31
0.0
  0
LINE
  5
649C
330
5121
100
AcDbEntity
  8
AM_5 寸法線
 62
     3
100
AcDbLine
 10
1369.899066898677
 20
1216.838037132689
 30
0.0
 11
1369.899066898677
 21
956.8380427303843
 31
0.0
  0
INSERT
  5
649D
330
5121
100
AcDbEntity
  8
AM_5 寸法線
 62
     3
100
AcDbBlockReference
  2
_Open30
 10
1369.899066898677
 20
1229.338037132689
 30
0.0
 41
12.5
 42
12.5
 43
12.5
 50
90.0
  0
INSERT
  5
649E
330
5121
100
AcDbEntity
  8
AM_5 寸法線
 62
     3
100
AcDbBlockReference
  2
_Open30
 10
1369.899066898677
 20
944.3380427303843
 30
0.0
 41
12.5
 42
12.5
 43
12.5
 50
270.0
  0
MTEXT
  5
649F
330
5121
100
AcDbEntity
  8
AM_5 寸法線
 62
     3
100
AcDbMText
 10
1353.649066898676
 20
1086.838039931537
 30
0.0
 40
17.5
 41
0.0
 46
0.0
 71
     5
 72
     1
  1
%%c285
  7
SEISA
 11
0.0000000000000001
 21
1.0
 31
0.0
 73
     1
 44
1.0
  0
POINT
  5
64A0
330
5121
100
AcDbEntity
  8
Defpoints
 62
     0
100
AcDbPoint
 10
1205.399066898677
 20
1229.338037132689
 30
0.0
  0
POINT
  5
64A1
330
5121
100
AcDbEntity
  8
Defpoints
 62
     0
100
AcDbPoint
 10
1205.399057927768
 20
944.3380427303846
 30
0.0
  0
POINT
  5
64A2
330
5121
100
AcDbEntity
  8
Defpoints
 62
     0
100
AcDbPoint
 10
1369.899066898677
 20
944.3380427303843
 30
0.0
  0
ENDBLK
  5
5123
330
5121
100
AcDbEntity
  8
0
100
AcDbBlockEnd
  0
BLOCK
  5
513A
330
5139
100
AcDbEntity
  8
0
100
AcDbBlockBegin
  2
*D23
 70
     1
 10
0.0
 20
0.0
 30
0.0
  3
*D23
  1

  0
LINE
  5
64A3
330
5139
100
AcDbEntity
  8
AM_5 寸法線
 62
     3
100
AcDbLine
 10
1174.024066898677
 20
1251.338037132689
 30
0.0
 11
1423.024066898677
 21
1251.338037132689
 31
0.0
  0
LINE
  5
64A4
330
5139
100
AcDbEntity
  8
AM_5 寸法線
 62
     3
100
AcDbLine
 10
1174.024066898677
 20
922.3380371326896
 30
0.0
 11
1423.024066898677
 21
922.3380371326893
 31
0.0
  0
LINE
  5
64A5
330
5139
100
AcDbEntity
  8
AM_5 寸法線
 62
     3
100
AcDbLine
 10
1419.899066898677
 20
1238.838037132689
 30
0.0
 11
1419.899066898677
 21
934.8380371326893
 31
0.0
  0
INSERT
  5
64A6
330
5139
100
AcDbEntity
  8
AM_5 寸法線
 62
     3
100
AcDbBlockReference
  2
_Open30
 10
1419.899066898677
 20
1251.338037132689
 30
0.0
 41
12.5
 42
12.5
 43
12.5
 50
90.0
  0
INSERT
  5
64A7
330
5139
100
AcDbEntity
  8
AM_5 寸法線
 62
     3
100
AcDbBlockReference
  2
_Open30
 10
1419.899066898677
 20
922.3380371326893
 30
0.0
 41
12.5
 42
12.5
 43
12.5
 50
270.0
  0
MTEXT
  5
64A8
330
5139
100
AcDbEntity
  8
AM_5 寸法線
 62
     3
100
AcDbMText
 10
1403.649066898677
 20
1086.83803713269
 30
0.0
 40
17.5
 41
0.0
 46
0.0
 71
     5
 72
     1
  1
%%c329
  7
SEISA
 11
0.0000000000000001
 21
1.0
 31
0.0
 73
     1
 44
1.0
  0
POINT
  5
64A9
330
5139
100
AcDbEntity
  8
Defpoints
 62
     0
100
AcDbPoint
 10
1170.899066898677
 20
1251.338037132689
 30
0.0
  0
POINT
  5
64AA
330
5139
100
AcDbEntity
  8
Defpoints
 62
     0
100
AcDbPoint
 10
1170.899066898677
 20
922.3380371326896
 30
0.0
  0
POINT
  5
64AB
330
5139
100
AcDbEntity
  8
Defpoints
 62
     0
100
AcDbPoint
 10
1419.899066898677
 20
922.3380371326893
 30
0.0
  0
ENDBLK
  5
513B
330
5139
100
AcDbEntity
  8
0
100
AcDbBlockEnd
  0
BLOCK
  5
5152
330
5151
100
AcDbEntity
  8
0
100
AcDbBlockBegin
  2
*D24
 70
     1
 10
0.0
 20
0.0
 30
0.0
  3
*D24
  1

  0
LINE
  5
64AC
330
5151
100
AcDbEntity
  8
AM_5 寸法線
 62
     3
100
AcDbLine
 10
1084.024066898677
 20
1286.838037132689
 30
0.0
 11
1473.024066898677
 21
1286.838037132689
 31
0.0
  0
LINE
  5
64AD
330
5151
100
AcDbEntity
  8
AM_5 寸法線
 62
     3
100
AcDbLine
 10
1084.024066898677
 20
886.8380371326896
 30
0.0
 11
1473.024066898677
 21
886.8380371326892
 31
0.0
  0
LINE
  5
64AE
330
5151
100
AcDbEntity
  8
AM_5 寸法線
 62
     3
100
AcDbLine
 10
1469.899066898677
 20
1274.33803713269
 30
0.0
 11
1469.899066898677
 21
899.3380371326892
 31
0.0
  0
INSERT
  5
64AF
330
5151
100
AcDbEntity
  8
AM_5 寸法線
 62
     3
100
AcDbBlockReference
  2
_Open30
 10
1469.899066898677
 20
1286.838037132689
 30
0.0
 41
12.5
 42
12.5
 43
12.5
 50
90.0
  0
INSERT
  5
64B0
330
5151
100
AcDbEntity
  8
AM_5 寸法線
 62
     3
100
AcDbBlockReference
  2
_Open30
 10
1469.899066898677
 20
886.8380371326892
 30
0.0
 41
12.5
 42
12.5
 43
12.5
 50
270.0
  0
MTEXT
  5
64B1
330
5151
100
AcDbEntity
  8
AM_5 寸法線
 62
     3
100
AcDbMText
 10
1453.649066898677
 20
1086.83803713269
 30
0.0
 40
17.5
 41
0.0
 46
0.0
 71
     5
 72
     1
  1
%%c400
  7
SEISA
 11
0.0000000000000001
 21
1.0
 31
0.0
 73
     1
 44
1.0
  0
POINT
  5
64B2
330
5151
100
AcDbEntity
  8
Defpoints
 62
     0
100
AcDbPoint
 10
1080.899066898677
 20
1286.838037132689
 30
0.0
  0
POINT
  5
64B3
330
5151
100
AcDbEntity
  8
Defpoints
 62
     0
100
AcDbPoint
 10
1080.899066898677
 20
886.8380371326896
 30
0.0
  0
POINT
  5
64B4
330
5151
100
AcDbEntity
  8
Defpoints
 62
     0
100
AcDbPoint
 10
1469.899066898677
 20
886.8380371326892
 30
0.0
  0
ENDBLK
  5
5153
330
5151
100
AcDbEntity
  8
0
100
AcDbBlockEnd
  0
BLOCK
  5
5EBB
330
5EB8
100
AcDbEntity
  8
0
100
AcDbBlockBegin
  2
GENDOT
 70
     0
 10
0.0
 20
0.0
 30
0.0
  3
GENDOT
  1

  0
LINE
  5
5EB9
330
5EB8
100
AcDbEntity
  8
0
100
AcDbLine
 10
0.0
 20
0.0
 30
0.0
 11
-1.0
 21
0.0
 31
0.0
  0
LWPOLYLINE
  5
5EBA
330
5EB8
100
AcDbEntity
  8
0
100
AcDbPolyline
 90
        2
 70
     1
 43
0.25
 10
-0.125
 20
0.0
 42
1.0
 10
0.125
 20
0.0
 42
1.0
  0
ENDBLK
  5
5EBC
330
5EB8
100
AcDbEntity
  8
0
100
AcDbBlockEnd
  0
BLOCK
  5
6980
330
697F
100
AcDbEntity
  8
0
100
AcDbBlockBegin
  2
*D26
 70
     1
 10
0.0
 20
0.0
 30
0.0
  3
*D26
  1

  0
LINE
  5
69A2
330
697F
100
AcDbEntity
  8
AM_5 寸法線
 62
     3
100
AcDbLine
 10
1269.899066898677
 20
1227.663037132689
 30
0.0
 11
1269.899066898677
 21
1302.663037132689
 31
0.0
  0
LINE
  5
69A3
330
697F
100
AcDbEntity
  8
AM_5 寸法線
 62
     3
100
AcDbLine
 10
1269.899066898677
 20
1227.663037132689
 30
0.0
 11
1269.899066898677
 21
1302.663037132689
 31
0.0
  0
LINE
  5
69A4
330
697F
100
AcDbEntity
  8
AM_5 寸法線
 62
     3
100
AcDbLine
 10
1257.399066898677
 20
1299.53803713269
 30
0.0
 11
1244.899066898677
 21
1299.53803713269
 31
0.0
  0
LINE
  5
69A5
330
697F
100
AcDbEntity
  8
AM_5 寸法線
 62
     3
100
AcDbLine
 10
1282.399066898677
 20
1299.53803713269
 30
0.0
 11
1320.399066898677
 21
1299.53803713269
 31
0.0
  0
INSERT
  5
69A6
330
697F
100
AcDbEntity
  8
AM_5 寸法線
 62
     3
100
AcDbBlockReference
  2
_Open30
 10
1269.899066898677
 20
1299.53803713269
 30
0.0
 41
12.5
 42
12.5
 43
12.5
  0
INSERT
  5
69A7
330
697F
100
AcDbEntity
  8
AM_5 寸法線
 62
     3
100
AcDbBlockReference
  2
_Open30
 10
1269.899066898677
 20
1299.53803713269
 30
0.0
 41
12.5
 42
12.5
 43
12.5
 50
180.0
  0
MTEXT
  5
69A8
330
697F
100
AcDbEntity
  8
AM_5 寸法線
 62
     3
100
AcDbMText
 10
1307.649066898677
 20
1315.788037132689
 30
0.0
 40
17.5
 41
0.0
 46
0.0
 71
     5
 72
     1
  1
0
  7
SEISA
 73
     1
 44
1.0
  0
POINT
  5
69A9
330
697F
100
AcDbEntity
  8
Defpoints
 62
     0
100
AcDbPoint
 10
1269.899066898677
 20
1224.538037132689
 30
0.0
  0
POINT
  5
69AA
330
697F
100
AcDbEntity
  8
Defpoints
 62
     0
100
AcDbPoint
 10
1269.899066898677
 20
1224.538037132689
 30
0.0
  0
POINT
  5
69AB
330
697F
100
AcDbEntity
  8
Defpoints
 62
     0
100
AcDbPoint
 10
1269.899066898677
 20
1299.53803713269
 30
0.0
  0
ENDBLK
  5
6981
330
697F
100
AcDbEntity
  8
0
100
AcDbBlockEnd
  0
BLOCK
  5
69AE
330
69AD
100
AcDbEntity
  8
0
100
AcDbBlockBegin
  2
*D27
 70
     1
 10
0.0
 20
0.0
 30
0.0
  3
*D27
  1

  0
LINE
  5
69E9
330
69AD
100
AcDbEntity
  8
AM_5 寸法線
 62
     3
100
AcDbLine
 10
1069.899066898677
 20
1224.713037132689
 30
0.0
 11
1069.899066898677
 21
1184.682939530161
 31
0.0
  0
LINE
  5
69EA
330
69AD
100
AcDbEntity
  8
AM_5 寸法線
 62
     3
100
AcDbLine
 10
1104.899066898677
 20
1226.213037132689
 30
0.0
 11
1104.899066898677
 21
1184.682939530161
 31
0.0
  0
LINE
  5
69EB
330
69AD
100
AcDbEntity
  8
AM_5 寸法線
 62
     3
100
AcDbLine
 10
1057.399066898677
 20
1187.807939530161
 30
0.0
 11
1044.899066898677
 21
1187.807939530161
 31
0.0
  0
LINE
  5
69EC
330
69AD
100
AcDbEntity
  8
AM_5 寸法線
 62
     3
100
AcDbLine
 10
1117.399066898677
 20
1187.807939530161
 30
0.0
 11
1129.899066898677
 21
1187.807939530161
 31
0.0
  0
MTEXT
  5
69ED
330
69AD
100
AcDbEntity
  8
AM_5 寸法線
 62
     3
100
AcDbMText
 10
1088.110472672491
 20
1202.119445217952
 30
0.0
 40
17.5
 41
0.0
 46
0.0
 71
     5
 72
     1
  1
35
  7
SEISA
 73
     1
 44
1.0
  0
LINE
  5
69EE
330
69AD
100
AcDbEntity
  8
AM_5 寸法線
 62
     3
100
AcDbLine
 10
1069.899066898677
 20
1187.807939530161
 30
0.0
 11
1104.899066898677
 21
1187.807939530161
 31
0.0
  0
INSERT
  5
69EF
330
69AD
100
AcDbEntity
  8
AM_5 寸法線
 62
     3
100
AcDbBlockReference
  2
_Open30
 10
1069.899066898677
 20
1187.807939530161
 30
0.0
 41
12.5
 42
12.5
 43
12.5
  0
INSERT
  5
69F0
330
69AD
100
AcDbEntity
  8
AM_5 寸法線
 62
     3
100
AcDbBlockReference
  2
_Open30
 10
1104.899066898677
 20
1187.807939530161
 30
0.0
 41
12.5
 42
12.5
 43
12.5
 50
180.0
  0
POINT
  5
69F1
330
69AD
100
AcDbEntity
  8
Defpoints
 62
     0
100
AcDbPoint
 10
1069.899066898677
 20
1227.83803713269
 30
0.0
  0
POINT
  5
69F2
330
69AD
100
AcDbEntity
  8
Defpoints
 62
     0
100
AcDbPoint
 10
1104.899066898677
 20
1229.338037132689
 30
0.0
  0
POINT
  5
69F3
330
69AD
100
AcDbEntity
  8
Defpoints
 62
     0
100
AcDbPoint
 10
1104.899066898677
 20
1187.807939530161
 30
0.0
  0
ENDBLK
  5
69AF
330
69AD
100
AcDbEntity
  8
0
100
AcDbBlockEnd
  0
BLOCK
  5
69F6
330
69F5
100
AcDbEntity
  8
0
100
AcDbBlockBegin
  2
*D28
 70
     1
 10
0.0
 20
0.0
 30
0.0
  3
*D28
  1

  0
LINE
  5
6A4B
330
69F5
100
AcDbEntity
  8
AM_5 寸法線
 62
     3
100
AcDbLine
 10
1104.899066898677
 20
1226.213037132689
 30
0.0
 11
1104.899066898677
 21
1184.68293953016
 31
0.0
  0
LINE
  5
6A4C
330
69F5
100
AcDbEntity
  8
AM_5 寸法線
 62
     3
100
AcDbLine
 10
1150.399066898677
 20
1226.713037132689
 30
0.0
 11
1150.399066898677
 21
1184.68293953016
 31
0.0
  0
LINE
  5
6A4D
330
69F5
100
AcDbEntity
  8
AM_5 寸法線
 62
     3
100
AcDbLine
 10
1117.399066898677
 20
1187.80793953016
 30
0.0
 11
1137.899066898677
 21
1187.80793953016
 31
0.0
  0
LINE
  5
6A4E
330
69F5
100
AcDbEntity
  8
AM_5 寸法線
 62
     3
100
AcDbLine
 10
1127.649066898677
 20
1187.80793953016
 30
0.0
 11
1121.900796426603
 21
1139.345794687359
 31
0.0
  0
LINE
  5
6A4F
330
69F5
100
AcDbEntity
  8
AM_5 寸法線
 62
     3
100
AcDbLine
 10
1121.900796426603
 20
1139.345794687359
 30
0.0
 11
1184.900796426603
 21
1139.345794687359
 31
0.0
  0
MTEXT
  5
6A50
330
69F5
100
AcDbEntity
  8
AM_5 寸法線
 62
     3
100
AcDbMText
 10
1153.400796426603
 20
1155.595794687359
 30
0.0
 40
17.5
 41
0.0
 46
0.0
 71
     5
 72
     1
  1
45.5
  7
SEISA
 73
     1
 44
1.0
  0
INSERT
  5
6A51
330
69F5
100
AcDbEntity
  8
AM_5 寸法線
 62
     3
100
AcDbBlockReference
  2
_Open30
 10
1104.899066898677
 20
1187.80793953016
 30
0.0
 41
12.5
 42
12.5
 43
12.5
 50
180.0
  0
INSERT
  5
6A52
330
69F5
100
AcDbEntity
  8
AM_5 寸法線
 62
     3
100
AcDbBlockReference
  2
_Open30
 10
1150.399066898677
 20
1187.80793953016
 30
0.0
 41
12.5
 42
12.5
 43
12.5
  0
POINT
  5
6A53
330
69F5
100
AcDbEntity
  8
Defpoints
 62
     0
100
AcDbPoint
 10
1104.899066898677
 20
1229.338037132689
 30
0.0
  0
POINT
  5
6A54
330
69F5
100
AcDbEntity
  8
Defpoints
 62
     0
100
AcDbPoint
 10
1150.399066898677
 20
1229.83803713269
 30
0.0
  0
POINT
  5
6A55
330
69F5
100
AcDbEntity
  8
Defpoints
 62
     0
100
AcDbPoint
 10
1150.399066898677
 20
1187.80793953016
 30
0.0
  0
ENDBLK
  5
69F7
330
69F5
100
AcDbEntity
  8
0
100
AcDbBlockEnd
  0
BLOCK
  5
6BAC
330
6BAB
100
AcDbEntity
  8
0
100
AcDbBlockBegin
  2
ケース
 70
     0
 10
0.0
 20
0.0
 30
0.0
  3
ケース
  1

  0
LINE
  5
6BAE
330
6BAB
100
AcDbEntity
  8
AM_11 想像線
 48
0.1
100
AcDbLine
 10
0.0
 20
-15.70000000000004
 30
0.0
 11
12.54512905629053
 21
-15.70000000000004
 31
0.0
  0
LINE
  5
6BAF
330
6BAB
100
AcDbEntity
  8
AM_11 想像線
 48
0.1
100
AcDbLine
 10
0.0
 20
-12.5
 30
0.0
 11
15.54512905629053
 21
-12.5
 31
0.0
  0
LINE
  5
6BB0
330
6BAB
100
AcDbEntity
  8
AM_11 想像線
 48
0.1
100
AcDbLine
 10
0.0
 20
0.0
 30
0.0
 11
34.04512905629053
 21
0.0
 31
0.0
  0
LINE
  5
6BB1
330
6BAB
100
AcDbEntity
  8
AM_11 想像線
 48
0.1
100
AcDbLine
 10
0.0
 20
-8.5
 30
0.0
 11
13.54512905629053
 21
-8.5
 31
0.0
  0
ARC
  5
6BB2
330
6BAB
100
AcDbEntity
  8
AM_11 想像線
 48
0.1
100
AcDbCircle
 10
34.04512905629053
 20
-4.0
 30
0.0
 40
4.0
100
AcDbArc
 50
0.0
 51
90.0
  0
LINE
  5
6BB3
330
6BAB
100
AcDbEntity
  8
AM_11 想像線
 48
0.1
100
AcDbLine
 10
34.14512905629044
 20
-15.09999999999991
 30
0.0
 11
23.9451290562904
 21
-15.09999999999991
 31
0.0
  0
LINE
  5
6BB4
330
6BAB
100
AcDbEntity
  8
AM_11 想像線
 48
0.1
100
AcDbLine
 10
13.54512905629053
 20
-14.70000000000004
 30
0.0
 11
12.54512905629053
 21
-15.70000000000004
 31
0.0
  0
ARC
  5
6BB5
330
6BAB
100
AcDbEntity
  8
AM_11 想像線
 48
0.1
100
AcDbCircle
 10
14.54512905629053
 20
-8.5
 30
0.0
 40
1.0
100
AcDbArc
 50
90.0
 51
180.0
  0
LINE
  5
6BB6
330
6BAB
100
AcDbEntity
  8
AM_11 想像線
 48
0.1
100
AcDbLine
 10
19.04512905629053
 20
-7.5
 30
0.0
 11
14.54512905629053
 21
-7.5
 31
0.0
  0
ARC
  5
6BB7
330
6BAB
100
AcDbEntity
  8
AM_11 想像線
 48
0.1
100
AcDbCircle
 10
19.04512905629053
 20
-8.5
 30
0.0
 40
1.0
100
AcDbArc
 50
0.0
 51
90.0
  0
LINE
  5
6BB8
330
6BAB
100
AcDbEntity
  8
AM_11 想像線
 48
0.1
100
AcDbLine
 10
20.04512905629054
 20
-20.5
 30
0.0
 11
20.04512905629054
 21
-8.5
 31
0.0
  0
LINE
  5
6BB9
330
6BAB
100
AcDbEntity
  8
AM_11 想像線
 48
0.1
100
AcDbLine
 10
23.4451290562904
 20
-20.5
 30
0.0
 11
20.04512905629054
 21
-20.5
 31
0.0
  0
LINE
  5
6BBA
330
6BAB
100
AcDbEntity
  8
AM_11 想像線
 48
0.1
100
AcDbLine
 10
23.4451290562904
 20
-15.59999999999991
 30
0.0
 11
23.4451290562904
 21
-20.5
 31
0.0
  0
ARC
  5
6BBB
330
6BAB
100
AcDbEntity
  8
AM_11 想像線
 48
0.1
100
AcDbCircle
 10
23.9451290562904
 20
-15.59999999999991
 30
0.0
 40
0.5
100
AcDbArc
 50
90.0
 51
180.0
  0
LINE
  5
6BBC
330
6BAB
100
AcDbEntity
  8
AM_11 想像線
 48
0.1
100
AcDbLine
 10
23.4451290562904
 20
-20.5
 30
0.0
 11
23.4451290562904
 21
-22.0
 31
0.0
  0
LINE
  5
6BBD
330
6BAB
100
AcDbEntity
  8
AM_11 想像線
 48
0.1
100
AcDbLine
 10
20.04512905629054
 20
-20.5
 30
0.0
 11
20.04512905629054
 21
-22.0
 31
0.0
  0
LINE
  5
6BBE
330
6BAB
100
AcDbEntity
  8
AM_11 想像線
 48
0.1
100
AcDbLine
 10
13.54512905629053
 20
-11.6282799999999
 30
0.0
 11
13.54512905629053
 21
-8.5
 31
0.0
  0
ARC
  5
6BBF
330
6BAB
100
AcDbEntity
  8
AM_11 想像線
 48
0.1
100
AcDbCircle
 10
34.14512905629044
 20
-15.59999999999991
 30
0.0
 40
0.5
100
AcDbArc
 50
0.0
 51
90.0
  0
LINE
  5
6BC0
330
6BAB
100
AcDbEntity
  8
AM_11 想像線
 48
0.1
100
AcDbLine
 10
34.64512905629045
 20
-20.5
 30
0.0
 11
34.64512905629045
 21
-15.59999999999991
 31
0.0
  0
LINE
  5
6BC1
330
6BAB
100
AcDbEntity
  8
AM_11 想像線
 48
0.1
100
AcDbLine
 10
38.04512905629053
 20
-20.5
 30
0.0
 11
34.64512905629045
 21
-20.5
 31
0.0
  0
LINE
  5
6BC2
330
6BAB
100
AcDbEntity
  8
AM_11 想像線
 48
0.1
100
AcDbLine
 10
38.04512905629053
 20
-4.0
 30
0.0
 11
38.04512905629053
 21
-20.5
 31
0.0
  0
LINE
  5
6BC3
330
6BAB
100
AcDbEntity
  8
AM_11 想像線
 48
0.1
100
AcDbLine
 10
38.04512905629053
 20
-20.5
 30
0.0
 11
38.04512905629053
 21
-22.0
 31
0.0
  0
LINE
  5
6BC4
330
6BAB
100
AcDbEntity
  8
AM_11 想像線
 48
0.1
100
AcDbLine
 10
34.64512905629045
 20
-20.5
 30
0.0
 11
34.64512905629045
 21
-22.0
 31
0.0
  0
LINE
  5
6BC5
330
6BAB
100
AcDbEntity
  8
AM_11 想像線
 48
0.1
100
AcDbLine
 10
13.54512905629053
 20
-11.6282799999999
 30
0.0
 11
13.54512905629053
 21
-14.70000000000004
 31
0.0
  0
ENDBLK
  5
6BAD
330
6BAB
100
AcDbEntity
  8
0
100
AcDbBlockEnd
  0
ENDSEC
  0
SECTION
  2
ENTITIES
  0
LINE
  5
3E86
330
1F
100
AcDbEntity
  8
AM_7 中心線
100
AcDbLine
 10
1060.899066898677
 20
1086.83803713269
 30
0.0
 11
1274.899066898677
 21
1086.83803713269
 31
0.0
  0
LINE
  5
3E87
330
1F
100
AcDbEntity
  8
AM_7 中心線
100
AcDbLine
 10
1060.899066898677
 20
1086.83803713269
 30
0.0
 11
846.8990668986773
 21
1086.83803713269
 31
0.0
  0
LINE
  5
3EB6
330
1F
100
AcDbEntity
  8
AM_3 隠れ線
100
AcDbLine
 10
1019.899066898677
 20
1094.83803713269
 30
0.0
 11
1019.321715898677
 21
1093.838037132689
 31
0.0
  0
INSERT
  5
46F4
102
{ACAD_REACTORS
330
4E9A
330
4F33
330
506C
330
5084
330
514F
330
5167
102
}
330
1F
100
AcDbEntity
  8
AM_0 外形線1
100
AcDbBlockReference
  2
ケースＡ SEM400
 10
1060.899066898677
 20
1086.83803713269
 30
0.0
  0
INSERT
  5
4820
102
{ACAD_REACTORS
330
4D7B
330
4DBF
330
4DDB
330
4F17
330
4F33
330
5054
330
506C
330
509C
102
}
330
1F
100
AcDbEntity
  8
AM_0 外形線1
100
AcDbBlockReference
  2
リジット SEM400
 10
1060.899066898677
 20
1086.83803713269
 30
0.0
  0
INSERT
  5
48FF
102
{ACAD_REACTORS
330
4DDB
330
4DF3
330
4E9A
330
5084
330
509C
330
5137
330
698D
330
69BC
330
6A03
102
}
330
1F
100
AcDbEntity
  8
AM_0 外形線1
100
AcDbBlockReference
  2
センタ SEM400
 10
1069.899066898677
 20
1086.83803713269
 30
0.0
  0
INSERT
  5
4B0D
330
1F
100
AcDbEntity
  8
AM_0 外形線1
100
AcDbBlockReference
  2
リーマボルト SEM400 M16
 10
1039.899066898677
 20
1270.838037132689
 30
0.0
  0
DIMENSION
  5
4D64
102
{ACAD_XDICTIONARY
360
4D71
102
}
102
{ACAD_REACTORS
330
4D7B
102
}
330
1F
100
AcDbEntity
  8
AM_5 寸法線
100
AcDbDimension
  2
*D11
 10
751.8990668986771
 20
924.3380371326896
 30
0.0
 11
735.6490668986769
 21
1086.83803713269
 31
0.0
 70
    32
  1
%%c<>
 71
     5
 42
325.0
 73
     0
 74
     0
 75
     0
  3
SEISA$0
100
AcDbAlignedDimension
 13
855.8990668986771
 23
1249.338037132689
 33
0.0
 14
855.8990668986771
 24
924.3380371326896
 34
0.0
 50
90.0
100
AcDbRotatedDimension
1001
ACAD_DSTYLE_DIMINSPECT
1070
   396
1000
100%
1070
   395
1000

1070
   394
1070
    33
1070
   393
1070
     0
  0
DIMENSION
  5
4DA8
102
{ACAD_XDICTIONARY
360
4DB5
102
}
102
{ACAD_REACTORS
330
4DBF
102
}
330
1F
100
AcDbEntity
  8
AM_5 寸法線
100
AcDbDimension
  2
*D12
 10
851.899066898677
 20
1127.95791859175
 30
0.0
 11
951.8990668986772
 21
1144.20791859175
 31
0.0
 70
    32
 71
     5
 42
200.0
 73
     0
 74
     0
 75
     0
  3
SEISA$0
100
AcDbAlignedDimension
 13
1051.899066898677
 23
1086.83803713269
 33
0.0
 14
851.899066898677
 24
1086.83803713269
 34
0.0
100
AcDbRotatedDimension
  0
DIMENSION
  5
4DC0
102
{ACAD_XDICTIONARY
360
4DCF
102
}
102
{ACAD_REACTORS
330
4DDB
102
}
330
1F
100
AcDbEntity
  8
AM_5 寸法線
100
AcDbDimension
  2
*D13
 10
1051.899066898677
 20
1127.95791859175
 30
0.0
 11
1088.910068770419
 21
1143.942296370904
 31
0.0
 70
   160
 71
     5
 42
18.0
 73
     0
 74
     0
 75
     0
  3
SEISA$0
100
AcDbAlignedDimension
 13
1069.899066898677
 23
1086.83803713269
 33
0.0
 14
1051.899066898677
 24
1086.83803713269
 34
0.0
100
AcDbRotatedDimension
1001
ACAD
1000
DSTYLE
1002
{
1070
   279
1070
     2
1002
}
  0
DIMENSION
  5
4DDC
102
{ACAD_XDICTIONARY
360
4DE9
102
}
102
{ACAD_REACTORS
330
4DF3
102
}
330
1F
100
AcDbEntity
  8
AM_5 寸法線
100
AcDbDimension
  2
*D14
 10
1269.899066898677
 20
1127.95791859175
 30
0.0
 11
1237.974419994957
 21
1147.361270784417
 31
0.0
 70
   160
 71
     5
 42
199.9999999999998
 73
     0
 74
     0
 75
     0
  3
SEISA$0
100
AcDbAlignedDimension
 13
1069.899066898677
 23
1086.83803713269
 33
0.0
 14
1269.899066898677
 24
1086.83803713269
 34
0.0
100
AcDbRotatedDimension
1001
ACAD
1000
DSTYLE
1002
{
1070
   279
1070
     2
1002
}
  0
DIMENSION
  5
4E7F
102
{ACAD_XDICTIONARY
360
4E8E
102
}
102
{ACAD_REACTORS
330
4E9A
102
}
330
1F
100
AcDbEntity
  8
AM_5 寸法線
100
AcDbDimension
  2
*D15
 10
1150.399066898677
 20
1187.80793953016
 30
0.0
 11
1205.524066898677
 21
1187.80793953016
 31
0.0
 70
   160
 71
     5
 42
6.5
 73
     0
 74
     0
 75
     0
  3
SEISA$0
100
AcDbAlignedDimension
 13
1156.899066898677
 23
1229.338037132689
 33
0.0
 14
1150.399066898677
 24
1229.83803713269
 34
0.0
100
AcDbRotatedDimension
  0
DIMENSION
  5
4EFC
102
{ACAD_XDICTIONARY
360
4F0B
102
}
102
{ACAD_REACTORS
330
4F17
102
}
330
1F
100
AcDbEntity
  8
AM_5 寸法線
100
AcDbDimension
  2
*D16
 10
1039.899066898677
 20
811.8380371326896
 30
0.0
 11
1013.896679483631
 21
828.0347612719092
 31
0.0
 70
   160
 71
     5
 42
21.0
 73
     0
 74
     0
 75
     0
  3
SEISA$0
100
AcDbAlignedDimension
 13
1060.899066898677
 23
887.8380371326896
 33
0.0
 14
1039.899066898677
 24
887.8380371326896
 34
0.0
100
AcDbRotatedDimension
1001
ACAD_DSTYLE_DIMINSPECT
1070
   396
1000
100%
1070
   395
1000

1070
   394
1070
    33
1070
   393
1070
     0
1001
ACAD
1000
DSTYLE
1002
{
1070
   173
1070
     1
1070
   279
1070
     2
1070
   342
1005
0
1070
   343
1005
5EB8
1070
   344
1005
69
1002
}
  0
DIMENSION
  5
4F18
102
{ACAD_XDICTIONARY
360
4F27
102
}
102
{ACAD_REACTORS
330
4F33
102
}
330
1F
100
AcDbEntity
  8
AM_5 寸法線
100
AcDbDimension
  2
*D17
 10
1081.899066898677
 20
811.8380371326896
 30
0.0
 11
1101.593722320796
 21
827.881576437225
 31
0.0
 70
   160
 71
     5
 42
21.0
 73
     0
 74
     0
 75
     0
  3
SEISA$0
100
AcDbAlignedDimension
 13
1060.899066898677
 23
887.8380371326896
 33
0.0
 14
1081.899066898677
 24
887.8380371326896
 34
0.0
100
AcDbRotatedDimension
1001
ACAD_DSTYLE_DIMINSPECT
1070
   396
1000
100%
1070
   395
1000

1070
   394
1070
    33
1070
   393
1070
     0
1001
ACAD
1000
DSTYLE
1002
{
1070
   173
1070
     1
1070
   279
1070
     2
1070
   342
1005
0
1070
   343
1005
5EB8
1070
   344
1005
69
1002
}
  0
DIMENSION
  5
503D
102
{ACAD_XDICTIONARY
360
504A
102
}
102
{ACAD_REACTORS
330
5054
102
}
330
1F
100
AcDbEntity
  8
AM_5 寸法線
100
AcDbDimension
  2
*D18
 10
851.899066898677
 20
761.8380371326894
 30
0.0
 11
956.3990668986772
 21
761.8380371326894
 31
0.0
 70
   160
 71
     5
 42
209.0
 73
     0
 74
     0
 75
     0
  3
SEISA$0
100
AcDbAlignedDimension
 13
1060.899066898677
 23
887.8380371326896
 33
0.0
 14
851.899066898677
 24
928.3380371326897
 34
0.0
100
AcDbRotatedDimension
1001
ACAD
1000
DSTYLE
1002
{
1070
   279
1070
     0
1002
}
  0
DIMENSION
  5
5055
102
{ACAD_XDICTIONARY
360
5062
102
}
102
{ACAD_REACTORS
330
506C
102
}
330
1F
100
AcDbEntity
  8
AM_5 寸法線
100
AcDbDimension
  2
*D19
 10
1174.899066898677
 20
761.8380371326894
 30
0.0
 11
1117.899066898677
 21
761.8380371326894
 31
0.0
 70
   160
 71
     5
 42
114.0
 73
     0
 74
     0
 75
     0
  3
SEISA$0
100
AcDbAlignedDimension
 13
1060.899066898677
 23
887.8380371326896
 33
0.0
 14
1174.899066898677
 24
926.3380371326897
 34
0.0
100
AcDbRotatedDimension
1001
ACAD
1000
DSTYLE
1002
{
1070
   279
1070
     0
1002
}
  0
DIMENSION
  5
506D
102
{ACAD_XDICTIONARY
360
507A
102
}
102
{ACAD_REACTORS
330
5084
102
}
330
1F
100
AcDbEntity
  8
AM_5 寸法線
100
AcDbDimension
  2
*D20
 10
1269.899056525531
 20
761.8380371326894
 30
0.0
 11
1222.399061712104
 21
761.8380371326894
 31
0.0
 70
   160
 71
     5
 42
94.99998962685369
 73
     0
 74
     0
 75
     0
  3
SEISA$0
100
AcDbAlignedDimension
 13
1174.899066898677
 23
926.3380371326897
 33
0.0
 14
1269.899056525531
 24
949.1380471901241
 34
0.0
100
AcDbRotatedDimension
1001
ACAD
1000
DSTYLE
1002
{
1070
   279
1070
     0
1002
}
  0
DIMENSION
  5
5085
102
{ACAD_XDICTIONARY
360
5092
102
}
102
{ACAD_REACTORS
330
509C
102
}
330
1F
100
AcDbEntity
  8
AM_5 寸法線
100
AcDbDimension
  2
*D21
 10
1269.899056525531
 20
711.8380371326894
 30
0.0
 11
1060.899061712104
 21
711.8380371326894
 31
0.0
 70
   160
 71
     5
 42
417.9999896268537
 73
     0
 74
     0
 75
     0
  3
SEISA$0
100
AcDbAlignedDimension
 13
851.899066898677
 23
928.3380371326897
 33
0.0
 14
1269.899056525531
 24
949.1380471901241
 34
0.0
100
AcDbRotatedDimension
1001
ACAD
1000
DSTYLE
1002
{
1070
   279
1070
     0
1002
}
  0
DIMENSION
  5
5120
102
{ACAD_XDICTIONARY
360
512D
102
}
102
{ACAD_REACTORS
330
5137
102
}
330
1F
100
AcDbEntity
  8
AM_5 寸法線
100
AcDbDimension
  2
*D22
 10
1369.899066898677
 20
944.3380427303843
 30
0.0
 11
1353.649066898676
 21
1086.838039931537
 31
0.0
 70
    32
  1
%%c<>
 71
     5
 42
284.999994402305
 73
     0
 74
     0
 75
     0
  3
SEISA$0
100
AcDbAlignedDimension
 13
1205.399066898677
 23
1229.338037132689
 33
0.0
 14
1205.399057927768
 24
944.3380427303846
 34
0.0
 50
90.0
100
AcDbRotatedDimension
1001
ACAD_DSTYLE_DIMINSPECT
1070
   396
1000
100%
1070
   395
1000

1070
   394
1070
    33
1070
   393
1070
     0
1001
ACAD
1000
DSTYLE
1002
{
1070
   279
1070
     0
1002
}
  0
DIMENSION
  5
5138
102
{ACAD_XDICTIONARY
360
5145
102
}
102
{ACAD_REACTORS
330
514F
102
}
330
1F
100
AcDbEntity
  8
AM_5 寸法線
100
AcDbDimension
  2
*D23
 10
1419.899066898677
 20
922.3380371326893
 30
0.0
 11
1419.899066898677
 21
1086.83803713269
 31
0.0
 70
   160
  1
%%c<>
 71
     5
 42
329.0000000000001
 73
     0
 74
     0
 75
     0
  3
SEISA$0
100
AcDbAlignedDimension
 13
1170.899066898677
 23
1251.338037132689
 33
0.0
 14
1170.899066898677
 24
922.3380371326896
 34
0.0
 50
90.0
100
AcDbRotatedDimension
1001
ACAD_DSTYLE_DIMINSPECT
1070
   396
1000
100%
1070
   395
1000

1070
   394
1070
    33
1070
   393
1070
     0
1001
ACAD
1000
DSTYLE
1002
{
1070
   279
1070
     0
1002
}
  0
DIMENSION
  5
5150
102
{ACAD_XDICTIONARY
360
515D
102
}
102
{ACAD_REACTORS
330
5167
102
}
330
1F
100
AcDbEntity
  8
AM_5 寸法線
100
AcDbDimension
  2
*D24
 10
1469.899066898677
 20
886.8380371326892
 30
0.0
 11
1469.899066898677
 21
1086.83803713269
 31
0.0
 70
   160
  1
%%c<>
 71
     5
 42
400.0
 73
     0
 74
     0
 75
     0
  3
SEISA$0
100
AcDbAlignedDimension
 13
1080.899066898677
 23
1286.838037132689
 33
0.0
 14
1080.899066898677
 24
886.8380371326896
 34
0.0
 50
90.0
100
AcDbRotatedDimension
1001
ACAD_DSTYLE_DIMINSPECT
1070
   396
1000
100%
1070
   395
1000

1070
   394
1070
    33
1070
   393
1070
     0
1001
ACAD
1000
DSTYLE
1002
{
1070
   279
1070
     0
1002
}
  0
LINE
  5
60C2
330
1F
100
AcDbEntity
  8
AM_5 寸法線
100
AcDbLine
 10
1106.899066898677
 20
811.8380371326896
 30
0.0
 11
1116.621038534415
 21
811.8380371326896
 31
0.0
  0
LINE
  5
60C3
330
1F
100
AcDbEntity
  8
AM_5 寸法線
100
AcDbLine
 10
1014.899066898677
 20
811.8380371326896
 30
0.0
 11
998.6944426225043
 21
811.8380371326896
 31
0.0
  0
MTEXT
  5
68EA
330
1F
100
AcDbEntity
  8
AM_6 文字
100
AcDbMText
 10
1309.003958230979
 20
857.2715643627486
 30
0.0
 40
17.5
 41
512.151837470981
 46
67.07224896519398
 71
     1
 72
     5
  1
{\W0.6;TYPE:SEM400/SEMH400\PSHAFT DIA:MAX/MIN \P RIGID SIDE φ236/φ140\P COUPLING CENTER SIDE φ200/φ140}
  7
SEISA
 73
     1
 44
1.0
  0
DIMENSION
  5
697E
102
{ACAD_XDICTIONARY
360
698C
102
}
102
{ACAD_REACTORS
330
698D
102
}
330
1F
100
AcDbEntity
  8
AM_5 寸法線
100
AcDbDimension
  2
*D26
 10
1269.899066898677
 20
1299.53803713269
 30
0.0
 11
1307.649066898677
 21
1315.788037132689
 31
0.0
 70
    32
 71
     5
 42
0.0
 73
     0
 74
     0
 75
     0
  3
SEISA$0
100
AcDbAlignedDimension
 13
1269.899066898677
 23
1224.538037132689
 33
0.0
 14
1269.899066898677
 24
1224.538037132689
 34
0.0
100
AcDbRotatedDimension
1001
ACAD_DSTYLE_DIMINSPECT
1070
   396
1000
100%
1070
   395
1000

1070
   394
1070
    33
1070
   393
1070
     0
  0
DIMENSION
  5
69AC
102
{ACAD_XDICTIONARY
360
69BB
102
}
102
{ACAD_REACTORS
330
69BC
102
}
330
1F
100
AcDbEntity
  8
AM_5 寸法線
100
AcDbDimension
  2
*D27
 10
1104.899066898677
 20
1187.807939530161
 30
0.0
 11
1088.110472672491
 21
1185.869445217952
 31
0.0
 70
   160
 71
     5
 42
35.0
 73
     0
 74
     0
 75
     0
  3
SEISA$0
100
AcDbAlignedDimension
 13
1069.899066898677
 23
1227.83803713269
 33
0.0
 14
1104.899066898677
 24
1229.338037132689
 34
0.0
 50
0.0000000000001132
100
AcDbRotatedDimension
1001
ACAD_DSTYLE_DIMINSPECT
1070
   396
1000
100%
1070
   395
1000

1070
   394
1070
    33
1070
   393
1070
     0
1001
ACAD
1000
DSTYLE
1002
{
1070
   279
1070
     1
1002
}
  0
DIMENSION
  5
69F4
102
{ACAD_XDICTIONARY
360
6A02
102
}
102
{ACAD_REACTORS
330
6A03
102
}
330
1F
100
AcDbEntity
  8
AM_5 寸法線
100
AcDbDimension
  2
*D28
 10
1150.399066898677
 20
1187.80793953016
 30
0.0
 11
1129.400796426603
 21
1139.345794687359
 31
0.0
 70
   160
 71
     5
 42
45.49999999999999
 73
     0
 74
     0
 75
     0
  3
SEISA$0
100
AcDbAlignedDimension
 13
1104.899066898677
 23
1229.338037132689
 33
0.0
 14
1150.399066898677
 24
1229.83803713269
 34
0.0
 50
0.0000000000001132
100
AcDbRotatedDimension
1001
ACAD_DSTYLE_DIMINSPECT
1070
   396
1000
100%
1070
   395
1000

1070
   394
1070
    33
1070
   393
1070
     0
1001
ACAD
1000
DSTYLE
1002
{
1070
   279
1070
     1
1002
}
  0
INSERT
  5
6BC6
330
1F
100
AcDbEntity
  8
AM_11 想像線
100
AcDbBlockReference
  2
ケース
 10
1231.853937842386
 20
1251.338037132689
 30
0.0
  0
ENDSEC
  0
SECTION
  2
OBJECTS
  0
DICTIONARY
  5
C
330
0
100
AcDbDictionary
281
     1
  3
ACAD_COLOR
350
C5
  3
ACAD_GROUP
350
D
  3
ACAD_LAYOUT
350
1A
  3
ACAD_MATERIAL
350
C4
  3
ACAD_MLEADERSTYLE
350
2D5
  3
ACAD_MLINESTYLE
350
17
  3
ACAD_PLOTSETTINGS
350
19
  3
ACAD_PLOTSTYLENAME
350
E
  3
ACAD_SCALELIST
350
2B3
  3
ACAD_TABLESTYLE
350
121
  3
ACAD_VISUALSTYLE
350
27F
  3
ACDB_RECOMPOSE_DATA
350
2F7
  3
AcDbVariableDictionary
350
34
  3
AcmDictionary
350
49
  3
AMG
350
2B
  3
AMGSNAPSETTINGS
350
1DE
  0
DICTIONARY
  5
BF
330
2
100
AcDbDictionary
280
     1
281
     1
  3
ACAD_LAYERSTATES
360
68E1
  3
AMLAYER_GROUPCOLORS
360
C0
  0
DICTIONARY
  5
29F7
330
10
100
AcDbDictionary
280
     1
281
     1
  3
ADSK_XREC_LAYER_RECONCILED
360
29F8
  0
DICTIONARY
  5
29F9
330
81
100
AcDbDictionary
280
     1
281
     1
  3
ADSK_XREC_LAYER_RECONCILED
360
29FA
  0
DICTIONARY
  5
82
330
1F
100
AcDbDictionary
280
     1
281
     1
  3
ACAD_SORTENTS
360
A41
  0
DICTIONARY
  5
3464
330
3463
100
AcDbDictionary
280
     1
281
     1
  3
ACAD_SORTENTS
360
5868
  0
DICTIONARY
  5
4797
330
46B6
100
AcDbDictionary
280
     1
281
     1
  3
ACAD_SORTENTS
360
63DD
  0
DICTIONARY
  5
486F
330
47FE
100
AcDbDictionary
280
     1
281
     1
  3
ACAD_SORTENTS
360
6AB1
  0
DICTIONARY
  5
494A
330
48DA
100
AcDbDictionary
280
     1
281
     1
  3
ACAD_SORTENTS
360
6B39
  0
DICTIONARY
  5
4B72
330
4ADE
100
AcDbDictionary
280
     1
281
     1
  3
ACAD_SORTENTS
360
6323
  0
DICTIONARY
  5
4D71
330
4D64
100
AcDbDictionary
280
     1
281
     1
  3
ACAD_DIMASSOC
360
4D7B
  0
DICTIONARY
  5
4DB5
330
4DA8
100
AcDbDictionary
280
     1
281
     1
  3
ACAD_DIMASSOC
360
4DBF
  0
DICTIONARY
  5
4DCF
330
4DC0
100
AcDbDictionary
280
     1
281
     1
  3
ACAD_DIMASSOC
360
4DDB
  0
DICTIONARY
  5
4DE9
330
4DDC
100
AcDbDictionary
280
     1
281
     1
  3
ACAD_DIMASSOC
360
4DF3
  0
DICTIONARY
  5
4E8E
330
4E7F
100
AcDbDictionary
280
     1
281
     1
  3
ACAD_DIMASSOC
360
4E9A
  0
DICTIONARY
  5
4F0B
330
4EFC
100
AcDbDictionary
280
     1
281
     1
  3
ACAD_DIMASSOC
360
4F17
  0
DICTIONARY
  5
4F27
330
4F18
100
AcDbDictionary
280
     1
281
     1
  3
ACAD_DIMASSOC
360
4F33
  0
DICTIONARY
  5
504A
330
503D
100
AcDbDictionary
280
     1
281
     1
  3
ACAD_DIMASSOC
360
5054
  0
DICTIONARY
  5
5062
330
5055
100
AcDbDictionary
280
     1
281
     1
  3
ACAD_DIMASSOC
360
506C
  0
DICTIONARY
  5
507A
330
506D
100
AcDbDictionary
280
     1
281
     1
  3
ACAD_DIMASSOC
360
5084
  0
DICTIONARY
  5
5092
330
5085
100
AcDbDictionary
280
     1
281
     1
  3
ACAD_DIMASSOC
360
509C
  0
DICTIONARY
  5
512D
330
5120
100
AcDbDictionary
280
     1
281
     1
  3
ACAD_DIMASSOC
360
5137
  0
DICTIONARY
  5
5145
330
5138
100
AcDbDictionary
280
     1
281
     1
  3
ACAD_DIMASSOC
360
514F
  0
DICTIONARY
  5
515D
330
5150
100
AcDbDictionary
280
     1
281
     1
  3
ACAD_DIMASSOC
360
5167
  0
DICTIONARY
  5
698C
330
697E
100
AcDbDictionary
280
     1
281
     1
  3
ACAD_DIMASSOC
360
698D
  0
DICTIONARY
  5
69BB
330
69AC
100
AcDbDictionary
280
     1
281
     1
  3
ACAD_DIMASSOC
360
69BC
  0
DICTIONARY
  5
6A02
330
69F4
100
AcDbDictionary
280
     1
281
     1
  3
ACAD_DIMASSOC
360
6A03
  0
DICTIONARY
  5
C5
102
{ACAD_REACTORS
330
C
102
}
330
C
100
AcDbDictionary
281
     1
  0
DICTIONARY
  5
D
102
{ACAD_REACTORS
330
C
102
}
330
C
100
AcDbDictionary
281
     1
  0
DICTIONARY
  5
1A
102
{ACAD_REACTORS
330
C
102
}
330
C
100
AcDbDictionary
281
     1
  3
Model
350
22
  3
レイアウト1
350
1E
  3
レイアウト2
350
26
  0
DICTIONARY
  5
C4
102
{ACAD_REACTORS
330
C
102
}
330
C
100
AcDbDictionary
281
     1
  3
ByBlock
350
27D
  3
ByLayer
350
27C
  3
Global
350
27E
  0
DICTIONARY
  5
2D5
102
{ACAD_REACTORS
330
C
102
}
330
C
100
AcDbDictionary
281
     1
  3
Standard
350
2D6
  0
DICTIONARY
  5
17
102
{ACAD_REACTORS
330
C
102
}
330
C
100
AcDbDictionary
281
     1
  3
Standard
350
18
  0
DICTIONARY
  5
19
102
{ACAD_REACTORS
330
C
102
}
330
C
100
AcDbDictionary
281
     1
  3
SEISA基本
350
1C7E
  0
ACDBDICTIONARYWDFLT
  5
E
102
{ACAD_REACTORS
330
C
102
}
330
C
100
AcDbDictionary
281
     1
  3
Normal
350
F
100
AcDbDictionaryWithDefault
340
F
  0
DICTIONARY
  5
2B3
102
{ACAD_REACTORS
330
C
102
}
330
C
100
AcDbDictionary
281
     1
  3
*A1
350
36C4
  3
*A2
350
68DF
  3
*A3
350
68E0
  3
A0
350
2B4
  3
A1
350
2B5
  3
A2
350
2B6
  3
A3
350
2B7
  3
A4
350
2B8
  3
A5
350
2B9
  3
A6
350
2BA
  3
A7
350
2BB
  3
A8
350
2BC
  3
A9
350
2BD
  3
B0
350
2BE
  3
B1
350
2BF
  3
B2
350
2C0
  3
B3
350
2C1
  3
B4
350
2C2
  3
B5
350
2C3
  3
B6
350
2C4
  3
B7
350
2C5
  3
B8
350
2C6
  3
B9
350
2C7
  3
C0
350
2C8
  3
C1
350
2C9
  3
C2
350
2CA
  3
C3
350
2CB
  3
C4
350
2CC
  3
C5
350
2CD
  3
C6
350
2CE
  3
C7
350
2CF
  3
C8
350
2D0
  3
C9
350
2D1
  3
D0
350
2D2
  3
D1
350
2D3
  3
D2
350
2D4
  0
DICTIONARY
  5
121
102
{ACAD_REACTORS
330
C
102
}
330
C
100
AcDbDictionary
281
     1
  3
Standard
350
122
  0
DICTIONARY
  5
27F
102
{ACAD_REACTORS
330
C
102
}
330
C
100
AcDbDictionary
281
     1
  3
2dWireframe
350
285
  3
3D Hidden
350
287
  3
3dWireframe
350
286
  3
Basic
350
284
  3
Brighten
350
28B
  3
ColorChange
350
28F
  3
Conceptual
350
288
  3
Dim
350
28A
  3
Facepattern
350
28E
  3
Flat
350
280
  3
FlatWithEdges
350
281
  3
Gouraud
350
282
  3
GouraudWithEdges
350
283
  3
Linepattern
350
28D
  3
Realistic
350
289
  3
Thicken
350
28C
  0
XRECORD
  5
2F7
102
{ACAD_REACTORS
330
C
102
}
330
C
100
AcDbXrecord
280
     1
 90
        1
330
122
  0
DICTIONARY
  5
34
102
{ACAD_REACTORS
330
C
102
}
330
C
100
AcDbDictionary
281
     1
  3
CANNOSCALE
350
2FA
  3
CMLEADERSTYLE
350
2F8
  3
CTABLESTYLE
350
140
  3
DIMASSOC
350
AC
  3
INDEXCTL
350
35
  3
LAYEREVAL
350
5BD3
  3
LAYERNOTIFY
350
5BD4
  3
LIGHTINGUNITS
350
2FB
  3
MSLTSCALE
350
2F9
  0
DICTIONARY
  5
49
102
{ACAD_REACTORS
330
C
102
}
330
C
100
AcDbDictionary
281
     1
  3
AcmBOM
350
161B
  3
AcmStdDictionary
350
4A
  3
AMDTSECTSYM_ARROWCOLOR
350
12B
  0
DICTIONARY
  5
2B
102
{ACAD_REACTORS
330
C
102
}
330
C
100
AcDbDictionary
281
     1
  0
DICTIONARY
  5
1DE
102
{ACAD_REACTORS
330
C
102
}
330
C
100
AcDbDictionary
281
     1
  0
DICTIONARY
  5
68E1
102
{ACAD_REACTORS
330
BF
102
}
330
BF
100
AcDbDictionary
281
     1
  0
DICTIONARY
  5
C0
102
{ACAD_REACTORS
330
BF
102
}
330
BF
100
AcDbDictionary
280
     1
281
     1
  0
XRECORD
  5
29F8
102
{ACAD_REACTORS
330
29F7
102
}
330
29F7
100
AcDbXrecord
280
     1
290
     1
  0
XRECORD
  5
29FA
102
{ACAD_REACTORS
330
29F9
102
}
330
29F9
100
AcDbXrecord
280
     1
290
     1
  0
SORTENTSTABLE
  5
A41
102
{ACAD_REACTORS
330
82
102
}
330
82
100
AcDbSortentsTable
330
1F
331
68EA
  5
68EA
331
5055
  5
506D
331
4E7F
  5
4EB9
331
5120
  5
5138
331
60C3
  5
66FC
331
4F18
  5
4F77
331
3E86
  5
3E86
331
4820
  5
48FF
331
3E87
  5
3E87
331
4D64
  5
4D96
331
5150
  5
5205
331
4DDC
  5
4E23
331
5085
  5
5120
331
4B0D
  5
4C02
331
503D
  5
5055
331
4DC0
  5
4DDC
331
4DA8
  5
4DC0
331
506D
  5
5085
331
3EB6
  5
3EB6
331
48FF
  5
4A3C
331
5138
  5
5150
331
60C2
  5
66FB
331
4EFC
  5
4F18
331
46F4
  5
4820
  0
SORTENTSTABLE
  5
5868
102
{ACAD_REACTORS
330
3464
102
}
330
3464
100
AcDbSortentsTable
330
3463
  0
SORTENTSTABLE
  5
63DD
102
{ACAD_REACTORS
330
4797
102
}
330
4797
100
AcDbSortentsTable
330
46B6
  0
SORTENTSTABLE
  5
6AB1
102
{ACAD_REACTORS
330
486F
102
}
330
486F
100
AcDbSortentsTable
330
47FE
  0
SORTENTSTABLE
  5
6B39
102
{ACAD_REACTORS
330
494A
102
}
330
494A
100
AcDbSortentsTable
330
48DA
331
48EA
  5
48EC
331
48ED
  5
48EF
331
48EC
  5
48EE
331
48EF
  5
48F1
331
48EE
  5
48F0
331
48F1
  5
48F3
331
48F9
  5
48FC
331
48F0
  5
48F2
331
48F8
  5
48FA
331
48F3
  5
48F5
331
697B
  5
48DE
331
48F2
  5
48F4
331
48FA
  5
4942
331
48F5
  5
48F7
331
48F4
  5
48F6
331
48F7
  5
48F9
331
48F6
  5
48F8
331
48FC
  5
697B
331
48DE
  5
48E0
331
48DD
  5
48DF
331
48E0
  5
48E2
331
48E2
  5
48E4
331
48E1
  5
48E3
331
48DF
  5
48E1
331
48E4
  5
48E6
331
48E3
  5
48E5
331
48E6
  5
48EA
331
48E5
  5
48E7
331
48E7
  5
48EB
331
4942
  5
697C
331
697C
  5
48DD
331
48EB
  5
48ED
  0
SORTENTSTABLE
  5
6323
102
{ACAD_REACTORS
330
4B72
102
}
330
4B72
100
AcDbSortentsTable
330
4ADE
  0
DIMASSOC
  5
4D7B
102
{ACAD_REACTORS
330
4D71
102
}
330
4D71
100
AcDbDimAssoc
330
4D64
 90
        3
 70
     0
 71
     0
  1
AcDbOsnapPointRef
 72
     1
331
4820
331
480A
 73
     2
 91
        0
 40
1.0
 10
0.0
 20
0.0
 30
2.000000000000000E+50
 75
     0
  1
AcDbOsnapPointRef
 72
     1
331
4820
331
4803
 73
     2
 91
        0
 40
1.0
 10
0.0
 20
0.0
 30
2.000000000000000E+50
 75
     0
  0
DIMASSOC
  5
4DBF
102
{ACAD_REACTORS
330
4DB5
102
}
330
4DB5
100
AcDbDimAssoc
330
4DA8
 90
        3
 70
     0
 71
     0
  1
AcDbOsnapPointRef
 72
    13
331
4820
331
480D
 73
     2
 91
        0
 40
0.0
 10
0.0
 20
0.0
 30
2.000000000000000E+50
 75
     0
  1
AcDbOsnapPointRef
 72
     1
331
4820
331
4802
 73
     2
 91
        0
 40
1.0
 10
0.0
 20
0.0
 30
2.000000000000000E+50
 75
     0
  0
DIMASSOC
  5
4DDB
102
{ACAD_REACTORS
330
4DCF
102
}
330
4DCF
100
AcDbDimAssoc
330
4DC0
 90
        3
 70
     0
 71
     0
  1
AcDbOsnapPointRef
 72
     1
331
48FF
331
48DE
 73
     2
 91
        0
 40
1.0
 10
0.0
 20
0.0
 30
2.000000000000000E+50
 75
     0
  1
AcDbOsnapPointRef
 72
    13
331
4820
331
480D
 73
     2
 91
        0
 40
0.0
 10
0.0
 20
0.0
 30
2.000000000000000E+50
 75
     0
  0
DIMASSOC
  5
4DF3
102
{ACAD_REACTORS
330
4DE9
102
}
330
4DE9
100
AcDbDimAssoc
330
4DDC
 90
        3
 70
     0
 71
     0
  1
AcDbOsnapPointRef
 72
     1
331
48FF
331
48DE
 73
     2
 91
        0
 40
1.0
 10
0.0
 20
0.0
 30
2.000000000000000E+50
 75
     0
  1
AcDbOsnapPointRef
 72
     2
331
48FF
331
48F5
 73
     2
 91
        0
 40
0.5
 10
0.0
 20
0.0
 30
0.0
 75
     0
  0
DIMASSOC
  5
4E9A
102
{ACAD_REACTORS
330
4E8E
102
}
330
4E8E
100
AcDbDimAssoc
330
4E7F
 90
        3
 70
     0
 71
     0
  1
AcDbOsnapPointRef
 72
     1
331
46F4
331
46EA
 73
     2
 91
        0
 40
1.0
 10
0.0
 20
0.0
 30
2.000000000000000E+50
 75
     0
  1
AcDbOsnapPointRef
 72
    13
331
48FF
331
48F3
 73
     2
 91
        0
 40
3.141592653589792
 10
0.0
 20
0.0
 30
2.000000000000000E+50
 75
     0
  0
DIMASSOC
  5
4F17
102
{ACAD_REACTORS
330
4F0B
102
}
330
4F0B
100
AcDbDimAssoc
330
4EFC
 90
        3
 70
     0
 71
     0
  1
AcDbOsnapPointRef
 72
    13
331
4820
331
4807
 73
     2
 91
        0
 40
0.0
 10
0.0
 20
0.0
 30
2.000000000000000E+50
 75
     0
  1
AcDbOsnapPointRef
 72
    13
331
4820
331
4801
 73
     2
 91
        0
 40
0.0
 10
0.0
 20
0.0
 30
2.000000000000000E+50
 75
     0
  0
DIMASSOC
  5
4F33
102
{ACAD_REACTORS
330
4F27
102
}
330
4F27
100
AcDbDimAssoc
330
4F18
 90
        3
 70
     0
 71
     0
  1
AcDbOsnapPointRef
 72
    13
331
4820
331
4807
 73
     2
 91
        0
 40
0.0
 10
0.0
 20
0.0
 30
2.000000000000000E+50
 75
     0
  1
AcDbOsnapPointRef
 72
    13
331
46F4
331
46BB
 73
     2
 91
        0
 40
0.0
 10
0.0
 20
0.0
 30
2.000000000000000E+50
 75
     0
  0
DIMASSOC
  5
5054
102
{ACAD_REACTORS
330
504A
102
}
330
504A
100
AcDbDimAssoc
330
503D
 90
        3
 70
     0
 71
     0
  1
AcDbOsnapPointRef
 72
    13
331
4820
331
4807
 73
     2
 91
        0
 40
0.0
 10
0.0
 20
0.0
 30
2.000000000000000E+50
 75
     0
  1
AcDbOsnapPointRef
 72
    13
331
4820
331
4802
 73
     2
 91
        0
 40
0.0
 10
0.0
 20
0.0
 30
2.000000000000000E+50
 75
     0
  0
DIMASSOC
  5
506C
102
{ACAD_REACTORS
330
5062
102
}
330
5062
100
AcDbDimAssoc
330
5055
 90
        3
 70
     0
 71
     0
  1
AcDbOsnapPointRef
 72
    13
331
4820
331
4807
 73
     2
 91
        0
 40
0.0
 10
0.0
 20
0.0
 30
2.000000000000000E+50
 75
     0
  1
AcDbOsnapPointRef
 72
    13
331
46F4
331
46BA
 73
     2
 91
        0
 40
0.0
 10
0.0
 20
0.0
 30
2.000000000000000E+50
 75
     0
  0
DIMASSOC
  5
5084
102
{ACAD_REACTORS
330
507A
102
}
330
507A
100
AcDbDimAssoc
330
506D
 90
        3
 70
     0
 71
     0
  1
AcDbOsnapPointRef
 72
    13
331
46F4
331
46BA
 73
     2
 91
        0
 40
0.0
 10
0.0
 20
0.0
 30
2.000000000000000E+50
 75
     0
  1
AcDbOsnapPointRef
 72
     1
331
48FF
331
48FA
 73
     2
 91
        0
 40
6.283185307179585
 10
0.0
 20
0.0
 30
2.000000000000000E+50
 75
     0
  0
DIMASSOC
  5
509C
102
{ACAD_REACTORS
330
5092
102
}
330
5092
100
AcDbDimAssoc
330
5085
 90
        3
 70
     0
 71
     0
  1
AcDbOsnapPointRef
 72
    13
331
4820
331
4802
 73
     2
 91
        0
 40
0.0
 10
0.0
 20
0.0
 30
2.000000000000000E+50
 75
     0
  1
AcDbOsnapPointRef
 72
     1
331
48FF
331
48FA
 73
     2
 91
        0
 40
6.283185307179585
 10
0.0
 20
0.0
 30
2.000000000000000E+50
 75
     0
  0
DIMASSOC
  5
5137
102
{ACAD_REACTORS
330
512D
102
}
330
512D
100
AcDbDimAssoc
330
5120
 90
        3
 70
     0
 71
     0
  1
AcDbOsnapPointRef
 72
    13
331
48FF
331
48F1
 73
     2
 91
        0
 40
0.0
 10
0.0
 20
0.0
 30
2.000000000000000E+50
 75
     0
  1
AcDbOsnapPointRef
 72
    13
331
48FF
331
48F8
 73
     2
 91
        0
 40
0.0
 10
0.0
 20
0.0
 30
2.000000000000000E+50
 75
     0
  0
DIMASSOC
  5
514F
102
{ACAD_REACTORS
330
5145
102
}
330
5145
100
AcDbDimAssoc
330
5138
 90
        3
 70
     0
 71
     0
  1
AcDbOsnapPointRef
 72
     1
331
46F4
331
46D3
 73
     2
 91
        0
 40
1.0
 10
0.0
 20
0.0
 30
2.000000000000000E+50
 75
     0
  1
AcDbOsnapPointRef
 72
     8
331
46F4
331
46BE
 73
     2
 91
        0
 40
1.0
 10
0.0
 20
0.0
 30
0.0
 75
     1
  1
AcDbOsnapPointRef
 72
     1
331
46F4
331
46D3
 73
     2
 91
        0
 40
1.0
 10
0.0
 20
0.0
 30
2.000000000000000E+50
 75
     0
  0
DIMASSOC
  5
5167
102
{ACAD_REACTORS
330
515D
102
}
330
515D
100
AcDbDimAssoc
330
5150
 90
        3
 70
     0
 71
     0
  1
AcDbOsnapPointRef
 72
     1
331
46F4
331
46CA
 73
     2
 91
        0
 40
1.0
 10
0.0
 20
0.0
 30
2.000000000000000E+50
 75
     0
  1
AcDbOsnapPointRef
 72
     1
331
46F4
331
46BC
 73
     2
 91
        0
 40
1.0
 10
0.0
 20
0.0
 30
2.000000000000000E+50
 75
     0
  0
DIMASSOC
  5
698D
102
{ACAD_REACTORS
330
698C
102
}
330
698C
100
AcDbDimAssoc
330
697E
 90
        3
 70
     0
 71
     0
  1
AcDbOsnapPointRef
 72
     1
331
48FF
331
48F5
 73
     0
 91
        0
 40
0.0
 10
0.0
 20
0.0
 30
2.000000000000000E+50
 75
     0
  1
AcDbOsnapPointRef
 72
     1
331
48FF
331
48F5
 73
     0
 91
        0
 40
0.0
 10
0.0
 20
0.0
 30
2.000000000000000E+50
 75
     0
  0
DIMASSOC
  5
69BC
102
{ACAD_REACTORS
330
69BB
102
}
330
69BB
100
AcDbDimAssoc
330
69AC
 90
        3
 70
     0
 71
     0
  1
AcDbOsnapPointRef
 72
    13
331
48FF
331
48DE
 73
     0
 91
        0
 40
0.0
 10
0.0
 20
0.0
 30
2.000000000000000E+50
 75
     0
  1
AcDbOsnapPointRef
 72
     1
331
48FF
331
48ED
 73
     0
 91
        0
 40
0.0
 10
0.0
 20
0.0
 30
2.000000000000000E+50
 75
     0
  0
DIMASSOC
  5
6A03
102
{ACAD_REACTORS
330
6A02
102
}
330
6A02
100
AcDbDimAssoc
330
69F4
 90
        1
 70
     0
 71
     0
  1
AcDbOsnapPointRef
 72
     1
331
48FF
331
48EE
 73
     0
 91
        0
 40
0.0
 10
0.0
 20
0.0
 30
2.000000000000000E+50
 75
     0
  0
LAYOUT
  5
22
102
{ACAD_REACTORS
330
1A
102
}
330
1A
100
AcDbPlotSettings
  1

  2
KONICA MINOLTA 501 PCL
  4
A4
  6

 40
5.027082920074462
 41
5.027085781097412
 42
5.027069091796875
 43
5.027069091796875
 44
209.9733276367186
 45
296.9259948730469
 46
0.5226621314781711
 47
0.0
 48
0.0
 49
0.0
140
0.0
141
0.0
142
1.0
143
3.098545666373107
 70
 11956
 72
     1
 73
     1
 74
     1
  7
SEISA.ctb
 75
     0
147
0.3227320516371521
 76
     0
 77
     2
 78
   300
148
-726.8417425326115
149
-708.3977569836211
100
AcDbLayout
  1
Model
 70
     1
 71
     0
 10
0.0
 20
0.0
 11
12.0
 21
9.0
 12
0.0
 22
0.0
 32
0.0
 14
0.0
 24
0.0
 34
0.0
 15
0.0
 25
0.0
 35
0.0
146
0.0
 13
0.0
 23
0.0
 33
0.0
 16
1.0
 26
0.0
 36
0.0
 17
0.0
 27
1.0
 37
0.0
 76
     0
330
1F
331
27A
1001
ACAD_PSEXT
1000
KONICA MINOLTA 501 PCL
1000
KONICA MINOLTA 501/421/361PCL
1000
IP_192.168.20.231_(1)
1000

1070
     0
  0
LAYOUT
  5
1E
102
{ACAD_REACTORS
330
1A
102
}
330
1A
100
AcDbPlotSettings
  1

  2
none_device
  4
Letter_(8.50_x_11.00_Inches)
  6

 40
6.349999904632567
 41
6.349999904632567
 42
6.350006103515625
 43
6.350006103515625
 44
215.8999938964844
 45
279.3999938964844
 46
0.0
 47
0.0
 48
0.0
 49
0.0
140
0.0
141
0.0
142
1.0
143
1.0
 70
 15024
 72
     1
 73
     1
 74
     5
  7
SEISA.ctb
 75
    16
147
1.0
 76
     0
 77
     2
 78
   300
148
0.0
149
0.0
100
AcDbLayout
  1
レイアウト1
 70
     1
 71
     1
 10
0.0
 20
0.0
 11
420.0
 21
297.0
 12
0.0
 22
0.0
 32
0.0
 14
1.000000000000000E+20
 24
1.000000000000000E+20
 34
1.000000000000000E+20
 15
-1.000000000000000E+20
 25
-1.000000000000000E+20
 35
-1.000000000000000E+20
146
0.0
 13
0.0
 23
0.0
 33
0.0
 16
1.0
 26
0.0
 36
0.0
 17
0.0
 27
1.0
 37
0.0
 76
     0
330
1B
  0
LAYOUT
  5
26
102
{ACAD_REACTORS
330
1A
102
}
330
1A
100
AcDbPlotSettings
  1

  2
none_device
  4
Letter_(8.50_x_11.00_Inches)
  6

 40
6.349999904632567
 41
6.349999904632567
 42
6.350006103515625
 43
6.350006103515625
 44
215.8999938964844
 45
279.3999938964844
 46
0.0
 47
0.0
 48
0.0
 49
0.0
140
0.0
141
0.0
142
1.0
143
1.0
 70
 15024
 72
     1
 73
     1
 74
     5
  7
SEISA.ctb
 75
    16
147
1.0
 76
     0
 77
     2
 78
   300
148
0.0
149
0.0
100
AcDbLayout
  1
レイアウト2
 70
     1
 71
     2
 10
0.0
 20
0.0
 11
12.0
 21
9.0
 12
0.0
 22
0.0
 32
0.0
 14
0.0
 24
0.0
 34
0.0
 15
0.0
 25
0.0
 35
0.0
146
0.0
 13
0.0
 23
0.0
 33
0.0
 16
1.0
 26
0.0
 36
0.0
 17
0.0
 27
1.0
 37
0.0
 76
     0
330
23
  0
MATERIAL
  5
27D
102
{ACAD_REACTORS
330
C4
102
}
330
C4
100
AcDbMaterial
  1
ByBlock
 73
     1
 78
     1
172
     1
176
     1
270
     1
274
     1
 94
       63
  0
MATERIAL
  5
27C
102
{ACAD_REACTORS
330
C4
102
}
330
C4
100
AcDbMaterial
  1
ByLayer
 73
     1
 78
     1
172
     1
176
     1
270
     1
274
     1
 94
       63
  0
MATERIAL
  5
27E
102
{ACAD_REACTORS
330
C4
102
}
330
C4
100
AcDbMaterial
  1
Global
 73
     1
 78
     1
172
     1
176
     1
270
     1
274
     1
 94
       63
  0
MLEADERSTYLE
  5
2D6
102
{ACAD_REACTORS
330
2D5
102
}
330
2D5
100
AcDbMLeaderStyle
170
     2
171
     1
172
     0
 90
        2
 40
0.0
 41
0.0
173
     1
 91
-1056964608
340
14
 92
       -2
290
     1
 42
2.0
291
     1
 43
0.36
  3
Standard
 44
4.0
300

342
11
174
     1
178
     6
175
     1
176
     0
 93
-1056964608
 45
4.0
292
     0
297
     0
 46
4.0
 94
-1056964608
 47
1.0
 49
1.0
140
1.0
293
     1
141
0.0
294
     1
177
     0
142
1.0
295
     0
296
     0
143
0.125
1001
ACAD_MLEADERVER
1070
     2
  0
MLINESTYLE
  5
18
102
{ACAD_REACTORS
330
17
102
}
330
17
100
AcDbMlineStyle
  2
STANDARD
 70
     0
  3

 62
   256
 51
90.0
 52
90.0
 71
     2
 49
0.5
 62
   256
  6
BYLAYER
 49
-0.5
 62
   256
  6
BYLAYER
  0
PLOTSETTINGS
  5
1C7E
102
{ACAD_REACTORS
330
19
102
}
330
19
100
AcDbPlotSettings
  1
SEISA基本
  2
none_device
  4
Letter_(8.50_x_11.00_Inches)
  6

 40
6.349999904632567
 41
6.349999904632567
 42
6.350006103515625
 43
6.350006103515625
 44
215.8999938964844
 45
279.3999938964844
 46
7.302498226506357
 47
0.0
 48
0.0
 49
0.0
140
0.0
141
0.0
142
1.0
143
1.574803221122935
 70
 11956
 72
     1
 73
     1
 74
     2
  7
SEISA.ctb
 75
     0
147
0.6349999711627054
 76
     0
 77
     2
 78
   300
148
0.0
149
0.0
1001
ACAD_PSEXT
1000
なし
1000
なし
1000
適切ではありません
1000
新しいプロッタ環境設定名を選択しない限り、レイアウトは印刷されません。
1070
     0
  0
ACDBPLACEHOLDER
  5
F
102
{ACAD_REACTORS
330
E
102
}
330
E
  0
SCALE
  5
36C4
102
{ACAD_REACTORS
330
2B3
102
}
330
2B3
100
AcDbScale
 70
     0
300
1:3
140
1.0
141
3.0
290
     0
  0
SCALE
  5
68DF
102
{ACAD_REACTORS
330
2B3
102
}
330
2B3
100
AcDbScale
 70
     0
300
1:2.5
140
1.0
141
2.5
290
     0
  0
SCALE
  5
68E0
102
{ACAD_REACTORS
330
2B3
102
}
330
2B3
100
AcDbScale
 70
     0
300
1:1.5
140
1.0
141
1.5
290
     0
  0
SCALE
  5
2B4
102
{ACAD_REACTORS
330
2B3
102
}
330
2B3
100
AcDbScale
 70
     0
300
1:1
140
1.0
141
1.0
290
     1
  0
SCALE
  5
2B5
102
{ACAD_REACTORS
330
2B3
102
}
330
2B3
100
AcDbScale
 70
     0
300
1:2
140
1.0
141
2.0
290
     0
  0
SCALE
  5
2B6
102
{ACAD_REACTORS
330
2B3
102
}
330
2B3
100
AcDbScale
 70
     0
300
1:4
140
1.0
141
4.0
290
     0
  0
SCALE
  5
2B7
102
{ACAD_REACTORS
330
2B3
102
}
330
2B3
100
AcDbScale
 70
     0
300
1:5
140
1.0
141
5.0
290
     0
  0
SCALE
  5
2B8
102
{ACAD_REACTORS
330
2B3
102
}
330
2B3
100
AcDbScale
 70
     0
300
1:8
140
1.0
141
8.0
290
     0
  0
SCALE
  5
2B9
102
{ACAD_REACTORS
330
2B3
102
}
330
2B3
100
AcDbScale
 70
     0
300
1:10
140
1.0
141
10.0
290
     0
  0
SCALE
  5
2BA
102
{ACAD_REACTORS
330
2B3
102
}
330
2B3
100
AcDbScale
 70
     0
300
1:16
140
1.0
141
16.0
290
     0
  0
SCALE
  5
2BB
102
{ACAD_REACTORS
330
2B3
102
}
330
2B3
100
AcDbScale
 70
     0
300
1:20
140
1.0
141
20.0
290
     0
  0
SCALE
  5
2BC
102
{ACAD_REACTORS
330
2B3
102
}
330
2B3
100
AcDbScale
 70
     0
300
1:30
140
1.0
141
30.0
290
     0
  0
SCALE
  5
2BD
102
{ACAD_REACTORS
330
2B3
102
}
330
2B3
100
AcDbScale
 70
     0
300
1:40
140
1.0
141
40.0
290
     0
  0
SCALE
  5
2BE
102
{ACAD_REACTORS
330
2B3
102
}
330
2B3
100
AcDbScale
 70
     0
300
1:50
140
1.0
141
50.0
290
     0
  0
SCALE
  5
2BF
102
{ACAD_REACTORS
330
2B3
102
}
330
2B3
100
AcDbScale
 70
     0
300
1:100
140
1.0
141
100.0
290
     0
  0
SCALE
  5
2C0
102
{ACAD_REACTORS
330
2B3
102
}
330
2B3
100
AcDbScale
 70
     0
300
2:1
140
2.0
141
1.0
290
     0
  0
SCALE
  5
2C1
102
{ACAD_REACTORS
330
2B3
102
}
330
2B3
100
AcDbScale
 70
     0
300
4:1
140
4.0
141
1.0
290
     0
  0
SCALE
  5
2C2
102
{ACAD_REACTORS
330
2B3
102
}
330
2B3
100
AcDbScale
 70
     0
300
8:1
140
8.0
141
1.0
290
     0
  0
SCALE
  5
2C3
102
{ACAD_REACTORS
330
2B3
102
}
330
2B3
100
AcDbScale
 70
     0
300
10:1
140
10.0
141
1.0
290
     0
  0
SCALE
  5
2C4
102
{ACAD_REACTORS
330
2B3
102
}
330
2B3
100
AcDbScale
 70
     0
300
100:1
140
100.0
141
1.0
290
     0
  0
SCALE
  5
2C5
102
{ACAD_REACTORS
330
2B3
102
}
330
2B3
100
AcDbScale
 70
     0
300
1/128" = 1'-0"
140
0.0078125
141
12.0
290
     0
  0
SCALE
  5
2C6
102
{ACAD_REACTORS
330
2B3
102
}
330
2B3
100
AcDbScale
 70
     0
300
1/64" = 1'-0"
140
0.015625
141
12.0
290
     0
  0
SCALE
  5
2C7
102
{ACAD_REACTORS
330
2B3
102
}
330
2B3
100
AcDbScale
 70
     0
300
1/32" = 1'-0"
140
0.03125
141
12.0
290
     0
  0
SCALE
  5
2C8
102
{ACAD_REACTORS
330
2B3
102
}
330
2B3
100
AcDbScale
 70
     0
300
1/16" = 1'-0"
140
0.0625
141
12.0
290
     0
  0
SCALE
  5
2C9
102
{ACAD_REACTORS
330
2B3
102
}
330
2B3
100
AcDbScale
 70
     0
300
3/32" = 1'-0"
140
0.09375
141
12.0
290
     0
  0
SCALE
  5
2CA
102
{ACAD_REACTORS
330
2B3
102
}
330
2B3
100
AcDbScale
 70
     0
300
1/8" = 1'-0"
140
0.125
141
12.0
290
     0
  0
SCALE
  5
2CB
102
{ACAD_REACTORS
330
2B3
102
}
330
2B3
100
AcDbScale
 70
     0
300
3/16" = 1'-0"
140
0.1875
141
12.0
290
     0
  0
SCALE
  5
2CC
102
{ACAD_REACTORS
330
2B3
102
}
330
2B3
100
AcDbScale
 70
     0
300
1/4" = 1'-0"
140
0.25
141
12.0
290
     0
  0
SCALE
  5
2CD
102
{ACAD_REACTORS
330
2B3
102
}
330
2B3
100
AcDbScale
 70
     0
300
3/8" = 1'-0"
140
0.375
141
12.0
290
     0
  0
SCALE
  5
2CE
102
{ACAD_REACTORS
330
2B3
102
}
330
2B3
100
AcDbScale
 70
     0
300
1/2" = 1'-0"
140
0.5
141
12.0
290
     0
  0
SCALE
  5
2CF
102
{ACAD_REACTORS
330
2B3
102
}
330
2B3
100
AcDbScale
 70
     0
300
3/4" = 1'-0"
140
0.75
141
12.0
290
     0
  0
SCALE
  5
2D0
102
{ACAD_REACTORS
330
2B3
102
}
330
2B3
100
AcDbScale
 70
     0
300
1" = 1'-0"
140
1.0
141
12.0
290
     0
  0
SCALE
  5
2D1
102
{ACAD_REACTORS
330
2B3
102
}
330
2B3
100
AcDbScale
 70
     0
300
1-1/2" = 1'-0"
140
1.5
141
12.0
290
     0
  0
SCALE
  5
2D2
102
{ACAD_REACTORS
330
2B3
102
}
330
2B3
100
AcDbScale
 70
     0
300
3" = 1'-0"
140
3.0
141
12.0
290
     0
  0
SCALE
  5
2D3
102
{ACAD_REACTORS
330
2B3
102
}
330
2B3
100
AcDbScale
 70
     0
300
6" = 1'-0"
140
6.0
141
12.0
290
     0
  0
SCALE
  5
2D4
102
{ACAD_REACTORS
330
2B3
102
}
330
2B3
100
AcDbScale
 70
     0
300
1'-0" = 1'-0"
140
12.0
141
12.0
290
     0
  0
TABLESTYLE
  5
122
102
{ACAD_XDICTIONARY
360
2F5
102
}
102
{ACAD_REACTORS
330
121
102
}
330
121
100
AcDbTableStyle
  3
Standard
 70
     0
 71
     0
 40
1.5
 41
1.5
280
     0
281
     0
  7
STANDARD
140
4.5
170
     2
 62
     0
 63
     7
283
     0
 90
      512
 91
        0
  1

274
    -2
284
     1
 64
     0
275
    -2
285
     1
 65
     0
276
    -2
286
     1
 66
     0
277
    -2
287
     1
 67
     0
278
    -2
288
     1
 68
     0
279
    -2
289
     1
 69
     0
  7
STANDARD
140
6.0
170
     5
 62
     0
 63
     7
283
     0
 90
      512
 91
        0
  1

274
    -2
284
     1
 64
     0
275
    -2
285
     1
 65
     0
276
    -2
286
     1
 66
     0
277
    -2
287
     1
 67
     0
278
    -2
288
     1
 68
     0
279
    -2
289
     1
 69
     0
  7
STANDARD
140
4.5
170
     5
 62
     0
 63
     7
283
     0
 90
      512
 91
        0
  1

274
    -2
284
     1
 64
     0
275
    -2
285
     1
 65
     0
276
    -2
286
     1
 66
     0
277
    -2
287
     1
 67
     0
278
    -2
288
     1
 68
     0
279
    -2
289
     1
 69
     0
  0
VISUALSTYLE
  5
285
102
{ACAD_REACTORS
330
27F
102
}
330
27F
100
AcDbVisualStyle
  2
2dWireframe
 70
     4
 71
     0
 72
     2
 73
     0
 90
        0
 40
-0.6
 41
-30.0
 62
     5
 63
     7
421
 16777215
 74
     1
 91
        4
 64
     7
 65
   257
 75
     1
175
     1
 42
1.0
 92
        0
 66
   257
 43
1.0
 76
     1
 77
     6
 78
     2
 67
     7
 79
     5
170
     0
171
     0
290
     0
174
     0
 93
        1
 44
0.0
173
     0
291
     0
 45
0.0
  0
VISUALSTYLE
  5
287
102
{ACAD_REACTORS
330
27F
102
}
330
27F
100
AcDbVisualStyle
  2
3D Hidden
 70
     6
 71
     1
 72
     2
 73
     2
 90
        0
 40
-0.6
 41
-30.0
 62
     5
 63
     7
421
 16777215
 74
     2
 91
        2
 64
     7
 65
   257
 75
     2
175
     1
 42
40.0
 92
        0
 66
   257
 43
1.0
 76
     1
 77
     6
 78
     2
 67
     7
 79
     3
170
     0
171
     0
290
     0
174
     0
 93
        1
 44
0.0
173
     0
291
     0
 45
0.0
  0
VISUALSTYLE
  5
286
102
{ACAD_REACTORS
330
27F
102
}
330
27F
100
AcDbVisualStyle
  2
3dWireframe
 70
     5
 71
     0
 72
     2
 73
     0
 90
        0
 40
-0.6
 41
-30.0
 62
     5
 63
     7
421
 16777215
 74
     1
 91
        4
 64
     7
 65
   257
 75
     1
175
     1
 42
1.0
 92
        0
 66
   257
 43
1.0
 76
     1
 77
     6
 78
     2
 67
     7
 79
     5
170
     0
171
     0
290
     0
174
     0
 93
        1
 44
0.0
173
     0
291
     0
 45
0.0
  0
VISUALSTYLE
  5
284
102
{ACAD_REACTORS
330
27F
102
}
330
27F
100
AcDbVisualStyle
  2
Basic
 70
     7
 71
     1
 72
     0
 73
     1
 90
        0
 40
-0.6
 41
-30.0
 62
     5
 63
     7
421
 16777215
 74
     0
 91
        4
 64
     7
 65
   257
 75
     1
175
     1
 42
1.0
 92
        8
 66
     7
 43
1.0
 76
     1
 77
     6
 78
     2
 67
     7
 79
     5
170
     0
171
     0
290
     0
174
     0
 93
        1
 44
0.0
173
     0
291
     1
 45
0.0
  0
VISUALSTYLE
  5
28B
102
{ACAD_REACTORS
330
27F
102
}
330
27F
100
AcDbVisualStyle
  2
Brighten
 70
    12
 71
     2
 72
     2
 73
     0
 90
        0
 40
-0.6
 41
-30.0
 62
     5
 63
     7
421
 16777215
 74
     1
 91
        4
 64
     7
 65
   257
 75
     1
175
     1
 42
1.0
 92
        8
 66
     7
 43
1.0
 76
     1
 77
     6
 78
     2
 67
     7
 79
     5
170
     0
171
     0
290
     0
174
     0
 93
        1
 44
50.0
173
     0
291
     1
 45
0.0
  0
VISUALSTYLE
  5
28F
102
{ACAD_REACTORS
330
27F
102
}
330
27F
100
AcDbVisualStyle
  2
ColorChange
 70
    16
 71
     2
 72
     2
 73
     3
 90
        0
 40
-0.6
 41
-30.0
 62
     5
 63
     8
421
  8421504
 74
     1
 91
        4
 64
     7
 65
   257
 75
     1
175
     1
 42
1.0
 92
        8
 66
     8
424
  8421504
 43
1.0
 76
     1
 77
     6
 78
     2
 67
     7
 79
     5
170
     0
171
     0
290
     0
174
     0
 93
        1
 44
0.0
173
     0
291
     1
 45
0.0
  0
VISUALSTYLE
  5
288
102
{ACAD_REACTORS
330
27F
102
}
330
27F
100
AcDbVisualStyle
  2
Conceptual
 70
     9
 71
     3
 72
     2
 73
     0
 90
        0
 40
-0.6
 41
-30.0
 62
     5
 63
     7
421
 16777215
 74
     2
 91
        2
 64
     7
 65
   257
 75
     1
175
     1
 42
40.0
 92
        8
 66
     7
 43
1.0
 76
     1
 77
     6
 78
     2
 67
     7
 79
     3
170
     0
171
     0
290
     0
174
     0
 93
        1
 44
0.0
173
     0
291
     0
 45
0.0
  0
VISUALSTYLE
  5
28A
102
{ACAD_REACTORS
330
27F
102
}
330
27F
100
AcDbVisualStyle
  2
Dim
 70
    11
 71
     2
 72
     2
 73
     0
 90
        0
 40
-0.6
 41
-30.0
 62
     5
 63
     7
421
 16777215
 74
     1
 91
        4
 64
     7
 65
   257
 75
     1
175
     1
 42
1.0
 92
        8
 66
     7
 43
1.0
 76
     1
 77
     6
 78
     2
 67
     7
 79
     5
170
     0
171
     0
290
     0
174
     0
 93
        1
 44
-50.0
173
     0
291
     1
 45
0.0
  0
VISUALSTYLE
  5
28E
102
{ACAD_REACTORS
330
27F
102
}
330
27F
100
AcDbVisualStyle
  2
Facepattern
 70
    15
 71
     2
 72
     2
 73
     0
 90
        0
 40
-0.6
 41
-30.0
 62
     5
 63
     7
421
 16777215
 74
     1
 91
        4
 64
     7
 65
   257
 75
     1
175
     1
 42
1.0
 92
        8
 66
     7
 43
1.0
 76
     1
 77
     6
 78
     2
 67
     7
 79
     5
170
     0
171
     0
290
     0
174
     0
 93
        1
 44
0.0
173
     0
291
     1
 45
0.0
  0
VISUALSTYLE
  5
280
102
{ACAD_REACTORS
330
27F
102
}
330
27F
100
AcDbVisualStyle
  2
Flat
 70
     0
 71
     2
 72
     1
 73
     1
 90
        2
 40
-0.6
 41
30.0
 62
     5
 63
     7
421
 16777215
 74
     0
 91
        4
 64
     7
 65
   257
 75
     1
175
     1
 42
1.0
 92
        8
 66
     7
 43
1.0
 76
     1
 77
     6
 78
     2
 67
     7
 79
     5
170
     0
171
     0
290
     0
174
     0
 93
       13
 44
0.0
173
     0
291
     1
 45
0.0
  0
VISUALSTYLE
  5
281
102
{ACAD_REACTORS
330
27F
102
}
330
27F
100
AcDbVisualStyle
  2
FlatWithEdges
 70
     1
 71
     2
 72
     1
 73
     1
 90
        2
 40
-0.6
 41
30.0
 62
     5
 63
     7
421
 16777215
 74
     1
 91
        4
 64
     7
 65
   257
 75
     1
175
     1
 42
1.0
 92
        0
 66
   257
 43
1.0
 76
     1
 77
     6
 78
     2
 67
     7
 79
     5
170
     0
171
     0
290
     0
174
     0
 93
       13
 44
0.0
173
     0
291
     1
 45
0.0
  0
VISUALSTYLE
  5
282
102
{ACAD_REACTORS
330
27F
102
}
330
27F
100
AcDbVisualStyle
  2
Gouraud
 70
     2
 71
     2
 72
     2
 73
     1
 90
        2
 40
-0.6
 41
30.0
 62
     5
 63
     7
421
 16777215
 74
     0
 91
        4
 64
     7
 65
   257
 75
     1
175
     1
 42
1.0
 92
        0
 66
     7
 43
1.0
 76
     1
 77
     6
 78
     2
 67
     7
 79
     5
170
     0
171
     0
290
     0
174
     0
 93
       13
 44
0.0
173
     0
291
     1
 45
0.0
  0
VISUALSTYLE
  5
283
102
{ACAD_REACTORS
330
27F
102
}
330
27F
100
AcDbVisualStyle
  2
GouraudWithEdges
 70
     3
 71
     2
 72
     2
 73
     1
 90
        2
 40
-0.6
 41
30.0
 62
     5
 63
     7
421
 16777215
 74
     1
 91
        4
 64
     7
 65
   257
 75
     1
175
     1
 42
1.0
 92
        0
 66
   257
 43
1.0
 76
     1
 77
     6
 78
     2
 67
     7
 79
     5
170
     0
171
     0
290
     0
174
     0
 93
       13
 44
0.0
173
     0
291
     1
 45
0.0
  0
VISUALSTYLE
  5
28D
102
{ACAD_REACTORS
330
27F
102
}
330
27F
100
AcDbVisualStyle
  2
Linepattern
 70
    14
 71
     2
 72
     2
 73
     0
 90
        0
 40
-0.6
 41
-30.0
 62
     5
 63
     7
421
 16777215
 74
     1
 91
        4
 64
     7
 65
   257
 75
     7
175
     7
 42
1.0
 92
        8
 66
     7
 43
1.0
 76
     1
 77
     6
 78
     2
 67
     7
 79
     5
170
     0
171
     0
290
     0
174
     0
 93
        1
 44
0.0
173
     0
291
     1
 45
0.0
  0
VISUALSTYLE
  5
289
102
{ACAD_REACTORS
330
27F
102
}
330
27F
100
AcDbVisualStyle
  2
Realistic
 70
     8
 71
     2
 72
     2
 73
     0
 90
        0
 40
-0.6
 41
-30.0
 62
     5
 63
     7
421
 16777215
 74
     1
 91
        0
 64
     7
 65
   257
 75
     1
175
     1
 42
1.0
 92
        8
 66
     8
424
  7895160
 43
1.0
 76
     1
 77
     6
 78
     2
 67
     7
 79
     5
170
     0
171
     0
290
     0
174
     0
 93
       13
 44
0.0
173
     0
291
     0
 45
0.0
  0
VISUALSTYLE
  5
28C
102
{ACAD_REACTORS
330
27F
102
}
330
27F
100
AcDbVisualStyle
  2
Thicken
 70
    13
 71
     2
 72
     2
 73
     0
 90
        0
 40
-0.6
 41
-30.0
 62
     5
 63
     7
421
 16777215
 74
     1
 91
        4
 64
     7
 65
   257
 75
     1
175
     1
 42
1.0
 92
       12
 66
     7
 43
1.0
 76
     1
 77
     6
 78
     2
 67
     7
 79
     5
170
     0
171
     0
290
     0
174
     0
 93
        1
 44
0.0
173
     0
291
     1
 45
0.0
  0
DICTIONARYVAR
  5
2FA
102
{ACAD_REACTORS
330
34
102
}
330
34
100
DictionaryVariables
280
     0
  1
1:5
  0
DICTIONARYVAR
  5
2F8
102
{ACAD_REACTORS
330
34
102
}
330
34
100
DictionaryVariables
280
     0
  1
STANDARD
  0
DICTIONARYVAR
  5
140
102
{ACAD_REACTORS
330
34
102
}
330
34
100
DictionaryVariables
280
     0
  1
STANDARD
  0
DICTIONARYVAR
  5
AC
102
{ACAD_REACTORS
330
34
102
}
330
34
100
DictionaryVariables
280
     0
  1
1
  0
DICTIONARYVAR
  5
35
102
{ACAD_REACTORS
330
34
102
}
330
34
100
DictionaryVariables
280
     0
  1
1
  0
DICTIONARYVAR
  5
5BD3
102
{ACAD_REACTORS
330
34
102
}
330
34
100
DictionaryVariables
280
     0
  1
1
  0
DICTIONARYVAR
  5
5BD4
102
{ACAD_REACTORS
330
34
102
}
330
34
100
DictionaryVariables
280
     0
  1
15
  0
DICTIONARYVAR
  5
2FB
102
{ACAD_REACTORS
330
34
102
}
330
34
100
DictionaryVariables
280
     0
  1
0
  0
DICTIONARYVAR
  5
2F9
102
{ACAD_REACTORS
330
34
102
}
330
34
100
DictionaryVariables
280
     0
  1
0
  0
DICTIONARY
  5
161B
102
{ACAD_REACTORS
330
49
102
}
330
49
100
AcDbDictionary
281
     1
  0
DICTIONARY
  5
4A
102
{ACAD_REACTORS
330
49
102
}
330
49
100
AcDbDictionary
281
     1
  0
XRECORD
  5
12B
102
{ACAD_REACTORS
330
49
102
}
330
49
100
AcDbXrecord
280
     1
 90
-1023410169
  0
DICTIONARY
  5
2F5
330
122
100
AcDbDictionary
280
     1
281
     1
  3
ACAD_ROUNDTRIP_2008_TABLESTYLE_CELLSTYLEMAP
360
6C74
  0
CELLSTYLEMAP
  5
6C74
102
{ACAD_REACTORS
330
2F5
102
}
330
2F5
100
AcDbCellStyleMap
 90
        3
300
CELLSTYLE
  1
TABLEFORMAT_BEGIN
 90
        5
170
     1
 91
        0
 92
    32768
 62
   257
 93
        1
300
CONTENTFORMAT
  1
CONTENTFORMAT_BEGIN
 90
        0
 91
        0
 92
      512
 93
        0
300

 40
0.0
140
1.0
 94
        5
 62
     0
340
11
144
6.0
309
CONTENTFORMAT_END
171
     1
301
MARGIN
  1
CELLMARGIN_BEGIN
 40
1.5
 40
1.5
 40
1.5
 40
1.5
 40
0.18
 40
0.18
309
CELLMARGIN_END
 94
        6
 95
        1
302
GRIDFORMAT
  1
GRIDFORMAT_BEGIN
 90
        0
 91
        1
 62
     0
 92
       -2
340
0
 93
        0
 40
0.045
309
GRIDFORMAT_END
 95
        2
302
GRIDFORMAT
  1
GRIDFORMAT_BEGIN
 90
        0
 91
        1
 62
     0
 92
       -2
340
0
 93
        0
 40
0.045
309
GRIDFORMAT_END
 95
        4
302
GRIDFORMAT
  1
GRIDFORMAT_BEGIN
 90
        0
 91
        1
 62
     0
 92
       -2
340
0
 93
        0
 40
0.045
309
GRIDFORMAT_END
 95
        8
302
GRIDFORMAT
  1
GRIDFORMAT_BEGIN
 90
        0
 91
        1
 62
     0
 92
       -2
340
0
 93
        0
 40
0.045
309
GRIDFORMAT_END
 95
       16
302
GRIDFORMAT
  1
GRIDFORMAT_BEGIN
 90
        0
 91
        1
 62
     0
 92
       -2
340
0
 93
        0
 40
0.045
309
GRIDFORMAT_END
 95
       32
302
GRIDFORMAT
  1
GRIDFORMAT_BEGIN
 90
        0
 91
        1
 62
     0
 92
       -2
340
0
 93
        0
 40
0.045
309
GRIDFORMAT_END
309
TABLEFORMAT_END
  1
CELLSTYLE_BEGIN
 90
        1
 91
        1
300
_TITLE
309
CELLSTYLE_END
300
CELLSTYLE
  1
TABLEFORMAT_BEGIN
 90
        5
170
     1
 91
        0
 92
        0
 62
   257
 93
        1
300
CONTENTFORMAT
  1
CONTENTFORMAT_BEGIN
 90
        0
 91
        0
 92
      512
 93
        0
300

 40
0.0
140
1.0
 94
        5
 62
     0
340
11
144
4.5
309
CONTENTFORMAT_END
171
     1
301
MARGIN
  1
CELLMARGIN_BEGIN
 40
1.5
 40
1.5
 40
1.5
 40
1.5
 40
0.18
 40
0.18
309
CELLMARGIN_END
 94
        6
 95
        1
302
GRIDFORMAT
  1
GRIDFORMAT_BEGIN
 90
        0
 91
        1
 62
     0
 92
       -2
340
0
 93
        0
 40
0.045
309
GRIDFORMAT_END
 95
        2
302
GRIDFORMAT
  1
GRIDFORMAT_BEGIN
 90
        0
 91
        1
 62
     0
 92
       -2
340
0
 93
        0
 40
0.045
309
GRIDFORMAT_END
 95
        4
302
GRIDFORMAT
  1
GRIDFORMAT_BEGIN
 90
        0
 91
        1
 62
     0
 92
       -2
340
0
 93
        0
 40
0.045
309
GRIDFORMAT_END
 95
        8
302
GRIDFORMAT
  1
GRIDFORMAT_BEGIN
 90
        0
 91
        1
 62
     0
 92
       -2
340
0
 93
        0
 40
0.045
309
GRIDFORMAT_END
 95
       16
302
GRIDFORMAT
  1
GRIDFORMAT_BEGIN
 90
        0
 91
        1
 62
     0
 92
       -2
340
0
 93
        0
 40
0.045
309
GRIDFORMAT_END
 95
       32
302
GRIDFORMAT
  1
GRIDFORMAT_BEGIN
 90
        0
 91
        1
 62
     0
 92
       -2
340
0
 93
        0
 40
0.045
309
GRIDFORMAT_END
309
TABLEFORMAT_END
  1
CELLSTYLE_BEGIN
 90
        2
 91
        1
300
_HEADER
309
CELLSTYLE_END
300
CELLSTYLE
  1
TABLEFORMAT_BEGIN
 90
        5
170
     1
 91
        0
 92
        0
 62
   257
 93
        1
300
CONTENTFORMAT
  1
CONTENTFORMAT_BEGIN
 90
        0
 91
        0
 92
      512
 93
        0
300

 40
0.0
140
1.0
 94
        2
 62
     0
340
11
144
4.5
309
CONTENTFORMAT_END
171
     1
301
MARGIN
  1
CELLMARGIN_BEGIN
 40
1.5
 40
1.5
 40
1.5
 40
1.5
 40
0.18
 40
0.18
309
CELLMARGIN_END
 94
        6
 95
        1
302
GRIDFORMAT
  1
GRIDFORMAT_BEGIN
 90
        0
 91
        1
 62
     0
 92
       -2
340
0
 93
        0
 40
0.045
309
GRIDFORMAT_END
 95
        2
302
GRIDFORMAT
  1
GRIDFORMAT_BEGIN
 90
        0
 91
        1
 62
     0
 92
       -2
340
0
 93
        0
 40
0.045
309
GRIDFORMAT_END
 95
        4
302
GRIDFORMAT
  1
GRIDFORMAT_BEGIN
 90
        0
 91
        1
 62
     0
 92
       -2
340
0
 93
        0
 40
0.045
309
GRIDFORMAT_END
 95
        8
302
GRIDFORMAT
  1
GRIDFORMAT_BEGIN
 90
        0
 91
        1
 62
     0
 92
       -2
340
0
 93
        0
 40
0.045
309
GRIDFORMAT_END
 95
       16
302
GRIDFORMAT
  1
GRIDFORMAT_BEGIN
 90
        0
 91
        1
 62
     0
 92
       -2
340
0
 93
        0
 40
0.045
309
GRIDFORMAT_END
 95
       32
302
GRIDFORMAT
  1
GRIDFORMAT_BEGIN
 90
        0
 91
        1
 62
     0
 92
       -2
340
0
 93
        0
 40
0.045
309
GRIDFORMAT_END
309
TABLEFORMAT_END
  1
CELLSTYLE_BEGIN
 90
        3
 91
        2
300
_DATA
309
CELLSTYLE_END
  0
ENDSEC
  0
EOF
