  0
SECTION
  2
HEADER
  9
$ACADVER
  1
AC1021
  9
$ACADMAINTVER
 70
    26
  9
$DWGCODEPAGE
  3
ANSI_932
  9
$LASTSAVEDBY
  1
Htm_Terada
  9
$CUSTOMPROPERTYTAG
  1
AmdtFileType
  9
$CUSTOMPROPERTY
  1
84
  9
$INSBASE
 10
0.0
 20
0.0
 30
0.0
  9
$EXTMIN
 10
521.2158503468428
 20
527.1536838290638
 30
0.0
  9
$EXTMAX
 10
1293.168156347362
 20
1067.333175729064
 30
0.0
  9
$LIMMIN
 10
0.0000007657354217
 20
0.000001477528258
  9
$LIMMAX
 10
1680.000000765735
 20
1188.000001477528
  9
$ORTHOMODE
 70
     1
  9
$REGENMODE
 70
     1
  9
$FILLMODE
 70
     1
  9
$QTEXTMODE
 70
     0
  9
$MIRRTEXT
 70
     1
  9
$LTSCALE
 40
4.0
  9
$ATTMODE
 70
     1
  9
$TEXTSIZE
 40
25.0
  9
$TRACEWID
 40
1.0
  9
$TEXTSTYLE
  7
SEISA
  9
$CLAYER
  8
AM_5 寸法線
  9
$CELTYPE
  6
ByLayer
  9
$CECOLOR
 62
   256
  9
$CELTSCALE
 40
1.0
  9
$DISPSILH
 70
     0
  9
$DIMSCALE
 40
4.0
  9
$DIMASZ
 40
2.5
  9
$DIMEXO
 40
0.625
  9
$DIMDLI
 40
10.0
  9
$DIMRND
 40
0.0
  9
$DIMDLE
 40
0.0
  9
$DIMEXE
 40
0.625
  9
$DIMTP
 40
0.1
  9
$DIMTM
 40
0.1
  9
$DIMTXT
 40
3.5
  9
$DIMCEN
 40
0.0
  9
$DIMTSZ
 40
0.0
  9
$DIMTOL
 70
     0
  9
$DIMLIM
 70
     0
  9
$DIMTIH
 70
     0
  9
$DIMTOH
 70
     0
  9
$DIMSE1
 70
     0
  9
$DIMSE2
 70
     0
  9
$DIMTAD
 70
     3
  9
$DIMZIN
 70
     8
  9
$DIMBLK
  1
Open30
  9
$DIMASO
 70
     1
  9
$DIMSHO
 70
     1
  9
$DIMPOST
  1

  9
$DIMAPOST
  1
"
  9
$DIMALT
 70
     0
  9
$DIMALTD
 70
     2
  9
$DIMALTF
 40
0.0393701
  9
$DIMLFAC
 40
1.0
  9
$DIMTOFL
 70
     1
  9
$DIMTVP
 40
0.0
  9
$DIMTIX
 70
     0
  9
$DIMSOXD
 70
     0
  9
$DIMSAH
 70
     0
  9
$DIMBLK1
  1

  9
$DIMBLK2
  1

  9
$DIMSTYLE
  2
SEISA
  9
$DIMCLRD
 70
     3
  9
$DIMCLRE
 70
     3
  9
$DIMCLRT
 70
     3
  9
$DIMTFAC
 40
0.71
  9
$DIMGAP
 40
1.5
  9
$DIMJUST
 70
     0
  9
$DIMSD1
 70
     0
  9
$DIMSD2
 70
     0
  9
$DIMTOLJ
 70
     0
  9
$DIMTZIN
 70
     0
  9
$DIMALTZ
 70
     0
  9
$DIMALTTZ
 70
     8
  9
$DIMUPT
 70
     0
  9
$DIMDEC
 70
     2
  9
$DIMTDEC
 70
     2
  9
$DIMALTU
 70
     2
  9
$DIMALTTD
 70
     2
  9
$DIMTXSTY
  7
SEISA
  9
$DIMAUNIT
 70
     0
  9
$DIMADEC
 70
     0
  9
$DIMALTRND
 40
0.0
  9
$DIMAZIN
 70
     2
  9
$DIMDSEP
 70
    46
  9
$DIMATFIT
 70
     3
  9
$DIMFRAC
 70
     0
  9
$DIMLDRBLK
  1
Open30
  9
$DIMLUNIT
 70
     2
  9
$DIMLWD
 70
    -1
  9
$DIMLWE
 70
    -1
  9
$DIMTMOVE
 70
     0
  9
$DIMFXL
 40
1.0
  9
$DIMFXLON
 70
     0
  9
$DIMJOGANG
 40
0.7853981633974483
  9
$DIMTFILL
 70
     0
  9
$DIMTFILLCLR
 70
     0
  9
$DIMARCSYM
 70
     1
  9
$DIMLTYPE
  6

  9
$DIMLTEX1
  6

  9
$DIMLTEX2
  6

  9
$LUNITS
 70
     2
  9
$LUPREC
 70
     2
  9
$SKETCHINC
 40
1.0
  9
$FILLETRAD
 40
10.0
  9
$AUNITS
 70
     0
  9
$AUPREC
 70
     0
  9
$MENU
  1
.
  9
$ELEVATION
 40
0.0
  9
$PELEVATION
 40
0.0
  9
$THICKNESS
 40
0.0
  9
$LIMCHECK
 70
     0
  9
$CHAMFERA
 40
4.000000000000227
  9
$CHAMFERB
 40
4.000000000000453
  9
$CHAMFERC
 40
4.000000000000227
  9
$CHAMFERD
 40
0.7853981633974625
  9
$SKPOLY
 70
     0
  9
$TDCREATE
 40
2454914.398847547
  9
$TDUCREATE
 40
2454914.023847547
  9
$TDUPDATE
 40
2456478.706817847
  9
$TDUUPDATE
 40
2456478.331817848
  9
$TDINDWG
 40
0.3444871065
  9
$TDUSRTIMER
 40
0.3444862037
  9
$USRTIMER
 70
     1
  9
$ANGBASE
 50
0.0
  9
$ANGDIR
 70
     0
  9
$PDMODE
 70
     0
  9
$PDSIZE
 40
0.0
  9
$PLINEWID
 40
0.0
  9
$SPLFRAME
 70
     0
  9
$SPLINETYPE
 70
     6
  9
$SPLINESEGS
 70
     8
  9
$HANDSEED
  5
70E6
  9
$SURFTAB1
 70
     6
  9
$SURFTAB2
 70
     6
  9
$SURFTYPE
 70
     6
  9
$SURFU
 70
     6
  9
$SURFV
 70
     6
  9
$UCSBASE
  2

  9
$UCSNAME
  2

  9
$UCSORG
 10
0.0
 20
0.0
 30
0.0
  9
$UCSXDIR
 10
1.0
 20
0.0
 30
0.0
  9
$UCSYDIR
 10
0.0
 20
1.0
 30
0.0
  9
$UCSORTHOREF
  2

  9
$UCSORTHOVIEW
 70
     0
  9
$UCSORGTOP
 10
0.0
 20
0.0
 30
0.0
  9
$UCSORGBOTTOM
 10
0.0
 20
0.0
 30
0.0
  9
$UCSORGLEFT
 10
0.0
 20
0.0
 30
0.0
  9
$UCSORGRIGHT
 10
0.0
 20
0.0
 30
0.0
  9
$UCSORGFRONT
 10
0.0
 20
0.0
 30
0.0
  9
$UCSORGBACK
 10
0.0
 20
0.0
 30
0.0
  9
$PUCSBASE
  2

  9
$PUCSNAME
  2

  9
$PUCSORG
 10
0.0
 20
0.0
 30
0.0
  9
$PUCSXDIR
 10
1.0
 20
0.0
 30
0.0
  9
$PUCSYDIR
 10
0.0
 20
1.0
 30
0.0
  9
$PUCSORTHOREF
  2

  9
$PUCSORTHOVIEW
 70
     0
  9
$PUCSORGTOP
 10
0.0
 20
0.0
 30
0.0
  9
$PUCSORGBOTTOM
 10
0.0
 20
0.0
 30
0.0
  9
$PUCSORGLEFT
 10
0.0
 20
0.0
 30
0.0
  9
$PUCSORGRIGHT
 10
0.0
 20
0.0
 30
0.0
  9
$PUCSORGFRONT
 10
0.0
 20
0.0
 30
0.0
  9
$PUCSORGBACK
 10
0.0
 20
0.0
 30
0.0
  9
$USERI1
 70
     0
  9
$USERI2
 70
     0
  9
$USERI3
 70
     0
  9
$USERI4
 70
     0
  9
$USERI5
 70
     0
  9
$USERR1
 40
0.0
  9
$USERR2
 40
0.0
  9
$USERR3
 40
0.0
  9
$USERR4
 40
0.0
  9
$USERR5
 40
0.0
  9
$WORLDVIEW
 70
     1
  9
$SHADEDGE
 70
     3
  9
$SHADEDIF
 70
    70
  9
$TILEMODE
 70
     1
  9
$MAXACTVP
 70
    64
  9
$PINSBASE
 10
0.0
 20
0.0
 30
0.0
  9
$PLIMCHECK
 70
     0
  9
$PEXTMIN
 10
1.000000000000000E+20
 20
1.000000000000000E+20
 30
1.000000000000000E+20
  9
$PEXTMAX
 10
-1.000000000000000E+20
 20
-1.000000000000000E+20
 30
-1.000000000000000E+20
  9
$PLIMMIN
 10
0.0
 20
0.0
  9
$PLIMMAX
 10
420.0
 20
297.0
  9
$UNITMODE
 70
     0
  9
$VISRETAIN
 70
     1
  9
$PLINEGEN
 70
     0
  9
$PSLTSCALE
 70
     1
  9
$TREEDEPTH
 70
  3020
  9
$CMLSTYLE
  2
Standard
  9
$CMLJUST
 70
     0
  9
$CMLSCALE
 40
20.0
  9
$PROXYGRAPHICS
 70
     1
  9
$MEASUREMENT
 70
     1
  9
$CELWEIGHT
370
    -1
  9
$ENDCAPS
280
     0
  9
$JOINSTYLE
280
     0
  9
$LWDISPLAY
290
     0
  9
$INSUNITS
 70
     4
  9
$HYPERLINKBASE
  1

  9
$STYLESHEET
  1
SEISA.CTB
  9
$XEDIT
290
     1
  9
$CEPSNTYPE
380
     0
  9
$PSTYLEMODE
290
     1
  9
$FINGERPRINTGUID
  2
{7F3C1082-188B-4333-A6EE-CC9EFCD0EB53}
  9
$VERSIONGUID
  2
{CE893A08-27FB-4D83-AE79-82B49CD9AF72}
  9
$EXTNAMES
290
     1
  9
$PSVPSCALE
 40
0.0
  9
$OLESTARTUP
290
     0
  9
$SORTENTS
280
   127
  9
$INDEXCTL
280
     0
  9
$HIDETEXT
280
     0
  9
$XCLIPFRAME
290
     0
  9
$HALOGAP
280
     0
  9
$OBSCOLOR
 70
   257
  9
$OBSLTYPE
280
     0
  9
$INTERSECTIONDISPLAY
280
     0
  9
$INTERSECTIONCOLOR
 70
   257
  9
$DIMASSOC
280
     2
  9
$PROJECTNAME
  1

  9
$CAMERADISPLAY
290
     0
  9
$LENSLENGTH
 40
50.0
  9
$CAMERAHEIGHT
 40
0.0
  9
$STEPSPERSEC
 40
2.0
  9
$STEPSIZE
 40
6.0
  9
$3DDWFPREC
 40
2.0
  9
$PSOLWIDTH
 40
0.25
  9
$PSOLHEIGHT
 40
4.0
  9
$LOFTANG1
 40
1.570796326794896
  9
$LOFTANG2
 40
1.570796326794896
  9
$LOFTMAG1
 40
0.0
  9
$LOFTMAG2
 40
0.0
  9
$LOFTPARAM
 70
     7
  9
$LOFTNORMALS
280
     1
  9
$LATITUDE
 40
37.795
  9
$LONGITUDE
 40
-122.394
  9
$NORTHDIRECTION
 40
0.0
  9
$TIMEZONE
 70
 -8000
  9
$LIGHTGLYPHDISPLAY
280
     1
  9
$TILEMODELIGHTSYNCH
280
     1
  9
$CMATERIAL
347
27C
  9
$SOLIDHIST
280
     1
  9
$SHOWHIST
280
     1
  9
$DWFFRAME
280
     2
  9
$DGNFRAME
280
     0
  9
$REALWORLDSCALE
290
     1
  9
$INTERFERECOLOR
 62
     1
  9
$INTERFEREOBJVS
345
289
  9
$INTERFEREVPVS
346
286
  9
$CSHADOW
280
     0
  9
$SHADOWPLANELOCATION
 40
0.0
  0
ENDSEC
  0
SECTION
  2
CLASSES
  0
CLASS
  1
ACDBDICTIONARYWDFLT
  2
AcDbDictionaryWithDefault
  3
ObjectDBX Classes
 90
        0
 91
        1
280
     0
281
     0
  0
CLASS
  1
AMGSETTINGSOBJ
  2
AmgSettingsObj
  3
"AcadM|Product Description: AutoCAD Mechanical|Company: Autodesk, Inc."
 90
     1024
 91
        2
280
     0
281
     0
  0
CLASS
  1
ACME_DOCUMENT
  2
AcMeDbDoc
  3
AcMeServices
 90
     1024
 91
        1
280
     0
281
     0
  0
CLASS
  1
ACMESCOPE
  2
AcMeScope
  3
AcMeServices
 90
     1024
 91
        1
280
     0
281
     0
  0
CLASS
  1
ACMECOMMANDHISTORY
  2
AcMeCommandHistory
  3
AcMeServices
 90
     1024
 91
        1
280
     0
281
     0
  0
CLASS
  1
DICTIONARYVAR
  2
AcDbDictionaryVar
  3
ObjectDBX Classes
 90
        0
 91
        9
280
     0
281
     0
  0
CLASS
  1
ACIMSYSVARMAN
  2
AcImSysVarManager
  3
AcMeServices
 90
     1024
 91
        5
280
     0
281
     0
  0
CLASS
  1
ACIMREALSYSVAR
  2
AcImRealSysVar
  3
AcMeServices
 90
     1024
 91
        1
280
     0
281
     0
  0
CLASS
  1
ACIMINTSYSVAR
  2
AcImIntSysVar
  3
AcMeServices
 90
     1024
 91
       27
280
     0
281
     0
  0
CLASS
  1
ACMEDRAWINGMAN
  2
AcMeDrawingMan
  3
AcMeServices
 90
     1024
 91
        1
280
     0
281
     0
  0
CLASS
  1
ACMEVIEW
  2
AcMeView
  3
AcMeServices
 90
     1024
 91
        1
280
     0
281
     0
  0
CLASS
  1
ACDBENTITYCACHE
  2
AcMeEntityCache
  3
AcMeServices
 90
     1024
 91
        1
280
     0
281
     0
  0
CLASS
  1
GSMANAGER
  2
AcMeGSManager
  3
AcMeServices
 90
     1024
 91
        1
280
     0
281
     0
  0
CLASS
  1
AMDTINTERNALREACTOR
  2
AmdtInternalReactor
  3
AcMeServices
 90
     1024
 91
        2
280
     0
281
     0
  0
CLASS
  1
ACMESTATEMGR
  2
AcMeStateMgr
  3
AcMeServices
 90
     1024
 91
        1
280
     0
281
     0
  0
CLASS
  1
ACGREFMASTER
  2
AcGrefMaster
  3
AcAttribServices
 90
     1024
 91
        1
280
     0
281
     0
  0
CLASS
  1
ACME_DATABASE
  2
AcMeDbDatabase
  3
AcMeServices
 90
     1024
 91
        1
280
     0
281
     0
  0
CLASS
  1
ACRFINSADJUSTERMGR
  2
AcRfInsAdjusterMgr
  3
AcMeServices
 90
     1024
 91
        1
280
     0
281
     0
  0
CLASS
  1
ACGREFACADMASTER
  2
AcGrefacadMaster
  3
AcGrefServices
 90
     1024
 91
        1
280
     0
281
     0
  0
CLASS
  1
AMIMASTER
  2
AmiMaster
  3
AmiServices
 90
     1024
 91
        1
280
     0
281
     0
  0
CLASS
  1
ACIMSTRSYSVAR
  2
AcImStrSysVar
  3
AcMeServices
 90
     1024
 91
        5
280
     0
281
     0
  0
CLASS
  1
ACMSTANDARDJIS
  2
AcmStandardJIS
  3
"Amdt_StdImp|Product Description: AutoCAD Mechanical|Company: Autodesk, Inc."
 90
     1024
 91
        0
280
     0
281
     0
  0
CLASS
  1
AMGOBJPROPCFG
  2
AmgObjPropCfg
  3
"AmgLay|Product Description: AutoCAD Mechanical|Company: Autodesk, Inc."
 90
     1025
 91
        1
280
     0
281
     0
  0
CLASS
  1
ACMSURFSTANDARDJIS
  2
AcmSurfTextStdJIS
  3
"Amdt_StdImp|Product Description: AutoCAD Mechanical|Company: Autodesk, Inc."
 90
     1024
 91
        0
280
     0
281
     0
  0
CLASS
  1
ACMFCFSTANDARDJIS
  2
AcmFCFStdJIS
  3
"Amdt_StdImp|Product Description: AutoCAD Mechanical|Company: Autodesk, Inc."
 90
     1024
 91
        0
280
     0
281
     0
  0
CLASS
  1
ACMWELDSTANDARDJIS
  2
AcmWeldingStdJIS
  3
"Amdt_StdImp|Product Description: AutoCAD Mechanical|Company: Autodesk, Inc."
 90
     1024
 91
        0
280
     0
281
     0
  0
CLASS
  1
ACMIDSTANDARDJIS
  2
AcmIdStdJIS
  3
"Amdt_StdImp|Product Description: AutoCAD Mechanical|Company: Autodesk, Inc."
 90
     1024
 91
        0
280
     0
281
     0
  0
CLASS
  1
ACMDATUMSTANDARDJIS
  2
AcmDatumStdJIS
  3
"Amdt_StdImp|Product Description: AutoCAD Mechanical|Company: Autodesk, Inc."
 90
     1024
 91
        0
280
     0
281
     0
  0
CLASS
  1
ACMBOMSTANDARDJIS
  2
AcmBOMStdJIS
  3
"Amdt_StdImp|Product Description: AutoCAD Mechanical|Company: Autodesk, Inc."
 90
     1024
 91
        0
280
     0
281
     0
  0
CLASS
  1
ACMDETAILSTANDARDJIS
  2
AmdtDetailSymStdJIS
  3
"Amdt_StdImp|Product Description: AutoCAD Mechanical|Company: Autodesk, Inc."
 90
     1024
 91
        0
280
     0
281
     0
  0
CLASS
  1
ACMSECTIONSTANDARDJIS
  2
AmdtSectionSymStdJIS
  3
"Amdt_StdImp|Product Description: AutoCAD Mechanical|Company: Autodesk, Inc."
 90
     1024
 91
        0
280
     0
281
     0
  0
CLASS
  1
ACMCENTERLINESTANDARDJIS
  2
AmdtCenterLineStdJIS
  3
"Amdt_StdImp|Product Description: AutoCAD Mechanical|Company: Autodesk, Inc."
 90
     1024
 91
        0
280
     0
281
     0
  0
CLASS
  1
ACMTHREADLINESTANDARDJIS
  2
AmdtThreadLineStdJIS
  3
"Amdt_StdImp|Product Description: AutoCAD Mechanical|Company: Autodesk, Inc."
 90
     1024
 91
        0
280
     0
281
     0
  0
CLASS
  1
ACAMGLAYSTD
  2
AcAmgLayStd
  3
"AmgLay|Product Description: AutoCAD Mechanical|Company: Autodesk, Inc."
 90
     1024
 91
        1
280
     0
281
     0
  0
CLASS
  1
ACAMGDIMSTD
  2
AcAmgDimStd
  3
"AmgDim|Product Description: AutoCAD Mechanical|Company: Autodesk, Inc."
 90
     1024
 91
        1
280
     0
281
     0
  0
CLASS
  1
ACAMGTITLESTD
  2
AcAmgTitleStd
  3
"AmgTitle|Product Description: AutoCAD Mechanical|Company: Autodesk, Inc."
 90
     4095
 91
        1
280
     0
281
     0
  0
CLASS
  1
ACMDATADICTIONARY
  2
AcmDataDictionary
  3
"AcmSymBB|Product Description: AutoCAD Mechanical|Company: Autodesk, Inc."
 90
     1024
 91
        1
280
     0
281
     0
  0
CLASS
  1
ACMDATAENTRYBLOCK
  2
AcmDataEntryBlock
  3
AcmSymBB|Product Description: AutoCAD Mechanical|Company: Autodesk, Inc.
 90
     1024
 91
        0
280
     0
281
     0
  0
CLASS
  1
LAYER_INDEX
  2
AcDbLayerIndex
  3
ObjectDBX Classes
 90
        0
 91
        0
280
     0
281
     0
  0
CLASS
  1
IDBUFFER
  2
AcDbIdBuffer
  3
ObjectDBX Classes
 90
        0
 91
        0
280
     0
281
     0
  0
CLASS
  1
ACMNOTESTANDARDJIS
  2
AmdtNoteStdJIS
  3
"Amdt_StdImp|Product Description: AutoCAD Mechanical|Company: Autodesk, Inc."
 90
     1024
 91
        0
280
     0
281
     0
  0
CLASS
  1
ACAMGHOLECHARTSTDJIS
  2
AcAmgHoleChartStdJIS
  3
AmgDim|Product Description: AutoCAD Mechanical|Company: Autodesk, Inc.
 90
     1024
 91
        0
280
     0
281
     0
  0
CLASS
  1
AM_DRAWING_MGR
  2
AcDmDwgMgr
  3
AcMechDwgViewMgmt
 90
     1024
 91
        1
280
     0
281
     0
  0
CLASS
  1
AM_DWG_DOCUMENT
  2
AcDmDwgDocument
  3
AcMechDwgViewMgmt
 90
     1024
 91
        1
280
     0
281
     0
  0
CLASS
  1
AM_DWG_SHEET
  2
AcDmSheet
  3
AcMechDwgViewMgmt
 90
     1024
 91
        2
280
     0
281
     0
  0
CLASS
  1
AM_VIEWDIMPARMAP
  2
AcDmViewDimParMap
  3
AcMechDwgViewMgmt
 90
     1024
 91
        2
280
     0
281
     0
  0
CLASS
  1
AM_DWGMGR_NAME
  2
AcDmDwgMgrName
  3
AcMechDwgViewMgmt
 90
     1024
 91
        1
280
     0
281
     0
  0
CLASS
  1
AMDTMENUSTATEMGR
  2
AmdtMenuStateMgr
  3
McadcomServices
 90
     1024
 91
        1
280
     0
281
     0
  0
CLASS
  1
AMDTMCOMMENUSTATE
  2
AmdtMcomMenuState
  3
McadcomServices
 90
     1024
 91
        1
280
     0
281
     0
  0
CLASS
  1
MAPIAMMOUDLE
  2
MApiAmModule
  3
MApiAmServices
 90
     1024
 91
        1
280
     0
281
     0
  0
CLASS
  1
AMDTADMENUSTATE
  2
AmdtAdMenuState
  3
DesignerServices
 90
     1024
 91
        1
280
     0
281
     0
  0
CLASS
  1
ADAPPL
  2
AcAdAppl
  3
DesignerServices
 90
     1024
 91
        1
280
     0
281
     0
  0
CLASS
  1
DEPMGR
  2
AcAdDepMgr
  3
DesignerServices
 90
     1024
 91
        1
280
     0
281
     0
  0
CLASS
  1
PARAMMGR
  2
AcAdParamMgr
  3
DesignerServices
 90
     1024
 91
        1
280
     0
281
     0
  0
CLASS
  1
PARAMSCOPE
  2
AcAdParamScope
  3
DesignerServices
 90
     1024
 91
        1
280
     0
281
     0
  0
CLASS
  1
NAMEDAPPL
  2
AcAdNamedAppl
  3
DesignerServices
 90
     1024
 91
        1
280
     0
281
     0
  0
CLASS
  1
AMDTDMMENUSTATE
  2
AmdtDmMenuState
  3
AcMechDwgViewMgmt
 90
     1024
 91
        1
280
     0
281
     0
  0
CLASS
  1
AMDTAMMENUSTATE
  2
AmdtAmMenuState
  3
DesignerAssemblies
 90
     1024
 91
        1
280
     0
281
     0
  0
CLASS
  1
ACAMPROJECT
  2
AcAmProject
  3
DesignerAssemblies
 90
     1024
 91
        1
280
     0
281
     0
  0
CLASS
  1
ACAMGRCOMPDEF
  2
AcAmGrCompDef
  3
DesignerAssemblies
 90
     1024
 91
        1
280
     0
281
     0
  0
CLASS
  1
ACCMCONTEXT
  2
AcCmContext
  3
DesignerAssemblies
 90
     1024
 91
        1
280
     0
281
     0
  0
CLASS
  1
ACAMCOMPDEF
  2
AcAmCompDef
  3
DesignerAssemblies
 90
     1024
 91
        1
280
     0
281
     0
  0
CLASS
  1
ACAMCOMPDEFMGR
  2
AcAmCompDefMgr
  3
DesignerAssemblies
 90
     1024
 91
        1
280
     0
281
     0
  0
CLASS
  1
AMCONTEXTMGR
  2
AcAmContextMgr
  3
DesignerAssemblies
 90
     1024
 91
        1
280
     0
281
     0
  0
CLASS
  1
ACAMCONTEXTMODELER
  2
AcAmContextModeler
  3
DesignerAssemblies
 90
     1024
 91
        1
280
     0
281
     0
  0
CLASS
  1
CATALOGSTATE
  2
AcAmCatalogState
  3
DesignerAssemblies
 90
     1024
 91
        1
280
     0
281
     0
  0
CLASS
  1
ACAMGRCOMPDEFSET
  2
AcAmGrCompDefSet
  3
DesignerAssemblies
 90
     1024
 91
        1
280
     0
281
     0
  0
CLASS
  1
AMDTBROWSERDBTAB
  2
AmdtBrowserDbTab
  3
McadcomServices
 90
     1024
 91
        1
280
     0
281
     0
  0
CLASS
  1
CBROWSERAPPOBJECT
  2
CBrowserAppObject
  3
McadcomServices
 90
     1024
 91
        3
280
     0
281
     0
  0
CLASS
  1
DM_PLACEHOLDER
  2
AcDmSelsetPlaceholder
  3
AcMechDwgViewMgmt
 90
     1024
 91
        1
280
     0
281
     0
  0
CLASS
  1
TABLESTYLE
  2
AcDbTableStyle
  3
ObjectDBX Classes
 90
     4095
 91
        1
280
     0
281
     0
  0
CLASS
  1
VAACXREFPANELOBJECT
  2
VaAcXREFPanelObject
  3
VAAC_ADDIN
 90
        0
 91
        0
280
     0
281
     0
  0
CLASS
  1
VAACIMAGEINVENTORY
  2
VaAcImageInventory
  3
VAAC_ADDIN
 90
        0
 91
        0
280
     0
281
     0
  0
CLASS
  1
AMDTNOTETEMPLATEDB
  2
AmdtNoteTemplateDB
  3
AcmSymBB|Product Description: AutoCAD Mechanical|Company: Autodesk, Inc.
 90
     1024
 91
        6
280
     0
281
     0
  0
CLASS
  1
ACAMGFILTERDAT
  2
AcAmgFilterDat
  3
"AcadM|Product Description: AutoCAD Mechanical|Company: Autodesk, Inc."
 90
     1024
 91
        0
280
     0
281
     0
  0
CLASS
  1
MATERIAL
  2
AcDbMaterial
  3
ObjectDBX Classes
 90
     1153
 91
        3
280
     0
281
     0
  0
CLASS
  1
VISUALSTYLE
  2
AcDbVisualStyle
  3
ObjectDBX Classes
 90
     4095
 91
       16
280
     0
281
     0
  0
CLASS
  1
ACRFATTGENMGR
  2
AcRfAttGeneralMgr
  3
AcAttribServices
 90
     1024
 91
        0
280
     0
281
     0
  0
CLASS
  1
ACRFOBJATTMGR
  2
AcRfObjAttGroupMgr
  3
AcAttribServices
 90
     1024
 91
        0
280
     0
281
     0
  0
CLASS
  1
ACRFMCADAPIATTHOLDER
  2
AcRfMCADAPIAttHolder
  3
AcAttribServices
 90
     1024
 91
        0
280
     0
281
     0
  0
CLASS
  1
AMDTSYSATTR
  2
AmdtSystemAttribute
  3
AcAttribServices
 90
     1024
 91
        0
280
     0
281
     0
  0
CLASS
  1
ACMTAPERSTANDARDJIS
  2
AcmTaperStdJIS
  3
"Amdt_StdImp|Product Description: AutoCAD Mechanical|Company: Autodesk, Inc."
 90
     1024
 91
        0
280
     0
281
     0
  0
CLASS
  1
CAMSSTRUCTBTNSTATE
  2
StructBtnState
  3
DesignerAssemblies
 90
     1024
 91
        0
280
     0
281
     0
  0
CLASS
  1
SCALE
  2
AcDbScale
  3
ObjectDBX Classes
 90
     1153
 91
       36
280
     0
281
     0
  0
CLASS
  1
MLEADERSTYLE
  2
AcDbMLeaderStyle
  3
ACDB_MLEADERSTYLE_CLASS
 90
     4095
 91
        1
280
     0
281
     0
  0
CLASS
  1
ACMANOOTATIONVIEWSTANDARDJIS
  2
AmdtAnViewStdJIS
  3
"Amdt_StdImp|Product Description: AutoCAD Mechanical|Company: Autodesk, Inc."
 90
     1024
 91
        0
280
     0
281
     0
  0
CLASS
  1
ACMSURFSTANDARDJIS2003
  2
AcmSurfTextStdJIS2003
  3
"Amdt_StdImp|Product Description: AutoCAD Mechanical|Company: Autodesk, Inc."
 90
     1024
 91
        0
280
     0
281
     0
  0
CLASS
  1
CELLSTYLEMAP
  2
AcDbCellStyleMap
  3
ObjectDBX Classes
 90
     1152
 91
        2
280
     0
281
     0
  0
CLASS
  1
ACMFCFSTANDARDJIS98
  2
AcmFCFStdJIS98
  3
"Amdt_StdImp|Product Description: AutoCAD Mechanical|Company: Autodesk, Inc."
 90
     1024
 91
        0
280
     0
281
     0
  0
CLASS
  1
SORTENTSTABLE
  2
AcDbSortentsTable
  3
ObjectDBX Classes
 90
        0
 91
        9
280
     0
281
     0
  0
CLASS
  1
DIMASSOC
  2
AcDbDimAssoc
  3
"AcDbDimAssoc|Product Desc:     AcDim ARX App For Dimension|Company:          Autodesk, Inc.|WEB Address:      www.autodesk.com"
 90
        0
 91
       17
280
     0
281
     0
  0
CLASS
  1
STDPART2D
  2
AmgStdPart
  3
AmgStdPart|Product Description: AutoCAD Mechanical|Company: Autodesk, Inc.
 90
     4095
 91
        0
280
     0
281
     1
  0
CLASS
  1
ACMDATAENTRYPART
  2
AcmDataEntryPart
  3
AcmSymBB|Product Description: AutoCAD Mechanical|Company: Autodesk, Inc.
 90
     1024
 91
        0
280
     0
281
     0
  0
CLASS
  1
ACMPARTREF
  2
AcmPartRef
  3
"AcmSymBB|Product Description: AutoCAD Mechanical|Company: Autodesk, Inc."
 90
     4095
 91
        0
280
     0
281
     1
  0
CLASS
  1
ACDBSTDPARTRES_LINE
  2
AcDbStdPartRes_Line
  3
AmgStdPart|Product Description: AutoCAD Mechanical|Company: Autodesk, Inc.
 90
     1024
 91
        0
280
     0
281
     0
  0
CLASS
  1
ACMBOM
  2
AcmBom
  3
"AcmSymBB|Product Description: AutoCAD Mechanical|Company: Autodesk, Inc."
 90
     1024
 91
        0
280
     0
281
     0
  0
CLASS
  1
AMDTFORMULAUPDATEDISPATCHER
  2
AmdtFormulaUpdateDispatcher
  3
AcMeServices
 90
     1024
 91
        0
280
     0
281
     0
  0
CLASS
  1
ACMBOMROW
  2
AcmBomRow
  3
"AcmSymBB|Product Description: AutoCAD Mechanical|Company: Autodesk, Inc."
 90
     1024
 91
        0
280
     0
281
     0
  0
CLASS
  1
ACMPARTLIST
  2
AcmPartList
  3
"AcmSymBB|Product Description: AutoCAD Mechanical|Company: Autodesk, Inc."
 90
     4095
 91
        0
280
     0
281
     1
  0
CLASS
  1
ACDBLINERES
  2
AcDbLineRes
  3
AcGrefServices
 90
     1024
 91
        0
280
     0
281
     0
  0
CLASS
  1
ACRFINSADJ
  2
AcRfInsAdjuster
  3
AcMeServices
 90
     1024
 91
        0
280
     0
281
     0
  0
CLASS
  1
ACMSTANDARDISO
  2
AcmStandardISO
  3
"Amdt_StdImp|Product Description: AutoCAD Mechanical|Company: Autodesk, Inc."
 90
     1024
 91
        1
280
     0
281
     0
  0
CLASS
  1
AMDTEDGESTANDARDISO13715
  2
AmdtEdgeStdISO13715
  3
"Amdt_StdImp|Product Description: AutoCAD Mechanical|Company: Autodesk, Inc."
 90
     1024
 91
        1
280
     0
281
     0
  0
CLASS
  1
ACMSURFSTANDARDISO2002
  2
AcmSurfTextStdISO2002
  3
"Amdt_StdImp|Product Description: AutoCAD Mechanical|Company: Autodesk, Inc."
 90
     1024
 91
        1
280
     0
281
     0
  0
CLASS
  1
ACMFCFSTANDARDISO
  2
AcmFCFStdISO
  3
"Amdt_StdImp|Product Description: AutoCAD Mechanical|Company: Autodesk, Inc."
 90
     1024
 91
        1
280
     0
281
     0
  0
CLASS
  1
ACMWELDSTANDARDISO
  2
AcmWeldingStdISO
  3
"Amdt_StdImp|Product Description: AutoCAD Mechanical|Company: Autodesk, Inc."
 90
     1024
 91
        1
280
     0
281
     0
  0
CLASS
  1
ACMIDSTANDARDISO
  2
AcmIdStdISO
  3
"Amdt_StdImp|Product Description: AutoCAD Mechanical|Company: Autodesk, Inc."
 90
     1024
 91
        1
280
     0
281
     0
  0
CLASS
  1
ACMDATUMSTANDARDISO
  2
AcmDatumStdISO
  3
"Amdt_StdImp|Product Description: AutoCAD Mechanical|Company: Autodesk, Inc."
 90
     1024
 91
        1
280
     0
281
     0
  0
CLASS
  1
ACMBOMSTANDARDISO
  2
AcmBOMStdISO
  3
"Amdt_StdImp|Product Description: AutoCAD Mechanical|Company: Autodesk, Inc."
 90
     1024
 91
        1
280
     0
281
     0
  0
CLASS
  1
ACMDETAILSTANDARDISO
  2
AmdtDetailSymStdISO
  3
"Amdt_StdImp|Product Description: AutoCAD Mechanical|Company: Autodesk, Inc."
 90
     1024
 91
        1
280
     0
281
     0
  0
CLASS
  1
ACMSECTIONSTANDARDISO2001
  2
AmdtSectionSymStdISO2001
  3
"Amdt_StdImp|Product Description: AutoCAD Mechanical|Company: Autodesk, Inc."
 90
     1024
 91
        1
280
     0
281
     0
  0
CLASS
  1
ACMCENTERLINESTANDARDISO
  2
AmdtCenterLineStdISO
  3
"Amdt_StdImp|Product Description: AutoCAD Mechanical|Company: Autodesk, Inc."
 90
     1024
 91
        1
280
     0
281
     0
  0
CLASS
  1
ACMTHREADLINESTANDARDISO
  2
AmdtThreadLineStdISO
  3
"Amdt_StdImp|Product Description: AutoCAD Mechanical|Company: Autodesk, Inc."
 90
     1024
 91
        1
280
     0
281
     0
  0
CLASS
  1
ACMNOTESTANDARDISO
  2
AmdtNoteStdISO
  3
"Amdt_StdImp|Product Description: AutoCAD Mechanical|Company: Autodesk, Inc."
 90
     1024
 91
        1
280
     0
281
     0
  0
CLASS
  1
ACMTAPERSTANDARDISO
  2
AcmTaperStdISO
  3
"Amdt_StdImp|Product Description: AutoCAD Mechanical|Company: Autodesk, Inc."
 90
     1024
 91
        1
280
     0
281
     0
  0
CLASS
  1
ACMANOOTATIONVIEWSTANDARDISO
  2
AmdtAnViewStdISO
  3
"Amdt_StdImp|Product Description: AutoCAD Mechanical|Company: Autodesk, Inc."
 90
     1024
 91
        1
280
     0
281
     0
  0
CLASS
  1
ACAMGHOLECHARTSTDISO
  2
AcAmgHoleChartStdISO
  3
AmgDim|Product Description: AutoCAD Mechanical|Company: Autodesk, Inc.
 90
     1024
 91
        1
280
     0
281
     0
  0
CLASS
  1
EXACXREFPANELOBJECT
  2
ExAcXREFPanelObject
  3
EXAC_ESW
 90
     1025
 91
        0
280
     0
281
     0
  0
CLASS
  1
NPOCOLLECTION
  2
AcDbImpNonPersistentObjectsCollection
  3
ObjectDBX Classes
 90
     1153
 91
        0
280
     0
281
     0
  0
CLASS
  1
ACDBSTDPARTRES_ARC
  2
AcDbStdPartRes_Arc
  3
AmgStdPart|Product Description: AutoCAD Mechanical|Company: Autodesk, Inc.
 90
     1024
 91
        0
280
     0
281
     0
  0
CLASS
  1
AMDTNOTE
  2
AmdtNote
  3
"AcmSymBB|Product Description: AutoCAD Mechanical|Company: Autodesk, Inc."
 90
     4095
 91
        0
280
     0
281
     1
  0
CLASS
  1
PLOTSETTINGS
  2
AcDbPlotSettings
  3
ObjectDBX Classes
 90
        0
 91
        1
280
     0
281
     0
  0
CLASS
  1
ACMSTANDARDANSI
  2
AcmStandardANSI
  3
"Amdt_StdImp|Product Description: AutoCAD Mechanical|Company: Autodesk, Inc."
 90
     1024
 91
        0
280
     0
281
     0
  0
CLASS
  1
ACMSURFSTANDARDANSI
  2
AcmSurfTextStdANSI
  3
"Amdt_StdImp|Product Description: AutoCAD Mechanical|Company: Autodesk, Inc."
 90
     1024
 91
        0
280
     0
281
     0
  0
CLASS
  1
ACMFCFSTANDARDANSI
  2
AcmFCFStdANSI
  3
"Amdt_StdImp|Product Description: AutoCAD Mechanical|Company: Autodesk, Inc."
 90
     1024
 91
        0
280
     0
281
     0
  0
CLASS
  1
ACMWELDSTANDARDANSI
  2
AcmWeldingStdANSI
  3
"Amdt_StdImp|Product Description: AutoCAD Mechanical|Company: Autodesk, Inc."
 90
     1024
 91
        0
280
     0
281
     0
  0
CLASS
  1
ACMIDSTANDARDANSI
  2
AcmIdStdANSI
  3
"Amdt_StdImp|Product Description: AutoCAD Mechanical|Company: Autodesk, Inc."
 90
     1024
 91
        0
280
     0
281
     0
  0
CLASS
  1
ACMDATUMSTANDARDANSI
  2
AcmDatumStdANSI
  3
"Amdt_StdImp|Product Description: AutoCAD Mechanical|Company: Autodesk, Inc."
 90
     1024
 91
        0
280
     0
281
     0
  0
CLASS
  1
ACMBOMSTANDARDANSI
  2
AcmBOMStdANSI
  3
"Amdt_StdImp|Product Description: AutoCAD Mechanical|Company: Autodesk, Inc."
 90
     1024
 91
        0
280
     0
281
     0
  0
CLASS
  1
ACMDETAILSTANDARDANSI
  2
AmdtDetailSymStdANSI
  3
"Amdt_StdImp|Product Description: AutoCAD Mechanical|Company: Autodesk, Inc."
 90
     1024
 91
        0
280
     0
281
     0
  0
CLASS
  1
ACMSECTIONSTANDARDANSI
  2
AmdtSectionSymStdANSI
  3
"Amdt_StdImp|Product Description: AutoCAD Mechanical|Company: Autodesk, Inc."
 90
     1024
 91
        0
280
     0
281
     0
  0
CLASS
  1
ACMCENTERLINESTANDARDANSI
  2
AmdtCenterLineStdANSI
  3
"Amdt_StdImp|Product Description: AutoCAD Mechanical|Company: Autodesk, Inc."
 90
     1024
 91
        0
280
     0
281
     0
  0
CLASS
  1
ACMTHREADLINESTANDARDANSI
  2
AmdtThreadLineStdANSI
  3
"Amdt_StdImp|Product Description: AutoCAD Mechanical|Company: Autodesk, Inc."
 90
     1024
 91
        0
280
     0
281
     0
  0
CLASS
  1
ACMNOTESTANDARDANSI
  2
AmdtNoteStdANSI
  3
"Amdt_StdImp|Product Description: AutoCAD Mechanical|Company: Autodesk, Inc."
 90
     1024
 91
        0
280
     0
281
     0
  0
CLASS
  1
ACMTAPERSTANDARDANSI
  2
AcmTaperStdANSI
  3
"Amdt_StdImp|Product Description: AutoCAD Mechanical|Company: Autodesk, Inc."
 90
     1024
 91
        0
280
     0
281
     0
  0
CLASS
  1
ACMANOOTATIONVIEWSTANDARDANSI
  2
AmdtAnViewStdANSI
  3
"Amdt_StdImp|Product Description: AutoCAD Mechanical|Company: Autodesk, Inc."
 90
     1024
 91
        0
280
     0
281
     0
  0
CLASS
  1
ACAMGHOLECHARTSTDANSI
  2
AcAmgHoleChartStdANSI
  3
AmgDim|Product Description: AutoCAD Mechanical|Company: Autodesk, Inc.
 90
     1024
 91
        0
280
     0
281
     0
  0
CLASS
  1
ACMSTANDARDBSI
  2
AcmStandardBSI
  3
"Amdt_StdImp|Product Description: AutoCAD Mechanical|Company: Autodesk, Inc."
 90
     1024
 91
        0
280
     0
281
     0
  0
CLASS
  1
ACMSURFSTANDARDBSI2002
  2
AcmSurfTextStdBSI2002
  3
"Amdt_StdImp|Product Description: AutoCAD Mechanical|Company: Autodesk, Inc."
 90
     1024
 91
        0
280
     0
281
     0
  0
CLASS
  1
ACMFCFSTANDARDBSI
  2
AcmFCFStdBSI
  3
"Amdt_StdImp|Product Description: AutoCAD Mechanical|Company: Autodesk, Inc."
 90
     1024
 91
        0
280
     0
281
     0
  0
CLASS
  1
ACMWELDSTANDARDBSI
  2
AcmWeldingStdBSI
  3
"Amdt_StdImp|Product Description: AutoCAD Mechanical|Company: Autodesk, Inc."
 90
     1024
 91
        0
280
     0
281
     0
  0
CLASS
  1
ACMIDSTANDARDBSI
  2
AcmIdStdBSI
  3
"Amdt_StdImp|Product Description: AutoCAD Mechanical|Company: Autodesk, Inc."
 90
     1024
 91
        0
280
     0
281
     0
  0
CLASS
  1
ACMDATUMSTANDARDBSI
  2
AcmDatumStdBSI
  3
"Amdt_StdImp|Product Description: AutoCAD Mechanical|Company: Autodesk, Inc."
 90
     1024
 91
        0
280
     0
281
     0
  0
CLASS
  1
ACMBOMSTANDARDBSI
  2
AcmBOMStdBSI
  3
"Amdt_StdImp|Product Description: AutoCAD Mechanical|Company: Autodesk, Inc."
 90
     1024
 91
        0
280
     0
281
     0
  0
CLASS
  1
ACMDETAILSTANDARDBSI
  2
AmdtDetailSymStdBSI
  3
"Amdt_StdImp|Product Description: AutoCAD Mechanical|Company: Autodesk, Inc."
 90
     1024
 91
        0
280
     0
281
     0
  0
CLASS
  1
ACMSECTIONSTANDARDBSI2001
  2
AmdtSectionSymStdBSI2001
  3
"Amdt_StdImp|Product Description: AutoCAD Mechanical|Company: Autodesk, Inc."
 90
     1024
 91
        0
280
     0
281
     0
  0
CLASS
  1
ACMCENTERLINESTANDARDBSI
  2
AmdtCenterLineStdBSI
  3
"Amdt_StdImp|Product Description: AutoCAD Mechanical|Company: Autodesk, Inc."
 90
     1024
 91
        0
280
     0
281
     0
  0
CLASS
  1
ACMTHREADLINESTANDARDBSI
  2
AmdtThreadLineStdBSI
  3
"Amdt_StdImp|Product Description: AutoCAD Mechanical|Company: Autodesk, Inc."
 90
     1024
 91
        0
280
     0
281
     0
  0
CLASS
  1
ACMNOTESTANDARDBSI
  2
AmdtNoteStdBSI
  3
"Amdt_StdImp|Product Description: AutoCAD Mechanical|Company: Autodesk, Inc."
 90
     1024
 91
        0
280
     0
281
     0
  0
CLASS
  1
ACMTAPERSTANDARDBSI
  2
AcmTaperStdBSI
  3
"Amdt_StdImp|Product Description: AutoCAD Mechanical|Company: Autodesk, Inc."
 90
     1024
 91
        0
280
     0
281
     0
  0
CLASS
  1
ACMANOOTATIONVIEWSTANDARDBSI
  2
AmdtAnViewStdBSI
  3
"Amdt_StdImp|Product Description: AutoCAD Mechanical|Company: Autodesk, Inc."
 90
     1024
 91
        0
280
     0
281
     0
  0
CLASS
  1
ACAMGHOLECHARTSTDBSI
  2
AcAmgHoleChartStdBSI
  3
AmgDim|Product Description: AutoCAD Mechanical|Company: Autodesk, Inc.
 90
     1024
 91
        0
280
     0
281
     0
  0
CLASS
  1
AMDTEDGESTANDARDJIS
  2
AmdtEdgeStdJIS
  3
"Amdt_StdImp|Product Description: AutoCAD Mechanical|Company: Autodesk, Inc."
 90
     1024
 91
        0
280
     0
281
     0
  0
CLASS
  1
ACMSURFSYM
  2
AcmSurfaceTexture
  3
"AcmSymBB|Product Description: AutoCAD Mechanical|Company: Autodesk, Inc."
 90
     4095
 91
        0
280
     0
281
     1
  0
CLASS
  1
ACDBDIMENSIONRES
  2
AcDbDimensionRes
  3
AcmSymBB|Product Description: AutoCAD Mechanical|Company: Autodesk, Inc.
 90
     1024
 91
        0
280
     0
281
     0
  0
CLASS
  1
ACDBCIRCARCRES
  2
AcDbCircArcRes
  3
AcGrefServices
 90
     1024
 91
        0
280
     0
281
     0
  0
CLASS
  1
ACDBOPPOLYLINERES
  2
AcDbOpPolylineRes
  3
AcGrefServices
 90
     1024
 91
        0
280
     0
281
     0
  0
CLASS
  1
ACDBELLIPSERES
  2
AcDbEllipseRes
  3
AcGrefServices
 90
     1024
 91
        0
280
     0
281
     0
  0
CLASS
  1
AMDTACMWBLOCKBOMENTITY
  2
AmdtAcmWblockBomEntity
  3
"AcmSymBB|Product Description: AutoCAD Mechanical|Company: Autodesk, Inc."
 90
     4095
 91
        0
280
     0
281
     1
  0
CLASS
  1
ACDB_BLKREFOBJECTCONTEXTDATA_CLASS
  2
AcDbBlkRefObjectContextData
  3
ObjectDBX Classes
 90
     1153
 91
        0
280
     0
281
     0
  0
CLASS
  1
ACMPICKOBJ
  2
AcmPickEnt
  3
"AcmSymBB|Product Description: AutoCAD Mechanical|Company: Autodesk, Inc."
 90
     1024
 91
        0
280
     0
281
     1
  0
CLASS
  1
ACMBALLOON
  2
AcmBalloon
  3
"AcmSymBB|Product Description: AutoCAD Mechanical|Company: Autodesk, Inc."
 90
     4095
 91
        0
280
     0
281
     1
  0
ENDSEC
  0
SECTION
  2
TABLES
  0
TABLE
  2
VPORT
  5
8
330
0
100
AcDbSymbolTable
 70
     1
  0
VPORT
  5
27A
330
8
100
AcDbSymbolTableRecord
100
AcDbViewportTableRecord
  2
*Active
 70
     0
 10
0.0
 20
0.0
 11
1.0
 21
1.0
 12
1001.386280960709
 22
797.2539412477531
 13
0.0
 23
0.0
 14
10.0
 24
10.0
 15
40.0
 25
40.0
 16
0.0
 26
0.0
 36
1.0
 17
0.0
 27
0.0
 37
0.0
 40
604.1071805358618
 41
1.59765625
 42
50.0
 43
0.0
 44
0.0
 50
0.0
 51
0.0
 71
    16
 72
 20000
 73
     1
 74
     3
 75
     0
 76
     0
 77
     0
 78
     0
281
     0
 65
     0
110
0.0
120
0.0
130
0.0
111
1.0
121
0.0
131
0.0
112
0.0
122
1.0
132
0.0
 79
     0
146
0.0
348
285
 60
     3
 61
     5
292
     1
282
     0
141
0.0
142
0.0
 63
   250
421
  3355443
  0
ENDTAB
  0
TABLE
  2
LTYPE
  5
5
330
0
100
AcDbSymbolTable
 70
    22
  0
LTYPE
  5
14
330
5
100
AcDbSymbolTableRecord
100
AcDbLinetypeTableRecord
  2
ByBlock
 70
     0
  3

 72
    65
 73
     0
 40
0.0
  0
LTYPE
  5
15
330
5
100
AcDbSymbolTableRecord
100
AcDbLinetypeTableRecord
  2
ByLayer
 70
     0
  3

 72
    65
 73
     0
 40
0.0
  0
LTYPE
  5
16
330
5
100
AcDbSymbolTableRecord
100
AcDbLinetypeTableRecord
  2
Continuous
 70
     0
  3
Solid line
 72
    65
 73
     0
 40
0.0
  0
LTYPE
  5
4D
330
5
100
AcDbSymbolTableRecord
100
AcDbLinetypeTableRecord
  2
AM_ISO02W050
 70
     0
  3
__ __ __ __ __ __ __ __ __ __ __ __ __ __ __
 72
    65
 73
     2
 40
7.5
 49
6.0
 74
     0
 49
-1.5
 74
     0
  0
LTYPE
  5
4E
330
5
100
AcDbSymbolTableRecord
100
AcDbLinetypeTableRecord
  2
AM_ISO08W050
 70
     0
  3
____ . ____ . ____ . ____ . ____ . ____ . ____
 72
    65
 73
     4
 40
18.0
 49
12.0
 74
     0
 49
-1.5
 74
     0
 49
3.0
 74
     0
 49
-1.5
 74
     0
  0
LTYPE
  5
4F
330
5
100
AcDbSymbolTableRecord
100
AcDbLinetypeTableRecord
  2
AM_ISO09W050
 70
     0
  3
_____ . . _____ . . _____ . . ____ .. ____
 72
    65
 73
     6
 40
22.5
 49
12.0
 74
     0
 49
-1.5
 74
     0
 49
3.0
 74
     0
 49
-1.5
 74
     0
 49
3.0
 74
     0
 49
-1.5
 74
     0
  0
LTYPE
  5
50
330
5
100
AcDbSymbolTableRecord
100
AcDbLinetypeTableRecord
  2
Amconstr
 70
     0
  3
_______________________
 72
    65
 73
     2
 40
9999.0
 49
9999.0
 74
     0
 49
0.0
 74
     0
  0
LTYPE
  5
51
330
5
100
AcDbSymbolTableRecord
100
AcDbLinetypeTableRecord
  2
AM_ISO08W050x2
 70
     0
  3
__ . __ . __ . __ . __ . __
 72
    65
 73
     4
 40
9.0
 49
6.0
 74
     0
 49
-0.75
 74
     0
 49
1.5
 74
     0
 49
-0.75
 74
     0
  0
LTYPE
  5
52
330
5
100
AcDbSymbolTableRecord
100
AcDbLinetypeTableRecord
  2
AM_ISO02W050x2
 70
     0
  3
 _ _ _ _ _ _ _ _ _ _ _ _
 72
    65
 73
     2
 40
3.75
 49
3.0
 74
     0
 49
-0.75
 74
     0
  0
LTYPE
  5
55
330
5
100
AcDbSymbolTableRecord
100
AcDbLinetypeTableRecord
  2
Amzigzag
 70
     0
  3
/\/-/\/-/\/-/\/-/\/-/\/
 72
    65
 73
     2
 40
11.0001
 49
0.0001
 74
     4
 75
   136
340
23D
 46
0.04
 50
0.0
 44
0.0
 45
0.0
 49
-11.0
 74
     0
  0
LTYPE
  5
65
330
5
100
AcDbSymbolTableRecord
100
AcDbLinetypeTableRecord
  2
CENTER
 70
     0
  3
__ . __
 72
    65
 73
     4
 40
7.0
 49
4.0
 74
     0
 49
-1.0
 74
     0
 49
1.0
 74
     0
 49
-1.0
 74
     0
  0
LTYPE
  5
E0
330
5
100
AcDbSymbolTableRecord
100
AcDbLinetypeTableRecord
  2
HIDDEN
 70
     0
  3
Hidden __ __ __ __ __ __ __ __ __ __ __ __ __ _
 72
    65
 73
     2
 40
9.524999999999996
 49
6.349999999999998
 74
     0
 49
-3.174999999999998
 74
     0
  0
LTYPE
  5
E1
330
5
100
AcDbSymbolTableRecord
100
AcDbLinetypeTableRecord
  2
PHANTOM2
 70
     0
  3
Phantom (.5x) ___ _ _ ___ _ _ ___ _ _ ___ _ _
 72
    65
 73
     6
 40
31.75
 49
15.875
 74
     0
 49
-3.174999999999998
 74
     0
 49
3.174999999999998
 74
     0
 49
-3.174999999999998
 74
     0
 49
3.174999999999998
 74
     0
 49
-3.174999999999998
 74
     0
  0
LTYPE
  5
5A2
330
5
100
AcDbSymbolTableRecord
100
AcDbLinetypeTableRecord
  2
ACJISWELD
 70
     0
  3
_ _ _ _ _
 72
    65
 73
     2
 40
2.0
 49
2.0
 74
     0
 49
-1.0
 74
     0
  0
LTYPE
  5
70D1
330
5
100
AcDbSymbolTableRecord
100
AcDbLinetypeTableRecord
  2
ACISOWELD
 70
     0
  3
_ _ _ _ _
 72
    65
 73
     2
 40
2.0
 49
2.0
 74
     0
 49
-1.0
 74
     0
  0
LTYPE
  5
70D2
330
5
100
AcDbSymbolTableRecord
100
AcDbLinetypeTableRecord
  2
ACISOTGB
 70
     0
  3
__ . . __ . .
 72
    65
 73
     6
 40
9.0
 49
4.0
 74
     0
 49
-1.0
 74
     0
 49
1.0
 74
     0
 49
-1.0
 74
     0
 49
1.0
 74
     0
 49
-1.0
 74
     0
  0
LTYPE
  5
70D3
330
5
100
AcDbSymbolTableRecord
100
AcDbLinetypeTableRecord
  2
ACISOTGL
 70
     0
  3
_ _ _ _ _
 72
    65
 73
     2
 40
3.0
 49
2.0
 74
     0
 49
-1.0
 74
     0
  0
ENDTAB
  0
TABLE
  2
LAYER
  5
2
102
{ACAD_XDICTIONARY
360
BF
102
}
330
0
100
AcDbSymbolTable
 70
    10
  0
LAYER
  5
10
102
{ACAD_XDICTIONARY
360
29F7
102
}
330
2
100
AcDbSymbolTableRecord
100
AcDbLayerTableRecord
  2
0
 70
     0
 62
     7
  6
Continuous
370
    -3
390
F
347
27E
  0
LAYER
  5
81
102
{ACAD_XDICTIONARY
360
29F9
102
}
330
2
100
AcDbSymbolTableRecord
100
AcDbLayerTableRecord
  2
AM_0 外形線1
 70
     0
 62
     7
  6
Continuous
370
    25
390
F
347
27E
  0
LAYER
  5
427
330
2
100
AcDbSymbolTableRecord
100
AcDbLayerTableRecord
  2
Defpoints
 70
     0
 62
     7
  6
Continuous
290
     0
370
    -3
390
F
347
27E
  0
LAYER
  5
2C67
330
2
100
AcDbSymbolTableRecord
100
AcDbLayerTableRecord
  2
AM_5 寸法線
 70
     0
 62
     3
  6
Continuous
370
    13
390
F
347
27E
1001
AcAecLayerStandard
1000

1000

  0
LAYER
  5
2C68
330
2
100
AcDbSymbolTableRecord
100
AcDbLayerTableRecord
  2
AM_4 細線
 70
     0
 62
     4
  6
Continuous
370
    13
390
F
347
27E
1001
AcAecLayerStandard
1000

1000

  0
LAYER
  5
2C69
330
2
100
AcDbSymbolTableRecord
100
AcDbLayerTableRecord
  2
AM_7 中心線
 70
     0
 62
     1
  6
AM_ISO08W050
370
    13
390
F
347
27E
1001
AcAecLayerStandard
1000

1000

  0
LAYER
  5
2C6A
330
2
100
AcDbSymbolTableRecord
100
AcDbLayerTableRecord
  2
AM_3 隠れ線
 70
     0
 62
     8
  6
ACJISWELD
370
    13
390
F
347
27E
1001
AcAecLayerStandard
1000

1000

  0
LAYER
  5
2C6C
330
2
100
AcDbSymbolTableRecord
100
AcDbLayerTableRecord
  2
AM_6 文字
 70
     0
 62
     2
  6
Continuous
370
    13
390
F
347
27E
1001
AcAecLayerStandard
1000

1000

  0
LAYER
  5
6D45
330
2
100
AcDbSymbolTableRecord
100
AcDbLayerTableRecord
  2
AM_11 想像線
 70
     0
 62
     5
  6
AM_ISO09W050
370
    13
390
F
347
27E
1001
AcAecLayerStandard
1000

1000

  0
ENDTAB
  0
TABLE
  2
STYLE
  5
3
330
0
100
AcDbSymbolTable
 70
    10
  0
STYLE
  5
11
330
3
100
AcDbSymbolTableRecord
100
AcDbTextStyleTableRecord
  2
STANDARD
 70
     0
 40
0.0
 41
1.0
 50
0.0
 71
     0
 42
25.0
  3
ISOCP.SHX
  4
EXTFONT.SHX
  0
STYLE
  5
23D
330
3
100
AcDbSymbolTableRecord
100
AcDbTextStyleTableRecord
  2

 70
     1
 40
0.0
 41
1.0
 50
0.0
 71
     0
 42
2.5
  3
genltshp.shx
  4

  0
STYLE
  5
5D5
330
3
100
AcDbSymbolTableRecord
100
AcDbTextStyleTableRecord
  2
SEISA
 70
     0
 40
0.0
 41
0.9
 50
0.0
 71
     0
 42
25.0
  3
romans.shx
  4
extfont2.shx
  0
STYLE
  5
70C1
330
3
100
AcDbSymbolTableRecord
100
AcDbTextStyleTableRecord
  2
ACISOTS
 70
     0
 40
1.0
 41
1.0
 50
0.0
 71
     0
 42
25.0
  3
isocp.shx
  4
extfont.shx
  0
STYLE
  5
70D0
330
3
100
AcDbSymbolTableRecord
100
AcDbTextStyleTableRecord
  2
ACISOGDT
 70
     0
 40
0.0
 41
1.0
 50
0.0
 71
     0
 42
25.0
  3
amgdt.shx
  4

  0
ENDTAB
  0
TABLE
  2
VIEW
  5
6
330
0
100
AcDbSymbolTable
 70
     6
  0
VIEW
  5
91B
330
6
100
AcDbSymbolTableRecord
100
AcDbViewTableRecord
  2
AM_VIEW1
 70
     0
 40
594.0000000000001
 10
584.4901485489867
 20
891.0000014775285
 41
1168.980295566503
 11
0.0
 21
0.0
 31
1.0
 12
0.0
 22
0.0
 32
0.0
 42
50.0
 43
0.0
 44
0.0
 50
0.0
 71
    16
281
     0
 72
     0
 73
     0
  0
VIEW
  5
91C
330
6
100
AcDbSymbolTableRecord
100
AcDbViewTableRecord
  2
AM_VIEW2
 70
     0
 40
594.0000000000001
 10
1095.509852982484
 20
891.0000014775285
 41
1168.980295566503
 11
0.0
 21
0.0
 31
1.0
 12
0.0
 22
0.0
 32
0.0
 42
50.0
 43
0.0
 44
0.0
 50
0.0
 71
    16
281
     0
 72
     0
 73
     0
  0
VIEW
  5
91D
330
6
100
AcDbSymbolTableRecord
100
AcDbViewTableRecord
  2
AM_VIEW3
 70
     0
 40
594.0000000000001
 10
584.4901485489867
 20
297.0000014775283
 41
1168.980295566503
 11
0.0
 21
0.0
 31
1.0
 12
0.0
 22
0.0
 32
0.0
 42
50.0
 43
0.0
 44
0.0
 50
0.0
 71
    16
281
     0
 72
     0
 73
     0
  0
VIEW
  5
91E
330
6
100
AcDbSymbolTableRecord
100
AcDbViewTableRecord
  2
AM_VIEW4
 70
     0
 40
594.0000000000001
 10
1095.509852982484
 20
297.0000014775283
 41
1168.980295566503
 11
0.0
 21
0.0
 31
1.0
 12
0.0
 22
0.0
 32
0.0
 42
50.0
 43
0.0
 44
0.0
 50
0.0
 71
    16
281
     0
 72
     0
 73
     0
  0
VIEW
  5
91F
330
6
100
AcDbSymbolTableRecord
100
AcDbViewTableRecord
  2
AM_VIEW5
 70
     0
 40
594.0000000000002
 10
840.0000007657352
 20
594.0000014775282
 41
1168.980295566503
 11
0.0
 21
0.0
 31
1.0
 12
0.0
 22
0.0
 32
0.0
 42
50.0
 43
0.0
 44
0.0
 50
0.0
 71
    16
281
     0
 72
     0
 73
     0
  0
VIEW
  5
920
330
6
100
AcDbSymbolTableRecord
100
AcDbViewTableRecord
  2
AM_VIEW6
 70
     0
 40
1187.98812
 10
840.0000007657352
 20
594.0000014775282
 41
2337.937211527094
 11
0.0
 21
0.0
 31
1.0
 12
0.0
 22
0.0
 32
0.0
 42
50.0
 43
0.0
 44
0.0
 50
0.0
 71
    16
281
     0
 72
     0
 73
     0
  0
ENDTAB
  0
TABLE
  2
UCS
  5
7
330
0
100
AcDbSymbolTable
 70
     0
  0
ENDTAB
  0
TABLE
  2
APPID
  5
9
330
0
100
AcDbSymbolTable
 70
   396
  0
APPID
  5
12
330
9
100
AcDbSymbolTableRecord
100
AcDbRegAppTableRecord
  2
ACAD
 70
     0
  0
APPID
  5
30
330
9
100
AcDbSymbolTableRecord
100
AcDbRegAppTableRecord
  2
MCAD_NO_VIS
 70
     0
  0
APPID
  5
31
330
9
100
AcDbSymbolTableRecord
100
AcDbRegAppTableRecord
  2
ACAD_TEMP_GRAPHIC
 70
     0
  0
APPID
  5
44
330
9
100
AcDbSymbolTableRecord
100
AcDbRegAppTableRecord
  2
ACATTRIBSERVICES
 70
     0
  0
APPID
  5
F6
330
9
100
AcDbSymbolTableRecord
100
AcDbRegAppTableRecord
  2
AD_DRAW
 70
     0
  0
APPID
  5
114
330
9
100
AcDbSymbolTableRecord
100
AcDbRegAppTableRecord
  2
DESIGNERASSEMBLIES
 70
     0
  0
APPID
  5
118
330
9
100
AcDbSymbolTableRecord
100
AcDbRegAppTableRecord
  2
ACADM_DIM_EDIT
 70
     0
  0
APPID
  5
119
330
9
100
AcDbSymbolTableRecord
100
AcDbRegAppTableRecord
  2
AMDT_DM_ADJ
 70
     0
  0
APPID
  5
1AF
330
9
100
AcDbSymbolTableRecord
100
AcDbRegAppTableRecord
  2
ACAD_DSTYLE_DIMARC_LENGTH_SYMBOL
 70
     0
  0
APPID
  5
1B0
330
9
100
AcDbSymbolTableRecord
100
AcDbRegAppTableRecord
  2
ACAD_DSTYLE_DIMJOGGED_JOGANGLE_SYMBOL
 70
     0
  0
APPID
  5
2D7
330
9
100
AcDbSymbolTableRecord
100
AcDbRegAppTableRecord
  2
ACAD_MLEADERVER
 70
     0
  0
APPID
  5
355
330
9
100
AcDbSymbolTableRecord
100
AcDbRegAppTableRecord
  2
AcadAnnoPO
 70
     0
  0
APPID
  5
428
330
9
100
AcDbSymbolTableRecord
100
AcDbRegAppTableRecord
  2
ACAD_DSTYLE_DIMTEXT_FILL
 70
     0
  0
APPID
  5
429
330
9
100
AcDbSymbolTableRecord
100
AcDbRegAppTableRecord
  2
GENIUS_GENSCREG_15
 70
     0
  0
APPID
  5
42A
330
9
100
AcDbSymbolTableRecord
100
AcDbRegAppTableRecord
  2
GENIUS_GENOBJ-N-SDF_13
 70
     0
  0
APPID
  5
42B
330
9
100
AcDbSymbolTableRecord
100
AcDbRegAppTableRecord
  2
GENIUS_GENODEF_13
 70
     0
  0
APPID
  5
42C
330
9
100
AcDbSymbolTableRecord
100
AcDbRegAppTableRecord
  2
ACAD_EXEMPT_FROM_CAD_STANDARDS
 70
     0
  0
APPID
  5
42D
330
9
100
AcDbSymbolTableRecord
100
AcDbRegAppTableRecord
  2
AcAecLayerStandard
 70
     0
  0
APPID
  5
42E
330
9
100
AcDbSymbolTableRecord
100
AcDbRegAppTableRecord
  2
GENIUS_GENOBJ-N-CEN_13
 70
     0
  0
APPID
  5
42F
330
9
100
AcDbSymbolTableRecord
100
AcDbRegAppTableRecord
  2
GENIUS_GENCEN_19
 70
     0
  0
APPID
  5
430
330
9
100
AcDbSymbolTableRecord
100
AcDbRegAppTableRecord
  2
ACAD_DSTYLE_DIMINSPECT
 70
     0
  0
APPID
  5
431
330
9
100
AcDbSymbolTableRecord
100
AcDbRegAppTableRecord
  2
GENIUS_AMGTXT_16
 70
     0
  0
APPID
  5
432
330
9
100
AcDbSymbolTableRecord
100
AcDbRegAppTableRecord
  2
GENIUS_GENFIL_13
 70
     0
  0
APPID
  5
433
330
9
100
AcDbSymbolTableRecord
100
AcDbRegAppTableRecord
  2
GENIUS_GENOLIS_13
 70
     0
  0
APPID
  5
434
330
9
100
AcDbSymbolTableRecord
100
AcDbRegAppTableRecord
  2
GENIUS_GENOBJ-N-CHA_13
 70
     0
  0
APPID
  5
435
330
9
100
AcDbSymbolTableRecord
100
AcDbRegAppTableRecord
  2
GENIUS_GENOENT_13
 70
     0
  0
APPID
  5
436
330
9
100
AcDbSymbolTableRecord
100
AcDbRegAppTableRecord
  2
GENIUS_GENOREF_13
 70
     0
  0
APPID
  5
437
330
9
100
AcDbSymbolTableRecord
100
AcDbRegAppTableRecord
  2
GENIUS_GENOBJ-N-FIL_13
 70
     0
  0
APPID
  5
438
330
9
100
AcDbSymbolTableRecord
100
AcDbRegAppTableRecord
  2
GEVID1208829536
 70
     0
  0
APPID
  5
439
330
9
100
AcDbSymbolTableRecord
100
AcDbRegAppTableRecord
  2
GEVDC
 70
     0
  0
APPID
  5
43A
330
9
100
AcDbSymbolTableRecord
100
AcDbRegAppTableRecord
  2
GEVRADREF
 70
     0
  0
APPID
  5
43B
330
9
100
AcDbSymbolTableRecord
100
AcDbRegAppTableRecord
  2
GENIUS_GENBH_13
 70
     0
  0
APPID
  5
43C
330
9
100
AcDbSymbolTableRecord
100
AcDbRegAppTableRecord
  2
GENIUS_GENOBJ-NBEHI-BHF_13
 70
     0
  0
APPID
  5
43D
330
9
100
AcDbSymbolTableRecord
100
AcDbRegAppTableRecord
  2
GENIUS_GENOBJ-NBEHI-BHB_13
 70
     0
  0
APPID
  5
43E
330
9
100
AcDbSymbolTableRecord
100
AcDbRegAppTableRecord
  2
GEVID1208829537
 70
     0
  0
APPID
  5
43F
330
9
100
AcDbSymbolTableRecord
100
AcDbRegAppTableRecord
  2
ACAD_DSTYLE_DIMJAG
 70
     0
  0
APPID
  5
440
330
9
100
AcDbSymbolTableRecord
100
AcDbRegAppTableRecord
  2
ACAD_DSTYLE_DIMTALN
 70
     0
  0
APPID
  5
441
330
9
100
AcDbSymbolTableRecord
100
AcDbRegAppTableRecord
  2
AMG_2DHIDE
 70
     0
  0
APPID
  5
442
330
9
100
AcDbSymbolTableRecord
100
AcDbRegAppTableRecord
  2
AMG_2DSTRUCT_BTR
 70
     0
  0
APPID
  5
443
330
9
100
AcDbSymbolTableRecord
100
AcDbRegAppTableRecord
  2
GEVID1208845772
 70
     0
  0
APPID
  5
444
330
9
100
AcDbSymbolTableRecord
100
AcDbRegAppTableRecord
  2
GEVID1208845773
 70
     0
  0
APPID
  5
445
330
9
100
AcDbSymbolTableRecord
100
AcDbRegAppTableRecord
  2
ACADM_2DVIEW_IGN_NOTIFY
 70
     0
  0
APPID
  5
446
330
9
100
AcDbSymbolTableRecord
100
AcDbRegAppTableRecord
  2
GEVID1208845774
 70
     0
  0
APPID
  5
447
330
9
100
AcDbSymbolTableRecord
100
AcDbRegAppTableRecord
  2
GEVID1208845775
 70
     0
  0
APPID
  5
448
330
9
100
AcDbSymbolTableRecord
100
AcDbRegAppTableRecord
  2
GEVID1208845776
 70
     0
  0
APPID
  5
449
330
9
100
AcDbSymbolTableRecord
100
AcDbRegAppTableRecord
  2
GEVID1208845777
 70
     0
  0
APPID
  5
44A
330
9
100
AcDbSymbolTableRecord
100
AcDbRegAppTableRecord
  2
GEVCON
 70
     0
  0
APPID
  5
44B
330
9
100
AcDbSymbolTableRecord
100
AcDbRegAppTableRecord
  2
GENIUS_GENOBJ-F-SCPASSM_13
 70
     0
  0
APPID
  5
44C
330
9
100
AcDbSymbolTableRecord
100
AcDbRegAppTableRecord
  2
GEVID1208845778
 70
     0
  0
APPID
  5
44D
330
9
100
AcDbSymbolTableRecord
100
AcDbRegAppTableRecord
  2
GEVID1208845779
 70
     0
  0
APPID
  5
44E
330
9
100
AcDbSymbolTableRecord
100
AcDbRegAppTableRecord
  2
GEVID1208845780
 70
     0
  0
APPID
  5
44F
330
9
100
AcDbSymbolTableRecord
100
AcDbRegAppTableRecord
  2
GEVID1208845781
 70
     0
  0
APPID
  5
450
330
9
100
AcDbSymbolTableRecord
100
AcDbRegAppTableRecord
  2
GEVID1208845782
 70
     0
  0
APPID
  5
451
330
9
100
AcDbSymbolTableRecord
100
AcDbRegAppTableRecord
  2
GEVID1208845783
 70
     0
  0
APPID
  5
452
330
9
100
AcDbSymbolTableRecord
100
AcDbRegAppTableRecord
  2
GEVID1208845784
 70
     0
  0
APPID
  5
453
330
9
100
AcDbSymbolTableRecord
100
AcDbRegAppTableRecord
  2
GEVID1208845785
 70
     0
  0
APPID
  5
454
330
9
100
AcDbSymbolTableRecord
100
AcDbRegAppTableRecord
  2
GEVID1208845787
 70
     0
  0
APPID
  5
455
330
9
100
AcDbSymbolTableRecord
100
AcDbRegAppTableRecord
  2
GEVID1208845788
 70
     0
  0
APPID
  5
456
330
9
100
AcDbSymbolTableRecord
100
AcDbRegAppTableRecord
  2
GEVID1208845789
 70
     0
  0
APPID
  5
457
330
9
100
AcDbSymbolTableRecord
100
AcDbRegAppTableRecord
  2
GEVID1208845790
 70
     0
  0
APPID
  5
458
330
9
100
AcDbSymbolTableRecord
100
AcDbRegAppTableRecord
  2
GEVID1208845791
 70
     0
  0
APPID
  5
459
330
9
100
AcDbSymbolTableRecord
100
AcDbRegAppTableRecord
  2
GEVID1208845792
 70
     0
  0
APPID
  5
45A
330
9
100
AcDbSymbolTableRecord
100
AcDbRegAppTableRecord
  2
GEVID1208845793
 70
     0
  0
APPID
  5
45B
330
9
100
AcDbSymbolTableRecord
100
AcDbRegAppTableRecord
  2
GEVID1208845794
 70
     0
  0
APPID
  5
45C
330
9
100
AcDbSymbolTableRecord
100
AcDbRegAppTableRecord
  2
GEVID1208845795
 70
     0
  0
APPID
  5
45D
330
9
100
AcDbSymbolTableRecord
100
AcDbRegAppTableRecord
  2
GEVID1208845796
 70
     0
  0
APPID
  5
45E
330
9
100
AcDbSymbolTableRecord
100
AcDbRegAppTableRecord
  2
GEVID1208845797
 70
     0
  0
APPID
  5
45F
330
9
100
AcDbSymbolTableRecord
100
AcDbRegAppTableRecord
  2
GEVID1208845798
 70
     0
  0
APPID
  5
460
330
9
100
AcDbSymbolTableRecord
100
AcDbRegAppTableRecord
  2
GEVID1208845799
 70
     0
  0
APPID
  5
461
330
9
100
AcDbSymbolTableRecord
100
AcDbRegAppTableRecord
  2
GEVID1208845800
 70
     0
  0
APPID
  5
462
330
9
100
AcDbSymbolTableRecord
100
AcDbRegAppTableRecord
  2
GEVID1208845801
 70
     0
  0
APPID
  5
463
330
9
100
AcDbSymbolTableRecord
100
AcDbRegAppTableRecord
  2
GEVID1208845802
 70
     0
  0
APPID
  5
464
330
9
100
AcDbSymbolTableRecord
100
AcDbRegAppTableRecord
  2
GENIUS_GENOBJ-N-DIM_13
 70
     0
  0
APPID
  5
465
330
9
100
AcDbSymbolTableRecord
100
AcDbRegAppTableRecord
  2
GENIUS_GENDIM_13
 70
     0
  0
APPID
  5
466
330
9
100
AcDbSymbolTableRecord
100
AcDbRegAppTableRecord
  2
GENIUS_GENDIMSH_14
 70
     0
  0
APPID
  5
467
330
9
100
AcDbSymbolTableRecord
100
AcDbRegAppTableRecord
  2
GEVID1208845803
 70
     0
  0
APPID
  5
468
330
9
100
AcDbSymbolTableRecord
100
AcDbRegAppTableRecord
  2
GEVID1208845804
 70
     0
  0
APPID
  5
469
330
9
100
AcDbSymbolTableRecord
100
AcDbRegAppTableRecord
  2
GEVID1208845805
 70
     0
  0
APPID
  5
46A
330
9
100
AcDbSymbolTableRecord
100
AcDbRegAppTableRecord
  2
GEVID1208845806
 70
     0
  0
APPID
  5
46B
330
9
100
AcDbSymbolTableRecord
100
AcDbRegAppTableRecord
  2
GEVID1208845807
 70
     0
  0
APPID
  5
46C
330
9
100
AcDbSymbolTableRecord
100
AcDbRegAppTableRecord
  2
GEVID1208845808
 70
     0
  0
APPID
  5
46D
330
9
100
AcDbSymbolTableRecord
100
AcDbRegAppTableRecord
  2
GEVID1208845809
 70
     0
  0
APPID
  5
46E
330
9
100
AcDbSymbolTableRecord
100
AcDbRegAppTableRecord
  2
GEVID1208845810
 70
     0
  0
APPID
  5
46F
330
9
100
AcDbSymbolTableRecord
100
AcDbRegAppTableRecord
  2
GEVID1208845811
 70
     0
  0
APPID
  5
470
330
9
100
AcDbSymbolTableRecord
100
AcDbRegAppTableRecord
  2
GEVID1208845813
 70
     0
  0
APPID
  5
471
330
9
100
AcDbSymbolTableRecord
100
AcDbRegAppTableRecord
  2
GEVID1208845814
 70
     0
  0
APPID
  5
472
330
9
100
AcDbSymbolTableRecord
100
AcDbRegAppTableRecord
  2
GEVID1208845815
 70
     0
  0
APPID
  5
473
330
9
100
AcDbSymbolTableRecord
100
AcDbRegAppTableRecord
  2
GEVID1208845816
 70
     0
  0
APPID
  5
474
330
9
100
AcDbSymbolTableRecord
100
AcDbRegAppTableRecord
  2
GEVID1208845817
 70
     0
  0
APPID
  5
475
330
9
100
AcDbSymbolTableRecord
100
AcDbRegAppTableRecord
  2
GEVID1208845818
 70
     0
  0
APPID
  5
476
330
9
100
AcDbSymbolTableRecord
100
AcDbRegAppTableRecord
  2
GEVID1208845819
 70
     0
  0
APPID
  5
477
330
9
100
AcDbSymbolTableRecord
100
AcDbRegAppTableRecord
  2
GEVID1208845820
 70
     0
  0
APPID
  5
478
330
9
100
AcDbSymbolTableRecord
100
AcDbRegAppTableRecord
  2
GENIUS_GENOBJ-F-SHCL_13
 70
     0
  0
APPID
  5
479
330
9
100
AcDbSymbolTableRecord
100
AcDbRegAppTableRecord
  2
GENIUS_GEFMSH_13
 70
     0
  0
APPID
  5
47A
330
9
100
AcDbSymbolTableRecord
100
AcDbRegAppTableRecord
  2
GENIUS_GENOBJ-F-SHCA_13
 70
     0
  0
APPID
  5
47B
330
9
100
AcDbSymbolTableRecord
100
AcDbRegAppTableRecord
  2
GENIUS_GEFSH_13
 70
     0
  0
APPID
  5
47C
330
9
100
AcDbSymbolTableRecord
100
AcDbRegAppTableRecord
  2
GENIUS_GEFSHP_13
 70
     0
  0
APPID
  5
47D
330
9
100
AcDbSymbolTableRecord
100
AcDbRegAppTableRecord
  2
GENIUS_GEFSHP0_13
 70
     0
  0
APPID
  5
47E
330
9
100
AcDbSymbolTableRecord
100
AcDbRegAppTableRecord
  2
GENIUS_GEFSH0_13
 70
     0
  0
APPID
  5
47F
330
9
100
AcDbSymbolTableRecord
100
AcDbRegAppTableRecord
  2
GENIUS_GEFSHP1_13
 70
     0
  0
APPID
  5
480
330
9
100
AcDbSymbolTableRecord
100
AcDbRegAppTableRecord
  2
GENIUS_GEFSH1_13
 70
     0
  0
APPID
  5
481
330
9
100
AcDbSymbolTableRecord
100
AcDbRegAppTableRecord
  2
GEVID1208866337
 70
     0
  0
APPID
  5
482
330
9
100
AcDbSymbolTableRecord
100
AcDbRegAppTableRecord
  2
GEVID1208866338
 70
     0
  0
APPID
  5
483
330
9
100
AcDbSymbolTableRecord
100
AcDbRegAppTableRecord
  2
GEVID1208866339
 70
     0
  0
APPID
  5
484
330
9
100
AcDbSymbolTableRecord
100
AcDbRegAppTableRecord
  2
GEVID1208866340
 70
     0
  0
APPID
  5
485
330
9
100
AcDbSymbolTableRecord
100
AcDbRegAppTableRecord
  2
GEVID1208866341
 70
     0
  0
APPID
  5
486
330
9
100
AcDbSymbolTableRecord
100
AcDbRegAppTableRecord
  2
ACAD_PSEXT
 70
     0
  0
APPID
  5
487
330
9
100
AcDbSymbolTableRecord
100
AcDbRegAppTableRecord
  2
GEVID1208866342
 70
     0
  0
APPID
  5
488
330
9
100
AcDbSymbolTableRecord
100
AcDbRegAppTableRecord
  2
GEVID1208913836
 70
     0
  0
APPID
  5
489
330
9
100
AcDbSymbolTableRecord
100
AcDbRegAppTableRecord
  2
GEVID1208913837
 70
     0
  0
APPID
  5
48A
330
9
100
AcDbSymbolTableRecord
100
AcDbRegAppTableRecord
  2
GEVID1208913838
 70
     0
  0
APPID
  5
48B
330
9
100
AcDbSymbolTableRecord
100
AcDbRegAppTableRecord
  2
GEVID1208913839
 70
     0
  0
APPID
  5
48C
330
9
100
AcDbSymbolTableRecord
100
AcDbRegAppTableRecord
  2
GENIUS_GENDTOL_13
 70
     0
  0
APPID
  5
48D
330
9
100
AcDbSymbolTableRecord
100
AcDbRegAppTableRecord
  2
GEVID1208928889
 70
     0
  0
APPID
  5
48E
330
9
100
AcDbSymbolTableRecord
100
AcDbRegAppTableRecord
  2
GEVID1208928890
 70
     0
  0
APPID
  5
48F
330
9
100
AcDbSymbolTableRecord
100
AcDbRegAppTableRecord
  2
GEVID1208928891
 70
     0
  0
APPID
  5
490
330
9
100
AcDbSymbolTableRecord
100
AcDbRegAppTableRecord
  2
GEVID1208928892
 70
     0
  0
APPID
  5
491
330
9
100
AcDbSymbolTableRecord
100
AcDbRegAppTableRecord
  2
GEVID1208933827
 70
     0
  0
APPID
  5
492
330
9
100
AcDbSymbolTableRecord
100
AcDbRegAppTableRecord
  2
GEVID1208933829
 70
     0
  0
APPID
  5
493
330
9
100
AcDbSymbolTableRecord
100
AcDbRegAppTableRecord
  2
GEVID1208933830
 70
     0
  0
APPID
  5
494
330
9
100
AcDbSymbolTableRecord
100
AcDbRegAppTableRecord
  2
GEVID1208933831
 70
     0
  0
APPID
  5
495
330
9
100
AcDbSymbolTableRecord
100
AcDbRegAppTableRecord
  2
GEVID1208933832
 70
     0
  0
APPID
  5
496
330
9
100
AcDbSymbolTableRecord
100
AcDbRegAppTableRecord
  2
GEVID1208933833
 70
     0
  0
APPID
  5
497
330
9
100
AcDbSymbolTableRecord
100
AcDbRegAppTableRecord
  2
GEVID1208933834
 70
     0
  0
APPID
  5
498
330
9
100
AcDbSymbolTableRecord
100
AcDbRegAppTableRecord
  2
GEVID1208933835
 70
     0
  0
APPID
  5
499
330
9
100
AcDbSymbolTableRecord
100
AcDbRegAppTableRecord
  2
GEVID1208933836
 70
     0
  0
APPID
  5
49A
330
9
100
AcDbSymbolTableRecord
100
AcDbRegAppTableRecord
  2
GEVID1208933837
 70
     0
  0
APPID
  5
49B
330
9
100
AcDbSymbolTableRecord
100
AcDbRegAppTableRecord
  2
GEVID1208933838
 70
     0
  0
APPID
  5
49C
330
9
100
AcDbSymbolTableRecord
100
AcDbRegAppTableRecord
  2
GEVID1208933840
 70
     0
  0
APPID
  5
49D
330
9
100
AcDbSymbolTableRecord
100
AcDbRegAppTableRecord
  2
GEVID1208933842
 70
     0
  0
APPID
  5
49E
330
9
100
AcDbSymbolTableRecord
100
AcDbRegAppTableRecord
  2
GEVID1208933843
 70
     0
  0
APPID
  5
49F
330
9
100
AcDbSymbolTableRecord
100
AcDbRegAppTableRecord
  2
GEVID1208933844
 70
     0
  0
APPID
  5
4A0
330
9
100
AcDbSymbolTableRecord
100
AcDbRegAppTableRecord
  2
GEVID1208933845
 70
     0
  0
APPID
  5
4A1
330
9
100
AcDbSymbolTableRecord
100
AcDbRegAppTableRecord
  2
GEVID1208933846
 70
     0
  0
APPID
  5
4A2
330
9
100
AcDbSymbolTableRecord
100
AcDbRegAppTableRecord
  2
GEVID1208933847
 70
     0
  0
APPID
  5
4A3
330
9
100
AcDbSymbolTableRecord
100
AcDbRegAppTableRecord
  2
GEVID1208933848
 70
     0
  0
APPID
  5
4A4
330
9
100
AcDbSymbolTableRecord
100
AcDbRegAppTableRecord
  2
GEVID1208933849
 70
     0
  0
APPID
  5
4A5
330
9
100
AcDbSymbolTableRecord
100
AcDbRegAppTableRecord
  2
GEVID1208933850
 70
     0
  0
APPID
  5
4A6
330
9
100
AcDbSymbolTableRecord
100
AcDbRegAppTableRecord
  2
GEVID1208933851
 70
     0
  0
APPID
  5
4A7
330
9
100
AcDbSymbolTableRecord
100
AcDbRegAppTableRecord
  2
GEVID1208933852
 70
     0
  0
APPID
  5
4A8
330
9
100
AcDbSymbolTableRecord
100
AcDbRegAppTableRecord
  2
GEVID1208933853
 70
     0
  0
APPID
  5
4A9
330
9
100
AcDbSymbolTableRecord
100
AcDbRegAppTableRecord
  2
GEVID1208933854
 70
     0
  0
APPID
  5
4AA
330
9
100
AcDbSymbolTableRecord
100
AcDbRegAppTableRecord
  2
GEVID1208933855
 70
     0
  0
APPID
  5
4AB
330
9
100
AcDbSymbolTableRecord
100
AcDbRegAppTableRecord
  2
GEVID1208933856
 70
     0
  0
APPID
  5
4AC
330
9
100
AcDbSymbolTableRecord
100
AcDbRegAppTableRecord
  2
GEVID1208933857
 70
     0
  0
APPID
  5
4AD
330
9
100
AcDbSymbolTableRecord
100
AcDbRegAppTableRecord
  2
GEVID1208933858
 70
     0
  0
APPID
  5
4AE
330
9
100
AcDbSymbolTableRecord
100
AcDbRegAppTableRecord
  2
GEVID1208933859
 70
     0
  0
APPID
  5
4AF
330
9
100
AcDbSymbolTableRecord
100
AcDbRegAppTableRecord
  2
GEVID1208933860
 70
     0
  0
APPID
  5
4B0
330
9
100
AcDbSymbolTableRecord
100
AcDbRegAppTableRecord
  2
GEVID1208933861
 70
     0
  0
APPID
  5
4B1
330
9
100
AcDbSymbolTableRecord
100
AcDbRegAppTableRecord
  2
GEVID1208933862
 70
     0
  0
APPID
  5
4B2
330
9
100
AcDbSymbolTableRecord
100
AcDbRegAppTableRecord
  2
GEVID1208933863
 70
     0
  0
APPID
  5
4B3
330
9
100
AcDbSymbolTableRecord
100
AcDbRegAppTableRecord
  2
GEVID1208933864
 70
     0
  0
APPID
  5
4B4
330
9
100
AcDbSymbolTableRecord
100
AcDbRegAppTableRecord
  2
GEVID1208933865
 70
     0
  0
APPID
  5
4B5
330
9
100
AcDbSymbolTableRecord
100
AcDbRegAppTableRecord
  2
GEVID1208933866
 70
     0
  0
APPID
  5
4B6
330
9
100
AcDbSymbolTableRecord
100
AcDbRegAppTableRecord
  2
GEVID1208933867
 70
     0
  0
APPID
  5
4B7
330
9
100
AcDbSymbolTableRecord
100
AcDbRegAppTableRecord
  2
GEVID1208933868
 70
     0
  0
APPID
  5
4B8
330
9
100
AcDbSymbolTableRecord
100
AcDbRegAppTableRecord
  2
GEVID1208933869
 70
     0
  0
APPID
  5
4B9
330
9
100
AcDbSymbolTableRecord
100
AcDbRegAppTableRecord
  2
GEVID1208933870
 70
     0
  0
APPID
  5
4BA
330
9
100
AcDbSymbolTableRecord
100
AcDbRegAppTableRecord
  2
GEVID1208933871
 70
     0
  0
APPID
  5
4BB
330
9
100
AcDbSymbolTableRecord
100
AcDbRegAppTableRecord
  2
GEVID1208933872
 70
     0
  0
APPID
  5
4BC
330
9
100
AcDbSymbolTableRecord
100
AcDbRegAppTableRecord
  2
GEVID1208933873
 70
     0
  0
APPID
  5
4BD
330
9
100
AcDbSymbolTableRecord
100
AcDbRegAppTableRecord
  2
GEVID1208933874
 70
     0
  0
APPID
  5
4BE
330
9
100
AcDbSymbolTableRecord
100
AcDbRegAppTableRecord
  2
GEVID1208933875
 70
     0
  0
APPID
  5
4BF
330
9
100
AcDbSymbolTableRecord
100
AcDbRegAppTableRecord
  2
GEVID1208933876
 70
     0
  0
APPID
  5
4C0
330
9
100
AcDbSymbolTableRecord
100
AcDbRegAppTableRecord
  2
ACAD_DSTYLE_DIMRADIAL_EXTENSION
 70
     0
  0
APPID
  5
4C1
330
9
100
AcDbSymbolTableRecord
100
AcDbRegAppTableRecord
  2
GEVID1208999100
 70
     0
  0
APPID
  5
4C2
330
9
100
AcDbSymbolTableRecord
100
AcDbRegAppTableRecord
  2
GEVID1208999101
 70
     0
  0
APPID
  5
4C3
330
9
100
AcDbSymbolTableRecord
100
AcDbRegAppTableRecord
  2
GEVID1208999102
 70
     0
  0
APPID
  5
4C4
330
9
100
AcDbSymbolTableRecord
100
AcDbRegAppTableRecord
  2
GEVID1208999103
 70
     0
  0
APPID
  5
4C5
330
9
100
AcDbSymbolTableRecord
100
AcDbRegAppTableRecord
  2
GEVID1208999105
 70
     0
  0
APPID
  5
4C6
330
9
100
AcDbSymbolTableRecord
100
AcDbRegAppTableRecord
  2
GEVID1208999106
 70
     0
  0
APPID
  5
4C7
330
9
100
AcDbSymbolTableRecord
100
AcDbRegAppTableRecord
  2
GEVID1208999108
 70
     0
  0
APPID
  5
4C8
330
9
100
AcDbSymbolTableRecord
100
AcDbRegAppTableRecord
  2
GEVID1208999109
 70
     0
  0
APPID
  5
4C9
330
9
100
AcDbSymbolTableRecord
100
AcDbRegAppTableRecord
  2
GEVID1208999110
 70
     0
  0
APPID
  5
4CA
330
9
100
AcDbSymbolTableRecord
100
AcDbRegAppTableRecord
  2
GEVID1208999111
 70
     0
  0
APPID
  5
4CB
330
9
100
AcDbSymbolTableRecord
100
AcDbRegAppTableRecord
  2
GEVID1208999112
 70
     0
  0
APPID
  5
4CC
330
9
100
AcDbSymbolTableRecord
100
AcDbRegAppTableRecord
  2
GEVID1208999113
 70
     0
  0
APPID
  5
4CD
330
9
100
AcDbSymbolTableRecord
100
AcDbRegAppTableRecord
  2
GEVID1208999114
 70
     0
  0
APPID
  5
4CE
330
9
100
AcDbSymbolTableRecord
100
AcDbRegAppTableRecord
  2
GEVID1210218799
 70
     0
  0
APPID
  5
4CF
330
9
100
AcDbSymbolTableRecord
100
AcDbRegAppTableRecord
  2
GEVID1210218800
 70
     0
  0
APPID
  5
4D0
330
9
100
AcDbSymbolTableRecord
100
AcDbRegAppTableRecord
  2
GENIUS_GEFWELD_13
 70
     0
  0
APPID
  5
4D1
330
9
100
AcDbSymbolTableRecord
100
AcDbRegAppTableRecord
  2
GENIUS_GENOBJ-F-WELS_13
 70
     0
  0
APPID
  5
4D2
330
9
100
AcDbSymbolTableRecord
100
AcDbRegAppTableRecord
  2
AcadAnnotative
 70
     0
  0
APPID
  5
4D3
330
9
100
AcDbSymbolTableRecord
100
AcDbRegAppTableRecord
  2
GEVID1210145339
 70
     0
  0
APPID
  5
4D4
330
9
100
AcDbSymbolTableRecord
100
AcDbRegAppTableRecord
  2
ACAD_DSTYLE_DIMBREAK
 70
     0
  0
APPID
  5
4D5
330
9
100
AcDbSymbolTableRecord
100
AcDbRegAppTableRecord
  2
GEVID1210145340
 70
     0
  0
APPID
  5
4D6
330
9
100
AcDbSymbolTableRecord
100
AcDbRegAppTableRecord
  2
GEVID1210145341
 70
     0
  0
APPID
  5
4D7
330
9
100
AcDbSymbolTableRecord
100
AcDbRegAppTableRecord
  2
GEVID1210145342
 70
     0
  0
APPID
  5
4D8
330
9
100
AcDbSymbolTableRecord
100
AcDbRegAppTableRecord
  2
GEVID1210145343
 70
     0
  0
APPID
  5
4D9
330
9
100
AcDbSymbolTableRecord
100
AcDbRegAppTableRecord
  2
GEVID1210145344
 70
     0
  0
APPID
  5
4DA
330
9
100
AcDbSymbolTableRecord
100
AcDbRegAppTableRecord
  2
GEVID1210145345
 70
     0
  0
APPID
  5
4DB
330
9
100
AcDbSymbolTableRecord
100
AcDbRegAppTableRecord
  2
GEVID1210152816
 70
     0
  0
APPID
  5
4DC
330
9
100
AcDbSymbolTableRecord
100
AcDbRegAppTableRecord
  2
GEVID1210153850
 70
     0
  0
APPID
  5
4DD
330
9
100
AcDbSymbolTableRecord
100
AcDbRegAppTableRecord
  2
GEVID1210153851
 70
     0
  0
APPID
  5
4DE
330
9
100
AcDbSymbolTableRecord
100
AcDbRegAppTableRecord
  2
GEVID1210153852
 70
     0
  0
APPID
  5
4DF
330
9
100
AcDbSymbolTableRecord
100
AcDbRegAppTableRecord
  2
GEVID1210549898
 70
     0
  0
APPID
  5
4E0
330
9
100
AcDbSymbolTableRecord
100
AcDbRegAppTableRecord
  2
GEVID1210549899
 70
     0
  0
APPID
  5
4E1
330
9
100
AcDbSymbolTableRecord
100
AcDbRegAppTableRecord
  2
GEVID1210549900
 70
     0
  0
APPID
  5
4E2
330
9
100
AcDbSymbolTableRecord
100
AcDbRegAppTableRecord
  2
GEVID1210549901
 70
     0
  0
APPID
  5
4E3
330
9
100
AcDbSymbolTableRecord
100
AcDbRegAppTableRecord
  2
GEVID1210549902
 70
     0
  0
APPID
  5
4E4
330
9
100
AcDbSymbolTableRecord
100
AcDbRegAppTableRecord
  2
GEVID1210549903
 70
     0
  0
APPID
  5
4E5
330
9
100
AcDbSymbolTableRecord
100
AcDbRegAppTableRecord
  2
GEVID1210549904
 70
     0
  0
APPID
  5
4E6
330
9
100
AcDbSymbolTableRecord
100
AcDbRegAppTableRecord
  2
GEVID1210549905
 70
     0
  0
APPID
  5
4E7
330
9
100
AcDbSymbolTableRecord
100
AcDbRegAppTableRecord
  2
GEVID1210549906
 70
     0
  0
APPID
  5
4E8
330
9
100
AcDbSymbolTableRecord
100
AcDbRegAppTableRecord
  2
GEVID1210549907
 70
     0
  0
APPID
  5
4E9
330
9
100
AcDbSymbolTableRecord
100
AcDbRegAppTableRecord
  2
GEVID1210549908
 70
     0
  0
APPID
  5
4EA
330
9
100
AcDbSymbolTableRecord
100
AcDbRegAppTableRecord
  2
GEVID1210549909
 70
     0
  0
APPID
  5
4EB
330
9
100
AcDbSymbolTableRecord
100
AcDbRegAppTableRecord
  2
GEVID1210549910
 70
     0
  0
APPID
  5
4EC
330
9
100
AcDbSymbolTableRecord
100
AcDbRegAppTableRecord
  2
GEVID1210549911
 70
     0
  0
APPID
  5
4ED
330
9
100
AcDbSymbolTableRecord
100
AcDbRegAppTableRecord
  2
GEVID1210549912
 70
     0
  0
APPID
  5
4EE
330
9
100
AcDbSymbolTableRecord
100
AcDbRegAppTableRecord
  2
GEVID1210549913
 70
     0
  0
APPID
  5
4EF
330
9
100
AcDbSymbolTableRecord
100
AcDbRegAppTableRecord
  2
GEVID1210549914
 70
     0
  0
APPID
  5
4F0
330
9
100
AcDbSymbolTableRecord
100
AcDbRegAppTableRecord
  2
GEVID1210549915
 70
     0
  0
APPID
  5
4F1
330
9
100
AcDbSymbolTableRecord
100
AcDbRegAppTableRecord
  2
GEVID1210549916
 70
     0
  0
APPID
  5
4F2
330
9
100
AcDbSymbolTableRecord
100
AcDbRegAppTableRecord
  2
GEVID1210549917
 70
     0
  0
APPID
  5
4F3
330
9
100
AcDbSymbolTableRecord
100
AcDbRegAppTableRecord
  2
GENIUS_GENOBJ-N-CRS_13
 70
     0
  0
APPID
  5
4F4
330
9
100
AcDbSymbolTableRecord
100
AcDbRegAppTableRecord
  2
GEVID1210549918
 70
     0
  0
APPID
  5
4F5
330
9
100
AcDbSymbolTableRecord
100
AcDbRegAppTableRecord
  2
GENIUS_GENOBJ-N-CRC_13
 70
     0
  0
APPID
  5
4F6
330
9
100
AcDbSymbolTableRecord
100
AcDbRegAppTableRecord
  2
GENIUS_GENCRC_14
 70
     0
  0
APPID
  5
4F7
330
9
100
AcDbSymbolTableRecord
100
AcDbRegAppTableRecord
  2
GEVID1210549919
 70
     0
  0
APPID
  5
4F8
330
9
100
AcDbSymbolTableRecord
100
AcDbRegAppTableRecord
  2
GEVID1210549921
 70
     0
  0
APPID
  5
4F9
330
9
100
AcDbSymbolTableRecord
100
AcDbRegAppTableRecord
  2
GEVID1210549922
 70
     0
  0
APPID
  5
4FA
330
9
100
AcDbSymbolTableRecord
100
AcDbRegAppTableRecord
  2
GEVID1210635173
 70
     0
  0
APPID
  5
4FB
330
9
100
AcDbSymbolTableRecord
100
AcDbRegAppTableRecord
  2
GEVID1210635174
 70
     0
  0
APPID
  5
4FC
330
9
100
AcDbSymbolTableRecord
100
AcDbRegAppTableRecord
  2
GEVID1210635175
 70
     0
  0
APPID
  5
4FD
330
9
100
AcDbSymbolTableRecord
100
AcDbRegAppTableRecord
  2
GEVID1210635176
 70
     0
  0
APPID
  5
4FE
330
9
100
AcDbSymbolTableRecord
100
AcDbRegAppTableRecord
  2
GEVID1210635177
 70
     0
  0
APPID
  5
4FF
330
9
100
AcDbSymbolTableRecord
100
AcDbRegAppTableRecord
  2
GEVID1210635178
 70
     0
  0
APPID
  5
500
330
9
100
AcDbSymbolTableRecord
100
AcDbRegAppTableRecord
  2
GENIUS_GENIUS_GENBHEDTMP_13
 70
     0
  0
APPID
  5
501
330
9
100
AcDbSymbolTableRecord
100
AcDbRegAppTableRecord
  2
GEVID1210635179
 70
     0
  0
APPID
  5
502
330
9
100
AcDbSymbolTableRecord
100
AcDbRegAppTableRecord
  2
GEVID1210635180
 70
     0
  0
APPID
  5
503
330
9
100
AcDbSymbolTableRecord
100
AcDbRegAppTableRecord
  2
GEVID1210635181
 70
     0
  0
APPID
  5
504
330
9
100
AcDbSymbolTableRecord
100
AcDbRegAppTableRecord
  2
GEVID1210635182
 70
     0
  0
APPID
  5
505
330
9
100
AcDbSymbolTableRecord
100
AcDbRegAppTableRecord
  2
GEVID1210635184
 70
     0
  0
APPID
  5
506
330
9
100
AcDbSymbolTableRecord
100
AcDbRegAppTableRecord
  2
GEVID1210635185
 70
     0
  0
APPID
  5
507
330
9
100
AcDbSymbolTableRecord
100
AcDbRegAppTableRecord
  2
GEVID1210635186
 70
     0
  0
APPID
  5
508
330
9
100
AcDbSymbolTableRecord
100
AcDbRegAppTableRecord
  2
GEVID1210635187
 70
     0
  0
APPID
  5
509
330
9
100
AcDbSymbolTableRecord
100
AcDbRegAppTableRecord
  2
GEVID1210635188
 70
     0
  0
APPID
  5
50A
330
9
100
AcDbSymbolTableRecord
100
AcDbRegAppTableRecord
  2
GEVID1210635189
 70
     0
  0
APPID
  5
50B
330
9
100
AcDbSymbolTableRecord
100
AcDbRegAppTableRecord
  2
GEVID1210635190
 70
     0
  0
APPID
  5
50C
330
9
100
AcDbSymbolTableRecord
100
AcDbRegAppTableRecord
  2
GENIUS_GENREC_14
 70
     0
  0
APPID
  5
50D
330
9
100
AcDbSymbolTableRecord
100
AcDbRegAppTableRecord
  2
GENIUS_GENOBJ-N-REC_13
 70
     0
  0
APPID
  5
50E
330
9
100
AcDbSymbolTableRecord
100
AcDbRegAppTableRecord
  2
GEVID1210676655
 70
     0
  0
APPID
  5
50F
330
9
100
AcDbSymbolTableRecord
100
AcDbRegAppTableRecord
  2
GEVID1210676656
 70
     0
  0
APPID
  5
510
330
9
100
AcDbSymbolTableRecord
100
AcDbRegAppTableRecord
  2
GEVID1210676657
 70
     0
  0
APPID
  5
511
330
9
100
AcDbSymbolTableRecord
100
AcDbRegAppTableRecord
  2
GEVID1210676659
 70
     0
  0
APPID
  5
512
330
9
100
AcDbSymbolTableRecord
100
AcDbRegAppTableRecord
  2
GEVID1210676660
 70
     0
  0
APPID
  5
513
330
9
100
AcDbSymbolTableRecord
100
AcDbRegAppTableRecord
  2
GEVID1210676661
 70
     0
  0
APPID
  5
514
330
9
100
AcDbSymbolTableRecord
100
AcDbRegAppTableRecord
  2
GEVID1210676662
 70
     0
  0
APPID
  5
515
330
9
100
AcDbSymbolTableRecord
100
AcDbRegAppTableRecord
  2
GEVID1210721646
 70
     0
  0
APPID
  5
516
330
9
100
AcDbSymbolTableRecord
100
AcDbRegAppTableRecord
  2
GEVID1210721647
 70
     0
  0
APPID
  5
517
330
9
100
AcDbSymbolTableRecord
100
AcDbRegAppTableRecord
  2
GEVID1210721648
 70
     0
  0
APPID
  5
518
330
9
100
AcDbSymbolTableRecord
100
AcDbRegAppTableRecord
  2
GEVID1210721649
 70
     0
  0
APPID
  5
519
330
9
100
AcDbSymbolTableRecord
100
AcDbRegAppTableRecord
  2
GEVID1210721650
 70
     0
  0
APPID
  5
51A
330
9
100
AcDbSymbolTableRecord
100
AcDbRegAppTableRecord
  2
GEVID1210721651
 70
     0
  0
APPID
  5
51B
330
9
100
AcDbSymbolTableRecord
100
AcDbRegAppTableRecord
  2
GEVID1210721652
 70
     0
  0
APPID
  5
51C
330
9
100
AcDbSymbolTableRecord
100
AcDbRegAppTableRecord
  2
GEVID1210721653
 70
     0
  0
APPID
  5
51D
330
9
100
AcDbSymbolTableRecord
100
AcDbRegAppTableRecord
  2
PE_URL
 70
     0
  0
APPID
  5
51E
330
9
100
AcDbSymbolTableRecord
100
AcDbRegAppTableRecord
  2
GEVID1210825555
 70
     0
  0
APPID
  5
51F
330
9
100
AcDbSymbolTableRecord
100
AcDbRegAppTableRecord
  2
GEVID1210825556
 70
     0
  0
APPID
  5
520
330
9
100
AcDbSymbolTableRecord
100
AcDbRegAppTableRecord
  2
GEVID1210825557
 70
     0
  0
APPID
  5
521
330
9
100
AcDbSymbolTableRecord
100
AcDbRegAppTableRecord
  2
GEVID1210825558
 70
     0
  0
APPID
  5
522
330
9
100
AcDbSymbolTableRecord
100
AcDbRegAppTableRecord
  2
GEVID1210825559
 70
     0
  0
APPID
  5
523
330
9
100
AcDbSymbolTableRecord
100
AcDbRegAppTableRecord
  2
GEVID1210825560
 70
     0
  0
APPID
  5
524
330
9
100
AcDbSymbolTableRecord
100
AcDbRegAppTableRecord
  2
GEVID1210825561
 70
     0
  0
APPID
  5
525
330
9
100
AcDbSymbolTableRecord
100
AcDbRegAppTableRecord
  2
GEVID1210825562
 70
     0
  0
APPID
  5
526
330
9
100
AcDbSymbolTableRecord
100
AcDbRegAppTableRecord
  2
GEVID1210825563
 70
     0
  0
APPID
  5
527
330
9
100
AcDbSymbolTableRecord
100
AcDbRegAppTableRecord
  2
GEVID1210825564
 70
     0
  0
APPID
  5
528
330
9
100
AcDbSymbolTableRecord
100
AcDbRegAppTableRecord
  2
GEVID1210825565
 70
     0
  0
APPID
  5
529
330
9
100
AcDbSymbolTableRecord
100
AcDbRegAppTableRecord
  2
GEVID1210825566
 70
     0
  0
APPID
  5
52A
330
9
100
AcDbSymbolTableRecord
100
AcDbRegAppTableRecord
  2
GEVID1210825567
 70
     0
  0
APPID
  5
52B
330
9
100
AcDbSymbolTableRecord
100
AcDbRegAppTableRecord
  2
GENIUS_GENOBJ-N-ZOO_13
 70
     0
  0
APPID
  5
52C
330
9
100
AcDbSymbolTableRecord
100
AcDbRegAppTableRecord
  2
GENIUS_GENZOO_17
 70
     0
  0
APPID
  5
52D
330
9
100
AcDbSymbolTableRecord
100
AcDbRegAppTableRecord
  2
ACADANNOTATIVEDECOMPOSITION
 70
     0
  0
APPID
  5
52E
330
9
100
AcDbSymbolTableRecord
100
AcDbRegAppTableRecord
  2
GENIUS_GENOBJ-N-HTC_13
 70
     0
  0
APPID
  5
52F
330
9
100
AcDbSymbolTableRecord
100
AcDbRegAppTableRecord
  2
GENIUS_GENHATCH_13
 70
     0
  0
APPID
  5
530
330
9
100
AcDbSymbolTableRecord
100
AcDbRegAppTableRecord
  2
GEVID1210896020
 70
     0
  0
APPID
  5
531
330
9
100
AcDbSymbolTableRecord
100
AcDbRegAppTableRecord
  2
GEVID1210896021
 70
     0
  0
APPID
  5
532
330
9
100
AcDbSymbolTableRecord
100
AcDbRegAppTableRecord
  2
GEVID1209083540
 70
     0
  0
APPID
  5
533
330
9
100
AcDbSymbolTableRecord
100
AcDbRegAppTableRecord
  2
GEVMK
 70
     0
  0
APPID
  5
534
330
9
100
AcDbSymbolTableRecord
100
AcDbRegAppTableRecord
  2
GEVID1209083542
 70
     0
  0
APPID
  5
535
330
9
100
AcDbSymbolTableRecord
100
AcDbRegAppTableRecord
  2
GEVID1209083543
 70
     0
  0
APPID
  5
536
330
9
100
AcDbSymbolTableRecord
100
AcDbRegAppTableRecord
  2
GEVID1209083544
 70
     0
  0
APPID
  5
537
330
9
100
AcDbSymbolTableRecord
100
AcDbRegAppTableRecord
  2
GEVID1209083545
 70
     0
  0
APPID
  5
538
330
9
100
AcDbSymbolTableRecord
100
AcDbRegAppTableRecord
  2
GEVID1209083546
 70
     0
  0
APPID
  5
539
330
9
100
AcDbSymbolTableRecord
100
AcDbRegAppTableRecord
  2
GEVID1209083547
 70
     0
  0
APPID
  5
53A
330
9
100
AcDbSymbolTableRecord
100
AcDbRegAppTableRecord
  2
GEVID1209083548
 70
     0
  0
APPID
  5
53B
330
9
100
AcDbSymbolTableRecord
100
AcDbRegAppTableRecord
  2
GEVID1209083549
 70
     0
  0
APPID
  5
53C
330
9
100
AcDbSymbolTableRecord
100
AcDbRegAppTableRecord
  2
GEVID1209083550
 70
     0
  0
APPID
  5
53D
330
9
100
AcDbSymbolTableRecord
100
AcDbRegAppTableRecord
  2
GEVID1209083551
 70
     0
  0
APPID
  5
53E
330
9
100
AcDbSymbolTableRecord
100
AcDbRegAppTableRecord
  2
GEVID1209083552
 70
     0
  0
APPID
  5
53F
330
9
100
AcDbSymbolTableRecord
100
AcDbRegAppTableRecord
  2
GEVID1209083553
 70
     0
  0
APPID
  5
540
330
9
100
AcDbSymbolTableRecord
100
AcDbRegAppTableRecord
  2
GEVID1210896022
 70
     0
  0
APPID
  5
541
330
9
100
AcDbSymbolTableRecord
100
AcDbRegAppTableRecord
  2
GEVID1211508364
 70
     0
  0
APPID
  5
542
330
9
100
AcDbSymbolTableRecord
100
AcDbRegAppTableRecord
  2
GEVID1211414908
 70
     0
  0
APPID
  5
543
330
9
100
AcDbSymbolTableRecord
100
AcDbRegAppTableRecord
  2
GEVID1211414909
 70
     0
  0
APPID
  5
544
330
9
100
AcDbSymbolTableRecord
100
AcDbRegAppTableRecord
  2
GEVID1211508359
 70
     0
  0
APPID
  5
545
330
9
100
AcDbSymbolTableRecord
100
AcDbRegAppTableRecord
  2
GEVID1211508360
 70
     0
  0
APPID
  5
546
330
9
100
AcDbSymbolTableRecord
100
AcDbRegAppTableRecord
  2
GEVID1211508361
 70
     0
  0
APPID
  5
547
330
9
100
AcDbSymbolTableRecord
100
AcDbRegAppTableRecord
  2
GEVID1211508362
 70
     0
  0
APPID
  5
548
330
9
100
AcDbSymbolTableRecord
100
AcDbRegAppTableRecord
  2
GEVID1211508363
 70
     0
  0
APPID
  5
549
330
9
100
AcDbSymbolTableRecord
100
AcDbRegAppTableRecord
  2
GEVID1211878469
 70
     0
  0
APPID
  5
54A
330
9
100
AcDbSymbolTableRecord
100
AcDbRegAppTableRecord
  2
GEVID1212642819
 70
     0
  0
APPID
  5
54B
330
9
100
AcDbSymbolTableRecord
100
AcDbRegAppTableRecord
  2
GEVID1212642820
 70
     0
  0
APPID
  5
54C
330
9
100
AcDbSymbolTableRecord
100
AcDbRegAppTableRecord
  2
GEVID1212642821
 70
     0
  0
APPID
  5
54D
330
9
100
AcDbSymbolTableRecord
100
AcDbRegAppTableRecord
  2
GEVID1212642822
 70
     0
  0
APPID
  5
54E
330
9
100
AcDbSymbolTableRecord
100
AcDbRegAppTableRecord
  2
GEVID1212642823
 70
     0
  0
APPID
  5
54F
330
9
100
AcDbSymbolTableRecord
100
AcDbRegAppTableRecord
  2
GEVID1212642825
 70
     0
  0
APPID
  5
550
330
9
100
AcDbSymbolTableRecord
100
AcDbRegAppTableRecord
  2
GEVID1212642826
 70
     0
  0
APPID
  5
551
330
9
100
AcDbSymbolTableRecord
100
AcDbRegAppTableRecord
  2
GEVID1212642827
 70
     0
  0
APPID
  5
552
330
9
100
AcDbSymbolTableRecord
100
AcDbRegAppTableRecord
  2
GEVID1212642828
 70
     0
  0
APPID
  5
553
330
9
100
AcDbSymbolTableRecord
100
AcDbRegAppTableRecord
  2
GEVID1212642831
 70
     0
  0
APPID
  5
554
330
9
100
AcDbSymbolTableRecord
100
AcDbRegAppTableRecord
  2
GEVID1212642834
 70
     0
  0
APPID
  5
555
330
9
100
AcDbSymbolTableRecord
100
AcDbRegAppTableRecord
  2
GEVID1212642835
 70
     0
  0
APPID
  5
556
330
9
100
AcDbSymbolTableRecord
100
AcDbRegAppTableRecord
  2
GEVID1212642836
 70
     0
  0
APPID
  5
557
330
9
100
AcDbSymbolTableRecord
100
AcDbRegAppTableRecord
  2
GEVID1212642837
 70
     0
  0
APPID
  5
558
330
9
100
AcDbSymbolTableRecord
100
AcDbRegAppTableRecord
  2
GEVID1212642839
 70
     0
  0
APPID
  5
559
330
9
100
AcDbSymbolTableRecord
100
AcDbRegAppTableRecord
  2
GEVID1212642840
 70
     0
  0
APPID
  5
55A
330
9
100
AcDbSymbolTableRecord
100
AcDbRegAppTableRecord
  2
GEVID1212642841
 70
     0
  0
APPID
  5
55B
330
9
100
AcDbSymbolTableRecord
100
AcDbRegAppTableRecord
  2
GEVID1212655312
 70
     0
  0
APPID
  5
55C
330
9
100
AcDbSymbolTableRecord
100
AcDbRegAppTableRecord
  2
GEVID1212655313
 70
     0
  0
APPID
  5
55D
330
9
100
AcDbSymbolTableRecord
100
AcDbRegAppTableRecord
  2
GEVID1212656533
 70
     0
  0
APPID
  5
55E
330
9
100
AcDbSymbolTableRecord
100
AcDbRegAppTableRecord
  2
GEVID1212656534
 70
     0
  0
APPID
  5
55F
330
9
100
AcDbSymbolTableRecord
100
AcDbRegAppTableRecord
  2
GEVID1212656535
 70
     0
  0
APPID
  5
560
330
9
100
AcDbSymbolTableRecord
100
AcDbRegAppTableRecord
  2
GEVID1212656536
 70
     0
  0
APPID
  5
561
330
9
100
AcDbSymbolTableRecord
100
AcDbRegAppTableRecord
  2
GEVID1212656538
 70
     0
  0
APPID
  5
562
330
9
100
AcDbSymbolTableRecord
100
AcDbRegAppTableRecord
  2
GEVID1212656541
 70
     0
  0
APPID
  5
563
330
9
100
AcDbSymbolTableRecord
100
AcDbRegAppTableRecord
  2
GEVID1212656543
 70
     0
  0
APPID
  5
564
330
9
100
AcDbSymbolTableRecord
100
AcDbRegAppTableRecord
  2
GENIUS_GENOBJ-F-PFASSM_13
 70
     0
  0
APPID
  5
565
330
9
100
AcDbSymbolTableRecord
100
AcDbRegAppTableRecord
  2
GEVID1212656544
 70
     0
  0
APPID
  5
566
330
9
100
AcDbSymbolTableRecord
100
AcDbRegAppTableRecord
  2
GEVID1212656545
 70
     0
  0
APPID
  5
567
330
9
100
AcDbSymbolTableRecord
100
AcDbRegAppTableRecord
  2
GEVID1212656546
 70
     0
  0
APPID
  5
568
330
9
100
AcDbSymbolTableRecord
100
AcDbRegAppTableRecord
  2
GEVID1212656547
 70
     0
  0
APPID
  5
569
330
9
100
AcDbSymbolTableRecord
100
AcDbRegAppTableRecord
  2
GEVID1212656548
 70
     0
  0
APPID
  5
56A
330
9
100
AcDbSymbolTableRecord
100
AcDbRegAppTableRecord
  2
GEVID1212656549
 70
     0
  0
APPID
  5
56B
330
9
100
AcDbSymbolTableRecord
100
AcDbRegAppTableRecord
  2
GEVID1212656550
 70
     0
  0
APPID
  5
56C
330
9
100
AcDbSymbolTableRecord
100
AcDbRegAppTableRecord
  2
GEVID1212656552
 70
     0
  0
APPID
  5
56D
330
9
100
AcDbSymbolTableRecord
100
AcDbRegAppTableRecord
  2
GEVID1212656553
 70
     0
  0
APPID
  5
56E
330
9
100
AcDbSymbolTableRecord
100
AcDbRegAppTableRecord
  2
GEVID1212656554
 70
     0
  0
APPID
  5
56F
330
9
100
AcDbSymbolTableRecord
100
AcDbRegAppTableRecord
  2
GEVID1212656555
 70
     0
  0
APPID
  5
570
330
9
100
AcDbSymbolTableRecord
100
AcDbRegAppTableRecord
  2
GEVID1212656556
 70
     0
  0
APPID
  5
571
330
9
100
AcDbSymbolTableRecord
100
AcDbRegAppTableRecord
  2
GEVID1212656557
 70
     0
  0
APPID
  5
572
330
9
100
AcDbSymbolTableRecord
100
AcDbRegAppTableRecord
  2
GEVID1212656559
 70
     0
  0
APPID
  5
573
330
9
100
AcDbSymbolTableRecord
100
AcDbRegAppTableRecord
  2
GEVID1212656560
 70
     0
  0
APPID
  5
574
330
9
100
AcDbSymbolTableRecord
100
AcDbRegAppTableRecord
  2
GEVID1212656561
 70
     0
  0
APPID
  5
575
330
9
100
AcDbSymbolTableRecord
100
AcDbRegAppTableRecord
  2
GEVID1212656562
 70
     0
  0
APPID
  5
576
330
9
100
AcDbSymbolTableRecord
100
AcDbRegAppTableRecord
  2
GEVID1212656563
 70
     0
  0
APPID
  5
577
330
9
100
AcDbSymbolTableRecord
100
AcDbRegAppTableRecord
  2
GEVID1212711781
 70
     0
  0
APPID
  5
578
330
9
100
AcDbSymbolTableRecord
100
AcDbRegAppTableRecord
  2
GEVID1212711782
 70
     0
  0
APPID
  5
579
330
9
100
AcDbSymbolTableRecord
100
AcDbRegAppTableRecord
  2
GEVID1212711783
 70
     0
  0
APPID
  5
57A
330
9
100
AcDbSymbolTableRecord
100
AcDbRegAppTableRecord
  2
GEVID1212711784
 70
     0
  0
APPID
  5
57B
330
9
100
AcDbSymbolTableRecord
100
AcDbRegAppTableRecord
  2
GEVID1212711788
 70
     0
  0
APPID
  5
57C
330
9
100
AcDbSymbolTableRecord
100
AcDbRegAppTableRecord
  2
GEVID1212711789
 70
     0
  0
APPID
  5
57D
330
9
100
AcDbSymbolTableRecord
100
AcDbRegAppTableRecord
  2
GEVID1212711790
 70
     0
  0
APPID
  5
57E
330
9
100
AcDbSymbolTableRecord
100
AcDbRegAppTableRecord
  2
GEVID1212711791
 70
     0
  0
APPID
  5
57F
330
9
100
AcDbSymbolTableRecord
100
AcDbRegAppTableRecord
  2
GEVID1212711792
 70
     0
  0
APPID
  5
580
330
9
100
AcDbSymbolTableRecord
100
AcDbRegAppTableRecord
  2
GEVID1212711793
 70
     0
  0
APPID
  5
581
330
9
100
AcDbSymbolTableRecord
100
AcDbRegAppTableRecord
  2
GEVID1212711794
 70
     0
  0
APPID
  5
582
330
9
100
AcDbSymbolTableRecord
100
AcDbRegAppTableRecord
  2
GEVID1212711795
 70
     0
  0
APPID
  5
583
330
9
100
AcDbSymbolTableRecord
100
AcDbRegAppTableRecord
  2
GEVID1212711797
 70
     0
  0
APPID
  5
584
330
9
100
AcDbSymbolTableRecord
100
AcDbRegAppTableRecord
  2
GEVID1212711798
 70
     0
  0
APPID
  5
585
330
9
100
AcDbSymbolTableRecord
100
AcDbRegAppTableRecord
  2
GEVID1212711799
 70
     0
  0
APPID
  5
586
330
9
100
AcDbSymbolTableRecord
100
AcDbRegAppTableRecord
  2
GEVID1212711800
 70
     0
  0
APPID
  5
587
330
9
100
AcDbSymbolTableRecord
100
AcDbRegAppTableRecord
  2
GEVID1212711801
 70
     0
  0
APPID
  5
588
330
9
100
AcDbSymbolTableRecord
100
AcDbRegAppTableRecord
  2
GEVID1212711802
 70
     0
  0
APPID
  5
589
330
9
100
AcDbSymbolTableRecord
100
AcDbRegAppTableRecord
  2
GEVID1212711803
 70
     0
  0
APPID
  5
58A
330
9
100
AcDbSymbolTableRecord
100
AcDbRegAppTableRecord
  2
GEVID1212711804
 70
     0
  0
APPID
  5
58B
330
9
100
AcDbSymbolTableRecord
100
AcDbRegAppTableRecord
  2
GEVID1212711805
 70
     0
  0
APPID
  5
58C
330
9
100
AcDbSymbolTableRecord
100
AcDbRegAppTableRecord
  2
GEVID1212711806
 70
     0
  0
APPID
  5
58D
330
9
100
AcDbSymbolTableRecord
100
AcDbRegAppTableRecord
  2
GEVID1212711807
 70
     0
  0
APPID
  5
58E
330
9
100
AcDbSymbolTableRecord
100
AcDbRegAppTableRecord
  2
GEVID1212711808
 70
     0
  0
APPID
  5
58F
330
9
100
AcDbSymbolTableRecord
100
AcDbRegAppTableRecord
  2
GEVID1212711809
 70
     0
  0
APPID
  5
590
330
9
100
AcDbSymbolTableRecord
100
AcDbRegAppTableRecord
  2
GEVID1212711810
 70
     0
  0
APPID
  5
591
330
9
100
AcDbSymbolTableRecord
100
AcDbRegAppTableRecord
  2
GEVID1212711811
 70
     0
  0
APPID
  5
90A
330
9
100
AcDbSymbolTableRecord
100
AcDbRegAppTableRecord
  2
GENIUS_GENTRA_14
 70
     0
  0
APPID
  5
919
330
9
100
AcDbSymbolTableRecord
100
AcDbRegAppTableRecord
  2
GENIUS_GENOBJ-N-TIT_13
 70
     0
  0
APPID
  5
91A
330
9
100
AcDbSymbolTableRecord
100
AcDbRegAppTableRecord
  2
GENIUS_GENTITLE_13
 70
     0
  0
APPID
  5
949
330
9
100
AcDbSymbolTableRecord
100
AcDbRegAppTableRecord
  2
GENIUS_GENBLLY_14
 70
     0
  0
APPID
  5
DDD
330
9
100
AcDbSymbolTableRecord
100
AcDbRegAppTableRecord
  2
GEVID1213165152
 70
     0
  0
APPID
  5
12F9
330
9
100
AcDbSymbolTableRecord
100
AcDbRegAppTableRecord
  2
AcDbDynamicBlockTrueName
 70
     0
  0
APPID
  5
12FA
330
9
100
AcDbSymbolTableRecord
100
AcDbRegAppTableRecord
  2
ACDBBLOCKREPETAG
 70
     0
  0
APPID
  5
1C15
330
9
100
AcDbSymbolTableRecord
100
AcDbRegAppTableRecord
  2
GEVID1214872427
 70
     0
  0
APPID
  5
1C2A
330
9
100
AcDbSymbolTableRecord
100
AcDbRegAppTableRecord
  2
GEVID1214872428
 70
     0
  0
APPID
  5
1C2F
330
9
100
AcDbSymbolTableRecord
100
AcDbRegAppTableRecord
  2
GEVID1214872429
 70
     0
  0
APPID
  5
1C33
330
9
100
AcDbSymbolTableRecord
100
AcDbRegAppTableRecord
  2
GEVID1214872430
 70
     0
  0
APPID
  5
1C3F
330
9
100
AcDbSymbolTableRecord
100
AcDbRegAppTableRecord
  2
GEVID1214872432
 70
     0
  0
APPID
  5
1C4E
330
9
100
AcDbSymbolTableRecord
100
AcDbRegAppTableRecord
  2
GEVID1214872433
 70
     0
  0
APPID
  5
20DC
330
9
100
AcDbSymbolTableRecord
100
AcDbRegAppTableRecord
  2
AcDbDynamicBlockGUID
 70
     0
  0
APPID
  5
20FD
330
9
100
AcDbSymbolTableRecord
100
AcDbRegAppTableRecord
  2
GENIUS_GENOBJ-N-REV_13
 70
     0
  0
APPID
  5
20FE
330
9
100
AcDbSymbolTableRecord
100
AcDbRegAppTableRecord
  2
GENIUS_GENOBJ-N-RSSYM_13
 70
     0
  0
APPID
  5
20FF
330
9
100
AcDbSymbolTableRecord
100
AcDbRegAppTableRecord
  2
GENIUS_GENSYMENT_13
 70
     0
  0
APPID
  5
2100
330
9
100
AcDbSymbolTableRecord
100
AcDbRegAppTableRecord
  2
GENIUS_GENSCSYM_13
 70
     0
  0
APPID
  5
4A7A
330
9
100
AcDbSymbolTableRecord
100
AcDbRegAppTableRecord
  2
GEVID1237770063
 70
     0
  0
APPID
  5
5101
330
9
100
AcDbSymbolTableRecord
100
AcDbRegAppTableRecord
  2
GEVID1237770064
 70
     0
  0
APPID
  5
5A3C
330
9
100
AcDbSymbolTableRecord
100
AcDbRegAppTableRecord
  2
GEVID1237775409
 70
     0
  0
APPID
  5
5A4F
330
9
100
AcDbSymbolTableRecord
100
AcDbRegAppTableRecord
  2
GEVID1237775410
 70
     0
  0
ENDTAB
  0
TABLE
  2
DIMSTYLE
  5
A
330
0
100
AcDbSymbolTable
 70
    29
100
AcDbDimStyleTable
 71
     1
340
5AB
  0
DIMSTYLE
105
5AB
330
A
100
AcDbSymbolTableRecord
100
AcDbDimStyleTableRecord
  2
SEISA
 70
     0
  4
"
 40
4.0
 41
2.5
 42
0.625
 43
10.0
 44
0.625
 47
0.1
 48
0.1
 73
     0
 74
     0
 77
     3
 78
     8
 79
     2
 90
     1
140
3.5
141
0.0
143
0.0393701
146
0.71
147
1.5
172
     1
176
     3
177
     3
178
     3
271
     2
272
     2
283
     0
286
     8
340
5D5
341
69
342
69
371
    -1
372
    -1
1001
ACAD_DSTYLE_DIMJAG
1070
   388
1040
1.5
1001
ACAD_DSTYLE_DIMTALN
1070
   392
1070
     1
  0
DIMSTYLE
105
5E9
102
{ACAD_REACTORS
330
4C01
330
4C45
330
4C66
330
4C82
330
4CC0
330
4D5D
330
4D79
330
4DBF
330
4DD7
330
4DEF
330
4E07
330
4F5D
330
4F75
330
4F8D
330
6E33
330
6EBB
330
6EE9
102
}
330
A
100
AcDbSymbolTableRecord
100
AcDbDimStyleTableRecord
  2
SEISA$0
 70
     0
  4
"
 40
4.0
 41
2.5
 42
0.625
 43
10.0
 44
0.625
 47
0.1
 48
0.1
 73
     0
 74
     0
 77
     3
 78
     8
 79
     2
 90
     1
140
3.5
141
0.0
143
0.0393701
146
0.71
147
1.5
172
     1
176
     3
177
     3
178
     3
271
     2
272
     2
283
     0
286
     8
340
5D5
341
69
342
69
371
    -1
372
    -1
  0
DIMSTYLE
105
70DC
330
A
100
AcDbSymbolTableRecord
100
AcDbDimStyleTableRecord
  2
AM_ISO
 70
     0
  4
"
 41
2.5
 42
1.0
 43
10.0
 44
1.0
 47
0.1
 48
0.1
 73
     0
 74
     0
 77
     1
 78
     8
 79
     2
 90
     1
140
3.5
141
0.0
143
0.0393701
146
0.71
147
1.5
172
     1
176
   256
177
   256
178
     2
271
     2
272
     3
274
     4
283
     0
284
     8
340
11
371
    -1
372
    -1
  0
DIMSTYLE
105
70DD
330
A
100
AcDbSymbolTableRecord
100
AcDbDimStyleTableRecord
  2
AM_ISO$3
 70
     0
  4
"
 41
2.5
 42
1.0
 43
10.0
 44
1.0
 47
0.1
 48
0.1
 73
     0
 77
     1
 78
     8
 79
     2
 90
     1
140
3.5
141
0.0
143
0.0393701
146
0.71
147
1.5
176
   256
177
   256
178
     2
271
     2
272
     3
274
     4
283
     0
284
     8
288
     1
289
     0
340
11
371
    -1
372
    -1
  0
DIMSTYLE
105
70DE
330
A
100
AcDbSymbolTableRecord
100
AcDbDimStyleTableRecord
  2
AM_ISO$4
 70
     0
  4
"
 41
2.5
 42
1.0
 43
10.0
 44
1.0
 47
0.1
 48
0.1
 73
     0
 77
     1
 78
     8
 79
     2
 90
     1
140
3.5
141
0.0
143
0.0393701
146
0.71
147
1.5
176
   256
177
   256
178
     2
271
     2
272
     3
274
     4
283
     0
284
     8
288
     1
289
     0
340
11
371
    -1
372
    -1
  0
DIMSTYLE
105
70DF
330
A
100
AcDbSymbolTableRecord
100
AcDbDimStyleTableRecord
  2
AM_ISO$6
 70
     0
  4
"
 41
2.5
 42
1.0
 43
10.0
 44
1.0
 47
0.1
 48
0.1
 73
     0
 74
     0
 78
     8
 79
     2
 90
     1
140
3.5
141
0.0
143
0.0393701
146
0.71
147
1.5
172
     1
176
   256
177
   256
178
     2
271
     2
272
     3
274
     4
283
     0
284
     8
340
11
371
    -1
372
    -1
  0
DIMSTYLE
105
70E0
330
A
100
AcDbSymbolTableRecord
100
AcDbDimStyleTableRecord
  2
AM_ISO$7
 70
     0
  4
"
 41
2.5
 42
1.0
 43
10.0
 44
1.0
 47
0.1
 48
0.1
 73
     0
 74
     0
 77
     1
 78
     8
 79
     2
 90
     1
140
5.0
141
0.0
143
0.0393701
146
0.71
147
1.5
172
     1
176
   256
177
   256
178
     2
271
     2
272
     3
274
     4
283
     0
284
     8
340
11
371
    -1
372
    -1
  0
DIMSTYLE
105
70E1
330
A
100
AcDbSymbolTableRecord
100
AcDbDimStyleTableRecord
  2
AM_ISO$SF
 70
     0
  4
"
 41
2.5
 42
1.0
 43
10.0
 44
1.0
 47
0.1
 48
0.1
 73
     0
 74
     0
 75
     1
 76
     1
 77
     1
 78
     8
 79
     2
 90
     1
140
3.5
141
0.0
143
0.0393701
146
0.71
147
1.5
172
     1
176
   256
177
   256
178
     2
271
     2
272
     3
274
     4
283
     0
284
     8
340
11
371
    -1
372
    -1
  0
DIMSTYLE
105
70E2
330
A
100
AcDbSymbolTableRecord
100
AcDbDimStyleTableRecord
  2
AM_ISO$SH
 70
     0
  4
"
 41
2.5
 42
1.0
 43
10.0
 44
1.0
 47
0.1
 48
0.1
 73
     0
 74
     0
 75
     1
 76
     1
 77
     1
 78
     8
 79
     2
 90
     1
140
3.5
141
0.0
143
0.0393701
144
2.0
146
0.71
147
1.5
172
     1
173
     1
176
   256
177
   256
178
     2
271
     2
272
     3
274
     4
283
     0
284
     8
340
11
343
74
371
    -1
372
    -1
  0
ENDTAB
  0
TABLE
  2
BLOCK_RECORD
  5
1
330
0
100
AcDbSymbolTable
 70
    31
  0
BLOCK_RECORD
  5
1F
102
{ACAD_XDICTIONARY
360
82
102
}
330
1
100
AcDbSymbolTableRecord
100
AcDbBlockTableRecord
  2
*Model_Space
340
22
 70
     0
280
     1
281
     0
  0
BLOCK_RECORD
  5
1B
330
1
100
AcDbSymbolTableRecord
100
AcDbBlockTableRecord
  2
*Paper_Space
340
1E
 70
     0
280
     1
281
     0
  0
BLOCK_RECORD
  5
23
330
1
100
AcDbSymbolTableRecord
100
AcDbBlockTableRecord
  2
*Paper_Space0
340
26
 70
     0
280
     1
281
     0
  0
BLOCK_RECORD
  5
69
330
1
100
AcDbSymbolTableRecord
100
AcDbBlockTableRecord
  2
_Open30
340
0
102
{BLKREFS
331
686C
331
686D
331
6875
331
6876
331
6881
331
6882
331
6889
331
688A
331
68A8
331
68B3
331
68BA
331
68BB
331
68C3
331
68C4
331
68CC
331
68CD
331
68D5
331
68D6
331
68F4
331
68F5
331
68FD
331
68FE
331
6906
331
6907
331
6E5F
331
6E60
331
6F0D
331
6F0E
331
6F36
331
6F37
331
6F40
331
6F41
102
}
 70
     0
280
     1
281
     0
  0
BLOCK_RECORD
  5
74
330
1
100
AcDbSymbolTableRecord
100
AcDbBlockTableRecord
  2
GENAXEH
340
0
 70
     0
280
     1
281
     0
  0
BLOCK_RECORD
  5
2A09
102
{ACAD_XDICTIONARY
360
2A0A
102
}
330
1
100
AcDbSymbolTableRecord
100
AcDbBlockTableRecord
  2
ロッカクアナツキプラグ R1／4
340
0
310
2800000020000000200000000100080000000000000400000000000000000000000000000000000000000000000080000080000000808000800000008000800080800000C0C0C000C0DCC000F0CAA6000020400000206000002080000020A0000020C0000020E00000400000004020000040400000406000004080000040A0
310
000040C0000040E00000600000006020000060400000606000006080000060A0000060C0000060E00000800000008020000080400000806000008080000080A0000080C0000080E00000A0000000A0200000A0400000A0600000A0800000A0A00000A0C00000A0E00000C0000000C0200000C0400000C0600000C0800000C0
310
A00000C0C00000C0E00000E0000000E0200000E0400000E0600000E0800000E0A00000E0C00000E0E00040000000400020004000400040006000400080004000A0004000C0004000E00040200000402020004020400040206000402080004020A0004020C0004020E000404000004040200040404000404060004040800040
310
40A0004040C0004040E00040600000406020004060400040606000406080004060A0004060C0004060E00040800000408020004080400040806000408080004080A0004080C0004080E00040A0000040A0200040A0400040A0600040A0800040A0A00040A0C00040A0E00040C0000040C0200040C0400040C0600040C08000
310
40C0A00040C0C00040C0E00040E0000040E0200040E0400040E0600040E0800040E0A00040E0C00040E0E00080000000800020008000400080006000800080008000A0008000C0008000E00080200000802020008020400080206000802080008020A0008020C0008020E00080400000804020008040400080406000804080
310
008040A0008040C0008040E00080600000806020008060400080606000806080008060A0008060C0008060E00080800000808020008080400080806000808080008080A0008080C0008080E00080A0000080A0200080A0400080A0600080A0800080A0A00080A0C00080A0E00080C0000080C0200080C0400080C0600080C0
310
800080C0A00080C0C00080C0E00080E0000080E0200080E0400080E0600080E0800080E0A00080E0C00080E0E000C0000000C0002000C0004000C0006000C0008000C000A000C000C000C000E000C0200000C0202000C0204000C0206000C0208000C020A000C020C000C020E000C0400000C0402000C0404000C0406000C0
310
408000C040A000C040C000C040E000C0600000C0602000C0604000C0606000C0608000C060A000C060C000C060E000C0800000C0802000C0804000C0806000C0808000C080A000C080C000C080E000C0A00000C0A02000C0A04000C0A06000C0A08000C0A0A000C0A0C000C0A0E000C0C00000C0C02000C0C04000C0C06000
310
C0C08000C0C0A000F0FBFF00A4A0A000808080000000FF0000FF000000FFFF00FF000000FF00FF00FFFF0000FFFFFF00000000000000000000000000000000000000000000000000000000000000000000000000000000000000000000000000F9000000000000000000000000000000000000000000000000000000000000
310
00F9000000000000000000000000000000000000000000000000000000000000FFF9000000000000000000000000000000000000000000000000000000FFFFFF00F9FFFFFF00000000000000000000000000000000000000000000FFFFFEFEFEFEFEFEFEFEFEFF000000000000000000000000000000000000FFFFFEFE0000
310
0000F900000000FEFFFF000000000000000000000000000000FF00FE000000000000F90000000000FE00FF00000000000000000000000000FF00FE00000000000000F9000000000000FEFEFF000000000000000000000000FFFE0000000000000000F900000000000000FE00FF00000000000000000000FFFE000000000000
310
000000FF0000000000000000FEFF00000000000000000000FFFE00000000000000FFFFF9FF00000000000000FEFF000000000000000000FFFE000000000000FFFF0000F900FFFF000000000000FEFF0000000000000000FFFE0000000000FF00000000F9000000FF0000000000FEFF0000000000000000FFFE0000000000FF
310
00000000F9000000FF0000000000FEFF00000000000000FF00FE0000000000FF00000000F9000000FF0000000000FE00FF00000000F9F9F9F9F9F9F9F9F9F9FFF9F9F9F9F9F9F9F9FFF9F9F9F9F9F9F9F9F9F90000000000FFFE0000000000FF00000000F9000000FF0000000000FE00FF00000000000000FFFE0000000000
310
FF00000000F9000000FF0000000000FEFF0000000000000000FFFE000000000000FFFF0000F90000FF000000000000FEFF000000000000000000FFFE00000000000000FFFFF9FFFF000000000000FEFF00000000000000000000FFFE000000000000000000FF0000000000000000FEFF0000000000000000000000FFFE0000
310
000000000000F900000000000000FE00FF0000000000000000000000FF00FE00000000000000F900000000000000FEFF00000000000000000000000000FF00FE000000000000F90000000000FEFEFF000000000000000000000000000000FF00FE0000000000F900000000FE00FF0000000000000000000000000000000000
310
FFFFFEFEFEFEFEFEFEFEFEFEFFFF000000000000000000000000000000000000000000FFFFFF00F900FFFF000000000000000000000000000000000000000000000000000000FFF9FF000000000000000000000000000000000000000000000000000000000000F90000000000000000000000000000000000000000000000
310
0000000000000000F90000000000000000000000000000000000000000000000000000000000000000000000000000000000000000000000
102
{BLKREFS
331
457B
102
}
 70
     4
280
     1
281
     0
  0
BLOCK_RECORD
  5
453E
102
{ACAD_XDICTIONARY
360
45FF
102
}
330
1
100
AcDbSymbolTableRecord
100
AcDbBlockTableRecord
  2
ケースＡ SEM355
340
0
310
2800000020000000200000000100080000000000000400000000000000000000000000000000000000000000000080000080000000808000800000008000800080800000C0C0C000C0DCC000F0CAA6000020400000206000002080000020A0000020C0000020E00000400000004020000040400000406000004080000040A0
310
000040C0000040E00000600000006020000060400000606000006080000060A0000060C0000060E00000800000008020000080400000806000008080000080A0000080C0000080E00000A0000000A0200000A0400000A0600000A0800000A0A00000A0C00000A0E00000C0000000C0200000C0400000C0600000C0800000C0
310
A00000C0C00000C0E00000E0000000E0200000E0400000E0600000E0800000E0A00000E0C00000E0E00040000000400020004000400040006000400080004000A0004000C0004000E00040200000402020004020400040206000402080004020A0004020C0004020E000404000004040200040404000404060004040800040
310
40A0004040C0004040E00040600000406020004060400040606000406080004060A0004060C0004060E00040800000408020004080400040806000408080004080A0004080C0004080E00040A0000040A0200040A0400040A0600040A0800040A0A00040A0C00040A0E00040C0000040C0200040C0400040C0600040C08000
310
40C0A00040C0C00040C0E00040E0000040E0200040E0400040E0600040E0800040E0A00040E0C00040E0E00080000000800020008000400080006000800080008000A0008000C0008000E00080200000802020008020400080206000802080008020A0008020C0008020E00080400000804020008040400080406000804080
310
008040A0008040C0008040E00080600000806020008060400080606000806080008060A0008060C0008060E00080800000808020008080400080806000808080008080A0008080C0008080E00080A0000080A0200080A0400080A0600080A0800080A0A00080A0C00080A0E00080C0000080C0200080C0400080C0600080C0
310
800080C0A00080C0C00080C0E00080E0000080E0200080E0400080E0600080E0800080E0A00080E0C00080E0E000C0000000C0002000C0004000C0006000C0008000C000A000C000C000C000E000C0200000C0202000C0204000C0206000C0208000C020A000C020C000C020E000C0400000C0402000C0404000C0406000C0
310
408000C040A000C040C000C040E000C0600000C0602000C0604000C0606000C0608000C060A000C060C000C060E000C0800000C0802000C0804000C0806000C0808000C080A000C080C000C080E000C0A00000C0A02000C0A04000C0A06000C0A08000C0A0A000C0A0C000C0A0E000C0C00000C0C02000C0C04000C0C06000
310
C0C08000C0C0A000F0FBFF00A4A0A000808080000000FF0000FF000000FFFF00FF000000FF00FF00FFFF0000FFFFFF00000000000000000000000000000000000000000000000000000000000000000000000000000000000000000000FFFF000000000000000000000000000000000000000000000000000000000000FFFF
310
000000000000000000000000000000000000000000000000000000000000FFFF000000000000000000000000000000000000000000000000000000000000FFFFFFFFFFFFFFFFFF0000000000000000000000000000000000000000000000FFFF000000000000FF0000000000000000000000000000000000000000000000FF
310
FF000000000000FF0000000000000000000000000000000000000000000000FFFF000000000000FF0000000000000000000000000000000000000000000000FFFF000000000000FF0000000000000000000000000000000000000000000000FFFF000000000000FF0000000000000000000000000000000000000000000000
310
FFFF000000000000FF0000000000000000000000000000000000000000000000F9FF000000000000FF0000000000000000000000000000000000000000000000FFFF000000000000FF0000000000000000000000000000000000000000000000FEFE000000000000FF00000000000000000000000000000000000000000000
310
00FFFF000000000000FF0000000000000000000000000000000000000000000000FFFF000000000000FF00000000000000000000000000000000000000000000000000000000000000000000000000000000000000000000000000000000000000000000000000000000000000000000000000000000000000000000000000
310
00000000000000000000000000000000000000000000000000000000000000000000000000000000000000000000000000000000000000000000000000000000000000000000000000000000000000000000000000000000000000000000000000000000000000000000000000000000000000000000000000000000000000
310
00000000000000000000000000000000000000000000000000000000000000000000000000000000000000000000000000000000000000000000000000000000000000000000000000000000000000000000000000000000000000000000000000000000000000000000FFFF00000000000000000000000000000000000000
310
000000FFFFFFF9FFFFFFFFFFFF00000000000000000000000000000000000000000000FFFFFFFFFFFFFFFFFFFF0000000000000000000000000000000000000000F9F9F9F9F9F9F9F900000000000000000000000000000000000000000000000000FFFFFFFF00000000000000000000000000000000000000000000000000
310
0000000000FFFF00000000000000000000000000000000000000000000000000000000000000000000000000000000000000000000000000
102
{BLKREFS
331
46BC
102
}
 70
     4
280
     1
281
     0
  0
BLOCK_RECORD
  5
466E
102
{ACAD_XDICTIONARY
360
46F2
102
}
330
1
100
AcDbSymbolTableRecord
100
AcDbBlockTableRecord
  2
リジット SEM355
340
0
310
2800000020000000200000000100080000000000000400000000000000000000000000000000000000000000000080000080000000808000800000008000800080800000C0C0C000C0DCC000F0CAA6000020400000206000002080000020A0000020C0000020E00000400000004020000040400000406000004080000040A0
310
000040C0000040E00000600000006020000060400000606000006080000060A0000060C0000060E00000800000008020000080400000806000008080000080A0000080C0000080E00000A0000000A0200000A0400000A0600000A0800000A0A00000A0C00000A0E00000C0000000C0200000C0400000C0600000C0800000C0
310
A00000C0C00000C0E00000E0000000E0200000E0400000E0600000E0800000E0A00000E0C00000E0E00040000000400020004000400040006000400080004000A0004000C0004000E00040200000402020004020400040206000402080004020A0004020C0004020E000404000004040200040404000404060004040800040
310
40A0004040C0004040E00040600000406020004060400040606000406080004060A0004060C0004060E00040800000408020004080400040806000408080004080A0004080C0004080E00040A0000040A0200040A0400040A0600040A0800040A0A00040A0C00040A0E00040C0000040C0200040C0400040C0600040C08000
310
40C0A00040C0C00040C0E00040E0000040E0200040E0400040E0600040E0800040E0A00040E0C00040E0E00080000000800020008000400080006000800080008000A0008000C0008000E00080200000802020008020400080206000802080008020A0008020C0008020E00080400000804020008040400080406000804080
310
008040A0008040C0008040E00080600000806020008060400080606000806080008060A0008060C0008060E00080800000808020008080400080806000808080008080A0008080C0008080E00080A0000080A0200080A0400080A0600080A0800080A0A00080A0C00080A0E00080C0000080C0200080C0400080C0600080C0
310
800080C0A00080C0C00080C0E00080E0000080E0200080E0400080E0600080E0800080E0A00080E0C00080E0E000C0000000C0002000C0004000C0006000C0008000C000A000C000C000C000E000C0200000C0202000C0204000C0206000C0208000C020A000C020C000C020E000C0400000C0402000C0404000C0406000C0
310
408000C040A000C040C000C040E000C0600000C0602000C0604000C0606000C0608000C060A000C060C000C060E000C0800000C0802000C0804000C0806000C0808000C080A000C080C000C080E000C0A00000C0A02000C0A04000C0A06000C0A08000C0A0A000C0A0C000C0A0E000C0C00000C0C02000C0C04000C0C06000
310
C0C08000C0C0A000F0FBFF00A4A0A000808080000000FF0000FF000000FFFF00FF000000FF00FF00FFFF0000FFFFFF0000000000000000000000000000000000000000000000000000000000000000000000000000000000000000000000000000FFFFFFFFFF00000000000000000000000000000000000000000000000000
310
0000FF00FF00FF000000000000000000000000000000000000000000000000000000F9F9FFF9FF000000000000000000000000000000000000000000000000000000FF00FF00FFFFFFFFFFFFFFFF000000000000FFFFFFFFFFFFFFFFFFFFFFFFFFFFFF00FF00FF000000000000FF000000000000FF00000000000000000000
310
0000FFFF00FF00FF000000000000FF000000000000FF000000000000000000000000FFFF00FF00FF000000000000FF000000000000FF000000000000000000000000FFFF00FF00FF000000000000FF000000000000FF000000000000000000000000FFFF00FF00FF000000000000FF000000000000FF000000000000000000
310
000000FFFF00FF00FF000000000000FF000000000000FF000000000000000000000000FFFF00FFF9FF000000000000FF000000000000FF000000000000000000000000FFFF00F9FFF9000000000000FF000000000000FF000000000000000000000000FFFF00FFFEFF000000000000FF000000000000FF0000000000000000
310
00000000FFFF00FF00FF000000000000FF000000000000FFFF00000000000000000000A4A4FFFFFF00FF000000000000FF000000000000FFFF0000000000000000000000A4A4A400000000000000000000000000000000FFFF00000000000000000000000000FF00000000000000000000000000000000FFFF000000000000
310
00000000000000FF00000000000000000000000000000000FFFF00000000000000000000000000FF00000000000000000000000000000000FFFF00000000000000000000000000FF00000000000000000000000000000000FFFF00000000000000000000000000FF00000000000000000000000000000000FFFFFFFFFFFFFF
310
FFFFFFFFFFFFFFFFFF00000000000000000000000000000000FFFFFFFFFFFFFFFFFFFFFFFFFFFFFFFF00000000000000000000000000000000FF0000000000000000000000000000FF00000000000000000000000000000000FF0000000000000000000000000000FF00000000000000FFFFFF000000000000FFFFFFFFFFFF
310
FFFFFFFFFFFFFFFF00FFFFFFFFFFFFFFFFFFFFFF0000000000000000000000000000000000000000FFFFFF00FFFFFFFFFFFFFFFF00000000000000000000000000000000000000F9F9F9F9F9F9F9F900000000000000000000000000000000000000000000000000FF00FFFFFF000000000000000000000000000000000000
310
000000000000000000FFFFFFFFFF000000000000000000000000000000000000000000000000000000000000000000000000000000000000
102
{BLKREFS
331
4696
102
}
 70
     4
280
     1
281
     0
  0
BLOCK_RECORD
  5
48AD
102
{ACAD_XDICTIONARY
360
491E
102
}
330
1
100
AcDbSymbolTableRecord
100
AcDbBlockTableRecord
  2
センタ SEM355
340
0
310
2800000020000000200000000100080000000000000400000000000000000000000000000000000000000000000080000080000000808000800000008000800080800000C0C0C000C0DCC000F0CAA6000020400000206000002080000020A0000020C0000020E00000400000004020000040400000406000004080000040A0
310
000040C0000040E00000600000006020000060400000606000006080000060A0000060C0000060E00000800000008020000080400000806000008080000080A0000080C0000080E00000A0000000A0200000A0400000A0600000A0800000A0A00000A0C00000A0E00000C0000000C0200000C0400000C0600000C0800000C0
310
A00000C0C00000C0E00000E0000000E0200000E0400000E0600000E0800000E0A00000E0C00000E0E00040000000400020004000400040006000400080004000A0004000C0004000E00040200000402020004020400040206000402080004020A0004020C0004020E000404000004040200040404000404060004040800040
310
40A0004040C0004040E00040600000406020004060400040606000406080004060A0004060C0004060E00040800000408020004080400040806000408080004080A0004080C0004080E00040A0000040A0200040A0400040A0600040A0800040A0A00040A0C00040A0E00040C0000040C0200040C0400040C0600040C08000
310
40C0A00040C0C00040C0E00040E0000040E0200040E0400040E0600040E0800040E0A00040E0C00040E0E00080000000800020008000400080006000800080008000A0008000C0008000E00080200000802020008020400080206000802080008020A0008020C0008020E00080400000804020008040400080406000804080
310
008040A0008040C0008040E00080600000806020008060400080606000806080008060A0008060C0008060E00080800000808020008080400080806000808080008080A0008080C0008080E00080A0000080A0200080A0400080A0600080A0800080A0A00080A0C00080A0E00080C0000080C0200080C0400080C0600080C0
310
800080C0A00080C0C00080C0E00080E0000080E0200080E0400080E0600080E0800080E0A00080E0C00080E0E000C0000000C0002000C0004000C0006000C0008000C000A000C000C000C000E000C0200000C0202000C0204000C0206000C0208000C020A000C020C000C020E000C0400000C0402000C0404000C0406000C0
310
408000C040A000C040C000C040E000C0600000C0602000C0604000C0606000C0608000C060A000C060C000C060E000C0800000C0802000C0804000C0806000C0808000C080A000C080C000C080E000C0A00000C0A02000C0A04000C0A06000C0A08000C0A0A000C0A0C000C0A0E000C0C00000C0C02000C0C04000C0C06000
310
C0C08000C0C0A000F0FBFF00A4A0A000808080000000FF0000FF000000FFFF00FF000000FF00FF00FFFF0000FFFFFF00000000000000000000000000000000000000000000000000000000000000000000000000000000000000000000000000FFFFFFFFFFFFFFFFFFFF000000000000000000000000000000000000000000
310
00000000FF000000000000FF000000000000000000000000000000000000000000000000FF000000000000FF000000000000000000000000000000000000000000000000FF000000000000FF000000000000000000000000000000000000000000000000FF000000000000FF00000000000000000000000000000000000000
310
0000000000FF000000000000FF000000000000000000000000000000000000000000000000FF000000000000FF000000000000000000000000000000000000000000000000FF000000000000FF000000000000000000000000000000000000000000000000FF000000000000FF000000000000000000000000000000000000
310
000000000000FF000000000000FF000000000000000000000000000000000000000000000000FF000000000000FF000000000000000000000000000000000000000000000000FF000000000000FF000000000000000000000000000000000000000000000000FF000000000000FF0000000000000000000000000000000000
310
00000000000000FF000000000000FF00000000000000000000A4A4A4A4A4A40000000000000000FF0000000000FFFF00000000000000000000A4A4A4A4A4000000000000000000000000000000FFFF00000000000000000000FF00000000000000000000000000000000000000FFFF00000000000000000000FF0000000000
310
0000000000000000000000000000FFFF00000000000000000000FF00000000000000000000000000000000000000FFFF00000000000000000000FF00000000000000000000000000000000000000FFFF00000000000000000000FF00000000000000000000000000000000000000FFFF00000000000000000000FF00000000
310
000000000000000000000000000000FFFF00000000000000000000FFFFFFFFFFFFFFFFFFFFFFFFFFFFFFFFFFFFFFFFFFFF00000000000000000000FFFFFFFFFFFFFFFFFFFFFFFFFFFFFFFFFFFFFFFFFFFF00000000000000000000FF0000000000000000000000000000000000000000FF00000000000000000000FF000000
310
0000000000000000000000000000000000FF00000000000000000000FF0000000000000000000000000000000000000000FF0000000000000000000000FFFFFFFFFFF9FFFFFFFFFFFFFFFFFFFFFFFFFFFF000000000000000000000000000000FFFFF9FFFFFF00000000000000000000000000000000000000000000000000
310
000000F900000000000000000000000000000000000000000000000000000000000000000000000000000000000000000000000000000000
102
{BLKREFS
331
48D3
102
}
 70
     4
280
     1
281
     0
  0
BLOCK_RECORD
  5
49D7
102
{ACAD_XDICTIONARY
360
4A68
102
}
330
1
100
AcDbSymbolTableRecord
100
AcDbBlockTableRecord
  2
リーマボルト SEM355 M16
340
0
310
2800000020000000200000000100080000000000000400000000000000000000000000000000000000000000000080000080000000808000800000008000800080800000C0C0C000C0DCC000F0CAA6000020400000206000002080000020A0000020C0000020E00000400000004020000040400000406000004080000040A0
310
000040C0000040E00000600000006020000060400000606000006080000060A0000060C0000060E00000800000008020000080400000806000008080000080A0000080C0000080E00000A0000000A0200000A0400000A0600000A0800000A0A00000A0C00000A0E00000C0000000C0200000C0400000C0600000C0800000C0
310
A00000C0C00000C0E00000E0000000E0200000E0400000E0600000E0800000E0A00000E0C00000E0E00040000000400020004000400040006000400080004000A0004000C0004000E00040200000402020004020400040206000402080004020A0004020C0004020E000404000004040200040404000404060004040800040
310
40A0004040C0004040E00040600000406020004060400040606000406080004060A0004060C0004060E00040800000408020004080400040806000408080004080A0004080C0004080E00040A0000040A0200040A0400040A0600040A0800040A0A00040A0C00040A0E00040C0000040C0200040C0400040C0600040C08000
310
40C0A00040C0C00040C0E00040E0000040E0200040E0400040E0600040E0800040E0A00040E0C00040E0E00080000000800020008000400080006000800080008000A0008000C0008000E00080200000802020008020400080206000802080008020A0008020C0008020E00080400000804020008040400080406000804080
310
008040A0008040C0008040E00080600000806020008060400080606000806080008060A0008060C0008060E00080800000808020008080400080806000808080008080A0008080C0008080E00080A0000080A0200080A0400080A0600080A0800080A0A00080A0C00080A0E00080C0000080C0200080C0400080C0600080C0
310
800080C0A00080C0C00080C0E00080E0000080E0200080E0400080E0600080E0800080E0A00080E0C00080E0E000C0000000C0002000C0004000C0006000C0008000C000A000C000C000C000E000C0200000C0202000C0204000C0206000C0208000C020A000C020C000C020E000C0400000C0402000C0404000C0406000C0
310
408000C040A000C040C000C040E000C0600000C0602000C0604000C0606000C0608000C060A000C060C000C060E000C0800000C0802000C0804000C0806000C0808000C080A000C080C000C080E000C0A00000C0A02000C0A04000C0A06000C0A08000C0A0A000C0A0C000C0A0E000C0C00000C0C02000C0C04000C0C06000
310
C0C08000C0C0A000F0FBFF00A4A0A000808080000000FF0000FF000000FFFF00FF000000FF00FF00FFFF0000FFFFFF0000000000000000000000000000000000000000000000000000000000000000000000000000000000000000000000000000000000000000000000000000000000000000000000000000000000000000
310
00000000000000000000000000000000000000000000000000000000000000000000000000000000000000000000000000000000000000000000000000000000000000000000000000000000000000000000000000000000000000000000000000000000000000000000000000000000000000000000000000000000000000
310
0000000000000000000000000000000000000000000000000000000000000000000000000000000000000000000000000000000000000000000000000000000000000000000000000000000000000000000000000000000000000000000000000000000000000000000000000000000000000000FFFFFFFF00000000000000
310
0000000000000000FFFFFFFFFFFFFF0000000000FFFF00000000000000000000000000000000000000FF00000000FF0000000000FFFF0000FFFF00000000000000000000000000FFFFFF00000000FFFFFF000000FFFFFFFFFFFF00000000000000000000000000FFFFFFFFFFFFFFFEFEFEFF0000FFFF000000FF0000000000
310
0000000000000000FFFFFF00000000FF00FFFF0000FFFF000000FF00000000000000000000000000FFFFFF00000000FF00FFFF0000FFFF000000FF00000000000000000000000000FFFFFF00000000FF00FFFF0000FFFF000000FF00000000000000000000000000FFFFFF00000000FF00FFFF0000FFFFFFFFFFFF00000000
310
000000000000000000FFFFFFFFFFFFFFFEFEFEFF0000FFFF0000FFFF00000000000000000000000000FFFFFF00000000FFFFFF000000FFFF00000000000000000000000000000000000000FF00000000FF000000000000FFFFFFFF000000000000000000000000000000FFFFFFFFFFFFFF0000000000000000000000000000
310
00000000000000000000000000000000000000000000000000000000000000000000000000000000000000000000000000000000000000000000000000000000000000000000000000000000000000000000000000000000000000000000000000000000000000000000000000000000000000000000000000000000000000
310
00000000000000000000000000000000000000000000000000000000000000000000000000000000000000000000000000000000000000000000000000000000000000000000000000000000000000000000000000000000000000000000000000000000000000000000000000000000000000000000000000000000000000
310
0000000000000000000000000000000000000000000000000000000000000000000000000000000000000000000000000000000000000000
102
{BLKREFS
331
4A05
102
}
 70
     4
280
     1
281
     0
  0
BLOCK_RECORD
  5
4C02
330
1
100
AcDbSymbolTableRecord
100
AcDbBlockTableRecord
  2
*D11
340
0
 70
     0
280
     1
281
     0
  0
BLOCK_RECORD
  5
4C46
330
1
100
AcDbSymbolTableRecord
100
AcDbBlockTableRecord
  2
*D12
340
0
 70
     0
280
     1
281
     0
  0
BLOCK_RECORD
  5
4C67
330
1
100
AcDbSymbolTableRecord
100
AcDbBlockTableRecord
  2
*D13
340
0
 70
     0
280
     1
281
     0
  0
BLOCK_RECORD
  5
4C83
330
1
100
AcDbSymbolTableRecord
100
AcDbBlockTableRecord
  2
*D14
340
0
 70
     0
280
     1
281
     0
  0
BLOCK_RECORD
  5
4CC1
330
1
100
AcDbSymbolTableRecord
100
AcDbBlockTableRecord
  2
*D15
340
0
 70
     0
280
     1
281
     0
  0
BLOCK_RECORD
  5
4D5E
330
1
100
AcDbSymbolTableRecord
100
AcDbBlockTableRecord
  2
*D16
340
0
 70
     0
280
     1
281
     0
  0
BLOCK_RECORD
  5
4D7A
330
1
100
AcDbSymbolTableRecord
100
AcDbBlockTableRecord
  2
*D17
340
0
 70
     0
280
     1
281
     0
  0
BLOCK_RECORD
  5
4DC0
330
1
100
AcDbSymbolTableRecord
100
AcDbBlockTableRecord
  2
*D18
340
0
 70
     0
280
     1
281
     0
  0
BLOCK_RECORD
  5
4DD8
330
1
100
AcDbSymbolTableRecord
100
AcDbBlockTableRecord
  2
*D19
340
0
 70
     0
280
     1
281
     0
  0
BLOCK_RECORD
  5
4DF0
330
1
100
AcDbSymbolTableRecord
100
AcDbBlockTableRecord
  2
*D20
340
0
 70
     0
280
     1
281
     0
  0
BLOCK_RECORD
  5
4E08
330
1
100
AcDbSymbolTableRecord
100
AcDbBlockTableRecord
  2
*D21
340
0
 70
     0
280
     1
281
     0
  0
BLOCK_RECORD
  5
4F5E
330
1
100
AcDbSymbolTableRecord
100
AcDbBlockTableRecord
  2
*D22
340
0
 70
     0
280
     1
281
     0
  0
BLOCK_RECORD
  5
4F76
330
1
100
AcDbSymbolTableRecord
100
AcDbBlockTableRecord
  2
*D23
340
0
 70
     0
280
     1
281
     0
  0
BLOCK_RECORD
  5
4F8E
330
1
100
AcDbSymbolTableRecord
100
AcDbBlockTableRecord
  2
*D24
340
0
 70
     0
280
     1
281
     0
  0
BLOCK_RECORD
  5
61F7
330
1
100
AcDbSymbolTableRecord
100
AcDbBlockTableRecord
  2
GENDOT
340
0
102
{BLKREFS
331
68A7
331
68B2
102
}
 70
     0
280
     1
281
     0
  0
BLOCK_RECORD
  5
6E34
330
1
100
AcDbSymbolTableRecord
100
AcDbBlockTableRecord
  2
*D26
340
0
 70
     0
280
     1
281
     0
  0
BLOCK_RECORD
  5
6EBC
330
1
100
AcDbSymbolTableRecord
100
AcDbBlockTableRecord
  2
*D27
340
0
 70
     0
280
     1
281
     0
  0
BLOCK_RECORD
  5
6EEA
330
1
100
AcDbSymbolTableRecord
100
AcDbBlockTableRecord
  2
*D28
340
0
 70
     0
280
     1
281
     0
  0
BLOCK_RECORD
  5
701C
330
1
100
AcDbSymbolTableRecord
100
AcDbBlockTableRecord
  2
ケース
340
0
310
2800000020000000200000000100080000000000000400000000000000000000000000000000000000000000000080000080000000808000800000008000800080800000C0C0C000C0DCC000F0CAA6000020400000206000002080000020A0000020C0000020E00000400000004020000040400000406000004080000040A0
310
000040C0000040E00000600000006020000060400000606000006080000060A0000060C0000060E00000800000008020000080400000806000008080000080A0000080C0000080E00000A0000000A0200000A0400000A0600000A0800000A0A00000A0C00000A0E00000C0000000C0200000C0400000C0600000C0800000C0
310
A00000C0C00000C0E00000E0000000E0200000E0400000E0600000E0800000E0A00000E0C00000E0E00040000000400020004000400040006000400080004000A0004000C0004000E00040200000402020004020400040206000402080004020A0004020C0004020E000404000004040200040404000404060004040800040
310
40A0004040C0004040E00040600000406020004060400040606000406080004060A0004060C0004060E00040800000408020004080400040806000408080004080A0004080C0004080E00040A0000040A0200040A0400040A0600040A0800040A0A00040A0C00040A0E00040C0000040C0200040C0400040C0600040C08000
310
40C0A00040C0C00040C0E00040E0000040E0200040E0400040E0600040E0800040E0A00040E0C00040E0E00080000000800020008000400080006000800080008000A0008000C0008000E00080200000802020008020400080206000802080008020A0008020C0008020E00080400000804020008040400080406000804080
310
008040A0008040C0008040E00080600000806020008060400080606000806080008060A0008060C0008060E00080800000808020008080400080806000808080008080A0008080C0008080E00080A0000080A0200080A0400080A0600080A0800080A0A00080A0C00080A0E00080C0000080C0200080C0400080C0600080C0
310
800080C0A00080C0C00080C0E00080E0000080E0200080E0400080E0600080E0800080E0A00080E0C00080E0E000C0000000C0002000C0004000C0006000C0008000C000A000C000C000C000E000C0200000C0202000C0204000C0206000C0208000C020A000C020C000C020E000C0400000C0402000C0404000C0406000C0
310
408000C040A000C040C000C040E000C0600000C0602000C0604000C0606000C0608000C060A000C060C000C060E000C0800000C0802000C0804000C0806000C0808000C080A000C080C000C080E000C0A00000C0A02000C0A04000C0A06000C0A08000C0A0A000C0A0C000C0A0E000C0C00000C0C02000C0C04000C0C06000
310
C0C08000C0C0A000F0FBFF00A4A0A000808080000000FF0000FF000000FFFF00FF000000FF00FF00FFFF0000FFFFFF0000000000000000000000000000000000000000000000000000000000000000000000000000000000000000000000000000000000000000000000000000000000000000000000000000000000000000
310
00000000000000000000000000000000000000000000000000000000000000000000000000000000000000000000000000000000000000000000000000000000000000000000000000000000000000000000000000000000000000000000000000000000000000000000000000000000000000000000000000000000000000
310
000000000000000000000000000000000000000000000000000000000000000000000000000000000000000000000000000000000000000000000000000000000000FC0000FC00000000000000FC0000FC0000000000000000000000000000000000FCFCFCFC00000000000000FCFCFCFC0000000000000000000000000000
310
000000FC0000FC00000000000000FC0000FC0000FCFCFCFCFCFCFCFCFCFCFC00000000FC0000FC00000000000000FC0000FC000000000000000000000000FC00000000FC0000FC00000000000000FC0000FC000000000000000000000000FC00000000FC0000FCFCFCFCFCFCFCFCFC0000FC0000FCFCFCFCFCFCFCFCFCFCFC
310
FCFC0000FC00000000000000000000000000FC000000000000000000000000FC00000000FC00000000000000000000000000FC000000000000000000000000FC00000000FC00000000000000000000000000FC0000FCFCFCFCFCFCFCFCFCFCFCFCFCFCFCFC00000000000000000000000000FC000000000000000000000000
310
00000000000000000000000000000000000000FC00000000000000000000000000000000000000000000000000000000000000FC00000000000000000000000000000000000000000000000000000000000000FC000000000000000000000000000000000000000000000000000000000000FC000000000000000000000000
310
0000000000000000000000000000000000FCFC00000000FCFCFCFCFCFCFCFCFCFCFCFCFCFCFCFCFCFCFCFCFCFCFCFCFCFC000000000000000000000000000000000000000000000000000000000000000000000000000000000000000000000000000000000000000000000000000000000000000000000000000000000000
310
00000000000000000000000000000000000000000000000000000000000000000000000000000000000000000000000000000000000000000000000000000000000000000000000000000000000000000000000000000000000000000000000000000000000000000000000000000000000000000000000000000000000000
310
0000000000000000000000000000000000000000000000000000000000000000000000000000000000000000000000000000000000000000
102
{BLKREFS
331
7037
102
}
 70
     4
280
     1
281
     1
  0
ENDTAB
  0
ENDSEC
  0
SECTION
  2
BLOCKS
  0
BLOCK
  5
20
330
1F
100
AcDbEntity
  8
0
100
AcDbBlockBegin
  2
*Model_Space
 70
     0
 10
0.0
 20
0.0
 30
0.0
  3
*Model_Space
  1

  0
ENDBLK
  5
21
330
1F
100
AcDbEntity
  8
0
100
AcDbBlockEnd
  0
BLOCK
  5
1C
330
1B
100
AcDbEntity
 67
     1
  8
0
100
AcDbBlockBegin
  2
*Paper_Space
 70
     0
 10
0.0
 20
0.0
 30
0.0
  3
*Paper_Space
  1

  0
ENDBLK
  5
1D
330
1B
100
AcDbEntity
 67
     1
  8
0
100
AcDbBlockEnd
  0
BLOCK
  5
24
330
23
100
AcDbEntity
 67
     1
  8
0
100
AcDbBlockBegin
  2
*Paper_Space0
 70
     0
 10
0.0
 20
0.0
 30
0.0
  3
*Paper_Space0
  1

  0
ENDBLK
  5
25
330
23
100
AcDbEntity
 67
     1
  8
0
100
AcDbBlockEnd
  0
BLOCK
  5
6D
330
69
100
AcDbEntity
  8
0
100
AcDbBlockBegin
  2
_Open30
 70
     0
 10
0.0
 20
0.0
 30
0.0
  3
_Open30
  1

  0
LINE
  5
6A
330
69
100
AcDbEntity
  8
0
  6
ByBlock
 62
     0
370
    -2
100
AcDbLine
 10
-1.0
 20
0.26794919
 30
0.0
 11
0.0
 21
0.0
 31
0.0
  0
LINE
  5
6B
330
69
100
AcDbEntity
  8
0
  6
ByBlock
 62
     0
370
    -2
100
AcDbLine
 10
0.0
 20
0.0
 30
0.0
 11
-1.0
 21
-0.26794919
 31
0.0
  0
LINE
  5
6C
330
69
100
AcDbEntity
  8
0
  6
ByBlock
 62
     0
370
    -2
100
AcDbLine
 10
0.0
 20
0.0
 30
0.0
 11
-1.0
 21
0.0
 31
0.0
  0
ENDBLK
  5
6E
330
69
100
AcDbEntity
  8
0
100
AcDbBlockEnd
  0
BLOCK
  5
76
330
74
100
AcDbEntity
  8
0
100
AcDbBlockBegin
  2
GENAXEH
 70
     0
 10
0.0
 20
0.0
 30
0.0
  3
GENAXEH
  1

  0
LINE
  5
75
330
74
100
AcDbEntity
  8
0
100
AcDbLine
 10
-1.0
 20
0.0
 30
0.0
 11
1.0
 21
0.0
 31
0.0
  0
ENDBLK
  5
77
330
74
100
AcDbEntity
  8
0
100
AcDbBlockEnd
  0
BLOCK
  5
2A0C
330
2A09
100
AcDbEntity
  8
0
100
AcDbBlockBegin
  2
ロッカクアナツキプラグ R1／4
 70
     0
 10
0.0
 20
0.0
 30
0.0
  3
ロッカクアナツキプラグ R1／4
  1

  0
CIRCLE
  5
44B8
330
2A09
100
AcDbEntity
  8
AM_0 外形線1
100
AcDbCircle
 10
0.0
 20
0.0
 30
0.0
 40
7.174975999999999
  0
LINE
  5
44B9
330
2A09
100
AcDbEntity
  8
AM_7 中心線
100
AcDbLine
 10
0.0
 20
8.404975999999804
 30
0.0
 11
0.0
 21
-8.404975999999804
 31
0.0
  0
CIRCLE
  5
44BA
330
2A09
100
AcDbEntity
  8
AM_4 細線
100
AcDbCircle
 10
0.0
 20
0.0
 30
0.0
 40
6.504976
  0
LINE
  5
44BB
330
2A09
100
AcDbEntity
  8
AM_7 中心線
100
AcDbLine
 10
8.404975999999804
 20
0.0
 30
0.0
 11
-8.40497600000026
 21
0.0
 31
0.0
  0
LINE
  5
44BC
330
2A09
100
AcDbEntity
  8
AM_0 外形線1
100
AcDbLine
 10
2.611068000000158
 20
-1.507500000000162
 30
0.0
 11
2.611068000000158
 21
1.507500000000162
 31
0.0
  0
LINE
  5
44BD
330
2A09
100
AcDbEntity
  8
AM_0 外形線1
100
AcDbLine
 10
0.0
 20
-3.014999999999871
 30
0.0
 11
2.611068000000158
 21
-1.507500000000162
 31
0.0
  0
LINE
  5
44BE
330
2A09
100
AcDbEntity
  8
AM_0 外形線1
100
AcDbLine
 10
-2.611068000000158
 20
-1.507500000000162
 30
0.0
 11
0.0
 21
-3.014999999999871
 31
0.0
  0
LINE
  5
44BF
330
2A09
100
AcDbEntity
  8
AM_0 外形線1
100
AcDbLine
 10
-2.611068000000158
 20
1.507500000000162
 30
0.0
 11
-2.611068000000158
 21
-1.507500000000162
 31
0.0
  0
LINE
  5
44C0
330
2A09
100
AcDbEntity
  8
AM_0 外形線1
100
AcDbLine
 10
0.0
 20
3.014999999999871
 30
0.0
 11
-2.611068000000158
 21
1.507500000000162
 31
0.0
  0
LINE
  5
44C1
330
2A09
100
AcDbEntity
  8
AM_0 外形線1
100
AcDbLine
 10
2.611068000000158
 20
1.507500000000162
 30
0.0
 11
0.0
 21
3.014999999999871
 31
0.0
  0
ENDBLK
  5
2A17
330
2A09
100
AcDbEntity
  8
0
100
AcDbBlockEnd
  0
BLOCK
  5
453F
330
453E
100
AcDbEntity
  8
0
100
AcDbBlockBegin
  2
ケースＡ SEM355
 70
     0
 10
0.0
 20
0.0
 30
0.0
  3
ケースＡ SEM355
  1

  0
LINE
  5
4541
330
453E
100
AcDbEntity
  8
AM_0 外形線1
100
AcDbLine
 10
90.0
 20
137.0
 30
0.0
 11
85.5
 21
137.0
 31
0.0
  0
LINE
  5
4542
330
453E
100
AcDbEntity
  8
AM_0 外形線1
100
AcDbLine
 10
25.0
 20
144.0
 30
0.0
 11
104.0
 21
144.0
 31
0.0
  0
LINE
  5
4543
330
453E
100
AcDbEntity
  8
AM_0 外形線1
100
AcDbLine
 10
25.0
 20
-143.9999999999999
 30
0.0
 11
104.0
 21
-143.9999999999999
 31
0.0
  0
LINE
  5
4544
330
453E
100
AcDbEntity
  8
AM_0 外形線1
100
AcDbLine
 10
0.0
 20
0.0
 30
0.0
 11
0.0
 21
-176.4999999999998
 31
0.0
  0
LINE
  5
4545
330
453E
100
AcDbEntity
  8
AM_0 外形線1
100
AcDbLine
 10
21.0
 20
-176.4999999999998
 30
0.0
 11
21.0
 21
0.0
 31
0.0
  0
ARC
  5
4546
330
453E
100
AcDbEntity
  8
AM_0 外形線1
100
AcDbCircle
 10
25.0
 20
-147.9999999999999
 30
0.0
 40
4.0
100
AcDbArc
 50
90.0
 51
180.0
  0
LINE
  5
4547
330
453E
100
AcDbEntity
  8
AM_0 外形線1
100
AcDbLine
 10
20.0
 20
-177.4999999999999
 30
0.0
 11
21.0
 21
-176.4999999999998
 31
0.0
  0
LINE
  5
4548
330
453E
100
AcDbEntity
  8
AM_0 外形線1
100
AcDbLine
 10
1.0
 20
-177.4999999999999
 30
0.0
 11
20.0
 21
-177.4999999999999
 31
0.0
  0
LINE
  5
4549
330
453E
100
AcDbEntity
  8
AM_0 外形線1
100
AcDbLine
 10
0.0
 20
-176.4999999999998
 30
0.0
 11
1.0
 21
-177.4999999999999
 31
0.0
  0
LINE
  5
454A
330
453E
100
AcDbEntity
  8
AM_0 外形線1
100
AcDbLine
 10
21.0
 20
148.0
 30
0.0
 11
21.0
 21
176.5000000000001
 31
0.0
  0
LINE
  5
454B
330
453E
100
AcDbEntity
  8
AM_0 外形線1
100
AcDbLine
 10
37.0
 20
137.0
 30
0.0
 11
-5.0
 21
137.0
 31
0.0
  0
ARC
  5
454C
330
453E
100
AcDbEntity
  8
AM_0 外形線1
100
AcDbCircle
 10
25.0
 20
148.0
 30
0.0
 40
4.0
100
AcDbArc
 50
180.0
 51
270.0
  0
LINE
  5
454D
330
453E
100
AcDbEntity
  8
AM_0 外形線1
100
AcDbLine
 10
0.0
 20
153.5
 30
0.0
 11
21.0
 21
153.5
 31
0.0
  0
LINE
  5
454E
330
453E
100
AcDbEntity
  8
AM_0 外形線1
100
AcDbLine
 10
-5.0
 20
137.0
 30
0.0
 11
-5.0
 21
141.5
 31
0.0
  0
LWPOLYLINE
  5
454F
330
453E
100
AcDbEntity
  8
AM_0 外形線1
100
AcDbPolyline
 90
       49
 70
     0
 43
0.0
 10
1.349999999999909
 20
142.0
 10
1.468363999999836
 20
142.0085279999999
 10
1.58442399999967
 20
142.0334239999998
 10
1.701239999999869
 20
142.0757639999998
 10
1.811728000000129
 20
142.1326759999998
 10
1.922759999999925
 20
142.207908
 10
2.024999999999636
 20
142.2947439999999
 10
2.318539999999756
 20
142.6656639999997
 10
2.519131999999899
 20
143.1
 10
2.620476000000053
 20
143.4552639999998
 10
2.679491999999753
 20
143.8179759999999
 10
2.694864000000051
 20
144.0086560000001
 10
2.699999999999818
 20
144.1999999999999
 10
2.694864000000051
 20
144.3913479999998
 10
2.679491999999753
 20
144.5820279999999
 10
2.620476000000053
 20
144.94474
 10
2.519131999999899
 20
145.2999999999998
 10
2.318539999999756
 20
145.7343400000001
 10
2.024999999999636
 20
146.1052559999999
 10
1.922759999999925
 20
146.1920959999998
 10
1.811728000000129
 20
146.267324
 10
1.701239999999869
 20
146.3242359999996
 10
1.58442399999967
 20
146.36658
 10
1.468363999999836
 20
146.3914759999999
 10
1.349999999999909
 20
146.3999999999997
 10
1.231635999999979
 20
146.3914759999999
 10
1.115576000000146
 20
146.36658
 10
0.9987599999999472
 20
146.3242359999996
 10
0.8882720000001427
 20
146.267324
 10
0.7772399999998925
 20
146.1920959999998
 10
0.6749999999997272
 20
146.1052559999999
 10
0.381460000000061
 20
145.7343400000001
 10
0.1808639999999286
 20
145.2999999999998
 10
0.0795239999997648
 20
144.94474
 10
0.0205079999996087
 20
144.5820279999999
 10
0.0051319999997759
 20
144.3913479999998
 10
0.0
 20
144.1999999999999
 10
0.0051319999997759
 20
144.0086560000001
 10
0.0205079999996087
 20
143.8179759999999
 10
0.0795239999997648
 20
143.4552639999998
 10
0.1808639999999286
 20
143.1
 10
0.381460000000061
 20
142.6656639999997
 10
0.6749999999997272
 20
142.2947439999999
 10
0.7772399999998925
 20
142.207908
 10
0.8882720000001427
 20
142.1326759999998
 10
0.9987599999999472
 20
142.0757639999998
 10
1.115576000000146
 20
142.0334239999998
 10
1.231635999999979
 20
142.0085279999999
 10
1.349999999999909
 20
142.0
  0
LINE
  5
4550
330
453E
100
AcDbEntity
  8
AM_0 外形線1
100
AcDbLine
 10
2.199999999999818
 20
146.3999999999996
 30
0.0
 11
0.0
 21
146.3999999999996
 31
0.0
  0
ARC
  5
4551
330
453E
100
AcDbEntity
  8
AM_0 外形線1
100
AcDbCircle
 10
2.199999999999818
 20
145.8999999999996
 30
0.0
 40
0.5
100
AcDbArc
 50
0.0
 51
90.0
  0
LINE
  5
4552
330
453E
100
AcDbEntity
  8
AM_0 外形線1
100
AcDbLine
 10
2.699999999999818
 20
142.5
 30
0.0
 11
2.699999999999818
 21
145.8999999999996
 31
0.0
  0
ARC
  5
4553
330
453E
100
AcDbEntity
  8
AM_0 外形線1
100
AcDbCircle
 10
2.199999999999818
 20
142.5
 30
0.0
 40
0.5
100
AcDbArc
 50
270.0
 51
0.0
  0
LINE
  5
4554
330
453E
100
AcDbEntity
  8
AM_0 外形線1
100
AcDbLine
 10
-4.5
 20
142.0
 30
0.0
 11
2.199999999999818
 21
142.0
 31
0.0
  0
LINE
  5
4555
330
453E
100
AcDbEntity
  8
AM_0 外形線1
100
AcDbLine
 10
-5.0
 20
141.5
 30
0.0
 11
-4.5
 21
142.0
 31
0.0
  0
LINE
  5
4556
330
453E
100
AcDbEntity
  8
AM_0 外形線1
100
AcDbLine
 10
0.0
 20
146.3999999999997
 30
0.0
 11
0.0
 21
153.5
 31
0.0
  0
LINE
  5
4557
330
453E
100
AcDbEntity
  8
AM_7 中心線
100
AcDbLine
 10
36.0
 20
132.0
 30
0.0
 11
86.5
 21
132.0
 31
0.0
  0
LINE
  5
4558
330
453E
100
AcDbEntity
  8
AM_3 隠れ線
100
AcDbLine
 10
83.49999999999999
 20
128.7999999999997
 30
0.0
 11
42.5
 21
128.7999999999997
 31
0.0
  0
LINE
  5
4559
330
453E
100
AcDbEntity
  8
AM_0 外形線1
100
AcDbLine
 10
38.0
 20
136.0
 30
0.0
 11
84.50000000000001
 21
136.0
 31
0.0
  0
ARC
  5
455A
330
453E
100
AcDbEntity
  8
AM_0 外形線1
100
AcDbCircle
 10
37.0
 20
136.0
 30
0.0
 40
1.0
100
AcDbArc
 50
0.0
 51
90.0
  0
LINE
  5
455B
330
453E
100
AcDbEntity
  8
AM_0 外形線1
100
AcDbLine
 10
38.0
 20
129.7999999999997
 30
0.0
 11
38.0
 21
136.0
 31
0.0
  0
LINE
  5
455C
330
453E
100
AcDbEntity
  8
AM_0 外形線1
100
AcDbLine
 10
39.0
 20
128.7999999999997
 30
0.0
 11
38.0
 21
129.7999999999997
 31
0.0
  0
LINE
  5
455D
330
453E
100
AcDbEntity
  8
AM_3 隠れ線
100
AcDbLine
 10
84.50000000000001
 20
129.7999999999997
 30
0.0
 11
83.49999999999999
 21
128.7999999999997
 31
0.0
  0
LINE
  5
455E
330
453E
100
AcDbEntity
  8
AM_3 隠れ線
100
AcDbLine
 10
84.49999999999986
 20
133.943355191663
 30
0.0
 11
84.50000000000001
 21
129.7999999999997
 31
0.0
  0
ARC
  5
455F
330
453E
100
AcDbEntity
  8
AM_0 外形線1
100
AcDbCircle
 10
85.5
 20
136.0
 30
0.0
 40
1.0
100
AcDbArc
 50
90.0
 51
180.0
  0
LINE
  5
4560
330
453E
100
AcDbEntity
  8
AM_7 中心線
100
AcDbLine
 10
-36.0
 20
162.5000000000001
 30
0.0
 11
49.0
 21
162.5000000000001
 31
0.0
  0
LINE
  5
4561
330
453E
100
AcDbEntity
  8
AM_0 外形線1
100
AcDbLine
 10
-0.0000000000001137
 20
171.5000000000001
 30
0.0
 11
21.0
 21
171.5000000000001
 31
0.0
  0
LINE
  5
4562
330
453E
100
AcDbEntity
  8
AM_0 外形線1
100
AcDbLine
 10
20.0
 20
177.5000000000001
 30
0.0
 11
21.0
 21
176.5000000000001
 31
0.0
  0
LINE
  5
4563
330
453E
100
AcDbEntity
  8
AM_0 外形線1
100
AcDbLine
 10
1.0
 20
177.5000000000001
 30
0.0
 11
20.0
 21
177.5000000000001
 31
0.0
  0
LINE
  5
4564
330
453E
100
AcDbEntity
  8
AM_0 外形線1
100
AcDbLine
 10
0.0
 20
171.5000000000001
 30
0.0
 11
0.0
 21
176.5000000000001
 31
0.0
  0
LINE
  5
4565
330
453E
100
AcDbEntity
  8
AM_0 外形線1
100
AcDbLine
 10
0.0
 20
176.5000000000001
 30
0.0
 11
1.0
 21
177.5000000000001
 31
0.0
  0
LINE
  5
4566
330
453E
100
AcDbEntity
  8
AM_0 外形線1
100
AcDbLine
 10
108.0
 20
-133.9716280000001
 30
0.0
 11
108.0
 21
0.0
 31
0.0
  0
LINE
  5
4567
330
453E
100
AcDbEntity
  8
AM_0 外形線1
100
AcDbLine
 10
108.0
 20
-139.9999999999999
 30
0.0
 11
108.0
 21
-133.9716280000001
 31
0.0
  0
ARC
  5
4568
330
453E
100
AcDbEntity
  8
AM_0 外形線1
100
AcDbCircle
 10
104.0
 20
-139.9999999999999
 30
0.0
 40
4.0
100
AcDbArc
 50
270.0
 51
0.0
  0
LINE
  5
4569
330
453E
100
AcDbEntity
  8
AM_0 外形線1
100
AcDbLine
 10
108.0
 20
140.0
 30
0.0
 11
108.0
 21
126.5
 31
0.0
  0
LWPOLYLINE
  5
456A
330
453E
100
AcDbEntity
  8
AM_0 外形線1
100
AcDbPolyline
 90
       49
 70
     0
 43
0.0
 10
93.90000000000007
 20
128.4499999999999
 10
93.92169599999986
 20
128.1475359999996
 10
93.98507599999993
 20
127.850916
 10
94.09283200000029
 20
127.552444
 10
94.23772000000008
 20
127.2700319999995
 10
94.42916799999968
 20
126.9863399999996
 10
94.65025599999988
 20
126.725
 10
95.59403199999996
 20
125.9751600000001
 10
96.6999999999998
 20
125.462216
 10
97.60420799999977
 20
125.2032399999999
 10
98.52756799999998
 20
125.0524159999996
 10
99.0129320000001
 20
125.0131240000001
 10
99.50000000000001
 20
125.0000000000001
 10
99.98706399999992
 20
125.0131240000001
 10
100.472428
 20
125.0524159999996
 10
101.3957919999998
 20
125.2032399999999
 10
102.3000000000002
 20
125.462216
 10
103.405968
 20
125.9751600000001
 10
104.3497399999996
 20
126.725
 10
104.5708319999999
 20
126.9863399999996
 10
104.7622799999999
 20
127.2700319999995
 10
104.9071679999997
 20
127.552444
 10
105.014924
 20
127.850916
 10
105.0783040000001
 20
128.1475359999996
 10
105.0999999999999
 20
128.4499999999999
 10
105.0783040000001
 20
128.7524679999998
 10
105.014924
 20
129.0490879999999
 10
104.9071679999997
 20
129.3475599999998
 10
104.7622799999999
 20
129.6299719999998
 10
104.5708319999999
 20
129.9136639999998
 10
104.3497399999996
 20
130.1749999999998
 10
103.405968
 20
130.9248439999997
 10
102.3000000000002
 20
131.4377879999998
 10
101.3957919999998
 20
131.6967639999999
 10
100.472428
 20
131.8475879999997
 10
99.98706399999992
 20
131.8868800000001
 10
99.50000000000001
 20
131.8999999999997
 10
99.0129320000001
 20
131.8868800000001
 10
98.52756799999998
 20
131.8475879999997
 10
97.60420799999977
 20
131.6967639999999
 10
96.6999999999998
 20
131.4377879999998
 10
95.59403199999996
 20
130.9248439999997
 10
94.65025599999988
 20
130.1749999999998
 10
94.42916799999968
 20
129.9136639999998
 10
94.23772000000008
 20
129.6299719999998
 10
94.09283200000029
 20
129.3475599999998
 10
93.98507599999993
 20
129.0490879999999
 10
93.92169599999986
 20
128.7524679999998
 10
93.90000000000007
 20
128.4499999999999
  0
LINE
  5
456B
330
453E
100
AcDbEntity
  8
AM_0 外形線1
100
AcDbLine
 10
104.5999999999999
 20
131.8999999999996
 30
0.0
 11
94.4000000000001
 21
131.8999999999996
 31
0.0
  0
ARC
  5
456C
330
453E
100
AcDbEntity
  8
AM_0 外形線1
100
AcDbCircle
 10
90.0
 20
136.0
 30
0.0
 40
1.0
100
AcDbArc
 50
0.0
 51
90.0
  0
LINE
  5
456D
330
453E
100
AcDbEntity
  8
AM_0 外形線1
100
AcDbLine
 10
91.0
 20
126.5
 30
0.0
 11
91.0
 21
136.0
 31
0.0
  0
LINE
  5
456E
330
453E
100
AcDbEntity
  8
AM_0 外形線1
100
AcDbLine
 10
93.90000000000007
 20
126.5
 30
0.0
 11
91.0
 21
126.5
 31
0.0
  0
LINE
  5
456F
330
453E
100
AcDbEntity
  8
AM_0 外形線1
100
AcDbLine
 10
93.90000000000007
 20
131.3999999999996
 30
0.0
 11
93.90000000000007
 21
126.5
 31
0.0
  0
ARC
  5
4570
330
453E
100
AcDbEntity
  8
AM_0 外形線1
100
AcDbCircle
 10
94.4000000000001
 20
131.3999999999996
 30
0.0
 40
0.5
100
AcDbArc
 50
90.0
 51
180.0
  0
LINE
  5
4571
330
453E
100
AcDbEntity
  8
AM_0 外形線1
100
AcDbLine
 10
93.90000000000007
 20
126.5
 30
0.0
 11
93.90000000000007
 21
125.0
 31
0.0
  0
LINE
  5
4572
330
453E
100
AcDbEntity
  8
AM_0 外形線1
100
AcDbLine
 10
91.0
 20
126.5
 30
0.0
 11
91.0
 21
125.0
 31
0.0
  0
ARC
  5
4573
330
453E
100
AcDbEntity
  8
AM_0 外形線1
100
AcDbCircle
 10
104.5999999999999
 20
131.3999999999996
 30
0.0
 40
0.5
100
AcDbArc
 50
0.0
 51
90.0
  0
LINE
  5
4574
330
453E
100
AcDbEntity
  8
AM_0 外形線1
100
AcDbLine
 10
105.0999999999999
 20
126.5
 30
0.0
 11
105.0999999999999
 21
131.3999999999996
 31
0.0
  0
LINE
  5
4575
330
453E
100
AcDbEntity
  8
AM_0 外形線1
100
AcDbLine
 10
108.0
 20
126.5
 30
0.0
 11
105.0999999999999
 21
126.5
 31
0.0
  0
LINE
  5
4576
330
453E
100
AcDbEntity
  8
AM_0 外形線1
100
AcDbLine
 10
108.0
 20
126.5
 30
0.0
 11
108.0
 21
125.0
 31
0.0
  0
LINE
  5
4577
330
453E
100
AcDbEntity
  8
AM_0 外形線1
100
AcDbLine
 10
105.0999999999999
 20
126.5
 30
0.0
 11
105.0999999999999
 21
125.0
 31
0.0
  0
ARC
  5
4578
330
453E
100
AcDbEntity
  8
AM_0 外形線1
100
AcDbCircle
 10
104.0
 20
140.0
 30
0.0
 40
4.0
100
AcDbArc
 50
0.0
 51
90.0
  0
LINE
  5
4579
330
453E
100
AcDbEntity
  8
AM_0 外形線1
100
AcDbLine
 10
84.50000000000001
 20
136.0
 30
0.0
 11
84.49999999999986
 21
133.9433559999999
 31
0.0
  0
LINE
  5
457A
330
453E
100
AcDbEntity
  8
AM_0 外形線1
100
AcDbLine
 10
39.0
 20
128.7999999999997
 30
0.0
 11
42.5
 21
128.7999999999997
 31
0.0
  0
INSERT
  5
457B
330
453E
100
AcDbEntity
  8
AM_0 外形線1
100
AcDbBlockReference
  2
ロッカクアナツキプラグ R1／4
 10
10.5
 20
-42.05809200000021
 30
0.0
  0
ENDBLK
  5
4540
330
453E
100
AcDbEntity
  8
0
100
AcDbBlockEnd
  0
BLOCK
  5
466F
330
466E
100
AcDbEntity
  8
0
100
AcDbBlockBegin
  2
リジット SEM355
 70
     0
 10
0.0
 20
0.0
 30
0.0
  3
リジット SEM355
  1

  0
LINE
  5
4671
330
466E
100
AcDbEntity
  8
AM_0 外形線1
100
AcDbLine
 10
-21.0
 20
-176.4999999999998
 30
0.0
 11
-21.0
 21
0.0
 31
0.0
  0
LINE
  5
4672
330
466E
100
AcDbEntity
  8
AM_0 外形線1
100
AcDbLine
 10
-34.0
 20
-137.4999999999999
 30
0.0
 11
-34.0
 21
0.0
 31
0.0
  0
LINE
  5
4673
330
466E
100
AcDbEntity
  8
AM_0 外形線1
100
AcDbLine
 10
-198.0
 20
-133.4999999999999
 30
0.0
 11
-198.0
 21
0.0
 31
0.0
  0
LINE
  5
4674
330
466E
100
AcDbEntity
  8
AM_0 外形線1
100
AcDbLine
 10
-37.54102000000012
 20
-137.4999999999999
 30
0.0
 11
-194.0
 21
-137.4999999999999
 31
0.0
  0
ARC
  5
4675
330
466E
100
AcDbEntity
  8
AM_0 外形線1
100
AcDbCircle
 10
-194.0
 20
-133.4999999999999
 30
0.0
 40
4.0
100
AcDbArc
 50
180.0
 51
270.0
  0
LINE
  5
4676
330
466E
100
AcDbEntity
  8
AM_7 中心線
100
AcDbLine
 10
26.0
 20
-162.4999999999999
 30
0.0
 11
-26.0
 21
-162.4999999999999
 31
0.0
  0
LINE
  5
4677
330
466E
100
AcDbEntity
  8
AM_0 外形線1
100
AcDbLine
 10
-1.0
 20
-177.4999999999999
 30
0.0
 11
-20.0
 21
-177.4999999999999
 31
0.0
  0
LINE
  5
4678
330
466E
100
AcDbEntity
  8
AM_0 外形線1
100
AcDbLine
 10
-20.0
 20
-177.4999999999999
 30
0.0
 11
-21.0
 21
-176.4999999999998
 31
0.0
  0
LINE
  5
4679
330
466E
100
AcDbEntity
  8
AM_0 外形線1
100
AcDbLine
 10
0.0
 20
-176.4999999999998
 30
0.0
 11
-1.0
 21
-177.4999999999999
 31
0.0
  0
LINE
  5
467A
330
466E
100
AcDbEntity
  8
AM_0 外形線1
100
AcDbLine
 10
-23.21114399999988
 20
-142.8944239999999
 30
0.0
 11
-30.8328160000001
 21
-139.0835920000003
 31
0.0
  0
ARC
  5
467B
330
466E
100
AcDbEntity
  8
AM_0 外形線1
100
AcDbCircle
 10
-25.0
 20
-146.4721360000002
 30
0.0
 40
4.0
100
AcDbArc
 50
0.0
 51
63.43494900000336
  0
ARC
  5
467C
330
466E
100
AcDbEntity
  8
AM_0 外形線1
100
AcDbCircle
 10
-37.54102000000012
 20
-152.4999999999999
 30
0.0
 40
15.0
100
AcDbArc
 50
63.43494900000336
 51
90.0
  0
LINE
  5
467D
330
466E
100
AcDbEntity
  8
AM_0 外形線1
100
AcDbLine
 10
-37.54102000000012
 20
137.5
 30
0.0
 11
-194.0
 21
137.5
 31
0.0
  0
LINE
  5
467E
330
466E
100
AcDbEntity
  8
AM_0 外形線1
100
AcDbLine
 10
-198.0
 20
133.5
 30
0.0
 11
-198.0
 21
0.0
 31
0.0
  0
ARC
  5
467F
330
466E
100
AcDbEntity
  8
AM_0 外形線1
100
AcDbCircle
 10
-194.0
 20
133.5
 30
0.0
 40
4.0
100
AcDbArc
 50
90.0
 51
180.0
  0
LINE
  5
4680
330
466E
100
AcDbEntity
  8
AM_0 外形線1
100
AcDbLine
 10
-8.0
 20
0.0
 30
0.0
 11
-8.0
 21
139.0
 31
0.0
  0
LINE
  5
4681
330
466E
100
AcDbEntity
  8
AM_3 隠れ線
100
AcDbLine
 10
-45.0
 20
7.0
 30
0.0
 11
-49.04145199999994
 21
0.0
 31
0.0
  0
LINE
  5
4682
330
466E
100
AcDbEntity
  8
AM_3 隠れ線
100
AcDbLine
 10
-8.0
 20
7.0
 30
0.0
 11
-45.0
 21
7.0
 31
0.0
  0
LINE
  5
4683
330
466E
100
AcDbEntity
  8
AM_3 隠れ線
100
AcDbLine
 10
-8.0
 20
8.0
 30
0.0
 11
-40.0
 21
8.0
 31
0.0
  0
LINE
  5
4684
330
466E
100
AcDbEntity
  8
AM_3 隠れ線
100
AcDbLine
 10
-45.0
 20
7.0
 30
0.0
 11
-45.0
 21
0.0
 31
0.0
  0
LINE
  5
4685
330
466E
100
AcDbEntity
  8
AM_3 隠れ線
100
AcDbLine
 10
-40.0
 20
8.0
 30
0.0
 11
-40.57735200000024
 21
7.0
 31
0.0
  0
LINE
  5
4686
330
466E
100
AcDbEntity
  8
AM_3 隠れ線
100
AcDbLine
 10
-40.57735200000024
 20
7.0
 30
0.0
 11
-40.57735200000024
 21
0.0
 31
0.0
  0
LINE
  5
4687
330
466E
100
AcDbEntity
  8
AM_3 隠れ線
100
AcDbLine
 10
-40.0
 20
8.0
 30
0.0
 11
-40.0
 21
0.0
 31
0.0
  0
LINE
  5
4688
330
466E
100
AcDbEntity
  8
AM_0 外形線1
100
AcDbLine
 10
-21.0
 20
146.4721359999998
 30
0.0
 11
-21.0
 21
176.5000000000001
 31
0.0
  0
ARC
  5
4689
330
466E
100
AcDbEntity
  8
AM_0 外形線1
100
AcDbCircle
 10
-37.54102000000012
 20
152.5
 30
0.0
 40
15.0
100
AcDbArc
 50
270.0
 51
296.5650509999967
  0
LINE
  5
468A
330
466E
100
AcDbEntity
  8
AM_0 外形線1
100
AcDbLine
 10
-23.21114399999988
 20
142.8944279999996
 30
0.0
 11
-30.8328160000001
 21
139.0835919999999
 31
0.0
  0
ARC
  5
468B
330
466E
100
AcDbEntity
  8
AM_0 外形線1
100
AcDbCircle
 10
-25.0
 20
146.4721359999998
 30
0.0
 40
4.0
100
AcDbArc
 50
296.5650509999967
 51
0.0
  0
ARC
  5
468C
330
466E
100
AcDbEntity
  8
AM_0 外形線1
100
AcDbCircle
 10
-5.0
 20
139.0
 30
0.0
 40
3.0
100
AcDbArc
 50
90.0
 51
180.0
  0
LINE
  5
468D
330
466E
100
AcDbEntity
  8
AM_0 外形線1
100
AcDbLine
 10
-0.5
 20
142.0
 30
0.0
 11
0.0
 21
142.5
 31
0.0
  0
LINE
  5
468E
330
466E
100
AcDbEntity
  8
AM_0 外形線1
100
AcDbLine
 10
-1.0
 20
177.5000000000001
 30
0.0
 11
-20.0
 21
177.5000000000001
 31
0.0
  0
LINE
  5
468F
330
466E
100
AcDbEntity
  8
AM_0 外形線1
100
AcDbLine
 10
-20.0
 20
177.5000000000001
 30
0.0
 11
-21.0
 21
176.5000000000001
 31
0.0
  0
LINE
  5
4690
330
466E
100
AcDbEntity
  8
AM_0 外形線1
100
AcDbLine
 10
0.0
 20
176.5000000000001
 30
0.0
 11
-1.0
 21
177.5000000000001
 31
0.0
  0
LINE
  5
4692
330
466E
100
AcDbEntity
  8
AM_0 外形線1
100
AcDbLine
 10
-7.999999999999772
 20
82.03256541839357
 30
0.0
 11
-198.0
 21
82.03256541839344
 31
0.0
  0
LINE
  5
46EB
330
466E
100
AcDbEntity
  8
AM_0 外形線1
100
AcDbLine
 10
0.0
 20
0.0
 30
0.0
 11
0.0
 21
-176.4999999999998
 31
0.0
  0
LINE
  5
46EC
330
466E
100
AcDbEntity
  8
AM_0 外形線1
100
AcDbLine
 10
-5.0
 20
142.0
 30
0.0
 11
-0.5
 21
142.0
 31
0.0
  0
LINE
  5
46ED
330
466E
100
AcDbEntity
  8
AM_0 外形線1
100
AcDbLine
 10
0.0
 20
142.5
 30
0.0
 11
0.0
 21
153.5
 31
0.0
  0
LINE
  5
46EE
330
466E
100
AcDbEntity
  8
AM_0 外形線1
100
AcDbLine
 10
0.0
 20
176.5000000000001
 30
0.0
 11
-0.0000000000001137
 21
171.5000000000001
 31
0.0
  0
LINE
  5
46EF
330
466E
100
AcDbEntity
  8
AM_0 外形線1
100
AcDbLine
 10
0.0
 20
171.5000000000001
 30
0.0
 11
-21.0
 21
171.5000000000001
 31
0.0
  0
LINE
  5
46F0
330
466E
100
AcDbEntity
  8
AM_0 外形線1
100
AcDbLine
 10
0.0000000000004547
 20
153.5000000000004
 30
0.0
 11
-20.99999999999955
 21
153.4999999999995
 31
0.0
  0
ENDBLK
  5
4670
330
466E
100
AcDbEntity
  8
0
100
AcDbBlockEnd
  0
BLOCK
  5
48AE
330
48AD
100
AcDbEntity
  8
0
100
AcDbBlockBegin
  2
センタ SEM355
 70
     0
 10
0.0
 20
0.0
 30
0.0
  3
センタ SEM355
  1

  0
LINE
  5
48B1
330
48AD
100
AcDbEntity
  8
AM_0 外形線1
100
AcDbLine
 10
128.5
 20
125.0
 30
0.0
 11
78.0
 21
125.0
 31
0.0
  0
LINE
  5
48B2
330
48AD
100
AcDbEntity
  8
AM_0 外形線1
100
AcDbLine
 10
0.0
 20
121.0
 30
0.0
 11
0.0
 21
0.0
 31
0.0
  0
LINE
  5
48B3
330
48AD
100
AcDbEntity
  8
AM_3 隠れ線
100
AcDbLine
 10
0.0
 20
7.0
 30
0.0
 11
37.0
 21
7.0
 31
0.0
  0
LINE
  5
48B4
330
48AD
100
AcDbEntity
  8
AM_3 隠れ線
100
AcDbLine
 10
0.0
 20
8.0
 30
0.0
 11
32.0
 21
8.0
 31
0.0
  0
LINE
  5
48B5
330
48AD
100
AcDbEntity
  8
AM_3 隠れ線
100
AcDbLine
 10
37.0
 20
7.0
 30
0.0
 11
37.0
 21
0.0
 31
0.0
  0
LINE
  5
48B6
330
48AD
100
AcDbEntity
  8
AM_3 隠れ線
100
AcDbLine
 10
32.0
 20
8.0
 30
0.0
 11
32.5773479999998
 21
7.0
 31
0.0
  0
LINE
  5
48B7
330
48AD
100
AcDbEntity
  8
AM_3 隠れ線
100
AcDbLine
 10
32.5773479999998
 20
7.0
 30
0.0
 11
32.5773479999998
 21
0.0
 31
0.0
  0
LINE
  5
48B8
330
48AD
100
AcDbEntity
  8
AM_3 隠れ線
100
AcDbLine
 10
32.0
 20
8.0
 30
0.0
 11
32.0
 21
0.0
 31
0.0
  0
LINE
  5
48B9
330
48AD
100
AcDbEntity
  8
AM_3 隠れ線
100
AcDbLine
 10
37.0
 20
7.0
 30
0.0
 11
41.04145199999993
 21
0.0
 31
0.0
  0
LINE
  5
48BA
330
48AD
100
AcDbEntity
  8
AM_0 外形線1
100
AcDbLine
 10
34.0
 20
122.0
 30
0.0
 11
1.0
 21
122.0
 31
0.0
  0
LINE
  5
48BB
330
48AD
100
AcDbEntity
  8
AM_0 外形線1
100
AcDbLine
 10
1.0
 20
122.0
 30
0.0
 11
0.0
 21
121.0
 31
0.0
  0
ARC
  5
48BD
330
48AD
100
AcDbEntity
  8
AM_0 外形線1
100
AcDbCircle
 10
54.0
 20
0.0
 30
0.0
 40
135.82
100
AcDbArc
 50
80.46439800000047
 51
97.82857599999481
  0
ARC
  5
48BE
330
48AD
100
AcDbEntity
  8
AM_0 外形線1
100
AcDbCircle
 10
34.0
 20
122.5
 30
0.0
 40
0.5
100
AcDbArc
 50
270.0
 51
0.0
  0
LINE
  5
48BF
330
48AD
100
AcDbEntity
  8
AM_0 外形線1
100
AcDbLine
 10
34.5
 20
133.4128839999998
 30
0.0
 11
34.5
 21
122.5
 31
0.0
  0
LINE
  5
48C0
330
48AD
100
AcDbEntity
  8
AM_0 外形線1
100
AcDbLine
 10
35.5
 20
134.5541639999996
 30
0.0
 11
34.5
 21
133.4128839999998
 31
0.0
  0
LINE
  5
48C1
330
48AD
100
AcDbEntity
  8
AM_7 中心線
100
AcDbLine
 10
54.0
 20
140.8199999999997
 30
0.0
 11
54.0
 21
122.5999999999999
 31
0.0
  0
LINE
  5
48C2
330
48AD
100
AcDbEntity
  8
AM_0 外形線1
100
AcDbLine
 10
77.5
 20
132.7715319999997
 30
0.0
 11
76.5
 21
133.9433559999998
 31
0.0
  0
LINE
  5
48C3
330
48AD
100
AcDbEntity
  8
AM_0 外形線1
100
AcDbLine
 10
77.5
 20
125.5
 30
0.0
 11
77.5
 21
132.7715319999997
 31
0.0
  0
ARC
  5
48C4
330
48AD
100
AcDbEntity
  8
AM_0 外形線1
100
AcDbCircle
 10
78.0
 20
125.5
 30
0.0
 40
0.5
100
AcDbArc
 50
180.0
 51
270.0
  0
LINE
  5
48C5
330
48AD
100
AcDbEntity
  8
AM_0 外形線1
100
AcDbLine
 10
130.5
 20
-124.2000000000001
 30
0.0
 11
130.5
 21
0.0
 31
0.0
  0
LINE
  5
48C6
330
48AD
100
AcDbEntity
  8
AM_0 外形線1
100
AcDbLine
 10
128.5
 20
-124.9999999999999
 30
0.0
 11
128.5
 21
0.0
 31
0.0
  0
LINE
  5
48C7
330
48AD
100
AcDbEntity
  8
AM_0 外形線1
100
AcDbLine
 10
190.0
 20
-120.2000000000001
 30
0.0
 11
190.0
 21
120.1999999999998
 31
0.0
  0
LINE
  5
48C8
330
48AD
100
AcDbEntity
  8
AM_0 外形線1
100
AcDbLine
 10
130.5
 20
-124.2000000000001
 30
0.0
 11
186.0
 21
-124.2000000000001
 31
0.0
  0
LINE
  5
48C9
330
48AD
100
AcDbEntity
  8
AM_0 外形線1
100
AcDbLine
 10
100.0
 20
-124.9999999999999
 30
0.0
 11
128.5
 21
-124.9999999999999
 31
0.0
  0
LINE
  5
48CA
330
48AD
100
AcDbEntity
  8
AM_0 外形線1
100
AcDbLine
 10
128.5
 20
-124.9999999999999
 30
0.0
 11
130.5
 21
-124.2000000000001
 31
0.0
  0
ARC
  5
48CB
330
48AD
100
AcDbEntity
  8
AM_0 外形線1
100
AcDbCircle
 10
186.0
 20
-120.2000000000001
 30
0.0
 40
4.0
100
AcDbArc
 50
270.0
 51
0.0
  0
LINE
  5
48CC
330
48AD
100
AcDbEntity
  8
AM_0 外形線1
100
AcDbLine
 10
186.0
 20
124.1999999999998
 30
0.0
 11
130.5
 21
124.1999999999998
 31
0.0
  0
LINE
  5
48CD
330
48AD
100
AcDbEntity
  8
AM_0 外形線1
100
AcDbLine
 10
130.5
 20
124.1999999999998
 30
0.0
 11
128.5
 21
125.0
 31
0.0
  0
ARC
  5
48CE
330
48AD
100
AcDbEntity
  8
AM_0 外形線1
100
AcDbCircle
 10
186.0
 20
120.1999999999998
 30
0.0
 40
4.0
100
AcDbArc
 50
0.0
 51
90.0
  0
LINE
  5
48D0
330
48AD
100
AcDbEntity
  8
AM_0 外形線1
100
AcDbLine
 10
0.0000000000002274
 20
77.5000000000001
 30
0.0
 11
190.0
 21
77.49999999999976
 31
0.0
  0
ARC
  5
6DA1
330
48AD
100
AcDbEntity
  8
AM_7 中心線
100
AcDbCircle
 10
54.0
 20
0.0
 30
0.0
 40
132.0000000000001
100
AcDbArc
 50
78.32132535965239
 51
99.55247154971658
  0
ARC
  5
6DA2
330
48AD
100
AcDbEntity
  8
AM_0 外形線1
100
AcDbCircle
 10
54.0
 20
0.0
 30
0.0
 40
127.5999999999998
100
AcDbArc
 50
79.38405095213351
 51
98.79046155578087
  0
ENDBLK
  5
48AF
330
48AD
100
AcDbEntity
  8
0
100
AcDbBlockEnd
  0
BLOCK
  5
49D8
330
49D7
100
AcDbEntity
  8
0
100
AcDbBlockBegin
  2
リーマボルト SEM355 M16
 70
     0
 10
0.0
 20
0.0
 30
0.0
  3
リーマボルト SEM355 M16
  1

  0
LINE
  5
49DA
330
49D7
100
AcDbEntity
  8
AM_0 外形線1
100
AcDbLine
 10
46.0
 20
1.333335999999689
 30
0.0
 11
42.0
 21
-2.666664000000309
 31
0.0
  0
LINE
  5
49DB
330
49D7
100
AcDbEntity
  8
AM_0 外形線1
100
AcDbLine
 10
46.0
 20
2.666667999999845
 30
0.0
 11
42.0
 21
-1.333332000000154
 31
0.0
  0
LINE
  5
49DC
330
49D7
100
AcDbEntity
  8
AM_0 外形線1
100
AcDbLine
 10
63.0
 20
8.0
 30
0.0
 11
63.0
 21
-8.0
 31
0.0
  0
LINE
  5
49DD
330
49D7
100
AcDbEntity
  8
AM_0 外形線1
100
AcDbLine
 10
65.0
 20
6.0
 30
0.0
 11
65.0
 21
-6.0
 31
0.0
  0
ARC
  5
49DE
330
49D7
100
AcDbEntity
  8
AM_0 外形線1
100
AcDbCircle
 10
35.99610399999984
 20
0.0
 30
0.0
 40
23.003896
100
AcDbArc
 50
342.4717980000063
 51
17.52820199999362
  0
LINE
  5
49DF
330
49D7
100
AcDbEntity
  8
AM_0 外形線1
100
AcDbLine
 10
46.0
 20
-13.85000000000036
 30
0.0
 11
46.0
 21
13.84999999999991
 31
0.0
  0
LINE
  5
49E0
330
49D7
100
AcDbEntity
  8
AM_0 外形線1
100
AcDbLine
 10
59.0
 20
12.0
 30
0.0
 11
59.0
 21
-12.0
 31
0.0
  0
LINE
  5
49E1
330
49D7
100
AcDbEntity
  8
AM_0 外形線1
100
AcDbLine
 10
40.0
 20
9.0
 30
0.0
 11
40.0
 21
-9.0
 31
0.0
  0
LINE
  5
49E2
330
49D7
100
AcDbEntity
  8
AM_0 外形線1
100
AcDbLine
 10
2.0
 20
-9.0
 30
0.0
 11
2.0
 21
9.0
 31
0.0
  0
LINE
  5
49E3
330
49D7
100
AcDbEntity
  8
AM_0 外形線1
100
AcDbLine
 10
41.0
 20
8.422651999999741
 30
0.0
 11
41.0
 21
-8.422648000000206
 31
0.0
  0
ARC
  5
49E4
330
49D7
100
AcDbEntity
  8
AM_0 外形線1
100
AcDbCircle
 10
13.00389600000017
 20
0.0
 30
0.0
 40
23.003896
100
AcDbArc
 50
162.4717980000063
 51
197.5282019999936
  0
LINE
  5
49E5
330
49D7
100
AcDbEntity
  8
AM_0 外形線1
100
AcDbLine
 10
-10.0
 20
12.0
 30
0.0
 11
-10.0
 21
-12.0
 31
0.0
  0
LINE
  5
49E6
330
49D7
100
AcDbEntity
  8
AM_0 外形線1
100
AcDbLine
 10
41.0
 20
-8.422648000000206
 30
0.0
 11
42.0
 21
-8.422648000000206
 31
0.0
  0
LINE
  5
49E7
330
49D7
100
AcDbEntity
  8
AM_0 外形線1
100
AcDbLine
 10
0.0
 20
-6.928200000000287
 30
0.0
 11
-8.931904000000031
 21
-6.928200000000287
 31
0.0
  0
LINE
  5
49E8
330
49D7
100
AcDbEntity
  8
AM_0 外形線1
100
AcDbLine
 10
-8.931904000000031
 20
-13.85000000000036
 30
0.0
 11
0.0
 21
-13.85000000000036
 31
0.0
  0
ARC
  5
49E9
330
49D7
100
AcDbEntity
  8
AM_0 外形線1
100
AcDbCircle
 10
-3.858871999999792
 20
-10.38910000000032
 30
0.0
 40
6.141128
100
AcDbArc
 50
145.6975910000001
 51
214.3024089999999
  0
LINE
  5
49EA
330
49D7
100
AcDbEntity
  8
AM_0 外形線1
100
AcDbLine
 10
-10.0
 20
-12.0
 30
0.0
 11
-8.931904000000031
 21
-13.85000000000036
 31
0.0
  0
ARC
  5
49EB
330
49D7
100
AcDbEntity
  8
AM_0 外形線1
100
AcDbCircle
 10
1.0
 20
-9.0
 30
0.0
 40
1.0
100
AcDbArc
 50
0.0
 51
180.0
  0
LINE
  5
49EC
330
49D7
100
AcDbEntity
  8
AM_0 外形線1
100
AcDbLine
 10
41.0
 20
-8.422648000000206
 30
0.0
 11
40.0
 21
-9.0
 31
0.0
  0
ARC
  5
49ED
330
49D7
100
AcDbEntity
  8
AM_0 外形線1
100
AcDbCircle
 10
52.85887199999979
 20
-10.38910000000032
 30
0.0
 40
6.141128
100
AcDbArc
 50
325.697591
 51
34.30240899999993
  0
LINE
  5
49EE
330
49D7
100
AcDbEntity
  8
AM_0 外形線1
100
AcDbLine
 10
59.0
 20
-12.0
 30
0.0
 11
57.93190000000004
 21
-13.85000000000036
 31
0.0
  0
LINE
  5
49EF
330
49D7
100
AcDbEntity
  8
AM_0 外形線1
100
AcDbLine
 10
46.0
 20
-6.928200000000287
 30
0.0
 11
57.93190000000004
 21
-6.928200000000287
 31
0.0
  0
LINE
  5
49F0
330
49D7
100
AcDbEntity
  8
AM_0 外形線1
100
AcDbLine
 10
57.93190000000004
 20
-13.85000000000036
 30
0.0
 11
46.0
 21
-13.85000000000036
 31
0.0
  0
LINE
  5
49F1
330
49D7
100
AcDbEntity
  8
AM_0 外形線1
100
AcDbLine
 10
46.0
 20
-14.0
 30
0.0
 11
46.0
 21
-13.85000000000036
 31
0.0
  0
LINE
  5
49F2
330
49D7
100
AcDbEntity
  8
AM_0 外形線1
100
AcDbLine
 10
42.0
 20
-14.0
 30
0.0
 11
46.0
 21
-14.0
 31
0.0
  0
LINE
  5
49F3
330
49D7
100
AcDbEntity
  8
AM_4 細線
100
AcDbLine
 10
59.0
 20
-7.0
 30
0.0
 11
64.0
 21
-7.0
 31
0.0
  0
LINE
  5
49F4
330
49D7
100
AcDbEntity
  8
AM_0 外形線1
100
AcDbLine
 10
63.0
 20
-8.0
 30
0.0
 11
59.0
 21
-8.0
 31
0.0
  0
LINE
  5
49F5
330
49D7
100
AcDbEntity
  8
AM_0 外形線1
100
AcDbLine
 10
65.0
 20
-6.0
 30
0.0
 11
63.0
 21
-8.0
 31
0.0
  0
LINE
  5
49F6
330
49D7
100
AcDbEntity
  8
AM_0 外形線1
100
AcDbLine
 10
41.0
 20
8.422651999999741
 30
0.0
 11
42.0
 21
8.422651999999741
 31
0.0
  0
LINE
  5
49F7
330
49D7
100
AcDbEntity
  8
AM_0 外形線1
100
AcDbLine
 10
0.0
 20
6.928203999999822
 30
0.0
 11
-8.931904000000031
 21
6.928203999999822
 31
0.0
  0
LINE
  5
49F8
330
49D7
100
AcDbEntity
  8
AM_0 外形線1
100
AcDbLine
 10
0.0
 20
13.84999999999991
 30
0.0
 11
-8.931904000000031
 21
13.84999999999991
 31
0.0
  0
ARC
  5
49F9
330
49D7
100
AcDbEntity
  8
AM_0 外形線1
100
AcDbCircle
 10
-3.858871999999792
 20
10.38910399999986
 30
0.0
 40
6.141128
100
AcDbArc
 50
145.6975910000001
 51
214.3024089999999
  0
LINE
  5
49FA
330
49D7
100
AcDbEntity
  8
AM_0 外形線1
100
AcDbLine
 10
-8.931904000000031
 20
13.84999999999991
 30
0.0
 11
-10.0
 21
12.0
 31
0.0
  0
ARC
  5
49FB
330
49D7
100
AcDbEntity
  8
AM_0 外形線1
100
AcDbCircle
 10
1.0
 20
9.0
 30
0.0
 40
1.0
100
AcDbArc
 50
180.0
 51
0.0
  0
LINE
  5
49FC
330
49D7
100
AcDbEntity
  8
AM_0 外形線1
100
AcDbLine
 10
40.0
 20
9.0
 30
0.0
 11
41.0
 21
8.422651999999741
 31
0.0
  0
ARC
  5
49FD
330
49D7
100
AcDbEntity
  8
AM_0 外形線1
100
AcDbCircle
 10
52.85887199999979
 20
10.38910399999986
 30
0.0
 40
6.141128
100
AcDbArc
 50
325.697591
 51
34.30240899999993
  0
LINE
  5
49FE
330
49D7
100
AcDbEntity
  8
AM_0 外形線1
100
AcDbLine
 10
57.93190000000004
 20
13.84999999999991
 30
0.0
 11
59.0
 21
12.0
 31
0.0
  0
LINE
  5
49FF
330
49D7
100
AcDbEntity
  8
AM_0 外形線1
100
AcDbLine
 10
46.0
 20
6.928203999999822
 30
0.0
 11
57.93190000000004
 21
6.928203999999822
 31
0.0
  0
LINE
  5
4A00
330
49D7
100
AcDbEntity
  8
AM_0 外形線1
100
AcDbLine
 10
46.0
 20
13.84999999999991
 30
0.0
 11
57.93190000000004
 21
13.84999999999991
 31
0.0
  0
LINE
  5
4A01
330
49D7
100
AcDbEntity
  8
AM_0 外形線1
100
AcDbLine
 10
46.0
 20
14.0
 30
0.0
 11
42.0
 21
14.0
 31
0.0
  0
LINE
  5
4A02
330
49D7
100
AcDbEntity
  8
AM_4 細線
100
AcDbLine
 10
59.0
 20
7.0
 30
0.0
 11
64.0
 21
7.0
 31
0.0
  0
LINE
  5
4A03
330
49D7
100
AcDbEntity
  8
AM_0 外形線1
100
AcDbLine
 10
63.0
 20
8.0
 30
0.0
 11
65.0
 21
6.0
 31
0.0
  0
LINE
  5
4A04
330
49D7
100
AcDbEntity
  8
AM_0 外形線1
100
AcDbLine
 10
59.0
 20
8.0
 30
0.0
 11
63.0
 21
8.0
 31
0.0
  0
LINE
  5
4A64
330
49D7
100
AcDbEntity
  8
AM_0 外形線1
100
AcDbLine
 10
0.0
 20
14.0
 30
0.0
 11
0.0
 21
-13.85000000000025
 31
0.0
  0
LINE
  5
4A65
330
49D7
100
AcDbEntity
  8
AM_0 外形線1
100
AcDbLine
 10
2.0
 20
-9.000000000000342
 30
0.0
 11
40.0
 21
-9.0
 31
0.0
  0
LINE
  5
4A66
330
49D7
100
AcDbEntity
  8
AM_0 外形線1
100
AcDbLine
 10
2.0
 20
9.0
 30
0.0
 11
40.0
 21
8.999999999999772
 31
0.0
  0
LINE
  5
4A67
330
49D7
100
AcDbEntity
  8
AM_0 外形線1
100
AcDbLine
 10
42.0
 20
14.0
 30
0.0
 11
42.0
 21
-14.0
 31
0.0
  0
ENDBLK
  5
49D9
330
49D7
100
AcDbEntity
  8
0
100
AcDbBlockEnd
  0
BLOCK
  5
4C03
330
4C02
100
AcDbEntity
  8
0
100
AcDbBlockBegin
  2
*D11
 70
     1
 10
0.0
 20
0.0
 30
0.0
  3
*D11
  1

  0
LINE
  5
6869
330
4C02
100
AcDbEntity
  8
AM_5 寸法線
 62
     3
100
AcDbLine
 10
622.7158503468427
 20
984.8331757290635
 30
0.0
 11
538.7158503468429
 21
984.8331757290635
 31
0.0
  0
LINE
  5
686A
330
4C02
100
AcDbEntity
  8
AM_5 寸法線
 62
     3
100
AcDbLine
 10
622.7158503468427
 20
709.8331757290637
 30
0.0
 11
538.7158503468428
 21
709.8331757290637
 31
0.0
  0
LINE
  5
686B
330
4C02
100
AcDbEntity
  8
AM_5 寸法線
 62
     3
100
AcDbLine
 10
541.2158503468429
 20
974.8331757290635
 30
0.0
 11
541.2158503468426
 21
719.8331757290636
 31
0.0
  0
INSERT
  5
686C
330
4C02
100
AcDbEntity
  8
AM_5 寸法線
 62
     3
100
AcDbBlockReference
  2
_Open30
 10
541.2158503468429
 20
984.8331757290635
 30
0.0
 41
10.0
 42
10.0
 43
10.0
 50
90.0
  0
INSERT
  5
686D
330
4C02
100
AcDbEntity
  8
AM_5 寸法線
 62
     3
100
AcDbBlockReference
  2
_Open30
 10
541.2158503468426
 20
709.8331757290637
 30
0.0
 41
10.0
 42
10.0
 43
10.0
 50
270.0
  0
MTEXT
  5
686E
330
4C02
100
AcDbEntity
  8
AM_5 寸法線
 62
     3
100
AcDbMText
 10
528.2158503468426
 20
847.3331757290639
 30
0.0
 40
14.0
 41
0.0
 46
0.0
 71
     5
 72
     1
  1
%%c275
  7
SEISA
 11
0.0000000000000001
 21
1.0
 31
0.0
 73
     1
 44
1.0
  0
POINT
  5
686F
330
4C02
100
AcDbEntity
  8
Defpoints
 62
     0
100
AcDbPoint
 10
625.2158503468429
 20
984.8331757290635
 30
0.0
  0
POINT
  5
6870
330
4C02
100
AcDbEntity
  8
Defpoints
 62
     0
100
AcDbPoint
 10
625.2158503468429
 20
709.8331757290637
 30
0.0
  0
POINT
  5
6871
330
4C02
100
AcDbEntity
  8
Defpoints
 62
     0
100
AcDbPoint
 10
541.2158503468426
 20
709.8331757290637
 30
0.0
  0
ENDBLK
  5
4C04
330
4C02
100
AcDbEntity
  8
0
100
AcDbBlockEnd
  0
BLOCK
  5
4C47
330
4C46
100
AcDbEntity
  8
0
100
AcDbBlockBegin
  2
*D12
 70
     1
 10
0.0
 20
0.0
 30
0.0
  3
*D12
  1

  0
LINE
  5
6872
330
4C46
100
AcDbEntity
  8
AM_5 寸法線
 62
     3
100
AcDbLine
 10
621.2158503468429
 20
849.8331757290637
 30
0.0
 11
621.2158503468429
 21
889.641299000114
 31
0.0
  0
LINE
  5
6873
330
4C46
100
AcDbEntity
  8
AM_5 寸法線
 62
     3
100
AcDbLine
 10
811.2158503468428
 20
849.8331757290637
 30
0.0
 11
811.2158503468428
 21
889.641299000114
 31
0.0
  0
LINE
  5
6874
330
4C46
100
AcDbEntity
  8
AM_5 寸法線
 62
     3
100
AcDbLine
 10
631.2158503468427
 20
887.141299000114
 30
0.0
 11
801.2158503468427
 21
887.141299000114
 31
0.0
  0
INSERT
  5
6875
330
4C46
100
AcDbEntity
  8
AM_5 寸法線
 62
     3
100
AcDbBlockReference
  2
_Open30
 10
621.2158503468429
 20
887.141299000114
 30
0.0
 41
10.0
 42
10.0
 43
10.0
 50
180.0
  0
INSERT
  5
6876
330
4C46
100
AcDbEntity
  8
AM_5 寸法線
 62
     3
100
AcDbBlockReference
  2
_Open30
 10
811.2158503468428
 20
887.141299000114
 30
0.0
 41
10.0
 42
10.0
 43
10.0
  0
MTEXT
  5
6877
330
4C46
100
AcDbEntity
  8
AM_5 寸法線
 62
     3
100
AcDbMText
 10
716.2158503468427
 20
900.141299000114
 30
0.0
 40
14.0
 41
0.0
 46
0.0
 71
     5
 72
     1
  1
190
  7
SEISA
 73
     1
 44
1.0
  0
POINT
  5
6878
330
4C46
100
AcDbEntity
  8
Defpoints
 62
     0
100
AcDbPoint
 10
621.2158503468429
 20
847.3331757290637
 30
0.0
  0
POINT
  5
6879
330
4C46
100
AcDbEntity
  8
Defpoints
 62
     0
100
AcDbPoint
 10
811.2158503468428
 20
847.3331757290637
 30
0.0
  0
POINT
  5
687A
330
4C46
100
AcDbEntity
  8
Defpoints
 62
     0
100
AcDbPoint
 10
811.2158503468428
 20
887.141299000114
 30
0.0
  0
ENDBLK
  5
4C48
330
4C46
100
AcDbEntity
  8
0
100
AcDbBlockEnd
  0
BLOCK
  5
4C68
330
4C67
100
AcDbEntity
  8
0
100
AcDbBlockBegin
  2
*D13
 70
     1
 10
0.0
 20
0.0
 30
0.0
  3
*D13
  1

  0
LINE
  5
687B
330
4C67
100
AcDbEntity
  8
AM_5 寸法線
 62
     3
100
AcDbLine
 10
811.2158503468428
 20
849.8331757290637
 30
0.0
 11
811.2158503468428
 21
889.641299000114
 31
0.0
  0
LINE
  5
687C
330
4C67
100
AcDbEntity
  8
AM_5 寸法線
 62
     3
100
AcDbLine
 10
827.2158503468428
 20
849.8331757290637
 30
0.0
 11
827.2158503468428
 21
889.641299000114
 31
0.0
  0
LINE
  5
687D
330
4C67
100
AcDbEntity
  8
AM_5 寸法線
 62
     3
100
AcDbLine
 10
801.2158503468427
 20
887.141299000114
 30
0.0
 11
791.2158503468427
 21
887.141299000114
 31
0.0
  0
LINE
  5
687E
330
4C67
100
AcDbEntity
  8
AM_5 寸法線
 62
     3
100
AcDbLine
 10
837.2158503468428
 20
887.141299000114
 30
0.0
 11
847.2158503468428
 21
887.141299000114
 31
0.0
  0
MTEXT
  5
687F
330
4C67
100
AcDbEntity
  8
AM_5 寸法線
 62
     3
100
AcDbMText
 10
842.3923483073922
 20
899.7199604612827
 30
0.0
 40
14.0
 41
0.0
 46
0.0
 71
     5
 72
     1
  1
16
  7
SEISA
 73
     1
 44
1.0
  0
LINE
  5
6880
330
4C67
100
AcDbEntity
  8
AM_5 寸法線
 62
     3
100
AcDbLine
 10
811.2158503468428
 20
887.141299000114
 30
0.0
 11
827.2158503468428
 21
887.141299000114
 31
0.0
  0
INSERT
  5
6881
330
4C67
100
AcDbEntity
  8
AM_5 寸法線
 62
     3
100
AcDbBlockReference
  2
_Open30
 10
811.2158503468428
 20
887.141299000114
 30
0.0
 41
10.0
 42
10.0
 43
10.0
  0
INSERT
  5
6882
330
4C67
100
AcDbEntity
  8
AM_5 寸法線
 62
     3
100
AcDbBlockReference
  2
_Open30
 10
827.2158503468428
 20
887.141299000114
 30
0.0
 41
10.0
 42
10.0
 43
10.0
 50
180.0
  0
POINT
  5
6883
330
4C67
100
AcDbEntity
  8
Defpoints
 62
     0
100
AcDbPoint
 10
811.2158503468428
 20
847.3331757290637
 30
0.0
  0
POINT
  5
6884
330
4C67
100
AcDbEntity
  8
Defpoints
 62
     0
100
AcDbPoint
 10
827.2158503468428
 20
847.3331757290637
 30
0.0
  0
POINT
  5
6885
330
4C67
100
AcDbEntity
  8
Defpoints
 62
     0
100
AcDbPoint
 10
827.2158503468428
 20
887.141299000114
 30
0.0
  0
ENDBLK
  5
4C69
330
4C67
100
AcDbEntity
  8
0
100
AcDbBlockEnd
  0
BLOCK
  5
4C84
330
4C83
100
AcDbEntity
  8
0
100
AcDbBlockBegin
  2
*D14
 70
     1
 10
0.0
 20
0.0
 30
0.0
  3
*D14
  1

  0
LINE
  5
6886
330
4C83
100
AcDbEntity
  8
AM_5 寸法線
 62
     3
100
AcDbLine
 10
827.2158503468428
 20
849.8331757290637
 30
0.0
 11
827.2158503468428
 21
889.641299000114
 31
0.0
  0
LINE
  5
6887
330
4C83
100
AcDbEntity
  8
AM_5 寸法線
 62
     3
100
AcDbLine
 10
1017.215850346843
 20
849.8331757290637
 30
0.0
 11
1017.215850346843
 21
889.641299000114
 31
0.0
  0
LINE
  5
6888
330
4C83
100
AcDbEntity
  8
AM_5 寸法線
 62
     3
100
AcDbLine
 10
837.2158503468428
 20
887.141299000114
 30
0.0
 11
1007.215850346843
 21
887.141299000114
 31
0.0
  0
INSERT
  5
6889
330
4C83
100
AcDbEntity
  8
AM_5 寸法線
 62
     3
100
AcDbBlockReference
  2
_Open30
 10
827.2158503468428
 20
887.141299000114
 30
0.0
 41
10.0
 42
10.0
 43
10.0
 50
180.0
  0
INSERT
  5
688A
330
4C83
100
AcDbEntity
  8
AM_5 寸法線
 62
     3
100
AcDbBlockReference
  2
_Open30
 10
1017.215850346843
 20
887.141299000114
 30
0.0
 41
10.0
 42
10.0
 43
10.0
  0
MTEXT
  5
688B
330
4C83
100
AcDbEntity
  8
AM_5 寸法線
 62
     3
100
AcDbMText
 10
922.2158503468428
 20
900.141299000114
 30
0.0
 40
14.0
 41
0.0
 46
0.0
 71
     5
 72
     1
  1
190
  7
SEISA
 73
     1
 44
1.0
  0
POINT
  5
688C
330
4C83
100
AcDbEntity
  8
Defpoints
 62
     0
100
AcDbPoint
 10
827.2158503468428
 20
847.3331757290637
 30
0.0
  0
POINT
  5
688D
330
4C83
100
AcDbEntity
  8
Defpoints
 62
     0
100
AcDbPoint
 10
1017.215850346843
 20
847.3331757290637
 30
0.0
  0
POINT
  5
688E
330
4C83
100
AcDbEntity
  8
Defpoints
 62
     0
100
AcDbPoint
 10
1017.215850346843
 20
887.141299000114
 30
0.0
  0
ENDBLK
  5
4C85
330
4C83
100
AcDbEntity
  8
0
100
AcDbBlockEnd
  0
BLOCK
  5
4CC2
330
4CC1
100
AcDbEntity
  8
0
100
AcDbBlockBegin
  2
*D15
 70
     1
 10
0.0
 20
0.0
 30
0.0
  3
*D15
  1

  0
LINE
  5
6F3B
330
4CC1
100
AcDbEntity
  8
AM_5 寸法線
 62
     3
100
AcDbLine
 10
910.2158503468428
 20
969.8331757290636
 30
0.0
 11
910.2158503468428
 21
935.2784993349004
 31
0.0
  0
LINE
  5
6F3C
330
4CC1
100
AcDbEntity
  8
AM_5 寸法線
 62
     3
100
AcDbLine
 10
904.7158503468427
 20
970.3331757290635
 30
0.0
 11
904.7158503468427
 21
935.2784993349004
 31
0.0
  0
LINE
  5
6F3D
330
4CC1
100
AcDbEntity
  8
AM_5 寸法線
 62
     3
100
AcDbLine
 10
894.7158503468427
 20
937.7784993349004
 30
0.0
 11
884.7158503468428
 21
937.7784993349004
 31
0.0
  0
LINE
  5
6F3E
330
4CC1
100
AcDbEntity
  8
AM_5 寸法線
 62
     3
100
AcDbLine
 10
920.2158503468428
 20
937.7784993349004
 30
0.0
 11
968.615850346843
 21
937.7784993349004
 31
0.0
  0
LINE
  5
6F3F
330
4CC1
100
AcDbEntity
  8
AM_5 寸法線
 62
     3
100
AcDbLine
 10
904.7158503468427
 20
937.7784993349004
 30
0.0
 11
910.2158503468428
 21
937.7784993349004
 31
0.0
  0
INSERT
  5
6F40
330
4CC1
100
AcDbEntity
  8
AM_5 寸法線
 62
     3
100
AcDbBlockReference
  2
_Open30
 10
904.7158503468427
 20
937.7784993349004
 30
0.0
 41
10.0
 42
10.0
 43
10.0
  0
INSERT
  5
6F41
330
4CC1
100
AcDbEntity
  8
AM_5 寸法線
 62
     3
100
AcDbBlockReference
  2
_Open30
 10
910.2158503468428
 20
937.7784993349004
 30
0.0
 41
10.0
 42
10.0
 43
10.0
 50
180.0
  0
MTEXT
  5
6F42
330
4CC1
100
AcDbEntity
  8
AM_5 寸法線
 62
     3
100
AcDbMText
 10
949.415850346843
 20
950.7784993349003
 30
0.0
 40
14.0
 41
0.0
 46
0.0
 71
     5
 72
     1
  1
5.5
  7
SEISA
 73
     1
 44
1.0
  0
POINT
  5
6F43
330
4CC1
100
AcDbEntity
  8
Defpoints
 62
     0
100
AcDbPoint
 10
910.2158503468428
 20
972.3331757290635
 30
0.0
  0
POINT
  5
6F44
330
4CC1
100
AcDbEntity
  8
Defpoints
 62
     0
100
AcDbPoint
 10
904.7158503468427
 20
972.8331757290636
 30
0.0
  0
POINT
  5
6F45
330
4CC1
100
AcDbEntity
  8
Defpoints
 62
     0
100
AcDbPoint
 10
904.7158503468427
 20
937.7784993349004
 30
0.0
  0
ENDBLK
  5
4CC3
330
4CC1
100
AcDbEntity
  8
0
100
AcDbBlockEnd
  0
BLOCK
  5
4D5F
330
4D5E
100
AcDbEntity
  8
0
100
AcDbBlockBegin
  2
*D16
 70
     1
 10
0.0
 20
0.0
 30
0.0
  3
*D16
  1

  0
LINE
  5
68A1
330
4D5E
100
AcDbEntity
  8
AM_5 寸法線
 62
     3
100
AcDbLine
 10
819.2158503468428
 20
668.3331757290637
 30
0.0
 11
819.2158503468428
 21
607.3331757290636
 31
0.0
  0
LINE
  5
68A2
330
4D5E
100
AcDbEntity
  8
AM_5 寸法線
 62
     3
100
AcDbLine
 10
798.2158503468427
 20
668.3331757290637
 30
0.0
 11
798.2158503468427
 21
607.3331757290636
 31
0.0
  0
LINE
  5
68A3
330
4D5E
100
AcDbEntity
  8
AM_5 寸法線
 62
     3
100
AcDbLine
 10
829.2158503468428
 20
609.8331757290639
 30
0.0
 11
839.2158503468428
 21
609.8331757290639
 31
0.0
  0
LINE
  5
68A4
330
4D5E
100
AcDbEntity
  8
AM_5 寸法線
 62
     3
100
AcDbLine
 10
788.2158503468428
 20
609.8331757290639
 30
0.0
 11
778.2158503468427
 21
609.8331757290639
 31
0.0
  0
MTEXT
  5
68A5
330
4D5E
100
AcDbEntity
  8
AM_5 寸法線
 62
     3
100
AcDbMText
 10
782.0437042129078
 20
622.776041403778
 30
0.0
 40
14.0
 41
0.0
 46
0.0
 71
     5
 72
     1
  1
21
  7
SEISA
 73
     1
 44
1.0
  0
LINE
  5
68A6
330
4D5E
100
AcDbEntity
  8
AM_5 寸法線
 62
     3
100
AcDbLine
 10
819.2158503468428
 20
609.8331757290639
 30
0.0
 11
798.2158503468427
 21
609.8331757290639
 31
0.0
  0
INSERT
  5
68A7
330
4D5E
100
AcDbEntity
  8
AM_5 寸法線
 62
     3
100
AcDbBlockReference
  2
GENDOT
 10
819.2158503468428
 20
609.8331757290639
 30
0.0
 41
10.0
 42
10.0
 43
10.0
 50
180.0
  0
INSERT
  5
68A8
330
4D5E
100
AcDbEntity
  8
AM_5 寸法線
 62
     3
100
AcDbBlockReference
  2
_Open30
 10
798.2158503468427
 20
609.8331757290639
 30
0.0
 41
10.0
 42
10.0
 43
10.0
  0
POINT
  5
68A9
330
4D5E
100
AcDbEntity
  8
Defpoints
 62
     0
100
AcDbPoint
 10
819.2158503468428
 20
670.8331757290639
 30
0.0
  0
POINT
  5
68AA
330
4D5E
100
AcDbEntity
  8
Defpoints
 62
     0
100
AcDbPoint
 10
798.2158503468427
 20
670.8331757290639
 30
0.0
  0
POINT
  5
68AB
330
4D5E
100
AcDbEntity
  8
Defpoints
 62
     0
100
AcDbPoint
 10
798.2158503468427
 20
609.8331757290639
 30
0.0
  0
ENDBLK
  5
4D60
330
4D5E
100
AcDbEntity
  8
0
100
AcDbBlockEnd
  0
BLOCK
  5
4D7B
330
4D7A
100
AcDbEntity
  8
0
100
AcDbBlockBegin
  2
*D17
 70
     1
 10
0.0
 20
0.0
 30
0.0
  3
*D17
  1

  0
LINE
  5
68AC
330
4D7A
100
AcDbEntity
  8
AM_5 寸法線
 62
     3
100
AcDbLine
 10
819.2158503468428
 20
668.3331757290637
 30
0.0
 11
819.2158503468428
 21
607.3331757290636
 31
0.0
  0
LINE
  5
68AD
330
4D7A
100
AcDbEntity
  8
AM_5 寸法線
 62
     3
100
AcDbLine
 10
840.2158503468427
 20
668.3331757290637
 30
0.0
 11
840.2158503468427
 21
607.3331757290636
 31
0.0
  0
LINE
  5
68AE
330
4D7A
100
AcDbEntity
  8
AM_5 寸法線
 62
     3
100
AcDbLine
 10
809.2158503468427
 20
609.8331757290639
 30
0.0
 11
799.2158503468427
 21
609.8331757290639
 31
0.0
  0
LINE
  5
68AF
330
4D7A
100
AcDbEntity
  8
AM_5 寸法線
 62
     3
100
AcDbLine
 10
850.2158503468427
 20
609.8331757290639
 30
0.0
 11
860.2158503468428
 21
609.8331757290639
 31
0.0
  0
MTEXT
  5
68B0
330
4D7A
100
AcDbEntity
  8
AM_5 寸法線
 62
     3
100
AcDbMText
 10
858.8650554410678
 20
622.7709968277126
 30
0.0
 40
14.0
 41
0.0
 46
0.0
 71
     5
 72
     1
  1
21
  7
SEISA
 73
     1
 44
1.0
  0
LINE
  5
68B1
330
4D7A
100
AcDbEntity
  8
AM_5 寸法線
 62
     3
100
AcDbLine
 10
819.2158503468428
 20
609.8331757290639
 30
0.0
 11
840.2158503468427
 21
609.8331757290639
 31
0.0
  0
INSERT
  5
68B2
330
4D7A
100
AcDbEntity
  8
AM_5 寸法線
 62
     3
100
AcDbBlockReference
  2
GENDOT
 10
819.2158503468428
 20
609.8331757290639
 30
0.0
 41
10.0
 42
10.0
 43
10.0
  0
INSERT
  5
68B3
330
4D7A
100
AcDbEntity
  8
AM_5 寸法線
 62
     3
100
AcDbBlockReference
  2
_Open30
 10
840.2158503468427
 20
609.8331757290639
 30
0.0
 41
10.0
 42
10.0
 43
10.0
 50
180.0
  0
POINT
  5
68B4
330
4D7A
100
AcDbEntity
  8
Defpoints
 62
     0
100
AcDbPoint
 10
819.2158503468428
 20
670.8331757290639
 30
0.0
  0
POINT
  5
68B5
330
4D7A
100
AcDbEntity
  8
Defpoints
 62
     0
100
AcDbPoint
 10
840.2158503468427
 20
670.8331757290639
 30
0.0
  0
POINT
  5
68B6
330
4D7A
100
AcDbEntity
  8
Defpoints
 62
     0
100
AcDbPoint
 10
840.2158503468427
 20
609.8331757290639
 30
0.0
  0
ENDBLK
  5
4D7C
330
4D7A
100
AcDbEntity
  8
0
100
AcDbBlockEnd
  0
BLOCK
  5
4DC1
330
4DC0
100
AcDbEntity
  8
0
100
AcDbBlockBegin
  2
*D18
 70
     1
 10
0.0
 20
0.0
 30
0.0
  3
*D18
  1

  0
LINE
  5
68B7
330
4DC0
100
AcDbEntity
  8
AM_5 寸法線
 62
     3
100
AcDbLine
 10
819.2158503468428
 20
668.3331757290637
 30
0.0
 11
819.2158503468428
 21
567.3331757290639
 31
0.0
  0
LINE
  5
68B8
330
4DC0
100
AcDbEntity
  8
AM_5 寸法線
 62
     3
100
AcDbLine
 10
621.2158503468429
 20
711.3331757290636
 30
0.0
 11
621.2158503468429
 21
567.3331757290639
 31
0.0
  0
LINE
  5
68B9
330
4DC0
100
AcDbEntity
  8
AM_5 寸法線
 62
     3
100
AcDbLine
 10
809.2158503468427
 20
569.8331757290636
 30
0.0
 11
631.2158503468427
 21
569.8331757290636
 31
0.0
  0
INSERT
  5
68BA
330
4DC0
100
AcDbEntity
  8
AM_5 寸法線
 62
     3
100
AcDbBlockReference
  2
_Open30
 10
819.2158503468428
 20
569.8331757290636
 30
0.0
 41
10.0
 42
10.0
 43
10.0
  0
INSERT
  5
68BB
330
4DC0
100
AcDbEntity
  8
AM_5 寸法線
 62
     3
100
AcDbBlockReference
  2
_Open30
 10
621.2158503468429
 20
569.8331757290636
 30
0.0
 41
10.0
 42
10.0
 43
10.0
 50
180.0
  0
MTEXT
  5
68BC
330
4DC0
100
AcDbEntity
  8
AM_5 寸法線
 62
     3
100
AcDbMText
 10
720.2158503468427
 20
582.8331757290639
 30
0.0
 40
14.0
 41
0.0
 46
0.0
 71
     5
 72
     1
  1
198
  7
SEISA
 73
     1
 44
1.0
  0
POINT
  5
68BD
330
4DC0
100
AcDbEntity
  8
Defpoints
 62
     0
100
AcDbPoint
 10
819.2158503468428
 20
670.8331757290639
 30
0.0
  0
POINT
  5
68BE
330
4DC0
100
AcDbEntity
  8
Defpoints
 62
     0
100
AcDbPoint
 10
621.2158503468429
 20
713.8331757290639
 30
0.0
  0
POINT
  5
68BF
330
4DC0
100
AcDbEntity
  8
Defpoints
 62
     0
100
AcDbPoint
 10
621.2158503468429
 20
569.8331757290636
 30
0.0
  0
ENDBLK
  5
4DC2
330
4DC0
100
AcDbEntity
  8
0
100
AcDbBlockEnd
  0
BLOCK
  5
4DD9
330
4DD8
100
AcDbEntity
  8
0
100
AcDbBlockBegin
  2
*D19
 70
     1
 10
0.0
 20
0.0
 30
0.0
  3
*D19
  1

  0
LINE
  5
68C0
330
4DD8
100
AcDbEntity
  8
AM_5 寸法線
 62
     3
100
AcDbLine
 10
819.2158503468428
 20
668.3331757290637
 30
0.0
 11
819.2158503468428
 21
567.3331757290639
 31
0.0
  0
LINE
  5
68C1
330
4DD8
100
AcDbEntity
  8
AM_5 寸法線
 62
     3
100
AcDbLine
 10
927.2158503468428
 20
704.8331757290639
 30
0.0
 11
927.2158503468428
 21
567.3331757290639
 31
0.0
  0
LINE
  5
68C2
330
4DD8
100
AcDbEntity
  8
AM_5 寸法線
 62
     3
100
AcDbLine
 10
829.2158503468428
 20
569.8331757290636
 30
0.0
 11
917.2158503468427
 21
569.8331757290636
 31
0.0
  0
INSERT
  5
68C3
330
4DD8
100
AcDbEntity
  8
AM_5 寸法線
 62
     3
100
AcDbBlockReference
  2
_Open30
 10
819.2158503468428
 20
569.8331757290636
 30
0.0
 41
10.0
 42
10.0
 43
10.0
 50
180.0
  0
INSERT
  5
68C4
330
4DD8
100
AcDbEntity
  8
AM_5 寸法線
 62
     3
100
AcDbBlockReference
  2
_Open30
 10
927.2158503468428
 20
569.8331757290636
 30
0.0
 41
10.0
 42
10.0
 43
10.0
  0
MTEXT
  5
68C5
330
4DD8
100
AcDbEntity
  8
AM_5 寸法線
 62
     3
100
AcDbMText
 10
873.2158503468427
 20
582.8331757290639
 30
0.0
 40
14.0
 41
0.0
 46
0.0
 71
     5
 72
     1
  1
108
  7
SEISA
 73
     1
 44
1.0
  0
POINT
  5
68C6
330
4DD8
100
AcDbEntity
  8
Defpoints
 62
     0
100
AcDbPoint
 10
819.2158503468428
 20
670.8331757290639
 30
0.0
  0
POINT
  5
68C7
330
4DD8
100
AcDbEntity
  8
Defpoints
 62
     0
100
AcDbPoint
 10
927.2158503468428
 20
707.3331757290636
 30
0.0
  0
POINT
  5
68C8
330
4DD8
100
AcDbEntity
  8
Defpoints
 62
     0
100
AcDbPoint
 10
927.2158503468428
 20
569.8331757290636
 30
0.0
  0
ENDBLK
  5
4DDA
330
4DD8
100
AcDbEntity
  8
0
100
AcDbBlockEnd
  0
BLOCK
  5
4DF1
330
4DF0
100
AcDbEntity
  8
0
100
AcDbBlockBegin
  2
*D20
 70
     1
 10
0.0
 20
0.0
 30
0.0
  3
*D20
  1

  0
LINE
  5
68C9
330
4DF0
100
AcDbEntity
  8
AM_5 寸法線
 62
     3
100
AcDbLine
 10
927.2158503468428
 20
704.8331757290639
 30
0.0
 11
927.2158503468428
 21
567.3331757290639
 31
0.0
  0
LINE
  5
68CA
330
4DF0
100
AcDbEntity
  8
AM_5 寸法線
 62
     3
100
AcDbLine
 10
1017.215850346843
 20
724.6331757290636
 30
0.0
 11
1017.215850346843
 21
567.3331757290639
 31
0.0
  0
LINE
  5
68CB
330
4DF0
100
AcDbEntity
  8
AM_5 寸法線
 62
     3
100
AcDbLine
 10
937.2158503468428
 20
569.8331757290636
 30
0.0
 11
1007.215850346843
 21
569.8331757290636
 31
0.0
  0
INSERT
  5
68CC
330
4DF0
100
AcDbEntity
  8
AM_5 寸法線
 62
     3
100
AcDbBlockReference
  2
_Open30
 10
927.2158503468428
 20
569.8331757290636
 30
0.0
 41
10.0
 42
10.0
 43
10.0
 50
180.0
  0
INSERT
  5
68CD
330
4DF0
100
AcDbEntity
  8
AM_5 寸法線
 62
     3
100
AcDbBlockReference
  2
_Open30
 10
1017.215850346843
 20
569.8331757290636
 30
0.0
 41
10.0
 42
10.0
 43
10.0
  0
MTEXT
  5
68CE
330
4DF0
100
AcDbEntity
  8
AM_5 寸法線
 62
     3
100
AcDbMText
 10
972.2158503468428
 20
582.8331757290639
 30
0.0
 40
14.0
 41
0.0
 46
0.0
 71
     5
 72
     1
  1
90
  7
SEISA
 73
     1
 44
1.0
  0
POINT
  5
68CF
330
4DF0
100
AcDbEntity
  8
Defpoints
 62
     0
100
AcDbPoint
 10
927.2158503468428
 20
707.3331757290636
 30
0.0
  0
POINT
  5
68D0
330
4DF0
100
AcDbEntity
  8
Defpoints
 62
     0
100
AcDbPoint
 10
1017.215850346843
 20
727.1331757290636
 30
0.0
  0
POINT
  5
68D1
330
4DF0
100
AcDbEntity
  8
Defpoints
 62
     0
100
AcDbPoint
 10
1017.215850346843
 20
569.8331757290636
 30
0.0
  0
ENDBLK
  5
4DF2
330
4DF0
100
AcDbEntity
  8
0
100
AcDbBlockEnd
  0
BLOCK
  5
4E09
330
4E08
100
AcDbEntity
  8
0
100
AcDbBlockBegin
  2
*D21
 70
     1
 10
0.0
 20
0.0
 30
0.0
  3
*D21
  1

  0
LINE
  5
68D2
330
4E08
100
AcDbEntity
  8
AM_5 寸法線
 62
     3
100
AcDbLine
 10
621.2158503468429
 20
711.3331757290636
 30
0.0
 11
621.2158503468429
 21
527.3331757290637
 31
0.0
  0
LINE
  5
68D3
330
4E08
100
AcDbEntity
  8
AM_5 寸法線
 62
     3
100
AcDbLine
 10
1017.215850346843
 20
724.6331757290636
 30
0.0
 11
1017.215850346843
 21
527.3331757290637
 31
0.0
  0
LINE
  5
68D4
330
4E08
100
AcDbEntity
  8
AM_5 寸法線
 62
     3
100
AcDbLine
 10
631.2158503468427
 20
529.8331757290639
 30
0.0
 11
1007.215850346843
 21
529.8331757290639
 31
0.0
  0
INSERT
  5
68D5
330
4E08
100
AcDbEntity
  8
AM_5 寸法線
 62
     3
100
AcDbBlockReference
  2
_Open30
 10
621.2158503468429
 20
529.8331757290639
 30
0.0
 41
10.0
 42
10.0
 43
10.0
 50
180.0
  0
INSERT
  5
68D6
330
4E08
100
AcDbEntity
  8
AM_5 寸法線
 62
     3
100
AcDbBlockReference
  2
_Open30
 10
1017.215850346843
 20
529.8331757290639
 30
0.0
 41
10.0
 42
10.0
 43
10.0
  0
MTEXT
  5
68D7
330
4E08
100
AcDbEntity
  8
AM_5 寸法線
 62
     3
100
AcDbMText
 10
819.2158503468428
 20
542.8331757290639
 30
0.0
 40
14.0
 41
0.0
 46
0.0
 71
     5
 72
     1
  1
396
  7
SEISA
 73
     1
 44
1.0
  0
POINT
  5
68D8
330
4E08
100
AcDbEntity
  8
Defpoints
 62
     0
100
AcDbPoint
 10
621.2158503468429
 20
713.8331757290639
 30
0.0
  0
POINT
  5
68D9
330
4E08
100
AcDbEntity
  8
Defpoints
 62
     0
100
AcDbPoint
 10
1017.215850346843
 20
727.1331757290636
 30
0.0
  0
POINT
  5
68DA
330
4E08
100
AcDbEntity
  8
Defpoints
 62
     0
100
AcDbPoint
 10
1017.215850346843
 20
529.8331757290639
 30
0.0
  0
ENDBLK
  5
4E0A
330
4E08
100
AcDbEntity
  8
0
100
AcDbBlockEnd
  0
BLOCK
  5
4F5F
330
4F5E
100
AcDbEntity
  8
0
100
AcDbBlockBegin
  2
*D22
 70
     1
 10
0.0
 20
0.0
 30
0.0
  3
*D22
  1

  0
LINE
  5
68F1
330
4F5E
100
AcDbEntity
  8
AM_5 寸法線
 62
     3
100
AcDbLine
 10
958.2158503468427
 20
972.3331757290635
 30
0.0
 11
1099.715850346843
 21
972.3331757290635
 31
0.0
  0
LINE
  5
68F2
330
4F5E
100
AcDbEntity
  8
AM_5 寸法線
 62
     3
100
AcDbLine
 10
958.2158503468427
 20
722.3331757290639
 30
0.0
 11
1099.715850346843
 21
722.3331757290639
 31
0.0
  0
LINE
  5
68F3
330
4F5E
100
AcDbEntity
  8
AM_5 寸法線
 62
     3
100
AcDbLine
 10
1097.215850346843
 20
962.3331757290635
 30
0.0
 11
1097.215850346843
 21
732.3331757290636
 31
0.0
  0
INSERT
  5
68F4
330
4F5E
100
AcDbEntity
  8
AM_5 寸法線
 62
     3
100
AcDbBlockReference
  2
_Open30
 10
1097.215850346843
 20
972.3331757290635
 30
0.0
 41
10.0
 42
10.0
 43
10.0
 50
90.0
  0
INSERT
  5
68F5
330
4F5E
100
AcDbEntity
  8
AM_5 寸法線
 62
     3
100
AcDbBlockReference
  2
_Open30
 10
1097.215850346843
 20
722.3331757290639
 30
0.0
 41
10.0
 42
10.0
 43
10.0
 50
270.0
  0
MTEXT
  5
68F6
330
4F5E
100
AcDbEntity
  8
AM_5 寸法線
 62
     3
100
AcDbMText
 10
1084.215850346843
 20
847.333175729064
 30
0.0
 40
14.0
 41
0.0
 46
0.0
 71
     5
 72
     1
  1
%%c250
  7
SEISA
 11
0.0000000000000001
 21
1.0
 31
0.0
 73
     1
 44
1.0
  0
POINT
  5
68F7
330
4F5E
100
AcDbEntity
  8
Defpoints
 62
     0
100
AcDbPoint
 10
955.7158503468427
 20
972.3331757290635
 30
0.0
  0
POINT
  5
68F8
330
4F5E
100
AcDbEntity
  8
Defpoints
 62
     0
100
AcDbPoint
 10
955.7158503468427
 20
722.3331757290639
 30
0.0
  0
POINT
  5
68F9
330
4F5E
100
AcDbEntity
  8
Defpoints
 62
     0
100
AcDbPoint
 10
1097.215850346843
 20
722.3331757290639
 30
0.0
  0
ENDBLK
  5
4F60
330
4F5E
100
AcDbEntity
  8
0
100
AcDbBlockEnd
  0
BLOCK
  5
4F77
330
4F76
100
AcDbEntity
  8
0
100
AcDbBlockBegin
  2
*D23
 70
     1
 10
0.0
 20
0.0
 30
0.0
  3
*D23
  1

  0
LINE
  5
68FA
330
4F76
100
AcDbEntity
  8
AM_5 寸法線
 62
     3
100
AcDbLine
 10
925.715850346843
 20
991.3331757290636
 30
0.0
 11
1139.715850346843
 21
991.3331757290636
 31
0.0
  0
LINE
  5
68FB
330
4F76
100
AcDbEntity
  8
AM_5 寸法線
 62
     3
100
AcDbLine
 10
925.715850346843
 20
703.3331757290639
 30
0.0
 11
1139.715850346843
 21
703.3331757290639
 31
0.0
  0
LINE
  5
68FC
330
4F76
100
AcDbEntity
  8
AM_5 寸法線
 62
     3
100
AcDbLine
 10
1137.215850346843
 20
981.3331757290637
 30
0.0
 11
1137.215850346843
 21
713.3331757290639
 31
0.0
  0
INSERT
  5
68FD
330
4F76
100
AcDbEntity
  8
AM_5 寸法線
 62
     3
100
AcDbBlockReference
  2
_Open30
 10
1137.215850346843
 20
991.3331757290636
 30
0.0
 41
10.0
 42
10.0
 43
10.0
 50
90.0
  0
INSERT
  5
68FE
330
4F76
100
AcDbEntity
  8
AM_5 寸法線
 62
     3
100
AcDbBlockReference
  2
_Open30
 10
1137.215850346843
 20
703.3331757290639
 30
0.0
 41
10.0
 42
10.0
 43
10.0
 50
270.0
  0
MTEXT
  5
68FF
330
4F76
100
AcDbEntity
  8
AM_5 寸法線
 62
     3
100
AcDbMText
 10
1124.215850346843
 20
847.333175729064
 30
0.0
 40
14.0
 41
0.0
 46
0.0
 71
     5
 72
     1
  1
%%c288
  7
SEISA
 11
0.0000000000000001
 21
1.0
 31
0.0
 73
     1
 44
1.0
  0
POINT
  5
6900
330
4F76
100
AcDbEntity
  8
Defpoints
 62
     0
100
AcDbPoint
 10
923.2158503468427
 20
991.3331757290636
 30
0.0
  0
POINT
  5
6901
330
4F76
100
AcDbEntity
  8
Defpoints
 62
     0
100
AcDbPoint
 10
923.2158503468427
 20
703.3331757290639
 30
0.0
  0
POINT
  5
6902
330
4F76
100
AcDbEntity
  8
Defpoints
 62
     0
100
AcDbPoint
 10
1137.215850346843
 20
703.3331757290639
 30
0.0
  0
ENDBLK
  5
4F78
330
4F76
100
AcDbEntity
  8
0
100
AcDbBlockEnd
  0
BLOCK
  5
4F8F
330
4F8E
100
AcDbEntity
  8
0
100
AcDbBlockBegin
  2
*D24
 70
     1
 10
0.0
 20
0.0
 30
0.0
  3
*D24
  1

  0
LINE
  5
6903
330
4F8E
100
AcDbEntity
  8
AM_5 寸法線
 62
     3
100
AcDbLine
 10
841.7158503468428
 20
1024.833175729064
 30
0.0
 11
1179.715850346843
 21
1024.833175729064
 31
0.0
  0
LINE
  5
6904
330
4F8E
100
AcDbEntity
  8
AM_5 寸法線
 62
     3
100
AcDbLine
 10
841.7158503468428
 20
669.8331757290636
 30
0.0
 11
1179.715850346843
 21
669.8331757290636
 31
0.0
  0
LINE
  5
6905
330
4F8E
100
AcDbEntity
  8
AM_5 寸法線
 62
     3
100
AcDbLine
 10
1177.215850346843
 20
1014.833175729064
 30
0.0
 11
1177.215850346843
 21
679.8331757290639
 31
0.0
  0
INSERT
  5
6906
330
4F8E
100
AcDbEntity
  8
AM_5 寸法線
 62
     3
100
AcDbBlockReference
  2
_Open30
 10
1177.215850346843
 20
1024.833175729064
 30
0.0
 41
10.0
 42
10.0
 43
10.0
 50
90.0
  0
INSERT
  5
6907
330
4F8E
100
AcDbEntity
  8
AM_5 寸法線
 62
     3
100
AcDbBlockReference
  2
_Open30
 10
1177.215850346843
 20
669.8331757290636
 30
0.0
 41
10.0
 42
10.0
 43
10.0
 50
270.0
  0
MTEXT
  5
6908
330
4F8E
100
AcDbEntity
  8
AM_5 寸法線
 62
     3
100
AcDbMText
 10
1164.215850346843
 20
847.333175729064
 30
0.0
 40
14.0
 41
0.0
 46
0.0
 71
     5
 72
     1
  1
%%c355
  7
SEISA
 11
0.0000000000000001
 21
1.0
 31
0.0
 73
     1
 44
1.0
  0
POINT
  5
6909
330
4F8E
100
AcDbEntity
  8
Defpoints
 62
     0
100
AcDbPoint
 10
839.2158503468428
 20
1024.833175729064
 30
0.0
  0
POINT
  5
690A
330
4F8E
100
AcDbEntity
  8
Defpoints
 62
     0
100
AcDbPoint
 10
839.2158503468428
 20
669.8331757290636
 30
0.0
  0
POINT
  5
690B
330
4F8E
100
AcDbEntity
  8
Defpoints
 62
     0
100
AcDbPoint
 10
1177.215850346843
 20
669.8331757290636
 30
0.0
  0
ENDBLK
  5
4F90
330
4F8E
100
AcDbEntity
  8
0
100
AcDbBlockEnd
  0
BLOCK
  5
61FA
330
61F7
100
AcDbEntity
  8
0
100
AcDbBlockBegin
  2
GENDOT
 70
     0
 10
0.0
 20
0.0
 30
0.0
  3
GENDOT
  1

  0
LINE
  5
61F8
330
61F7
100
AcDbEntity
  8
0
100
AcDbLine
 10
0.0
 20
0.0
 30
0.0
 11
-1.0
 21
0.0
 31
0.0
  0
LWPOLYLINE
  5
61F9
330
61F7
100
AcDbEntity
  8
0
100
AcDbPolyline
 90
        2
 70
     1
 43
0.25
 10
-0.125
 20
0.0
 42
1.0
 10
0.125
 20
0.0
 42
1.0
  0
ENDBLK
  5
61FB
330
61F7
100
AcDbEntity
  8
0
100
AcDbBlockEnd
  0
BLOCK
  5
6E35
330
6E34
100
AcDbEntity
  8
0
100
AcDbBlockBegin
  2
*D26
 70
     1
 10
0.0
 20
0.0
 30
0.0
  3
*D26
  1

  0
LINE
  5
6E5A
330
6E34
100
AcDbEntity
  8
AM_5 寸法線
 62
     3
100
AcDbLine
 10
1017.215850346843
 20
970.0331757290635
 30
0.0
 11
1017.215850346843
 21
1049.833175729064
 31
0.0
  0
LINE
  5
6E5B
330
6E34
100
AcDbEntity
  8
AM_5 寸法線
 62
     3
100
AcDbLine
 10
1018.215850346843
 20
989.8331757290636
 30
0.0
 11
1018.215850346843
 21
1049.833175729064
 31
0.0
  0
LINE
  5
6E5C
330
6E34
100
AcDbEntity
  8
AM_5 寸法線
 62
     3
100
AcDbLine
 10
1007.215850346843
 20
1047.333175729064
 30
0.0
 11
997.2158503468428
 21
1047.333175729064
 31
0.0
  0
LINE
  5
6E5D
330
6E34
100
AcDbEntity
  8
AM_5 寸法線
 62
     3
100
AcDbLine
 10
1028.215850346843
 20
1047.333175729064
 30
0.0
 11
1053.215850346843
 21
1047.333175729064
 31
0.0
  0
LINE
  5
6E5E
330
6E34
100
AcDbEntity
  8
AM_5 寸法線
 62
     3
100
AcDbLine
 10
1017.215850346843
 20
1047.333175729064
 30
0.0
 11
1018.215850346843
 21
1047.333175729064
 31
0.0
  0
INSERT
  5
6E5F
330
6E34
100
AcDbEntity
  8
AM_5 寸法線
 62
     3
100
AcDbBlockReference
  2
_Open30
 10
1017.215850346843
 20
1047.333175729064
 30
0.0
 41
10.0
 42
10.0
 43
10.0
  0
INSERT
  5
6E60
330
6E34
100
AcDbEntity
  8
AM_5 寸法線
 62
     3
100
AcDbBlockReference
  2
_Open30
 10
1018.215850346843
 20
1047.333175729064
 30
0.0
 41
10.0
 42
10.0
 43
10.0
 50
180.0
  0
MTEXT
  5
6E61
330
6E34
100
AcDbEntity
  8
AM_5 寸法線
 62
     3
100
AcDbMText
 10
1045.715850346843
 20
1060.333175729064
 30
0.0
 40
14.0
 41
0.0
 46
0.0
 71
     5
 72
     1
  1
1
  7
SEISA
 73
     1
 44
1.0
  0
POINT
  5
6E62
330
6E34
100
AcDbEntity
  8
Defpoints
 62
     0
100
AcDbPoint
 10
1017.215850346843
 20
967.5331757290635
 30
0.0
  0
POINT
  5
6E63
330
6E34
100
AcDbEntity
  8
Defpoints
 62
     0
100
AcDbPoint
 10
1018.215850346843
 20
987.3331757290635
 30
0.0
  0
POINT
  5
6E64
330
6E34
100
AcDbEntity
  8
Defpoints
 62
     0
100
AcDbPoint
 10
1018.215850346843
 20
1047.333175729064
 30
0.0
  0
ENDBLK
  5
6E36
330
6E34
100
AcDbEntity
  8
0
100
AcDbBlockEnd
  0
BLOCK
  5
6EBD
330
6EBC
100
AcDbEntity
  8
0
100
AcDbBlockBegin
  2
*D27
 70
     1
 10
0.0
 20
0.0
 30
0.0
  3
*D27
  1

  0
LINE
  5
6F31
330
6EBC
100
AcDbEntity
  8
AM_5 寸法線
 62
     3
100
AcDbLine
 10
827.2158503468428
 20
965.8331757290635
 30
0.0
 11
827.2158503468428
 21
935.2784993349008
 31
0.0
  0
LINE
  5
6F32
330
6EBC
100
AcDbEntity
  8
AM_5 寸法線
 62
     3
100
AcDbLine
 10
861.7158503468427
 20
967.3331757290636
 30
0.0
 11
861.7158503468427
 21
935.2784993349008
 31
0.0
  0
LINE
  5
6F33
330
6EBC
100
AcDbEntity
  8
AM_5 寸法線
 62
     3
100
AcDbLine
 10
837.2158503468428
 20
937.778499334901
 30
0.0
 11
851.7158503468428
 21
937.778499334901
 31
0.0
  0
LINE
  5
6F34
330
6EBC
100
AcDbEntity
  8
AM_5 寸法線
 62
     3
100
AcDbLine
 10
763.5873497973839
 20
937.778499334901
 30
0.0
 11
827.2158503468428
 21
937.778499334901
 31
0.0
  0
MTEXT
  5
6F35
330
6EBC
100
AcDbEntity
  8
AM_5 寸法線
 62
     3
100
AcDbMText
 10
788.7873497973838
 20
950.7784993349009
 30
0.0
 40
14.0
 41
0.0
 46
0.0
 71
     5
 72
     1
  1
34.5
  7
SEISA
 73
     1
 44
1.0
  0
INSERT
  5
6F36
330
6EBC
100
AcDbEntity
  8
AM_5 寸法線
 62
     3
100
AcDbBlockReference
  2
_Open30
 10
827.2158503468428
 20
937.778499334901
 30
0.0
 41
10.0
 42
10.0
 43
10.0
 50
180.0
  0
INSERT
  5
6F37
330
6EBC
100
AcDbEntity
  8
AM_5 寸法線
 62
     3
100
AcDbBlockReference
  2
_Open30
 10
861.7158503468427
 20
937.778499334901
 30
0.0
 41
10.0
 42
10.0
 43
10.0
  0
POINT
  5
6F38
330
6EBC
100
AcDbEntity
  8
Defpoints
 62
     0
100
AcDbPoint
 10
827.2158503468428
 20
968.3331757290636
 30
0.0
  0
POINT
  5
6F39
330
6EBC
100
AcDbEntity
  8
Defpoints
 62
     0
100
AcDbPoint
 10
861.7158503468427
 20
969.8331757290636
 30
0.0
  0
POINT
  5
6F3A
330
6EBC
100
AcDbEntity
  8
Defpoints
 62
     0
100
AcDbPoint
 10
861.7158503468427
 20
937.778499334901
 30
0.0
  0
ENDBLK
  5
6EBE
330
6EBC
100
AcDbEntity
  8
0
100
AcDbBlockEnd
  0
BLOCK
  5
6EEB
330
6EEA
100
AcDbEntity
  8
0
100
AcDbBlockBegin
  2
*D28
 70
     1
 10
0.0
 20
0.0
 30
0.0
  3
*D28
  1

  0
LINE
  5
6F0A
330
6EEA
100
AcDbEntity
  8
AM_5 寸法線
 62
     3
100
AcDbLine
 10
861.7158503468427
 20
967.3331757290636
 30
0.0
 11
861.7158503468427
 21
935.2784993349004
 31
0.0
  0
LINE
  5
6F0B
330
6EEA
100
AcDbEntity
  8
AM_5 寸法線
 62
     3
100
AcDbLine
 10
904.7158503468427
 20
970.3331757290635
 30
0.0
 11
904.7158503468427
 21
935.2784993349004
 31
0.0
  0
LINE
  5
6F0C
330
6EEA
100
AcDbEntity
  8
AM_5 寸法線
 62
     3
100
AcDbLine
 10
871.7158503468427
 20
937.7784993349004
 30
0.0
 11
894.7158503468427
 21
937.7784993349004
 31
0.0
  0
INSERT
  5
6F0D
330
6EEA
100
AcDbEntity
  8
AM_5 寸法線
 62
     3
100
AcDbBlockReference
  2
_Open30
 10
861.7158503468427
 20
937.7784993349004
 30
0.0
 41
10.0
 42
10.0
 43
10.0
 50
180.0
  0
INSERT
  5
6F0E
330
6EEA
100
AcDbEntity
  8
AM_5 寸法線
 62
     3
100
AcDbBlockReference
  2
_Open30
 10
904.7158503468427
 20
937.7784993349004
 30
0.0
 41
10.0
 42
10.0
 43
10.0
  0
MTEXT
  5
6F0F
330
6EEA
100
AcDbEntity
  8
AM_5 寸法線
 62
     3
100
AcDbMText
 10
883.2158503468427
 20
950.7784993349003
 30
0.0
 40
14.0
 41
0.0
 46
0.0
 71
     5
 72
     1
  1
43
  7
SEISA
 73
     1
 44
1.0
  0
POINT
  5
6F10
330
6EEA
100
AcDbEntity
  8
Defpoints
 62
     0
100
AcDbPoint
 10
861.7158503468427
 20
969.8331757290636
 30
0.0
  0
POINT
  5
6F11
330
6EEA
100
AcDbEntity
  8
Defpoints
 62
     0
100
AcDbPoint
 10
904.7158503468427
 20
972.8331757290636
 30
0.0
  0
POINT
  5
6F12
330
6EEA
100
AcDbEntity
  8
Defpoints
 62
     0
100
AcDbPoint
 10
904.7158503468427
 20
937.7784993349004
 30
0.0
  0
ENDBLK
  5
6EEC
330
6EEA
100
AcDbEntity
  8
0
100
AcDbBlockEnd
  0
BLOCK
  5
701D
330
701C
100
AcDbEntity
  8
0
100
AcDbBlockBegin
  2
ケース
 70
     0
 10
0.0
 20
0.0
 30
0.0
  3
ケース
  1

  0
LINE
  5
701F
330
701C
100
AcDbEntity
  8
AM_11 想像線
 48
0.1
100
AcDbLine
 10
18.24646882251181
 20
-7.0
 30
0.0
 11
13.74646882251181
 21
-7.0
 31
0.0
  0
LINE
  5
7020
330
701C
100
AcDbEntity
  8
AM_11 想像線
 48
0.1
100
AcDbLine
 10
0.0
 20
0.0
 30
0.0
 11
32.24646882251182
 21
0.0
 31
0.0
  0
LINE
  5
7021
330
701C
100
AcDbEntity
  8
AM_11 想像線
 48
0.1
100
AcDbLine
 10
0.0
 20
-12.0
 30
0.0
 11
14.74646882251181
 21
-12.0
 31
0.0
  0
LINE
  5
7022
330
701C
100
AcDbEntity
  8
AM_11 想像線
 48
0.1
100
AcDbLine
 10
11.74646882251181
 20
-15.20000000000027
 30
0.0
 11
0.0
 21
-15.20000000000027
 31
0.0
  0
LINE
  5
7023
330
701C
100
AcDbEntity
  8
AM_11 想像線
 48
0.1
100
AcDbLine
 10
0.0
 20
-8.0
 30
0.0
 11
12.74646882251181
 21
-8.0
 31
0.0
  0
LINE
  5
7024
330
701C
100
AcDbEntity
  8
AM_11 想像線
 48
0.1
100
AcDbLine
 10
12.74646882251181
 20
-14.20000000000027
 30
0.0
 11
11.74646882251181
 21
-15.20000000000027
 31
0.0
  0
LINE
  5
7025
330
701C
100
AcDbEntity
  8
AM_11 想像線
 48
0.1
100
AcDbLine
 10
12.74646882251159
 20
-10.05664480833695
 30
0.0
 11
12.74646882251181
 21
-14.20000000000027
 31
0.0
  0
ARC
  5
7026
330
701C
100
AcDbEntity
  8
AM_11 想像線
 48
0.1
100
AcDbCircle
 10
13.74646882251181
 20
-8.0
 30
0.0
 40
1.0
100
AcDbArc
 50
90.0
 51
180.0
  0
LINE
  5
7027
330
701C
100
AcDbEntity
  8
AM_11 想像線
 48
0.1
100
AcDbLine
 10
36.24646882251183
 20
-4.0
 30
0.0
 11
36.24646882251183
 21
-17.5
 31
0.0
  0
LINE
  5
7028
330
701C
100
AcDbEntity
  8
AM_11 想像線
 48
0.1
100
AcDbLine
 10
32.84646882251172
 20
-12.10000000000036
 30
0.0
 11
22.64646882251191
 21
-12.10000000000036
 31
0.0
  0
ARC
  5
7029
330
701C
100
AcDbEntity
  8
AM_11 想像線
 48
0.1
100
AcDbCircle
 10
18.24646882251181
 20
-8.0
 30
0.0
 40
1.0
100
AcDbArc
 50
0.0
 51
90.0
  0
LINE
  5
702A
330
701C
100
AcDbEntity
  8
AM_11 想像線
 48
0.1
100
AcDbLine
 10
19.24646882251181
 20
-17.5
 30
0.0
 11
19.24646882251181
 21
-8.0
 31
0.0
  0
LINE
  5
702B
330
701C
100
AcDbEntity
  8
AM_11 想像線
 48
0.1
100
AcDbLine
 10
22.14646882251191
 20
-17.5
 30
0.0
 11
19.24646882251181
 21
-17.5
 31
0.0
  0
LINE
  5
702C
330
701C
100
AcDbEntity
  8
AM_11 想像線
 48
0.1
100
AcDbLine
 10
22.14646882251191
 20
-12.60000000000036
 30
0.0
 11
22.14646882251191
 21
-17.5
 31
0.0
  0
ARC
  5
702D
330
701C
100
AcDbEntity
  8
AM_11 想像線
 48
0.1
100
AcDbCircle
 10
22.64646882251191
 20
-12.60000000000036
 30
0.0
 40
0.5
100
AcDbArc
 50
90.0
 51
180.0
  0
LINE
  5
702E
330
701C
100
AcDbEntity
  8
AM_11 想像線
 48
0.1
100
AcDbLine
 10
22.14646882251191
 20
-17.5
 30
0.0
 11
22.14646882251191
 21
-19.0
 31
0.0
  0
LINE
  5
702F
330
701C
100
AcDbEntity
  8
AM_11 想像線
 48
0.1
100
AcDbLine
 10
19.24646882251181
 20
-17.5
 30
0.0
 11
19.24646882251181
 21
-19.0
 31
0.0
  0
ARC
  5
7030
330
701C
100
AcDbEntity
  8
AM_11 想像線
 48
0.1
100
AcDbCircle
 10
32.84646882251172
 20
-12.60000000000036
 30
0.0
 40
0.5
100
AcDbArc
 50
0.0
 51
90.0
  0
LINE
  5
7031
330
701C
100
AcDbEntity
  8
AM_11 想像線
 48
0.1
100
AcDbLine
 10
33.34646882251173
 20
-17.5
 30
0.0
 11
33.34646882251173
 21
-12.60000000000036
 31
0.0
  0
LINE
  5
7032
330
701C
100
AcDbEntity
  8
AM_11 想像線
 48
0.1
100
AcDbLine
 10
36.24646882251183
 20
-17.5
 30
0.0
 11
33.34646882251173
 21
-17.5
 31
0.0
  0
LINE
  5
7033
330
701C
100
AcDbEntity
  8
AM_11 想像線
 48
0.1
100
AcDbLine
 10
36.24646882251183
 20
-17.5
 30
0.0
 11
36.24646882251183
 21
-19.0
 31
0.0
  0
LINE
  5
7034
330
701C
100
AcDbEntity
  8
AM_11 想像線
 48
0.1
100
AcDbLine
 10
33.34646882251173
 20
-17.5
 30
0.0
 11
33.34646882251173
 21
-19.0
 31
0.0
  0
ARC
  5
7035
102
{ACAD_REACTORS
330
6E43
102
}
330
701C
100
AcDbEntity
  8
AM_11 想像線
 48
0.1
100
AcDbCircle
 10
32.24646882251182
 20
-4.0
 30
0.0
 40
4.0
100
AcDbArc
 50
0.0
 51
90.0
  0
LINE
  5
7036
330
701C
100
AcDbEntity
  8
AM_11 想像線
 48
0.1
100
AcDbLine
 10
12.74646882251181
 20
-8.0
 30
0.0
 11
12.74646882251159
 21
-10.05664400000012
 31
0.0
  0
ENDBLK
  5
701E
330
701C
100
AcDbEntity
  8
0
100
AcDbBlockEnd
  0
ENDSEC
  0
SECTION
  2
ENTITIES
  0
LINE
  5
3E85
330
1F
100
AcDbEntity
  8
AM_7 中心線
100
AcDbLine
 10
1034.621243048953
 20
847.3331757290637
 30
0.0
 11
597.2648583652707
 21
847.3331757290637
 31
0.0
  0
LINE
  5
3F05
330
1F
100
AcDbEntity
  8
AM_0 外形線1
100
AcDbLine
 10
844.2158503468428
 20
1023.683175729064
 30
0.0
 11
844.2158503468428
 21
1023.833175729064
 31
0.0
  0
INSERT
  5
4696
102
{ACAD_REACTORS
330
4C18
330
4C5C
330
4C81
330
4D78
330
4DD6
330
4E1E
102
}
330
1F
100
AcDbEntity
  8
AM_0 外形線1
100
AcDbBlockReference
  2
リジット SEM355
 10
819.2158503468428
 20
847.3331757290637
 30
0.0
  0
INSERT
  5
46BC
102
{ACAD_REACTORS
330
4CDB
330
4D78
330
4D94
330
4DD6
330
4DEE
330
4E06
330
4F8C
330
4FA4
102
}
330
1F
100
AcDbEntity
  8
AM_0 外形線1
100
AcDbBlockReference
  2
ケースＡ SEM355
 10
819.2158503468428
 20
847.3331757290637
 30
0.0
  0
INSERT
  5
48D3
102
{ACAD_REACTORS
330
4C81
330
4C99
330
4CDB
330
4E06
330
4E1E
330
4F74
330
6E43
330
6ECA
330
6EF7
102
}
330
1F
100
AcDbEntity
  8
AM_0 外形線1
100
AcDbBlockReference
  2
センタ SEM355
 10
827.2158503468428
 20
847.3331757290637
 30
0.0
  0
INSERT
  5
4A05
330
1F
100
AcDbEntity
  8
AM_0 外形線1
100
AcDbBlockReference
  2
リーマボルト SEM355 M16
 10
798.2158503468427
 20
1009.833175729064
 30
0.0
  0
DIMENSION
  5
4C01
102
{ACAD_XDICTIONARY
360
4C0E
102
}
102
{ACAD_REACTORS
330
4C18
102
}
330
1F
100
AcDbEntity
  8
AM_5 寸法線
100
AcDbDimension
  2
*D11
 10
541.2158503468426
 20
709.8331757290637
 30
0.0
 11
528.2158503468426
 21
847.3331757290639
 31
0.0
 70
    32
  1
%%c<>
 71
     5
 42
275.0
 73
     0
 74
     0
 75
     0
  3
SEISA$0
100
AcDbAlignedDimension
 13
625.2158503468429
 23
984.8331757290635
 33
0.0
 14
625.2158503468429
 24
709.8331757290637
 34
0.0
 50
90.0
100
AcDbRotatedDimension
1001
ACAD_DSTYLE_DIMINSPECT
1070
   396
1000
100%
1070
   395
1000

1070
   394
1070
    33
1070
   393
1070
     0
  0
DIMENSION
  5
4C45
102
{ACAD_XDICTIONARY
360
4C52
102
}
102
{ACAD_REACTORS
330
4C5C
102
}
330
1F
100
AcDbEntity
  8
AM_5 寸法線
100
AcDbDimension
  2
*D12
 10
811.2158503468428
 20
887.141299000114
 30
0.0
 11
716.2158503468427
 21
900.141299000114
 31
0.0
 70
    32
 71
     5
 42
190.0
 73
     0
 74
     0
 75
     0
  3
SEISA$0
100
AcDbAlignedDimension
 13
621.2158503468429
 23
847.3331757290637
 33
0.0
 14
811.2158503468428
 24
847.3331757290637
 34
0.0
100
AcDbRotatedDimension
  0
DIMENSION
  5
4C66
102
{ACAD_XDICTIONARY
360
4C75
102
}
102
{ACAD_REACTORS
330
4C81
102
}
330
1F
100
AcDbEntity
  8
AM_5 寸法線
100
AcDbDimension
  2
*D13
 10
827.2158503468428
 20
887.141299000114
 30
0.0
 11
842.3923483073922
 21
899.7199604612827
 31
0.0
 70
   160
 71
     5
 42
16.0
 73
     0
 74
     0
 75
     0
  3
SEISA$0
100
AcDbAlignedDimension
 13
811.2158503468428
 23
847.3331757290637
 33
0.0
 14
827.2158503468428
 24
847.3331757290637
 34
0.0
100
AcDbRotatedDimension
1001
ACAD
1000
DSTYLE
1002
{
1070
   279
1070
     2
1002
}
  0
DIMENSION
  5
4C82
102
{ACAD_XDICTIONARY
360
4C8F
102
}
102
{ACAD_REACTORS
330
4C99
102
}
330
1F
100
AcDbEntity
  8
AM_5 寸法線
100
AcDbDimension
  2
*D14
 10
1017.215850346843
 20
887.141299000114
 30
0.0
 11
922.2158503468428
 21
900.141299000114
 31
0.0
 70
    32
 71
     5
 42
190.0
 73
     0
 74
     0
 75
     0
  3
SEISA$0
100
AcDbAlignedDimension
 13
827.2158503468428
 23
847.3331757290637
 33
0.0
 14
1017.215850346843
 24
847.3331757290637
 34
0.0
100
AcDbRotatedDimension
  0
DIMENSION
  5
4CC0
102
{ACAD_XDICTIONARY
360
4CCF
102
}
102
{ACAD_REACTORS
330
4CDB
102
}
330
1F
100
AcDbEntity
  8
AM_5 寸法線
100
AcDbDimension
  2
*D15
 10
904.7158503468427
 20
937.7784993349004
 30
0.0
 11
949.415850346843
 21
937.7784993349004
 31
0.0
 70
   160
 71
     5
 42
5.500000000000113
 73
     0
 74
     0
 75
     0
  3
SEISA$0
100
AcDbAlignedDimension
 13
910.2158503468428
 23
972.3331757290635
 33
0.0
 14
904.7158503468427
 24
972.8331757290636
 34
0.0
100
AcDbRotatedDimension
  0
DIMENSION
  5
4D5D
102
{ACAD_XDICTIONARY
360
4D6C
102
}
102
{ACAD_REACTORS
330
4D78
102
}
330
1F
100
AcDbEntity
  8
AM_5 寸法線
100
AcDbDimension
  2
*D16
 10
798.2158503468427
 20
609.8331757290639
 30
0.0
 11
782.0437042129078
 21
622.776041403778
 31
0.0
 70
   160
 71
     5
 42
21.0
 73
     0
 74
     0
 75
     0
  3
SEISA$0
100
AcDbAlignedDimension
 13
819.2158503468428
 23
670.8331757290639
 33
0.0
 14
798.2158503468427
 24
670.8331757290639
 34
0.0
100
AcDbRotatedDimension
1001
ACAD_DSTYLE_DIMINSPECT
1070
   396
1000
100%
1070
   395
1000

1070
   394
1070
    33
1070
   393
1070
     0
1001
ACAD
1000
DSTYLE
1002
{
1070
   173
1070
     1
1070
   279
1070
     2
1070
   342
1005
0
1070
   343
1005
61F7
1070
   344
1005
69
1002
}
  0
DIMENSION
  5
4D79
102
{ACAD_XDICTIONARY
360
4D88
102
}
102
{ACAD_REACTORS
330
4D94
102
}
330
1F
100
AcDbEntity
  8
AM_5 寸法線
100
AcDbDimension
  2
*D17
 10
840.2158503468427
 20
609.8331757290639
 30
0.0
 11
858.8650554410678
 21
622.7709968277126
 31
0.0
 70
   160
 71
     5
 42
21.0
 73
     0
 74
     0
 75
     0
  3
SEISA$0
100
AcDbAlignedDimension
 13
819.2158503468428
 23
670.8331757290639
 33
0.0
 14
840.2158503468427
 24
670.8331757290639
 34
0.0
100
AcDbRotatedDimension
1001
ACAD_DSTYLE_DIMINSPECT
1070
   396
1000
100%
1070
   395
1000

1070
   394
1070
    33
1070
   393
1070
     0
1001
ACAD
1000
DSTYLE
1002
{
1070
   173
1070
     1
1070
   279
1070
     2
1070
   342
1005
0
1070
   343
1005
61F7
1070
   344
1005
69
1002
}
  0
DIMENSION
  5
4DBF
102
{ACAD_XDICTIONARY
360
4DCC
102
}
102
{ACAD_REACTORS
330
4DD6
102
}
330
1F
100
AcDbEntity
  8
AM_5 寸法線
100
AcDbDimension
  2
*D18
 10
621.2158503468429
 20
569.8331757290636
 30
0.0
 11
720.2158503468427
 21
569.8331757290636
 31
0.0
 70
   160
 71
     5
 42
198.0
 73
     0
 74
     0
 75
     0
  3
SEISA$0
100
AcDbAlignedDimension
 13
819.2158503468428
 23
670.8331757290639
 33
0.0
 14
621.2158503468429
 24
713.8331757290639
 34
0.0
100
AcDbRotatedDimension
1001
ACAD
1000
DSTYLE
1002
{
1070
   279
1070
     0
1002
}
  0
DIMENSION
  5
4DD7
102
{ACAD_XDICTIONARY
360
4DE4
102
}
102
{ACAD_REACTORS
330
4DEE
102
}
330
1F
100
AcDbEntity
  8
AM_5 寸法線
100
AcDbDimension
  2
*D19
 10
927.2158503468428
 20
569.8331757290636
 30
0.0
 11
873.2158503468427
 21
569.8331757290636
 31
0.0
 70
   160
 71
     5
 42
108.0
 73
     0
 74
     0
 75
     0
  3
SEISA$0
100
AcDbAlignedDimension
 13
819.2158503468428
 23
670.8331757290639
 33
0.0
 14
927.2158503468428
 24
707.3331757290636
 34
0.0
100
AcDbRotatedDimension
1001
ACAD
1000
DSTYLE
1002
{
1070
   279
1070
     0
1002
}
  0
DIMENSION
  5
4DEF
102
{ACAD_XDICTIONARY
360
4DFC
102
}
102
{ACAD_REACTORS
330
4E06
102
}
330
1F
100
AcDbEntity
  8
AM_5 寸法線
100
AcDbDimension
  2
*D20
 10
1017.215850346843
 20
569.8331757290636
 30
0.0
 11
972.2158503468428
 21
569.8331757290636
 31
0.0
 70
   160
 71
     5
 42
90.0
 73
     0
 74
     0
 75
     0
  3
SEISA$0
100
AcDbAlignedDimension
 13
927.2158503468428
 23
707.3331757290636
 33
0.0
 14
1017.215850346843
 24
727.1331757290636
 34
0.0
100
AcDbRotatedDimension
1001
ACAD
1000
DSTYLE
1002
{
1070
   279
1070
     0
1002
}
  0
DIMENSION
  5
4E07
102
{ACAD_XDICTIONARY
360
4E14
102
}
102
{ACAD_REACTORS
330
4E1E
102
}
330
1F
100
AcDbEntity
  8
AM_5 寸法線
100
AcDbDimension
  2
*D21
 10
1017.215850346843
 20
529.8331757290639
 30
0.0
 11
819.2158503468428
 21
529.8331757290639
 31
0.0
 70
   160
 71
     5
 42
396.0
 73
     0
 74
     0
 75
     0
  3
SEISA$0
100
AcDbAlignedDimension
 13
621.2158503468429
 23
713.8331757290639
 33
0.0
 14
1017.215850346843
 24
727.1331757290636
 34
0.0
100
AcDbRotatedDimension
1001
ACAD
1000
DSTYLE
1002
{
1070
   279
1070
     0
1002
}
  0
DIMENSION
  5
4F5D
102
{ACAD_XDICTIONARY
360
4F6A
102
}
102
{ACAD_REACTORS
330
4F74
102
}
330
1F
100
AcDbEntity
  8
AM_5 寸法線
100
AcDbDimension
  2
*D22
 10
1097.215850346843
 20
722.3331757290639
 30
0.0
 11
1084.215850346843
 21
847.333175729064
 31
0.0
 70
    32
  1
%%c<>
 71
     5
 42
249.9999999999999
 73
     0
 74
     0
 75
     0
  3
SEISA$0
100
AcDbAlignedDimension
 13
955.7158503468427
 23
972.3331757290635
 33
0.0
 14
955.7158503468427
 24
722.3331757290639
 34
0.0
 50
90.0
100
AcDbRotatedDimension
1001
ACAD_DSTYLE_DIMINSPECT
1070
   396
1000
100%
1070
   395
1000

1070
   394
1070
    33
1070
   393
1070
     0
1001
ACAD
1000
DSTYLE
1002
{
1070
   279
1070
     0
1002
}
  0
DIMENSION
  5
4F75
102
{ACAD_XDICTIONARY
360
4F82
102
}
102
{ACAD_REACTORS
330
4F8C
102
}
330
1F
100
AcDbEntity
  8
AM_5 寸法線
100
AcDbDimension
  2
*D23
 10
1137.215850346843
 20
703.3331757290639
 30
0.0
 11
1137.215850346843
 21
847.333175729064
 31
0.0
 70
   160
  1
%%c<>
 71
     5
 42
287.9999999999999
 73
     0
 74
     0
 75
     0
  3
SEISA$0
100
AcDbAlignedDimension
 13
923.2158503468427
 23
991.3331757290636
 33
0.0
 14
923.2158503468427
 24
703.3331757290639
 34
0.0
 50
90.0
100
AcDbRotatedDimension
1001
ACAD_DSTYLE_DIMINSPECT
1070
   396
1000
100%
1070
   395
1000

1070
   394
1070
    33
1070
   393
1070
     0
1001
ACAD
1000
DSTYLE
1002
{
1070
   279
1070
     0
1002
}
  0
DIMENSION
  5
4F8D
102
{ACAD_XDICTIONARY
360
4F9A
102
}
102
{ACAD_REACTORS
330
4FA4
102
}
330
1F
100
AcDbEntity
  8
AM_5 寸法線
100
AcDbDimension
  2
*D24
 10
1177.215850346843
 20
669.8331757290636
 30
0.0
 11
1177.215850346843
 21
847.333175729064
 31
0.0
 70
   160
  1
%%c<>
 71
     5
 42
355.0
 73
     0
 74
     0
 75
     0
  3
SEISA$0
100
AcDbAlignedDimension
 13
839.2158503468428
 23
1024.833175729064
 33
0.0
 14
839.2158503468428
 24
669.8331757290636
 34
0.0
 50
90.0
100
AcDbRotatedDimension
1001
ACAD_DSTYLE_DIMINSPECT
1070
   396
1000
100%
1070
   395
1000

1070
   394
1070
    33
1070
   393
1070
     0
1001
ACAD
1000
DSTYLE
1002
{
1070
   279
1070
     0
1002
}
  0
LINE
  5
6502
330
1F
100
AcDbEntity
  8
AM_5 寸法線
100
AcDbLine
 10
860.2158503468428
 20
609.8331757290639
 30
0.0
 11
873.9119020542693
 21
609.8331757290639
 31
0.0
  0
LINE
  5
6503
330
1F
100
AcDbEntity
  8
AM_5 寸法線
100
AcDbLine
 10
778.2158503468427
 20
609.8331757290639
 30
0.0
 11
768.7793042643352
 21
609.8331757290639
 31
0.0
  0
MTEXT
  5
6D51
330
1F
100
AcDbEntity
  8
AM_6 文字
100
AcDbMText
 10
1047.808156347363
 20
647.0209745929651
 30
0.0
 40
14.0
 41
335.0295007930205
 46
42.80627875551914
 71
     1
 72
     5
  1
{\W0.6;TYPE:SEM355/SEMH355\PSHAFT DIA:MAX/MIN \P RIGID SIDE φ200/φ125\P COUPLING CENTER SIDE φ180/φ125}
  7
SEISA
 73
     1
 44
1.0
  0
DIMENSION
  5
6E33
102
{ACAD_XDICTIONARY
360
6E42
102
}
102
{ACAD_REACTORS
330
6E43
102
}
330
1F
100
AcDbEntity
  8
AM_5 寸法線
100
AcDbDimension
  2
*D26
 10
1018.215850346843
 20
1047.333175729064
 30
0.0
 11
1045.715850346843
 21
1060.333175729064
 31
0.0
 70
    32
 71
     5
 42
-1.0
 73
     0
 74
     0
 75
     0
  3
SEISA$0
100
AcDbAlignedDimension
 13
1017.215850346843
 23
967.5331757290635
 33
0.0
 14
1018.215850346843
 24
987.3331757290635
 34
0.0
100
AcDbRotatedDimension
1001
ACAD_DSTYLE_DIMINSPECT
1070
   396
1000
100%
1070
   395
1000

1070
   394
1070
    33
1070
   393
1070
     0
  0
DIMENSION
  5
6EBB
102
{ACAD_XDICTIONARY
360
6EC9
102
}
102
{ACAD_REACTORS
330
6ECA
102
}
330
1F
100
AcDbEntity
  8
AM_5 寸法線
100
AcDbDimension
  2
*D27
 10
861.7158503468427
 20
937.778499334901
 30
0.0
 11
788.7873497973838
 21
936.0383324621524
 31
0.0
 70
   160
 71
     5
 42
34.5
 73
     0
 74
     0
 75
     0
  3
SEISA$0
100
AcDbAlignedDimension
 13
827.2158503468428
 23
968.3331757290636
 33
0.0
 14
861.7158503468427
 24
969.8331757290636
 34
0.0
 50
0.0000000000001132
100
AcDbRotatedDimension
1001
ACAD_DSTYLE_DIMINSPECT
1070
   396
1000
100%
1070
   395
1000

1070
   394
1070
    33
1070
   393
1070
     0
1001
ACAD
1000
DSTYLE
1002
{
1070
   279
1070
     1
1002
}
  0
DIMENSION
  5
6EE9
102
{ACAD_XDICTIONARY
360
6EF6
102
}
102
{ACAD_REACTORS
330
6EF7
102
}
330
1F
100
AcDbEntity
  8
AM_5 寸法線
100
AcDbDimension
  2
*D28
 10
904.7158503468427
 20
937.7784993349004
 30
0.0
 11
883.2158503468427
 21
950.7784993349003
 31
0.0
 70
    32
 71
     5
 42
43.0
 73
     0
 74
     0
 75
     0
  3
SEISA$0
100
AcDbAlignedDimension
 13
861.7158503468427
 23
969.8331757290636
 33
0.0
 14
904.7158503468427
 24
972.8331757290636
 34
0.0
 50
0.0000000000001132
100
AcDbRotatedDimension
1001
ACAD_DSTYLE_DIMINSPECT
1070
   396
1000
100%
1070
   395
1000

1070
   394
1070
    33
1070
   393
1070
     0
  0
INSERT
  5
7037
330
1F
100
AcDbEntity
  8
AM_5 寸法線
100
AcDbBlockReference
  2
ケース
 10
981.969381524331
 20
991.3331757290636
 30
0.0
  0
ENDSEC
  0
SECTION
  2
OBJECTS
  0
DICTIONARY
  5
C
330
0
100
AcDbDictionary
281
     1
  3
ACAD_COLOR
350
C5
  3
ACAD_GROUP
350
D
  3
ACAD_LAYOUT
350
1A
  3
ACAD_MATERIAL
350
C4
  3
ACAD_MLEADERSTYLE
350
2D5
  3
ACAD_MLINESTYLE
350
17
  3
ACAD_PLOTSETTINGS
350
19
  3
ACAD_PLOTSTYLENAME
350
E
  3
ACAD_SCALELIST
350
2B3
  3
ACAD_TABLESTYLE
350
121
  3
ACAD_VISUALSTYLE
350
27F
  3
ACDB_RECOMPOSE_DATA
350
2F7
  3
AcDbVariableDictionary
350
34
  3
AcmDictionary
350
49
  3
AMG
350
2B
  3
AMGSNAPSETTINGS
350
1DE
  0
DICTIONARY
  5
BF
330
2
100
AcDbDictionary
280
     1
281
     1
  3
ACAD_LAYERSTATES
360
6D48
  3
AMLAYER_GROUPCOLORS
360
C0
  0
DICTIONARY
  5
29F7
330
10
100
AcDbDictionary
280
     1
281
     1
  3
ADSK_XREC_LAYER_RECONCILED
360
29F8
  0
DICTIONARY
  5
29F9
330
81
100
AcDbDictionary
280
     1
281
     1
  3
ADSK_XREC_LAYER_RECONCILED
360
29FA
  0
DICTIONARY
  5
82
330
1F
100
AcDbDictionary
280
     1
281
     1
  3
ACAD_SORTENTS
360
A41
  0
DICTIONARY
  5
2A0A
330
2A09
100
AcDbDictionary
280
     1
281
     1
  3
ACAD_SORTENTS
360
5C56
  0
DICTIONARY
  5
45FF
330
453E
100
AcDbDictionary
280
     1
281
     1
  3
ACAD_SORTENTS
360
682D
  0
DICTIONARY
  5
46F2
330
466E
100
AcDbDictionary
280
     1
281
     1
  3
ACAD_SORTENTS
360
6EBA
  0
DICTIONARY
  5
491E
330
48AD
100
AcDbDictionary
280
     1
281
     1
  3
ACAD_SORTENTS
360
6FAC
  0
DICTIONARY
  5
4A68
330
49D7
100
AcDbDictionary
280
     1
281
     1
  3
ACAD_SORTENTS
360
6774
  0
DICTIONARY
  5
4C0E
330
4C01
100
AcDbDictionary
280
     1
281
     1
  3
ACAD_DIMASSOC
360
4C18
  0
DICTIONARY
  5
4C52
330
4C45
100
AcDbDictionary
280
     1
281
     1
  3
ACAD_DIMASSOC
360
4C5C
  0
DICTIONARY
  5
4C75
330
4C66
100
AcDbDictionary
280
     1
281
     1
  3
ACAD_DIMASSOC
360
4C81
  0
DICTIONARY
  5
4C8F
330
4C82
100
AcDbDictionary
280
     1
281
     1
  3
ACAD_DIMASSOC
360
4C99
  0
DICTIONARY
  5
4CCF
330
4CC0
100
AcDbDictionary
280
     1
281
     1
  3
ACAD_DIMASSOC
360
4CDB
  0
DICTIONARY
  5
4D6C
330
4D5D
100
AcDbDictionary
280
     1
281
     1
  3
ACAD_DIMASSOC
360
4D78
  0
DICTIONARY
  5
4D88
330
4D79
100
AcDbDictionary
280
     1
281
     1
  3
ACAD_DIMASSOC
360
4D94
  0
DICTIONARY
  5
4DCC
330
4DBF
100
AcDbDictionary
280
     1
281
     1
  3
ACAD_DIMASSOC
360
4DD6
  0
DICTIONARY
  5
4DE4
330
4DD7
100
AcDbDictionary
280
     1
281
     1
  3
ACAD_DIMASSOC
360
4DEE
  0
DICTIONARY
  5
4DFC
330
4DEF
100
AcDbDictionary
280
     1
281
     1
  3
ACAD_DIMASSOC
360
4E06
  0
DICTIONARY
  5
4E14
330
4E07
100
AcDbDictionary
280
     1
281
     1
  3
ACAD_DIMASSOC
360
4E1E
  0
DICTIONARY
  5
4F6A
330
4F5D
100
AcDbDictionary
280
     1
281
     1
  3
ACAD_DIMASSOC
360
4F74
  0
DICTIONARY
  5
4F82
330
4F75
100
AcDbDictionary
280
     1
281
     1
  3
ACAD_DIMASSOC
360
4F8C
  0
DICTIONARY
  5
4F9A
330
4F8D
100
AcDbDictionary
280
     1
281
     1
  3
ACAD_DIMASSOC
360
4FA4
  0
DICTIONARY
  5
6E42
330
6E33
100
AcDbDictionary
280
     1
281
     1
  3
ACAD_DIMASSOC
360
6E43
  0
DICTIONARY
  5
6EC9
330
6EBB
100
AcDbDictionary
280
     1
281
     1
  3
ACAD_DIMASSOC
360
6ECA
  0
DICTIONARY
  5
6EF6
330
6EE9
100
AcDbDictionary
280
     1
281
     1
  3
ACAD_DIMASSOC
360
6EF7
  0
DICTIONARY
  5
C5
102
{ACAD_REACTORS
330
C
102
}
330
C
100
AcDbDictionary
281
     1
  0
DICTIONARY
  5
D
102
{ACAD_REACTORS
330
C
102
}
330
C
100
AcDbDictionary
281
     1
  0
DICTIONARY
  5
1A
102
{ACAD_REACTORS
330
C
102
}
330
C
100
AcDbDictionary
281
     1
  3
Model
350
22
  3
レイアウト1
350
1E
  3
レイアウト2
350
26
  0
DICTIONARY
  5
C4
102
{ACAD_REACTORS
330
C
102
}
330
C
100
AcDbDictionary
281
     1
  3
ByBlock
350
27D
  3
ByLayer
350
27C
  3
Global
350
27E
  0
DICTIONARY
  5
2D5
102
{ACAD_REACTORS
330
C
102
}
330
C
100
AcDbDictionary
281
     1
  3
Standard
350
2D6
  0
DICTIONARY
  5
17
102
{ACAD_REACTORS
330
C
102
}
330
C
100
AcDbDictionary
281
     1
  3
Standard
350
18
  0
DICTIONARY
  5
19
102
{ACAD_REACTORS
330
C
102
}
330
C
100
AcDbDictionary
281
     1
  3
SEISA基本
350
1C7E
  0
ACDBDICTIONARYWDFLT
  5
E
102
{ACAD_REACTORS
330
C
102
}
330
C
100
AcDbDictionary
281
     1
  3
Normal
350
F
100
AcDbDictionaryWithDefault
340
F
  0
DICTIONARY
  5
2B3
102
{ACAD_REACTORS
330
C
102
}
330
C
100
AcDbDictionary
281
     1
  3
*A1
350
2C6E
  3
*A2
350
6D46
  3
*A3
350
6D47
  3
A0
350
2B4
  3
A1
350
2B5
  3
A2
350
2B6
  3
A3
350
2B7
  3
A4
350
2B8
  3
A5
350
2B9
  3
A6
350
2BA
  3
A7
350
2BB
  3
A8
350
2BC
  3
A9
350
2BD
  3
B0
350
2BE
  3
B1
350
2BF
  3
B2
350
2C0
  3
B3
350
2C1
  3
B4
350
2C2
  3
B5
350
2C3
  3
B6
350
2C4
  3
B7
350
2C5
  3
B8
350
2C6
  3
B9
350
2C7
  3
C0
350
2C8
  3
C1
350
2C9
  3
C2
350
2CA
  3
C3
350
2CB
  3
C4
350
2CC
  3
C5
350
2CD
  3
C6
350
2CE
  3
C7
350
2CF
  3
C8
350
2D0
  3
C9
350
2D1
  3
D0
350
2D2
  3
D1
350
2D3
  3
D2
350
2D4
  0
DICTIONARY
  5
121
102
{ACAD_REACTORS
330
C
102
}
330
C
100
AcDbDictionary
281
     1
  3
Standard
350
122
  0
DICTIONARY
  5
27F
102
{ACAD_REACTORS
330
C
102
}
330
C
100
AcDbDictionary
281
     1
  3
2dWireframe
350
285
  3
3D Hidden
350
287
  3
3dWireframe
350
286
  3
Basic
350
284
  3
Brighten
350
28B
  3
ColorChange
350
28F
  3
Conceptual
350
288
  3
Dim
350
28A
  3
Facepattern
350
28E
  3
Flat
350
280
  3
FlatWithEdges
350
281
  3
Gouraud
350
282
  3
GouraudWithEdges
350
283
  3
Linepattern
350
28D
  3
Realistic
350
289
  3
Thicken
350
28C
  0
XRECORD
  5
2F7
102
{ACAD_REACTORS
330
C
102
}
330
C
100
AcDbXrecord
280
     1
 90
        1
330
122
  0
DICTIONARY
  5
34
102
{ACAD_REACTORS
330
C
102
}
330
C
100
AcDbDictionary
281
     1
  3
CANNOSCALE
350
2FA
  3
CMLEADERSTYLE
350
2F8
  3
CTABLESTYLE
350
140
  3
DIMASSOC
350
AC
  3
INDEXCTL
350
35
  3
LAYEREVAL
350
5994
  3
LAYERNOTIFY
350
5995
  3
LIGHTINGUNITS
350
2FB
  3
MSLTSCALE
350
2F9
  0
DICTIONARY
  5
49
102
{ACAD_REACTORS
330
C
102
}
330
C
100
AcDbDictionary
281
     1
  3
AcmBOM
350
161B
  3
AcmStdDictionary
350
4A
  3
AMDTSECTSYM_ARROWCOLOR
350
12B
  0
DICTIONARY
  5
2B
102
{ACAD_REACTORS
330
C
102
}
330
C
100
AcDbDictionary
281
     1
  0
DICTIONARY
  5
1DE
102
{ACAD_REACTORS
330
C
102
}
330
C
100
AcDbDictionary
281
     1
  0
DICTIONARY
  5
6D48
102
{ACAD_REACTORS
330
BF
102
}
330
BF
100
AcDbDictionary
281
     1
  0
DICTIONARY
  5
C0
102
{ACAD_REACTORS
330
BF
102
}
330
BF
100
AcDbDictionary
280
     1
281
     1
  0
XRECORD
  5
29F8
102
{ACAD_REACTORS
330
29F7
102
}
330
29F7
100
AcDbXrecord
280
     1
290
     1
  0
XRECORD
  5
29FA
102
{ACAD_REACTORS
330
29F9
102
}
330
29F9
100
AcDbXrecord
280
     1
290
     1
  0
SORTENTSTABLE
  5
A41
102
{ACAD_REACTORS
330
82
102
}
330
82
100
AcDbSortentsTable
330
1F
331
46BC
  5
4AFE
331
6502
  5
6BD6
331
4D79
  5
4E70
331
4C45
  5
4CFB
331
4C82
  5
4D79
331
4F5D
  5
5105
331
4A05
  5
4B3C
331
4C01
  5
4CF2
331
4F75
  5
519E
331
3E85
  5
3E85
331
4F8D
  5
51C8
331
4CC0
  5
4DBF
331
4696
  5
4A7E
331
6503
  5
6BE7
331
4D5D
  5
4E07
331
4DD7
  5
4F5D
331
4DBF
  5
4E88
331
3F05
  5
3F05
331
48D3
  5
4B27
331
4C66
  5
4D5D
331
4DEF
  5
4F75
331
6D51
  5
6D51
331
4E07
  5
4F8D
  0
SORTENTSTABLE
  5
5C56
102
{ACAD_REACTORS
330
2A0A
102
}
330
2A0A
100
AcDbSortentsTable
330
2A09
  0
SORTENTSTABLE
  5
682D
102
{ACAD_REACTORS
330
45FF
102
}
330
45FF
100
AcDbSortentsTable
330
453E
  0
SORTENTSTABLE
  5
6EBA
102
{ACAD_REACTORS
330
46F2
102
}
330
46F2
100
AcDbSortentsTable
330
466E
  0
SORTENTSTABLE
  5
6FAC
102
{ACAD_REACTORS
330
491E
102
}
330
491E
100
AcDbSortentsTable
330
48AD
331
48C8
  5
48CA
331
48CA
  5
48CC
331
48B2
  5
48B4
331
48C9
  5
48CB
331
48B1
  5
48B3
331
48CC
  5
48CE
331
48B4
  5
48B6
331
48CB
  5
48CD
331
48B3
  5
48B5
331
48B7
  5
48B9
331
48D0
  5
6DA2
331
48CE
  5
6DA1
331
48B6
  5
48B8
331
6DA1
  5
48B2
331
48B9
  5
48BB
331
48B8
  5
48BA
331
48BB
  5
48BE
331
48BD
  5
48BF
331
6DA2
  5
48B1
331
48BA
  5
48BD
331
48BF
  5
48C1
331
48BE
  5
48C0
331
48C1
  5
48C3
331
48C0
  5
48C2
331
48C3
  5
48C5
331
48C2
  5
48C4
331
48C5
  5
48C7
331
48C4
  5
48C6
331
48CD
  5
48D0
331
48C7
  5
48C9
331
48C6
  5
48C8
331
48B5
  5
48B7
  0
SORTENTSTABLE
  5
6774
102
{ACAD_REACTORS
330
4A68
102
}
330
4A68
100
AcDbSortentsTable
330
49D7
  0
DIMASSOC
  5
4C18
102
{ACAD_REACTORS
330
4C0E
102
}
330
4C0E
100
AcDbDimAssoc
330
4C01
 90
        3
 70
     0
 71
     0
  1
AcDbOsnapPointRef
 72
     6
331
4696
331
467D
 73
     2
 91
        0
 40
1.0
 10
0.0
 20
0.0
 30
0.0
332
4696
332
467F
 74
     2
 92
        0
 75
     0
  1
AcDbOsnapPointRef
 72
     1
331
4696
331
4674
 73
     2
 91
        0
 40
1.0
 10
0.0
 20
0.0
 30
2.000000000000000E+50
 75
     0
  0
DIMASSOC
  5
4C5C
102
{ACAD_REACTORS
330
4C52
102
}
330
4C52
100
AcDbDimAssoc
330
4C45
 90
        3
 70
     0
 71
     0
  1
AcDbOsnapPointRef
 72
     1
331
4696
331
4673
 73
     2
 91
        0
 40
1.0
 10
0.0
 20
0.0
 30
2.000000000000000E+50
 75
     0
  1
AcDbOsnapPointRef
 72
    13
331
4696
331
4680
 73
     2
 91
        0
 40
0.0
 10
0.0
 20
0.0
 30
2.000000000000000E+50
 75
     0
  0
DIMASSOC
  5
4C81
102
{ACAD_REACTORS
330
4C75
102
}
330
4C75
100
AcDbDimAssoc
330
4C66
 90
        3
 70
     0
 71
     0
  1
AcDbOsnapPointRef
 72
    13
331
4696
331
4680
 73
     2
 91
        0
 40
0.0
 10
0.0
 20
0.0
 30
2.000000000000000E+50
 75
     0
  1
AcDbOsnapPointRef
 72
     1
331
48D3
331
48B2
 73
     2
 91
        0
 40
1.0
 10
0.0
 20
0.0
 30
2.000000000000000E+50
 75
     0
  0
DIMASSOC
  5
4C99
102
{ACAD_REACTORS
330
4C8F
102
}
330
4C8F
100
AcDbDimAssoc
330
4C82
 90
        3
 70
     0
 71
     0
  1
AcDbOsnapPointRef
 72
     1
331
48D3
331
48B2
 73
     2
 91
        0
 40
1.0
 10
0.0
 20
0.0
 30
2.000000000000000E+50
 75
     0
  1
AcDbOsnapPointRef
 72
     2
331
48D3
331
48C7
 73
     2
 91
        0
 40
0.5000000000000002
 10
0.0
 20
0.0
 30
0.0
 75
     0
  0
DIMASSOC
  5
4CDB
102
{ACAD_REACTORS
330
4CCF
102
}
330
4CCF
100
AcDbDimAssoc
330
4CC0
 90
        3
 70
     0
 71
     0
  1
AcDbOsnapPointRef
 72
     1
331
46BC
331
4572
 73
     2
 91
        0
 40
1.0
 10
0.0
 20
0.0
 30
2.000000000000000E+50
 75
     0
  1
AcDbOsnapPointRef
 72
     6
331
48D3
331
48C3
 73
     2
 91
        0
 40
0.0
 10
0.0
 20
0.0
 30
0.0
332
48D3
332
48C4
 74
     2
 92
        0
 75
     0
  0
DIMASSOC
  5
4D78
102
{ACAD_REACTORS
330
4D6C
102
}
330
4D6C
100
AcDbDimAssoc
330
4D5D
 90
        3
 70
     0
 71
     0
  1
AcDbOsnapPointRef
 72
     1
331
46BC
331
4544
 73
     2
 91
        0
 40
1.0
 10
0.0
 20
0.0
 30
2.000000000000000E+50
 75
     0
  1
AcDbOsnapPointRef
 72
    13
331
4696
331
4671
 73
     2
 91
        0
 40
0.0
 10
0.0
 20
0.0
 30
2.000000000000000E+50
 75
     0
  0
DIMASSOC
  5
4D94
102
{ACAD_REACTORS
330
4D88
102
}
330
4D88
100
AcDbDimAssoc
330
4D79
 90
        3
 70
     0
 71
     0
  1
AcDbOsnapPointRef
 72
     1
331
46BC
331
4544
 73
     2
 91
        0
 40
1.0
 10
0.0
 20
0.0
 30
2.000000000000000E+50
 75
     0
  1
AcDbOsnapPointRef
 72
    13
331
46BC
331
4545
 73
     2
 91
        0
 40
0.0
 10
0.0
 20
0.0
 30
2.000000000000000E+50
 75
     0
  0
DIMASSOC
  5
4DD6
102
{ACAD_REACTORS
330
4DCC
102
}
330
4DCC
100
AcDbDimAssoc
330
4DBF
 90
        3
 70
     0
 71
     0
  1
AcDbOsnapPointRef
 72
     1
331
46BC
331
4544
 73
     2
 91
        0
 40
1.0
 10
0.0
 20
0.0
 30
2.000000000000000E+50
 75
     0
  1
AcDbOsnapPointRef
 72
    13
331
4696
331
4673
 73
     2
 91
        0
 40
0.0
 10
0.0
 20
0.0
 30
2.000000000000000E+50
 75
     0
  0
DIMASSOC
  5
4DEE
102
{ACAD_REACTORS
330
4DE4
102
}
330
4DE4
100
AcDbDimAssoc
330
4DD7
 90
        3
 70
     0
 71
     0
  1
AcDbOsnapPointRef
 72
     1
331
46BC
331
4544
 73
     2
 91
        0
 40
1.0
 10
0.0
 20
0.0
 30
2.000000000000000E+50
 75
     0
  1
AcDbOsnapPointRef
 72
    13
331
46BC
331
4567
 73
     2
 91
        0
 40
0.0
 10
0.0
 20
0.0
 30
2.000000000000000E+50
 75
     0
  0
DIMASSOC
  5
4E06
102
{ACAD_REACTORS
330
4DFC
102
}
330
4DFC
100
AcDbDimAssoc
330
4DEF
 90
        3
 70
     0
 71
     0
  1
AcDbOsnapPointRef
 72
    13
331
46BC
331
4567
 73
     2
 91
        0
 40
0.0
 10
0.0
 20
0.0
 30
2.000000000000000E+50
 75
     0
  1
AcDbOsnapPointRef
 72
    13
331
48D3
331
48C7
 73
     2
 91
        0
 40
0.0
 10
0.0
 20
0.0
 30
2.000000000000000E+50
 75
     0
  0
DIMASSOC
  5
4E1E
102
{ACAD_REACTORS
330
4E14
102
}
330
4E14
100
AcDbDimAssoc
330
4E07
 90
        3
 70
     0
 71
     0
  1
AcDbOsnapPointRef
 72
    13
331
4696
331
4673
 73
     2
 91
        0
 40
0.0
 10
0.0
 20
0.0
 30
2.000000000000000E+50
 75
     0
  1
AcDbOsnapPointRef
 72
    13
331
48D3
331
48C7
 73
     2
 91
        0
 40
0.0
 10
0.0
 20
0.0
 30
2.000000000000000E+50
 75
     0
  0
DIMASSOC
  5
4F74
102
{ACAD_REACTORS
330
4F6A
102
}
330
4F6A
100
AcDbDimAssoc
330
4F5D
 90
        3
 70
     0
 71
     0
  1
AcDbOsnapPointRef
 72
    13
331
48D3
331
48B1
 73
     2
 91
        0
 40
0.0
 10
0.0
 20
0.0
 30
2.000000000000000E+50
 75
     0
  1
AcDbOsnapPointRef
 72
    13
331
48D3
331
48C6
 73
     2
 91
        0
 40
0.0
 10
0.0
 20
0.0
 30
2.000000000000000E+50
 75
     0
  0
DIMASSOC
  5
4F8C
102
{ACAD_REACTORS
330
4F82
102
}
330
4F82
100
AcDbDimAssoc
330
4F75
 90
        3
 70
     0
 71
     0
  1
AcDbOsnapPointRef
 72
     1
331
46BC
331
4542
 73
     2
 91
        0
 40
1.0
 10
0.0
 20
0.0
 30
2.000000000000000E+50
 75
     0
  1
AcDbOsnapPointRef
 72
     1
331
46BC
331
4543
 73
     2
 91
        0
 40
1.0
 10
0.0
 20
0.0
 30
2.000000000000000E+50
 75
     0
  0
DIMASSOC
  5
4FA4
102
{ACAD_REACTORS
330
4F9A
102
}
330
4F9A
100
AcDbDimAssoc
330
4F8D
 90
        3
 70
     0
 71
     0
  1
AcDbOsnapPointRef
 72
    13
331
46BC
331
4562
 73
     2
 91
        0
 40
0.0
 10
0.0
 20
0.0
 30
2.000000000000000E+50
 75
     0
  1
AcDbOsnapPointRef
 72
    13
331
46BC
331
4547
 73
     2
 91
        0
 40
0.0
 10
0.0
 20
0.0
 30
2.000000000000000E+50
 75
     0
  0
DIMASSOC
  5
6E43
102
{ACAD_REACTORS
330
6E42
102
}
330
6E42
100
AcDbDimAssoc
330
6E33
 90
        1
 70
     0
 71
     0
  1
AcDbOsnapPointRef
 72
    13
331
48D3
331
48CE
 73
     0
 91
        0
 40
0.0
 10
0.0
 20
0.0
 30
2.000000000000000E+50
 75
     0
  0
DIMASSOC
  5
6ECA
102
{ACAD_REACTORS
330
6EC9
102
}
330
6EC9
100
AcDbDimAssoc
330
6EBB
 90
        3
 70
     0
 71
     0
  1
AcDbOsnapPointRef
 72
    13
331
48D3
331
48B2
 73
     0
 91
        0
 40
0.0
 10
0.0
 20
0.0
 30
2.000000000000000E+50
 75
     0
  1
AcDbOsnapPointRef
 72
     1
331
48D3
331
48BE
 73
     0
 91
        0
 40
0.0
 10
0.0
 20
0.0
 30
2.000000000000000E+50
 75
     0
  0
DIMASSOC
  5
6EF7
102
{ACAD_REACTORS
330
6EF6
102
}
330
6EF6
100
AcDbDimAssoc
330
6EE9
 90
        3
 70
     0
 71
     0
  1
AcDbOsnapPointRef
 72
     1
331
48D3
331
48BF
 73
     0
 91
        0
 40
0.0
 10
0.0
 20
0.0
 30
2.000000000000000E+50
 75
     0
  1
AcDbOsnapPointRef
 72
    13
331
48D3
331
48C3
 73
     0
 91
        0
 40
0.0
 10
0.0
 20
0.0
 30
2.000000000000000E+50
 75
     0
  0
LAYOUT
  5
22
102
{ACAD_REACTORS
330
1A
102
}
330
1A
100
AcDbPlotSettings
  1

  2
KONICA MINOLTA 501 PCL
  4
A4
  6

 40
5.027082920074462
 41
5.027085781097412
 42
5.027069091796875
 43
5.027069091796875
 44
209.9733276367186
 45
296.9259948730469
 46
0.0
 47
0.5849679705671634
 48
0.0
 49
0.0
140
0.0
141
0.0
142
1.0
143
2.702534104948032
 70
 11956
 72
     1
 73
     1
 74
     1
  7
SEISA.ctb
 75
     0
147
0.3700230824725259
 76
     0
 77
     2
 78
   300
148
-521.1035209089344
149
-527.1097460681303
100
AcDbLayout
  1
Model
 70
     1
 71
     0
 10
0.0
 20
0.0
 11
12.0
 21
9.0
 12
0.0
 22
0.0
 32
0.0
 14
0.0
 24
0.0
 34
0.0
 15
0.0
 25
0.0
 35
0.0
146
0.0
 13
0.0
 23
0.0
 33
0.0
 16
1.0
 26
0.0
 36
0.0
 17
0.0
 27
1.0
 37
0.0
 76
     0
330
1F
331
27A
1001
ACAD_PSEXT
1000
KONICA MINOLTA 501 PCL
1000
KONICA MINOLTA 501/421/361PCL
1000
IP_192.168.20.231_(1)
1000

1070
     0
  0
LAYOUT
  5
1E
102
{ACAD_REACTORS
330
1A
102
}
330
1A
100
AcDbPlotSettings
  1

  2
none_device
  4
Letter_(8.50_x_11.00_Inches)
  6

 40
6.349999904632567
 41
6.349999904632567
 42
6.350006103515625
 43
6.350006103515625
 44
215.8999938964844
 45
279.3999938964844
 46
0.0
 47
0.0
 48
0.0
 49
0.0
140
0.0
141
0.0
142
1.0
143
1.0
 70
 15024
 72
     1
 73
     1
 74
     5
  7
SEISA.ctb
 75
    16
147
1.0
 76
     0
 77
     2
 78
   300
148
0.0
149
0.0
100
AcDbLayout
  1
レイアウト1
 70
     1
 71
     1
 10
0.0
 20
0.0
 11
420.0
 21
297.0
 12
0.0
 22
0.0
 32
0.0
 14
1.000000000000000E+20
 24
1.000000000000000E+20
 34
1.000000000000000E+20
 15
-1.000000000000000E+20
 25
-1.000000000000000E+20
 35
-1.000000000000000E+20
146
0.0
 13
0.0
 23
0.0
 33
0.0
 16
1.0
 26
0.0
 36
0.0
 17
0.0
 27
1.0
 37
0.0
 76
     0
330
1B
  0
LAYOUT
  5
26
102
{ACAD_REACTORS
330
1A
102
}
330
1A
100
AcDbPlotSettings
  1

  2
none_device
  4
Letter_(8.50_x_11.00_Inches)
  6

 40
6.349999904632567
 41
6.349999904632567
 42
6.350006103515625
 43
6.350006103515625
 44
215.8999938964844
 45
279.3999938964844
 46
0.0
 47
0.0
 48
0.0
 49
0.0
140
0.0
141
0.0
142
1.0
143
1.0
 70
 15024
 72
     1
 73
     1
 74
     5
  7
SEISA.ctb
 75
    16
147
1.0
 76
     0
 77
     2
 78
   300
148
0.0
149
0.0
100
AcDbLayout
  1
レイアウト2
 70
     1
 71
     2
 10
0.0
 20
0.0
 11
12.0
 21
9.0
 12
0.0
 22
0.0
 32
0.0
 14
0.0
 24
0.0
 34
0.0
 15
0.0
 25
0.0
 35
0.0
146
0.0
 13
0.0
 23
0.0
 33
0.0
 16
1.0
 26
0.0
 36
0.0
 17
0.0
 27
1.0
 37
0.0
 76
     0
330
23
  0
MATERIAL
  5
27D
102
{ACAD_REACTORS
330
C4
102
}
330
C4
100
AcDbMaterial
  1
ByBlock
 73
     1
 78
     1
172
     1
176
     1
270
     1
274
     1
 94
       63
  0
MATERIAL
  5
27C
102
{ACAD_REACTORS
330
C4
102
}
330
C4
100
AcDbMaterial
  1
ByLayer
 73
     1
 78
     1
172
     1
176
     1
270
     1
274
     1
 94
       63
  0
MATERIAL
  5
27E
102
{ACAD_REACTORS
330
C4
102
}
330
C4
100
AcDbMaterial
  1
Global
 73
     1
 78
     1
172
     1
176
     1
270
     1
274
     1
 94
       63
  0
MLEADERSTYLE
  5
2D6
102
{ACAD_REACTORS
330
2D5
102
}
330
2D5
100
AcDbMLeaderStyle
170
     2
171
     1
172
     0
 90
        2
 40
0.0
 41
0.0
173
     1
 91
-1056964608
340
14
 92
       -2
290
     1
 42
2.0
291
     1
 43
0.36
  3
Standard
 44
4.0
300

342
11
174
     1
178
     6
175
     1
176
     0
 93
-1056964608
 45
4.0
292
     0
297
     0
 46
4.0
 94
-1056964608
 47
1.0
 49
1.0
140
1.0
293
     1
141
0.0
294
     1
177
     0
142
1.0
295
     0
296
     0
143
0.125
1001
ACAD_MLEADERVER
1070
     2
  0
MLINESTYLE
  5
18
102
{ACAD_REACTORS
330
17
102
}
330
17
100
AcDbMlineStyle
  2
STANDARD
 70
     0
  3

 62
   256
 51
90.0
 52
90.0
 71
     2
 49
0.5
 62
   256
  6
BYLAYER
 49
-0.5
 62
   256
  6
BYLAYER
  0
PLOTSETTINGS
  5
1C7E
102
{ACAD_REACTORS
330
19
102
}
330
19
100
AcDbPlotSettings
  1
SEISA基本
  2
none_device
  4
Letter_(8.50_x_11.00_Inches)
  6

 40
6.349999904632567
 41
6.349999904632567
 42
6.350006103515625
 43
6.350006103515625
 44
215.8999938964844
 45
279.3999938964844
 46
7.302498226506357
 47
0.0
 48
0.0
 49
0.0
140
0.0
141
0.0
142
1.0
143
1.574803221122935
 70
 11956
 72
     1
 73
     1
 74
     2
  7
SEISA.ctb
 75
     0
147
0.6349999711627054
 76
     0
 77
     2
 78
   300
148
0.0
149
0.0
1001
ACAD_PSEXT
1000
なし
1000
なし
1000
適切ではありません
1000
新しいプロッタ環境設定名を選択しない限り、レイアウトは印刷されません。
1070
     0
  0
ACDBPLACEHOLDER
  5
F
102
{ACAD_REACTORS
330
E
102
}
330
E
  0
SCALE
  5
2C6E
102
{ACAD_REACTORS
330
2B3
102
}
330
2B3
100
AcDbScale
 70
     0
300
1:3
140
1.0
141
3.0
290
     0
  0
SCALE
  5
6D46
102
{ACAD_REACTORS
330
2B3
102
}
330
2B3
100
AcDbScale
 70
     0
300
1:2.5
140
1.0
141
2.5
290
     0
  0
SCALE
  5
6D47
102
{ACAD_REACTORS
330
2B3
102
}
330
2B3
100
AcDbScale
 70
     0
300
1:1.5
140
1.0
141
1.5
290
     0
  0
SCALE
  5
2B4
102
{ACAD_REACTORS
330
2B3
102
}
330
2B3
100
AcDbScale
 70
     0
300
1:1
140
1.0
141
1.0
290
     1
  0
SCALE
  5
2B5
102
{ACAD_REACTORS
330
2B3
102
}
330
2B3
100
AcDbScale
 70
     0
300
1:2
140
1.0
141
2.0
290
     0
  0
SCALE
  5
2B6
102
{ACAD_REACTORS
330
2B3
102
}
330
2B3
100
AcDbScale
 70
     0
300
1:4
140
1.0
141
4.0
290
     0
  0
SCALE
  5
2B7
102
{ACAD_REACTORS
330
2B3
102
}
330
2B3
100
AcDbScale
 70
     0
300
1:5
140
1.0
141
5.0
290
     0
  0
SCALE
  5
2B8
102
{ACAD_REACTORS
330
2B3
102
}
330
2B3
100
AcDbScale
 70
     0
300
1:8
140
1.0
141
8.0
290
     0
  0
SCALE
  5
2B9
102
{ACAD_REACTORS
330
2B3
102
}
330
2B3
100
AcDbScale
 70
     0
300
1:10
140
1.0
141
10.0
290
     0
  0
SCALE
  5
2BA
102
{ACAD_REACTORS
330
2B3
102
}
330
2B3
100
AcDbScale
 70
     0
300
1:16
140
1.0
141
16.0
290
     0
  0
SCALE
  5
2BB
102
{ACAD_REACTORS
330
2B3
102
}
330
2B3
100
AcDbScale
 70
     0
300
1:20
140
1.0
141
20.0
290
     0
  0
SCALE
  5
2BC
102
{ACAD_REACTORS
330
2B3
102
}
330
2B3
100
AcDbScale
 70
     0
300
1:30
140
1.0
141
30.0
290
     0
  0
SCALE
  5
2BD
102
{ACAD_REACTORS
330
2B3
102
}
330
2B3
100
AcDbScale
 70
     0
300
1:40
140
1.0
141
40.0
290
     0
  0
SCALE
  5
2BE
102
{ACAD_REACTORS
330
2B3
102
}
330
2B3
100
AcDbScale
 70
     0
300
1:50
140
1.0
141
50.0
290
     0
  0
SCALE
  5
2BF
102
{ACAD_REACTORS
330
2B3
102
}
330
2B3
100
AcDbScale
 70
     0
300
1:100
140
1.0
141
100.0
290
     0
  0
SCALE
  5
2C0
102
{ACAD_REACTORS
330
2B3
102
}
330
2B3
100
AcDbScale
 70
     0
300
2:1
140
2.0
141
1.0
290
     0
  0
SCALE
  5
2C1
102
{ACAD_REACTORS
330
2B3
102
}
330
2B3
100
AcDbScale
 70
     0
300
4:1
140
4.0
141
1.0
290
     0
  0
SCALE
  5
2C2
102
{ACAD_REACTORS
330
2B3
102
}
330
2B3
100
AcDbScale
 70
     0
300
8:1
140
8.0
141
1.0
290
     0
  0
SCALE
  5
2C3
102
{ACAD_REACTORS
330
2B3
102
}
330
2B3
100
AcDbScale
 70
     0
300
10:1
140
10.0
141
1.0
290
     0
  0
SCALE
  5
2C4
102
{ACAD_REACTORS
330
2B3
102
}
330
2B3
100
AcDbScale
 70
     0
300
100:1
140
100.0
141
1.0
290
     0
  0
SCALE
  5
2C5
102
{ACAD_REACTORS
330
2B3
102
}
330
2B3
100
AcDbScale
 70
     0
300
1/128" = 1'-0"
140
0.0078125
141
12.0
290
     0
  0
SCALE
  5
2C6
102
{ACAD_REACTORS
330
2B3
102
}
330
2B3
100
AcDbScale
 70
     0
300
1/64" = 1'-0"
140
0.015625
141
12.0
290
     0
  0
SCALE
  5
2C7
102
{ACAD_REACTORS
330
2B3
102
}
330
2B3
100
AcDbScale
 70
     0
300
1/32" = 1'-0"
140
0.03125
141
12.0
290
     0
  0
SCALE
  5
2C8
102
{ACAD_REACTORS
330
2B3
102
}
330
2B3
100
AcDbScale
 70
     0
300
1/16" = 1'-0"
140
0.0625
141
12.0
290
     0
  0
SCALE
  5
2C9
102
{ACAD_REACTORS
330
2B3
102
}
330
2B3
100
AcDbScale
 70
     0
300
3/32" = 1'-0"
140
0.09375
141
12.0
290
     0
  0
SCALE
  5
2CA
102
{ACAD_REACTORS
330
2B3
102
}
330
2B3
100
AcDbScale
 70
     0
300
1/8" = 1'-0"
140
0.125
141
12.0
290
     0
  0
SCALE
  5
2CB
102
{ACAD_REACTORS
330
2B3
102
}
330
2B3
100
AcDbScale
 70
     0
300
3/16" = 1'-0"
140
0.1875
141
12.0
290
     0
  0
SCALE
  5
2CC
102
{ACAD_REACTORS
330
2B3
102
}
330
2B3
100
AcDbScale
 70
     0
300
1/4" = 1'-0"
140
0.25
141
12.0
290
     0
  0
SCALE
  5
2CD
102
{ACAD_REACTORS
330
2B3
102
}
330
2B3
100
AcDbScale
 70
     0
300
3/8" = 1'-0"
140
0.375
141
12.0
290
     0
  0
SCALE
  5
2CE
102
{ACAD_REACTORS
330
2B3
102
}
330
2B3
100
AcDbScale
 70
     0
300
1/2" = 1'-0"
140
0.5
141
12.0
290
     0
  0
SCALE
  5
2CF
102
{ACAD_REACTORS
330
2B3
102
}
330
2B3
100
AcDbScale
 70
     0
300
3/4" = 1'-0"
140
0.75
141
12.0
290
     0
  0
SCALE
  5
2D0
102
{ACAD_REACTORS
330
2B3
102
}
330
2B3
100
AcDbScale
 70
     0
300
1" = 1'-0"
140
1.0
141
12.0
290
     0
  0
SCALE
  5
2D1
102
{ACAD_REACTORS
330
2B3
102
}
330
2B3
100
AcDbScale
 70
     0
300
1-1/2" = 1'-0"
140
1.5
141
12.0
290
     0
  0
SCALE
  5
2D2
102
{ACAD_REACTORS
330
2B3
102
}
330
2B3
100
AcDbScale
 70
     0
300
3" = 1'-0"
140
3.0
141
12.0
290
     0
  0
SCALE
  5
2D3
102
{ACAD_REACTORS
330
2B3
102
}
330
2B3
100
AcDbScale
 70
     0
300
6" = 1'-0"
140
6.0
141
12.0
290
     0
  0
SCALE
  5
2D4
102
{ACAD_REACTORS
330
2B3
102
}
330
2B3
100
AcDbScale
 70
     0
300
1'-0" = 1'-0"
140
12.0
141
12.0
290
     0
  0
TABLESTYLE
  5
122
102
{ACAD_XDICTIONARY
360
2F5
102
}
102
{ACAD_REACTORS
330
121
102
}
330
121
100
AcDbTableStyle
  3
Standard
 70
     0
 71
     0
 40
1.5
 41
1.5
280
     0
281
     0
  7
STANDARD
140
4.5
170
     2
 62
     0
 63
     7
283
     0
 90
      512
 91
        0
  1

274
    -2
284
     1
 64
     0
275
    -2
285
     1
 65
     0
276
    -2
286
     1
 66
     0
277
    -2
287
     1
 67
     0
278
    -2
288
     1
 68
     0
279
    -2
289
     1
 69
     0
  7
STANDARD
140
6.0
170
     5
 62
     0
 63
     7
283
     0
 90
      512
 91
        0
  1

274
    -2
284
     1
 64
     0
275
    -2
285
     1
 65
     0
276
    -2
286
     1
 66
     0
277
    -2
287
     1
 67
     0
278
    -2
288
     1
 68
     0
279
    -2
289
     1
 69
     0
  7
STANDARD
140
4.5
170
     5
 62
     0
 63
     7
283
     0
 90
      512
 91
        0
  1

274
    -2
284
     1
 64
     0
275
    -2
285
     1
 65
     0
276
    -2
286
     1
 66
     0
277
    -2
287
     1
 67
     0
278
    -2
288
     1
 68
     0
279
    -2
289
     1
 69
     0
  0
VISUALSTYLE
  5
285
102
{ACAD_REACTORS
330
27F
102
}
330
27F
100
AcDbVisualStyle
  2
2dWireframe
 70
     4
 71
     0
 72
     2
 73
     0
 90
        0
 40
-0.6
 41
-30.0
 62
     5
 63
     7
421
 16777215
 74
     1
 91
        4
 64
     7
 65
   257
 75
     1
175
     1
 42
1.0
 92
        0
 66
   257
 43
1.0
 76
     1
 77
     6
 78
     2
 67
     7
 79
     5
170
     0
171
     0
290
     0
174
     0
 93
        1
 44
0.0
173
     0
291
     0
 45
0.0
  0
VISUALSTYLE
  5
287
102
{ACAD_REACTORS
330
27F
102
}
330
27F
100
AcDbVisualStyle
  2
3D Hidden
 70
     6
 71
     1
 72
     2
 73
     2
 90
        0
 40
-0.6
 41
-30.0
 62
     5
 63
     7
421
 16777215
 74
     2
 91
        2
 64
     7
 65
   257
 75
     2
175
     1
 42
40.0
 92
        0
 66
   257
 43
1.0
 76
     1
 77
     6
 78
     2
 67
     7
 79
     3
170
     0
171
     0
290
     0
174
     0
 93
        1
 44
0.0
173
     0
291
     0
 45
0.0
  0
VISUALSTYLE
  5
286
102
{ACAD_REACTORS
330
27F
102
}
330
27F
100
AcDbVisualStyle
  2
3dWireframe
 70
     5
 71
     0
 72
     2
 73
     0
 90
        0
 40
-0.6
 41
-30.0
 62
     5
 63
     7
421
 16777215
 74
     1
 91
        4
 64
     7
 65
   257
 75
     1
175
     1
 42
1.0
 92
        0
 66
   257
 43
1.0
 76
     1
 77
     6
 78
     2
 67
     7
 79
     5
170
     0
171
     0
290
     0
174
     0
 93
        1
 44
0.0
173
     0
291
     0
 45
0.0
  0
VISUALSTYLE
  5
284
102
{ACAD_REACTORS
330
27F
102
}
330
27F
100
AcDbVisualStyle
  2
Basic
 70
     7
 71
     1
 72
     0
 73
     1
 90
        0
 40
-0.6
 41
-30.0
 62
     5
 63
     7
421
 16777215
 74
     0
 91
        4
 64
     7
 65
   257
 75
     1
175
     1
 42
1.0
 92
        8
 66
     7
 43
1.0
 76
     1
 77
     6
 78
     2
 67
     7
 79
     5
170
     0
171
     0
290
     0
174
     0
 93
        1
 44
0.0
173
     0
291
     1
 45
0.0
  0
VISUALSTYLE
  5
28B
102
{ACAD_REACTORS
330
27F
102
}
330
27F
100
AcDbVisualStyle
  2
Brighten
 70
    12
 71
     2
 72
     2
 73
     0
 90
        0
 40
-0.6
 41
-30.0
 62
     5
 63
     7
421
 16777215
 74
     1
 91
        4
 64
     7
 65
   257
 75
     1
175
     1
 42
1.0
 92
        8
 66
     7
 43
1.0
 76
     1
 77
     6
 78
     2
 67
     7
 79
     5
170
     0
171
     0
290
     0
174
     0
 93
        1
 44
50.0
173
     0
291
     1
 45
0.0
  0
VISUALSTYLE
  5
28F
102
{ACAD_REACTORS
330
27F
102
}
330
27F
100
AcDbVisualStyle
  2
ColorChange
 70
    16
 71
     2
 72
     2
 73
     3
 90
        0
 40
-0.6
 41
-30.0
 62
     5
 63
     8
421
  8421504
 74
     1
 91
        4
 64
     7
 65
   257
 75
     1
175
     1
 42
1.0
 92
        8
 66
     8
424
  8421504
 43
1.0
 76
     1
 77
     6
 78
     2
 67
     7
 79
     5
170
     0
171
     0
290
     0
174
     0
 93
        1
 44
0.0
173
     0
291
     1
 45
0.0
  0
VISUALSTYLE
  5
288
102
{ACAD_REACTORS
330
27F
102
}
330
27F
100
AcDbVisualStyle
  2
Conceptual
 70
     9
 71
     3
 72
     2
 73
     0
 90
        0
 40
-0.6
 41
-30.0
 62
     5
 63
     7
421
 16777215
 74
     2
 91
        2
 64
     7
 65
   257
 75
     1
175
     1
 42
40.0
 92
        8
 66
     7
 43
1.0
 76
     1
 77
     6
 78
     2
 67
     7
 79
     3
170
     0
171
     0
290
     0
174
     0
 93
        1
 44
0.0
173
     0
291
     0
 45
0.0
  0
VISUALSTYLE
  5
28A
102
{ACAD_REACTORS
330
27F
102
}
330
27F
100
AcDbVisualStyle
  2
Dim
 70
    11
 71
     2
 72
     2
 73
     0
 90
        0
 40
-0.6
 41
-30.0
 62
     5
 63
     7
421
 16777215
 74
     1
 91
        4
 64
     7
 65
   257
 75
     1
175
     1
 42
1.0
 92
        8
 66
     7
 43
1.0
 76
     1
 77
     6
 78
     2
 67
     7
 79
     5
170
     0
171
     0
290
     0
174
     0
 93
        1
 44
-50.0
173
     0
291
     1
 45
0.0
  0
VISUALSTYLE
  5
28E
102
{ACAD_REACTORS
330
27F
102
}
330
27F
100
AcDbVisualStyle
  2
Facepattern
 70
    15
 71
     2
 72
     2
 73
     0
 90
        0
 40
-0.6
 41
-30.0
 62
     5
 63
     7
421
 16777215
 74
     1
 91
        4
 64
     7
 65
   257
 75
     1
175
     1
 42
1.0
 92
        8
 66
     7
 43
1.0
 76
     1
 77
     6
 78
     2
 67
     7
 79
     5
170
     0
171
     0
290
     0
174
     0
 93
        1
 44
0.0
173
     0
291
     1
 45
0.0
  0
VISUALSTYLE
  5
280
102
{ACAD_REACTORS
330
27F
102
}
330
27F
100
AcDbVisualStyle
  2
Flat
 70
     0
 71
     2
 72
     1
 73
     1
 90
        2
 40
-0.6
 41
30.0
 62
     5
 63
     7
421
 16777215
 74
     0
 91
        4
 64
     7
 65
   257
 75
     1
175
     1
 42
1.0
 92
        8
 66
     7
 43
1.0
 76
     1
 77
     6
 78
     2
 67
     7
 79
     5
170
     0
171
     0
290
     0
174
     0
 93
       13
 44
0.0
173
     0
291
     1
 45
0.0
  0
VISUALSTYLE
  5
281
102
{ACAD_REACTORS
330
27F
102
}
330
27F
100
AcDbVisualStyle
  2
FlatWithEdges
 70
     1
 71
     2
 72
     1
 73
     1
 90
        2
 40
-0.6
 41
30.0
 62
     5
 63
     7
421
 16777215
 74
     1
 91
        4
 64
     7
 65
   257
 75
     1
175
     1
 42
1.0
 92
        0
 66
   257
 43
1.0
 76
     1
 77
     6
 78
     2
 67
     7
 79
     5
170
     0
171
     0
290
     0
174
     0
 93
       13
 44
0.0
173
     0
291
     1
 45
0.0
  0
VISUALSTYLE
  5
282
102
{ACAD_REACTORS
330
27F
102
}
330
27F
100
AcDbVisualStyle
  2
Gouraud
 70
     2
 71
     2
 72
     2
 73
     1
 90
        2
 40
-0.6
 41
30.0
 62
     5
 63
     7
421
 16777215
 74
     0
 91
        4
 64
     7
 65
   257
 75
     1
175
     1
 42
1.0
 92
        0
 66
     7
 43
1.0
 76
     1
 77
     6
 78
     2
 67
     7
 79
     5
170
     0
171
     0
290
     0
174
     0
 93
       13
 44
0.0
173
     0
291
     1
 45
0.0
  0
VISUALSTYLE
  5
283
102
{ACAD_REACTORS
330
27F
102
}
330
27F
100
AcDbVisualStyle
  2
GouraudWithEdges
 70
     3
 71
     2
 72
     2
 73
     1
 90
        2
 40
-0.6
 41
30.0
 62
     5
 63
     7
421
 16777215
 74
     1
 91
        4
 64
     7
 65
   257
 75
     1
175
     1
 42
1.0
 92
        0
 66
   257
 43
1.0
 76
     1
 77
     6
 78
     2
 67
     7
 79
     5
170
     0
171
     0
290
     0
174
     0
 93
       13
 44
0.0
173
     0
291
     1
 45
0.0
  0
VISUALSTYLE
  5
28D
102
{ACAD_REACTORS
330
27F
102
}
330
27F
100
AcDbVisualStyle
  2
Linepattern
 70
    14
 71
     2
 72
     2
 73
     0
 90
        0
 40
-0.6
 41
-30.0
 62
     5
 63
     7
421
 16777215
 74
     1
 91
        4
 64
     7
 65
   257
 75
     7
175
     7
 42
1.0
 92
        8
 66
     7
 43
1.0
 76
     1
 77
     6
 78
     2
 67
     7
 79
     5
170
     0
171
     0
290
     0
174
     0
 93
        1
 44
0.0
173
     0
291
     1
 45
0.0
  0
VISUALSTYLE
  5
289
102
{ACAD_REACTORS
330
27F
102
}
330
27F
100
AcDbVisualStyle
  2
Realistic
 70
     8
 71
     2
 72
     2
 73
     0
 90
        0
 40
-0.6
 41
-30.0
 62
     5
 63
     7
421
 16777215
 74
     1
 91
        0
 64
     7
 65
   257
 75
     1
175
     1
 42
1.0
 92
        8
 66
     8
424
  7895160
 43
1.0
 76
     1
 77
     6
 78
     2
 67
     7
 79
     5
170
     0
171
     0
290
     0
174
     0
 93
       13
 44
0.0
173
     0
291
     0
 45
0.0
  0
VISUALSTYLE
  5
28C
102
{ACAD_REACTORS
330
27F
102
}
330
27F
100
AcDbVisualStyle
  2
Thicken
 70
    13
 71
     2
 72
     2
 73
     0
 90
        0
 40
-0.6
 41
-30.0
 62
     5
 63
     7
421
 16777215
 74
     1
 91
        4
 64
     7
 65
   257
 75
     1
175
     1
 42
1.0
 92
       12
 66
     7
 43
1.0
 76
     1
 77
     6
 78
     2
 67
     7
 79
     5
170
     0
171
     0
290
     0
174
     0
 93
        1
 44
0.0
173
     0
291
     1
 45
0.0
  0
DICTIONARYVAR
  5
2FA
102
{ACAD_REACTORS
330
34
102
}
330
34
100
DictionaryVariables
280
     0
  1
1:4
  0
DICTIONARYVAR
  5
2F8
102
{ACAD_REACTORS
330
34
102
}
330
34
100
DictionaryVariables
280
     0
  1
STANDARD
  0
DICTIONARYVAR
  5
140
102
{ACAD_REACTORS
330
34
102
}
330
34
100
DictionaryVariables
280
     0
  1
STANDARD
  0
DICTIONARYVAR
  5
AC
102
{ACAD_REACTORS
330
34
102
}
330
34
100
DictionaryVariables
280
     0
  1
1
  0
DICTIONARYVAR
  5
35
102
{ACAD_REACTORS
330
34
102
}
330
34
100
DictionaryVariables
280
     0
  1
1
  0
DICTIONARYVAR
  5
5994
102
{ACAD_REACTORS
330
34
102
}
330
34
100
DictionaryVariables
280
     0
  1
1
  0
DICTIONARYVAR
  5
5995
102
{ACAD_REACTORS
330
34
102
}
330
34
100
DictionaryVariables
280
     0
  1
15
  0
DICTIONARYVAR
  5
2FB
102
{ACAD_REACTORS
330
34
102
}
330
34
100
DictionaryVariables
280
     0
  1
0
  0
DICTIONARYVAR
  5
2F9
102
{ACAD_REACTORS
330
34
102
}
330
34
100
DictionaryVariables
280
     0
  1
0
  0
DICTIONARY
  5
161B
102
{ACAD_REACTORS
330
49
102
}
330
49
100
AcDbDictionary
281
     1
  0
DICTIONARY
  5
4A
102
{ACAD_REACTORS
330
49
102
}
330
49
100
AcDbDictionary
281
     1
  0
XRECORD
  5
12B
102
{ACAD_REACTORS
330
49
102
}
330
49
100
AcDbXrecord
280
     1
 90
-1023410169
  0
DICTIONARY
  5
2F5
330
122
100
AcDbDictionary
280
     1
281
     1
  3
ACAD_ROUNDTRIP_2008_TABLESTYLE_CELLSTYLEMAP
360
70E5
  0
CELLSTYLEMAP
  5
70E5
102
{ACAD_REACTORS
330
2F5
102
}
330
2F5
100
AcDbCellStyleMap
 90
        3
300
CELLSTYLE
  1
TABLEFORMAT_BEGIN
 90
        5
170
     1
 91
        0
 92
    32768
 62
   257
 93
        1
300
CONTENTFORMAT
  1
CONTENTFORMAT_BEGIN
 90
        0
 91
        0
 92
      512
 93
        0
300

 40
0.0
140
1.0
 94
        5
 62
     0
340
11
144
6.0
309
CONTENTFORMAT_END
171
     1
301
MARGIN
  1
CELLMARGIN_BEGIN
 40
1.5
 40
1.5
 40
1.5
 40
1.5
 40
0.18
 40
0.18
309
CELLMARGIN_END
 94
        6
 95
        1
302
GRIDFORMAT
  1
GRIDFORMAT_BEGIN
 90
        0
 91
        1
 62
     0
 92
       -2
340
0
 93
        0
 40
0.045
309
GRIDFORMAT_END
 95
        2
302
GRIDFORMAT
  1
GRIDFORMAT_BEGIN
 90
        0
 91
        1
 62
     0
 92
       -2
340
0
 93
        0
 40
0.045
309
GRIDFORMAT_END
 95
        4
302
GRIDFORMAT
  1
GRIDFORMAT_BEGIN
 90
        0
 91
        1
 62
     0
 92
       -2
340
0
 93
        0
 40
0.045
309
GRIDFORMAT_END
 95
        8
302
GRIDFORMAT
  1
GRIDFORMAT_BEGIN
 90
        0
 91
        1
 62
     0
 92
       -2
340
0
 93
        0
 40
0.045
309
GRIDFORMAT_END
 95
       16
302
GRIDFORMAT
  1
GRIDFORMAT_BEGIN
 90
        0
 91
        1
 62
     0
 92
       -2
340
0
 93
        0
 40
0.045
309
GRIDFORMAT_END
 95
       32
302
GRIDFORMAT
  1
GRIDFORMAT_BEGIN
 90
        0
 91
        1
 62
     0
 92
       -2
340
0
 93
        0
 40
0.045
309
GRIDFORMAT_END
309
TABLEFORMAT_END
  1
CELLSTYLE_BEGIN
 90
        1
 91
        1
300
_TITLE
309
CELLSTYLE_END
300
CELLSTYLE
  1
TABLEFORMAT_BEGIN
 90
        5
170
     1
 91
        0
 92
        0
 62
   257
 93
        1
300
CONTENTFORMAT
  1
CONTENTFORMAT_BEGIN
 90
        0
 91
        0
 92
      512
 93
        0
300

 40
0.0
140
1.0
 94
        5
 62
     0
340
11
144
4.5
309
CONTENTFORMAT_END
171
     1
301
MARGIN
  1
CELLMARGIN_BEGIN
 40
1.5
 40
1.5
 40
1.5
 40
1.5
 40
0.18
 40
0.18
309
CELLMARGIN_END
 94
        6
 95
        1
302
GRIDFORMAT
  1
GRIDFORMAT_BEGIN
 90
        0
 91
        1
 62
     0
 92
       -2
340
0
 93
        0
 40
0.045
309
GRIDFORMAT_END
 95
        2
302
GRIDFORMAT
  1
GRIDFORMAT_BEGIN
 90
        0
 91
        1
 62
     0
 92
       -2
340
0
 93
        0
 40
0.045
309
GRIDFORMAT_END
 95
        4
302
GRIDFORMAT
  1
GRIDFORMAT_BEGIN
 90
        0
 91
        1
 62
     0
 92
       -2
340
0
 93
        0
 40
0.045
309
GRIDFORMAT_END
 95
        8
302
GRIDFORMAT
  1
GRIDFORMAT_BEGIN
 90
        0
 91
        1
 62
     0
 92
       -2
340
0
 93
        0
 40
0.045
309
GRIDFORMAT_END
 95
       16
302
GRIDFORMAT
  1
GRIDFORMAT_BEGIN
 90
        0
 91
        1
 62
     0
 92
       -2
340
0
 93
        0
 40
0.045
309
GRIDFORMAT_END
 95
       32
302
GRIDFORMAT
  1
GRIDFORMAT_BEGIN
 90
        0
 91
        1
 62
     0
 92
       -2
340
0
 93
        0
 40
0.045
309
GRIDFORMAT_END
309
TABLEFORMAT_END
  1
CELLSTYLE_BEGIN
 90
        2
 91
        1
300
_HEADER
309
CELLSTYLE_END
300
CELLSTYLE
  1
TABLEFORMAT_BEGIN
 90
        5
170
     1
 91
        0
 92
        0
 62
   257
 93
        1
300
CONTENTFORMAT
  1
CONTENTFORMAT_BEGIN
 90
        0
 91
        0
 92
      512
 93
        0
300

 40
0.0
140
1.0
 94
        2
 62
     0
340
11
144
4.5
309
CONTENTFORMAT_END
171
     1
301
MARGIN
  1
CELLMARGIN_BEGIN
 40
1.5
 40
1.5
 40
1.5
 40
1.5
 40
0.18
 40
0.18
309
CELLMARGIN_END
 94
        6
 95
        1
302
GRIDFORMAT
  1
GRIDFORMAT_BEGIN
 90
        0
 91
        1
 62
     0
 92
       -2
340
0
 93
        0
 40
0.045
309
GRIDFORMAT_END
 95
        2
302
GRIDFORMAT
  1
GRIDFORMAT_BEGIN
 90
        0
 91
        1
 62
     0
 92
       -2
340
0
 93
        0
 40
0.045
309
GRIDFORMAT_END
 95
        4
302
GRIDFORMAT
  1
GRIDFORMAT_BEGIN
 90
        0
 91
        1
 62
     0
 92
       -2
340
0
 93
        0
 40
0.045
309
GRIDFORMAT_END
 95
        8
302
GRIDFORMAT
  1
GRIDFORMAT_BEGIN
 90
        0
 91
        1
 62
     0
 92
       -2
340
0
 93
        0
 40
0.045
309
GRIDFORMAT_END
 95
       16
302
GRIDFORMAT
  1
GRIDFORMAT_BEGIN
 90
        0
 91
        1
 62
     0
 92
       -2
340
0
 93
        0
 40
0.045
309
GRIDFORMAT_END
 95
       32
302
GRIDFORMAT
  1
GRIDFORMAT_BEGIN
 90
        0
 91
        1
 62
     0
 92
       -2
340
0
 93
        0
 40
0.045
309
GRIDFORMAT_END
309
TABLEFORMAT_END
  1
CELLSTYLE_BEGIN
 90
        3
 91
        2
300
_DATA
309
CELLSTYLE_END
  0
ENDSEC
  0
EOF
