  0
SECTION
  2
HEADER
  9
$ACADVER
  1
AC1021
  9
$ACADMAINTVER
 70
    26
  9
$DWGCODEPAGE
  3
ANSI_932
  9
$LASTSAVEDBY
  1
Htm_Terada
  9
$CUSTOMPROPERTYTAG
  1
AmdtFileType
  9
$CUSTOMPROPERTY
  1
84
  9
$INSBASE
 10
0.0
 20
0.0
 30
0.0
  9
$EXTMIN
 10
542.9878607708519
 20
555.2484648848451
 30
0.0
  9
$EXTMAX
 10
1300.590238729582
 20
1045.133153117665
 30
0.0
  9
$LIMMIN
 10
0.0000007657354217
 20
0.000001477528258
  9
$LIMMAX
 10
1680.000000765735
 20
1188.000001477528
  9
$ORTHOMODE
 70
     1
  9
$REGENMODE
 70
     1
  9
$FILLMODE
 70
     1
  9
$QTEXTMODE
 70
     0
  9
$MIRRTEXT
 70
     1
  9
$LTSCALE
 40
4.0
  9
$ATTMODE
 70
     1
  9
$TEXTSIZE
 40
25.0
  9
$TRACEWID
 40
1.0
  9
$TEXTSTYLE
  7
SEISA
  9
$CLAYER
  8
AM_5 寸法線
  9
$CELTYPE
  6
ByLayer
  9
$CECOLOR
 62
   256
  9
$CELTSCALE
 40
1.0
  9
$DISPSILH
 70
     0
  9
$DIMSCALE
 40
4.0
  9
$DIMASZ
 40
2.5
  9
$DIMEXO
 40
0.625
  9
$DIMDLI
 40
10.0
  9
$DIMRND
 40
0.0
  9
$DIMDLE
 40
0.0
  9
$DIMEXE
 40
0.625
  9
$DIMTP
 40
0.1
  9
$DIMTM
 40
0.1
  9
$DIMTXT
 40
3.5
  9
$DIMCEN
 40
0.0
  9
$DIMTSZ
 40
0.0
  9
$DIMTOL
 70
     0
  9
$DIMLIM
 70
     0
  9
$DIMTIH
 70
     0
  9
$DIMTOH
 70
     0
  9
$DIMSE1
 70
     0
  9
$DIMSE2
 70
     0
  9
$DIMTAD
 70
     3
  9
$DIMZIN
 70
     8
  9
$DIMBLK
  1
Open30
  9
$DIMASO
 70
     1
  9
$DIMSHO
 70
     1
  9
$DIMPOST
  1

  9
$DIMAPOST
  1
"
  9
$DIMALT
 70
     0
  9
$DIMALTD
 70
     2
  9
$DIMALTF
 40
0.0393701
  9
$DIMLFAC
 40
1.0
  9
$DIMTOFL
 70
     1
  9
$DIMTVP
 40
0.0
  9
$DIMTIX
 70
     0
  9
$DIMSOXD
 70
     0
  9
$DIMSAH
 70
     0
  9
$DIMBLK1
  1

  9
$DIMBLK2
  1

  9
$DIMSTYLE
  2
SEISA
  9
$DIMCLRD
 70
     3
  9
$DIMCLRE
 70
     3
  9
$DIMCLRT
 70
     3
  9
$DIMTFAC
 40
0.71
  9
$DIMGAP
 40
1.5
  9
$DIMJUST
 70
     0
  9
$DIMSD1
 70
     0
  9
$DIMSD2
 70
     0
  9
$DIMTOLJ
 70
     0
  9
$DIMTZIN
 70
     0
  9
$DIMALTZ
 70
     0
  9
$DIMALTTZ
 70
     8
  9
$DIMUPT
 70
     0
  9
$DIMDEC
 70
     2
  9
$DIMTDEC
 70
     2
  9
$DIMALTU
 70
     2
  9
$DIMALTTD
 70
     2
  9
$DIMTXSTY
  7
SEISA
  9
$DIMAUNIT
 70
     0
  9
$DIMADEC
 70
     0
  9
$DIMALTRND
 40
0.0
  9
$DIMAZIN
 70
     2
  9
$DIMDSEP
 70
    46
  9
$DIMATFIT
 70
     3
  9
$DIMFRAC
 70
     0
  9
$DIMLDRBLK
  1
Open30
  9
$DIMLUNIT
 70
     2
  9
$DIMLWD
 70
    -1
  9
$DIMLWE
 70
    -1
  9
$DIMTMOVE
 70
     0
  9
$DIMFXL
 40
1.0
  9
$DIMFXLON
 70
     0
  9
$DIMJOGANG
 40
0.7853981633974483
  9
$DIMTFILL
 70
     0
  9
$DIMTFILLCLR
 70
     0
  9
$DIMARCSYM
 70
     1
  9
$DIMLTYPE
  6

  9
$DIMLTEX1
  6

  9
$DIMLTEX2
  6

  9
$LUNITS
 70
     2
  9
$LUPREC
 70
     2
  9
$SKETCHINC
 40
1.0
  9
$FILLETRAD
 40
10.0
  9
$AUNITS
 70
     0
  9
$AUPREC
 70
     0
  9
$MENU
  1
.
  9
$ELEVATION
 40
0.0
  9
$PELEVATION
 40
0.0
  9
$THICKNESS
 40
0.0
  9
$LIMCHECK
 70
     0
  9
$CHAMFERA
 40
3.000000000000341
  9
$CHAMFERB
 40
3.000000000000341
  9
$CHAMFERC
 40
3.000000000000341
  9
$CHAMFERD
 40
0.7853981633974106
  9
$SKPOLY
 70
     0
  9
$TDCREATE
 40
2454911.603251713
  9
$TDUCREATE
 40
2454911.228251713
  9
$TDUPDATE
 40
2456478.707176100
  9
$TDUUPDATE
 40
2456478.332176100
  9
$TDINDWG
 40
0.3495824421
  9
$TDUSRTIMER
 40
0.3495811806
  9
$USRTIMER
 70
     1
  9
$ANGBASE
 50
0.0
  9
$ANGDIR
 70
     0
  9
$PDMODE
 70
     0
  9
$PDSIZE
 40
0.0
  9
$PLINEWID
 40
0.0
  9
$SPLFRAME
 70
     0
  9
$SPLINETYPE
 70
     6
  9
$SPLINESEGS
 70
     8
  9
$HANDSEED
  5
701E
  9
$SURFTAB1
 70
     6
  9
$SURFTAB2
 70
     6
  9
$SURFTYPE
 70
     6
  9
$SURFU
 70
     6
  9
$SURFV
 70
     6
  9
$UCSBASE
  2

  9
$UCSNAME
  2

  9
$UCSORG
 10
0.0
 20
0.0
 30
0.0
  9
$UCSXDIR
 10
1.0
 20
0.0
 30
0.0
  9
$UCSYDIR
 10
0.0
 20
1.0
 30
0.0
  9
$UCSORTHOREF
  2

  9
$UCSORTHOVIEW
 70
     0
  9
$UCSORGTOP
 10
0.0
 20
0.0
 30
0.0
  9
$UCSORGBOTTOM
 10
0.0
 20
0.0
 30
0.0
  9
$UCSORGLEFT
 10
0.0
 20
0.0
 30
0.0
  9
$UCSORGRIGHT
 10
0.0
 20
0.0
 30
0.0
  9
$UCSORGFRONT
 10
0.0
 20
0.0
 30
0.0
  9
$UCSORGBACK
 10
0.0
 20
0.0
 30
0.0
  9
$PUCSBASE
  2

  9
$PUCSNAME
  2

  9
$PUCSORG
 10
0.0
 20
0.0
 30
0.0
  9
$PUCSXDIR
 10
1.0
 20
0.0
 30
0.0
  9
$PUCSYDIR
 10
0.0
 20
1.0
 30
0.0
  9
$PUCSORTHOREF
  2

  9
$PUCSORTHOVIEW
 70
     0
  9
$PUCSORGTOP
 10
0.0
 20
0.0
 30
0.0
  9
$PUCSORGBOTTOM
 10
0.0
 20
0.0
 30
0.0
  9
$PUCSORGLEFT
 10
0.0
 20
0.0
 30
0.0
  9
$PUCSORGRIGHT
 10
0.0
 20
0.0
 30
0.0
  9
$PUCSORGFRONT
 10
0.0
 20
0.0
 30
0.0
  9
$PUCSORGBACK
 10
0.0
 20
0.0
 30
0.0
  9
$USERI1
 70
     0
  9
$USERI2
 70
     0
  9
$USERI3
 70
     0
  9
$USERI4
 70
     0
  9
$USERI5
 70
     0
  9
$USERR1
 40
0.0
  9
$USERR2
 40
0.0
  9
$USERR3
 40
0.0
  9
$USERR4
 40
0.0
  9
$USERR5
 40
0.0
  9
$WORLDVIEW
 70
     1
  9
$SHADEDGE
 70
     3
  9
$SHADEDIF
 70
    70
  9
$TILEMODE
 70
     1
  9
$MAXACTVP
 70
    64
  9
$PINSBASE
 10
0.0
 20
0.0
 30
0.0
  9
$PLIMCHECK
 70
     0
  9
$PEXTMIN
 10
1.000000000000000E+20
 20
1.000000000000000E+20
 30
1.000000000000000E+20
  9
$PEXTMAX
 10
-1.000000000000000E+20
 20
-1.000000000000000E+20
 30
-1.000000000000000E+20
  9
$PLIMMIN
 10
0.0
 20
0.0
  9
$PLIMMAX
 10
420.0
 20
297.0
  9
$UNITMODE
 70
     0
  9
$VISRETAIN
 70
     1
  9
$PLINEGEN
 70
     0
  9
$PSLTSCALE
 70
     1
  9
$TREEDEPTH
 70
  3020
  9
$CMLSTYLE
  2
Standard
  9
$CMLJUST
 70
     0
  9
$CMLSCALE
 40
20.0
  9
$PROXYGRAPHICS
 70
     1
  9
$MEASUREMENT
 70
     1
  9
$CELWEIGHT
370
    -1
  9
$ENDCAPS
280
     0
  9
$JOINSTYLE
280
     0
  9
$LWDISPLAY
290
     0
  9
$INSUNITS
 70
     4
  9
$HYPERLINKBASE
  1

  9
$STYLESHEET
  1
SEISA.CTB
  9
$XEDIT
290
     1
  9
$CEPSNTYPE
380
     0
  9
$PSTYLEMODE
290
     1
  9
$FINGERPRINTGUID
  2
{53F1437D-D8CB-4DE6-B94E-B02304DC793E}
  9
$VERSIONGUID
  2
{D2A54FE4-E43A-4F4E-98FC-C87BBF026E27}
  9
$EXTNAMES
290
     1
  9
$PSVPSCALE
 40
0.0
  9
$OLESTARTUP
290
     0
  9
$SORTENTS
280
   127
  9
$INDEXCTL
280
     0
  9
$HIDETEXT
280
     0
  9
$XCLIPFRAME
290
     0
  9
$HALOGAP
280
     0
  9
$OBSCOLOR
 70
   257
  9
$OBSLTYPE
280
     0
  9
$INTERSECTIONDISPLAY
280
     0
  9
$INTERSECTIONCOLOR
 70
   257
  9
$DIMASSOC
280
     2
  9
$PROJECTNAME
  1

  9
$CAMERADISPLAY
290
     0
  9
$LENSLENGTH
 40
50.0
  9
$CAMERAHEIGHT
 40
0.0
  9
$STEPSPERSEC
 40
2.0
  9
$STEPSIZE
 40
6.0
  9
$3DDWFPREC
 40
2.0
  9
$PSOLWIDTH
 40
0.25
  9
$PSOLHEIGHT
 40
4.0
  9
$LOFTANG1
 40
1.570796326794896
  9
$LOFTANG2
 40
1.570796326794896
  9
$LOFTMAG1
 40
0.0
  9
$LOFTMAG2
 40
0.0
  9
$LOFTPARAM
 70
     7
  9
$LOFTNORMALS
280
     1
  9
$LATITUDE
 40
37.795
  9
$LONGITUDE
 40
-122.394
  9
$NORTHDIRECTION
 40
0.0
  9
$TIMEZONE
 70
 -8000
  9
$LIGHTGLYPHDISPLAY
280
     1
  9
$TILEMODELIGHTSYNCH
280
     1
  9
$CMATERIAL
347
27C
  9
$SOLIDHIST
280
     1
  9
$SHOWHIST
280
     1
  9
$DWFFRAME
280
     2
  9
$DGNFRAME
280
     0
  9
$REALWORLDSCALE
290
     1
  9
$INTERFERECOLOR
 62
     1
  9
$INTERFEREOBJVS
345
289
  9
$INTERFEREVPVS
346
286
  9
$CSHADOW
280
     0
  9
$SHADOWPLANELOCATION
 40
0.0
  0
ENDSEC
  0
SECTION
  2
CLASSES
  0
CLASS
  1
ACDBDICTIONARYWDFLT
  2
AcDbDictionaryWithDefault
  3
ObjectDBX Classes
 90
        0
 91
        1
280
     0
281
     0
  0
CLASS
  1
AMGSETTINGSOBJ
  2
AmgSettingsObj
  3
"AcadM|Product Description: AutoCAD Mechanical|Company: Autodesk, Inc."
 90
     1024
 91
        2
280
     0
281
     0
  0
CLASS
  1
ACME_DOCUMENT
  2
AcMeDbDoc
  3
AcMeServices
 90
     1024
 91
        1
280
     0
281
     0
  0
CLASS
  1
ACMESCOPE
  2
AcMeScope
  3
AcMeServices
 90
     1024
 91
        1
280
     0
281
     0
  0
CLASS
  1
ACMECOMMANDHISTORY
  2
AcMeCommandHistory
  3
AcMeServices
 90
     1024
 91
        1
280
     0
281
     0
  0
CLASS
  1
DICTIONARYVAR
  2
AcDbDictionaryVar
  3
ObjectDBX Classes
 90
        0
 91
        9
280
     0
281
     0
  0
CLASS
  1
ACIMSYSVARMAN
  2
AcImSysVarManager
  3
AcMeServices
 90
     1024
 91
        5
280
     0
281
     0
  0
CLASS
  1
ACIMREALSYSVAR
  2
AcImRealSysVar
  3
AcMeServices
 90
     1024
 91
        1
280
     0
281
     0
  0
CLASS
  1
ACIMINTSYSVAR
  2
AcImIntSysVar
  3
AcMeServices
 90
     1024
 91
       27
280
     0
281
     0
  0
CLASS
  1
ACMEDRAWINGMAN
  2
AcMeDrawingMan
  3
AcMeServices
 90
     1024
 91
        1
280
     0
281
     0
  0
CLASS
  1
ACMEVIEW
  2
AcMeView
  3
AcMeServices
 90
     1024
 91
        1
280
     0
281
     0
  0
CLASS
  1
ACDBENTITYCACHE
  2
AcMeEntityCache
  3
AcMeServices
 90
     1024
 91
        1
280
     0
281
     0
  0
CLASS
  1
GSMANAGER
  2
AcMeGSManager
  3
AcMeServices
 90
     1024
 91
        1
280
     0
281
     0
  0
CLASS
  1
AMDTINTERNALREACTOR
  2
AmdtInternalReactor
  3
AcMeServices
 90
     1024
 91
        2
280
     0
281
     0
  0
CLASS
  1
ACMESTATEMGR
  2
AcMeStateMgr
  3
AcMeServices
 90
     1024
 91
        1
280
     0
281
     0
  0
CLASS
  1
ACGREFMASTER
  2
AcGrefMaster
  3
AcAttribServices
 90
     1024
 91
        1
280
     0
281
     0
  0
CLASS
  1
ACME_DATABASE
  2
AcMeDbDatabase
  3
AcMeServices
 90
     1024
 91
        1
280
     0
281
     0
  0
CLASS
  1
ACRFINSADJUSTERMGR
  2
AcRfInsAdjusterMgr
  3
AcMeServices
 90
     1024
 91
        1
280
     0
281
     0
  0
CLASS
  1
ACGREFACADMASTER
  2
AcGrefacadMaster
  3
AcGrefServices
 90
     1024
 91
        1
280
     0
281
     0
  0
CLASS
  1
AMIMASTER
  2
AmiMaster
  3
AmiServices
 90
     1024
 91
        1
280
     0
281
     0
  0
CLASS
  1
ACIMSTRSYSVAR
  2
AcImStrSysVar
  3
AcMeServices
 90
     1024
 91
        5
280
     0
281
     0
  0
CLASS
  1
ACMSTANDARDJIS
  2
AcmStandardJIS
  3
"Amdt_StdImp|Product Description: AutoCAD Mechanical|Company: Autodesk, Inc."
 90
     1024
 91
        0
280
     0
281
     0
  0
CLASS
  1
AMGOBJPROPCFG
  2
AmgObjPropCfg
  3
"AmgLay|Product Description: AutoCAD Mechanical|Company: Autodesk, Inc."
 90
     1025
 91
        1
280
     0
281
     0
  0
CLASS
  1
ACMSURFSTANDARDJIS
  2
AcmSurfTextStdJIS
  3
"Amdt_StdImp|Product Description: AutoCAD Mechanical|Company: Autodesk, Inc."
 90
     1024
 91
        0
280
     0
281
     0
  0
CLASS
  1
ACMFCFSTANDARDJIS
  2
AcmFCFStdJIS
  3
"Amdt_StdImp|Product Description: AutoCAD Mechanical|Company: Autodesk, Inc."
 90
     1024
 91
        0
280
     0
281
     0
  0
CLASS
  1
ACMWELDSTANDARDJIS
  2
AcmWeldingStdJIS
  3
"Amdt_StdImp|Product Description: AutoCAD Mechanical|Company: Autodesk, Inc."
 90
     1024
 91
        0
280
     0
281
     0
  0
CLASS
  1
ACMIDSTANDARDJIS
  2
AcmIdStdJIS
  3
"Amdt_StdImp|Product Description: AutoCAD Mechanical|Company: Autodesk, Inc."
 90
     1024
 91
        0
280
     0
281
     0
  0
CLASS
  1
ACMDATUMSTANDARDJIS
  2
AcmDatumStdJIS
  3
"Amdt_StdImp|Product Description: AutoCAD Mechanical|Company: Autodesk, Inc."
 90
     1024
 91
        0
280
     0
281
     0
  0
CLASS
  1
ACMBOMSTANDARDJIS
  2
AcmBOMStdJIS
  3
"Amdt_StdImp|Product Description: AutoCAD Mechanical|Company: Autodesk, Inc."
 90
     1024
 91
        0
280
     0
281
     0
  0
CLASS
  1
ACMDETAILSTANDARDJIS
  2
AmdtDetailSymStdJIS
  3
"Amdt_StdImp|Product Description: AutoCAD Mechanical|Company: Autodesk, Inc."
 90
     1024
 91
        0
280
     0
281
     0
  0
CLASS
  1
ACMSECTIONSTANDARDJIS
  2
AmdtSectionSymStdJIS
  3
"Amdt_StdImp|Product Description: AutoCAD Mechanical|Company: Autodesk, Inc."
 90
     1024
 91
        0
280
     0
281
     0
  0
CLASS
  1
ACMCENTERLINESTANDARDJIS
  2
AmdtCenterLineStdJIS
  3
"Amdt_StdImp|Product Description: AutoCAD Mechanical|Company: Autodesk, Inc."
 90
     1024
 91
        0
280
     0
281
     0
  0
CLASS
  1
ACMTHREADLINESTANDARDJIS
  2
AmdtThreadLineStdJIS
  3
"Amdt_StdImp|Product Description: AutoCAD Mechanical|Company: Autodesk, Inc."
 90
     1024
 91
        0
280
     0
281
     0
  0
CLASS
  1
ACAMGLAYSTD
  2
AcAmgLayStd
  3
"AmgLay|Product Description: AutoCAD Mechanical|Company: Autodesk, Inc."
 90
     1024
 91
        1
280
     0
281
     0
  0
CLASS
  1
ACAMGDIMSTD
  2
AcAmgDimStd
  3
"AmgDim|Product Description: AutoCAD Mechanical|Company: Autodesk, Inc."
 90
     1024
 91
        1
280
     0
281
     0
  0
CLASS
  1
ACAMGTITLESTD
  2
AcAmgTitleStd
  3
"AmgTitle|Product Description: AutoCAD Mechanical|Company: Autodesk, Inc."
 90
     4095
 91
        1
280
     0
281
     0
  0
CLASS
  1
ACMDATADICTIONARY
  2
AcmDataDictionary
  3
"AcmSymBB|Product Description: AutoCAD Mechanical|Company: Autodesk, Inc."
 90
     1024
 91
        1
280
     0
281
     0
  0
CLASS
  1
ACMDATAENTRYBLOCK
  2
AcmDataEntryBlock
  3
AcmSymBB|Product Description: AutoCAD Mechanical|Company: Autodesk, Inc.
 90
     1024
 91
        0
280
     0
281
     0
  0
CLASS
  1
LAYER_INDEX
  2
AcDbLayerIndex
  3
ObjectDBX Classes
 90
        0
 91
        0
280
     0
281
     0
  0
CLASS
  1
IDBUFFER
  2
AcDbIdBuffer
  3
ObjectDBX Classes
 90
        0
 91
        0
280
     0
281
     0
  0
CLASS
  1
ACMNOTESTANDARDJIS
  2
AmdtNoteStdJIS
  3
"Amdt_StdImp|Product Description: AutoCAD Mechanical|Company: Autodesk, Inc."
 90
     1024
 91
        0
280
     0
281
     0
  0
CLASS
  1
ACAMGHOLECHARTSTDJIS
  2
AcAmgHoleChartStdJIS
  3
AmgDim|Product Description: AutoCAD Mechanical|Company: Autodesk, Inc.
 90
     1024
 91
        0
280
     0
281
     0
  0
CLASS
  1
AM_DRAWING_MGR
  2
AcDmDwgMgr
  3
AcMechDwgViewMgmt
 90
     1024
 91
        1
280
     0
281
     0
  0
CLASS
  1
AM_DWG_DOCUMENT
  2
AcDmDwgDocument
  3
AcMechDwgViewMgmt
 90
     1024
 91
        1
280
     0
281
     0
  0
CLASS
  1
AM_DWG_SHEET
  2
AcDmSheet
  3
AcMechDwgViewMgmt
 90
     1024
 91
        2
280
     0
281
     0
  0
CLASS
  1
AM_VIEWDIMPARMAP
  2
AcDmViewDimParMap
  3
AcMechDwgViewMgmt
 90
     1024
 91
        2
280
     0
281
     0
  0
CLASS
  1
AM_DWGMGR_NAME
  2
AcDmDwgMgrName
  3
AcMechDwgViewMgmt
 90
     1024
 91
        1
280
     0
281
     0
  0
CLASS
  1
AMDTMENUSTATEMGR
  2
AmdtMenuStateMgr
  3
McadcomServices
 90
     1024
 91
        1
280
     0
281
     0
  0
CLASS
  1
AMDTMCOMMENUSTATE
  2
AmdtMcomMenuState
  3
McadcomServices
 90
     1024
 91
        1
280
     0
281
     0
  0
CLASS
  1
MAPIAMMOUDLE
  2
MApiAmModule
  3
MApiAmServices
 90
     1024
 91
        1
280
     0
281
     0
  0
CLASS
  1
AMDTADMENUSTATE
  2
AmdtAdMenuState
  3
DesignerServices
 90
     1024
 91
        1
280
     0
281
     0
  0
CLASS
  1
ADAPPL
  2
AcAdAppl
  3
DesignerServices
 90
     1024
 91
        1
280
     0
281
     0
  0
CLASS
  1
DEPMGR
  2
AcAdDepMgr
  3
DesignerServices
 90
     1024
 91
        1
280
     0
281
     0
  0
CLASS
  1
PARAMMGR
  2
AcAdParamMgr
  3
DesignerServices
 90
     1024
 91
        1
280
     0
281
     0
  0
CLASS
  1
PARAMSCOPE
  2
AcAdParamScope
  3
DesignerServices
 90
     1024
 91
        1
280
     0
281
     0
  0
CLASS
  1
NAMEDAPPL
  2
AcAdNamedAppl
  3
DesignerServices
 90
     1024
 91
        1
280
     0
281
     0
  0
CLASS
  1
AMDTDMMENUSTATE
  2
AmdtDmMenuState
  3
AcMechDwgViewMgmt
 90
     1024
 91
        1
280
     0
281
     0
  0
CLASS
  1
AMDTAMMENUSTATE
  2
AmdtAmMenuState
  3
DesignerAssemblies
 90
     1024
 91
        1
280
     0
281
     0
  0
CLASS
  1
ACAMPROJECT
  2
AcAmProject
  3
DesignerAssemblies
 90
     1024
 91
        1
280
     0
281
     0
  0
CLASS
  1
ACAMGRCOMPDEF
  2
AcAmGrCompDef
  3
DesignerAssemblies
 90
     1024
 91
        1
280
     0
281
     0
  0
CLASS
  1
ACCMCONTEXT
  2
AcCmContext
  3
DesignerAssemblies
 90
     1024
 91
        1
280
     0
281
     0
  0
CLASS
  1
ACAMCOMPDEF
  2
AcAmCompDef
  3
DesignerAssemblies
 90
     1024
 91
        1
280
     0
281
     0
  0
CLASS
  1
ACAMCOMPDEFMGR
  2
AcAmCompDefMgr
  3
DesignerAssemblies
 90
     1024
 91
        1
280
     0
281
     0
  0
CLASS
  1
AMCONTEXTMGR
  2
AcAmContextMgr
  3
DesignerAssemblies
 90
     1024
 91
        1
280
     0
281
     0
  0
CLASS
  1
ACAMCONTEXTMODELER
  2
AcAmContextModeler
  3
DesignerAssemblies
 90
     1024
 91
        1
280
     0
281
     0
  0
CLASS
  1
CATALOGSTATE
  2
AcAmCatalogState
  3
DesignerAssemblies
 90
     1024
 91
        1
280
     0
281
     0
  0
CLASS
  1
ACAMGRCOMPDEFSET
  2
AcAmGrCompDefSet
  3
DesignerAssemblies
 90
     1024
 91
        1
280
     0
281
     0
  0
CLASS
  1
AMDTBROWSERDBTAB
  2
AmdtBrowserDbTab
  3
McadcomServices
 90
     1024
 91
        1
280
     0
281
     0
  0
CLASS
  1
CBROWSERAPPOBJECT
  2
CBrowserAppObject
  3
McadcomServices
 90
     1024
 91
        3
280
     0
281
     0
  0
CLASS
  1
DM_PLACEHOLDER
  2
AcDmSelsetPlaceholder
  3
AcMechDwgViewMgmt
 90
     1024
 91
        1
280
     0
281
     0
  0
CLASS
  1
TABLESTYLE
  2
AcDbTableStyle
  3
ObjectDBX Classes
 90
     4095
 91
        1
280
     0
281
     0
  0
CLASS
  1
VAACXREFPANELOBJECT
  2
VaAcXREFPanelObject
  3
VAAC_ADDIN
 90
        0
 91
        0
280
     0
281
     0
  0
CLASS
  1
VAACIMAGEINVENTORY
  2
VaAcImageInventory
  3
VAAC_ADDIN
 90
        0
 91
        0
280
     0
281
     0
  0
CLASS
  1
AMDTNOTETEMPLATEDB
  2
AmdtNoteTemplateDB
  3
AcmSymBB|Product Description: AutoCAD Mechanical|Company: Autodesk, Inc.
 90
     1024
 91
        6
280
     0
281
     0
  0
CLASS
  1
ACAMGFILTERDAT
  2
AcAmgFilterDat
  3
"AcadM|Product Description: AutoCAD Mechanical|Company: Autodesk, Inc."
 90
     1024
 91
        0
280
     0
281
     0
  0
CLASS
  1
MATERIAL
  2
AcDbMaterial
  3
ObjectDBX Classes
 90
     1153
 91
        3
280
     0
281
     0
  0
CLASS
  1
VISUALSTYLE
  2
AcDbVisualStyle
  3
ObjectDBX Classes
 90
     4095
 91
       16
280
     0
281
     0
  0
CLASS
  1
ACRFATTGENMGR
  2
AcRfAttGeneralMgr
  3
AcAttribServices
 90
     1024
 91
        0
280
     0
281
     0
  0
CLASS
  1
ACRFOBJATTMGR
  2
AcRfObjAttGroupMgr
  3
AcAttribServices
 90
     1024
 91
        0
280
     0
281
     0
  0
CLASS
  1
ACRFMCADAPIATTHOLDER
  2
AcRfMCADAPIAttHolder
  3
AcAttribServices
 90
     1024
 91
        0
280
     0
281
     0
  0
CLASS
  1
AMDTSYSATTR
  2
AmdtSystemAttribute
  3
AcAttribServices
 90
     1024
 91
        0
280
     0
281
     0
  0
CLASS
  1
ACMTAPERSTANDARDJIS
  2
AcmTaperStdJIS
  3
"Amdt_StdImp|Product Description: AutoCAD Mechanical|Company: Autodesk, Inc."
 90
     1024
 91
        0
280
     0
281
     0
  0
CLASS
  1
CAMSSTRUCTBTNSTATE
  2
StructBtnState
  3
DesignerAssemblies
 90
     1024
 91
        0
280
     0
281
     0
  0
CLASS
  1
SCALE
  2
AcDbScale
  3
ObjectDBX Classes
 90
     1153
 91
       36
280
     0
281
     0
  0
CLASS
  1
MLEADERSTYLE
  2
AcDbMLeaderStyle
  3
ACDB_MLEADERSTYLE_CLASS
 90
     4095
 91
        1
280
     0
281
     0
  0
CLASS
  1
ACMANOOTATIONVIEWSTANDARDJIS
  2
AmdtAnViewStdJIS
  3
"Amdt_StdImp|Product Description: AutoCAD Mechanical|Company: Autodesk, Inc."
 90
     1024
 91
        0
280
     0
281
     0
  0
CLASS
  1
ACMSURFSTANDARDJIS2003
  2
AcmSurfTextStdJIS2003
  3
"Amdt_StdImp|Product Description: AutoCAD Mechanical|Company: Autodesk, Inc."
 90
     1024
 91
        0
280
     0
281
     0
  0
CLASS
  1
CELLSTYLEMAP
  2
AcDbCellStyleMap
  3
ObjectDBX Classes
 90
     1152
 91
        2
280
     0
281
     0
  0
CLASS
  1
ACMFCFSTANDARDJIS98
  2
AcmFCFStdJIS98
  3
"Amdt_StdImp|Product Description: AutoCAD Mechanical|Company: Autodesk, Inc."
 90
     1024
 91
        0
280
     0
281
     0
  0
CLASS
  1
SORTENTSTABLE
  2
AcDbSortentsTable
  3
ObjectDBX Classes
 90
        0
 91
        9
280
     0
281
     0
  0
CLASS
  1
DIMASSOC
  2
AcDbDimAssoc
  3
"AcDbDimAssoc|Product Desc:     AcDim ARX App For Dimension|Company:          Autodesk, Inc.|WEB Address:      www.autodesk.com"
 90
        0
 91
       17
280
     0
281
     0
  0
CLASS
  1
STDPART2D
  2
AmgStdPart
  3
AmgStdPart|Product Description: AutoCAD Mechanical|Company: Autodesk, Inc.
 90
     4095
 91
        0
280
     0
281
     1
  0
CLASS
  1
ACMDATAENTRYPART
  2
AcmDataEntryPart
  3
AcmSymBB|Product Description: AutoCAD Mechanical|Company: Autodesk, Inc.
 90
     1024
 91
        0
280
     0
281
     0
  0
CLASS
  1
ACMPARTREF
  2
AcmPartRef
  3
"AcmSymBB|Product Description: AutoCAD Mechanical|Company: Autodesk, Inc."
 90
     4095
 91
        0
280
     0
281
     1
  0
CLASS
  1
ACDBSTDPARTRES_LINE
  2
AcDbStdPartRes_Line
  3
AmgStdPart|Product Description: AutoCAD Mechanical|Company: Autodesk, Inc.
 90
     1024
 91
        0
280
     0
281
     0
  0
CLASS
  1
ACMBOM
  2
AcmBom
  3
"AcmSymBB|Product Description: AutoCAD Mechanical|Company: Autodesk, Inc."
 90
     1024
 91
        0
280
     0
281
     0
  0
CLASS
  1
AMDTFORMULAUPDATEDISPATCHER
  2
AmdtFormulaUpdateDispatcher
  3
AcMeServices
 90
     1024
 91
        0
280
     0
281
     0
  0
CLASS
  1
ACMBOMROW
  2
AcmBomRow
  3
"AcmSymBB|Product Description: AutoCAD Mechanical|Company: Autodesk, Inc."
 90
     1024
 91
        0
280
     0
281
     0
  0
CLASS
  1
ACMPARTLIST
  2
AcmPartList
  3
"AcmSymBB|Product Description: AutoCAD Mechanical|Company: Autodesk, Inc."
 90
     4095
 91
        0
280
     0
281
     1
  0
CLASS
  1
ACDBLINERES
  2
AcDbLineRes
  3
AcGrefServices
 90
     1024
 91
        0
280
     0
281
     0
  0
CLASS
  1
ACRFINSADJ
  2
AcRfInsAdjuster
  3
AcMeServices
 90
     1024
 91
        0
280
     0
281
     0
  0
CLASS
  1
ACMSTANDARDISO
  2
AcmStandardISO
  3
"Amdt_StdImp|Product Description: AutoCAD Mechanical|Company: Autodesk, Inc."
 90
     1024
 91
        1
280
     0
281
     0
  0
CLASS
  1
AMDTEDGESTANDARDISO13715
  2
AmdtEdgeStdISO13715
  3
"Amdt_StdImp|Product Description: AutoCAD Mechanical|Company: Autodesk, Inc."
 90
     1024
 91
        1
280
     0
281
     0
  0
CLASS
  1
ACMSURFSTANDARDISO2002
  2
AcmSurfTextStdISO2002
  3
"Amdt_StdImp|Product Description: AutoCAD Mechanical|Company: Autodesk, Inc."
 90
     1024
 91
        1
280
     0
281
     0
  0
CLASS
  1
ACMFCFSTANDARDISO
  2
AcmFCFStdISO
  3
"Amdt_StdImp|Product Description: AutoCAD Mechanical|Company: Autodesk, Inc."
 90
     1024
 91
        1
280
     0
281
     0
  0
CLASS
  1
ACMWELDSTANDARDISO
  2
AcmWeldingStdISO
  3
"Amdt_StdImp|Product Description: AutoCAD Mechanical|Company: Autodesk, Inc."
 90
     1024
 91
        1
280
     0
281
     0
  0
CLASS
  1
ACMIDSTANDARDISO
  2
AcmIdStdISO
  3
"Amdt_StdImp|Product Description: AutoCAD Mechanical|Company: Autodesk, Inc."
 90
     1024
 91
        1
280
     0
281
     0
  0
CLASS
  1
ACMDATUMSTANDARDISO
  2
AcmDatumStdISO
  3
"Amdt_StdImp|Product Description: AutoCAD Mechanical|Company: Autodesk, Inc."
 90
     1024
 91
        1
280
     0
281
     0
  0
CLASS
  1
ACMBOMSTANDARDISO
  2
AcmBOMStdISO
  3
"Amdt_StdImp|Product Description: AutoCAD Mechanical|Company: Autodesk, Inc."
 90
     1024
 91
        1
280
     0
281
     0
  0
CLASS
  1
ACMDETAILSTANDARDISO
  2
AmdtDetailSymStdISO
  3
"Amdt_StdImp|Product Description: AutoCAD Mechanical|Company: Autodesk, Inc."
 90
     1024
 91
        1
280
     0
281
     0
  0
CLASS
  1
ACMSECTIONSTANDARDISO2001
  2
AmdtSectionSymStdISO2001
  3
"Amdt_StdImp|Product Description: AutoCAD Mechanical|Company: Autodesk, Inc."
 90
     1024
 91
        1
280
     0
281
     0
  0
CLASS
  1
ACMCENTERLINESTANDARDISO
  2
AmdtCenterLineStdISO
  3
"Amdt_StdImp|Product Description: AutoCAD Mechanical|Company: Autodesk, Inc."
 90
     1024
 91
        1
280
     0
281
     0
  0
CLASS
  1
ACMTHREADLINESTANDARDISO
  2
AmdtThreadLineStdISO
  3
"Amdt_StdImp|Product Description: AutoCAD Mechanical|Company: Autodesk, Inc."
 90
     1024
 91
        1
280
     0
281
     0
  0
CLASS
  1
ACMNOTESTANDARDISO
  2
AmdtNoteStdISO
  3
"Amdt_StdImp|Product Description: AutoCAD Mechanical|Company: Autodesk, Inc."
 90
     1024
 91
        1
280
     0
281
     0
  0
CLASS
  1
ACMTAPERSTANDARDISO
  2
AcmTaperStdISO
  3
"Amdt_StdImp|Product Description: AutoCAD Mechanical|Company: Autodesk, Inc."
 90
     1024
 91
        1
280
     0
281
     0
  0
CLASS
  1
ACMANOOTATIONVIEWSTANDARDISO
  2
AmdtAnViewStdISO
  3
"Amdt_StdImp|Product Description: AutoCAD Mechanical|Company: Autodesk, Inc."
 90
     1024
 91
        1
280
     0
281
     0
  0
CLASS
  1
ACAMGHOLECHARTSTDISO
  2
AcAmgHoleChartStdISO
  3
AmgDim|Product Description: AutoCAD Mechanical|Company: Autodesk, Inc.
 90
     1024
 91
        1
280
     0
281
     0
  0
CLASS
  1
EXACXREFPANELOBJECT
  2
ExAcXREFPanelObject
  3
EXAC_ESW
 90
     1025
 91
        0
280
     0
281
     0
  0
CLASS
  1
NPOCOLLECTION
  2
AcDbImpNonPersistentObjectsCollection
  3
ObjectDBX Classes
 90
     1153
 91
        0
280
     0
281
     0
  0
CLASS
  1
ACDBSTDPARTRES_ARC
  2
AcDbStdPartRes_Arc
  3
AmgStdPart|Product Description: AutoCAD Mechanical|Company: Autodesk, Inc.
 90
     1024
 91
        0
280
     0
281
     0
  0
CLASS
  1
AMDTNOTE
  2
AmdtNote
  3
"AcmSymBB|Product Description: AutoCAD Mechanical|Company: Autodesk, Inc."
 90
     4095
 91
        0
280
     0
281
     1
  0
CLASS
  1
PLOTSETTINGS
  2
AcDbPlotSettings
  3
ObjectDBX Classes
 90
        0
 91
        1
280
     0
281
     0
  0
CLASS
  1
ACMSTANDARDANSI
  2
AcmStandardANSI
  3
"Amdt_StdImp|Product Description: AutoCAD Mechanical|Company: Autodesk, Inc."
 90
     1024
 91
        0
280
     0
281
     0
  0
CLASS
  1
ACMSURFSTANDARDANSI
  2
AcmSurfTextStdANSI
  3
"Amdt_StdImp|Product Description: AutoCAD Mechanical|Company: Autodesk, Inc."
 90
     1024
 91
        0
280
     0
281
     0
  0
CLASS
  1
ACMFCFSTANDARDANSI
  2
AcmFCFStdANSI
  3
"Amdt_StdImp|Product Description: AutoCAD Mechanical|Company: Autodesk, Inc."
 90
     1024
 91
        0
280
     0
281
     0
  0
CLASS
  1
ACMWELDSTANDARDANSI
  2
AcmWeldingStdANSI
  3
"Amdt_StdImp|Product Description: AutoCAD Mechanical|Company: Autodesk, Inc."
 90
     1024
 91
        0
280
     0
281
     0
  0
CLASS
  1
ACMIDSTANDARDANSI
  2
AcmIdStdANSI
  3
"Amdt_StdImp|Product Description: AutoCAD Mechanical|Company: Autodesk, Inc."
 90
     1024
 91
        0
280
     0
281
     0
  0
CLASS
  1
ACMDATUMSTANDARDANSI
  2
AcmDatumStdANSI
  3
"Amdt_StdImp|Product Description: AutoCAD Mechanical|Company: Autodesk, Inc."
 90
     1024
 91
        0
280
     0
281
     0
  0
CLASS
  1
ACMBOMSTANDARDANSI
  2
AcmBOMStdANSI
  3
"Amdt_StdImp|Product Description: AutoCAD Mechanical|Company: Autodesk, Inc."
 90
     1024
 91
        0
280
     0
281
     0
  0
CLASS
  1
ACMDETAILSTANDARDANSI
  2
AmdtDetailSymStdANSI
  3
"Amdt_StdImp|Product Description: AutoCAD Mechanical|Company: Autodesk, Inc."
 90
     1024
 91
        0
280
     0
281
     0
  0
CLASS
  1
ACMSECTIONSTANDARDANSI
  2
AmdtSectionSymStdANSI
  3
"Amdt_StdImp|Product Description: AutoCAD Mechanical|Company: Autodesk, Inc."
 90
     1024
 91
        0
280
     0
281
     0
  0
CLASS
  1
ACMCENTERLINESTANDARDANSI
  2
AmdtCenterLineStdANSI
  3
"Amdt_StdImp|Product Description: AutoCAD Mechanical|Company: Autodesk, Inc."
 90
     1024
 91
        0
280
     0
281
     0
  0
CLASS
  1
ACMTHREADLINESTANDARDANSI
  2
AmdtThreadLineStdANSI
  3
"Amdt_StdImp|Product Description: AutoCAD Mechanical|Company: Autodesk, Inc."
 90
     1024
 91
        0
280
     0
281
     0
  0
CLASS
  1
ACMNOTESTANDARDANSI
  2
AmdtNoteStdANSI
  3
"Amdt_StdImp|Product Description: AutoCAD Mechanical|Company: Autodesk, Inc."
 90
     1024
 91
        0
280
     0
281
     0
  0
CLASS
  1
ACMTAPERSTANDARDANSI
  2
AcmTaperStdANSI
  3
"Amdt_StdImp|Product Description: AutoCAD Mechanical|Company: Autodesk, Inc."
 90
     1024
 91
        0
280
     0
281
     0
  0
CLASS
  1
ACMANOOTATIONVIEWSTANDARDANSI
  2
AmdtAnViewStdANSI
  3
"Amdt_StdImp|Product Description: AutoCAD Mechanical|Company: Autodesk, Inc."
 90
     1024
 91
        0
280
     0
281
     0
  0
CLASS
  1
ACAMGHOLECHARTSTDANSI
  2
AcAmgHoleChartStdANSI
  3
AmgDim|Product Description: AutoCAD Mechanical|Company: Autodesk, Inc.
 90
     1024
 91
        0
280
     0
281
     0
  0
CLASS
  1
ACMSTANDARDBSI
  2
AcmStandardBSI
  3
"Amdt_StdImp|Product Description: AutoCAD Mechanical|Company: Autodesk, Inc."
 90
     1024
 91
        0
280
     0
281
     0
  0
CLASS
  1
ACMSURFSTANDARDBSI2002
  2
AcmSurfTextStdBSI2002
  3
"Amdt_StdImp|Product Description: AutoCAD Mechanical|Company: Autodesk, Inc."
 90
     1024
 91
        0
280
     0
281
     0
  0
CLASS
  1
ACMFCFSTANDARDBSI
  2
AcmFCFStdBSI
  3
"Amdt_StdImp|Product Description: AutoCAD Mechanical|Company: Autodesk, Inc."
 90
     1024
 91
        0
280
     0
281
     0
  0
CLASS
  1
ACMWELDSTANDARDBSI
  2
AcmWeldingStdBSI
  3
"Amdt_StdImp|Product Description: AutoCAD Mechanical|Company: Autodesk, Inc."
 90
     1024
 91
        0
280
     0
281
     0
  0
CLASS
  1
ACMIDSTANDARDBSI
  2
AcmIdStdBSI
  3
"Amdt_StdImp|Product Description: AutoCAD Mechanical|Company: Autodesk, Inc."
 90
     1024
 91
        0
280
     0
281
     0
  0
CLASS
  1
ACMDATUMSTANDARDBSI
  2
AcmDatumStdBSI
  3
"Amdt_StdImp|Product Description: AutoCAD Mechanical|Company: Autodesk, Inc."
 90
     1024
 91
        0
280
     0
281
     0
  0
CLASS
  1
ACMBOMSTANDARDBSI
  2
AcmBOMStdBSI
  3
"Amdt_StdImp|Product Description: AutoCAD Mechanical|Company: Autodesk, Inc."
 90
     1024
 91
        0
280
     0
281
     0
  0
CLASS
  1
ACMDETAILSTANDARDBSI
  2
AmdtDetailSymStdBSI
  3
"Amdt_StdImp|Product Description: AutoCAD Mechanical|Company: Autodesk, Inc."
 90
     1024
 91
        0
280
     0
281
     0
  0
CLASS
  1
ACMSECTIONSTANDARDBSI2001
  2
AmdtSectionSymStdBSI2001
  3
"Amdt_StdImp|Product Description: AutoCAD Mechanical|Company: Autodesk, Inc."
 90
     1024
 91
        0
280
     0
281
     0
  0
CLASS
  1
ACMCENTERLINESTANDARDBSI
  2
AmdtCenterLineStdBSI
  3
"Amdt_StdImp|Product Description: AutoCAD Mechanical|Company: Autodesk, Inc."
 90
     1024
 91
        0
280
     0
281
     0
  0
CLASS
  1
ACMTHREADLINESTANDARDBSI
  2
AmdtThreadLineStdBSI
  3
"Amdt_StdImp|Product Description: AutoCAD Mechanical|Company: Autodesk, Inc."
 90
     1024
 91
        0
280
     0
281
     0
  0
CLASS
  1
ACMNOTESTANDARDBSI
  2
AmdtNoteStdBSI
  3
"Amdt_StdImp|Product Description: AutoCAD Mechanical|Company: Autodesk, Inc."
 90
     1024
 91
        0
280
     0
281
     0
  0
CLASS
  1
ACMTAPERSTANDARDBSI
  2
AcmTaperStdBSI
  3
"Amdt_StdImp|Product Description: AutoCAD Mechanical|Company: Autodesk, Inc."
 90
     1024
 91
        0
280
     0
281
     0
  0
CLASS
  1
ACMANOOTATIONVIEWSTANDARDBSI
  2
AmdtAnViewStdBSI
  3
"Amdt_StdImp|Product Description: AutoCAD Mechanical|Company: Autodesk, Inc."
 90
     1024
 91
        0
280
     0
281
     0
  0
CLASS
  1
ACAMGHOLECHARTSTDBSI
  2
AcAmgHoleChartStdBSI
  3
AmgDim|Product Description: AutoCAD Mechanical|Company: Autodesk, Inc.
 90
     1024
 91
        0
280
     0
281
     0
  0
CLASS
  1
AMDTEDGESTANDARDJIS
  2
AmdtEdgeStdJIS
  3
"Amdt_StdImp|Product Description: AutoCAD Mechanical|Company: Autodesk, Inc."
 90
     1024
 91
        0
280
     0
281
     0
  0
CLASS
  1
ACMSURFSYM
  2
AcmSurfaceTexture
  3
"AcmSymBB|Product Description: AutoCAD Mechanical|Company: Autodesk, Inc."
 90
     4095
 91
        0
280
     0
281
     1
  0
CLASS
  1
ACDBDIMENSIONRES
  2
AcDbDimensionRes
  3
AcmSymBB|Product Description: AutoCAD Mechanical|Company: Autodesk, Inc.
 90
     1024
 91
        0
280
     0
281
     0
  0
CLASS
  1
ACDBCIRCARCRES
  2
AcDbCircArcRes
  3
AcGrefServices
 90
     1024
 91
        0
280
     0
281
     0
  0
CLASS
  1
ACDBOPPOLYLINERES
  2
AcDbOpPolylineRes
  3
AcGrefServices
 90
     1024
 91
        0
280
     0
281
     0
  0
CLASS
  1
AMDTACMWBLOCKBOMENTITY
  2
AmdtAcmWblockBomEntity
  3
"AcmSymBB|Product Description: AutoCAD Mechanical|Company: Autodesk, Inc."
 90
     4095
 91
        0
280
     0
281
     1
  0
CLASS
  1
ACDB_BLKREFOBJECTCONTEXTDATA_CLASS
  2
AcDbBlkRefObjectContextData
  3
ObjectDBX Classes
 90
     1153
 91
        0
280
     0
281
     0
  0
CLASS
  1
ACMPICKOBJ
  2
AcmPickEnt
  3
"AcmSymBB|Product Description: AutoCAD Mechanical|Company: Autodesk, Inc."
 90
     1024
 91
        0
280
     0
281
     1
  0
CLASS
  1
ACMBALLOON
  2
AcmBalloon
  3
"AcmSymBB|Product Description: AutoCAD Mechanical|Company: Autodesk, Inc."
 90
     4095
 91
        0
280
     0
281
     1
  0
ENDSEC
  0
SECTION
  2
TABLES
  0
TABLE
  2
VPORT
  5
8
330
0
100
AcDbSymbolTable
 70
     1
  0
VPORT
  5
27A
330
8
100
AcDbSymbolTableRecord
100
AcDbViewportTableRecord
  2
*Active
 70
     0
 10
0.0
 20
0.0
 11
1.0
 21
1.0
 12
1000.913680543772
 22
800.1996504796982
 13
0.0
 23
0.0
 14
10.0
 24
10.0
 15
40.0
 25
40.0
 16
0.0
 26
0.0
 36
1.0
 17
0.0
 27
0.0
 37
0.0
 40
592.8754400990427
 41
1.55268022181146
 42
50.0
 43
0.0
 44
0.0
 50
0.0
 51
0.0
 71
    16
 72
 20000
 73
     1
 74
     3
 75
     0
 76
     0
 77
     0
 78
     0
281
     0
 65
     0
110
0.0
120
0.0
130
0.0
111
1.0
121
0.0
131
0.0
112
0.0
122
1.0
132
0.0
 79
     0
146
0.0
348
285
 60
     3
 61
     5
292
     1
282
     0
141
0.0
142
0.0
 63
   250
421
  3355443
  0
ENDTAB
  0
TABLE
  2
LTYPE
  5
5
330
0
100
AcDbSymbolTable
 70
    22
  0
LTYPE
  5
14
330
5
100
AcDbSymbolTableRecord
100
AcDbLinetypeTableRecord
  2
ByBlock
 70
     0
  3

 72
    65
 73
     0
 40
0.0
  0
LTYPE
  5
15
330
5
100
AcDbSymbolTableRecord
100
AcDbLinetypeTableRecord
  2
ByLayer
 70
     0
  3

 72
    65
 73
     0
 40
0.0
  0
LTYPE
  5
16
330
5
100
AcDbSymbolTableRecord
100
AcDbLinetypeTableRecord
  2
Continuous
 70
     0
  3
Solid line
 72
    65
 73
     0
 40
0.0
  0
LTYPE
  5
4D
330
5
100
AcDbSymbolTableRecord
100
AcDbLinetypeTableRecord
  2
AM_ISO02W050
 70
     0
  3
__ __ __ __ __ __ __ __ __ __ __ __ __ __ __
 72
    65
 73
     2
 40
7.5
 49
6.0
 74
     0
 49
-1.5
 74
     0
  0
LTYPE
  5
4E
330
5
100
AcDbSymbolTableRecord
100
AcDbLinetypeTableRecord
  2
AM_ISO08W050
 70
     0
  3
____ . ____ . ____ . ____ . ____ . ____ . ____
 72
    65
 73
     4
 40
18.0
 49
12.0
 74
     0
 49
-1.5
 74
     0
 49
3.0
 74
     0
 49
-1.5
 74
     0
  0
LTYPE
  5
4F
330
5
100
AcDbSymbolTableRecord
100
AcDbLinetypeTableRecord
  2
AM_ISO09W050
 70
     0
  3
_____ . . _____ . . _____ . . ____ .. ____
 72
    65
 73
     6
 40
22.5
 49
12.0
 74
     0
 49
-1.5
 74
     0
 49
3.0
 74
     0
 49
-1.5
 74
     0
 49
3.0
 74
     0
 49
-1.5
 74
     0
  0
LTYPE
  5
50
330
5
100
AcDbSymbolTableRecord
100
AcDbLinetypeTableRecord
  2
Amconstr
 70
     0
  3
_______________________
 72
    65
 73
     2
 40
9999.0
 49
9999.0
 74
     0
 49
0.0
 74
     0
  0
LTYPE
  5
51
330
5
100
AcDbSymbolTableRecord
100
AcDbLinetypeTableRecord
  2
AM_ISO08W050x2
 70
     0
  3
__ . __ . __ . __ . __ . __
 72
    65
 73
     4
 40
9.0
 49
6.0
 74
     0
 49
-0.75
 74
     0
 49
1.5
 74
     0
 49
-0.75
 74
     0
  0
LTYPE
  5
52
330
5
100
AcDbSymbolTableRecord
100
AcDbLinetypeTableRecord
  2
AM_ISO02W050x2
 70
     0
  3
 _ _ _ _ _ _ _ _ _ _ _ _
 72
    65
 73
     2
 40
3.75
 49
3.0
 74
     0
 49
-0.75
 74
     0
  0
LTYPE
  5
55
330
5
100
AcDbSymbolTableRecord
100
AcDbLinetypeTableRecord
  2
Amzigzag
 70
     0
  3
/\/-/\/-/\/-/\/-/\/-/\/
 72
    65
 73
     2
 40
11.0001
 49
0.0001
 74
     4
 75
   136
340
23D
 46
0.04
 50
0.0
 44
0.0
 45
0.0
 49
-11.0
 74
     0
  0
LTYPE
  5
65
330
5
100
AcDbSymbolTableRecord
100
AcDbLinetypeTableRecord
  2
CENTER
 70
     0
  3
__ . __
 72
    65
 73
     4
 40
7.0
 49
4.0
 74
     0
 49
-1.0
 74
     0
 49
1.0
 74
     0
 49
-1.0
 74
     0
  0
LTYPE
  5
E0
330
5
100
AcDbSymbolTableRecord
100
AcDbLinetypeTableRecord
  2
HIDDEN
 70
     0
  3
Hidden __ __ __ __ __ __ __ __ __ __ __ __ __ _
 72
    65
 73
     2
 40
9.524999999999996
 49
6.349999999999998
 74
     0
 49
-3.174999999999998
 74
     0
  0
LTYPE
  5
E1
330
5
100
AcDbSymbolTableRecord
100
AcDbLinetypeTableRecord
  2
PHANTOM2
 70
     0
  3
Phantom (.5x) ___ _ _ ___ _ _ ___ _ _ ___ _ _
 72
    65
 73
     6
 40
31.75
 49
15.875
 74
     0
 49
-3.174999999999998
 74
     0
 49
3.174999999999998
 74
     0
 49
-3.174999999999998
 74
     0
 49
3.174999999999998
 74
     0
 49
-3.174999999999998
 74
     0
  0
LTYPE
  5
5A2
330
5
100
AcDbSymbolTableRecord
100
AcDbLinetypeTableRecord
  2
ACJISWELD
 70
     0
  3
_ _ _ _ _
 72
    65
 73
     2
 40
2.0
 49
2.0
 74
     0
 49
-1.0
 74
     0
  0
LTYPE
  5
7009
330
5
100
AcDbSymbolTableRecord
100
AcDbLinetypeTableRecord
  2
ACISOWELD
 70
     0
  3
_ _ _ _ _
 72
    65
 73
     2
 40
2.0
 49
2.0
 74
     0
 49
-1.0
 74
     0
  0
LTYPE
  5
700A
330
5
100
AcDbSymbolTableRecord
100
AcDbLinetypeTableRecord
  2
ACISOTGB
 70
     0
  3
__ . . __ . .
 72
    65
 73
     6
 40
9.0
 49
4.0
 74
     0
 49
-1.0
 74
     0
 49
1.0
 74
     0
 49
-1.0
 74
     0
 49
1.0
 74
     0
 49
-1.0
 74
     0
  0
LTYPE
  5
700B
330
5
100
AcDbSymbolTableRecord
100
AcDbLinetypeTableRecord
  2
ACISOTGL
 70
     0
  3
_ _ _ _ _
 72
    65
 73
     2
 40
3.0
 49
2.0
 74
     0
 49
-1.0
 74
     0
  0
ENDTAB
  0
TABLE
  2
LAYER
  5
2
102
{ACAD_XDICTIONARY
360
BF
102
}
330
0
100
AcDbSymbolTable
 70
    10
  0
LAYER
  5
10
102
{ACAD_XDICTIONARY
360
29F7
102
}
330
2
100
AcDbSymbolTableRecord
100
AcDbLayerTableRecord
  2
0
 70
     0
 62
     7
  6
Continuous
370
    -3
390
F
347
27E
  0
LAYER
  5
81
102
{ACAD_XDICTIONARY
360
29F9
102
}
330
2
100
AcDbSymbolTableRecord
100
AcDbLayerTableRecord
  2
AM_0 外形線1
 70
     0
 62
     7
  6
Continuous
370
    25
390
F
347
27E
  0
LAYER
  5
427
330
2
100
AcDbSymbolTableRecord
100
AcDbLayerTableRecord
  2
Defpoints
 70
     0
 62
     7
  6
Continuous
290
     0
370
    -3
390
F
347
27E
  0
LAYER
  5
2C6D
330
2
100
AcDbSymbolTableRecord
100
AcDbLayerTableRecord
  2
AM_5 寸法線
 70
     0
 62
     3
  6
Continuous
370
    13
390
F
347
27E
1001
AcAecLayerStandard
1000

1000

  0
LAYER
  5
2C6E
330
2
100
AcDbSymbolTableRecord
100
AcDbLayerTableRecord
  2
AM_4 細線
 70
     0
 62
     4
  6
Continuous
370
    13
390
F
347
27E
1001
AcAecLayerStandard
1000

1000

  0
LAYER
  5
2C6F
330
2
100
AcDbSymbolTableRecord
100
AcDbLayerTableRecord
  2
AM_7 中心線
 70
     0
 62
     1
  6
AM_ISO08W050
370
    13
390
F
347
27E
1001
AcAecLayerStandard
1000

1000

  0
LAYER
  5
2C70
330
2
100
AcDbSymbolTableRecord
100
AcDbLayerTableRecord
  2
AM_3 隠れ線
 70
     0
 62
     8
  6
ACJISWELD
370
    13
390
F
347
27E
1001
AcAecLayerStandard
1000

1000

  0
LAYER
  5
2C72
330
2
100
AcDbSymbolTableRecord
100
AcDbLayerTableRecord
  2
AM_6 文字
 70
     0
 62
     2
  6
Continuous
370
    13
390
F
347
27E
1001
AcAecLayerStandard
1000

1000

  0
LAYER
  5
6BD0
330
2
100
AcDbSymbolTableRecord
100
AcDbLayerTableRecord
  2
AM_11 想像線
 70
     0
 62
     5
  6
AM_ISO09W050
370
    13
390
F
347
27E
1001
AcAecLayerStandard
1000

1000

  0
ENDTAB
  0
TABLE
  2
STYLE
  5
3
330
0
100
AcDbSymbolTable
 70
    10
  0
STYLE
  5
11
330
3
100
AcDbSymbolTableRecord
100
AcDbTextStyleTableRecord
  2
STANDARD
 70
     0
 40
0.0
 41
1.0
 50
0.0
 71
     0
 42
25.0
  3
ISOCP.SHX
  4
EXTFONT.SHX
  0
STYLE
  5
23D
330
3
100
AcDbSymbolTableRecord
100
AcDbTextStyleTableRecord
  2

 70
     1
 40
0.0
 41
1.0
 50
0.0
 71
     0
 42
2.5
  3
genltshp.shx
  4

  0
STYLE
  5
5D5
330
3
100
AcDbSymbolTableRecord
100
AcDbTextStyleTableRecord
  2
SEISA
 70
     0
 40
0.0
 41
0.9
 50
0.0
 71
     0
 42
25.0
  3
romans.shx
  4
extfont2.shx
  0
STYLE
  5
6FF9
330
3
100
AcDbSymbolTableRecord
100
AcDbTextStyleTableRecord
  2
ACISOTS
 70
     0
 40
1.0
 41
1.0
 50
0.0
 71
     0
 42
25.0
  3
isocp.shx
  4
extfont.shx
  0
STYLE
  5
7008
330
3
100
AcDbSymbolTableRecord
100
AcDbTextStyleTableRecord
  2
ACISOGDT
 70
     0
 40
0.0
 41
1.0
 50
0.0
 71
     0
 42
25.0
  3
amgdt.shx
  4

  0
ENDTAB
  0
TABLE
  2
VIEW
  5
6
330
0
100
AcDbSymbolTable
 70
     6
  0
VIEW
  5
91B
330
6
100
AcDbSymbolTableRecord
100
AcDbViewTableRecord
  2
AM_VIEW1
 70
     0
 40
594.0000000000001
 10
584.4901485489867
 20
891.0000014775285
 41
1168.980295566503
 11
0.0
 21
0.0
 31
1.0
 12
0.0
 22
0.0
 32
0.0
 42
50.0
 43
0.0
 44
0.0
 50
0.0
 71
    16
281
     0
 72
     0
 73
     0
  0
VIEW
  5
91C
330
6
100
AcDbSymbolTableRecord
100
AcDbViewTableRecord
  2
AM_VIEW2
 70
     0
 40
594.0000000000001
 10
1095.509852982484
 20
891.0000014775285
 41
1168.980295566503
 11
0.0
 21
0.0
 31
1.0
 12
0.0
 22
0.0
 32
0.0
 42
50.0
 43
0.0
 44
0.0
 50
0.0
 71
    16
281
     0
 72
     0
 73
     0
  0
VIEW
  5
91D
330
6
100
AcDbSymbolTableRecord
100
AcDbViewTableRecord
  2
AM_VIEW3
 70
     0
 40
594.0000000000001
 10
584.4901485489867
 20
297.0000014775283
 41
1168.980295566503
 11
0.0
 21
0.0
 31
1.0
 12
0.0
 22
0.0
 32
0.0
 42
50.0
 43
0.0
 44
0.0
 50
0.0
 71
    16
281
     0
 72
     0
 73
     0
  0
VIEW
  5
91E
330
6
100
AcDbSymbolTableRecord
100
AcDbViewTableRecord
  2
AM_VIEW4
 70
     0
 40
594.0000000000001
 10
1095.509852982484
 20
297.0000014775283
 41
1168.980295566503
 11
0.0
 21
0.0
 31
1.0
 12
0.0
 22
0.0
 32
0.0
 42
50.0
 43
0.0
 44
0.0
 50
0.0
 71
    16
281
     0
 72
     0
 73
     0
  0
VIEW
  5
91F
330
6
100
AcDbSymbolTableRecord
100
AcDbViewTableRecord
  2
AM_VIEW5
 70
     0
 40
594.0000000000002
 10
840.0000007657352
 20
594.0000014775282
 41
1168.980295566503
 11
0.0
 21
0.0
 31
1.0
 12
0.0
 22
0.0
 32
0.0
 42
50.0
 43
0.0
 44
0.0
 50
0.0
 71
    16
281
     0
 72
     0
 73
     0
  0
VIEW
  5
920
330
6
100
AcDbSymbolTableRecord
100
AcDbViewTableRecord
  2
AM_VIEW6
 70
     0
 40
1187.98812
 10
840.0000007657352
 20
594.0000014775282
 41
2337.937211527094
 11
0.0
 21
0.0
 31
1.0
 12
0.0
 22
0.0
 32
0.0
 42
50.0
 43
0.0
 44
0.0
 50
0.0
 71
    16
281
     0
 72
     0
 73
     0
  0
ENDTAB
  0
TABLE
  2
UCS
  5
7
330
0
100
AcDbSymbolTable
 70
     0
  0
ENDTAB
  0
TABLE
  2
APPID
  5
9
330
0
100
AcDbSymbolTable
 70
   396
  0
APPID
  5
12
330
9
100
AcDbSymbolTableRecord
100
AcDbRegAppTableRecord
  2
ACAD
 70
     0
  0
APPID
  5
30
330
9
100
AcDbSymbolTableRecord
100
AcDbRegAppTableRecord
  2
MCAD_NO_VIS
 70
     0
  0
APPID
  5
31
330
9
100
AcDbSymbolTableRecord
100
AcDbRegAppTableRecord
  2
ACAD_TEMP_GRAPHIC
 70
     0
  0
APPID
  5
44
330
9
100
AcDbSymbolTableRecord
100
AcDbRegAppTableRecord
  2
ACATTRIBSERVICES
 70
     0
  0
APPID
  5
F6
330
9
100
AcDbSymbolTableRecord
100
AcDbRegAppTableRecord
  2
AD_DRAW
 70
     0
  0
APPID
  5
114
330
9
100
AcDbSymbolTableRecord
100
AcDbRegAppTableRecord
  2
DESIGNERASSEMBLIES
 70
     0
  0
APPID
  5
118
330
9
100
AcDbSymbolTableRecord
100
AcDbRegAppTableRecord
  2
ACADM_DIM_EDIT
 70
     0
  0
APPID
  5
119
330
9
100
AcDbSymbolTableRecord
100
AcDbRegAppTableRecord
  2
AMDT_DM_ADJ
 70
     0
  0
APPID
  5
1AF
330
9
100
AcDbSymbolTableRecord
100
AcDbRegAppTableRecord
  2
ACAD_DSTYLE_DIMARC_LENGTH_SYMBOL
 70
     0
  0
APPID
  5
1B0
330
9
100
AcDbSymbolTableRecord
100
AcDbRegAppTableRecord
  2
ACAD_DSTYLE_DIMJOGGED_JOGANGLE_SYMBOL
 70
     0
  0
APPID
  5
2D7
330
9
100
AcDbSymbolTableRecord
100
AcDbRegAppTableRecord
  2
ACAD_MLEADERVER
 70
     0
  0
APPID
  5
355
330
9
100
AcDbSymbolTableRecord
100
AcDbRegAppTableRecord
  2
AcadAnnoPO
 70
     0
  0
APPID
  5
428
330
9
100
AcDbSymbolTableRecord
100
AcDbRegAppTableRecord
  2
ACAD_DSTYLE_DIMTEXT_FILL
 70
     0
  0
APPID
  5
429
330
9
100
AcDbSymbolTableRecord
100
AcDbRegAppTableRecord
  2
GENIUS_GENSCREG_15
 70
     0
  0
APPID
  5
42A
330
9
100
AcDbSymbolTableRecord
100
AcDbRegAppTableRecord
  2
GENIUS_GENOBJ-N-SDF_13
 70
     0
  0
APPID
  5
42B
330
9
100
AcDbSymbolTableRecord
100
AcDbRegAppTableRecord
  2
GENIUS_GENODEF_13
 70
     0
  0
APPID
  5
42C
330
9
100
AcDbSymbolTableRecord
100
AcDbRegAppTableRecord
  2
ACAD_EXEMPT_FROM_CAD_STANDARDS
 70
     0
  0
APPID
  5
42D
330
9
100
AcDbSymbolTableRecord
100
AcDbRegAppTableRecord
  2
AcAecLayerStandard
 70
     0
  0
APPID
  5
42E
330
9
100
AcDbSymbolTableRecord
100
AcDbRegAppTableRecord
  2
GENIUS_GENOBJ-N-CEN_13
 70
     0
  0
APPID
  5
42F
330
9
100
AcDbSymbolTableRecord
100
AcDbRegAppTableRecord
  2
GENIUS_GENCEN_19
 70
     0
  0
APPID
  5
430
330
9
100
AcDbSymbolTableRecord
100
AcDbRegAppTableRecord
  2
ACAD_DSTYLE_DIMINSPECT
 70
     0
  0
APPID
  5
431
330
9
100
AcDbSymbolTableRecord
100
AcDbRegAppTableRecord
  2
GENIUS_AMGTXT_16
 70
     0
  0
APPID
  5
432
330
9
100
AcDbSymbolTableRecord
100
AcDbRegAppTableRecord
  2
GENIUS_GENFIL_13
 70
     0
  0
APPID
  5
433
330
9
100
AcDbSymbolTableRecord
100
AcDbRegAppTableRecord
  2
GENIUS_GENOLIS_13
 70
     0
  0
APPID
  5
434
330
9
100
AcDbSymbolTableRecord
100
AcDbRegAppTableRecord
  2
GENIUS_GENOBJ-N-CHA_13
 70
     0
  0
APPID
  5
435
330
9
100
AcDbSymbolTableRecord
100
AcDbRegAppTableRecord
  2
GENIUS_GENOENT_13
 70
     0
  0
APPID
  5
436
330
9
100
AcDbSymbolTableRecord
100
AcDbRegAppTableRecord
  2
GENIUS_GENOREF_13
 70
     0
  0
APPID
  5
437
330
9
100
AcDbSymbolTableRecord
100
AcDbRegAppTableRecord
  2
GENIUS_GENOBJ-N-FIL_13
 70
     0
  0
APPID
  5
438
330
9
100
AcDbSymbolTableRecord
100
AcDbRegAppTableRecord
  2
GEVID1208829536
 70
     0
  0
APPID
  5
439
330
9
100
AcDbSymbolTableRecord
100
AcDbRegAppTableRecord
  2
GEVDC
 70
     0
  0
APPID
  5
43A
330
9
100
AcDbSymbolTableRecord
100
AcDbRegAppTableRecord
  2
GEVRADREF
 70
     0
  0
APPID
  5
43B
330
9
100
AcDbSymbolTableRecord
100
AcDbRegAppTableRecord
  2
GENIUS_GENBH_13
 70
     0
  0
APPID
  5
43C
330
9
100
AcDbSymbolTableRecord
100
AcDbRegAppTableRecord
  2
GENIUS_GENOBJ-NBEHI-BHF_13
 70
     0
  0
APPID
  5
43D
330
9
100
AcDbSymbolTableRecord
100
AcDbRegAppTableRecord
  2
GENIUS_GENOBJ-NBEHI-BHB_13
 70
     0
  0
APPID
  5
43E
330
9
100
AcDbSymbolTableRecord
100
AcDbRegAppTableRecord
  2
GEVID1208829537
 70
     0
  0
APPID
  5
43F
330
9
100
AcDbSymbolTableRecord
100
AcDbRegAppTableRecord
  2
ACAD_DSTYLE_DIMJAG
 70
     0
  0
APPID
  5
440
330
9
100
AcDbSymbolTableRecord
100
AcDbRegAppTableRecord
  2
ACAD_DSTYLE_DIMTALN
 70
     0
  0
APPID
  5
441
330
9
100
AcDbSymbolTableRecord
100
AcDbRegAppTableRecord
  2
AMG_2DHIDE
 70
     0
  0
APPID
  5
442
330
9
100
AcDbSymbolTableRecord
100
AcDbRegAppTableRecord
  2
AMG_2DSTRUCT_BTR
 70
     0
  0
APPID
  5
443
330
9
100
AcDbSymbolTableRecord
100
AcDbRegAppTableRecord
  2
GEVID1208845772
 70
     0
  0
APPID
  5
444
330
9
100
AcDbSymbolTableRecord
100
AcDbRegAppTableRecord
  2
GEVID1208845773
 70
     0
  0
APPID
  5
445
330
9
100
AcDbSymbolTableRecord
100
AcDbRegAppTableRecord
  2
ACADM_2DVIEW_IGN_NOTIFY
 70
     0
  0
APPID
  5
446
330
9
100
AcDbSymbolTableRecord
100
AcDbRegAppTableRecord
  2
GEVID1208845774
 70
     0
  0
APPID
  5
447
330
9
100
AcDbSymbolTableRecord
100
AcDbRegAppTableRecord
  2
GEVID1208845775
 70
     0
  0
APPID
  5
448
330
9
100
AcDbSymbolTableRecord
100
AcDbRegAppTableRecord
  2
GEVID1208845776
 70
     0
  0
APPID
  5
449
330
9
100
AcDbSymbolTableRecord
100
AcDbRegAppTableRecord
  2
GEVID1208845777
 70
     0
  0
APPID
  5
44A
330
9
100
AcDbSymbolTableRecord
100
AcDbRegAppTableRecord
  2
GEVCON
 70
     0
  0
APPID
  5
44B
330
9
100
AcDbSymbolTableRecord
100
AcDbRegAppTableRecord
  2
GENIUS_GENOBJ-F-SCPASSM_13
 70
     0
  0
APPID
  5
44C
330
9
100
AcDbSymbolTableRecord
100
AcDbRegAppTableRecord
  2
GEVID1208845778
 70
     0
  0
APPID
  5
44D
330
9
100
AcDbSymbolTableRecord
100
AcDbRegAppTableRecord
  2
GEVID1208845779
 70
     0
  0
APPID
  5
44E
330
9
100
AcDbSymbolTableRecord
100
AcDbRegAppTableRecord
  2
GEVID1208845780
 70
     0
  0
APPID
  5
44F
330
9
100
AcDbSymbolTableRecord
100
AcDbRegAppTableRecord
  2
GEVID1208845781
 70
     0
  0
APPID
  5
450
330
9
100
AcDbSymbolTableRecord
100
AcDbRegAppTableRecord
  2
GEVID1208845782
 70
     0
  0
APPID
  5
451
330
9
100
AcDbSymbolTableRecord
100
AcDbRegAppTableRecord
  2
GEVID1208845783
 70
     0
  0
APPID
  5
452
330
9
100
AcDbSymbolTableRecord
100
AcDbRegAppTableRecord
  2
GEVID1208845784
 70
     0
  0
APPID
  5
453
330
9
100
AcDbSymbolTableRecord
100
AcDbRegAppTableRecord
  2
GEVID1208845785
 70
     0
  0
APPID
  5
454
330
9
100
AcDbSymbolTableRecord
100
AcDbRegAppTableRecord
  2
GEVID1208845787
 70
     0
  0
APPID
  5
455
330
9
100
AcDbSymbolTableRecord
100
AcDbRegAppTableRecord
  2
GEVID1208845788
 70
     0
  0
APPID
  5
456
330
9
100
AcDbSymbolTableRecord
100
AcDbRegAppTableRecord
  2
GEVID1208845789
 70
     0
  0
APPID
  5
457
330
9
100
AcDbSymbolTableRecord
100
AcDbRegAppTableRecord
  2
GEVID1208845790
 70
     0
  0
APPID
  5
458
330
9
100
AcDbSymbolTableRecord
100
AcDbRegAppTableRecord
  2
GEVID1208845791
 70
     0
  0
APPID
  5
459
330
9
100
AcDbSymbolTableRecord
100
AcDbRegAppTableRecord
  2
GEVID1208845792
 70
     0
  0
APPID
  5
45A
330
9
100
AcDbSymbolTableRecord
100
AcDbRegAppTableRecord
  2
GEVID1208845793
 70
     0
  0
APPID
  5
45B
330
9
100
AcDbSymbolTableRecord
100
AcDbRegAppTableRecord
  2
GEVID1208845794
 70
     0
  0
APPID
  5
45C
330
9
100
AcDbSymbolTableRecord
100
AcDbRegAppTableRecord
  2
GEVID1208845795
 70
     0
  0
APPID
  5
45D
330
9
100
AcDbSymbolTableRecord
100
AcDbRegAppTableRecord
  2
GEVID1208845796
 70
     0
  0
APPID
  5
45E
330
9
100
AcDbSymbolTableRecord
100
AcDbRegAppTableRecord
  2
GEVID1208845797
 70
     0
  0
APPID
  5
45F
330
9
100
AcDbSymbolTableRecord
100
AcDbRegAppTableRecord
  2
GEVID1208845798
 70
     0
  0
APPID
  5
460
330
9
100
AcDbSymbolTableRecord
100
AcDbRegAppTableRecord
  2
GEVID1208845799
 70
     0
  0
APPID
  5
461
330
9
100
AcDbSymbolTableRecord
100
AcDbRegAppTableRecord
  2
GEVID1208845800
 70
     0
  0
APPID
  5
462
330
9
100
AcDbSymbolTableRecord
100
AcDbRegAppTableRecord
  2
GEVID1208845801
 70
     0
  0
APPID
  5
463
330
9
100
AcDbSymbolTableRecord
100
AcDbRegAppTableRecord
  2
GEVID1208845802
 70
     0
  0
APPID
  5
464
330
9
100
AcDbSymbolTableRecord
100
AcDbRegAppTableRecord
  2
GENIUS_GENOBJ-N-DIM_13
 70
     0
  0
APPID
  5
465
330
9
100
AcDbSymbolTableRecord
100
AcDbRegAppTableRecord
  2
GENIUS_GENDIM_13
 70
     0
  0
APPID
  5
466
330
9
100
AcDbSymbolTableRecord
100
AcDbRegAppTableRecord
  2
GENIUS_GENDIMSH_14
 70
     0
  0
APPID
  5
467
330
9
100
AcDbSymbolTableRecord
100
AcDbRegAppTableRecord
  2
GEVID1208845803
 70
     0
  0
APPID
  5
468
330
9
100
AcDbSymbolTableRecord
100
AcDbRegAppTableRecord
  2
GEVID1208845804
 70
     0
  0
APPID
  5
469
330
9
100
AcDbSymbolTableRecord
100
AcDbRegAppTableRecord
  2
GEVID1208845805
 70
     0
  0
APPID
  5
46A
330
9
100
AcDbSymbolTableRecord
100
AcDbRegAppTableRecord
  2
GEVID1208845806
 70
     0
  0
APPID
  5
46B
330
9
100
AcDbSymbolTableRecord
100
AcDbRegAppTableRecord
  2
GEVID1208845807
 70
     0
  0
APPID
  5
46C
330
9
100
AcDbSymbolTableRecord
100
AcDbRegAppTableRecord
  2
GEVID1208845808
 70
     0
  0
APPID
  5
46D
330
9
100
AcDbSymbolTableRecord
100
AcDbRegAppTableRecord
  2
GEVID1208845809
 70
     0
  0
APPID
  5
46E
330
9
100
AcDbSymbolTableRecord
100
AcDbRegAppTableRecord
  2
GEVID1208845810
 70
     0
  0
APPID
  5
46F
330
9
100
AcDbSymbolTableRecord
100
AcDbRegAppTableRecord
  2
GEVID1208845811
 70
     0
  0
APPID
  5
470
330
9
100
AcDbSymbolTableRecord
100
AcDbRegAppTableRecord
  2
GEVID1208845813
 70
     0
  0
APPID
  5
471
330
9
100
AcDbSymbolTableRecord
100
AcDbRegAppTableRecord
  2
GEVID1208845814
 70
     0
  0
APPID
  5
472
330
9
100
AcDbSymbolTableRecord
100
AcDbRegAppTableRecord
  2
GEVID1208845815
 70
     0
  0
APPID
  5
473
330
9
100
AcDbSymbolTableRecord
100
AcDbRegAppTableRecord
  2
GEVID1208845816
 70
     0
  0
APPID
  5
474
330
9
100
AcDbSymbolTableRecord
100
AcDbRegAppTableRecord
  2
GEVID1208845817
 70
     0
  0
APPID
  5
475
330
9
100
AcDbSymbolTableRecord
100
AcDbRegAppTableRecord
  2
GEVID1208845818
 70
     0
  0
APPID
  5
476
330
9
100
AcDbSymbolTableRecord
100
AcDbRegAppTableRecord
  2
GEVID1208845819
 70
     0
  0
APPID
  5
477
330
9
100
AcDbSymbolTableRecord
100
AcDbRegAppTableRecord
  2
GEVID1208845820
 70
     0
  0
APPID
  5
478
330
9
100
AcDbSymbolTableRecord
100
AcDbRegAppTableRecord
  2
GENIUS_GENOBJ-F-SHCL_13
 70
     0
  0
APPID
  5
479
330
9
100
AcDbSymbolTableRecord
100
AcDbRegAppTableRecord
  2
GENIUS_GEFMSH_13
 70
     0
  0
APPID
  5
47A
330
9
100
AcDbSymbolTableRecord
100
AcDbRegAppTableRecord
  2
GENIUS_GENOBJ-F-SHCA_13
 70
     0
  0
APPID
  5
47B
330
9
100
AcDbSymbolTableRecord
100
AcDbRegAppTableRecord
  2
GENIUS_GEFSH_13
 70
     0
  0
APPID
  5
47C
330
9
100
AcDbSymbolTableRecord
100
AcDbRegAppTableRecord
  2
GENIUS_GEFSHP_13
 70
     0
  0
APPID
  5
47D
330
9
100
AcDbSymbolTableRecord
100
AcDbRegAppTableRecord
  2
GENIUS_GEFSHP0_13
 70
     0
  0
APPID
  5
47E
330
9
100
AcDbSymbolTableRecord
100
AcDbRegAppTableRecord
  2
GENIUS_GEFSH0_13
 70
     0
  0
APPID
  5
47F
330
9
100
AcDbSymbolTableRecord
100
AcDbRegAppTableRecord
  2
GENIUS_GEFSHP1_13
 70
     0
  0
APPID
  5
480
330
9
100
AcDbSymbolTableRecord
100
AcDbRegAppTableRecord
  2
GENIUS_GEFSH1_13
 70
     0
  0
APPID
  5
481
330
9
100
AcDbSymbolTableRecord
100
AcDbRegAppTableRecord
  2
GEVID1208866337
 70
     0
  0
APPID
  5
482
330
9
100
AcDbSymbolTableRecord
100
AcDbRegAppTableRecord
  2
GEVID1208866338
 70
     0
  0
APPID
  5
483
330
9
100
AcDbSymbolTableRecord
100
AcDbRegAppTableRecord
  2
GEVID1208866339
 70
     0
  0
APPID
  5
484
330
9
100
AcDbSymbolTableRecord
100
AcDbRegAppTableRecord
  2
GEVID1208866340
 70
     0
  0
APPID
  5
485
330
9
100
AcDbSymbolTableRecord
100
AcDbRegAppTableRecord
  2
GEVID1208866341
 70
     0
  0
APPID
  5
486
330
9
100
AcDbSymbolTableRecord
100
AcDbRegAppTableRecord
  2
ACAD_PSEXT
 70
     0
  0
APPID
  5
487
330
9
100
AcDbSymbolTableRecord
100
AcDbRegAppTableRecord
  2
GEVID1208866342
 70
     0
  0
APPID
  5
488
330
9
100
AcDbSymbolTableRecord
100
AcDbRegAppTableRecord
  2
GEVID1208913836
 70
     0
  0
APPID
  5
489
330
9
100
AcDbSymbolTableRecord
100
AcDbRegAppTableRecord
  2
GEVID1208913837
 70
     0
  0
APPID
  5
48A
330
9
100
AcDbSymbolTableRecord
100
AcDbRegAppTableRecord
  2
GEVID1208913838
 70
     0
  0
APPID
  5
48B
330
9
100
AcDbSymbolTableRecord
100
AcDbRegAppTableRecord
  2
GEVID1208913839
 70
     0
  0
APPID
  5
48C
330
9
100
AcDbSymbolTableRecord
100
AcDbRegAppTableRecord
  2
GENIUS_GENDTOL_13
 70
     0
  0
APPID
  5
48D
330
9
100
AcDbSymbolTableRecord
100
AcDbRegAppTableRecord
  2
GEVID1208928889
 70
     0
  0
APPID
  5
48E
330
9
100
AcDbSymbolTableRecord
100
AcDbRegAppTableRecord
  2
GEVID1208928890
 70
     0
  0
APPID
  5
48F
330
9
100
AcDbSymbolTableRecord
100
AcDbRegAppTableRecord
  2
GEVID1208928891
 70
     0
  0
APPID
  5
490
330
9
100
AcDbSymbolTableRecord
100
AcDbRegAppTableRecord
  2
GEVID1208928892
 70
     0
  0
APPID
  5
491
330
9
100
AcDbSymbolTableRecord
100
AcDbRegAppTableRecord
  2
GEVID1208933827
 70
     0
  0
APPID
  5
492
330
9
100
AcDbSymbolTableRecord
100
AcDbRegAppTableRecord
  2
GEVID1208933829
 70
     0
  0
APPID
  5
493
330
9
100
AcDbSymbolTableRecord
100
AcDbRegAppTableRecord
  2
GEVID1208933830
 70
     0
  0
APPID
  5
494
330
9
100
AcDbSymbolTableRecord
100
AcDbRegAppTableRecord
  2
GEVID1208933831
 70
     0
  0
APPID
  5
495
330
9
100
AcDbSymbolTableRecord
100
AcDbRegAppTableRecord
  2
GEVID1208933832
 70
     0
  0
APPID
  5
496
330
9
100
AcDbSymbolTableRecord
100
AcDbRegAppTableRecord
  2
GEVID1208933833
 70
     0
  0
APPID
  5
497
330
9
100
AcDbSymbolTableRecord
100
AcDbRegAppTableRecord
  2
GEVID1208933834
 70
     0
  0
APPID
  5
498
330
9
100
AcDbSymbolTableRecord
100
AcDbRegAppTableRecord
  2
GEVID1208933835
 70
     0
  0
APPID
  5
499
330
9
100
AcDbSymbolTableRecord
100
AcDbRegAppTableRecord
  2
GEVID1208933836
 70
     0
  0
APPID
  5
49A
330
9
100
AcDbSymbolTableRecord
100
AcDbRegAppTableRecord
  2
GEVID1208933837
 70
     0
  0
APPID
  5
49B
330
9
100
AcDbSymbolTableRecord
100
AcDbRegAppTableRecord
  2
GEVID1208933838
 70
     0
  0
APPID
  5
49C
330
9
100
AcDbSymbolTableRecord
100
AcDbRegAppTableRecord
  2
GEVID1208933840
 70
     0
  0
APPID
  5
49D
330
9
100
AcDbSymbolTableRecord
100
AcDbRegAppTableRecord
  2
GEVID1208933842
 70
     0
  0
APPID
  5
49E
330
9
100
AcDbSymbolTableRecord
100
AcDbRegAppTableRecord
  2
GEVID1208933843
 70
     0
  0
APPID
  5
49F
330
9
100
AcDbSymbolTableRecord
100
AcDbRegAppTableRecord
  2
GEVID1208933844
 70
     0
  0
APPID
  5
4A0
330
9
100
AcDbSymbolTableRecord
100
AcDbRegAppTableRecord
  2
GEVID1208933845
 70
     0
  0
APPID
  5
4A1
330
9
100
AcDbSymbolTableRecord
100
AcDbRegAppTableRecord
  2
GEVID1208933846
 70
     0
  0
APPID
  5
4A2
330
9
100
AcDbSymbolTableRecord
100
AcDbRegAppTableRecord
  2
GEVID1208933847
 70
     0
  0
APPID
  5
4A3
330
9
100
AcDbSymbolTableRecord
100
AcDbRegAppTableRecord
  2
GEVID1208933848
 70
     0
  0
APPID
  5
4A4
330
9
100
AcDbSymbolTableRecord
100
AcDbRegAppTableRecord
  2
GEVID1208933849
 70
     0
  0
APPID
  5
4A5
330
9
100
AcDbSymbolTableRecord
100
AcDbRegAppTableRecord
  2
GEVID1208933850
 70
     0
  0
APPID
  5
4A6
330
9
100
AcDbSymbolTableRecord
100
AcDbRegAppTableRecord
  2
GEVID1208933851
 70
     0
  0
APPID
  5
4A7
330
9
100
AcDbSymbolTableRecord
100
AcDbRegAppTableRecord
  2
GEVID1208933852
 70
     0
  0
APPID
  5
4A8
330
9
100
AcDbSymbolTableRecord
100
AcDbRegAppTableRecord
  2
GEVID1208933853
 70
     0
  0
APPID
  5
4A9
330
9
100
AcDbSymbolTableRecord
100
AcDbRegAppTableRecord
  2
GEVID1208933854
 70
     0
  0
APPID
  5
4AA
330
9
100
AcDbSymbolTableRecord
100
AcDbRegAppTableRecord
  2
GEVID1208933855
 70
     0
  0
APPID
  5
4AB
330
9
100
AcDbSymbolTableRecord
100
AcDbRegAppTableRecord
  2
GEVID1208933856
 70
     0
  0
APPID
  5
4AC
330
9
100
AcDbSymbolTableRecord
100
AcDbRegAppTableRecord
  2
GEVID1208933857
 70
     0
  0
APPID
  5
4AD
330
9
100
AcDbSymbolTableRecord
100
AcDbRegAppTableRecord
  2
GEVID1208933858
 70
     0
  0
APPID
  5
4AE
330
9
100
AcDbSymbolTableRecord
100
AcDbRegAppTableRecord
  2
GEVID1208933859
 70
     0
  0
APPID
  5
4AF
330
9
100
AcDbSymbolTableRecord
100
AcDbRegAppTableRecord
  2
GEVID1208933860
 70
     0
  0
APPID
  5
4B0
330
9
100
AcDbSymbolTableRecord
100
AcDbRegAppTableRecord
  2
GEVID1208933861
 70
     0
  0
APPID
  5
4B1
330
9
100
AcDbSymbolTableRecord
100
AcDbRegAppTableRecord
  2
GEVID1208933862
 70
     0
  0
APPID
  5
4B2
330
9
100
AcDbSymbolTableRecord
100
AcDbRegAppTableRecord
  2
GEVID1208933863
 70
     0
  0
APPID
  5
4B3
330
9
100
AcDbSymbolTableRecord
100
AcDbRegAppTableRecord
  2
GEVID1208933864
 70
     0
  0
APPID
  5
4B4
330
9
100
AcDbSymbolTableRecord
100
AcDbRegAppTableRecord
  2
GEVID1208933865
 70
     0
  0
APPID
  5
4B5
330
9
100
AcDbSymbolTableRecord
100
AcDbRegAppTableRecord
  2
GEVID1208933866
 70
     0
  0
APPID
  5
4B6
330
9
100
AcDbSymbolTableRecord
100
AcDbRegAppTableRecord
  2
GEVID1208933867
 70
     0
  0
APPID
  5
4B7
330
9
100
AcDbSymbolTableRecord
100
AcDbRegAppTableRecord
  2
GEVID1208933868
 70
     0
  0
APPID
  5
4B8
330
9
100
AcDbSymbolTableRecord
100
AcDbRegAppTableRecord
  2
GEVID1208933869
 70
     0
  0
APPID
  5
4B9
330
9
100
AcDbSymbolTableRecord
100
AcDbRegAppTableRecord
  2
GEVID1208933870
 70
     0
  0
APPID
  5
4BA
330
9
100
AcDbSymbolTableRecord
100
AcDbRegAppTableRecord
  2
GEVID1208933871
 70
     0
  0
APPID
  5
4BB
330
9
100
AcDbSymbolTableRecord
100
AcDbRegAppTableRecord
  2
GEVID1208933872
 70
     0
  0
APPID
  5
4BC
330
9
100
AcDbSymbolTableRecord
100
AcDbRegAppTableRecord
  2
GEVID1208933873
 70
     0
  0
APPID
  5
4BD
330
9
100
AcDbSymbolTableRecord
100
AcDbRegAppTableRecord
  2
GEVID1208933874
 70
     0
  0
APPID
  5
4BE
330
9
100
AcDbSymbolTableRecord
100
AcDbRegAppTableRecord
  2
GEVID1208933875
 70
     0
  0
APPID
  5
4BF
330
9
100
AcDbSymbolTableRecord
100
AcDbRegAppTableRecord
  2
GEVID1208933876
 70
     0
  0
APPID
  5
4C0
330
9
100
AcDbSymbolTableRecord
100
AcDbRegAppTableRecord
  2
ACAD_DSTYLE_DIMRADIAL_EXTENSION
 70
     0
  0
APPID
  5
4C1
330
9
100
AcDbSymbolTableRecord
100
AcDbRegAppTableRecord
  2
GEVID1208999100
 70
     0
  0
APPID
  5
4C2
330
9
100
AcDbSymbolTableRecord
100
AcDbRegAppTableRecord
  2
GEVID1208999101
 70
     0
  0
APPID
  5
4C3
330
9
100
AcDbSymbolTableRecord
100
AcDbRegAppTableRecord
  2
GEVID1208999102
 70
     0
  0
APPID
  5
4C4
330
9
100
AcDbSymbolTableRecord
100
AcDbRegAppTableRecord
  2
GEVID1208999103
 70
     0
  0
APPID
  5
4C5
330
9
100
AcDbSymbolTableRecord
100
AcDbRegAppTableRecord
  2
GEVID1208999105
 70
     0
  0
APPID
  5
4C6
330
9
100
AcDbSymbolTableRecord
100
AcDbRegAppTableRecord
  2
GEVID1208999106
 70
     0
  0
APPID
  5
4C7
330
9
100
AcDbSymbolTableRecord
100
AcDbRegAppTableRecord
  2
GEVID1208999108
 70
     0
  0
APPID
  5
4C8
330
9
100
AcDbSymbolTableRecord
100
AcDbRegAppTableRecord
  2
GEVID1208999109
 70
     0
  0
APPID
  5
4C9
330
9
100
AcDbSymbolTableRecord
100
AcDbRegAppTableRecord
  2
GEVID1208999110
 70
     0
  0
APPID
  5
4CA
330
9
100
AcDbSymbolTableRecord
100
AcDbRegAppTableRecord
  2
GEVID1208999111
 70
     0
  0
APPID
  5
4CB
330
9
100
AcDbSymbolTableRecord
100
AcDbRegAppTableRecord
  2
GEVID1208999112
 70
     0
  0
APPID
  5
4CC
330
9
100
AcDbSymbolTableRecord
100
AcDbRegAppTableRecord
  2
GEVID1208999113
 70
     0
  0
APPID
  5
4CD
330
9
100
AcDbSymbolTableRecord
100
AcDbRegAppTableRecord
  2
GEVID1208999114
 70
     0
  0
APPID
  5
4CE
330
9
100
AcDbSymbolTableRecord
100
AcDbRegAppTableRecord
  2
GEVID1210218799
 70
     0
  0
APPID
  5
4CF
330
9
100
AcDbSymbolTableRecord
100
AcDbRegAppTableRecord
  2
GEVID1210218800
 70
     0
  0
APPID
  5
4D0
330
9
100
AcDbSymbolTableRecord
100
AcDbRegAppTableRecord
  2
GENIUS_GEFWELD_13
 70
     0
  0
APPID
  5
4D1
330
9
100
AcDbSymbolTableRecord
100
AcDbRegAppTableRecord
  2
GENIUS_GENOBJ-F-WELS_13
 70
     0
  0
APPID
  5
4D2
330
9
100
AcDbSymbolTableRecord
100
AcDbRegAppTableRecord
  2
AcadAnnotative
 70
     0
  0
APPID
  5
4D3
330
9
100
AcDbSymbolTableRecord
100
AcDbRegAppTableRecord
  2
GEVID1210145339
 70
     0
  0
APPID
  5
4D4
330
9
100
AcDbSymbolTableRecord
100
AcDbRegAppTableRecord
  2
ACAD_DSTYLE_DIMBREAK
 70
     0
  0
APPID
  5
4D5
330
9
100
AcDbSymbolTableRecord
100
AcDbRegAppTableRecord
  2
GEVID1210145340
 70
     0
  0
APPID
  5
4D6
330
9
100
AcDbSymbolTableRecord
100
AcDbRegAppTableRecord
  2
GEVID1210145341
 70
     0
  0
APPID
  5
4D7
330
9
100
AcDbSymbolTableRecord
100
AcDbRegAppTableRecord
  2
GEVID1210145342
 70
     0
  0
APPID
  5
4D8
330
9
100
AcDbSymbolTableRecord
100
AcDbRegAppTableRecord
  2
GEVID1210145343
 70
     0
  0
APPID
  5
4D9
330
9
100
AcDbSymbolTableRecord
100
AcDbRegAppTableRecord
  2
GEVID1210145344
 70
     0
  0
APPID
  5
4DA
330
9
100
AcDbSymbolTableRecord
100
AcDbRegAppTableRecord
  2
GEVID1210145345
 70
     0
  0
APPID
  5
4DB
330
9
100
AcDbSymbolTableRecord
100
AcDbRegAppTableRecord
  2
GEVID1210152816
 70
     0
  0
APPID
  5
4DC
330
9
100
AcDbSymbolTableRecord
100
AcDbRegAppTableRecord
  2
GEVID1210153850
 70
     0
  0
APPID
  5
4DD
330
9
100
AcDbSymbolTableRecord
100
AcDbRegAppTableRecord
  2
GEVID1210153851
 70
     0
  0
APPID
  5
4DE
330
9
100
AcDbSymbolTableRecord
100
AcDbRegAppTableRecord
  2
GEVID1210153852
 70
     0
  0
APPID
  5
4DF
330
9
100
AcDbSymbolTableRecord
100
AcDbRegAppTableRecord
  2
GEVID1210549898
 70
     0
  0
APPID
  5
4E0
330
9
100
AcDbSymbolTableRecord
100
AcDbRegAppTableRecord
  2
GEVID1210549899
 70
     0
  0
APPID
  5
4E1
330
9
100
AcDbSymbolTableRecord
100
AcDbRegAppTableRecord
  2
GEVID1210549900
 70
     0
  0
APPID
  5
4E2
330
9
100
AcDbSymbolTableRecord
100
AcDbRegAppTableRecord
  2
GEVID1210549901
 70
     0
  0
APPID
  5
4E3
330
9
100
AcDbSymbolTableRecord
100
AcDbRegAppTableRecord
  2
GEVID1210549902
 70
     0
  0
APPID
  5
4E4
330
9
100
AcDbSymbolTableRecord
100
AcDbRegAppTableRecord
  2
GEVID1210549903
 70
     0
  0
APPID
  5
4E5
330
9
100
AcDbSymbolTableRecord
100
AcDbRegAppTableRecord
  2
GEVID1210549904
 70
     0
  0
APPID
  5
4E6
330
9
100
AcDbSymbolTableRecord
100
AcDbRegAppTableRecord
  2
GEVID1210549905
 70
     0
  0
APPID
  5
4E7
330
9
100
AcDbSymbolTableRecord
100
AcDbRegAppTableRecord
  2
GEVID1210549906
 70
     0
  0
APPID
  5
4E8
330
9
100
AcDbSymbolTableRecord
100
AcDbRegAppTableRecord
  2
GEVID1210549907
 70
     0
  0
APPID
  5
4E9
330
9
100
AcDbSymbolTableRecord
100
AcDbRegAppTableRecord
  2
GEVID1210549908
 70
     0
  0
APPID
  5
4EA
330
9
100
AcDbSymbolTableRecord
100
AcDbRegAppTableRecord
  2
GEVID1210549909
 70
     0
  0
APPID
  5
4EB
330
9
100
AcDbSymbolTableRecord
100
AcDbRegAppTableRecord
  2
GEVID1210549910
 70
     0
  0
APPID
  5
4EC
330
9
100
AcDbSymbolTableRecord
100
AcDbRegAppTableRecord
  2
GEVID1210549911
 70
     0
  0
APPID
  5
4ED
330
9
100
AcDbSymbolTableRecord
100
AcDbRegAppTableRecord
  2
GEVID1210549912
 70
     0
  0
APPID
  5
4EE
330
9
100
AcDbSymbolTableRecord
100
AcDbRegAppTableRecord
  2
GEVID1210549913
 70
     0
  0
APPID
  5
4EF
330
9
100
AcDbSymbolTableRecord
100
AcDbRegAppTableRecord
  2
GEVID1210549914
 70
     0
  0
APPID
  5
4F0
330
9
100
AcDbSymbolTableRecord
100
AcDbRegAppTableRecord
  2
GEVID1210549915
 70
     0
  0
APPID
  5
4F1
330
9
100
AcDbSymbolTableRecord
100
AcDbRegAppTableRecord
  2
GEVID1210549916
 70
     0
  0
APPID
  5
4F2
330
9
100
AcDbSymbolTableRecord
100
AcDbRegAppTableRecord
  2
GEVID1210549917
 70
     0
  0
APPID
  5
4F3
330
9
100
AcDbSymbolTableRecord
100
AcDbRegAppTableRecord
  2
GENIUS_GENOBJ-N-CRS_13
 70
     0
  0
APPID
  5
4F4
330
9
100
AcDbSymbolTableRecord
100
AcDbRegAppTableRecord
  2
GEVID1210549918
 70
     0
  0
APPID
  5
4F5
330
9
100
AcDbSymbolTableRecord
100
AcDbRegAppTableRecord
  2
GENIUS_GENOBJ-N-CRC_13
 70
     0
  0
APPID
  5
4F6
330
9
100
AcDbSymbolTableRecord
100
AcDbRegAppTableRecord
  2
GENIUS_GENCRC_14
 70
     0
  0
APPID
  5
4F7
330
9
100
AcDbSymbolTableRecord
100
AcDbRegAppTableRecord
  2
GEVID1210549919
 70
     0
  0
APPID
  5
4F8
330
9
100
AcDbSymbolTableRecord
100
AcDbRegAppTableRecord
  2
GEVID1210549921
 70
     0
  0
APPID
  5
4F9
330
9
100
AcDbSymbolTableRecord
100
AcDbRegAppTableRecord
  2
GEVID1210549922
 70
     0
  0
APPID
  5
4FA
330
9
100
AcDbSymbolTableRecord
100
AcDbRegAppTableRecord
  2
GEVID1210635173
 70
     0
  0
APPID
  5
4FB
330
9
100
AcDbSymbolTableRecord
100
AcDbRegAppTableRecord
  2
GEVID1210635174
 70
     0
  0
APPID
  5
4FC
330
9
100
AcDbSymbolTableRecord
100
AcDbRegAppTableRecord
  2
GEVID1210635175
 70
     0
  0
APPID
  5
4FD
330
9
100
AcDbSymbolTableRecord
100
AcDbRegAppTableRecord
  2
GEVID1210635176
 70
     0
  0
APPID
  5
4FE
330
9
100
AcDbSymbolTableRecord
100
AcDbRegAppTableRecord
  2
GEVID1210635177
 70
     0
  0
APPID
  5
4FF
330
9
100
AcDbSymbolTableRecord
100
AcDbRegAppTableRecord
  2
GEVID1210635178
 70
     0
  0
APPID
  5
500
330
9
100
AcDbSymbolTableRecord
100
AcDbRegAppTableRecord
  2
GENIUS_GENIUS_GENBHEDTMP_13
 70
     0
  0
APPID
  5
501
330
9
100
AcDbSymbolTableRecord
100
AcDbRegAppTableRecord
  2
GEVID1210635179
 70
     0
  0
APPID
  5
502
330
9
100
AcDbSymbolTableRecord
100
AcDbRegAppTableRecord
  2
GEVID1210635180
 70
     0
  0
APPID
  5
503
330
9
100
AcDbSymbolTableRecord
100
AcDbRegAppTableRecord
  2
GEVID1210635181
 70
     0
  0
APPID
  5
504
330
9
100
AcDbSymbolTableRecord
100
AcDbRegAppTableRecord
  2
GEVID1210635182
 70
     0
  0
APPID
  5
505
330
9
100
AcDbSymbolTableRecord
100
AcDbRegAppTableRecord
  2
GEVID1210635184
 70
     0
  0
APPID
  5
506
330
9
100
AcDbSymbolTableRecord
100
AcDbRegAppTableRecord
  2
GEVID1210635185
 70
     0
  0
APPID
  5
507
330
9
100
AcDbSymbolTableRecord
100
AcDbRegAppTableRecord
  2
GEVID1210635186
 70
     0
  0
APPID
  5
508
330
9
100
AcDbSymbolTableRecord
100
AcDbRegAppTableRecord
  2
GEVID1210635187
 70
     0
  0
APPID
  5
509
330
9
100
AcDbSymbolTableRecord
100
AcDbRegAppTableRecord
  2
GEVID1210635188
 70
     0
  0
APPID
  5
50A
330
9
100
AcDbSymbolTableRecord
100
AcDbRegAppTableRecord
  2
GEVID1210635189
 70
     0
  0
APPID
  5
50B
330
9
100
AcDbSymbolTableRecord
100
AcDbRegAppTableRecord
  2
GEVID1210635190
 70
     0
  0
APPID
  5
50C
330
9
100
AcDbSymbolTableRecord
100
AcDbRegAppTableRecord
  2
GENIUS_GENREC_14
 70
     0
  0
APPID
  5
50D
330
9
100
AcDbSymbolTableRecord
100
AcDbRegAppTableRecord
  2
GENIUS_GENOBJ-N-REC_13
 70
     0
  0
APPID
  5
50E
330
9
100
AcDbSymbolTableRecord
100
AcDbRegAppTableRecord
  2
GEVID1210676655
 70
     0
  0
APPID
  5
50F
330
9
100
AcDbSymbolTableRecord
100
AcDbRegAppTableRecord
  2
GEVID1210676656
 70
     0
  0
APPID
  5
510
330
9
100
AcDbSymbolTableRecord
100
AcDbRegAppTableRecord
  2
GEVID1210676657
 70
     0
  0
APPID
  5
511
330
9
100
AcDbSymbolTableRecord
100
AcDbRegAppTableRecord
  2
GEVID1210676659
 70
     0
  0
APPID
  5
512
330
9
100
AcDbSymbolTableRecord
100
AcDbRegAppTableRecord
  2
GEVID1210676660
 70
     0
  0
APPID
  5
513
330
9
100
AcDbSymbolTableRecord
100
AcDbRegAppTableRecord
  2
GEVID1210676661
 70
     0
  0
APPID
  5
514
330
9
100
AcDbSymbolTableRecord
100
AcDbRegAppTableRecord
  2
GEVID1210676662
 70
     0
  0
APPID
  5
515
330
9
100
AcDbSymbolTableRecord
100
AcDbRegAppTableRecord
  2
GEVID1210721646
 70
     0
  0
APPID
  5
516
330
9
100
AcDbSymbolTableRecord
100
AcDbRegAppTableRecord
  2
GEVID1210721647
 70
     0
  0
APPID
  5
517
330
9
100
AcDbSymbolTableRecord
100
AcDbRegAppTableRecord
  2
GEVID1210721648
 70
     0
  0
APPID
  5
518
330
9
100
AcDbSymbolTableRecord
100
AcDbRegAppTableRecord
  2
GEVID1210721649
 70
     0
  0
APPID
  5
519
330
9
100
AcDbSymbolTableRecord
100
AcDbRegAppTableRecord
  2
GEVID1210721650
 70
     0
  0
APPID
  5
51A
330
9
100
AcDbSymbolTableRecord
100
AcDbRegAppTableRecord
  2
GEVID1210721651
 70
     0
  0
APPID
  5
51B
330
9
100
AcDbSymbolTableRecord
100
AcDbRegAppTableRecord
  2
GEVID1210721652
 70
     0
  0
APPID
  5
51C
330
9
100
AcDbSymbolTableRecord
100
AcDbRegAppTableRecord
  2
GEVID1210721653
 70
     0
  0
APPID
  5
51D
330
9
100
AcDbSymbolTableRecord
100
AcDbRegAppTableRecord
  2
PE_URL
 70
     0
  0
APPID
  5
51E
330
9
100
AcDbSymbolTableRecord
100
AcDbRegAppTableRecord
  2
GEVID1210825555
 70
     0
  0
APPID
  5
51F
330
9
100
AcDbSymbolTableRecord
100
AcDbRegAppTableRecord
  2
GEVID1210825556
 70
     0
  0
APPID
  5
520
330
9
100
AcDbSymbolTableRecord
100
AcDbRegAppTableRecord
  2
GEVID1210825557
 70
     0
  0
APPID
  5
521
330
9
100
AcDbSymbolTableRecord
100
AcDbRegAppTableRecord
  2
GEVID1210825558
 70
     0
  0
APPID
  5
522
330
9
100
AcDbSymbolTableRecord
100
AcDbRegAppTableRecord
  2
GEVID1210825559
 70
     0
  0
APPID
  5
523
330
9
100
AcDbSymbolTableRecord
100
AcDbRegAppTableRecord
  2
GEVID1210825560
 70
     0
  0
APPID
  5
524
330
9
100
AcDbSymbolTableRecord
100
AcDbRegAppTableRecord
  2
GEVID1210825561
 70
     0
  0
APPID
  5
525
330
9
100
AcDbSymbolTableRecord
100
AcDbRegAppTableRecord
  2
GEVID1210825562
 70
     0
  0
APPID
  5
526
330
9
100
AcDbSymbolTableRecord
100
AcDbRegAppTableRecord
  2
GEVID1210825563
 70
     0
  0
APPID
  5
527
330
9
100
AcDbSymbolTableRecord
100
AcDbRegAppTableRecord
  2
GEVID1210825564
 70
     0
  0
APPID
  5
528
330
9
100
AcDbSymbolTableRecord
100
AcDbRegAppTableRecord
  2
GEVID1210825565
 70
     0
  0
APPID
  5
529
330
9
100
AcDbSymbolTableRecord
100
AcDbRegAppTableRecord
  2
GEVID1210825566
 70
     0
  0
APPID
  5
52A
330
9
100
AcDbSymbolTableRecord
100
AcDbRegAppTableRecord
  2
GEVID1210825567
 70
     0
  0
APPID
  5
52B
330
9
100
AcDbSymbolTableRecord
100
AcDbRegAppTableRecord
  2
GENIUS_GENOBJ-N-ZOO_13
 70
     0
  0
APPID
  5
52C
330
9
100
AcDbSymbolTableRecord
100
AcDbRegAppTableRecord
  2
GENIUS_GENZOO_17
 70
     0
  0
APPID
  5
52D
330
9
100
AcDbSymbolTableRecord
100
AcDbRegAppTableRecord
  2
ACADANNOTATIVEDECOMPOSITION
 70
     0
  0
APPID
  5
52E
330
9
100
AcDbSymbolTableRecord
100
AcDbRegAppTableRecord
  2
GENIUS_GENOBJ-N-HTC_13
 70
     0
  0
APPID
  5
52F
330
9
100
AcDbSymbolTableRecord
100
AcDbRegAppTableRecord
  2
GENIUS_GENHATCH_13
 70
     0
  0
APPID
  5
530
330
9
100
AcDbSymbolTableRecord
100
AcDbRegAppTableRecord
  2
GEVID1210896020
 70
     0
  0
APPID
  5
531
330
9
100
AcDbSymbolTableRecord
100
AcDbRegAppTableRecord
  2
GEVID1210896021
 70
     0
  0
APPID
  5
532
330
9
100
AcDbSymbolTableRecord
100
AcDbRegAppTableRecord
  2
GEVID1209083540
 70
     0
  0
APPID
  5
533
330
9
100
AcDbSymbolTableRecord
100
AcDbRegAppTableRecord
  2
GEVMK
 70
     0
  0
APPID
  5
534
330
9
100
AcDbSymbolTableRecord
100
AcDbRegAppTableRecord
  2
GEVID1209083542
 70
     0
  0
APPID
  5
535
330
9
100
AcDbSymbolTableRecord
100
AcDbRegAppTableRecord
  2
GEVID1209083543
 70
     0
  0
APPID
  5
536
330
9
100
AcDbSymbolTableRecord
100
AcDbRegAppTableRecord
  2
GEVID1209083544
 70
     0
  0
APPID
  5
537
330
9
100
AcDbSymbolTableRecord
100
AcDbRegAppTableRecord
  2
GEVID1209083545
 70
     0
  0
APPID
  5
538
330
9
100
AcDbSymbolTableRecord
100
AcDbRegAppTableRecord
  2
GEVID1209083546
 70
     0
  0
APPID
  5
539
330
9
100
AcDbSymbolTableRecord
100
AcDbRegAppTableRecord
  2
GEVID1209083547
 70
     0
  0
APPID
  5
53A
330
9
100
AcDbSymbolTableRecord
100
AcDbRegAppTableRecord
  2
GEVID1209083548
 70
     0
  0
APPID
  5
53B
330
9
100
AcDbSymbolTableRecord
100
AcDbRegAppTableRecord
  2
GEVID1209083549
 70
     0
  0
APPID
  5
53C
330
9
100
AcDbSymbolTableRecord
100
AcDbRegAppTableRecord
  2
GEVID1209083550
 70
     0
  0
APPID
  5
53D
330
9
100
AcDbSymbolTableRecord
100
AcDbRegAppTableRecord
  2
GEVID1209083551
 70
     0
  0
APPID
  5
53E
330
9
100
AcDbSymbolTableRecord
100
AcDbRegAppTableRecord
  2
GEVID1209083552
 70
     0
  0
APPID
  5
53F
330
9
100
AcDbSymbolTableRecord
100
AcDbRegAppTableRecord
  2
GEVID1209083553
 70
     0
  0
APPID
  5
540
330
9
100
AcDbSymbolTableRecord
100
AcDbRegAppTableRecord
  2
GEVID1210896022
 70
     0
  0
APPID
  5
541
330
9
100
AcDbSymbolTableRecord
100
AcDbRegAppTableRecord
  2
GEVID1211508364
 70
     0
  0
APPID
  5
542
330
9
100
AcDbSymbolTableRecord
100
AcDbRegAppTableRecord
  2
GEVID1211414908
 70
     0
  0
APPID
  5
543
330
9
100
AcDbSymbolTableRecord
100
AcDbRegAppTableRecord
  2
GEVID1211414909
 70
     0
  0
APPID
  5
544
330
9
100
AcDbSymbolTableRecord
100
AcDbRegAppTableRecord
  2
GEVID1211508359
 70
     0
  0
APPID
  5
545
330
9
100
AcDbSymbolTableRecord
100
AcDbRegAppTableRecord
  2
GEVID1211508360
 70
     0
  0
APPID
  5
546
330
9
100
AcDbSymbolTableRecord
100
AcDbRegAppTableRecord
  2
GEVID1211508361
 70
     0
  0
APPID
  5
547
330
9
100
AcDbSymbolTableRecord
100
AcDbRegAppTableRecord
  2
GEVID1211508362
 70
     0
  0
APPID
  5
548
330
9
100
AcDbSymbolTableRecord
100
AcDbRegAppTableRecord
  2
GEVID1211508363
 70
     0
  0
APPID
  5
549
330
9
100
AcDbSymbolTableRecord
100
AcDbRegAppTableRecord
  2
GEVID1211878469
 70
     0
  0
APPID
  5
54A
330
9
100
AcDbSymbolTableRecord
100
AcDbRegAppTableRecord
  2
GEVID1212642819
 70
     0
  0
APPID
  5
54B
330
9
100
AcDbSymbolTableRecord
100
AcDbRegAppTableRecord
  2
GEVID1212642820
 70
     0
  0
APPID
  5
54C
330
9
100
AcDbSymbolTableRecord
100
AcDbRegAppTableRecord
  2
GEVID1212642821
 70
     0
  0
APPID
  5
54D
330
9
100
AcDbSymbolTableRecord
100
AcDbRegAppTableRecord
  2
GEVID1212642822
 70
     0
  0
APPID
  5
54E
330
9
100
AcDbSymbolTableRecord
100
AcDbRegAppTableRecord
  2
GEVID1212642823
 70
     0
  0
APPID
  5
54F
330
9
100
AcDbSymbolTableRecord
100
AcDbRegAppTableRecord
  2
GEVID1212642825
 70
     0
  0
APPID
  5
550
330
9
100
AcDbSymbolTableRecord
100
AcDbRegAppTableRecord
  2
GEVID1212642826
 70
     0
  0
APPID
  5
551
330
9
100
AcDbSymbolTableRecord
100
AcDbRegAppTableRecord
  2
GEVID1212642827
 70
     0
  0
APPID
  5
552
330
9
100
AcDbSymbolTableRecord
100
AcDbRegAppTableRecord
  2
GEVID1212642828
 70
     0
  0
APPID
  5
553
330
9
100
AcDbSymbolTableRecord
100
AcDbRegAppTableRecord
  2
GEVID1212642831
 70
     0
  0
APPID
  5
554
330
9
100
AcDbSymbolTableRecord
100
AcDbRegAppTableRecord
  2
GEVID1212642834
 70
     0
  0
APPID
  5
555
330
9
100
AcDbSymbolTableRecord
100
AcDbRegAppTableRecord
  2
GEVID1212642835
 70
     0
  0
APPID
  5
556
330
9
100
AcDbSymbolTableRecord
100
AcDbRegAppTableRecord
  2
GEVID1212642836
 70
     0
  0
APPID
  5
557
330
9
100
AcDbSymbolTableRecord
100
AcDbRegAppTableRecord
  2
GEVID1212642837
 70
     0
  0
APPID
  5
558
330
9
100
AcDbSymbolTableRecord
100
AcDbRegAppTableRecord
  2
GEVID1212642839
 70
     0
  0
APPID
  5
559
330
9
100
AcDbSymbolTableRecord
100
AcDbRegAppTableRecord
  2
GEVID1212642840
 70
     0
  0
APPID
  5
55A
330
9
100
AcDbSymbolTableRecord
100
AcDbRegAppTableRecord
  2
GEVID1212642841
 70
     0
  0
APPID
  5
55B
330
9
100
AcDbSymbolTableRecord
100
AcDbRegAppTableRecord
  2
GEVID1212655312
 70
     0
  0
APPID
  5
55C
330
9
100
AcDbSymbolTableRecord
100
AcDbRegAppTableRecord
  2
GEVID1212655313
 70
     0
  0
APPID
  5
55D
330
9
100
AcDbSymbolTableRecord
100
AcDbRegAppTableRecord
  2
GEVID1212656533
 70
     0
  0
APPID
  5
55E
330
9
100
AcDbSymbolTableRecord
100
AcDbRegAppTableRecord
  2
GEVID1212656534
 70
     0
  0
APPID
  5
55F
330
9
100
AcDbSymbolTableRecord
100
AcDbRegAppTableRecord
  2
GEVID1212656535
 70
     0
  0
APPID
  5
560
330
9
100
AcDbSymbolTableRecord
100
AcDbRegAppTableRecord
  2
GEVID1212656536
 70
     0
  0
APPID
  5
561
330
9
100
AcDbSymbolTableRecord
100
AcDbRegAppTableRecord
  2
GEVID1212656538
 70
     0
  0
APPID
  5
562
330
9
100
AcDbSymbolTableRecord
100
AcDbRegAppTableRecord
  2
GEVID1212656541
 70
     0
  0
APPID
  5
563
330
9
100
AcDbSymbolTableRecord
100
AcDbRegAppTableRecord
  2
GEVID1212656543
 70
     0
  0
APPID
  5
564
330
9
100
AcDbSymbolTableRecord
100
AcDbRegAppTableRecord
  2
GENIUS_GENOBJ-F-PFASSM_13
 70
     0
  0
APPID
  5
565
330
9
100
AcDbSymbolTableRecord
100
AcDbRegAppTableRecord
  2
GEVID1212656544
 70
     0
  0
APPID
  5
566
330
9
100
AcDbSymbolTableRecord
100
AcDbRegAppTableRecord
  2
GEVID1212656545
 70
     0
  0
APPID
  5
567
330
9
100
AcDbSymbolTableRecord
100
AcDbRegAppTableRecord
  2
GEVID1212656546
 70
     0
  0
APPID
  5
568
330
9
100
AcDbSymbolTableRecord
100
AcDbRegAppTableRecord
  2
GEVID1212656547
 70
     0
  0
APPID
  5
569
330
9
100
AcDbSymbolTableRecord
100
AcDbRegAppTableRecord
  2
GEVID1212656548
 70
     0
  0
APPID
  5
56A
330
9
100
AcDbSymbolTableRecord
100
AcDbRegAppTableRecord
  2
GEVID1212656549
 70
     0
  0
APPID
  5
56B
330
9
100
AcDbSymbolTableRecord
100
AcDbRegAppTableRecord
  2
GEVID1212656550
 70
     0
  0
APPID
  5
56C
330
9
100
AcDbSymbolTableRecord
100
AcDbRegAppTableRecord
  2
GEVID1212656552
 70
     0
  0
APPID
  5
56D
330
9
100
AcDbSymbolTableRecord
100
AcDbRegAppTableRecord
  2
GEVID1212656553
 70
     0
  0
APPID
  5
56E
330
9
100
AcDbSymbolTableRecord
100
AcDbRegAppTableRecord
  2
GEVID1212656554
 70
     0
  0
APPID
  5
56F
330
9
100
AcDbSymbolTableRecord
100
AcDbRegAppTableRecord
  2
GEVID1212656555
 70
     0
  0
APPID
  5
570
330
9
100
AcDbSymbolTableRecord
100
AcDbRegAppTableRecord
  2
GEVID1212656556
 70
     0
  0
APPID
  5
571
330
9
100
AcDbSymbolTableRecord
100
AcDbRegAppTableRecord
  2
GEVID1212656557
 70
     0
  0
APPID
  5
572
330
9
100
AcDbSymbolTableRecord
100
AcDbRegAppTableRecord
  2
GEVID1212656559
 70
     0
  0
APPID
  5
573
330
9
100
AcDbSymbolTableRecord
100
AcDbRegAppTableRecord
  2
GEVID1212656560
 70
     0
  0
APPID
  5
574
330
9
100
AcDbSymbolTableRecord
100
AcDbRegAppTableRecord
  2
GEVID1212656561
 70
     0
  0
APPID
  5
575
330
9
100
AcDbSymbolTableRecord
100
AcDbRegAppTableRecord
  2
GEVID1212656562
 70
     0
  0
APPID
  5
576
330
9
100
AcDbSymbolTableRecord
100
AcDbRegAppTableRecord
  2
GEVID1212656563
 70
     0
  0
APPID
  5
577
330
9
100
AcDbSymbolTableRecord
100
AcDbRegAppTableRecord
  2
GEVID1212711781
 70
     0
  0
APPID
  5
578
330
9
100
AcDbSymbolTableRecord
100
AcDbRegAppTableRecord
  2
GEVID1212711782
 70
     0
  0
APPID
  5
579
330
9
100
AcDbSymbolTableRecord
100
AcDbRegAppTableRecord
  2
GEVID1212711783
 70
     0
  0
APPID
  5
57A
330
9
100
AcDbSymbolTableRecord
100
AcDbRegAppTableRecord
  2
GEVID1212711784
 70
     0
  0
APPID
  5
57B
330
9
100
AcDbSymbolTableRecord
100
AcDbRegAppTableRecord
  2
GEVID1212711788
 70
     0
  0
APPID
  5
57C
330
9
100
AcDbSymbolTableRecord
100
AcDbRegAppTableRecord
  2
GEVID1212711789
 70
     0
  0
APPID
  5
57D
330
9
100
AcDbSymbolTableRecord
100
AcDbRegAppTableRecord
  2
GEVID1212711790
 70
     0
  0
APPID
  5
57E
330
9
100
AcDbSymbolTableRecord
100
AcDbRegAppTableRecord
  2
GEVID1212711791
 70
     0
  0
APPID
  5
57F
330
9
100
AcDbSymbolTableRecord
100
AcDbRegAppTableRecord
  2
GEVID1212711792
 70
     0
  0
APPID
  5
580
330
9
100
AcDbSymbolTableRecord
100
AcDbRegAppTableRecord
  2
GEVID1212711793
 70
     0
  0
APPID
  5
581
330
9
100
AcDbSymbolTableRecord
100
AcDbRegAppTableRecord
  2
GEVID1212711794
 70
     0
  0
APPID
  5
582
330
9
100
AcDbSymbolTableRecord
100
AcDbRegAppTableRecord
  2
GEVID1212711795
 70
     0
  0
APPID
  5
583
330
9
100
AcDbSymbolTableRecord
100
AcDbRegAppTableRecord
  2
GEVID1212711797
 70
     0
  0
APPID
  5
584
330
9
100
AcDbSymbolTableRecord
100
AcDbRegAppTableRecord
  2
GEVID1212711798
 70
     0
  0
APPID
  5
585
330
9
100
AcDbSymbolTableRecord
100
AcDbRegAppTableRecord
  2
GEVID1212711799
 70
     0
  0
APPID
  5
586
330
9
100
AcDbSymbolTableRecord
100
AcDbRegAppTableRecord
  2
GEVID1212711800
 70
     0
  0
APPID
  5
587
330
9
100
AcDbSymbolTableRecord
100
AcDbRegAppTableRecord
  2
GEVID1212711801
 70
     0
  0
APPID
  5
588
330
9
100
AcDbSymbolTableRecord
100
AcDbRegAppTableRecord
  2
GEVID1212711802
 70
     0
  0
APPID
  5
589
330
9
100
AcDbSymbolTableRecord
100
AcDbRegAppTableRecord
  2
GEVID1212711803
 70
     0
  0
APPID
  5
58A
330
9
100
AcDbSymbolTableRecord
100
AcDbRegAppTableRecord
  2
GEVID1212711804
 70
     0
  0
APPID
  5
58B
330
9
100
AcDbSymbolTableRecord
100
AcDbRegAppTableRecord
  2
GEVID1212711805
 70
     0
  0
APPID
  5
58C
330
9
100
AcDbSymbolTableRecord
100
AcDbRegAppTableRecord
  2
GEVID1212711806
 70
     0
  0
APPID
  5
58D
330
9
100
AcDbSymbolTableRecord
100
AcDbRegAppTableRecord
  2
GEVID1212711807
 70
     0
  0
APPID
  5
58E
330
9
100
AcDbSymbolTableRecord
100
AcDbRegAppTableRecord
  2
GEVID1212711808
 70
     0
  0
APPID
  5
58F
330
9
100
AcDbSymbolTableRecord
100
AcDbRegAppTableRecord
  2
GEVID1212711809
 70
     0
  0
APPID
  5
590
330
9
100
AcDbSymbolTableRecord
100
AcDbRegAppTableRecord
  2
GEVID1212711810
 70
     0
  0
APPID
  5
591
330
9
100
AcDbSymbolTableRecord
100
AcDbRegAppTableRecord
  2
GEVID1212711811
 70
     0
  0
APPID
  5
90A
330
9
100
AcDbSymbolTableRecord
100
AcDbRegAppTableRecord
  2
GENIUS_GENTRA_14
 70
     0
  0
APPID
  5
919
330
9
100
AcDbSymbolTableRecord
100
AcDbRegAppTableRecord
  2
GENIUS_GENOBJ-N-TIT_13
 70
     0
  0
APPID
  5
91A
330
9
100
AcDbSymbolTableRecord
100
AcDbRegAppTableRecord
  2
GENIUS_GENTITLE_13
 70
     0
  0
APPID
  5
949
330
9
100
AcDbSymbolTableRecord
100
AcDbRegAppTableRecord
  2
GENIUS_GENBLLY_14
 70
     0
  0
APPID
  5
DDD
330
9
100
AcDbSymbolTableRecord
100
AcDbRegAppTableRecord
  2
GEVID1213165152
 70
     0
  0
APPID
  5
12F9
330
9
100
AcDbSymbolTableRecord
100
AcDbRegAppTableRecord
  2
AcDbDynamicBlockTrueName
 70
     0
  0
APPID
  5
12FA
330
9
100
AcDbSymbolTableRecord
100
AcDbRegAppTableRecord
  2
ACDBBLOCKREPETAG
 70
     0
  0
APPID
  5
1C15
330
9
100
AcDbSymbolTableRecord
100
AcDbRegAppTableRecord
  2
GEVID1214872427
 70
     0
  0
APPID
  5
1C2A
330
9
100
AcDbSymbolTableRecord
100
AcDbRegAppTableRecord
  2
GEVID1214872428
 70
     0
  0
APPID
  5
1C2F
330
9
100
AcDbSymbolTableRecord
100
AcDbRegAppTableRecord
  2
GEVID1214872429
 70
     0
  0
APPID
  5
1C33
330
9
100
AcDbSymbolTableRecord
100
AcDbRegAppTableRecord
  2
GEVID1214872430
 70
     0
  0
APPID
  5
1C3F
330
9
100
AcDbSymbolTableRecord
100
AcDbRegAppTableRecord
  2
GEVID1214872432
 70
     0
  0
APPID
  5
1C4E
330
9
100
AcDbSymbolTableRecord
100
AcDbRegAppTableRecord
  2
GEVID1214872433
 70
     0
  0
APPID
  5
20DC
330
9
100
AcDbSymbolTableRecord
100
AcDbRegAppTableRecord
  2
AcDbDynamicBlockGUID
 70
     0
  0
APPID
  5
20FD
330
9
100
AcDbSymbolTableRecord
100
AcDbRegAppTableRecord
  2
GENIUS_GENOBJ-N-REV_13
 70
     0
  0
APPID
  5
20FE
330
9
100
AcDbSymbolTableRecord
100
AcDbRegAppTableRecord
  2
GENIUS_GENOBJ-N-RSSYM_13
 70
     0
  0
APPID
  5
20FF
330
9
100
AcDbSymbolTableRecord
100
AcDbRegAppTableRecord
  2
GENIUS_GENSYMENT_13
 70
     0
  0
APPID
  5
2100
330
9
100
AcDbSymbolTableRecord
100
AcDbRegAppTableRecord
  2
GENIUS_GENSCSYM_13
 70
     0
  0
APPID
  5
4A42
330
9
100
AcDbSymbolTableRecord
100
AcDbRegAppTableRecord
  2
GEVID1237528583
 70
     0
  0
APPID
  5
4F86
330
9
100
AcDbSymbolTableRecord
100
AcDbRegAppTableRecord
  2
GEVID1237528584
 70
     0
  0
APPID
  5
58DB
330
9
100
AcDbSymbolTableRecord
100
AcDbRegAppTableRecord
  2
GEVID1237528585
 70
     0
  0
APPID
  5
58F8
330
9
100
AcDbSymbolTableRecord
100
AcDbRegAppTableRecord
  2
GEVID1237528586
 70
     0
  0
ENDTAB
  0
TABLE
  2
DIMSTYLE
  5
A
330
0
100
AcDbSymbolTable
 70
    30
100
AcDbDimStyleTable
 71
     1
340
5AB
  0
DIMSTYLE
105
5AB
330
A
100
AcDbSymbolTableRecord
100
AcDbDimStyleTableRecord
  2
SEISA
 70
     0
  4
"
 40
4.0
 41
2.5
 42
0.625
 43
10.0
 44
0.625
 47
0.1
 48
0.1
 73
     0
 74
     0
 77
     3
 78
     8
 79
     2
 90
     1
140
3.5
141
0.0
143
0.0393701
146
0.71
147
1.5
172
     1
176
     3
177
     3
178
     3
271
     2
272
     2
283
     0
286
     8
340
5D5
341
69
342
69
371
    -1
372
    -1
1001
ACAD_DSTYLE_DIMJAG
1070
   388
1040
1.5
1001
ACAD_DSTYLE_DIMTALN
1070
   392
1070
     1
  0
DIMSTYLE
105
5E9
102
{ACAD_REACTORS
330
4B34
330
4B70
330
4B88
330
4BC5
330
4BDE
330
4C84
330
4CAE
330
4CC6
330
4D43
330
4D5F
330
4E77
330
4E8F
330
4EA7
330
4EBF
330
6C06
330
6DCD
330
6E10
102
}
330
A
100
AcDbSymbolTableRecord
100
AcDbDimStyleTableRecord
  2
SEISA$0
 70
     0
  4
"
 40
4.0
 41
2.5
 42
0.625
 43
10.0
 44
0.625
 47
0.1
 48
0.1
 73
     0
 74
     0
 77
     3
 78
     8
 79
     2
 90
     1
140
3.5
141
0.0
143
0.0393701
146
0.71
147
1.5
172
     1
176
     3
177
     3
178
     3
271
     2
272
     2
283
     0
286
     8
340
5D5
341
69
342
69
371
    -1
372
    -1
  0
DIMSTYLE
105
6974
330
A
100
AcDbSymbolTableRecord
100
AcDbDimStyleTableRecord
  2
STANDARD
 70
     0
340
11
  0
DIMSTYLE
105
7014
330
A
100
AcDbSymbolTableRecord
100
AcDbDimStyleTableRecord
  2
AM_ISO
 70
     0
  4
"
 41
2.5
 42
1.0
 43
10.0
 44
1.0
 47
0.1
 48
0.1
 73
     0
 74
     0
 77
     1
 78
     8
 79
     2
 90
     1
140
3.5
141
0.0
143
0.0393701
146
0.71
147
1.5
172
     1
176
   256
177
   256
178
     2
271
     2
272
     3
274
     4
283
     0
284
     8
340
11
371
    -1
372
    -1
  0
DIMSTYLE
105
7015
330
A
100
AcDbSymbolTableRecord
100
AcDbDimStyleTableRecord
  2
AM_ISO$3
 70
     0
  4
"
 41
2.5
 42
1.0
 43
10.0
 44
1.0
 47
0.1
 48
0.1
 73
     0
 77
     1
 78
     8
 79
     2
 90
     1
140
3.5
141
0.0
143
0.0393701
146
0.71
147
1.5
176
   256
177
   256
178
     2
271
     2
272
     3
274
     4
283
     0
284
     8
288
     1
289
     0
340
11
371
    -1
372
    -1
  0
DIMSTYLE
105
7016
330
A
100
AcDbSymbolTableRecord
100
AcDbDimStyleTableRecord
  2
AM_ISO$4
 70
     0
  4
"
 41
2.5
 42
1.0
 43
10.0
 44
1.0
 47
0.1
 48
0.1
 73
     0
 77
     1
 78
     8
 79
     2
 90
     1
140
3.5
141
0.0
143
0.0393701
146
0.71
147
1.5
176
   256
177
   256
178
     2
271
     2
272
     3
274
     4
283
     0
284
     8
288
     1
289
     0
340
11
371
    -1
372
    -1
  0
DIMSTYLE
105
7017
330
A
100
AcDbSymbolTableRecord
100
AcDbDimStyleTableRecord
  2
AM_ISO$6
 70
     0
  4
"
 41
2.5
 42
1.0
 43
10.0
 44
1.0
 47
0.1
 48
0.1
 73
     0
 74
     0
 78
     8
 79
     2
 90
     1
140
3.5
141
0.0
143
0.0393701
146
0.71
147
1.5
172
     1
176
   256
177
   256
178
     2
271
     2
272
     3
274
     4
283
     0
284
     8
340
11
371
    -1
372
    -1
  0
DIMSTYLE
105
7018
330
A
100
AcDbSymbolTableRecord
100
AcDbDimStyleTableRecord
  2
AM_ISO$7
 70
     0
  4
"
 41
2.5
 42
1.0
 43
10.0
 44
1.0
 47
0.1
 48
0.1
 73
     0
 74
     0
 77
     1
 78
     8
 79
     2
 90
     1
140
5.0
141
0.0
143
0.0393701
146
0.71
147
1.5
172
     1
176
   256
177
   256
178
     2
271
     2
272
     3
274
     4
283
     0
284
     8
340
11
371
    -1
372
    -1
  0
DIMSTYLE
105
7019
330
A
100
AcDbSymbolTableRecord
100
AcDbDimStyleTableRecord
  2
AM_ISO$SF
 70
     0
  4
"
 41
2.5
 42
1.0
 43
10.0
 44
1.0
 47
0.1
 48
0.1
 73
     0
 74
     0
 75
     1
 76
     1
 77
     1
 78
     8
 79
     2
 90
     1
140
3.5
141
0.0
143
0.0393701
146
0.71
147
1.5
172
     1
176
   256
177
   256
178
     2
271
     2
272
     3
274
     4
283
     0
284
     8
340
11
371
    -1
372
    -1
  0
DIMSTYLE
105
701A
330
A
100
AcDbSymbolTableRecord
100
AcDbDimStyleTableRecord
  2
AM_ISO$SH
 70
     0
  4
"
 41
2.5
 42
1.0
 43
10.0
 44
1.0
 47
0.1
 48
0.1
 73
     0
 74
     0
 75
     1
 76
     1
 77
     1
 78
     8
 79
     2
 90
     1
140
3.5
141
0.0
143
0.0393701
144
2.0
146
0.71
147
1.5
172
     1
173
     1
176
   256
177
   256
178
     2
271
     2
272
     3
274
     4
283
     0
284
     8
340
11
343
74
371
    -1
372
    -1
  0
ENDTAB
  0
TABLE
  2
BLOCK_RECORD
  5
1
330
0
100
AcDbSymbolTable
 70
    31
  0
BLOCK_RECORD
  5
1F
102
{ACAD_XDICTIONARY
360
82
102
}
330
1
100
AcDbSymbolTableRecord
100
AcDbBlockTableRecord
  2
*Model_Space
340
22
 70
     0
280
     1
281
     0
  0
BLOCK_RECORD
  5
1B
330
1
100
AcDbSymbolTableRecord
100
AcDbBlockTableRecord
  2
*Paper_Space
340
1E
 70
     0
280
     1
281
     0
  0
BLOCK_RECORD
  5
23
330
1
100
AcDbSymbolTableRecord
100
AcDbBlockTableRecord
  2
*Paper_Space0
340
26
 70
     0
280
     1
281
     0
  0
BLOCK_RECORD
  5
69
330
1
100
AcDbSymbolTableRecord
100
AcDbBlockTableRecord
  2
_Open30
340
0
102
{BLKREFS
331
667A
331
667B
331
6683
331
6684
331
66A2
331
66A3
331
66B2
331
66B3
331
66BB
331
66BC
331
66C4
331
66C5
331
66D0
331
66DB
331
66F8
331
66F9
331
6701
331
6702
331
670A
331
670B
331
6713
331
6714
331
6DC7
331
6DC8
331
6E3D
331
6E3E
331
6E7E
331
6E7F
331
6E92
331
6E93
331
6EBE
331
6EBF
102
}
 70
     0
280
     1
281
     0
  0
BLOCK_RECORD
  5
74
330
1
100
AcDbSymbolTableRecord
100
AcDbBlockTableRecord
  2
GENAXEH
340
0
 70
     0
280
     1
281
     0
  0
BLOCK_RECORD
  5
4461
102
{ACAD_XDICTIONARY
360
59BA
102
}
330
1
100
AcDbSymbolTableRecord
100
AcDbBlockTableRecord
  2
ロッカクアナツキプラグ R1／4
340
0
310
2800000020000000200000000100080000000000000400000000000000000000000000000000000000000000000080000080000000808000800000008000800080800000C0C0C000C0DCC000F0CAA6000020400000206000002080000020A0000020C0000020E00000400000004020000040400000406000004080000040A0
310
000040C0000040E00000600000006020000060400000606000006080000060A0000060C0000060E00000800000008020000080400000806000008080000080A0000080C0000080E00000A0000000A0200000A0400000A0600000A0800000A0A00000A0C00000A0E00000C0000000C0200000C0400000C0600000C0800000C0
310
A00000C0C00000C0E00000E0000000E0200000E0400000E0600000E0800000E0A00000E0C00000E0E00040000000400020004000400040006000400080004000A0004000C0004000E00040200000402020004020400040206000402080004020A0004020C0004020E000404000004040200040404000404060004040800040
310
40A0004040C0004040E00040600000406020004060400040606000406080004060A0004060C0004060E00040800000408020004080400040806000408080004080A0004080C0004080E00040A0000040A0200040A0400040A0600040A0800040A0A00040A0C00040A0E00040C0000040C0200040C0400040C0600040C08000
310
40C0A00040C0C00040C0E00040E0000040E0200040E0400040E0600040E0800040E0A00040E0C00040E0E00080000000800020008000400080006000800080008000A0008000C0008000E00080200000802020008020400080206000802080008020A0008020C0008020E00080400000804020008040400080406000804080
310
008040A0008040C0008040E00080600000806020008060400080606000806080008060A0008060C0008060E00080800000808020008080400080806000808080008080A0008080C0008080E00080A0000080A0200080A0400080A0600080A0800080A0A00080A0C00080A0E00080C0000080C0200080C0400080C0600080C0
310
800080C0A00080C0C00080C0E00080E0000080E0200080E0400080E0600080E0800080E0A00080E0C00080E0E000C0000000C0002000C0004000C0006000C0008000C000A000C000C000C000E000C0200000C0202000C0204000C0206000C0208000C020A000C020C000C020E000C0400000C0402000C0404000C0406000C0
310
408000C040A000C040C000C040E000C0600000C0602000C0604000C0606000C0608000C060A000C060C000C060E000C0800000C0802000C0804000C0806000C0808000C080A000C080C000C080E000C0A00000C0A02000C0A04000C0A06000C0A08000C0A0A000C0A0C000C0A0E000C0C00000C0C02000C0C04000C0C06000
310
C0C08000C0C0A000F0FBFF00A4A0A000808080000000FF0000FF000000FFFF00FF000000FF00FF00FFFF0000FFFFFF000000000000000000000000000000000000000000000000000000000000000000000000000000000000000000000000F900000000000000000000000000000000000000000000000000000000000000
310
F900000000000000000000000000000000000000000000000000000000000000F9FF000000000000000000000000000000000000000000000000000000FFFFFFF900FFFFFF00000000000000000000000000000000000000000000FFFFFEFEFEF9FEFEFEFEFEFF000000000000000000000000000000000000FFFFFEFE0000
310
00F90000000000FEFFFF000000000000000000000000000000FF00FE0000000000F9000000000000FE00FF00000000000000000000000000FF00FE000000000000F900000000000000FEFEFF000000000000000000000000FFFE00000000000000F90000000000000000FE00FF00000000000000000000FFFE000000000000
310
0000FF000000000000000000FEFF00000000000000000000FFFE000000000000FFFFF9FFFF00000000000000FEFF000000000000000000FFFE000000000000FF0000F90000FFFF000000000000FEFF0000000000000000FFFE0000000000FF000000F900000000FF0000000000FEFF0000000000000000FFFE0000000000FF
310
000000F900000000FF0000000000FEFF00000000000000FF00FE0000000000FF000000F900000000FF0000000000FE00FF00000000F9F9F9F9F9F9F9F9F9F9FFF9F9F9F9F9F9F9F9FFF9F9F9F9F9F9F9F9F9F90000000000FFFE0000000000FF000000F900000000FF0000000000FE00FF00000000000000FFFE0000000000
310
FF000000F900000000FF0000000000FEFF0000000000000000FFFE000000000000FFFF00F90000FFFF000000000000FEFF000000000000000000FFFE00000000000000FFF9FFFF00000000000000FEFF00000000000000000000FFFE0000000000000000FF000000000000000000FEFF0000000000000000000000FFFE0000
310
0000000000F90000000000000000FE00FF0000000000000000000000FF00FE000000000000F90000000000000000FEFF00000000000000000000000000FF00FE0000000000F9000000000000FEFEFF000000000000000000000000000000FF00FE00000000F90000000000FE00FF0000000000000000000000000000000000
310
FFFFFEFEFEFEF9FEFEFEFEFEFFFF000000000000000000000000000000000000000000FFFF00F900FFFFFF0000000000000000000000000000000000000000000000000000FFF9FF000000000000000000000000000000000000000000000000000000000000F9000000000000000000000000000000000000000000000000
310
00000000000000F9000000000000000000000000000000000000000000000000000000000000000000000000000000000000000000000000
102
{BLKREFS
331
452F
102
}
 70
     4
280
     1
281
     0
  0
BLOCK_RECORD
  5
44F4
102
{ACAD_XDICTIONARY
360
45A7
102
}
330
1
100
AcDbSymbolTableRecord
100
AcDbBlockTableRecord
  2
ケースＡ SEM315
340
0
310
2800000020000000200000000100080000000000000400000000000000000000000000000000000000000000000080000080000000808000800000008000800080800000C0C0C000C0DCC000F0CAA6000020400000206000002080000020A0000020C0000020E00000400000004020000040400000406000004080000040A0
310
000040C0000040E00000600000006020000060400000606000006080000060A0000060C0000060E00000800000008020000080400000806000008080000080A0000080C0000080E00000A0000000A0200000A0400000A0600000A0800000A0A00000A0C00000A0E00000C0000000C0200000C0400000C0600000C0800000C0
310
A00000C0C00000C0E00000E0000000E0200000E0400000E0600000E0800000E0A00000E0C00000E0E00040000000400020004000400040006000400080004000A0004000C0004000E00040200000402020004020400040206000402080004020A0004020C0004020E000404000004040200040404000404060004040800040
310
40A0004040C0004040E00040600000406020004060400040606000406080004060A0004060C0004060E00040800000408020004080400040806000408080004080A0004080C0004080E00040A0000040A0200040A0400040A0600040A0800040A0A00040A0C00040A0E00040C0000040C0200040C0400040C0600040C08000
310
40C0A00040C0C00040C0E00040E0000040E0200040E0400040E0600040E0800040E0A00040E0C00040E0E00080000000800020008000400080006000800080008000A0008000C0008000E00080200000802020008020400080206000802080008020A0008020C0008020E00080400000804020008040400080406000804080
310
008040A0008040C0008040E00080600000806020008060400080606000806080008060A0008060C0008060E00080800000808020008080400080806000808080008080A0008080C0008080E00080A0000080A0200080A0400080A0600080A0800080A0A00080A0C00080A0E00080C0000080C0200080C0400080C0600080C0
310
800080C0A00080C0C00080C0E00080E0000080E0200080E0400080E0600080E0800080E0A00080E0C00080E0E000C0000000C0002000C0004000C0006000C0008000C000A000C000C000C000E000C0200000C0202000C0204000C0206000C0208000C020A000C020C000C020E000C0400000C0402000C0404000C0406000C0
310
408000C040A000C040C000C040E000C0600000C0602000C0604000C0606000C0608000C060A000C060C000C060E000C0800000C0802000C0804000C0806000C0808000C080A000C080C000C080E000C0A00000C0A02000C0A04000C0A06000C0A08000C0A0A000C0A0C000C0A0E000C0C00000C0C02000C0C04000C0C06000
310
C0C08000C0C0A000F0FBFF00A4A0A000808080000000FF0000FF000000FFFF00FF000000FF00FF00FFFF0000FFFFFF00000000000000000000000000000000000000000000000000000000000000000000000000000000000000000000FFFFFF0000000000000000000000000000000000000000000000000000000000FF00
310
FF0000000000000000000000000000000000000000000000000000000000FF00FF0000000000000000000000000000000000000000000000000000000000FF00FFFFFFFFFFFFFF0000000000000000000000000000000000000000000000FF00FF0000000000FF0000000000000000000000000000000000000000000000FF
310
00FF0000000000FF0000000000000000000000000000000000000000000000FF00FF0000000000FF0000000000000000000000000000000000000000000000FF00FF0000000000FF0000000000000000000000000000000000000000000000FF00FF0000000000FF0000000000000000000000000000000000000000000000
310
FF00FF0000000000FF0000000000000000000000000000000000000000000000FFF9FF0000000000FF0000000000000000000000000000000000000000000000FFFFFF0000000000FF0000000000000000000000000000000000000000000000FEF9FF0000000000FF00000000000000000000000000000000000000000000
310
00FF00FF0000000000FF0000000000000000000000000000000000000000000000FF00FF0000000000FF0000000000000000000000000000000000000000000000FF00FF0000000000FF0000000000000000000000000000000000000000000000000000000000000000000000000000000000000000000000000000000000
310
00000000000000000000000000000000000000000000000000000000000000000000000000000000000000000000000000000000000000000000000000000000000000000000000000000000000000000000000000000000000000000000000000000000000000000000000000000000000000000000000000000000000000
310
00000000000000000000000000000000000000000000000000000000000000000000000000000000000000000000000000000000000000000000000000000000000000000000000000000000000000000000000000000000000000000000000000000000000000000000000000000000000000000000000000000000000000
310
00000000000000FFF9F9FFFFFF00000000000000000000000000000000000000000000FFFFFFFFFFFFFFFFFFFF000000000000000000000000000000000000000000FFFFFFFFFF0000000000000000000000000000000000000000000000000000F9FFFFFFFFFFF9F900000000000000000000000000000000000000000000
310
0000000000FFFFFF000000000000000000000000000000000000000000000000000000000000000000000000000000000000000000000000
102
{BLKREFS
331
4530
102
}
 70
     4
280
     1
281
     0
  0
BLOCK_RECORD
  5
460C
102
{ACAD_XDICTIONARY
360
4688
102
}
330
1
100
AcDbSymbolTableRecord
100
AcDbBlockTableRecord
  2
リジット SEM315
340
0
310
2800000020000000200000000100080000000000000400000000000000000000000000000000000000000000000080000080000000808000800000008000800080800000C0C0C000C0DCC000F0CAA6000020400000206000002080000020A0000020C0000020E00000400000004020000040400000406000004080000040A0
310
000040C0000040E00000600000006020000060400000606000006080000060A0000060C0000060E00000800000008020000080400000806000008080000080A0000080C0000080E00000A0000000A0200000A0400000A0600000A0800000A0A00000A0C00000A0E00000C0000000C0200000C0400000C0600000C0800000C0
310
A00000C0C00000C0E00000E0000000E0200000E0400000E0600000E0800000E0A00000E0C00000E0E00040000000400020004000400040006000400080004000A0004000C0004000E00040200000402020004020400040206000402080004020A0004020C0004020E000404000004040200040404000404060004040800040
310
40A0004040C0004040E00040600000406020004060400040606000406080004060A0004060C0004060E00040800000408020004080400040806000408080004080A0004080C0004080E00040A0000040A0200040A0400040A0600040A0800040A0A00040A0C00040A0E00040C0000040C0200040C0400040C0600040C08000
310
40C0A00040C0C00040C0E00040E0000040E0200040E0400040E0600040E0800040E0A00040E0C00040E0E00080000000800020008000400080006000800080008000A0008000C0008000E00080200000802020008020400080206000802080008020A0008020C0008020E00080400000804020008040400080406000804080
310
008040A0008040C0008040E00080600000806020008060400080606000806080008060A0008060C0008060E00080800000808020008080400080806000808080008080A0008080C0008080E00080A0000080A0200080A0400080A0600080A0800080A0A00080A0C00080A0E00080C0000080C0200080C0400080C0600080C0
310
800080C0A00080C0C00080C0E00080E0000080E0200080E0400080E0600080E0800080E0A00080E0C00080E0E000C0000000C0002000C0004000C0006000C0008000C000A000C000C000C000E000C0200000C0202000C0204000C0206000C0208000C020A000C020C000C020E000C0400000C0402000C0404000C0406000C0
310
408000C040A000C040C000C040E000C0600000C0602000C0604000C0606000C0608000C060A000C060C000C060E000C0800000C0802000C0804000C0806000C0808000C080A000C080C000C080E000C0A00000C0A02000C0A04000C0A06000C0A08000C0A0A000C0A0C000C0A0E000C0C00000C0C02000C0C04000C0C06000
310
C0C08000C0C0A000F0FBFF00A4A0A000808080000000FF0000FF000000FFFF00FF000000FF00FF00FFFF0000FFFFFF0000000000000000000000000000000000000000000000000000000000000000000000000000000000000000000000000000000000FFFFFF000000000000000000000000000000000000000000000000
310
0000000000F9F9F9F9F9F90000000000000000000000000000000000000000000000000000FF000000000000000000000000000000000000FFFFFFFFFFFFFFFFFFFFFFFFFFFF0000000000000000000000000000000000FF00000000000000000000000000FF0000000000000000000000000000000000FF00000000000000
310
000000000000FF0000000000000000000000000000000000FF00000000000000000000000000FF0000000000000000000000000000000000FF00000000000000000000000000FF0000000000000000000000000000000000FF00000000000000000000000000FF0000000000000000000000000000000000FF000000000000
310
00000000000000FF0000000000000000000000000000000000FF00000000000000000000000000FF0000000000000000000000000000000000FF00000000000000000000000000FF0000000000000000000000000000000000FF00000000000000000000000000FF0000000000000000000000000000000000FF0000000000
310
0000000000000000FF0000000000000000000000000000000000FF00000000000000000000000000FF0000000000000000000000000000000000FFFF00000000000000000000A4A4A4A4A4000000000000000000000000000000FFFF0000000000000000000000000000FF000000000000000000000000000000FFFF000000
310
0000000000000000000000FF000000000000000000000000000000FFFF0000000000000000000000000000FF000000000000000000000000000000FFFF0000000000000000000000000000FF000000000000000000000000000000FFFF0000000000000000000000000000FF000000000000000000000000000000FFFFFFFF
310
FFFFFFFFFFFFFFFFFFFFFFFFFF000000000000000000000000000000FFFFFFFFFFFFFFFFFFFFFFFFFFFFFFFFFF000000000000000000000000000000FF000000000000000000000000000000FF000000000000000000000000000000FF000000000000000000000000000000FF000000000000000000000000000000FF0000
310
00000000000000000000000000FF00000000000000000000000000000000FFFFFFFFFFFFFFFFFFFFFFFFFFFF00FF0000000000000000000000000000000000000000000000000000000000FF00000000000000000000000000000000000000000000000000000000000000FF00000000000000000000000000000000000000
310
000000000000000000000000FFFFFF0000000000000000000000000000000000000000000000000000000000000000000000000000000000
102
{BLKREFS
331
4631
102
}
 70
     4
280
     1
281
     0
  0
BLOCK_RECORD
  5
46E5
102
{ACAD_XDICTIONARY
360
5AE7
102
}
330
1
100
AcDbSymbolTableRecord
100
AcDbBlockTableRecord
  2
センタ SEM315
340
0
310
2800000020000000200000000100080000000000000400000000000000000000000000000000000000000000000080000080000000808000800000008000800080800000C0C0C000C0DCC000F0CAA6000020400000206000002080000020A0000020C0000020E00000400000004020000040400000406000004080000040A0
310
000040C0000040E00000600000006020000060400000606000006080000060A0000060C0000060E00000800000008020000080400000806000008080000080A0000080C0000080E00000A0000000A0200000A0400000A0600000A0800000A0A00000A0C00000A0E00000C0000000C0200000C0400000C0600000C0800000C0
310
A00000C0C00000C0E00000E0000000E0200000E0400000E0600000E0800000E0A00000E0C00000E0E00040000000400020004000400040006000400080004000A0004000C0004000E00040200000402020004020400040206000402080004020A0004020C0004020E000404000004040200040404000404060004040800040
310
40A0004040C0004040E00040600000406020004060400040606000406080004060A0004060C0004060E00040800000408020004080400040806000408080004080A0004080C0004080E00040A0000040A0200040A0400040A0600040A0800040A0A00040A0C00040A0E00040C0000040C0200040C0400040C0600040C08000
310
40C0A00040C0C00040C0E00040E0000040E0200040E0400040E0600040E0800040E0A00040E0C00040E0E00080000000800020008000400080006000800080008000A0008000C0008000E00080200000802020008020400080206000802080008020A0008020C0008020E00080400000804020008040400080406000804080
310
008040A0008040C0008040E00080600000806020008060400080606000806080008060A0008060C0008060E00080800000808020008080400080806000808080008080A0008080C0008080E00080A0000080A0200080A0400080A0600080A0800080A0A00080A0C00080A0E00080C0000080C0200080C0400080C0600080C0
310
800080C0A00080C0C00080C0E00080E0000080E0200080E0400080E0600080E0800080E0A00080E0C00080E0E000C0000000C0002000C0004000C0006000C0008000C000A000C000C000C000E000C0200000C0202000C0204000C0206000C0208000C020A000C020C000C020E000C0400000C0402000C0404000C0406000C0
310
408000C040A000C040C000C040E000C0600000C0602000C0604000C0606000C0608000C060A000C060C000C060E000C0800000C0802000C0804000C0806000C0808000C080A000C080C000C080E000C0A00000C0A02000C0A04000C0A06000C0A08000C0A0A000C0A0C000C0A0E000C0C00000C0C02000C0C04000C0C06000
310
C0C08000C0C0A000F0FBFF00A4A0A000808080000000FF0000FF000000FFFF00FF000000FF00FF00FFFF0000FFFFFF00000000000000000000000000000000000000000000000000000000000000000000000000000000000000000000000000FFFFFFFF000000000000000000000000000000000000000000000000000000
310
00000000FFFFFFFFFFFFFF00000000000000000000000000000000000000000000000000FF0000000000FF00000000000000000000000000000000000000000000000000FF0000000000FF00000000000000000000000000000000000000000000000000FF0000000000FF0000000000000000000000000000000000000000
310
0000000000FF0000000000FF00000000000000000000000000000000000000000000000000FF0000000000FF00000000000000000000000000000000000000000000000000FF0000000000FF00000000000000000000000000000000000000000000000000FF0000000000FF00000000000000000000000000000000000000
310
000000000000FF0000000000FF00000000000000000000000000000000000000000000000000FF0000000000FF00000000000000000000000000000000000000000000000000FF0000000000FF00000000000000000000000000000000000000000000000000FF0000000000FF000000000000000000000000000000000000
310
00000000000000FF0000000000FF000000000000000000000000A4A4A4A4A40000000000000000FF0000000000FF000000000000000000000000FF000000000000000000000000000000000000FF000000000000000000000000FF000000000000000000000000000000000000FF000000000000000000000000FF00000000
310
0000000000000000000000000000FF000000000000000000000000FF000000000000000000000000000000000000FF000000000000000000000000FF000000000000000000000000000000000000FF000000000000000000000000FF000000000000000000000000000000000000FF000000000000000000000000FFFFFFFF
310
FFFFFFFFFFFFFFFFFFFFFFFFFFFFFFFF000000000000000000000000FFFFFFFFFFFFFFFFFFFFFFFFFFFFFFFFFFFFFFFF000000000000000000000000FF000000000000000000000000000000000000FF000000000000000000000000FF000000000000000000000000000000000000FF000000000000000000000000FF0000
310
00000000000000000000000000000000FF000000000000000000000000FF000000000000000000000000000000000000FF000000000000000000000000FFFFFFFFFFF9FFFFFFFFFFFFFFFFFFFFFFFFFFFF000000000000000000000000000000FFFFF9FFFFFF00000000000000000000000000000000000000000000000000
310
000000F900000000000000000000000000000000000000000000000000000000000000000000000000000000000000000000000000000000
102
{BLKREFS
331
470C
102
}
 70
     4
280
     1
281
     0
  0
BLOCK_RECORD
  5
4896
102
{ACAD_XDICTIONARY
360
492A
102
}
330
1
100
AcDbSymbolTableRecord
100
AcDbBlockTableRecord
  2
リーマボルト SEM315 M12
340
0
310
2800000020000000200000000100080000000000000400000000000000000000000000000000000000000000000080000080000000808000800000008000800080800000C0C0C000C0DCC000F0CAA6000020400000206000002080000020A0000020C0000020E00000400000004020000040400000406000004080000040A0
310
000040C0000040E00000600000006020000060400000606000006080000060A0000060C0000060E00000800000008020000080400000806000008080000080A0000080C0000080E00000A0000000A0200000A0400000A0600000A0800000A0A00000A0C00000A0E00000C0000000C0200000C0400000C0600000C0800000C0
310
A00000C0C00000C0E00000E0000000E0200000E0400000E0600000E0800000E0A00000E0C00000E0E00040000000400020004000400040006000400080004000A0004000C0004000E00040200000402020004020400040206000402080004020A0004020C0004020E000404000004040200040404000404060004040800040
310
40A0004040C0004040E00040600000406020004060400040606000406080004060A0004060C0004060E00040800000408020004080400040806000408080004080A0004080C0004080E00040A0000040A0200040A0400040A0600040A0800040A0A00040A0C00040A0E00040C0000040C0200040C0400040C0600040C08000
310
40C0A00040C0C00040C0E00040E0000040E0200040E0400040E0600040E0800040E0A00040E0C00040E0E00080000000800020008000400080006000800080008000A0008000C0008000E00080200000802020008020400080206000802080008020A0008020C0008020E00080400000804020008040400080406000804080
310
008040A0008040C0008040E00080600000806020008060400080606000806080008060A0008060C0008060E00080800000808020008080400080806000808080008080A0008080C0008080E00080A0000080A0200080A0400080A0600080A0800080A0A00080A0C00080A0E00080C0000080C0200080C0400080C0600080C0
310
800080C0A00080C0C00080C0E00080E0000080E0200080E0400080E0600080E0800080E0A00080E0C00080E0E000C0000000C0002000C0004000C0006000C0008000C000A000C000C000C000E000C0200000C0202000C0204000C0206000C0208000C020A000C020C000C020E000C0400000C0402000C0404000C0406000C0
310
408000C040A000C040C000C040E000C0600000C0602000C0604000C0606000C0608000C060A000C060C000C060E000C0800000C0802000C0804000C0806000C0808000C080A000C080C000C080E000C0A00000C0A02000C0A04000C0A06000C0A08000C0A0A000C0A0C000C0A0E000C0C00000C0C02000C0C04000C0C06000
310
C0C08000C0C0A000F0FBFF00A4A0A000808080000000FF0000FF000000FFFF00FF000000FF00FF00FFFF0000FFFFFF0000000000000000000000000000000000000000000000000000000000000000000000000000000000000000000000000000000000000000000000000000000000000000000000000000000000000000
310
00000000000000000000000000000000000000000000000000000000000000000000000000000000000000000000000000000000000000000000000000000000000000000000000000000000000000000000000000000000000000000000000000000000000000000000000000000000000000000000000000000000000000
310
00000000000000000000000000000000000000000000000000000000000000000000000000000000000000000000000000000000000000000000000000000000000000000000000000000000000000000000000000000000000000000000000000000000000000000000000000000000000000000000000000000000000000
310
000000000000000000000000000000000000000000FFFFFFFF00000000000000000000000000000000FFFFFFFFFFFF0000000000FFFF0000000000000000000000000000000000000000FF000000FFFF00000000FFFFFFFFFFFF00000000000000000000000000FFFFFFFFFFFFFFFFFEFE000000FFFF000000FF0000000000
310
0000000000000000FF0000FF000000FFFFFFFF0000FFFF000000FF00000000000000000000000000FF00FFFF000000FFFFFFFF0000FFFF000000FF00000000000000000000000000FF0000FF000000FFFFFFFF0000FFFF000000FF00000000000000000000000000FF0000FF000000FFFFFFFF0000FFFFFFFFFFFF00000000
310
000000000000000000FFFFFFFFFFFFFFFFFFFF000000FFFF0000000000000000000000000000000000000000FF000000FFFF0000000000FFFFFFFF00000000000000000000000000000000FFFFFFFFFFFF00000000000000000000000000000000000000000000000000000000000000000000000000000000000000000000
310
00000000000000000000000000000000000000000000000000000000000000000000000000000000000000000000000000000000000000000000000000000000000000000000000000000000000000000000000000000000000000000000000000000000000000000000000000000000000000000000000000000000000000
310
00000000000000000000000000000000000000000000000000000000000000000000000000000000000000000000000000000000000000000000000000000000000000000000000000000000000000000000000000000000000000000000000000000000000000000000000000000000000000000000000000000000000000
310
0000000000000000000000000000000000000000000000000000000000000000000000000000000000000000000000000000000000000000
102
{BLKREFS
331
48C2
102
}
 70
     4
280
     1
281
     0
  0
BLOCK_RECORD
  5
4B35
330
1
100
AcDbSymbolTableRecord
100
AcDbBlockTableRecord
  2
*D11
340
0
 70
     0
280
     1
281
     0
  0
BLOCK_RECORD
  5
4B71
330
1
100
AcDbSymbolTableRecord
100
AcDbBlockTableRecord
  2
*D12
340
0
 70
     0
280
     1
281
     0
  0
BLOCK_RECORD
  5
4B89
330
1
100
AcDbSymbolTableRecord
100
AcDbBlockTableRecord
  2
*D13
340
0
 70
     0
280
     1
281
     0
  0
BLOCK_RECORD
  5
4BC6
330
1
100
AcDbSymbolTableRecord
100
AcDbBlockTableRecord
  2
*D14
340
0
 70
     0
280
     1
281
     0
  0
BLOCK_RECORD
  5
4BDF
330
1
100
AcDbSymbolTableRecord
100
AcDbBlockTableRecord
  2
*D15
340
0
 70
     0
280
     1
281
     0
  0
BLOCK_RECORD
  5
4C85
330
1
100
AcDbSymbolTableRecord
100
AcDbBlockTableRecord
  2
*D16
340
0
 70
     0
280
     1
281
     0
  0
BLOCK_RECORD
  5
4CAF
330
1
100
AcDbSymbolTableRecord
100
AcDbBlockTableRecord
  2
*D17
340
0
 70
     0
280
     1
281
     0
  0
BLOCK_RECORD
  5
4CC7
330
1
100
AcDbSymbolTableRecord
100
AcDbBlockTableRecord
  2
*D18
340
0
 70
     0
280
     1
281
     0
  0
BLOCK_RECORD
  5
4D44
330
1
100
AcDbSymbolTableRecord
100
AcDbBlockTableRecord
  2
*D19
340
0
 70
     0
280
     1
281
     0
  0
BLOCK_RECORD
  5
4D60
330
1
100
AcDbSymbolTableRecord
100
AcDbBlockTableRecord
  2
*D20
340
0
 70
     0
280
     1
281
     0
  0
BLOCK_RECORD
  5
4E78
330
1
100
AcDbSymbolTableRecord
100
AcDbBlockTableRecord
  2
*D21
340
0
 70
     0
280
     1
281
     0
  0
BLOCK_RECORD
  5
4E90
330
1
100
AcDbSymbolTableRecord
100
AcDbBlockTableRecord
  2
*D22
340
0
 70
     0
280
     1
281
     0
  0
BLOCK_RECORD
  5
4EA8
330
1
100
AcDbSymbolTableRecord
100
AcDbBlockTableRecord
  2
*D23
340
0
 70
     0
280
     1
281
     0
  0
BLOCK_RECORD
  5
4EC0
330
1
100
AcDbSymbolTableRecord
100
AcDbBlockTableRecord
  2
*D24
340
0
 70
     0
280
     1
281
     0
  0
BLOCK_RECORD
  5
601A
330
1
100
AcDbSymbolTableRecord
100
AcDbBlockTableRecord
  2
GENDOT
340
0
102
{BLKREFS
331
66CF
331
66DA
102
}
 70
     0
280
     1
281
     0
  0
BLOCK_RECORD
  5
6C07
330
1
100
AcDbSymbolTableRecord
100
AcDbBlockTableRecord
  2
*D26
340
0
 70
     0
280
     1
281
     0
  0
BLOCK_RECORD
  5
6DCE
330
1
100
AcDbSymbolTableRecord
100
AcDbBlockTableRecord
  2
*D27
340
0
 70
     0
280
     1
281
     0
  0
BLOCK_RECORD
  5
6E11
330
1
100
AcDbSymbolTableRecord
100
AcDbBlockTableRecord
  2
*D28
340
0
 70
     0
280
     1
281
     0
  0
BLOCK_RECORD
  5
6F54
330
1
100
AcDbSymbolTableRecord
100
AcDbBlockTableRecord
  2
ケース
340
0
310
2800000020000000200000000100080000000000000400000000000000000000000000000000000000000000000080000080000000808000800000008000800080800000C0C0C000C0DCC000F0CAA6000020400000206000002080000020A0000020C0000020E00000400000004020000040400000406000004080000040A0
310
000040C0000040E00000600000006020000060400000606000006080000060A0000060C0000060E00000800000008020000080400000806000008080000080A0000080C0000080E00000A0000000A0200000A0400000A0600000A0800000A0A00000A0C00000A0E00000C0000000C0200000C0400000C0600000C0800000C0
310
A00000C0C00000C0E00000E0000000E0200000E0400000E0600000E0800000E0A00000E0C00000E0E00040000000400020004000400040006000400080004000A0004000C0004000E00040200000402020004020400040206000402080004020A0004020C0004020E000404000004040200040404000404060004040800040
310
40A0004040C0004040E00040600000406020004060400040606000406080004060A0004060C0004060E00040800000408020004080400040806000408080004080A0004080C0004080E00040A0000040A0200040A0400040A0600040A0800040A0A00040A0C00040A0E00040C0000040C0200040C0400040C0600040C08000
310
40C0A00040C0C00040C0E00040E0000040E0200040E0400040E0600040E0800040E0A00040E0C00040E0E00080000000800020008000400080006000800080008000A0008000C0008000E00080200000802020008020400080206000802080008020A0008020C0008020E00080400000804020008040400080406000804080
310
008040A0008040C0008040E00080600000806020008060400080606000806080008060A0008060C0008060E00080800000808020008080400080806000808080008080A0008080C0008080E00080A0000080A0200080A0400080A0600080A0800080A0A00080A0C00080A0E00080C0000080C0200080C0400080C0600080C0
310
800080C0A00080C0C00080C0E00080E0000080E0200080E0400080E0600080E0800080E0A00080E0C00080E0E000C0000000C0002000C0004000C0006000C0008000C000A000C000C000C000E000C0200000C0202000C0204000C0206000C0208000C020A000C020C000C020E000C0400000C0402000C0404000C0406000C0
310
408000C040A000C040C000C040E000C0600000C0602000C0604000C0606000C0608000C060A000C060C000C060E000C0800000C0802000C0804000C0806000C0808000C080A000C080C000C080E000C0A00000C0A02000C0A04000C0A06000C0A08000C0A0A000C0A0C000C0A0E000C0C00000C0C02000C0C04000C0C06000
310
C0C08000C0C0A000F0FBFF00A4A0A000808080000000FF0000FF000000FFFF00FF000000FF00FF00FFFF0000FFFFFF0000000000000000000000000000000000000000000000000000000000000000000000000000000000000000000000000000000000000000000000000000000000000000000000000000000000000000
310
00000000000000000000000000000000000000000000000000000000000000000000000000000000000000000000000000000000000000000000000000000000000000000000000000000000000000000000000000000000000000000000000000000000000000000000000000000000000000000000000000000000000000
310
000000000000000000000000000000000000000000000000000000000000000000000000000000000000000000000000000000000000000000000000000000000000FC00FC0000000000000000FC0000FC0000000000000000000000000000000000FCFCFC0000000000000000FCFCFCFC0000000000000000000000000000
310
000000FC00FC0000000000000000FC0000FC0000000000000000000000000000000000FC00FC0000000000000000FC0000FC0000FCFCFCFCFCFCFCFCFCFC0000000000FC00FC0000000000000000FC0000FC0000000000000000000000FC0000000000FC00FC0000000000000000FC0000FC0000FCFCFCFCFCFCFCFCFCFCFC
310
FC000000FC00FCFCFCFCFCFCFCFCFCFC0000FC0000000000000000000000FC0000000000FC00000000000000000000000000FC0000000000000000000000FC0000000000FC00000000000000000000000000FC0000FCFCFCFCFCFCFCFCFCFCFCFCFCFCFCFC00000000000000000000000000FC000000000000000000000000
310
00000000000000000000000000000000000000FC00000000000000000000000000000000000000000000000000000000000000FC00000000000000000000000000000000000000000000000000000000000000FC000000000000000000000000000000000000000000000000000000000000FC000000000000000000000000
310
0000000000000000000000000000000000FCFC00000000FCFCFCFCFCFCFCFCFCFCFCFCFCFCFCFCFCFCFCFCFCFCFCFCFCFC000000000000000000000000000000000000000000000000000000000000000000000000000000000000000000000000000000000000000000000000000000000000000000000000000000000000
310
00000000000000000000000000000000000000000000000000000000000000000000000000000000000000000000000000000000000000000000000000000000000000000000000000000000000000000000000000000000000000000000000000000000000000000000000000000000000000000000000000000000000000
310
0000000000000000000000000000000000000000000000000000000000000000000000000000000000000000000000000000000000000000
102
{BLKREFS
331
6F6F
102
}
 70
     4
280
     1
281
     1
  0
ENDTAB
  0
ENDSEC
  0
SECTION
  2
BLOCKS
  0
BLOCK
  5
20
330
1F
100
AcDbEntity
  8
0
100
AcDbBlockBegin
  2
*Model_Space
 70
     0
 10
0.0
 20
0.0
 30
0.0
  3
*Model_Space
  1

  0
ENDBLK
  5
21
330
1F
100
AcDbEntity
  8
0
100
AcDbBlockEnd
  0
BLOCK
  5
1C
330
1B
100
AcDbEntity
 67
     1
  8
0
100
AcDbBlockBegin
  2
*Paper_Space
 70
     0
 10
0.0
 20
0.0
 30
0.0
  3
*Paper_Space
  1

  0
ENDBLK
  5
1D
330
1B
100
AcDbEntity
 67
     1
  8
0
100
AcDbBlockEnd
  0
BLOCK
  5
24
330
23
100
AcDbEntity
 67
     1
  8
0
100
AcDbBlockBegin
  2
*Paper_Space0
 70
     0
 10
0.0
 20
0.0
 30
0.0
  3
*Paper_Space0
  1

  0
ENDBLK
  5
25
330
23
100
AcDbEntity
 67
     1
  8
0
100
AcDbBlockEnd
  0
BLOCK
  5
6D
330
69
100
AcDbEntity
  8
0
100
AcDbBlockBegin
  2
_Open30
 70
     0
 10
0.0
 20
0.0
 30
0.0
  3
_Open30
  1

  0
LINE
  5
6A
330
69
100
AcDbEntity
  8
0
  6
ByBlock
 62
     0
370
    -2
100
AcDbLine
 10
-1.0
 20
0.26794919
 30
0.0
 11
0.0
 21
0.0
 31
0.0
  0
LINE
  5
6B
330
69
100
AcDbEntity
  8
0
  6
ByBlock
 62
     0
370
    -2
100
AcDbLine
 10
0.0
 20
0.0
 30
0.0
 11
-1.0
 21
-0.26794919
 31
0.0
  0
LINE
  5
6C
330
69
100
AcDbEntity
  8
0
  6
ByBlock
 62
     0
370
    -2
100
AcDbLine
 10
0.0
 20
0.0
 30
0.0
 11
-1.0
 21
0.0
 31
0.0
  0
ENDBLK
  5
6E
330
69
100
AcDbEntity
  8
0
100
AcDbBlockEnd
  0
BLOCK
  5
76
330
74
100
AcDbEntity
  8
0
100
AcDbBlockBegin
  2
GENAXEH
 70
     0
 10
0.0
 20
0.0
 30
0.0
  3
GENAXEH
  1

  0
LINE
  5
75
330
74
100
AcDbEntity
  8
0
100
AcDbLine
 10
-1.0
 20
0.0
 30
0.0
 11
1.0
 21
0.0
 31
0.0
  0
ENDBLK
  5
77
330
74
100
AcDbEntity
  8
0
100
AcDbBlockEnd
  0
BLOCK
  5
4462
330
4461
100
AcDbEntity
  8
0
100
AcDbBlockBegin
  2
ロッカクアナツキプラグ R1／4
 70
     0
 10
0.0
 20
0.0
 30
0.0
  3
ロッカクアナツキプラグ R1／4
  1

  0
CIRCLE
  5
4464
330
4461
100
AcDbEntity
  8
AM_0 外形線1
100
AcDbCircle
 10
0.0
 20
0.0
 30
0.0
 40
7.174975999999999
  0
CIRCLE
  5
4465
330
4461
100
AcDbEntity
  8
AM_4 細線
100
AcDbCircle
 10
0.0
 20
0.0
 30
0.0
 40
6.504976
  0
LINE
  5
4466
330
4461
100
AcDbEntity
  8
AM_7 中心線
100
AcDbLine
 10
8.404976000000031
 20
0.0
 30
0.0
 11
-8.404975999999804
 21
0.0
 31
0.0
  0
LINE
  5
4467
330
4461
100
AcDbEntity
  8
AM_7 中心線
100
AcDbLine
 10
0.0
 20
8.404975999999804
 30
0.0
 11
0.0
 21
-8.40497600000026
 31
0.0
  0
LINE
  5
4468
330
4461
100
AcDbEntity
  8
AM_0 外形線1
100
AcDbLine
 10
2.611068000000158
 20
-1.507500000000162
 30
0.0
 11
2.611068000000158
 21
1.507499999999707
 31
0.0
  0
LINE
  5
4469
330
4461
100
AcDbEntity
  8
AM_0 外形線1
100
AcDbLine
 10
0.0
 20
-3.015000000000326
 30
0.0
 11
2.611068000000158
 21
-1.507500000000162
 31
0.0
  0
LINE
  5
446A
330
4461
100
AcDbEntity
  8
AM_0 外形線1
100
AcDbLine
 10
-2.611067999999931
 20
-1.507500000000162
 30
0.0
 11
0.0
 21
-3.015000000000326
 31
0.0
  0
LINE
  5
446B
330
4461
100
AcDbEntity
  8
AM_0 外形線1
100
AcDbLine
 10
-2.611067999999931
 20
1.507499999999707
 30
0.0
 11
-2.611067999999931
 21
-1.507500000000162
 31
0.0
  0
LINE
  5
446C
330
4461
100
AcDbEntity
  8
AM_0 外形線1
100
AcDbLine
 10
0.0
 20
3.014999999999871
 30
0.0
 11
-2.611067999999931
 21
1.507499999999707
 31
0.0
  0
LINE
  5
446D
330
4461
100
AcDbEntity
  8
AM_0 外形線1
100
AcDbLine
 10
2.611068000000158
 20
1.507499999999707
 30
0.0
 11
0.0
 21
3.014999999999871
 31
0.0
  0
ENDBLK
  5
4463
330
4461
100
AcDbEntity
  8
0
100
AcDbBlockEnd
  0
BLOCK
  5
44F5
330
44F4
100
AcDbEntity
  8
0
100
AcDbBlockBegin
  2
ケースＡ SEM315
 70
     0
 10
0.0
 20
0.0
 30
0.0
  3
ケースＡ SEM315
  1

  0
LINE
  5
44F7
330
44F4
100
AcDbEntity
  8
AM_0 外形線1
100
AcDbLine
 10
0.0
 20
0.0
 30
0.0
 11
0.0
 21
-156.5
 31
0.0
  0
LINE
  5
44F8
330
44F4
100
AcDbEntity
  8
AM_0 外形線1
100
AcDbLine
 10
98.0
 20
-126.0
 30
0.0
 11
98.0
 21
0.0
 31
0.0
  0
LINE
  5
44F9
330
44F4
100
AcDbEntity
  8
AM_0 外形線1
100
AcDbLine
 10
21.0
 20
-156.5
 30
0.0
 11
21.0
 21
0.0
 31
0.0
  0
LINE
  5
44FA
330
44F4
100
AcDbEntity
  8
AM_0 外形線1
100
AcDbLine
 10
1.0
 20
-157.5
 30
0.0
 11
20.0
 21
-157.5
 31
0.0
  0
LINE
  5
44FB
330
44F4
100
AcDbEntity
  8
AM_0 外形線1
100
AcDbLine
 10
0.0
 20
-156.5
 30
0.0
 11
1.0
 21
-157.5
 31
0.0
  0
LINE
  5
44FC
330
44F4
100
AcDbEntity
  8
AM_0 外形線1
100
AcDbLine
 10
25.0
 20
-130.0
 30
0.0
 11
94.0
 21
-130.0
 31
0.0
  0
ARC
  5
44FD
330
44F4
100
AcDbEntity
  8
AM_0 外形線1
100
AcDbCircle
 10
25.0
 20
-134.0
 30
0.0
 40
4.0
100
AcDbArc
 50
90.0
 51
180.0
  0
ARC
  5
44FE
330
44F4
100
AcDbEntity
  8
AM_0 外形線1
100
AcDbCircle
 10
94.0
 20
-126.0
 30
0.0
 40
4.0
100
AcDbArc
 50
270.0
 51
0.0
  0
LINE
  5
44FF
330
44F4
100
AcDbEntity
  8
AM_7 中心線
100
AcDbLine
 10
-34.0
 20
145.5
 30
0.0
 11
44.0
 21
145.5
 31
0.0
  0
LINE
  5
4500
330
44F4
100
AcDbEntity
  8
AM_0 外形線1
100
AcDbLine
 10
36.0
 20
123.5
 30
0.0
 11
-4.0
 21
123.5
 31
0.0
  0
LINE
  5
4501
330
44F4
100
AcDbEntity
  8
AM_0 外形線1
100
AcDbLine
 10
0.0
 20
138.5
 30
0.0
 11
21.0
 21
138.5
 31
0.0
  0
LINE
  5
4502
330
44F4
100
AcDbEntity
  8
AM_0 外形線1
100
AcDbLine
 10
0.0
 20
152.5
 30
0.0
 11
21.0
 21
152.5
 31
0.0
  0
LINE
  5
4503
330
44F4
100
AcDbEntity
  8
AM_0 外形線1
100
AcDbLine
 10
1.0
 20
157.5
 30
0.0
 11
20.0
 21
157.5
 31
0.0
  0
LWPOLYLINE
  5
4504
330
44F4
100
AcDbEntity
  8
AM_0 外形線1
100
AcDbPolyline
 90
       49
 70
     0
 43
0.0
 10
1.349999999999909
 20
129.5
 10
1.468364000000065
 20
129.5085240000003
 10
1.584424000000125
 20
129.5334200000002
 10
1.701240000000098
 20
129.5757640000001
 10
1.811728000000129
 20
129.6326760000001
 10
1.922759999999925
 20
129.7079040000003
 10
2.02500000000009
 20
129.7947440000002
 10
2.31854000000021
 20
130.1656600000001
 10
2.519135999999889
 20
130.6000000000003
 10
2.620476000000053
 20
130.9552640000001
 10
2.679491999999981
 20
131.3179720000003
 10
2.694868000000041
 20
131.5086520000004
 10
2.700000000000044
 20
131.7000000000003
 10
2.694868000000041
 20
131.8913440000001
 10
2.679491999999981
 20
132.0820240000003
 10
2.620476000000053
 20
132.4447360000003
 10
2.519135999999889
 20
132.8000000000002
 10
2.31854000000021
 20
133.2343360000004
 10
2.02500000000009
 20
133.6052560000003
 10
1.922759999999925
 20
133.6920920000002
 10
1.811728000000129
 20
133.7673240000003
 10
1.701240000000098
 20
133.8242360000004
 10
1.584424000000125
 20
133.8665760000003
 10
1.468364000000065
 20
133.8914720000002
 10
1.349999999999909
 20
133.9000000000001
 10
1.231635999999979
 20
133.8914720000002
 10
1.115576000000146
 20
133.8665760000003
 10
0.9987599999999472
 20
133.8242360000004
 10
0.8882720000001427
 20
133.7673240000003
 10
0.77724000000012
 20
133.6920920000002
 10
0.6750000000001819
 20
133.6052560000003
 10
0.381460000000061
 20
133.2343360000004
 10
0.1808679999999185
 20
132.8000000000002
 10
0.0795240000002195
 20
132.4447360000003
 10
0.0205080000000635
 20
132.0820240000003
 10
0.0051359999999931
 20
131.8913440000001
 10
0.0
 20
131.7000000000003
 10
0.0051359999999931
 20
131.5086520000004
 10
0.0205080000000635
 20
131.3179720000003
 10
0.0795240000002195
 20
130.9552640000001
 10
0.1808679999999185
 20
130.6000000000003
 10
0.381460000000061
 20
130.1656600000001
 10
0.6750000000001819
 20
129.7947440000002
 10
0.77724000000012
 20
129.7079040000003
 10
0.8882720000001427
 20
129.6326760000001
 10
0.9987599999999472
 20
129.5757640000001
 10
1.115576000000146
 20
129.5334200000002
 10
1.231635999999979
 20
129.5085240000003
 10
1.349999999999909
 20
129.5
  0
LINE
  5
4505
330
44F4
100
AcDbEntity
  8
AM_0 外形線1
100
AcDbLine
 10
2.200000000000045
 20
133.9000000000001
 30
0.0
 11
0.0
 21
133.9000000000001
 31
0.0
  0
ARC
  5
4506
330
44F4
100
AcDbEntity
  8
AM_0 外形線1
100
AcDbCircle
 10
2.200000000000045
 20
133.4000000000001
 30
0.0
 40
0.5
100
AcDbArc
 50
0.0
 51
90.0
  0
LINE
  5
4507
330
44F4
100
AcDbEntity
  8
AM_0 外形線1
100
AcDbLine
 10
2.700000000000044
 20
130.0
 30
0.0
 11
2.700000000000044
 21
133.4000000000001
 31
0.0
  0
ARC
  5
4508
330
44F4
100
AcDbEntity
  8
AM_0 外形線1
100
AcDbCircle
 10
2.200000000000045
 20
130.0
 30
0.0
 40
0.5
100
AcDbArc
 50
270.0
 51
0.0
  0
LINE
  5
4509
330
44F4
100
AcDbEntity
  8
AM_0 外形線1
100
AcDbLine
 10
-3.5
 20
129.5
 30
0.0
 11
2.200000000000045
 21
129.5
 31
0.0
  0
LINE
  5
450A
330
44F4
100
AcDbEntity
  8
AM_0 外形線1
100
AcDbLine
 10
-4.0
 20
129.0
 30
0.0
 11
-3.5
 21
129.5
 31
0.0
  0
LINE
  5
450B
330
44F4
100
AcDbEntity
  8
AM_0 外形線1
100
AcDbLine
 10
-4.0
 20
123.5
 30
0.0
 11
-4.0
 21
129.0
 31
0.0
  0
LINE
  5
450C
330
44F4
100
AcDbEntity
  8
AM_0 外形線1
100
AcDbLine
 10
0.0000000000001137
 20
133.9000000000002
 30
0.0
 11
0.0
 21
138.5
 31
0.0
  0
LINE
  5
450D
330
44F4
100
AcDbEntity
  8
AM_0 外形線1
100
AcDbLine
 10
0.0
 20
152.5
 30
0.0
 11
0.0
 21
156.5
 31
0.0
  0
LINE
  5
450E
330
44F4
100
AcDbEntity
  8
AM_0 外形線1
100
AcDbLine
 10
0.0
 20
156.5
 30
0.0
 11
1.0
 21
157.5
 31
0.0
  0
LINE
  5
450F
330
44F4
100
AcDbEntity
  8
AM_3 隠れ線
100
AcDbLine
 10
41.0
 20
117.6000000000003
 30
0.0
 11
75.0
 21
117.6000000000003
 31
0.0
  0
LINE
  5
4510
330
44F4
100
AcDbEntity
  8
AM_7 中心線
 48
0.5
100
AcDbLine
 10
35.0
 20
120.0
 30
0.0
 11
78.0
 21
120.0
 31
0.0
  0
LINE
  5
4511
330
44F4
100
AcDbEntity
  8
AM_0 外形線1
100
AcDbLine
 10
25.0
 20
130.0
 30
0.0
 11
94.0
 21
130.0
 31
0.0
  0
LINE
  5
4512
330
44F4
100
AcDbEntity
  8
AM_0 外形線1
100
AcDbLine
 10
37.0
 20
123.0
 30
0.0
 11
76.0
 21
123.0
 31
0.0
  0
LINE
  5
4513
330
44F4
100
AcDbEntity
  8
AM_0 外形線1
100
AcDbLine
 10
41.0
 20
117.6000000000003
 30
0.0
 11
38.0
 21
117.6000000000003
 31
0.0
  0
LINE
  5
4514
330
44F4
100
AcDbEntity
  8
AM_0 外形線1
100
AcDbLine
 10
21.0
 20
134.0
 30
0.0
 11
21.0
 21
156.5
 31
0.0
  0
ARC
  5
4515
330
44F4
100
AcDbEntity
  8
AM_0 外形線1
100
AcDbCircle
 10
25.0
 20
134.0
 30
0.0
 40
4.0
100
AcDbArc
 50
180.0
 51
270.0
  0
ARC
  5
4516
330
44F4
100
AcDbEntity
  8
AM_0 外形線1
100
AcDbCircle
 10
36.0
 20
122.5
 30
0.0
 40
1.0
100
AcDbArc
 50
0.0
 51
90.0
  0
LINE
  5
4517
330
44F4
100
AcDbEntity
  8
AM_0 外形線1
100
AcDbLine
 10
37.0
 20
118.6000000000003
 30
0.0
 11
37.0
 21
122.5
 31
0.0
  0
LINE
  5
4518
330
44F4
100
AcDbEntity
  8
AM_0 外形線1
100
AcDbLine
 10
38.0
 20
117.6000000000003
 30
0.0
 11
37.0
 21
118.6000000000003
 31
0.0
  0
LINE
  5
4519
330
44F4
100
AcDbEntity
  8
AM_0 外形線1
100
AcDbLine
 10
20.0
 20
157.5
 30
0.0
 11
21.0
 21
156.5
 31
0.0
  0
LWPOLYLINE
  5
451A
330
44F4
100
AcDbEntity
  8
AM_0 外形線1
100
AcDbPolyline
 90
       49
 70
     0
 43
0.0
 10
95.60000000000002
 20
115.9500000000003
 10
95.578304
 20
116.2524640000001
 10
95.51492400000006
 20
116.5490840000002
 10
95.40716799999996
 20
116.8475560000001
 10
95.26228000000003
 20
117.1299680000002
 10
95.07083200000009
 20
117.4136600000001
 10
94.84974399999998
 20
117.6750000000001
 10
93.90596800000002
 20
118.4248400000001
 10
92.80000000000006
 20
118.9377880000002
 10
91.89579200000002
 20
119.1967600000003
 10
90.97243200000002
 20
119.3475840000001
 10
90.48706800000003
 20
119.3868760000005
 10
90.0
 20
119.4000000000001
 10
89.51293600000008
 20
119.3868760000005
 10
89.02757200000008
 20
119.3475840000001
 10
88.10420800000008
 20
119.1967600000003
 10
87.20000000000004
 20
118.9377880000002
 10
86.09403200000008
 20
118.4248400000001
 10
85.15026
 20
117.6750000000001
 10
84.92916800000001
 20
117.4136600000001
 10
84.73771999999994
 20
117.1299680000002
 10
84.59283200000005
 20
116.8475560000001
 10
84.48507600000004
 20
116.5490840000002
 10
84.4216959999999
 20
116.2524640000001
 10
84.39999999999997
 20
115.9500000000003
 10
84.4216959999999
 20
115.6475320000004
 10
84.48507600000004
 20
115.3509120000003
 10
84.59283200000005
 20
115.0524400000004
 10
84.73771999999994
 20
114.7700280000004
 10
84.92916800000001
 20
114.4863360000004
 10
85.15026
 20
114.2250000000003
 10
86.09403200000008
 20
113.4751560000004
 10
87.20000000000004
 20
112.9622120000003
 10
88.10420800000008
 20
112.7032360000003
 10
89.02757200000008
 20
112.552412
 10
89.51293600000008
 20
112.51312
 10
90.0
 20
112.5
 10
90.48706800000003
 20
112.51312
 10
90.97243200000002
 20
112.552412
 10
91.89579200000002
 20
112.7032360000003
 10
92.80000000000006
 20
112.9622120000003
 10
93.90596800000002
 20
113.4751560000004
 10
94.84974399999998
 20
114.2250000000003
 10
95.07083200000009
 20
114.4863360000004
 10
95.26228000000003
 20
114.7700280000004
 10
95.40716799999996
 20
115.0524400000004
 10
95.51492400000006
 20
115.3509120000003
 10
95.578304
 20
115.6475320000004
 10
95.60000000000002
 20
115.9500000000003
  0
LINE
  5
451B
330
44F4
100
AcDbEntity
  8
AM_0 外形線1
100
AcDbLine
 10
82.0
 20
114.0
 30
0.0
 11
82.0
 21
122.5
 31
0.0
  0
LINE
  5
451C
330
44F4
100
AcDbEntity
  8
AM_0 外形線1
100
AcDbLine
 10
84.39999999999997
 20
118.9000000000001
 30
0.0
 11
84.39999999999997
 21
114.0
 31
0.0
  0
LINE
  5
451D
330
44F4
100
AcDbEntity
  8
AM_0 外形線1
100
AcDbLine
 10
95.60000000000002
 20
114.0
 30
0.0
 11
95.60000000000002
 21
118.9000000000001
 31
0.0
  0
LINE
  5
451E
330
44F4
100
AcDbEntity
  8
AM_0 外形線1
100
AcDbLine
 10
98.0
 20
126.0
 30
0.0
 11
98.0
 21
114.0
 31
0.0
  0
LINE
  5
451F
330
44F4
100
AcDbEntity
  8
AM_0 外形線1
100
AcDbLine
 10
84.39999999999997
 20
114.0
 30
0.0
 11
82.0
 21
114.0
 31
0.0
  0
LINE
  5
4520
330
44F4
100
AcDbEntity
  8
AM_0 外形線1
100
AcDbLine
 10
84.39999999999997
 20
114.0
 30
0.0
 11
84.39999999999997
 21
112.5
 31
0.0
  0
LINE
  5
4521
330
44F4
100
AcDbEntity
  8
AM_0 外形線1
100
AcDbLine
 10
82.0
 20
114.0
 30
0.0
 11
82.0
 21
112.5
 31
0.0
  0
LINE
  5
4522
330
44F4
100
AcDbEntity
  8
AM_0 外形線1
100
AcDbLine
 10
98.0
 20
114.0
 30
0.0
 11
95.60000000000002
 21
114.0
 31
0.0
  0
LINE
  5
4523
330
44F4
100
AcDbEntity
  8
AM_0 外形線1
100
AcDbLine
 10
98.0
 20
114.0
 30
0.0
 11
98.0
 21
112.5
 31
0.0
  0
LINE
  5
4524
330
44F4
100
AcDbEntity
  8
AM_0 外形線1
100
AcDbLine
 10
95.60000000000002
 20
114.0
 30
0.0
 11
95.60000000000002
 21
112.5
 31
0.0
  0
LINE
  5
4525
330
44F4
100
AcDbEntity
  8
AM_0 外形線1
100
AcDbLine
 10
95.10000000000003
 20
119.4000000000001
 30
0.0
 11
84.89999999999998
 21
119.4000000000001
 31
0.0
  0
LINE
  5
4526
330
44F4
100
AcDbEntity
  8
AM_3 隠れ線
100
AcDbLine
 10
76.0
 20
120.8606560000003
 30
0.0
 11
76.0
 21
118.6000000000003
 31
0.0
  0
LINE
  5
4527
330
44F4
100
AcDbEntity
  8
AM_0 外形線1
100
AcDbLine
 10
76.0
 20
120.8606560000003
 30
0.0
 11
76.0
 21
122.5
 31
0.0
  0
LINE
  5
4528
330
44F4
100
AcDbEntity
  8
AM_3 隠れ線
100
AcDbLine
 10
76.0
 20
118.6000000000003
 30
0.0
 11
75.0
 21
117.6000000000003
 31
0.0
  0
ARC
  5
4529
330
44F4
100
AcDbEntity
  8
AM_0 外形線1
100
AcDbCircle
 10
77.0
 20
122.5
 30
0.0
 40
1.0
100
AcDbArc
 50
90.0
 51
180.0
  0
LINE
  5
452A
330
44F4
100
AcDbEntity
  8
AM_0 外形線1
100
AcDbLine
 10
81.0
 20
123.5
 30
0.0
 11
77.0
 21
123.5
 31
0.0
  0
ARC
  5
452B
330
44F4
100
AcDbEntity
  8
AM_0 外形線1
100
AcDbCircle
 10
81.0
 20
122.5
 30
0.0
 40
1.0
100
AcDbArc
 50
0.0
 51
90.0
  0
ARC
  5
452C
330
44F4
100
AcDbEntity
  8
AM_0 外形線1
100
AcDbCircle
 10
84.89999999999998
 20
118.9000000000001
 30
0.0
 40
0.5
100
AcDbArc
 50
90.0
 51
180.0
  0
ARC
  5
452D
330
44F4
100
AcDbEntity
  8
AM_0 外形線1
100
AcDbCircle
 10
95.10000000000003
 20
118.9000000000001
 30
0.0
 40
0.5
100
AcDbArc
 50
0.0
 51
90.0
  0
ARC
  5
452E
330
44F4
100
AcDbEntity
  8
AM_0 外形線1
100
AcDbCircle
 10
94.0
 20
126.0
 30
0.0
 40
4.0
100
AcDbArc
 50
0.0
 51
90.0
  0
INSERT
  5
452F
330
44F4
100
AcDbEntity
  8
AM_0 外形線1
100
AcDbBlockReference
  2
ロッカクアナツキプラグ R1／4
 10
10.5
 20
-37.65817199999947
 30
0.0
  0
ENDBLK
  5
44F6
330
44F4
100
AcDbEntity
  8
0
100
AcDbBlockEnd
  0
BLOCK
  5
460D
330
460C
100
AcDbEntity
  8
0
100
AcDbBlockBegin
  2
リジット SEM315
 70
     0
 10
0.0
 20
0.0
 30
0.0
  3
リジット SEM315
  1

  0
LINE
  5
460F
330
460C
100
AcDbEntity
  8
AM_0 外形線1
100
AcDbLine
 10
-178.0
 20
121.0
 30
0.0
 11
-178.0
 21
-121.0
 31
0.0
  0
LINE
  5
4610
330
460C
100
AcDbEntity
  8
AM_0 外形線1
100
AcDbLine
 10
-21.0
 20
-156.5
 30
0.0
 11
-21.0
 21
0.0
 31
0.0
  0
LINE
  5
4611
330
460C
100
AcDbEntity
  8
AM_0 外形線1
100
AcDbLine
 10
-34.54101999999989
 20
-125.0
 30
0.0
 11
-174.0
 21
-125.0
 31
0.0
  0
ARC
  5
4612
330
460C
100
AcDbEntity
  8
AM_0 外形線1
100
AcDbCircle
 10
-174.0
 20
-121.0
 30
0.0
 40
4.0
100
AcDbArc
 50
180.0
 51
270.0
  0
ARC
  5
4613
330
460C
100
AcDbEntity
  8
AM_0 外形線1
100
AcDbCircle
 10
-34.54101999999989
 20
-140.0
 30
0.0
 40
15.0
100
AcDbArc
 50
63.43494900000336
 51
90.0
  0
LINE
  5
4614
330
460C
100
AcDbEntity
  8
AM_7 中心線
100
AcDbLine
 10
26.44840255124587
 20
-145.5
 30
0.0
 11
-26.0
 21
-145.5
 31
0.0
  0
LINE
  5
4615
330
460C
100
AcDbEntity
  8
AM_0 外形線1
100
AcDbLine
 10
-1.0
 20
-157.5
 30
0.0
 11
-20.0
 21
-157.5
 31
0.0
  0
LINE
  5
4616
330
460C
100
AcDbEntity
  8
AM_0 外形線1
100
AcDbLine
 10
-20.0
 20
-157.5
 30
0.0
 11
-21.0
 21
-156.5
 31
0.0
  0
LINE
  5
4617
330
460C
100
AcDbEntity
  8
AM_0 外形線1
100
AcDbLine
 10
0.0
 20
-156.5
 30
0.0
 11
-1.0
 21
-157.5
 31
0.0
  0
LINE
  5
4618
330
460C
100
AcDbEntity
  8
AM_0 外形線1
100
AcDbLine
 10
-23.21114399999988
 20
-128.8944279999996
 30
0.0
 11
-27.83281600000009
 21
-126.5835919999999
 31
0.0
  0
ARC
  5
4619
330
460C
100
AcDbEntity
  8
AM_0 外形線1
100
AcDbCircle
 10
-25.0
 20
-132.4721359999998
 30
0.0
 40
4.0
100
AcDbArc
 50
0.0
 51
63.43494900000336
  0
LINE
  5
461A
330
460C
100
AcDbEntity
  8
AM_0 外形線1
100
AcDbLine
 10
-34.54101999999989
 20
125.0
 30
0.0
 11
-174.0
 21
125.0
 31
0.0
  0
ARC
  5
461B
330
460C
100
AcDbEntity
  8
AM_0 外形線1
100
AcDbCircle
 10
-174.0
 20
121.0
 30
0.0
 40
4.0
100
AcDbArc
 50
90.0
 51
180.0
  0
LINE
  5
461C
330
460C
100
AcDbEntity
  8
AM_0 外形線1
100
AcDbLine
 10
-8.0
 20
0.0
 30
0.0
 11
-8.000000000000227
 21
126.5
 31
0.0
  0
LINE
  5
461D
330
460C
100
AcDbEntity
  8
AM_3 隠れ線
100
AcDbLine
 10
-8.0
 20
6.0
 30
0.0
 11
-36.0
 21
6.0
 31
0.0
  0
LINE
  5
461E
330
460C
100
AcDbEntity
  8
AM_3 隠れ線
100
AcDbLine
 10
-8.0
 20
5.15000000000009
 30
0.0
 11
-41.0
 21
5.15000000000009
 31
0.0
  0
LINE
  5
461F
330
460C
100
AcDbEntity
  8
AM_3 隠れ線
100
AcDbLine
 10
-36.0
 20
6.0
 30
0.0
 11
-36.0
 21
0.0
 31
0.0
  0
LINE
  5
4620
330
460C
100
AcDbEntity
  8
AM_3 隠れ線
100
AcDbLine
 10
-36.49074800000017
 20
5.15000000000009
 30
0.0
 11
-36.49074800000017
 21
0.0
 31
0.0
  0
LINE
  5
4621
330
460C
100
AcDbEntity
  8
AM_3 隠れ線
100
AcDbLine
 10
-41.0
 20
5.15000000000009
 30
0.0
 11
-43.97335199999997
 21
0.0
 31
0.0
  0
LINE
  5
4622
330
460C
100
AcDbEntity
  8
AM_3 隠れ線
100
AcDbLine
 10
-41.0
 20
5.15000000000009
 30
0.0
 11
-41.0
 21
0.0
 31
0.0
  0
LINE
  5
4623
330
460C
100
AcDbEntity
  8
AM_3 隠れ線
100
AcDbLine
 10
-36.0
 20
6.0
 30
0.0
 11
-36.49074800000017
 21
5.15000000000009
 31
0.0
  0
ARC
  5
4624
330
460C
100
AcDbEntity
  8
AM_0 外形線1
100
AcDbCircle
 10
-34.54101999999989
 20
140.0
 30
0.0
 40
15.0
100
AcDbArc
 50
270.0
 51
296.5650509999967
  0
LINE
  5
4625
330
460C
100
AcDbEntity
  8
AM_0 外形線1
100
AcDbLine
 10
-21.0
 20
132.4721360000003
 30
0.0
 11
-21.0
 21
156.5
 31
0.0
  0
LINE
  5
4626
330
460C
100
AcDbEntity
  8
AM_0 外形線1
100
AcDbLine
 10
-23.21114399999988
 20
128.8944240000001
 30
0.0
 11
-27.83281600000009
 21
126.5835919999999
 31
0.0
  0
ARC
  5
4627
330
460C
100
AcDbEntity
  8
AM_0 外形線1
100
AcDbCircle
 10
-25.0
 20
132.4721360000003
 30
0.0
 40
4.0
100
AcDbArc
 50
296.5650509999967
 51
0.0
  0
LINE
  5
4628
330
460C
100
AcDbEntity
  8
AM_0 外形線1
100
AcDbLine
 10
-0.5
 20
129.5
 30
0.0
 11
0.0
 21
130.0
 31
0.0
  0
ARC
  5
4629
330
460C
100
AcDbEntity
  8
AM_0 外形線1
100
AcDbCircle
 10
-5.0
 20
126.5
 30
0.0
 40
3.0
100
AcDbArc
 50
90.0
 51
180.0
  0
LINE
  5
462A
330
460C
100
AcDbEntity
  8
AM_0 外形線1
100
AcDbLine
 10
-1.0
 20
157.5
 30
0.0
 11
-20.0
 21
157.5
 31
0.0
  0
LINE
  5
462B
330
460C
100
AcDbEntity
  8
AM_0 外形線1
100
AcDbLine
 10
-20.0
 20
157.5
 30
0.0
 11
-21.0
 21
156.5
 31
0.0
  0
LINE
  5
462C
330
460C
100
AcDbEntity
  8
AM_0 外形線1
100
AcDbLine
 10
0.0
 20
156.5
 30
0.0
 11
-1.0
 21
157.5
 31
0.0
  0
LINE
  5
462E
330
460C
100
AcDbEntity
  8
AM_0 外形線1
100
AcDbLine
 10
-8.0
 20
70.0
 30
0.0
 11
-178.0
 21
70.0
 31
0.0
  0
LINE
  5
4681
330
460C
100
AcDbEntity
  8
AM_0 外形線1
100
AcDbLine
 10
-21.0
 20
152.5
 30
0.0
 11
-0.0000000000001137
 21
152.5
 31
0.0
  0
LINE
  5
4682
330
460C
100
AcDbEntity
  8
AM_0 外形線1
100
AcDbLine
 10
-21.0
 20
138.5
 30
0.0
 11
0.0
 21
138.5
 31
0.0
  0
LINE
  5
4683
330
460C
100
AcDbEntity
  8
AM_0 外形線1
100
AcDbLine
 10
0.0
 20
156.5
 30
0.0
 11
0.0
 21
152.5
 31
0.0
  0
LINE
  5
4684
330
460C
100
AcDbEntity
  8
AM_0 外形線1
100
AcDbLine
 10
0.0
 20
130.0
 30
0.0
 11
0.0
 21
138.5
 31
0.0
  0
LINE
  5
4685
330
460C
100
AcDbEntity
  8
AM_0 外形線1
100
AcDbLine
 10
-5.0
 20
129.5
 30
0.0
 11
-0.5
 21
129.5
 31
0.0
  0
LINE
  5
4687
330
460C
100
AcDbEntity
  8
AM_0 外形線1
100
AcDbLine
 10
0.0
 20
-156.5
 30
0.0
 11
0.0
 21
0.0
 31
0.0
  0
ENDBLK
  5
460E
330
460C
100
AcDbEntity
  8
0
100
AcDbBlockEnd
  0
BLOCK
  5
46E6
330
46E5
100
AcDbEntity
  8
0
100
AcDbBlockBegin
  2
センタ SEM315
 70
     0
 10
0.0
 20
0.0
 30
0.0
  3
センタ SEM315
  1

  0
LINE
  5
46E8
330
46E5
100
AcDbEntity
  8
AM_0 外形線1
100
AcDbLine
 10
130.9716320000001
 20
111.7000000000002
 30
0.0
 11
113.5
 21
111.7000000000002
 31
0.0
  0
LINE
  5
46E9
330
46E5
100
AcDbEntity
  8
AM_0 外形線1
100
AcDbLine
 10
113.5
 20
-111.6999999999998
 30
0.0
 11
130.9716320000001
 21
-111.6999999999998
 31
0.0
  0
LINE
  5
46EA
330
46E5
100
AcDbEntity
  8
AM_0 外形線1
100
AcDbLine
 10
0.0
 20
111.0
 30
0.0
 11
0.0
 21
0.0
 31
0.0
  0
LINE
  5
46EB
330
46E5
100
AcDbEntity
  8
AM_0 外形線1
100
AcDbLine
 10
113.5
 20
-111.6999999999998
 30
0.0
 11
113.5
 21
0.0
 31
0.0
  0
LINE
  5
46EC
330
46E5
100
AcDbEntity
  8
AM_0 外形線1
100
AcDbLine
 10
111.5
 20
-112.5
 30
0.0
 11
111.5
 21
0.0
 31
0.0
  0
LINE
  5
46ED
330
46E5
100
AcDbEntity
  8
AM_0 外形線1
100
AcDbLine
 10
90.0
 20
-112.5
 30
0.0
 11
111.5
 21
-112.5
 31
0.0
  0
LINE
  5
46EE
330
46E5
100
AcDbEntity
  8
AM_0 外形線1
100
AcDbLine
 10
111.5
 20
-112.5
 30
0.0
 11
113.5
 21
-111.6999999999998
 31
0.0
  0
LINE
  5
46EF
330
46E5
100
AcDbEntity
  8
AM_3 隠れ線
100
AcDbLine
 10
0.0
 20
5.15000000000009
 30
0.0
 11
33.0
 21
5.15000000000009
 31
0.0
  0
LINE
  5
46F0
330
46E5
100
AcDbEntity
  8
AM_3 隠れ線
100
AcDbLine
 10
28.49074800000017
 20
5.15000000000009
 30
0.0
 11
28.49074800000017
 21
0.0
 31
0.0
  0
LINE
  5
46F1
330
46E5
100
AcDbEntity
  8
AM_3 隠れ線
100
AcDbLine
 10
28.0
 20
6.0
 30
0.0
 11
28.0
 21
0.0
 31
0.0
  0
LINE
  5
46F2
330
46E5
100
AcDbEntity
  8
AM_3 隠れ線
100
AcDbLine
 10
0.0
 20
6.0
 30
0.0
 11
28.0
 21
6.0
 31
0.0
  0
LINE
  5
46F3
330
46E5
100
AcDbEntity
  8
AM_3 隠れ線
100
AcDbLine
 10
28.0
 20
6.0
 30
0.0
 11
28.49074800000017
 21
5.15000000000009
 31
0.0
  0
LINE
  5
46F4
330
46E5
100
AcDbEntity
  8
AM_3 隠れ線
100
AcDbLine
 10
33.0
 20
5.15000000000009
 30
0.0
 11
35.97335599999997
 21
0.0
 31
0.0
  0
LINE
  5
46F5
330
46E5
100
AcDbEntity
  8
AM_3 隠れ線
100
AcDbLine
 10
33.0
 20
5.15000000000009
 30
0.0
 11
33.0
 21
0.0
 31
0.0
  0
ARC
  5
46F7
330
46E5
100
AcDbEntity
  8
AM_0 外形線1
100
AcDbCircle
 10
49.0
 20
0.0
 30
0.0
 40
122.84
100
AcDbArc
 50
81.33816100000048
 51
97.01389600000513
  0
LINE
  5
46F9
330
46E5
100
AcDbEntity
  8
AM_7 中心線
 48
0.5
100
AcDbLine
 10
49.0
 20
127.8400000000001
 30
0.0
 11
49.0
 21
111.7000000000002
 31
0.0
  0
LINE
  5
46FA
330
46E5
100
AcDbEntity
  8
AM_0 外形線1
100
AcDbLine
 10
33.0
 20
120.7935360000001
 30
0.0
 11
33.0
 21
112.5
 31
0.0
  0
LINE
  5
46FB
330
46E5
100
AcDbEntity
  8
AM_0 外形線1
100
AcDbLine
 10
32.5
 20
112.0
 30
0.0
 11
1.0
 21
112.0
 31
0.0
  0
LINE
  5
46FC
330
46E5
100
AcDbEntity
  8
AM_0 外形線1
100
AcDbLine
 10
1.0
 20
112.0
 30
0.0
 11
0.0
 21
111.0
 31
0.0
  0
ARC
  5
46FD
330
46E5
100
AcDbEntity
  8
AM_0 外形線1
100
AcDbCircle
 10
32.5
 20
112.5
 30
0.0
 40
0.5
100
AcDbArc
 50
270.0
 51
0.0
  0
LINE
  5
46FE
330
46E5
100
AcDbEntity
  8
AM_0 外形線1
100
AcDbLine
 10
34.0
 20
121.9207320000005
 30
0.0
 11
33.0
 21
120.7935360000001
 31
0.0
  0
LINE
  5
46FF
330
46E5
100
AcDbEntity
  8
AM_0 外形線1
100
AcDbLine
 10
68.5
 20
113.0
 30
0.0
 11
68.5
 21
120.2823800000005
 31
0.0
  0
LINE
  5
4700
330
46E5
100
AcDbEntity
  8
AM_0 外形線1
100
AcDbLine
 10
111.5
 20
112.5
 30
0.0
 11
69.0
 21
112.5
 31
0.0
  0
ARC
  5
4701
330
46E5
100
AcDbEntity
  8
AM_0 外形線1
100
AcDbCircle
 10
69.0
 20
113.0
 30
0.0
 40
0.5
100
AcDbArc
 50
180.0
 51
270.0
  0
LINE
  5
4702
330
46E5
100
AcDbEntity
  8
AM_0 外形線1
100
AcDbLine
 10
113.5
 20
111.7000000000002
 30
0.0
 11
111.5
 21
112.5
 31
0.0
  0
LINE
  5
4703
330
46E5
100
AcDbEntity
  8
AM_0 外形線1
100
AcDbLine
 10
170.0
 20
-107.6999999999998
 30
0.0
 11
170.0
 21
107.7000000000003
 31
0.0
  0
LINE
  5
4704
330
46E5
100
AcDbEntity
  8
AM_0 外形線1
100
AcDbLine
 10
166.0
 20
-111.6999999999998
 30
0.0
 11
130.9716320000001
 21
-111.6999999999998
 31
0.0
  0
ARC
  5
4705
330
46E5
100
AcDbEntity
  8
AM_0 外形線1
100
AcDbCircle
 10
166.0
 20
-107.6999999999998
 30
0.0
 40
4.0
100
AcDbArc
 50
270.0
 51
0.0
  0
LINE
  5
4706
330
46E5
100
AcDbEntity
  8
AM_0 外形線1
100
AcDbLine
 10
166.0
 20
111.7000000000002
 30
0.0
 11
130.9716320000001
 21
111.7000000000002
 31
0.0
  0
ARC
  5
4707
330
46E5
100
AcDbEntity
  8
AM_0 外形線1
100
AcDbCircle
 10
166.0
 20
107.7000000000003
 30
0.0
 40
4.0
100
AcDbArc
 50
0.0
 51
90.0
  0
LINE
  5
4709
330
46E5
100
AcDbEntity
  8
AM_0 外形線1
100
AcDbLine
 10
0.0
 20
65.00000000000023
 30
0.0
 11
169.9999999999999
 21
65.0000000000001
 31
0.0
  0
LINE
  5
5AE6
330
46E5
100
AcDbEntity
  8
AM_0 外形線1
100
AcDbLine
 10
68.5
 20
120.2823800000005
 30
0.0
 11
67.5
 21
121.4389360000004
 31
0.0
  0
ARC
  5
6CEC
330
46E5
100
AcDbEntity
  8
AM_0 外形線1
100
AcDbCircle
 10
49.0
 20
0.0
 30
0.0
 40
116.7
100
AcDbArc
 50
80.38103431719315
 51
97.88028342679844
  0
ARC
  5
6DC0
330
46E5
100
AcDbEntity
  8
AM_7 中心線
100
AcDbCircle
 10
49.0
 20
0.0
 30
0.0
 40
120.0000000000001
100
AcDbArc
 50
78.86903196605548
 51
98.74178513074145
  0
ENDBLK
  5
46E7
330
46E5
100
AcDbEntity
  8
0
100
AcDbBlockEnd
  0
BLOCK
  5
4897
330
4896
100
AcDbEntity
  8
0
100
AcDbBlockBegin
  2
リーマボルト SEM315 M12
 70
     0
 10
0.0
 20
0.0
 30
0.0
  3
リーマボルト SEM315 M12
  1

  0
LINE
  5
4899
330
4896
100
AcDbEntity
  8
AM_0 外形線1
100
AcDbLine
 10
0.0
 20
-5.484827999999652
 30
0.0
 11
-7.162839999999959
 21
-5.484827999999652
 31
0.0
  0
LINE
  5
489A
330
4896
100
AcDbEntity
  8
AM_0 外形線1
100
AcDbLine
 10
0.0
 20
5.484828000000105
 30
0.0
 11
-7.162839999999959
 21
5.484828000000105
 31
0.0
  0
LINE
  5
489B
330
4896
100
AcDbEntity
  8
AM_0 外形線1
100
AcDbLine
 10
-7.162839999999959
 20
-10.94999999999981
 30
0.0
 11
0.0
 21
-10.94999999999981
 31
0.0
  0
LINE
  5
489C
330
4896
100
AcDbEntity
  8
AM_0 外形線1
100
AcDbLine
 10
0.0
 20
10.95000000000027
 30
0.0
 11
-7.162839999999959
 21
10.95000000000027
 31
0.0
  0
ARC
  5
489D
330
4896
100
AcDbEntity
  8
AM_0 外形線1
100
AcDbCircle
 10
10.38611600000013
 20
0.0
 30
0.0
 40
18.386116
100
AcDbArc
 50
162.6436620000026
 51
197.3563379999973
  0
LINE
  5
489E
330
4896
100
AcDbEntity
  8
AM_0 外形線1
100
AcDbLine
 10
-8.0
 20
9.5
 30
0.0
 11
-8.0
 21
-9.5
 31
0.0
  0
ARC
  5
489F
330
4896
100
AcDbEntity
  8
AM_0 外形線1
100
AcDbCircle
 10
-3.121671999999988
 20
-8.217415999999502
 30
0.0
 40
4.878327999999998
100
AcDbArc
 50
145.9339550000069
 51
214.0660449999931
  0
LINE
  5
48A0
330
4896
100
AcDbEntity
  8
AM_0 外形線1
100
AcDbLine
 10
-8.0
 20
-9.5
 30
0.0
 11
-7.162839999999959
 21
-10.94999999999981
 31
0.0
  0
ARC
  5
48A1
330
4896
100
AcDbEntity
  8
AM_0 外形線1
100
AcDbCircle
 10
-3.121671999999988
 20
8.217411999999967
 30
0.0
 40
4.878327999999998
100
AcDbArc
 50
145.9339550000069
 51
214.0660449999931
  0
LINE
  5
48A2
330
4896
100
AcDbEntity
  8
AM_0 外形線1
100
AcDbLine
 10
-7.162839999999959
 20
10.95000000000027
 30
0.0
 11
-8.0
 21
9.5
 31
0.0
  0
LINE
  5
48A3
330
4896
100
AcDbEntity
  8
AM_0 外形線1
100
AcDbLine
 10
2.0
 20
-7.0
 30
0.0
 11
2.0
 21
7.0
 31
0.0
  0
ARC
  5
48A4
330
4896
100
AcDbEntity
  8
AM_0 外形線1
100
AcDbCircle
 10
1.0
 20
-7.0
 30
0.0
 40
1.0
100
AcDbArc
 50
0.0
 51
180.0
  0
ARC
  5
48A5
330
4896
100
AcDbEntity
  8
AM_0 外形線1
100
AcDbCircle
 10
1.0
 20
7.0
 30
0.0
 40
1.0
100
AcDbArc
 50
180.0
 51
0.0
  0
LINE
  5
48A6
330
4896
100
AcDbEntity
  8
AM_0 外形線1
100
AcDbLine
 10
60.0
 20
-4.0
 30
0.0
 11
58.0
 21
-6.0
 31
0.0
  0
LINE
  5
48A7
330
4896
100
AcDbEntity
  8
AM_0 外形線1
100
AcDbLine
 10
58.0
 20
6.0
 30
0.0
 11
60.0
 21
4.0
 31
0.0
  0
LINE
  5
48A8
330
4896
100
AcDbEntity
  8
AM_0 外形線1
100
AcDbLine
 10
58.0
 20
6.0
 30
0.0
 11
58.0
 21
-6.0
 31
0.0
  0
ARC
  5
48A9
330
4896
100
AcDbEntity
  8
AM_0 外形線1
100
AcDbCircle
 10
36.61388399999986
 20
0.0
 30
0.0
 40
18.386116
100
AcDbArc
 50
342.6436620000027
 51
17.35633799999734
  0
LINE
  5
48AA
330
4896
100
AcDbEntity
  8
AM_0 外形線1
100
AcDbLine
 10
45.0
 20
-10.94999999999981
 30
0.0
 11
45.0
 21
10.95000000000027
 31
0.0
  0
LINE
  5
48AB
330
4896
100
AcDbEntity
  8
AM_0 外形線1
100
AcDbLine
 10
55.0
 20
9.5
 30
0.0
 11
55.0
 21
-9.5
 31
0.0
  0
LINE
  5
48AC
330
4896
100
AcDbEntity
  8
AM_0 外形線1
100
AcDbLine
 10
36.0
 20
7.0
 30
0.0
 11
36.0
 21
-7.0
 31
0.0
  0
LINE
  5
48AD
330
4896
100
AcDbEntity
  8
AM_0 外形線1
100
AcDbLine
 10
37.0
 20
6.422648000000207
 30
0.0
 11
37.0
 21
-6.422651999999742
 31
0.0
  0
LINE
  5
48AE
330
4896
100
AcDbEntity
  8
AM_0 外形線1
100
AcDbLine
 10
42.0
 20
-10.75
 30
0.0
 11
45.0
 21
-10.75
 31
0.0
  0
LINE
  5
48AF
330
4896
100
AcDbEntity
  8
AM_0 外形線1
100
AcDbLine
 10
37.0
 20
-6.422651999999742
 30
0.0
 11
42.0
 21
-6.422651999999742
 31
0.0
  0
LINE
  5
48B0
330
4896
100
AcDbEntity
  8
AM_0 外形線1
100
AcDbLine
 10
37.0
 20
-6.422651999999742
 30
0.0
 11
36.0
 21
-7.0
 31
0.0
  0
LINE
  5
48B1
330
4896
100
AcDbEntity
  8
AM_0 外形線1
100
AcDbLine
 10
58.0
 20
-6.0
 30
0.0
 11
55.0
 21
-6.0
 31
0.0
  0
LINE
  5
48B2
330
4896
100
AcDbEntity
  8
AM_0 外形線1
100
AcDbLine
 10
45.0
 20
-5.484827999999652
 30
0.0
 11
54.16284399999995
 21
-5.484827999999652
 31
0.0
  0
ARC
  5
48B3
330
4896
100
AcDbEntity
  8
AM_0 外形線1
100
AcDbCircle
 10
50.12167200000021
 20
-8.217415999999502
 30
0.0
 40
4.878327999999998
100
AcDbArc
 50
325.9339550000068
 51
34.06604499999309
  0
LINE
  5
48B4
330
4896
100
AcDbEntity
  8
AM_0 外形線1
100
AcDbLine
 10
54.16284399999995
 20
-10.94999999999981
 30
0.0
 11
45.0
 21
-10.94999999999981
 31
0.0
  0
LINE
  5
48B5
330
4896
100
AcDbEntity
  8
AM_0 外形線1
100
AcDbLine
 10
55.0
 20
-9.5
 30
0.0
 11
54.16284399999995
 21
-10.94999999999981
 31
0.0
  0
LINE
  5
48B6
330
4896
100
AcDbEntity
  8
AM_0 外形線1
100
AcDbLine
 10
45.0
 20
2.0
 30
0.0
 11
42.0
 21
-1.0
 31
0.0
  0
LINE
  5
48B7
330
4896
100
AcDbEntity
  8
AM_0 外形線1
100
AcDbLine
 10
45.0
 20
10.75
 30
0.0
 11
42.0
 21
10.75
 31
0.0
  0
LINE
  5
48B8
330
4896
100
AcDbEntity
  8
AM_0 外形線1
100
AcDbLine
 10
37.0
 20
6.422648000000207
 30
0.0
 11
42.0
 21
6.422648000000207
 31
0.0
  0
LINE
  5
48B9
330
4896
100
AcDbEntity
  8
AM_0 外形線1
100
AcDbLine
 10
36.0
 20
7.0
 30
0.0
 11
37.0
 21
6.422648000000207
 31
0.0
  0
LINE
  5
48BA
330
4896
100
AcDbEntity
  8
AM_4 細線
100
AcDbLine
 10
55.0
 20
-5.125
 30
0.0
 11
58.875
 21
-5.125
 31
0.0
  0
LINE
  5
48BB
330
4896
100
AcDbEntity
  8
AM_4 細線
100
AcDbLine
 10
55.0
 20
5.125
 30
0.0
 11
58.875
 21
5.125
 31
0.0
  0
LINE
  5
48BC
330
4896
100
AcDbEntity
  8
AM_0 外形線1
100
AcDbLine
 10
55.0
 20
6.0
 30
0.0
 11
58.0
 21
6.0
 31
0.0
  0
LINE
  5
48BD
330
4896
100
AcDbEntity
  8
AM_0 外形線1
100
AcDbLine
 10
45.0
 20
5.484828000000105
 30
0.0
 11
54.16284399999995
 21
5.484828000000105
 31
0.0
  0
ARC
  5
48BE
330
4896
100
AcDbEntity
  8
AM_0 外形線1
100
AcDbCircle
 10
50.12167200000021
 20
8.217411999999967
 30
0.0
 40
4.878327999999998
100
AcDbArc
 50
325.9339550000068
 51
34.06604499999309
  0
LINE
  5
48BF
330
4896
100
AcDbEntity
  8
AM_0 外形線1
100
AcDbLine
 10
54.16284399999995
 20
10.95000000000027
 30
0.0
 11
55.0
 21
9.5
 31
0.0
  0
LINE
  5
48C0
330
4896
100
AcDbEntity
  8
AM_0 外形線1
100
AcDbLine
 10
45.0
 20
10.95000000000027
 30
0.0
 11
54.16284399999995
 21
10.95000000000027
 31
0.0
  0
LINE
  5
48C1
330
4896
100
AcDbEntity
  8
AM_0 外形線1
100
AcDbLine
 10
60.0
 20
4.0
 30
0.0
 11
60.0
 21
-4.0
 31
0.0
  0
LINE
  5
4925
330
4896
100
AcDbEntity
  8
AM_0 外形線1
100
AcDbLine
 10
2.0
 20
7.0
 30
0.0
 11
36.0
 21
7.0
 31
0.0
  0
LINE
  5
4926
330
4896
100
AcDbEntity
  8
AM_0 外形線1
100
AcDbLine
 10
2.0
 20
-7.0
 30
0.0
 11
36.0
 21
-7.0
 31
0.0
  0
LINE
  5
4927
330
4896
100
AcDbEntity
  8
AM_0 外形線1
100
AcDbLine
 10
0.0
 20
10.95000000000027
 30
0.0
 11
0.0
 21
-10.94999999999981
 31
0.0
  0
LINE
  5
4928
330
4896
100
AcDbEntity
  8
AM_0 外形線1
100
AcDbLine
 10
42.0
 20
10.75
 30
0.0
 11
42.0
 21
-10.75
 31
0.0
  0
LINE
  5
4929
330
4896
100
AcDbEntity
  8
AM_0 外形線1
100
AcDbLine
 10
45.0
 20
1.0
 30
0.0
 11
42.0
 21
-2.0
 31
0.0
  0
ENDBLK
  5
4898
330
4896
100
AcDbEntity
  8
0
100
AcDbBlockEnd
  0
BLOCK
  5
4B36
330
4B35
100
AcDbEntity
  8
0
100
AcDbBlockBegin
  2
*D11
 70
     1
 10
0.0
 20
0.0
 30
0.0
  3
*D11
  1

  0
LINE
  5
6677
330
4B35
100
AcDbEntity
  8
AM_5 寸法線
 62
     3
100
AcDbLine
 10
648.1058309419654
 20
980.4279567848452
 30
0.0
 11
560.4878607708521
 21
980.4279567848452
 31
0.0
  0
LINE
  5
6678
330
4B35
100
AcDbEntity
  8
AM_5 寸法線
 62
     3
100
AcDbLine
 10
648.1058309419654
 20
730.4279567848452
 30
0.0
 11
560.487860770852
 21
730.4279567848452
 31
0.0
  0
LINE
  5
6679
330
4B35
100
AcDbEntity
  8
AM_5 寸法線
 62
     3
100
AcDbLine
 10
562.9878607708519
 20
970.4279567848452
 30
0.0
 11
562.9878607708518
 21
740.4279567848454
 31
0.0
  0
INSERT
  5
667A
330
4B35
100
AcDbEntity
  8
AM_5 寸法線
 62
     3
100
AcDbBlockReference
  2
_Open30
 10
562.9878607708519
 20
980.4279567848452
 30
0.0
 41
10.0
 42
10.0
 43
10.0
 50
90.0
  0
INSERT
  5
667B
330
4B35
100
AcDbEntity
  8
AM_5 寸法線
 62
     3
100
AcDbBlockReference
  2
_Open30
 10
562.9878607708518
 20
730.4279567848452
 30
0.0
 41
10.0
 42
10.0
 43
10.0
 50
270.0
  0
MTEXT
  5
667C
330
4B35
100
AcDbEntity
  8
AM_5 寸法線
 62
     3
100
AcDbMText
 10
549.9878607708518
 20
855.4279567848453
 30
0.0
 40
14.0
 41
0.0
 46
0.0
 71
     5
 72
     1
  1
%%c250
  7
SEISA
 11
0.0000000000000001
 21
1.0
 31
0.0
 73
     1
 44
1.0
  0
POINT
  5
667D
330
4B35
100
AcDbEntity
  8
Defpoints
 62
     0
100
AcDbPoint
 10
650.6058309419654
 20
980.4279567848452
 30
0.0
  0
POINT
  5
667E
330
4B35
100
AcDbEntity
  8
Defpoints
 62
     0
100
AcDbPoint
 10
650.6058309419654
 20
730.4279567848452
 30
0.0
  0
POINT
  5
667F
330
4B35
100
AcDbEntity
  8
Defpoints
 62
     0
100
AcDbPoint
 10
562.9878607708518
 20
730.4279567848452
 30
0.0
  0
ENDBLK
  5
4B37
330
4B35
100
AcDbEntity
  8
0
100
AcDbBlockEnd
  0
BLOCK
  5
4B72
330
4B71
100
AcDbEntity
  8
0
100
AcDbBlockBegin
  2
*D12
 70
     1
 10
0.0
 20
0.0
 30
0.0
  3
*D12
  1

  0
LINE
  5
6680
330
4B71
100
AcDbEntity
  8
AM_5 寸法線
 62
     3
100
AcDbLine
 10
816.6058309419652
 20
857.9279567848452
 30
0.0
 11
816.6058309419652
 21
877.987203221388
 31
0.0
  0
LINE
  5
6681
330
4B71
100
AcDbEntity
  8
AM_5 寸法線
 62
     3
100
AcDbLine
 10
646.6058309419654
 20
857.9279567848452
 30
0.0
 11
646.6058309419654
 21
877.987203221388
 31
0.0
  0
LINE
  5
6682
330
4B71
100
AcDbEntity
  8
AM_5 寸法線
 62
     3
100
AcDbLine
 10
806.6058309419654
 20
875.487203221388
 30
0.0
 11
656.6058309419654
 21
875.487203221388
 31
0.0
  0
INSERT
  5
6683
330
4B71
100
AcDbEntity
  8
AM_5 寸法線
 62
     3
100
AcDbBlockReference
  2
_Open30
 10
816.6058309419652
 20
875.487203221388
 30
0.0
 41
10.0
 42
10.0
 43
10.0
  0
INSERT
  5
6684
330
4B71
100
AcDbEntity
  8
AM_5 寸法線
 62
     3
100
AcDbBlockReference
  2
_Open30
 10
646.6058309419654
 20
875.487203221388
 30
0.0
 41
10.0
 42
10.0
 43
10.0
 50
180.0
  0
MTEXT
  5
6685
330
4B71
100
AcDbEntity
  8
AM_5 寸法線
 62
     3
100
AcDbMText
 10
731.6058309419653
 20
888.4872032213879
 30
0.0
 40
14.0
 41
0.0
 46
0.0
 71
     5
 72
     1
  1
170
  7
SEISA
 73
     1
 44
1.0
  0
POINT
  5
6686
330
4B71
100
AcDbEntity
  8
Defpoints
 62
     0
100
AcDbPoint
 10
816.6058309419652
 20
855.4279567848452
 30
0.0
  0
POINT
  5
6687
330
4B71
100
AcDbEntity
  8
Defpoints
 62
     0
100
AcDbPoint
 10
646.6058309419654
 20
855.4279567848452
 30
0.0
  0
POINT
  5
6688
330
4B71
100
AcDbEntity
  8
Defpoints
 62
     0
100
AcDbPoint
 10
646.6058309419654
 20
875.487203221388
 30
0.0
  0
ENDBLK
  5
4B73
330
4B71
100
AcDbEntity
  8
0
100
AcDbBlockEnd
  0
BLOCK
  5
4B8A
330
4B89
100
AcDbEntity
  8
0
100
AcDbBlockBegin
  2
*D13
 70
     1
 10
0.0
 20
0.0
 30
0.0
  3
*D13
  1

  0
LINE
  5
6E78
330
4B89
100
AcDbEntity
  8
AM_5 寸法線
 62
     3
100
AcDbLine
 10
832.6058309419654
 20
857.9279567848452
 30
0.0
 11
832.6058309419654
 21
877.987203221388
 31
0.0
  0
LINE
  5
6E79
330
4B89
100
AcDbEntity
  8
AM_5 寸法線
 62
     3
100
AcDbLine
 10
816.6058309419652
 20
857.9279567848452
 30
0.0
 11
816.6058309419652
 21
877.987203221388
 31
0.0
  0
LINE
  5
6E7A
330
4B89
100
AcDbEntity
  8
AM_5 寸法線
 62
     3
100
AcDbLine
 10
842.6058309419655
 20
875.487203221388
 30
0.0
 11
852.6058309419655
 21
875.487203221388
 31
0.0
  0
LINE
  5
6E7B
330
4B89
100
AcDbEntity
  8
AM_5 寸法線
 62
     3
100
AcDbLine
 10
806.6058309419654
 20
875.487203221388
 30
0.0
 11
796.6058309419653
 21
875.487203221388
 31
0.0
  0
MTEXT
  5
6E7C
330
4B89
100
AcDbEntity
  8
AM_5 寸法線
 62
     3
100
AcDbMText
 10
800.1023027444226
 20
890.172649050004
 30
0.0
 40
14.0
 41
0.0
 46
0.0
 71
     5
 72
     1
  1
16
  7
SEISA
 73
     1
 44
1.0
  0
LINE
  5
6E7D
330
4B89
100
AcDbEntity
  8
AM_5 寸法線
 62
     3
100
AcDbLine
 10
832.6058309419654
 20
875.487203221388
 30
0.0
 11
816.6058309419652
 21
875.487203221388
 31
0.0
  0
INSERT
  5
6E7E
330
4B89
100
AcDbEntity
  8
AM_5 寸法線
 62
     3
100
AcDbBlockReference
  2
_Open30
 10
832.6058309419654
 20
875.487203221388
 30
0.0
 41
10.0
 42
10.0
 43
10.0
 50
180.0
  0
INSERT
  5
6E7F
330
4B89
100
AcDbEntity
  8
AM_5 寸法線
 62
     3
100
AcDbBlockReference
  2
_Open30
 10
816.6058309419652
 20
875.487203221388
 30
0.0
 41
10.0
 42
10.0
 43
10.0
  0
POINT
  5
6E80
330
4B89
100
AcDbEntity
  8
Defpoints
 62
     0
100
AcDbPoint
 10
832.6058309419654
 20
855.4279567848452
 30
0.0
  0
POINT
  5
6E81
330
4B89
100
AcDbEntity
  8
Defpoints
 62
     0
100
AcDbPoint
 10
816.6058309419652
 20
855.4279567848452
 30
0.0
  0
POINT
  5
6E82
330
4B89
100
AcDbEntity
  8
Defpoints
 62
     0
100
AcDbPoint
 10
816.6058309419652
 20
875.487203221388
 30
0.0
  0
ENDBLK
  5
4B8B
330
4B89
100
AcDbEntity
  8
0
100
AcDbBlockEnd
  0
BLOCK
  5
4BC7
330
4BC6
100
AcDbEntity
  8
0
100
AcDbBlockBegin
  2
*D14
 70
     1
 10
0.0
 20
0.0
 30
0.0
  3
*D14
  1

  0
LINE
  5
6E8E
330
4BC6
100
AcDbEntity
  8
AM_5 寸法線
 62
     3
100
AcDbLine
 10
832.6058309419654
 20
857.9279567848452
 30
0.0
 11
832.6058309419654
 21
877.987203221388
 31
0.0
  0
LINE
  5
6E8F
330
4BC6
100
AcDbEntity
  8
AM_5 寸法線
 62
     3
100
AcDbLine
 10
1002.605830941965
 20
857.9279567848454
 30
0.0
 11
1002.605830941965
 21
877.987203221388
 31
0.0
  0
LINE
  5
6E90
330
4BC6
100
AcDbEntity
  8
AM_5 寸法線
 62
     3
100
AcDbLine
 10
842.6058309419655
 20
875.487203221388
 30
0.0
 11
992.6058309419657
 21
875.487203221388
 31
0.0
  0
MTEXT
  5
6E91
330
4BC6
100
AcDbEntity
  8
AM_5 寸法線
 62
     3
100
AcDbMText
 10
957.4224275799517
 20
889.1218094371341
 30
0.0
 40
14.0
 41
0.0
 46
0.0
 71
     5
 72
     1
  1
170
  7
SEISA
 73
     1
 44
1.0
  0
INSERT
  5
6E92
330
4BC6
100
AcDbEntity
  8
AM_5 寸法線
 62
     3
100
AcDbBlockReference
  2
_Open30
 10
832.6058309419654
 20
875.487203221388
 30
0.0
 41
10.0
 42
10.0
 43
10.0
 50
180.0
  0
INSERT
  5
6E93
330
4BC6
100
AcDbEntity
  8
AM_5 寸法線
 62
     3
100
AcDbBlockReference
  2
_Open30
 10
1002.605830941965
 20
875.487203221388
 30
0.0
 41
10.0
 42
10.0
 43
10.0
  0
POINT
  5
6E94
330
4BC6
100
AcDbEntity
  8
Defpoints
 62
     0
100
AcDbPoint
 10
832.6058309419654
 20
855.4279567848452
 30
0.0
  0
POINT
  5
6E95
330
4BC6
100
AcDbEntity
  8
Defpoints
 62
     0
100
AcDbPoint
 10
1002.605830941965
 20
855.4279567848453
 30
0.0
  0
POINT
  5
6E96
330
4BC6
100
AcDbEntity
  8
Defpoints
 62
     0
100
AcDbPoint
 10
1002.605830941965
 20
875.487203221388
 30
0.0
  0
ENDBLK
  5
4BC8
330
4BC6
100
AcDbEntity
  8
0
100
AcDbBlockEnd
  0
BLOCK
  5
4BE0
330
4BDF
100
AcDbEntity
  8
0
100
AcDbBlockBegin
  2
*D15
 70
     1
 10
0.0
 20
0.0
 30
0.0
  3
*D15
  1

  0
LINE
  5
669D
330
4BDF
100
AcDbEntity
  8
AM_5 寸法線
 62
     3
100
AcDbLine
 10
906.6058309419654
 20
965.4279567848453
 30
0.0
 11
906.6058309419654
 21
937.5857296197901
 31
0.0
  0
LINE
  5
669E
330
4BDF
100
AcDbEntity
  8
AM_5 寸法線
 62
     3
100
AcDbLine
 10
901.1058309419652
 20
965.9279567848452
 30
0.0
 11
901.1058309419652
 21
937.5857296197901
 31
0.0
  0
LINE
  5
669F
330
4BDF
100
AcDbEntity
  8
AM_5 寸法線
 62
     3
100
AcDbLine
 10
891.1058309419653
 20
940.08572961979
 30
0.0
 11
881.1058309419655
 21
940.08572961979
 31
0.0
  0
LINE
  5
66A0
330
4BDF
100
AcDbEntity
  8
AM_5 寸法線
 62
     3
100
AcDbLine
 10
916.6058309419652
 20
940.08572961979
 30
0.0
 11
965.0058309419652
 21
940.08572961979
 31
0.0
  0
LINE
  5
66A1
330
4BDF
100
AcDbEntity
  8
AM_5 寸法線
 62
     3
100
AcDbLine
 10
901.1058309419652
 20
940.08572961979
 30
0.0
 11
906.6058309419654
 21
940.08572961979
 31
0.0
  0
INSERT
  5
66A2
330
4BDF
100
AcDbEntity
  8
AM_5 寸法線
 62
     3
100
AcDbBlockReference
  2
_Open30
 10
901.1058309419652
 20
940.08572961979
 30
0.0
 41
10.0
 42
10.0
 43
10.0
  0
INSERT
  5
66A3
330
4BDF
100
AcDbEntity
  8
AM_5 寸法線
 62
     3
100
AcDbBlockReference
  2
_Open30
 10
906.6058309419654
 20
940.08572961979
 30
0.0
 41
10.0
 42
10.0
 43
10.0
 50
180.0
  0
MTEXT
  5
66A4
330
4BDF
100
AcDbEntity
  8
AM_5 寸法線
 62
     3
100
AcDbMText
 10
945.8058309419655
 20
953.0857296197901
 30
0.0
 40
14.0
 41
0.0
 46
0.0
 71
     5
 72
     1
  1
5.5
  7
SEISA
 73
     1
 44
1.0
  0
POINT
  5
66A5
330
4BDF
100
AcDbEntity
  8
Defpoints
 62
     0
100
AcDbPoint
 10
906.6058309419654
 20
967.9279567848452
 30
0.0
  0
POINT
  5
66A6
102
{ACAD_REACTORS
330
6DDC
102
}
330
4BDF
100
AcDbEntity
  8
Defpoints
 62
     0
100
AcDbPoint
 10
901.1058309419652
 20
968.4279567848452
 30
0.0
  0
POINT
  5
66A7
330
4BDF
100
AcDbEntity
  8
Defpoints
 62
     0
100
AcDbPoint
 10
901.1058309419652
 20
940.08572961979
 30
0.0
  0
ENDBLK
  5
4BE1
330
4BDF
100
AcDbEntity
  8
0
100
AcDbBlockEnd
  0
BLOCK
  5
4C86
330
4C85
100
AcDbEntity
  8
0
100
AcDbBlockBegin
  2
*D16
 70
     1
 10
0.0
 20
0.0
 30
0.0
  3
*D16
  1

  0
LINE
  5
66AF
330
4C85
100
AcDbEntity
  8
AM_5 寸法線
 62
     3
100
AcDbLine
 10
946.6058309419652
 20
967.9279567848452
 30
0.0
 11
1085.105830941965
 21
967.9279567848452
 31
0.0
  0
LINE
  5
66B0
330
4C85
100
AcDbEntity
  8
AM_5 寸法線
 62
     3
100
AcDbLine
 10
946.6058309419652
 20
742.9279567848452
 30
0.0
 11
1085.105830941965
 21
742.9279567848452
 31
0.0
  0
LINE
  5
66B1
330
4C85
100
AcDbEntity
  8
AM_5 寸法線
 62
     3
100
AcDbLine
 10
1082.605830941965
 20
957.9279567848452
 30
0.0
 11
1082.605830941965
 21
752.9279567848451
 31
0.0
  0
INSERT
  5
66B2
330
4C85
100
AcDbEntity
  8
AM_5 寸法線
 62
     3
100
AcDbBlockReference
  2
_Open30
 10
1082.605830941965
 20
967.9279567848452
 30
0.0
 41
10.0
 42
10.0
 43
10.0
 50
90.0
  0
INSERT
  5
66B3
330
4C85
100
AcDbEntity
  8
AM_5 寸法線
 62
     3
100
AcDbBlockReference
  2
_Open30
 10
1082.605830941965
 20
742.9279567848452
 30
0.0
 41
10.0
 42
10.0
 43
10.0
 50
270.0
  0
MTEXT
  5
66B4
330
4C85
100
AcDbEntity
  8
AM_5 寸法線
 62
     3
100
AcDbMText
 10
1069.605830941965
 20
855.4279567848452
 30
0.0
 40
14.0
 41
0.0
 46
0.0
 71
     5
 72
     1
  1
%%c225
  7
SEISA
 11
0.0000000000000001
 21
1.0
 31
0.0
 73
     1
 44
1.0
  0
POINT
  5
66B5
330
4C85
100
AcDbEntity
  8
Defpoints
 62
     0
100
AcDbPoint
 10
944.1058309419654
 20
967.9279567848452
 30
0.0
  0
POINT
  5
66B6
330
4C85
100
AcDbEntity
  8
Defpoints
 62
     0
100
AcDbPoint
 10
944.1058309419654
 20
742.9279567848452
 30
0.0
  0
POINT
  5
66B7
330
4C85
100
AcDbEntity
  8
Defpoints
 62
     0
100
AcDbPoint
 10
1082.605830941965
 20
742.9279567848452
 30
0.0
  0
ENDBLK
  5
4C87
330
4C85
100
AcDbEntity
  8
0
100
AcDbBlockEnd
  0
BLOCK
  5
4CB0
330
4CAF
100
AcDbEntity
  8
0
100
AcDbBlockBegin
  2
*D17
 70
     1
 10
0.0
 20
0.0
 30
0.0
  3
*D17
  1

  0
LINE
  5
66B8
330
4CAF
100
AcDbEntity
  8
AM_5 寸法線
 62
     3
100
AcDbLine
 10
921.1058309419652
 20
985.4279567848452
 30
0.0
 11
1125.105830941965
 21
985.4279567848452
 31
0.0
  0
LINE
  5
66B9
330
4CAF
100
AcDbEntity
  8
AM_5 寸法線
 62
     3
100
AcDbLine
 10
921.1058309419652
 20
725.4279567848453
 30
0.0
 11
1125.105830941965
 21
725.4279567848453
 31
0.0
  0
LINE
  5
66BA
330
4CAF
100
AcDbEntity
  8
AM_5 寸法線
 62
     3
100
AcDbLine
 10
1122.605830941965
 20
975.4279567848453
 30
0.0
 11
1122.605830941965
 21
735.4279567848452
 31
0.0
  0
INSERT
  5
66BB
330
4CAF
100
AcDbEntity
  8
AM_5 寸法線
 62
     3
100
AcDbBlockReference
  2
_Open30
 10
1122.605830941965
 20
985.4279567848452
 30
0.0
 41
10.0
 42
10.0
 43
10.0
 50
90.0
  0
INSERT
  5
66BC
330
4CAF
100
AcDbEntity
  8
AM_5 寸法線
 62
     3
100
AcDbBlockReference
  2
_Open30
 10
1122.605830941965
 20
725.4279567848453
 30
0.0
 41
10.0
 42
10.0
 43
10.0
 50
270.0
  0
MTEXT
  5
66BD
330
4CAF
100
AcDbEntity
  8
AM_5 寸法線
 62
     3
100
AcDbMText
 10
1109.605830941965
 20
855.4279567848452
 30
0.0
 40
14.0
 41
0.0
 46
0.0
 71
     5
 72
     1
  1
%%c260
  7
SEISA
 11
0.0000000000000001
 21
1.0
 31
0.0
 73
     1
 44
1.0
  0
POINT
  5
66BE
330
4CAF
100
AcDbEntity
  8
Defpoints
 62
     0
100
AcDbPoint
 10
918.6058309419657
 20
985.4279567848452
 30
0.0
  0
POINT
  5
66BF
330
4CAF
100
AcDbEntity
  8
Defpoints
 62
     0
100
AcDbPoint
 10
918.6058309419657
 20
725.4279567848453
 30
0.0
  0
POINT
  5
66C0
330
4CAF
100
AcDbEntity
  8
Defpoints
 62
     0
100
AcDbPoint
 10
1122.605830941965
 20
725.4279567848453
 30
0.0
  0
ENDBLK
  5
4CB1
330
4CAF
100
AcDbEntity
  8
0
100
AcDbBlockEnd
  0
BLOCK
  5
4CC8
330
4CC7
100
AcDbEntity
  8
0
100
AcDbBlockBegin
  2
*D18
 70
     1
 10
0.0
 20
0.0
 30
0.0
  3
*D18
  1

  0
LINE
  5
66C1
330
4CC7
100
AcDbEntity
  8
AM_5 寸法線
 62
     3
100
AcDbLine
 10
847.1058309419655
 20
1012.927956784845
 30
0.0
 11
1165.105830941965
 21
1012.927956784845
 31
0.0
  0
LINE
  5
66C2
330
4CC7
100
AcDbEntity
  8
AM_5 寸法線
 62
     3
100
AcDbLine
 10
847.1058309419655
 20
697.9279567848452
 30
0.0
 11
1165.105830941965
 21
697.9279567848452
 31
0.0
  0
LINE
  5
66C3
330
4CC7
100
AcDbEntity
  8
AM_5 寸法線
 62
     3
100
AcDbLine
 10
1162.605830941966
 20
1002.927956784845
 30
0.0
 11
1162.605830941966
 21
707.9279567848452
 31
0.0
  0
INSERT
  5
66C4
330
4CC7
100
AcDbEntity
  8
AM_5 寸法線
 62
     3
100
AcDbBlockReference
  2
_Open30
 10
1162.605830941966
 20
1012.927956784845
 30
0.0
 41
10.0
 42
10.0
 43
10.0
 50
90.0
  0
INSERT
  5
66C5
330
4CC7
100
AcDbEntity
  8
AM_5 寸法線
 62
     3
100
AcDbBlockReference
  2
_Open30
 10
1162.605830941966
 20
697.9279567848452
 30
0.0
 41
10.0
 42
10.0
 43
10.0
 50
270.0
  0
MTEXT
  5
66C6
330
4CC7
100
AcDbEntity
  8
AM_5 寸法線
 62
     3
100
AcDbMText
 10
1149.605830941965
 20
855.4279567848452
 30
0.0
 40
14.0
 41
0.0
 46
0.0
 71
     5
 72
     1
  1
%%c315
  7
SEISA
 11
0.0000000000000001
 21
1.0
 31
0.0
 73
     1
 44
1.0
  0
POINT
  5
66C7
330
4CC7
100
AcDbEntity
  8
Defpoints
 62
     0
100
AcDbPoint
 10
844.6058309419655
 20
1012.927956784845
 30
0.0
  0
POINT
  5
66C8
330
4CC7
100
AcDbEntity
  8
Defpoints
 62
     0
100
AcDbPoint
 10
844.6058309419655
 20
697.9279567848452
 30
0.0
  0
POINT
  5
66C9
330
4CC7
100
AcDbEntity
  8
Defpoints
 62
     0
100
AcDbPoint
 10
1162.605830941966
 20
697.9279567848452
 30
0.0
  0
ENDBLK
  5
4CC9
330
4CC7
100
AcDbEntity
  8
0
100
AcDbBlockEnd
  0
BLOCK
  5
4D45
330
4D44
100
AcDbEntity
  8
0
100
AcDbBlockBegin
  2
*D19
 70
     1
 10
0.0
 20
0.0
 30
0.0
  3
*D19
  1

  0
LINE
  5
66CA
330
4D44
100
AcDbEntity
  8
AM_5 寸法線
 62
     3
100
AcDbLine
 10
845.6058309419653
 20
696.4279567848453
 30
0.0
 11
845.6058309419653
 21
635.4279567848452
 31
0.0
  0
LINE
  5
66CB
330
4D44
100
AcDbEntity
  8
AM_5 寸法線
 62
     3
100
AcDbLine
 10
814.6058309419654
 20
637.9279567848453
 30
0.0
 11
804.6058309419652
 21
637.9279567848453
 31
0.0
  0
LINE
  5
66CC
330
4D44
100
AcDbEntity
  8
AM_5 寸法線
 62
     3
100
AcDbLine
 10
855.6058309419652
 20
637.9279567848453
 30
0.0
 11
865.6058309419654
 21
637.9279567848453
 31
0.0
  0
MTEXT
  5
66CD
330
4D44
100
AcDbEntity
  8
AM_5 寸法線
 62
     3
100
AcDbMText
 10
862.0670502332286
 20
650.769377987357
 30
0.0
 40
14.0
 41
0.0
 46
0.0
 71
     5
 72
     1
  1
21
  7
SEISA
 73
     1
 44
1.0
  0
LINE
  5
66CE
330
4D44
100
AcDbEntity
  8
AM_5 寸法線
 62
     3
100
AcDbLine
 10
824.6058309419654
 20
637.9279567848453
 30
0.0
 11
845.6058309419653
 21
637.9279567848453
 31
0.0
  0
INSERT
  5
66CF
330
4D44
100
AcDbEntity
  8
AM_5 寸法線
 62
     3
100
AcDbBlockReference
  2
GENDOT
 10
824.6058309419654
 20
637.9279567848453
 30
0.0
 41
10.0
 42
10.0
 43
10.0
  0
INSERT
  5
66D0
330
4D44
100
AcDbEntity
  8
AM_5 寸法線
 62
     3
100
AcDbBlockReference
  2
_Open30
 10
845.6058309419653
 20
637.9279567848453
 30
0.0
 41
10.0
 42
10.0
 43
10.0
 50
180.0
  0
POINT
  5
66D1
330
4D44
100
AcDbEntity
  8
Defpoints
 62
     0
100
AcDbPoint
 10
824.6058309419654
 20
698.9279567848452
 30
0.0
  0
POINT
  5
66D2
330
4D44
100
AcDbEntity
  8
Defpoints
 62
     0
100
AcDbPoint
 10
845.6058309419653
 20
698.9279567848452
 30
0.0
  0
POINT
  5
66D3
330
4D44
100
AcDbEntity
  8
Defpoints
 62
     0
100
AcDbPoint
 10
845.6058309419653
 20
637.9279567848453
 30
0.0
  0
ENDBLK
  5
4D46
330
4D44
100
AcDbEntity
  8
0
100
AcDbBlockEnd
  0
BLOCK
  5
4D61
330
4D60
100
AcDbEntity
  8
0
100
AcDbBlockBegin
  2
*D20
 70
     1
 10
0.0
 20
0.0
 30
0.0
  3
*D20
  1

  0
LINE
  5
66D4
330
4D60
100
AcDbEntity
  8
AM_5 寸法線
 62
     3
100
AcDbLine
 10
824.6058309419654
 20
696.4279567848453
 30
0.0
 11
824.6058309419654
 21
635.4279567848452
 31
0.0
  0
LINE
  5
66D5
330
4D60
100
AcDbEntity
  8
AM_5 寸法線
 62
     3
100
AcDbLine
 10
803.6058309419653
 20
696.4279567848453
 30
0.0
 11
803.6058309419653
 21
635.4279567848452
 31
0.0
  0
LINE
  5
66D6
330
4D60
100
AcDbEntity
  8
AM_5 寸法線
 62
     3
100
AcDbLine
 10
834.6058309419655
 20
637.9279567848453
 30
0.0
 11
844.6058309419655
 21
637.9279567848453
 31
0.0
  0
LINE
  5
66D7
330
4D60
100
AcDbEntity
  8
AM_5 寸法線
 62
     3
100
AcDbLine
 10
793.6058309419652
 20
637.9279567848453
 30
0.0
 11
783.6058309419652
 21
637.9279567848453
 31
0.0
  0
MTEXT
  5
66D8
330
4D60
100
AcDbEntity
  8
AM_5 寸法線
 62
     3
100
AcDbMText
 10
789.4398583334233
 20
650.7650625017167
 30
0.0
 40
14.0
 41
0.0
 46
0.0
 71
     5
 72
     1
  1
21
  7
SEISA
 73
     1
 44
1.0
  0
LINE
  5
66D9
330
4D60
100
AcDbEntity
  8
AM_5 寸法線
 62
     3
100
AcDbLine
 10
824.6058309419654
 20
637.9279567848453
 30
0.0
 11
803.6058309419653
 21
637.9279567848453
 31
0.0
  0
INSERT
  5
66DA
330
4D60
100
AcDbEntity
  8
AM_5 寸法線
 62
     3
100
AcDbBlockReference
  2
GENDOT
 10
824.6058309419654
 20
637.9279567848453
 30
0.0
 41
10.0
 42
10.0
 43
10.0
 50
180.0
  0
INSERT
  5
66DB
330
4D60
100
AcDbEntity
  8
AM_5 寸法線
 62
     3
100
AcDbBlockReference
  2
_Open30
 10
803.6058309419653
 20
637.9279567848453
 30
0.0
 41
10.0
 42
10.0
 43
10.0
  0
POINT
  5
66DC
330
4D60
100
AcDbEntity
  8
Defpoints
 62
     0
100
AcDbPoint
 10
824.6058309419654
 20
698.9279567848452
 30
0.0
  0
POINT
  5
66DD
330
4D60
100
AcDbEntity
  8
Defpoints
 62
     0
100
AcDbPoint
 10
803.6058309419653
 20
698.9279567848452
 30
0.0
  0
POINT
  5
66DE
330
4D60
100
AcDbEntity
  8
Defpoints
 62
     0
100
AcDbPoint
 10
803.6058309419653
 20
637.9279567848453
 30
0.0
  0
ENDBLK
  5
4D62
330
4D60
100
AcDbEntity
  8
0
100
AcDbBlockEnd
  0
BLOCK
  5
4E79
330
4E78
100
AcDbEntity
  8
0
100
AcDbBlockBegin
  2
*D21
 70
     1
 10
0.0
 20
0.0
 30
0.0
  3
*D21
  1

  0
LINE
  5
66F5
330
4E78
100
AcDbEntity
  8
AM_5 寸法線
 62
     3
100
AcDbLine
 10
824.6058309419654
 20
696.4279567848453
 30
0.0
 11
824.6058309419654
 21
595.4279567848452
 31
0.0
  0
LINE
  5
66F6
330
4E78
100
AcDbEntity
  8
AM_5 寸法線
 62
     3
100
AcDbLine
 10
646.6058309419654
 20
731.9279567848452
 30
0.0
 11
646.6058309419654
 21
595.4279567848452
 31
0.0
  0
LINE
  5
66F7
330
4E78
100
AcDbEntity
  8
AM_5 寸法線
 62
     3
100
AcDbLine
 10
814.6058309419654
 20
597.9279567848452
 30
0.0
 11
656.6058309419654
 21
597.9279567848452
 31
0.0
  0
INSERT
  5
66F8
330
4E78
100
AcDbEntity
  8
AM_5 寸法線
 62
     3
100
AcDbBlockReference
  2
_Open30
 10
824.6058309419654
 20
597.9279567848452
 30
0.0
 41
10.0
 42
10.0
 43
10.0
  0
INSERT
  5
66F9
330
4E78
100
AcDbEntity
  8
AM_5 寸法線
 62
     3
100
AcDbBlockReference
  2
_Open30
 10
646.6058309419654
 20
597.9279567848452
 30
0.0
 41
10.0
 42
10.0
 43
10.0
 50
180.0
  0
MTEXT
  5
66FA
330
4E78
100
AcDbEntity
  8
AM_5 寸法線
 62
     3
100
AcDbMText
 10
735.6058309419653
 20
610.9279567848452
 30
0.0
 40
14.0
 41
0.0
 46
0.0
 71
     5
 72
     1
  1
178
  7
SEISA
 73
     1
 44
1.0
  0
POINT
  5
66FB
330
4E78
100
AcDbEntity
  8
Defpoints
 62
     0
100
AcDbPoint
 10
824.6058309419654
 20
698.9279567848452
 30
0.0
  0
POINT
  5
66FC
330
4E78
100
AcDbEntity
  8
Defpoints
 62
     0
100
AcDbPoint
 10
646.6058309419654
 20
734.4279567848452
 30
0.0
  0
POINT
  5
66FD
330
4E78
100
AcDbEntity
  8
Defpoints
 62
     0
100
AcDbPoint
 10
646.6058309419654
 20
597.9279567848452
 30
0.0
  0
ENDBLK
  5
4E7A
330
4E78
100
AcDbEntity
  8
0
100
AcDbBlockEnd
  0
BLOCK
  5
4E91
330
4E90
100
AcDbEntity
  8
0
100
AcDbBlockBegin
  2
*D22
 70
     1
 10
0.0
 20
0.0
 30
0.0
  3
*D22
  1

  0
LINE
  5
66FE
330
4E90
100
AcDbEntity
  8
AM_5 寸法線
 62
     3
100
AcDbLine
 10
824.6058309419654
 20
696.4279567848453
 30
0.0
 11
824.6058309419654
 21
595.4279567848452
 31
0.0
  0
LINE
  5
66FF
330
4E90
100
AcDbEntity
  8
AM_5 寸法線
 62
     3
100
AcDbLine
 10
922.6058309419654
 20
726.9279567848452
 30
0.0
 11
922.6058309419654
 21
595.4279567848452
 31
0.0
  0
LINE
  5
6700
330
4E90
100
AcDbEntity
  8
AM_5 寸法線
 62
     3
100
AcDbLine
 10
834.6058309419655
 20
597.9279567848452
 30
0.0
 11
912.6058309419653
 21
597.9279567848452
 31
0.0
  0
INSERT
  5
6701
330
4E90
100
AcDbEntity
  8
AM_5 寸法線
 62
     3
100
AcDbBlockReference
  2
_Open30
 10
824.6058309419654
 20
597.9279567848452
 30
0.0
 41
10.0
 42
10.0
 43
10.0
 50
180.0
  0
INSERT
  5
6702
330
4E90
100
AcDbEntity
  8
AM_5 寸法線
 62
     3
100
AcDbBlockReference
  2
_Open30
 10
922.6058309419654
 20
597.9279567848452
 30
0.0
 41
10.0
 42
10.0
 43
10.0
  0
MTEXT
  5
6703
330
4E90
100
AcDbEntity
  8
AM_5 寸法線
 62
     3
100
AcDbMText
 10
873.6058309419654
 20
610.9279567848452
 30
0.0
 40
14.0
 41
0.0
 46
0.0
 71
     5
 72
     1
  1
98
  7
SEISA
 73
     1
 44
1.0
  0
POINT
  5
6704
330
4E90
100
AcDbEntity
  8
Defpoints
 62
     0
100
AcDbPoint
 10
824.6058309419654
 20
698.9279567848452
 30
0.0
  0
POINT
  5
6705
330
4E90
100
AcDbEntity
  8
Defpoints
 62
     0
100
AcDbPoint
 10
922.6058309419654
 20
729.4279567848453
 30
0.0
  0
POINT
  5
6706
330
4E90
100
AcDbEntity
  8
Defpoints
 62
     0
100
AcDbPoint
 10
922.6058309419654
 20
597.9279567848452
 30
0.0
  0
ENDBLK
  5
4E92
330
4E90
100
AcDbEntity
  8
0
100
AcDbBlockEnd
  0
BLOCK
  5
4EA9
330
4EA8
100
AcDbEntity
  8
0
100
AcDbBlockBegin
  2
*D23
 70
     1
 10
0.0
 20
0.0
 30
0.0
  3
*D23
  1

  0
LINE
  5
6707
330
4EA8
100
AcDbEntity
  8
AM_5 寸法線
 62
     3
100
AcDbLine
 10
922.6058309419654
 20
726.9279567848452
 30
0.0
 11
922.6058309419654
 21
595.4279567848452
 31
0.0
  0
LINE
  5
6708
330
4EA8
100
AcDbEntity
  8
AM_5 寸法線
 62
     3
100
AcDbLine
 10
1002.605830941965
 20
745.2279567848454
 30
0.0
 11
1002.605830941965
 21
595.4279567848452
 31
0.0
  0
LINE
  5
6709
330
4EA8
100
AcDbEntity
  8
AM_5 寸法線
 62
     3
100
AcDbLine
 10
932.6058309419654
 20
597.9279567848452
 30
0.0
 11
992.6058309419657
 21
597.9279567848452
 31
0.0
  0
INSERT
  5
670A
330
4EA8
100
AcDbEntity
  8
AM_5 寸法線
 62
     3
100
AcDbBlockReference
  2
_Open30
 10
922.6058309419654
 20
597.9279567848452
 30
0.0
 41
10.0
 42
10.0
 43
10.0
 50
180.0
  0
INSERT
  5
670B
330
4EA8
100
AcDbEntity
  8
AM_5 寸法線
 62
     3
100
AcDbBlockReference
  2
_Open30
 10
1002.605830941965
 20
597.9279567848452
 30
0.0
 41
10.0
 42
10.0
 43
10.0
  0
MTEXT
  5
670C
330
4EA8
100
AcDbEntity
  8
AM_5 寸法線
 62
     3
100
AcDbMText
 10
962.6058309419653
 20
610.9279567848452
 30
0.0
 40
14.0
 41
0.0
 46
0.0
 71
     5
 72
     1
  1
80
  7
SEISA
 73
     1
 44
1.0
  0
POINT
  5
670D
330
4EA8
100
AcDbEntity
  8
Defpoints
 62
     0
100
AcDbPoint
 10
922.6058309419654
 20
729.4279567848453
 30
0.0
  0
POINT
  5
670E
330
4EA8
100
AcDbEntity
  8
Defpoints
 62
     0
100
AcDbPoint
 10
1002.605830941965
 20
747.7279567848454
 30
0.0
  0
POINT
  5
670F
330
4EA8
100
AcDbEntity
  8
Defpoints
 62
     0
100
AcDbPoint
 10
1002.605830941965
 20
597.9279567848452
 30
0.0
  0
ENDBLK
  5
4EAA
330
4EA8
100
AcDbEntity
  8
0
100
AcDbBlockEnd
  0
BLOCK
  5
4EC1
330
4EC0
100
AcDbEntity
  8
0
100
AcDbBlockBegin
  2
*D24
 70
     1
 10
0.0
 20
0.0
 30
0.0
  3
*D24
  1

  0
LINE
  5
6710
330
4EC0
100
AcDbEntity
  8
AM_5 寸法線
 62
     3
100
AcDbLine
 10
646.6058309419654
 20
731.9279567848452
 30
0.0
 11
646.6058309419654
 21
555.4279567848452
 31
0.0
  0
LINE
  5
6711
330
4EC0
100
AcDbEntity
  8
AM_5 寸法線
 62
     3
100
AcDbLine
 10
1002.605830941965
 20
745.2279567848454
 30
0.0
 11
1002.605830941965
 21
555.4279567848452
 31
0.0
  0
LINE
  5
6712
330
4EC0
100
AcDbEntity
  8
AM_5 寸法線
 62
     3
100
AcDbLine
 10
656.6058309419654
 20
557.9279567848451
 30
0.0
 11
992.6058309419657
 21
557.9279567848451
 31
0.0
  0
INSERT
  5
6713
330
4EC0
100
AcDbEntity
  8
AM_5 寸法線
 62
     3
100
AcDbBlockReference
  2
_Open30
 10
646.6058309419654
 20
557.9279567848451
 30
0.0
 41
10.0
 42
10.0
 43
10.0
 50
180.0
  0
INSERT
  5
6714
330
4EC0
100
AcDbEntity
  8
AM_5 寸法線
 62
     3
100
AcDbBlockReference
  2
_Open30
 10
1002.605830941965
 20
557.9279567848451
 30
0.0
 41
10.0
 42
10.0
 43
10.0
  0
MTEXT
  5
6715
330
4EC0
100
AcDbEntity
  8
AM_5 寸法線
 62
     3
100
AcDbMText
 10
824.6058309419654
 20
570.9279567848453
 30
0.0
 40
14.0
 41
0.0
 46
0.0
 71
     5
 72
     1
  1
356
  7
SEISA
 73
     1
 44
1.0
  0
POINT
  5
6716
330
4EC0
100
AcDbEntity
  8
Defpoints
 62
     0
100
AcDbPoint
 10
646.6058309419654
 20
734.4279567848452
 30
0.0
  0
POINT
  5
6717
330
4EC0
100
AcDbEntity
  8
Defpoints
 62
     0
100
AcDbPoint
 10
1002.605830941965
 20
747.7279567848454
 30
0.0
  0
POINT
  5
6718
330
4EC0
100
AcDbEntity
  8
Defpoints
 62
     0
100
AcDbPoint
 10
1002.605830941965
 20
557.9279567848451
 30
0.0
  0
ENDBLK
  5
4EC2
330
4EC0
100
AcDbEntity
  8
0
100
AcDbBlockEnd
  0
BLOCK
  5
601D
330
601A
100
AcDbEntity
  8
0
100
AcDbBlockBegin
  2
GENDOT
 70
     0
 10
0.0
 20
0.0
 30
0.0
  3
GENDOT
  1

  0
LINE
  5
601B
330
601A
100
AcDbEntity
  8
0
100
AcDbLine
 10
0.0
 20
0.0
 30
0.0
 11
-1.0
 21
0.0
 31
0.0
  0
LWPOLYLINE
  5
601C
330
601A
100
AcDbEntity
  8
0
100
AcDbPolyline
 90
        2
 70
     1
 43
0.25
 10
-0.125
 20
0.0
 42
1.0
 10
0.125
 20
0.0
 42
1.0
  0
ENDBLK
  5
601E
330
601A
100
AcDbEntity
  8
0
100
AcDbBlockEnd
  0
BLOCK
  5
6C08
330
6C07
100
AcDbEntity
  8
0
100
AcDbBlockBegin
  2
*D26
 70
     1
 10
0.0
 20
0.0
 30
0.0
  3
*D26
  1

  0
LINE
  5
6DC2
330
6C07
100
AcDbEntity
  8
AM_5 寸法線
 62
     3
100
AcDbLine
 10
1002.605830941965
 20
965.6279567848455
 30
0.0
 11
1002.605830941965
 21
1027.633153117665
 31
0.0
  0
LINE
  5
6DC3
330
6C07
100
AcDbEntity
  8
AM_5 寸法線
 62
     3
100
AcDbLine
 10
1003.605830941965
 20
983.9279567848452
 30
0.0
 11
1003.605830941965
 21
1027.633153117665
 31
0.0
  0
LINE
  5
6DC4
330
6C07
100
AcDbEntity
  8
AM_5 寸法線
 62
     3
100
AcDbLine
 10
992.6058309419651
 20
1025.133153117665
 30
0.0
 11
982.6058309419654
 21
1025.133153117665
 31
0.0
  0
LINE
  5
6DC5
330
6C07
100
AcDbEntity
  8
AM_5 寸法線
 62
     3
100
AcDbLine
 10
1013.605830941965
 20
1025.133153117665
 30
0.0
 11
1038.605830941965
 21
1025.133153117665
 31
0.0
  0
LINE
  5
6DC6
330
6C07
100
AcDbEntity
  8
AM_5 寸法線
 62
     3
100
AcDbLine
 10
1002.605830941965
 20
1025.133153117665
 30
0.0
 11
1003.605830941965
 21
1025.133153117665
 31
0.0
  0
INSERT
  5
6DC7
330
6C07
100
AcDbEntity
  8
AM_5 寸法線
 62
     3
100
AcDbBlockReference
  2
_Open30
 10
1002.605830941965
 20
1025.133153117665
 30
0.0
 41
10.0
 42
10.0
 43
10.0
  0
INSERT
  5
6DC8
330
6C07
100
AcDbEntity
  8
AM_5 寸法線
 62
     3
100
AcDbBlockReference
  2
_Open30
 10
1003.605830941965
 20
1025.133153117665
 30
0.0
 41
10.0
 42
10.0
 43
10.0
 50
180.0
  0
MTEXT
  5
6DC9
330
6C07
100
AcDbEntity
  8
AM_5 寸法線
 62
     3
100
AcDbMText
 10
1031.105830941965
 20
1038.133153117665
 30
0.0
 40
14.0
 41
0.0
 46
0.0
 71
     5
 72
     1
  1
1
  7
SEISA
 73
     1
 44
1.0
  0
POINT
  5
6DCA
330
6C07
100
AcDbEntity
  8
Defpoints
 62
     0
100
AcDbPoint
 10
1002.605830941965
 20
963.1279567848455
 30
0.0
  0
POINT
  5
6DCB
330
6C07
100
AcDbEntity
  8
Defpoints
 62
     0
100
AcDbPoint
 10
1003.605830941965
 20
981.4279567848453
 30
0.0
  0
POINT
  5
6DCC
330
6C07
100
AcDbEntity
  8
Defpoints
 62
     0
100
AcDbPoint
 10
1003.605830941965
 20
1025.133153117665
 30
0.0
  0
ENDBLK
  5
6C09
330
6C07
100
AcDbEntity
  8
0
100
AcDbBlockEnd
  0
BLOCK
  5
6DCF
330
6DCE
100
AcDbEntity
  8
0
100
AcDbBlockBegin
  2
*D27
 70
     1
 10
0.0
 20
0.0
 30
0.0
  3
*D27
  1

  0
LINE
  5
6EB8
330
6DCE
100
AcDbEntity
  8
AM_5 寸法線
 62
     3
100
AcDbLine
 10
901.1058309419652
 20
965.9279567848452
 30
0.0
 11
901.1058309419652
 21
937.585729619791
 31
0.0
  0
LINE
  5
6EB9
330
6DCE
100
AcDbEntity
  8
AM_5 寸法線
 62
     3
100
AcDbLine
 10
865.6058309419654
 20
965.9279567848454
 30
0.0
 11
865.6058309419654
 21
937.585729619791
 31
0.0
  0
LINE
  5
6EBA
330
6DCE
100
AcDbEntity
  8
AM_5 寸法線
 62
     3
100
AcDbLine
 10
891.1058309419653
 20
940.085729619791
 30
0.0
 11
875.6058309419655
 21
940.085729619791
 31
0.0
  0
LINE
  5
6EBB
330
6DCE
100
AcDbEntity
  8
AM_5 寸法線
 62
     3
100
AcDbLine
 10
883.3558309419654
 20
940.085729619791
 30
0.0
 11
885.2879335044203
 21
885.6190127893382
 31
0.0
  0
LINE
  5
6EBC
330
6DCE
100
AcDbEntity
  8
AM_5 寸法線
 62
     3
100
AcDbLine
 10
885.2879335044203
 20
885.6190127893382
 30
0.0
 11
834.8879335044202
 21
885.6190127893382
 31
0.0
  0
MTEXT
  5
6EBD
330
6DCE
100
AcDbEntity
  8
AM_5 寸法線
 62
     3
100
AcDbMText
 10
860.0879335044202
 20
898.619012789338
 30
0.0
 40
14.0
 41
0.0
 46
0.0
 71
     5
 72
     1
  1
35.5
  7
SEISA
 73
     1
 44
1.0
  0
INSERT
  5
6EBE
330
6DCE
100
AcDbEntity
  8
AM_5 寸法線
 62
     3
100
AcDbBlockReference
  2
_Open30
 10
901.1058309419652
 20
940.085729619791
 30
0.0
 41
10.0
 42
10.0
 43
10.0
  0
INSERT
  5
6EBF
330
6DCE
100
AcDbEntity
  8
AM_5 寸法線
 62
     3
100
AcDbBlockReference
  2
_Open30
 10
865.6058309419654
 20
940.085729619791
 30
0.0
 41
10.0
 42
10.0
 43
10.0
 50
180.0
  0
POINT
  5
6EC0
330
6DCE
100
AcDbEntity
  8
Defpoints
 62
     0
100
AcDbPoint
 10
901.1058309419652
 20
968.4279567848452
 30
0.0
  0
POINT
  5
6EC1
330
6DCE
100
AcDbEntity
  8
Defpoints
 62
     0
100
AcDbPoint
 10
865.6058309419654
 20
968.4279567848454
 30
0.0
  0
POINT
  5
6EC2
330
6DCE
100
AcDbEntity
  8
Defpoints
 62
     0
100
AcDbPoint
 10
865.6058309419654
 20
940.085729619791
 30
0.0
  0
ENDBLK
  5
6DD0
330
6DCE
100
AcDbEntity
  8
0
100
AcDbBlockEnd
  0
BLOCK
  5
6E12
330
6E11
100
AcDbEntity
  8
0
100
AcDbBlockBegin
  2
*D28
 70
     1
 10
0.0
 20
0.0
 30
0.0
  3
*D28
  1

  0
LINE
  5
6E3A
330
6E11
100
AcDbEntity
  8
AM_5 寸法線
 62
     3
100
AcDbLine
 10
865.6058309419654
 20
965.9279567848454
 30
0.0
 11
865.6058309419654
 21
937.5963296828841
 31
0.0
  0
LINE
  5
6E3B
330
6E11
100
AcDbEntity
  8
AM_5 寸法線
 62
     3
100
AcDbLine
 10
832.6058309419654
 20
963.9279567848452
 30
0.0
 11
832.6058309419654
 21
937.5963296828841
 31
0.0
  0
LINE
  5
6E3C
330
6E11
100
AcDbEntity
  8
AM_5 寸法線
 62
     3
100
AcDbLine
 10
855.6058309419652
 20
940.0963296828841
 30
0.0
 11
842.6058309419655
 21
940.0963296828841
 31
0.0
  0
INSERT
  5
6E3D
330
6E11
100
AcDbEntity
  8
AM_5 寸法線
 62
     3
100
AcDbBlockReference
  2
_Open30
 10
865.6058309419654
 20
940.0963296828841
 30
0.0
 41
10.0
 42
10.0
 43
10.0
  0
INSERT
  5
6E3E
330
6E11
100
AcDbEntity
  8
AM_5 寸法線
 62
     3
100
AcDbBlockReference
  2
_Open30
 10
832.6058309419654
 20
940.0963296828841
 30
0.0
 41
10.0
 42
10.0
 43
10.0
 50
180.0
  0
MTEXT
  5
6E3F
330
6E11
100
AcDbEntity
  8
AM_5 寸法線
 62
     3
100
AcDbMText
 10
849.1058309419655
 20
953.0963296828842
 30
0.0
 40
14.0
 41
0.0
 46
0.0
 71
     5
 72
     1
  1
33
  7
SEISA
 73
     1
 44
1.0
  0
POINT
  5
6E40
330
6E11
100
AcDbEntity
  8
Defpoints
 62
     0
100
AcDbPoint
 10
865.6058309419654
 20
968.4279567848454
 30
0.0
  0
POINT
  5
6E41
330
6E11
100
AcDbEntity
  8
Defpoints
 62
     0
100
AcDbPoint
 10
832.6058309419654
 20
966.4279567848453
 30
0.0
  0
POINT
  5
6E42
330
6E11
100
AcDbEntity
  8
Defpoints
 62
     0
100
AcDbPoint
 10
832.6058309419654
 20
940.0963296828841
 30
0.0
  0
ENDBLK
  5
6E13
330
6E11
100
AcDbEntity
  8
0
100
AcDbBlockEnd
  0
BLOCK
  5
6F55
330
6F54
100
AcDbEntity
  8
0
100
AcDbBlockBegin
  2
ケース
 70
     0
 10
0.0
 20
0.0
 30
0.0
  3
ケース
  1

  0
LINE
  5
6F57
330
6F54
100
AcDbEntity
  8
AM_11 想像線
 48
0.1
100
AcDbLine
 10
0.0
 20
-12.39999999999964
 30
0.0
 11
9.345098301846064
 21
-12.39999999999964
 31
0.0
  0
LINE
  5
6F58
330
6F54
100
AcDbEntity
  8
AM_11 想像線
 48
0.1
100
AcDbLine
 10
0.0
 20
-10.0
 30
0.0
 11
12.34509830184606
 21
-10.0
 31
0.0
  0
LINE
  5
6F59
330
6F54
100
AcDbEntity
  8
AM_11 想像線
 48
0.1
100
AcDbLine
 10
0.0
 20
0.0
 30
0.0
 11
28.34509830184607
 21
0.0
 31
0.0
  0
LINE
  5
6F5A
330
6F54
100
AcDbEntity
  8
AM_11 想像線
 48
0.1
100
AcDbLine
 10
0.0
 20
-7.0
 30
0.0
 11
10.34509830184606
 21
-7.0
 31
0.0
  0
LINE
  5
6F5B
330
6F54
100
AcDbEntity
  8
AM_11 想像線
 48
0.1
100
AcDbLine
 10
16.34509830184606
 20
-16.0
 30
0.0
 11
16.34509830184606
 21
-7.5
 31
0.0
  0
LINE
  5
6F5C
330
6F54
100
AcDbEntity
  8
AM_11 想像線
 48
0.1
100
AcDbLine
 10
18.74509830184615
 20
-11.09999999999991
 30
0.0
 11
18.74509830184615
 21
-16.0
 31
0.0
  0
LINE
  5
6F5D
330
6F54
100
AcDbEntity
  8
AM_11 想像線
 48
0.1
100
AcDbLine
 10
29.94509830184597
 20
-16.0
 30
0.0
 11
29.94509830184597
 21
-11.09999999999991
 31
0.0
  0
LINE
  5
6F5E
330
6F54
100
AcDbEntity
  8
AM_11 想像線
 48
0.1
100
AcDbLine
 10
32.34509830184606
 20
-4.0
 30
0.0
 11
32.34509830184606
 21
-16.0
 31
0.0
  0
LINE
  5
6F5F
330
6F54
100
AcDbEntity
  8
AM_11 想像線
 48
0.1
100
AcDbLine
 10
18.74509830184615
 20
-16.0
 30
0.0
 11
16.34509830184606
 21
-16.0
 31
0.0
  0
LINE
  5
6F60
330
6F54
100
AcDbEntity
  8
AM_11 想像線
 48
0.1
100
AcDbLine
 10
18.74509830184615
 20
-16.0
 30
0.0
 11
18.74509830184615
 21
-17.5
 31
0.0
  0
LINE
  5
6F61
330
6F54
100
AcDbEntity
  8
AM_11 想像線
 48
0.1
100
AcDbLine
 10
16.34509830184606
 20
-16.0
 30
0.0
 11
16.34509830184606
 21
-17.5
 31
0.0
  0
LINE
  5
6F62
330
6F54
100
AcDbEntity
  8
AM_11 想像線
 48
0.1
100
AcDbLine
 10
32.34509830184606
 20
-16.0
 30
0.0
 11
29.94509830184597
 21
-16.0
 31
0.0
  0
LINE
  5
6F63
330
6F54
100
AcDbEntity
  8
AM_11 想像線
 48
0.1
100
AcDbLine
 10
32.34509830184606
 20
-16.0
 30
0.0
 11
32.34509830184606
 21
-17.5
 31
0.0
  0
LINE
  5
6F64
330
6F54
100
AcDbEntity
  8
AM_11 想像線
 48
0.1
100
AcDbLine
 10
29.94509830184597
 20
-16.0
 30
0.0
 11
29.94509830184597
 21
-17.5
 31
0.0
  0
LINE
  5
6F65
330
6F54
100
AcDbEntity
  8
AM_11 想像線
 48
0.1
100
AcDbLine
 10
29.44509830184598
 20
-10.59999999999991
 30
0.0
 11
19.24509830184615
 21
-10.59999999999991
 31
0.0
  0
LINE
  5
6F66
330
6F54
100
AcDbEntity
  8
AM_11 想像線
 48
0.1
100
AcDbLine
 10
10.34509830184606
 20
-9.139343999999706
 30
0.0
 11
10.34509830184606
 21
-11.39999999999963
 31
0.0
  0
LINE
  5
6F67
330
6F54
100
AcDbEntity
  8
AM_11 想像線
 48
0.1
100
AcDbLine
 10
10.34509830184606
 20
-9.139343999999706
 30
0.0
 11
10.34509830184606
 21
-7.5
 31
0.0
  0
LINE
  5
6F68
330
6F54
100
AcDbEntity
  8
AM_11 想像線
 48
0.1
100
AcDbLine
 10
10.34509830184606
 20
-11.39999999999963
 30
0.0
 11
9.345098301846064
 21
-12.39999999999964
 31
0.0
  0
ARC
  5
6F69
330
6F54
100
AcDbEntity
  8
AM_11 想像線
 48
0.1
100
AcDbCircle
 10
11.34509830184606
 20
-7.5
 30
0.0
 40
1.0
100
AcDbArc
 50
90.0
 51
180.0
  0
LINE
  5
6F6A
330
6F54
100
AcDbEntity
  8
AM_11 想像線
 48
0.1
100
AcDbLine
 10
15.34509830184606
 20
-6.5
 30
0.0
 11
11.34509830184606
 21
-6.5
 31
0.0
  0
ARC
  5
6F6B
330
6F54
100
AcDbEntity
  8
AM_11 想像線
 48
0.1
100
AcDbCircle
 10
15.34509830184606
 20
-7.5
 30
0.0
 40
1.0
100
AcDbArc
 50
0.0
 51
90.0
  0
ARC
  5
6F6C
330
6F54
100
AcDbEntity
  8
AM_11 想像線
 48
0.1
100
AcDbCircle
 10
19.24509830184615
 20
-11.09999999999991
 30
0.0
 40
0.5
100
AcDbArc
 50
90.0
 51
180.0
  0
ARC
  5
6F6D
330
6F54
100
AcDbEntity
  8
AM_11 想像線
 48
0.1
100
AcDbCircle
 10
29.44509830184598
 20
-11.09999999999991
 30
0.0
 40
0.5
100
AcDbArc
 50
0.0
 51
90.0
  0
ARC
  5
6F6E
330
6F54
100
AcDbEntity
  8
AM_11 想像線
 48
0.1
100
AcDbCircle
 10
28.34509830184607
 20
-4.0
 30
0.0
 40
4.0
100
AcDbArc
 50
0.0
 51
90.0
  0
ENDBLK
  5
6F56
330
6F54
100
AcDbEntity
  8
0
100
AcDbBlockEnd
  0
ENDSEC
  0
SECTION
  2
ENTITIES
  0
LINE
  5
3E46
330
1F
100
AcDbEntity
  8
AM_7 中心線
100
AcDbLine
 10
824.6058309419654
 20
855.4279567848452
 30
0.0
 11
1007.605830941965
 21
855.4279567848452
 31
0.0
  0
LINE
  5
3E5D
330
1F
100
AcDbEntity
  8
AM_0 外形線1
100
AcDbLine
 10
844.6058309419655
 20
697.9279567848452
 30
0.0
 11
845.6058309419653
 21
698.9279567848452
 31
0.0
  0
LINE
  5
3E60
330
1F
100
AcDbEntity
  8
AM_7 中心線
100
AcDbLine
 10
824.6058309419654
 20
855.4279567848452
 30
0.0
 11
641.6058309419654
 21
855.4279567848452
 31
0.0
  0
INSERT
  5
4530
102
{ACAD_REACTORS
330
4BF9
330
4CC5
330
4CDD
330
4D5E
330
4EA6
330
4EBE
102
}
330
1F
100
AcDbEntity
  8
AM_0 外形線1
100
AcDbBlockReference
  2
ケースＡ SEM315
 10
824.6058309419654
 20
855.4279567848452
 30
0.0
  0
INSERT
  5
4631
102
{ACAD_REACTORS
330
4B4B
330
4B87
330
4BA3
330
4D5E
330
4D7A
330
4E8E
330
4EA6
330
4ED6
102
}
330
1F
100
AcDbEntity
  8
AM_0 外形線1
100
AcDbBlockReference
  2
リジット SEM315
 10
824.6058309419654
 20
855.4279567848452
 30
0.0
  0
INSERT
  5
470C
102
{ACAD_REACTORS
330
4BA3
330
4BDC
330
4BF9
330
4C9B
330
4EBE
330
4ED6
330
6C16
330
6DDC
330
6E1E
102
}
330
1F
100
AcDbEntity
  8
AM_0 外形線1
100
AcDbBlockReference
  2
センタ SEM315
 10
832.6058309419654
 20
855.4279567848452
 30
0.0
  0
INSERT
  5
48C2
330
1F
100
AcDbEntity
  8
AM_0 外形線1
100
AcDbBlockReference
  2
リーマボルト SEM315 M12
 10
803.6058309419653
 20
1000.927956784845
 30
0.0
  0
DIMENSION
  5
4B34
102
{ACAD_XDICTIONARY
360
4B41
102
}
102
{ACAD_REACTORS
330
4B4B
102
}
330
1F
100
AcDbEntity
  8
AM_5 寸法線
100
AcDbDimension
  2
*D11
 10
562.9878607708518
 20
730.4279567848452
 30
0.0
 11
549.9878607708518
 21
855.4279567848453
 31
0.0
 70
    32
  1
%%c<>
 71
     5
 42
249.9999999999999
 73
     0
 74
     0
 75
     0
  3
SEISA$0
100
AcDbAlignedDimension
 13
650.6058309419654
 23
980.4279567848452
 33
0.0
 14
650.6058309419654
 24
730.4279567848452
 34
0.0
 50
90.0
100
AcDbRotatedDimension
1001
ACAD_DSTYLE_DIMINSPECT
1070
   396
1000
100%
1070
   395
1000

1070
   394
1070
    33
1070
   393
1070
     0
  0
DIMENSION
  5
4B70
102
{ACAD_XDICTIONARY
360
4B7D
102
}
102
{ACAD_REACTORS
330
4B87
102
}
330
1F
100
AcDbEntity
  8
AM_5 寸法線
100
AcDbDimension
  2
*D12
 10
646.6058309419654
 20
875.487203221388
 30
0.0
 11
731.6058309419653
 21
888.4872032213879
 31
0.0
 70
    32
 71
     5
 42
170.0
 73
     0
 74
     0
 75
     0
  3
SEISA$0
100
AcDbAlignedDimension
 13
816.6058309419652
 23
855.4279567848452
 33
0.0
 14
646.6058309419654
 24
855.4279567848452
 34
0.0
100
AcDbRotatedDimension
  0
DIMENSION
  5
4B88
102
{ACAD_XDICTIONARY
360
4B97
102
}
102
{ACAD_REACTORS
330
4BA3
102
}
330
1F
100
AcDbEntity
  8
AM_5 寸法線
100
AcDbDimension
  2
*D13
 10
816.6058309419652
 20
875.487203221388
 30
0.0
 11
800.1023027444226
 21
890.172649050004
 31
0.0
 70
   160
 71
     5
 42
16.0
 73
     0
 74
     0
 75
     0
  3
SEISA$0
100
AcDbAlignedDimension
 13
832.6058309419654
 23
855.4279567848452
 33
0.0
 14
816.6058309419652
 24
855.4279567848452
 34
0.0
100
AcDbRotatedDimension
1001
ACAD
1000
DSTYLE
1002
{
1070
   279
1070
     2
1002
}
  0
DIMENSION
  5
4BC5
102
{ACAD_XDICTIONARY
360
4BD2
102
}
102
{ACAD_REACTORS
330
4BDC
102
}
330
1F
100
AcDbEntity
  8
AM_5 寸法線
100
AcDbDimension
  2
*D14
 10
1002.605830941965
 20
875.487203221388
 30
0.0
 11
957.4224275799517
 21
889.1218094371341
 31
0.0
 70
   160
 71
     5
 42
170.0
 73
     0
 74
     0
 75
     0
  3
SEISA$0
100
AcDbAlignedDimension
 13
832.6058309419654
 23
855.4279567848452
 33
0.0
 14
1002.605830941965
 24
855.4279567848453
 34
0.0
100
AcDbRotatedDimension
1001
ACAD
1000
DSTYLE
1002
{
1070
   279
1070
     2
1002
}
  0
DIMENSION
  5
4BDE
102
{ACAD_XDICTIONARY
360
4BED
102
}
102
{ACAD_REACTORS
330
4BF9
330
6DDC
102
}
330
1F
100
AcDbEntity
  8
AM_5 寸法線
100
AcDbDimension
  2
*D15
 10
901.1058309419652
 20
940.08572961979
 30
0.0
 11
945.8058309419655
 21
940.08572961979
 31
0.0
 70
   160
 71
     5
 42
5.5
 73
     0
 74
     0
 75
     0
  3
SEISA$0
100
AcDbAlignedDimension
 13
906.6058309419654
 23
967.9279567848452
 33
0.0
 14
901.1058309419652
 24
968.4279567848452
 34
0.0
100
AcDbRotatedDimension
  0
DIMENSION
  5
4C84
102
{ACAD_XDICTIONARY
360
4C91
102
}
102
{ACAD_REACTORS
330
4C9B
102
}
330
1F
100
AcDbEntity
  8
AM_5 寸法線
100
AcDbDimension
  2
*D16
 10
1082.605830941965
 20
742.9279567848452
 30
0.0
 11
1069.605830941965
 21
855.4279567848452
 31
0.0
 70
    32
  1
%%c<>
 71
     5
 42
225.0000000000001
 73
     0
 74
     0
 75
     0
  3
SEISA$0
100
AcDbAlignedDimension
 13
944.1058309419654
 23
967.9279567848452
 33
0.0
 14
944.1058309419654
 24
742.9279567848452
 34
0.0
 50
90.0
100
AcDbRotatedDimension
1001
ACAD_DSTYLE_DIMINSPECT
1070
   396
1000
100%
1070
   395
1000

1070
   394
1070
    33
1070
   393
1070
     0
1001
ACAD
1000
DSTYLE
1002
{
1070
   279
1070
     0
1002
}
  0
DIMENSION
  5
4CAE
102
{ACAD_XDICTIONARY
360
4CBB
102
}
102
{ACAD_REACTORS
330
4CC5
102
}
330
1F
100
AcDbEntity
  8
AM_5 寸法線
100
AcDbDimension
  2
*D17
 10
1122.605830941965
 20
725.4279567848453
 30
0.0
 11
1122.605830941965
 21
855.4279567848452
 31
0.0
 70
   160
  1
%%c<>
 71
     5
 42
260.0
 73
     0
 74
     0
 75
     0
  3
SEISA$0
100
AcDbAlignedDimension
 13
918.6058309419657
 23
985.4279567848452
 33
0.0
 14
918.6058309419657
 24
725.4279567848453
 34
0.0
 50
90.0
100
AcDbRotatedDimension
1001
ACAD_DSTYLE_DIMINSPECT
1070
   396
1000
100%
1070
   395
1000

1070
   394
1070
    33
1070
   393
1070
     0
1001
ACAD
1000
DSTYLE
1002
{
1070
   279
1070
     0
1002
}
  0
DIMENSION
  5
4CC6
102
{ACAD_XDICTIONARY
360
4CD3
102
}
102
{ACAD_REACTORS
330
4CDD
102
}
330
1F
100
AcDbEntity
  8
AM_5 寸法線
100
AcDbDimension
  2
*D18
 10
1162.605830941966
 20
697.9279567848452
 30
0.0
 11
1162.605830941965
 21
855.4279567848452
 31
0.0
 70
   160
  1
%%c<>
 71
     5
 42
315.0
 73
     0
 74
     0
 75
     0
  3
SEISA$0
100
AcDbAlignedDimension
 13
844.6058309419655
 23
1012.927956784845
 33
0.0
 14
844.6058309419655
 24
697.9279567848452
 34
0.0
 50
90.0
100
AcDbRotatedDimension
1001
ACAD_DSTYLE_DIMINSPECT
1070
   396
1000
100%
1070
   395
1000

1070
   394
1070
    33
1070
   393
1070
     0
1001
ACAD
1000
DSTYLE
1002
{
1070
   279
1070
     0
1002
}
  0
DIMENSION
  5
4D43
102
{ACAD_XDICTIONARY
360
4D52
102
}
102
{ACAD_REACTORS
330
4D5E
102
}
330
1F
100
AcDbEntity
  8
AM_5 寸法線
100
AcDbDimension
  2
*D19
 10
845.6058309419653
 20
637.9279567848453
 30
0.0
 11
862.0670502332286
 21
650.769377987357
 31
0.0
 70
   160
 71
     5
 42
21.0
 73
     0
 74
     0
 75
     0
  3
SEISA$0
100
AcDbAlignedDimension
 13
824.6058309419654
 23
698.9279567848452
 33
0.0
 14
845.6058309419653
 24
698.9279567848452
 34
0.0
100
AcDbRotatedDimension
1001
ACAD_DSTYLE_DIMINSPECT
1070
   396
1000
100%
1070
   395
1000

1070
   394
1070
    33
1070
   393
1070
     0
1001
ACAD
1000
DSTYLE
1002
{
1070
    75
1070
     1
1070
   173
1070
     1
1070
   279
1070
     2
1070
   342
1005
0
1070
   343
1005
601A
1070
   344
1005
69
1002
}
  0
DIMENSION
  5
4D5F
102
{ACAD_XDICTIONARY
360
4D6E
102
}
102
{ACAD_REACTORS
330
4D7A
102
}
330
1F
100
AcDbEntity
  8
AM_5 寸法線
100
AcDbDimension
  2
*D20
 10
803.6058309419653
 20
637.9279567848453
 30
0.0
 11
789.4398583334233
 21
650.7650625017167
 31
0.0
 70
   160
 71
     5
 42
21.00000000000012
 73
     0
 74
     0
 75
     0
  3
SEISA$0
100
AcDbAlignedDimension
 13
824.6058309419654
 23
698.9279567848452
 33
0.0
 14
803.6058309419653
 24
698.9279567848452
 34
0.0
100
AcDbRotatedDimension
1001
ACAD_DSTYLE_DIMINSPECT
1070
   396
1000
100%
1070
   395
1000

1070
   394
1070
    33
1070
   393
1070
     0
1001
ACAD
1000
DSTYLE
1002
{
1070
   173
1070
     1
1070
   279
1070
     2
1070
   342
1005
0
1070
   343
1005
601A
1070
   344
1005
69
1002
}
  0
DIMENSION
  5
4E77
102
{ACAD_XDICTIONARY
360
4E84
102
}
102
{ACAD_REACTORS
330
4E8E
102
}
330
1F
100
AcDbEntity
  8
AM_5 寸法線
100
AcDbDimension
  2
*D21
 10
646.6058309419654
 20
597.9279567848452
 30
0.0
 11
735.6058309419653
 21
597.9279567848452
 31
0.0
 70
   160
 71
     5
 42
178.0
 73
     0
 74
     0
 75
     0
  3
SEISA$0
100
AcDbAlignedDimension
 13
824.6058309419654
 23
698.9279567848452
 33
0.0
 14
646.6058309419654
 24
734.4279567848452
 34
0.0
100
AcDbRotatedDimension
1001
ACAD
1000
DSTYLE
1002
{
1070
   279
1070
     0
1002
}
  0
DIMENSION
  5
4E8F
102
{ACAD_XDICTIONARY
360
4E9C
102
}
102
{ACAD_REACTORS
330
4EA6
102
}
330
1F
100
AcDbEntity
  8
AM_5 寸法線
100
AcDbDimension
  2
*D22
 10
922.6058309419654
 20
597.9279567848452
 30
0.0
 11
873.6058309419654
 21
597.9279567848452
 31
0.0
 70
   160
 71
     5
 42
98.0
 73
     0
 74
     0
 75
     0
  3
SEISA$0
100
AcDbAlignedDimension
 13
824.6058309419654
 23
698.9279567848452
 33
0.0
 14
922.6058309419654
 24
729.4279567848453
 34
0.0
100
AcDbRotatedDimension
1001
ACAD
1000
DSTYLE
1002
{
1070
   279
1070
     0
1002
}
  0
DIMENSION
  5
4EA7
102
{ACAD_XDICTIONARY
360
4EB4
102
}
102
{ACAD_REACTORS
330
4EBE
102
}
330
1F
100
AcDbEntity
  8
AM_5 寸法線
100
AcDbDimension
  2
*D23
 10
1002.605830941965
 20
597.9279567848452
 30
0.0
 11
962.6058309419653
 21
597.9279567848452
 31
0.0
 70
   160
 71
     5
 42
80.0
 73
     0
 74
     0
 75
     0
  3
SEISA$0
100
AcDbAlignedDimension
 13
922.6058309419654
 23
729.4279567848453
 33
0.0
 14
1002.605830941965
 24
747.7279567848454
 34
0.0
100
AcDbRotatedDimension
1001
ACAD
1000
DSTYLE
1002
{
1070
   279
1070
     0
1002
}
  0
DIMENSION
  5
4EBF
102
{ACAD_XDICTIONARY
360
4ECC
102
}
102
{ACAD_REACTORS
330
4ED6
102
}
330
1F
100
AcDbEntity
  8
AM_5 寸法線
100
AcDbDimension
  2
*D24
 10
1002.605830941965
 20
557.9279567848451
 30
0.0
 11
824.6058309419654
 21
557.9279567848451
 31
0.0
 70
   160
 71
     5
 42
356.0
 73
     0
 74
     0
 75
     0
  3
SEISA$0
100
AcDbAlignedDimension
 13
646.6058309419654
 23
734.4279567848452
 33
0.0
 14
1002.605830941965
 24
747.7279567848454
 34
0.0
100
AcDbRotatedDimension
1001
ACAD
1000
DSTYLE
1002
{
1070
   279
1070
     0
1002
}
  0
LINE
  5
630D
330
1F
100
AcDbEntity
  8
AM_5 寸法線
100
AcDbLine
 10
865.6058309419654
 20
637.9279567848453
 30
0.0
 11
873.9220348890285
 21
637.9279567848453
 31
0.0
  0
LINE
  5
630E
330
1F
100
AcDbEntity
  8
AM_5 寸法線
100
AcDbLine
 10
783.6058309419652
 20
637.9279567848453
 30
0.0
 11
779.9924398577368
 21
637.9279567848453
 31
0.0
  0
MTEXT
  5
6BDC
330
1F
100
AcDbEntity
  8
AM_6 文字
100
AcDbMText
 10
1055.230238729583
 20
669.5734533642129
 30
0.0
 40
14.0
 41
388.8942972504623
 46
42.80627875551914
 71
     1
 72
     5
  1
{\W0.6;TYPE:SEM315/SEMH315\PSHAFT DIA:MAX/MIN \P RIGID SIDE φ180/φ100\P COUPLING CENTER SIDE φ160/φ100}
  7
SEISA
 73
     1
 44
1.0
  0
DIMENSION
  5
6C06
102
{ACAD_XDICTIONARY
360
6C15
102
}
102
{ACAD_REACTORS
330
6C16
102
}
330
1F
100
AcDbEntity
  8
AM_5 寸法線
100
AcDbDimension
  2
*D26
 10
1003.605830941965
 20
1025.133153117665
 30
0.0
 11
1031.105830941965
 21
1038.133153117665
 31
0.0
 70
    32
 71
     5
 42
1.000000000000113
 73
     0
 74
     0
 75
     0
  3
SEISA$0
100
AcDbAlignedDimension
 13
1002.605830941965
 23
963.1279567848455
 33
0.0
 14
1003.605830941965
 24
981.4279567848453
 34
0.0
 50
0.0000000000000114
100
AcDbRotatedDimension
1001
ACAD_DSTYLE_DIMINSPECT
1070
   396
1000
100%
1070
   395
1000

1070
   394
1070
    33
1070
   393
1070
     0
  0
DIMENSION
  5
6DCD
102
{ACAD_XDICTIONARY
360
6DDB
102
}
102
{ACAD_REACTORS
330
6DDC
330
6E1E
102
}
330
1F
100
AcDbEntity
  8
AM_5 寸法線
100
AcDbDimension
  2
*D27
 10
865.6058309419654
 20
940.085729619791
 30
0.0
 11
879.2879335044203
 21
885.6190127893382
 31
0.0
 70
   160
 71
     5
 42
35.5
 73
     0
 74
     0
 75
     0
  3
SEISA$0
100
AcDbAlignedDimension
 13
901.1058309419652
 23
968.4279567848452
 33
0.0
 14
865.6058309419654
 24
968.4279567848454
 34
0.0
 50
0.0000000000001132
100
AcDbRotatedDimension
1001
ACAD_DSTYLE_DIMINSPECT
1070
   396
1000
100%
1070
   395
1000

1070
   394
1070
    33
1070
   393
1070
     0
1001
ACAD
1000
DSTYLE
1002
{
1070
   279
1070
     1
1002
}
  0
DIMENSION
  5
6E10
102
{ACAD_XDICTIONARY
360
6E1D
102
}
102
{ACAD_REACTORS
330
6E1E
102
}
330
1F
100
AcDbEntity
  8
AM_5 寸法線
100
AcDbDimension
  2
*D28
 10
832.6058309419654
 20
940.0963296828841
 30
0.0
 11
849.1058309419655
 21
953.0963296828842
 31
0.0
 70
    32
 71
     5
 42
33.0
 73
     0
 74
     0
 75
     0
  3
SEISA$0
100
AcDbAlignedDimension
 13
865.6058309419654
 23
968.4279567848454
 33
0.0
 14
832.6058309419654
 24
966.4279567848453
 34
0.0
 50
0.0000000000001132
100
AcDbRotatedDimension
1001
ACAD_DSTYLE_DIMINSPECT
1070
   396
1000
100%
1070
   395
1000

1070
   394
1070
    33
1070
   393
1070
     0
  0
INSERT
  5
6F6F
330
1F
100
AcDbEntity
  8
AM_5 寸法線
100
AcDbBlockReference
  2
ケース
 10
971.2607326401192
 20
985.4279567848452
 30
0.0
  0
ENDSEC
  0
SECTION
  2
OBJECTS
  0
DICTIONARY
  5
C
330
0
100
AcDbDictionary
281
     1
  3
ACAD_COLOR
350
C5
  3
ACAD_GROUP
350
D
  3
ACAD_LAYOUT
350
1A
  3
ACAD_MATERIAL
350
C4
  3
ACAD_MLEADERSTYLE
350
2D5
  3
ACAD_MLINESTYLE
350
17
  3
ACAD_PLOTSETTINGS
350
19
  3
ACAD_PLOTSTYLENAME
350
E
  3
ACAD_SCALELIST
350
2B3
  3
ACAD_TABLESTYLE
350
121
  3
ACAD_VISUALSTYLE
350
27F
  3
ACDB_RECOMPOSE_DATA
350
2F7
  3
AcDbVariableDictionary
350
34
  3
AcmDictionary
350
49
  3
AMG
350
2B
  3
AMGSNAPSETTINGS
350
1DE
  0
DICTIONARY
  5
BF
330
2
100
AcDbDictionary
280
     1
281
     1
  3
ACAD_LAYERSTATES
360
6BD3
  3
AMLAYER_GROUPCOLORS
360
C0
  0
DICTIONARY
  5
29F7
330
10
100
AcDbDictionary
280
     1
281
     1
  3
ADSK_XREC_LAYER_RECONCILED
360
29F8
  0
DICTIONARY
  5
29F9
330
81
100
AcDbDictionary
280
     1
281
     1
  3
ADSK_XREC_LAYER_RECONCILED
360
29FA
  0
DICTIONARY
  5
82
330
1F
100
AcDbDictionary
280
     1
281
     1
  3
ACAD_SORTENTS
360
A41
  0
DICTIONARY
  5
59BA
330
4461
100
AcDbDictionary
280
     1
281
     1
  3
ACAD_SORTENTS
360
59BB
  0
DICTIONARY
  5
45A7
330
44F4
100
AcDbDictionary
280
     1
281
     1
  3
ACAD_SORTENTS
360
662F
  0
DICTIONARY
  5
4688
330
460C
100
AcDbDictionary
280
     1
281
     1
  3
ACAD_SORTENTS
360
6D4A
  0
DICTIONARY
  5
5AE7
330
46E5
100
AcDbDictionary
280
     1
281
     1
  3
ACAD_SORTENTS
360
6DC1
  0
DICTIONARY
  5
492A
330
4896
100
AcDbDictionary
280
     1
281
     1
  3
ACAD_SORTENTS
360
657C
  0
DICTIONARY
  5
4B41
330
4B34
100
AcDbDictionary
280
     1
281
     1
  3
ACAD_DIMASSOC
360
4B4B
  0
DICTIONARY
  5
4B7D
330
4B70
100
AcDbDictionary
280
     1
281
     1
  3
ACAD_DIMASSOC
360
4B87
  0
DICTIONARY
  5
4B97
330
4B88
100
AcDbDictionary
280
     1
281
     1
  3
ACAD_DIMASSOC
360
4BA3
  0
DICTIONARY
  5
4BD2
330
4BC5
100
AcDbDictionary
280
     1
281
     1
  3
ACAD_DIMASSOC
360
4BDC
  0
DICTIONARY
  5
4BED
330
4BDE
100
AcDbDictionary
280
     1
281
     1
  3
ACAD_DIMASSOC
360
4BF9
  0
DICTIONARY
  5
4C91
330
4C84
100
AcDbDictionary
280
     1
281
     1
  3
ACAD_DIMASSOC
360
4C9B
  0
DICTIONARY
  5
4CBB
330
4CAE
100
AcDbDictionary
280
     1
281
     1
  3
ACAD_DIMASSOC
360
4CC5
  0
DICTIONARY
  5
4CD3
330
4CC6
100
AcDbDictionary
280
     1
281
     1
  3
ACAD_DIMASSOC
360
4CDD
  0
DICTIONARY
  5
4D52
330
4D43
100
AcDbDictionary
280
     1
281
     1
  3
ACAD_DIMASSOC
360
4D5E
  0
DICTIONARY
  5
4D6E
330
4D5F
100
AcDbDictionary
280
     1
281
     1
  3
ACAD_DIMASSOC
360
4D7A
  0
DICTIONARY
  5
4E84
330
4E77
100
AcDbDictionary
280
     1
281
     1
  3
ACAD_DIMASSOC
360
4E8E
  0
DICTIONARY
  5
4E9C
330
4E8F
100
AcDbDictionary
280
     1
281
     1
  3
ACAD_DIMASSOC
360
4EA6
  0
DICTIONARY
  5
4EB4
330
4EA7
100
AcDbDictionary
280
     1
281
     1
  3
ACAD_DIMASSOC
360
4EBE
  0
DICTIONARY
  5
4ECC
330
4EBF
100
AcDbDictionary
280
     1
281
     1
  3
ACAD_DIMASSOC
360
4ED6
  0
DICTIONARY
  5
6C15
330
6C06
100
AcDbDictionary
280
     1
281
     1
  3
ACAD_DIMASSOC
360
6C16
  0
DICTIONARY
  5
6DDB
330
6DCD
100
AcDbDictionary
280
     1
281
     1
  3
ACAD_DIMASSOC
360
6DDC
  0
DICTIONARY
  5
6E1D
330
6E10
100
AcDbDictionary
280
     1
281
     1
  3
ACAD_DIMASSOC
360
6E1E
  0
DICTIONARY
  5
C5
102
{ACAD_REACTORS
330
C
102
}
330
C
100
AcDbDictionary
281
     1
  0
DICTIONARY
  5
D
102
{ACAD_REACTORS
330
C
102
}
330
C
100
AcDbDictionary
281
     1
  0
DICTIONARY
  5
1A
102
{ACAD_REACTORS
330
C
102
}
330
C
100
AcDbDictionary
281
     1
  3
Model
350
22
  3
レイアウト1
350
1E
  3
レイアウト2
350
26
  0
DICTIONARY
  5
C4
102
{ACAD_REACTORS
330
C
102
}
330
C
100
AcDbDictionary
281
     1
  3
ByBlock
350
27D
  3
ByLayer
350
27C
  3
Global
350
27E
  0
DICTIONARY
  5
2D5
102
{ACAD_REACTORS
330
C
102
}
330
C
100
AcDbDictionary
281
     1
  3
Standard
350
2D6
  0
DICTIONARY
  5
17
102
{ACAD_REACTORS
330
C
102
}
330
C
100
AcDbDictionary
281
     1
  3
Standard
350
18
  0
DICTIONARY
  5
19
102
{ACAD_REACTORS
330
C
102
}
330
C
100
AcDbDictionary
281
     1
  3
SEISA基本
350
1C7E
  0
ACDBDICTIONARYWDFLT
  5
E
102
{ACAD_REACTORS
330
C
102
}
330
C
100
AcDbDictionary
281
     1
  3
Normal
350
F
100
AcDbDictionaryWithDefault
340
F
  0
DICTIONARY
  5
2B3
102
{ACAD_REACTORS
330
C
102
}
330
C
100
AcDbDictionary
281
     1
  3
*A1
350
2C74
  3
*A2
350
6BD1
  3
*A3
350
6BD2
  3
A0
350
2B4
  3
A1
350
2B5
  3
A2
350
2B6
  3
A3
350
2B7
  3
A4
350
2B8
  3
A5
350
2B9
  3
A6
350
2BA
  3
A7
350
2BB
  3
A8
350
2BC
  3
A9
350
2BD
  3
B0
350
2BE
  3
B1
350
2BF
  3
B2
350
2C0
  3
B3
350
2C1
  3
B4
350
2C2
  3
B5
350
2C3
  3
B6
350
2C4
  3
B7
350
2C5
  3
B8
350
2C6
  3
B9
350
2C7
  3
C0
350
2C8
  3
C1
350
2C9
  3
C2
350
2CA
  3
C3
350
2CB
  3
C4
350
2CC
  3
C5
350
2CD
  3
C6
350
2CE
  3
C7
350
2CF
  3
C8
350
2D0
  3
C9
350
2D1
  3
D0
350
2D2
  3
D1
350
2D3
  3
D2
350
2D4
  0
DICTIONARY
  5
121
102
{ACAD_REACTORS
330
C
102
}
330
C
100
AcDbDictionary
281
     1
  3
Standard
350
122
  0
DICTIONARY
  5
27F
102
{ACAD_REACTORS
330
C
102
}
330
C
100
AcDbDictionary
281
     1
  3
2dWireframe
350
285
  3
3D Hidden
350
287
  3
3dWireframe
350
286
  3
Basic
350
284
  3
Brighten
350
28B
  3
ColorChange
350
28F
  3
Conceptual
350
288
  3
Dim
350
28A
  3
Facepattern
350
28E
  3
Flat
350
280
  3
FlatWithEdges
350
281
  3
Gouraud
350
282
  3
GouraudWithEdges
350
283
  3
Linepattern
350
28D
  3
Realistic
350
289
  3
Thicken
350
28C
  0
XRECORD
  5
2F7
102
{ACAD_REACTORS
330
C
102
}
330
C
100
AcDbXrecord
280
     1
 90
        1
330
122
  0
DICTIONARY
  5
34
102
{ACAD_REACTORS
330
C
102
}
330
C
100
AcDbDictionary
281
     1
  3
CANNOSCALE
350
2FA
  3
CMLEADERSTYLE
350
2F8
  3
CTABLESTYLE
350
140
  3
DIMASSOC
350
AC
  3
INDEXCTL
350
35
  3
LAYEREVAL
350
5D0D
  3
LAYERNOTIFY
350
5D0E
  3
LIGHTINGUNITS
350
2FB
  3
MSLTSCALE
350
2F9
  0
DICTIONARY
  5
49
102
{ACAD_REACTORS
330
C
102
}
330
C
100
AcDbDictionary
281
     1
  3
AcmBOM
350
161B
  3
AcmStdDictionary
350
4A
  3
AMDTSECTSYM_ARROWCOLOR
350
12B
  0
DICTIONARY
  5
2B
102
{ACAD_REACTORS
330
C
102
}
330
C
100
AcDbDictionary
281
     1
  0
DICTIONARY
  5
1DE
102
{ACAD_REACTORS
330
C
102
}
330
C
100
AcDbDictionary
281
     1
  0
DICTIONARY
  5
6BD3
102
{ACAD_REACTORS
330
BF
102
}
330
BF
100
AcDbDictionary
281
     1
  0
DICTIONARY
  5
C0
102
{ACAD_REACTORS
330
BF
102
}
330
BF
100
AcDbDictionary
280
     1
281
     1
  0
XRECORD
  5
29F8
102
{ACAD_REACTORS
330
29F7
102
}
330
29F7
100
AcDbXrecord
280
     1
290
     1
  0
XRECORD
  5
29FA
102
{ACAD_REACTORS
330
29F9
102
}
330
29F9
100
AcDbXrecord
280
     1
290
     1
  0
SORTENTSTABLE
  5
A41
102
{ACAD_REACTORS
330
82
102
}
330
82
100
AcDbSortentsTable
330
1F
331
4E77
  5
4EBF
331
4530
  5
47B8
331
6BDC
  5
6BDC
331
4631
  5
4824
331
4D5F
  5
4E77
331
3E5D
  5
3E5D
331
630D
  5
68D3
331
4C84
  5
4D43
331
3E46
  5
3E46
331
4B88
  5
4BDE
331
6C06
  5
6C06
331
630E
  5
68D4
331
48C2
  5
4A0F
331
4B70
  5
4BDD
331
4CC6
  5
4DA6
331
4EBF
  5
4F99
331
4CAE
  5
4D5F
331
3E60
  5
3E60
331
4BDE
  5
4CAE
331
4D43
  5
4DBE
331
4B34
  5
4B88
331
4BC5
  5
4C2C
331
4EA7
  5
4F87
331
470C
  5
48C2
331
4E8F
  5
4F3B
  0
SORTENTSTABLE
  5
59BB
102
{ACAD_REACTORS
330
59BA
102
}
330
59BA
100
AcDbSortentsTable
330
4461
  0
SORTENTSTABLE
  5
662F
102
{ACAD_REACTORS
330
45A7
102
}
330
45A7
100
AcDbSortentsTable
330
44F4
  0
SORTENTSTABLE
  5
6D4A
102
{ACAD_REACTORS
330
4688
102
}
330
4688
100
AcDbSortentsTable
330
460C
  0
SORTENTSTABLE
  5
6DC1
102
{ACAD_REACTORS
330
5AE7
102
}
330
5AE7
100
AcDbSortentsTable
330
46E5
331
46EA
  5
46ED
331
46FB
  5
46FE
331
4704
  5
4707
331
46F7
  5
46FB
331
4700
  5
4703
331
46F3
  5
46F7
331
6DC0
  5
46E9
331
46EF
  5
46F2
331
5AE6
  5
46EA
331
46EB
  5
46EE
331
46FC
  5
46FF
331
4705
  5
4709
331
4701
  5
4704
331
46F4
  5
46F9
331
46F0
  5
46F3
331
46EC
  5
46EF
331
46FD
  5
4700
331
4706
  5
5AE6
331
46E8
  5
46EB
331
46F9
  5
46FC
331
4702
  5
4705
331
46F5
  5
46FA
331
46F1
  5
46F4
331
46ED
  5
46F0
331
46FE
  5
4701
331
4707
  5
6CEC
331
46E9
  5
46EC
331
46FA
  5
46FD
331
4703
  5
4706
331
6CEC
  5
46E8
331
4709
  5
6DC0
331
46F2
  5
46F5
331
46FF
  5
4702
331
46EE
  5
46F1
  0
SORTENTSTABLE
  5
657C
102
{ACAD_REACTORS
330
492A
102
}
330
492A
100
AcDbSortentsTable
330
4896
331
48BC
  5
48BD
331
489D
  5
489E
331
48B2
  5
48B3
331
4928
  5
4929
331
48A8
  5
48A9
331
48A0
  5
48A1
331
48BF
  5
48C0
331
48B5
  5
48B6
331
48A3
  5
48A4
331
48AB
  5
48AC
331
48B8
  5
48B9
331
4899
  5
489A
331
4925
  5
4926
331
48A6
  5
48A7
331
48AE
  5
48AF
331
489C
  5
489D
331
48C1
  5
4925
331
48BB
  5
48BC
331
48B1
  5
48B2
331
489F
  5
48A0
331
48BE
  5
48BF
331
48B4
  5
48B5
331
48A2
  5
48A3
331
48AA
  5
48AB
331
48B7
  5
48B8
331
48A5
  5
48A6
331
48AD
  5
48AE
331
48BA
  5
48BB
331
48C0
  5
48C1
331
489B
  5
489C
331
48B0
  5
48B1
331
4927
  5
4928
331
489E
  5
489F
331
48BD
  5
48BE
331
4929
  5
4899
331
48B3
  5
48B4
331
48A1
  5
48A2
331
48A9
  5
48AA
331
48B6
  5
48B7
331
48A4
  5
48A5
331
48AC
  5
48AD
331
489A
  5
489B
331
48B9
  5
48BA
331
48AF
  5
48B0
331
48A7
  5
48A8
331
4926
  5
4927
  0
DIMASSOC
  5
4B4B
102
{ACAD_REACTORS
330
4B41
102
}
330
4B41
100
AcDbDimAssoc
330
4B34
 90
        3
 70
     0
 71
     0
  1
AcDbOsnapPointRef
 72
     6
331
4631
331
461A
 73
     2
 91
        0
 40
1.0
 10
0.0
 20
0.0
 30
0.0
332
4631
332
461B
 74
     2
 92
        0
 75
     0
  1
AcDbOsnapPointRef
 72
     1
331
4631
331
4611
 73
     2
 91
        0
 40
1.0
 10
0.0
 20
0.0
 30
2.000000000000000E+50
 75
     0
  0
DIMASSOC
  5
4B87
102
{ACAD_REACTORS
330
4B7D
102
}
330
4B7D
100
AcDbDimAssoc
330
4B70
 90
        3
 70
     0
 71
     0
  1
AcDbOsnapPointRef
 72
    13
331
4631
331
461C
 73
     2
 91
        0
 40
0.0
 10
0.0
 20
0.0
 30
2.000000000000000E+50
 75
     0
  1
AcDbOsnapPointRef
 72
     2
331
4631
331
460F
 73
     2
 91
        0
 40
0.5
 10
0.0
 20
0.0
 30
0.0
 75
     0
  0
DIMASSOC
  5
4BA3
102
{ACAD_REACTORS
330
4B97
102
}
330
4B97
100
AcDbDimAssoc
330
4B88
 90
        3
 70
     0
 71
     0
  1
AcDbOsnapPointRef
 72
     1
331
470C
331
46EA
 73
     2
 91
        0
 40
1.0
 10
0.0
 20
0.0
 30
2.000000000000000E+50
 75
     0
  1
AcDbOsnapPointRef
 72
    13
331
4631
331
461C
 73
     2
 91
        0
 40
0.0
 10
0.0
 20
0.0
 30
2.000000000000000E+50
 75
     0
  0
DIMASSOC
  5
4BDC
102
{ACAD_REACTORS
330
4BD2
102
}
330
4BD2
100
AcDbDimAssoc
330
4BC5
 90
        3
 70
     0
 71
     0
  1
AcDbOsnapPointRef
 72
     1
331
470C
331
46EA
 73
     2
 91
        0
 40
1.0
 10
0.0
 20
0.0
 30
2.000000000000000E+50
 75
     0
  1
AcDbOsnapPointRef
 72
     2
331
470C
331
4703
 73
     2
 91
        0
 40
0.5
 10
0.0
 20
0.0
 30
0.0
 75
     0
  0
DIMASSOC
  5
4BF9
102
{ACAD_REACTORS
330
4BED
102
}
330
4BED
100
AcDbDimAssoc
330
4BDE
 90
        3
 70
     0
 71
     0
  1
AcDbOsnapPointRef
 72
     1
331
4530
331
4521
 73
     2
 91
        0
 40
1.0
 10
0.0
 20
0.0
 30
2.000000000000000E+50
 75
     0
  1
AcDbOsnapPointRef
 72
    13
331
470C
331
46FF
 73
     2
 91
        0
 40
0.0
 10
0.0
 20
0.0
 30
2.000000000000000E+50
 75
     0
  0
DIMASSOC
  5
4C9B
102
{ACAD_REACTORS
330
4C91
102
}
330
4C91
100
AcDbDimAssoc
330
4C84
 90
        3
 70
     0
 71
     0
  1
AcDbOsnapPointRef
 72
    13
331
470C
331
4700
 73
     2
 91
        0
 40
0.0
 10
0.0
 20
0.0
 30
2.000000000000000E+50
 75
     0
  1
AcDbOsnapPointRef
 72
     8
331
470C
331
46ED
 73
     2
 91
        0
 40
1.0
 10
0.0
 20
0.0
 30
0.0
 75
     1
  1
AcDbOsnapPointRef
 72
    13
331
470C
331
4700
 73
     2
 91
        0
 40
0.0
 10
0.0
 20
0.0
 30
2.000000000000000E+50
 75
     0
  0
DIMASSOC
  5
4CC5
102
{ACAD_REACTORS
330
4CBB
102
}
330
4CBB
100
AcDbDimAssoc
330
4CAE
 90
        3
 70
     0
 71
     0
  1
AcDbOsnapPointRef
 72
     1
331
4530
331
4511
 73
     2
 91
        0
 40
1.0
 10
0.0
 20
0.0
 30
2.000000000000000E+50
 75
     0
  1
AcDbOsnapPointRef
 72
     1
331
4530
331
44FC
 73
     2
 91
        0
 40
1.0
 10
0.0
 20
0.0
 30
2.000000000000000E+50
 75
     0
  0
DIMASSOC
  5
4CDD
102
{ACAD_REACTORS
330
4CD3
102
}
330
4CD3
100
AcDbDimAssoc
330
4CC6
 90
        3
 70
     0
 71
     0
  1
AcDbOsnapPointRef
 72
     1
331
4530
331
4503
 73
     2
 91
        0
 40
1.0
 10
0.0
 20
0.0
 30
2.000000000000000E+50
 75
     0
  1
AcDbOsnapPointRef
 72
     1
331
4530
331
44FA
 73
     2
 91
        0
 40
1.0
 10
0.0
 20
0.0
 30
2.000000000000000E+50
 75
     0
  0
DIMASSOC
  5
4D5E
102
{ACAD_REACTORS
330
4D52
102
}
330
4D52
100
AcDbDimAssoc
330
4D43
 90
        3
 70
     0
 71
     0
  1
AcDbOsnapPointRef
 72
    13
331
4631
331
4617
 73
     2
 91
        0
 40
0.0
 10
0.0
 20
0.0
 30
2.000000000000000E+50
 75
     0
  1
AcDbOsnapPointRef
 72
    13
331
4530
331
44F9
 73
     2
 91
        0
 40
0.0
 10
0.0
 20
0.0
 30
2.000000000000000E+50
 75
     0
  0
DIMASSOC
  5
4D7A
102
{ACAD_REACTORS
330
4D6E
102
}
330
4D6E
100
AcDbDimAssoc
330
4D5F
 90
        3
 70
     0
 71
     0
  1
AcDbOsnapPointRef
 72
    13
331
4631
331
4617
 73
     2
 91
        0
 40
0.0
 10
0.0
 20
0.0
 30
2.000000000000000E+50
 75
     0
  1
AcDbOsnapPointRef
 72
     8
331
4631
331
4610
 73
     2
 91
        0
 40
0.0
 10
0.0
 20
0.0
 30
0.0
 75
     1
  1
AcDbOsnapPointRef
 72
    13
331
4631
331
4617
 73
     2
 91
        0
 40
0.0
 10
0.0
 20
0.0
 30
2.000000000000000E+50
 75
     0
  0
DIMASSOC
  5
4E8E
102
{ACAD_REACTORS
330
4E84
102
}
330
4E84
100
AcDbDimAssoc
330
4E77
 90
        3
 70
     0
 71
     0
  1
AcDbOsnapPointRef
 72
    13
331
4631
331
4617
 73
     2
 91
        0
 40
0.0
 10
0.0
 20
0.0
 30
2.000000000000000E+50
 75
     0
  1
AcDbOsnapPointRef
 72
     1
331
4631
331
460F
 73
     2
 91
        0
 40
1.0
 10
0.0
 20
0.0
 30
2.000000000000000E+50
 75
     0
  0
DIMASSOC
  5
4EA6
102
{ACAD_REACTORS
330
4E9C
102
}
330
4E9C
100
AcDbDimAssoc
330
4E8F
 90
        3
 70
     0
 71
     0
  1
AcDbOsnapPointRef
 72
    13
331
4631
331
4617
 73
     2
 91
        0
 40
0.0
 10
0.0
 20
0.0
 30
2.000000000000000E+50
 75
     0
  1
AcDbOsnapPointRef
 72
    13
331
4530
331
44F8
 73
     2
 91
        0
 40
0.0
 10
0.0
 20
0.0
 30
2.000000000000000E+50
 75
     0
  0
DIMASSOC
  5
4EBE
102
{ACAD_REACTORS
330
4EB4
102
}
330
4EB4
100
AcDbDimAssoc
330
4EA7
 90
        3
 70
     0
 71
     0
  1
AcDbOsnapPointRef
 72
    13
331
4530
331
44F8
 73
     2
 91
        0
 40
0.0
 10
0.0
 20
0.0
 30
2.000000000000000E+50
 75
     0
  1
AcDbOsnapPointRef
 72
    13
331
470C
331
4703
 73
     2
 91
        0
 40
0.0
 10
0.0
 20
0.0
 30
2.000000000000000E+50
 75
     0
  0
DIMASSOC
  5
4ED6
102
{ACAD_REACTORS
330
4ECC
102
}
330
4ECC
100
AcDbDimAssoc
330
4EBF
 90
        3
 70
     0
 71
     0
  1
AcDbOsnapPointRef
 72
     1
331
4631
331
460F
 73
     2
 91
        0
 40
1.0
 10
0.0
 20
0.0
 30
2.000000000000000E+50
 75
     0
  1
AcDbOsnapPointRef
 72
    13
331
470C
331
4703
 73
     2
 91
        0
 40
0.0
 10
0.0
 20
0.0
 30
2.000000000000000E+50
 75
     0
  0
DIMASSOC
  5
6C16
102
{ACAD_REACTORS
330
6C15
102
}
330
6C15
100
AcDbDimAssoc
330
6C06
 90
        1
 70
     0
 71
     0
  1
AcDbOsnapPointRef
 72
     1
331
470C
331
4703
 73
     0
 91
        0
 40
0.0
 10
0.0
 20
0.0
 30
2.000000000000000E+50
 75
     0
  0
DIMASSOC
  5
6DDC
102
{ACAD_REACTORS
330
6DDB
102
}
330
6DDB
100
AcDbDimAssoc
330
6DCD
 90
        3
 70
     0
 71
     0
  1
AcDbOsnapPointRef
 72
     4
331
4BDE
331
66A6
 73
     0
 91
        0
 40
0.0
 10
0.0
 20
0.0
 30
0.0
 75
     0
  1
AcDbOsnapPointRef
 72
     8
331
470C
331
46FA
 73
     0
 91
        0
 40
0.9397120842062896
 10
0.0
 20
0.0
 30
0.0
 75
     1
  1
AcDbOsnapPointRef
 72
     4
331
4BDE
331
66A6
 73
     0
 91
        0
 40
0.0
 10
0.0
 20
0.0
 30
0.0
 75
     0
  0
DIMASSOC
  5
6E1E
102
{ACAD_REACTORS
330
6E1D
102
}
330
6E1D
100
AcDbDimAssoc
330
6E10
 90
        3
 70
     0
 71
     0
  1
AcDbOsnapPointRef
 72
     4
331
6DCD
 73
     0
 91
        0
 40
0.0
 10
0.0
 20
0.0
 30
0.0
 75
     0
  1
AcDbOsnapPointRef
 72
    13
331
470C
331
46EA
 73
     0
 91
        0
 40
0.0
 10
0.0
 20
0.0
 30
2.000000000000000E+50
 75
     0
  0
LAYOUT
  5
22
102
{ACAD_REACTORS
330
1A
102
}
330
1A
100
AcDbPlotSettings
  1

  2
KONICA MINOLTA 501 PCL
  4
A4
  6

 40
5.027082920074462
 41
5.027085781097412
 42
5.027069091796875
 43
5.027069091796875
 44
209.9733276367186
 45
296.9259948730469
 46
7.211129773114151
 47
0.0
 48
0.0
 49
0.0
140
0.0
141
0.0
142
1.0
143
2.641471086185985
 70
 11956
 72
     1
 73
     1
 74
     1
  7
SEISA.ctb
 75
     0
147
0.3785769245136419
 76
     0
 77
     2
 78
   300
148
-542.8930717155513
149
-555.2072802805278
100
AcDbLayout
  1
Model
 70
     1
 71
     0
 10
0.0
 20
0.0
 11
12.0
 21
9.0
 12
0.0
 22
0.0
 32
0.0
 14
0.0
 24
0.0
 34
0.0
 15
0.0
 25
0.0
 35
0.0
146
0.0
 13
0.0
 23
0.0
 33
0.0
 16
1.0
 26
0.0
 36
0.0
 17
0.0
 27
1.0
 37
0.0
 76
     0
330
1F
331
27A
1001
ACAD_PSEXT
1000
KONICA MINOLTA 501 PCL
1000
KONICA MINOLTA 501/421/361PCL
1000
IP_192.168.20.231_(1)
1000

1070
     0
  0
LAYOUT
  5
1E
102
{ACAD_REACTORS
330
1A
102
}
330
1A
100
AcDbPlotSettings
  1

  2
none_device
  4
Letter_(8.50_x_11.00_Inches)
  6

 40
6.349999904632567
 41
6.349999904632567
 42
6.350006103515625
 43
6.350006103515625
 44
215.8999938964844
 45
279.3999938964844
 46
0.0
 47
0.0
 48
0.0
 49
0.0
140
0.0
141
0.0
142
1.0
143
1.0
 70
 15024
 72
     1
 73
     1
 74
     5
  7
SEISA.ctb
 75
    16
147
1.0
 76
     0
 77
     2
 78
   300
148
0.0
149
0.0
100
AcDbLayout
  1
レイアウト1
 70
     1
 71
     1
 10
0.0
 20
0.0
 11
420.0
 21
297.0
 12
0.0
 22
0.0
 32
0.0
 14
1.000000000000000E+20
 24
1.000000000000000E+20
 34
1.000000000000000E+20
 15
-1.000000000000000E+20
 25
-1.000000000000000E+20
 35
-1.000000000000000E+20
146
0.0
 13
0.0
 23
0.0
 33
0.0
 16
1.0
 26
0.0
 36
0.0
 17
0.0
 27
1.0
 37
0.0
 76
     0
330
1B
  0
LAYOUT
  5
26
102
{ACAD_REACTORS
330
1A
102
}
330
1A
100
AcDbPlotSettings
  1

  2
none_device
  4
Letter_(8.50_x_11.00_Inches)
  6

 40
6.349999904632567
 41
6.349999904632567
 42
6.350006103515625
 43
6.350006103515625
 44
215.8999938964844
 45
279.3999938964844
 46
0.0
 47
0.0
 48
0.0
 49
0.0
140
0.0
141
0.0
142
1.0
143
1.0
 70
 15024
 72
     1
 73
     1
 74
     5
  7
SEISA.ctb
 75
    16
147
1.0
 76
     0
 77
     2
 78
   300
148
0.0
149
0.0
100
AcDbLayout
  1
レイアウト2
 70
     1
 71
     2
 10
0.0
 20
0.0
 11
12.0
 21
9.0
 12
0.0
 22
0.0
 32
0.0
 14
0.0
 24
0.0
 34
0.0
 15
0.0
 25
0.0
 35
0.0
146
0.0
 13
0.0
 23
0.0
 33
0.0
 16
1.0
 26
0.0
 36
0.0
 17
0.0
 27
1.0
 37
0.0
 76
     0
330
23
  0
MATERIAL
  5
27D
102
{ACAD_REACTORS
330
C4
102
}
330
C4
100
AcDbMaterial
  1
ByBlock
 73
     1
 78
     1
172
     1
176
     1
270
     1
274
     1
 94
       63
  0
MATERIAL
  5
27C
102
{ACAD_REACTORS
330
C4
102
}
330
C4
100
AcDbMaterial
  1
ByLayer
 73
     1
 78
     1
172
     1
176
     1
270
     1
274
     1
 94
       63
  0
MATERIAL
  5
27E
102
{ACAD_REACTORS
330
C4
102
}
330
C4
100
AcDbMaterial
  1
Global
 73
     1
 78
     1
172
     1
176
     1
270
     1
274
     1
 94
       63
  0
MLEADERSTYLE
  5
2D6
102
{ACAD_REACTORS
330
2D5
102
}
330
2D5
100
AcDbMLeaderStyle
170
     2
171
     1
172
     0
 90
        2
 40
0.0
 41
0.0
173
     1
 91
-1056964608
340
14
 92
       -2
290
     1
 42
2.0
291
     1
 43
0.36
  3
Standard
 44
4.0
300

342
11
174
     1
178
     6
175
     1
176
     0
 93
-1056964608
 45
4.0
292
     0
297
     0
 46
4.0
 94
-1056964608
 47
1.0
 49
1.0
140
1.0
293
     1
141
0.0
294
     1
177
     0
142
1.0
295
     0
296
     0
143
0.125
1001
ACAD_MLEADERVER
1070
     2
  0
MLINESTYLE
  5
18
102
{ACAD_REACTORS
330
17
102
}
330
17
100
AcDbMlineStyle
  2
STANDARD
 70
     0
  3

 62
   256
 51
90.0
 52
90.0
 71
     2
 49
0.5
 62
   256
  6
BYLAYER
 49
-0.5
 62
   256
  6
BYLAYER
  0
PLOTSETTINGS
  5
1C7E
102
{ACAD_REACTORS
330
19
102
}
330
19
100
AcDbPlotSettings
  1
SEISA基本
  2
none_device
  4
Letter_(8.50_x_11.00_Inches)
  6

 40
6.349999904632567
 41
6.349999904632567
 42
6.350006103515625
 43
6.350006103515625
 44
215.8999938964844
 45
279.3999938964844
 46
7.302498226506357
 47
0.0
 48
0.0
 49
0.0
140
0.0
141
0.0
142
1.0
143
1.574803221122935
 70
 11956
 72
     1
 73
     1
 74
     2
  7
SEISA.ctb
 75
     0
147
0.6349999711627054
 76
     0
 77
     2
 78
   300
148
0.0
149
0.0
1001
ACAD_PSEXT
1000
なし
1000
なし
1000
適切ではありません
1000
新しいプロッタ環境設定名を選択しない限り、レイアウトは印刷されません。
1070
     0
  0
ACDBPLACEHOLDER
  5
F
102
{ACAD_REACTORS
330
E
102
}
330
E
  0
SCALE
  5
2C74
102
{ACAD_REACTORS
330
2B3
102
}
330
2B3
100
AcDbScale
 70
     0
300
1:3
140
1.0
141
3.0
290
     0
  0
SCALE
  5
6BD1
102
{ACAD_REACTORS
330
2B3
102
}
330
2B3
100
AcDbScale
 70
     0
300
1:2.5
140
1.0
141
2.5
290
     0
  0
SCALE
  5
6BD2
102
{ACAD_REACTORS
330
2B3
102
}
330
2B3
100
AcDbScale
 70
     0
300
1:1.5
140
1.0
141
1.5
290
     0
  0
SCALE
  5
2B4
102
{ACAD_REACTORS
330
2B3
102
}
330
2B3
100
AcDbScale
 70
     0
300
1:1
140
1.0
141
1.0
290
     1
  0
SCALE
  5
2B5
102
{ACAD_REACTORS
330
2B3
102
}
330
2B3
100
AcDbScale
 70
     0
300
1:2
140
1.0
141
2.0
290
     0
  0
SCALE
  5
2B6
102
{ACAD_REACTORS
330
2B3
102
}
330
2B3
100
AcDbScale
 70
     0
300
1:4
140
1.0
141
4.0
290
     0
  0
SCALE
  5
2B7
102
{ACAD_REACTORS
330
2B3
102
}
330
2B3
100
AcDbScale
 70
     0
300
1:5
140
1.0
141
5.0
290
     0
  0
SCALE
  5
2B8
102
{ACAD_REACTORS
330
2B3
102
}
330
2B3
100
AcDbScale
 70
     0
300
1:8
140
1.0
141
8.0
290
     0
  0
SCALE
  5
2B9
102
{ACAD_REACTORS
330
2B3
102
}
330
2B3
100
AcDbScale
 70
     0
300
1:10
140
1.0
141
10.0
290
     0
  0
SCALE
  5
2BA
102
{ACAD_REACTORS
330
2B3
102
}
330
2B3
100
AcDbScale
 70
     0
300
1:16
140
1.0
141
16.0
290
     0
  0
SCALE
  5
2BB
102
{ACAD_REACTORS
330
2B3
102
}
330
2B3
100
AcDbScale
 70
     0
300
1:20
140
1.0
141
20.0
290
     0
  0
SCALE
  5
2BC
102
{ACAD_REACTORS
330
2B3
102
}
330
2B3
100
AcDbScale
 70
     0
300
1:30
140
1.0
141
30.0
290
     0
  0
SCALE
  5
2BD
102
{ACAD_REACTORS
330
2B3
102
}
330
2B3
100
AcDbScale
 70
     0
300
1:40
140
1.0
141
40.0
290
     0
  0
SCALE
  5
2BE
102
{ACAD_REACTORS
330
2B3
102
}
330
2B3
100
AcDbScale
 70
     0
300
1:50
140
1.0
141
50.0
290
     0
  0
SCALE
  5
2BF
102
{ACAD_REACTORS
330
2B3
102
}
330
2B3
100
AcDbScale
 70
     0
300
1:100
140
1.0
141
100.0
290
     0
  0
SCALE
  5
2C0
102
{ACAD_REACTORS
330
2B3
102
}
330
2B3
100
AcDbScale
 70
     0
300
2:1
140
2.0
141
1.0
290
     0
  0
SCALE
  5
2C1
102
{ACAD_REACTORS
330
2B3
102
}
330
2B3
100
AcDbScale
 70
     0
300
4:1
140
4.0
141
1.0
290
     0
  0
SCALE
  5
2C2
102
{ACAD_REACTORS
330
2B3
102
}
330
2B3
100
AcDbScale
 70
     0
300
8:1
140
8.0
141
1.0
290
     0
  0
SCALE
  5
2C3
102
{ACAD_REACTORS
330
2B3
102
}
330
2B3
100
AcDbScale
 70
     0
300
10:1
140
10.0
141
1.0
290
     0
  0
SCALE
  5
2C4
102
{ACAD_REACTORS
330
2B3
102
}
330
2B3
100
AcDbScale
 70
     0
300
100:1
140
100.0
141
1.0
290
     0
  0
SCALE
  5
2C5
102
{ACAD_REACTORS
330
2B3
102
}
330
2B3
100
AcDbScale
 70
     0
300
1/128" = 1'-0"
140
0.0078125
141
12.0
290
     0
  0
SCALE
  5
2C6
102
{ACAD_REACTORS
330
2B3
102
}
330
2B3
100
AcDbScale
 70
     0
300
1/64" = 1'-0"
140
0.015625
141
12.0
290
     0
  0
SCALE
  5
2C7
102
{ACAD_REACTORS
330
2B3
102
}
330
2B3
100
AcDbScale
 70
     0
300
1/32" = 1'-0"
140
0.03125
141
12.0
290
     0
  0
SCALE
  5
2C8
102
{ACAD_REACTORS
330
2B3
102
}
330
2B3
100
AcDbScale
 70
     0
300
1/16" = 1'-0"
140
0.0625
141
12.0
290
     0
  0
SCALE
  5
2C9
102
{ACAD_REACTORS
330
2B3
102
}
330
2B3
100
AcDbScale
 70
     0
300
3/32" = 1'-0"
140
0.09375
141
12.0
290
     0
  0
SCALE
  5
2CA
102
{ACAD_REACTORS
330
2B3
102
}
330
2B3
100
AcDbScale
 70
     0
300
1/8" = 1'-0"
140
0.125
141
12.0
290
     0
  0
SCALE
  5
2CB
102
{ACAD_REACTORS
330
2B3
102
}
330
2B3
100
AcDbScale
 70
     0
300
3/16" = 1'-0"
140
0.1875
141
12.0
290
     0
  0
SCALE
  5
2CC
102
{ACAD_REACTORS
330
2B3
102
}
330
2B3
100
AcDbScale
 70
     0
300
1/4" = 1'-0"
140
0.25
141
12.0
290
     0
  0
SCALE
  5
2CD
102
{ACAD_REACTORS
330
2B3
102
}
330
2B3
100
AcDbScale
 70
     0
300
3/8" = 1'-0"
140
0.375
141
12.0
290
     0
  0
SCALE
  5
2CE
102
{ACAD_REACTORS
330
2B3
102
}
330
2B3
100
AcDbScale
 70
     0
300
1/2" = 1'-0"
140
0.5
141
12.0
290
     0
  0
SCALE
  5
2CF
102
{ACAD_REACTORS
330
2B3
102
}
330
2B3
100
AcDbScale
 70
     0
300
3/4" = 1'-0"
140
0.75
141
12.0
290
     0
  0
SCALE
  5
2D0
102
{ACAD_REACTORS
330
2B3
102
}
330
2B3
100
AcDbScale
 70
     0
300
1" = 1'-0"
140
1.0
141
12.0
290
     0
  0
SCALE
  5
2D1
102
{ACAD_REACTORS
330
2B3
102
}
330
2B3
100
AcDbScale
 70
     0
300
1-1/2" = 1'-0"
140
1.5
141
12.0
290
     0
  0
SCALE
  5
2D2
102
{ACAD_REACTORS
330
2B3
102
}
330
2B3
100
AcDbScale
 70
     0
300
3" = 1'-0"
140
3.0
141
12.0
290
     0
  0
SCALE
  5
2D3
102
{ACAD_REACTORS
330
2B3
102
}
330
2B3
100
AcDbScale
 70
     0
300
6" = 1'-0"
140
6.0
141
12.0
290
     0
  0
SCALE
  5
2D4
102
{ACAD_REACTORS
330
2B3
102
}
330
2B3
100
AcDbScale
 70
     0
300
1'-0" = 1'-0"
140
12.0
141
12.0
290
     0
  0
TABLESTYLE
  5
122
102
{ACAD_XDICTIONARY
360
2F5
102
}
102
{ACAD_REACTORS
330
121
102
}
330
121
100
AcDbTableStyle
  3
Standard
 70
     0
 71
     0
 40
1.5
 41
1.5
280
     0
281
     0
  7
STANDARD
140
4.5
170
     2
 62
     0
 63
     7
283
     0
 90
      512
 91
        0
  1

274
    -2
284
     1
 64
     0
275
    -2
285
     1
 65
     0
276
    -2
286
     1
 66
     0
277
    -2
287
     1
 67
     0
278
    -2
288
     1
 68
     0
279
    -2
289
     1
 69
     0
  7
STANDARD
140
6.0
170
     5
 62
     0
 63
     7
283
     0
 90
      512
 91
        0
  1

274
    -2
284
     1
 64
     0
275
    -2
285
     1
 65
     0
276
    -2
286
     1
 66
     0
277
    -2
287
     1
 67
     0
278
    -2
288
     1
 68
     0
279
    -2
289
     1
 69
     0
  7
STANDARD
140
4.5
170
     5
 62
     0
 63
     7
283
     0
 90
      512
 91
        0
  1

274
    -2
284
     1
 64
     0
275
    -2
285
     1
 65
     0
276
    -2
286
     1
 66
     0
277
    -2
287
     1
 67
     0
278
    -2
288
     1
 68
     0
279
    -2
289
     1
 69
     0
  0
VISUALSTYLE
  5
285
102
{ACAD_REACTORS
330
27F
102
}
330
27F
100
AcDbVisualStyle
  2
2dWireframe
 70
     4
 71
     0
 72
     2
 73
     0
 90
        0
 40
-0.6
 41
-30.0
 62
     5
 63
     7
421
 16777215
 74
     1
 91
        4
 64
     7
 65
   257
 75
     1
175
     1
 42
1.0
 92
        0
 66
   257
 43
1.0
 76
     1
 77
     6
 78
     2
 67
     7
 79
     5
170
     0
171
     0
290
     0
174
     0
 93
        1
 44
0.0
173
     0
291
     0
 45
0.0
  0
VISUALSTYLE
  5
287
102
{ACAD_REACTORS
330
27F
102
}
330
27F
100
AcDbVisualStyle
  2
3D Hidden
 70
     6
 71
     1
 72
     2
 73
     2
 90
        0
 40
-0.6
 41
-30.0
 62
     5
 63
     7
421
 16777215
 74
     2
 91
        2
 64
     7
 65
   257
 75
     2
175
     1
 42
40.0
 92
        0
 66
   257
 43
1.0
 76
     1
 77
     6
 78
     2
 67
     7
 79
     3
170
     0
171
     0
290
     0
174
     0
 93
        1
 44
0.0
173
     0
291
     0
 45
0.0
  0
VISUALSTYLE
  5
286
102
{ACAD_REACTORS
330
27F
102
}
330
27F
100
AcDbVisualStyle
  2
3dWireframe
 70
     5
 71
     0
 72
     2
 73
     0
 90
        0
 40
-0.6
 41
-30.0
 62
     5
 63
     7
421
 16777215
 74
     1
 91
        4
 64
     7
 65
   257
 75
     1
175
     1
 42
1.0
 92
        0
 66
   257
 43
1.0
 76
     1
 77
     6
 78
     2
 67
     7
 79
     5
170
     0
171
     0
290
     0
174
     0
 93
        1
 44
0.0
173
     0
291
     0
 45
0.0
  0
VISUALSTYLE
  5
284
102
{ACAD_REACTORS
330
27F
102
}
330
27F
100
AcDbVisualStyle
  2
Basic
 70
     7
 71
     1
 72
     0
 73
     1
 90
        0
 40
-0.6
 41
-30.0
 62
     5
 63
     7
421
 16777215
 74
     0
 91
        4
 64
     7
 65
   257
 75
     1
175
     1
 42
1.0
 92
        8
 66
     7
 43
1.0
 76
     1
 77
     6
 78
     2
 67
     7
 79
     5
170
     0
171
     0
290
     0
174
     0
 93
        1
 44
0.0
173
     0
291
     1
 45
0.0
  0
VISUALSTYLE
  5
28B
102
{ACAD_REACTORS
330
27F
102
}
330
27F
100
AcDbVisualStyle
  2
Brighten
 70
    12
 71
     2
 72
     2
 73
     0
 90
        0
 40
-0.6
 41
-30.0
 62
     5
 63
     7
421
 16777215
 74
     1
 91
        4
 64
     7
 65
   257
 75
     1
175
     1
 42
1.0
 92
        8
 66
     7
 43
1.0
 76
     1
 77
     6
 78
     2
 67
     7
 79
     5
170
     0
171
     0
290
     0
174
     0
 93
        1
 44
50.0
173
     0
291
     1
 45
0.0
  0
VISUALSTYLE
  5
28F
102
{ACAD_REACTORS
330
27F
102
}
330
27F
100
AcDbVisualStyle
  2
ColorChange
 70
    16
 71
     2
 72
     2
 73
     3
 90
        0
 40
-0.6
 41
-30.0
 62
     5
 63
     8
421
  8421504
 74
     1
 91
        4
 64
     7
 65
   257
 75
     1
175
     1
 42
1.0
 92
        8
 66
     8
424
  8421504
 43
1.0
 76
     1
 77
     6
 78
     2
 67
     7
 79
     5
170
     0
171
     0
290
     0
174
     0
 93
        1
 44
0.0
173
     0
291
     1
 45
0.0
  0
VISUALSTYLE
  5
288
102
{ACAD_REACTORS
330
27F
102
}
330
27F
100
AcDbVisualStyle
  2
Conceptual
 70
     9
 71
     3
 72
     2
 73
     0
 90
        0
 40
-0.6
 41
-30.0
 62
     5
 63
     7
421
 16777215
 74
     2
 91
        2
 64
     7
 65
   257
 75
     1
175
     1
 42
40.0
 92
        8
 66
     7
 43
1.0
 76
     1
 77
     6
 78
     2
 67
     7
 79
     3
170
     0
171
     0
290
     0
174
     0
 93
        1
 44
0.0
173
     0
291
     0
 45
0.0
  0
VISUALSTYLE
  5
28A
102
{ACAD_REACTORS
330
27F
102
}
330
27F
100
AcDbVisualStyle
  2
Dim
 70
    11
 71
     2
 72
     2
 73
     0
 90
        0
 40
-0.6
 41
-30.0
 62
     5
 63
     7
421
 16777215
 74
     1
 91
        4
 64
     7
 65
   257
 75
     1
175
     1
 42
1.0
 92
        8
 66
     7
 43
1.0
 76
     1
 77
     6
 78
     2
 67
     7
 79
     5
170
     0
171
     0
290
     0
174
     0
 93
        1
 44
-50.0
173
     0
291
     1
 45
0.0
  0
VISUALSTYLE
  5
28E
102
{ACAD_REACTORS
330
27F
102
}
330
27F
100
AcDbVisualStyle
  2
Facepattern
 70
    15
 71
     2
 72
     2
 73
     0
 90
        0
 40
-0.6
 41
-30.0
 62
     5
 63
     7
421
 16777215
 74
     1
 91
        4
 64
     7
 65
   257
 75
     1
175
     1
 42
1.0
 92
        8
 66
     7
 43
1.0
 76
     1
 77
     6
 78
     2
 67
     7
 79
     5
170
     0
171
     0
290
     0
174
     0
 93
        1
 44
0.0
173
     0
291
     1
 45
0.0
  0
VISUALSTYLE
  5
280
102
{ACAD_REACTORS
330
27F
102
}
330
27F
100
AcDbVisualStyle
  2
Flat
 70
     0
 71
     2
 72
     1
 73
     1
 90
        2
 40
-0.6
 41
30.0
 62
     5
 63
     7
421
 16777215
 74
     0
 91
        4
 64
     7
 65
   257
 75
     1
175
     1
 42
1.0
 92
        8
 66
     7
 43
1.0
 76
     1
 77
     6
 78
     2
 67
     7
 79
     5
170
     0
171
     0
290
     0
174
     0
 93
       13
 44
0.0
173
     0
291
     1
 45
0.0
  0
VISUALSTYLE
  5
281
102
{ACAD_REACTORS
330
27F
102
}
330
27F
100
AcDbVisualStyle
  2
FlatWithEdges
 70
     1
 71
     2
 72
     1
 73
     1
 90
        2
 40
-0.6
 41
30.0
 62
     5
 63
     7
421
 16777215
 74
     1
 91
        4
 64
     7
 65
   257
 75
     1
175
     1
 42
1.0
 92
        0
 66
   257
 43
1.0
 76
     1
 77
     6
 78
     2
 67
     7
 79
     5
170
     0
171
     0
290
     0
174
     0
 93
       13
 44
0.0
173
     0
291
     1
 45
0.0
  0
VISUALSTYLE
  5
282
102
{ACAD_REACTORS
330
27F
102
}
330
27F
100
AcDbVisualStyle
  2
Gouraud
 70
     2
 71
     2
 72
     2
 73
     1
 90
        2
 40
-0.6
 41
30.0
 62
     5
 63
     7
421
 16777215
 74
     0
 91
        4
 64
     7
 65
   257
 75
     1
175
     1
 42
1.0
 92
        0
 66
     7
 43
1.0
 76
     1
 77
     6
 78
     2
 67
     7
 79
     5
170
     0
171
     0
290
     0
174
     0
 93
       13
 44
0.0
173
     0
291
     1
 45
0.0
  0
VISUALSTYLE
  5
283
102
{ACAD_REACTORS
330
27F
102
}
330
27F
100
AcDbVisualStyle
  2
GouraudWithEdges
 70
     3
 71
     2
 72
     2
 73
     1
 90
        2
 40
-0.6
 41
30.0
 62
     5
 63
     7
421
 16777215
 74
     1
 91
        4
 64
     7
 65
   257
 75
     1
175
     1
 42
1.0
 92
        0
 66
   257
 43
1.0
 76
     1
 77
     6
 78
     2
 67
     7
 79
     5
170
     0
171
     0
290
     0
174
     0
 93
       13
 44
0.0
173
     0
291
     1
 45
0.0
  0
VISUALSTYLE
  5
28D
102
{ACAD_REACTORS
330
27F
102
}
330
27F
100
AcDbVisualStyle
  2
Linepattern
 70
    14
 71
     2
 72
     2
 73
     0
 90
        0
 40
-0.6
 41
-30.0
 62
     5
 63
     7
421
 16777215
 74
     1
 91
        4
 64
     7
 65
   257
 75
     7
175
     7
 42
1.0
 92
        8
 66
     7
 43
1.0
 76
     1
 77
     6
 78
     2
 67
     7
 79
     5
170
     0
171
     0
290
     0
174
     0
 93
        1
 44
0.0
173
     0
291
     1
 45
0.0
  0
VISUALSTYLE
  5
289
102
{ACAD_REACTORS
330
27F
102
}
330
27F
100
AcDbVisualStyle
  2
Realistic
 70
     8
 71
     2
 72
     2
 73
     0
 90
        0
 40
-0.6
 41
-30.0
 62
     5
 63
     7
421
 16777215
 74
     1
 91
        0
 64
     7
 65
   257
 75
     1
175
     1
 42
1.0
 92
        8
 66
     8
424
  7895160
 43
1.0
 76
     1
 77
     6
 78
     2
 67
     7
 79
     5
170
     0
171
     0
290
     0
174
     0
 93
       13
 44
0.0
173
     0
291
     0
 45
0.0
  0
VISUALSTYLE
  5
28C
102
{ACAD_REACTORS
330
27F
102
}
330
27F
100
AcDbVisualStyle
  2
Thicken
 70
    13
 71
     2
 72
     2
 73
     0
 90
        0
 40
-0.6
 41
-30.0
 62
     5
 63
     7
421
 16777215
 74
     1
 91
        4
 64
     7
 65
   257
 75
     1
175
     1
 42
1.0
 92
       12
 66
     7
 43
1.0
 76
     1
 77
     6
 78
     2
 67
     7
 79
     5
170
     0
171
     0
290
     0
174
     0
 93
        1
 44
0.0
173
     0
291
     1
 45
0.0
  0
DICTIONARYVAR
  5
2FA
102
{ACAD_REACTORS
330
34
102
}
330
34
100
DictionaryVariables
280
     0
  1
1:4
  0
DICTIONARYVAR
  5
2F8
102
{ACAD_REACTORS
330
34
102
}
330
34
100
DictionaryVariables
280
     0
  1
STANDARD
  0
DICTIONARYVAR
  5
140
102
{ACAD_REACTORS
330
34
102
}
330
34
100
DictionaryVariables
280
     0
  1
STANDARD
  0
DICTIONARYVAR
  5
AC
102
{ACAD_REACTORS
330
34
102
}
330
34
100
DictionaryVariables
280
     0
  1
1
  0
DICTIONARYVAR
  5
35
102
{ACAD_REACTORS
330
34
102
}
330
34
100
DictionaryVariables
280
     0
  1
1
  0
DICTIONARYVAR
  5
5D0D
102
{ACAD_REACTORS
330
34
102
}
330
34
100
DictionaryVariables
280
     0
  1
1
  0
DICTIONARYVAR
  5
5D0E
102
{ACAD_REACTORS
330
34
102
}
330
34
100
DictionaryVariables
280
     0
  1
15
  0
DICTIONARYVAR
  5
2FB
102
{ACAD_REACTORS
330
34
102
}
330
34
100
DictionaryVariables
280
     0
  1
0
  0
DICTIONARYVAR
  5
2F9
102
{ACAD_REACTORS
330
34
102
}
330
34
100
DictionaryVariables
280
     0
  1
0
  0
DICTIONARY
  5
161B
102
{ACAD_REACTORS
330
49
102
}
330
49
100
AcDbDictionary
281
     1
  0
DICTIONARY
  5
4A
102
{ACAD_REACTORS
330
49
102
}
330
49
100
AcDbDictionary
281
     1
  0
XRECORD
  5
12B
102
{ACAD_REACTORS
330
49
102
}
330
49
100
AcDbXrecord
280
     1
 90
-1023410169
  0
DICTIONARY
  5
2F5
330
122
100
AcDbDictionary
280
     1
281
     1
  3
ACAD_ROUNDTRIP_2008_TABLESTYLE_CELLSTYLEMAP
360
701D
  0
CELLSTYLEMAP
  5
701D
102
{ACAD_REACTORS
330
2F5
102
}
330
2F5
100
AcDbCellStyleMap
 90
        3
300
CELLSTYLE
  1
TABLEFORMAT_BEGIN
 90
        5
170
     1
 91
        0
 92
    32768
 62
   257
 93
        1
300
CONTENTFORMAT
  1
CONTENTFORMAT_BEGIN
 90
        0
 91
        0
 92
      512
 93
        0
300

 40
0.0
140
1.0
 94
        5
 62
     0
340
11
144
6.0
309
CONTENTFORMAT_END
171
     1
301
MARGIN
  1
CELLMARGIN_BEGIN
 40
1.5
 40
1.5
 40
1.5
 40
1.5
 40
0.18
 40
0.18
309
CELLMARGIN_END
 94
        6
 95
        1
302
GRIDFORMAT
  1
GRIDFORMAT_BEGIN
 90
        0
 91
        1
 62
     0
 92
       -2
340
0
 93
        0
 40
0.045
309
GRIDFORMAT_END
 95
        2
302
GRIDFORMAT
  1
GRIDFORMAT_BEGIN
 90
        0
 91
        1
 62
     0
 92
       -2
340
0
 93
        0
 40
0.045
309
GRIDFORMAT_END
 95
        4
302
GRIDFORMAT
  1
GRIDFORMAT_BEGIN
 90
        0
 91
        1
 62
     0
 92
       -2
340
0
 93
        0
 40
0.045
309
GRIDFORMAT_END
 95
        8
302
GRIDFORMAT
  1
GRIDFORMAT_BEGIN
 90
        0
 91
        1
 62
     0
 92
       -2
340
0
 93
        0
 40
0.045
309
GRIDFORMAT_END
 95
       16
302
GRIDFORMAT
  1
GRIDFORMAT_BEGIN
 90
        0
 91
        1
 62
     0
 92
       -2
340
0
 93
        0
 40
0.045
309
GRIDFORMAT_END
 95
       32
302
GRIDFORMAT
  1
GRIDFORMAT_BEGIN
 90
        0
 91
        1
 62
     0
 92
       -2
340
0
 93
        0
 40
0.045
309
GRIDFORMAT_END
309
TABLEFORMAT_END
  1
CELLSTYLE_BEGIN
 90
        1
 91
        1
300
_TITLE
309
CELLSTYLE_END
300
CELLSTYLE
  1
TABLEFORMAT_BEGIN
 90
        5
170
     1
 91
        0
 92
        0
 62
   257
 93
        1
300
CONTENTFORMAT
  1
CONTENTFORMAT_BEGIN
 90
        0
 91
        0
 92
      512
 93
        0
300

 40
0.0
140
1.0
 94
        5
 62
     0
340
11
144
4.5
309
CONTENTFORMAT_END
171
     1
301
MARGIN
  1
CELLMARGIN_BEGIN
 40
1.5
 40
1.5
 40
1.5
 40
1.5
 40
0.18
 40
0.18
309
CELLMARGIN_END
 94
        6
 95
        1
302
GRIDFORMAT
  1
GRIDFORMAT_BEGIN
 90
        0
 91
        1
 62
     0
 92
       -2
340
0
 93
        0
 40
0.045
309
GRIDFORMAT_END
 95
        2
302
GRIDFORMAT
  1
GRIDFORMAT_BEGIN
 90
        0
 91
        1
 62
     0
 92
       -2
340
0
 93
        0
 40
0.045
309
GRIDFORMAT_END
 95
        4
302
GRIDFORMAT
  1
GRIDFORMAT_BEGIN
 90
        0
 91
        1
 62
     0
 92
       -2
340
0
 93
        0
 40
0.045
309
GRIDFORMAT_END
 95
        8
302
GRIDFORMAT
  1
GRIDFORMAT_BEGIN
 90
        0
 91
        1
 62
     0
 92
       -2
340
0
 93
        0
 40
0.045
309
GRIDFORMAT_END
 95
       16
302
GRIDFORMAT
  1
GRIDFORMAT_BEGIN
 90
        0
 91
        1
 62
     0
 92
       -2
340
0
 93
        0
 40
0.045
309
GRIDFORMAT_END
 95
       32
302
GRIDFORMAT
  1
GRIDFORMAT_BEGIN
 90
        0
 91
        1
 62
     0
 92
       -2
340
0
 93
        0
 40
0.045
309
GRIDFORMAT_END
309
TABLEFORMAT_END
  1
CELLSTYLE_BEGIN
 90
        2
 91
        1
300
_HEADER
309
CELLSTYLE_END
300
CELLSTYLE
  1
TABLEFORMAT_BEGIN
 90
        5
170
     1
 91
        0
 92
        0
 62
   257
 93
        1
300
CONTENTFORMAT
  1
CONTENTFORMAT_BEGIN
 90
        0
 91
        0
 92
      512
 93
        0
300

 40
0.0
140
1.0
 94
        2
 62
     0
340
11
144
4.5
309
CONTENTFORMAT_END
171
     1
301
MARGIN
  1
CELLMARGIN_BEGIN
 40
1.5
 40
1.5
 40
1.5
 40
1.5
 40
0.18
 40
0.18
309
CELLMARGIN_END
 94
        6
 95
        1
302
GRIDFORMAT
  1
GRIDFORMAT_BEGIN
 90
        0
 91
        1
 62
     0
 92
       -2
340
0
 93
        0
 40
0.045
309
GRIDFORMAT_END
 95
        2
302
GRIDFORMAT
  1
GRIDFORMAT_BEGIN
 90
        0
 91
        1
 62
     0
 92
       -2
340
0
 93
        0
 40
0.045
309
GRIDFORMAT_END
 95
        4
302
GRIDFORMAT
  1
GRIDFORMAT_BEGIN
 90
        0
 91
        1
 62
     0
 92
       -2
340
0
 93
        0
 40
0.045
309
GRIDFORMAT_END
 95
        8
302
GRIDFORMAT
  1
GRIDFORMAT_BEGIN
 90
        0
 91
        1
 62
     0
 92
       -2
340
0
 93
        0
 40
0.045
309
GRIDFORMAT_END
 95
       16
302
GRIDFORMAT
  1
GRIDFORMAT_BEGIN
 90
        0
 91
        1
 62
     0
 92
       -2
340
0
 93
        0
 40
0.045
309
GRIDFORMAT_END
 95
       32
302
GRIDFORMAT
  1
GRIDFORMAT_BEGIN
 90
        0
 91
        1
 62
     0
 92
       -2
340
0
 93
        0
 40
0.045
309
GRIDFORMAT_END
309
TABLEFORMAT_END
  1
CELLSTYLE_BEGIN
 90
        3
 91
        2
300
_DATA
309
CELLSTYLE_END
  0
ENDSEC
  0
EOF
