  0
SECTION
  2
HEADER
  9
$ACADVER
  1
AC1021
  9
$ACADMAINTVER
 70
    26
  9
$DWGCODEPAGE
  3
ANSI_932
  9
$LASTSAVEDBY
  1
Htm_Terada
  9
$CUSTOMPROPERTYTAG
  1
AmdtFileType
  9
$CUSTOMPROPERTY
  1
84
  9
$INSBASE
 10
0.0
 20
0.0
 30
0.0
  9
$EXTMIN
 10
356.5779200147221
 20
392.2431847540409
 30
0.0
  9
$EXTMAX
 10
934.0288728189863
 20
807.2528036790407
 30
0.0
  9
$LIMMIN
 10
0.0000005743015663
 20
0.0000011081461935
  9
$LIMMAX
 10
1260.000000574301
 20
891.0000011081463
  9
$ORTHOMODE
 70
     1
  9
$REGENMODE
 70
     1
  9
$FILLMODE
 70
     1
  9
$QTEXTMODE
 70
     0
  9
$MIRRTEXT
 70
     1
  9
$LTSCALE
 40
3.0
  9
$ATTMODE
 70
     1
  9
$TEXTSIZE
 40
25.0
  9
$TRACEWID
 40
1.0
  9
$TEXTSTYLE
  7
SEISA
  9
$CLAYER
  8
AM_5 寸法線
  9
$CELTYPE
  6
ByLayer
  9
$CECOLOR
 62
   256
  9
$CELTSCALE
 40
1.0
  9
$DISPSILH
 70
     0
  9
$DIMSCALE
 40
3.0
  9
$DIMASZ
 40
2.5
  9
$DIMEXO
 40
0.625
  9
$DIMDLI
 40
10.0
  9
$DIMRND
 40
0.0
  9
$DIMDLE
 40
0.0
  9
$DIMEXE
 40
0.625
  9
$DIMTP
 40
0.1
  9
$DIMTM
 40
0.1
  9
$DIMTXT
 40
3.5
  9
$DIMCEN
 40
0.0
  9
$DIMTSZ
 40
0.0
  9
$DIMTOL
 70
     0
  9
$DIMLIM
 70
     0
  9
$DIMTIH
 70
     0
  9
$DIMTOH
 70
     0
  9
$DIMSE1
 70
     0
  9
$DIMSE2
 70
     0
  9
$DIMTAD
 70
     3
  9
$DIMZIN
 70
     8
  9
$DIMBLK
  1
Open30
  9
$DIMASO
 70
     1
  9
$DIMSHO
 70
     1
  9
$DIMPOST
  1

  9
$DIMAPOST
  1
"
  9
$DIMALT
 70
     0
  9
$DIMALTD
 70
     2
  9
$DIMALTF
 40
0.0393701
  9
$DIMLFAC
 40
1.0
  9
$DIMTOFL
 70
     1
  9
$DIMTVP
 40
0.0
  9
$DIMTIX
 70
     0
  9
$DIMSOXD
 70
     0
  9
$DIMSAH
 70
     0
  9
$DIMBLK1
  1

  9
$DIMBLK2
  1

  9
$DIMSTYLE
  2
SEISA
  9
$DIMCLRD
 70
     3
  9
$DIMCLRE
 70
     3
  9
$DIMCLRT
 70
     3
  9
$DIMTFAC
 40
0.71
  9
$DIMGAP
 40
1.5
  9
$DIMJUST
 70
     0
  9
$DIMSD1
 70
     0
  9
$DIMSD2
 70
     0
  9
$DIMTOLJ
 70
     0
  9
$DIMTZIN
 70
     0
  9
$DIMALTZ
 70
     0
  9
$DIMALTTZ
 70
     8
  9
$DIMUPT
 70
     0
  9
$DIMDEC
 70
     2
  9
$DIMTDEC
 70
     2
  9
$DIMALTU
 70
     2
  9
$DIMALTTD
 70
     2
  9
$DIMTXSTY
  7
SEISA
  9
$DIMAUNIT
 70
     0
  9
$DIMADEC
 70
     0
  9
$DIMALTRND
 40
0.0
  9
$DIMAZIN
 70
     2
  9
$DIMDSEP
 70
    46
  9
$DIMATFIT
 70
     3
  9
$DIMFRAC
 70
     0
  9
$DIMLDRBLK
  1
Open30
  9
$DIMLUNIT
 70
     2
  9
$DIMLWD
 70
    -1
  9
$DIMLWE
 70
    -1
  9
$DIMTMOVE
 70
     0
  9
$DIMFXL
 40
1.0
  9
$DIMFXLON
 70
     0
  9
$DIMJOGANG
 40
0.7853981633974483
  9
$DIMTFILL
 70
     0
  9
$DIMTFILLCLR
 70
     0
  9
$DIMARCSYM
 70
     1
  9
$DIMLTYPE
  6

  9
$DIMLTEX1
  6

  9
$DIMLTEX2
  6

  9
$LUNITS
 70
     2
  9
$LUPREC
 70
     2
  9
$SKETCHINC
 40
1.0
  9
$FILLETRAD
 40
7.5
  9
$AUNITS
 70
     0
  9
$AUPREC
 70
     0
  9
$MENU
  1
.
  9
$ELEVATION
 40
0.0
  9
$PELEVATION
 40
0.0
  9
$THICKNESS
 40
0.0
  9
$LIMCHECK
 70
     0
  9
$CHAMFERA
 40
2.0
  9
$CHAMFERB
 40
2.000000000000112
  9
$CHAMFERC
 40
2.0
  9
$CHAMFERD
 40
0.7853981633974483
  9
$SKPOLY
 70
     0
  9
$TDCREATE
 40
2454910.522693264
  9
$TDUCREATE
 40
2454910.147693264
  9
$TDUPDATE
 40
2456478.707464734
  9
$TDUUPDATE
 40
2456478.332464734
  9
$TDINDWG
 40
0.5858642245
  9
$TDUSRTIMER
 40
0.5858629630
  9
$USRTIMER
 70
     1
  9
$ANGBASE
 50
0.0
  9
$ANGDIR
 70
     0
  9
$PDMODE
 70
     0
  9
$PDSIZE
 40
0.0
  9
$PLINEWID
 40
0.0
  9
$SPLFRAME
 70
     0
  9
$SPLINETYPE
 70
     6
  9
$SPLINESEGS
 70
     8
  9
$HANDSEED
  5
720A
  9
$SURFTAB1
 70
     6
  9
$SURFTAB2
 70
     6
  9
$SURFTYPE
 70
     6
  9
$SURFU
 70
     6
  9
$SURFV
 70
     6
  9
$UCSBASE
  2

  9
$UCSNAME
  2

  9
$UCSORG
 10
0.0
 20
0.0
 30
0.0
  9
$UCSXDIR
 10
1.0
 20
0.0
 30
0.0
  9
$UCSYDIR
 10
0.0
 20
1.0
 30
0.0
  9
$UCSORTHOREF
  2

  9
$UCSORTHOVIEW
 70
     0
  9
$UCSORGTOP
 10
0.0
 20
0.0
 30
0.0
  9
$UCSORGBOTTOM
 10
0.0
 20
0.0
 30
0.0
  9
$UCSORGLEFT
 10
0.0
 20
0.0
 30
0.0
  9
$UCSORGRIGHT
 10
0.0
 20
0.0
 30
0.0
  9
$UCSORGFRONT
 10
0.0
 20
0.0
 30
0.0
  9
$UCSORGBACK
 10
0.0
 20
0.0
 30
0.0
  9
$PUCSBASE
  2

  9
$PUCSNAME
  2

  9
$PUCSORG
 10
0.0
 20
0.0
 30
0.0
  9
$PUCSXDIR
 10
1.0
 20
0.0
 30
0.0
  9
$PUCSYDIR
 10
0.0
 20
1.0
 30
0.0
  9
$PUCSORTHOREF
  2

  9
$PUCSORTHOVIEW
 70
     0
  9
$PUCSORGTOP
 10
0.0
 20
0.0
 30
0.0
  9
$PUCSORGBOTTOM
 10
0.0
 20
0.0
 30
0.0
  9
$PUCSORGLEFT
 10
0.0
 20
0.0
 30
0.0
  9
$PUCSORGRIGHT
 10
0.0
 20
0.0
 30
0.0
  9
$PUCSORGFRONT
 10
0.0
 20
0.0
 30
0.0
  9
$PUCSORGBACK
 10
0.0
 20
0.0
 30
0.0
  9
$USERI1
 70
     0
  9
$USERI2
 70
     0
  9
$USERI3
 70
     0
  9
$USERI4
 70
     0
  9
$USERI5
 70
     0
  9
$USERR1
 40
0.0
  9
$USERR2
 40
0.0
  9
$USERR3
 40
0.0
  9
$USERR4
 40
0.0
  9
$USERR5
 40
0.0
  9
$WORLDVIEW
 70
     1
  9
$SHADEDGE
 70
     3
  9
$SHADEDIF
 70
    70
  9
$TILEMODE
 70
     1
  9
$MAXACTVP
 70
    64
  9
$PINSBASE
 10
0.0
 20
0.0
 30
0.0
  9
$PLIMCHECK
 70
     0
  9
$PEXTMIN
 10
1.000000000000000E+20
 20
1.000000000000000E+20
 30
1.000000000000000E+20
  9
$PEXTMAX
 10
-1.000000000000000E+20
 20
-1.000000000000000E+20
 30
-1.000000000000000E+20
  9
$PLIMMIN
 10
0.0
 20
0.0
  9
$PLIMMAX
 10
420.0
 20
297.0
  9
$UNITMODE
 70
     0
  9
$VISRETAIN
 70
     1
  9
$PLINEGEN
 70
     0
  9
$PSLTSCALE
 70
     1
  9
$TREEDEPTH
 70
  3020
  9
$CMLSTYLE
  2
Standard
  9
$CMLJUST
 70
     0
  9
$CMLSCALE
 40
20.0
  9
$PROXYGRAPHICS
 70
     1
  9
$MEASUREMENT
 70
     1
  9
$CELWEIGHT
370
    -1
  9
$ENDCAPS
280
     0
  9
$JOINSTYLE
280
     0
  9
$LWDISPLAY
290
     0
  9
$INSUNITS
 70
     4
  9
$HYPERLINKBASE
  1

  9
$STYLESHEET
  1
SEISA.CTB
  9
$XEDIT
290
     1
  9
$CEPSNTYPE
380
     0
  9
$PSTYLEMODE
290
     1
  9
$FINGERPRINTGUID
  2
{1DEA9D6A-3B4C-47E3-82AC-174E19FE2652}
  9
$VERSIONGUID
  2
{2B9A2FA7-9C64-4316-9F82-69CADB369549}
  9
$EXTNAMES
290
     1
  9
$PSVPSCALE
 40
0.0
  9
$OLESTARTUP
290
     0
  9
$SORTENTS
280
   127
  9
$INDEXCTL
280
     0
  9
$HIDETEXT
280
     0
  9
$XCLIPFRAME
290
     0
  9
$HALOGAP
280
     0
  9
$OBSCOLOR
 70
   257
  9
$OBSLTYPE
280
     0
  9
$INTERSECTIONDISPLAY
280
     0
  9
$INTERSECTIONCOLOR
 70
   257
  9
$DIMASSOC
280
     2
  9
$PROJECTNAME
  1

  9
$CAMERADISPLAY
290
     0
  9
$LENSLENGTH
 40
50.0
  9
$CAMERAHEIGHT
 40
0.0
  9
$STEPSPERSEC
 40
2.0
  9
$STEPSIZE
 40
6.0
  9
$3DDWFPREC
 40
2.0
  9
$PSOLWIDTH
 40
0.25
  9
$PSOLHEIGHT
 40
4.0
  9
$LOFTANG1
 40
1.570796326794896
  9
$LOFTANG2
 40
1.570796326794896
  9
$LOFTMAG1
 40
0.0
  9
$LOFTMAG2
 40
0.0
  9
$LOFTPARAM
 70
     7
  9
$LOFTNORMALS
280
     1
  9
$LATITUDE
 40
37.795
  9
$LONGITUDE
 40
-122.394
  9
$NORTHDIRECTION
 40
0.0
  9
$TIMEZONE
 70
 -8000
  9
$LIGHTGLYPHDISPLAY
280
     1
  9
$TILEMODELIGHTSYNCH
280
     1
  9
$CMATERIAL
347
27C
  9
$SOLIDHIST
280
     1
  9
$SHOWHIST
280
     1
  9
$DWFFRAME
280
     2
  9
$DGNFRAME
280
     0
  9
$REALWORLDSCALE
290
     1
  9
$INTERFERECOLOR
 62
     1
  9
$INTERFEREOBJVS
345
289
  9
$INTERFEREVPVS
346
286
  9
$CSHADOW
280
     0
  9
$SHADOWPLANELOCATION
 40
0.0
  0
ENDSEC
  0
SECTION
  2
CLASSES
  0
CLASS
  1
ACDBDICTIONARYWDFLT
  2
AcDbDictionaryWithDefault
  3
ObjectDBX Classes
 90
        0
 91
        1
280
     0
281
     0
  0
CLASS
  1
AMGSETTINGSOBJ
  2
AmgSettingsObj
  3
"AcadM|Product Description: AutoCAD Mechanical|Company: Autodesk, Inc."
 90
     1024
 91
        2
280
     0
281
     0
  0
CLASS
  1
ACME_DOCUMENT
  2
AcMeDbDoc
  3
AcMeServices
 90
     1024
 91
        1
280
     0
281
     0
  0
CLASS
  1
ACMESCOPE
  2
AcMeScope
  3
AcMeServices
 90
     1024
 91
        1
280
     0
281
     0
  0
CLASS
  1
ACMECOMMANDHISTORY
  2
AcMeCommandHistory
  3
AcMeServices
 90
     1024
 91
        1
280
     0
281
     0
  0
CLASS
  1
DICTIONARYVAR
  2
AcDbDictionaryVar
  3
ObjectDBX Classes
 90
        0
 91
        9
280
     0
281
     0
  0
CLASS
  1
ACIMSYSVARMAN
  2
AcImSysVarManager
  3
AcMeServices
 90
     1024
 91
        5
280
     0
281
     0
  0
CLASS
  1
ACIMREALSYSVAR
  2
AcImRealSysVar
  3
AcMeServices
 90
     1024
 91
        1
280
     0
281
     0
  0
CLASS
  1
ACIMINTSYSVAR
  2
AcImIntSysVar
  3
AcMeServices
 90
     1024
 91
       27
280
     0
281
     0
  0
CLASS
  1
ACMEDRAWINGMAN
  2
AcMeDrawingMan
  3
AcMeServices
 90
     1024
 91
        1
280
     0
281
     0
  0
CLASS
  1
ACMEVIEW
  2
AcMeView
  3
AcMeServices
 90
     1024
 91
        1
280
     0
281
     0
  0
CLASS
  1
ACDBENTITYCACHE
  2
AcMeEntityCache
  3
AcMeServices
 90
     1024
 91
        1
280
     0
281
     0
  0
CLASS
  1
GSMANAGER
  2
AcMeGSManager
  3
AcMeServices
 90
     1024
 91
        1
280
     0
281
     0
  0
CLASS
  1
AMDTINTERNALREACTOR
  2
AmdtInternalReactor
  3
AcMeServices
 90
     1024
 91
        2
280
     0
281
     0
  0
CLASS
  1
ACMESTATEMGR
  2
AcMeStateMgr
  3
AcMeServices
 90
     1024
 91
        1
280
     0
281
     0
  0
CLASS
  1
ACGREFMASTER
  2
AcGrefMaster
  3
AcAttribServices
 90
     1024
 91
        1
280
     0
281
     0
  0
CLASS
  1
ACME_DATABASE
  2
AcMeDbDatabase
  3
AcMeServices
 90
     1024
 91
        1
280
     0
281
     0
  0
CLASS
  1
ACRFINSADJUSTERMGR
  2
AcRfInsAdjusterMgr
  3
AcMeServices
 90
     1024
 91
        1
280
     0
281
     0
  0
CLASS
  1
ACGREFACADMASTER
  2
AcGrefacadMaster
  3
AcGrefServices
 90
     1024
 91
        1
280
     0
281
     0
  0
CLASS
  1
AMIMASTER
  2
AmiMaster
  3
AmiServices
 90
     1024
 91
        1
280
     0
281
     0
  0
CLASS
  1
ACIMSTRSYSVAR
  2
AcImStrSysVar
  3
AcMeServices
 90
     1024
 91
        5
280
     0
281
     0
  0
CLASS
  1
ACMSTANDARDJIS
  2
AcmStandardJIS
  3
"Amdt_StdImp|Product Description: AutoCAD Mechanical|Company: Autodesk, Inc."
 90
     1024
 91
        0
280
     0
281
     0
  0
CLASS
  1
AMGOBJPROPCFG
  2
AmgObjPropCfg
  3
"AmgLay|Product Description: AutoCAD Mechanical|Company: Autodesk, Inc."
 90
     1025
 91
        1
280
     0
281
     0
  0
CLASS
  1
ACMSURFSTANDARDJIS
  2
AcmSurfTextStdJIS
  3
"Amdt_StdImp|Product Description: AutoCAD Mechanical|Company: Autodesk, Inc."
 90
     1024
 91
        0
280
     0
281
     0
  0
CLASS
  1
ACMFCFSTANDARDJIS
  2
AcmFCFStdJIS
  3
"Amdt_StdImp|Product Description: AutoCAD Mechanical|Company: Autodesk, Inc."
 90
     1024
 91
        0
280
     0
281
     0
  0
CLASS
  1
ACMWELDSTANDARDJIS
  2
AcmWeldingStdJIS
  3
"Amdt_StdImp|Product Description: AutoCAD Mechanical|Company: Autodesk, Inc."
 90
     1024
 91
        0
280
     0
281
     0
  0
CLASS
  1
ACMIDSTANDARDJIS
  2
AcmIdStdJIS
  3
"Amdt_StdImp|Product Description: AutoCAD Mechanical|Company: Autodesk, Inc."
 90
     1024
 91
        0
280
     0
281
     0
  0
CLASS
  1
ACMDATUMSTANDARDJIS
  2
AcmDatumStdJIS
  3
"Amdt_StdImp|Product Description: AutoCAD Mechanical|Company: Autodesk, Inc."
 90
     1024
 91
        0
280
     0
281
     0
  0
CLASS
  1
ACMBOMSTANDARDJIS
  2
AcmBOMStdJIS
  3
"Amdt_StdImp|Product Description: AutoCAD Mechanical|Company: Autodesk, Inc."
 90
     1024
 91
        0
280
     0
281
     0
  0
CLASS
  1
ACMDETAILSTANDARDJIS
  2
AmdtDetailSymStdJIS
  3
"Amdt_StdImp|Product Description: AutoCAD Mechanical|Company: Autodesk, Inc."
 90
     1024
 91
        0
280
     0
281
     0
  0
CLASS
  1
ACMSECTIONSTANDARDJIS
  2
AmdtSectionSymStdJIS
  3
"Amdt_StdImp|Product Description: AutoCAD Mechanical|Company: Autodesk, Inc."
 90
     1024
 91
        0
280
     0
281
     0
  0
CLASS
  1
ACMCENTERLINESTANDARDJIS
  2
AmdtCenterLineStdJIS
  3
"Amdt_StdImp|Product Description: AutoCAD Mechanical|Company: Autodesk, Inc."
 90
     1024
 91
        0
280
     0
281
     0
  0
CLASS
  1
ACMTHREADLINESTANDARDJIS
  2
AmdtThreadLineStdJIS
  3
"Amdt_StdImp|Product Description: AutoCAD Mechanical|Company: Autodesk, Inc."
 90
     1024
 91
        0
280
     0
281
     0
  0
CLASS
  1
ACAMGLAYSTD
  2
AcAmgLayStd
  3
"AmgLay|Product Description: AutoCAD Mechanical|Company: Autodesk, Inc."
 90
     1024
 91
        1
280
     0
281
     0
  0
CLASS
  1
ACAMGDIMSTD
  2
AcAmgDimStd
  3
"AmgDim|Product Description: AutoCAD Mechanical|Company: Autodesk, Inc."
 90
     1024
 91
        1
280
     0
281
     0
  0
CLASS
  1
ACAMGTITLESTD
  2
AcAmgTitleStd
  3
"AmgTitle|Product Description: AutoCAD Mechanical|Company: Autodesk, Inc."
 90
     4095
 91
        1
280
     0
281
     0
  0
CLASS
  1
ACMDATADICTIONARY
  2
AcmDataDictionary
  3
"AcmSymBB|Product Description: AutoCAD Mechanical|Company: Autodesk, Inc."
 90
     1024
 91
        1
280
     0
281
     0
  0
CLASS
  1
ACMDATAENTRYBLOCK
  2
AcmDataEntryBlock
  3
AcmSymBB|Product Description: AutoCAD Mechanical|Company: Autodesk, Inc.
 90
     1024
 91
        0
280
     0
281
     0
  0
CLASS
  1
LAYER_INDEX
  2
AcDbLayerIndex
  3
ObjectDBX Classes
 90
        0
 91
        0
280
     0
281
     0
  0
CLASS
  1
IDBUFFER
  2
AcDbIdBuffer
  3
ObjectDBX Classes
 90
        0
 91
        0
280
     0
281
     0
  0
CLASS
  1
ACMNOTESTANDARDJIS
  2
AmdtNoteStdJIS
  3
"Amdt_StdImp|Product Description: AutoCAD Mechanical|Company: Autodesk, Inc."
 90
     1024
 91
        0
280
     0
281
     0
  0
CLASS
  1
ACAMGHOLECHARTSTDJIS
  2
AcAmgHoleChartStdJIS
  3
AmgDim|Product Description: AutoCAD Mechanical|Company: Autodesk, Inc.
 90
     1024
 91
        0
280
     0
281
     0
  0
CLASS
  1
AM_DRAWING_MGR
  2
AcDmDwgMgr
  3
AcMechDwgViewMgmt
 90
     1024
 91
        1
280
     0
281
     0
  0
CLASS
  1
AM_DWG_DOCUMENT
  2
AcDmDwgDocument
  3
AcMechDwgViewMgmt
 90
     1024
 91
        1
280
     0
281
     0
  0
CLASS
  1
AM_DWG_SHEET
  2
AcDmSheet
  3
AcMechDwgViewMgmt
 90
     1024
 91
        2
280
     0
281
     0
  0
CLASS
  1
AM_VIEWDIMPARMAP
  2
AcDmViewDimParMap
  3
AcMechDwgViewMgmt
 90
     1024
 91
        2
280
     0
281
     0
  0
CLASS
  1
AM_DWGMGR_NAME
  2
AcDmDwgMgrName
  3
AcMechDwgViewMgmt
 90
     1024
 91
        1
280
     0
281
     0
  0
CLASS
  1
AMDTMENUSTATEMGR
  2
AmdtMenuStateMgr
  3
McadcomServices
 90
     1024
 91
        1
280
     0
281
     0
  0
CLASS
  1
AMDTMCOMMENUSTATE
  2
AmdtMcomMenuState
  3
McadcomServices
 90
     1024
 91
        1
280
     0
281
     0
  0
CLASS
  1
MAPIAMMOUDLE
  2
MApiAmModule
  3
MApiAmServices
 90
     1024
 91
        1
280
     0
281
     0
  0
CLASS
  1
AMDTADMENUSTATE
  2
AmdtAdMenuState
  3
DesignerServices
 90
     1024
 91
        1
280
     0
281
     0
  0
CLASS
  1
ADAPPL
  2
AcAdAppl
  3
DesignerServices
 90
     1024
 91
        1
280
     0
281
     0
  0
CLASS
  1
DEPMGR
  2
AcAdDepMgr
  3
DesignerServices
 90
     1024
 91
        1
280
     0
281
     0
  0
CLASS
  1
PARAMMGR
  2
AcAdParamMgr
  3
DesignerServices
 90
     1024
 91
        1
280
     0
281
     0
  0
CLASS
  1
PARAMSCOPE
  2
AcAdParamScope
  3
DesignerServices
 90
     1024
 91
        1
280
     0
281
     0
  0
CLASS
  1
NAMEDAPPL
  2
AcAdNamedAppl
  3
DesignerServices
 90
     1024
 91
        1
280
     0
281
     0
  0
CLASS
  1
AMDTDMMENUSTATE
  2
AmdtDmMenuState
  3
AcMechDwgViewMgmt
 90
     1024
 91
        1
280
     0
281
     0
  0
CLASS
  1
AMDTAMMENUSTATE
  2
AmdtAmMenuState
  3
DesignerAssemblies
 90
     1024
 91
        1
280
     0
281
     0
  0
CLASS
  1
ACAMPROJECT
  2
AcAmProject
  3
DesignerAssemblies
 90
     1024
 91
        1
280
     0
281
     0
  0
CLASS
  1
ACAMGRCOMPDEF
  2
AcAmGrCompDef
  3
DesignerAssemblies
 90
     1024
 91
        1
280
     0
281
     0
  0
CLASS
  1
ACCMCONTEXT
  2
AcCmContext
  3
DesignerAssemblies
 90
     1024
 91
        1
280
     0
281
     0
  0
CLASS
  1
ACAMCOMPDEF
  2
AcAmCompDef
  3
DesignerAssemblies
 90
     1024
 91
        1
280
     0
281
     0
  0
CLASS
  1
ACAMCOMPDEFMGR
  2
AcAmCompDefMgr
  3
DesignerAssemblies
 90
     1024
 91
        1
280
     0
281
     0
  0
CLASS
  1
AMCONTEXTMGR
  2
AcAmContextMgr
  3
DesignerAssemblies
 90
     1024
 91
        1
280
     0
281
     0
  0
CLASS
  1
ACAMCONTEXTMODELER
  2
AcAmContextModeler
  3
DesignerAssemblies
 90
     1024
 91
        1
280
     0
281
     0
  0
CLASS
  1
CATALOGSTATE
  2
AcAmCatalogState
  3
DesignerAssemblies
 90
     1024
 91
        1
280
     0
281
     0
  0
CLASS
  1
ACAMGRCOMPDEFSET
  2
AcAmGrCompDefSet
  3
DesignerAssemblies
 90
     1024
 91
        1
280
     0
281
     0
  0
CLASS
  1
AMDTBROWSERDBTAB
  2
AmdtBrowserDbTab
  3
McadcomServices
 90
     1024
 91
        1
280
     0
281
     0
  0
CLASS
  1
CBROWSERAPPOBJECT
  2
CBrowserAppObject
  3
McadcomServices
 90
     1024
 91
        3
280
     0
281
     0
  0
CLASS
  1
DM_PLACEHOLDER
  2
AcDmSelsetPlaceholder
  3
AcMechDwgViewMgmt
 90
     1024
 91
        1
280
     0
281
     0
  0
CLASS
  1
TABLESTYLE
  2
AcDbTableStyle
  3
ObjectDBX Classes
 90
     4095
 91
        1
280
     0
281
     0
  0
CLASS
  1
VAACXREFPANELOBJECT
  2
VaAcXREFPanelObject
  3
VAAC_ADDIN
 90
        0
 91
        0
280
     0
281
     0
  0
CLASS
  1
VAACIMAGEINVENTORY
  2
VaAcImageInventory
  3
VAAC_ADDIN
 90
        0
 91
        0
280
     0
281
     0
  0
CLASS
  1
AMDTNOTETEMPLATEDB
  2
AmdtNoteTemplateDB
  3
AcmSymBB|Product Description: AutoCAD Mechanical|Company: Autodesk, Inc.
 90
     1024
 91
        6
280
     0
281
     0
  0
CLASS
  1
ACAMGFILTERDAT
  2
AcAmgFilterDat
  3
"AcadM|Product Description: AutoCAD Mechanical|Company: Autodesk, Inc."
 90
     1024
 91
        0
280
     0
281
     0
  0
CLASS
  1
MATERIAL
  2
AcDbMaterial
  3
ObjectDBX Classes
 90
     1153
 91
        3
280
     0
281
     0
  0
CLASS
  1
VISUALSTYLE
  2
AcDbVisualStyle
  3
ObjectDBX Classes
 90
     4095
 91
       16
280
     0
281
     0
  0
CLASS
  1
ACRFATTGENMGR
  2
AcRfAttGeneralMgr
  3
AcAttribServices
 90
     1024
 91
        0
280
     0
281
     0
  0
CLASS
  1
ACRFOBJATTMGR
  2
AcRfObjAttGroupMgr
  3
AcAttribServices
 90
     1024
 91
        0
280
     0
281
     0
  0
CLASS
  1
ACRFMCADAPIATTHOLDER
  2
AcRfMCADAPIAttHolder
  3
AcAttribServices
 90
     1024
 91
        0
280
     0
281
     0
  0
CLASS
  1
AMDTSYSATTR
  2
AmdtSystemAttribute
  3
AcAttribServices
 90
     1024
 91
        0
280
     0
281
     0
  0
CLASS
  1
ACMTAPERSTANDARDJIS
  2
AcmTaperStdJIS
  3
"Amdt_StdImp|Product Description: AutoCAD Mechanical|Company: Autodesk, Inc."
 90
     1024
 91
        0
280
     0
281
     0
  0
CLASS
  1
CAMSSTRUCTBTNSTATE
  2
StructBtnState
  3
DesignerAssemblies
 90
     1024
 91
        0
280
     0
281
     0
  0
CLASS
  1
SCALE
  2
AcDbScale
  3
ObjectDBX Classes
 90
     1153
 91
       36
280
     0
281
     0
  0
CLASS
  1
MLEADERSTYLE
  2
AcDbMLeaderStyle
  3
ACDB_MLEADERSTYLE_CLASS
 90
     4095
 91
        1
280
     0
281
     0
  0
CLASS
  1
ACMANOOTATIONVIEWSTANDARDJIS
  2
AmdtAnViewStdJIS
  3
"Amdt_StdImp|Product Description: AutoCAD Mechanical|Company: Autodesk, Inc."
 90
     1024
 91
        0
280
     0
281
     0
  0
CLASS
  1
ACMSURFSTANDARDJIS2003
  2
AcmSurfTextStdJIS2003
  3
"Amdt_StdImp|Product Description: AutoCAD Mechanical|Company: Autodesk, Inc."
 90
     1024
 91
        0
280
     0
281
     0
  0
CLASS
  1
CELLSTYLEMAP
  2
AcDbCellStyleMap
  3
ObjectDBX Classes
 90
     1152
 91
        2
280
     0
281
     0
  0
CLASS
  1
ACMFCFSTANDARDJIS98
  2
AcmFCFStdJIS98
  3
"Amdt_StdImp|Product Description: AutoCAD Mechanical|Company: Autodesk, Inc."
 90
     1024
 91
        0
280
     0
281
     0
  0
CLASS
  1
SORTENTSTABLE
  2
AcDbSortentsTable
  3
ObjectDBX Classes
 90
        0
 91
        9
280
     0
281
     0
  0
CLASS
  1
DIMASSOC
  2
AcDbDimAssoc
  3
"AcDbDimAssoc|Product Desc:     AcDim ARX App For Dimension|Company:          Autodesk, Inc.|WEB Address:      www.autodesk.com"
 90
        0
 91
       17
280
     0
281
     0
  0
CLASS
  1
STDPART2D
  2
AmgStdPart
  3
AmgStdPart|Product Description: AutoCAD Mechanical|Company: Autodesk, Inc.
 90
     4095
 91
        0
280
     0
281
     1
  0
CLASS
  1
ACMDATAENTRYPART
  2
AcmDataEntryPart
  3
AcmSymBB|Product Description: AutoCAD Mechanical|Company: Autodesk, Inc.
 90
     1024
 91
        0
280
     0
281
     0
  0
CLASS
  1
ACMPARTREF
  2
AcmPartRef
  3
"AcmSymBB|Product Description: AutoCAD Mechanical|Company: Autodesk, Inc."
 90
     4095
 91
        0
280
     0
281
     1
  0
CLASS
  1
ACDBSTDPARTRES_LINE
  2
AcDbStdPartRes_Line
  3
AmgStdPart|Product Description: AutoCAD Mechanical|Company: Autodesk, Inc.
 90
     1024
 91
        0
280
     0
281
     0
  0
CLASS
  1
ACMBOM
  2
AcmBom
  3
"AcmSymBB|Product Description: AutoCAD Mechanical|Company: Autodesk, Inc."
 90
     1024
 91
        0
280
     0
281
     0
  0
CLASS
  1
AMDTFORMULAUPDATEDISPATCHER
  2
AmdtFormulaUpdateDispatcher
  3
AcMeServices
 90
     1024
 91
        0
280
     0
281
     0
  0
CLASS
  1
ACMBOMROW
  2
AcmBomRow
  3
"AcmSymBB|Product Description: AutoCAD Mechanical|Company: Autodesk, Inc."
 90
     1024
 91
        0
280
     0
281
     0
  0
CLASS
  1
ACMPARTLIST
  2
AcmPartList
  3
"AcmSymBB|Product Description: AutoCAD Mechanical|Company: Autodesk, Inc."
 90
     4095
 91
        0
280
     0
281
     1
  0
CLASS
  1
ACDBLINERES
  2
AcDbLineRes
  3
AcGrefServices
 90
     1024
 91
        0
280
     0
281
     0
  0
CLASS
  1
ACRFINSADJ
  2
AcRfInsAdjuster
  3
AcMeServices
 90
     1024
 91
        0
280
     0
281
     0
  0
CLASS
  1
ACMSTANDARDISO
  2
AcmStandardISO
  3
"Amdt_StdImp|Product Description: AutoCAD Mechanical|Company: Autodesk, Inc."
 90
     1024
 91
        1
280
     0
281
     0
  0
CLASS
  1
AMDTEDGESTANDARDISO13715
  2
AmdtEdgeStdISO13715
  3
"Amdt_StdImp|Product Description: AutoCAD Mechanical|Company: Autodesk, Inc."
 90
     1024
 91
        1
280
     0
281
     0
  0
CLASS
  1
ACMSURFSTANDARDISO2002
  2
AcmSurfTextStdISO2002
  3
"Amdt_StdImp|Product Description: AutoCAD Mechanical|Company: Autodesk, Inc."
 90
     1024
 91
        1
280
     0
281
     0
  0
CLASS
  1
ACMFCFSTANDARDISO
  2
AcmFCFStdISO
  3
"Amdt_StdImp|Product Description: AutoCAD Mechanical|Company: Autodesk, Inc."
 90
     1024
 91
        1
280
     0
281
     0
  0
CLASS
  1
ACMWELDSTANDARDISO
  2
AcmWeldingStdISO
  3
"Amdt_StdImp|Product Description: AutoCAD Mechanical|Company: Autodesk, Inc."
 90
     1024
 91
        1
280
     0
281
     0
  0
CLASS
  1
ACMIDSTANDARDISO
  2
AcmIdStdISO
  3
"Amdt_StdImp|Product Description: AutoCAD Mechanical|Company: Autodesk, Inc."
 90
     1024
 91
        1
280
     0
281
     0
  0
CLASS
  1
ACMDATUMSTANDARDISO
  2
AcmDatumStdISO
  3
"Amdt_StdImp|Product Description: AutoCAD Mechanical|Company: Autodesk, Inc."
 90
     1024
 91
        1
280
     0
281
     0
  0
CLASS
  1
ACMBOMSTANDARDISO
  2
AcmBOMStdISO
  3
"Amdt_StdImp|Product Description: AutoCAD Mechanical|Company: Autodesk, Inc."
 90
     1024
 91
        1
280
     0
281
     0
  0
CLASS
  1
ACMDETAILSTANDARDISO
  2
AmdtDetailSymStdISO
  3
"Amdt_StdImp|Product Description: AutoCAD Mechanical|Company: Autodesk, Inc."
 90
     1024
 91
        1
280
     0
281
     0
  0
CLASS
  1
ACMSECTIONSTANDARDISO2001
  2
AmdtSectionSymStdISO2001
  3
"Amdt_StdImp|Product Description: AutoCAD Mechanical|Company: Autodesk, Inc."
 90
     1024
 91
        1
280
     0
281
     0
  0
CLASS
  1
ACMCENTERLINESTANDARDISO
  2
AmdtCenterLineStdISO
  3
"Amdt_StdImp|Product Description: AutoCAD Mechanical|Company: Autodesk, Inc."
 90
     1024
 91
        1
280
     0
281
     0
  0
CLASS
  1
ACMTHREADLINESTANDARDISO
  2
AmdtThreadLineStdISO
  3
"Amdt_StdImp|Product Description: AutoCAD Mechanical|Company: Autodesk, Inc."
 90
     1024
 91
        1
280
     0
281
     0
  0
CLASS
  1
ACMNOTESTANDARDISO
  2
AmdtNoteStdISO
  3
"Amdt_StdImp|Product Description: AutoCAD Mechanical|Company: Autodesk, Inc."
 90
     1024
 91
        1
280
     0
281
     0
  0
CLASS
  1
ACMTAPERSTANDARDISO
  2
AcmTaperStdISO
  3
"Amdt_StdImp|Product Description: AutoCAD Mechanical|Company: Autodesk, Inc."
 90
     1024
 91
        1
280
     0
281
     0
  0
CLASS
  1
ACMANOOTATIONVIEWSTANDARDISO
  2
AmdtAnViewStdISO
  3
"Amdt_StdImp|Product Description: AutoCAD Mechanical|Company: Autodesk, Inc."
 90
     1024
 91
        1
280
     0
281
     0
  0
CLASS
  1
ACAMGHOLECHARTSTDISO
  2
AcAmgHoleChartStdISO
  3
AmgDim|Product Description: AutoCAD Mechanical|Company: Autodesk, Inc.
 90
     1024
 91
        1
280
     0
281
     0
  0
CLASS
  1
EXACXREFPANELOBJECT
  2
ExAcXREFPanelObject
  3
EXAC_ESW
 90
     1025
 91
        0
280
     0
281
     0
  0
CLASS
  1
NPOCOLLECTION
  2
AcDbImpNonPersistentObjectsCollection
  3
ObjectDBX Classes
 90
     1153
 91
        0
280
     0
281
     0
  0
CLASS
  1
ACDBSTDPARTRES_ARC
  2
AcDbStdPartRes_Arc
  3
AmgStdPart|Product Description: AutoCAD Mechanical|Company: Autodesk, Inc.
 90
     1024
 91
        0
280
     0
281
     0
  0
CLASS
  1
AMDTNOTE
  2
AmdtNote
  3
"AcmSymBB|Product Description: AutoCAD Mechanical|Company: Autodesk, Inc."
 90
     4095
 91
        0
280
     0
281
     1
  0
CLASS
  1
PLOTSETTINGS
  2
AcDbPlotSettings
  3
ObjectDBX Classes
 90
        0
 91
        1
280
     0
281
     0
  0
CLASS
  1
ACMSTANDARDANSI
  2
AcmStandardANSI
  3
"Amdt_StdImp|Product Description: AutoCAD Mechanical|Company: Autodesk, Inc."
 90
     1024
 91
        0
280
     0
281
     0
  0
CLASS
  1
ACMSURFSTANDARDANSI
  2
AcmSurfTextStdANSI
  3
"Amdt_StdImp|Product Description: AutoCAD Mechanical|Company: Autodesk, Inc."
 90
     1024
 91
        0
280
     0
281
     0
  0
CLASS
  1
ACMFCFSTANDARDANSI
  2
AcmFCFStdANSI
  3
"Amdt_StdImp|Product Description: AutoCAD Mechanical|Company: Autodesk, Inc."
 90
     1024
 91
        0
280
     0
281
     0
  0
CLASS
  1
ACMWELDSTANDARDANSI
  2
AcmWeldingStdANSI
  3
"Amdt_StdImp|Product Description: AutoCAD Mechanical|Company: Autodesk, Inc."
 90
     1024
 91
        0
280
     0
281
     0
  0
CLASS
  1
ACMIDSTANDARDANSI
  2
AcmIdStdANSI
  3
"Amdt_StdImp|Product Description: AutoCAD Mechanical|Company: Autodesk, Inc."
 90
     1024
 91
        0
280
     0
281
     0
  0
CLASS
  1
ACMDATUMSTANDARDANSI
  2
AcmDatumStdANSI
  3
"Amdt_StdImp|Product Description: AutoCAD Mechanical|Company: Autodesk, Inc."
 90
     1024
 91
        0
280
     0
281
     0
  0
CLASS
  1
ACMBOMSTANDARDANSI
  2
AcmBOMStdANSI
  3
"Amdt_StdImp|Product Description: AutoCAD Mechanical|Company: Autodesk, Inc."
 90
     1024
 91
        0
280
     0
281
     0
  0
CLASS
  1
ACMDETAILSTANDARDANSI
  2
AmdtDetailSymStdANSI
  3
"Amdt_StdImp|Product Description: AutoCAD Mechanical|Company: Autodesk, Inc."
 90
     1024
 91
        0
280
     0
281
     0
  0
CLASS
  1
ACMSECTIONSTANDARDANSI
  2
AmdtSectionSymStdANSI
  3
"Amdt_StdImp|Product Description: AutoCAD Mechanical|Company: Autodesk, Inc."
 90
     1024
 91
        0
280
     0
281
     0
  0
CLASS
  1
ACMCENTERLINESTANDARDANSI
  2
AmdtCenterLineStdANSI
  3
"Amdt_StdImp|Product Description: AutoCAD Mechanical|Company: Autodesk, Inc."
 90
     1024
 91
        0
280
     0
281
     0
  0
CLASS
  1
ACMTHREADLINESTANDARDANSI
  2
AmdtThreadLineStdANSI
  3
"Amdt_StdImp|Product Description: AutoCAD Mechanical|Company: Autodesk, Inc."
 90
     1024
 91
        0
280
     0
281
     0
  0
CLASS
  1
ACMNOTESTANDARDANSI
  2
AmdtNoteStdANSI
  3
"Amdt_StdImp|Product Description: AutoCAD Mechanical|Company: Autodesk, Inc."
 90
     1024
 91
        0
280
     0
281
     0
  0
CLASS
  1
ACMTAPERSTANDARDANSI
  2
AcmTaperStdANSI
  3
"Amdt_StdImp|Product Description: AutoCAD Mechanical|Company: Autodesk, Inc."
 90
     1024
 91
        0
280
     0
281
     0
  0
CLASS
  1
ACMANOOTATIONVIEWSTANDARDANSI
  2
AmdtAnViewStdANSI
  3
"Amdt_StdImp|Product Description: AutoCAD Mechanical|Company: Autodesk, Inc."
 90
     1024
 91
        0
280
     0
281
     0
  0
CLASS
  1
ACAMGHOLECHARTSTDANSI
  2
AcAmgHoleChartStdANSI
  3
AmgDim|Product Description: AutoCAD Mechanical|Company: Autodesk, Inc.
 90
     1024
 91
        0
280
     0
281
     0
  0
CLASS
  1
ACMSTANDARDBSI
  2
AcmStandardBSI
  3
"Amdt_StdImp|Product Description: AutoCAD Mechanical|Company: Autodesk, Inc."
 90
     1024
 91
        0
280
     0
281
     0
  0
CLASS
  1
ACMSURFSTANDARDBSI2002
  2
AcmSurfTextStdBSI2002
  3
"Amdt_StdImp|Product Description: AutoCAD Mechanical|Company: Autodesk, Inc."
 90
     1024
 91
        0
280
     0
281
     0
  0
CLASS
  1
ACMFCFSTANDARDBSI
  2
AcmFCFStdBSI
  3
"Amdt_StdImp|Product Description: AutoCAD Mechanical|Company: Autodesk, Inc."
 90
     1024
 91
        0
280
     0
281
     0
  0
CLASS
  1
ACMWELDSTANDARDBSI
  2
AcmWeldingStdBSI
  3
"Amdt_StdImp|Product Description: AutoCAD Mechanical|Company: Autodesk, Inc."
 90
     1024
 91
        0
280
     0
281
     0
  0
CLASS
  1
ACMIDSTANDARDBSI
  2
AcmIdStdBSI
  3
"Amdt_StdImp|Product Description: AutoCAD Mechanical|Company: Autodesk, Inc."
 90
     1024
 91
        0
280
     0
281
     0
  0
CLASS
  1
ACMDATUMSTANDARDBSI
  2
AcmDatumStdBSI
  3
"Amdt_StdImp|Product Description: AutoCAD Mechanical|Company: Autodesk, Inc."
 90
     1024
 91
        0
280
     0
281
     0
  0
CLASS
  1
ACMBOMSTANDARDBSI
  2
AcmBOMStdBSI
  3
"Amdt_StdImp|Product Description: AutoCAD Mechanical|Company: Autodesk, Inc."
 90
     1024
 91
        0
280
     0
281
     0
  0
CLASS
  1
ACMDETAILSTANDARDBSI
  2
AmdtDetailSymStdBSI
  3
"Amdt_StdImp|Product Description: AutoCAD Mechanical|Company: Autodesk, Inc."
 90
     1024
 91
        0
280
     0
281
     0
  0
CLASS
  1
ACMSECTIONSTANDARDBSI2001
  2
AmdtSectionSymStdBSI2001
  3
"Amdt_StdImp|Product Description: AutoCAD Mechanical|Company: Autodesk, Inc."
 90
     1024
 91
        0
280
     0
281
     0
  0
CLASS
  1
ACMCENTERLINESTANDARDBSI
  2
AmdtCenterLineStdBSI
  3
"Amdt_StdImp|Product Description: AutoCAD Mechanical|Company: Autodesk, Inc."
 90
     1024
 91
        0
280
     0
281
     0
  0
CLASS
  1
ACMTHREADLINESTANDARDBSI
  2
AmdtThreadLineStdBSI
  3
"Amdt_StdImp|Product Description: AutoCAD Mechanical|Company: Autodesk, Inc."
 90
     1024
 91
        0
280
     0
281
     0
  0
CLASS
  1
ACMNOTESTANDARDBSI
  2
AmdtNoteStdBSI
  3
"Amdt_StdImp|Product Description: AutoCAD Mechanical|Company: Autodesk, Inc."
 90
     1024
 91
        0
280
     0
281
     0
  0
CLASS
  1
ACMTAPERSTANDARDBSI
  2
AcmTaperStdBSI
  3
"Amdt_StdImp|Product Description: AutoCAD Mechanical|Company: Autodesk, Inc."
 90
     1024
 91
        0
280
     0
281
     0
  0
CLASS
  1
ACMANOOTATIONVIEWSTANDARDBSI
  2
AmdtAnViewStdBSI
  3
"Amdt_StdImp|Product Description: AutoCAD Mechanical|Company: Autodesk, Inc."
 90
     1024
 91
        0
280
     0
281
     0
  0
CLASS
  1
ACAMGHOLECHARTSTDBSI
  2
AcAmgHoleChartStdBSI
  3
AmgDim|Product Description: AutoCAD Mechanical|Company: Autodesk, Inc.
 90
     1024
 91
        0
280
     0
281
     0
  0
CLASS
  1
AMDTEDGESTANDARDJIS
  2
AmdtEdgeStdJIS
  3
"Amdt_StdImp|Product Description: AutoCAD Mechanical|Company: Autodesk, Inc."
 90
     1024
 91
        0
280
     0
281
     0
  0
CLASS
  1
ACMSURFSYM
  2
AcmSurfaceTexture
  3
"AcmSymBB|Product Description: AutoCAD Mechanical|Company: Autodesk, Inc."
 90
     4095
 91
        0
280
     0
281
     1
  0
CLASS
  1
ACDBDIMENSIONRES
  2
AcDbDimensionRes
  3
AcmSymBB|Product Description: AutoCAD Mechanical|Company: Autodesk, Inc.
 90
     1024
 91
        0
280
     0
281
     0
  0
CLASS
  1
ACDBCIRCARCRES
  2
AcDbCircArcRes
  3
AcGrefServices
 90
     1024
 91
        0
280
     0
281
     0
  0
CLASS
  1
ACDBOPPOLYLINERES
  2
AcDbOpPolylineRes
  3
AcGrefServices
 90
     1024
 91
        0
280
     0
281
     0
  0
CLASS
  1
AMDTACMWBLOCKBOMENTITY
  2
AmdtAcmWblockBomEntity
  3
"AcmSymBB|Product Description: AutoCAD Mechanical|Company: Autodesk, Inc."
 90
     4095
 91
        0
280
     0
281
     1
  0
CLASS
  1
ACDB_BLKREFOBJECTCONTEXTDATA_CLASS
  2
AcDbBlkRefObjectContextData
  3
ObjectDBX Classes
 90
     1153
 91
        0
280
     0
281
     0
  0
CLASS
  1
ACMPICKOBJ
  2
AcmPickEnt
  3
"AcmSymBB|Product Description: AutoCAD Mechanical|Company: Autodesk, Inc."
 90
     1024
 91
        0
280
     0
281
     1
  0
CLASS
  1
ACDBELLIPSERES
  2
AcDbEllipseRes
  3
AcGrefServices
 90
     1024
 91
        0
280
     0
281
     0
  0
CLASS
  1
ACMBALLOON
  2
AcmBalloon
  3
"AcmSymBB|Product Description: AutoCAD Mechanical|Company: Autodesk, Inc."
 90
     4095
 91
        0
280
     0
281
     1
  0
ENDSEC
  0
SECTION
  2
TABLES
  0
TABLE
  2
VPORT
  5
8
330
0
100
AcDbSymbolTable
 70
     1
  0
VPORT
  5
27A
330
8
100
AcDbSymbolTableRecord
100
AcDbViewportTableRecord
  2
*Active
 70
     0
 10
0.0
 20
0.0
 11
1.0
 21
1.0
 12
725.063553268139
 22
599.7418704276578
 13
0.0
 23
0.0
 14
7.5
 24
7.5
 15
30.0
 25
30.0
 16
0.0
 26
0.0
 36
1.0
 17
0.0
 27
0.0
 37
0.0
 40
451.8769846408086
 41
1.638814016172506
 42
50.0
 43
0.0
 44
0.0
 50
0.0
 51
0.0
 71
    16
 72
 20000
 73
     1
 74
     3
 75
     0
 76
     0
 77
     0
 78
     0
281
     0
 65
     0
110
0.0
120
0.0
130
0.0
111
1.0
121
0.0
131
0.0
112
0.0
122
1.0
132
0.0
 79
     0
146
0.0
348
285
 60
     3
 61
     5
292
     1
282
     0
141
0.0
142
0.0
 63
   250
421
  3355443
  0
ENDTAB
  0
TABLE
  2
LTYPE
  5
5
330
0
100
AcDbSymbolTable
 70
    22
  0
LTYPE
  5
14
330
5
100
AcDbSymbolTableRecord
100
AcDbLinetypeTableRecord
  2
ByBlock
 70
     0
  3

 72
    65
 73
     0
 40
0.0
  0
LTYPE
  5
15
330
5
100
AcDbSymbolTableRecord
100
AcDbLinetypeTableRecord
  2
ByLayer
 70
     0
  3

 72
    65
 73
     0
 40
0.0
  0
LTYPE
  5
16
330
5
100
AcDbSymbolTableRecord
100
AcDbLinetypeTableRecord
  2
Continuous
 70
     0
  3
Solid line
 72
    65
 73
     0
 40
0.0
  0
LTYPE
  5
4D
330
5
100
AcDbSymbolTableRecord
100
AcDbLinetypeTableRecord
  2
AM_ISO02W050
 70
     0
  3
__ __ __ __ __ __ __ __ __ __ __ __ __ __ __
 72
    65
 73
     2
 40
7.5
 49
6.0
 74
     0
 49
-1.5
 74
     0
  0
LTYPE
  5
4E
330
5
100
AcDbSymbolTableRecord
100
AcDbLinetypeTableRecord
  2
AM_ISO08W050
 70
     0
  3
____ . ____ . ____ . ____ . ____ . ____ . ____
 72
    65
 73
     4
 40
18.0
 49
12.0
 74
     0
 49
-1.5
 74
     0
 49
3.0
 74
     0
 49
-1.5
 74
     0
  0
LTYPE
  5
4F
330
5
100
AcDbSymbolTableRecord
100
AcDbLinetypeTableRecord
  2
AM_ISO09W050
 70
     0
  3
_____ . . _____ . . _____ . . ____ .. ____
 72
    65
 73
     6
 40
22.5
 49
12.0
 74
     0
 49
-1.5
 74
     0
 49
3.0
 74
     0
 49
-1.5
 74
     0
 49
3.0
 74
     0
 49
-1.5
 74
     0
  0
LTYPE
  5
50
330
5
100
AcDbSymbolTableRecord
100
AcDbLinetypeTableRecord
  2
Amconstr
 70
     0
  3
_______________________
 72
    65
 73
     2
 40
9999.0
 49
9999.0
 74
     0
 49
0.0
 74
     0
  0
LTYPE
  5
51
330
5
100
AcDbSymbolTableRecord
100
AcDbLinetypeTableRecord
  2
AM_ISO08W050x2
 70
     0
  3
__ . __ . __ . __ . __ . __
 72
    65
 73
     4
 40
9.0
 49
6.0
 74
     0
 49
-0.75
 74
     0
 49
1.5
 74
     0
 49
-0.75
 74
     0
  0
LTYPE
  5
52
330
5
100
AcDbSymbolTableRecord
100
AcDbLinetypeTableRecord
  2
AM_ISO02W050x2
 70
     0
  3
 _ _ _ _ _ _ _ _ _ _ _ _
 72
    65
 73
     2
 40
3.75
 49
3.0
 74
     0
 49
-0.75
 74
     0
  0
LTYPE
  5
55
330
5
100
AcDbSymbolTableRecord
100
AcDbLinetypeTableRecord
  2
Amzigzag
 70
     0
  3
/\/-/\/-/\/-/\/-/\/-/\/
 72
    65
 73
     2
 40
11.0001
 49
0.0001
 74
     4
 75
   136
340
23D
 46
0.04
 50
0.0
 44
0.0
 45
0.0
 49
-11.0
 74
     0
  0
LTYPE
  5
65
330
5
100
AcDbSymbolTableRecord
100
AcDbLinetypeTableRecord
  2
CENTER
 70
     0
  3
__ . __
 72
    65
 73
     4
 40
7.0
 49
4.0
 74
     0
 49
-1.0
 74
     0
 49
1.0
 74
     0
 49
-1.0
 74
     0
  0
LTYPE
  5
E0
330
5
100
AcDbSymbolTableRecord
100
AcDbLinetypeTableRecord
  2
HIDDEN
 70
     0
  3
Hidden __ __ __ __ __ __ __ __ __ __ __ __ __ _
 72
    65
 73
     2
 40
9.524999999999996
 49
6.349999999999998
 74
     0
 49
-3.174999999999998
 74
     0
  0
LTYPE
  5
E1
330
5
100
AcDbSymbolTableRecord
100
AcDbLinetypeTableRecord
  2
PHANTOM2
 70
     0
  3
Phantom (.5x) ___ _ _ ___ _ _ ___ _ _ ___ _ _
 72
    65
 73
     6
 40
31.75
 49
15.875
 74
     0
 49
-3.174999999999998
 74
     0
 49
3.174999999999998
 74
     0
 49
-3.174999999999998
 74
     0
 49
3.174999999999998
 74
     0
 49
-3.174999999999998
 74
     0
  0
LTYPE
  5
5A2
330
5
100
AcDbSymbolTableRecord
100
AcDbLinetypeTableRecord
  2
ACJISWELD
 70
     0
  3
_ _ _ _ _
 72
    65
 73
     2
 40
2.0
 49
2.0
 74
     0
 49
-1.0
 74
     0
  0
LTYPE
  5
71F5
330
5
100
AcDbSymbolTableRecord
100
AcDbLinetypeTableRecord
  2
ACISOWELD
 70
     0
  3
_ _ _ _ _
 72
    65
 73
     2
 40
2.0
 49
2.0
 74
     0
 49
-1.0
 74
     0
  0
LTYPE
  5
71F6
330
5
100
AcDbSymbolTableRecord
100
AcDbLinetypeTableRecord
  2
ACISOTGB
 70
     0
  3
__ . . __ . .
 72
    65
 73
     6
 40
9.0
 49
4.0
 74
     0
 49
-1.0
 74
     0
 49
1.0
 74
     0
 49
-1.0
 74
     0
 49
1.0
 74
     0
 49
-1.0
 74
     0
  0
LTYPE
  5
71F7
330
5
100
AcDbSymbolTableRecord
100
AcDbLinetypeTableRecord
  2
ACISOTGL
 70
     0
  3
_ _ _ _ _
 72
    65
 73
     2
 40
3.0
 49
2.0
 74
     0
 49
-1.0
 74
     0
  0
ENDTAB
  0
TABLE
  2
LAYER
  5
2
102
{ACAD_XDICTIONARY
360
BF
102
}
330
0
100
AcDbSymbolTable
 70
    10
  0
LAYER
  5
10
102
{ACAD_XDICTIONARY
360
29FA
102
}
330
2
100
AcDbSymbolTableRecord
100
AcDbLayerTableRecord
  2
0
 70
     0
 62
     7
  6
Continuous
370
    -3
390
F
347
27E
  0
LAYER
  5
81
102
{ACAD_XDICTIONARY
360
29FC
102
}
330
2
100
AcDbSymbolTableRecord
100
AcDbLayerTableRecord
  2
AM_0 外形線1
 70
     0
 62
     7
  6
Continuous
370
    25
390
F
347
27E
  0
LAYER
  5
427
330
2
100
AcDbSymbolTableRecord
100
AcDbLayerTableRecord
  2
Defpoints
 70
     0
 62
     7
  6
Continuous
290
     0
370
    -3
390
F
347
27E
  0
LAYER
  5
36EB
330
2
100
AcDbSymbolTableRecord
100
AcDbLayerTableRecord
  2
AM_5 寸法線
 70
     0
 62
     3
  6
Continuous
370
    13
390
F
347
27E
1001
AcAecLayerStandard
1000

1000

  0
LAYER
  5
36EC
330
2
100
AcDbSymbolTableRecord
100
AcDbLayerTableRecord
  2
AM_4 細線
 70
     0
 62
     4
  6
Continuous
370
    13
390
F
347
27E
1001
AcAecLayerStandard
1000

1000

  0
LAYER
  5
36ED
330
2
100
AcDbSymbolTableRecord
100
AcDbLayerTableRecord
  2
AM_7 中心線
 70
     0
 62
     1
  6
AM_ISO08W050
370
    13
390
F
347
27E
1001
AcAecLayerStandard
1000

1000

  0
LAYER
  5
36EE
330
2
100
AcDbSymbolTableRecord
100
AcDbLayerTableRecord
  2
AM_3 隠れ線
 70
     0
 62
     8
  6
ACJISWELD
370
    13
390
F
347
27E
1001
AcAecLayerStandard
1000

1000

  0
LAYER
  5
36F0
330
2
100
AcDbSymbolTableRecord
100
AcDbLayerTableRecord
  2
AM_6 文字
 70
     0
 62
     2
  6
Continuous
370
    13
390
F
347
27E
1001
AcAecLayerStandard
1000

1000

  0
LAYER
  5
6EA5
330
2
100
AcDbSymbolTableRecord
100
AcDbLayerTableRecord
  2
AM_11 想像線
 70
     0
 62
     5
  6
AM_ISO09W050
370
    13
390
F
347
27E
1001
AcAecLayerStandard
1000

1000

  0
ENDTAB
  0
TABLE
  2
STYLE
  5
3
330
0
100
AcDbSymbolTable
 70
    10
  0
STYLE
  5
11
330
3
100
AcDbSymbolTableRecord
100
AcDbTextStyleTableRecord
  2
STANDARD
 70
     0
 40
0.0
 41
1.0
 50
0.0
 71
     0
 42
25.0
  3
ISOCP.SHX
  4
EXTFONT.SHX
  0
STYLE
  5
23D
330
3
100
AcDbSymbolTableRecord
100
AcDbTextStyleTableRecord
  2

 70
     1
 40
0.0
 41
1.0
 50
0.0
 71
     0
 42
2.5
  3
genltshp.shx
  4

  0
STYLE
  5
5D5
330
3
100
AcDbSymbolTableRecord
100
AcDbTextStyleTableRecord
  2
SEISA
 70
     0
 40
0.0
 41
0.9
 50
0.0
 71
     0
 42
25.0
  3
romans.shx
  4
extfont2.shx
  0
STYLE
  5
71E5
330
3
100
AcDbSymbolTableRecord
100
AcDbTextStyleTableRecord
  2
ACISOTS
 70
     0
 40
1.0
 41
1.0
 50
0.0
 71
     0
 42
25.0
  3
isocp.shx
  4
extfont.shx
  0
STYLE
  5
71F4
330
3
100
AcDbSymbolTableRecord
100
AcDbTextStyleTableRecord
  2
ACISOGDT
 70
     0
 40
0.0
 41
1.0
 50
0.0
 71
     0
 42
25.0
  3
amgdt.shx
  4

  0
ENDTAB
  0
TABLE
  2
VIEW
  5
6
330
0
100
AcDbSymbolTable
 70
     6
  0
VIEW
  5
91B
330
6
100
AcDbSymbolTableRecord
100
AcDbViewTableRecord
  2
AM_VIEW1
 70
     0
 40
445.5
 10
438.3676114117401
 20
668.2500011081462
 41
876.735221674877
 11
0.0
 21
0.0
 31
1.0
 12
0.0
 22
0.0
 32
0.0
 42
50.0
 43
0.0
 44
0.0
 50
0.0
 71
    16
281
     0
 72
     0
 73
     0
  0
VIEW
  5
91C
330
6
100
AcDbSymbolTableRecord
100
AcDbViewTableRecord
  2
AM_VIEW2
 70
     0
 40
445.5
 10
821.632389736863
 20
668.2500011081462
 41
876.735221674877
 11
0.0
 21
0.0
 31
1.0
 12
0.0
 22
0.0
 32
0.0
 42
50.0
 43
0.0
 44
0.0
 50
0.0
 71
    16
281
     0
 72
     0
 73
     0
  0
VIEW
  5
91D
330
6
100
AcDbSymbolTableRecord
100
AcDbViewTableRecord
  2
AM_VIEW3
 70
     0
 40
445.5
 10
438.3676114117401
 20
222.7500011081462
 41
876.735221674877
 11
0.0
 21
0.0
 31
1.0
 12
0.0
 22
0.0
 32
0.0
 42
50.0
 43
0.0
 44
0.0
 50
0.0
 71
    16
281
     0
 72
     0
 73
     0
  0
VIEW
  5
91E
330
6
100
AcDbSymbolTableRecord
100
AcDbViewTableRecord
  2
AM_VIEW4
 70
     0
 40
445.5
 10
821.632389736863
 20
222.7500011081462
 41
876.735221674877
 11
0.0
 21
0.0
 31
1.0
 12
0.0
 22
0.0
 32
0.0
 42
50.0
 43
0.0
 44
0.0
 50
0.0
 71
    16
281
     0
 72
     0
 73
     0
  0
VIEW
  5
91F
330
6
100
AcDbSymbolTableRecord
100
AcDbViewTableRecord
  2
AM_VIEW5
 70
     0
 40
445.5
 10
630.0000005743015
 20
445.5000011081462
 41
876.7352216748772
 11
0.0
 21
0.0
 31
1.0
 12
0.0
 22
0.0
 32
0.0
 42
50.0
 43
0.0
 44
0.0
 50
0.0
 71
    16
281
     0
 72
     0
 73
     0
  0
VIEW
  5
920
330
6
100
AcDbSymbolTableRecord
100
AcDbViewTableRecord
  2
AM_VIEW6
 70
     0
 40
890.9910900000001
 10
630.0000005743015
 20
445.5000011081462
 41
1753.452908645321
 11
0.0
 21
0.0
 31
1.0
 12
0.0
 22
0.0
 32
0.0
 42
50.0
 43
0.0
 44
0.0
 50
0.0
 71
    16
281
     0
 72
     0
 73
     0
  0
ENDTAB
  0
TABLE
  2
UCS
  5
7
330
0
100
AcDbSymbolTable
 70
     0
  0
ENDTAB
  0
TABLE
  2
APPID
  5
9
330
0
100
AcDbSymbolTable
 70
   394
  0
APPID
  5
12
330
9
100
AcDbSymbolTableRecord
100
AcDbRegAppTableRecord
  2
ACAD
 70
     0
  0
APPID
  5
30
330
9
100
AcDbSymbolTableRecord
100
AcDbRegAppTableRecord
  2
MCAD_NO_VIS
 70
     0
  0
APPID
  5
31
330
9
100
AcDbSymbolTableRecord
100
AcDbRegAppTableRecord
  2
ACAD_TEMP_GRAPHIC
 70
     0
  0
APPID
  5
44
330
9
100
AcDbSymbolTableRecord
100
AcDbRegAppTableRecord
  2
ACATTRIBSERVICES
 70
     0
  0
APPID
  5
F6
330
9
100
AcDbSymbolTableRecord
100
AcDbRegAppTableRecord
  2
AD_DRAW
 70
     0
  0
APPID
  5
114
330
9
100
AcDbSymbolTableRecord
100
AcDbRegAppTableRecord
  2
DESIGNERASSEMBLIES
 70
     0
  0
APPID
  5
118
330
9
100
AcDbSymbolTableRecord
100
AcDbRegAppTableRecord
  2
ACADM_DIM_EDIT
 70
     0
  0
APPID
  5
119
330
9
100
AcDbSymbolTableRecord
100
AcDbRegAppTableRecord
  2
AMDT_DM_ADJ
 70
     0
  0
APPID
  5
1AF
330
9
100
AcDbSymbolTableRecord
100
AcDbRegAppTableRecord
  2
ACAD_DSTYLE_DIMARC_LENGTH_SYMBOL
 70
     0
  0
APPID
  5
1B0
330
9
100
AcDbSymbolTableRecord
100
AcDbRegAppTableRecord
  2
ACAD_DSTYLE_DIMJOGGED_JOGANGLE_SYMBOL
 70
     0
  0
APPID
  5
2D7
330
9
100
AcDbSymbolTableRecord
100
AcDbRegAppTableRecord
  2
ACAD_MLEADERVER
 70
     0
  0
APPID
  5
355
330
9
100
AcDbSymbolTableRecord
100
AcDbRegAppTableRecord
  2
AcadAnnoPO
 70
     0
  0
APPID
  5
428
330
9
100
AcDbSymbolTableRecord
100
AcDbRegAppTableRecord
  2
ACAD_DSTYLE_DIMTEXT_FILL
 70
     0
  0
APPID
  5
429
330
9
100
AcDbSymbolTableRecord
100
AcDbRegAppTableRecord
  2
GENIUS_GENSCREG_15
 70
     0
  0
APPID
  5
42A
330
9
100
AcDbSymbolTableRecord
100
AcDbRegAppTableRecord
  2
GENIUS_GENOBJ-N-SDF_13
 70
     0
  0
APPID
  5
42B
330
9
100
AcDbSymbolTableRecord
100
AcDbRegAppTableRecord
  2
GENIUS_GENODEF_13
 70
     0
  0
APPID
  5
42C
330
9
100
AcDbSymbolTableRecord
100
AcDbRegAppTableRecord
  2
ACAD_EXEMPT_FROM_CAD_STANDARDS
 70
     0
  0
APPID
  5
42D
330
9
100
AcDbSymbolTableRecord
100
AcDbRegAppTableRecord
  2
AcAecLayerStandard
 70
     0
  0
APPID
  5
42E
330
9
100
AcDbSymbolTableRecord
100
AcDbRegAppTableRecord
  2
GENIUS_GENOBJ-N-CEN_13
 70
     0
  0
APPID
  5
42F
330
9
100
AcDbSymbolTableRecord
100
AcDbRegAppTableRecord
  2
GENIUS_GENCEN_19
 70
     0
  0
APPID
  5
430
330
9
100
AcDbSymbolTableRecord
100
AcDbRegAppTableRecord
  2
ACAD_DSTYLE_DIMINSPECT
 70
     0
  0
APPID
  5
431
330
9
100
AcDbSymbolTableRecord
100
AcDbRegAppTableRecord
  2
GENIUS_AMGTXT_16
 70
     0
  0
APPID
  5
432
330
9
100
AcDbSymbolTableRecord
100
AcDbRegAppTableRecord
  2
GENIUS_GENFIL_13
 70
     0
  0
APPID
  5
433
330
9
100
AcDbSymbolTableRecord
100
AcDbRegAppTableRecord
  2
GENIUS_GENOLIS_13
 70
     0
  0
APPID
  5
434
330
9
100
AcDbSymbolTableRecord
100
AcDbRegAppTableRecord
  2
GENIUS_GENOBJ-N-CHA_13
 70
     0
  0
APPID
  5
435
330
9
100
AcDbSymbolTableRecord
100
AcDbRegAppTableRecord
  2
GENIUS_GENOENT_13
 70
     0
  0
APPID
  5
436
330
9
100
AcDbSymbolTableRecord
100
AcDbRegAppTableRecord
  2
GENIUS_GENOREF_13
 70
     0
  0
APPID
  5
437
330
9
100
AcDbSymbolTableRecord
100
AcDbRegAppTableRecord
  2
GENIUS_GENOBJ-N-FIL_13
 70
     0
  0
APPID
  5
438
330
9
100
AcDbSymbolTableRecord
100
AcDbRegAppTableRecord
  2
GEVID1208829536
 70
     0
  0
APPID
  5
439
330
9
100
AcDbSymbolTableRecord
100
AcDbRegAppTableRecord
  2
GEVDC
 70
     0
  0
APPID
  5
43A
330
9
100
AcDbSymbolTableRecord
100
AcDbRegAppTableRecord
  2
GEVRADREF
 70
     0
  0
APPID
  5
43B
330
9
100
AcDbSymbolTableRecord
100
AcDbRegAppTableRecord
  2
GENIUS_GENBH_13
 70
     0
  0
APPID
  5
43C
330
9
100
AcDbSymbolTableRecord
100
AcDbRegAppTableRecord
  2
GENIUS_GENOBJ-NBEHI-BHF_13
 70
     0
  0
APPID
  5
43D
330
9
100
AcDbSymbolTableRecord
100
AcDbRegAppTableRecord
  2
GENIUS_GENOBJ-NBEHI-BHB_13
 70
     0
  0
APPID
  5
43E
330
9
100
AcDbSymbolTableRecord
100
AcDbRegAppTableRecord
  2
GEVID1208829537
 70
     0
  0
APPID
  5
43F
330
9
100
AcDbSymbolTableRecord
100
AcDbRegAppTableRecord
  2
ACAD_DSTYLE_DIMJAG
 70
     0
  0
APPID
  5
440
330
9
100
AcDbSymbolTableRecord
100
AcDbRegAppTableRecord
  2
ACAD_DSTYLE_DIMTALN
 70
     0
  0
APPID
  5
441
330
9
100
AcDbSymbolTableRecord
100
AcDbRegAppTableRecord
  2
AMG_2DHIDE
 70
     0
  0
APPID
  5
442
330
9
100
AcDbSymbolTableRecord
100
AcDbRegAppTableRecord
  2
AMG_2DSTRUCT_BTR
 70
     0
  0
APPID
  5
443
330
9
100
AcDbSymbolTableRecord
100
AcDbRegAppTableRecord
  2
GEVID1208845772
 70
     0
  0
APPID
  5
444
330
9
100
AcDbSymbolTableRecord
100
AcDbRegAppTableRecord
  2
GEVID1208845773
 70
     0
  0
APPID
  5
445
330
9
100
AcDbSymbolTableRecord
100
AcDbRegAppTableRecord
  2
ACADM_2DVIEW_IGN_NOTIFY
 70
     0
  0
APPID
  5
446
330
9
100
AcDbSymbolTableRecord
100
AcDbRegAppTableRecord
  2
GEVID1208845774
 70
     0
  0
APPID
  5
447
330
9
100
AcDbSymbolTableRecord
100
AcDbRegAppTableRecord
  2
GEVID1208845775
 70
     0
  0
APPID
  5
448
330
9
100
AcDbSymbolTableRecord
100
AcDbRegAppTableRecord
  2
GEVID1208845776
 70
     0
  0
APPID
  5
449
330
9
100
AcDbSymbolTableRecord
100
AcDbRegAppTableRecord
  2
GEVID1208845777
 70
     0
  0
APPID
  5
44A
330
9
100
AcDbSymbolTableRecord
100
AcDbRegAppTableRecord
  2
GEVCON
 70
     0
  0
APPID
  5
44B
330
9
100
AcDbSymbolTableRecord
100
AcDbRegAppTableRecord
  2
GENIUS_GENOBJ-F-SCPASSM_13
 70
     0
  0
APPID
  5
44C
330
9
100
AcDbSymbolTableRecord
100
AcDbRegAppTableRecord
  2
GEVID1208845778
 70
     0
  0
APPID
  5
44D
330
9
100
AcDbSymbolTableRecord
100
AcDbRegAppTableRecord
  2
GEVID1208845779
 70
     0
  0
APPID
  5
44E
330
9
100
AcDbSymbolTableRecord
100
AcDbRegAppTableRecord
  2
GEVID1208845780
 70
     0
  0
APPID
  5
44F
330
9
100
AcDbSymbolTableRecord
100
AcDbRegAppTableRecord
  2
GEVID1208845781
 70
     0
  0
APPID
  5
450
330
9
100
AcDbSymbolTableRecord
100
AcDbRegAppTableRecord
  2
GEVID1208845782
 70
     0
  0
APPID
  5
451
330
9
100
AcDbSymbolTableRecord
100
AcDbRegAppTableRecord
  2
GEVID1208845783
 70
     0
  0
APPID
  5
452
330
9
100
AcDbSymbolTableRecord
100
AcDbRegAppTableRecord
  2
GEVID1208845784
 70
     0
  0
APPID
  5
453
330
9
100
AcDbSymbolTableRecord
100
AcDbRegAppTableRecord
  2
GEVID1208845785
 70
     0
  0
APPID
  5
454
330
9
100
AcDbSymbolTableRecord
100
AcDbRegAppTableRecord
  2
GEVID1208845787
 70
     0
  0
APPID
  5
455
330
9
100
AcDbSymbolTableRecord
100
AcDbRegAppTableRecord
  2
GEVID1208845788
 70
     0
  0
APPID
  5
456
330
9
100
AcDbSymbolTableRecord
100
AcDbRegAppTableRecord
  2
GEVID1208845789
 70
     0
  0
APPID
  5
457
330
9
100
AcDbSymbolTableRecord
100
AcDbRegAppTableRecord
  2
GEVID1208845790
 70
     0
  0
APPID
  5
458
330
9
100
AcDbSymbolTableRecord
100
AcDbRegAppTableRecord
  2
GEVID1208845791
 70
     0
  0
APPID
  5
459
330
9
100
AcDbSymbolTableRecord
100
AcDbRegAppTableRecord
  2
GEVID1208845792
 70
     0
  0
APPID
  5
45A
330
9
100
AcDbSymbolTableRecord
100
AcDbRegAppTableRecord
  2
GEVID1208845793
 70
     0
  0
APPID
  5
45B
330
9
100
AcDbSymbolTableRecord
100
AcDbRegAppTableRecord
  2
GEVID1208845794
 70
     0
  0
APPID
  5
45C
330
9
100
AcDbSymbolTableRecord
100
AcDbRegAppTableRecord
  2
GEVID1208845795
 70
     0
  0
APPID
  5
45D
330
9
100
AcDbSymbolTableRecord
100
AcDbRegAppTableRecord
  2
GEVID1208845796
 70
     0
  0
APPID
  5
45E
330
9
100
AcDbSymbolTableRecord
100
AcDbRegAppTableRecord
  2
GEVID1208845797
 70
     0
  0
APPID
  5
45F
330
9
100
AcDbSymbolTableRecord
100
AcDbRegAppTableRecord
  2
GEVID1208845798
 70
     0
  0
APPID
  5
460
330
9
100
AcDbSymbolTableRecord
100
AcDbRegAppTableRecord
  2
GEVID1208845799
 70
     0
  0
APPID
  5
461
330
9
100
AcDbSymbolTableRecord
100
AcDbRegAppTableRecord
  2
GEVID1208845800
 70
     0
  0
APPID
  5
462
330
9
100
AcDbSymbolTableRecord
100
AcDbRegAppTableRecord
  2
GEVID1208845801
 70
     0
  0
APPID
  5
463
330
9
100
AcDbSymbolTableRecord
100
AcDbRegAppTableRecord
  2
GEVID1208845802
 70
     0
  0
APPID
  5
464
330
9
100
AcDbSymbolTableRecord
100
AcDbRegAppTableRecord
  2
GENIUS_GENOBJ-N-DIM_13
 70
     0
  0
APPID
  5
465
330
9
100
AcDbSymbolTableRecord
100
AcDbRegAppTableRecord
  2
GENIUS_GENDIM_13
 70
     0
  0
APPID
  5
466
330
9
100
AcDbSymbolTableRecord
100
AcDbRegAppTableRecord
  2
GENIUS_GENDIMSH_14
 70
     0
  0
APPID
  5
467
330
9
100
AcDbSymbolTableRecord
100
AcDbRegAppTableRecord
  2
GEVID1208845803
 70
     0
  0
APPID
  5
468
330
9
100
AcDbSymbolTableRecord
100
AcDbRegAppTableRecord
  2
GEVID1208845804
 70
     0
  0
APPID
  5
469
330
9
100
AcDbSymbolTableRecord
100
AcDbRegAppTableRecord
  2
GEVID1208845805
 70
     0
  0
APPID
  5
46A
330
9
100
AcDbSymbolTableRecord
100
AcDbRegAppTableRecord
  2
GEVID1208845806
 70
     0
  0
APPID
  5
46B
330
9
100
AcDbSymbolTableRecord
100
AcDbRegAppTableRecord
  2
GEVID1208845807
 70
     0
  0
APPID
  5
46C
330
9
100
AcDbSymbolTableRecord
100
AcDbRegAppTableRecord
  2
GEVID1208845808
 70
     0
  0
APPID
  5
46D
330
9
100
AcDbSymbolTableRecord
100
AcDbRegAppTableRecord
  2
GEVID1208845809
 70
     0
  0
APPID
  5
46E
330
9
100
AcDbSymbolTableRecord
100
AcDbRegAppTableRecord
  2
GEVID1208845810
 70
     0
  0
APPID
  5
46F
330
9
100
AcDbSymbolTableRecord
100
AcDbRegAppTableRecord
  2
GEVID1208845811
 70
     0
  0
APPID
  5
470
330
9
100
AcDbSymbolTableRecord
100
AcDbRegAppTableRecord
  2
GEVID1208845813
 70
     0
  0
APPID
  5
471
330
9
100
AcDbSymbolTableRecord
100
AcDbRegAppTableRecord
  2
GEVID1208845814
 70
     0
  0
APPID
  5
472
330
9
100
AcDbSymbolTableRecord
100
AcDbRegAppTableRecord
  2
GEVID1208845815
 70
     0
  0
APPID
  5
473
330
9
100
AcDbSymbolTableRecord
100
AcDbRegAppTableRecord
  2
GEVID1208845816
 70
     0
  0
APPID
  5
474
330
9
100
AcDbSymbolTableRecord
100
AcDbRegAppTableRecord
  2
GEVID1208845817
 70
     0
  0
APPID
  5
475
330
9
100
AcDbSymbolTableRecord
100
AcDbRegAppTableRecord
  2
GEVID1208845818
 70
     0
  0
APPID
  5
476
330
9
100
AcDbSymbolTableRecord
100
AcDbRegAppTableRecord
  2
GEVID1208845819
 70
     0
  0
APPID
  5
477
330
9
100
AcDbSymbolTableRecord
100
AcDbRegAppTableRecord
  2
GEVID1208845820
 70
     0
  0
APPID
  5
478
330
9
100
AcDbSymbolTableRecord
100
AcDbRegAppTableRecord
  2
GENIUS_GENOBJ-F-SHCL_13
 70
     0
  0
APPID
  5
479
330
9
100
AcDbSymbolTableRecord
100
AcDbRegAppTableRecord
  2
GENIUS_GEFMSH_13
 70
     0
  0
APPID
  5
47A
330
9
100
AcDbSymbolTableRecord
100
AcDbRegAppTableRecord
  2
GENIUS_GENOBJ-F-SHCA_13
 70
     0
  0
APPID
  5
47B
330
9
100
AcDbSymbolTableRecord
100
AcDbRegAppTableRecord
  2
GENIUS_GEFSH_13
 70
     0
  0
APPID
  5
47C
330
9
100
AcDbSymbolTableRecord
100
AcDbRegAppTableRecord
  2
GENIUS_GEFSHP_13
 70
     0
  0
APPID
  5
47D
330
9
100
AcDbSymbolTableRecord
100
AcDbRegAppTableRecord
  2
GENIUS_GEFSHP0_13
 70
     0
  0
APPID
  5
47E
330
9
100
AcDbSymbolTableRecord
100
AcDbRegAppTableRecord
  2
GENIUS_GEFSH0_13
 70
     0
  0
APPID
  5
47F
330
9
100
AcDbSymbolTableRecord
100
AcDbRegAppTableRecord
  2
GENIUS_GEFSHP1_13
 70
     0
  0
APPID
  5
480
330
9
100
AcDbSymbolTableRecord
100
AcDbRegAppTableRecord
  2
GENIUS_GEFSH1_13
 70
     0
  0
APPID
  5
481
330
9
100
AcDbSymbolTableRecord
100
AcDbRegAppTableRecord
  2
GEVID1208866337
 70
     0
  0
APPID
  5
482
330
9
100
AcDbSymbolTableRecord
100
AcDbRegAppTableRecord
  2
GEVID1208866338
 70
     0
  0
APPID
  5
483
330
9
100
AcDbSymbolTableRecord
100
AcDbRegAppTableRecord
  2
GEVID1208866339
 70
     0
  0
APPID
  5
484
330
9
100
AcDbSymbolTableRecord
100
AcDbRegAppTableRecord
  2
GEVID1208866340
 70
     0
  0
APPID
  5
485
330
9
100
AcDbSymbolTableRecord
100
AcDbRegAppTableRecord
  2
GEVID1208866341
 70
     0
  0
APPID
  5
486
330
9
100
AcDbSymbolTableRecord
100
AcDbRegAppTableRecord
  2
ACAD_PSEXT
 70
     0
  0
APPID
  5
487
330
9
100
AcDbSymbolTableRecord
100
AcDbRegAppTableRecord
  2
GEVID1208866342
 70
     0
  0
APPID
  5
488
330
9
100
AcDbSymbolTableRecord
100
AcDbRegAppTableRecord
  2
GEVID1208913836
 70
     0
  0
APPID
  5
489
330
9
100
AcDbSymbolTableRecord
100
AcDbRegAppTableRecord
  2
GEVID1208913837
 70
     0
  0
APPID
  5
48A
330
9
100
AcDbSymbolTableRecord
100
AcDbRegAppTableRecord
  2
GEVID1208913838
 70
     0
  0
APPID
  5
48B
330
9
100
AcDbSymbolTableRecord
100
AcDbRegAppTableRecord
  2
GEVID1208913839
 70
     0
  0
APPID
  5
48C
330
9
100
AcDbSymbolTableRecord
100
AcDbRegAppTableRecord
  2
GENIUS_GENDTOL_13
 70
     0
  0
APPID
  5
48D
330
9
100
AcDbSymbolTableRecord
100
AcDbRegAppTableRecord
  2
GEVID1208928889
 70
     0
  0
APPID
  5
48E
330
9
100
AcDbSymbolTableRecord
100
AcDbRegAppTableRecord
  2
GEVID1208928890
 70
     0
  0
APPID
  5
48F
330
9
100
AcDbSymbolTableRecord
100
AcDbRegAppTableRecord
  2
GEVID1208928891
 70
     0
  0
APPID
  5
490
330
9
100
AcDbSymbolTableRecord
100
AcDbRegAppTableRecord
  2
GEVID1208928892
 70
     0
  0
APPID
  5
491
330
9
100
AcDbSymbolTableRecord
100
AcDbRegAppTableRecord
  2
GEVID1208933827
 70
     0
  0
APPID
  5
492
330
9
100
AcDbSymbolTableRecord
100
AcDbRegAppTableRecord
  2
GEVID1208933829
 70
     0
  0
APPID
  5
493
330
9
100
AcDbSymbolTableRecord
100
AcDbRegAppTableRecord
  2
GEVID1208933830
 70
     0
  0
APPID
  5
494
330
9
100
AcDbSymbolTableRecord
100
AcDbRegAppTableRecord
  2
GEVID1208933831
 70
     0
  0
APPID
  5
495
330
9
100
AcDbSymbolTableRecord
100
AcDbRegAppTableRecord
  2
GEVID1208933832
 70
     0
  0
APPID
  5
496
330
9
100
AcDbSymbolTableRecord
100
AcDbRegAppTableRecord
  2
GEVID1208933833
 70
     0
  0
APPID
  5
497
330
9
100
AcDbSymbolTableRecord
100
AcDbRegAppTableRecord
  2
GEVID1208933834
 70
     0
  0
APPID
  5
498
330
9
100
AcDbSymbolTableRecord
100
AcDbRegAppTableRecord
  2
GEVID1208933835
 70
     0
  0
APPID
  5
499
330
9
100
AcDbSymbolTableRecord
100
AcDbRegAppTableRecord
  2
GEVID1208933836
 70
     0
  0
APPID
  5
49A
330
9
100
AcDbSymbolTableRecord
100
AcDbRegAppTableRecord
  2
GEVID1208933837
 70
     0
  0
APPID
  5
49B
330
9
100
AcDbSymbolTableRecord
100
AcDbRegAppTableRecord
  2
GEVID1208933838
 70
     0
  0
APPID
  5
49C
330
9
100
AcDbSymbolTableRecord
100
AcDbRegAppTableRecord
  2
GEVID1208933840
 70
     0
  0
APPID
  5
49D
330
9
100
AcDbSymbolTableRecord
100
AcDbRegAppTableRecord
  2
GEVID1208933842
 70
     0
  0
APPID
  5
49E
330
9
100
AcDbSymbolTableRecord
100
AcDbRegAppTableRecord
  2
GEVID1208933843
 70
     0
  0
APPID
  5
49F
330
9
100
AcDbSymbolTableRecord
100
AcDbRegAppTableRecord
  2
GEVID1208933844
 70
     0
  0
APPID
  5
4A0
330
9
100
AcDbSymbolTableRecord
100
AcDbRegAppTableRecord
  2
GEVID1208933845
 70
     0
  0
APPID
  5
4A1
330
9
100
AcDbSymbolTableRecord
100
AcDbRegAppTableRecord
  2
GEVID1208933846
 70
     0
  0
APPID
  5
4A2
330
9
100
AcDbSymbolTableRecord
100
AcDbRegAppTableRecord
  2
GEVID1208933847
 70
     0
  0
APPID
  5
4A3
330
9
100
AcDbSymbolTableRecord
100
AcDbRegAppTableRecord
  2
GEVID1208933848
 70
     0
  0
APPID
  5
4A4
330
9
100
AcDbSymbolTableRecord
100
AcDbRegAppTableRecord
  2
GEVID1208933849
 70
     0
  0
APPID
  5
4A5
330
9
100
AcDbSymbolTableRecord
100
AcDbRegAppTableRecord
  2
GEVID1208933850
 70
     0
  0
APPID
  5
4A6
330
9
100
AcDbSymbolTableRecord
100
AcDbRegAppTableRecord
  2
GEVID1208933851
 70
     0
  0
APPID
  5
4A7
330
9
100
AcDbSymbolTableRecord
100
AcDbRegAppTableRecord
  2
GEVID1208933852
 70
     0
  0
APPID
  5
4A8
330
9
100
AcDbSymbolTableRecord
100
AcDbRegAppTableRecord
  2
GEVID1208933853
 70
     0
  0
APPID
  5
4A9
330
9
100
AcDbSymbolTableRecord
100
AcDbRegAppTableRecord
  2
GEVID1208933854
 70
     0
  0
APPID
  5
4AA
330
9
100
AcDbSymbolTableRecord
100
AcDbRegAppTableRecord
  2
GEVID1208933855
 70
     0
  0
APPID
  5
4AB
330
9
100
AcDbSymbolTableRecord
100
AcDbRegAppTableRecord
  2
GEVID1208933856
 70
     0
  0
APPID
  5
4AC
330
9
100
AcDbSymbolTableRecord
100
AcDbRegAppTableRecord
  2
GEVID1208933857
 70
     0
  0
APPID
  5
4AD
330
9
100
AcDbSymbolTableRecord
100
AcDbRegAppTableRecord
  2
GEVID1208933858
 70
     0
  0
APPID
  5
4AE
330
9
100
AcDbSymbolTableRecord
100
AcDbRegAppTableRecord
  2
GEVID1208933859
 70
     0
  0
APPID
  5
4AF
330
9
100
AcDbSymbolTableRecord
100
AcDbRegAppTableRecord
  2
GEVID1208933860
 70
     0
  0
APPID
  5
4B0
330
9
100
AcDbSymbolTableRecord
100
AcDbRegAppTableRecord
  2
GEVID1208933861
 70
     0
  0
APPID
  5
4B1
330
9
100
AcDbSymbolTableRecord
100
AcDbRegAppTableRecord
  2
GEVID1208933862
 70
     0
  0
APPID
  5
4B2
330
9
100
AcDbSymbolTableRecord
100
AcDbRegAppTableRecord
  2
GEVID1208933863
 70
     0
  0
APPID
  5
4B3
330
9
100
AcDbSymbolTableRecord
100
AcDbRegAppTableRecord
  2
GEVID1208933864
 70
     0
  0
APPID
  5
4B4
330
9
100
AcDbSymbolTableRecord
100
AcDbRegAppTableRecord
  2
GEVID1208933865
 70
     0
  0
APPID
  5
4B5
330
9
100
AcDbSymbolTableRecord
100
AcDbRegAppTableRecord
  2
GEVID1208933866
 70
     0
  0
APPID
  5
4B6
330
9
100
AcDbSymbolTableRecord
100
AcDbRegAppTableRecord
  2
GEVID1208933867
 70
     0
  0
APPID
  5
4B7
330
9
100
AcDbSymbolTableRecord
100
AcDbRegAppTableRecord
  2
GEVID1208933868
 70
     0
  0
APPID
  5
4B8
330
9
100
AcDbSymbolTableRecord
100
AcDbRegAppTableRecord
  2
GEVID1208933869
 70
     0
  0
APPID
  5
4B9
330
9
100
AcDbSymbolTableRecord
100
AcDbRegAppTableRecord
  2
GEVID1208933870
 70
     0
  0
APPID
  5
4BA
330
9
100
AcDbSymbolTableRecord
100
AcDbRegAppTableRecord
  2
GEVID1208933871
 70
     0
  0
APPID
  5
4BB
330
9
100
AcDbSymbolTableRecord
100
AcDbRegAppTableRecord
  2
GEVID1208933872
 70
     0
  0
APPID
  5
4BC
330
9
100
AcDbSymbolTableRecord
100
AcDbRegAppTableRecord
  2
GEVID1208933873
 70
     0
  0
APPID
  5
4BD
330
9
100
AcDbSymbolTableRecord
100
AcDbRegAppTableRecord
  2
GEVID1208933874
 70
     0
  0
APPID
  5
4BE
330
9
100
AcDbSymbolTableRecord
100
AcDbRegAppTableRecord
  2
GEVID1208933875
 70
     0
  0
APPID
  5
4BF
330
9
100
AcDbSymbolTableRecord
100
AcDbRegAppTableRecord
  2
GEVID1208933876
 70
     0
  0
APPID
  5
4C0
330
9
100
AcDbSymbolTableRecord
100
AcDbRegAppTableRecord
  2
ACAD_DSTYLE_DIMRADIAL_EXTENSION
 70
     0
  0
APPID
  5
4C1
330
9
100
AcDbSymbolTableRecord
100
AcDbRegAppTableRecord
  2
GEVID1208999100
 70
     0
  0
APPID
  5
4C2
330
9
100
AcDbSymbolTableRecord
100
AcDbRegAppTableRecord
  2
GEVID1208999101
 70
     0
  0
APPID
  5
4C3
330
9
100
AcDbSymbolTableRecord
100
AcDbRegAppTableRecord
  2
GEVID1208999102
 70
     0
  0
APPID
  5
4C4
330
9
100
AcDbSymbolTableRecord
100
AcDbRegAppTableRecord
  2
GEVID1208999103
 70
     0
  0
APPID
  5
4C5
330
9
100
AcDbSymbolTableRecord
100
AcDbRegAppTableRecord
  2
GEVID1208999105
 70
     0
  0
APPID
  5
4C6
330
9
100
AcDbSymbolTableRecord
100
AcDbRegAppTableRecord
  2
GEVID1208999106
 70
     0
  0
APPID
  5
4C7
330
9
100
AcDbSymbolTableRecord
100
AcDbRegAppTableRecord
  2
GEVID1208999108
 70
     0
  0
APPID
  5
4C8
330
9
100
AcDbSymbolTableRecord
100
AcDbRegAppTableRecord
  2
GEVID1208999109
 70
     0
  0
APPID
  5
4C9
330
9
100
AcDbSymbolTableRecord
100
AcDbRegAppTableRecord
  2
GEVID1208999110
 70
     0
  0
APPID
  5
4CA
330
9
100
AcDbSymbolTableRecord
100
AcDbRegAppTableRecord
  2
GEVID1208999111
 70
     0
  0
APPID
  5
4CB
330
9
100
AcDbSymbolTableRecord
100
AcDbRegAppTableRecord
  2
GEVID1208999112
 70
     0
  0
APPID
  5
4CC
330
9
100
AcDbSymbolTableRecord
100
AcDbRegAppTableRecord
  2
GEVID1208999113
 70
     0
  0
APPID
  5
4CD
330
9
100
AcDbSymbolTableRecord
100
AcDbRegAppTableRecord
  2
GEVID1208999114
 70
     0
  0
APPID
  5
4CE
330
9
100
AcDbSymbolTableRecord
100
AcDbRegAppTableRecord
  2
GEVID1210218799
 70
     0
  0
APPID
  5
4CF
330
9
100
AcDbSymbolTableRecord
100
AcDbRegAppTableRecord
  2
GEVID1210218800
 70
     0
  0
APPID
  5
4D0
330
9
100
AcDbSymbolTableRecord
100
AcDbRegAppTableRecord
  2
GENIUS_GEFWELD_13
 70
     0
  0
APPID
  5
4D1
330
9
100
AcDbSymbolTableRecord
100
AcDbRegAppTableRecord
  2
GENIUS_GENOBJ-F-WELS_13
 70
     0
  0
APPID
  5
4D2
330
9
100
AcDbSymbolTableRecord
100
AcDbRegAppTableRecord
  2
AcadAnnotative
 70
     0
  0
APPID
  5
4D3
330
9
100
AcDbSymbolTableRecord
100
AcDbRegAppTableRecord
  2
GEVID1210145339
 70
     0
  0
APPID
  5
4D4
330
9
100
AcDbSymbolTableRecord
100
AcDbRegAppTableRecord
  2
ACAD_DSTYLE_DIMBREAK
 70
     0
  0
APPID
  5
4D5
330
9
100
AcDbSymbolTableRecord
100
AcDbRegAppTableRecord
  2
GEVID1210145340
 70
     0
  0
APPID
  5
4D6
330
9
100
AcDbSymbolTableRecord
100
AcDbRegAppTableRecord
  2
GEVID1210145341
 70
     0
  0
APPID
  5
4D7
330
9
100
AcDbSymbolTableRecord
100
AcDbRegAppTableRecord
  2
GEVID1210145342
 70
     0
  0
APPID
  5
4D8
330
9
100
AcDbSymbolTableRecord
100
AcDbRegAppTableRecord
  2
GEVID1210145343
 70
     0
  0
APPID
  5
4D9
330
9
100
AcDbSymbolTableRecord
100
AcDbRegAppTableRecord
  2
GEVID1210145344
 70
     0
  0
APPID
  5
4DA
330
9
100
AcDbSymbolTableRecord
100
AcDbRegAppTableRecord
  2
GEVID1210145345
 70
     0
  0
APPID
  5
4DB
330
9
100
AcDbSymbolTableRecord
100
AcDbRegAppTableRecord
  2
GEVID1210152816
 70
     0
  0
APPID
  5
4DC
330
9
100
AcDbSymbolTableRecord
100
AcDbRegAppTableRecord
  2
GEVID1210153850
 70
     0
  0
APPID
  5
4DD
330
9
100
AcDbSymbolTableRecord
100
AcDbRegAppTableRecord
  2
GEVID1210153851
 70
     0
  0
APPID
  5
4DE
330
9
100
AcDbSymbolTableRecord
100
AcDbRegAppTableRecord
  2
GEVID1210153852
 70
     0
  0
APPID
  5
4DF
330
9
100
AcDbSymbolTableRecord
100
AcDbRegAppTableRecord
  2
GEVID1210549898
 70
     0
  0
APPID
  5
4E0
330
9
100
AcDbSymbolTableRecord
100
AcDbRegAppTableRecord
  2
GEVID1210549899
 70
     0
  0
APPID
  5
4E1
330
9
100
AcDbSymbolTableRecord
100
AcDbRegAppTableRecord
  2
GEVID1210549900
 70
     0
  0
APPID
  5
4E2
330
9
100
AcDbSymbolTableRecord
100
AcDbRegAppTableRecord
  2
GEVID1210549901
 70
     0
  0
APPID
  5
4E3
330
9
100
AcDbSymbolTableRecord
100
AcDbRegAppTableRecord
  2
GEVID1210549902
 70
     0
  0
APPID
  5
4E4
330
9
100
AcDbSymbolTableRecord
100
AcDbRegAppTableRecord
  2
GEVID1210549903
 70
     0
  0
APPID
  5
4E5
330
9
100
AcDbSymbolTableRecord
100
AcDbRegAppTableRecord
  2
GEVID1210549904
 70
     0
  0
APPID
  5
4E6
330
9
100
AcDbSymbolTableRecord
100
AcDbRegAppTableRecord
  2
GEVID1210549905
 70
     0
  0
APPID
  5
4E7
330
9
100
AcDbSymbolTableRecord
100
AcDbRegAppTableRecord
  2
GEVID1210549906
 70
     0
  0
APPID
  5
4E8
330
9
100
AcDbSymbolTableRecord
100
AcDbRegAppTableRecord
  2
GEVID1210549907
 70
     0
  0
APPID
  5
4E9
330
9
100
AcDbSymbolTableRecord
100
AcDbRegAppTableRecord
  2
GEVID1210549908
 70
     0
  0
APPID
  5
4EA
330
9
100
AcDbSymbolTableRecord
100
AcDbRegAppTableRecord
  2
GEVID1210549909
 70
     0
  0
APPID
  5
4EB
330
9
100
AcDbSymbolTableRecord
100
AcDbRegAppTableRecord
  2
GEVID1210549910
 70
     0
  0
APPID
  5
4EC
330
9
100
AcDbSymbolTableRecord
100
AcDbRegAppTableRecord
  2
GEVID1210549911
 70
     0
  0
APPID
  5
4ED
330
9
100
AcDbSymbolTableRecord
100
AcDbRegAppTableRecord
  2
GEVID1210549912
 70
     0
  0
APPID
  5
4EE
330
9
100
AcDbSymbolTableRecord
100
AcDbRegAppTableRecord
  2
GEVID1210549913
 70
     0
  0
APPID
  5
4EF
330
9
100
AcDbSymbolTableRecord
100
AcDbRegAppTableRecord
  2
GEVID1210549914
 70
     0
  0
APPID
  5
4F0
330
9
100
AcDbSymbolTableRecord
100
AcDbRegAppTableRecord
  2
GEVID1210549915
 70
     0
  0
APPID
  5
4F1
330
9
100
AcDbSymbolTableRecord
100
AcDbRegAppTableRecord
  2
GEVID1210549916
 70
     0
  0
APPID
  5
4F2
330
9
100
AcDbSymbolTableRecord
100
AcDbRegAppTableRecord
  2
GEVID1210549917
 70
     0
  0
APPID
  5
4F3
330
9
100
AcDbSymbolTableRecord
100
AcDbRegAppTableRecord
  2
GENIUS_GENOBJ-N-CRS_13
 70
     0
  0
APPID
  5
4F4
330
9
100
AcDbSymbolTableRecord
100
AcDbRegAppTableRecord
  2
GEVID1210549918
 70
     0
  0
APPID
  5
4F5
330
9
100
AcDbSymbolTableRecord
100
AcDbRegAppTableRecord
  2
GENIUS_GENOBJ-N-CRC_13
 70
     0
  0
APPID
  5
4F6
330
9
100
AcDbSymbolTableRecord
100
AcDbRegAppTableRecord
  2
GENIUS_GENCRC_14
 70
     0
  0
APPID
  5
4F7
330
9
100
AcDbSymbolTableRecord
100
AcDbRegAppTableRecord
  2
GEVID1210549919
 70
     0
  0
APPID
  5
4F8
330
9
100
AcDbSymbolTableRecord
100
AcDbRegAppTableRecord
  2
GEVID1210549921
 70
     0
  0
APPID
  5
4F9
330
9
100
AcDbSymbolTableRecord
100
AcDbRegAppTableRecord
  2
GEVID1210549922
 70
     0
  0
APPID
  5
4FA
330
9
100
AcDbSymbolTableRecord
100
AcDbRegAppTableRecord
  2
GEVID1210635173
 70
     0
  0
APPID
  5
4FB
330
9
100
AcDbSymbolTableRecord
100
AcDbRegAppTableRecord
  2
GEVID1210635174
 70
     0
  0
APPID
  5
4FC
330
9
100
AcDbSymbolTableRecord
100
AcDbRegAppTableRecord
  2
GEVID1210635175
 70
     0
  0
APPID
  5
4FD
330
9
100
AcDbSymbolTableRecord
100
AcDbRegAppTableRecord
  2
GEVID1210635176
 70
     0
  0
APPID
  5
4FE
330
9
100
AcDbSymbolTableRecord
100
AcDbRegAppTableRecord
  2
GEVID1210635177
 70
     0
  0
APPID
  5
4FF
330
9
100
AcDbSymbolTableRecord
100
AcDbRegAppTableRecord
  2
GEVID1210635178
 70
     0
  0
APPID
  5
500
330
9
100
AcDbSymbolTableRecord
100
AcDbRegAppTableRecord
  2
GENIUS_GENIUS_GENBHEDTMP_13
 70
     0
  0
APPID
  5
501
330
9
100
AcDbSymbolTableRecord
100
AcDbRegAppTableRecord
  2
GEVID1210635179
 70
     0
  0
APPID
  5
502
330
9
100
AcDbSymbolTableRecord
100
AcDbRegAppTableRecord
  2
GEVID1210635180
 70
     0
  0
APPID
  5
503
330
9
100
AcDbSymbolTableRecord
100
AcDbRegAppTableRecord
  2
GEVID1210635181
 70
     0
  0
APPID
  5
504
330
9
100
AcDbSymbolTableRecord
100
AcDbRegAppTableRecord
  2
GEVID1210635182
 70
     0
  0
APPID
  5
505
330
9
100
AcDbSymbolTableRecord
100
AcDbRegAppTableRecord
  2
GEVID1210635184
 70
     0
  0
APPID
  5
506
330
9
100
AcDbSymbolTableRecord
100
AcDbRegAppTableRecord
  2
GEVID1210635185
 70
     0
  0
APPID
  5
507
330
9
100
AcDbSymbolTableRecord
100
AcDbRegAppTableRecord
  2
GEVID1210635186
 70
     0
  0
APPID
  5
508
330
9
100
AcDbSymbolTableRecord
100
AcDbRegAppTableRecord
  2
GEVID1210635187
 70
     0
  0
APPID
  5
509
330
9
100
AcDbSymbolTableRecord
100
AcDbRegAppTableRecord
  2
GEVID1210635188
 70
     0
  0
APPID
  5
50A
330
9
100
AcDbSymbolTableRecord
100
AcDbRegAppTableRecord
  2
GEVID1210635189
 70
     0
  0
APPID
  5
50B
330
9
100
AcDbSymbolTableRecord
100
AcDbRegAppTableRecord
  2
GEVID1210635190
 70
     0
  0
APPID
  5
50C
330
9
100
AcDbSymbolTableRecord
100
AcDbRegAppTableRecord
  2
GENIUS_GENREC_14
 70
     0
  0
APPID
  5
50D
330
9
100
AcDbSymbolTableRecord
100
AcDbRegAppTableRecord
  2
GENIUS_GENOBJ-N-REC_13
 70
     0
  0
APPID
  5
50E
330
9
100
AcDbSymbolTableRecord
100
AcDbRegAppTableRecord
  2
GEVID1210676655
 70
     0
  0
APPID
  5
50F
330
9
100
AcDbSymbolTableRecord
100
AcDbRegAppTableRecord
  2
GEVID1210676656
 70
     0
  0
APPID
  5
510
330
9
100
AcDbSymbolTableRecord
100
AcDbRegAppTableRecord
  2
GEVID1210676657
 70
     0
  0
APPID
  5
511
330
9
100
AcDbSymbolTableRecord
100
AcDbRegAppTableRecord
  2
GEVID1210676659
 70
     0
  0
APPID
  5
512
330
9
100
AcDbSymbolTableRecord
100
AcDbRegAppTableRecord
  2
GEVID1210676660
 70
     0
  0
APPID
  5
513
330
9
100
AcDbSymbolTableRecord
100
AcDbRegAppTableRecord
  2
GEVID1210676661
 70
     0
  0
APPID
  5
514
330
9
100
AcDbSymbolTableRecord
100
AcDbRegAppTableRecord
  2
GEVID1210676662
 70
     0
  0
APPID
  5
515
330
9
100
AcDbSymbolTableRecord
100
AcDbRegAppTableRecord
  2
GEVID1210721646
 70
     0
  0
APPID
  5
516
330
9
100
AcDbSymbolTableRecord
100
AcDbRegAppTableRecord
  2
GEVID1210721647
 70
     0
  0
APPID
  5
517
330
9
100
AcDbSymbolTableRecord
100
AcDbRegAppTableRecord
  2
GEVID1210721648
 70
     0
  0
APPID
  5
518
330
9
100
AcDbSymbolTableRecord
100
AcDbRegAppTableRecord
  2
GEVID1210721649
 70
     0
  0
APPID
  5
519
330
9
100
AcDbSymbolTableRecord
100
AcDbRegAppTableRecord
  2
GEVID1210721650
 70
     0
  0
APPID
  5
51A
330
9
100
AcDbSymbolTableRecord
100
AcDbRegAppTableRecord
  2
GEVID1210721651
 70
     0
  0
APPID
  5
51B
330
9
100
AcDbSymbolTableRecord
100
AcDbRegAppTableRecord
  2
GEVID1210721652
 70
     0
  0
APPID
  5
51C
330
9
100
AcDbSymbolTableRecord
100
AcDbRegAppTableRecord
  2
GEVID1210721653
 70
     0
  0
APPID
  5
51D
330
9
100
AcDbSymbolTableRecord
100
AcDbRegAppTableRecord
  2
PE_URL
 70
     0
  0
APPID
  5
51E
330
9
100
AcDbSymbolTableRecord
100
AcDbRegAppTableRecord
  2
GEVID1210825555
 70
     0
  0
APPID
  5
51F
330
9
100
AcDbSymbolTableRecord
100
AcDbRegAppTableRecord
  2
GEVID1210825556
 70
     0
  0
APPID
  5
520
330
9
100
AcDbSymbolTableRecord
100
AcDbRegAppTableRecord
  2
GEVID1210825557
 70
     0
  0
APPID
  5
521
330
9
100
AcDbSymbolTableRecord
100
AcDbRegAppTableRecord
  2
GEVID1210825558
 70
     0
  0
APPID
  5
522
330
9
100
AcDbSymbolTableRecord
100
AcDbRegAppTableRecord
  2
GEVID1210825559
 70
     0
  0
APPID
  5
523
330
9
100
AcDbSymbolTableRecord
100
AcDbRegAppTableRecord
  2
GEVID1210825560
 70
     0
  0
APPID
  5
524
330
9
100
AcDbSymbolTableRecord
100
AcDbRegAppTableRecord
  2
GEVID1210825561
 70
     0
  0
APPID
  5
525
330
9
100
AcDbSymbolTableRecord
100
AcDbRegAppTableRecord
  2
GEVID1210825562
 70
     0
  0
APPID
  5
526
330
9
100
AcDbSymbolTableRecord
100
AcDbRegAppTableRecord
  2
GEVID1210825563
 70
     0
  0
APPID
  5
527
330
9
100
AcDbSymbolTableRecord
100
AcDbRegAppTableRecord
  2
GEVID1210825564
 70
     0
  0
APPID
  5
528
330
9
100
AcDbSymbolTableRecord
100
AcDbRegAppTableRecord
  2
GEVID1210825565
 70
     0
  0
APPID
  5
529
330
9
100
AcDbSymbolTableRecord
100
AcDbRegAppTableRecord
  2
GEVID1210825566
 70
     0
  0
APPID
  5
52A
330
9
100
AcDbSymbolTableRecord
100
AcDbRegAppTableRecord
  2
GEVID1210825567
 70
     0
  0
APPID
  5
52B
330
9
100
AcDbSymbolTableRecord
100
AcDbRegAppTableRecord
  2
GENIUS_GENOBJ-N-ZOO_13
 70
     0
  0
APPID
  5
52C
330
9
100
AcDbSymbolTableRecord
100
AcDbRegAppTableRecord
  2
GENIUS_GENZOO_17
 70
     0
  0
APPID
  5
52D
330
9
100
AcDbSymbolTableRecord
100
AcDbRegAppTableRecord
  2
ACADANNOTATIVEDECOMPOSITION
 70
     0
  0
APPID
  5
52E
330
9
100
AcDbSymbolTableRecord
100
AcDbRegAppTableRecord
  2
GENIUS_GENOBJ-N-HTC_13
 70
     0
  0
APPID
  5
52F
330
9
100
AcDbSymbolTableRecord
100
AcDbRegAppTableRecord
  2
GENIUS_GENHATCH_13
 70
     0
  0
APPID
  5
530
330
9
100
AcDbSymbolTableRecord
100
AcDbRegAppTableRecord
  2
GEVID1210896020
 70
     0
  0
APPID
  5
531
330
9
100
AcDbSymbolTableRecord
100
AcDbRegAppTableRecord
  2
GEVID1210896021
 70
     0
  0
APPID
  5
532
330
9
100
AcDbSymbolTableRecord
100
AcDbRegAppTableRecord
  2
GEVID1209083540
 70
     0
  0
APPID
  5
533
330
9
100
AcDbSymbolTableRecord
100
AcDbRegAppTableRecord
  2
GEVMK
 70
     0
  0
APPID
  5
534
330
9
100
AcDbSymbolTableRecord
100
AcDbRegAppTableRecord
  2
GEVID1209083542
 70
     0
  0
APPID
  5
535
330
9
100
AcDbSymbolTableRecord
100
AcDbRegAppTableRecord
  2
GEVID1209083543
 70
     0
  0
APPID
  5
536
330
9
100
AcDbSymbolTableRecord
100
AcDbRegAppTableRecord
  2
GEVID1209083544
 70
     0
  0
APPID
  5
537
330
9
100
AcDbSymbolTableRecord
100
AcDbRegAppTableRecord
  2
GEVID1209083545
 70
     0
  0
APPID
  5
538
330
9
100
AcDbSymbolTableRecord
100
AcDbRegAppTableRecord
  2
GEVID1209083546
 70
     0
  0
APPID
  5
539
330
9
100
AcDbSymbolTableRecord
100
AcDbRegAppTableRecord
  2
GEVID1209083547
 70
     0
  0
APPID
  5
53A
330
9
100
AcDbSymbolTableRecord
100
AcDbRegAppTableRecord
  2
GEVID1209083548
 70
     0
  0
APPID
  5
53B
330
9
100
AcDbSymbolTableRecord
100
AcDbRegAppTableRecord
  2
GEVID1209083549
 70
     0
  0
APPID
  5
53C
330
9
100
AcDbSymbolTableRecord
100
AcDbRegAppTableRecord
  2
GEVID1209083550
 70
     0
  0
APPID
  5
53D
330
9
100
AcDbSymbolTableRecord
100
AcDbRegAppTableRecord
  2
GEVID1209083551
 70
     0
  0
APPID
  5
53E
330
9
100
AcDbSymbolTableRecord
100
AcDbRegAppTableRecord
  2
GEVID1209083552
 70
     0
  0
APPID
  5
53F
330
9
100
AcDbSymbolTableRecord
100
AcDbRegAppTableRecord
  2
GEVID1209083553
 70
     0
  0
APPID
  5
540
330
9
100
AcDbSymbolTableRecord
100
AcDbRegAppTableRecord
  2
GEVID1210896022
 70
     0
  0
APPID
  5
541
330
9
100
AcDbSymbolTableRecord
100
AcDbRegAppTableRecord
  2
GEVID1211508364
 70
     0
  0
APPID
  5
542
330
9
100
AcDbSymbolTableRecord
100
AcDbRegAppTableRecord
  2
GEVID1211414908
 70
     0
  0
APPID
  5
543
330
9
100
AcDbSymbolTableRecord
100
AcDbRegAppTableRecord
  2
GEVID1211414909
 70
     0
  0
APPID
  5
544
330
9
100
AcDbSymbolTableRecord
100
AcDbRegAppTableRecord
  2
GEVID1211508359
 70
     0
  0
APPID
  5
545
330
9
100
AcDbSymbolTableRecord
100
AcDbRegAppTableRecord
  2
GEVID1211508360
 70
     0
  0
APPID
  5
546
330
9
100
AcDbSymbolTableRecord
100
AcDbRegAppTableRecord
  2
GEVID1211508361
 70
     0
  0
APPID
  5
547
330
9
100
AcDbSymbolTableRecord
100
AcDbRegAppTableRecord
  2
GEVID1211508362
 70
     0
  0
APPID
  5
548
330
9
100
AcDbSymbolTableRecord
100
AcDbRegAppTableRecord
  2
GEVID1211508363
 70
     0
  0
APPID
  5
549
330
9
100
AcDbSymbolTableRecord
100
AcDbRegAppTableRecord
  2
GEVID1211878469
 70
     0
  0
APPID
  5
54A
330
9
100
AcDbSymbolTableRecord
100
AcDbRegAppTableRecord
  2
GEVID1212642819
 70
     0
  0
APPID
  5
54B
330
9
100
AcDbSymbolTableRecord
100
AcDbRegAppTableRecord
  2
GEVID1212642820
 70
     0
  0
APPID
  5
54C
330
9
100
AcDbSymbolTableRecord
100
AcDbRegAppTableRecord
  2
GEVID1212642821
 70
     0
  0
APPID
  5
54D
330
9
100
AcDbSymbolTableRecord
100
AcDbRegAppTableRecord
  2
GEVID1212642822
 70
     0
  0
APPID
  5
54E
330
9
100
AcDbSymbolTableRecord
100
AcDbRegAppTableRecord
  2
GEVID1212642823
 70
     0
  0
APPID
  5
54F
330
9
100
AcDbSymbolTableRecord
100
AcDbRegAppTableRecord
  2
GEVID1212642825
 70
     0
  0
APPID
  5
550
330
9
100
AcDbSymbolTableRecord
100
AcDbRegAppTableRecord
  2
GEVID1212642826
 70
     0
  0
APPID
  5
551
330
9
100
AcDbSymbolTableRecord
100
AcDbRegAppTableRecord
  2
GEVID1212642827
 70
     0
  0
APPID
  5
552
330
9
100
AcDbSymbolTableRecord
100
AcDbRegAppTableRecord
  2
GEVID1212642828
 70
     0
  0
APPID
  5
553
330
9
100
AcDbSymbolTableRecord
100
AcDbRegAppTableRecord
  2
GEVID1212642831
 70
     0
  0
APPID
  5
554
330
9
100
AcDbSymbolTableRecord
100
AcDbRegAppTableRecord
  2
GEVID1212642834
 70
     0
  0
APPID
  5
555
330
9
100
AcDbSymbolTableRecord
100
AcDbRegAppTableRecord
  2
GEVID1212642835
 70
     0
  0
APPID
  5
556
330
9
100
AcDbSymbolTableRecord
100
AcDbRegAppTableRecord
  2
GEVID1212642836
 70
     0
  0
APPID
  5
557
330
9
100
AcDbSymbolTableRecord
100
AcDbRegAppTableRecord
  2
GEVID1212642837
 70
     0
  0
APPID
  5
558
330
9
100
AcDbSymbolTableRecord
100
AcDbRegAppTableRecord
  2
GEVID1212642839
 70
     0
  0
APPID
  5
559
330
9
100
AcDbSymbolTableRecord
100
AcDbRegAppTableRecord
  2
GEVID1212642840
 70
     0
  0
APPID
  5
55A
330
9
100
AcDbSymbolTableRecord
100
AcDbRegAppTableRecord
  2
GEVID1212642841
 70
     0
  0
APPID
  5
55B
330
9
100
AcDbSymbolTableRecord
100
AcDbRegAppTableRecord
  2
GEVID1212655312
 70
     0
  0
APPID
  5
55C
330
9
100
AcDbSymbolTableRecord
100
AcDbRegAppTableRecord
  2
GEVID1212655313
 70
     0
  0
APPID
  5
55D
330
9
100
AcDbSymbolTableRecord
100
AcDbRegAppTableRecord
  2
GEVID1212656533
 70
     0
  0
APPID
  5
55E
330
9
100
AcDbSymbolTableRecord
100
AcDbRegAppTableRecord
  2
GEVID1212656534
 70
     0
  0
APPID
  5
55F
330
9
100
AcDbSymbolTableRecord
100
AcDbRegAppTableRecord
  2
GEVID1212656535
 70
     0
  0
APPID
  5
560
330
9
100
AcDbSymbolTableRecord
100
AcDbRegAppTableRecord
  2
GEVID1212656536
 70
     0
  0
APPID
  5
561
330
9
100
AcDbSymbolTableRecord
100
AcDbRegAppTableRecord
  2
GEVID1212656538
 70
     0
  0
APPID
  5
562
330
9
100
AcDbSymbolTableRecord
100
AcDbRegAppTableRecord
  2
GEVID1212656541
 70
     0
  0
APPID
  5
563
330
9
100
AcDbSymbolTableRecord
100
AcDbRegAppTableRecord
  2
GEVID1212656543
 70
     0
  0
APPID
  5
564
330
9
100
AcDbSymbolTableRecord
100
AcDbRegAppTableRecord
  2
GENIUS_GENOBJ-F-PFASSM_13
 70
     0
  0
APPID
  5
565
330
9
100
AcDbSymbolTableRecord
100
AcDbRegAppTableRecord
  2
GEVID1212656544
 70
     0
  0
APPID
  5
566
330
9
100
AcDbSymbolTableRecord
100
AcDbRegAppTableRecord
  2
GEVID1212656545
 70
     0
  0
APPID
  5
567
330
9
100
AcDbSymbolTableRecord
100
AcDbRegAppTableRecord
  2
GEVID1212656546
 70
     0
  0
APPID
  5
568
330
9
100
AcDbSymbolTableRecord
100
AcDbRegAppTableRecord
  2
GEVID1212656547
 70
     0
  0
APPID
  5
569
330
9
100
AcDbSymbolTableRecord
100
AcDbRegAppTableRecord
  2
GEVID1212656548
 70
     0
  0
APPID
  5
56A
330
9
100
AcDbSymbolTableRecord
100
AcDbRegAppTableRecord
  2
GEVID1212656549
 70
     0
  0
APPID
  5
56B
330
9
100
AcDbSymbolTableRecord
100
AcDbRegAppTableRecord
  2
GEVID1212656550
 70
     0
  0
APPID
  5
56C
330
9
100
AcDbSymbolTableRecord
100
AcDbRegAppTableRecord
  2
GEVID1212656552
 70
     0
  0
APPID
  5
56D
330
9
100
AcDbSymbolTableRecord
100
AcDbRegAppTableRecord
  2
GEVID1212656553
 70
     0
  0
APPID
  5
56E
330
9
100
AcDbSymbolTableRecord
100
AcDbRegAppTableRecord
  2
GEVID1212656554
 70
     0
  0
APPID
  5
56F
330
9
100
AcDbSymbolTableRecord
100
AcDbRegAppTableRecord
  2
GEVID1212656555
 70
     0
  0
APPID
  5
570
330
9
100
AcDbSymbolTableRecord
100
AcDbRegAppTableRecord
  2
GEVID1212656556
 70
     0
  0
APPID
  5
571
330
9
100
AcDbSymbolTableRecord
100
AcDbRegAppTableRecord
  2
GEVID1212656557
 70
     0
  0
APPID
  5
572
330
9
100
AcDbSymbolTableRecord
100
AcDbRegAppTableRecord
  2
GEVID1212656559
 70
     0
  0
APPID
  5
573
330
9
100
AcDbSymbolTableRecord
100
AcDbRegAppTableRecord
  2
GEVID1212656560
 70
     0
  0
APPID
  5
574
330
9
100
AcDbSymbolTableRecord
100
AcDbRegAppTableRecord
  2
GEVID1212656561
 70
     0
  0
APPID
  5
575
330
9
100
AcDbSymbolTableRecord
100
AcDbRegAppTableRecord
  2
GEVID1212656562
 70
     0
  0
APPID
  5
576
330
9
100
AcDbSymbolTableRecord
100
AcDbRegAppTableRecord
  2
GEVID1212656563
 70
     0
  0
APPID
  5
577
330
9
100
AcDbSymbolTableRecord
100
AcDbRegAppTableRecord
  2
GEVID1212711781
 70
     0
  0
APPID
  5
578
330
9
100
AcDbSymbolTableRecord
100
AcDbRegAppTableRecord
  2
GEVID1212711782
 70
     0
  0
APPID
  5
579
330
9
100
AcDbSymbolTableRecord
100
AcDbRegAppTableRecord
  2
GEVID1212711783
 70
     0
  0
APPID
  5
57A
330
9
100
AcDbSymbolTableRecord
100
AcDbRegAppTableRecord
  2
GEVID1212711784
 70
     0
  0
APPID
  5
57B
330
9
100
AcDbSymbolTableRecord
100
AcDbRegAppTableRecord
  2
GEVID1212711788
 70
     0
  0
APPID
  5
57C
330
9
100
AcDbSymbolTableRecord
100
AcDbRegAppTableRecord
  2
GEVID1212711789
 70
     0
  0
APPID
  5
57D
330
9
100
AcDbSymbolTableRecord
100
AcDbRegAppTableRecord
  2
GEVID1212711790
 70
     0
  0
APPID
  5
57E
330
9
100
AcDbSymbolTableRecord
100
AcDbRegAppTableRecord
  2
GEVID1212711791
 70
     0
  0
APPID
  5
57F
330
9
100
AcDbSymbolTableRecord
100
AcDbRegAppTableRecord
  2
GEVID1212711792
 70
     0
  0
APPID
  5
580
330
9
100
AcDbSymbolTableRecord
100
AcDbRegAppTableRecord
  2
GEVID1212711793
 70
     0
  0
APPID
  5
581
330
9
100
AcDbSymbolTableRecord
100
AcDbRegAppTableRecord
  2
GEVID1212711794
 70
     0
  0
APPID
  5
582
330
9
100
AcDbSymbolTableRecord
100
AcDbRegAppTableRecord
  2
GEVID1212711795
 70
     0
  0
APPID
  5
583
330
9
100
AcDbSymbolTableRecord
100
AcDbRegAppTableRecord
  2
GEVID1212711797
 70
     0
  0
APPID
  5
584
330
9
100
AcDbSymbolTableRecord
100
AcDbRegAppTableRecord
  2
GEVID1212711798
 70
     0
  0
APPID
  5
585
330
9
100
AcDbSymbolTableRecord
100
AcDbRegAppTableRecord
  2
GEVID1212711799
 70
     0
  0
APPID
  5
586
330
9
100
AcDbSymbolTableRecord
100
AcDbRegAppTableRecord
  2
GEVID1212711800
 70
     0
  0
APPID
  5
587
330
9
100
AcDbSymbolTableRecord
100
AcDbRegAppTableRecord
  2
GEVID1212711801
 70
     0
  0
APPID
  5
588
330
9
100
AcDbSymbolTableRecord
100
AcDbRegAppTableRecord
  2
GEVID1212711802
 70
     0
  0
APPID
  5
589
330
9
100
AcDbSymbolTableRecord
100
AcDbRegAppTableRecord
  2
GEVID1212711803
 70
     0
  0
APPID
  5
58A
330
9
100
AcDbSymbolTableRecord
100
AcDbRegAppTableRecord
  2
GEVID1212711804
 70
     0
  0
APPID
  5
58B
330
9
100
AcDbSymbolTableRecord
100
AcDbRegAppTableRecord
  2
GEVID1212711805
 70
     0
  0
APPID
  5
58C
330
9
100
AcDbSymbolTableRecord
100
AcDbRegAppTableRecord
  2
GEVID1212711806
 70
     0
  0
APPID
  5
58D
330
9
100
AcDbSymbolTableRecord
100
AcDbRegAppTableRecord
  2
GEVID1212711807
 70
     0
  0
APPID
  5
58E
330
9
100
AcDbSymbolTableRecord
100
AcDbRegAppTableRecord
  2
GEVID1212711808
 70
     0
  0
APPID
  5
58F
330
9
100
AcDbSymbolTableRecord
100
AcDbRegAppTableRecord
  2
GEVID1212711809
 70
     0
  0
APPID
  5
590
330
9
100
AcDbSymbolTableRecord
100
AcDbRegAppTableRecord
  2
GEVID1212711810
 70
     0
  0
APPID
  5
591
330
9
100
AcDbSymbolTableRecord
100
AcDbRegAppTableRecord
  2
GEVID1212711811
 70
     0
  0
APPID
  5
90A
330
9
100
AcDbSymbolTableRecord
100
AcDbRegAppTableRecord
  2
GENIUS_GENTRA_14
 70
     0
  0
APPID
  5
919
330
9
100
AcDbSymbolTableRecord
100
AcDbRegAppTableRecord
  2
GENIUS_GENOBJ-N-TIT_13
 70
     0
  0
APPID
  5
91A
330
9
100
AcDbSymbolTableRecord
100
AcDbRegAppTableRecord
  2
GENIUS_GENTITLE_13
 70
     0
  0
APPID
  5
949
330
9
100
AcDbSymbolTableRecord
100
AcDbRegAppTableRecord
  2
GENIUS_GENBLLY_14
 70
     0
  0
APPID
  5
DDD
330
9
100
AcDbSymbolTableRecord
100
AcDbRegAppTableRecord
  2
GEVID1213165152
 70
     0
  0
APPID
  5
12F9
330
9
100
AcDbSymbolTableRecord
100
AcDbRegAppTableRecord
  2
AcDbDynamicBlockTrueName
 70
     0
  0
APPID
  5
12FA
330
9
100
AcDbSymbolTableRecord
100
AcDbRegAppTableRecord
  2
ACDBBLOCKREPETAG
 70
     0
  0
APPID
  5
1C15
330
9
100
AcDbSymbolTableRecord
100
AcDbRegAppTableRecord
  2
GEVID1214872427
 70
     0
  0
APPID
  5
1C2A
330
9
100
AcDbSymbolTableRecord
100
AcDbRegAppTableRecord
  2
GEVID1214872428
 70
     0
  0
APPID
  5
1C2F
330
9
100
AcDbSymbolTableRecord
100
AcDbRegAppTableRecord
  2
GEVID1214872429
 70
     0
  0
APPID
  5
1C33
330
9
100
AcDbSymbolTableRecord
100
AcDbRegAppTableRecord
  2
GEVID1214872430
 70
     0
  0
APPID
  5
1C3F
330
9
100
AcDbSymbolTableRecord
100
AcDbRegAppTableRecord
  2
GEVID1214872432
 70
     0
  0
APPID
  5
1C4E
330
9
100
AcDbSymbolTableRecord
100
AcDbRegAppTableRecord
  2
GEVID1214872433
 70
     0
  0
APPID
  5
20DC
330
9
100
AcDbSymbolTableRecord
100
AcDbRegAppTableRecord
  2
AcDbDynamicBlockGUID
 70
     0
  0
APPID
  5
20FD
330
9
100
AcDbSymbolTableRecord
100
AcDbRegAppTableRecord
  2
GENIUS_GENOBJ-N-REV_13
 70
     0
  0
APPID
  5
20FE
330
9
100
AcDbSymbolTableRecord
100
AcDbRegAppTableRecord
  2
GENIUS_GENOBJ-N-RSSYM_13
 70
     0
  0
APPID
  5
20FF
330
9
100
AcDbSymbolTableRecord
100
AcDbRegAppTableRecord
  2
GENIUS_GENSYMENT_13
 70
     0
  0
APPID
  5
2100
330
9
100
AcDbSymbolTableRecord
100
AcDbRegAppTableRecord
  2
GENIUS_GENSCSYM_13
 70
     0
  0
APPID
  5
4DB3
330
9
100
AcDbSymbolTableRecord
100
AcDbRegAppTableRecord
  2
GEVID1237450082
 70
     0
  0
APPID
  5
5310
330
9
100
AcDbSymbolTableRecord
100
AcDbRegAppTableRecord
  2
GEVID1237450083
 70
     0
  0
ENDTAB
  0
TABLE
  2
DIMSTYLE
  5
A
330
0
100
AcDbSymbolTable
 70
    29
100
AcDbDimStyleTable
 71
     1
340
5AB
  0
DIMSTYLE
105
5AB
330
A
100
AcDbSymbolTableRecord
100
AcDbDimStyleTableRecord
  2
SEISA
 70
     0
  4
"
 40
3.0
 41
2.5
 42
0.625
 43
10.0
 44
0.625
 47
0.1
 48
0.1
 73
     0
 74
     0
 77
     3
 78
     8
 79
     2
 90
     1
140
3.5
141
0.0
143
0.0393701
146
0.71
147
1.5
172
     1
176
     3
177
     3
178
     3
271
     2
272
     2
283
     0
286
     8
340
5D5
341
69
342
69
371
    -1
372
    -1
1001
ACAD_DSTYLE_DIMJAG
1070
   388
1040
1.5
1001
ACAD_DSTYLE_DIMTALN
1070
   392
1070
     1
  0
DIMSTYLE
105
5E9
102
{ACAD_REACTORS
330
4E06
330
4E4A
330
4E62
330
4E7E
330
4F2C
330
4FF1
330
501B
330
5033
330
50B7
330
50D3
330
5116
330
512E
330
5146
330
515E
330
6EF1
330
6FD1
330
701B
102
}
330
A
100
AcDbSymbolTableRecord
100
AcDbDimStyleTableRecord
  2
SEISA$0
 70
     0
  4
"
 40
3.0
 41
2.5
 42
0.625
 43
10.0
 44
0.625
 47
0.1
 48
0.1
 73
     0
 74
     0
 77
     3
 78
     8
 79
     2
 90
     1
140
3.5
141
0.0
143
0.0393701
146
0.71
147
1.5
172
     1
176
     3
177
     3
178
     3
271
     2
272
     2
283
     0
286
     8
340
5D5
341
69
342
69
371
    -1
372
    -1
  0
DIMSTYLE
105
7200
330
A
100
AcDbSymbolTableRecord
100
AcDbDimStyleTableRecord
  2
AM_ISO
 70
     0
  4
"
 41
2.5
 42
1.0
 43
10.0
 44
1.0
 47
0.1
 48
0.1
 73
     0
 74
     0
 77
     1
 78
     8
 79
     2
 90
     1
140
3.5
141
0.0
143
0.0393701
146
0.71
147
1.5
172
     1
176
   256
177
   256
178
     2
271
     2
272
     3
274
     4
283
     0
284
     8
340
11
371
    -1
372
    -1
  0
DIMSTYLE
105
7201
330
A
100
AcDbSymbolTableRecord
100
AcDbDimStyleTableRecord
  2
AM_ISO$3
 70
     0
  4
"
 41
2.5
 42
1.0
 43
10.0
 44
1.0
 47
0.1
 48
0.1
 73
     0
 77
     1
 78
     8
 79
     2
 90
     1
140
3.5
141
0.0
143
0.0393701
146
0.71
147
1.5
176
   256
177
   256
178
     2
271
     2
272
     3
274
     4
283
     0
284
     8
288
     1
289
     0
340
11
371
    -1
372
    -1
  0
DIMSTYLE
105
7202
330
A
100
AcDbSymbolTableRecord
100
AcDbDimStyleTableRecord
  2
AM_ISO$4
 70
     0
  4
"
 41
2.5
 42
1.0
 43
10.0
 44
1.0
 47
0.1
 48
0.1
 73
     0
 77
     1
 78
     8
 79
     2
 90
     1
140
3.5
141
0.0
143
0.0393701
146
0.71
147
1.5
176
   256
177
   256
178
     2
271
     2
272
     3
274
     4
283
     0
284
     8
288
     1
289
     0
340
11
371
    -1
372
    -1
  0
DIMSTYLE
105
7203
330
A
100
AcDbSymbolTableRecord
100
AcDbDimStyleTableRecord
  2
AM_ISO$6
 70
     0
  4
"
 41
2.5
 42
1.0
 43
10.0
 44
1.0
 47
0.1
 48
0.1
 73
     0
 74
     0
 78
     8
 79
     2
 90
     1
140
3.5
141
0.0
143
0.0393701
146
0.71
147
1.5
172
     1
176
   256
177
   256
178
     2
271
     2
272
     3
274
     4
283
     0
284
     8
340
11
371
    -1
372
    -1
  0
DIMSTYLE
105
7204
330
A
100
AcDbSymbolTableRecord
100
AcDbDimStyleTableRecord
  2
AM_ISO$7
 70
     0
  4
"
 41
2.5
 42
1.0
 43
10.0
 44
1.0
 47
0.1
 48
0.1
 73
     0
 74
     0
 77
     1
 78
     8
 79
     2
 90
     1
140
5.0
141
0.0
143
0.0393701
146
0.71
147
1.5
172
     1
176
   256
177
   256
178
     2
271
     2
272
     3
274
     4
283
     0
284
     8
340
11
371
    -1
372
    -1
  0
DIMSTYLE
105
7205
330
A
100
AcDbSymbolTableRecord
100
AcDbDimStyleTableRecord
  2
AM_ISO$SF
 70
     0
  4
"
 41
2.5
 42
1.0
 43
10.0
 44
1.0
 47
0.1
 48
0.1
 73
     0
 74
     0
 75
     1
 76
     1
 77
     1
 78
     8
 79
     2
 90
     1
140
3.5
141
0.0
143
0.0393701
146
0.71
147
1.5
172
     1
176
   256
177
   256
178
     2
271
     2
272
     3
274
     4
283
     0
284
     8
340
11
371
    -1
372
    -1
  0
DIMSTYLE
105
7206
330
A
100
AcDbSymbolTableRecord
100
AcDbDimStyleTableRecord
  2
AM_ISO$SH
 70
     0
  4
"
 41
2.5
 42
1.0
 43
10.0
 44
1.0
 47
0.1
 48
0.1
 73
     0
 74
     0
 75
     1
 76
     1
 77
     1
 78
     8
 79
     2
 90
     1
140
3.5
141
0.0
143
0.0393701
144
2.0
146
0.71
147
1.5
172
     1
173
     1
176
   256
177
   256
178
     2
271
     2
272
     3
274
     4
283
     0
284
     8
340
11
343
74
371
    -1
372
    -1
  0
ENDTAB
  0
TABLE
  2
BLOCK_RECORD
  5
1
330
0
100
AcDbSymbolTable
 70
    31
  0
BLOCK_RECORD
  5
1F
102
{ACAD_XDICTIONARY
360
82
102
}
330
1
100
AcDbSymbolTableRecord
100
AcDbBlockTableRecord
  2
*Model_Space
340
22
 70
     0
280
     1
281
     0
  0
BLOCK_RECORD
  5
1B
330
1
100
AcDbSymbolTableRecord
100
AcDbBlockTableRecord
  2
*Paper_Space
340
1E
 70
     0
280
     1
281
     0
  0
BLOCK_RECORD
  5
23
330
1
100
AcDbSymbolTableRecord
100
AcDbBlockTableRecord
  2
*Paper_Space0
340
26
 70
     0
280
     1
281
     0
  0
BLOCK_RECORD
  5
69
330
1
100
AcDbSymbolTableRecord
100
AcDbBlockTableRecord
  2
_Open30
340
0
102
{BLKREFS
331
6ADA
331
6ADB
331
6AE3
331
6AE4
331
6AEF
331
6AF0
331
6AF7
331
6AF8
331
6B02
331
6B03
331
6B12
331
6B13
331
6B1B
331
6B1C
331
6B24
331
6B25
331
6B31
331
6B3B
331
6B42
331
6B43
331
6B4B
331
6B4C
331
6B54
331
6B55
331
6B5D
331
6B5E
331
6F1D
331
6F1E
331
703F
331
7040
331
704D
331
704E
102
}
 70
     0
280
     1
281
     0
  0
BLOCK_RECORD
  5
74
330
1
100
AcDbSymbolTableRecord
100
AcDbBlockTableRecord
  2
GENAXEH
340
0
 70
     0
280
     1
281
     0
  0
BLOCK_RECORD
  5
3488
102
{ACAD_XDICTIONARY
360
3489
102
}
330
1
100
AcDbSymbolTableRecord
100
AcDbBlockTableRecord
  2
ロッカクアナツキプラグ R1／4
340
0
310
2800000020000000200000000100080000000000000400000000000000000000000000000000000000000000000080000080000000808000800000008000800080800000C0C0C000C0DCC000F0CAA6000020400000206000002080000020A0000020C0000020E00000400000004020000040400000406000004080000040A0
310
000040C0000040E00000600000006020000060400000606000006080000060A0000060C0000060E00000800000008020000080400000806000008080000080A0000080C0000080E00000A0000000A0200000A0400000A0600000A0800000A0A00000A0C00000A0E00000C0000000C0200000C0400000C0600000C0800000C0
310
A00000C0C00000C0E00000E0000000E0200000E0400000E0600000E0800000E0A00000E0C00000E0E00040000000400020004000400040006000400080004000A0004000C0004000E00040200000402020004020400040206000402080004020A0004020C0004020E000404000004040200040404000404060004040800040
310
40A0004040C0004040E00040600000406020004060400040606000406080004060A0004060C0004060E00040800000408020004080400040806000408080004080A0004080C0004080E00040A0000040A0200040A0400040A0600040A0800040A0A00040A0C00040A0E00040C0000040C0200040C0400040C0600040C08000
310
40C0A00040C0C00040C0E00040E0000040E0200040E0400040E0600040E0800040E0A00040E0C00040E0E00080000000800020008000400080006000800080008000A0008000C0008000E00080200000802020008020400080206000802080008020A0008020C0008020E00080400000804020008040400080406000804080
310
008040A0008040C0008040E00080600000806020008060400080606000806080008060A0008060C0008060E00080800000808020008080400080806000808080008080A0008080C0008080E00080A0000080A0200080A0400080A0600080A0800080A0A00080A0C00080A0E00080C0000080C0200080C0400080C0600080C0
310
800080C0A00080C0C00080C0E00080E0000080E0200080E0400080E0600080E0800080E0A00080E0C00080E0E000C0000000C0002000C0004000C0006000C0008000C000A000C000C000C000E000C0200000C0202000C0204000C0206000C0208000C020A000C020C000C020E000C0400000C0402000C0404000C0406000C0
310
408000C040A000C040C000C040E000C0600000C0602000C0604000C0606000C0608000C060A000C060C000C060E000C0800000C0802000C0804000C0806000C0808000C080A000C080C000C080E000C0A00000C0A02000C0A04000C0A06000C0A08000C0A0A000C0A0C000C0A0E000C0C00000C0C02000C0C04000C0C06000
310
C0C08000C0C0A000F0FBFF00A4A0A000808080000000FF0000FF000000FFFF00FF000000FF00FF00FFFF0000FFFFFF00000000000000000000000000000000000000000000000000000000000000000000000000000000000000000000000000F9000000000000000000000000000000000000000000000000000000000000
310
00F9000000000000000000000000000000000000000000000000000000000000FFF9000000000000000000000000000000000000000000000000000000FFFFFF00F9FFFFFF00000000000000000000000000000000000000000000FFFFFEFEFEFEF9FEFEFEFEFF000000000000000000000000000000000000FFFFFEFE0000
310
0000F900000000FEFFFF000000000000000000000000000000FF00FE000000000000F90000000000FE00FF00000000000000000000000000FF00FE00000000000000F9000000000000FEFEFF000000000000000000000000FFFE0000000000000000F900000000000000FE00FF00000000000000000000FFFE000000000000
310
000000FF0000000000000000FEFF00000000000000000000FFFE00000000000000FFFFF9FF00000000000000FEFF000000000000000000FFFE000000000000FFFF0000F900FFFF000000000000FEFF0000000000000000FFFE0000000000FF00000000F9000000FF0000000000FEFF0000000000000000FFFE0000000000FF
310
00000000F9000000FF0000000000FE00FF00000000F9F9F9F9F9F9F9F9F9F9FFF9F9F9F9F9F9F9F9FFF9F9F9F9F9F9F9F9F9F900000000FF00FE0000000000FF00000000F9000000FF0000000000FE00FF00000000000000FFFE0000000000FF00000000F9000000FF0000000000FEFF0000000000000000FFFE0000000000
310
FF00000000F9000000FF0000000000FEFF0000000000000000FFFE000000000000FFFF0000F90000FF000000000000FEFF000000000000000000FFFE00000000000000FFFFF9FFFF000000000000FEFF00000000000000000000FFFE000000000000000000FF0000000000000000FEFF0000000000000000000000FFFE0000
310
000000000000F900000000000000FE00FF0000000000000000000000FF00FE00000000000000F900000000000000FEFF00000000000000000000000000FF00FE000000000000F90000000000FEFEFF000000000000000000000000000000FF00FE0000000000F900000000FE00FF0000000000000000000000000000000000
310
FFFFFEFEFEFEFEF9FEFEFEFEFFFF000000000000000000000000000000000000000000FFFFFF00F900FFFF000000000000000000000000000000000000000000000000000000FFF9FF000000000000000000000000000000000000000000000000000000000000F90000000000000000000000000000000000000000000000
310
0000000000000000F90000000000000000000000000000000000000000000000000000000000000000000000000000000000000000000000
102
{BLKREFS
331
46D9
102
}
 70
     4
280
     1
281
     0
  0
BLOCK_RECORD
  5
469C
102
{ACAD_XDICTIONARY
360
4755
102
}
330
1
100
AcDbSymbolTableRecord
100
AcDbBlockTableRecord
  2
ケースＡ SEM280
340
0
310
2800000020000000200000000100080000000000000400000000000000000000000000000000000000000000000080000080000000808000800000008000800080800000C0C0C000C0DCC000F0CAA6000020400000206000002080000020A0000020C0000020E00000400000004020000040400000406000004080000040A0
310
000040C0000040E00000600000006020000060400000606000006080000060A0000060C0000060E00000800000008020000080400000806000008080000080A0000080C0000080E00000A0000000A0200000A0400000A0600000A0800000A0A00000A0C00000A0E00000C0000000C0200000C0400000C0600000C0800000C0
310
A00000C0C00000C0E00000E0000000E0200000E0400000E0600000E0800000E0A00000E0C00000E0E00040000000400020004000400040006000400080004000A0004000C0004000E00040200000402020004020400040206000402080004020A0004020C0004020E000404000004040200040404000404060004040800040
310
40A0004040C0004040E00040600000406020004060400040606000406080004060A0004060C0004060E00040800000408020004080400040806000408080004080A0004080C0004080E00040A0000040A0200040A0400040A0600040A0800040A0A00040A0C00040A0E00040C0000040C0200040C0400040C0600040C08000
310
40C0A00040C0C00040C0E00040E0000040E0200040E0400040E0600040E0800040E0A00040E0C00040E0E00080000000800020008000400080006000800080008000A0008000C0008000E00080200000802020008020400080206000802080008020A0008020C0008020E00080400000804020008040400080406000804080
310
008040A0008040C0008040E00080600000806020008060400080606000806080008060A0008060C0008060E00080800000808020008080400080806000808080008080A0008080C0008080E00080A0000080A0200080A0400080A0600080A0800080A0A00080A0C00080A0E00080C0000080C0200080C0400080C0600080C0
310
800080C0A00080C0C00080C0E00080E0000080E0200080E0400080E0600080E0800080E0A00080E0C00080E0E000C0000000C0002000C0004000C0006000C0008000C000A000C000C000C000E000C0200000C0202000C0204000C0206000C0208000C020A000C020C000C020E000C0400000C0402000C0404000C0406000C0
310
408000C040A000C040C000C040E000C0600000C0602000C0604000C0606000C0608000C060A000C060C000C060E000C0800000C0802000C0804000C0806000C0808000C080A000C080C000C080E000C0A00000C0A02000C0A04000C0A06000C0A08000C0A0A000C0A0C000C0A0E000C0C00000C0C02000C0C04000C0C06000
310
C0C08000C0C0A000F0FBFF00A4A0A000808080000000FF0000FF000000FFFF00FF000000FF00FF00FFFF0000FFFFFF00000000000000000000000000000000000000000000000000000000000000000000000000000000000000000000FFFFFF0000000000000000000000000000000000000000000000000000000000FF00
310
FF0000000000000000000000000000000000000000000000000000000000FF00FF0000000000000000000000000000000000000000000000000000000000FF00FFFFFFFFFFFFFF0000000000000000000000000000000000000000000000FF00FF0000000000FF0000000000000000000000000000000000000000000000FF
310
00FF0000000000FF0000000000000000000000000000000000000000000000FF00FF0000000000FF0000000000000000000000000000000000000000000000FF00FF0000000000FF0000000000000000000000000000000000000000000000FF00FF0000000000FF0000000000000000000000000000000000000000000000
310
FF00FF0000000000FF0000000000000000000000000000000000000000000000FFF9FF0000000000FF0000000000000000000000000000000000000000000000F9FFF90000000000FF0000000000000000000000000000000000000000000000FFF9FE0000000000FF00000000000000000000000000000000000000000000
310
00FF00FF0000000000FF0000000000000000000000000000000000000000000000FF00FF0000000000FF0000000000000000000000000000000000000000000000FF00FF0000000000FF0000000000000000000000000000000000000000000000000000000000000000000000000000000000000000000000000000000000
310
00000000000000000000000000000000000000000000000000000000000000000000000000000000000000000000000000000000000000000000000000000000000000000000000000000000000000000000000000000000000000000000000000000000000000000000000000000000000000000000000000000000000000
310
00000000000000000000000000000000000000000000000000000000000000000000000000000000000000000000000000000000000000000000000000000000000000000000000000000000000000000000000000000000000000000000000000000000000000000000FFFF00000000000000000000000000000000000000
310
00000000FFFFFFFFFFFFFFFFFF0000000000000000000000000000000000000000000000FF00FFFFFFFFFFFFFF0000000000000000000000000000000000000000F9FFFFFFFFFFF9F9F9000000000000000000000000000000000000000000000000FFFFFFFFFF000000000000000000000000000000000000000000000000
310
0000000000FFFFFF000000000000000000000000000000000000000000000000000000000000000000000000000000000000000000000000
102
{BLKREFS
331
480A
102
}
 70
     4
280
     1
281
     0
  0
BLOCK_RECORD
  5
47BA
102
{ACAD_XDICTIONARY
360
483F
102
}
330
1
100
AcDbSymbolTableRecord
100
AcDbBlockTableRecord
  2
リジット SEM280
340
0
310
2800000020000000200000000100080000000000000400000000000000000000000000000000000000000000000080000080000000808000800000008000800080800000C0C0C000C0DCC000F0CAA6000020400000206000002080000020A0000020C0000020E00000400000004020000040400000406000004080000040A0
310
000040C0000040E00000600000006020000060400000606000006080000060A0000060C0000060E00000800000008020000080400000806000008080000080A0000080C0000080E00000A0000000A0200000A0400000A0600000A0800000A0A00000A0C00000A0E00000C0000000C0200000C0400000C0600000C0800000C0
310
A00000C0C00000C0E00000E0000000E0200000E0400000E0600000E0800000E0A00000E0C00000E0E00040000000400020004000400040006000400080004000A0004000C0004000E00040200000402020004020400040206000402080004020A0004020C0004020E000404000004040200040404000404060004040800040
310
40A0004040C0004040E00040600000406020004060400040606000406080004060A0004060C0004060E00040800000408020004080400040806000408080004080A0004080C0004080E00040A0000040A0200040A0400040A0600040A0800040A0A00040A0C00040A0E00040C0000040C0200040C0400040C0600040C08000
310
40C0A00040C0C00040C0E00040E0000040E0200040E0400040E0600040E0800040E0A00040E0C00040E0E00080000000800020008000400080006000800080008000A0008000C0008000E00080200000802020008020400080206000802080008020A0008020C0008020E00080400000804020008040400080406000804080
310
008040A0008040C0008040E00080600000806020008060400080606000806080008060A0008060C0008060E00080800000808020008080400080806000808080008080A0008080C0008080E00080A0000080A0200080A0400080A0600080A0800080A0A00080A0C00080A0E00080C0000080C0200080C0400080C0600080C0
310
800080C0A00080C0C00080C0E00080E0000080E0200080E0400080E0600080E0800080E0A00080E0C00080E0E000C0000000C0002000C0004000C0006000C0008000C000A000C000C000C000E000C0200000C0202000C0204000C0206000C0208000C020A000C020C000C020E000C0400000C0402000C0404000C0406000C0
310
408000C040A000C040C000C040E000C0600000C0602000C0604000C0606000C0608000C060A000C060C000C060E000C0800000C0802000C0804000C0806000C0808000C080A000C080C000C080E000C0A00000C0A02000C0A04000C0A06000C0A08000C0A0A000C0A0C000C0A0E000C0C00000C0C02000C0C04000C0C06000
310
C0C08000C0C0A000F0FBFF00A4A0A000808080000000FF0000FF000000FFFF00FF000000FF00FF00FFFF0000FFFFFF0000000000000000000000000000000000000000000000000000000000000000000000000000000000000000000000000000FFFFFFFFFF00000000000000000000000000000000000000000000000000
310
0000FF00FF00FF0000000000000000000000000000000000000000000000000000F9F9F9FFF9FF0000000000000000000000000000000000000000000000000000FFFF00FF00FFFFFFFFFFFFFF0000000000000000FFFFFFFFFFFFFFFFFFFFFFFFFFFF00FF00FF0000000000FF0000000000000000FF000000000000000000
310
00FF00FF00FF00FF0000000000FF0000000000000000FF00000000000000000000FF00FF00FF00FF0000000000FF0000000000000000FF00000000000000000000FF00FF00FF00FF0000000000FF0000000000000000FF00000000000000000000FF00FF00FF00FF0000000000FF0000000000000000FF0000000000000000
310
0000FF00FF00FF00FF0000000000FF0000000000000000FF00000000000000000000FF00FF00FFF9FF0000000000FF0000000000000000FF00000000000000000000FF00FF00F9FFF90000000000FF0000000000000000FF00000000000000000000FF00FF00FFF9FF0000000000FF0000000000000000FF00000000000000
310
000000FF00FF00FF00FF0000000000FF0000000000000000FF00000000000000000000FF00FF00FF00FF0000000000FF0000000000000000FF000000000000000000A4A4A4A4A4FF00FF0000000000FF0000000000000000FF00000000000000000000000000FF0000000000000000000000000000000000FF000000000000
310
00000000000000FF0000000000000000000000000000000000FF00000000000000000000000000FF0000000000000000000000000000000000FFFFFFFFFFFFFFFFFFFFFFFFFFFFFF0000000000000000000000000000000000FFFFFFFFFFFFFFFFFFFFFFFFFFFFFF0000000000000000000000000000000000FF0000000000
310
0000000000000000FF0000000000000000000000000000000000FF00000000000000000000000000FF0000000000000000000000000000000000FF00000000000000000000000000FF0000000000000000000000000000000000FF00000000000000000000000000FF000000000000FFFFFF0000000000000000FFFFFFFFFF
310
FFFFFFFFFFFFFFFF00FFFFFFFFFFFFFFFFFFFF0000000000000000000000000000000000000000FFFFFFFF00FFFFFFFFFFFFFF00000000000000000000000000000000000000F9F9F9F9FFFFFFF9F900000000000000000000000000000000000000000000000000FF00FFFFFF000000000000000000000000000000000000
310
000000000000000000FFFFFFFFFF000000000000000000000000000000000000000000000000000000000000000000000000000000000000
102
{BLKREFS
331
47E3
102
}
 70
     4
280
     1
281
     0
  0
BLOCK_RECORD
  5
49AD
102
{ACAD_XDICTIONARY
360
60F8
102
}
330
1
100
AcDbSymbolTableRecord
100
AcDbBlockTableRecord
  2
センタ SEM280
340
0
310
2800000020000000200000000100080000000000000400000000000000000000000000000000000000000000000080000080000000808000800000008000800080800000C0C0C000C0DCC000F0CAA6000020400000206000002080000020A0000020C0000020E00000400000004020000040400000406000004080000040A0
310
000040C0000040E00000600000006020000060400000606000006080000060A0000060C0000060E00000800000008020000080400000806000008080000080A0000080C0000080E00000A0000000A0200000A0400000A0600000A0800000A0A00000A0C00000A0E00000C0000000C0200000C0400000C0600000C0800000C0
310
A00000C0C00000C0E00000E0000000E0200000E0400000E0600000E0800000E0A00000E0C00000E0E00040000000400020004000400040006000400080004000A0004000C0004000E00040200000402020004020400040206000402080004020A0004020C0004020E000404000004040200040404000404060004040800040
310
40A0004040C0004040E00040600000406020004060400040606000406080004060A0004060C0004060E00040800000408020004080400040806000408080004080A0004080C0004080E00040A0000040A0200040A0400040A0600040A0800040A0A00040A0C00040A0E00040C0000040C0200040C0400040C0600040C08000
310
40C0A00040C0C00040C0E00040E0000040E0200040E0400040E0600040E0800040E0A00040E0C00040E0E00080000000800020008000400080006000800080008000A0008000C0008000E00080200000802020008020400080206000802080008020A0008020C0008020E00080400000804020008040400080406000804080
310
008040A0008040C0008040E00080600000806020008060400080606000806080008060A0008060C0008060E00080800000808020008080400080806000808080008080A0008080C0008080E00080A0000080A0200080A0400080A0600080A0800080A0A00080A0C00080A0E00080C0000080C0200080C0400080C0600080C0
310
800080C0A00080C0C00080C0E00080E0000080E0200080E0400080E0600080E0800080E0A00080E0C00080E0E000C0000000C0002000C0004000C0006000C0008000C000A000C000C000C000E000C0200000C0202000C0204000C0206000C0208000C020A000C020C000C020E000C0400000C0402000C0404000C0406000C0
310
408000C040A000C040C000C040E000C0600000C0602000C0604000C0606000C0608000C060A000C060C000C060E000C0800000C0802000C0804000C0806000C0808000C080A000C080C000C080E000C0A00000C0A02000C0A04000C0A06000C0A08000C0A0A000C0A0C000C0A0E000C0C00000C0C02000C0C04000C0C06000
310
C0C08000C0C0A000F0FBFF00A4A0A000808080000000FF0000FF000000FFFF00FF000000FF00FF00FFFF0000FFFFFF00000000000000000000000000000000000000000000000000000000000000000000000000000000000000000000000000FFFFFFFF000000000000000000000000000000000000000000000000000000
310
00000000FFFFFFFFFFFFFF00000000000000000000000000000000000000000000000000FF0000000000FF00000000000000000000000000000000000000000000000000FF0000000000FF00000000000000000000000000000000000000000000000000FF0000000000FF0000000000000000000000000000000000000000
310
0000000000FF0000000000FF00000000000000000000000000000000000000000000000000FF0000000000FF00000000000000000000000000000000000000000000000000FF0000000000FF00000000000000000000000000000000000000000000000000FF0000000000FF00000000000000000000000000000000000000
310
000000000000FF0000000000FF00000000000000000000000000000000000000000000000000FF0000000000FF00000000000000000000000000000000000000000000000000FF0000000000FF00000000000000000000000000000000000000000000000000FF0000000000FF000000000000000000000000FF000000A4A4
310
00000000000000FF0000000000FF000000000000000000000000A4A4A4A4A40000000000000000000000000000FF000000000000000000000000FF000000000000000000000000000000000000FF000000000000000000000000FF000000000000000000000000000000000000FF000000000000000000000000FF00000000
310
0000000000000000000000000000FF000000000000000000000000FF000000000000000000000000000000000000FF000000000000000000000000FF000000000000000000000000000000000000FF000000000000000000000000FFFFFFFFFFFFFFFFFFFFFFFFFFFFFFFFFFFFFFFF000000000000000000000000FF000000
310
000000000000000000000000000000FF000000000000000000000000FF000000000000000000000000000000000000FF000000000000000000000000FF000000000000000000000000000000000000FF000000000000000000000000FF000000000000000000000000000000000000FF000000000000000000000000FF0000
310
00000000000000000000000000000000FF000000000000000000000000FFFFFFFF00F900000000000000FFFFFFFFFFFFFF000000000000000000000000000000FFFFF9FFFFF9FFFFFFFFFF000000000000000000000000000000000000000000FFFFF9FFFF0000000000000000000000000000000000000000000000000000
310
000000F900000000000000000000000000000000000000000000000000000000000000000000000000000000000000000000000000000000
102
{BLKREFS
331
49D3
102
}
 70
     4
280
     1
281
     0
  0
BLOCK_RECORD
  5
4BC7
102
{ACAD_XDICTIONARY
360
4C57
102
}
330
1
100
AcDbSymbolTableRecord
100
AcDbBlockTableRecord
  2
リーマボルト SEM280 M12
340
0
310
2800000020000000200000000100080000000000000400000000000000000000000000000000000000000000000080000080000000808000800000008000800080800000C0C0C000C0DCC000F0CAA6000020400000206000002080000020A0000020C0000020E00000400000004020000040400000406000004080000040A0
310
000040C0000040E00000600000006020000060400000606000006080000060A0000060C0000060E00000800000008020000080400000806000008080000080A0000080C0000080E00000A0000000A0200000A0400000A0600000A0800000A0A00000A0C00000A0E00000C0000000C0200000C0400000C0600000C0800000C0
310
A00000C0C00000C0E00000E0000000E0200000E0400000E0600000E0800000E0A00000E0C00000E0E00040000000400020004000400040006000400080004000A0004000C0004000E00040200000402020004020400040206000402080004020A0004020C0004020E000404000004040200040404000404060004040800040
310
40A0004040C0004040E00040600000406020004060400040606000406080004060A0004060C0004060E00040800000408020004080400040806000408080004080A0004080C0004080E00040A0000040A0200040A0400040A0600040A0800040A0A00040A0C00040A0E00040C0000040C0200040C0400040C0600040C08000
310
40C0A00040C0C00040C0E00040E0000040E0200040E0400040E0600040E0800040E0A00040E0C00040E0E00080000000800020008000400080006000800080008000A0008000C0008000E00080200000802020008020400080206000802080008020A0008020C0008020E00080400000804020008040400080406000804080
310
008040A0008040C0008040E00080600000806020008060400080606000806080008060A0008060C0008060E00080800000808020008080400080806000808080008080A0008080C0008080E00080A0000080A0200080A0400080A0600080A0800080A0A00080A0C00080A0E00080C0000080C0200080C0400080C0600080C0
310
800080C0A00080C0C00080C0E00080E0000080E0200080E0400080E0600080E0800080E0A00080E0C00080E0E000C0000000C0002000C0004000C0006000C0008000C000A000C000C000C000E000C0200000C0202000C0204000C0206000C0208000C020A000C020C000C020E000C0400000C0402000C0404000C0406000C0
310
408000C040A000C040C000C040E000C0600000C0602000C0604000C0606000C0608000C060A000C060C000C060E000C0800000C0802000C0804000C0806000C0808000C080A000C080C000C080E000C0A00000C0A02000C0A04000C0A06000C0A08000C0A0A000C0A0C000C0A0E000C0C00000C0C02000C0C04000C0C06000
310
C0C08000C0C0A000F0FBFF00A4A0A000808080000000FF0000FF000000FFFF00FF000000FF00FF00FFFF0000FFFFFF0000000000000000000000000000000000000000000000000000000000000000000000000000000000000000000000000000000000000000000000000000000000000000000000000000000000000000
310
00000000000000000000000000000000000000000000000000000000000000000000000000000000000000000000000000000000000000000000000000000000000000000000000000000000000000000000000000000000000000000000000000000000000000000000000000000000000000000000000000000000000000
310
00000000000000000000000000000000000000000000000000000000000000000000000000000000000000000000000000000000000000000000000000000000000000000000000000000000000000000000000000000000000000000000000000000000000000000000000000000000000000000000000000000000000000
310
000000000000000000000000000000000000000000FFFFFFFF00000000000000000000000000000000FFFFFFFFFFFF0000000000FFFF0000000000000000000000000000000000000000FF000000FFFF00000000FFFFFFFFFFFF00000000000000000000000000FFFFFFFFFFFFFFFFFFFF000000FFFF000000FF0000000000
310
0000000000000000FF0000FF000000FFFFFFFF0000FFFF000000FF00000000000000000000000000FF00FFFF000000FFFFFFFF0000FFFF000000FF00000000000000000000000000FF0000FF000000FFFFFFFF0000FFFF000000FF00000000000000000000000000FF0000FF000000FFFFFFFF0000FFFFFFFFFFFF00000000
310
000000000000000000FFFFFFFFFFFFFFFFFFFF000000FFFF0000000000000000000000000000000000000000FF000000FFFF0000000000FFFFFFFF00000000000000000000000000000000FFFF000000FF00000000000000000000000000000000000000000000000000000000000000000000000000000000000000000000
310
00000000000000000000000000000000000000000000000000000000000000000000000000000000000000000000000000000000000000000000000000000000000000000000000000000000000000000000000000000000000000000000000000000000000000000000000000000000000000000000000000000000000000
310
00000000000000000000000000000000000000000000000000000000000000000000000000000000000000000000000000000000000000000000000000000000000000000000000000000000000000000000000000000000000000000000000000000000000000000000000000000000000000000000000000000000000000
310
0000000000000000000000000000000000000000000000000000000000000000000000000000000000000000000000000000000000000000
102
{BLKREFS
331
4BF2
102
}
 70
     4
280
     1
281
     0
  0
BLOCK_RECORD
  5
4E07
330
1
100
AcDbSymbolTableRecord
100
AcDbBlockTableRecord
  2
*D11
340
0
 70
     0
280
     1
281
     0
  0
BLOCK_RECORD
  5
4E4B
330
1
100
AcDbSymbolTableRecord
100
AcDbBlockTableRecord
  2
*D12
340
0
 70
     0
280
     1
281
     0
  0
BLOCK_RECORD
  5
4E63
330
1
100
AcDbSymbolTableRecord
100
AcDbBlockTableRecord
  2
*D13
340
0
 70
     0
280
     1
281
     0
  0
BLOCK_RECORD
  5
4E7F
330
1
100
AcDbSymbolTableRecord
100
AcDbBlockTableRecord
  2
*D14
340
0
 70
     0
280
     1
281
     0
  0
BLOCK_RECORD
  5
4F2D
330
1
100
AcDbSymbolTableRecord
100
AcDbBlockTableRecord
  2
*D15
340
0
 70
     0
280
     1
281
     0
  0
BLOCK_RECORD
  5
4FF2
330
1
100
AcDbSymbolTableRecord
100
AcDbBlockTableRecord
  2
*D16
340
0
 70
     0
280
     1
281
     0
  0
BLOCK_RECORD
  5
501C
330
1
100
AcDbSymbolTableRecord
100
AcDbBlockTableRecord
  2
*D17
340
0
 70
     0
280
     1
281
     0
  0
BLOCK_RECORD
  5
5034
330
1
100
AcDbSymbolTableRecord
100
AcDbBlockTableRecord
  2
*D18
340
0
 70
     0
280
     1
281
     0
  0
BLOCK_RECORD
  5
50B8
330
1
100
AcDbSymbolTableRecord
100
AcDbBlockTableRecord
  2
*D19
340
0
 70
     0
280
     1
281
     0
  0
BLOCK_RECORD
  5
50D4
330
1
100
AcDbSymbolTableRecord
100
AcDbBlockTableRecord
  2
*D20
340
0
 70
     0
280
     1
281
     0
  0
BLOCK_RECORD
  5
5117
330
1
100
AcDbSymbolTableRecord
100
AcDbBlockTableRecord
  2
*D21
340
0
 70
     0
280
     1
281
     0
  0
BLOCK_RECORD
  5
512F
330
1
100
AcDbSymbolTableRecord
100
AcDbBlockTableRecord
  2
*D22
340
0
 70
     0
280
     1
281
     0
  0
BLOCK_RECORD
  5
5147
330
1
100
AcDbSymbolTableRecord
100
AcDbBlockTableRecord
  2
*D23
340
0
 70
     0
280
     1
281
     0
  0
BLOCK_RECORD
  5
515F
330
1
100
AcDbSymbolTableRecord
100
AcDbBlockTableRecord
  2
*D24
340
0
 70
     0
280
     1
281
     0
  0
BLOCK_RECORD
  5
652E
330
1
100
AcDbSymbolTableRecord
100
AcDbBlockTableRecord
  2
GENDOT
340
0
102
{BLKREFS
331
6B30
331
6B3A
102
}
 70
     0
280
     1
281
     0
  0
BLOCK_RECORD
  5
6EF2
330
1
100
AcDbSymbolTableRecord
100
AcDbBlockTableRecord
  2
*D26
340
0
 70
     0
280
     1
281
     0
  0
BLOCK_RECORD
  5
6FD2
330
1
100
AcDbSymbolTableRecord
100
AcDbBlockTableRecord
  2
*D27
340
0
 70
     0
280
     1
281
     0
  0
BLOCK_RECORD
  5
701C
330
1
100
AcDbSymbolTableRecord
100
AcDbBlockTableRecord
  2
*D28
340
0
 70
     0
280
     1
281
     0
  0
BLOCK_RECORD
  5
7137
330
1
100
AcDbSymbolTableRecord
100
AcDbBlockTableRecord
  2
ケース
340
0
310
2800000020000000200000000100080000000000000400000000000000000000000000000000000000000000000080000080000000808000800000008000800080800000C0C0C000C0DCC000F0CAA6000020400000206000002080000020A0000020C0000020E00000400000004020000040400000406000004080000040A0
310
000040C0000040E00000600000006020000060400000606000006080000060A0000060C0000060E00000800000008020000080400000806000008080000080A0000080C0000080E00000A0000000A0200000A0400000A0600000A0800000A0A00000A0C00000A0E00000C0000000C0200000C0400000C0600000C0800000C0
310
A00000C0C00000C0E00000E0000000E0200000E0400000E0600000E0800000E0A00000E0C00000E0E00040000000400020004000400040006000400080004000A0004000C0004000E00040200000402020004020400040206000402080004020A0004020C0004020E000404000004040200040404000404060004040800040
310
40A0004040C0004040E00040600000406020004060400040606000406080004060A0004060C0004060E00040800000408020004080400040806000408080004080A0004080C0004080E00040A0000040A0200040A0400040A0600040A0800040A0A00040A0C00040A0E00040C0000040C0200040C0400040C0600040C08000
310
40C0A00040C0C00040C0E00040E0000040E0200040E0400040E0600040E0800040E0A00040E0C00040E0E00080000000800020008000400080006000800080008000A0008000C0008000E00080200000802020008020400080206000802080008020A0008020C0008020E00080400000804020008040400080406000804080
310
008040A0008040C0008040E00080600000806020008060400080606000806080008060A0008060C0008060E00080800000808020008080400080806000808080008080A0008080C0008080E00080A0000080A0200080A0400080A0600080A0800080A0A00080A0C00080A0E00080C0000080C0200080C0400080C0600080C0
310
800080C0A00080C0C00080C0E00080E0000080E0200080E0400080E0600080E0800080E0A00080E0C00080E0E000C0000000C0002000C0004000C0006000C0008000C000A000C000C000C000E000C0200000C0202000C0204000C0206000C0208000C020A000C020C000C020E000C0400000C0402000C0404000C0406000C0
310
408000C040A000C040C000C040E000C0600000C0602000C0604000C0606000C0608000C060A000C060C000C060E000C0800000C0802000C0804000C0806000C0808000C080A000C080C000C080E000C0A00000C0A02000C0A04000C0A06000C0A08000C0A0A000C0A0C000C0A0E000C0C00000C0C02000C0C04000C0C06000
310
C0C08000C0C0A000F0FBFF00A4A0A000808080000000FF0000FF000000FFFF00FF000000FF00FF00FFFF0000FFFFFF0000000000000000000000000000000000000000000000000000000000000000000000000000000000000000000000000000000000000000000000000000000000000000000000000000000000000000
310
00000000000000000000000000000000000000000000000000000000000000000000000000000000000000000000000000000000000000000000000000000000000000000000000000000000000000000000000000000000000000000000000000000000000000000000000000000000000000000000000000000000000000
310
000000000000000000000000000000000000000000000000000000000000000000000000000000000000000000000000000000000000000000000000000000000000FC00FC0000000000000000FC0000FC0000000000000000000000000000000000FCFCFC0000000000000000FCFCFCFC0000000000000000000000000000
310
000000FC00FC0000000000000000FC0000FC0000000000000000000000000000000000FC00FC0000000000000000FC0000FC0000FCFCFCFCFCFCFCFCFC000000000000FC00FC0000000000000000FC0000FC0000000000000000000000FC0000000000FC00FC0000000000000000FC0000FC0000FCFCFCFCFCFCFCFCFCFCFC
310
FC000000FC00FCFCFCFCFCFCFCFCFCFC0000FC0000000000000000000000FC0000000000FC00000000000000000000000000FC0000000000000000000000FC0000000000FC00000000000000000000000000FC0000FCFCFCFCFCFCFCFCFCFCFCFCFCFCFC0000000000000000000000000000FC000000000000000000000000
310
00000000000000000000000000000000000000FC00000000000000000000000000000000000000000000000000000000000000FC000000000000000000000000000000000000000000000000000000000000FC000000000000000000000000000000000000000000000000000000000000FC00000000000000000000000000
310
0000000000000000000000000000000000FC0000000000FCFCFCFCFCFCFCFCFCFCFCFCFCFCFCFCFCFCFCFCFCFCFCFCFCFC000000000000000000000000000000000000000000000000000000000000000000000000000000000000000000000000000000000000000000000000000000000000000000000000000000000000
310
00000000000000000000000000000000000000000000000000000000000000000000000000000000000000000000000000000000000000000000000000000000000000000000000000000000000000000000000000000000000000000000000000000000000000000000000000000000000000000000000000000000000000
310
0000000000000000000000000000000000000000000000000000000000000000000000000000000000000000000000000000000000000000
102
{BLKREFS
331
7152
102
}
 70
     4
280
     1
281
     1
  0
ENDTAB
  0
ENDSEC
  0
SECTION
  2
BLOCKS
  0
BLOCK
  5
20
330
1F
100
AcDbEntity
  8
0
100
AcDbBlockBegin
  2
*Model_Space
 70
     0
 10
0.0
 20
0.0
 30
0.0
  3
*Model_Space
  1

  0
ENDBLK
  5
21
330
1F
100
AcDbEntity
  8
0
100
AcDbBlockEnd
  0
BLOCK
  5
1C
330
1B
100
AcDbEntity
 67
     1
  8
0
100
AcDbBlockBegin
  2
*Paper_Space
 70
     0
 10
0.0
 20
0.0
 30
0.0
  3
*Paper_Space
  1

  0
ENDBLK
  5
1D
330
1B
100
AcDbEntity
 67
     1
  8
0
100
AcDbBlockEnd
  0
BLOCK
  5
24
330
23
100
AcDbEntity
 67
     1
  8
0
100
AcDbBlockBegin
  2
*Paper_Space0
 70
     0
 10
0.0
 20
0.0
 30
0.0
  3
*Paper_Space0
  1

  0
ENDBLK
  5
25
330
23
100
AcDbEntity
 67
     1
  8
0
100
AcDbBlockEnd
  0
BLOCK
  5
6D
330
69
100
AcDbEntity
  8
0
100
AcDbBlockBegin
  2
_Open30
 70
     0
 10
0.0
 20
0.0
 30
0.0
  3
_Open30
  1

  0
LINE
  5
6A
330
69
100
AcDbEntity
  8
0
  6
ByBlock
 62
     0
370
    -2
100
AcDbLine
 10
-1.0
 20
0.26794919
 30
0.0
 11
0.0
 21
0.0
 31
0.0
  0
LINE
  5
6B
330
69
100
AcDbEntity
  8
0
  6
ByBlock
 62
     0
370
    -2
100
AcDbLine
 10
0.0
 20
0.0
 30
0.0
 11
-1.0
 21
-0.26794919
 31
0.0
  0
LINE
  5
6C
330
69
100
AcDbEntity
  8
0
  6
ByBlock
 62
     0
370
    -2
100
AcDbLine
 10
0.0
 20
0.0
 30
0.0
 11
-1.0
 21
0.0
 31
0.0
  0
ENDBLK
  5
6E
330
69
100
AcDbEntity
  8
0
100
AcDbBlockEnd
  0
BLOCK
  5
76
330
74
100
AcDbEntity
  8
0
100
AcDbBlockBegin
  2
GENAXEH
 70
     0
 10
0.0
 20
0.0
 30
0.0
  3
GENAXEH
  1

  0
LINE
  5
75
330
74
100
AcDbEntity
  8
0
100
AcDbLine
 10
-1.0
 20
0.0
 30
0.0
 11
1.0
 21
0.0
 31
0.0
  0
ENDBLK
  5
77
330
74
100
AcDbEntity
  8
0
100
AcDbBlockEnd
  0
BLOCK
  5
348B
330
3488
100
AcDbEntity
  8
0
100
AcDbBlockBegin
  2
ロッカクアナツキプラグ R1／4
 70
     0
 10
0.0
 20
0.0
 30
0.0
  3
ロッカクアナツキプラグ R1／4
  1

  0
CIRCLE
  5
460B
330
3488
100
AcDbEntity
  8
AM_0 外形線1
100
AcDbCircle
 10
0.0
 20
0.0
 30
0.0
 40
7.174975999999999
  0
CIRCLE
  5
460C
330
3488
100
AcDbEntity
  8
AM_4 細線
100
AcDbCircle
 10
0.0
 20
0.0
 30
0.0
 40
6.504976
  0
LINE
  5
460D
330
3488
100
AcDbEntity
  8
AM_7 中心線
100
AcDbLine
 10
8.404976000000031
 20
0.0
 30
0.0
 11
-8.404976000000031
 21
0.0
 31
0.0
  0
LINE
  5
460E
330
3488
100
AcDbEntity
  8
AM_7 中心線
100
AcDbLine
 10
0.0
 20
8.404975999999919
 30
0.0
 11
0.0
 21
-8.404975999999919
 31
0.0
  0
LINE
  5
460F
330
3488
100
AcDbEntity
  8
AM_0 外形線1
100
AcDbLine
 10
2.611065999999937
 20
-1.50750000000005
 30
0.0
 11
2.611065999999937
 21
1.50750000000005
 31
0.0
  0
LINE
  5
4610
330
3488
100
AcDbEntity
  8
AM_0 外形線1
100
AcDbLine
 10
0.0
 20
-3.014999999999986
 30
0.0
 11
2.611065999999937
 21
-1.50750000000005
 31
0.0
  0
LINE
  5
4611
330
3488
100
AcDbEntity
  8
AM_0 外形線1
100
AcDbLine
 10
-2.611067000000048
 20
-1.50750000000005
 30
0.0
 11
0.0
 21
-3.014999999999986
 31
0.0
  0
LINE
  5
4612
330
3488
100
AcDbEntity
  8
AM_0 外形線1
100
AcDbLine
 10
-2.611067000000048
 20
1.50750000000005
 30
0.0
 11
-2.611067000000048
 21
-1.50750000000005
 31
0.0
  0
LINE
  5
4613
330
3488
100
AcDbEntity
  8
AM_0 外形線1
100
AcDbLine
 10
0.0
 20
3.014999999999986
 30
0.0
 11
-2.611067000000048
 21
1.50750000000005
 31
0.0
  0
LINE
  5
4614
330
3488
100
AcDbEntity
  8
AM_0 外形線1
100
AcDbLine
 10
2.611065999999937
 20
1.50750000000005
 30
0.0
 11
0.0
 21
3.014999999999986
 31
0.0
  0
ENDBLK
  5
3496
330
3488
100
AcDbEntity
  8
0
100
AcDbBlockEnd
  0
BLOCK
  5
469D
330
469C
100
AcDbEntity
  8
0
100
AcDbBlockBegin
  2
ケースＡ SEM280
 70
     0
 10
0.0
 20
0.0
 30
0.0
  3
ケースＡ SEM280
  1

  0
LINE
  5
469F
330
469C
100
AcDbEntity
  8
AM_0 外形線1
100
AcDbLine
 10
65.0
 20
105.4999999999999
 30
0.0
 11
61.0
 21
105.4999999999999
 31
0.0
  0
LINE
  5
46A0
330
469C
100
AcDbEntity
  8
AM_0 外形線1
100
AcDbLine
 10
25.0
 20
111.9999999999999
 30
0.0
 11
78.0
 21
111.9999999999999
 31
0.0
  0
LINE
  5
46A1
330
469C
100
AcDbEntity
  8
AM_0 外形線1
100
AcDbLine
 10
25.0
 20
-112.0
 30
0.0
 11
78.0
 21
-112.0
 31
0.0
  0
LINE
  5
46A2
330
469C
100
AcDbEntity
  8
AM_0 外形線1
100
AcDbLine
 10
0.0
 20
0.0
 30
0.0
 11
0.0
 21
-139.0
 31
0.0
  0
LINE
  5
46A3
330
469C
100
AcDbEntity
  8
AM_0 外形線1
100
AcDbLine
 10
21.0
 20
-139.0
 30
0.0
 11
21.0
 21
0.0
 31
0.0
  0
LINE
  5
46A4
330
469C
100
AcDbEntity
  8
AM_0 外形線1
100
AcDbLine
 10
1.0
 20
-140.0
 30
0.0
 11
20.0
 21
-140.0
 31
0.0
  0
LINE
  5
46A5
330
469C
100
AcDbEntity
  8
AM_0 外形線1
100
AcDbLine
 10
0.0
 20
-139.0
 30
0.0
 11
1.0
 21
-140.0
 31
0.0
  0
LINE
  5
46A6
330
469C
100
AcDbEntity
  8
AM_0 外形線1
100
AcDbLine
 10
20.0
 20
-140.0
 30
0.0
 11
21.0
 21
-139.0
 31
0.0
  0
ARC
  5
46A7
330
469C
100
AcDbEntity
  8
AM_0 外形線1
100
AcDbCircle
 10
25.0
 20
-116.0
 30
0.0
 40
4.0
100
AcDbArc
 50
90.0
 51
180.0
  0
LINE
  5
46A9
330
469C
100
AcDbEntity
  8
AM_0 外形線1
100
AcDbLine
 10
2.69999999999993
 20
111.4999999999999
 30
0.0
 11
2.69999999999993
 21
114.9499999999999
 31
0.0
  0
ARC
  5
46AA
330
469C
100
AcDbEntity
  8
AM_0 外形線1
100
AcDbCircle
 10
25.0
 20
115.9999999999999
 30
0.0
 40
4.0
100
AcDbArc
 50
180.0
 51
270.0
  0
LINE
  5
46AB
330
469C
100
AcDbEntity
  8
AM_0 外形線1
100
AcDbLine
 10
0.0
 20
115.4499999999999
 30
0.0
 11
0.0
 21
120.9999999999999
 31
0.0
  0
LINE
  5
46AC
330
469C
100
AcDbEntity
  8
AM_0 外形線1
100
AcDbLine
 10
24.0
 20
105.4999999999999
 30
0.0
 11
-4.0
 21
105.4999999999999
 31
0.0
  0
LINE
  5
46AD
330
469C
100
AcDbEntity
  8
AM_0 外形線1
100
AcDbLine
 10
-3.5
 20
110.9999999999999
 30
0.0
 11
2.199999999999931
 21
110.9999999999999
 31
0.0
  0
LINE
  5
46AE
330
469C
100
AcDbEntity
  8
AM_0 外形線1
100
AcDbLine
 10
-4.0
 20
110.4999999999999
 30
0.0
 11
-3.5
 21
110.9999999999999
 31
0.0
  0
LINE
  5
46AF
330
469C
100
AcDbEntity
  8
AM_0 外形線1
100
AcDbLine
 10
-4.0
 20
105.4999999999999
 30
0.0
 11
-4.0
 21
110.4999999999999
 31
0.0
  0
ARC
  5
46B0
330
469C
100
AcDbEntity
  8
AM_0 外形線1
100
AcDbCircle
 10
2.199999999999931
 20
111.4999999999999
 30
0.0
 40
0.5
100
AcDbArc
 50
270.0
 51
0.0
  0
LINE
  5
46B1
330
469C
100
AcDbEntity
  8
AM_3 隠れ線
100
AcDbLine
 10
28.5
 20
99.59999999999993
 30
0.0
 11
59.0
 21
99.59999999999993
 31
0.0
  0
LINE
  5
46B2
330
469C
100
AcDbEntity
  8
AM_7 中心線
100
AcDbLine
 10
23.0
 20
101.9999999999999
 30
0.0
 11
62.0
 21
101.9999999999999
 31
0.0
  0
LINE
  5
46B3
330
469C
100
AcDbEntity
  8
AM_0 外形線1
100
AcDbLine
 10
25.0
 20
104.9999999999999
 30
0.0
 11
60.0
 21
104.9999999999999
 31
0.0
  0
LINE
  5
46B4
330
469C
100
AcDbEntity
  8
AM_0 外形線1
100
AcDbLine
 10
28.5
 20
99.59999999999993
 30
0.0
 11
26.0
 21
99.59999999999993
 31
0.0
  0
ARC
  5
46B5
330
469C
100
AcDbEntity
  8
AM_0 外形線1
100
AcDbCircle
 10
24.0
 20
104.4999999999999
 30
0.0
 40
1.0
100
AcDbArc
 50
0.0
 51
90.0
  0
LINE
  5
46B6
330
469C
100
AcDbEntity
  8
AM_0 外形線1
100
AcDbLine
 10
25.0
 20
100.5999999999999
 30
0.0
 11
25.0
 21
104.4999999999999
 31
0.0
  0
LINE
  5
46B7
330
469C
100
AcDbEntity
  8
AM_0 外形線1
100
AcDbLine
 10
26.0
 20
99.59999999999993
 30
0.0
 11
25.0
 21
100.5999999999999
 31
0.0
  0
LINE
  5
46B8
330
469C
100
AcDbEntity
  8
AM_3 隠れ線
100
AcDbLine
 10
60.0
 20
103.4727969999999
 30
0.0
 11
60.0
 21
100.5999999999999
 31
0.0
  0
LINE
  5
46B9
330
469C
100
AcDbEntity
  8
AM_3 隠れ線
100
AcDbLine
 10
60.0
 20
100.5999999999999
 30
0.0
 11
59.0
 21
99.59999999999993
 31
0.0
  0
LINE
  5
46BA
330
469C
100
AcDbEntity
  8
AM_0 外形線1
100
AcDbLine
 10
60.0
 20
103.4727969999999
 30
0.0
 11
60.0
 21
104.4999999999999
 31
0.0
  0
ARC
  5
46BB
330
469C
100
AcDbEntity
  8
AM_0 外形線1
100
AcDbCircle
 10
61.0
 20
104.4999999999999
 30
0.0
 40
1.0
100
AcDbArc
 50
90.0
 51
180.0
  0
LINE
  5
46BC
330
469C
100
AcDbEntity
  8
AM_7 中心線
100
AcDbLine
 10
-34.0
 20
127.9999999999999
 30
0.0
 11
44.0
 21
127.9999999999999
 31
0.0
  0
LINE
  5
46BD
330
469C
100
AcDbEntity
  8
AM_0 外形線1
100
AcDbLine
 10
-0.0000000000001137
 20
120.9999999999999
 30
0.0
 11
21.0
 21
120.9999999999999
 31
0.0
  0
LINE
  5
46BE
330
469C
100
AcDbEntity
  8
AM_0 外形線1
100
AcDbLine
 10
0.0
 20
134.9999999999999
 30
0.0
 11
21.0
 21
134.9999999999999
 31
0.0
  0
LINE
  5
46BF
330
469C
100
AcDbEntity
  8
AM_0 外形線1
100
AcDbLine
 10
1.0
 20
139.9999999999999
 30
0.0
 11
20.0
 21
139.9999999999999
 31
0.0
  0
LINE
  5
46C0
330
469C
100
AcDbEntity
  8
AM_0 外形線1
100
AcDbLine
 10
2.199999999999931
 20
115.4499999999999
 30
0.0
 11
0.0
 21
115.4499999999999
 31
0.0
  0
ARC
  5
46C1
330
469C
100
AcDbEntity
  8
AM_0 外形線1
100
AcDbCircle
 10
2.199999999999931
 20
114.9499999999999
 30
0.0
 40
0.5
100
AcDbArc
 50
0.0
 51
90.0
  0
LINE
  5
46C2
330
469C
100
AcDbEntity
  8
AM_0 外形線1
100
AcDbLine
 10
0.0
 20
134.9999999999999
 30
0.0
 11
0.0
 21
138.9999999999999
 31
0.0
  0
LINE
  5
46C3
330
469C
100
AcDbEntity
  8
AM_0 外形線1
100
AcDbLine
 10
0.0
 20
138.9999999999999
 30
0.0
 11
1.0
 21
139.9999999999999
 31
0.0
  0
LINE
  5
46C4
330
469C
100
AcDbEntity
  8
AM_0 外形線1
100
AcDbLine
 10
21.0
 20
115.9999999999999
 30
0.0
 11
21.0
 21
138.9999999999999
 31
0.0
  0
LINE
  5
46C5
330
469C
100
AcDbEntity
  8
AM_0 外形線1
100
AcDbLine
 10
20.0
 20
139.9999999999999
 30
0.0
 11
21.0
 21
138.9999999999999
 31
0.0
  0
LINE
  5
46C6
330
469C
100
AcDbEntity
  8
AM_0 外形線1
100
AcDbLine
 10
82.0
 20
-102.801418
 30
0.0
 11
82.0
 21
0.0
 31
0.0
  0
ARC
  5
46C7
330
469C
100
AcDbEntity
  8
AM_0 外形線1
100
AcDbCircle
 10
78.0
 20
-108.0
 30
0.0
 40
4.0
100
AcDbArc
 50
270.0
 51
0.0
  0
LINE
  5
46C8
330
469C
100
AcDbEntity
  8
AM_0 外形線1
100
AcDbLine
 10
82.0
 20
-108.0
 30
0.0
 11
82.0
 21
-102.801418
 31
0.0
  0
LWPOLYLINE
  5
46C9
330
469C
100
AcDbEntity
  8
AM_0 外形線1
100
AcDbPolyline
 90
       73
 70
     0
 43
0.0
 10
79.59999999999991
 20
98.44999999999991
 10
79.57869000000005
 20
98.75068799999997
 10
79.51492299999995
 20
99.049087
 10
79.40918499999998
 20
99.34292599999992
 10
79.26227899999992
 20
99.62996999999996
 10
79.07532300000003
 20
99.90803299999996
 10
78.84974199999998
 20
100.1749999999999
 10
78.58725100000005
 20
100.4288389999999
 10
78.289849
 20
100.6676179999999
 10
77.95979799999997
 20
100.8895189999998
 10
77.59960999999998
 20
101.092854
 10
77.21202800000003
 20
101.276075
 10
76.79999999999996
 20
101.4377879999999
 10
76.36666200000002
 20
101.5767619999999
 10
75.91531299999997
 20
101.6919399999999
 10
75.449387
 20
101.7824439999999
 10
74.97243000000003
 20
101.847587
 10
74.48807199999997
 20
101.8868719999999
 10
74.0
 20
101.8999999999999
 10
73.51192800000003
 20
101.8868719999999
 10
73.02756999999997
 20
101.847587
 10
72.550613
 20
101.7824439999999
 10
72.08468699999992
 20
101.6919399999999
 10
71.63333799999998
 20
101.5767619999999
 10
71.19999999999993
 20
101.4377879999999
 10
70.78797200000008
 20
101.276075
 10
70.40038900000002
 20
101.092854
 10
70.04020200000002
 20
100.8895189999998
 10
69.71015099999999
 20
100.6676179999999
 10
69.41274799999996
 20
100.4288389999999
 10
69.15025800000001
 20
100.1749999999999
 10
68.92467599999998
 20
99.90803299999996
 10
68.73772099999996
 20
99.62996999999996
 10
68.59081500000002
 20
99.34292599999992
 10
68.48507600000004
 20
99.049087
 10
68.42131000000006
 20
98.75068799999997
 10
68.39999999999998
 20
98.44999999999991
 10
68.42131000000006
 20
98.1493129999999
 10
68.48507600000004
 20
97.85091399999986
 10
68.59081500000002
 20
97.55707499999994
 10
68.73772099999996
 20
97.2700309999999
 10
68.92467599999998
 20
96.99196699999994
 10
69.15025800000001
 20
96.72499999999992
 10
69.41274799999996
 20
96.47116199999992
 10
69.71015099999999
 20
96.23238299999993
 10
70.04020200000002
 20
96.01048200000002
 10
70.40038900000002
 20
95.80714699999987
 10
70.78797200000008
 20
95.62392599999986
 10
71.19999999999993
 20
95.4622129999999
 10
71.63333799999998
 20
95.32323799999996
 10
72.08468699999992
 20
95.20806099999992
 10
72.550613
 20
95.11755599999991
 10
73.02756999999997
 20
95.05241399999986
 10
73.51192800000003
 20
95.01312899999993
 10
74.0
 20
94.99999999999987
 10
74.48807199999997
 20
95.01312899999993
 10
74.97243000000003
 20
95.05241399999986
 10
75.449387
 20
95.11755599999991
 10
75.91531299999997
 20
95.20806099999992
 10
76.36666200000002
 20
95.32323799999996
 10
76.79999999999996
 20
95.4622129999999
 10
77.21202800000003
 20
95.62392599999986
 10
77.59960999999998
 20
95.80714699999987
 10
77.95979799999997
 20
96.01048200000002
 10
78.289849
 20
96.23238299999993
 10
78.58725100000005
 20
96.47116199999992
 10
78.84974199999998
 20
96.72499999999992
 10
79.07532300000003
 20
96.99196699999994
 10
79.26227899999992
 20
97.2700309999999
 10
79.40918499999998
 20
97.55707499999994
 10
79.51492299999995
 20
97.85091399999986
 10
79.57869000000005
 20
98.1493129999999
 10
79.59999999999991
 20
98.44999999999991
  0
LINE
  5
46CA
330
469C
100
AcDbEntity
  8
AM_0 外形線1
100
AcDbLine
 10
66.0
 20
96.49999999999987
 30
0.0
 11
66.0
 21
104.4999999999999
 31
0.0
  0
LINE
  5
46CB
330
469C
100
AcDbEntity
  8
AM_0 外形線1
100
AcDbLine
 10
68.39999999999998
 20
101.4
 30
0.0
 11
68.39999999999998
 21
96.49999999999987
 31
0.0
  0
LINE
  5
46CC
330
469C
100
AcDbEntity
  8
AM_0 外形線1
100
AcDbLine
 10
79.59999999999991
 20
96.49999999999987
 30
0.0
 11
79.59999999999991
 21
101.4
 31
0.0
  0
LINE
  5
46CD
330
469C
100
AcDbEntity
  8
AM_0 外形線1
100
AcDbLine
 10
82.0
 20
107.9999999999999
 30
0.0
 11
82.0
 21
96.49999999999987
 31
0.0
  0
LINE
  5
46CE
330
469C
100
AcDbEntity
  8
AM_0 外形線1
100
AcDbLine
 10
68.39999999999998
 20
96.49999999999987
 30
0.0
 11
68.39999999999998
 21
94.99999999999987
 31
0.0
  0
LINE
  5
46CF
330
469C
100
AcDbEntity
  8
AM_0 外形線1
100
AcDbLine
 10
66.0
 20
96.49999999999987
 30
0.0
 11
66.0
 21
94.99999999999987
 31
0.0
  0
LINE
  5
46D0
330
469C
100
AcDbEntity
  8
AM_0 外形線1
100
AcDbLine
 10
68.39999999999998
 20
96.49999999999987
 30
0.0
 11
66.0
 21
96.49999999999987
 31
0.0
  0
LINE
  5
46D1
330
469C
100
AcDbEntity
  8
AM_0 外形線1
100
AcDbLine
 10
82.0
 20
96.49999999999987
 30
0.0
 11
82.0
 21
94.99999999999987
 31
0.0
  0
LINE
  5
46D2
330
469C
100
AcDbEntity
  8
AM_0 外形線1
100
AcDbLine
 10
79.59999999999991
 20
96.49999999999987
 30
0.0
 11
79.59999999999991
 21
94.99999999999987
 31
0.0
  0
LINE
  5
46D3
330
469C
100
AcDbEntity
  8
AM_0 外形線1
100
AcDbLine
 10
82.0
 20
96.49999999999987
 30
0.0
 11
79.59999999999991
 21
96.49999999999987
 31
0.0
  0
LINE
  5
46D4
330
469C
100
AcDbEntity
  8
AM_0 外形線1
100
AcDbLine
 10
79.09999999999991
 20
101.8999999999999
 30
0.0
 11
68.89999999999997
 21
101.8999999999999
 31
0.0
  0
ARC
  5
46D5
330
469C
100
AcDbEntity
  8
AM_0 外形線1
100
AcDbCircle
 10
65.0
 20
104.4999999999999
 30
0.0
 40
1.0
100
AcDbArc
 50
0.0
 51
90.0
  0
ARC
  5
46D6
330
469C
100
AcDbEntity
  8
AM_0 外形線1
100
AcDbCircle
 10
68.89999999999997
 20
101.4
 30
0.0
 40
0.5
100
AcDbArc
 50
90.0
 51
180.0
  0
ARC
  5
46D7
330
469C
100
AcDbEntity
  8
AM_0 外形線1
100
AcDbCircle
 10
79.09999999999991
 20
101.4
 30
0.0
 40
0.5
100
AcDbArc
 50
0.0
 51
90.0
  0
ARC
  5
46D8
330
469C
100
AcDbEntity
  8
AM_0 外形線1
100
AcDbCircle
 10
78.0
 20
107.9999999999999
 30
0.0
 40
4.0
100
AcDbArc
 50
0.0
 51
90.0
  0
INSERT
  5
46D9
330
469C
100
AcDbEntity
  8
AM_0 外形線1
100
AcDbBlockReference
  2
ロッカクアナツキプラグ R1／4
 10
10.5
 20
-33.12883700000009
 30
0.0
  0
ELLIPSE
  5
55B9
330
469C
100
AcDbEntity
  8
AM_0 外形線1
100
AcDbEllipse
 10
1.350000000000022
 20
113.2249999999999
 30
0.0
 11
0.0
 21
2.225000000000021
 31
0.0
210
0.0
220
0.0
230
1.0
 40
0.606741573033661
 41
0.0
 42
6.283185307179585
  0
ENDBLK
  5
469E
330
469C
100
AcDbEntity
  8
0
100
AcDbBlockEnd
  0
BLOCK
  5
47BB
330
47BA
100
AcDbEntity
  8
0
100
AcDbBlockBegin
  2
リジット SEM280
 70
     0
 10
0.0
 20
0.0
 30
0.0
  3
リジット SEM280
  1

  0
LINE
  5
47BD
330
47BA
100
AcDbEntity
  8
AM_0 外形線1
100
AcDbLine
 10
-21.0
 20
-139.0
 30
0.0
 11
-21.0
 21
0.0
 31
0.0
  0
LINE
  5
47BE
330
47BA
100
AcDbEntity
  8
AM_0 外形線1
100
AcDbLine
 10
-35.0
 20
-105.0
 30
0.0
 11
-35.0
 21
0.0
 31
0.0
  0
LINE
  5
47BF
330
47BA
100
AcDbEntity
  8
AM_0 外形線1
100
AcDbLine
 10
-147.0
 20
-101.0
 30
0.0
 11
-147.0
 21
0.0
 31
0.0
  0
LINE
  5
47C0
330
47BA
100
AcDbEntity
  8
AM_0 外形線1
100
AcDbLine
 10
-38.54102000000001
 20
-105.0
 30
0.0
 11
-143.0
 21
-105.0
 31
0.0
  0
ARC
  5
47C1
330
47BA
100
AcDbEntity
  8
AM_0 外形線1
100
AcDbCircle
 10
-143.0
 20
-101.0
 30
0.0
 40
4.0
100
AcDbArc
 50
180.0
 51
270.0
  0
ARC
  5
47C2
330
47BA
100
AcDbEntity
  8
AM_0 外形線1
100
AcDbCircle
 10
-38.54102000000001
 20
-120.0
 30
0.0
 40
15.0
100
AcDbArc
 50
63.43494900000336
 51
90.0
  0
LINE
  5
47C3
330
47BA
100
AcDbEntity
  8
AM_0 外形線1
100
AcDbLine
 10
-1.0
 20
-140.0
 30
0.0
 11
-20.0
 21
-140.0
 31
0.0
  0
LINE
  5
47C4
330
47BA
100
AcDbEntity
  8
AM_0 外形線1
100
AcDbLine
 10
-20.0
 20
-140.0
 30
0.0
 11
-21.0
 21
-139.0
 31
0.0
  0
LINE
  5
47C5
330
47BA
100
AcDbEntity
  8
AM_0 外形線1
100
AcDbLine
 10
0.0
 20
-139.0
 30
0.0
 11
-1.0
 21
-140.0
 31
0.0
  0
LINE
  5
47C6
330
47BA
100
AcDbEntity
  8
AM_7 中心線
100
AcDbLine
 10
26.28701608770086
 20
-128.0
 30
0.0
 11
-26.0
 21
-128.0
 31
0.0
  0
ARC
  5
47C7
330
47BA
100
AcDbEntity
  8
AM_0 外形線1
100
AcDbCircle
 10
-25.0
 20
-114.4721360000001
 30
0.0
 40
4.0
100
AcDbArc
 50
0.0
 51
63.43494900000336
  0
LINE
  5
47C8
330
47BA
100
AcDbEntity
  8
AM_0 外形線1
100
AcDbLine
 10
-23.21114599999999
 20
-110.894427
 30
0.0
 11
-31.8328160000001
 21
-106.583592
 31
0.0
  0
LINE
  5
47C9
330
47BA
100
AcDbEntity
  8
AM_0 外形線1
100
AcDbLine
 10
-38.54102000000001
 20
104.9999999999999
 30
0.0
 11
-143.0
 21
104.9999999999999
 31
0.0
  0
LINE
  5
47CA
330
47BA
100
AcDbEntity
  8
AM_0 外形線1
100
AcDbLine
 10
-147.0
 20
100.9999999999999
 30
0.0
 11
-147.0
 21
0.0
 31
0.0
  0
ARC
  5
47CB
330
47BA
100
AcDbEntity
  8
AM_0 外形線1
100
AcDbCircle
 10
-143.0
 20
100.9999999999999
 30
0.0
 40
4.0
100
AcDbArc
 50
90.0
 51
180.0
  0
LINE
  5
47CC
330
47BA
100
AcDbEntity
  8
AM_0 外形線1
100
AcDbLine
 10
-7.0
 20
0.0
 30
0.0
 11
-7.0
 21
107.9999999999999
 31
0.0
  0
LINE
  5
47CD
330
47BA
100
AcDbEntity
  8
AM_3 隠れ線
100
AcDbLine
 10
-7.0
 20
5.149999999999863
 30
0.0
 11
-40.0
 21
5.149999999999863
 31
0.0
  0
LINE
  5
47CE
330
47BA
100
AcDbEntity
  8
AM_3 隠れ線
100
AcDbLine
 10
-35.0
 20
6.0
 30
0.0
 11
-35.49074799999994
 21
5.149999999999863
 31
0.0
  0
LINE
  5
47CF
330
47BA
100
AcDbEntity
  8
AM_3 隠れ線
100
AcDbLine
 10
-40.0
 20
5.149999999999863
 30
0.0
 11
-42.97335400000007
 21
0.0
 31
0.0
  0
LINE
  5
47D0
330
47BA
100
AcDbEntity
  8
AM_3 隠れ線
100
AcDbLine
 10
-40.0
 20
5.149999999999863
 30
0.0
 11
-40.0
 21
0.0
 31
0.0
  0
LINE
  5
47D1
330
47BA
100
AcDbEntity
  8
AM_3 隠れ線
100
AcDbLine
 10
-35.49074799999994
 20
5.149999999999863
 30
0.0
 11
-35.49074799999994
 21
0.0
 31
0.0
  0
LINE
  5
47D2
330
47BA
100
AcDbEntity
  8
AM_3 隠れ線
100
AcDbLine
 10
-7.0
 20
6.0
 30
0.0
 11
-35.0
 21
6.0
 31
0.0
  0
LINE
  5
47D3
330
47BA
100
AcDbEntity
  8
AM_3 隠れ線
100
AcDbLine
 10
-35.0
 20
6.0
 30
0.0
 11
-35.0
 21
0.0
 31
0.0
  0
ARC
  5
47D4
330
47BA
100
AcDbEntity
  8
AM_0 外形線1
100
AcDbCircle
 10
-38.54102000000001
 20
119.9999999999999
 30
0.0
 40
15.0
100
AcDbArc
 50
270.0
 51
296.5650509999967
  0
ARC
  5
47D5
330
47BA
100
AcDbEntity
  8
AM_0 外形線1
100
AcDbCircle
 10
-25.0
 20
114.4721359999998
 30
0.0
 40
4.0
100
AcDbArc
 50
296.5650509999967
 51
0.0
  0
LINE
  5
47D6
330
47BA
100
AcDbEntity
  8
AM_0 外形線1
100
AcDbLine
 10
-23.21114599999999
 20
110.8944279999999
 30
0.0
 11
-31.8328160000001
 21
106.5835919999999
 31
0.0
  0
LINE
  5
47D8
330
47BA
100
AcDbEntity
  8
AM_0 外形線1
100
AcDbLine
 10
-0.5
 20
110.9999999999999
 30
0.0
 11
0.0
 21
111.4999999999999
 31
0.0
  0
ARC
  5
47D9
330
47BA
100
AcDbEntity
  8
AM_0 外形線1
100
AcDbCircle
 10
-4.0
 20
107.9999999999999
 30
0.0
 40
3.0
100
AcDbArc
 50
90.0
 51
180.0
  0
LINE
  5
47DA
330
47BA
100
AcDbEntity
  8
AM_0 外形線1
100
AcDbLine
 10
-1.0
 20
139.9999999999999
 30
0.0
 11
-20.0
 21
139.9999999999999
 31
0.0
  0
LINE
  5
47DB
330
47BA
100
AcDbEntity
  8
AM_0 外形線1
100
AcDbLine
 10
-21.0
 20
114.4721359999998
 30
0.0
 11
-21.0
 21
138.9999999999999
 31
0.0
  0
LINE
  5
47DC
330
47BA
100
AcDbEntity
  8
AM_0 外形線1
100
AcDbLine
 10
-20.0
 20
139.9999999999999
 30
0.0
 11
-21.0
 21
138.9999999999999
 31
0.0
  0
LINE
  5
47DD
330
47BA
100
AcDbEntity
  8
AM_0 外形線1
100
AcDbLine
 10
0.0
 20
138.9999999999999
 30
0.0
 11
-1.0
 21
139.9999999999999
 31
0.0
  0
LINE
  5
47DE
330
47BA
100
AcDbEntity
  8
AM_0 外形線1
100
AcDbLine
 10
-6.999999999999886
 20
47.5000000000001
 30
0.0
 11
-147.0
 21
47.5
 31
0.0
  0
LINE
  5
4839
330
47BA
100
AcDbEntity
  8
AM_0 外形線1
100
AcDbLine
 10
0.0
 20
-139.0
 30
0.0
 11
0.0
 21
0.0
 31
0.0
  0
LINE
  5
483A
330
47BA
100
AcDbEntity
  8
AM_0 外形線1
100
AcDbLine
 10
-21.0
 20
134.9999999999999
 30
0.0
 11
0.0
 21
134.9999999999999
 31
0.0
  0
LINE
  5
483B
330
47BA
100
AcDbEntity
  8
AM_0 外形線1
100
AcDbLine
 10
-21.0
 20
120.9999999999999
 30
0.0
 11
-0.0000000000001137
 21
120.9999999999999
 31
0.0
  0
LINE
  5
483C
330
47BA
100
AcDbEntity
  8
AM_0 外形線1
100
AcDbLine
 10
0.0
 20
138.9999999999999
 30
0.0
 11
0.0
 21
134.9999999999999
 31
0.0
  0
LINE
  5
483D
330
47BA
100
AcDbEntity
  8
AM_0 外形線1
100
AcDbLine
 10
-0.0000000000001137
 20
120.9999999999999
 30
0.0
 11
0.0
 21
111.4999999999999
 31
0.0
  0
LINE
  5
483E
330
47BA
100
AcDbEntity
  8
AM_0 外形線1
100
AcDbLine
 10
-0.5
 20
110.9999999999999
 30
0.0
 11
-4.0
 21
110.9999999999999
 31
0.0
  0
LINE
  5
493C
330
47BA
100
AcDbEntity
  8
AM_0 外形線1
100
AcDbLine
 10
0.0
 20
0.0
 30
0.0
 11
0.0
 21
-139.0
 31
0.0
  0
ENDBLK
  5
47BC
330
47BA
100
AcDbEntity
  8
0
100
AcDbBlockEnd
  0
BLOCK
  5
49AE
330
49AD
100
AcDbEntity
  8
0
100
AcDbBlockBegin
  2
センタ SEM280
 70
     0
 10
0.0
 20
0.0
 30
0.0
  3
センタ SEM280
  1

  0
LINE
  5
49B0
330
49AD
100
AcDbEntity
  8
AM_0 外形線1
100
AcDbLine
 10
93.49999999999999
 20
94.99999999999987
 30
0.0
 11
55.0
 21
94.99999999999987
 31
0.0
  0
LINE
  5
49B1
330
49AD
100
AcDbEntity
  8
AM_0 外形線1
100
AcDbLine
 10
0.0
 20
93.49999999999987
 30
0.0
 11
0.0
 21
0.0
 31
0.0
  0
LINE
  5
49B2
330
49AD
100
AcDbEntity
  8
AM_3 隠れ線
100
AcDbLine
 10
0.0
 20
5.149999999999863
 30
0.0
 11
33.0
 21
5.149999999999863
 31
0.0
  0
LINE
  5
49B3
330
49AD
100
AcDbEntity
  8
AM_3 隠れ線
100
AcDbLine
 10
0.0
 20
6.0
 30
0.0
 11
28.0
 21
6.0
 31
0.0
  0
LINE
  5
49B4
330
49AD
100
AcDbEntity
  8
AM_3 隠れ線
100
AcDbLine
 10
28.0
 20
6.0
 30
0.0
 11
28.49074800000006
 21
5.149999999999863
 31
0.0
  0
LINE
  5
49B5
330
49AD
100
AcDbEntity
  8
AM_3 隠れ線
100
AcDbLine
 10
28.49074800000006
 20
5.149999999999863
 30
0.0
 11
28.49074800000006
 21
0.0
 31
0.0
  0
LINE
  5
49B6
330
49AD
100
AcDbEntity
  8
AM_3 隠れ線
100
AcDbLine
 10
28.0
 20
6.0
 30
0.0
 11
28.0
 21
0.0
 31
0.0
  0
LINE
  5
49B7
330
49AD
100
AcDbEntity
  8
AM_3 隠れ線
100
AcDbLine
 10
33.0
 20
5.149999999999863
 30
0.0
 11
35.97335399999997
 21
0.0
 31
0.0
  0
LINE
  5
49B8
330
49AD
100
AcDbEntity
  8
AM_3 隠れ線
100
AcDbLine
 10
33.0
 20
5.149999999999863
 30
0.0
 11
33.0
 21
0.0
 31
0.0
  0
LINE
  5
49B9
330
49AD
100
AcDbEntity
  8
AM_0 外形線1
100
AcDbLine
 10
21.0
 20
94.49999999999986
 30
0.0
 11
1.0
 21
94.49999999999986
 31
0.0
  0
LINE
  5
49BA
330
49AD
100
AcDbEntity
  8
AM_0 外形線1
100
AcDbLine
 10
1.0
 20
94.49999999999986
 30
0.0
 11
0.0
 21
93.49999999999987
 31
0.0
  0
ARC
  5
49BD
330
49AD
100
AcDbEntity
  8
AM_0 外形線1
100
AcDbCircle
 10
36.0
 20
0.0
 30
0.0
 40
104.86
100
AcDbArc
 50
80.39300099999948
 51
97.39696600000231
  0
LINE
  5
49BE
330
49AD
100
AcDbEntity
  8
AM_0 外形線1
100
AcDbLine
 10
21.5
 20
102.8526339999999
 30
0.0
 11
21.5
 21
94.99999999999987
 31
0.0
  0
ARC
  5
49BF
330
49AD
100
AcDbEntity
  8
AM_0 外形線1
100
AcDbCircle
 10
21.0
 20
94.99999999999987
 30
0.0
 40
0.5
100
AcDbArc
 50
270.0
 51
0.0
  0
LINE
  5
49C0
330
49AD
100
AcDbEntity
  8
AM_0 外形線1
100
AcDbLine
 10
22.5
 20
103.987353
 30
0.0
 11
21.5
 21
102.8526339999999
 31
0.0
  0
LINE
  5
49C1
330
49AD
100
AcDbEntity
  8
AM_7 中心線
100
AcDbLine
 10
36.0
 20
109.8599999999999
 30
0.0
 11
36.0
 21
93.69999999999992
 31
0.0
  0
LINE
  5
49C2
330
49AD
100
AcDbEntity
  8
AM_0 外形線1
100
AcDbLine
 10
54.5
 20
95.49999999999988
 30
0.0
 11
54.5
 21
102.2151619999999
 31
0.0
  0
ARC
  5
49C3
330
49AD
100
AcDbEntity
  8
AM_0 外形線1
100
AcDbCircle
 10
55.0
 20
95.49999999999988
 30
0.0
 40
0.5
100
AcDbArc
 50
180.0
 51
270.0
  0
LINE
  5
49C4
330
49AD
100
AcDbEntity
  8
AM_0 外形線1
100
AcDbLine
 10
54.5
 20
102.2151619999999
 30
0.0
 11
53.5
 21
103.389408
 31
0.0
  0
LINE
  5
49C5
330
49AD
100
AcDbEntity
  8
AM_0 外形線1
100
AcDbLine
 10
95.5
 20
-94.20000000000003
 30
0.0
 11
95.5
 21
0.0
 31
0.0
  0
LINE
  5
49C6
330
49AD
100
AcDbEntity
  8
AM_0 外形線1
100
AcDbLine
 10
93.49999999999999
 20
-95.0
 30
0.0
 11
93.49999999999999
 21
0.0
 31
0.0
  0
ARC
  5
49C7
330
49AD
100
AcDbEntity
  8
AM_0 外形線1
100
AcDbCircle
 10
136.0
 20
-90.20000000000003
 30
0.0
 40
4.0
100
AcDbArc
 50
270.0
 51
0.0
  0
LINE
  5
49C8
330
49AD
100
AcDbEntity
  8
AM_0 外形線1
100
AcDbLine
 10
95.5
 20
-94.20000000000003
 30
0.0
 11
136.0
 21
-94.20000000000003
 31
0.0
  0
LINE
  5
49C9
330
49AD
100
AcDbEntity
  8
AM_0 外形線1
100
AcDbLine
 10
75.0
 20
-95.0
 30
0.0
 11
93.49999999999999
 21
-95.0
 31
0.0
  0
LINE
  5
49CA
330
49AD
100
AcDbEntity
  8
AM_0 外形線1
100
AcDbLine
 10
93.49999999999999
 20
-95.0
 30
0.0
 11
95.5
 21
-94.20000000000003
 31
0.0
  0
LINE
  5
49CB
330
49AD
100
AcDbEntity
  8
AM_0 外形線1
100
AcDbLine
 10
139.9999999999999
 20
-90.20000000000003
 30
0.0
 11
139.9999999999999
 21
90.19999999999994
 31
0.0
  0
LINE
  5
49CC
330
49AD
100
AcDbEntity
  8
AM_0 外形線1
100
AcDbLine
 10
136.0
 20
94.19999999999992
 30
0.0
 11
95.5
 21
94.19999999999992
 31
0.0
  0
LINE
  5
49CD
330
49AD
100
AcDbEntity
  8
AM_0 外形線1
100
AcDbLine
 10
95.5
 20
94.19999999999992
 30
0.0
 11
93.49999999999999
 21
94.99999999999987
 31
0.0
  0
ARC
  5
49CE
330
49AD
100
AcDbEntity
  8
AM_0 外形線1
100
AcDbCircle
 10
136.0
 20
90.19999999999994
 30
0.0
 40
4.0
100
AcDbArc
 50
0.0
 51
90.0
  0
LINE
  5
49CF
330
49AD
100
AcDbEntity
  8
AM_0 外形線1
100
AcDbLine
 10
139.9999999999999
 20
45.0
 30
0.0
 11
-0.0000000000001137
 21
44.99999999999988
 31
0.0
  0
ARC
  5
6F76
330
49AD
100
AcDbEntity
  8
AM_7 中心線
100
AcDbCircle
 10
36.0
 20
0.0
 30
0.0
 40
101.9999999999998
100
AcDbArc
 50
78.00626073704733
 51
99.13006780606473
  0
ARC
  5
6F77
330
49AD
100
AcDbEntity
  8
AM_0 外形線1
100
AcDbCircle
 10
36.0
 20
0.0
 30
0.0
 40
98.69999999999985
100
AcDbArc
 50
79.1967707631551
 51
98.44788876843006
  0
ENDBLK
  5
49AF
330
49AD
100
AcDbEntity
  8
0
100
AcDbBlockEnd
  0
BLOCK
  5
4BC8
330
4BC7
100
AcDbEntity
  8
0
100
AcDbBlockBegin
  2
リーマボルト SEM280 M12
 70
     0
 10
0.0
 20
0.0
 30
0.0
  3
リーマボルト SEM280 M12
  1

  0
LINE
  5
4BCA
330
4BC7
100
AcDbEntity
  8
AM_0 外形線1
100
AcDbLine
 10
2.0
 20
-7.0
 30
0.0
 11
2.0
 21
7.0
 31
0.0
  0
ARC
  5
4BCB
330
4BC7
100
AcDbEntity
  8
AM_0 外形線1
100
AcDbCircle
 10
10.3861169999999
 20
0.0
 30
0.0
 40
18.386117
100
AcDbArc
 50
162.6436620000026
 51
197.3563379999973
  0
LINE
  5
4BCC
330
4BC7
100
AcDbEntity
  8
AM_0 外形線1
100
AcDbLine
 10
-8.0
 20
9.5
 30
0.0
 11
-8.0
 21
-9.5
 31
0.0
  0
LINE
  5
4BCD
330
4BC7
100
AcDbEntity
  8
AM_0 外形線1
100
AcDbLine
 10
0.0
 20
-5.484826999999994
 30
0.0
 11
-7.162842000000067
 21
-5.484826999999994
 31
0.0
  0
LINE
  5
4BCE
330
4BC7
100
AcDbEntity
  8
AM_0 外形線1
100
AcDbLine
 10
-7.162842000000067
 20
-10.94999999999993
 30
0.0
 11
0.0
 21
-10.94999999999993
 31
0.0
  0
ARC
  5
4BCF
330
4BC7
100
AcDbEntity
  8
AM_0 外形線1
100
AcDbCircle
 10
-3.121672999999987
 20
-8.217412999999964
 30
0.0
 40
4.878327999999998
100
AcDbArc
 50
145.9339550000069
 51
214.0660449999931
  0
LINE
  5
4BD0
330
4BC7
100
AcDbEntity
  8
AM_0 外形線1
100
AcDbLine
 10
-8.0
 20
-9.5
 30
0.0
 11
-7.162842000000067
 21
-10.94999999999993
 31
0.0
  0
ARC
  5
4BD1
330
4BC7
100
AcDbEntity
  8
AM_0 外形線1
100
AcDbCircle
 10
1.0
 20
-7.0
 30
0.0
 40
1.0
100
AcDbArc
 50
0.0
 51
180.0
  0
LINE
  5
4BD2
330
4BC7
100
AcDbEntity
  8
AM_0 外形線1
100
AcDbLine
 10
0.0
 20
5.484828000000105
 30
0.0
 11
-7.162842000000067
 21
5.484828000000105
 31
0.0
  0
LINE
  5
4BD3
330
4BC7
100
AcDbEntity
  8
AM_0 外形線1
100
AcDbLine
 10
0.0
 20
10.95000000000004
 30
0.0
 11
-7.162842000000067
 21
10.95000000000004
 31
0.0
  0
ARC
  5
4BD4
330
4BC7
100
AcDbEntity
  8
AM_0 外形線1
100
AcDbCircle
 10
-3.121672999999987
 20
8.217414000000076
 30
0.0
 40
4.878327999999998
100
AcDbArc
 50
145.9339550000069
 51
214.0660449999931
  0
LINE
  5
4BD5
330
4BC7
100
AcDbEntity
  8
AM_0 外形線1
100
AcDbLine
 10
-7.162842000000067
 20
10.95000000000004
 30
0.0
 11
-8.0
 21
9.5
 31
0.0
  0
ARC
  5
4BD6
330
4BC7
100
AcDbEntity
  8
AM_0 外形線1
100
AcDbCircle
 10
1.0
 20
7.0
 30
0.0
 40
1.0
100
AcDbArc
 50
180.0
 51
0.0
  0
LINE
  5
4BD7
330
4BC7
100
AcDbEntity
  8
AM_0 外形線1
100
AcDbLine
 10
58.0
 20
6.0
 30
0.0
 11
58.0
 21
-6.0
 31
0.0
  0
LINE
  5
4BD8
330
4BC7
100
AcDbEntity
  8
AM_0 外形線1
100
AcDbLine
 10
60.0
 20
4.0
 30
0.0
 11
60.0
 21
-4.0
 31
0.0
  0
ARC
  5
4BD9
330
4BC7
100
AcDbEntity
  8
AM_0 外形線1
100
AcDbCircle
 10
36.61388199999999
 20
0.0
 30
0.0
 40
18.386117
100
AcDbArc
 50
342.6436620000027
 51
17.35633799999734
  0
LINE
  5
4BDA
330
4BC7
100
AcDbEntity
  8
AM_0 外形線1
100
AcDbLine
 10
45.0
 20
-10.94999999999993
 30
0.0
 11
45.0
 21
10.95000000000004
 31
0.0
  0
LINE
  5
4BDB
330
4BC7
100
AcDbEntity
  8
AM_0 外形線1
100
AcDbLine
 10
55.0
 20
9.5
 30
0.0
 11
55.0
 21
-9.5
 31
0.0
  0
LINE
  5
4BDC
330
4BC7
100
AcDbEntity
  8
AM_0 外形線1
100
AcDbLine
 10
36.0
 20
7.0
 30
0.0
 11
36.0
 21
-7.0
 31
0.0
  0
LINE
  5
4BDD
330
4BC7
100
AcDbEntity
  8
AM_0 外形線1
100
AcDbLine
 10
37.0
 20
6.422650000000089
 30
0.0
 11
37.0
 21
-6.422648999999977
 31
0.0
  0
LINE
  5
4BDE
330
4BC7
100
AcDbEntity
  8
AM_0 外形線1
100
AcDbLine
 10
45.0
 20
-5.484826999999994
 30
0.0
 11
54.16284199999996
 21
-5.484826999999994
 31
0.0
  0
LINE
  5
4BDF
330
4BC7
100
AcDbEntity
  8
AM_0 外形線1
100
AcDbLine
 10
54.16284199999996
 20
-10.94999999999993
 30
0.0
 11
45.0
 21
-10.94999999999993
 31
0.0
  0
LINE
  5
4BE0
330
4BC7
100
AcDbEntity
  8
AM_0 外形線1
100
AcDbLine
 10
37.0
 20
-6.422648999999977
 30
0.0
 11
42.0
 21
-6.422648999999977
 31
0.0
  0
LINE
  5
4BE1
330
4BC7
100
AcDbEntity
  8
AM_0 外形線1
100
AcDbLine
 10
45.0
 20
2.0
 30
0.0
 11
42.0
 21
-1.0
 31
0.0
  0
LINE
  5
4BE2
330
4BC7
100
AcDbEntity
  8
AM_0 外形線1
100
AcDbLine
 10
42.0
 20
-10.75
 30
0.0
 11
45.0
 21
-10.75
 31
0.0
  0
LINE
  5
4BE3
330
4BC7
100
AcDbEntity
  8
AM_0 外形線1
100
AcDbLine
 10
37.0
 20
-6.422648999999977
 30
0.0
 11
36.0
 21
-7.0
 31
0.0
  0
LINE
  5
4BE4
330
4BC7
100
AcDbEntity
  8
AM_4 細線
100
AcDbLine
 10
55.0
 20
-5.125
 30
0.0
 11
58.875
 21
-5.125
 31
0.0
  0
LINE
  5
4BE5
330
4BC7
100
AcDbEntity
  8
AM_0 外形線1
100
AcDbLine
 10
58.0
 20
-6.0
 30
0.0
 11
55.0
 21
-6.0
 31
0.0
  0
LINE
  5
4BE6
330
4BC7
100
AcDbEntity
  8
AM_0 外形線1
100
AcDbLine
 10
60.0
 20
-4.0
 30
0.0
 11
58.0
 21
-6.0
 31
0.0
  0
ARC
  5
4BE7
330
4BC7
100
AcDbEntity
  8
AM_0 外形線1
100
AcDbCircle
 10
50.12167199999999
 20
-8.217412999999964
 30
0.0
 40
4.878327999999998
100
AcDbArc
 50
325.9339550000068
 51
34.06604499999309
  0
LINE
  5
4BE8
330
4BC7
100
AcDbEntity
  8
AM_0 外形線1
100
AcDbLine
 10
55.0
 20
-9.5
 30
0.0
 11
54.16284199999996
 21
-10.94999999999993
 31
0.0
  0
LINE
  5
4BE9
330
4BC7
100
AcDbEntity
  8
AM_0 外形線1
100
AcDbLine
 10
45.0
 20
5.484828000000105
 30
0.0
 11
54.16284199999996
 21
5.484828000000105
 31
0.0
  0
LINE
  5
4BEA
330
4BC7
100
AcDbEntity
  8
AM_0 外形線1
100
AcDbLine
 10
37.0
 20
6.422650000000089
 30
0.0
 11
42.0
 21
6.422650000000089
 31
0.0
  0
LINE
  5
4BEB
330
4BC7
100
AcDbEntity
  8
AM_0 外形線1
100
AcDbLine
 10
45.0
 20
10.75
 30
0.0
 11
42.0
 21
10.75
 31
0.0
  0
LINE
  5
4BEC
330
4BC7
100
AcDbEntity
  8
AM_0 外形線1
100
AcDbLine
 10
36.0
 20
7.0
 30
0.0
 11
37.0
 21
6.422650000000089
 31
0.0
  0
LINE
  5
4BED
330
4BC7
100
AcDbEntity
  8
AM_4 細線
100
AcDbLine
 10
55.0
 20
5.125
 30
0.0
 11
58.875
 21
5.125
 31
0.0
  0
LINE
  5
4BEE
330
4BC7
100
AcDbEntity
  8
AM_0 外形線1
100
AcDbLine
 10
58.0
 20
6.0
 30
0.0
 11
60.0
 21
4.0
 31
0.0
  0
LINE
  5
4BEF
330
4BC7
100
AcDbEntity
  8
AM_0 外形線1
100
AcDbLine
 10
55.0
 20
6.0
 30
0.0
 11
58.0
 21
6.0
 31
0.0
  0
ARC
  5
4BF0
330
4BC7
100
AcDbEntity
  8
AM_0 外形線1
100
AcDbCircle
 10
50.12167199999999
 20
8.217414000000076
 30
0.0
 40
4.878327999999998
100
AcDbArc
 50
325.9339550000068
 51
34.06604499999309
  0
LINE
  5
4BF1
330
4BC7
100
AcDbEntity
  8
AM_0 外形線1
100
AcDbLine
 10
54.16284199999996
 20
10.95000000000004
 30
0.0
 11
55.0
 21
9.5
 31
0.0
  0
LINE
  5
4C53
330
4BC7
100
AcDbEntity
  8
AM_0 外形線1
100
AcDbLine
 10
0.0
 20
10.95000000000004
 30
0.0
 11
0.0
 21
-10.94999999999993
 31
0.0
  0
LINE
  5
4C54
330
4BC7
100
AcDbEntity
  8
AM_0 外形線1
100
AcDbLine
 10
2.0
 20
7.0
 30
0.0
 11
36.0
 21
7.0
 31
0.0
  0
LINE
  5
4C55
330
4BC7
100
AcDbEntity
  8
AM_0 外形線1
100
AcDbLine
 10
2.0
 20
-7.0
 30
0.0
 11
36.0
 21
-6.999999999999886
 31
0.0
  0
LINE
  5
4C56
330
4BC7
100
AcDbEntity
  8
AM_0 外形線1
100
AcDbLine
 10
42.0
 20
10.75
 30
0.0
 11
42.0
 21
-10.75
 31
0.0
  0
LINE
  5
5DF9
330
4BC7
100
AcDbEntity
  8
AM_0 外形線1
100
AcDbLine
 10
45.0
 20
10.95000000000004
 30
0.0
 11
54.16284199999996
 21
10.95000000000004
 31
0.0
  0
ENDBLK
  5
4BC9
330
4BC7
100
AcDbEntity
  8
0
100
AcDbBlockEnd
  0
BLOCK
  5
4E08
330
4E07
100
AcDbEntity
  8
0
100
AcDbBlockBegin
  2
*D11
 70
     1
 10
0.0
 20
0.0
 30
0.0
  3
*D11
  1

  0
LINE
  5
6AD7
330
4E07
100
AcDbEntity
  8
AM_5 寸法線
 62
     3
100
AcDbLine
 10
434.308981014722
 20
744.2528036790406
 30
0.0
 11
369.7029200147222
 21
744.2528036790406
 31
0.0
  0
LINE
  5
6AD8
330
4E07
100
AcDbEntity
  8
AM_5 寸法線
 62
     3
100
AcDbLine
 10
434.308981014722
 20
534.2528036790408
 30
0.0
 11
369.7029200147221
 21
534.2528036790408
 31
0.0
  0
LINE
  5
6AD9
330
4E07
100
AcDbEntity
  8
AM_5 寸法線
 62
     3
100
AcDbLine
 10
371.5779200147222
 20
736.7528036790406
 30
0.0
 11
371.5779200147221
 21
541.7528036790408
 31
0.0
  0
INSERT
  5
6ADA
330
4E07
100
AcDbEntity
  8
AM_5 寸法線
 62
     3
100
AcDbBlockReference
  2
_Open30
 10
371.5779200147222
 20
744.2528036790406
 30
0.0
 41
7.5
 42
7.5
 43
7.5
 50
90.0
  0
INSERT
  5
6ADB
330
4E07
100
AcDbEntity
  8
AM_5 寸法線
 62
     3
100
AcDbBlockReference
  2
_Open30
 10
371.5779200147221
 20
534.2528036790408
 30
0.0
 41
7.5
 42
7.5
 43
7.5
 50
270.0
  0
MTEXT
  5
6ADC
330
4E07
100
AcDbEntity
  8
AM_5 寸法線
 62
     3
100
AcDbMText
 10
361.8279200147221
 20
639.2528036790409
 30
0.0
 40
10.5
 41
0.0
 46
0.0
 71
     5
 72
     1
  1
%%c210
  7
SEISA
 11
0.0000000000000001
 21
1.0
 31
0.0
 73
     1
 44
1.0
  0
POINT
  5
6ADD
330
4E07
100
AcDbEntity
  8
Defpoints
 62
     0
100
AcDbPoint
 10
436.183981014722
 20
744.2528036790406
 30
0.0
  0
POINT
  5
6ADE
330
4E07
100
AcDbEntity
  8
Defpoints
 62
     0
100
AcDbPoint
 10
436.183981014722
 20
534.2528036790408
 30
0.0
  0
POINT
  5
6ADF
330
4E07
100
AcDbEntity
  8
Defpoints
 62
     0
100
AcDbPoint
 10
371.5779200147221
 20
534.2528036790408
 30
0.0
  0
ENDBLK
  5
4E09
330
4E07
100
AcDbEntity
  8
0
100
AcDbBlockEnd
  0
BLOCK
  5
4E4C
330
4E4B
100
AcDbEntity
  8
0
100
AcDbBlockBegin
  2
*D12
 70
     1
 10
0.0
 20
0.0
 30
0.0
  3
*D12
  1

  0
LINE
  5
6AE0
330
4E4B
100
AcDbEntity
  8
AM_5 寸法線
 62
     3
100
AcDbLine
 10
572.183981014722
 20
641.1278036790409
 30
0.0
 11
572.183981014722
 21
663.1784918119027
 31
0.0
  0
LINE
  5
6AE1
330
4E4B
100
AcDbEntity
  8
AM_5 寸法線
 62
     3
100
AcDbLine
 10
432.1839810147221
 20
641.1278036790409
 30
0.0
 11
432.1839810147221
 21
663.1784918119027
 31
0.0
  0
LINE
  5
6AE2
330
4E4B
100
AcDbEntity
  8
AM_5 寸法線
 62
     3
100
AcDbLine
 10
564.683981014722
 20
661.3034918119027
 30
0.0
 11
439.683981014722
 21
661.3034918119027
 31
0.0
  0
INSERT
  5
6AE3
330
4E4B
100
AcDbEntity
  8
AM_5 寸法線
 62
     3
100
AcDbBlockReference
  2
_Open30
 10
572.183981014722
 20
661.3034918119027
 30
0.0
 41
7.5
 42
7.5
 43
7.5
  0
INSERT
  5
6AE4
330
4E4B
100
AcDbEntity
  8
AM_5 寸法線
 62
     3
100
AcDbBlockReference
  2
_Open30
 10
432.1839810147221
 20
661.3034918119027
 30
0.0
 41
7.5
 42
7.5
 43
7.5
 50
180.0
  0
MTEXT
  5
6AE5
330
4E4B
100
AcDbEntity
  8
AM_5 寸法線
 62
     3
100
AcDbMText
 10
502.183981014722
 20
671.0534918119027
 30
0.0
 40
10.5
 41
0.0
 46
0.0
 71
     5
 72
     1
  1
140
  7
SEISA
 73
     1
 44
1.0
  0
POINT
  5
6AE6
330
4E4B
100
AcDbEntity
  8
Defpoints
 62
     0
100
AcDbPoint
 10
572.183981014722
 20
639.2528036790409
 30
0.0
  0
POINT
  5
6AE7
330
4E4B
100
AcDbEntity
  8
Defpoints
 62
     0
100
AcDbPoint
 10
432.1839810147221
 20
639.2528036790409
 30
0.0
  0
POINT
  5
6AE8
330
4E4B
100
AcDbEntity
  8
Defpoints
 62
     0
100
AcDbPoint
 10
432.1839810147221
 20
661.3034918119027
 30
0.0
  0
ENDBLK
  5
4E4D
330
4E4B
100
AcDbEntity
  8
0
100
AcDbBlockEnd
  0
BLOCK
  5
4E64
330
4E63
100
AcDbEntity
  8
0
100
AcDbBlockBegin
  2
*D13
 70
     1
 10
0.0
 20
0.0
 30
0.0
  3
*D13
  1

  0
LINE
  5
6AE9
330
4E63
100
AcDbEntity
  8
AM_5 寸法線
 62
     3
100
AcDbLine
 10
586.183981014722
 20
641.1278036790409
 30
0.0
 11
586.183981014722
 21
663.1784918119027
 31
0.0
  0
LINE
  5
6AEA
330
4E63
100
AcDbEntity
  8
AM_5 寸法線
 62
     3
100
AcDbLine
 10
572.183981014722
 20
641.1278036790409
 30
0.0
 11
572.183981014722
 21
663.1784918119027
 31
0.0
  0
LINE
  5
6AEB
330
4E63
100
AcDbEntity
  8
AM_5 寸法線
 62
     3
100
AcDbLine
 10
593.683981014722
 20
661.3034918119027
 30
0.0
 11
601.183981014722
 21
661.3034918119027
 31
0.0
  0
LINE
  5
6AEC
330
4E63
100
AcDbEntity
  8
AM_5 寸法線
 62
     3
100
AcDbLine
 10
564.683981014722
 20
661.3034918119027
 30
0.0
 11
557.183981014722
 21
661.3034918119027
 31
0.0
  0
MTEXT
  5
6AED
330
4E63
100
AcDbEntity
  8
AM_5 寸法線
 62
     3
100
AcDbMText
 10
601.0229955938013
 20
670.2302932487822
 30
0.0
 40
10.5
 41
0.0
 46
0.0
 71
     5
 72
     1
  1
14
  7
SEISA
 73
     1
 44
1.0
  0
LINE
  5
6AEE
330
4E63
100
AcDbEntity
  8
AM_5 寸法線
 62
     3
100
AcDbLine
 10
586.183981014722
 20
661.3034918119027
 30
0.0
 11
572.183981014722
 21
661.3034918119027
 31
0.0
  0
INSERT
  5
6AEF
330
4E63
100
AcDbEntity
  8
AM_5 寸法線
 62
     3
100
AcDbBlockReference
  2
_Open30
 10
586.183981014722
 20
661.3034918119027
 30
0.0
 41
7.5
 42
7.5
 43
7.5
 50
180.0
  0
INSERT
  5
6AF0
330
4E63
100
AcDbEntity
  8
AM_5 寸法線
 62
     3
100
AcDbBlockReference
  2
_Open30
 10
572.183981014722
 20
661.3034918119027
 30
0.0
 41
7.5
 42
7.5
 43
7.5
  0
POINT
  5
6AF1
330
4E63
100
AcDbEntity
  8
Defpoints
 62
     0
100
AcDbPoint
 10
586.183981014722
 20
639.2528036790409
 30
0.0
  0
POINT
  5
6AF2
330
4E63
100
AcDbEntity
  8
Defpoints
 62
     0
100
AcDbPoint
 10
572.183981014722
 20
639.2528036790409
 30
0.0
  0
POINT
  5
6AF3
330
4E63
100
AcDbEntity
  8
Defpoints
 62
     0
100
AcDbPoint
 10
572.183981014722
 20
661.3034918119027
 30
0.0
  0
ENDBLK
  5
4E65
330
4E63
100
AcDbEntity
  8
0
100
AcDbBlockEnd
  0
BLOCK
  5
4E80
330
4E7F
100
AcDbEntity
  8
0
100
AcDbBlockBegin
  2
*D14
 70
     1
 10
0.0
 20
0.0
 30
0.0
  3
*D14
  1

  0
LINE
  5
6AF4
330
4E7F
100
AcDbEntity
  8
AM_5 寸法線
 62
     3
100
AcDbLine
 10
586.183981014722
 20
641.1278036790409
 30
0.0
 11
586.183981014722
 21
663.1784918119027
 31
0.0
  0
LINE
  5
6AF5
330
4E7F
100
AcDbEntity
  8
AM_5 寸法線
 62
     3
100
AcDbLine
 10
726.1839810147217
 20
641.1278036790409
 30
0.0
 11
726.1839810147217
 21
663.1784918119027
 31
0.0
  0
LINE
  5
6AF6
330
4E7F
100
AcDbEntity
  8
AM_5 寸法線
 62
     3
100
AcDbLine
 10
593.683981014722
 20
661.3034918119027
 30
0.0
 11
718.6839810147217
 21
661.3034918119027
 31
0.0
  0
INSERT
  5
6AF7
330
4E7F
100
AcDbEntity
  8
AM_5 寸法線
 62
     3
100
AcDbBlockReference
  2
_Open30
 10
586.183981014722
 20
661.3034918119027
 30
0.0
 41
7.5
 42
7.5
 43
7.5
 50
180.0
  0
INSERT
  5
6AF8
330
4E7F
100
AcDbEntity
  8
AM_5 寸法線
 62
     3
100
AcDbBlockReference
  2
_Open30
 10
726.1839810147217
 20
661.3034918119027
 30
0.0
 41
7.5
 42
7.5
 43
7.5
  0
MTEXT
  5
6AF9
330
4E7F
100
AcDbEntity
  8
AM_5 寸法線
 62
     3
100
AcDbMText
 10
656.1839810147219
 20
671.0534918119027
 30
0.0
 40
10.5
 41
0.0
 46
0.0
 71
     5
 72
     1
  1
140
  7
SEISA
 73
     1
 44
1.0
  0
POINT
  5
6AFA
330
4E7F
100
AcDbEntity
  8
Defpoints
 62
     0
100
AcDbPoint
 10
586.183981014722
 20
639.2528036790409
 30
0.0
  0
POINT
  5
6AFB
330
4E7F
100
AcDbEntity
  8
Defpoints
 62
     0
100
AcDbPoint
 10
726.1839810147217
 20
639.2528036790409
 30
0.0
  0
POINT
  5
6AFC
330
4E7F
100
AcDbEntity
  8
Defpoints
 62
     0
100
AcDbPoint
 10
726.1839810147217
 20
661.3034918119027
 30
0.0
  0
ENDBLK
  5
4E81
330
4E7F
100
AcDbEntity
  8
0
100
AcDbBlockEnd
  0
BLOCK
  5
4F2E
330
4F2D
100
AcDbEntity
  8
0
100
AcDbBlockBegin
  2
*D15
 70
     1
 10
0.0
 20
0.0
 30
0.0
  3
*D15
  1

  0
LINE
  5
6AFD
330
4F2D
100
AcDbEntity
  8
AM_5 寸法線
 62
     3
100
AcDbLine
 10
645.183981014722
 20
732.3778036790407
 30
0.0
 11
645.183981014722
 21
708.5616741873677
 31
0.0
  0
LINE
  5
6AFE
330
4F2D
100
AcDbEntity
  8
AM_5 寸法線
 62
     3
100
AcDbLine
 10
640.683981014722
 20
732.8778036790406
 30
0.0
 11
640.683981014722
 21
708.5616741873677
 31
0.0
  0
LINE
  5
6AFF
330
4F2D
100
AcDbEntity
  8
AM_5 寸法線
 62
     3
100
AcDbLine
 10
633.1839810147219
 20
710.4366741873676
 30
0.0
 11
625.6839810147218
 21
710.4366741873676
 31
0.0
  0
LINE
  5
6B00
330
4F2D
100
AcDbEntity
  8
AM_5 寸法線
 62
     3
100
AcDbLine
 10
652.683981014722
 20
710.4366741873676
 30
0.0
 11
688.9839810147218
 21
710.4366741873676
 31
0.0
  0
LINE
  5
6B01
330
4F2D
100
AcDbEntity
  8
AM_5 寸法線
 62
     3
100
AcDbLine
 10
640.683981014722
 20
710.4366741873676
 30
0.0
 11
645.183981014722
 21
710.4366741873676
 31
0.0
  0
INSERT
  5
6B02
330
4F2D
100
AcDbEntity
  8
AM_5 寸法線
 62
     3
100
AcDbBlockReference
  2
_Open30
 10
640.683981014722
 20
710.4366741873676
 30
0.0
 41
7.5
 42
7.5
 43
7.5
  0
INSERT
  5
6B03
330
4F2D
100
AcDbEntity
  8
AM_5 寸法線
 62
     3
100
AcDbBlockReference
  2
_Open30
 10
645.183981014722
 20
710.4366741873676
 30
0.0
 41
7.5
 42
7.5
 43
7.5
 50
180.0
  0
MTEXT
  5
6B04
330
4F2D
100
AcDbEntity
  8
AM_5 寸法線
 62
     3
100
AcDbMText
 10
674.5839810147218
 20
720.1866741873677
 30
0.0
 40
10.5
 41
0.0
 46
0.0
 71
     5
 72
     1
  1
4.5
  7
SEISA
 73
     1
 44
1.0
  0
POINT
  5
6B05
330
4F2D
100
AcDbEntity
  8
Defpoints
 62
     0
100
AcDbPoint
 10
645.183981014722
 20
734.2528036790406
 30
0.0
  0
POINT
  5
6B06
102
{ACAD_REACTORS
330
7029
102
}
330
4F2D
100
AcDbEntity
  8
Defpoints
 62
     0
100
AcDbPoint
 10
640.683981014722
 20
734.7528036790406
 30
0.0
  0
POINT
  5
6B07
330
4F2D
100
AcDbEntity
  8
Defpoints
 62
     0
100
AcDbPoint
 10
640.683981014722
 20
710.4366741873676
 30
0.0
  0
ENDBLK
  5
4F2F
330
4F2D
100
AcDbEntity
  8
0
100
AcDbBlockEnd
  0
BLOCK
  5
4FF3
330
4FF2
100
AcDbEntity
  8
0
100
AcDbBlockBegin
  2
*D16
 70
     1
 10
0.0
 20
0.0
 30
0.0
  3
*D16
  1

  0
LINE
  5
6B0F
330
4FF2
100
AcDbEntity
  8
AM_5 寸法線
 62
     3
100
AcDbLine
 10
681.558981014722
 20
734.2528036790406
 30
0.0
 11
788.6650410147218
 21
734.2528036790406
 31
0.0
  0
LINE
  5
6B10
330
4FF2
100
AcDbEntity
  8
AM_5 寸法線
 62
     3
100
AcDbLine
 10
681.558981014722
 20
544.2528036790409
 30
0.0
 11
788.6650410147218
 21
544.2528036790406
 31
0.0
  0
LINE
  5
6B11
330
4FF2
100
AcDbEntity
  8
AM_5 寸法線
 62
     3
100
AcDbLine
 10
786.7900410147218
 20
726.7528036790406
 30
0.0
 11
786.7900410147218
 21
551.7528036790406
 31
0.0
  0
INSERT
  5
6B12
330
4FF2
100
AcDbEntity
  8
AM_5 寸法線
 62
     3
100
AcDbBlockReference
  2
_Open30
 10
786.7900410147218
 20
734.2528036790406
 30
0.0
 41
7.5
 42
7.5
 43
7.5
 50
90.0
  0
INSERT
  5
6B13
330
4FF2
100
AcDbEntity
  8
AM_5 寸法線
 62
     3
100
AcDbBlockReference
  2
_Open30
 10
786.7900410147218
 20
544.2528036790406
 30
0.0
 41
7.5
 42
7.5
 43
7.5
 50
270.0
  0
MTEXT
  5
6B14
330
4FF2
100
AcDbEntity
  8
AM_5 寸法線
 62
     3
100
AcDbMText
 10
777.0400410147216
 20
639.2528036790409
 30
0.0
 40
10.5
 41
0.0
 46
0.0
 71
     5
 72
     1
  1
%%c190
  7
SEISA
 11
0.0000000000000001
 21
1.0
 31
0.0
 73
     1
 44
1.0
  0
POINT
  5
6B15
330
4FF2
100
AcDbEntity
  8
Defpoints
 62
     0
100
AcDbPoint
 10
679.6839810147218
 20
734.2528036790406
 30
0.0
  0
POINT
  5
6B16
330
4FF2
100
AcDbEntity
  8
Defpoints
 62
     0
100
AcDbPoint
 10
679.6839810147218
 20
544.2528036790409
 30
0.0
  0
POINT
  5
6B17
330
4FF2
100
AcDbEntity
  8
Defpoints
 62
     0
100
AcDbPoint
 10
786.7900410147218
 20
544.2528036790406
 30
0.0
  0
ENDBLK
  5
4FF4
330
4FF2
100
AcDbEntity
  8
0
100
AcDbBlockEnd
  0
BLOCK
  5
501D
330
501C
100
AcDbEntity
  8
0
100
AcDbBlockBegin
  2
*D17
 70
     1
 10
0.0
 20
0.0
 30
0.0
  3
*D17
  1

  0
LINE
  5
6B18
330
501C
100
AcDbEntity
  8
AM_5 寸法線
 62
     3
100
AcDbLine
 10
659.058981014722
 20
751.2528036790406
 30
0.0
 11
818.6650410147221
 21
751.2528036790406
 31
0.0
  0
LINE
  5
6B19
330
501C
100
AcDbEntity
  8
AM_5 寸法線
 62
     3
100
AcDbLine
 10
659.058981014722
 20
527.2528036790409
 30
0.0
 11
818.6650410147221
 21
527.2528036790406
 31
0.0
  0
LINE
  5
6B1A
330
501C
100
AcDbEntity
  8
AM_5 寸法線
 62
     3
100
AcDbLine
 10
816.790041014722
 20
743.7528036790406
 30
0.0
 11
816.790041014722
 21
534.7528036790406
 31
0.0
  0
INSERT
  5
6B1B
330
501C
100
AcDbEntity
  8
AM_5 寸法線
 62
     3
100
AcDbBlockReference
  2
_Open30
 10
816.790041014722
 20
751.2528036790406
 30
0.0
 41
7.5
 42
7.5
 43
7.5
 50
90.0
  0
INSERT
  5
6B1C
330
501C
100
AcDbEntity
  8
AM_5 寸法線
 62
     3
100
AcDbBlockReference
  2
_Open30
 10
816.790041014722
 20
527.2528036790406
 30
0.0
 41
7.5
 42
7.5
 43
7.5
 50
270.0
  0
MTEXT
  5
6B1D
330
501C
100
AcDbEntity
  8
AM_5 寸法線
 62
     3
100
AcDbMText
 10
807.040041014722
 20
639.2528036790409
 30
0.0
 40
10.5
 41
0.0
 46
0.0
 71
     5
 72
     1
  1
%%c224
  7
SEISA
 11
0.0000000000000001
 21
1.0
 31
0.0
 73
     1
 44
1.0
  0
POINT
  5
6B1E
330
501C
100
AcDbEntity
  8
Defpoints
 62
     0
100
AcDbPoint
 10
657.183981014722
 20
751.2528036790406
 30
0.0
  0
POINT
  5
6B1F
330
501C
100
AcDbEntity
  8
Defpoints
 62
     0
100
AcDbPoint
 10
657.183981014722
 20
527.2528036790409
 30
0.0
  0
POINT
  5
6B20
330
501C
100
AcDbEntity
  8
Defpoints
 62
     0
100
AcDbPoint
 10
816.790041014722
 20
527.2528036790406
 30
0.0
  0
ENDBLK
  5
501E
330
501C
100
AcDbEntity
  8
0
100
AcDbBlockEnd
  0
BLOCK
  5
5035
330
5034
100
AcDbEntity
  8
0
100
AcDbBlockBegin
  2
*D18
 70
     1
 10
0.0
 20
0.0
 30
0.0
  3
*D18
  1

  0
LINE
  5
6B21
330
5034
100
AcDbEntity
  8
AM_5 寸法線
 62
     3
100
AcDbLine
 10
601.0589810147219
 20
779.2528036790407
 30
0.0
 11
848.6650410147221
 21
779.2528036790407
 31
0.0
  0
LINE
  5
6B22
330
5034
100
AcDbEntity
  8
AM_5 寸法線
 62
     3
100
AcDbLine
 10
601.0589810147219
 20
499.2528036790409
 30
0.0
 11
848.665041014722
 21
499.2528036790408
 31
0.0
  0
LINE
  5
6B23
330
5034
100
AcDbEntity
  8
AM_5 寸法線
 62
     3
100
AcDbLine
 10
846.7900410147221
 20
771.7528036790406
 30
0.0
 11
846.7900410147221
 21
506.7528036790408
 31
0.0
  0
INSERT
  5
6B24
330
5034
100
AcDbEntity
  8
AM_5 寸法線
 62
     3
100
AcDbBlockReference
  2
_Open30
 10
846.7900410147221
 20
779.2528036790407
 30
0.0
 41
7.5
 42
7.5
 43
7.5
 50
90.0
  0
INSERT
  5
6B25
330
5034
100
AcDbEntity
  8
AM_5 寸法線
 62
     3
100
AcDbBlockReference
  2
_Open30
 10
846.7900410147221
 20
499.2528036790408
 30
0.0
 41
7.5
 42
7.5
 43
7.5
 50
270.0
  0
MTEXT
  5
6B26
330
5034
100
AcDbEntity
  8
AM_5 寸法線
 62
     3
100
AcDbMText
 10
837.0400410147219
 20
639.2528036790409
 30
0.0
 40
10.5
 41
0.0
 46
0.0
 71
     5
 72
     1
  1
%%c280
  7
SEISA
 11
0.0000000000000001
 21
1.0
 31
0.0
 73
     1
 44
1.0
  0
POINT
  5
6B27
330
5034
100
AcDbEntity
  8
Defpoints
 62
     0
100
AcDbPoint
 10
599.183981014722
 20
779.2528036790407
 30
0.0
  0
POINT
  5
6B28
330
5034
100
AcDbEntity
  8
Defpoints
 62
     0
100
AcDbPoint
 10
599.183981014722
 20
499.2528036790409
 30
0.0
  0
POINT
  5
6B29
330
5034
100
AcDbEntity
  8
Defpoints
 62
     0
100
AcDbPoint
 10
846.7900410147221
 20
499.2528036790408
 30
0.0
  0
ENDBLK
  5
5036
330
5034
100
AcDbEntity
  8
0
100
AcDbBlockEnd
  0
BLOCK
  5
50B9
330
50B8
100
AcDbEntity
  8
0
100
AcDbBlockBegin
  2
*D19
 70
     1
 10
0.0
 20
0.0
 30
0.0
  3
*D19
  1

  0
LINE
  5
6B2A
330
50B8
100
AcDbEntity
  8
AM_5 寸法線
 62
     3
100
AcDbLine
 10
579.1839810147219
 20
498.3778036790408
 30
0.0
 11
579.1839810147219
 21
452.3778036790409
 31
0.0
  0
LINE
  5
6B2B
330
50B8
100
AcDbEntity
  8
AM_5 寸法線
 62
     3
100
AcDbLine
 10
558.1839810147219
 20
498.3778036790408
 30
0.0
 11
558.1839810147219
 21
452.3778036790409
 31
0.0
  0
LINE
  5
6B2C
330
50B8
100
AcDbEntity
  8
AM_5 寸法線
 62
     3
100
AcDbLine
 10
586.683981014722
 20
454.2528036790407
 30
0.0
 11
594.183981014722
 21
454.2528036790407
 31
0.0
  0
LINE
  5
6B2D
330
50B8
100
AcDbEntity
  8
AM_5 寸法線
 62
     3
100
AcDbLine
 10
550.6839810147218
 20
454.2528036790407
 30
0.0
 11
543.183981014722
 21
454.2528036790407
 31
0.0
  0
MTEXT
  5
6B2E
330
50B8
100
AcDbEntity
  8
AM_5 寸法線
 62
     3
100
AcDbMText
 10
545.1139899853765
 20
464.0103632741651
 30
0.0
 40
10.5
 41
0.0
 46
0.0
 71
     5
 72
     1
  1
21
  7
SEISA
 73
     1
 44
1.0
  0
LINE
  5
6B2F
330
50B8
100
AcDbEntity
  8
AM_5 寸法線
 62
     3
100
AcDbLine
 10
579.1839810147219
 20
454.2528036790407
 30
0.0
 11
558.1839810147219
 21
454.2528036790407
 31
0.0
  0
INSERT
  5
6B30
330
50B8
100
AcDbEntity
  8
AM_5 寸法線
 62
     3
100
AcDbBlockReference
  2
GENDOT
 10
579.1839810147219
 20
454.2528036790407
 30
0.0
 41
7.5
 42
7.5
 43
7.5
 50
180.0
  0
INSERT
  5
6B31
330
50B8
100
AcDbEntity
  8
AM_5 寸法線
 62
     3
100
AcDbBlockReference
  2
_Open30
 10
558.1839810147219
 20
454.2528036790407
 30
0.0
 41
7.5
 42
7.5
 43
7.5
  0
POINT
  5
6B32
330
50B8
100
AcDbEntity
  8
Defpoints
 62
     0
100
AcDbPoint
 10
579.1839810147219
 20
500.2528036790407
 30
0.0
  0
POINT
  5
6B33
330
50B8
100
AcDbEntity
  8
Defpoints
 62
     0
100
AcDbPoint
 10
558.1839810147219
 20
500.2528036790407
 30
0.0
  0
POINT
  5
6B34
330
50B8
100
AcDbEntity
  8
Defpoints
 62
     0
100
AcDbPoint
 10
558.1839810147219
 20
454.2528036790407
 30
0.0
  0
ENDBLK
  5
50BA
330
50B8
100
AcDbEntity
  8
0
100
AcDbBlockEnd
  0
BLOCK
  5
50D5
330
50D4
100
AcDbEntity
  8
0
100
AcDbBlockBegin
  2
*D20
 70
     1
 10
0.0
 20
0.0
 30
0.0
  3
*D20
  1

  0
LINE
  5
6B35
330
50D4
100
AcDbEntity
  8
AM_5 寸法線
 62
     3
100
AcDbLine
 10
600.1839810147219
 20
498.3778036790408
 30
0.0
 11
600.1839810147219
 21
452.3778036790409
 31
0.0
  0
LINE
  5
6B36
330
50D4
100
AcDbEntity
  8
AM_5 寸法線
 62
     3
100
AcDbLine
 10
571.6839810147218
 20
454.2528036790407
 30
0.0
 11
564.183981014722
 21
454.2528036790407
 31
0.0
  0
LINE
  5
6B37
330
50D4
100
AcDbEntity
  8
AM_5 寸法線
 62
     3
100
AcDbLine
 10
607.683981014722
 20
454.2528036790407
 30
0.0
 11
615.183981014722
 21
454.2528036790407
 31
0.0
  0
MTEXT
  5
6B38
330
50D4
100
AcDbEntity
  8
AM_5 寸法線
 62
     3
100
AcDbMText
 10
614.0198847744517
 20
463.9462264866906
 30
0.0
 40
10.5
 41
0.0
 46
0.0
 71
     5
 72
     1
  1
21
  7
SEISA
 73
     1
 44
1.0
  0
LINE
  5
6B39
330
50D4
100
AcDbEntity
  8
AM_5 寸法線
 62
     3
100
AcDbLine
 10
579.1839810147219
 20
454.2528036790407
 30
0.0
 11
600.1839810147219
 21
454.2528036790407
 31
0.0
  0
INSERT
  5
6B3A
330
50D4
100
AcDbEntity
  8
AM_5 寸法線
 62
     3
100
AcDbBlockReference
  2
GENDOT
 10
579.1839810147219
 20
454.2528036790407
 30
0.0
 41
7.5
 42
7.5
 43
7.5
  0
INSERT
  5
6B3B
330
50D4
100
AcDbEntity
  8
AM_5 寸法線
 62
     3
100
AcDbBlockReference
  2
_Open30
 10
600.1839810147219
 20
454.2528036790407
 30
0.0
 41
7.5
 42
7.5
 43
7.5
 50
180.0
  0
POINT
  5
6B3C
330
50D4
100
AcDbEntity
  8
Defpoints
 62
     0
100
AcDbPoint
 10
579.1839810147219
 20
500.2528036790407
 30
0.0
  0
POINT
  5
6B3D
330
50D4
100
AcDbEntity
  8
Defpoints
 62
     0
100
AcDbPoint
 10
600.1839810147219
 20
500.2528036790407
 30
0.0
  0
POINT
  5
6B3E
330
50D4
100
AcDbEntity
  8
Defpoints
 62
     0
100
AcDbPoint
 10
600.1839810147219
 20
454.2528036790407
 30
0.0
  0
ENDBLK
  5
50D6
330
50D4
100
AcDbEntity
  8
0
100
AcDbBlockEnd
  0
BLOCK
  5
5118
330
5117
100
AcDbEntity
  8
0
100
AcDbBlockBegin
  2
*D21
 70
     1
 10
0.0
 20
0.0
 30
0.0
  3
*D21
  1

  0
LINE
  5
6B3F
330
5117
100
AcDbEntity
  8
AM_5 寸法線
 62
     3
100
AcDbLine
 10
579.1839810147219
 20
498.3778036790408
 30
0.0
 11
579.1839810147219
 21
422.3778036790409
 31
0.0
  0
LINE
  5
6B40
330
5117
100
AcDbEntity
  8
AM_5 寸法線
 62
     3
100
AcDbLine
 10
432.183981014722
 20
536.3778036790408
 30
0.0
 11
432.183981014722
 21
422.3778036790409
 31
0.0
  0
LINE
  5
6B41
330
5117
100
AcDbEntity
  8
AM_5 寸法線
 62
     3
100
AcDbLine
 10
571.6839810147218
 20
424.2528036790409
 30
0.0
 11
439.683981014722
 21
424.2528036790409
 31
0.0
  0
INSERT
  5
6B42
330
5117
100
AcDbEntity
  8
AM_5 寸法線
 62
     3
100
AcDbBlockReference
  2
_Open30
 10
579.1839810147219
 20
424.2528036790409
 30
0.0
 41
7.5
 42
7.5
 43
7.5
  0
INSERT
  5
6B43
330
5117
100
AcDbEntity
  8
AM_5 寸法線
 62
     3
100
AcDbBlockReference
  2
_Open30
 10
432.183981014722
 20
424.2528036790409
 30
0.0
 41
7.5
 42
7.5
 43
7.5
 50
180.0
  0
MTEXT
  5
6B44
330
5117
100
AcDbEntity
  8
AM_5 寸法線
 62
     3
100
AcDbMText
 10
505.683981014722
 20
434.0028036790409
 30
0.0
 40
10.5
 41
0.0
 46
0.0
 71
     5
 72
     1
  1
147
  7
SEISA
 73
     1
 44
1.0
  0
POINT
  5
6B45
330
5117
100
AcDbEntity
  8
Defpoints
 62
     0
100
AcDbPoint
 10
579.1839810147219
 20
500.2528036790407
 30
0.0
  0
POINT
  5
6B46
330
5117
100
AcDbEntity
  8
Defpoints
 62
     0
100
AcDbPoint
 10
432.183981014722
 20
538.2528036790408
 30
0.0
  0
POINT
  5
6B47
330
5117
100
AcDbEntity
  8
Defpoints
 62
     0
100
AcDbPoint
 10
432.183981014722
 20
424.2528036790409
 30
0.0
  0
ENDBLK
  5
5119
330
5117
100
AcDbEntity
  8
0
100
AcDbBlockEnd
  0
BLOCK
  5
5130
330
512F
100
AcDbEntity
  8
0
100
AcDbBlockBegin
  2
*D22
 70
     1
 10
0.0
 20
0.0
 30
0.0
  3
*D22
  1

  0
LINE
  5
6B48
330
512F
100
AcDbEntity
  8
AM_5 寸法線
 62
     3
100
AcDbLine
 10
579.1839810147219
 20
498.3778036790408
 30
0.0
 11
579.1839810147219
 21
422.3778036790409
 31
0.0
  0
LINE
  5
6B49
330
512F
100
AcDbEntity
  8
AM_5 寸法線
 62
     3
100
AcDbLine
 10
661.183981014722
 20
529.3778036790408
 30
0.0
 11
661.183981014722
 21
422.3778036790409
 31
0.0
  0
LINE
  5
6B4A
330
512F
100
AcDbEntity
  8
AM_5 寸法線
 62
     3
100
AcDbLine
 10
586.683981014722
 20
424.2528036790409
 30
0.0
 11
653.683981014722
 21
424.2528036790409
 31
0.0
  0
INSERT
  5
6B4B
330
512F
100
AcDbEntity
  8
AM_5 寸法線
 62
     3
100
AcDbBlockReference
  2
_Open30
 10
579.1839810147219
 20
424.2528036790409
 30
0.0
 41
7.5
 42
7.5
 43
7.5
 50
180.0
  0
INSERT
  5
6B4C
330
512F
100
AcDbEntity
  8
AM_5 寸法線
 62
     3
100
AcDbBlockReference
  2
_Open30
 10
661.183981014722
 20
424.2528036790409
 30
0.0
 41
7.5
 42
7.5
 43
7.5
  0
MTEXT
  5
6B4D
330
512F
100
AcDbEntity
  8
AM_5 寸法線
 62
     3
100
AcDbMText
 10
620.183981014722
 20
434.0028036790409
 30
0.0
 40
10.5
 41
0.0
 46
0.0
 71
     5
 72
     1
  1
82
  7
SEISA
 73
     1
 44
1.0
  0
POINT
  5
6B4E
330
512F
100
AcDbEntity
  8
Defpoints
 62
     0
100
AcDbPoint
 10
579.1839810147219
 20
500.2528036790407
 30
0.0
  0
POINT
  5
6B4F
330
512F
100
AcDbEntity
  8
Defpoints
 62
     0
100
AcDbPoint
 10
661.183981014722
 20
531.2528036790409
 30
0.0
  0
POINT
  5
6B50
330
512F
100
AcDbEntity
  8
Defpoints
 62
     0
100
AcDbPoint
 10
661.183981014722
 20
424.2528036790409
 30
0.0
  0
ENDBLK
  5
5131
330
512F
100
AcDbEntity
  8
0
100
AcDbBlockEnd
  0
BLOCK
  5
5148
330
5147
100
AcDbEntity
  8
0
100
AcDbBlockBegin
  2
*D23
 70
     1
 10
0.0
 20
0.0
 30
0.0
  3
*D23
  1

  0
LINE
  5
6B51
330
5147
100
AcDbEntity
  8
AM_5 寸法線
 62
     3
100
AcDbLine
 10
661.183981014722
 20
529.3778036790408
 30
0.0
 11
661.183981014722
 21
422.3778036790409
 31
0.0
  0
LINE
  5
6B52
330
5147
100
AcDbEntity
  8
AM_5 寸法線
 62
     3
100
AcDbLine
 10
726.1839810147217
 20
547.1778036790408
 30
0.0
 11
726.1839810147217
 21
422.3778036790409
 31
0.0
  0
LINE
  5
6B53
330
5147
100
AcDbEntity
  8
AM_5 寸法線
 62
     3
100
AcDbLine
 10
668.683981014722
 20
424.2528036790409
 30
0.0
 11
718.6839810147217
 21
424.2528036790409
 31
0.0
  0
INSERT
  5
6B54
330
5147
100
AcDbEntity
  8
AM_5 寸法線
 62
     3
100
AcDbBlockReference
  2
_Open30
 10
661.183981014722
 20
424.2528036790409
 30
0.0
 41
7.5
 42
7.5
 43
7.5
 50
180.0
  0
INSERT
  5
6B55
330
5147
100
AcDbEntity
  8
AM_5 寸法線
 62
     3
100
AcDbBlockReference
  2
_Open30
 10
726.1839810147217
 20
424.2528036790409
 30
0.0
 41
7.5
 42
7.5
 43
7.5
  0
MTEXT
  5
6B56
330
5147
100
AcDbEntity
  8
AM_5 寸法線
 62
     3
100
AcDbMText
 10
693.6839810147217
 20
434.0028036790409
 30
0.0
 40
10.5
 41
0.0
 46
0.0
 71
     5
 72
     1
  1
65
  7
SEISA
 73
     1
 44
1.0
  0
POINT
  5
6B57
330
5147
100
AcDbEntity
  8
Defpoints
 62
     0
100
AcDbPoint
 10
661.183981014722
 20
531.2528036790409
 30
0.0
  0
POINT
  5
6B58
330
5147
100
AcDbEntity
  8
Defpoints
 62
     0
100
AcDbPoint
 10
726.1839810147217
 20
549.0528036790408
 30
0.0
  0
POINT
  5
6B59
330
5147
100
AcDbEntity
  8
Defpoints
 62
     0
100
AcDbPoint
 10
726.1839810147217
 20
424.2528036790409
 30
0.0
  0
ENDBLK
  5
5149
330
5147
100
AcDbEntity
  8
0
100
AcDbBlockEnd
  0
BLOCK
  5
5160
330
515F
100
AcDbEntity
  8
0
100
AcDbBlockBegin
  2
*D24
 70
     1
 10
0.0
 20
0.0
 30
0.0
  3
*D24
  1

  0
LINE
  5
6B5A
330
515F
100
AcDbEntity
  8
AM_5 寸法線
 62
     3
100
AcDbLine
 10
432.183981014722
 20
536.3778036790408
 30
0.0
 11
432.183981014722
 21
392.3778036790409
 31
0.0
  0
LINE
  5
6B5B
330
515F
100
AcDbEntity
  8
AM_5 寸法線
 62
     3
100
AcDbLine
 10
726.183981014722
 20
547.1778036790408
 30
0.0
 11
726.183981014722
 21
392.3778036790409
 31
0.0
  0
LINE
  5
6B5C
330
515F
100
AcDbEntity
  8
AM_5 寸法線
 62
     3
100
AcDbLine
 10
439.683981014722
 20
394.2528036790409
 30
0.0
 11
718.683981014722
 21
394.2528036790409
 31
0.0
  0
INSERT
  5
6B5D
330
515F
100
AcDbEntity
  8
AM_5 寸法線
 62
     3
100
AcDbBlockReference
  2
_Open30
 10
432.183981014722
 20
394.2528036790409
 30
0.0
 41
7.5
 42
7.5
 43
7.5
 50
180.0
  0
INSERT
  5
6B5E
330
515F
100
AcDbEntity
  8
AM_5 寸法線
 62
     3
100
AcDbBlockReference
  2
_Open30
 10
726.183981014722
 20
394.2528036790409
 30
0.0
 41
7.5
 42
7.5
 43
7.5
  0
MTEXT
  5
6B5F
330
515F
100
AcDbEntity
  8
AM_5 寸法線
 62
     3
100
AcDbMText
 10
579.1839810147219
 20
404.0028036790408
 30
0.0
 40
10.5
 41
0.0
 46
0.0
 71
     5
 72
     1
  1
294
  7
SEISA
 73
     1
 44
1.0
  0
POINT
  5
6B60
330
515F
100
AcDbEntity
  8
Defpoints
 62
     0
100
AcDbPoint
 10
432.183981014722
 20
538.2528036790408
 30
0.0
  0
POINT
  5
6B61
330
515F
100
AcDbEntity
  8
Defpoints
 62
     0
100
AcDbPoint
 10
726.183981014722
 20
549.0528036790408
 30
0.0
  0
POINT
  5
6B62
330
515F
100
AcDbEntity
  8
Defpoints
 62
     0
100
AcDbPoint
 10
726.183981014722
 20
394.2528036790409
 30
0.0
  0
ENDBLK
  5
5161
330
515F
100
AcDbEntity
  8
0
100
AcDbBlockEnd
  0
BLOCK
  5
6531
330
652E
100
AcDbEntity
  8
0
100
AcDbBlockBegin
  2
GENDOT
 70
     0
 10
0.0
 20
0.0
 30
0.0
  3
GENDOT
  1

  0
LINE
  5
652F
330
652E
100
AcDbEntity
  8
0
100
AcDbLine
 10
0.0
 20
0.0
 30
0.0
 11
-1.0
 21
0.0
 31
0.0
  0
LWPOLYLINE
  5
6530
330
652E
100
AcDbEntity
  8
0
100
AcDbPolyline
 90
        2
 70
     1
 43
0.25
 10
-0.125
 20
0.0
 42
1.0
 10
0.125
 20
0.0
 42
1.0
  0
ENDBLK
  5
6532
330
652E
100
AcDbEntity
  8
0
100
AcDbBlockEnd
  0
BLOCK
  5
6EF3
330
6EF2
100
AcDbEntity
  8
0
100
AcDbBlockBegin
  2
*D26
 70
     1
 10
0.0
 20
0.0
 30
0.0
  3
*D26
  1

  0
LINE
  5
6F18
330
6EF2
100
AcDbEntity
  8
AM_5 寸法線
 62
     3
100
AcDbLine
 10
726.183981014722
 20
731.3278036790407
 30
0.0
 11
726.183981014722
 21
794.1278036790406
 31
0.0
  0
LINE
  5
6F19
330
6EF2
100
AcDbEntity
  8
AM_5 寸法線
 62
     3
100
AcDbLine
 10
727.1839810147217
 20
749.1278036790406
 30
0.0
 11
727.1839810147217
 21
794.1278036790406
 31
0.0
  0
LINE
  5
6F1A
330
6EF2
100
AcDbEntity
  8
AM_5 寸法線
 62
     3
100
AcDbLine
 10
718.683981014722
 20
792.2528036790406
 30
0.0
 11
711.183981014722
 21
792.2528036790406
 31
0.0
  0
LINE
  5
6F1B
330
6EF2
100
AcDbEntity
  8
AM_5 寸法線
 62
     3
100
AcDbLine
 10
734.6839810147216
 20
792.2528036790406
 30
0.0
 11
753.4339810147216
 21
792.2528036790406
 31
0.0
  0
LINE
  5
6F1C
330
6EF2
100
AcDbEntity
  8
AM_5 寸法線
 62
     3
100
AcDbLine
 10
726.183981014722
 20
792.2528036790406
 30
0.0
 11
727.1839810147217
 21
792.2528036790406
 31
0.0
  0
INSERT
  5
6F1D
330
6EF2
100
AcDbEntity
  8
AM_5 寸法線
 62
     3
100
AcDbBlockReference
  2
_Open30
 10
726.183981014722
 20
792.2528036790406
 30
0.0
 41
7.5
 42
7.5
 43
7.5
  0
INSERT
  5
6F1E
330
6EF2
100
AcDbEntity
  8
AM_5 寸法線
 62
     3
100
AcDbBlockReference
  2
_Open30
 10
727.1839810147217
 20
792.2528036790406
 30
0.0
 41
7.5
 42
7.5
 43
7.5
 50
180.0
  0
MTEXT
  5
6F1F
330
6EF2
100
AcDbEntity
  8
AM_5 寸法線
 62
     3
100
AcDbMText
 10
747.8089810147217
 20
802.0028036790407
 30
0.0
 40
10.5
 41
0.0
 46
0.0
 71
     5
 72
     1
  1
1
  7
SEISA
 73
     1
 44
1.0
  0
POINT
  5
6F20
330
6EF2
100
AcDbEntity
  8
Defpoints
 62
     0
100
AcDbPoint
 10
726.183981014722
 20
729.4528036790406
 30
0.0
  0
POINT
  5
6F21
330
6EF2
100
AcDbEntity
  8
Defpoints
 62
     0
100
AcDbPoint
 10
727.1839810147217
 20
747.2528036790406
 30
0.0
  0
POINT
  5
6F22
330
6EF2
100
AcDbEntity
  8
Defpoints
 62
     0
100
AcDbPoint
 10
727.1839810147217
 20
792.2528036790406
 30
0.0
  0
ENDBLK
  5
6EF4
330
6EF2
100
AcDbEntity
  8
0
100
AcDbBlockEnd
  0
BLOCK
  5
6FD3
330
6FD2
100
AcDbEntity
  8
0
100
AcDbBlockBegin
  2
*D27
 70
     1
 10
0.0
 20
0.0
 30
0.0
  3
*D27
  1

  0
LINE
  5
7045
330
6FD2
100
AcDbEntity
  8
AM_5 寸法線
 62
     3
100
AcDbLine
 10
586.183981014722
 20
730.8778036790406
 30
0.0
 11
586.183981014722
 21
708.5616741873685
 31
0.0
  0
LINE
  5
7046
330
6FD2
100
AcDbEntity
  8
AM_5 寸法線
 62
     3
100
AcDbLine
 10
607.683981014722
 20
732.3778036790407
 30
0.0
 11
607.683981014722
 21
708.5616741873685
 31
0.0
  0
LINE
  5
7047
330
6FD2
100
AcDbEntity
  8
AM_5 寸法線
 62
     3
100
AcDbLine
 10
578.683981014722
 20
710.4366741873684
 30
0.0
 11
571.1839810147218
 21
710.4366741873684
 31
0.0
  0
LINE
  5
7048
330
6FD2
100
AcDbEntity
  8
AM_5 寸法線
 62
     3
100
AcDbLine
 10
615.183981014722
 20
710.4366741873684
 30
0.0
 11
622.683981014722
 21
710.4366741873684
 31
0.0
  0
LINE
  5
7049
330
6FD2
100
AcDbEntity
  8
AM_5 寸法線
 62
     3
100
AcDbLine
 10
529.4327860224881
 20
710.4366741873684
 30
0.0
 11
586.183981014722
 21
710.4366741873684
 31
0.0
  0
MTEXT
  5
704A
330
6FD2
100
AcDbEntity
  8
AM_5 寸法線
 62
     3
100
AcDbMText
 10
548.3327860224881
 20
720.1866741873685
 30
0.0
 40
10.5
 41
0.0
 46
0.0
 71
     5
 72
     1
  1
21.5
  7
SEISA
 73
     1
 44
1.0
  0
LINE
  5
704B
330
6FD2
100
AcDbEntity
  8
AM_5 寸法線
 62
     3
100
AcDbLine
 10
586.183981014722
 20
710.4366741873684
 30
0.0
 11
607.683981014722
 21
710.4366741873684
 31
0.0
  0
LINE
  5
704C
330
6FD2
100
AcDbEntity
  8
AM_5 寸法線
 62
     3
100
AcDbLine
 10
586.183981014722
 20
710.4366741873684
 30
0.0
 11
607.683981014722
 21
710.4366741873684
 31
0.0
  0
INSERT
  5
704D
330
6FD2
100
AcDbEntity
  8
AM_5 寸法線
 62
     3
100
AcDbBlockReference
  2
_Open30
 10
586.183981014722
 20
710.4366741873684
 30
0.0
 41
7.5
 42
7.5
 43
7.5
  0
INSERT
  5
704E
330
6FD2
100
AcDbEntity
  8
AM_5 寸法線
 62
     3
100
AcDbBlockReference
  2
_Open30
 10
607.683981014722
 20
710.4366741873684
 30
0.0
 41
7.5
 42
7.5
 43
7.5
 50
180.0
  0
POINT
  5
704F
330
6FD2
100
AcDbEntity
  8
Defpoints
 62
     0
100
AcDbPoint
 10
586.183981014722
 20
732.7528036790406
 30
0.0
  0
POINT
  5
7050
330
6FD2
100
AcDbEntity
  8
Defpoints
 62
     0
100
AcDbPoint
 10
607.683981014722
 20
734.2528036790406
 30
0.0
  0
POINT
  5
7051
330
6FD2
100
AcDbEntity
  8
Defpoints
 62
     0
100
AcDbPoint
 10
607.683981014722
 20
710.4366741873684
 30
0.0
  0
ENDBLK
  5
6FD4
330
6FD2
100
AcDbEntity
  8
0
100
AcDbBlockEnd
  0
BLOCK
  5
701D
330
701C
100
AcDbEntity
  8
0
100
AcDbBlockBegin
  2
*D28
 70
     1
 10
0.0
 20
0.0
 30
0.0
  3
*D28
  1

  0
LINE
  5
703C
330
701C
100
AcDbEntity
  8
AM_5 寸法線
 62
     3
100
AcDbLine
 10
607.683981014722
 20
732.3778036790407
 30
0.0
 11
607.683981014722
 21
708.5616741873685
 31
0.0
  0
LINE
  5
703D
330
701C
100
AcDbEntity
  8
AM_5 寸法線
 62
     3
100
AcDbLine
 10
640.683981014722
 20
732.8778036790406
 30
0.0
 11
640.683981014722
 21
708.5616741873685
 31
0.0
  0
LINE
  5
703E
330
701C
100
AcDbEntity
  8
AM_5 寸法線
 62
     3
100
AcDbLine
 10
615.183981014722
 20
710.4366741873684
 30
0.0
 11
633.1839810147219
 21
710.4366741873684
 31
0.0
  0
INSERT
  5
703F
330
701C
100
AcDbEntity
  8
AM_5 寸法線
 62
     3
100
AcDbBlockReference
  2
_Open30
 10
607.683981014722
 20
710.4366741873684
 30
0.0
 41
7.5
 42
7.5
 43
7.5
 50
180.0
  0
INSERT
  5
7040
330
701C
100
AcDbEntity
  8
AM_5 寸法線
 62
     3
100
AcDbBlockReference
  2
_Open30
 10
640.683981014722
 20
710.4366741873684
 30
0.0
 41
7.5
 42
7.5
 43
7.5
  0
MTEXT
  5
7041
330
701C
100
AcDbEntity
  8
AM_5 寸法線
 62
     3
100
AcDbMText
 10
624.183981014722
 20
720.1866741873685
 30
0.0
 40
10.5
 41
0.0
 46
0.0
 71
     5
 72
     1
  1
33
  7
SEISA
 73
     1
 44
1.0
  0
POINT
  5
7042
330
701C
100
AcDbEntity
  8
Defpoints
 62
     0
100
AcDbPoint
 10
607.683981014722
 20
734.2528036790406
 30
0.0
  0
POINT
  5
7043
330
701C
100
AcDbEntity
  8
Defpoints
 62
     0
100
AcDbPoint
 10
640.683981014722
 20
734.7528036790406
 30
0.0
  0
POINT
  5
7044
330
701C
100
AcDbEntity
  8
Defpoints
 62
     0
100
AcDbPoint
 10
640.683981014722
 20
710.4366741873684
 30
0.0
  0
ENDBLK
  5
701E
330
701C
100
AcDbEntity
  8
0
100
AcDbBlockEnd
  0
BLOCK
  5
7138
330
7137
100
AcDbEntity
  8
0
100
AcDbBlockBegin
  2
ケース
 70
     0
 10
0.0
 20
0.0
 30
0.0
  3
ケース
  1

  0
LINE
  5
713A
330
7137
100
AcDbEntity
  8
AM_11 想像線
 48
0.1
100
AcDbLine
 10
15.05354806004686
 20
-6.5
 30
0.0
 11
11.05354806004686
 21
-6.5
 31
0.0
  0
LINE
  5
713B
330
7137
100
AcDbEntity
  8
AM_11 想像線
 48
0.1
100
AcDbLine
 10
0.0
 20
0.0
 30
0.0
 11
28.05354806004686
 21
0.0
 31
0.0
  0
LINE
  5
713C
330
7137
100
AcDbEntity
  8
AM_11 想像線
 48
0.1
100
AcDbLine
 10
0.0
 20
-12.39999999999997
 30
0.0
 11
9.053548060046862
 21
-12.39999999999997
 31
0.0
  0
LINE
  5
713D
330
7137
100
AcDbEntity
  8
AM_11 想像線
 48
0.1
100
AcDbLine
 10
0.0
 20
-10.0
 30
0.0
 11
12.05354806004686
 21
-10.0
 31
0.0
  0
LINE
  5
713E
330
7137
100
AcDbEntity
  8
AM_11 想像線
 48
0.1
100
AcDbLine
 10
0.0
 20
-7.0
 30
0.0
 11
10.05354806004686
 21
-7.0
 31
0.0
  0
LINE
  5
713F
330
7137
100
AcDbEntity
  8
AM_11 想像線
 48
0.1
100
AcDbLine
 10
10.05354806004686
 20
-8.527202999999985
 30
0.0
 11
10.05354806004686
 21
-11.39999999999997
 31
0.0
  0
LINE
  5
7140
330
7137
100
AcDbEntity
  8
AM_11 想像線
 48
0.1
100
AcDbLine
 10
10.05354806004686
 20
-11.39999999999997
 30
0.0
 11
9.053548060046862
 21
-12.39999999999997
 31
0.0
  0
LINE
  5
7141
330
7137
100
AcDbEntity
  8
AM_11 想像線
 48
0.1
100
AcDbLine
 10
10.05354806004686
 20
-8.527202999999985
 30
0.0
 11
10.05354806004686
 21
-7.5
 31
0.0
  0
ARC
  5
7142
330
7137
100
AcDbEntity
  8
AM_11 想像線
 48
0.1
100
AcDbCircle
 10
11.05354806004686
 20
-7.5
 30
0.0
 40
1.0
100
AcDbArc
 50
90.0
 51
180.0
  0
LINE
  5
7143
330
7137
100
AcDbEntity
  8
AM_11 想像線
 48
0.1
100
AcDbLine
 10
16.05354806004686
 20
-15.5
 30
0.0
 11
16.05354806004686
 21
-7.5
 31
0.0
  0
LINE
  5
7144
330
7137
100
AcDbEntity
  8
AM_11 想像線
 48
0.1
100
AcDbLine
 10
18.45354806004684
 20
-10.59999999999991
 30
0.0
 11
18.45354806004684
 21
-15.5
 31
0.0
  0
LINE
  5
7145
330
7137
100
AcDbEntity
  8
AM_11 想像線
 48
0.1
100
AcDbLine
 10
29.65354806004679
 20
-15.5
 30
0.0
 11
29.65354806004679
 21
-10.59999999999991
 31
0.0
  0
LINE
  5
7146
330
7137
100
AcDbEntity
  8
AM_11 想像線
 48
0.1
100
AcDbLine
 10
32.05354806004687
 20
-4.0
 30
0.0
 11
32.05354806004687
 21
-15.5
 31
0.0
  0
LINE
  5
7147
330
7137
100
AcDbEntity
  8
AM_11 想像線
 48
0.1
100
AcDbLine
 10
18.45354806004684
 20
-15.5
 30
0.0
 11
18.45354806004684
 21
-17.0
 31
0.0
  0
LINE
  5
7148
330
7137
100
AcDbEntity
  8
AM_11 想像線
 48
0.1
100
AcDbLine
 10
16.05354806004686
 20
-15.5
 30
0.0
 11
16.05354806004686
 21
-17.0
 31
0.0
  0
LINE
  5
7149
330
7137
100
AcDbEntity
  8
AM_11 想像線
 48
0.1
100
AcDbLine
 10
18.45354806004684
 20
-15.5
 30
0.0
 11
16.05354806004686
 21
-15.5
 31
0.0
  0
LINE
  5
714A
330
7137
100
AcDbEntity
  8
AM_11 想像線
 48
0.1
100
AcDbLine
 10
32.05354806004687
 20
-15.5
 30
0.0
 11
32.05354806004687
 21
-17.0
 31
0.0
  0
LINE
  5
714B
330
7137
100
AcDbEntity
  8
AM_11 想像線
 48
0.1
100
AcDbLine
 10
29.65354806004679
 20
-15.5
 30
0.0
 11
29.65354806004679
 21
-17.0
 31
0.0
  0
LINE
  5
714C
330
7137
100
AcDbEntity
  8
AM_11 想像線
 48
0.1
100
AcDbLine
 10
32.05354806004687
 20
-15.5
 30
0.0
 11
29.65354806004679
 21
-15.5
 31
0.0
  0
LINE
  5
714D
330
7137
100
AcDbEntity
  8
AM_11 想像線
 48
0.1
100
AcDbLine
 10
29.15354806004677
 20
-10.09999999999991
 30
0.0
 11
18.95354806004684
 21
-10.09999999999991
 31
0.0
  0
ARC
  5
714E
330
7137
100
AcDbEntity
  8
AM_11 想像線
 48
0.1
100
AcDbCircle
 10
15.05354806004686
 20
-7.5
 30
0.0
 40
1.0
100
AcDbArc
 50
0.0
 51
90.0
  0
ARC
  5
714F
330
7137
100
AcDbEntity
  8
AM_11 想像線
 48
0.1
100
AcDbCircle
 10
18.95354806004684
 20
-10.59999999999991
 30
0.0
 40
0.5
100
AcDbArc
 50
90.0
 51
180.0
  0
ARC
  5
7150
330
7137
100
AcDbEntity
  8
AM_11 想像線
 48
0.1
100
AcDbCircle
 10
29.15354806004677
 20
-10.59999999999991
 30
0.0
 40
0.5
100
AcDbArc
 50
0.0
 51
90.0
  0
ARC
  5
7151
102
{ACAD_REACTORS
330
6F01
102
}
330
7137
100
AcDbEntity
  8
AM_11 想像線
 48
0.1
100
AcDbCircle
 10
28.05354806004686
 20
-4.0
 30
0.0
 40
4.0
100
AcDbArc
 50
0.0
 51
90.0
  0
ENDBLK
  5
7139
330
7137
100
AcDbEntity
  8
0
100
AcDbBlockEnd
  0
ENDSEC
  0
SECTION
  2
ENTITIES
  0
LINE
  5
3EE0
330
1F
100
AcDbEntity
  8
AM_7 中心線
  6
ByBlock
100
AcDbLine
 10
579.1839810147219
 20
639.2528036790409
 30
0.0
 11
731.1839810147217
 21
639.2528036790409
 31
0.0
  0
LINE
  5
3EFF
330
1F
100
AcDbEntity
  8
AM_7 中心線
100
AcDbLine
 10
579.1839810147219
 20
639.2528036790409
 30
0.0
 11
427.183981014722
 21
639.2528036790409
 31
0.0
  0
LINE
  5
3F94
330
1F
100
AcDbEntity
  8
AM_0 外形線1
100
AcDbLine
 10
603.183981014722
 20
768.2528036790406
 30
0.0
 11
600.1839810147219
 21
765.2528036790406
 31
0.0
  0
INSERT
  5
47E3
102
{ACAD_REACTORS
330
4E1D
330
4E61
330
4E7D
330
50D2
330
512D
330
5175
102
}
330
1F
100
AcDbEntity
  8
AM_0 外形線1
100
AcDbBlockReference
  2
リジット SEM280
 10
579.1839810147219
 20
639.2528036790409
 30
0.0
  0
INSERT
  5
480A
102
{ACAD_REACTORS
330
4F47
330
5032
330
504A
330
50D2
330
50EE
330
512D
330
5145
330
515D
102
}
330
1F
100
AcDbEntity
  8
AM_0 外形線1
100
AcDbBlockReference
  2
ケースＡ SEM280
 10
579.1839810147219
 20
639.2528036790409
 30
0.0
  0
INSERT
  5
49D3
102
{ACAD_REACTORS
330
4E7D
330
4E95
330
4F47
330
5008
330
515D
330
5175
330
6F01
330
6FE1
102
}
330
1F
100
AcDbEntity
  8
AM_0 外形線1
100
AcDbBlockReference
  2
センタ SEM280
 10
586.183981014722
 20
639.2528036790409
 30
0.0
  0
INSERT
  5
4BF2
330
1F
100
AcDbEntity
  8
AM_0 外形線1
100
AcDbBlockReference
  2
リーマボルト SEM280 M12
 10
558.1839810147219
 20
767.2528036790406
 30
0.0
  0
DIMENSION
  5
4E06
102
{ACAD_XDICTIONARY
360
4E13
102
}
102
{ACAD_REACTORS
330
4E1D
102
}
330
1F
100
AcDbEntity
  8
AM_5 寸法線
100
AcDbDimension
  2
*D11
 10
371.5779200147221
 20
534.2528036790408
 30
0.0
 11
361.8279200147221
 21
639.2528036790409
 31
0.0
 70
    32
  1
%%c<>
 71
     5
 42
209.9999999999999
 73
     0
 74
     0
 75
     0
  3
SEISA$0
100
AcDbAlignedDimension
 13
436.183981014722
 23
744.2528036790406
 33
0.0
 14
436.183981014722
 24
534.2528036790408
 34
0.0
 50
90.0
100
AcDbRotatedDimension
1001
ACAD_DSTYLE_DIMINSPECT
1070
   396
1000
100%
1070
   395
1000

1070
   394
1070
    33
1070
   393
1070
     0
  0
DIMENSION
  5
4E4A
102
{ACAD_XDICTIONARY
360
4E57
102
}
102
{ACAD_REACTORS
330
4E61
102
}
330
1F
100
AcDbEntity
  8
AM_5 寸法線
100
AcDbDimension
  2
*D12
 10
432.1839810147221
 20
661.3034918119027
 30
0.0
 11
502.183981014722
 21
671.0534918119027
 31
0.0
 70
    32
 71
     5
 42
139.9999999999999
 73
     0
 74
     0
 75
     0
  3
SEISA$0
100
AcDbAlignedDimension
 13
572.183981014722
 23
639.2528036790409
 33
0.0
 14
432.1839810147221
 24
639.2528036790409
 34
0.0
100
AcDbRotatedDimension
  0
DIMENSION
  5
4E62
102
{ACAD_XDICTIONARY
360
4E71
102
}
102
{ACAD_REACTORS
330
4E7D
102
}
330
1F
100
AcDbEntity
  8
AM_5 寸法線
100
AcDbDimension
  2
*D13
 10
572.183981014722
 20
661.3034918119027
 30
0.0
 11
601.0229955938013
 21
670.2302932487822
 31
0.0
 70
   160
 71
     5
 42
14.0
 73
     0
 74
     0
 75
     0
  3
SEISA$0
100
AcDbAlignedDimension
 13
586.183981014722
 23
639.2528036790409
 33
0.0
 14
572.183981014722
 24
639.2528036790409
 34
0.0
100
AcDbRotatedDimension
1001
ACAD
1000
DSTYLE
1002
{
1070
   279
1070
     2
1002
}
  0
DIMENSION
  5
4E7E
102
{ACAD_XDICTIONARY
360
4E8B
102
}
102
{ACAD_REACTORS
330
4E95
102
}
330
1F
100
AcDbEntity
  8
AM_5 寸法線
100
AcDbDimension
  2
*D14
 10
726.1839810147217
 20
661.3034918119027
 30
0.0
 11
656.1839810147219
 21
671.0534918119027
 31
0.0
 70
    32
 71
     5
 42
139.9999999999999
 73
     0
 74
     0
 75
     0
  3
SEISA$0
100
AcDbAlignedDimension
 13
586.183981014722
 23
639.2528036790409
 33
0.0
 14
726.1839810147217
 24
639.2528036790409
 34
0.0
100
AcDbRotatedDimension
  0
DIMENSION
  5
4F2C
102
{ACAD_XDICTIONARY
360
4F3B
102
}
102
{ACAD_REACTORS
330
4F47
330
7029
102
}
330
1F
100
AcDbEntity
  8
AM_5 寸法線
100
AcDbDimension
  2
*D15
 10
640.683981014722
 20
710.4366741873676
 30
0.0
 11
674.5839810147218
 21
710.4366741873676
 31
0.0
 70
   160
 71
     5
 42
4.5
 73
     0
 74
     0
 75
     0
  3
SEISA$0
100
AcDbAlignedDimension
 13
645.183981014722
 23
734.2528036790406
 33
0.0
 14
640.683981014722
 24
734.7528036790406
 34
0.0
100
AcDbRotatedDimension
  0
DIMENSION
  5
4FF1
102
{ACAD_XDICTIONARY
360
4FFE
102
}
102
{ACAD_REACTORS
330
5008
102
}
330
1F
100
AcDbEntity
  8
AM_5 寸法線
100
AcDbDimension
  2
*D16
 10
786.7900410147218
 20
544.2528036790406
 30
0.0
 11
777.0400410147216
 21
639.2528036790409
 31
0.0
 70
    32
  1
%%c<>
 71
     5
 42
189.9999999999998
 73
     0
 74
     0
 75
     0
  3
SEISA$0
100
AcDbAlignedDimension
 13
679.6839810147218
 23
734.2528036790406
 33
0.0
 14
679.6839810147218
 24
544.2528036790409
 34
0.0
 50
90.0
100
AcDbRotatedDimension
1001
ACAD_DSTYLE_DIMINSPECT
1070
   396
1000
100%
1070
   395
1000

1070
   394
1070
    33
1070
   393
1070
     0
1001
ACAD
1000
DSTYLE
1002
{
1070
   279
1070
     0
1002
}
  0
DIMENSION
  5
501B
102
{ACAD_XDICTIONARY
360
5028
102
}
102
{ACAD_REACTORS
330
5032
102
}
330
1F
100
AcDbEntity
  8
AM_5 寸法線
100
AcDbDimension
  2
*D17
 10
816.790041014722
 20
527.2528036790406
 30
0.0
 11
816.790041014722
 21
639.2528036790409
 31
0.0
 70
   160
  1
%%c<>
 71
     5
 42
223.9999999999999
 73
     0
 74
     0
 75
     0
  3
SEISA$0
100
AcDbAlignedDimension
 13
657.183981014722
 23
751.2528036790406
 33
0.0
 14
657.183981014722
 24
527.2528036790409
 34
0.0
 50
90.0
100
AcDbRotatedDimension
1001
ACAD_DSTYLE_DIMINSPECT
1070
   396
1000
100%
1070
   395
1000

1070
   394
1070
    33
1070
   393
1070
     0
1001
ACAD
1000
DSTYLE
1002
{
1070
   279
1070
     0
1002
}
  0
DIMENSION
  5
5033
102
{ACAD_XDICTIONARY
360
5040
102
}
102
{ACAD_REACTORS
330
504A
102
}
330
1F
100
AcDbEntity
  8
AM_5 寸法線
100
AcDbDimension
  2
*D18
 10
846.7900410147221
 20
499.2528036790408
 30
0.0
 11
846.7900410147219
 21
639.2528036790409
 31
0.0
 70
   160
  1
%%c<>
 71
     5
 42
279.9999999999999
 73
     0
 74
     0
 75
     0
  3
SEISA$0
100
AcDbAlignedDimension
 13
599.183981014722
 23
779.2528036790407
 33
0.0
 14
599.183981014722
 24
499.2528036790409
 34
0.0
 50
90.0
100
AcDbRotatedDimension
1001
ACAD_DSTYLE_DIMINSPECT
1070
   396
1000
100%
1070
   395
1000

1070
   394
1070
    33
1070
   393
1070
     0
1001
ACAD
1000
DSTYLE
1002
{
1070
   279
1070
     0
1002
}
  0
DIMENSION
  5
50B7
102
{ACAD_XDICTIONARY
360
50C6
102
}
102
{ACAD_REACTORS
330
50D2
102
}
330
1F
100
AcDbEntity
  8
AM_5 寸法線
100
AcDbDimension
  2
*D19
 10
558.1839810147219
 20
454.2528036790407
 30
0.0
 11
545.1139899853765
 21
464.0103632741651
 31
0.0
 70
   160
 71
     5
 42
21.0
 73
     0
 74
     0
 75
     0
  3
SEISA$0
100
AcDbAlignedDimension
 13
579.1839810147219
 23
500.2528036790407
 33
0.0
 14
558.1839810147219
 24
500.2528036790407
 34
0.0
100
AcDbRotatedDimension
1001
ACAD_DSTYLE_DIMINSPECT
1070
   396
1000
100%
1070
   395
1000

1070
   394
1070
    33
1070
   393
1070
     0
1001
ACAD
1000
DSTYLE
1002
{
1070
   173
1070
     1
1070
   279
1070
     2
1070
   342
1005
0
1070
   343
1005
652E
1070
   344
1005
69
1002
}
  0
DIMENSION
  5
50D3
102
{ACAD_XDICTIONARY
360
50E2
102
}
102
{ACAD_REACTORS
330
50EE
102
}
330
1F
100
AcDbEntity
  8
AM_5 寸法線
100
AcDbDimension
  2
*D20
 10
600.1839810147219
 20
454.2528036790407
 30
0.0
 11
614.0198847744517
 21
463.9462264866906
 31
0.0
 70
   160
 71
     5
 42
21.0
 73
     0
 74
     0
 75
     0
  3
SEISA$0
100
AcDbAlignedDimension
 13
579.1839810147219
 23
500.2528036790407
 33
0.0
 14
600.1839810147219
 24
500.2528036790407
 34
0.0
100
AcDbRotatedDimension
1001
ACAD_DSTYLE_DIMINSPECT
1070
   396
1000
100%
1070
   395
1000

1070
   394
1070
    33
1070
   393
1070
     0
1001
ACAD
1000
DSTYLE
1002
{
1070
    75
1070
     1
1070
   173
1070
     1
1070
   279
1070
     2
1070
   342
1005
0
1070
   343
1005
652E
1070
   344
1005
69
1002
}
  0
DIMENSION
  5
5116
102
{ACAD_XDICTIONARY
360
5123
102
}
102
{ACAD_REACTORS
330
512D
102
}
330
1F
100
AcDbEntity
  8
AM_5 寸法線
100
AcDbDimension
  2
*D21
 10
432.183981014722
 20
424.2528036790409
 30
0.0
 11
505.683981014722
 21
424.2528036790409
 31
0.0
 70
   160
 71
     5
 42
147.0
 73
     0
 74
     0
 75
     0
  3
SEISA$0
100
AcDbAlignedDimension
 13
579.1839810147219
 23
500.2528036790407
 33
0.0
 14
432.183981014722
 24
538.2528036790408
 34
0.0
100
AcDbRotatedDimension
1001
ACAD
1000
DSTYLE
1002
{
1070
   279
1070
     0
1002
}
  0
DIMENSION
  5
512E
102
{ACAD_XDICTIONARY
360
513B
102
}
102
{ACAD_REACTORS
330
5145
102
}
330
1F
100
AcDbEntity
  8
AM_5 寸法線
100
AcDbDimension
  2
*D22
 10
661.183981014722
 20
424.2528036790409
 30
0.0
 11
620.183981014722
 21
424.2528036790409
 31
0.0
 70
   160
 71
     5
 42
82.0
 73
     0
 74
     0
 75
     0
  3
SEISA$0
100
AcDbAlignedDimension
 13
579.1839810147219
 23
500.2528036790407
 33
0.0
 14
661.183981014722
 24
531.2528036790409
 34
0.0
100
AcDbRotatedDimension
1001
ACAD
1000
DSTYLE
1002
{
1070
   279
1070
     0
1002
}
  0
DIMENSION
  5
5146
102
{ACAD_XDICTIONARY
360
5153
102
}
102
{ACAD_REACTORS
330
515D
102
}
330
1F
100
AcDbEntity
  8
AM_5 寸法線
100
AcDbDimension
  2
*D23
 10
726.1839810147217
 20
424.2528036790409
 30
0.0
 11
693.6839810147217
 21
424.2528036790409
 31
0.0
 70
   160
 71
     5
 42
64.9999999999999
 73
     0
 74
     0
 75
     0
  3
SEISA$0
100
AcDbAlignedDimension
 13
661.183981014722
 23
531.2528036790409
 33
0.0
 14
726.1839810147217
 24
549.0528036790408
 34
0.0
100
AcDbRotatedDimension
1001
ACAD
1000
DSTYLE
1002
{
1070
   279
1070
     0
1002
}
  0
DIMENSION
  5
515E
102
{ACAD_XDICTIONARY
360
516B
102
}
102
{ACAD_REACTORS
330
5175
102
}
330
1F
100
AcDbEntity
  8
AM_5 寸法線
100
AcDbDimension
  2
*D24
 10
726.183981014722
 20
394.2528036790409
 30
0.0
 11
579.1839810147219
 21
394.2528036790409
 31
0.0
 70
   160
 71
     5
 42
294.0
 73
     0
 74
     0
 75
     0
  3
SEISA$0
100
AcDbAlignedDimension
 13
432.183981014722
 23
538.2528036790408
 33
0.0
 14
726.183981014722
 24
549.0528036790408
 34
0.0
100
AcDbRotatedDimension
1001
ACAD
1000
DSTYLE
1002
{
1070
   279
1070
     0
1002
}
  0
LINE
  5
6770
330
1F
100
AcDbEntity
  8
AM_5 寸法線
100
AcDbLine
 10
615.183981014722
 20
454.2528036790407
 30
0.0
 11
621.8269850970869
 21
454.2528036790407
 31
0.0
  0
LINE
  5
6771
330
1F
100
AcDbEntity
  8
AM_5 寸法線
100
AcDbLine
 10
543.183981014722
 20
454.2528036790407
 30
0.0
 11
537.2356578446482
 21
454.2528036790407
 31
0.0
  0
MTEXT
  5
6EB1
330
1F
100
AcDbEntity
  8
AM_6 文字
100
AcDbMText
 10
756.0088728189856
 20
471.3904786292821
 30
0.0
 40
10.5
 41
336.8138783015463
 46
42.80627875551914
 71
     1
 72
     5
  1
{\W0.6;TYPE:SEM280/SEMH280\PSHAFT DIA:MAX/MIN \P RIGID SIDE φ150/φ42\P COUPLING CENTER SIDE φ135/φ42}
  7
SEISA
 73
     1
 44
1.0
  0
DIMENSION
  5
6EF1
102
{ACAD_XDICTIONARY
360
6F00
102
}
102
{ACAD_REACTORS
330
6F01
102
}
330
1F
100
AcDbEntity
  8
AM_5 寸法線
100
AcDbDimension
  2
*D26
 10
727.1839810147217
 20
792.2528036790406
 30
0.0
 11
747.8089810147217
 21
802.0028036790407
 31
0.0
 70
    32
 71
     5
 42
0.9999999999998864
 73
     0
 74
     0
 75
     0
  3
SEISA$0
100
AcDbAlignedDimension
 13
726.183981014722
 23
729.4528036790406
 33
0.0
 14
727.1839810147217
 24
747.2528036790406
 34
0.0
100
AcDbRotatedDimension
1001
ACAD_DSTYLE_DIMINSPECT
1070
   396
1000
100%
1070
   395
1000

1070
   394
1070
    33
1070
   393
1070
     0
  0
DIMENSION
  5
6FD1
102
{ACAD_XDICTIONARY
360
6FE0
102
}
102
{ACAD_REACTORS
330
6FE1
102
}
330
1F
100
AcDbEntity
  8
AM_5 寸法線
100
AcDbDimension
  2
*D27
 10
607.683981014722
 20
710.4366741873684
 30
0.0
 11
548.3327860224881
 21
711.4797554219957
 31
0.0
 70
   160
 71
     5
 42
21.5
 73
     0
 74
     0
 75
     0
  3
SEISA$0
100
AcDbAlignedDimension
 13
586.183981014722
 23
732.7528036790406
 33
0.0
 14
607.683981014722
 24
734.2528036790406
 34
0.0
 50
0.0000000000001132
100
AcDbRotatedDimension
1001
ACAD_DSTYLE_DIMINSPECT
1070
   396
1000
100%
1070
   395
1000

1070
   394
1070
    33
1070
   393
1070
     0
1001
ACAD
1000
DSTYLE
1002
{
1070
   279
1070
     1
1002
}
  0
DIMENSION
  5
701B
102
{ACAD_XDICTIONARY
360
7028
102
}
102
{ACAD_REACTORS
330
7029
102
}
330
1F
100
AcDbEntity
  8
AM_5 寸法線
100
AcDbDimension
  2
*D28
 10
640.683981014722
 20
710.4366741873684
 30
0.0
 11
624.183981014722
 21
720.1866741873685
 31
0.0
 70
    32
 71
     5
 42
33.0
 73
     0
 74
     0
 75
     0
  3
SEISA$0
100
AcDbAlignedDimension
 13
607.683981014722
 23
734.2528036790406
 33
0.0
 14
640.683981014722
 24
734.7528036790406
 34
0.0
 50
0.0000000000001132
100
AcDbRotatedDimension
1001
ACAD_DSTYLE_DIMINSPECT
1070
   396
1000
100%
1070
   395
1000

1070
   394
1070
    33
1070
   393
1070
     0
  0
INSERT
  5
7152
330
1F
100
AcDbEntity
  8
AM_5 寸法線
100
AcDbBlockReference
  2
ケース
 10
695.130432954675
 20
751.2528036790406
 30
0.0
  0
ENDSEC
  0
SECTION
  2
OBJECTS
  0
DICTIONARY
  5
C
330
0
100
AcDbDictionary
281
     1
  3
ACAD_COLOR
350
C5
  3
ACAD_GROUP
350
D
  3
ACAD_LAYOUT
350
1A
  3
ACAD_MATERIAL
350
C4
  3
ACAD_MLEADERSTYLE
350
2D5
  3
ACAD_MLINESTYLE
350
17
  3
ACAD_PLOTSETTINGS
350
19
  3
ACAD_PLOTSTYLENAME
350
E
  3
ACAD_SCALELIST
350
2B3
  3
ACAD_TABLESTYLE
350
121
  3
ACAD_VISUALSTYLE
350
27F
  3
ACDB_RECOMPOSE_DATA
350
2F7
  3
AcDbVariableDictionary
350
34
  3
AcmDictionary
350
49
  3
AMG
350
2B
  3
AMGSNAPSETTINGS
350
1DE
  0
DICTIONARY
  5
BF
330
2
100
AcDbDictionary
280
     1
281
     1
  3
ACAD_LAYERSTATES
360
6EA8
  3
AMLAYER_GROUPCOLORS
360
C0
  0
DICTIONARY
  5
29FA
330
10
100
AcDbDictionary
280
     1
281
     1
  3
ADSK_XREC_LAYER_RECONCILED
360
29FB
  0
DICTIONARY
  5
29FC
330
81
100
AcDbDictionary
280
     1
281
     1
  3
ADSK_XREC_LAYER_RECONCILED
360
29FD
  0
DICTIONARY
  5
82
330
1F
100
AcDbDictionary
280
     1
281
     1
  3
ACAD_SORTENTS
360
A41
  0
DICTIONARY
  5
3489
330
3488
100
AcDbDictionary
280
     1
281
     1
  3
ACAD_SORTENTS
360
5EA8
  0
DICTIONARY
  5
4755
330
469C
100
AcDbDictionary
280
     1
281
     1
  3
ACAD_SORTENTS
360
6A1A
  0
DICTIONARY
  5
483F
330
47BA
100
AcDbDictionary
280
     1
281
     1
  3
ACAD_SORTENTS
360
6FD0
  0
DICTIONARY
  5
60F8
330
49AD
100
AcDbDictionary
280
     1
281
     1
  3
ACAD_SORTENTS
360
70C1
  0
DICTIONARY
  5
4C57
330
4BC7
100
AcDbDictionary
280
     1
281
     1
  3
ACAD_SORTENTS
360
6AA9
  0
DICTIONARY
  5
4E13
330
4E06
100
AcDbDictionary
280
     1
281
     1
  3
ACAD_DIMASSOC
360
4E1D
  0
DICTIONARY
  5
4E57
330
4E4A
100
AcDbDictionary
280
     1
281
     1
  3
ACAD_DIMASSOC
360
4E61
  0
DICTIONARY
  5
4E71
330
4E62
100
AcDbDictionary
280
     1
281
     1
  3
ACAD_DIMASSOC
360
4E7D
  0
DICTIONARY
  5
4E8B
330
4E7E
100
AcDbDictionary
280
     1
281
     1
  3
ACAD_DIMASSOC
360
4E95
  0
DICTIONARY
  5
4F3B
330
4F2C
100
AcDbDictionary
280
     1
281
     1
  3
ACAD_DIMASSOC
360
4F47
  0
DICTIONARY
  5
4FFE
330
4FF1
100
AcDbDictionary
280
     1
281
     1
  3
ACAD_DIMASSOC
360
5008
  0
DICTIONARY
  5
5028
330
501B
100
AcDbDictionary
280
     1
281
     1
  3
ACAD_DIMASSOC
360
5032
  0
DICTIONARY
  5
5040
330
5033
100
AcDbDictionary
280
     1
281
     1
  3
ACAD_DIMASSOC
360
504A
  0
DICTIONARY
  5
50C6
330
50B7
100
AcDbDictionary
280
     1
281
     1
  3
ACAD_DIMASSOC
360
50D2
  0
DICTIONARY
  5
50E2
330
50D3
100
AcDbDictionary
280
     1
281
     1
  3
ACAD_DIMASSOC
360
50EE
  0
DICTIONARY
  5
5123
330
5116
100
AcDbDictionary
280
     1
281
     1
  3
ACAD_DIMASSOC
360
512D
  0
DICTIONARY
  5
513B
330
512E
100
AcDbDictionary
280
     1
281
     1
  3
ACAD_DIMASSOC
360
5145
  0
DICTIONARY
  5
5153
330
5146
100
AcDbDictionary
280
     1
281
     1
  3
ACAD_DIMASSOC
360
515D
  0
DICTIONARY
  5
516B
330
515E
100
AcDbDictionary
280
     1
281
     1
  3
ACAD_DIMASSOC
360
5175
  0
DICTIONARY
  5
6F00
330
6EF1
100
AcDbDictionary
280
     1
281
     1
  3
ACAD_DIMASSOC
360
6F01
  0
DICTIONARY
  5
6FE0
330
6FD1
100
AcDbDictionary
280
     1
281
     1
  3
ACAD_DIMASSOC
360
6FE1
  0
DICTIONARY
  5
7028
330
701B
100
AcDbDictionary
280
     1
281
     1
  3
ACAD_DIMASSOC
360
7029
  0
DICTIONARY
  5
C5
102
{ACAD_REACTORS
330
C
102
}
330
C
100
AcDbDictionary
281
     1
  0
DICTIONARY
  5
D
102
{ACAD_REACTORS
330
C
102
}
330
C
100
AcDbDictionary
281
     1
  0
DICTIONARY
  5
1A
102
{ACAD_REACTORS
330
C
102
}
330
C
100
AcDbDictionary
281
     1
  3
Model
350
22
  3
レイアウト1
350
1E
  3
レイアウト2
350
26
  0
DICTIONARY
  5
C4
102
{ACAD_REACTORS
330
C
102
}
330
C
100
AcDbDictionary
281
     1
  3
ByBlock
350
27D
  3
ByLayer
350
27C
  3
Global
350
27E
  0
DICTIONARY
  5
2D5
102
{ACAD_REACTORS
330
C
102
}
330
C
100
AcDbDictionary
281
     1
  3
Standard
350
2D6
  0
DICTIONARY
  5
17
102
{ACAD_REACTORS
330
C
102
}
330
C
100
AcDbDictionary
281
     1
  3
Standard
350
18
  0
DICTIONARY
  5
19
102
{ACAD_REACTORS
330
C
102
}
330
C
100
AcDbDictionary
281
     1
  3
SEISA基本
350
1C7E
  0
ACDBDICTIONARYWDFLT
  5
E
102
{ACAD_REACTORS
330
C
102
}
330
C
100
AcDbDictionary
281
     1
  3
Normal
350
F
100
AcDbDictionaryWithDefault
340
F
  0
DICTIONARY
  5
2B3
102
{ACAD_REACTORS
330
C
102
}
330
C
100
AcDbDictionary
281
     1
  3
*A1
350
2A07
  3
*A2
350
6EA6
  3
*A3
350
6EA7
  3
A0
350
2B4
  3
A1
350
2B5
  3
A2
350
2B6
  3
A3
350
2B7
  3
A4
350
2B8
  3
A5
350
2B9
  3
A6
350
2BA
  3
A7
350
2BB
  3
A8
350
2BC
  3
A9
350
2BD
  3
B0
350
2BE
  3
B1
350
2BF
  3
B2
350
2C0
  3
B3
350
2C1
  3
B4
350
2C2
  3
B5
350
2C3
  3
B6
350
2C4
  3
B7
350
2C5
  3
B8
350
2C6
  3
B9
350
2C7
  3
C0
350
2C8
  3
C1
350
2C9
  3
C2
350
2CA
  3
C3
350
2CB
  3
C4
350
2CC
  3
C5
350
2CD
  3
C6
350
2CE
  3
C7
350
2CF
  3
C8
350
2D0
  3
C9
350
2D1
  3
D0
350
2D2
  3
D1
350
2D3
  3
D2
350
2D4
  0
DICTIONARY
  5
121
102
{ACAD_REACTORS
330
C
102
}
330
C
100
AcDbDictionary
281
     1
  3
Standard
350
122
  0
DICTIONARY
  5
27F
102
{ACAD_REACTORS
330
C
102
}
330
C
100
AcDbDictionary
281
     1
  3
2dWireframe
350
285
  3
3D Hidden
350
287
  3
3dWireframe
350
286
  3
Basic
350
284
  3
Brighten
350
28B
  3
ColorChange
350
28F
  3
Conceptual
350
288
  3
Dim
350
28A
  3
Facepattern
350
28E
  3
Flat
350
280
  3
FlatWithEdges
350
281
  3
Gouraud
350
282
  3
GouraudWithEdges
350
283
  3
Linepattern
350
28D
  3
Realistic
350
289
  3
Thicken
350
28C
  0
XRECORD
  5
2F7
102
{ACAD_REACTORS
330
C
102
}
330
C
100
AcDbXrecord
280
     1
 90
        1
330
122
  0
DICTIONARY
  5
34
102
{ACAD_REACTORS
330
C
102
}
330
C
100
AcDbDictionary
281
     1
  3
CANNOSCALE
350
2FA
  3
CMLEADERSTYLE
350
2F8
  3
CTABLESTYLE
350
140
  3
DIMASSOC
350
AC
  3
INDEXCTL
350
35
  3
LAYEREVAL
350
5F2A
  3
LAYERNOTIFY
350
5F2B
  3
LIGHTINGUNITS
350
2FB
  3
MSLTSCALE
350
2F9
  0
DICTIONARY
  5
49
102
{ACAD_REACTORS
330
C
102
}
330
C
100
AcDbDictionary
281
     1
  3
AcmBOM
350
161B
  3
AcmStdDictionary
350
4A
  3
AMDTSECTSYM_ARROWCOLOR
350
12B
  0
DICTIONARY
  5
2B
102
{ACAD_REACTORS
330
C
102
}
330
C
100
AcDbDictionary
281
     1
  0
DICTIONARY
  5
1DE
102
{ACAD_REACTORS
330
C
102
}
330
C
100
AcDbDictionary
281
     1
  0
DICTIONARY
  5
6EA8
102
{ACAD_REACTORS
330
BF
102
}
330
BF
100
AcDbDictionary
281
     1
  0
DICTIONARY
  5
C0
102
{ACAD_REACTORS
330
BF
102
}
330
BF
100
AcDbDictionary
280
     1
281
     1
  0
XRECORD
  5
29FB
102
{ACAD_REACTORS
330
29FA
102
}
330
29FA
100
AcDbXrecord
280
     1
290
     1
  0
XRECORD
  5
29FD
102
{ACAD_REACTORS
330
29FC
102
}
330
29FC
100
AcDbXrecord
280
     1
290
     1
  0
SORTENTSTABLE
  5
A41
102
{ACAD_REACTORS
330
82
102
}
330
82
100
AcDbSortentsTable
330
1F
331
4E06
  5
4E62
331
50D3
  5
512E
331
4F2C
  5
4FF1
331
4E62
  5
4F1A
331
501B
  5
50B5
331
4E7E
  5
4F23
331
512E
  5
515E
331
3F94
  5
3F94
331
4BF2
  5
4D06
331
6771
  5
6D2F
331
4E4A
  5
4E7E
331
515E
  5
51D6
331
3EE0
  5
3EE0
331
480A
  5
4B25
331
47E3
  5
49D3
331
3EFF
  5
3EFF
331
49D3
  5
4B3D
331
50B7
  5
5116
331
5146
  5
51BE
331
5033
  5
50D3
331
6EB1
  5
6EB1
331
5116
  5
5146
331
6770
  5
6D2E
331
4FF1
  5
5033
  0
SORTENTSTABLE
  5
5EA8
102
{ACAD_REACTORS
330
3489
102
}
330
3489
100
AcDbSortentsTable
330
3488
  0
SORTENTSTABLE
  5
6A1A
102
{ACAD_REACTORS
330
4755
102
}
330
4755
100
AcDbSortentsTable
330
469C
  0
SORTENTSTABLE
  5
6FD0
102
{ACAD_REACTORS
330
483F
102
}
330
483F
100
AcDbSortentsTable
330
47BA
  0
SORTENTSTABLE
  5
70C1
102
{ACAD_REACTORS
330
60F8
102
}
330
60F8
100
AcDbSortentsTable
330
49AD
331
49B8
  5
49BA
331
49BD
  5
49BF
331
49BA
  5
49BE
331
49BF
  5
49C1
331
49BE
  5
49C0
331
49C1
  5
49C3
331
49C0
  5
49C2
331
49C3
  5
49C5
331
49C2
  5
49C4
331
49C5
  5
49C7
331
49C4
  5
49C6
331
49C7
  5
49C9
331
49C6
  5
49C8
331
49C9
  5
49CB
331
49C8
  5
49CA
331
49B9
  5
49BD
331
49CC
  5
49CE
331
49CB
  5
49CD
331
49CE
  5
6F76
331
49CD
  5
49CF
331
49B0
  5
49B2
331
49CF
  5
6F77
331
49B2
  5
49B4
331
49B1
  5
49B3
331
49B4
  5
49B6
331
49B3
  5
49B5
331
6F76
  5
49B1
331
49B6
  5
49B8
331
49B5
  5
49B7
331
6F77
  5
49B0
331
49B7
  5
49B9
331
49CA
  5
49CC
  0
SORTENTSTABLE
  5
6AA9
102
{ACAD_REACTORS
330
4C57
102
}
330
4C57
100
AcDbSortentsTable
330
4BC7
331
4BE7
  5
4BE8
331
4BD1
  5
4BD2
331
4C53
  5
4C54
331
4BED
  5
4BEE
331
4BD7
  5
4BD8
331
4BF1
  5
4C53
331
4BE2
  5
4BE3
331
4BCC
  5
4BCD
331
4BDD
  5
4BDE
331
4BE8
  5
4BE9
331
4BD2
  5
4BD3
331
4C54
  5
4C55
331
4BEE
  5
4BEF
331
4BD8
  5
4BD9
331
4BCD
  5
4BCE
331
4BE3
  5
4BE4
331
4BDE
  5
4BDF
331
4BE9
  5
4BEA
331
4BD3
  5
4BD4
331
4C55
  5
4C56
331
4BEF
  5
4BF0
331
4BD9
  5
4BDA
331
4BE4
  5
4BE5
331
4BCE
  5
4BCF
331
4BDF
  5
4BE0
331
4BEA
  5
4BEB
331
4BD4
  5
4BD5
331
4C56
  5
5DF9
331
4BDA
  5
4BDB
331
4BCF
  5
4BD0
331
4BE5
  5
4BE6
331
4BEB
  5
4BEC
331
4BD5
  5
4BD6
331
4BE0
  5
4BE1
331
4BCA
  5
4BCB
331
5DF9
  5
4BCA
331
4BDB
  5
4BDC
331
4BE6
  5
4BE7
331
4BD0
  5
4BD1
331
4BEC
  5
4BED
331
4BD6
  5
4BD7
331
4BF0
  5
4BF1
331
4BE1
  5
4BE2
331
4BCB
  5
4BCC
331
4BDC
  5
4BDD
  0
DIMASSOC
  5
4E1D
102
{ACAD_REACTORS
330
4E13
102
}
330
4E13
100
AcDbDimAssoc
330
4E06
 90
        3
 70
     0
 71
     0
  1
AcDbOsnapPointRef
 72
     1
331
47E3
331
47C9
 73
     2
 91
        0
 40
1.0
 10
0.0
 20
0.0
 30
2.000000000000000E+50
 75
     0
  1
AcDbOsnapPointRef
 72
     1
331
47E3
331
47C0
 73
     2
 91
        0
 40
1.0
 10
0.0
 20
0.0
 30
2.000000000000000E+50
 75
     0
  0
DIMASSOC
  5
4E61
102
{ACAD_REACTORS
330
4E57
102
}
330
4E57
100
AcDbDimAssoc
330
4E4A
 90
        3
 70
     0
 71
     0
  1
AcDbOsnapPointRef
 72
    13
331
47E3
331
47CC
 73
     2
 91
        0
 40
0.0
 10
0.0
 20
0.0
 30
2.000000000000000E+50
 75
     0
  1
AcDbOsnapPointRef
 72
     8
331
47E3
331
47BF
 73
     2
 91
        0
 40
1.0
 10
0.0
 20
0.0
 30
0.0
 75
     1
  1
AcDbOsnapPointRef
 72
    13
331
47E3
331
47CC
 73
     2
 91
        0
 40
0.0
 10
0.0
 20
0.0
 30
2.000000000000000E+50
 75
     0
  0
DIMASSOC
  5
4E7D
102
{ACAD_REACTORS
330
4E71
102
}
330
4E71
100
AcDbDimAssoc
330
4E62
 90
        3
 70
     0
 71
     0
  1
AcDbOsnapPointRef
 72
     1
331
49D3
331
49B1
 73
     2
 91
        0
 40
1.0
 10
0.0
 20
0.0
 30
2.000000000000000E+50
 75
     0
  1
AcDbOsnapPointRef
 72
    13
331
47E3
331
47CC
 73
     2
 91
        0
 40
0.0
 10
0.0
 20
0.0
 30
2.000000000000000E+50
 75
     0
  0
DIMASSOC
  5
4E95
102
{ACAD_REACTORS
330
4E8B
102
}
330
4E8B
100
AcDbDimAssoc
330
4E7E
 90
        3
 70
     0
 71
     0
  1
AcDbOsnapPointRef
 72
     1
331
49D3
331
49B1
 73
     2
 91
        0
 40
1.0
 10
0.0
 20
0.0
 30
2.000000000000000E+50
 75
     0
  1
AcDbOsnapPointRef
 72
     2
331
49D3
331
49CB
 73
     2
 91
        0
 40
0.5000000000000005
 10
0.0
 20
0.0
 30
0.0
 75
     0
  0
DIMASSOC
  5
4F47
102
{ACAD_REACTORS
330
4F3B
102
}
330
4F3B
100
AcDbDimAssoc
330
4F2C
 90
        3
 70
     0
 71
     0
  1
AcDbOsnapPointRef
 72
     1
331
480A
331
46CF
 73
     2
 91
        0
 40
1.0
 10
0.0
 20
0.0
 30
2.000000000000000E+50
 75
     0
  1
AcDbOsnapPointRef
 72
    13
331
49D3
331
49C2
 73
     2
 91
        0
 40
0.0
 10
0.0
 20
0.0
 30
2.000000000000000E+50
 75
     0
  0
DIMASSOC
  5
5008
102
{ACAD_REACTORS
330
4FFE
102
}
330
4FFE
100
AcDbDimAssoc
330
4FF1
 90
        3
 70
     0
 71
     0
  1
AcDbOsnapPointRef
 72
    13
331
49D3
331
49B0
 73
     2
 91
        0
 40
0.0
 10
0.0
 20
0.0
 30
2.000000000000000E+50
 75
     0
  1
AcDbOsnapPointRef
 72
    13
331
49D3
331
49C6
 73
     2
 91
        0
 40
0.0
 10
0.0
 20
0.0
 30
2.000000000000000E+50
 75
     0
  0
DIMASSOC
  5
5032
102
{ACAD_REACTORS
330
5028
102
}
330
5028
100
AcDbDimAssoc
330
501B
 90
        3
 70
     0
 71
     0
  1
AcDbOsnapPointRef
 72
     1
331
480A
331
46A0
 73
     2
 91
        0
 40
1.0
 10
0.0
 20
0.0
 30
2.000000000000000E+50
 75
     0
  1
AcDbOsnapPointRef
 72
     1
331
480A
331
46A1
 73
     2
 91
        0
 40
1.0
 10
0.0
 20
0.0
 30
2.000000000000000E+50
 75
     0
  0
DIMASSOC
  5
504A
102
{ACAD_REACTORS
330
5040
102
}
330
5040
100
AcDbDimAssoc
330
5033
 90
        3
 70
     0
 71
     0
  1
AcDbOsnapPointRef
 72
     1
331
480A
331
46BF
 73
     2
 91
        0
 40
1.0
 10
0.0
 20
0.0
 30
2.000000000000000E+50
 75
     0
  1
AcDbOsnapPointRef
 72
     1
331
480A
331
46A4
 73
     2
 91
        0
 40
1.0
 10
0.0
 20
0.0
 30
2.000000000000000E+50
 75
     0
  0
DIMASSOC
  5
50D2
102
{ACAD_REACTORS
330
50C6
102
}
330
50C6
100
AcDbDimAssoc
330
50B7
 90
        3
 70
     0
 71
     0
  1
AcDbOsnapPointRef
 72
     1
331
480A
331
46A2
 73
     2
 91
        0
 40
1.0
 10
0.0
 20
0.0
 30
2.000000000000000E+50
 75
     0
  1
AcDbOsnapPointRef
 72
    13
331
47E3
331
47BD
 73
     2
 91
        0
 40
0.0
 10
0.0
 20
0.0
 30
2.000000000000000E+50
 75
     0
  0
DIMASSOC
  5
50EE
102
{ACAD_REACTORS
330
50E2
102
}
330
50E2
100
AcDbDimAssoc
330
50D3
 90
        3
 70
     0
 71
     0
  1
AcDbOsnapPointRef
 72
     1
331
480A
331
46A2
 73
     2
 91
        0
 40
1.0
 10
0.0
 20
0.0
 30
2.000000000000000E+50
 75
     0
  1
AcDbOsnapPointRef
 72
    13
331
480A
331
46A3
 73
     2
 91
        0
 40
0.0
 10
0.0
 20
0.0
 30
2.000000000000000E+50
 75
     0
  0
DIMASSOC
  5
512D
102
{ACAD_REACTORS
330
5123
102
}
330
5123
100
AcDbDimAssoc
330
5116
 90
        3
 70
     0
 71
     0
  1
AcDbOsnapPointRef
 72
     1
331
480A
331
46A2
 73
     2
 91
        0
 40
1.0
 10
0.0
 20
0.0
 30
2.000000000000000E+50
 75
     0
  1
AcDbOsnapPointRef
 72
    13
331
47E3
331
47BF
 73
     2
 91
        0
 40
0.0
 10
0.0
 20
0.0
 30
2.000000000000000E+50
 75
     0
  0
DIMASSOC
  5
5145
102
{ACAD_REACTORS
330
513B
102
}
330
513B
100
AcDbDimAssoc
330
512E
 90
        3
 70
     0
 71
     0
  1
AcDbOsnapPointRef
 72
     1
331
480A
331
46A2
 73
     2
 91
        0
 40
1.0
 10
0.0
 20
0.0
 30
2.000000000000000E+50
 75
     0
  1
AcDbOsnapPointRef
 72
     1
331
480A
331
46C7
 73
     2
 91
        0
 40
6.283185307179585
 10
0.0
 20
0.0
 30
2.000000000000000E+50
 75
     0
  0
DIMASSOC
  5
515D
102
{ACAD_REACTORS
330
5153
102
}
330
5153
100
AcDbDimAssoc
330
5146
 90
        3
 70
     0
 71
     0
  1
AcDbOsnapPointRef
 72
     1
331
480A
331
46C7
 73
     2
 91
        0
 40
6.283185307179585
 10
0.0
 20
0.0
 30
2.000000000000000E+50
 75
     0
  1
AcDbOsnapPointRef
 72
    13
331
49D3
331
49CB
 73
     2
 91
        0
 40
0.0
 10
0.0
 20
0.0
 30
2.000000000000000E+50
 75
     0
  0
DIMASSOC
  5
5175
102
{ACAD_REACTORS
330
516B
102
}
330
516B
100
AcDbDimAssoc
330
515E
 90
        3
 70
     0
 71
     0
  1
AcDbOsnapPointRef
 72
    13
331
47E3
331
47BF
 73
     2
 91
        0
 40
0.0
 10
0.0
 20
0.0
 30
2.000000000000000E+50
 75
     0
  1
AcDbOsnapPointRef
 72
     1
331
49D3
331
49C7
 73
     2
 91
        0
 40
6.283185307179585
 10
0.0
 20
0.0
 30
2.000000000000000E+50
 75
     0
  0
DIMASSOC
  5
6F01
102
{ACAD_REACTORS
330
6F00
102
}
330
6F00
100
AcDbDimAssoc
330
6EF1
 90
        1
 70
     0
 71
     0
  1
AcDbOsnapPointRef
 72
    13
331
49D3
331
49CE
 73
     0
 91
        0
 40
0.0
 10
0.0
 20
0.0
 30
2.000000000000000E+50
 75
     0
  0
DIMASSOC
  5
6FE1
102
{ACAD_REACTORS
330
6FE0
102
}
330
6FE0
100
AcDbDimAssoc
330
6FD1
 90
        3
 70
     0
 71
     0
  1
AcDbOsnapPointRef
 72
    13
331
49D3
331
49B1
 73
     0
 91
        0
 40
0.0
 10
0.0
 20
0.0
 30
2.000000000000000E+50
 75
     0
  1
AcDbOsnapPointRef
 72
     1
331
49D3
331
49BE
 73
     0
 91
        0
 40
0.0
 10
0.0
 20
0.0
 30
2.000000000000000E+50
 75
     0
  0
DIMASSOC
  5
7029
102
{ACAD_REACTORS
330
7028
102
}
330
7028
100
AcDbDimAssoc
330
701B
 90
        2
 70
     0
 71
     0
  1
AcDbOsnapPointRef
 72
     4
331
4F2C
331
6B06
 73
     0
 91
        0
 40
0.0
 10
0.0
 20
0.0
 30
0.0
 75
     0
  0
LAYOUT
  5
22
102
{ACAD_REACTORS
330
1A
102
}
330
1A
100
AcDbPlotSettings
  1

  2
KONICA MINOLTA 501 PCL
  4
A4
  6

 40
5.027082920074462
 41
5.027085781097412
 42
5.027069091796875
 43
5.027069091796875
 44
209.9733276367186
 45
296.9259948730469
 46
0.0
 47
4.347676779533968
 48
0.0
 49
0.0
140
0.0
141
0.0
142
1.0
143
2.076204484878686
 70
 11956
 72
     1
 73
     1
 74
     1
  7
SEISA.ctb
 75
     0
147
0.4816481263204818
 76
     0
 77
     2
 78
   300
148
-356.5090981612798
149
-392.2053259048789
100
AcDbLayout
  1
Model
 70
     1
 71
     0
 10
0.0
 20
0.0
 11
12.0
 21
9.0
 12
0.0
 22
0.0
 32
0.0
 14
0.0
 24
0.0
 34
0.0
 15
0.0
 25
0.0
 35
0.0
146
0.0
 13
0.0
 23
0.0
 33
0.0
 16
1.0
 26
0.0
 36
0.0
 17
0.0
 27
1.0
 37
0.0
 76
     0
330
1F
331
27A
1001
ACAD_PSEXT
1000
KONICA MINOLTA 501 PCL
1000
KONICA MINOLTA 501/421/361PCL
1000
IP_192.168.20.231_(1)
1000

1070
     0
  0
LAYOUT
  5
1E
102
{ACAD_REACTORS
330
1A
102
}
330
1A
100
AcDbPlotSettings
  1

  2
none_device
  4
Letter_(8.50_x_11.00_Inches)
  6

 40
6.349999904632567
 41
6.349999904632567
 42
6.350006103515625
 43
6.350006103515625
 44
215.8999938964844
 45
279.3999938964844
 46
0.0
 47
0.0
 48
0.0
 49
0.0
140
0.0
141
0.0
142
1.0
143
1.0
 70
 15024
 72
     1
 73
     1
 74
     5
  7
SEISA.ctb
 75
    16
147
1.0
 76
     0
 77
     2
 78
   300
148
0.0
149
0.0
100
AcDbLayout
  1
レイアウト1
 70
     1
 71
     1
 10
0.0
 20
0.0
 11
420.0
 21
297.0
 12
0.0
 22
0.0
 32
0.0
 14
1.000000000000000E+20
 24
1.000000000000000E+20
 34
1.000000000000000E+20
 15
-1.000000000000000E+20
 25
-1.000000000000000E+20
 35
-1.000000000000000E+20
146
0.0
 13
0.0
 23
0.0
 33
0.0
 16
1.0
 26
0.0
 36
0.0
 17
0.0
 27
1.0
 37
0.0
 76
     0
330
1B
  0
LAYOUT
  5
26
102
{ACAD_REACTORS
330
1A
102
}
330
1A
100
AcDbPlotSettings
  1

  2
none_device
  4
Letter_(8.50_x_11.00_Inches)
  6

 40
6.349999904632567
 41
6.349999904632567
 42
6.350006103515625
 43
6.350006103515625
 44
215.8999938964844
 45
279.3999938964844
 46
0.0
 47
0.0
 48
0.0
 49
0.0
140
0.0
141
0.0
142
1.0
143
1.0
 70
 15024
 72
     1
 73
     1
 74
     5
  7
SEISA.ctb
 75
    16
147
1.0
 76
     0
 77
     2
 78
   300
148
0.0
149
0.0
100
AcDbLayout
  1
レイアウト2
 70
     1
 71
     2
 10
0.0
 20
0.0
 11
12.0
 21
9.0
 12
0.0
 22
0.0
 32
0.0
 14
0.0
 24
0.0
 34
0.0
 15
0.0
 25
0.0
 35
0.0
146
0.0
 13
0.0
 23
0.0
 33
0.0
 16
1.0
 26
0.0
 36
0.0
 17
0.0
 27
1.0
 37
0.0
 76
     0
330
23
  0
MATERIAL
  5
27D
102
{ACAD_REACTORS
330
C4
102
}
330
C4
100
AcDbMaterial
  1
ByBlock
 73
     1
 78
     1
172
     1
176
     1
270
     1
274
     1
 94
       63
  0
MATERIAL
  5
27C
102
{ACAD_REACTORS
330
C4
102
}
330
C4
100
AcDbMaterial
  1
ByLayer
 73
     1
 78
     1
172
     1
176
     1
270
     1
274
     1
 94
       63
  0
MATERIAL
  5
27E
102
{ACAD_REACTORS
330
C4
102
}
330
C4
100
AcDbMaterial
  1
Global
 73
     1
 78
     1
172
     1
176
     1
270
     1
274
     1
 94
       63
  0
MLEADERSTYLE
  5
2D6
102
{ACAD_REACTORS
330
2D5
102
}
330
2D5
100
AcDbMLeaderStyle
170
     2
171
     1
172
     0
 90
        2
 40
0.0
 41
0.0
173
     1
 91
-1056964608
340
14
 92
       -2
290
     1
 42
2.0
291
     1
 43
0.36
  3
Standard
 44
4.0
300

342
11
174
     1
178
     6
175
     1
176
     0
 93
-1056964608
 45
4.0
292
     0
297
     0
 46
4.0
 94
-1056964608
 47
1.0
 49
1.0
140
1.0
293
     1
141
0.0
294
     1
177
     0
142
1.0
295
     0
296
     0
143
0.125
1001
ACAD_MLEADERVER
1070
     2
  0
MLINESTYLE
  5
18
102
{ACAD_REACTORS
330
17
102
}
330
17
100
AcDbMlineStyle
  2
STANDARD
 70
     0
  3

 62
   256
 51
90.0
 52
90.0
 71
     2
 49
0.5
 62
   256
  6
BYLAYER
 49
-0.5
 62
   256
  6
BYLAYER
  0
PLOTSETTINGS
  5
1C7E
102
{ACAD_REACTORS
330
19
102
}
330
19
100
AcDbPlotSettings
  1
SEISA基本
  2
none_device
  4
Letter_(8.50_x_11.00_Inches)
  6

 40
6.349999904632567
 41
6.349999904632567
 42
6.350006103515625
 43
6.350006103515625
 44
215.8999938964844
 45
279.3999938964844
 46
7.302498226506357
 47
0.0
 48
0.0
 49
0.0
140
0.0
141
0.0
142
1.0
143
1.574803221122935
 70
 11956
 72
     1
 73
     1
 74
     2
  7
SEISA.ctb
 75
     0
147
0.6349999711627054
 76
     0
 77
     2
 78
   300
148
0.0
149
0.0
1001
ACAD_PSEXT
1000
なし
1000
なし
1000
適切ではありません
1000
新しいプロッタ環境設定名を選択しない限り、レイアウトは印刷されません。
1070
     0
  0
ACDBPLACEHOLDER
  5
F
102
{ACAD_REACTORS
330
E
102
}
330
E
  0
SCALE
  5
2A07
102
{ACAD_REACTORS
330
2B3
102
}
330
2B3
100
AcDbScale
 70
     0
300
1:3
140
1.0
141
3.0
290
     0
  0
SCALE
  5
6EA6
102
{ACAD_REACTORS
330
2B3
102
}
330
2B3
100
AcDbScale
 70
     0
300
1:2.5
140
1.0
141
2.5
290
     0
  0
SCALE
  5
6EA7
102
{ACAD_REACTORS
330
2B3
102
}
330
2B3
100
AcDbScale
 70
     0
300
1:1.5
140
1.0
141
1.5
290
     0
  0
SCALE
  5
2B4
102
{ACAD_REACTORS
330
2B3
102
}
330
2B3
100
AcDbScale
 70
     0
300
1:1
140
1.0
141
1.0
290
     1
  0
SCALE
  5
2B5
102
{ACAD_REACTORS
330
2B3
102
}
330
2B3
100
AcDbScale
 70
     0
300
1:2
140
1.0
141
2.0
290
     0
  0
SCALE
  5
2B6
102
{ACAD_REACTORS
330
2B3
102
}
330
2B3
100
AcDbScale
 70
     0
300
1:4
140
1.0
141
4.0
290
     0
  0
SCALE
  5
2B7
102
{ACAD_REACTORS
330
2B3
102
}
330
2B3
100
AcDbScale
 70
     0
300
1:5
140
1.0
141
5.0
290
     0
  0
SCALE
  5
2B8
102
{ACAD_REACTORS
330
2B3
102
}
330
2B3
100
AcDbScale
 70
     0
300
1:8
140
1.0
141
8.0
290
     0
  0
SCALE
  5
2B9
102
{ACAD_REACTORS
330
2B3
102
}
330
2B3
100
AcDbScale
 70
     0
300
1:10
140
1.0
141
10.0
290
     0
  0
SCALE
  5
2BA
102
{ACAD_REACTORS
330
2B3
102
}
330
2B3
100
AcDbScale
 70
     0
300
1:16
140
1.0
141
16.0
290
     0
  0
SCALE
  5
2BB
102
{ACAD_REACTORS
330
2B3
102
}
330
2B3
100
AcDbScale
 70
     0
300
1:20
140
1.0
141
20.0
290
     0
  0
SCALE
  5
2BC
102
{ACAD_REACTORS
330
2B3
102
}
330
2B3
100
AcDbScale
 70
     0
300
1:30
140
1.0
141
30.0
290
     0
  0
SCALE
  5
2BD
102
{ACAD_REACTORS
330
2B3
102
}
330
2B3
100
AcDbScale
 70
     0
300
1:40
140
1.0
141
40.0
290
     0
  0
SCALE
  5
2BE
102
{ACAD_REACTORS
330
2B3
102
}
330
2B3
100
AcDbScale
 70
     0
300
1:50
140
1.0
141
50.0
290
     0
  0
SCALE
  5
2BF
102
{ACAD_REACTORS
330
2B3
102
}
330
2B3
100
AcDbScale
 70
     0
300
1:100
140
1.0
141
100.0
290
     0
  0
SCALE
  5
2C0
102
{ACAD_REACTORS
330
2B3
102
}
330
2B3
100
AcDbScale
 70
     0
300
2:1
140
2.0
141
1.0
290
     0
  0
SCALE
  5
2C1
102
{ACAD_REACTORS
330
2B3
102
}
330
2B3
100
AcDbScale
 70
     0
300
4:1
140
4.0
141
1.0
290
     0
  0
SCALE
  5
2C2
102
{ACAD_REACTORS
330
2B3
102
}
330
2B3
100
AcDbScale
 70
     0
300
8:1
140
8.0
141
1.0
290
     0
  0
SCALE
  5
2C3
102
{ACAD_REACTORS
330
2B3
102
}
330
2B3
100
AcDbScale
 70
     0
300
10:1
140
10.0
141
1.0
290
     0
  0
SCALE
  5
2C4
102
{ACAD_REACTORS
330
2B3
102
}
330
2B3
100
AcDbScale
 70
     0
300
100:1
140
100.0
141
1.0
290
     0
  0
SCALE
  5
2C5
102
{ACAD_REACTORS
330
2B3
102
}
330
2B3
100
AcDbScale
 70
     0
300
1/128" = 1'-0"
140
0.0078125
141
12.0
290
     0
  0
SCALE
  5
2C6
102
{ACAD_REACTORS
330
2B3
102
}
330
2B3
100
AcDbScale
 70
     0
300
1/64" = 1'-0"
140
0.015625
141
12.0
290
     0
  0
SCALE
  5
2C7
102
{ACAD_REACTORS
330
2B3
102
}
330
2B3
100
AcDbScale
 70
     0
300
1/32" = 1'-0"
140
0.03125
141
12.0
290
     0
  0
SCALE
  5
2C8
102
{ACAD_REACTORS
330
2B3
102
}
330
2B3
100
AcDbScale
 70
     0
300
1/16" = 1'-0"
140
0.0625
141
12.0
290
     0
  0
SCALE
  5
2C9
102
{ACAD_REACTORS
330
2B3
102
}
330
2B3
100
AcDbScale
 70
     0
300
3/32" = 1'-0"
140
0.09375
141
12.0
290
     0
  0
SCALE
  5
2CA
102
{ACAD_REACTORS
330
2B3
102
}
330
2B3
100
AcDbScale
 70
     0
300
1/8" = 1'-0"
140
0.125
141
12.0
290
     0
  0
SCALE
  5
2CB
102
{ACAD_REACTORS
330
2B3
102
}
330
2B3
100
AcDbScale
 70
     0
300
3/16" = 1'-0"
140
0.1875
141
12.0
290
     0
  0
SCALE
  5
2CC
102
{ACAD_REACTORS
330
2B3
102
}
330
2B3
100
AcDbScale
 70
     0
300
1/4" = 1'-0"
140
0.25
141
12.0
290
     0
  0
SCALE
  5
2CD
102
{ACAD_REACTORS
330
2B3
102
}
330
2B3
100
AcDbScale
 70
     0
300
3/8" = 1'-0"
140
0.375
141
12.0
290
     0
  0
SCALE
  5
2CE
102
{ACAD_REACTORS
330
2B3
102
}
330
2B3
100
AcDbScale
 70
     0
300
1/2" = 1'-0"
140
0.5
141
12.0
290
     0
  0
SCALE
  5
2CF
102
{ACAD_REACTORS
330
2B3
102
}
330
2B3
100
AcDbScale
 70
     0
300
3/4" = 1'-0"
140
0.75
141
12.0
290
     0
  0
SCALE
  5
2D0
102
{ACAD_REACTORS
330
2B3
102
}
330
2B3
100
AcDbScale
 70
     0
300
1" = 1'-0"
140
1.0
141
12.0
290
     0
  0
SCALE
  5
2D1
102
{ACAD_REACTORS
330
2B3
102
}
330
2B3
100
AcDbScale
 70
     0
300
1-1/2" = 1'-0"
140
1.5
141
12.0
290
     0
  0
SCALE
  5
2D2
102
{ACAD_REACTORS
330
2B3
102
}
330
2B3
100
AcDbScale
 70
     0
300
3" = 1'-0"
140
3.0
141
12.0
290
     0
  0
SCALE
  5
2D3
102
{ACAD_REACTORS
330
2B3
102
}
330
2B3
100
AcDbScale
 70
     0
300
6" = 1'-0"
140
6.0
141
12.0
290
     0
  0
SCALE
  5
2D4
102
{ACAD_REACTORS
330
2B3
102
}
330
2B3
100
AcDbScale
 70
     0
300
1'-0" = 1'-0"
140
12.0
141
12.0
290
     0
  0
TABLESTYLE
  5
122
102
{ACAD_XDICTIONARY
360
2F5
102
}
102
{ACAD_REACTORS
330
121
102
}
330
121
100
AcDbTableStyle
  3
Standard
 70
     0
 71
     0
 40
1.5
 41
1.5
280
     0
281
     0
  7
STANDARD
140
4.5
170
     2
 62
     0
 63
     7
283
     0
 90
      512
 91
        0
  1

274
    -2
284
     1
 64
     0
275
    -2
285
     1
 65
     0
276
    -2
286
     1
 66
     0
277
    -2
287
     1
 67
     0
278
    -2
288
     1
 68
     0
279
    -2
289
     1
 69
     0
  7
STANDARD
140
6.0
170
     5
 62
     0
 63
     7
283
     0
 90
      512
 91
        0
  1

274
    -2
284
     1
 64
     0
275
    -2
285
     1
 65
     0
276
    -2
286
     1
 66
     0
277
    -2
287
     1
 67
     0
278
    -2
288
     1
 68
     0
279
    -2
289
     1
 69
     0
  7
STANDARD
140
4.5
170
     5
 62
     0
 63
     7
283
     0
 90
      512
 91
        0
  1

274
    -2
284
     1
 64
     0
275
    -2
285
     1
 65
     0
276
    -2
286
     1
 66
     0
277
    -2
287
     1
 67
     0
278
    -2
288
     1
 68
     0
279
    -2
289
     1
 69
     0
  0
VISUALSTYLE
  5
285
102
{ACAD_REACTORS
330
27F
102
}
330
27F
100
AcDbVisualStyle
  2
2dWireframe
 70
     4
 71
     0
 72
     2
 73
     0
 90
        0
 40
-0.6
 41
-30.0
 62
     5
 63
     7
421
 16777215
 74
     1
 91
        4
 64
     7
 65
   257
 75
     1
175
     1
 42
1.0
 92
        0
 66
   257
 43
1.0
 76
     1
 77
     6
 78
     2
 67
     7
 79
     5
170
     0
171
     0
290
     0
174
     0
 93
        1
 44
0.0
173
     0
291
     0
 45
0.0
  0
VISUALSTYLE
  5
287
102
{ACAD_REACTORS
330
27F
102
}
330
27F
100
AcDbVisualStyle
  2
3D Hidden
 70
     6
 71
     1
 72
     2
 73
     2
 90
        0
 40
-0.6
 41
-30.0
 62
     5
 63
     7
421
 16777215
 74
     2
 91
        2
 64
     7
 65
   257
 75
     2
175
     1
 42
40.0
 92
        0
 66
   257
 43
1.0
 76
     1
 77
     6
 78
     2
 67
     7
 79
     3
170
     0
171
     0
290
     0
174
     0
 93
        1
 44
0.0
173
     0
291
     0
 45
0.0
  0
VISUALSTYLE
  5
286
102
{ACAD_REACTORS
330
27F
102
}
330
27F
100
AcDbVisualStyle
  2
3dWireframe
 70
     5
 71
     0
 72
     2
 73
     0
 90
        0
 40
-0.6
 41
-30.0
 62
     5
 63
     7
421
 16777215
 74
     1
 91
        4
 64
     7
 65
   257
 75
     1
175
     1
 42
1.0
 92
        0
 66
   257
 43
1.0
 76
     1
 77
     6
 78
     2
 67
     7
 79
     5
170
     0
171
     0
290
     0
174
     0
 93
        1
 44
0.0
173
     0
291
     0
 45
0.0
  0
VISUALSTYLE
  5
284
102
{ACAD_REACTORS
330
27F
102
}
330
27F
100
AcDbVisualStyle
  2
Basic
 70
     7
 71
     1
 72
     0
 73
     1
 90
        0
 40
-0.6
 41
-30.0
 62
     5
 63
     7
421
 16777215
 74
     0
 91
        4
 64
     7
 65
   257
 75
     1
175
     1
 42
1.0
 92
        8
 66
     7
 43
1.0
 76
     1
 77
     6
 78
     2
 67
     7
 79
     5
170
     0
171
     0
290
     0
174
     0
 93
        1
 44
0.0
173
     0
291
     1
 45
0.0
  0
VISUALSTYLE
  5
28B
102
{ACAD_REACTORS
330
27F
102
}
330
27F
100
AcDbVisualStyle
  2
Brighten
 70
    12
 71
     2
 72
     2
 73
     0
 90
        0
 40
-0.6
 41
-30.0
 62
     5
 63
     7
421
 16777215
 74
     1
 91
        4
 64
     7
 65
   257
 75
     1
175
     1
 42
1.0
 92
        8
 66
     7
 43
1.0
 76
     1
 77
     6
 78
     2
 67
     7
 79
     5
170
     0
171
     0
290
     0
174
     0
 93
        1
 44
50.0
173
     0
291
     1
 45
0.0
  0
VISUALSTYLE
  5
28F
102
{ACAD_REACTORS
330
27F
102
}
330
27F
100
AcDbVisualStyle
  2
ColorChange
 70
    16
 71
     2
 72
     2
 73
     3
 90
        0
 40
-0.6
 41
-30.0
 62
     5
 63
     8
421
  8421504
 74
     1
 91
        4
 64
     7
 65
   257
 75
     1
175
     1
 42
1.0
 92
        8
 66
     8
424
  8421504
 43
1.0
 76
     1
 77
     6
 78
     2
 67
     7
 79
     5
170
     0
171
     0
290
     0
174
     0
 93
        1
 44
0.0
173
     0
291
     1
 45
0.0
  0
VISUALSTYLE
  5
288
102
{ACAD_REACTORS
330
27F
102
}
330
27F
100
AcDbVisualStyle
  2
Conceptual
 70
     9
 71
     3
 72
     2
 73
     0
 90
        0
 40
-0.6
 41
-30.0
 62
     5
 63
     7
421
 16777215
 74
     2
 91
        2
 64
     7
 65
   257
 75
     1
175
     1
 42
40.0
 92
        8
 66
     7
 43
1.0
 76
     1
 77
     6
 78
     2
 67
     7
 79
     3
170
     0
171
     0
290
     0
174
     0
 93
        1
 44
0.0
173
     0
291
     0
 45
0.0
  0
VISUALSTYLE
  5
28A
102
{ACAD_REACTORS
330
27F
102
}
330
27F
100
AcDbVisualStyle
  2
Dim
 70
    11
 71
     2
 72
     2
 73
     0
 90
        0
 40
-0.6
 41
-30.0
 62
     5
 63
     7
421
 16777215
 74
     1
 91
        4
 64
     7
 65
   257
 75
     1
175
     1
 42
1.0
 92
        8
 66
     7
 43
1.0
 76
     1
 77
     6
 78
     2
 67
     7
 79
     5
170
     0
171
     0
290
     0
174
     0
 93
        1
 44
-50.0
173
     0
291
     1
 45
0.0
  0
VISUALSTYLE
  5
28E
102
{ACAD_REACTORS
330
27F
102
}
330
27F
100
AcDbVisualStyle
  2
Facepattern
 70
    15
 71
     2
 72
     2
 73
     0
 90
        0
 40
-0.6
 41
-30.0
 62
     5
 63
     7
421
 16777215
 74
     1
 91
        4
 64
     7
 65
   257
 75
     1
175
     1
 42
1.0
 92
        8
 66
     7
 43
1.0
 76
     1
 77
     6
 78
     2
 67
     7
 79
     5
170
     0
171
     0
290
     0
174
     0
 93
        1
 44
0.0
173
     0
291
     1
 45
0.0
  0
VISUALSTYLE
  5
280
102
{ACAD_REACTORS
330
27F
102
}
330
27F
100
AcDbVisualStyle
  2
Flat
 70
     0
 71
     2
 72
     1
 73
     1
 90
        2
 40
-0.6
 41
30.0
 62
     5
 63
     7
421
 16777215
 74
     0
 91
        4
 64
     7
 65
   257
 75
     1
175
     1
 42
1.0
 92
        8
 66
     7
 43
1.0
 76
     1
 77
     6
 78
     2
 67
     7
 79
     5
170
     0
171
     0
290
     0
174
     0
 93
       13
 44
0.0
173
     0
291
     1
 45
0.0
  0
VISUALSTYLE
  5
281
102
{ACAD_REACTORS
330
27F
102
}
330
27F
100
AcDbVisualStyle
  2
FlatWithEdges
 70
     1
 71
     2
 72
     1
 73
     1
 90
        2
 40
-0.6
 41
30.0
 62
     5
 63
     7
421
 16777215
 74
     1
 91
        4
 64
     7
 65
   257
 75
     1
175
     1
 42
1.0
 92
        0
 66
   257
 43
1.0
 76
     1
 77
     6
 78
     2
 67
     7
 79
     5
170
     0
171
     0
290
     0
174
     0
 93
       13
 44
0.0
173
     0
291
     1
 45
0.0
  0
VISUALSTYLE
  5
282
102
{ACAD_REACTORS
330
27F
102
}
330
27F
100
AcDbVisualStyle
  2
Gouraud
 70
     2
 71
     2
 72
     2
 73
     1
 90
        2
 40
-0.6
 41
30.0
 62
     5
 63
     7
421
 16777215
 74
     0
 91
        4
 64
     7
 65
   257
 75
     1
175
     1
 42
1.0
 92
        0
 66
     7
 43
1.0
 76
     1
 77
     6
 78
     2
 67
     7
 79
     5
170
     0
171
     0
290
     0
174
     0
 93
       13
 44
0.0
173
     0
291
     1
 45
0.0
  0
VISUALSTYLE
  5
283
102
{ACAD_REACTORS
330
27F
102
}
330
27F
100
AcDbVisualStyle
  2
GouraudWithEdges
 70
     3
 71
     2
 72
     2
 73
     1
 90
        2
 40
-0.6
 41
30.0
 62
     5
 63
     7
421
 16777215
 74
     1
 91
        4
 64
     7
 65
   257
 75
     1
175
     1
 42
1.0
 92
        0
 66
   257
 43
1.0
 76
     1
 77
     6
 78
     2
 67
     7
 79
     5
170
     0
171
     0
290
     0
174
     0
 93
       13
 44
0.0
173
     0
291
     1
 45
0.0
  0
VISUALSTYLE
  5
28D
102
{ACAD_REACTORS
330
27F
102
}
330
27F
100
AcDbVisualStyle
  2
Linepattern
 70
    14
 71
     2
 72
     2
 73
     0
 90
        0
 40
-0.6
 41
-30.0
 62
     5
 63
     7
421
 16777215
 74
     1
 91
        4
 64
     7
 65
   257
 75
     7
175
     7
 42
1.0
 92
        8
 66
     7
 43
1.0
 76
     1
 77
     6
 78
     2
 67
     7
 79
     5
170
     0
171
     0
290
     0
174
     0
 93
        1
 44
0.0
173
     0
291
     1
 45
0.0
  0
VISUALSTYLE
  5
289
102
{ACAD_REACTORS
330
27F
102
}
330
27F
100
AcDbVisualStyle
  2
Realistic
 70
     8
 71
     2
 72
     2
 73
     0
 90
        0
 40
-0.6
 41
-30.0
 62
     5
 63
     7
421
 16777215
 74
     1
 91
        0
 64
     7
 65
   257
 75
     1
175
     1
 42
1.0
 92
        8
 66
     8
424
  7895160
 43
1.0
 76
     1
 77
     6
 78
     2
 67
     7
 79
     5
170
     0
171
     0
290
     0
174
     0
 93
       13
 44
0.0
173
     0
291
     0
 45
0.0
  0
VISUALSTYLE
  5
28C
102
{ACAD_REACTORS
330
27F
102
}
330
27F
100
AcDbVisualStyle
  2
Thicken
 70
    13
 71
     2
 72
     2
 73
     0
 90
        0
 40
-0.6
 41
-30.0
 62
     5
 63
     7
421
 16777215
 74
     1
 91
        4
 64
     7
 65
   257
 75
     1
175
     1
 42
1.0
 92
       12
 66
     7
 43
1.0
 76
     1
 77
     6
 78
     2
 67
     7
 79
     5
170
     0
171
     0
290
     0
174
     0
 93
        1
 44
0.0
173
     0
291
     1
 45
0.0
  0
DICTIONARYVAR
  5
2FA
102
{ACAD_REACTORS
330
34
102
}
330
34
100
DictionaryVariables
280
     0
  1
1:3
  0
DICTIONARYVAR
  5
2F8
102
{ACAD_REACTORS
330
34
102
}
330
34
100
DictionaryVariables
280
     0
  1
STANDARD
  0
DICTIONARYVAR
  5
140
102
{ACAD_REACTORS
330
34
102
}
330
34
100
DictionaryVariables
280
     0
  1
STANDARD
  0
DICTIONARYVAR
  5
AC
102
{ACAD_REACTORS
330
34
102
}
330
34
100
DictionaryVariables
280
     0
  1
1
  0
DICTIONARYVAR
  5
35
102
{ACAD_REACTORS
330
34
102
}
330
34
100
DictionaryVariables
280
     0
  1
1
  0
DICTIONARYVAR
  5
5F2A
102
{ACAD_REACTORS
330
34
102
}
330
34
100
DictionaryVariables
280
     0
  1
1
  0
DICTIONARYVAR
  5
5F2B
102
{ACAD_REACTORS
330
34
102
}
330
34
100
DictionaryVariables
280
     0
  1
15
  0
DICTIONARYVAR
  5
2FB
102
{ACAD_REACTORS
330
34
102
}
330
34
100
DictionaryVariables
280
     0
  1
0
  0
DICTIONARYVAR
  5
2F9
102
{ACAD_REACTORS
330
34
102
}
330
34
100
DictionaryVariables
280
     0
  1
0
  0
DICTIONARY
  5
161B
102
{ACAD_REACTORS
330
49
102
}
330
49
100
AcDbDictionary
281
     1
  0
DICTIONARY
  5
4A
102
{ACAD_REACTORS
330
49
102
}
330
49
100
AcDbDictionary
281
     1
  0
XRECORD
  5
12B
102
{ACAD_REACTORS
330
49
102
}
330
49
100
AcDbXrecord
280
     1
 90
-1023410169
  0
DICTIONARY
  5
2F5
330
122
100
AcDbDictionary
280
     1
281
     1
  3
ACAD_ROUNDTRIP_2008_TABLESTYLE_CELLSTYLEMAP
360
7209
  0
CELLSTYLEMAP
  5
7209
102
{ACAD_REACTORS
330
2F5
102
}
330
2F5
100
AcDbCellStyleMap
 90
        3
300
CELLSTYLE
  1
TABLEFORMAT_BEGIN
 90
        5
170
     1
 91
        0
 92
    32768
 62
   257
 93
        1
300
CONTENTFORMAT
  1
CONTENTFORMAT_BEGIN
 90
        0
 91
        0
 92
      512
 93
        0
300

 40
0.0
140
1.0
 94
        5
 62
     0
340
11
144
6.0
309
CONTENTFORMAT_END
171
     1
301
MARGIN
  1
CELLMARGIN_BEGIN
 40
1.5
 40
1.5
 40
1.5
 40
1.5
 40
0.18
 40
0.18
309
CELLMARGIN_END
 94
        6
 95
        1
302
GRIDFORMAT
  1
GRIDFORMAT_BEGIN
 90
        0
 91
        1
 62
     0
 92
       -2
340
0
 93
        0
 40
0.045
309
GRIDFORMAT_END
 95
        2
302
GRIDFORMAT
  1
GRIDFORMAT_BEGIN
 90
        0
 91
        1
 62
     0
 92
       -2
340
0
 93
        0
 40
0.045
309
GRIDFORMAT_END
 95
        4
302
GRIDFORMAT
  1
GRIDFORMAT_BEGIN
 90
        0
 91
        1
 62
     0
 92
       -2
340
0
 93
        0
 40
0.045
309
GRIDFORMAT_END
 95
        8
302
GRIDFORMAT
  1
GRIDFORMAT_BEGIN
 90
        0
 91
        1
 62
     0
 92
       -2
340
0
 93
        0
 40
0.045
309
GRIDFORMAT_END
 95
       16
302
GRIDFORMAT
  1
GRIDFORMAT_BEGIN
 90
        0
 91
        1
 62
     0
 92
       -2
340
0
 93
        0
 40
0.045
309
GRIDFORMAT_END
 95
       32
302
GRIDFORMAT
  1
GRIDFORMAT_BEGIN
 90
        0
 91
        1
 62
     0
 92
       -2
340
0
 93
        0
 40
0.045
309
GRIDFORMAT_END
309
TABLEFORMAT_END
  1
CELLSTYLE_BEGIN
 90
        1
 91
        1
300
_TITLE
309
CELLSTYLE_END
300
CELLSTYLE
  1
TABLEFORMAT_BEGIN
 90
        5
170
     1
 91
        0
 92
        0
 62
   257
 93
        1
300
CONTENTFORMAT
  1
CONTENTFORMAT_BEGIN
 90
        0
 91
        0
 92
      512
 93
        0
300

 40
0.0
140
1.0
 94
        5
 62
     0
340
11
144
4.5
309
CONTENTFORMAT_END
171
     1
301
MARGIN
  1
CELLMARGIN_BEGIN
 40
1.5
 40
1.5
 40
1.5
 40
1.5
 40
0.18
 40
0.18
309
CELLMARGIN_END
 94
        6
 95
        1
302
GRIDFORMAT
  1
GRIDFORMAT_BEGIN
 90
        0
 91
        1
 62
     0
 92
       -2
340
0
 93
        0
 40
0.045
309
GRIDFORMAT_END
 95
        2
302
GRIDFORMAT
  1
GRIDFORMAT_BEGIN
 90
        0
 91
        1
 62
     0
 92
       -2
340
0
 93
        0
 40
0.045
309
GRIDFORMAT_END
 95
        4
302
GRIDFORMAT
  1
GRIDFORMAT_BEGIN
 90
        0
 91
        1
 62
     0
 92
       -2
340
0
 93
        0
 40
0.045
309
GRIDFORMAT_END
 95
        8
302
GRIDFORMAT
  1
GRIDFORMAT_BEGIN
 90
        0
 91
        1
 62
     0
 92
       -2
340
0
 93
        0
 40
0.045
309
GRIDFORMAT_END
 95
       16
302
GRIDFORMAT
  1
GRIDFORMAT_BEGIN
 90
        0
 91
        1
 62
     0
 92
       -2
340
0
 93
        0
 40
0.045
309
GRIDFORMAT_END
 95
       32
302
GRIDFORMAT
  1
GRIDFORMAT_BEGIN
 90
        0
 91
        1
 62
     0
 92
       -2
340
0
 93
        0
 40
0.045
309
GRIDFORMAT_END
309
TABLEFORMAT_END
  1
CELLSTYLE_BEGIN
 90
        2
 91
        1
300
_HEADER
309
CELLSTYLE_END
300
CELLSTYLE
  1
TABLEFORMAT_BEGIN
 90
        5
170
     1
 91
        0
 92
        0
 62
   257
 93
        1
300
CONTENTFORMAT
  1
CONTENTFORMAT_BEGIN
 90
        0
 91
        0
 92
      512
 93
        0
300

 40
0.0
140
1.0
 94
        2
 62
     0
340
11
144
4.5
309
CONTENTFORMAT_END
171
     1
301
MARGIN
  1
CELLMARGIN_BEGIN
 40
1.5
 40
1.5
 40
1.5
 40
1.5
 40
0.18
 40
0.18
309
CELLMARGIN_END
 94
        6
 95
        1
302
GRIDFORMAT
  1
GRIDFORMAT_BEGIN
 90
        0
 91
        1
 62
     0
 92
       -2
340
0
 93
        0
 40
0.045
309
GRIDFORMAT_END
 95
        2
302
GRIDFORMAT
  1
GRIDFORMAT_BEGIN
 90
        0
 91
        1
 62
     0
 92
       -2
340
0
 93
        0
 40
0.045
309
GRIDFORMAT_END
 95
        4
302
GRIDFORMAT
  1
GRIDFORMAT_BEGIN
 90
        0
 91
        1
 62
     0
 92
       -2
340
0
 93
        0
 40
0.045
309
GRIDFORMAT_END
 95
        8
302
GRIDFORMAT
  1
GRIDFORMAT_BEGIN
 90
        0
 91
        1
 62
     0
 92
       -2
340
0
 93
        0
 40
0.045
309
GRIDFORMAT_END
 95
       16
302
GRIDFORMAT
  1
GRIDFORMAT_BEGIN
 90
        0
 91
        1
 62
     0
 92
       -2
340
0
 93
        0
 40
0.045
309
GRIDFORMAT_END
 95
       32
302
GRIDFORMAT
  1
GRIDFORMAT_BEGIN
 90
        0
 91
        1
 62
     0
 92
       -2
340
0
 93
        0
 40
0.045
309
GRIDFORMAT_END
309
TABLEFORMAT_END
  1
CELLSTYLE_BEGIN
 90
        3
 91
        2
300
_DATA
309
CELLSTYLE_END
  0
ENDSEC
  0
EOF
