  0
SECTION
  2
HEADER
  9
$ACADVER
  1
AC1021
  9
$ACADMAINTVER
 70
    26
  9
$DWGCODEPAGE
  3
ANSI_932
  9
$LASTSAVEDBY
  1
Htm_Terada
  9
$CUSTOMPROPERTYTAG
  1
AmdtFileType
  9
$CUSTOMPROPERTY
  1
84
  9
$INSBASE
 10
0.0
 20
0.0
 30
0.0
  9
$EXTMIN
 10
319.1113762079584
 20
324.9615392739376
 30
0.0
  9
$EXTMAX
 10
787.3776002713062
 20
664.5976121038336
 30
0.0
  9
$LIMMIN
 10
0.0000004785846386
 20
0.0000009234551612
  9
$LIMMAX
 10
1050.000000478584
 20
742.5000009234552
  9
$ORTHOMODE
 70
     0
  9
$REGENMODE
 70
     1
  9
$FILLMODE
 70
     1
  9
$QTEXTMODE
 70
     0
  9
$MIRRTEXT
 70
     1
  9
$LTSCALE
 40
2.5
  9
$ATTMODE
 70
     1
  9
$TEXTSIZE
 40
25.0
  9
$TRACEWID
 40
1.0
  9
$TEXTSTYLE
  7
SEISA
  9
$CLAYER
  8
AM_11 想像線
  9
$CELTYPE
  6
ByLayer
  9
$CECOLOR
 62
   256
  9
$CELTSCALE
 40
1.0
  9
$DISPSILH
 70
     0
  9
$DIMSCALE
 40
2.5
  9
$DIMASZ
 40
2.5
  9
$DIMEXO
 40
0.625
  9
$DIMDLI
 40
10.0
  9
$DIMRND
 40
0.0
  9
$DIMDLE
 40
0.0
  9
$DIMEXE
 40
0.625
  9
$DIMTP
 40
0.1
  9
$DIMTM
 40
0.1
  9
$DIMTXT
 40
3.5
  9
$DIMCEN
 40
0.0
  9
$DIMTSZ
 40
0.0
  9
$DIMTOL
 70
     0
  9
$DIMLIM
 70
     0
  9
$DIMTIH
 70
     0
  9
$DIMTOH
 70
     0
  9
$DIMSE1
 70
     0
  9
$DIMSE2
 70
     0
  9
$DIMTAD
 70
     3
  9
$DIMZIN
 70
     8
  9
$DIMBLK
  1
Open30
  9
$DIMASO
 70
     1
  9
$DIMSHO
 70
     1
  9
$DIMPOST
  1

  9
$DIMAPOST
  1
"
  9
$DIMALT
 70
     0
  9
$DIMALTD
 70
     2
  9
$DIMALTF
 40
0.0393701
  9
$DIMLFAC
 40
1.0
  9
$DIMTOFL
 70
     1
  9
$DIMTVP
 40
0.0
  9
$DIMTIX
 70
     0
  9
$DIMSOXD
 70
     0
  9
$DIMSAH
 70
     0
  9
$DIMBLK1
  1

  9
$DIMBLK2
  1

  9
$DIMSTYLE
  2
SEISA
  9
$DIMCLRD
 70
     3
  9
$DIMCLRE
 70
     3
  9
$DIMCLRT
 70
     3
  9
$DIMTFAC
 40
0.71
  9
$DIMGAP
 40
1.5
  9
$DIMJUST
 70
     0
  9
$DIMSD1
 70
     0
  9
$DIMSD2
 70
     0
  9
$DIMTOLJ
 70
     0
  9
$DIMTZIN
 70
     0
  9
$DIMALTZ
 70
     0
  9
$DIMALTTZ
 70
     8
  9
$DIMUPT
 70
     0
  9
$DIMDEC
 70
     2
  9
$DIMTDEC
 70
     2
  9
$DIMALTU
 70
     2
  9
$DIMALTTD
 70
     2
  9
$DIMTXSTY
  7
SEISA
  9
$DIMAUNIT
 70
     0
  9
$DIMADEC
 70
     0
  9
$DIMALTRND
 40
0.0
  9
$DIMAZIN
 70
     2
  9
$DIMDSEP
 70
    46
  9
$DIMATFIT
 70
     3
  9
$DIMFRAC
 70
     0
  9
$DIMLDRBLK
  1
Open30
  9
$DIMLUNIT
 70
     2
  9
$DIMLWD
 70
    -1
  9
$DIMLWE
 70
    -1
  9
$DIMTMOVE
 70
     0
  9
$DIMFXL
 40
1.0
  9
$DIMFXLON
 70
     0
  9
$DIMJOGANG
 40
0.7853981633974483
  9
$DIMTFILL
 70
     0
  9
$DIMTFILLCLR
 70
     0
  9
$DIMARCSYM
 70
     1
  9
$DIMLTYPE
  6

  9
$DIMLTEX1
  6

  9
$DIMLTEX2
  6

  9
$LUNITS
 70
     2
  9
$LUPREC
 70
     2
  9
$SKETCHINC
 40
1.0
  9
$FILLETRAD
 40
6.25
  9
$AUNITS
 70
     0
  9
$AUPREC
 70
     0
  9
$MENU
  1
.
  9
$ELEVATION
 40
0.0
  9
$PELEVATION
 40
0.0
  9
$THICKNESS
 40
0.0
  9
$LIMCHECK
 70
     0
  9
$CHAMFERA
 40
2.000000000000112
  9
$CHAMFERB
 40
2.0
  9
$CHAMFERC
 40
2.000000000000112
  9
$CHAMFERD
 40
0.7853981633974767
  9
$SKPOLY
 70
     0
  9
$TDCREATE
 40
2454909.494215984
  9
$TDUCREATE
 40
2454909.119215984
  9
$TDUPDATE
 40
2456478.704509178
  9
$TDUUPDATE
 40
2456478.329509178
  9
$TDINDWG
 40
0.4032018287
  9
$TDUSRTIMER
 40
0.4032009259
  9
$USRTIMER
 70
     1
  9
$ANGBASE
 50
0.0
  9
$ANGDIR
 70
     0
  9
$PDMODE
 70
     0
  9
$PDSIZE
 40
0.0
  9
$PLINEWID
 40
0.0
  9
$SPLFRAME
 70
     0
  9
$SPLINETYPE
 70
     6
  9
$SPLINESEGS
 70
     8
  9
$HANDSEED
  5
7A67
  9
$SURFTAB1
 70
     6
  9
$SURFTAB2
 70
     6
  9
$SURFTYPE
 70
     6
  9
$SURFU
 70
     6
  9
$SURFV
 70
     6
  9
$UCSBASE
  2

  9
$UCSNAME
  2

  9
$UCSORG
 10
0.0
 20
0.0
 30
0.0
  9
$UCSXDIR
 10
1.0
 20
0.0
 30
0.0
  9
$UCSYDIR
 10
0.0
 20
1.0
 30
0.0
  9
$UCSORTHOREF
  2

  9
$UCSORTHOVIEW
 70
     0
  9
$UCSORGTOP
 10
0.0
 20
0.0
 30
0.0
  9
$UCSORGBOTTOM
 10
0.0
 20
0.0
 30
0.0
  9
$UCSORGLEFT
 10
0.0
 20
0.0
 30
0.0
  9
$UCSORGRIGHT
 10
0.0
 20
0.0
 30
0.0
  9
$UCSORGFRONT
 10
0.0
 20
0.0
 30
0.0
  9
$UCSORGBACK
 10
0.0
 20
0.0
 30
0.0
  9
$PUCSBASE
  2

  9
$PUCSNAME
  2

  9
$PUCSORG
 10
0.0
 20
0.0
 30
0.0
  9
$PUCSXDIR
 10
1.0
 20
0.0
 30
0.0
  9
$PUCSYDIR
 10
0.0
 20
1.0
 30
0.0
  9
$PUCSORTHOREF
  2

  9
$PUCSORTHOVIEW
 70
     0
  9
$PUCSORGTOP
 10
0.0
 20
0.0
 30
0.0
  9
$PUCSORGBOTTOM
 10
0.0
 20
0.0
 30
0.0
  9
$PUCSORGLEFT
 10
0.0
 20
0.0
 30
0.0
  9
$PUCSORGRIGHT
 10
0.0
 20
0.0
 30
0.0
  9
$PUCSORGFRONT
 10
0.0
 20
0.0
 30
0.0
  9
$PUCSORGBACK
 10
0.0
 20
0.0
 30
0.0
  9
$USERI1
 70
     0
  9
$USERI2
 70
     0
  9
$USERI3
 70
     0
  9
$USERI4
 70
     0
  9
$USERI5
 70
     0
  9
$USERR1
 40
0.0
  9
$USERR2
 40
0.0
  9
$USERR3
 40
0.0
  9
$USERR4
 40
0.0
  9
$USERR5
 40
0.0
  9
$WORLDVIEW
 70
     1
  9
$SHADEDGE
 70
     3
  9
$SHADEDIF
 70
    70
  9
$TILEMODE
 70
     1
  9
$MAXACTVP
 70
    64
  9
$PINSBASE
 10
0.0
 20
0.0
 30
0.0
  9
$PLIMCHECK
 70
     0
  9
$PEXTMIN
 10
1.000000000000000E+20
 20
1.000000000000000E+20
 30
1.000000000000000E+20
  9
$PEXTMAX
 10
-1.000000000000000E+20
 20
-1.000000000000000E+20
 30
-1.000000000000000E+20
  9
$PLIMMIN
 10
0.0
 20
0.0
  9
$PLIMMAX
 10
420.0
 20
297.0
  9
$UNITMODE
 70
     0
  9
$VISRETAIN
 70
     1
  9
$PLINEGEN
 70
     0
  9
$PSLTSCALE
 70
     1
  9
$TREEDEPTH
 70
  3020
  9
$CMLSTYLE
  2
Standard
  9
$CMLJUST
 70
     0
  9
$CMLSCALE
 40
20.0
  9
$PROXYGRAPHICS
 70
     1
  9
$MEASUREMENT
 70
     1
  9
$CELWEIGHT
370
    -1
  9
$ENDCAPS
280
     0
  9
$JOINSTYLE
280
     0
  9
$LWDISPLAY
290
     0
  9
$INSUNITS
 70
     4
  9
$HYPERLINKBASE
  1

  9
$STYLESHEET
  1
SEISA.CTB
  9
$XEDIT
290
     1
  9
$CEPSNTYPE
380
     0
  9
$PSTYLEMODE
290
     1
  9
$FINGERPRINTGUID
  2
{8A7A315D-0F2C-4364-A708-BE67E5405E70}
  9
$VERSIONGUID
  2
{F46A39EC-C0B0-461C-BE92-375159D945C4}
  9
$EXTNAMES
290
     1
  9
$PSVPSCALE
 40
0.0
  9
$OLESTARTUP
290
     0
  9
$SORTENTS
280
   127
  9
$INDEXCTL
280
     0
  9
$HIDETEXT
280
     0
  9
$XCLIPFRAME
290
     0
  9
$HALOGAP
280
     0
  9
$OBSCOLOR
 70
   257
  9
$OBSLTYPE
280
     0
  9
$INTERSECTIONDISPLAY
280
     0
  9
$INTERSECTIONCOLOR
 70
   257
  9
$DIMASSOC
280
     2
  9
$PROJECTNAME
  1

  9
$CAMERADISPLAY
290
     0
  9
$LENSLENGTH
 40
50.0
  9
$CAMERAHEIGHT
 40
0.0
  9
$STEPSPERSEC
 40
2.0
  9
$STEPSIZE
 40
6.0
  9
$3DDWFPREC
 40
2.0
  9
$PSOLWIDTH
 40
0.25
  9
$PSOLHEIGHT
 40
4.0
  9
$LOFTANG1
 40
1.570796326794896
  9
$LOFTANG2
 40
1.570796326794896
  9
$LOFTMAG1
 40
0.0
  9
$LOFTMAG2
 40
0.0
  9
$LOFTPARAM
 70
     7
  9
$LOFTNORMALS
280
     1
  9
$LATITUDE
 40
37.795
  9
$LONGITUDE
 40
-122.394
  9
$NORTHDIRECTION
 40
0.0
  9
$TIMEZONE
 70
 -8000
  9
$LIGHTGLYPHDISPLAY
280
     1
  9
$TILEMODELIGHTSYNCH
280
     1
  9
$CMATERIAL
347
27C
  9
$SOLIDHIST
280
     1
  9
$SHOWHIST
280
     1
  9
$DWFFRAME
280
     2
  9
$DGNFRAME
280
     0
  9
$REALWORLDSCALE
290
     1
  9
$INTERFERECOLOR
 62
     1
  9
$INTERFEREOBJVS
345
289
  9
$INTERFEREVPVS
346
286
  9
$CSHADOW
280
     0
  9
$SHADOWPLANELOCATION
 40
0.0
  0
ENDSEC
  0
SECTION
  2
CLASSES
  0
CLASS
  1
ACDBDICTIONARYWDFLT
  2
AcDbDictionaryWithDefault
  3
ObjectDBX Classes
 90
        0
 91
        1
280
     0
281
     0
  0
CLASS
  1
AMGSETTINGSOBJ
  2
AmgSettingsObj
  3
"AcadM|Product Description: AutoCAD Mechanical|Company: Autodesk, Inc."
 90
     1024
 91
        2
280
     0
281
     0
  0
CLASS
  1
ACME_DOCUMENT
  2
AcMeDbDoc
  3
AcMeServices
 90
     1024
 91
        1
280
     0
281
     0
  0
CLASS
  1
ACMESCOPE
  2
AcMeScope
  3
AcMeServices
 90
     1024
 91
        1
280
     0
281
     0
  0
CLASS
  1
ACMECOMMANDHISTORY
  2
AcMeCommandHistory
  3
AcMeServices
 90
     1024
 91
        1
280
     0
281
     0
  0
CLASS
  1
DICTIONARYVAR
  2
AcDbDictionaryVar
  3
ObjectDBX Classes
 90
        0
 91
        9
280
     0
281
     0
  0
CLASS
  1
ACIMSYSVARMAN
  2
AcImSysVarManager
  3
AcMeServices
 90
     1024
 91
        5
280
     0
281
     0
  0
CLASS
  1
ACIMREALSYSVAR
  2
AcImRealSysVar
  3
AcMeServices
 90
     1024
 91
        1
280
     0
281
     0
  0
CLASS
  1
ACIMINTSYSVAR
  2
AcImIntSysVar
  3
AcMeServices
 90
     1024
 91
       27
280
     0
281
     0
  0
CLASS
  1
ACMEDRAWINGMAN
  2
AcMeDrawingMan
  3
AcMeServices
 90
     1024
 91
        1
280
     0
281
     0
  0
CLASS
  1
ACMEVIEW
  2
AcMeView
  3
AcMeServices
 90
     1024
 91
        1
280
     0
281
     0
  0
CLASS
  1
ACDBENTITYCACHE
  2
AcMeEntityCache
  3
AcMeServices
 90
     1024
 91
        1
280
     0
281
     0
  0
CLASS
  1
GSMANAGER
  2
AcMeGSManager
  3
AcMeServices
 90
     1024
 91
        1
280
     0
281
     0
  0
CLASS
  1
AMDTINTERNALREACTOR
  2
AmdtInternalReactor
  3
AcMeServices
 90
     1024
 91
        2
280
     0
281
     0
  0
CLASS
  1
ACMESTATEMGR
  2
AcMeStateMgr
  3
AcMeServices
 90
     1024
 91
        1
280
     0
281
     0
  0
CLASS
  1
ACGREFMASTER
  2
AcGrefMaster
  3
AcAttribServices
 90
     1024
 91
        1
280
     0
281
     0
  0
CLASS
  1
ACME_DATABASE
  2
AcMeDbDatabase
  3
AcMeServices
 90
     1024
 91
        1
280
     0
281
     0
  0
CLASS
  1
ACRFINSADJUSTERMGR
  2
AcRfInsAdjusterMgr
  3
AcMeServices
 90
     1024
 91
        1
280
     0
281
     0
  0
CLASS
  1
ACGREFACADMASTER
  2
AcGrefacadMaster
  3
AcGrefServices
 90
     1024
 91
        1
280
     0
281
     0
  0
CLASS
  1
AMIMASTER
  2
AmiMaster
  3
AmiServices
 90
     1024
 91
        1
280
     0
281
     0
  0
CLASS
  1
ACIMSTRSYSVAR
  2
AcImStrSysVar
  3
AcMeServices
 90
     1024
 91
        5
280
     0
281
     0
  0
CLASS
  1
ACMSTANDARDJIS
  2
AcmStandardJIS
  3
"Amdt_StdImp|Product Description: AutoCAD Mechanical|Company: Autodesk, Inc."
 90
     1024
 91
        0
280
     0
281
     0
  0
CLASS
  1
AMGOBJPROPCFG
  2
AmgObjPropCfg
  3
"AmgLay|Product Description: AutoCAD Mechanical|Company: Autodesk, Inc."
 90
     1025
 91
        1
280
     0
281
     0
  0
CLASS
  1
ACMSURFSTANDARDJIS
  2
AcmSurfTextStdJIS
  3
"Amdt_StdImp|Product Description: AutoCAD Mechanical|Company: Autodesk, Inc."
 90
     1024
 91
        0
280
     0
281
     0
  0
CLASS
  1
ACMFCFSTANDARDJIS
  2
AcmFCFStdJIS
  3
"Amdt_StdImp|Product Description: AutoCAD Mechanical|Company: Autodesk, Inc."
 90
     1024
 91
        0
280
     0
281
     0
  0
CLASS
  1
ACMWELDSTANDARDJIS
  2
AcmWeldingStdJIS
  3
"Amdt_StdImp|Product Description: AutoCAD Mechanical|Company: Autodesk, Inc."
 90
     1024
 91
        0
280
     0
281
     0
  0
CLASS
  1
ACMIDSTANDARDJIS
  2
AcmIdStdJIS
  3
"Amdt_StdImp|Product Description: AutoCAD Mechanical|Company: Autodesk, Inc."
 90
     1024
 91
        0
280
     0
281
     0
  0
CLASS
  1
ACMDATUMSTANDARDJIS
  2
AcmDatumStdJIS
  3
"Amdt_StdImp|Product Description: AutoCAD Mechanical|Company: Autodesk, Inc."
 90
     1024
 91
        0
280
     0
281
     0
  0
CLASS
  1
ACMBOMSTANDARDJIS
  2
AcmBOMStdJIS
  3
"Amdt_StdImp|Product Description: AutoCAD Mechanical|Company: Autodesk, Inc."
 90
     1024
 91
        0
280
     0
281
     0
  0
CLASS
  1
ACMDETAILSTANDARDJIS
  2
AmdtDetailSymStdJIS
  3
"Amdt_StdImp|Product Description: AutoCAD Mechanical|Company: Autodesk, Inc."
 90
     1024
 91
        0
280
     0
281
     0
  0
CLASS
  1
ACMSECTIONSTANDARDJIS
  2
AmdtSectionSymStdJIS
  3
"Amdt_StdImp|Product Description: AutoCAD Mechanical|Company: Autodesk, Inc."
 90
     1024
 91
        0
280
     0
281
     0
  0
CLASS
  1
ACMCENTERLINESTANDARDJIS
  2
AmdtCenterLineStdJIS
  3
"Amdt_StdImp|Product Description: AutoCAD Mechanical|Company: Autodesk, Inc."
 90
     1024
 91
        0
280
     0
281
     0
  0
CLASS
  1
ACMTHREADLINESTANDARDJIS
  2
AmdtThreadLineStdJIS
  3
"Amdt_StdImp|Product Description: AutoCAD Mechanical|Company: Autodesk, Inc."
 90
     1024
 91
        0
280
     0
281
     0
  0
CLASS
  1
ACAMGLAYSTD
  2
AcAmgLayStd
  3
"AmgLay|Product Description: AutoCAD Mechanical|Company: Autodesk, Inc."
 90
     1024
 91
        1
280
     0
281
     0
  0
CLASS
  1
ACAMGDIMSTD
  2
AcAmgDimStd
  3
"AmgDim|Product Description: AutoCAD Mechanical|Company: Autodesk, Inc."
 90
     1024
 91
        1
280
     0
281
     0
  0
CLASS
  1
ACAMGTITLESTD
  2
AcAmgTitleStd
  3
"AmgTitle|Product Description: AutoCAD Mechanical|Company: Autodesk, Inc."
 90
     4095
 91
        1
280
     0
281
     0
  0
CLASS
  1
ACMDATADICTIONARY
  2
AcmDataDictionary
  3
"AcmSymBB|Product Description: AutoCAD Mechanical|Company: Autodesk, Inc."
 90
     1024
 91
        1
280
     0
281
     0
  0
CLASS
  1
ACMDATAENTRYBLOCK
  2
AcmDataEntryBlock
  3
AcmSymBB|Product Description: AutoCAD Mechanical|Company: Autodesk, Inc.
 90
     1024
 91
        0
280
     0
281
     0
  0
CLASS
  1
LAYER_INDEX
  2
AcDbLayerIndex
  3
ObjectDBX Classes
 90
        0
 91
        0
280
     0
281
     0
  0
CLASS
  1
IDBUFFER
  2
AcDbIdBuffer
  3
ObjectDBX Classes
 90
        0
 91
        0
280
     0
281
     0
  0
CLASS
  1
ACMNOTESTANDARDJIS
  2
AmdtNoteStdJIS
  3
"Amdt_StdImp|Product Description: AutoCAD Mechanical|Company: Autodesk, Inc."
 90
     1024
 91
        0
280
     0
281
     0
  0
CLASS
  1
ACAMGHOLECHARTSTDJIS
  2
AcAmgHoleChartStdJIS
  3
AmgDim|Product Description: AutoCAD Mechanical|Company: Autodesk, Inc.
 90
     1024
 91
        0
280
     0
281
     0
  0
CLASS
  1
AM_DRAWING_MGR
  2
AcDmDwgMgr
  3
AcMechDwgViewMgmt
 90
     1024
 91
        1
280
     0
281
     0
  0
CLASS
  1
AM_DWG_DOCUMENT
  2
AcDmDwgDocument
  3
AcMechDwgViewMgmt
 90
     1024
 91
        1
280
     0
281
     0
  0
CLASS
  1
AM_DWG_SHEET
  2
AcDmSheet
  3
AcMechDwgViewMgmt
 90
     1024
 91
        2
280
     0
281
     0
  0
CLASS
  1
AM_VIEWDIMPARMAP
  2
AcDmViewDimParMap
  3
AcMechDwgViewMgmt
 90
     1024
 91
        2
280
     0
281
     0
  0
CLASS
  1
AM_DWGMGR_NAME
  2
AcDmDwgMgrName
  3
AcMechDwgViewMgmt
 90
     1024
 91
        1
280
     0
281
     0
  0
CLASS
  1
AMDTMENUSTATEMGR
  2
AmdtMenuStateMgr
  3
McadcomServices
 90
     1024
 91
        1
280
     0
281
     0
  0
CLASS
  1
AMDTMCOMMENUSTATE
  2
AmdtMcomMenuState
  3
McadcomServices
 90
     1024
 91
        1
280
     0
281
     0
  0
CLASS
  1
MAPIAMMOUDLE
  2
MApiAmModule
  3
MApiAmServices
 90
     1024
 91
        1
280
     0
281
     0
  0
CLASS
  1
AMDTADMENUSTATE
  2
AmdtAdMenuState
  3
DesignerServices
 90
     1024
 91
        1
280
     0
281
     0
  0
CLASS
  1
ADAPPL
  2
AcAdAppl
  3
DesignerServices
 90
     1024
 91
        1
280
     0
281
     0
  0
CLASS
  1
DEPMGR
  2
AcAdDepMgr
  3
DesignerServices
 90
     1024
 91
        1
280
     0
281
     0
  0
CLASS
  1
PARAMMGR
  2
AcAdParamMgr
  3
DesignerServices
 90
     1024
 91
        1
280
     0
281
     0
  0
CLASS
  1
PARAMSCOPE
  2
AcAdParamScope
  3
DesignerServices
 90
     1024
 91
        1
280
     0
281
     0
  0
CLASS
  1
NAMEDAPPL
  2
AcAdNamedAppl
  3
DesignerServices
 90
     1024
 91
        1
280
     0
281
     0
  0
CLASS
  1
AMDTDMMENUSTATE
  2
AmdtDmMenuState
  3
AcMechDwgViewMgmt
 90
     1024
 91
        1
280
     0
281
     0
  0
CLASS
  1
AMDTAMMENUSTATE
  2
AmdtAmMenuState
  3
DesignerAssemblies
 90
     1024
 91
        1
280
     0
281
     0
  0
CLASS
  1
ACAMPROJECT
  2
AcAmProject
  3
DesignerAssemblies
 90
     1024
 91
        1
280
     0
281
     0
  0
CLASS
  1
ACAMGRCOMPDEF
  2
AcAmGrCompDef
  3
DesignerAssemblies
 90
     1024
 91
        1
280
     0
281
     0
  0
CLASS
  1
ACCMCONTEXT
  2
AcCmContext
  3
DesignerAssemblies
 90
     1024
 91
        1
280
     0
281
     0
  0
CLASS
  1
ACAMCOMPDEF
  2
AcAmCompDef
  3
DesignerAssemblies
 90
     1024
 91
        1
280
     0
281
     0
  0
CLASS
  1
ACAMCOMPDEFMGR
  2
AcAmCompDefMgr
  3
DesignerAssemblies
 90
     1024
 91
        1
280
     0
281
     0
  0
CLASS
  1
AMCONTEXTMGR
  2
AcAmContextMgr
  3
DesignerAssemblies
 90
     1024
 91
        1
280
     0
281
     0
  0
CLASS
  1
ACAMCONTEXTMODELER
  2
AcAmContextModeler
  3
DesignerAssemblies
 90
     1024
 91
        1
280
     0
281
     0
  0
CLASS
  1
CATALOGSTATE
  2
AcAmCatalogState
  3
DesignerAssemblies
 90
     1024
 91
        1
280
     0
281
     0
  0
CLASS
  1
ACAMGRCOMPDEFSET
  2
AcAmGrCompDefSet
  3
DesignerAssemblies
 90
     1024
 91
        1
280
     0
281
     0
  0
CLASS
  1
AMDTBROWSERDBTAB
  2
AmdtBrowserDbTab
  3
McadcomServices
 90
     1024
 91
        1
280
     0
281
     0
  0
CLASS
  1
CBROWSERAPPOBJECT
  2
CBrowserAppObject
  3
McadcomServices
 90
     1024
 91
        3
280
     0
281
     0
  0
CLASS
  1
DM_PLACEHOLDER
  2
AcDmSelsetPlaceholder
  3
AcMechDwgViewMgmt
 90
     1024
 91
        1
280
     0
281
     0
  0
CLASS
  1
TABLESTYLE
  2
AcDbTableStyle
  3
ObjectDBX Classes
 90
     4095
 91
        1
280
     0
281
     0
  0
CLASS
  1
VAACXREFPANELOBJECT
  2
VaAcXREFPanelObject
  3
VAAC_ADDIN
 90
        0
 91
        0
280
     0
281
     0
  0
CLASS
  1
VAACIMAGEINVENTORY
  2
VaAcImageInventory
  3
VAAC_ADDIN
 90
        0
 91
        0
280
     0
281
     0
  0
CLASS
  1
AMDTNOTETEMPLATEDB
  2
AmdtNoteTemplateDB
  3
AcmSymBB|Product Description: AutoCAD Mechanical|Company: Autodesk, Inc.
 90
     1024
 91
        6
280
     0
281
     0
  0
CLASS
  1
ACAMGFILTERDAT
  2
AcAmgFilterDat
  3
"AcadM|Product Description: AutoCAD Mechanical|Company: Autodesk, Inc."
 90
     1024
 91
        0
280
     0
281
     0
  0
CLASS
  1
MATERIAL
  2
AcDbMaterial
  3
ObjectDBX Classes
 90
     1153
 91
        3
280
     0
281
     0
  0
CLASS
  1
VISUALSTYLE
  2
AcDbVisualStyle
  3
ObjectDBX Classes
 90
     4095
 91
       16
280
     0
281
     0
  0
CLASS
  1
ACRFATTGENMGR
  2
AcRfAttGeneralMgr
  3
AcAttribServices
 90
     1024
 91
        0
280
     0
281
     0
  0
CLASS
  1
ACRFOBJATTMGR
  2
AcRfObjAttGroupMgr
  3
AcAttribServices
 90
     1024
 91
        0
280
     0
281
     0
  0
CLASS
  1
ACRFMCADAPIATTHOLDER
  2
AcRfMCADAPIAttHolder
  3
AcAttribServices
 90
     1024
 91
        0
280
     0
281
     0
  0
CLASS
  1
AMDTSYSATTR
  2
AmdtSystemAttribute
  3
AcAttribServices
 90
     1024
 91
        0
280
     0
281
     0
  0
CLASS
  1
ACMTAPERSTANDARDJIS
  2
AcmTaperStdJIS
  3
"Amdt_StdImp|Product Description: AutoCAD Mechanical|Company: Autodesk, Inc."
 90
     1024
 91
        0
280
     0
281
     0
  0
CLASS
  1
CAMSSTRUCTBTNSTATE
  2
StructBtnState
  3
DesignerAssemblies
 90
     1024
 91
        0
280
     0
281
     0
  0
CLASS
  1
SCALE
  2
AcDbScale
  3
ObjectDBX Classes
 90
     1153
 91
       35
280
     0
281
     0
  0
CLASS
  1
MLEADERSTYLE
  2
AcDbMLeaderStyle
  3
ACDB_MLEADERSTYLE_CLASS
 90
     4095
 91
        1
280
     0
281
     0
  0
CLASS
  1
ACMANOOTATIONVIEWSTANDARDJIS
  2
AmdtAnViewStdJIS
  3
"Amdt_StdImp|Product Description: AutoCAD Mechanical|Company: Autodesk, Inc."
 90
     1024
 91
        0
280
     0
281
     0
  0
CLASS
  1
ACMSURFSTANDARDJIS2003
  2
AcmSurfTextStdJIS2003
  3
"Amdt_StdImp|Product Description: AutoCAD Mechanical|Company: Autodesk, Inc."
 90
     1024
 91
        0
280
     0
281
     0
  0
CLASS
  1
CELLSTYLEMAP
  2
AcDbCellStyleMap
  3
ObjectDBX Classes
 90
     1152
 91
        2
280
     0
281
     0
  0
CLASS
  1
ACMFCFSTANDARDJIS98
  2
AcmFCFStdJIS98
  3
"Amdt_StdImp|Product Description: AutoCAD Mechanical|Company: Autodesk, Inc."
 90
     1024
 91
        0
280
     0
281
     0
  0
CLASS
  1
SORTENTSTABLE
  2
AcDbSortentsTable
  3
ObjectDBX Classes
 90
        0
 91
        9
280
     0
281
     0
  0
CLASS
  1
DIMASSOC
  2
AcDbDimAssoc
  3
"AcDbDimAssoc|Product Desc:     AcDim ARX App For Dimension|Company:          Autodesk, Inc.|WEB Address:      www.autodesk.com"
 90
        0
 91
       16
280
     0
281
     0
  0
CLASS
  1
STDPART2D
  2
AmgStdPart
  3
AmgStdPart|Product Description: AutoCAD Mechanical|Company: Autodesk, Inc.
 90
     4095
 91
        0
280
     0
281
     1
  0
CLASS
  1
ACMDATAENTRYPART
  2
AcmDataEntryPart
  3
AcmSymBB|Product Description: AutoCAD Mechanical|Company: Autodesk, Inc.
 90
     1024
 91
        0
280
     0
281
     0
  0
CLASS
  1
ACMPARTREF
  2
AcmPartRef
  3
"AcmSymBB|Product Description: AutoCAD Mechanical|Company: Autodesk, Inc."
 90
     4095
 91
        0
280
     0
281
     1
  0
CLASS
  1
ACDBSTDPARTRES_LINE
  2
AcDbStdPartRes_Line
  3
AmgStdPart|Product Description: AutoCAD Mechanical|Company: Autodesk, Inc.
 90
     1024
 91
        0
280
     0
281
     0
  0
CLASS
  1
ACMBOM
  2
AcmBom
  3
"AcmSymBB|Product Description: AutoCAD Mechanical|Company: Autodesk, Inc."
 90
     1024
 91
        0
280
     0
281
     0
  0
CLASS
  1
AMDTFORMULAUPDATEDISPATCHER
  2
AmdtFormulaUpdateDispatcher
  3
AcMeServices
 90
     1024
 91
        0
280
     0
281
     0
  0
CLASS
  1
ACMBOMROW
  2
AcmBomRow
  3
"AcmSymBB|Product Description: AutoCAD Mechanical|Company: Autodesk, Inc."
 90
     1024
 91
        0
280
     0
281
     0
  0
CLASS
  1
ACMPARTLIST
  2
AcmPartList
  3
"AcmSymBB|Product Description: AutoCAD Mechanical|Company: Autodesk, Inc."
 90
     4095
 91
        0
280
     0
281
     1
  0
CLASS
  1
ACDBLINERES
  2
AcDbLineRes
  3
AcGrefServices
 90
     1024
 91
        0
280
     0
281
     0
  0
CLASS
  1
ACRFINSADJ
  2
AcRfInsAdjuster
  3
AcMeServices
 90
     1024
 91
        0
280
     0
281
     0
  0
CLASS
  1
ACMSTANDARDISO
  2
AcmStandardISO
  3
"Amdt_StdImp|Product Description: AutoCAD Mechanical|Company: Autodesk, Inc."
 90
     1024
 91
        1
280
     0
281
     0
  0
CLASS
  1
AMDTEDGESTANDARDISO13715
  2
AmdtEdgeStdISO13715
  3
"Amdt_StdImp|Product Description: AutoCAD Mechanical|Company: Autodesk, Inc."
 90
     1024
 91
        1
280
     0
281
     0
  0
CLASS
  1
ACMSURFSTANDARDISO2002
  2
AcmSurfTextStdISO2002
  3
"Amdt_StdImp|Product Description: AutoCAD Mechanical|Company: Autodesk, Inc."
 90
     1024
 91
        1
280
     0
281
     0
  0
CLASS
  1
ACMFCFSTANDARDISO
  2
AcmFCFStdISO
  3
"Amdt_StdImp|Product Description: AutoCAD Mechanical|Company: Autodesk, Inc."
 90
     1024
 91
        1
280
     0
281
     0
  0
CLASS
  1
ACMWELDSTANDARDISO
  2
AcmWeldingStdISO
  3
"Amdt_StdImp|Product Description: AutoCAD Mechanical|Company: Autodesk, Inc."
 90
     1024
 91
        1
280
     0
281
     0
  0
CLASS
  1
ACMIDSTANDARDISO
  2
AcmIdStdISO
  3
"Amdt_StdImp|Product Description: AutoCAD Mechanical|Company: Autodesk, Inc."
 90
     1024
 91
        1
280
     0
281
     0
  0
CLASS
  1
ACMDATUMSTANDARDISO
  2
AcmDatumStdISO
  3
"Amdt_StdImp|Product Description: AutoCAD Mechanical|Company: Autodesk, Inc."
 90
     1024
 91
        1
280
     0
281
     0
  0
CLASS
  1
ACMBOMSTANDARDISO
  2
AcmBOMStdISO
  3
"Amdt_StdImp|Product Description: AutoCAD Mechanical|Company: Autodesk, Inc."
 90
     1024
 91
        1
280
     0
281
     0
  0
CLASS
  1
ACMDETAILSTANDARDISO
  2
AmdtDetailSymStdISO
  3
"Amdt_StdImp|Product Description: AutoCAD Mechanical|Company: Autodesk, Inc."
 90
     1024
 91
        1
280
     0
281
     0
  0
CLASS
  1
ACMSECTIONSTANDARDISO2001
  2
AmdtSectionSymStdISO2001
  3
"Amdt_StdImp|Product Description: AutoCAD Mechanical|Company: Autodesk, Inc."
 90
     1024
 91
        1
280
     0
281
     0
  0
CLASS
  1
ACMCENTERLINESTANDARDISO
  2
AmdtCenterLineStdISO
  3
"Amdt_StdImp|Product Description: AutoCAD Mechanical|Company: Autodesk, Inc."
 90
     1024
 91
        1
280
     0
281
     0
  0
CLASS
  1
ACMTHREADLINESTANDARDISO
  2
AmdtThreadLineStdISO
  3
"Amdt_StdImp|Product Description: AutoCAD Mechanical|Company: Autodesk, Inc."
 90
     1024
 91
        1
280
     0
281
     0
  0
CLASS
  1
ACMNOTESTANDARDISO
  2
AmdtNoteStdISO
  3
"Amdt_StdImp|Product Description: AutoCAD Mechanical|Company: Autodesk, Inc."
 90
     1024
 91
        1
280
     0
281
     0
  0
CLASS
  1
ACMTAPERSTANDARDISO
  2
AcmTaperStdISO
  3
"Amdt_StdImp|Product Description: AutoCAD Mechanical|Company: Autodesk, Inc."
 90
     1024
 91
        1
280
     0
281
     0
  0
CLASS
  1
ACMANOOTATIONVIEWSTANDARDISO
  2
AmdtAnViewStdISO
  3
"Amdt_StdImp|Product Description: AutoCAD Mechanical|Company: Autodesk, Inc."
 90
     1024
 91
        1
280
     0
281
     0
  0
CLASS
  1
ACAMGHOLECHARTSTDISO
  2
AcAmgHoleChartStdISO
  3
AmgDim|Product Description: AutoCAD Mechanical|Company: Autodesk, Inc.
 90
     1024
 91
        1
280
     0
281
     0
  0
CLASS
  1
EXACXREFPANELOBJECT
  2
ExAcXREFPanelObject
  3
EXAC_ESW
 90
     1025
 91
        0
280
     0
281
     0
  0
CLASS
  1
NPOCOLLECTION
  2
AcDbImpNonPersistentObjectsCollection
  3
ObjectDBX Classes
 90
     1153
 91
        0
280
     0
281
     0
  0
CLASS
  1
ACDBSTDPARTRES_ARC
  2
AcDbStdPartRes_Arc
  3
AmgStdPart|Product Description: AutoCAD Mechanical|Company: Autodesk, Inc.
 90
     1024
 91
        0
280
     0
281
     0
  0
CLASS
  1
AMDTNOTE
  2
AmdtNote
  3
"AcmSymBB|Product Description: AutoCAD Mechanical|Company: Autodesk, Inc."
 90
     4095
 91
        0
280
     0
281
     1
  0
CLASS
  1
PLOTSETTINGS
  2
AcDbPlotSettings
  3
ObjectDBX Classes
 90
        0
 91
        1
280
     0
281
     0
  0
CLASS
  1
ACMSTANDARDANSI
  2
AcmStandardANSI
  3
"Amdt_StdImp|Product Description: AutoCAD Mechanical|Company: Autodesk, Inc."
 90
     1024
 91
        0
280
     0
281
     0
  0
CLASS
  1
ACMSURFSTANDARDANSI
  2
AcmSurfTextStdANSI
  3
"Amdt_StdImp|Product Description: AutoCAD Mechanical|Company: Autodesk, Inc."
 90
     1024
 91
        0
280
     0
281
     0
  0
CLASS
  1
ACMFCFSTANDARDANSI
  2
AcmFCFStdANSI
  3
"Amdt_StdImp|Product Description: AutoCAD Mechanical|Company: Autodesk, Inc."
 90
     1024
 91
        0
280
     0
281
     0
  0
CLASS
  1
ACMWELDSTANDARDANSI
  2
AcmWeldingStdANSI
  3
"Amdt_StdImp|Product Description: AutoCAD Mechanical|Company: Autodesk, Inc."
 90
     1024
 91
        0
280
     0
281
     0
  0
CLASS
  1
ACMIDSTANDARDANSI
  2
AcmIdStdANSI
  3
"Amdt_StdImp|Product Description: AutoCAD Mechanical|Company: Autodesk, Inc."
 90
     1024
 91
        0
280
     0
281
     0
  0
CLASS
  1
ACMDATUMSTANDARDANSI
  2
AcmDatumStdANSI
  3
"Amdt_StdImp|Product Description: AutoCAD Mechanical|Company: Autodesk, Inc."
 90
     1024
 91
        0
280
     0
281
     0
  0
CLASS
  1
ACMBOMSTANDARDANSI
  2
AcmBOMStdANSI
  3
"Amdt_StdImp|Product Description: AutoCAD Mechanical|Company: Autodesk, Inc."
 90
     1024
 91
        0
280
     0
281
     0
  0
CLASS
  1
ACMDETAILSTANDARDANSI
  2
AmdtDetailSymStdANSI
  3
"Amdt_StdImp|Product Description: AutoCAD Mechanical|Company: Autodesk, Inc."
 90
     1024
 91
        0
280
     0
281
     0
  0
CLASS
  1
ACMSECTIONSTANDARDANSI
  2
AmdtSectionSymStdANSI
  3
"Amdt_StdImp|Product Description: AutoCAD Mechanical|Company: Autodesk, Inc."
 90
     1024
 91
        0
280
     0
281
     0
  0
CLASS
  1
ACMCENTERLINESTANDARDANSI
  2
AmdtCenterLineStdANSI
  3
"Amdt_StdImp|Product Description: AutoCAD Mechanical|Company: Autodesk, Inc."
 90
     1024
 91
        0
280
     0
281
     0
  0
CLASS
  1
ACMTHREADLINESTANDARDANSI
  2
AmdtThreadLineStdANSI
  3
"Amdt_StdImp|Product Description: AutoCAD Mechanical|Company: Autodesk, Inc."
 90
     1024
 91
        0
280
     0
281
     0
  0
CLASS
  1
ACMNOTESTANDARDANSI
  2
AmdtNoteStdANSI
  3
"Amdt_StdImp|Product Description: AutoCAD Mechanical|Company: Autodesk, Inc."
 90
     1024
 91
        0
280
     0
281
     0
  0
CLASS
  1
ACMTAPERSTANDARDANSI
  2
AcmTaperStdANSI
  3
"Amdt_StdImp|Product Description: AutoCAD Mechanical|Company: Autodesk, Inc."
 90
     1024
 91
        0
280
     0
281
     0
  0
CLASS
  1
ACMANOOTATIONVIEWSTANDARDANSI
  2
AmdtAnViewStdANSI
  3
"Amdt_StdImp|Product Description: AutoCAD Mechanical|Company: Autodesk, Inc."
 90
     1024
 91
        0
280
     0
281
     0
  0
CLASS
  1
ACAMGHOLECHARTSTDANSI
  2
AcAmgHoleChartStdANSI
  3
AmgDim|Product Description: AutoCAD Mechanical|Company: Autodesk, Inc.
 90
     1024
 91
        0
280
     0
281
     0
  0
CLASS
  1
ACMSTANDARDBSI
  2
AcmStandardBSI
  3
"Amdt_StdImp|Product Description: AutoCAD Mechanical|Company: Autodesk, Inc."
 90
     1024
 91
        0
280
     0
281
     0
  0
CLASS
  1
ACMSURFSTANDARDBSI2002
  2
AcmSurfTextStdBSI2002
  3
"Amdt_StdImp|Product Description: AutoCAD Mechanical|Company: Autodesk, Inc."
 90
     1024
 91
        0
280
     0
281
     0
  0
CLASS
  1
ACMFCFSTANDARDBSI
  2
AcmFCFStdBSI
  3
"Amdt_StdImp|Product Description: AutoCAD Mechanical|Company: Autodesk, Inc."
 90
     1024
 91
        0
280
     0
281
     0
  0
CLASS
  1
ACMWELDSTANDARDBSI
  2
AcmWeldingStdBSI
  3
"Amdt_StdImp|Product Description: AutoCAD Mechanical|Company: Autodesk, Inc."
 90
     1024
 91
        0
280
     0
281
     0
  0
CLASS
  1
ACMIDSTANDARDBSI
  2
AcmIdStdBSI
  3
"Amdt_StdImp|Product Description: AutoCAD Mechanical|Company: Autodesk, Inc."
 90
     1024
 91
        0
280
     0
281
     0
  0
CLASS
  1
ACMDATUMSTANDARDBSI
  2
AcmDatumStdBSI
  3
"Amdt_StdImp|Product Description: AutoCAD Mechanical|Company: Autodesk, Inc."
 90
     1024
 91
        0
280
     0
281
     0
  0
CLASS
  1
ACMBOMSTANDARDBSI
  2
AcmBOMStdBSI
  3
"Amdt_StdImp|Product Description: AutoCAD Mechanical|Company: Autodesk, Inc."
 90
     1024
 91
        0
280
     0
281
     0
  0
CLASS
  1
ACMDETAILSTANDARDBSI
  2
AmdtDetailSymStdBSI
  3
"Amdt_StdImp|Product Description: AutoCAD Mechanical|Company: Autodesk, Inc."
 90
     1024
 91
        0
280
     0
281
     0
  0
CLASS
  1
ACMSECTIONSTANDARDBSI2001
  2
AmdtSectionSymStdBSI2001
  3
"Amdt_StdImp|Product Description: AutoCAD Mechanical|Company: Autodesk, Inc."
 90
     1024
 91
        0
280
     0
281
     0
  0
CLASS
  1
ACMCENTERLINESTANDARDBSI
  2
AmdtCenterLineStdBSI
  3
"Amdt_StdImp|Product Description: AutoCAD Mechanical|Company: Autodesk, Inc."
 90
     1024
 91
        0
280
     0
281
     0
  0
CLASS
  1
ACMTHREADLINESTANDARDBSI
  2
AmdtThreadLineStdBSI
  3
"Amdt_StdImp|Product Description: AutoCAD Mechanical|Company: Autodesk, Inc."
 90
     1024
 91
        0
280
     0
281
     0
  0
CLASS
  1
ACMNOTESTANDARDBSI
  2
AmdtNoteStdBSI
  3
"Amdt_StdImp|Product Description: AutoCAD Mechanical|Company: Autodesk, Inc."
 90
     1024
 91
        0
280
     0
281
     0
  0
CLASS
  1
ACMTAPERSTANDARDBSI
  2
AcmTaperStdBSI
  3
"Amdt_StdImp|Product Description: AutoCAD Mechanical|Company: Autodesk, Inc."
 90
     1024
 91
        0
280
     0
281
     0
  0
CLASS
  1
ACMANOOTATIONVIEWSTANDARDBSI
  2
AmdtAnViewStdBSI
  3
"Amdt_StdImp|Product Description: AutoCAD Mechanical|Company: Autodesk, Inc."
 90
     1024
 91
        0
280
     0
281
     0
  0
CLASS
  1
ACAMGHOLECHARTSTDBSI
  2
AcAmgHoleChartStdBSI
  3
AmgDim|Product Description: AutoCAD Mechanical|Company: Autodesk, Inc.
 90
     1024
 91
        0
280
     0
281
     0
  0
CLASS
  1
AMDTEDGESTANDARDJIS
  2
AmdtEdgeStdJIS
  3
"Amdt_StdImp|Product Description: AutoCAD Mechanical|Company: Autodesk, Inc."
 90
     1024
 91
        0
280
     0
281
     0
  0
CLASS
  1
ACMSURFSYM
  2
AcmSurfaceTexture
  3
"AcmSymBB|Product Description: AutoCAD Mechanical|Company: Autodesk, Inc."
 90
     4095
 91
        0
280
     0
281
     1
  0
CLASS
  1
ACDBDIMENSIONRES
  2
AcDbDimensionRes
  3
AcmSymBB|Product Description: AutoCAD Mechanical|Company: Autodesk, Inc.
 90
     1024
 91
        0
280
     0
281
     0
  0
CLASS
  1
ACDBCIRCARCRES
  2
AcDbCircArcRes
  3
AcGrefServices
 90
     1024
 91
        0
280
     0
281
     0
  0
CLASS
  1
ACMDIMBREAKPERSREACTOR
  2
AcmDimBreakPersReactor
  3
AmgDim|Product Description: AutoCAD Mechanical|Company: Autodesk, Inc.
 90
     4095
 91
        0
280
     0
281
     0
  0
CLASS
  1
AMDTACMWBLOCKBOMENTITY
  2
AmdtAcmWblockBomEntity
  3
"AcmSymBB|Product Description: AutoCAD Mechanical|Company: Autodesk, Inc."
 90
     4095
 91
        0
280
     0
281
     1
  0
CLASS
  1
ACDBOPPOLYLINERES
  2
AcDbOpPolylineRes
  3
AcGrefServices
 90
     1024
 91
        0
280
     0
281
     0
  0
CLASS
  1
ACDB_BLKREFOBJECTCONTEXTDATA_CLASS
  2
AcDbBlkRefObjectContextData
  3
ObjectDBX Classes
 90
     1153
 91
        0
280
     0
281
     0
  0
CLASS
  1
ACMPICKOBJ
  2
AcmPickEnt
  3
"AcmSymBB|Product Description: AutoCAD Mechanical|Company: Autodesk, Inc."
 90
     1024
 91
        0
280
     0
281
     1
  0
CLASS
  1
ACMBALLOON
  2
AcmBalloon
  3
"AcmSymBB|Product Description: AutoCAD Mechanical|Company: Autodesk, Inc."
 90
     4095
 91
        0
280
     0
281
     1
  0
ENDSEC
  0
SECTION
  2
TABLES
  0
TABLE
  2
VPORT
  5
8
330
0
100
AcDbSymbolTable
 70
     1
  0
VPORT
  5
27A
330
8
100
AcDbSymbolTableRecord
100
AcDbViewportTableRecord
  2
*Active
 70
     0
 10
0.0
 20
0.0
 11
1.0
 21
1.0
 12
634.3577601767495
 22
494.7715215032959
 13
0.0
 23
0.0
 14
6.25
 24
6.25
 15
25.0
 25
25.0
 16
0.0
 26
0.0
 36
1.0
 17
0.0
 27
0.0
 37
0.0
 40
366.5391861155978
 41
1.442675159235669
 42
50.0
 43
0.0
 44
0.0
 50
0.0
 51
0.0
 71
    16
 72
 20000
 73
     1
 74
     3
 75
     0
 76
     0
 77
     0
 78
     0
281
     0
 65
     0
110
0.0
120
0.0
130
0.0
111
1.0
121
0.0
131
0.0
112
0.0
122
1.0
132
0.0
 79
     0
146
0.0
348
285
 60
     3
 61
     5
292
     1
282
     0
141
0.0
142
0.0
 63
   250
421
  3355443
  0
ENDTAB
  0
TABLE
  2
LTYPE
  5
5
330
0
100
AcDbSymbolTable
 70
    22
  0
LTYPE
  5
14
330
5
100
AcDbSymbolTableRecord
100
AcDbLinetypeTableRecord
  2
ByBlock
 70
     0
  3

 72
    65
 73
     0
 40
0.0
  0
LTYPE
  5
15
330
5
100
AcDbSymbolTableRecord
100
AcDbLinetypeTableRecord
  2
ByLayer
 70
     0
  3

 72
    65
 73
     0
 40
0.0
  0
LTYPE
  5
16
330
5
100
AcDbSymbolTableRecord
100
AcDbLinetypeTableRecord
  2
Continuous
 70
     0
  3
Solid line
 72
    65
 73
     0
 40
0.0
  0
LTYPE
  5
4D
330
5
100
AcDbSymbolTableRecord
100
AcDbLinetypeTableRecord
  2
AM_ISO02W050
 70
     0
  3
__ __ __ __ __ __ __ __ __ __ __ __ __ __ __
 72
    65
 73
     2
 40
7.5
 49
6.0
 74
     0
 49
-1.5
 74
     0
  0
LTYPE
  5
4E
330
5
100
AcDbSymbolTableRecord
100
AcDbLinetypeTableRecord
  2
AM_ISO08W050
 70
     0
  3
____ . ____ . ____ . ____ . ____ . ____ . ____
 72
    65
 73
     4
 40
18.0
 49
12.0
 74
     0
 49
-1.5
 74
     0
 49
3.0
 74
     0
 49
-1.5
 74
     0
  0
LTYPE
  5
4F
330
5
100
AcDbSymbolTableRecord
100
AcDbLinetypeTableRecord
  2
AM_ISO09W050
 70
     0
  3
_____ . . _____ . . _____ . . ____ .. ____
 72
    65
 73
     6
 40
22.5
 49
12.0
 74
     0
 49
-1.5
 74
     0
 49
3.0
 74
     0
 49
-1.5
 74
     0
 49
3.0
 74
     0
 49
-1.5
 74
     0
  0
LTYPE
  5
50
330
5
100
AcDbSymbolTableRecord
100
AcDbLinetypeTableRecord
  2
Amconstr
 70
     0
  3
_______________________
 72
    65
 73
     2
 40
9999.0
 49
9999.0
 74
     0
 49
0.0
 74
     0
  0
LTYPE
  5
51
330
5
100
AcDbSymbolTableRecord
100
AcDbLinetypeTableRecord
  2
AM_ISO08W050x2
 70
     0
  3
__ . __ . __ . __ . __ . __
 72
    65
 73
     4
 40
9.0
 49
6.0
 74
     0
 49
-0.75
 74
     0
 49
1.5
 74
     0
 49
-0.75
 74
     0
  0
LTYPE
  5
52
330
5
100
AcDbSymbolTableRecord
100
AcDbLinetypeTableRecord
  2
AM_ISO02W050x2
 70
     0
  3
 _ _ _ _ _ _ _ _ _ _ _ _
 72
    65
 73
     2
 40
3.75
 49
3.0
 74
     0
 49
-0.75
 74
     0
  0
LTYPE
  5
55
330
5
100
AcDbSymbolTableRecord
100
AcDbLinetypeTableRecord
  2
Amzigzag
 70
     0
  3
/\/-/\/-/\/-/\/-/\/-/\/
 72
    65
 73
     2
 40
11.0001
 49
0.0001
 74
     4
 75
   136
340
23D
 46
0.04
 50
0.0
 44
0.0
 45
0.0
 49
-11.0
 74
     0
  0
LTYPE
  5
65
330
5
100
AcDbSymbolTableRecord
100
AcDbLinetypeTableRecord
  2
CENTER
 70
     0
  3
__ . __
 72
    65
 73
     4
 40
7.0
 49
4.0
 74
     0
 49
-1.0
 74
     0
 49
1.0
 74
     0
 49
-1.0
 74
     0
  0
LTYPE
  5
E0
330
5
100
AcDbSymbolTableRecord
100
AcDbLinetypeTableRecord
  2
HIDDEN
 70
     0
  3
Hidden __ __ __ __ __ __ __ __ __ __ __ __ __ _
 72
    65
 73
     2
 40
9.524999999999996
 49
6.349999999999998
 74
     0
 49
-3.174999999999998
 74
     0
  0
LTYPE
  5
E1
330
5
100
AcDbSymbolTableRecord
100
AcDbLinetypeTableRecord
  2
PHANTOM2
 70
     0
  3
Phantom (.5x) ___ _ _ ___ _ _ ___ _ _ ___ _ _
 72
    65
 73
     6
 40
31.75
 49
15.875
 74
     0
 49
-3.174999999999998
 74
     0
 49
3.174999999999998
 74
     0
 49
-3.174999999999998
 74
     0
 49
3.174999999999998
 74
     0
 49
-3.174999999999998
 74
     0
  0
LTYPE
  5
5A2
330
5
100
AcDbSymbolTableRecord
100
AcDbLinetypeTableRecord
  2
ACJISWELD
 70
     0
  3
_ _ _ _ _
 72
    65
 73
     2
 40
2.0
 49
2.0
 74
     0
 49
-1.0
 74
     0
  0
LTYPE
  5
7A52
330
5
100
AcDbSymbolTableRecord
100
AcDbLinetypeTableRecord
  2
ACISOWELD
 70
     0
  3
_ _ _ _ _
 72
    65
 73
     2
 40
2.0
 49
2.0
 74
     0
 49
-1.0
 74
     0
  0
LTYPE
  5
7A53
330
5
100
AcDbSymbolTableRecord
100
AcDbLinetypeTableRecord
  2
ACISOTGB
 70
     0
  3
__ . . __ . .
 72
    65
 73
     6
 40
9.0
 49
4.0
 74
     0
 49
-1.0
 74
     0
 49
1.0
 74
     0
 49
-1.0
 74
     0
 49
1.0
 74
     0
 49
-1.0
 74
     0
  0
LTYPE
  5
7A54
330
5
100
AcDbSymbolTableRecord
100
AcDbLinetypeTableRecord
  2
ACISOTGL
 70
     0
  3
_ _ _ _ _
 72
    65
 73
     2
 40
3.0
 49
2.0
 74
     0
 49
-1.0
 74
     0
  0
ENDTAB
  0
TABLE
  2
LAYER
  5
2
102
{ACAD_XDICTIONARY
360
BF
102
}
330
0
100
AcDbSymbolTable
 70
    10
  0
LAYER
  5
10
102
{ACAD_XDICTIONARY
360
29F7
102
}
330
2
100
AcDbSymbolTableRecord
100
AcDbLayerTableRecord
  2
0
 70
     0
 62
     7
  6
Continuous
370
    -3
390
F
347
27E
  0
LAYER
  5
81
102
{ACAD_XDICTIONARY
360
29F9
102
}
330
2
100
AcDbSymbolTableRecord
100
AcDbLayerTableRecord
  2
AM_0 外形線1
 70
     0
 62
     7
  6
Continuous
370
    25
390
F
347
27E
  0
LAYER
  5
427
330
2
100
AcDbSymbolTableRecord
100
AcDbLayerTableRecord
  2
Defpoints
 70
     0
 62
     7
  6
Continuous
290
     0
370
    -3
390
F
347
27E
  0
LAYER
  5
36AA
330
2
100
AcDbSymbolTableRecord
100
AcDbLayerTableRecord
  2
AM_5 寸法線
 70
     0
 62
     3
  6
Continuous
370
    13
390
F
347
27E
1001
AcAecLayerStandard
1000

1000

  0
LAYER
  5
36AB
330
2
100
AcDbSymbolTableRecord
100
AcDbLayerTableRecord
  2
AM_4 細線
 70
     0
 62
     4
  6
Continuous
370
    13
390
F
347
27E
1001
AcAecLayerStandard
1000

1000

  0
LAYER
  5
36AC
330
2
100
AcDbSymbolTableRecord
100
AcDbLayerTableRecord
  2
AM_7 中心線
 70
     0
 62
     1
  6
AM_ISO08W050
370
    13
390
F
347
27E
1001
AcAecLayerStandard
1000

1000

  0
LAYER
  5
36AD
330
2
100
AcDbSymbolTableRecord
100
AcDbLayerTableRecord
  2
AM_3 隠れ線
 70
     0
 62
     8
  6
ACJISWELD
370
    13
390
F
347
27E
1001
AcAecLayerStandard
1000

1000

  0
LAYER
  5
36AF
330
2
100
AcDbSymbolTableRecord
100
AcDbLayerTableRecord
  2
AM_6 文字
 70
     0
 62
     2
  6
Continuous
370
    13
390
F
347
27E
1001
AcAecLayerStandard
1000

1000

  0
LAYER
  5
7855
330
2
100
AcDbSymbolTableRecord
100
AcDbLayerTableRecord
  2
AM_11 想像線
 70
     0
 62
     5
  6
AM_ISO09W050
370
    13
390
F
347
27E
1001
AcAecLayerStandard
1000

1000

  0
ENDTAB
  0
TABLE
  2
STYLE
  5
3
330
0
100
AcDbSymbolTable
 70
    10
  0
STYLE
  5
11
330
3
100
AcDbSymbolTableRecord
100
AcDbTextStyleTableRecord
  2
STANDARD
 70
     0
 40
0.0
 41
1.0
 50
0.0
 71
     0
 42
25.0
  3
ISOCP.SHX
  4
EXTFONT.SHX
  0
STYLE
  5
23D
330
3
100
AcDbSymbolTableRecord
100
AcDbTextStyleTableRecord
  2

 70
     1
 40
0.0
 41
1.0
 50
0.0
 71
     0
 42
2.5
  3
genltshp.shx
  4

  0
STYLE
  5
5D5
330
3
100
AcDbSymbolTableRecord
100
AcDbTextStyleTableRecord
  2
SEISA
 70
     0
 40
0.0
 41
0.9
 50
0.0
 71
     0
 42
25.0
  3
romans.shx
  4
extfont2.shx
  0
STYLE
  5
7A42
330
3
100
AcDbSymbolTableRecord
100
AcDbTextStyleTableRecord
  2
ACISOTS
 70
     0
 40
1.0
 41
1.0
 50
0.0
 71
     0
 42
25.0
  3
isocp.shx
  4
extfont.shx
  0
STYLE
  5
7A51
330
3
100
AcDbSymbolTableRecord
100
AcDbTextStyleTableRecord
  2
ACISOGDT
 70
     0
 40
0.0
 41
1.0
 50
0.0
 71
     0
 42
25.0
  3
amgdt.shx
  4

  0
ENDTAB
  0
TABLE
  2
VIEW
  5
6
330
0
100
AcDbSymbolTable
 70
     6
  0
VIEW
  5
91B
330
6
100
AcDbSymbolTableRecord
100
AcDbViewTableRecord
  2
AM_VIEW1
 70
     0
 40
371.25
 10
390.2372144758928
 20
556.8750009234552
 41
780.4744279946162
 11
0.0
 21
0.0
 31
1.0
 12
0.0
 22
0.0
 32
0.0
 42
50.0
 43
0.0
 44
0.0
 50
0.0
 71
    16
281
     0
 72
     0
 73
     0
  0
VIEW
  5
91C
330
6
100
AcDbSymbolTableRecord
100
AcDbViewTableRecord
  2
AM_VIEW2
 70
     0
 40
371.25
 10
659.7627864812766
 20
556.8750009234552
 41
780.4744279946162
 11
0.0
 21
0.0
 31
1.0
 12
0.0
 22
0.0
 32
0.0
 42
50.0
 43
0.0
 44
0.0
 50
0.0
 71
    16
281
     0
 72
     0
 73
     0
  0
VIEW
  5
91D
330
6
100
AcDbSymbolTableRecord
100
AcDbViewTableRecord
  2
AM_VIEW3
 70
     0
 40
371.25
 10
390.2372144758928
 20
185.6250009234551
 41
780.4744279946162
 11
0.0
 21
0.0
 31
1.0
 12
0.0
 22
0.0
 32
0.0
 42
50.0
 43
0.0
 44
0.0
 50
0.0
 71
    16
281
     0
 72
     0
 73
     0
  0
VIEW
  5
91E
330
6
100
AcDbSymbolTableRecord
100
AcDbViewTableRecord
  2
AM_VIEW4
 70
     0
 40
371.25
 10
659.7627864812766
 20
185.6250009234551
 41
780.4744279946162
 11
0.0
 21
0.0
 31
1.0
 12
0.0
 22
0.0
 32
0.0
 42
50.0
 43
0.0
 44
0.0
 50
0.0
 71
    16
281
     0
 72
     0
 73
     0
  0
VIEW
  5
91F
330
6
100
AcDbSymbolTableRecord
100
AcDbViewTableRecord
  2
AM_VIEW5
 70
     0
 40
371.2500000000002
 10
525.0000004785846
 20
371.2500009234552
 41
780.4744279946163
 11
0.0
 21
0.0
 31
1.0
 12
0.0
 22
0.0
 32
0.0
 42
50.0
 43
0.0
 44
0.0
 50
0.0
 71
    16
281
     0
 72
     0
 73
     0
  0
VIEW
  5
920
330
6
100
AcDbSymbolTableRecord
100
AcDbViewTableRecord
  2
AM_VIEW6
 70
     0
 40
742.4925749999998
 10
525.0000004785846
 20
371.2500009234551
 41
1560.933246500673
 11
0.0
 21
0.0
 31
1.0
 12
0.0
 22
0.0
 32
0.0
 42
50.0
 43
0.0
 44
0.0
 50
0.0
 71
    16
281
     0
 72
     0
 73
     0
  0
ENDTAB
  0
TABLE
  2
UCS
  5
7
330
0
100
AcDbSymbolTable
 70
     0
  0
ENDTAB
  0
TABLE
  2
APPID
  5
9
330
0
100
AcDbSymbolTable
 70
   397
  0
APPID
  5
12
330
9
100
AcDbSymbolTableRecord
100
AcDbRegAppTableRecord
  2
ACAD
 70
     0
  0
APPID
  5
30
330
9
100
AcDbSymbolTableRecord
100
AcDbRegAppTableRecord
  2
MCAD_NO_VIS
 70
     0
  0
APPID
  5
31
330
9
100
AcDbSymbolTableRecord
100
AcDbRegAppTableRecord
  2
ACAD_TEMP_GRAPHIC
 70
     0
  0
APPID
  5
44
330
9
100
AcDbSymbolTableRecord
100
AcDbRegAppTableRecord
  2
ACATTRIBSERVICES
 70
     0
  0
APPID
  5
F6
330
9
100
AcDbSymbolTableRecord
100
AcDbRegAppTableRecord
  2
AD_DRAW
 70
     0
  0
APPID
  5
114
330
9
100
AcDbSymbolTableRecord
100
AcDbRegAppTableRecord
  2
DESIGNERASSEMBLIES
 70
     0
  0
APPID
  5
118
330
9
100
AcDbSymbolTableRecord
100
AcDbRegAppTableRecord
  2
ACADM_DIM_EDIT
 70
     0
  0
APPID
  5
119
330
9
100
AcDbSymbolTableRecord
100
AcDbRegAppTableRecord
  2
AMDT_DM_ADJ
 70
     0
  0
APPID
  5
1AF
330
9
100
AcDbSymbolTableRecord
100
AcDbRegAppTableRecord
  2
ACAD_DSTYLE_DIMARC_LENGTH_SYMBOL
 70
     0
  0
APPID
  5
1B0
330
9
100
AcDbSymbolTableRecord
100
AcDbRegAppTableRecord
  2
ACAD_DSTYLE_DIMJOGGED_JOGANGLE_SYMBOL
 70
     0
  0
APPID
  5
2D7
330
9
100
AcDbSymbolTableRecord
100
AcDbRegAppTableRecord
  2
ACAD_MLEADERVER
 70
     0
  0
APPID
  5
355
330
9
100
AcDbSymbolTableRecord
100
AcDbRegAppTableRecord
  2
AcadAnnoPO
 70
     0
  0
APPID
  5
428
330
9
100
AcDbSymbolTableRecord
100
AcDbRegAppTableRecord
  2
ACAD_DSTYLE_DIMTEXT_FILL
 70
     0
  0
APPID
  5
429
330
9
100
AcDbSymbolTableRecord
100
AcDbRegAppTableRecord
  2
GENIUS_GENSCREG_15
 70
     0
  0
APPID
  5
42A
330
9
100
AcDbSymbolTableRecord
100
AcDbRegAppTableRecord
  2
GENIUS_GENOBJ-N-SDF_13
 70
     0
  0
APPID
  5
42B
330
9
100
AcDbSymbolTableRecord
100
AcDbRegAppTableRecord
  2
GENIUS_GENODEF_13
 70
     0
  0
APPID
  5
42C
330
9
100
AcDbSymbolTableRecord
100
AcDbRegAppTableRecord
  2
ACAD_EXEMPT_FROM_CAD_STANDARDS
 70
     0
  0
APPID
  5
42D
330
9
100
AcDbSymbolTableRecord
100
AcDbRegAppTableRecord
  2
AcAecLayerStandard
 70
     0
  0
APPID
  5
42E
330
9
100
AcDbSymbolTableRecord
100
AcDbRegAppTableRecord
  2
GENIUS_GENOBJ-N-CEN_13
 70
     0
  0
APPID
  5
42F
330
9
100
AcDbSymbolTableRecord
100
AcDbRegAppTableRecord
  2
GENIUS_GENCEN_19
 70
     0
  0
APPID
  5
430
330
9
100
AcDbSymbolTableRecord
100
AcDbRegAppTableRecord
  2
ACAD_DSTYLE_DIMINSPECT
 70
     0
  0
APPID
  5
431
330
9
100
AcDbSymbolTableRecord
100
AcDbRegAppTableRecord
  2
GENIUS_AMGTXT_16
 70
     0
  0
APPID
  5
432
330
9
100
AcDbSymbolTableRecord
100
AcDbRegAppTableRecord
  2
GENIUS_GENFIL_13
 70
     0
  0
APPID
  5
433
330
9
100
AcDbSymbolTableRecord
100
AcDbRegAppTableRecord
  2
GENIUS_GENOLIS_13
 70
     0
  0
APPID
  5
434
330
9
100
AcDbSymbolTableRecord
100
AcDbRegAppTableRecord
  2
GENIUS_GENOBJ-N-CHA_13
 70
     0
  0
APPID
  5
435
330
9
100
AcDbSymbolTableRecord
100
AcDbRegAppTableRecord
  2
GENIUS_GENOENT_13
 70
     0
  0
APPID
  5
436
330
9
100
AcDbSymbolTableRecord
100
AcDbRegAppTableRecord
  2
GENIUS_GENOREF_13
 70
     0
  0
APPID
  5
437
330
9
100
AcDbSymbolTableRecord
100
AcDbRegAppTableRecord
  2
GENIUS_GENOBJ-N-FIL_13
 70
     0
  0
APPID
  5
438
330
9
100
AcDbSymbolTableRecord
100
AcDbRegAppTableRecord
  2
GEVID1208829536
 70
     0
  0
APPID
  5
439
330
9
100
AcDbSymbolTableRecord
100
AcDbRegAppTableRecord
  2
GEVDC
 70
     0
  0
APPID
  5
43A
330
9
100
AcDbSymbolTableRecord
100
AcDbRegAppTableRecord
  2
GEVRADREF
 70
     0
  0
APPID
  5
43B
330
9
100
AcDbSymbolTableRecord
100
AcDbRegAppTableRecord
  2
GENIUS_GENBH_13
 70
     0
  0
APPID
  5
43C
330
9
100
AcDbSymbolTableRecord
100
AcDbRegAppTableRecord
  2
GENIUS_GENOBJ-NBEHI-BHF_13
 70
     0
  0
APPID
  5
43D
330
9
100
AcDbSymbolTableRecord
100
AcDbRegAppTableRecord
  2
GENIUS_GENOBJ-NBEHI-BHB_13
 70
     0
  0
APPID
  5
43E
330
9
100
AcDbSymbolTableRecord
100
AcDbRegAppTableRecord
  2
GEVID1208829537
 70
     0
  0
APPID
  5
43F
330
9
100
AcDbSymbolTableRecord
100
AcDbRegAppTableRecord
  2
ACAD_DSTYLE_DIMJAG
 70
     0
  0
APPID
  5
440
330
9
100
AcDbSymbolTableRecord
100
AcDbRegAppTableRecord
  2
ACAD_DSTYLE_DIMTALN
 70
     0
  0
APPID
  5
441
330
9
100
AcDbSymbolTableRecord
100
AcDbRegAppTableRecord
  2
AMG_2DHIDE
 70
     0
  0
APPID
  5
442
330
9
100
AcDbSymbolTableRecord
100
AcDbRegAppTableRecord
  2
AMG_2DSTRUCT_BTR
 70
     0
  0
APPID
  5
443
330
9
100
AcDbSymbolTableRecord
100
AcDbRegAppTableRecord
  2
GEVID1208845772
 70
     0
  0
APPID
  5
444
330
9
100
AcDbSymbolTableRecord
100
AcDbRegAppTableRecord
  2
GEVID1208845773
 70
     0
  0
APPID
  5
445
330
9
100
AcDbSymbolTableRecord
100
AcDbRegAppTableRecord
  2
ACADM_2DVIEW_IGN_NOTIFY
 70
     0
  0
APPID
  5
446
330
9
100
AcDbSymbolTableRecord
100
AcDbRegAppTableRecord
  2
GEVID1208845774
 70
     0
  0
APPID
  5
447
330
9
100
AcDbSymbolTableRecord
100
AcDbRegAppTableRecord
  2
GEVID1208845775
 70
     0
  0
APPID
  5
448
330
9
100
AcDbSymbolTableRecord
100
AcDbRegAppTableRecord
  2
GEVID1208845776
 70
     0
  0
APPID
  5
449
330
9
100
AcDbSymbolTableRecord
100
AcDbRegAppTableRecord
  2
GEVID1208845777
 70
     0
  0
APPID
  5
44A
330
9
100
AcDbSymbolTableRecord
100
AcDbRegAppTableRecord
  2
GEVCON
 70
     0
  0
APPID
  5
44B
330
9
100
AcDbSymbolTableRecord
100
AcDbRegAppTableRecord
  2
GENIUS_GENOBJ-F-SCPASSM_13
 70
     0
  0
APPID
  5
44C
330
9
100
AcDbSymbolTableRecord
100
AcDbRegAppTableRecord
  2
GEVID1208845778
 70
     0
  0
APPID
  5
44D
330
9
100
AcDbSymbolTableRecord
100
AcDbRegAppTableRecord
  2
GEVID1208845779
 70
     0
  0
APPID
  5
44E
330
9
100
AcDbSymbolTableRecord
100
AcDbRegAppTableRecord
  2
GEVID1208845780
 70
     0
  0
APPID
  5
44F
330
9
100
AcDbSymbolTableRecord
100
AcDbRegAppTableRecord
  2
GEVID1208845781
 70
     0
  0
APPID
  5
450
330
9
100
AcDbSymbolTableRecord
100
AcDbRegAppTableRecord
  2
GEVID1208845782
 70
     0
  0
APPID
  5
451
330
9
100
AcDbSymbolTableRecord
100
AcDbRegAppTableRecord
  2
GEVID1208845783
 70
     0
  0
APPID
  5
452
330
9
100
AcDbSymbolTableRecord
100
AcDbRegAppTableRecord
  2
GEVID1208845784
 70
     0
  0
APPID
  5
453
330
9
100
AcDbSymbolTableRecord
100
AcDbRegAppTableRecord
  2
GEVID1208845785
 70
     0
  0
APPID
  5
454
330
9
100
AcDbSymbolTableRecord
100
AcDbRegAppTableRecord
  2
GEVID1208845787
 70
     0
  0
APPID
  5
455
330
9
100
AcDbSymbolTableRecord
100
AcDbRegAppTableRecord
  2
GEVID1208845788
 70
     0
  0
APPID
  5
456
330
9
100
AcDbSymbolTableRecord
100
AcDbRegAppTableRecord
  2
GEVID1208845789
 70
     0
  0
APPID
  5
457
330
9
100
AcDbSymbolTableRecord
100
AcDbRegAppTableRecord
  2
GEVID1208845790
 70
     0
  0
APPID
  5
458
330
9
100
AcDbSymbolTableRecord
100
AcDbRegAppTableRecord
  2
GEVID1208845791
 70
     0
  0
APPID
  5
459
330
9
100
AcDbSymbolTableRecord
100
AcDbRegAppTableRecord
  2
GEVID1208845792
 70
     0
  0
APPID
  5
45A
330
9
100
AcDbSymbolTableRecord
100
AcDbRegAppTableRecord
  2
GEVID1208845793
 70
     0
  0
APPID
  5
45B
330
9
100
AcDbSymbolTableRecord
100
AcDbRegAppTableRecord
  2
GEVID1208845794
 70
     0
  0
APPID
  5
45C
330
9
100
AcDbSymbolTableRecord
100
AcDbRegAppTableRecord
  2
GEVID1208845795
 70
     0
  0
APPID
  5
45D
330
9
100
AcDbSymbolTableRecord
100
AcDbRegAppTableRecord
  2
GEVID1208845796
 70
     0
  0
APPID
  5
45E
330
9
100
AcDbSymbolTableRecord
100
AcDbRegAppTableRecord
  2
GEVID1208845797
 70
     0
  0
APPID
  5
45F
330
9
100
AcDbSymbolTableRecord
100
AcDbRegAppTableRecord
  2
GEVID1208845798
 70
     0
  0
APPID
  5
460
330
9
100
AcDbSymbolTableRecord
100
AcDbRegAppTableRecord
  2
GEVID1208845799
 70
     0
  0
APPID
  5
461
330
9
100
AcDbSymbolTableRecord
100
AcDbRegAppTableRecord
  2
GEVID1208845800
 70
     0
  0
APPID
  5
462
330
9
100
AcDbSymbolTableRecord
100
AcDbRegAppTableRecord
  2
GEVID1208845801
 70
     0
  0
APPID
  5
463
330
9
100
AcDbSymbolTableRecord
100
AcDbRegAppTableRecord
  2
GEVID1208845802
 70
     0
  0
APPID
  5
464
330
9
100
AcDbSymbolTableRecord
100
AcDbRegAppTableRecord
  2
GENIUS_GENOBJ-N-DIM_13
 70
     0
  0
APPID
  5
465
330
9
100
AcDbSymbolTableRecord
100
AcDbRegAppTableRecord
  2
GENIUS_GENDIM_13
 70
     0
  0
APPID
  5
466
330
9
100
AcDbSymbolTableRecord
100
AcDbRegAppTableRecord
  2
GENIUS_GENDIMSH_14
 70
     0
  0
APPID
  5
467
330
9
100
AcDbSymbolTableRecord
100
AcDbRegAppTableRecord
  2
GEVID1208845803
 70
     0
  0
APPID
  5
468
330
9
100
AcDbSymbolTableRecord
100
AcDbRegAppTableRecord
  2
GEVID1208845804
 70
     0
  0
APPID
  5
469
330
9
100
AcDbSymbolTableRecord
100
AcDbRegAppTableRecord
  2
GEVID1208845805
 70
     0
  0
APPID
  5
46A
330
9
100
AcDbSymbolTableRecord
100
AcDbRegAppTableRecord
  2
GEVID1208845806
 70
     0
  0
APPID
  5
46B
330
9
100
AcDbSymbolTableRecord
100
AcDbRegAppTableRecord
  2
GEVID1208845807
 70
     0
  0
APPID
  5
46C
330
9
100
AcDbSymbolTableRecord
100
AcDbRegAppTableRecord
  2
GEVID1208845808
 70
     0
  0
APPID
  5
46D
330
9
100
AcDbSymbolTableRecord
100
AcDbRegAppTableRecord
  2
GEVID1208845809
 70
     0
  0
APPID
  5
46E
330
9
100
AcDbSymbolTableRecord
100
AcDbRegAppTableRecord
  2
GEVID1208845810
 70
     0
  0
APPID
  5
46F
330
9
100
AcDbSymbolTableRecord
100
AcDbRegAppTableRecord
  2
GEVID1208845811
 70
     0
  0
APPID
  5
470
330
9
100
AcDbSymbolTableRecord
100
AcDbRegAppTableRecord
  2
GEVID1208845813
 70
     0
  0
APPID
  5
471
330
9
100
AcDbSymbolTableRecord
100
AcDbRegAppTableRecord
  2
GEVID1208845814
 70
     0
  0
APPID
  5
472
330
9
100
AcDbSymbolTableRecord
100
AcDbRegAppTableRecord
  2
GEVID1208845815
 70
     0
  0
APPID
  5
473
330
9
100
AcDbSymbolTableRecord
100
AcDbRegAppTableRecord
  2
GEVID1208845816
 70
     0
  0
APPID
  5
474
330
9
100
AcDbSymbolTableRecord
100
AcDbRegAppTableRecord
  2
GEVID1208845817
 70
     0
  0
APPID
  5
475
330
9
100
AcDbSymbolTableRecord
100
AcDbRegAppTableRecord
  2
GEVID1208845818
 70
     0
  0
APPID
  5
476
330
9
100
AcDbSymbolTableRecord
100
AcDbRegAppTableRecord
  2
GEVID1208845819
 70
     0
  0
APPID
  5
477
330
9
100
AcDbSymbolTableRecord
100
AcDbRegAppTableRecord
  2
GEVID1208845820
 70
     0
  0
APPID
  5
478
330
9
100
AcDbSymbolTableRecord
100
AcDbRegAppTableRecord
  2
GENIUS_GENOBJ-F-SHCL_13
 70
     0
  0
APPID
  5
479
330
9
100
AcDbSymbolTableRecord
100
AcDbRegAppTableRecord
  2
GENIUS_GEFMSH_13
 70
     0
  0
APPID
  5
47A
330
9
100
AcDbSymbolTableRecord
100
AcDbRegAppTableRecord
  2
GENIUS_GENOBJ-F-SHCA_13
 70
     0
  0
APPID
  5
47B
330
9
100
AcDbSymbolTableRecord
100
AcDbRegAppTableRecord
  2
GENIUS_GEFSH_13
 70
     0
  0
APPID
  5
47C
330
9
100
AcDbSymbolTableRecord
100
AcDbRegAppTableRecord
  2
GENIUS_GEFSHP_13
 70
     0
  0
APPID
  5
47D
330
9
100
AcDbSymbolTableRecord
100
AcDbRegAppTableRecord
  2
GENIUS_GEFSHP0_13
 70
     0
  0
APPID
  5
47E
330
9
100
AcDbSymbolTableRecord
100
AcDbRegAppTableRecord
  2
GENIUS_GEFSH0_13
 70
     0
  0
APPID
  5
47F
330
9
100
AcDbSymbolTableRecord
100
AcDbRegAppTableRecord
  2
GENIUS_GEFSHP1_13
 70
     0
  0
APPID
  5
480
330
9
100
AcDbSymbolTableRecord
100
AcDbRegAppTableRecord
  2
GENIUS_GEFSH1_13
 70
     0
  0
APPID
  5
481
330
9
100
AcDbSymbolTableRecord
100
AcDbRegAppTableRecord
  2
GEVID1208866337
 70
     0
  0
APPID
  5
482
330
9
100
AcDbSymbolTableRecord
100
AcDbRegAppTableRecord
  2
GEVID1208866338
 70
     0
  0
APPID
  5
483
330
9
100
AcDbSymbolTableRecord
100
AcDbRegAppTableRecord
  2
GEVID1208866339
 70
     0
  0
APPID
  5
484
330
9
100
AcDbSymbolTableRecord
100
AcDbRegAppTableRecord
  2
GEVID1208866340
 70
     0
  0
APPID
  5
485
330
9
100
AcDbSymbolTableRecord
100
AcDbRegAppTableRecord
  2
GEVID1208866341
 70
     0
  0
APPID
  5
486
330
9
100
AcDbSymbolTableRecord
100
AcDbRegAppTableRecord
  2
ACAD_PSEXT
 70
     0
  0
APPID
  5
487
330
9
100
AcDbSymbolTableRecord
100
AcDbRegAppTableRecord
  2
GEVID1208866342
 70
     0
  0
APPID
  5
488
330
9
100
AcDbSymbolTableRecord
100
AcDbRegAppTableRecord
  2
GEVID1208913836
 70
     0
  0
APPID
  5
489
330
9
100
AcDbSymbolTableRecord
100
AcDbRegAppTableRecord
  2
GEVID1208913837
 70
     0
  0
APPID
  5
48A
330
9
100
AcDbSymbolTableRecord
100
AcDbRegAppTableRecord
  2
GEVID1208913838
 70
     0
  0
APPID
  5
48B
330
9
100
AcDbSymbolTableRecord
100
AcDbRegAppTableRecord
  2
GEVID1208913839
 70
     0
  0
APPID
  5
48C
330
9
100
AcDbSymbolTableRecord
100
AcDbRegAppTableRecord
  2
GENIUS_GENDTOL_13
 70
     0
  0
APPID
  5
48D
330
9
100
AcDbSymbolTableRecord
100
AcDbRegAppTableRecord
  2
GEVID1208928889
 70
     0
  0
APPID
  5
48E
330
9
100
AcDbSymbolTableRecord
100
AcDbRegAppTableRecord
  2
GEVID1208928890
 70
     0
  0
APPID
  5
48F
330
9
100
AcDbSymbolTableRecord
100
AcDbRegAppTableRecord
  2
GEVID1208928891
 70
     0
  0
APPID
  5
490
330
9
100
AcDbSymbolTableRecord
100
AcDbRegAppTableRecord
  2
GEVID1208928892
 70
     0
  0
APPID
  5
491
330
9
100
AcDbSymbolTableRecord
100
AcDbRegAppTableRecord
  2
GEVID1208933827
 70
     0
  0
APPID
  5
492
330
9
100
AcDbSymbolTableRecord
100
AcDbRegAppTableRecord
  2
GEVID1208933829
 70
     0
  0
APPID
  5
493
330
9
100
AcDbSymbolTableRecord
100
AcDbRegAppTableRecord
  2
GEVID1208933830
 70
     0
  0
APPID
  5
494
330
9
100
AcDbSymbolTableRecord
100
AcDbRegAppTableRecord
  2
GEVID1208933831
 70
     0
  0
APPID
  5
495
330
9
100
AcDbSymbolTableRecord
100
AcDbRegAppTableRecord
  2
GEVID1208933832
 70
     0
  0
APPID
  5
496
330
9
100
AcDbSymbolTableRecord
100
AcDbRegAppTableRecord
  2
GEVID1208933833
 70
     0
  0
APPID
  5
497
330
9
100
AcDbSymbolTableRecord
100
AcDbRegAppTableRecord
  2
GEVID1208933834
 70
     0
  0
APPID
  5
498
330
9
100
AcDbSymbolTableRecord
100
AcDbRegAppTableRecord
  2
GEVID1208933835
 70
     0
  0
APPID
  5
499
330
9
100
AcDbSymbolTableRecord
100
AcDbRegAppTableRecord
  2
GEVID1208933836
 70
     0
  0
APPID
  5
49A
330
9
100
AcDbSymbolTableRecord
100
AcDbRegAppTableRecord
  2
GEVID1208933837
 70
     0
  0
APPID
  5
49B
330
9
100
AcDbSymbolTableRecord
100
AcDbRegAppTableRecord
  2
GEVID1208933838
 70
     0
  0
APPID
  5
49C
330
9
100
AcDbSymbolTableRecord
100
AcDbRegAppTableRecord
  2
GEVID1208933840
 70
     0
  0
APPID
  5
49D
330
9
100
AcDbSymbolTableRecord
100
AcDbRegAppTableRecord
  2
GEVID1208933842
 70
     0
  0
APPID
  5
49E
330
9
100
AcDbSymbolTableRecord
100
AcDbRegAppTableRecord
  2
GEVID1208933843
 70
     0
  0
APPID
  5
49F
330
9
100
AcDbSymbolTableRecord
100
AcDbRegAppTableRecord
  2
GEVID1208933844
 70
     0
  0
APPID
  5
4A0
330
9
100
AcDbSymbolTableRecord
100
AcDbRegAppTableRecord
  2
GEVID1208933845
 70
     0
  0
APPID
  5
4A1
330
9
100
AcDbSymbolTableRecord
100
AcDbRegAppTableRecord
  2
GEVID1208933846
 70
     0
  0
APPID
  5
4A2
330
9
100
AcDbSymbolTableRecord
100
AcDbRegAppTableRecord
  2
GEVID1208933847
 70
     0
  0
APPID
  5
4A3
330
9
100
AcDbSymbolTableRecord
100
AcDbRegAppTableRecord
  2
GEVID1208933848
 70
     0
  0
APPID
  5
4A4
330
9
100
AcDbSymbolTableRecord
100
AcDbRegAppTableRecord
  2
GEVID1208933849
 70
     0
  0
APPID
  5
4A5
330
9
100
AcDbSymbolTableRecord
100
AcDbRegAppTableRecord
  2
GEVID1208933850
 70
     0
  0
APPID
  5
4A6
330
9
100
AcDbSymbolTableRecord
100
AcDbRegAppTableRecord
  2
GEVID1208933851
 70
     0
  0
APPID
  5
4A7
330
9
100
AcDbSymbolTableRecord
100
AcDbRegAppTableRecord
  2
GEVID1208933852
 70
     0
  0
APPID
  5
4A8
330
9
100
AcDbSymbolTableRecord
100
AcDbRegAppTableRecord
  2
GEVID1208933853
 70
     0
  0
APPID
  5
4A9
330
9
100
AcDbSymbolTableRecord
100
AcDbRegAppTableRecord
  2
GEVID1208933854
 70
     0
  0
APPID
  5
4AA
330
9
100
AcDbSymbolTableRecord
100
AcDbRegAppTableRecord
  2
GEVID1208933855
 70
     0
  0
APPID
  5
4AB
330
9
100
AcDbSymbolTableRecord
100
AcDbRegAppTableRecord
  2
GEVID1208933856
 70
     0
  0
APPID
  5
4AC
330
9
100
AcDbSymbolTableRecord
100
AcDbRegAppTableRecord
  2
GEVID1208933857
 70
     0
  0
APPID
  5
4AD
330
9
100
AcDbSymbolTableRecord
100
AcDbRegAppTableRecord
  2
GEVID1208933858
 70
     0
  0
APPID
  5
4AE
330
9
100
AcDbSymbolTableRecord
100
AcDbRegAppTableRecord
  2
GEVID1208933859
 70
     0
  0
APPID
  5
4AF
330
9
100
AcDbSymbolTableRecord
100
AcDbRegAppTableRecord
  2
GEVID1208933860
 70
     0
  0
APPID
  5
4B0
330
9
100
AcDbSymbolTableRecord
100
AcDbRegAppTableRecord
  2
GEVID1208933861
 70
     0
  0
APPID
  5
4B1
330
9
100
AcDbSymbolTableRecord
100
AcDbRegAppTableRecord
  2
GEVID1208933862
 70
     0
  0
APPID
  5
4B2
330
9
100
AcDbSymbolTableRecord
100
AcDbRegAppTableRecord
  2
GEVID1208933863
 70
     0
  0
APPID
  5
4B3
330
9
100
AcDbSymbolTableRecord
100
AcDbRegAppTableRecord
  2
GEVID1208933864
 70
     0
  0
APPID
  5
4B4
330
9
100
AcDbSymbolTableRecord
100
AcDbRegAppTableRecord
  2
GEVID1208933865
 70
     0
  0
APPID
  5
4B5
330
9
100
AcDbSymbolTableRecord
100
AcDbRegAppTableRecord
  2
GEVID1208933866
 70
     0
  0
APPID
  5
4B6
330
9
100
AcDbSymbolTableRecord
100
AcDbRegAppTableRecord
  2
GEVID1208933867
 70
     0
  0
APPID
  5
4B7
330
9
100
AcDbSymbolTableRecord
100
AcDbRegAppTableRecord
  2
GEVID1208933868
 70
     0
  0
APPID
  5
4B8
330
9
100
AcDbSymbolTableRecord
100
AcDbRegAppTableRecord
  2
GEVID1208933869
 70
     0
  0
APPID
  5
4B9
330
9
100
AcDbSymbolTableRecord
100
AcDbRegAppTableRecord
  2
GEVID1208933870
 70
     0
  0
APPID
  5
4BA
330
9
100
AcDbSymbolTableRecord
100
AcDbRegAppTableRecord
  2
GEVID1208933871
 70
     0
  0
APPID
  5
4BB
330
9
100
AcDbSymbolTableRecord
100
AcDbRegAppTableRecord
  2
GEVID1208933872
 70
     0
  0
APPID
  5
4BC
330
9
100
AcDbSymbolTableRecord
100
AcDbRegAppTableRecord
  2
GEVID1208933873
 70
     0
  0
APPID
  5
4BD
330
9
100
AcDbSymbolTableRecord
100
AcDbRegAppTableRecord
  2
GEVID1208933874
 70
     0
  0
APPID
  5
4BE
330
9
100
AcDbSymbolTableRecord
100
AcDbRegAppTableRecord
  2
GEVID1208933875
 70
     0
  0
APPID
  5
4BF
330
9
100
AcDbSymbolTableRecord
100
AcDbRegAppTableRecord
  2
GEVID1208933876
 70
     0
  0
APPID
  5
4C0
330
9
100
AcDbSymbolTableRecord
100
AcDbRegAppTableRecord
  2
ACAD_DSTYLE_DIMRADIAL_EXTENSION
 70
     0
  0
APPID
  5
4C1
330
9
100
AcDbSymbolTableRecord
100
AcDbRegAppTableRecord
  2
GEVID1208999100
 70
     0
  0
APPID
  5
4C2
330
9
100
AcDbSymbolTableRecord
100
AcDbRegAppTableRecord
  2
GEVID1208999101
 70
     0
  0
APPID
  5
4C3
330
9
100
AcDbSymbolTableRecord
100
AcDbRegAppTableRecord
  2
GEVID1208999102
 70
     0
  0
APPID
  5
4C4
330
9
100
AcDbSymbolTableRecord
100
AcDbRegAppTableRecord
  2
GEVID1208999103
 70
     0
  0
APPID
  5
4C5
330
9
100
AcDbSymbolTableRecord
100
AcDbRegAppTableRecord
  2
GEVID1208999105
 70
     0
  0
APPID
  5
4C6
330
9
100
AcDbSymbolTableRecord
100
AcDbRegAppTableRecord
  2
GEVID1208999106
 70
     0
  0
APPID
  5
4C7
330
9
100
AcDbSymbolTableRecord
100
AcDbRegAppTableRecord
  2
GEVID1208999108
 70
     0
  0
APPID
  5
4C8
330
9
100
AcDbSymbolTableRecord
100
AcDbRegAppTableRecord
  2
GEVID1208999109
 70
     0
  0
APPID
  5
4C9
330
9
100
AcDbSymbolTableRecord
100
AcDbRegAppTableRecord
  2
GEVID1208999110
 70
     0
  0
APPID
  5
4CA
330
9
100
AcDbSymbolTableRecord
100
AcDbRegAppTableRecord
  2
GEVID1208999111
 70
     0
  0
APPID
  5
4CB
330
9
100
AcDbSymbolTableRecord
100
AcDbRegAppTableRecord
  2
GEVID1208999112
 70
     0
  0
APPID
  5
4CC
330
9
100
AcDbSymbolTableRecord
100
AcDbRegAppTableRecord
  2
GEVID1208999113
 70
     0
  0
APPID
  5
4CD
330
9
100
AcDbSymbolTableRecord
100
AcDbRegAppTableRecord
  2
GEVID1208999114
 70
     0
  0
APPID
  5
4CE
330
9
100
AcDbSymbolTableRecord
100
AcDbRegAppTableRecord
  2
GEVID1210218799
 70
     0
  0
APPID
  5
4CF
330
9
100
AcDbSymbolTableRecord
100
AcDbRegAppTableRecord
  2
GEVID1210218800
 70
     0
  0
APPID
  5
4D0
330
9
100
AcDbSymbolTableRecord
100
AcDbRegAppTableRecord
  2
GENIUS_GEFWELD_13
 70
     0
  0
APPID
  5
4D1
330
9
100
AcDbSymbolTableRecord
100
AcDbRegAppTableRecord
  2
GENIUS_GENOBJ-F-WELS_13
 70
     0
  0
APPID
  5
4D2
330
9
100
AcDbSymbolTableRecord
100
AcDbRegAppTableRecord
  2
AcadAnnotative
 70
     0
  0
APPID
  5
4D3
330
9
100
AcDbSymbolTableRecord
100
AcDbRegAppTableRecord
  2
GEVID1210145339
 70
     0
  0
APPID
  5
4D4
330
9
100
AcDbSymbolTableRecord
100
AcDbRegAppTableRecord
  2
ACAD_DSTYLE_DIMBREAK
 70
     0
  0
APPID
  5
4D5
330
9
100
AcDbSymbolTableRecord
100
AcDbRegAppTableRecord
  2
GEVID1210145340
 70
     0
  0
APPID
  5
4D6
330
9
100
AcDbSymbolTableRecord
100
AcDbRegAppTableRecord
  2
GEVID1210145341
 70
     0
  0
APPID
  5
4D7
330
9
100
AcDbSymbolTableRecord
100
AcDbRegAppTableRecord
  2
GEVID1210145342
 70
     0
  0
APPID
  5
4D8
330
9
100
AcDbSymbolTableRecord
100
AcDbRegAppTableRecord
  2
GEVID1210145343
 70
     0
  0
APPID
  5
4D9
330
9
100
AcDbSymbolTableRecord
100
AcDbRegAppTableRecord
  2
GEVID1210145344
 70
     0
  0
APPID
  5
4DA
330
9
100
AcDbSymbolTableRecord
100
AcDbRegAppTableRecord
  2
GEVID1210145345
 70
     0
  0
APPID
  5
4DB
330
9
100
AcDbSymbolTableRecord
100
AcDbRegAppTableRecord
  2
GEVID1210152816
 70
     0
  0
APPID
  5
4DC
330
9
100
AcDbSymbolTableRecord
100
AcDbRegAppTableRecord
  2
GEVID1210153850
 70
     0
  0
APPID
  5
4DD
330
9
100
AcDbSymbolTableRecord
100
AcDbRegAppTableRecord
  2
GEVID1210153851
 70
     0
  0
APPID
  5
4DE
330
9
100
AcDbSymbolTableRecord
100
AcDbRegAppTableRecord
  2
GEVID1210153852
 70
     0
  0
APPID
  5
4DF
330
9
100
AcDbSymbolTableRecord
100
AcDbRegAppTableRecord
  2
GEVID1210549898
 70
     0
  0
APPID
  5
4E0
330
9
100
AcDbSymbolTableRecord
100
AcDbRegAppTableRecord
  2
GEVID1210549899
 70
     0
  0
APPID
  5
4E1
330
9
100
AcDbSymbolTableRecord
100
AcDbRegAppTableRecord
  2
GEVID1210549900
 70
     0
  0
APPID
  5
4E2
330
9
100
AcDbSymbolTableRecord
100
AcDbRegAppTableRecord
  2
GEVID1210549901
 70
     0
  0
APPID
  5
4E3
330
9
100
AcDbSymbolTableRecord
100
AcDbRegAppTableRecord
  2
GEVID1210549902
 70
     0
  0
APPID
  5
4E4
330
9
100
AcDbSymbolTableRecord
100
AcDbRegAppTableRecord
  2
GEVID1210549903
 70
     0
  0
APPID
  5
4E5
330
9
100
AcDbSymbolTableRecord
100
AcDbRegAppTableRecord
  2
GEVID1210549904
 70
     0
  0
APPID
  5
4E6
330
9
100
AcDbSymbolTableRecord
100
AcDbRegAppTableRecord
  2
GEVID1210549905
 70
     0
  0
APPID
  5
4E7
330
9
100
AcDbSymbolTableRecord
100
AcDbRegAppTableRecord
  2
GEVID1210549906
 70
     0
  0
APPID
  5
4E8
330
9
100
AcDbSymbolTableRecord
100
AcDbRegAppTableRecord
  2
GEVID1210549907
 70
     0
  0
APPID
  5
4E9
330
9
100
AcDbSymbolTableRecord
100
AcDbRegAppTableRecord
  2
GEVID1210549908
 70
     0
  0
APPID
  5
4EA
330
9
100
AcDbSymbolTableRecord
100
AcDbRegAppTableRecord
  2
GEVID1210549909
 70
     0
  0
APPID
  5
4EB
330
9
100
AcDbSymbolTableRecord
100
AcDbRegAppTableRecord
  2
GEVID1210549910
 70
     0
  0
APPID
  5
4EC
330
9
100
AcDbSymbolTableRecord
100
AcDbRegAppTableRecord
  2
GEVID1210549911
 70
     0
  0
APPID
  5
4ED
330
9
100
AcDbSymbolTableRecord
100
AcDbRegAppTableRecord
  2
GEVID1210549912
 70
     0
  0
APPID
  5
4EE
330
9
100
AcDbSymbolTableRecord
100
AcDbRegAppTableRecord
  2
GEVID1210549913
 70
     0
  0
APPID
  5
4EF
330
9
100
AcDbSymbolTableRecord
100
AcDbRegAppTableRecord
  2
GEVID1210549914
 70
     0
  0
APPID
  5
4F0
330
9
100
AcDbSymbolTableRecord
100
AcDbRegAppTableRecord
  2
GEVID1210549915
 70
     0
  0
APPID
  5
4F1
330
9
100
AcDbSymbolTableRecord
100
AcDbRegAppTableRecord
  2
GEVID1210549916
 70
     0
  0
APPID
  5
4F2
330
9
100
AcDbSymbolTableRecord
100
AcDbRegAppTableRecord
  2
GEVID1210549917
 70
     0
  0
APPID
  5
4F3
330
9
100
AcDbSymbolTableRecord
100
AcDbRegAppTableRecord
  2
GENIUS_GENOBJ-N-CRS_13
 70
     0
  0
APPID
  5
4F4
330
9
100
AcDbSymbolTableRecord
100
AcDbRegAppTableRecord
  2
GEVID1210549918
 70
     0
  0
APPID
  5
4F5
330
9
100
AcDbSymbolTableRecord
100
AcDbRegAppTableRecord
  2
GENIUS_GENOBJ-N-CRC_13
 70
     0
  0
APPID
  5
4F6
330
9
100
AcDbSymbolTableRecord
100
AcDbRegAppTableRecord
  2
GENIUS_GENCRC_14
 70
     0
  0
APPID
  5
4F7
330
9
100
AcDbSymbolTableRecord
100
AcDbRegAppTableRecord
  2
GEVID1210549919
 70
     0
  0
APPID
  5
4F8
330
9
100
AcDbSymbolTableRecord
100
AcDbRegAppTableRecord
  2
GEVID1210549921
 70
     0
  0
APPID
  5
4F9
330
9
100
AcDbSymbolTableRecord
100
AcDbRegAppTableRecord
  2
GEVID1210549922
 70
     0
  0
APPID
  5
4FA
330
9
100
AcDbSymbolTableRecord
100
AcDbRegAppTableRecord
  2
GEVID1210635173
 70
     0
  0
APPID
  5
4FB
330
9
100
AcDbSymbolTableRecord
100
AcDbRegAppTableRecord
  2
GEVID1210635174
 70
     0
  0
APPID
  5
4FC
330
9
100
AcDbSymbolTableRecord
100
AcDbRegAppTableRecord
  2
GEVID1210635175
 70
     0
  0
APPID
  5
4FD
330
9
100
AcDbSymbolTableRecord
100
AcDbRegAppTableRecord
  2
GEVID1210635176
 70
     0
  0
APPID
  5
4FE
330
9
100
AcDbSymbolTableRecord
100
AcDbRegAppTableRecord
  2
GEVID1210635177
 70
     0
  0
APPID
  5
4FF
330
9
100
AcDbSymbolTableRecord
100
AcDbRegAppTableRecord
  2
GEVID1210635178
 70
     0
  0
APPID
  5
500
330
9
100
AcDbSymbolTableRecord
100
AcDbRegAppTableRecord
  2
GENIUS_GENIUS_GENBHEDTMP_13
 70
     0
  0
APPID
  5
501
330
9
100
AcDbSymbolTableRecord
100
AcDbRegAppTableRecord
  2
GEVID1210635179
 70
     0
  0
APPID
  5
502
330
9
100
AcDbSymbolTableRecord
100
AcDbRegAppTableRecord
  2
GEVID1210635180
 70
     0
  0
APPID
  5
503
330
9
100
AcDbSymbolTableRecord
100
AcDbRegAppTableRecord
  2
GEVID1210635181
 70
     0
  0
APPID
  5
504
330
9
100
AcDbSymbolTableRecord
100
AcDbRegAppTableRecord
  2
GEVID1210635182
 70
     0
  0
APPID
  5
505
330
9
100
AcDbSymbolTableRecord
100
AcDbRegAppTableRecord
  2
GEVID1210635184
 70
     0
  0
APPID
  5
506
330
9
100
AcDbSymbolTableRecord
100
AcDbRegAppTableRecord
  2
GEVID1210635185
 70
     0
  0
APPID
  5
507
330
9
100
AcDbSymbolTableRecord
100
AcDbRegAppTableRecord
  2
GEVID1210635186
 70
     0
  0
APPID
  5
508
330
9
100
AcDbSymbolTableRecord
100
AcDbRegAppTableRecord
  2
GEVID1210635187
 70
     0
  0
APPID
  5
509
330
9
100
AcDbSymbolTableRecord
100
AcDbRegAppTableRecord
  2
GEVID1210635188
 70
     0
  0
APPID
  5
50A
330
9
100
AcDbSymbolTableRecord
100
AcDbRegAppTableRecord
  2
GEVID1210635189
 70
     0
  0
APPID
  5
50B
330
9
100
AcDbSymbolTableRecord
100
AcDbRegAppTableRecord
  2
GEVID1210635190
 70
     0
  0
APPID
  5
50C
330
9
100
AcDbSymbolTableRecord
100
AcDbRegAppTableRecord
  2
GENIUS_GENREC_14
 70
     0
  0
APPID
  5
50D
330
9
100
AcDbSymbolTableRecord
100
AcDbRegAppTableRecord
  2
GENIUS_GENOBJ-N-REC_13
 70
     0
  0
APPID
  5
50E
330
9
100
AcDbSymbolTableRecord
100
AcDbRegAppTableRecord
  2
GEVID1210676655
 70
     0
  0
APPID
  5
50F
330
9
100
AcDbSymbolTableRecord
100
AcDbRegAppTableRecord
  2
GEVID1210676656
 70
     0
  0
APPID
  5
510
330
9
100
AcDbSymbolTableRecord
100
AcDbRegAppTableRecord
  2
GEVID1210676657
 70
     0
  0
APPID
  5
511
330
9
100
AcDbSymbolTableRecord
100
AcDbRegAppTableRecord
  2
GEVID1210676659
 70
     0
  0
APPID
  5
512
330
9
100
AcDbSymbolTableRecord
100
AcDbRegAppTableRecord
  2
GEVID1210676660
 70
     0
  0
APPID
  5
513
330
9
100
AcDbSymbolTableRecord
100
AcDbRegAppTableRecord
  2
GEVID1210676661
 70
     0
  0
APPID
  5
514
330
9
100
AcDbSymbolTableRecord
100
AcDbRegAppTableRecord
  2
GEVID1210676662
 70
     0
  0
APPID
  5
515
330
9
100
AcDbSymbolTableRecord
100
AcDbRegAppTableRecord
  2
GEVID1210721646
 70
     0
  0
APPID
  5
516
330
9
100
AcDbSymbolTableRecord
100
AcDbRegAppTableRecord
  2
GEVID1210721647
 70
     0
  0
APPID
  5
517
330
9
100
AcDbSymbolTableRecord
100
AcDbRegAppTableRecord
  2
GEVID1210721648
 70
     0
  0
APPID
  5
518
330
9
100
AcDbSymbolTableRecord
100
AcDbRegAppTableRecord
  2
GEVID1210721649
 70
     0
  0
APPID
  5
519
330
9
100
AcDbSymbolTableRecord
100
AcDbRegAppTableRecord
  2
GEVID1210721650
 70
     0
  0
APPID
  5
51A
330
9
100
AcDbSymbolTableRecord
100
AcDbRegAppTableRecord
  2
GEVID1210721651
 70
     0
  0
APPID
  5
51B
330
9
100
AcDbSymbolTableRecord
100
AcDbRegAppTableRecord
  2
GEVID1210721652
 70
     0
  0
APPID
  5
51C
330
9
100
AcDbSymbolTableRecord
100
AcDbRegAppTableRecord
  2
GEVID1210721653
 70
     0
  0
APPID
  5
51D
330
9
100
AcDbSymbolTableRecord
100
AcDbRegAppTableRecord
  2
PE_URL
 70
     0
  0
APPID
  5
51E
330
9
100
AcDbSymbolTableRecord
100
AcDbRegAppTableRecord
  2
GEVID1210825555
 70
     0
  0
APPID
  5
51F
330
9
100
AcDbSymbolTableRecord
100
AcDbRegAppTableRecord
  2
GEVID1210825556
 70
     0
  0
APPID
  5
520
330
9
100
AcDbSymbolTableRecord
100
AcDbRegAppTableRecord
  2
GEVID1210825557
 70
     0
  0
APPID
  5
521
330
9
100
AcDbSymbolTableRecord
100
AcDbRegAppTableRecord
  2
GEVID1210825558
 70
     0
  0
APPID
  5
522
330
9
100
AcDbSymbolTableRecord
100
AcDbRegAppTableRecord
  2
GEVID1210825559
 70
     0
  0
APPID
  5
523
330
9
100
AcDbSymbolTableRecord
100
AcDbRegAppTableRecord
  2
GEVID1210825560
 70
     0
  0
APPID
  5
524
330
9
100
AcDbSymbolTableRecord
100
AcDbRegAppTableRecord
  2
GEVID1210825561
 70
     0
  0
APPID
  5
525
330
9
100
AcDbSymbolTableRecord
100
AcDbRegAppTableRecord
  2
GEVID1210825562
 70
     0
  0
APPID
  5
526
330
9
100
AcDbSymbolTableRecord
100
AcDbRegAppTableRecord
  2
GEVID1210825563
 70
     0
  0
APPID
  5
527
330
9
100
AcDbSymbolTableRecord
100
AcDbRegAppTableRecord
  2
GEVID1210825564
 70
     0
  0
APPID
  5
528
330
9
100
AcDbSymbolTableRecord
100
AcDbRegAppTableRecord
  2
GEVID1210825565
 70
     0
  0
APPID
  5
529
330
9
100
AcDbSymbolTableRecord
100
AcDbRegAppTableRecord
  2
GEVID1210825566
 70
     0
  0
APPID
  5
52A
330
9
100
AcDbSymbolTableRecord
100
AcDbRegAppTableRecord
  2
GEVID1210825567
 70
     0
  0
APPID
  5
52B
330
9
100
AcDbSymbolTableRecord
100
AcDbRegAppTableRecord
  2
GENIUS_GENOBJ-N-ZOO_13
 70
     0
  0
APPID
  5
52C
330
9
100
AcDbSymbolTableRecord
100
AcDbRegAppTableRecord
  2
GENIUS_GENZOO_17
 70
     0
  0
APPID
  5
52D
330
9
100
AcDbSymbolTableRecord
100
AcDbRegAppTableRecord
  2
ACADANNOTATIVEDECOMPOSITION
 70
     0
  0
APPID
  5
52E
330
9
100
AcDbSymbolTableRecord
100
AcDbRegAppTableRecord
  2
GENIUS_GENOBJ-N-HTC_13
 70
     0
  0
APPID
  5
52F
330
9
100
AcDbSymbolTableRecord
100
AcDbRegAppTableRecord
  2
GENIUS_GENHATCH_13
 70
     0
  0
APPID
  5
530
330
9
100
AcDbSymbolTableRecord
100
AcDbRegAppTableRecord
  2
GEVID1210896020
 70
     0
  0
APPID
  5
531
330
9
100
AcDbSymbolTableRecord
100
AcDbRegAppTableRecord
  2
GEVID1210896021
 70
     0
  0
APPID
  5
532
330
9
100
AcDbSymbolTableRecord
100
AcDbRegAppTableRecord
  2
GEVID1209083540
 70
     0
  0
APPID
  5
533
330
9
100
AcDbSymbolTableRecord
100
AcDbRegAppTableRecord
  2
GEVMK
 70
     0
  0
APPID
  5
534
330
9
100
AcDbSymbolTableRecord
100
AcDbRegAppTableRecord
  2
GEVID1209083542
 70
     0
  0
APPID
  5
535
330
9
100
AcDbSymbolTableRecord
100
AcDbRegAppTableRecord
  2
GEVID1209083543
 70
     0
  0
APPID
  5
536
330
9
100
AcDbSymbolTableRecord
100
AcDbRegAppTableRecord
  2
GEVID1209083544
 70
     0
  0
APPID
  5
537
330
9
100
AcDbSymbolTableRecord
100
AcDbRegAppTableRecord
  2
GEVID1209083545
 70
     0
  0
APPID
  5
538
330
9
100
AcDbSymbolTableRecord
100
AcDbRegAppTableRecord
  2
GEVID1209083546
 70
     0
  0
APPID
  5
539
330
9
100
AcDbSymbolTableRecord
100
AcDbRegAppTableRecord
  2
GEVID1209083547
 70
     0
  0
APPID
  5
53A
330
9
100
AcDbSymbolTableRecord
100
AcDbRegAppTableRecord
  2
GEVID1209083548
 70
     0
  0
APPID
  5
53B
330
9
100
AcDbSymbolTableRecord
100
AcDbRegAppTableRecord
  2
GEVID1209083549
 70
     0
  0
APPID
  5
53C
330
9
100
AcDbSymbolTableRecord
100
AcDbRegAppTableRecord
  2
GEVID1209083550
 70
     0
  0
APPID
  5
53D
330
9
100
AcDbSymbolTableRecord
100
AcDbRegAppTableRecord
  2
GEVID1209083551
 70
     0
  0
APPID
  5
53E
330
9
100
AcDbSymbolTableRecord
100
AcDbRegAppTableRecord
  2
GEVID1209083552
 70
     0
  0
APPID
  5
53F
330
9
100
AcDbSymbolTableRecord
100
AcDbRegAppTableRecord
  2
GEVID1209083553
 70
     0
  0
APPID
  5
540
330
9
100
AcDbSymbolTableRecord
100
AcDbRegAppTableRecord
  2
GEVID1210896022
 70
     0
  0
APPID
  5
541
330
9
100
AcDbSymbolTableRecord
100
AcDbRegAppTableRecord
  2
GEVID1211508364
 70
     0
  0
APPID
  5
542
330
9
100
AcDbSymbolTableRecord
100
AcDbRegAppTableRecord
  2
GEVID1211414908
 70
     0
  0
APPID
  5
543
330
9
100
AcDbSymbolTableRecord
100
AcDbRegAppTableRecord
  2
GEVID1211414909
 70
     0
  0
APPID
  5
544
330
9
100
AcDbSymbolTableRecord
100
AcDbRegAppTableRecord
  2
GEVID1211508359
 70
     0
  0
APPID
  5
545
330
9
100
AcDbSymbolTableRecord
100
AcDbRegAppTableRecord
  2
GEVID1211508360
 70
     0
  0
APPID
  5
546
330
9
100
AcDbSymbolTableRecord
100
AcDbRegAppTableRecord
  2
GEVID1211508361
 70
     0
  0
APPID
  5
547
330
9
100
AcDbSymbolTableRecord
100
AcDbRegAppTableRecord
  2
GEVID1211508362
 70
     0
  0
APPID
  5
548
330
9
100
AcDbSymbolTableRecord
100
AcDbRegAppTableRecord
  2
GEVID1211508363
 70
     0
  0
APPID
  5
549
330
9
100
AcDbSymbolTableRecord
100
AcDbRegAppTableRecord
  2
GEVID1211878469
 70
     0
  0
APPID
  5
54A
330
9
100
AcDbSymbolTableRecord
100
AcDbRegAppTableRecord
  2
GEVID1212642819
 70
     0
  0
APPID
  5
54B
330
9
100
AcDbSymbolTableRecord
100
AcDbRegAppTableRecord
  2
GEVID1212642820
 70
     0
  0
APPID
  5
54C
330
9
100
AcDbSymbolTableRecord
100
AcDbRegAppTableRecord
  2
GEVID1212642821
 70
     0
  0
APPID
  5
54D
330
9
100
AcDbSymbolTableRecord
100
AcDbRegAppTableRecord
  2
GEVID1212642822
 70
     0
  0
APPID
  5
54E
330
9
100
AcDbSymbolTableRecord
100
AcDbRegAppTableRecord
  2
GEVID1212642823
 70
     0
  0
APPID
  5
54F
330
9
100
AcDbSymbolTableRecord
100
AcDbRegAppTableRecord
  2
GEVID1212642825
 70
     0
  0
APPID
  5
550
330
9
100
AcDbSymbolTableRecord
100
AcDbRegAppTableRecord
  2
GEVID1212642826
 70
     0
  0
APPID
  5
551
330
9
100
AcDbSymbolTableRecord
100
AcDbRegAppTableRecord
  2
GEVID1212642827
 70
     0
  0
APPID
  5
552
330
9
100
AcDbSymbolTableRecord
100
AcDbRegAppTableRecord
  2
GEVID1212642828
 70
     0
  0
APPID
  5
553
330
9
100
AcDbSymbolTableRecord
100
AcDbRegAppTableRecord
  2
GEVID1212642831
 70
     0
  0
APPID
  5
554
330
9
100
AcDbSymbolTableRecord
100
AcDbRegAppTableRecord
  2
GEVID1212642834
 70
     0
  0
APPID
  5
555
330
9
100
AcDbSymbolTableRecord
100
AcDbRegAppTableRecord
  2
GEVID1212642835
 70
     0
  0
APPID
  5
556
330
9
100
AcDbSymbolTableRecord
100
AcDbRegAppTableRecord
  2
GEVID1212642836
 70
     0
  0
APPID
  5
557
330
9
100
AcDbSymbolTableRecord
100
AcDbRegAppTableRecord
  2
GEVID1212642837
 70
     0
  0
APPID
  5
558
330
9
100
AcDbSymbolTableRecord
100
AcDbRegAppTableRecord
  2
GEVID1212642839
 70
     0
  0
APPID
  5
559
330
9
100
AcDbSymbolTableRecord
100
AcDbRegAppTableRecord
  2
GEVID1212642840
 70
     0
  0
APPID
  5
55A
330
9
100
AcDbSymbolTableRecord
100
AcDbRegAppTableRecord
  2
GEVID1212642841
 70
     0
  0
APPID
  5
55B
330
9
100
AcDbSymbolTableRecord
100
AcDbRegAppTableRecord
  2
GEVID1212655312
 70
     0
  0
APPID
  5
55C
330
9
100
AcDbSymbolTableRecord
100
AcDbRegAppTableRecord
  2
GEVID1212655313
 70
     0
  0
APPID
  5
55D
330
9
100
AcDbSymbolTableRecord
100
AcDbRegAppTableRecord
  2
GEVID1212656533
 70
     0
  0
APPID
  5
55E
330
9
100
AcDbSymbolTableRecord
100
AcDbRegAppTableRecord
  2
GEVID1212656534
 70
     0
  0
APPID
  5
55F
330
9
100
AcDbSymbolTableRecord
100
AcDbRegAppTableRecord
  2
GEVID1212656535
 70
     0
  0
APPID
  5
560
330
9
100
AcDbSymbolTableRecord
100
AcDbRegAppTableRecord
  2
GEVID1212656536
 70
     0
  0
APPID
  5
561
330
9
100
AcDbSymbolTableRecord
100
AcDbRegAppTableRecord
  2
GEVID1212656538
 70
     0
  0
APPID
  5
562
330
9
100
AcDbSymbolTableRecord
100
AcDbRegAppTableRecord
  2
GEVID1212656541
 70
     0
  0
APPID
  5
563
330
9
100
AcDbSymbolTableRecord
100
AcDbRegAppTableRecord
  2
GEVID1212656543
 70
     0
  0
APPID
  5
564
330
9
100
AcDbSymbolTableRecord
100
AcDbRegAppTableRecord
  2
GENIUS_GENOBJ-F-PFASSM_13
 70
     0
  0
APPID
  5
565
330
9
100
AcDbSymbolTableRecord
100
AcDbRegAppTableRecord
  2
GEVID1212656544
 70
     0
  0
APPID
  5
566
330
9
100
AcDbSymbolTableRecord
100
AcDbRegAppTableRecord
  2
GEVID1212656545
 70
     0
  0
APPID
  5
567
330
9
100
AcDbSymbolTableRecord
100
AcDbRegAppTableRecord
  2
GEVID1212656546
 70
     0
  0
APPID
  5
568
330
9
100
AcDbSymbolTableRecord
100
AcDbRegAppTableRecord
  2
GEVID1212656547
 70
     0
  0
APPID
  5
569
330
9
100
AcDbSymbolTableRecord
100
AcDbRegAppTableRecord
  2
GEVID1212656548
 70
     0
  0
APPID
  5
56A
330
9
100
AcDbSymbolTableRecord
100
AcDbRegAppTableRecord
  2
GEVID1212656549
 70
     0
  0
APPID
  5
56B
330
9
100
AcDbSymbolTableRecord
100
AcDbRegAppTableRecord
  2
GEVID1212656550
 70
     0
  0
APPID
  5
56C
330
9
100
AcDbSymbolTableRecord
100
AcDbRegAppTableRecord
  2
GEVID1212656552
 70
     0
  0
APPID
  5
56D
330
9
100
AcDbSymbolTableRecord
100
AcDbRegAppTableRecord
  2
GEVID1212656553
 70
     0
  0
APPID
  5
56E
330
9
100
AcDbSymbolTableRecord
100
AcDbRegAppTableRecord
  2
GEVID1212656554
 70
     0
  0
APPID
  5
56F
330
9
100
AcDbSymbolTableRecord
100
AcDbRegAppTableRecord
  2
GEVID1212656555
 70
     0
  0
APPID
  5
570
330
9
100
AcDbSymbolTableRecord
100
AcDbRegAppTableRecord
  2
GEVID1212656556
 70
     0
  0
APPID
  5
571
330
9
100
AcDbSymbolTableRecord
100
AcDbRegAppTableRecord
  2
GEVID1212656557
 70
     0
  0
APPID
  5
572
330
9
100
AcDbSymbolTableRecord
100
AcDbRegAppTableRecord
  2
GEVID1212656559
 70
     0
  0
APPID
  5
573
330
9
100
AcDbSymbolTableRecord
100
AcDbRegAppTableRecord
  2
GEVID1212656560
 70
     0
  0
APPID
  5
574
330
9
100
AcDbSymbolTableRecord
100
AcDbRegAppTableRecord
  2
GEVID1212656561
 70
     0
  0
APPID
  5
575
330
9
100
AcDbSymbolTableRecord
100
AcDbRegAppTableRecord
  2
GEVID1212656562
 70
     0
  0
APPID
  5
576
330
9
100
AcDbSymbolTableRecord
100
AcDbRegAppTableRecord
  2
GEVID1212656563
 70
     0
  0
APPID
  5
577
330
9
100
AcDbSymbolTableRecord
100
AcDbRegAppTableRecord
  2
GEVID1212711781
 70
     0
  0
APPID
  5
578
330
9
100
AcDbSymbolTableRecord
100
AcDbRegAppTableRecord
  2
GEVID1212711782
 70
     0
  0
APPID
  5
579
330
9
100
AcDbSymbolTableRecord
100
AcDbRegAppTableRecord
  2
GEVID1212711783
 70
     0
  0
APPID
  5
57A
330
9
100
AcDbSymbolTableRecord
100
AcDbRegAppTableRecord
  2
GEVID1212711784
 70
     0
  0
APPID
  5
57B
330
9
100
AcDbSymbolTableRecord
100
AcDbRegAppTableRecord
  2
GEVID1212711788
 70
     0
  0
APPID
  5
57C
330
9
100
AcDbSymbolTableRecord
100
AcDbRegAppTableRecord
  2
GEVID1212711789
 70
     0
  0
APPID
  5
57D
330
9
100
AcDbSymbolTableRecord
100
AcDbRegAppTableRecord
  2
GEVID1212711790
 70
     0
  0
APPID
  5
57E
330
9
100
AcDbSymbolTableRecord
100
AcDbRegAppTableRecord
  2
GEVID1212711791
 70
     0
  0
APPID
  5
57F
330
9
100
AcDbSymbolTableRecord
100
AcDbRegAppTableRecord
  2
GEVID1212711792
 70
     0
  0
APPID
  5
580
330
9
100
AcDbSymbolTableRecord
100
AcDbRegAppTableRecord
  2
GEVID1212711793
 70
     0
  0
APPID
  5
581
330
9
100
AcDbSymbolTableRecord
100
AcDbRegAppTableRecord
  2
GEVID1212711794
 70
     0
  0
APPID
  5
582
330
9
100
AcDbSymbolTableRecord
100
AcDbRegAppTableRecord
  2
GEVID1212711795
 70
     0
  0
APPID
  5
583
330
9
100
AcDbSymbolTableRecord
100
AcDbRegAppTableRecord
  2
GEVID1212711797
 70
     0
  0
APPID
  5
584
330
9
100
AcDbSymbolTableRecord
100
AcDbRegAppTableRecord
  2
GEVID1212711798
 70
     0
  0
APPID
  5
585
330
9
100
AcDbSymbolTableRecord
100
AcDbRegAppTableRecord
  2
GEVID1212711799
 70
     0
  0
APPID
  5
586
330
9
100
AcDbSymbolTableRecord
100
AcDbRegAppTableRecord
  2
GEVID1212711800
 70
     0
  0
APPID
  5
587
330
9
100
AcDbSymbolTableRecord
100
AcDbRegAppTableRecord
  2
GEVID1212711801
 70
     0
  0
APPID
  5
588
330
9
100
AcDbSymbolTableRecord
100
AcDbRegAppTableRecord
  2
GEVID1212711802
 70
     0
  0
APPID
  5
589
330
9
100
AcDbSymbolTableRecord
100
AcDbRegAppTableRecord
  2
GEVID1212711803
 70
     0
  0
APPID
  5
58A
330
9
100
AcDbSymbolTableRecord
100
AcDbRegAppTableRecord
  2
GEVID1212711804
 70
     0
  0
APPID
  5
58B
330
9
100
AcDbSymbolTableRecord
100
AcDbRegAppTableRecord
  2
GEVID1212711805
 70
     0
  0
APPID
  5
58C
330
9
100
AcDbSymbolTableRecord
100
AcDbRegAppTableRecord
  2
GEVID1212711806
 70
     0
  0
APPID
  5
58D
330
9
100
AcDbSymbolTableRecord
100
AcDbRegAppTableRecord
  2
GEVID1212711807
 70
     0
  0
APPID
  5
58E
330
9
100
AcDbSymbolTableRecord
100
AcDbRegAppTableRecord
  2
GEVID1212711808
 70
     0
  0
APPID
  5
58F
330
9
100
AcDbSymbolTableRecord
100
AcDbRegAppTableRecord
  2
GEVID1212711809
 70
     0
  0
APPID
  5
590
330
9
100
AcDbSymbolTableRecord
100
AcDbRegAppTableRecord
  2
GEVID1212711810
 70
     0
  0
APPID
  5
591
330
9
100
AcDbSymbolTableRecord
100
AcDbRegAppTableRecord
  2
GEVID1212711811
 70
     0
  0
APPID
  5
90A
330
9
100
AcDbSymbolTableRecord
100
AcDbRegAppTableRecord
  2
GENIUS_GENTRA_14
 70
     0
  0
APPID
  5
919
330
9
100
AcDbSymbolTableRecord
100
AcDbRegAppTableRecord
  2
GENIUS_GENOBJ-N-TIT_13
 70
     0
  0
APPID
  5
91A
330
9
100
AcDbSymbolTableRecord
100
AcDbRegAppTableRecord
  2
GENIUS_GENTITLE_13
 70
     0
  0
APPID
  5
949
330
9
100
AcDbSymbolTableRecord
100
AcDbRegAppTableRecord
  2
GENIUS_GENBLLY_14
 70
     0
  0
APPID
  5
DDD
330
9
100
AcDbSymbolTableRecord
100
AcDbRegAppTableRecord
  2
GEVID1213165152
 70
     0
  0
APPID
  5
12F9
330
9
100
AcDbSymbolTableRecord
100
AcDbRegAppTableRecord
  2
AcDbDynamicBlockTrueName
 70
     0
  0
APPID
  5
12FA
330
9
100
AcDbSymbolTableRecord
100
AcDbRegAppTableRecord
  2
ACDBBLOCKREPETAG
 70
     0
  0
APPID
  5
1C15
330
9
100
AcDbSymbolTableRecord
100
AcDbRegAppTableRecord
  2
GEVID1214872427
 70
     0
  0
APPID
  5
1C2A
330
9
100
AcDbSymbolTableRecord
100
AcDbRegAppTableRecord
  2
GEVID1214872428
 70
     0
  0
APPID
  5
1C2F
330
9
100
AcDbSymbolTableRecord
100
AcDbRegAppTableRecord
  2
GEVID1214872429
 70
     0
  0
APPID
  5
1C33
330
9
100
AcDbSymbolTableRecord
100
AcDbRegAppTableRecord
  2
GEVID1214872430
 70
     0
  0
APPID
  5
1C3F
330
9
100
AcDbSymbolTableRecord
100
AcDbRegAppTableRecord
  2
GEVID1214872432
 70
     0
  0
APPID
  5
1C4E
330
9
100
AcDbSymbolTableRecord
100
AcDbRegAppTableRecord
  2
GEVID1214872433
 70
     0
  0
APPID
  5
20DC
330
9
100
AcDbSymbolTableRecord
100
AcDbRegAppTableRecord
  2
AcDbDynamicBlockGUID
 70
     0
  0
APPID
  5
20FD
330
9
100
AcDbSymbolTableRecord
100
AcDbRegAppTableRecord
  2
GENIUS_GENOBJ-N-REV_13
 70
     0
  0
APPID
  5
20FE
330
9
100
AcDbSymbolTableRecord
100
AcDbRegAppTableRecord
  2
GENIUS_GENOBJ-N-RSSYM_13
 70
     0
  0
APPID
  5
20FF
330
9
100
AcDbSymbolTableRecord
100
AcDbRegAppTableRecord
  2
GENIUS_GENSYMENT_13
 70
     0
  0
APPID
  5
2100
330
9
100
AcDbSymbolTableRecord
100
AcDbRegAppTableRecord
  2
GENIUS_GENSCSYM_13
 70
     0
  0
APPID
  5
563F
330
9
100
AcDbSymbolTableRecord
100
AcDbRegAppTableRecord
  2
GEVID1237347762
 70
     0
  0
APPID
  5
5E45
330
9
100
AcDbSymbolTableRecord
100
AcDbRegAppTableRecord
  2
GEVID1237347763
 70
     0
  0
APPID
  5
68D2
330
9
100
AcDbSymbolTableRecord
100
AcDbRegAppTableRecord
  2
GEVID1237347764
 70
     0
  0
APPID
  5
68E4
330
9
100
AcDbSymbolTableRecord
100
AcDbRegAppTableRecord
  2
GEVID1237347765
 70
     0
  0
APPID
  5
68E9
330
9
100
AcDbSymbolTableRecord
100
AcDbRegAppTableRecord
  2
GEVID1237347766
 70
     0
  0
ENDTAB
  0
TABLE
  2
DIMSTYLE
  5
A
330
0
100
AcDbSymbolTable
 70
    29
100
AcDbDimStyleTable
 71
     1
340
5AB
  0
DIMSTYLE
105
5AB
330
A
100
AcDbSymbolTableRecord
100
AcDbDimStyleTableRecord
  2
SEISA
 70
     0
  4
"
 40
2.5
 41
2.5
 42
0.625
 43
10.0
 44
0.625
 47
0.1
 48
0.1
 73
     0
 74
     0
 77
     3
 78
     8
 79
     2
 90
     1
140
3.5
141
0.0
143
0.0393701
146
0.71
147
1.5
172
     1
176
     3
177
     3
178
     3
271
     2
272
     2
283
     0
286
     8
340
5D5
341
69
342
69
371
    -1
372
    -1
1001
ACAD_DSTYLE_DIMJAG
1070
   388
1040
1.5
1001
ACAD_DSTYLE_DIMTALN
1070
   392
1070
     1
  0
DIMSTYLE
105
5E9
102
{ACAD_REACTORS
330
56DC
330
5718
330
5730
330
574C
330
57D6
330
5883
330
58A4
330
58BC
330
596A
330
5986
330
59DB
330
59F3
330
5A0B
330
5A23
330
770F
330
7741
330
7818
102
}
330
A
100
AcDbSymbolTableRecord
100
AcDbDimStyleTableRecord
  2
SEISA$0
 70
     0
  4
"
 40
2.5
 41
2.5
 42
0.625
 43
10.0
 44
0.625
 47
0.1
 48
0.1
 73
     0
 74
     0
 77
     3
 78
     8
 79
     2
 90
     1
140
3.5
141
0.0
143
0.0393701
146
0.71
147
1.5
172
     1
176
     3
177
     3
178
     3
271
     2
272
     2
283
     0
286
     8
340
5D5
341
69
342
69
371
    -1
372
    -1
  0
DIMSTYLE
105
7A5D
330
A
100
AcDbSymbolTableRecord
100
AcDbDimStyleTableRecord
  2
AM_ISO
 70
     0
  4
"
 41
2.5
 42
1.0
 43
10.0
 44
1.0
 47
0.1
 48
0.1
 73
     0
 74
     0
 77
     1
 78
     8
 79
     2
 90
     1
140
3.5
141
0.0
143
0.0393701
146
0.71
147
1.5
172
     1
176
   256
177
   256
178
     2
271
     2
272
     3
274
     4
283
     0
284
     8
340
11
371
    -1
372
    -1
  0
DIMSTYLE
105
7A5E
330
A
100
AcDbSymbolTableRecord
100
AcDbDimStyleTableRecord
  2
AM_ISO$3
 70
     0
  4
"
 41
2.5
 42
1.0
 43
10.0
 44
1.0
 47
0.1
 48
0.1
 73
     0
 77
     1
 78
     8
 79
     2
 90
     1
140
3.5
141
0.0
143
0.0393701
146
0.71
147
1.5
176
   256
177
   256
178
     2
271
     2
272
     3
274
     4
283
     0
284
     8
288
     1
289
     0
340
11
371
    -1
372
    -1
  0
DIMSTYLE
105
7A5F
330
A
100
AcDbSymbolTableRecord
100
AcDbDimStyleTableRecord
  2
AM_ISO$4
 70
     0
  4
"
 41
2.5
 42
1.0
 43
10.0
 44
1.0
 47
0.1
 48
0.1
 73
     0
 77
     1
 78
     8
 79
     2
 90
     1
140
3.5
141
0.0
143
0.0393701
146
0.71
147
1.5
176
   256
177
   256
178
     2
271
     2
272
     3
274
     4
283
     0
284
     8
288
     1
289
     0
340
11
371
    -1
372
    -1
  0
DIMSTYLE
105
7A60
330
A
100
AcDbSymbolTableRecord
100
AcDbDimStyleTableRecord
  2
AM_ISO$6
 70
     0
  4
"
 41
2.5
 42
1.0
 43
10.0
 44
1.0
 47
0.1
 48
0.1
 73
     0
 74
     0
 78
     8
 79
     2
 90
     1
140
3.5
141
0.0
143
0.0393701
146
0.71
147
1.5
172
     1
176
   256
177
   256
178
     2
271
     2
272
     3
274
     4
283
     0
284
     8
340
11
371
    -1
372
    -1
  0
DIMSTYLE
105
7A61
330
A
100
AcDbSymbolTableRecord
100
AcDbDimStyleTableRecord
  2
AM_ISO$7
 70
     0
  4
"
 41
2.5
 42
1.0
 43
10.0
 44
1.0
 47
0.1
 48
0.1
 73
     0
 74
     0
 77
     1
 78
     8
 79
     2
 90
     1
140
5.0
141
0.0
143
0.0393701
146
0.71
147
1.5
172
     1
176
   256
177
   256
178
     2
271
     2
272
     3
274
     4
283
     0
284
     8
340
11
371
    -1
372
    -1
  0
DIMSTYLE
105
7A62
330
A
100
AcDbSymbolTableRecord
100
AcDbDimStyleTableRecord
  2
AM_ISO$SF
 70
     0
  4
"
 41
2.5
 42
1.0
 43
10.0
 44
1.0
 47
0.1
 48
0.1
 73
     0
 74
     0
 75
     1
 76
     1
 77
     1
 78
     8
 79
     2
 90
     1
140
3.5
141
0.0
143
0.0393701
146
0.71
147
1.5
172
     1
176
   256
177
   256
178
     2
271
     2
272
     3
274
     4
283
     0
284
     8
340
11
371
    -1
372
    -1
  0
DIMSTYLE
105
7A63
330
A
100
AcDbSymbolTableRecord
100
AcDbDimStyleTableRecord
  2
AM_ISO$SH
 70
     0
  4
"
 41
2.5
 42
1.0
 43
10.0
 44
1.0
 47
0.1
 48
0.1
 73
     0
 74
     0
 75
     1
 76
     1
 77
     1
 78
     8
 79
     2
 90
     1
140
3.5
141
0.0
143
0.0393701
144
2.0
146
0.71
147
1.5
172
     1
173
     1
176
   256
177
   256
178
     2
271
     2
272
     3
274
     4
283
     0
284
     8
340
11
343
74
371
    -1
372
    -1
  0
ENDTAB
  0
TABLE
  2
BLOCK_RECORD
  5
1
330
0
100
AcDbSymbolTable
 70
    32
  0
BLOCK_RECORD
  5
1F
102
{ACAD_XDICTIONARY
360
82
102
}
330
1
100
AcDbSymbolTableRecord
100
AcDbBlockTableRecord
  2
*Model_Space
340
22
 70
     0
280
     1
281
     0
  0
BLOCK_RECORD
  5
1B
330
1
100
AcDbSymbolTableRecord
100
AcDbBlockTableRecord
  2
*Paper_Space
340
1E
 70
     0
280
     1
281
     0
  0
BLOCK_RECORD
  5
23
330
1
100
AcDbSymbolTableRecord
100
AcDbBlockTableRecord
  2
*Paper_Space0
340
26
 70
     0
280
     1
281
     0
  0
BLOCK_RECORD
  5
69
330
1
100
AcDbSymbolTableRecord
100
AcDbBlockTableRecord
  2
_Open30
340
0
102
{BLKREFS
331
7287
331
7288
331
7290
331
7291
331
729C
331
729D
331
72A4
331
72A5
331
72BF
331
72C0
331
72D1
331
72D2
331
72DE
331
72E9
331
72F0
331
72F1
331
72F9
331
72FA
331
7302
331
7303
331
730B
331
730C
331
77B5
331
77D2
331
786D
331
786E
331
796F
331
7970
102
}
 70
     0
280
     1
281
     0
  0
BLOCK_RECORD
  5
74
330
1
100
AcDbSymbolTableRecord
100
AcDbBlockTableRecord
  2
GENAXEH
340
0
 70
     0
280
     1
281
     0
  0
BLOCK_RECORD
  5
3499
102
{ACAD_XDICTIONARY
360
349A
102
}
330
1
100
AcDbSymbolTableRecord
100
AcDbBlockTableRecord
  2
ロッカクアナツキプラグ R1／8
340
0
310
2800000020000000200000000100080000000000000400000000000000000000000000000000000000000000000080000080000000808000800000008000800080800000C0C0C000C0DCC000F0CAA6000020400000206000002080000020A0000020C0000020E00000400000004020000040400000406000004080000040A0
310
000040C0000040E00000600000006020000060400000606000006080000060A0000060C0000060E00000800000008020000080400000806000008080000080A0000080C0000080E00000A0000000A0200000A0400000A0600000A0800000A0A00000A0C00000A0E00000C0000000C0200000C0400000C0600000C0800000C0
310
A00000C0C00000C0E00000E0000000E0200000E0400000E0600000E0800000E0A00000E0C00000E0E00040000000400020004000400040006000400080004000A0004000C0004000E00040200000402020004020400040206000402080004020A0004020C0004020E000404000004040200040404000404060004040800040
310
40A0004040C0004040E00040600000406020004060400040606000406080004060A0004060C0004060E00040800000408020004080400040806000408080004080A0004080C0004080E00040A0000040A0200040A0400040A0600040A0800040A0A00040A0C00040A0E00040C0000040C0200040C0400040C0600040C08000
310
40C0A00040C0C00040C0E00040E0000040E0200040E0400040E0600040E0800040E0A00040E0C00040E0E00080000000800020008000400080006000800080008000A0008000C0008000E00080200000802020008020400080206000802080008020A0008020C0008020E00080400000804020008040400080406000804080
310
008040A0008040C0008040E00080600000806020008060400080606000806080008060A0008060C0008060E00080800000808020008080400080806000808080008080A0008080C0008080E00080A0000080A0200080A0400080A0600080A0800080A0A00080A0C00080A0E00080C0000080C0200080C0400080C0600080C0
310
800080C0A00080C0C00080C0E00080E0000080E0200080E0400080E0600080E0800080E0A00080E0C00080E0E000C0000000C0002000C0004000C0006000C0008000C000A000C000C000C000E000C0200000C0202000C0204000C0206000C0208000C020A000C020C000C020E000C0400000C0402000C0404000C0406000C0
310
408000C040A000C040C000C040E000C0600000C0602000C0604000C0606000C0608000C060A000C060C000C060E000C0800000C0802000C0804000C0806000C0808000C080A000C080C000C080E000C0A00000C0A02000C0A04000C0A06000C0A08000C0A0A000C0A0C000C0A0E000C0C00000C0C02000C0C04000C0C06000
310
C0C08000C0C0A000F0FBFF00A4A0A000808080000000FF0000FF000000FFFF00FF000000FF00FF00FFFF0000FFFFFF0000000000000000000000000000000000000000000000000000000000000000000000000000000000000000000000000000000000000000000000000000000000000000000000000000000000000000
310
00F900000000000000000000000000000000000000000000000000000000000000F90000000000000000000000000000000000000000000000000000000000FFFFF9FFFF00000000000000000000000000000000000000000000000000FFFFFEFEF9FE00FFFF000000000000000000000000000000000000000000FFFFFEFE
310
0000F900FEFE00FF000000000000000000000000000000000000FFFFFEFE00000000F9000000FEFEFF00000000000000000000000000000000FF00FE000000000000F90000000000FEFFFF00000000000000000000000000FF00FE00000000000000F9000000000000FE00FF000000000000000000000000FFFE0000000000
310
000000FF00000000000000FEFF0000000000000000000000FFFE00000000000000FFFFF9FF00000000000000FE0000000000000000000000FFFE0000000000FFFF0000F900FFFF0000000000FEFF00000000000000000000FFFE00000000FF00000000F9000000FF00000000FEFF000000000000000000FF00FE00000000FF
310
00000000F9000000FF0000000000FEFF0000000000F9F9F9F9F9F9F9F9F9F9FFF9F9F9F9F9F9F9F9FFF9F9F9F9F9F9F9F9F9F90000000000FFFE0000000000FF00000000F9000000FF0000000000FEFF0000000000000000FF00FE00000000FF00000000F9000000FF00000000FEFF00000000000000000000FFFE00000000
310
FF00000000F9000000FF00000000FEFF00000000000000000000FFFE0000000000FFFF0000F90000FF0000000000FEFF00000000000000000000FFFE00000000000000FFFFF9FFFF000000000000FE000000000000000000000000FFFE0000000000000000FF00000000000000FEFF000000000000000000000000FF00FE00
310
000000000000F9000000000000FE00FF00000000000000000000000000FF00FE000000000000F90000000000FE00FF000000000000000000000000000000FF00FE0000000000F900000000FEFFFF0000000000000000000000000000000000FFFFFEFE000000F90000FEFEFF00000000000000000000000000000000000000
310
0000FFFFFEFEFEF9FEFEFFFF00000000000000000000000000000000000000000000000000FFFFF9FFFF0000000000000000000000000000000000000000000000000000000000F900000000000000000000000000000000000000000000000000000000000000F90000000000000000000000000000000000000000000000
310
0000000000000000000000000000000000000000000000000000000000000000000000000000000000000000000000000000000000000000
102
{BLKREFS
331
4EAC
102
}
 70
     4
280
     1
281
     0
  0
BLOCK_RECORD
  5
4E70
102
{ACAD_XDICTIONARY
360
4F44
102
}
330
1
100
AcDbSymbolTableRecord
100
AcDbBlockTableRecord
  2
ケースＡ SEM224
340
0
310
2800000020000000200000000100080000000000000400000000000000000000000000000000000000000000000080000080000000808000800000008000800080800000C0C0C000C0DCC000F0CAA6000020400000206000002080000020A0000020C0000020E00000400000004020000040400000406000004080000040A0
310
000040C0000040E00000600000006020000060400000606000006080000060A0000060C0000060E00000800000008020000080400000806000008080000080A0000080C0000080E00000A0000000A0200000A0400000A0600000A0800000A0A00000A0C00000A0E00000C0000000C0200000C0400000C0600000C0800000C0
310
A00000C0C00000C0E00000E0000000E0200000E0400000E0600000E0800000E0A00000E0C00000E0E00040000000400020004000400040006000400080004000A0004000C0004000E00040200000402020004020400040206000402080004020A0004020C0004020E000404000004040200040404000404060004040800040
310
40A0004040C0004040E00040600000406020004060400040606000406080004060A0004060C0004060E00040800000408020004080400040806000408080004080A0004080C0004080E00040A0000040A0200040A0400040A0600040A0800040A0A00040A0C00040A0E00040C0000040C0200040C0400040C0600040C08000
310
40C0A00040C0C00040C0E00040E0000040E0200040E0400040E0600040E0800040E0A00040E0C00040E0E00080000000800020008000400080006000800080008000A0008000C0008000E00080200000802020008020400080206000802080008020A0008020C0008020E00080400000804020008040400080406000804080
310
008040A0008040C0008040E00080600000806020008060400080606000806080008060A0008060C0008060E00080800000808020008080400080806000808080008080A0008080C0008080E00080A0000080A0200080A0400080A0600080A0800080A0A00080A0C00080A0E00080C0000080C0200080C0400080C0600080C0
310
800080C0A00080C0C00080C0E00080E0000080E0200080E0400080E0600080E0800080E0A00080E0C00080E0E000C0000000C0002000C0004000C0006000C0008000C000A000C000C000C000E000C0200000C0202000C0204000C0206000C0208000C020A000C020C000C020E000C0400000C0402000C0404000C0406000C0
310
408000C040A000C040C000C040E000C0600000C0602000C0604000C0606000C0608000C060A000C060C000C060E000C0800000C0802000C0804000C0806000C0808000C080A000C080C000C080E000C0A00000C0A02000C0A04000C0A06000C0A08000C0A0A000C0A0C000C0A0E000C0C00000C0C02000C0C04000C0C06000
310
C0C08000C0C0A000F0FBFF00A4A0A000808080000000FF0000FF000000FFFF00FF000000FF00FF00FFFF0000FFFFFF000000000000000000000000000000000000000000000000000000000000000000000000000000000000000000FFFF000000000000000000000000000000000000000000000000000000000000FF00FF
310
0000000000000000000000000000000000000000000000000000000000FF00FF0000000000000000000000000000000000000000000000000000000000FF00FF0000000000000000000000000000000000000000000000000000000000FF00FFFFFFFFFFFFFF0000000000000000000000000000000000000000000000FF00
310
FF0000000000FF0000000000000000000000000000000000000000000000FF00FF0000000000FF0000000000000000000000000000000000000000000000FF00FF0000000000FF0000000000000000000000000000000000000000000000FEF9FF0000000000FF0000000000000000000000000000000000000000000000FF
310
FFFF0000000000FF0000000000000000000000000000000000000000000000FFF9FF0000000000FF0000000000000000000000000000000000000000000000FF00FF0000000000FF0000000000000000000000000000000000000000000000FF00FF0000000000FF0000000000000000000000000000000000000000000000
310
FF00FF0000000000FF0000000000000000000000000000000000000000000000FF00FF0000000000FF0000000000000000000000000000000000000000000000FF00FF0000000000FF000000000000000000000000000000000000000000000000000000000000000000000000000000000000000000000000000000000000
310
00000000000000000000000000000000000000000000000000000000000000000000000000000000000000000000000000000000000000000000000000000000000000000000000000000000000000000000000000000000000000000000000000000000000000000000000000000000000000000000000000000000000000
310
0000000000000000000000000000000000000000000000000000000000000000000000000000FAFAFAFAFAFA000000000000000000000000000000000000000000FF000000000000FA00FAFA000000000000000000000000000000000000000000FF0000FFA4A4A4FFFFFF0000000000000000000000000000000000000000
310
0000FFFFFFFFFFFFFFFFFFFF0000000000000000000000000000000000000000000000FF00FF000000000000000000000000000000000000000000000000000000FFFFFFFFFF000000000000000000000000000000000000000000000000000000FFFFFFFFFF00000000000000000000000000000000000000000000000000
310
00000000FFFF0000000000000000000000000000000000000000000000000000000000000000000000000000000000000000000000000000
102
{BLKREFS
331
4EAD
102
}
 70
     4
280
     1
281
     0
  0
BLOCK_RECORD
  5
4FC9
102
{ACAD_XDICTIONARY
360
5065
102
}
330
1
100
AcDbSymbolTableRecord
100
AcDbBlockTableRecord
  2
リジット SEM224
340
0
310
2800000020000000200000000100080000000000000400000000000000000000000000000000000000000000000080000080000000808000800000008000800080800000C0C0C000C0DCC000F0CAA6000020400000206000002080000020A0000020C0000020E00000400000004020000040400000406000004080000040A0
310
000040C0000040E00000600000006020000060400000606000006080000060A0000060C0000060E00000800000008020000080400000806000008080000080A0000080C0000080E00000A0000000A0200000A0400000A0600000A0800000A0A00000A0C00000A0E00000C0000000C0200000C0400000C0600000C0800000C0
310
A00000C0C00000C0E00000E0000000E0200000E0400000E0600000E0800000E0A00000E0C00000E0E00040000000400020004000400040006000400080004000A0004000C0004000E00040200000402020004020400040206000402080004020A0004020C0004020E000404000004040200040404000404060004040800040
310
40A0004040C0004040E00040600000406020004060400040606000406080004060A0004060C0004060E00040800000408020004080400040806000408080004080A0004080C0004080E00040A0000040A0200040A0400040A0600040A0800040A0A00040A0C00040A0E00040C0000040C0200040C0400040C0600040C08000
310
40C0A00040C0C00040C0E00040E0000040E0200040E0400040E0600040E0800040E0A00040E0C00040E0E00080000000800020008000400080006000800080008000A0008000C0008000E00080200000802020008020400080206000802080008020A0008020C0008020E00080400000804020008040400080406000804080
310
008040A0008040C0008040E00080600000806020008060400080606000806080008060A0008060C0008060E00080800000808020008080400080806000808080008080A0008080C0008080E00080A0000080A0200080A0400080A0600080A0800080A0A00080A0C00080A0E00080C0000080C0200080C0400080C0600080C0
310
800080C0A00080C0C00080C0E00080E0000080E0200080E0400080E0600080E0800080E0A00080E0C00080E0E000C0000000C0002000C0004000C0006000C0008000C000A000C000C000C000E000C0200000C0202000C0204000C0206000C0208000C020A000C020C000C020E000C0400000C0402000C0404000C0406000C0
310
408000C040A000C040C000C040E000C0600000C0602000C0604000C0606000C0608000C060A000C060C000C060E000C0800000C0802000C0804000C0806000C0808000C080A000C080C000C080E000C0A00000C0A02000C0A04000C0A06000C0A08000C0A0A000C0A0C000C0A0E000C0C00000C0C02000C0C04000C0C06000
310
C0C08000C0C0A000F0FBFF00A4A0A000808080000000FF0000FF000000FFFF00FF000000FF00FF00FFFF0000FFFFFF00000000000000000000000000000000000000000000000000000000000000000000000000000000000000000000000000000000000000FFFF0000000000000000000000000000000000000000000000
310
00000000000000FF00FF00000000000000000000000000000000000000000000000000000000F9F9F9F9F9F9000000000000000000000000000000000000000000000000000000FF000000000000000000000000000000000000000000000000000000000000FFFF000000000000000000000000000000000000FFFFFFFFFF
310
FFFFFFFFFFFFFF00FF000000000000000000000000000000000000FF000000000000000000FF0000FF000000000000000000000000000000000000FF000000000000000000FF0000FF000000000000000000000000000000000000FF000000000000000000FF0000FF000000000000000000000000000000000000FF000000
310
000000000000FF0000FF000000000000000000000000000000000000FF000000000000000000FF0000FF000000000000000000000000000000000000FF000000000000000000FF0000FF000000000000000000000000000000000000FF000000000000000000FF0000FF000000000000000000000000000000000000FF0000
310
00000000000000FF0000FF000000000000000000000000000000000000FF000000000000000000FF0000FF000000000000000000000000000000000000FF000000000000000000A4A4A4A4A40000000000000000000000000000000000FFFAFAFAFAFAFAFAFAFAFAFAFAFAFF0000000000000000000000000000000000FF00
310
00000000FAFAFA00000000FAFF00000000000000000000000000FAFAFAFAFF0000000000FAFAFA0000000000FF00000000000000000000000000000000FAFAFFFFFFFFFFFFFFFFFFFFFFFFFFFF0000000000000000000000000000000000FFFFFFFFFFFFFFFFFFFFFFFFFFFFFF0000000000000000000000000000000000FF
310
00000000000000000000000000FF0000000000000000000000000000000000FF00000000000000000000000000FF0000000000000000000000000000000000FF00000000000000000000000000FF0000000000000000000000000000000000FFFFFFFFFFFFFFFFFFFFFF000000FF0000000000000000000000000000000000
310
0000000000000000000000FFFF00FFFF0000000000000000000000000000000000000000000000000000000000FF00000000000000000000000000000000000000000000000000000000000000FF00000000000000000000000000000000000000000000000000000000000000FF00FF000000000000000000000000000000
310
0000000000000000000000000000FFFF00000000000000000000000000000000000000000000000000000000000000000000000000000000
102
{BLKREFS
331
4FF3
102
}
 70
     4
280
     1
281
     0
  0
BLOCK_RECORD
  5
50A8
102
{ACAD_XDICTIONARY
360
5129
102
}
330
1
100
AcDbSymbolTableRecord
100
AcDbBlockTableRecord
  2
センタ SEM224
340
0
310
2800000020000000200000000100080000000000000400000000000000000000000000000000000000000000000080000080000000808000800000008000800080800000C0C0C000C0DCC000F0CAA6000020400000206000002080000020A0000020C0000020E00000400000004020000040400000406000004080000040A0
310
000040C0000040E00000600000006020000060400000606000006080000060A0000060C0000060E00000800000008020000080400000806000008080000080A0000080C0000080E00000A0000000A0200000A0400000A0600000A0800000A0A00000A0C00000A0E00000C0000000C0200000C0400000C0600000C0800000C0
310
A00000C0C00000C0E00000E0000000E0200000E0400000E0600000E0800000E0A00000E0C00000E0E00040000000400020004000400040006000400080004000A0004000C0004000E00040200000402020004020400040206000402080004020A0004020C0004020E000404000004040200040404000404060004040800040
310
40A0004040C0004040E00040600000406020004060400040606000406080004060A0004060C0004060E00040800000408020004080400040806000408080004080A0004080C0004080E00040A0000040A0200040A0400040A0600040A0800040A0A00040A0C00040A0E00040C0000040C0200040C0400040C0600040C08000
310
40C0A00040C0C00040C0E00040E0000040E0200040E0400040E0600040E0800040E0A00040E0C00040E0E00080000000800020008000400080006000800080008000A0008000C0008000E00080200000802020008020400080206000802080008020A0008020C0008020E00080400000804020008040400080406000804080
310
008040A0008040C0008040E00080600000806020008060400080606000806080008060A0008060C0008060E00080800000808020008080400080806000808080008080A0008080C0008080E00080A0000080A0200080A0400080A0600080A0800080A0A00080A0C00080A0E00080C0000080C0200080C0400080C0600080C0
310
800080C0A00080C0C00080C0E00080E0000080E0200080E0400080E0600080E0800080E0A00080E0C00080E0E000C0000000C0002000C0004000C0006000C0008000C000A000C000C000C000E000C0200000C0202000C0204000C0206000C0208000C020A000C020C000C020E000C0400000C0402000C0404000C0406000C0
310
408000C040A000C040C000C040E000C0600000C0602000C0604000C0606000C0608000C060A000C060C000C060E000C0800000C0802000C0804000C0806000C0808000C080A000C080C000C080E000C0A00000C0A02000C0A04000C0A06000C0A08000C0A0A000C0A0C000C0A0E000C0C00000C0C02000C0C04000C0C06000
310
C0C08000C0C0A000F0FBFF00A4A0A000808080000000FF0000FF000000FFFF00FF000000FF00FF00FFFF0000FFFFFF00000000000000000000000000000000000000000000000000000000000000000000000000000000000000000000000000FFFFFF00000000000000000000000000000000000000000000000000000000
310
000000FFFFFFFFFFFFFFFFFF0000000000000000000000000000000000000000000000FFFF000000000000FF0000000000000000000000000000000000000000000000FFFF000000000000FF0000000000000000000000000000000000000000000000FFFF000000000000FF00000000000000000000000000000000000000
310
00000000FFFF000000000000FF0000000000000000000000000000000000000000000000FFFF000000000000FF0000000000000000000000000000000000000000000000FFFF000000000000FF0000000000000000000000000000000000000000000000FFFF000000000000FF000000000000000000000000000000000000
310
0000000000FFFF000000000000FF0000000000000000000000000000000000000000000000FFFF000000000000FF0000000000000000000000000000000000000000000000FFFF000000000000FF0000000000000000000000000000000000000000000000FFFF000000000000FF00000000000000000000FF00000000A4A4
310
000000000000FFFF0000000000FFFF00000000000000000000A4A4A4A4A4A4A400000000000000000000000000FFFF00000000000000000000FF00000000000000000000000000000000000000FFFF00000000000000000000FF00000000000000000000000000000000000000FFFF00000000000000000000FF0000000000
310
0000000000000000000000000000FFFF00000000000000000000FF00000000000000000000000000000000000000FFFF00000000000000000000FF00000000000000000000000000000000000000FFFF00000000000000000000FFFFFFFFFFFFFFFFFFFFFFFFFFFFFFFFFFFFFFFFFFFF00000000000000000000FFFFFFFFFF
310
FFFFFFFFFFFFFFFFFFFFFFFFFFFFFFFFFF00000000000000000000FF0000000000000000000000000000000000000000FF00000000000000000000FF0000000000000000000000000000000000000000FF00000000000000000000FF0000000000000000000000000000000000000000FF00000000000000000000FF000000
310
0000000000000000000000000000000000FF00000000000000000000FFFFFFFFFF00F900FFFFFFFFFFFFFFFFFFFFFFFFFFFF00000000000000000000000000F9FFF9F9F9FF000000000000000000000000000000000000000000000000000000FFFFF9FFFF0000000000000000000000000000000000000000000000000000
310
000000F900000000000000000000000000000000000000000000000000000000000000000000000000000000000000000000000000000000
102
{BLKREFS
331
50CE
102
}
 70
     4
280
     1
281
     0
  0
BLOCK_RECORD
  5
525C
102
{ACAD_XDICTIONARY
360
536E
102
}
330
1
100
AcDbSymbolTableRecord
100
AcDbBlockTableRecord
  2
リーマボルト SEM224 M10
340
0
310
2800000020000000200000000100080000000000000400000000000000000000000000000000000000000000000080000080000000808000800000008000800080800000C0C0C000C0DCC000F0CAA6000020400000206000002080000020A0000020C0000020E00000400000004020000040400000406000004080000040A0
310
000040C0000040E00000600000006020000060400000606000006080000060A0000060C0000060E00000800000008020000080400000806000008080000080A0000080C0000080E00000A0000000A0200000A0400000A0600000A0800000A0A00000A0C00000A0E00000C0000000C0200000C0400000C0600000C0800000C0
310
A00000C0C00000C0E00000E0000000E0200000E0400000E0600000E0800000E0A00000E0C00000E0E00040000000400020004000400040006000400080004000A0004000C0004000E00040200000402020004020400040206000402080004020A0004020C0004020E000404000004040200040404000404060004040800040
310
40A0004040C0004040E00040600000406020004060400040606000406080004060A0004060C0004060E00040800000408020004080400040806000408080004080A0004080C0004080E00040A0000040A0200040A0400040A0600040A0800040A0A00040A0C00040A0E00040C0000040C0200040C0400040C0600040C08000
310
40C0A00040C0C00040C0E00040E0000040E0200040E0400040E0600040E0800040E0A00040E0C00040E0E00080000000800020008000400080006000800080008000A0008000C0008000E00080200000802020008020400080206000802080008020A0008020C0008020E00080400000804020008040400080406000804080
310
008040A0008040C0008040E00080600000806020008060400080606000806080008060A0008060C0008060E00080800000808020008080400080806000808080008080A0008080C0008080E00080A0000080A0200080A0400080A0600080A0800080A0A00080A0C00080A0E00080C0000080C0200080C0400080C0600080C0
310
800080C0A00080C0C00080C0E00080E0000080E0200080E0400080E0600080E0800080E0A00080E0C00080E0E000C0000000C0002000C0004000C0006000C0008000C000A000C000C000C000E000C0200000C0202000C0204000C0206000C0208000C020A000C020C000C020E000C0400000C0402000C0404000C0406000C0
310
408000C040A000C040C000C040E000C0600000C0602000C0604000C0606000C0608000C060A000C060C000C060E000C0800000C0802000C0804000C0806000C0808000C080A000C080C000C080E000C0A00000C0A02000C0A04000C0A06000C0A08000C0A0A000C0A0C000C0A0E000C0C00000C0C02000C0C04000C0C06000
310
C0C08000C0C0A000F0FBFF00A4A0A000808080000000FF0000FF000000FFFF00FF000000FF00FF00FFFF0000FFFFFF0000000000000000000000000000000000000000000000000000000000000000000000000000000000000000000000000000000000000000000000000000000000000000000000000000000000000000
310
00000000000000000000000000000000000000000000000000000000000000000000000000000000000000000000000000000000000000000000000000000000000000000000000000000000000000000000000000000000000000000000000000000000000000000000000000000000000000000000000000000000000000
310
0000000000000000000000000000000000000000000000000000000000000000000000000000000000000000000000000000000000000000000000000000000000000000000000000000000000000000000000000000000000000000000000000000000000000000000000000000000000000000FFFFFFFF00000000000000
310
00000000000000000000FFFFFFFFFF0000000000FFFF000000000000000000000000000000000000FFFFFF000000FF0000000000FFFF0000000000000000000000000000000000000000FF000000FF0000000000FFFFFFFFFFFF00000000000000000000000000FFFF00FFFFFFFFFFFFFFFF0000FFFF000000FF0000000000
310
0000000000000000FF0000FF000000FF00FFFF0000FFFF000000FF00000000000000000000000000FFFF00FF000000FF00FFFF0000FFFF000000FF00000000000000000000000000FF00FFFF000000FF00FFFF0000FFFF000000FF00000000000000000000000000FF0000FF000000FF00FFFF0000FFFFFFFFFFFF00000000
310
000000000000000000FFFF00FFFFFFFFFFFFFFFF0000FFFF0000000000000000000000000000000000000000FF000000FF0000000000FFFF000000000000000000000000000000000000FFFFFF000000FF000000000000FFFFFFFF0000000000000000000000000000000000FFFFFFFFFF0000000000000000000000000000
310
00000000000000000000000000000000000000000000000000000000000000000000000000000000000000000000000000000000000000000000000000000000000000000000000000000000000000000000000000000000000000000000000000000000000000000000000000000000000000000000000000000000000000
310
00000000000000000000000000000000000000000000000000000000000000000000000000000000000000000000000000000000000000000000000000000000000000000000000000000000000000000000000000000000000000000000000000000000000000000000000000000000000000000000000000000000000000
310
0000000000000000000000000000000000000000000000000000000000000000000000000000000000000000000000000000000000000000
102
{BLKREFS
331
528D
102
}
 70
     4
280
     1
281
     0
  0
BLOCK_RECORD
  5
56DD
330
1
100
AcDbSymbolTableRecord
100
AcDbBlockTableRecord
  2
*D11
340
0
 70
     0
280
     1
281
     0
  0
BLOCK_RECORD
  5
5719
330
1
100
AcDbSymbolTableRecord
100
AcDbBlockTableRecord
  2
*D12
340
0
 70
     0
280
     1
281
     0
  0
BLOCK_RECORD
  5
5731
330
1
100
AcDbSymbolTableRecord
100
AcDbBlockTableRecord
  2
*D13
340
0
 70
     0
280
     1
281
     0
  0
BLOCK_RECORD
  5
574D
330
1
100
AcDbSymbolTableRecord
100
AcDbBlockTableRecord
  2
*D14
340
0
 70
     0
280
     1
281
     0
  0
BLOCK_RECORD
  5
57D7
330
1
100
AcDbSymbolTableRecord
100
AcDbBlockTableRecord
  2
*D15
340
0
 70
     0
280
     1
281
     0
  0
BLOCK_RECORD
  5
5884
330
1
100
AcDbSymbolTableRecord
100
AcDbBlockTableRecord
  2
*D16
340
0
 70
     0
280
     1
281
     0
  0
BLOCK_RECORD
  5
58A5
330
1
100
AcDbSymbolTableRecord
100
AcDbBlockTableRecord
  2
*D17
340
0
 70
     0
280
     1
281
     0
  0
BLOCK_RECORD
  5
58BD
330
1
100
AcDbSymbolTableRecord
100
AcDbBlockTableRecord
  2
*D18
340
0
 70
     0
280
     1
281
     0
  0
BLOCK_RECORD
  5
596B
330
1
100
AcDbSymbolTableRecord
100
AcDbBlockTableRecord
  2
*D19
340
0
 70
     0
280
     1
281
     0
  0
BLOCK_RECORD
  5
5987
330
1
100
AcDbSymbolTableRecord
100
AcDbBlockTableRecord
  2
*D20
340
0
 70
     0
280
     1
281
     0
  0
BLOCK_RECORD
  5
59DC
330
1
100
AcDbSymbolTableRecord
100
AcDbBlockTableRecord
  2
*D21
340
0
 70
     0
280
     1
281
     0
  0
BLOCK_RECORD
  5
59F4
330
1
100
AcDbSymbolTableRecord
100
AcDbBlockTableRecord
  2
*D22
340
0
 70
     0
280
     1
281
     0
  0
BLOCK_RECORD
  5
5A0C
330
1
100
AcDbSymbolTableRecord
100
AcDbBlockTableRecord
  2
*D23
340
0
 70
     0
280
     1
281
     0
  0
BLOCK_RECORD
  5
5A24
330
1
100
AcDbSymbolTableRecord
100
AcDbBlockTableRecord
  2
*D24
340
0
 70
     0
280
     1
281
     0
  0
BLOCK_RECORD
  5
6C60
330
1
100
AcDbSymbolTableRecord
100
AcDbBlockTableRecord
  2
GENDOT
340
0
102
{BLKREFS
331
72DD
331
72E8
102
}
 70
     0
280
     1
281
     0
  0
BLOCK_RECORD
  5
7710
330
1
100
AcDbSymbolTableRecord
100
AcDbBlockTableRecord
  2
*D26
340
0
 70
     0
280
     1
281
     0
  0
BLOCK_RECORD
  5
7742
330
1
100
AcDbSymbolTableRecord
100
AcDbBlockTableRecord
  2
*D27
340
0
 70
     0
280
     1
281
     0
  0
BLOCK_RECORD
  5
77A0
330
1
100
AcDbSymbolTableRecord
100
AcDbBlockTableRecord
  2
_DotSmall
340
0
102
{BLKREFS
331
77B4
331
77C6
331
77C7
331
77D3
102
}
 70
     0
280
     1
281
     0
  0
BLOCK_RECORD
  5
7819
330
1
100
AcDbSymbolTableRecord
100
AcDbBlockTableRecord
  2
*D29
340
0
 70
     0
280
     1
281
     0
  0
BLOCK_RECORD
  5
7994
330
1
100
AcDbSymbolTableRecord
100
AcDbBlockTableRecord
  2
ケース
340
0
310
2800000020000000200000000100080000000000000400000000000000000000000000000000000000000000000080000080000000808000800000008000800080800000C0C0C000C0DCC000F0CAA6000020400000206000002080000020A0000020C0000020E00000400000004020000040400000406000004080000040A0
310
000040C0000040E00000600000006020000060400000606000006080000060A0000060C0000060E00000800000008020000080400000806000008080000080A0000080C0000080E00000A0000000A0200000A0400000A0600000A0800000A0A00000A0C00000A0E00000C0000000C0200000C0400000C0600000C0800000C0
310
A00000C0C00000C0E00000E0000000E0200000E0400000E0600000E0800000E0A00000E0C00000E0E00040000000400020004000400040006000400080004000A0004000C0004000E00040200000402020004020400040206000402080004020A0004020C0004020E000404000004040200040404000404060004040800040
310
40A0004040C0004040E00040600000406020004060400040606000406080004060A0004060C0004060E00040800000408020004080400040806000408080004080A0004080C0004080E00040A0000040A0200040A0400040A0600040A0800040A0A00040A0C00040A0E00040C0000040C0200040C0400040C0600040C08000
310
40C0A00040C0C00040C0E00040E0000040E0200040E0400040E0600040E0800040E0A00040E0C00040E0E00080000000800020008000400080006000800080008000A0008000C0008000E00080200000802020008020400080206000802080008020A0008020C0008020E00080400000804020008040400080406000804080
310
008040A0008040C0008040E00080600000806020008060400080606000806080008060A0008060C0008060E00080800000808020008080400080806000808080008080A0008080C0008080E00080A0000080A0200080A0400080A0600080A0800080A0A00080A0C00080A0E00080C0000080C0200080C0400080C0600080C0
310
800080C0A00080C0C00080C0E00080E0000080E0200080E0400080E0600080E0800080E0A00080E0C00080E0E000C0000000C0002000C0004000C0006000C0008000C000A000C000C000C000E000C0200000C0202000C0204000C0206000C0208000C020A000C020C000C020E000C0400000C0402000C0404000C0406000C0
310
408000C040A000C040C000C040E000C0600000C0602000C0604000C0606000C0608000C060A000C060C000C060E000C0800000C0802000C0804000C0806000C0808000C080A000C080C000C080E000C0A00000C0A02000C0A04000C0A06000C0A08000C0A0A000C0A0C000C0A0E000C0C00000C0C02000C0C04000C0C06000
310
C0C08000C0C0A000F0FBFF00A4A0A000808080000000FF0000FF000000FFFF00FF000000FF00FF00FFFF0000FFFFFF0000000000000000000000000000000000000000000000000000000000000000000000000000000000000000000000000000000000000000000000000000000000000000000000000000000000000000
310
00000000000000000000000000000000000000000000000000000000000000000000000000000000000000000000000000000000000000000000000000000000000000000000000000000000000000000000000000000000000000000000000000000000000000000000000000000000000000000000000000000000000000
310
0000000000000000000000000000000000000000000000000000000000000000000000000000000000000000000000000000000000000000000000000000000000FC0000FC0000000000000000FC0000FC00000000000000000000000000000000FCFCFCFC0000000000000000FCFCFCFC0000000000000000000000000000
310
0000FC0000FC0000000000000000FC0000FC0000FCFCFCFCFCFCFCFCFC0000000000FC0000FC0000000000000000FC0000FC0000000000000000000000FC00000000FC0000FC0000000000000000FC0000FC0000FCFCFCFCFCFCFCFCFCFCFCFC0000FC000000FCFCFCFCFCFCFCFC000000FC0000000000000000000000FC00
310
000000FC0000000000000000000000000000FC0000000000000000000000FC00000000FC0000000000000000000000000000FC0000FCFCFCFCFCFCFCFCFCFCFCFCFCFC000000000000000000000000000000FC00000000000000000000000000000000000000000000000000000000000000FC000000000000000000000000
310
00000000000000000000000000000000000000FC00000000000000000000000000000000000000000000000000000000000000FC000000000000000000000000000000000000000000000000000000000000FC0000000000000000000000000000000000000000000000000000000000FCFC00000000000000000000000000
310
00000000000000000000000000000000FC000000000000FCFCFCFCFCFCFCFCFCFCFCFCFCFCFCFCFCFCFCFCFCFCFCFCFC00000000000000000000000000000000000000000000000000000000000000000000000000000000000000000000000000000000000000000000000000000000000000000000000000000000000000
310
00000000000000000000000000000000000000000000000000000000000000000000000000000000000000000000000000000000000000000000000000000000000000000000000000000000000000000000000000000000000000000000000000000000000000000000000000000000000000000000000000000000000000
310
0000000000000000000000000000000000000000000000000000000000000000000000000000000000000000000000000000000000000000
102
{BLKREFS
331
79AF
102
}
 70
     4
280
     1
281
     1
  0
ENDTAB
  0
ENDSEC
  0
SECTION
  2
BLOCKS
  0
BLOCK
  5
20
330
1F
100
AcDbEntity
  8
0
100
AcDbBlockBegin
  2
*Model_Space
 70
     0
 10
0.0
 20
0.0
 30
0.0
  3
*Model_Space
  1

  0
ENDBLK
  5
21
330
1F
100
AcDbEntity
  8
0
100
AcDbBlockEnd
  0
BLOCK
  5
1C
330
1B
100
AcDbEntity
 67
     1
  8
0
100
AcDbBlockBegin
  2
*Paper_Space
 70
     0
 10
0.0
 20
0.0
 30
0.0
  3
*Paper_Space
  1

  0
ENDBLK
  5
1D
330
1B
100
AcDbEntity
 67
     1
  8
0
100
AcDbBlockEnd
  0
BLOCK
  5
24
330
23
100
AcDbEntity
 67
     1
  8
0
100
AcDbBlockBegin
  2
*Paper_Space0
 70
     0
 10
0.0
 20
0.0
 30
0.0
  3
*Paper_Space0
  1

  0
ENDBLK
  5
25
330
23
100
AcDbEntity
 67
     1
  8
0
100
AcDbBlockEnd
  0
BLOCK
  5
6D
330
69
100
AcDbEntity
  8
0
100
AcDbBlockBegin
  2
_Open30
 70
     0
 10
0.0
 20
0.0
 30
0.0
  3
_Open30
  1

  0
LINE
  5
6A
330
69
100
AcDbEntity
  8
0
  6
ByBlock
 62
     0
370
    -2
100
AcDbLine
 10
-1.0
 20
0.26794919
 30
0.0
 11
0.0
 21
0.0
 31
0.0
  0
LINE
  5
6B
330
69
100
AcDbEntity
  8
0
  6
ByBlock
 62
     0
370
    -2
100
AcDbLine
 10
0.0
 20
0.0
 30
0.0
 11
-1.0
 21
-0.26794919
 31
0.0
  0
LINE
  5
6C
330
69
100
AcDbEntity
  8
0
  6
ByBlock
 62
     0
370
    -2
100
AcDbLine
 10
0.0
 20
0.0
 30
0.0
 11
-1.0
 21
0.0
 31
0.0
  0
ENDBLK
  5
6E
330
69
100
AcDbEntity
  8
0
100
AcDbBlockEnd
  0
BLOCK
  5
76
330
74
100
AcDbEntity
  8
0
100
AcDbBlockBegin
  2
GENAXEH
 70
     0
 10
0.0
 20
0.0
 30
0.0
  3
GENAXEH
  1

  0
LINE
  5
75
330
74
100
AcDbEntity
  8
0
100
AcDbLine
 10
-1.0
 20
0.0
 30
0.0
 11
1.0
 21
0.0
 31
0.0
  0
ENDBLK
  5
77
330
74
100
AcDbEntity
  8
0
100
AcDbBlockEnd
  0
BLOCK
  5
349C
330
3499
100
AcDbEntity
  8
0
100
AcDbBlockBegin
  2
ロッカクアナツキプラグ R1／8
 70
     0
 10
0.0
 20
0.0
 30
0.0
  3
ロッカクアナツキプラグ R1／8
  1

  0
CIRCLE
  5
4DE0
330
3499
100
AcDbEntity
  8
AM_0 外形線1
100
AcDbCircle
 10
0.0
 20
0.0
 30
0.0
 40
5.271232
  0
CIRCLE
  5
4DE1
330
3499
100
AcDbEntity
  8
AM_4 細線
100
AcDbCircle
 10
0.0
 20
0.0
 30
0.0
 40
4.816232
  0
LINE
  5
4DE2
330
3499
100
AcDbEntity
  8
AM_7 中心線
100
AcDbLine
 10
0.0
 20
6.489755000000058
 30
0.0
 11
0.0
 21
-6.489753999999947
 31
0.0
  0
LINE
  5
4DE3
330
3499
100
AcDbEntity
  8
AM_0 外形線1
100
AcDbLine
 10
0.0
 20
-2.514999999999872
 30
0.0
 11
2.178053999999974
 21
-1.257499999999936
 31
0.0
  0
LINE
  5
4DE4
330
3499
100
AcDbEntity
  8
AM_0 外形線1
100
AcDbLine
 10
-2.178053999999974
 20
-1.257499999999936
 30
0.0
 11
0.0
 21
-2.514999999999872
 31
0.0
  0
LINE
  5
4DE5
330
3499
100
AcDbEntity
  8
AM_7 中心線
100
AcDbLine
 10
-6.649706999999921
 20
0.0
 30
0.0
 11
6.649707000000034
 21
0.0
 31
0.0
  0
LINE
  5
4DE6
330
3499
100
AcDbEntity
  8
AM_0 外形線1
100
AcDbLine
 10
2.178053999999974
 20
1.257500000000163
 30
0.0
 11
0.0
 21
2.5150000000001
 31
0.0
  0
LINE
  5
4DE7
330
3499
100
AcDbEntity
  8
AM_0 外形線1
100
AcDbLine
 10
-2.178053999999974
 20
1.257500000000163
 30
0.0
 11
-2.178053999999974
 21
-1.257499999999936
 31
0.0
  0
LINE
  5
4DE8
330
3499
100
AcDbEntity
  8
AM_0 外形線1
100
AcDbLine
 10
0.0
 20
2.5150000000001
 30
0.0
 11
-2.178053999999974
 21
1.257500000000163
 31
0.0
  0
LINE
  5
4DE9
330
3499
100
AcDbEntity
  8
AM_0 外形線1
100
AcDbLine
 10
2.178053999999974
 20
-1.257499999999936
 30
0.0
 11
2.178053999999974
 21
1.257500000000163
 31
0.0
  0
ENDBLK
  5
34A7
330
3499
100
AcDbEntity
  8
0
100
AcDbBlockEnd
  0
BLOCK
  5
4E71
330
4E70
100
AcDbEntity
  8
0
100
AcDbBlockBegin
  2
ケースＡ SEM224
 70
     0
 10
0.0
 20
0.0
 30
0.0
  3
ケースＡ SEM224
  1

  0
LINE
  5
4E73
330
4E70
100
AcDbEntity
  8
AM_0 外形線1
100
AcDbLine
 10
0.0
 20
0.0
 30
0.0
 11
0.0
 21
-110.9999999999999
 31
0.0
  0
LINE
  5
4E74
330
4E70
100
AcDbEntity
  8
AM_0 外形線1
100
AcDbLine
 10
15.0
 20
-110.9999999999999
 30
0.0
 11
15.0
 21
0.0
 31
0.0
  0
ARC
  5
4E75
330
4E70
100
AcDbEntity
  8
AM_0 外形線1
100
AcDbCircle
 10
18.0
 20
-89.99999999999994
 30
0.0
 40
3.0
100
AcDbArc
 50
90.0
 51
180.0
  0
LINE
  5
4E76
330
4E70
100
AcDbEntity
  8
AM_0 外形線1
100
AcDbLine
 10
1.0
 20
-111.9999999999999
 30
0.0
 11
14.0
 21
-111.9999999999999
 31
0.0
  0
LINE
  5
4E77
330
4E70
100
AcDbEntity
  8
AM_0 外形線1
100
AcDbLine
 10
0.0
 20
-110.9999999999999
 30
0.0
 11
1.0
 21
-111.9999999999999
 31
0.0
  0
LINE
  5
4E78
330
4E70
100
AcDbEntity
  8
AM_0 外形線1
100
AcDbLine
 10
14.0
 20
-111.9999999999999
 30
0.0
 11
15.0
 21
-110.9999999999999
 31
0.0
  0
LINE
  5
4E79
330
4E70
100
AcDbEntity
  8
AM_0 外形線1
100
AcDbLine
 10
18.0
 20
-86.99999999999993
 30
0.0
 11
61.0
 21
-86.99999999999993
 31
0.0
  0
LINE
  5
4E7A
330
4E70
100
AcDbEntity
  8
AM_0 外形線1
100
AcDbLine
 10
65.0
 20
-79.14893699999997
 30
0.0
 11
65.0
 21
0.0
 31
0.0
  0
LINE
  5
4E7B
330
4E70
100
AcDbEntity
  8
AM_0 外形線1
100
AcDbLine
 10
65.0
 20
-82.99999999999995
 30
0.0
 11
65.0
 21
-79.14893699999997
 31
0.0
  0
ARC
  5
4E7C
330
4E70
100
AcDbEntity
  8
AM_0 外形線1
100
AcDbCircle
 10
61.0
 20
-82.99999999999995
 30
0.0
 40
4.0
100
AcDbArc
 50
270.0
 51
0.0
  0
LINE
  5
4E7D
330
4E70
100
AcDbEntity
  8
AM_7 中心線
 48
0.5
100
AcDbLine
 10
19.0
 20
77.5
 30
0.0
 11
49.0
 21
77.5
 31
0.0
  0
LINE
  5
4E7E
330
4E70
100
AcDbEntity
  8
AM_3 隠れ線
100
AcDbLine
 10
46.0
 20
75.5
 30
0.0
 11
24.0
 21
75.5
 31
0.0
  0
LINE
  5
4E7F
330
4E70
100
AcDbEntity
  8
AM_0 外形線1
100
AcDbLine
 10
18.0
 20
87.0
 30
0.0
 11
61.0
 21
87.0
 31
0.0
  0
LINE
  5
4E80
330
4E70
100
AcDbEntity
  8
AM_0 外形線1
100
AcDbLine
 10
21.0
 20
80.0
 30
0.0
 11
47.0
 21
80.0
 31
0.0
  0
LINE
  5
4E81
330
4E70
100
AcDbEntity
  8
AM_0 外形線1
100
AcDbLine
 10
-4.000000000000055
 20
80.5
 30
0.0
 11
-4.0
 21
84.50000000000001
 31
0.0
  0
LINE
  5
4E82
330
4E70
100
AcDbEntity
  8
AM_0 外形線1
100
AcDbLine
 10
20.0
 20
80.5
 30
0.0
 11
-4.0
 21
80.5
 31
0.0
  0
ARC
  5
4E83
330
4E70
100
AcDbEntity
  8
AM_0 外形線1
100
AcDbCircle
 10
20.0
 20
79.5
 30
0.0
 40
1.0
100
AcDbArc
 50
0.0
 51
90.0
  0
LINE
  5
4E84
330
4E70
100
AcDbEntity
  8
AM_0 外形線1
100
AcDbLine
 10
21.0
 20
76.5
 30
0.0
 11
21.0
 21
79.5
 31
0.0
  0
LINE
  5
4E85
330
4E70
100
AcDbEntity
  8
AM_0 外形線1
100
AcDbLine
 10
22.0
 20
75.5
 30
0.0
 11
21.0
 21
76.5
 31
0.0
  0
LINE
  5
4E86
330
4E70
100
AcDbEntity
  8
AM_0 外形線1
100
AcDbLine
 10
-3.5
 20
85.0
 30
0.0
 11
2.200000000000045
 21
85.0
 31
0.0
  0
LINE
  5
4E87
330
4E70
100
AcDbEntity
  8
AM_0 外形線1
100
AcDbLine
 10
-0.0000000000000568
 20
95.50000000000013
 30
0.0
 11
15.0
 21
95.5
 31
0.0
  0
LINE
  5
4E88
330
4E70
100
AcDbEntity
  8
AM_0 外形線1
100
AcDbLine
 10
0.0
 20
106.5
 30
0.0
 11
15.0
 21
106.5
 31
0.0
  0
LINE
  5
4E89
330
4E70
100
AcDbEntity
  8
AM_0 外形線1
100
AcDbLine
 10
-4.0
 20
84.50000000000001
 30
0.0
 11
-3.5
 21
85.0
 31
0.0
  0
ARC
  5
4E8A
330
4E70
100
AcDbEntity
  8
AM_0 外形線1
100
AcDbCircle
 10
18.0
 20
90.0
 30
0.0
 40
3.0
100
AcDbArc
 50
180.0
 51
270.0
  0
LINE
  5
4E8B
330
4E70
100
AcDbEntity
  8
AM_0 外形線1
100
AcDbLine
 10
15.0
 20
90.0
 30
0.0
 11
15.0
 21
111.0
 31
0.0
  0
LWPOLYLINE
  5
4E8C
330
4E70
100
AcDbEntity
  8
AM_0 外形線1
100
AcDbPolyline
 90
       73
 70
     0
 43
0.0
 10
1.350000000000022
 20
85.0
 10
1.467661000000019
 20
85.00837100000012
 10
1.58442500000001
 20
85.03342199999996
 10
1.699406000000066
 20
85.07496300000003
 10
1.811727000000018
 20
85.13267599999995
 10
1.920535000000085
 20
85.20612200000005
 10
2.024999999999976
 20
85.29474400000003
 10
2.12432799999999
 20
85.39786499999991
 10
2.217764000000101
 20
85.51470199999995
 10
2.304594000000065
 20
85.64436499999988
 10
2.384160000000064
 20
85.78586700000007
 10
2.455856000000038
 20
85.93813099999989
 10
2.519135000000119
 20
86.0999999999999
 10
2.57351600000004
 20
86.27023899999995
 10
2.618585000000051
 20
86.44755499999996
 10
2.653999999999995
 20
86.63059799999997
 10
2.679490999999984
 20
86.81797400000004
 10
2.694863000000054
 20
87.00825699999995
 10
2.700000000000044
 20
87.20000000000004
 10
2.694863000000054
 20
87.39174200000002
 10
2.679490999999984
 20
87.58202600000004
 10
2.653999999999995
 20
87.76940100000002
 10
2.618585000000051
 20
87.95244400000001
 10
2.57351600000004
 20
88.12976000000004
 10
2.519135000000119
 20
88.29999999999996
 10
2.455856000000038
 20
88.4618680000001
 10
2.384160000000064
 20
88.61413199999992
 10
2.304594000000065
 20
88.75563400000009
 10
2.217764000000101
 20
88.88529700000004
 10
2.12432799999999
 20
89.00213400000005
 10
2.024999999999976
 20
89.10525499999994
 10
1.920535000000085
 20
89.19387699999992
 10
1.811727000000018
 20
89.26732300000002
 10
1.699406000000066
 20
89.32503599999996
 10
1.58442500000001
 20
89.36657700000003
 10
1.467661000000019
 20
89.39162800000008
 10
1.350000000000022
 20
89.4000000000001
 10
1.232340000000021
 20
89.39162800000008
 10
1.115575000000034
 20
89.36657700000003
 10
1.000594999999975
 20
89.32503599999996
 10
0.8882730000000265
 20
89.26732300000002
 10
0.7794660000000704
 20
89.19387699999992
 10
0.6749999999999547
 20
89.10525499999994
 10
0.5756720000000543
 20
89.00213400000005
 10
0.4822370000000548
 20
88.88529700000004
 10
0.3954060000000936
 20
88.75563400000009
 10
0.3158400000000938
 20
88.61413199999992
 10
0.2441450000000032
 20
88.4618680000001
 10
0.1808660000000373
 20
88.29999999999996
 10
0.1264850000001161
 20
88.12976000000004
 10
0.0814149999999927
 20
87.95244400000001
 10
0.0460000000000491
 20
87.76940100000002
 10
0.0205100000000584
 20
87.58202600000004
 10
0.0051369999999906
 20
87.39174200000002
 10
0.0
 20
87.20000000000004
 10
0.0051369999999906
 20
87.00825699999995
 10
0.0205100000000584
 20
86.81797400000004
 10
0.0460000000000491
 20
86.63059799999997
 10
0.0814149999999927
 20
86.44755499999996
 10
0.1264850000001161
 20
86.27023899999995
 10
0.1808660000000373
 20
86.0999999999999
 10
0.2441450000000032
 20
85.93813099999989
 10
0.3158400000000938
 20
85.78586700000007
 10
0.3954060000000936
 20
85.64436499999988
 10
0.4822370000000548
 20
85.51470199999995
 10
0.5756720000000543
 20
85.39786499999991
 10
0.6749999999999547
 20
85.29474400000003
 10
0.7794660000000704
 20
85.20612200000005
 10
0.8882730000000265
 20
85.13267599999995
 10
1.000594999999975
 20
85.07496300000003
 10
1.115575000000034
 20
85.03342199999996
 10
1.232340000000021
 20
85.00837100000012
 10
1.350000000000022
 20
85.0
  0
LINE
  5
4E8D
330
4E70
100
AcDbEntity
  8
AM_0 外形線1
100
AcDbLine
 10
2.200000000000045
 20
89.4000000000001
 30
0.0
 11
0.0
 21
89.4000000000001
 31
0.0
  0
ARC
  5
4E8E
330
4E70
100
AcDbEntity
  8
AM_0 外形線1
100
AcDbCircle
 10
2.200000000000045
 20
88.90000000000009
 30
0.0
 40
0.5
100
AcDbArc
 50
0.0
 51
90.0
  0
LINE
  5
4E8F
330
4E70
100
AcDbEntity
  8
AM_0 外形線1
100
AcDbLine
 10
2.700000000000044
 20
85.5
 30
0.0
 11
2.700000000000044
 21
88.90000000000009
 31
0.0
  0
ARC
  5
4E90
330
4E70
100
AcDbEntity
  8
AM_0 外形線1
100
AcDbCircle
 10
2.200000000000045
 20
85.5
 30
0.0
 40
0.5
100
AcDbArc
 50
270.0
 51
0.0
  0
LINE
  5
4E91
330
4E70
100
AcDbEntity
  8
AM_0 外形線1
100
AcDbLine
 10
0.0
 20
89.4000000000001
 30
0.0
 11
0.0
 21
95.5
 31
0.0
  0
LINE
  5
4E92
330
4E70
100
AcDbEntity
  8
AM_0 外形線1
100
AcDbLine
 10
1.0
 20
112.0
 30
0.0
 11
14.0
 21
112.0
 31
0.0
  0
LINE
  5
4E93
330
4E70
100
AcDbEntity
  8
AM_0 外形線1
100
AcDbLine
 10
0.0
 20
106.5
 30
0.0
 11
0.0
 21
111.0
 31
0.0
  0
LINE
  5
4E94
330
4E70
100
AcDbEntity
  8
AM_0 外形線1
100
AcDbLine
 10
0.0
 20
111.0
 30
0.0
 11
1.0
 21
112.0
 31
0.0
  0
LINE
  5
4E95
330
4E70
100
AcDbEntity
  8
AM_0 外形線1
100
AcDbLine
 10
14.0
 20
112.0
 30
0.0
 11
15.0
 21
111.0
 31
0.0
  0
ARC
  5
4E96
330
4E70
100
AcDbEntity
  8
AM_0 外形線1
100
AcDbCircle
 10
61.0
 20
83.0
 30
0.0
 40
4.0
100
AcDbArc
 50
0.0
 51
90.0
  0
LWPOLYLINE
  5
4E97
330
4E70
100
AcDbEntity
  8
AM_0 外形線1
100
AcDbPolyline
 90
       73
 70
     0
 43
0.0
 10
62.29999999999995
 20
74.84999999999991
 10
62.28554000000007
 20
75.05481599999985
 10
62.24227000000007
 20
75.25807299999995
 10
62.17051800000014
 20
75.45822399999997
 10
62.07083199999999
 20
75.65374700000006
 10
61.94397000000003
 20
75.8431519999999
 10
61.79089700000009
 20
76.02500000000009
 10
61.61277800000005
 20
76.1979040000001
 10
61.41096900000001
 20
76.36055000000009
 10
61.18700600000011
 20
76.51170000000002
 10
60.9425930000001
 20
76.65020400000003
 10
60.67959100000006
 20
76.77500699999995
 10
60.39999999999999
 20
76.88515899999993
 10
60.10595000000001
 20
76.97982299999989
 10
59.7996770000001
 20
77.05827699999986
 10
59.48351300000002
 20
77.11992499999997
 10
59.15986299999997
 20
77.16429799999992
 10
58.83119199999999
 20
77.191057
 10
58.5
 20
77.20000000000005
 10
58.16880800000001
 20
77.191057
 10
57.84013700000002
 20
77.16429799999992
 10
57.51648799999998
 20
77.11992499999997
 10
57.20032400000001
 20
77.05827699999986
 10
56.8940510000001
 20
76.97982299999989
 10
56.60000000000001
 20
76.88515899999993
 10
56.32041000000004
 20
76.77500699999995
 10
56.05740700000001
 20
76.65020400000003
 10
55.81299399999999
 20
76.51170000000002
 10
55.58903100000009
 20
76.36055000000009
 10
55.38722200000006
 20
76.1979040000001
 10
55.20910400000001
 20
76.02500000000009
 10
55.05603100000008
 20
75.8431519999999
 10
54.92916800000012
 20
75.65374700000006
 10
54.82948199999999
 20
75.45822399999997
 10
54.75773100000004
 20
75.25807299999995
 10
54.71446000000003
 20
75.05481599999985
 10
54.70000000000005
 20
74.84999999999991
 10
54.71446000000003
 20
74.64518399999997
 10
54.75773100000004
 20
74.44192599999997
 10
54.82948199999999
 20
74.24177499999995
 10
54.92916800000012
 20
74.04625199999988
 10
55.05603100000008
 20
73.85684700000002
 10
55.20910400000001
 20
73.67499999999996
 10
55.38722200000006
 20
73.50209500000005
 10
55.58903100000009
 20
73.33944900000004
 10
55.81299399999999
 20
73.1882989999999
 10
56.05740700000001
 20
73.04979499999991
 10
56.32041000000004
 20
72.92499199999998
 10
56.60000000000001
 20
72.81484
 10
56.8940510000001
 20
72.72017600000005
 10
57.20032400000001
 20
72.64172200000007
 10
57.51648799999998
 20
72.58007399999995
 10
57.84013700000002
 20
72.53570100000001
 10
58.16880800000001
 20
72.50894199999994
 10
58.5
 20
72.5
 10
58.83119199999999
 20
72.50894199999994
 10
59.15986299999997
 20
72.53570100000001
 10
59.48351300000002
 20
72.58007399999995
 10
59.7996770000001
 20
72.64172200000007
 10
60.10595000000001
 20
72.72017600000005
 10
60.39999999999999
 20
72.81484
 10
60.67959100000006
 20
72.92499199999998
 10
60.9425930000001
 20
73.04979499999991
 10
61.18700600000011
 20
73.1882989999999
 10
61.41096900000001
 20
73.33944900000004
 10
61.61277800000005
 20
73.50209500000005
 10
61.79089700000009
 20
73.67499999999996
 10
61.94397000000003
 20
73.85684700000002
 10
62.07083199999999
 20
74.04625199999988
 10
62.17051800000014
 20
74.24177499999995
 10
62.24227000000007
 20
74.44192599999997
 10
62.28554000000007
 20
74.64518399999997
 10
62.29999999999995
 20
74.84999999999991
  0
LINE
  5
4E98
330
4E70
100
AcDbEntity
  8
AM_0 外形線1
100
AcDbLine
 10
61.79999999999996
 20
77.20000000000005
 30
0.0
 11
55.20000000000004
 21
77.20000000000005
 31
0.0
  0
LINE
  5
4E9A
330
4E70
100
AcDbEntity
  8
AM_0 外形線1
100
AcDbLine
 10
51.0
 20
80.5
 30
0.0
 11
48.0
 21
80.5
 31
0.0
  0
LINE
  5
4E9B
330
4E70
100
AcDbEntity
  8
AM_3 隠れ線
100
AcDbLine
 10
47.0
 20
76.5
 30
0.0
 11
46.0
 21
75.5
 31
0.0
  0
LINE
  5
4E9C
330
4E70
100
AcDbEntity
  8
AM_3 隠れ線
100
AcDbLine
 10
47.0
 20
78.90097100162961
 30
0.0
 11
47.0
 21
76.5
 31
0.0
  0
ARC
  5
4E9D
330
4E70
100
AcDbEntity
  8
AM_0 外形線1
100
AcDbCircle
 10
48.0
 20
79.5
 30
0.0
 40
1.0
100
AcDbArc
 50
90.0
 51
180.0
  0
ARC
  5
4E9E
330
4E70
100
AcDbEntity
  8
AM_0 外形線1
100
AcDbCircle
 10
51.0
 20
79.5
 30
0.0
 40
1.0
100
AcDbArc
 50
0.0
 51
90.0
  0
LINE
  5
4E9F
330
4E70
100
AcDbEntity
  8
AM_0 外形線1
100
AcDbLine
 10
52.0
 20
73.75
 30
0.0
 11
52.0
 21
79.5
 31
0.0
  0
LINE
  5
4EA0
330
4E70
100
AcDbEntity
  8
AM_0 外形線1
100
AcDbLine
 10
54.70000000000005
 20
73.75
 30
0.0
 11
52.0
 21
73.75
 31
0.0
  0
LINE
  5
4EA1
330
4E70
100
AcDbEntity
  8
AM_0 外形線1
100
AcDbLine
 10
54.70000000000005
 20
76.70000000000005
 30
0.0
 11
54.70000000000005
 21
73.75
 31
0.0
  0
ARC
  5
4EA2
330
4E70
100
AcDbEntity
  8
AM_0 外形線1
100
AcDbCircle
 10
55.20000000000004
 20
76.70000000000005
 30
0.0
 40
0.5
100
AcDbArc
 50
90.0
 51
180.0
  0
LINE
  5
4EA3
330
4E70
100
AcDbEntity
  8
AM_0 外形線1
100
AcDbLine
 10
54.70000000000005
 20
73.75
 30
0.0
 11
54.70000000000005
 21
72.5
 31
0.0
  0
LINE
  5
4EA4
330
4E70
100
AcDbEntity
  8
AM_0 外形線1
100
AcDbLine
 10
52.0
 20
73.75
 30
0.0
 11
52.0
 21
72.5
 31
0.0
  0
ARC
  5
4EA5
330
4E70
100
AcDbEntity
  8
AM_0 外形線1
100
AcDbCircle
 10
61.79999999999996
 20
76.70000000000005
 30
0.0
 40
0.5
100
AcDbArc
 50
0.0
 51
90.0
  0
LINE
  5
4EA6
330
4E70
100
AcDbEntity
  8
AM_0 外形線1
100
AcDbLine
 10
62.29999999999995
 20
73.75
 30
0.0
 11
62.29999999999995
 21
76.70000000000005
 31
0.0
  0
LINE
  5
4EA7
330
4E70
100
AcDbEntity
  8
AM_0 外形線1
100
AcDbLine
 10
65.0
 20
73.75
 30
0.0
 11
62.29999999999995
 21
73.75
 31
0.0
  0
LINE
  5
4EA8
330
4E70
100
AcDbEntity
  8
AM_0 外形線1
100
AcDbLine
 10
65.0
 20
83.0
 30
0.0
 11
65.0
 21
73.75
 31
0.0
  0
LINE
  5
4EA9
330
4E70
100
AcDbEntity
  8
AM_0 外形線1
100
AcDbLine
 10
65.0
 20
73.75
 30
0.0
 11
65.0
 21
72.5
 31
0.0
  0
LINE
  5
4EAA
330
4E70
100
AcDbEntity
  8
AM_0 外形線1
100
AcDbLine
 10
62.29999999999995
 20
73.75
 30
0.0
 11
62.29999999999995
 21
72.5
 31
0.0
  0
LINE
  5
4EAB
330
4E70
100
AcDbEntity
  8
AM_0 外形線1
100
AcDbLine
 10
47.0
 20
79.5
 30
0.0
 11
47.0
 21
78.90097100000001
 31
0.0
  0
INSERT
  5
4EAC
330
4E70
100
AcDbEntity
  8
AM_0 外形線1
100
AcDbBlockReference
  2
ロッカクアナツキプラグ R1／8
 10
7.5
 20
-44.18366000000007
 30
0.0
  0
LINE
  5
52CB
330
4E70
100
AcDbEntity
  8
AM_7 中心線
100
AcDbLine
 10
-27.0
 20
101.0
 30
0.0
 11
35.0
 21
101.0
 31
0.0
  0
LINE
  5
65D3
330
4E70
100
AcDbEntity
  8
AM_0 外形線1
100
AcDbLine
 10
24.0
 20
75.5
 30
0.0
 11
22.0
 21
75.5
 31
0.0
  0
ENDBLK
  5
4E72
330
4E70
100
AcDbEntity
  8
0
100
AcDbBlockEnd
  0
BLOCK
  5
4FCA
330
4FC9
100
AcDbEntity
  8
0
100
AcDbBlockBegin
  2
リジット SEM224
 70
     0
 10
0.0
 20
0.0
 30
0.0
  3
リジット SEM224
  1

  0
LINE
  5
4FCC
330
4FC9
100
AcDbEntity
  8
AM_0 外形線1
100
AcDbLine
 10
-15.0
 20
-110.9999999999999
 30
0.0
 11
-15.0
 21
0.0
 31
0.0
  0
LINE
  5
4FCD
330
4FC9
100
AcDbEntity
  8
AM_7 中心線
100
AcDbLine
 10
20.0
 20
-100.9999999999999
 30
0.0
 11
-20.0
 21
-100.9999999999999
 31
0.0
  0
LINE
  5
4FCE
330
4FC9
100
AcDbEntity
  8
AM_0 外形線1
100
AcDbLine
 10
-1.0
 20
-111.9999999999999
 30
0.0
 11
-14.0
 21
-111.9999999999999
 31
0.0
  0
LINE
  5
4FCF
330
4FC9
100
AcDbEntity
  8
AM_0 外形線1
100
AcDbLine
 10
-14.0
 20
-111.9999999999999
 30
0.0
 11
-15.0
 21
-110.9999999999999
 31
0.0
  0
LINE
  5
4FD0
330
4FC9
100
AcDbEntity
  8
AM_0 外形線1
100
AcDbLine
 10
0.0
 20
-110.9999999999999
 30
0.0
 11
-1.0
 21
-111.9999999999999
 31
0.0
  0
LINE
  5
4FD1
330
4FC9
100
AcDbEntity
  8
AM_0 外形線1
100
AcDbLine
 10
-42.54101899999989
 20
75.0
 30
0.0
 11
-114.0
 21
75.0
 31
0.0
  0
LINE
  5
4FD2
330
4FC9
100
AcDbEntity
  8
AM_0 外形線1
100
AcDbLine
 10
-42.54101899999989
 20
-74.99999999999992
 30
0.0
 11
-114.0
 21
-74.99999999999992
 31
0.0
  0
LINE
  5
4FD4
330
4FC9
100
AcDbEntity
  8
AM_0 外形線1
100
AcDbLine
 10
-118.0
 20
71.0
 30
0.0
 11
-118.0
 21
0.0
 31
0.0
  0
LINE
  5
4FD5
330
4FC9
100
AcDbEntity
  8
AM_0 外形線1
100
AcDbLine
 10
-118.0
 20
-70.99999999999993
 30
0.0
 11
-118.0
 21
0.0
 31
0.0
  0
ARC
  5
4FD6
330
4FC9
100
AcDbEntity
  8
AM_0 外形線1
100
AcDbCircle
 10
-114.0
 20
-70.99999999999993
 30
0.0
 40
4.0
100
AcDbArc
 50
180.0
 51
270.0
  0
ARC
  5
4FD7
330
4FC9
100
AcDbEntity
  8
AM_0 外形線1
100
AcDbCircle
 10
-114.0
 20
71.0
 30
0.0
 40
4.0
100
AcDbArc
 50
90.0
 51
180.0
  0
LINE
  5
4FD8
330
4FC9
100
AcDbEntity
  8
AM_0 外形線1
100
AcDbLine
 10
-6.0
 20
0.0
 30
0.0
 11
-6.0
 21
83.0
 31
0.0
  0
LINE
  5
4FD9
330
4FC9
100
AcDbEntity
  8
AM_0 外形線1
100
AcDbLine
 10
-39.0
 20
-74.99999999999992
 30
0.0
 11
-39.0
 21
0.0
 31
0.0
  0
LINE
  5
4FDA
330
4FC9
100
AcDbEntity
  8
AM_0 外形線1
100
AcDbLine
 10
-16.65835900000002
 20
-86.17082099999997
 30
0.0
 11
-35.83281499999998
 21
-76.583593
 31
0.0
  0
ARC
  5
4FDB
330
4FC9
100
AcDbEntity
  8
AM_0 外形線1
100
AcDbCircle
 10
-42.54101899999989
 20
-89.99999999999994
 30
0.0
 40
15.0
100
AcDbArc
 50
63.43494900000336
 51
90.0
  0
ARC
  5
4FDC
330
4FC9
100
AcDbEntity
  8
AM_0 外形線1
100
AcDbCircle
 10
-18.0
 20
-88.85410199999995
 30
0.0
 40
3.0
100
AcDbArc
 50
0.0
 51
63.43494900000336
  0
LINE
  5
4FDD
330
4FC9
100
AcDbEntity
  8
AM_3 隠れ線
100
AcDbLine
 10
-6.0
 20
5.0
 30
0.0
 11
-30.0
 21
5.0
 31
0.0
  0
LINE
  5
4FDE
330
4FC9
100
AcDbEntity
  8
AM_3 隠れ線
100
AcDbLine
 10
-6.0
 20
4.25
 30
0.0
 11
-35.0
 21
4.25
 31
0.0
  0
LINE
  5
4FDF
330
4FC9
100
AcDbEntity
  8
AM_3 隠れ線
100
AcDbLine
 10
-35.0
 20
4.25
 30
0.0
 11
-37.45373799999993
 21
0.0
 31
0.0
  0
LINE
  5
4FE0
330
4FC9
100
AcDbEntity
  8
AM_3 隠れ線
100
AcDbLine
 10
-35.0
 20
4.25
 30
0.0
 11
-35.0
 21
0.0
 31
0.0
  0
LINE
  5
4FE1
330
4FC9
100
AcDbEntity
  8
AM_3 隠れ線
100
AcDbLine
 10
-30.0
 20
5.0
 30
0.0
 11
-30.43301199999997
 21
4.25
 31
0.0
  0
LINE
  5
4FE2
330
4FC9
100
AcDbEntity
  8
AM_3 隠れ線
100
AcDbLine
 10
-30.0
 20
5.0
 30
0.0
 11
-30.0
 21
0.0
 31
0.0
  0
LINE
  5
4FE3
330
4FC9
100
AcDbEntity
  8
AM_3 隠れ線
100
AcDbLine
 10
-30.43301199999997
 20
4.25
 30
0.0
 11
-30.43301199999997
 21
0.0
 31
0.0
  0
LINE
  5
4FE4
330
4FC9
100
AcDbEntity
  8
AM_0 外形線1
100
AcDbLine
 10
-16.65835900000002
 20
86.17082000000003
 30
0.0
 11
-35.83281499999998
 21
76.58359199999996
 31
0.0
  0
ARC
  5
4FE5
330
4FC9
100
AcDbEntity
  8
AM_0 外形線1
100
AcDbCircle
 10
-4.0
 20
83.0
 30
0.0
 40
2.0
100
AcDbArc
 50
90.0
 51
180.0
  0
ARC
  5
4FE6
330
4FC9
100
AcDbEntity
  8
AM_0 外形線1
100
AcDbCircle
 10
-42.54101899999989
 20
90.0
 30
0.0
 40
15.0
100
AcDbArc
 50
270.0
 51
296.5650509999967
  0
LINE
  5
4FE8
330
4FC9
100
AcDbEntity
  8
AM_0 外形線1
100
AcDbLine
 10
-1.0
 20
112.0
 30
0.0
 11
-14.0
 21
112.0
 31
0.0
  0
LINE
  5
4FE9
330
4FC9
100
AcDbEntity
  8
AM_0 外形線1
100
AcDbLine
 10
-15.0
 20
88.854102
 30
0.0
 11
-15.0
 21
111.0
 31
0.0
  0
ARC
  5
4FEA
330
4FC9
100
AcDbEntity
  8
AM_0 外形線1
100
AcDbCircle
 10
-18.0
 20
88.854102
 30
0.0
 40
3.0
100
AcDbArc
 50
296.5650509999967
 51
0.0
  0
LINE
  5
4FEB
330
4FC9
100
AcDbEntity
  8
AM_0 外形線1
100
AcDbLine
 10
-14.0
 20
112.0
 30
0.0
 11
-15.0
 21
111.0
 31
0.0
  0
LINE
  5
4FEC
330
4FC9
100
AcDbEntity
  8
AM_0 外形線1
100
AcDbLine
 10
-0.5
 20
85.0
 30
0.0
 11
0.0
 21
85.5
 31
0.0
  0
LINE
  5
4FED
330
4FC9
100
AcDbEntity
  8
AM_0 外形線1
100
AcDbLine
 10
0.0
 20
111.0
 30
0.0
 11
-1.0
 21
112.0
 31
0.0
  0
LINE
  5
4FEF
330
4FC9
100
AcDbEntity
  8
AM_0 外形線1
100
AcDbLine
 10
-6.0
 20
37.5
 30
0.0
 11
-118.0
 21
37.5
 31
0.0
  0
LINE
  5
505F
330
4FC9
100
AcDbEntity
  8
AM_0 外形線1
100
AcDbLine
 10
-15.0
 20
95.5
 30
0.0
 11
0.0
 21
95.5
 31
0.0
  0
LINE
  5
5060
330
4FC9
100
AcDbEntity
  8
AM_0 外形線1
100
AcDbLine
 10
-15.0
 20
106.5
 30
0.0
 11
0.0
 21
106.5
 31
0.0
  0
LINE
  5
5061
330
4FC9
100
AcDbEntity
  8
AM_0 外形線1
100
AcDbLine
 10
0.0
 20
111.0
 30
0.0
 11
0.0
 21
106.5
 31
0.0
  0
LINE
  5
5062
330
4FC9
100
AcDbEntity
  8
AM_0 外形線1
100
AcDbLine
 10
0.0
 20
95.5
 30
0.0
 11
0.0
 21
85.5
 31
0.0
  0
LINE
  5
5063
330
4FC9
100
AcDbEntity
  8
AM_0 外形線1
100
AcDbLine
 10
-0.5
 20
85.0
 30
0.0
 11
-4.009153806010714
 21
84.99997905184921
 31
0.0
  0
LINE
  5
5064
330
4FC9
100
AcDbEntity
  8
AM_0 外形線1
100
AcDbLine
 10
0.0
 20
0.0
 30
0.0
 11
0.0
 21
-110.9999999999999
 31
0.0
  0
ENDBLK
  5
4FCB
330
4FC9
100
AcDbEntity
  8
0
100
AcDbBlockEnd
  0
BLOCK
  5
50A9
330
50A8
100
AcDbEntity
  8
0
100
AcDbBlockBegin
  2
センタ SEM224
 70
     0
 10
0.0
 20
0.0
 30
0.0
  3
センタ SEM224
  1

  0
LINE
  5
50AB
330
50A8
100
AcDbEntity
  8
AM_0 外形線1
100
AcDbLine
 10
0.0
 20
70.5
 30
0.0
 11
0.0
 21
0.0
 31
0.0
  0
LINE
  5
50AC
330
50A8
100
AcDbEntity
  8
AM_0 外形線1
100
AcDbLine
 10
112.0
 20
-67.90000000000003
 30
0.0
 11
112.0
 21
67.90000000000009
 31
0.0
  0
LINE
  5
50AD
330
50A8
100
AcDbEntity
  8
AM_3 隠れ線
100
AcDbLine
 10
0.0
 20
5.0
 30
0.0
 11
24.0
 21
5.0
 31
0.0
  0
LINE
  5
50AE
330
50A8
100
AcDbEntity
  8
AM_3 隠れ線
100
AcDbLine
 10
0.0
 20
4.25
 30
0.0
 11
29.0
 21
4.25
 31
0.0
  0
LINE
  5
50AF
330
50A8
100
AcDbEntity
  8
AM_3 隠れ線
100
AcDbLine
 10
24.0
 20
5.0
 30
0.0
 11
24.43301299999996
 21
4.25
 31
0.0
  0
LINE
  5
50B0
330
50A8
100
AcDbEntity
  8
AM_3 隠れ線
100
AcDbLine
 10
24.0
 20
0.0
 30
0.0
 11
24.0
 21
5.0
 31
0.0
  0
LINE
  5
50B1
330
50A8
100
AcDbEntity
  8
AM_3 隠れ線
100
AcDbLine
 10
24.43301299999996
 20
4.25
 30
0.0
 11
24.43301299999996
 21
0.0
 31
0.0
  0
LINE
  5
50B2
330
50A8
100
AcDbEntity
  8
AM_3 隠れ線
100
AcDbLine
 10
29.0
 20
4.25
 30
0.0
 11
31.45373900000004
 21
0.0
 31
0.0
  0
LINE
  5
50B3
330
50A8
100
AcDbEntity
  8
AM_3 隠れ線
100
AcDbLine
 10
29.0
 20
4.25
 30
0.0
 11
29.0
 21
0.0
 31
0.0
  0
LINE
  5
50B4
330
50A8
100
AcDbEntity
  8
AM_0 外形線1
100
AcDbLine
 10
73.0
 20
-71.90000000000003
 30
0.0
 11
73.0
 21
0.0
 31
0.0
  0
LINE
  5
50B5
330
50A8
100
AcDbEntity
  8
AM_0 外形線1
100
AcDbLine
 10
71.0
 20
-72.49999999999992
 30
0.0
 11
71.0
 21
0.0
 31
0.0
  0
LINE
  5
50B6
330
50A8
100
AcDbEntity
  8
AM_0 外形線1
100
AcDbLine
 10
73.0
 20
-71.90000000000003
 30
0.0
 11
108.0
 21
-71.90000000000003
 31
0.0
  0
LINE
  5
50B7
330
50A8
100
AcDbEntity
  8
AM_0 外形線1
100
AcDbLine
 10
59.0
 20
-72.49999999999992
 30
0.0
 11
71.0
 21
-72.49999999999992
 31
0.0
  0
LINE
  5
50B8
330
50A8
100
AcDbEntity
  8
AM_0 外形線1
100
AcDbLine
 10
71.0
 20
-72.49999999999992
 30
0.0
 11
73.0
 21
-71.90000000000003
 31
0.0
  0
ARC
  5
50B9
330
50A8
100
AcDbEntity
  8
AM_0 外形線1
100
AcDbCircle
 10
108.0
 20
-67.90000000000003
 30
0.0
 40
4.0
100
AcDbArc
 50
270.0
 51
0.0
  0
ARC
  5
50BC
330
50A8
100
AcDbEntity
  8
AM_0 外形線1
100
AcDbCircle
 10
28.5
 20
0.0
 30
0.0
 40
79.88500000000001
100
AcDbArc
 50
80.99765200000881
 51
96.82983199999107
  0
LINE
  5
50BD
330
50A8
100
AcDbEntity
  8
AM_7 中心線
 48
0.5
100
AcDbLine
 10
28.5
 20
84.885
 30
0.0
 11
28.5
 21
69.75
 31
0.0
  0
LINE
  5
50BE
330
50A8
100
AcDbEntity
  8
AM_0 外形線1
100
AcDbLine
 10
17.5
 20
71.0
 30
0.0
 11
0.5
 21
71.0
 31
0.0
  0
LINE
  5
50BF
330
50A8
100
AcDbEntity
  8
AM_0 外形線1
100
AcDbLine
 10
0.5
 20
71.0
 30
0.0
 11
0.0
 21
70.5
 31
0.0
  0
ARC
  5
50C0
330
50A8
100
AcDbEntity
  8
AM_0 外形線1
100
AcDbCircle
 10
17.5
 20
71.5
 30
0.0
 40
0.5
100
AcDbArc
 50
270.0
 51
0.0
  0
LINE
  5
50C1
330
50A8
100
AcDbEntity
  8
AM_0 外形線1
100
AcDbLine
 10
18.0
 20
78.19193900000005
 30
0.0
 11
18.0
 21
71.5
 31
0.0
  0
LINE
  5
50C2
330
50A8
100
AcDbEntity
  8
AM_0 外形線1
100
AcDbLine
 10
19.0
 20
79.31811399999992
 30
0.0
 11
18.0
 21
78.19193900000005
 31
0.0
  0
LINE
  5
50C3
330
50A8
100
AcDbEntity
  8
AM_0 外形線1
100
AcDbLine
 10
108.0
 20
71.90000000000009
 30
0.0
 11
73.0
 21
71.90000000000009
 31
0.0
  0
LINE
  5
50C4
330
50A8
100
AcDbEntity
  8
AM_0 外形線1
100
AcDbLine
 10
71.0
 20
72.5
 30
0.0
 11
42.5
 21
72.5
 31
0.0
  0
LINE
  5
50C5
330
50A8
100
AcDbEntity
  8
AM_0 外形線1
100
AcDbLine
 10
42.0
 20
77.7360349999999
 30
0.0
 11
41.0
 21
78.90097100000001
 31
0.0
  0
LINE
  5
50C6
330
50A8
100
AcDbEntity
  8
AM_0 外形線1
100
AcDbLine
 10
42.0
 20
73.0
 30
0.0
 11
42.0
 21
77.7360349999999
 31
0.0
  0
ARC
  5
50C7
330
50A8
100
AcDbEntity
  8
AM_0 外形線1
100
AcDbCircle
 10
42.5
 20
73.0
 30
0.0
 40
0.5
100
AcDbArc
 50
180.0
 51
270.0
  0
LINE
  5
50C8
330
50A8
100
AcDbEntity
  8
AM_0 外形線1
100
AcDbLine
 10
73.0
 20
71.90000000000009
 30
0.0
 11
71.0
 21
72.5
 31
0.0
  0
ARC
  5
50C9
330
50A8
100
AcDbEntity
  8
AM_0 外形線1
100
AcDbCircle
 10
108.0
 20
67.90000000000009
 30
0.0
 40
4.0
100
AcDbArc
 50
0.0
 51
90.0
  0
LINE
  5
50CB
330
50A8
100
AcDbEntity
  8
AM_0 外形線1
100
AcDbLine
 10
0.0
 20
35.0
 30
0.0
 11
112.0
 21
35.00000000000023
 31
0.0
  0
ARC
  5
76B6
330
50A8
100
AcDbEntity
  8
AM_7 中心線
100
AcDbCircle
 10
28.5
 20
0.0
 30
0.0
 40
77.5
100
AcDbArc
 50
78.55227306796582
 51
98.27127036770184
  0
ARC
  5
76B7
330
50A8
100
AcDbEntity
  8
AM_0 外形線1
100
AcDbCircle
 10
28.5
 20
0.0
 30
0.0
 40
74.75
100
AcDbArc
 50
79.59517305294479
 51
98.07494144751965
  0
ENDBLK
  5
50AA
330
50A8
100
AcDbEntity
  8
0
100
AcDbBlockEnd
  0
BLOCK
  5
525D
330
525C
100
AcDbEntity
  8
0
100
AcDbBlockBegin
  2
リーマボルト SEM224 M10
 70
     0
 10
0.0
 20
0.0
 30
0.0
  3
リーマボルト SEM224 M10
  1

  0
LINE
  5
525F
330
525C
100
AcDbEntity
  8
AM_0 外形線1
100
AcDbLine
 10
1.5
 20
-5.5
 30
0.0
 11
1.5
 21
5.5
 31
0.0
  0
ARC
  5
5260
330
525C
100
AcDbEntity
  8
AM_0 外形線1
100
AcDbCircle
 10
9.418953999999985
 20
0.0
 30
0.0
 40
16.418953
100
AcDbArc
 50
162.6089940000013
 51
197.3910059999987
  0
LINE
  5
5261
330
525C
100
AcDbEntity
  8
AM_0 外形線1
100
AcDbLine
 10
-7.0
 20
8.5
 30
0.0
 11
-7.0
 21
-8.5
 31
0.0
  0
ARC
  5
5262
330
525C
100
AcDbEntity
  8
AM_0 外形線1
100
AcDbCircle
 10
1.0
 20
-5.5
 30
0.0
 40
0.5
100
AcDbArc
 50
0.0
 51
90.0
  0
LINE
  5
5263
330
525C
100
AcDbEntity
  8
AM_0 外形線1
100
AcDbLine
 10
0.5
 20
-5.0
 30
0.0
 11
1.0
 21
-5.0
 31
0.0
  0
ARC
  5
5264
330
525C
100
AcDbEntity
  8
AM_0 外形線1
100
AcDbCircle
 10
0.5
 20
-5.5
 30
0.0
 40
0.5
100
AcDbArc
 50
90.0
 51
180.0
  0
ARC
  5
5265
330
525C
100
AcDbEntity
  8
AM_0 外形線1
100
AcDbCircle
 10
-2.638210999999954
 20
-7.353738999999903
 30
0.0
 40
4.361788999999999
100
AcDbArc
 50
145.8861589999971
 51
214.1138410000028
  0
LINE
  5
5266
330
525C
100
AcDbEntity
  8
AM_0 外形線1
100
AcDbLine
 10
0.0
 20
-4.907478000000081
 30
0.0
 11
-6.249443999999924
 21
-4.907478000000081
 31
0.0
  0
LINE
  5
5267
330
525C
100
AcDbEntity
  8
AM_0 外形線1
100
AcDbLine
 10
-6.249443999999924
 20
-9.799999999999952
 30
0.0
 11
0.0
 21
-9.799999999999952
 31
0.0
  0
LINE
  5
5268
330
525C
100
AcDbEntity
  8
AM_0 外形線1
100
AcDbLine
 10
-7.0
 20
-8.5
 30
0.0
 11
-6.249443999999924
 21
-9.799999999999952
 31
0.0
  0
ARC
  5
5269
330
525C
100
AcDbEntity
  8
AM_0 外形線1
100
AcDbCircle
 10
1.0
 20
5.5
 30
0.0
 40
0.5
100
AcDbArc
 50
270.0
 51
0.0
  0
LINE
  5
526A
330
525C
100
AcDbEntity
  8
AM_0 外形線1
100
AcDbLine
 10
0.5
 20
5.0
 30
0.0
 11
1.0
 21
5.0
 31
0.0
  0
ARC
  5
526B
330
525C
100
AcDbEntity
  8
AM_0 外形線1
100
AcDbCircle
 10
0.5
 20
5.5
 30
0.0
 40
0.5
100
AcDbArc
 50
180.0
 51
270.0
  0
ARC
  5
526C
330
525C
100
AcDbEntity
  8
AM_0 外形線1
100
AcDbCircle
 10
-2.638210999999954
 20
7.353738000000021
 30
0.0
 40
4.361788999999999
100
AcDbArc
 50
145.8861589999971
 51
214.1138410000028
  0
LINE
  5
526D
330
525C
100
AcDbEntity
  8
AM_0 外形線1
100
AcDbLine
 10
0.0
 20
4.907476999999971
 30
0.0
 11
-6.249443999999924
 21
4.907476999999971
 31
0.0
  0
LINE
  5
526E
330
525C
100
AcDbEntity
  8
AM_0 外形線1
100
AcDbLine
 10
-6.249443999999924
 20
9.799999999999952
 30
0.0
 11
-7.0
 21
8.5
 31
0.0
  0
LINE
  5
526F
330
525C
100
AcDbEntity
  8
AM_0 外形線1
100
AcDbLine
 10
0.0
 20
9.799999999999952
 30
0.0
 11
-6.249443999999924
 21
9.799999999999952
 31
0.0
  0
LINE
  5
5270
330
525C
100
AcDbEntity
  8
AM_0 外形線1
100
AcDbLine
 10
32.5
 20
-4.907478000000081
 30
0.0
 11
39.74944500000004
 21
-4.907478000000081
 31
0.0
  0
LINE
  5
5271
330
525C
100
AcDbEntity
  8
AM_0 外形線1
100
AcDbLine
 10
32.5
 20
4.907476999999971
 30
0.0
 11
39.74944500000004
 21
4.907476999999971
 31
0.0
  0
LINE
  5
5272
330
525C
100
AcDbEntity
  8
AM_0 外形線1
100
AcDbLine
 10
39.74944500000004
 20
-9.799999999999952
 30
0.0
 11
32.5
 21
-9.799999999999952
 31
0.0
  0
LINE
  5
5273
330
525C
100
AcDbEntity
  8
AM_0 外形線1
100
AcDbLine
 10
32.5
 20
9.799999999999952
 30
0.0
 11
39.74944500000004
 21
9.799999999999952
 31
0.0
  0
LINE
  5
5274
330
525C
100
AcDbEntity
  8
AM_0 外形線1
100
AcDbLine
 10
32.5
 20
-9.799999999999952
 30
0.0
 11
32.5
 21
9.799999999999952
 31
0.0
  0
LINE
  5
5275
330
525C
100
AcDbEntity
  8
AM_0 外形線1
100
AcDbLine
 10
27.0
 20
5.5
 30
0.0
 11
27.0
 21
-5.5
 31
0.0
  0
LINE
  5
5276
330
525C
100
AcDbEntity
  8
AM_0 外形線1
100
AcDbLine
 10
28.0
 20
4.922648999999863
 30
0.0
 11
28.0
 21
-4.922649999999974
 31
0.0
  0
LINE
  5
5277
330
525C
100
AcDbEntity
  8
AM_0 外形線1
100
AcDbLine
 10
28.0
 20
-4.922649999999974
 30
0.0
 11
30.0
 21
-4.922649999999974
 31
0.0
  0
LINE
  5
5278
330
525C
100
AcDbEntity
  8
AM_0 外形線1
100
AcDbLine
 10
30.0
 20
-9.200000000000043
 30
0.0
 11
32.5
 21
-9.200000000000043
 31
0.0
  0
LINE
  5
5279
330
525C
100
AcDbEntity
  8
AM_0 外形線1
100
AcDbLine
 10
28.0
 20
-4.922649999999974
 30
0.0
 11
27.0
 21
-5.5
 31
0.0
  0
LINE
  5
527A
330
525C
100
AcDbEntity
  8
AM_0 外形線1
100
AcDbLine
 10
28.0
 20
4.922648999999863
 30
0.0
 11
30.0
 21
4.922648999999863
 31
0.0
  0
LINE
  5
527B
330
525C
100
AcDbEntity
  8
AM_0 外形線1
100
AcDbLine
 10
32.5
 20
0.8333330000000387
 30
0.0
 11
30.0
 21
-1.666666999999961
 31
0.0
  0
LINE
  5
527C
330
525C
100
AcDbEntity
  8
AM_0 外形線1
100
AcDbLine
 10
32.5
 20
1.666666000000076
 30
0.0
 11
30.0
 21
-0.8333339999999225
 31
0.0
  0
LINE
  5
527D
330
525C
100
AcDbEntity
  8
AM_0 外形線1
100
AcDbLine
 10
32.5
 20
9.200000000000043
 30
0.0
 11
30.0
 21
9.200000000000043
 31
0.0
  0
LINE
  5
527E
330
525C
100
AcDbEntity
  8
AM_0 外形線1
100
AcDbLine
 10
27.0
 20
5.5
 30
0.0
 11
28.0
 21
4.922648999999863
 31
0.0
  0
LINE
  5
527F
330
525C
100
AcDbEntity
  8
AM_0 外形線1
100
AcDbLine
 10
44.0
 20
5.0
 30
0.0
 11
44.0
 21
-5.0
 31
0.0
  0
LINE
  5
5280
330
525C
100
AcDbEntity
  8
AM_0 外形線1
100
AcDbLine
 10
45.0
 20
4.0
 30
0.0
 11
45.0
 21
-4.0
 31
0.0
  0
ARC
  5
5281
330
525C
100
AcDbEntity
  8
AM_0 外形線1
100
AcDbCircle
 10
24.08104700000013
 20
0.0
 30
0.0
 40
16.418953
100
AcDbArc
 50
342.6089940000013
 51
17.39100599999868
  0
LINE
  5
5282
330
525C
100
AcDbEntity
  8
AM_0 外形線1
100
AcDbLine
 10
40.49999999999999
 20
8.5
 30
0.0
 11
40.49999999999999
 21
-8.5
 31
0.0
  0
LINE
  5
5283
330
525C
100
AcDbEntity
  8
AM_4 細線
100
AcDbLine
 10
40.49999999999999
 20
-4.25
 30
0.0
 11
44.75
 21
-4.25
 31
0.0
  0
LINE
  5
5284
330
525C
100
AcDbEntity
  8
AM_0 外形線1
100
AcDbLine
 10
44.0
 20
-5.0
 30
0.0
 11
40.49999999999999
 21
-5.0
 31
0.0
  0
ARC
  5
5285
330
525C
100
AcDbEntity
  8
AM_0 外形線1
100
AcDbCircle
 10
36.13821100000007
 20
-7.353738999999903
 30
0.0
 40
4.361788999999999
100
AcDbArc
 50
325.8861589999972
 51
34.11384100000282
  0
LINE
  5
5286
330
525C
100
AcDbEntity
  8
AM_0 外形線1
100
AcDbLine
 10
40.49999999999999
 20
-8.5
 30
0.0
 11
39.74944500000004
 21
-9.799999999999952
 31
0.0
  0
LINE
  5
5287
330
525C
100
AcDbEntity
  8
AM_0 外形線1
100
AcDbLine
 10
45.0
 20
-4.0
 30
0.0
 11
44.0
 21
-5.0
 31
0.0
  0
LINE
  5
5288
330
525C
100
AcDbEntity
  8
AM_4 細線
100
AcDbLine
 10
40.49999999999999
 20
4.25
 30
0.0
 11
44.75
 21
4.25
 31
0.0
  0
LINE
  5
5289
330
525C
100
AcDbEntity
  8
AM_0 外形線1
100
AcDbLine
 10
40.49999999999999
 20
5.0
 30
0.0
 11
44.0
 21
5.0
 31
0.0
  0
ARC
  5
528A
330
525C
100
AcDbEntity
  8
AM_0 外形線1
100
AcDbCircle
 10
36.13821100000007
 20
7.353738000000021
 30
0.0
 40
4.361788999999999
100
AcDbArc
 50
325.8861589999972
 51
34.11384100000282
  0
LINE
  5
528B
330
525C
100
AcDbEntity
  8
AM_0 外形線1
100
AcDbLine
 10
39.74944500000004
 20
9.799999999999952
 30
0.0
 11
40.49999999999999
 21
8.5
 31
0.0
  0
LINE
  5
528C
330
525C
100
AcDbEntity
  8
AM_0 外形線1
100
AcDbLine
 10
44.0
 20
5.0
 30
0.0
 11
45.0
 21
4.0
 31
0.0
  0
LINE
  5
536A
330
525C
100
AcDbEntity
  8
AM_0 外形線1
100
AcDbLine
 10
1.5
 20
5.5
 30
0.0
 11
27.0
 21
5.5
 31
0.0
  0
LINE
  5
536B
330
525C
100
AcDbEntity
  8
AM_0 外形線1
100
AcDbLine
 10
1.5
 20
-5.5
 30
0.0
 11
27.0
 21
-5.5
 31
0.0
  0
LINE
  5
536C
330
525C
100
AcDbEntity
  8
AM_0 外形線1
100
AcDbLine
 10
0.0
 20
9.799999999999952
 30
0.0
 11
0.0
 21
-9.799999999999952
 31
0.0
  0
LINE
  5
536D
330
525C
100
AcDbEntity
  8
AM_0 外形線1
100
AcDbLine
 10
30.0
 20
9.200000000000043
 30
0.0
 11
30.0
 21
-9.200000000000043
 31
0.0
  0
ENDBLK
  5
525E
330
525C
100
AcDbEntity
  8
0
100
AcDbBlockEnd
  0
BLOCK
  5
56DE
330
56DD
100
AcDbEntity
  8
0
100
AcDbBlockBegin
  2
*D11
 70
     1
 10
0.0
 20
0.0
 30
0.0
  3
*D11
  1

  0
LINE
  5
7284
330
56DD
100
AcDbEntity
  8
AM_5 寸法線
 62
     3
100
AcDbLine
 10
384.0488762079585
 20
601.1362217114376
 30
0.0
 11
330.0488762079585
 21
601.1362217114376
 31
0.0
  0
LINE
  5
7285
330
56DD
100
AcDbEntity
  8
AM_5 寸法線
 62
     3
100
AcDbLine
 10
384.0488762079585
 20
451.1362217114376
 30
0.0
 11
330.0488762079585
 21
451.1362217114378
 31
0.0
  0
LINE
  5
7286
330
56DD
100
AcDbEntity
  8
AM_5 寸法線
 62
     3
100
AcDbLine
 10
331.6113762079585
 20
594.8862217114376
 30
0.0
 11
331.6113762079585
 21
457.3862217114378
 31
0.0
  0
INSERT
  5
7287
330
56DD
100
AcDbEntity
  8
AM_5 寸法線
 62
     3
100
AcDbBlockReference
  2
_Open30
 10
331.6113762079585
 20
601.1362217114376
 30
0.0
 41
6.25
 42
6.25
 43
6.25
 50
90.0
  0
INSERT
  5
7288
330
56DD
100
AcDbEntity
  8
AM_5 寸法線
 62
     3
100
AcDbBlockReference
  2
_Open30
 10
331.6113762079585
 20
451.1362217114378
 30
0.0
 41
6.25
 42
6.25
 43
6.25
 50
270.0
  0
MTEXT
  5
7289
330
56DD
100
AcDbEntity
  8
AM_5 寸法線
 62
     3
100
AcDbMText
 10
323.4863762079585
 20
526.1362217114379
 30
0.0
 40
8.75
 41
0.0
 46
0.0
 71
     5
 72
     1
  1
%%c150
  7
SEISA
 11
0.0000000000000001
 21
1.0
 31
0.0
 73
     1
 44
1.0
  0
POINT
  5
728A
330
56DD
100
AcDbEntity
  8
Defpoints
 62
     0
100
AcDbPoint
 10
385.6113762079585
 20
601.1362217114376
 30
0.0
  0
POINT
  5
728B
330
56DD
100
AcDbEntity
  8
Defpoints
 62
     0
100
AcDbPoint
 10
385.6113762079585
 20
451.1362217114376
 30
0.0
  0
POINT
  5
728C
330
56DD
100
AcDbEntity
  8
Defpoints
 62
     0
100
AcDbPoint
 10
331.6113762079585
 20
451.1362217114378
 30
0.0
  0
ENDBLK
  5
56DF
330
56DD
100
AcDbEntity
  8
0
100
AcDbBlockEnd
  0
BLOCK
  5
571A
330
5719
100
AcDbEntity
  8
0
100
AcDbBlockBegin
  2
*D12
 70
     1
 10
0.0
 20
0.0
 30
0.0
  3
*D12
  1

  0
LINE
  5
728D
330
5719
100
AcDbEntity
  8
AM_5 寸法線
 62
     3
100
AcDbLine
 10
381.6113762079585
 20
527.6987217114376
 30
0.0
 11
381.6113762079585
 21
543.1839179669156
 31
0.0
  0
LINE
  5
728E
330
5719
100
AcDbEntity
  8
AM_5 寸法線
 62
     3
100
AcDbLine
 10
493.6113762079584
 20
527.6987217114376
 30
0.0
 11
493.6113762079584
 21
543.1839179669156
 31
0.0
  0
LINE
  5
728F
330
5719
100
AcDbEntity
  8
AM_5 寸法線
 62
     3
100
AcDbLine
 10
387.8613762079585
 20
541.6214179669156
 30
0.0
 11
487.3613762079584
 21
541.6214179669156
 31
0.0
  0
INSERT
  5
7290
330
5719
100
AcDbEntity
  8
AM_5 寸法線
 62
     3
100
AcDbBlockReference
  2
_Open30
 10
381.6113762079585
 20
541.6214179669156
 30
0.0
 41
6.25
 42
6.25
 43
6.25
 50
180.0
  0
INSERT
  5
7291
330
5719
100
AcDbEntity
  8
AM_5 寸法線
 62
     3
100
AcDbBlockReference
  2
_Open30
 10
493.6113762079584
 20
541.6214179669156
 30
0.0
 41
6.25
 42
6.25
 43
6.25
  0
MTEXT
  5
7292
330
5719
100
AcDbEntity
  8
AM_5 寸法線
 62
     3
100
AcDbMText
 10
437.6113762079585
 20
549.7464179669157
 30
0.0
 40
8.75
 41
0.0
 46
0.0
 71
     5
 72
     1
  1
112
  7
SEISA
 73
     1
 44
1.0
  0
POINT
  5
7293
330
5719
100
AcDbEntity
  8
Defpoints
 62
     0
100
AcDbPoint
 10
381.6113762079585
 20
526.1362217114376
 30
0.0
  0
POINT
  5
7294
330
5719
100
AcDbEntity
  8
Defpoints
 62
     0
100
AcDbPoint
 10
493.6113762079584
 20
526.1362217114376
 30
0.0
  0
POINT
  5
7295
330
5719
100
AcDbEntity
  8
Defpoints
 62
     0
100
AcDbPoint
 10
493.6113762079584
 20
541.6214179669156
 30
0.0
  0
ENDBLK
  5
571B
330
5719
100
AcDbEntity
  8
0
100
AcDbBlockEnd
  0
BLOCK
  5
5732
330
5731
100
AcDbEntity
  8
0
100
AcDbBlockBegin
  2
*D13
 70
     1
 10
0.0
 20
0.0
 30
0.0
  3
*D13
  1

  0
LINE
  5
7296
330
5731
100
AcDbEntity
  8
AM_5 寸法線
 62
     3
100
AcDbLine
 10
493.6113762079584
 20
527.6987217114376
 30
0.0
 11
493.6113762079584
 21
543.1839179669156
 31
0.0
  0
LINE
  5
7297
330
5731
100
AcDbEntity
  8
AM_5 寸法線
 62
     3
100
AcDbLine
 10
505.6113762079585
 20
527.6987217114376
 30
0.0
 11
505.6113762079585
 21
543.1839179669156
 31
0.0
  0
LINE
  5
7298
330
5731
100
AcDbEntity
  8
AM_5 寸法線
 62
     3
100
AcDbLine
 10
487.3613762079584
 20
541.6214179669156
 30
0.0
 11
481.1113762079584
 21
541.6214179669156
 31
0.0
  0
LINE
  5
7299
330
5731
100
AcDbEntity
  8
AM_5 寸法線
 62
     3
100
AcDbLine
 10
511.8613762079585
 20
541.6214179669156
 30
0.0
 11
518.1113762079585
 21
541.6214179669156
 31
0.0
  0
MTEXT
  5
729A
330
5731
100
AcDbEntity
  8
AM_5 寸法線
 62
     3
100
AcDbMText
 10
518.0882080589563
 20
550.177531341563
 30
0.0
 40
8.75
 41
0.0
 46
0.0
 71
     5
 72
     1
  1
12
  7
SEISA
 73
     1
 44
1.0
  0
LINE
  5
729B
330
5731
100
AcDbEntity
  8
AM_5 寸法線
 62
     3
100
AcDbLine
 10
493.6113762079584
 20
541.6214179669156
 30
0.0
 11
505.6113762079585
 21
541.6214179669156
 31
0.0
  0
INSERT
  5
729C
330
5731
100
AcDbEntity
  8
AM_5 寸法線
 62
     3
100
AcDbBlockReference
  2
_Open30
 10
493.6113762079584
 20
541.6214179669156
 30
0.0
 41
6.25
 42
6.25
 43
6.25
  0
INSERT
  5
729D
330
5731
100
AcDbEntity
  8
AM_5 寸法線
 62
     3
100
AcDbBlockReference
  2
_Open30
 10
505.6113762079585
 20
541.6214179669156
 30
0.0
 41
6.25
 42
6.25
 43
6.25
 50
180.0
  0
POINT
  5
729E
330
5731
100
AcDbEntity
  8
Defpoints
 62
     0
100
AcDbPoint
 10
493.6113762079584
 20
526.1362217114376
 30
0.0
  0
POINT
  5
729F
330
5731
100
AcDbEntity
  8
Defpoints
 62
     0
100
AcDbPoint
 10
505.6113762079585
 20
526.1362217114376
 30
0.0
  0
POINT
  5
72A0
330
5731
100
AcDbEntity
  8
Defpoints
 62
     0
100
AcDbPoint
 10
505.6113762079585
 20
541.6214179669156
 30
0.0
  0
ENDBLK
  5
5733
330
5731
100
AcDbEntity
  8
0
100
AcDbBlockEnd
  0
BLOCK
  5
574E
330
574D
100
AcDbEntity
  8
0
100
AcDbBlockBegin
  2
*D14
 70
     1
 10
0.0
 20
0.0
 30
0.0
  3
*D14
  1

  0
LINE
  5
72A1
330
574D
100
AcDbEntity
  8
AM_5 寸法線
 62
     3
100
AcDbLine
 10
505.6113762079585
 20
527.6987217114376
 30
0.0
 11
505.6113762079585
 21
543.1839179669156
 31
0.0
  0
LINE
  5
72A2
330
574D
100
AcDbEntity
  8
AM_5 寸法線
 62
     3
100
AcDbLine
 10
617.6113762079585
 20
527.6987217114376
 30
0.0
 11
617.6113762079585
 21
543.1839179669156
 31
0.0
  0
LINE
  5
72A3
330
574D
100
AcDbEntity
  8
AM_5 寸法線
 62
     3
100
AcDbLine
 10
511.8613762079585
 20
541.6214179669156
 30
0.0
 11
611.3613762079585
 21
541.6214179669156
 31
0.0
  0
INSERT
  5
72A4
330
574D
100
AcDbEntity
  8
AM_5 寸法線
 62
     3
100
AcDbBlockReference
  2
_Open30
 10
505.6113762079585
 20
541.6214179669156
 30
0.0
 41
6.25
 42
6.25
 43
6.25
 50
180.0
  0
INSERT
  5
72A5
330
574D
100
AcDbEntity
  8
AM_5 寸法線
 62
     3
100
AcDbBlockReference
  2
_Open30
 10
617.6113762079585
 20
541.6214179669156
 30
0.0
 41
6.25
 42
6.25
 43
6.25
  0
MTEXT
  5
72A6
330
574D
100
AcDbEntity
  8
AM_5 寸法線
 62
     3
100
AcDbMText
 10
561.6113762079585
 20
549.7464179669157
 30
0.0
 40
8.75
 41
0.0
 46
0.0
 71
     5
 72
     1
  1
112
  7
SEISA
 73
     1
 44
1.0
  0
POINT
  5
72A7
330
574D
100
AcDbEntity
  8
Defpoints
 62
     0
100
AcDbPoint
 10
505.6113762079585
 20
526.1362217114376
 30
0.0
  0
POINT
  5
72A8
330
574D
100
AcDbEntity
  8
Defpoints
 62
     0
100
AcDbPoint
 10
617.6113762079585
 20
526.1362217114376
 30
0.0
  0
POINT
  5
72A9
330
574D
100
AcDbEntity
  8
Defpoints
 62
     0
100
AcDbPoint
 10
617.6113762079585
 20
541.6214179669156
 30
0.0
  0
ENDBLK
  5
574F
330
574D
100
AcDbEntity
  8
0
100
AcDbBlockEnd
  0
BLOCK
  5
57D8
330
57D7
100
AcDbEntity
  8
0
100
AcDbBlockBegin
  2
*D15
 70
     1
 10
0.0
 20
0.0
 30
0.0
  3
*D15
  1

  0
LINE
  5
77AF
330
57D7
100
AcDbEntity
  8
AM_5 寸法線
 62
     3
100
AcDbLine
 10
547.6113762079585
 20
597.5737217114376
 30
0.0
 11
547.6113762079585
 21
574.4274339061258
 31
0.0
  0
LINE
  5
77B0
330
57D7
100
AcDbEntity
  8
AM_5 寸法線
 62
     3
100
AcDbLine
 10
551.6113762079585
 20
597.0737217114376
 30
0.0
 11
551.6113762079585
 21
574.4274339061258
 31
0.0
  0
LINE
  5
77B1
330
57D7
100
AcDbEntity
  8
AM_5 寸法線
 62
     3
100
AcDbLine
 10
547.6113762079585
 20
575.9899339061258
 30
0.0
 11
541.3613762079585
 21
575.9899339061258
 31
0.0
  0
LINE
  5
77B2
330
57D7
100
AcDbEntity
  8
AM_5 寸法線
 62
     3
100
AcDbLine
 10
557.8613762079585
 20
575.9899339061258
 30
0.0
 11
577.2363762079585
 21
575.9899339061258
 31
0.0
  0
LINE
  5
77B3
330
57D7
100
AcDbEntity
  8
AM_5 寸法線
 62
     3
100
AcDbLine
 10
547.6113762079585
 20
575.9899339061258
 30
0.0
 11
551.6113762079585
 21
575.9899339061258
 31
0.0
  0
INSERT
  5
77B4
330
57D7
100
AcDbEntity
  8
AM_5 寸法線
 62
     3
100
AcDbBlockReference
  2
_DotSmall
 10
547.6113762079585
 20
575.9899339061258
 30
0.0
 41
6.25
 42
6.25
 43
6.25
  0
INSERT
  5
77B5
330
57D7
100
AcDbEntity
  8
AM_5 寸法線
 62
     3
100
AcDbBlockReference
  2
_Open30
 10
551.6113762079585
 20
575.9899339061258
 30
0.0
 41
6.25
 42
6.25
 43
6.25
 50
180.0
  0
MTEXT
  5
77B6
330
57D7
100
AcDbEntity
  8
AM_5 寸法線
 62
     3
100
AcDbMText
 10
570.6738762079585
 20
584.1149339061257
 30
0.0
 40
8.75
 41
0.0
 46
0.0
 71
     5
 72
     1
  1
4
  7
SEISA
 73
     1
 44
1.0
  0
POINT
  5
77B7
330
57D7
100
AcDbEntity
  8
Defpoints
 62
     0
100
AcDbPoint
 10
547.6113762079585
 20
599.1362217114376
 30
0.0
  0
POINT
  5
77B8
330
57D7
100
AcDbEntity
  8
Defpoints
 62
     0
100
AcDbPoint
 10
551.6113762079585
 20
598.6362217114376
 30
0.0
  0
POINT
  5
77B9
330
57D7
100
AcDbEntity
  8
Defpoints
 62
     0
100
AcDbPoint
 10
551.6113762079585
 20
575.9899339061258
 30
0.0
  0
ENDBLK
  5
57D9
330
57D7
100
AcDbEntity
  8
0
100
AcDbBlockEnd
  0
BLOCK
  5
5885
330
5884
100
AcDbEntity
  8
0
100
AcDbBlockBegin
  2
*D16
 70
     1
 10
0.0
 20
0.0
 30
0.0
  3
*D16
  1

  0
LINE
  5
72BC
330
5884
100
AcDbEntity
  8
AM_5 寸法線
 62
     3
100
AcDbLine
 10
578.1738762079585
 20
598.6362217114376
 30
0.0
 11
669.1738762079585
 21
598.6362217114376
 31
0.0
  0
LINE
  5
72BD
330
5884
100
AcDbEntity
  8
AM_5 寸法線
 62
     3
100
AcDbLine
 10
578.1738762079585
 20
453.6362217114376
 30
0.0
 11
669.1738762079585
 21
453.6362217114375
 31
0.0
  0
LINE
  5
72BE
330
5884
100
AcDbEntity
  8
AM_5 寸法線
 62
     3
100
AcDbLine
 10
667.6113762079585
 20
592.3862217114376
 30
0.0
 11
667.6113762079585
 21
459.8862217114375
 31
0.0
  0
INSERT
  5
72BF
330
5884
100
AcDbEntity
  8
AM_5 寸法線
 62
     3
100
AcDbBlockReference
  2
_Open30
 10
667.6113762079585
 20
598.6362217114376
 30
0.0
 41
6.25
 42
6.25
 43
6.25
 50
90.0
  0
INSERT
  5
72C0
330
5884
100
AcDbEntity
  8
AM_5 寸法線
 62
     3
100
AcDbBlockReference
  2
_Open30
 10
667.6113762079585
 20
453.6362217114375
 30
0.0
 41
6.25
 42
6.25
 43
6.25
 50
270.0
  0
MTEXT
  5
72C1
330
5884
100
AcDbEntity
  8
AM_5 寸法線
 62
     3
100
AcDbMText
 10
659.4863762079584
 20
526.1362217114379
 30
0.0
 40
8.75
 41
0.0
 46
0.0
 71
     5
 72
     1
  1
%%c145
  7
SEISA
 11
0.0000000000000001
 21
1.0
 31
0.0
 73
     1
 44
1.0
  0
POINT
  5
72C2
330
5884
100
AcDbEntity
  8
Defpoints
 62
     0
100
AcDbPoint
 10
576.6113762079585
 20
598.6362217114376
 30
0.0
  0
POINT
  5
72C3
330
5884
100
AcDbEntity
  8
Defpoints
 62
     0
100
AcDbPoint
 10
576.6113762079585
 20
453.6362217114376
 30
0.0
  0
POINT
  5
72C4
330
5884
100
AcDbEntity
  8
Defpoints
 62
     0
100
AcDbPoint
 10
667.6113762079585
 20
453.6362217114375
 30
0.0
  0
ENDBLK
  5
5886
330
5884
100
AcDbEntity
  8
0
100
AcDbBlockEnd
  0
BLOCK
  5
58A6
330
58A5
100
AcDbEntity
  8
0
100
AcDbBlockBegin
  2
*D17
 70
     1
 10
0.0
 20
0.0
 30
0.0
  3
*D17
  1

  0
LINE
  5
786A
330
58A5
100
AcDbEntity
  8
AM_5 寸法線
 62
     3
100
AcDbLine
 10
562.1738762079585
 20
613.1362217114376
 30
0.0
 11
694.1738762079586
 21
613.1362217114376
 31
0.0
  0
LINE
  5
786B
330
58A5
100
AcDbEntity
  8
AM_5 寸法線
 62
     3
100
AcDbLine
 10
562.1738762079585
 20
439.1362217114376
 30
0.0
 11
694.1738762079586
 21
439.1362217114376
 31
0.0
  0
LINE
  5
786C
330
58A5
100
AcDbEntity
  8
AM_5 寸法線
 62
     3
100
AcDbLine
 10
692.6113762079586
 20
606.8862217114376
 30
0.0
 11
692.6113762079586
 21
445.3862217114376
 31
0.0
  0
INSERT
  5
786D
330
58A5
100
AcDbEntity
  8
AM_5 寸法線
 62
     3
100
AcDbBlockReference
  2
_Open30
 10
692.6113762079586
 20
613.1362217114376
 30
0.0
 41
6.25
 42
6.25
 43
6.25
 50
90.0
  0
INSERT
  5
786E
330
58A5
100
AcDbEntity
  8
AM_5 寸法線
 62
     3
100
AcDbBlockReference
  2
_Open30
 10
692.6113762079586
 20
439.1362217114376
 30
0.0
 41
6.25
 42
6.25
 43
6.25
 50
270.0
  0
MTEXT
  5
786F
330
58A5
100
AcDbEntity
  8
AM_5 寸法線
 62
     3
100
AcDbMText
 10
684.4863762079585
 20
526.1362217114379
 30
0.0
 40
8.75
 41
0.0
 46
0.0
 71
     5
 72
     1
  1
%%c174
  7
SEISA
 11
0.0000000000000001
 21
1.0
 31
0.0
 73
     1
 44
1.0
  0
POINT
  5
7870
330
58A5
100
AcDbEntity
  8
Defpoints
 62
     0
100
AcDbPoint
 10
560.6113762079585
 20
613.1362217114376
 30
0.0
  0
POINT
  5
7871
330
58A5
100
AcDbEntity
  8
Defpoints
 62
     0
100
AcDbPoint
 10
560.6113762079585
 20
439.1362217114376
 30
0.0
  0
POINT
  5
7872
330
58A5
100
AcDbEntity
  8
Defpoints
 62
     0
100
AcDbPoint
 10
692.6113762079586
 20
439.1362217114376
 30
0.0
  0
ENDBLK
  5
58A7
330
58A5
100
AcDbEntity
  8
0
100
AcDbBlockEnd
  0
BLOCK
  5
58BE
330
58BD
100
AcDbEntity
  8
0
100
AcDbBlockBegin
  2
*D18
 70
     1
 10
0.0
 20
0.0
 30
0.0
  3
*D18
  1

  0
LINE
  5
72CE
330
58BD
100
AcDbEntity
  8
AM_5 寸法線
 62
     3
100
AcDbLine
 10
515.1738762079585
 20
638.1362217114376
 30
0.0
 11
719.1738762079586
 21
638.1362217114376
 31
0.0
  0
LINE
  5
72CF
330
58BD
100
AcDbEntity
  8
AM_5 寸法線
 62
     3
100
AcDbLine
 10
515.1738762079585
 20
414.1362217114376
 30
0.0
 11
719.1738762079586
 21
414.1362217114376
 31
0.0
  0
LINE
  5
72D0
330
58BD
100
AcDbEntity
  8
AM_5 寸法線
 62
     3
100
AcDbLine
 10
717.6113762079586
 20
631.8862217114376
 30
0.0
 11
717.6113762079586
 21
420.3862217114376
 31
0.0
  0
INSERT
  5
72D1
330
58BD
100
AcDbEntity
  8
AM_5 寸法線
 62
     3
100
AcDbBlockReference
  2
_Open30
 10
717.6113762079586
 20
638.1362217114376
 30
0.0
 41
6.25
 42
6.25
 43
6.25
 50
90.0
  0
INSERT
  5
72D2
330
58BD
100
AcDbEntity
  8
AM_5 寸法線
 62
     3
100
AcDbBlockReference
  2
_Open30
 10
717.6113762079586
 20
414.1362217114376
 30
0.0
 41
6.25
 42
6.25
 43
6.25
 50
270.0
  0
MTEXT
  5
72D3
330
58BD
100
AcDbEntity
  8
AM_5 寸法線
 62
     3
100
AcDbMText
 10
709.4863762079586
 20
526.1362217114379
 30
0.0
 40
8.75
 41
0.0
 46
0.0
 71
     5
 72
     1
  1
%%c224
  7
SEISA
 11
0.0000000000000001
 21
1.0
 31
0.0
 73
     1
 44
1.0
  0
POINT
  5
72D4
330
58BD
100
AcDbEntity
  8
Defpoints
 62
     0
100
AcDbPoint
 10
513.6113762079585
 20
638.1362217114376
 30
0.0
  0
POINT
  5
72D5
330
58BD
100
AcDbEntity
  8
Defpoints
 62
     0
100
AcDbPoint
 10
513.6113762079585
 20
414.1362217114376
 30
0.0
  0
POINT
  5
72D6
330
58BD
100
AcDbEntity
  8
Defpoints
 62
     0
100
AcDbPoint
 10
717.6113762079586
 20
414.1362217114376
 30
0.0
  0
ENDBLK
  5
58BF
330
58BD
100
AcDbEntity
  8
0
100
AcDbBlockEnd
  0
BLOCK
  5
596C
330
596B
100
AcDbEntity
  8
0
100
AcDbBlockBegin
  2
*D19
 70
     1
 10
0.0
 20
0.0
 30
0.0
  3
*D19
  1

  0
LINE
  5
72D7
330
596B
100
AcDbEntity
  8
AM_5 寸法線
 62
     3
100
AcDbLine
 10
499.6113762079585
 20
413.5737217114376
 30
0.0
 11
499.6113762079585
 21
375.0737217114377
 31
0.0
  0
LINE
  5
72D8
330
596B
100
AcDbEntity
  8
AM_5 寸法線
 62
     3
100
AcDbLine
 10
484.6113762079585
 20
413.5737217114376
 30
0.0
 11
484.6113762079585
 21
375.0737217114377
 31
0.0
  0
LINE
  5
72D9
330
596B
100
AcDbEntity
  8
AM_5 寸法線
 62
     3
100
AcDbLine
 10
505.8613762079585
 20
376.6362217114377
 30
0.0
 11
512.1113762079585
 21
376.6362217114377
 31
0.0
  0
LINE
  5
72DA
330
596B
100
AcDbEntity
  8
AM_5 寸法線
 62
     3
100
AcDbLine
 10
478.3613762079585
 20
376.6362217114377
 30
0.0
 11
472.1113762079585
 21
376.6362217114377
 31
0.0
  0
MTEXT
  5
72DB
330
596B
100
AcDbEntity
  8
AM_5 寸法線
 62
     3
100
AcDbMText
 10
474.0760921924398
 20
384.8393548842962
 30
0.0
 40
8.75
 41
0.0
 46
0.0
 71
     5
 72
     1
  1
15
  7
SEISA
 73
     1
 44
1.0
  0
LINE
  5
72DC
330
596B
100
AcDbEntity
  8
AM_5 寸法線
 62
     3
100
AcDbLine
 10
499.6113762079585
 20
376.6362217114377
 30
0.0
 11
484.6113762079585
 21
376.6362217114377
 31
0.0
  0
INSERT
  5
72DD
330
596B
100
AcDbEntity
  8
AM_5 寸法線
 62
     3
100
AcDbBlockReference
  2
GENDOT
 10
499.6113762079585
 20
376.6362217114377
 30
0.0
 41
6.25
 42
6.25
 43
6.25
 50
180.0
  0
INSERT
  5
72DE
330
596B
100
AcDbEntity
  8
AM_5 寸法線
 62
     3
100
AcDbBlockReference
  2
_Open30
 10
484.6113762079585
 20
376.6362217114377
 30
0.0
 41
6.25
 42
6.25
 43
6.25
  0
POINT
  5
72DF
330
596B
100
AcDbEntity
  8
Defpoints
 62
     0
100
AcDbPoint
 10
499.6113762079585
 20
415.1362217114376
 30
0.0
  0
POINT
  5
72E0
330
596B
100
AcDbEntity
  8
Defpoints
 62
     0
100
AcDbPoint
 10
484.6113762079585
 20
415.1362217114376
 30
0.0
  0
POINT
  5
72E1
330
596B
100
AcDbEntity
  8
Defpoints
 62
     0
100
AcDbPoint
 10
484.6113762079585
 20
376.6362217114377
 30
0.0
  0
ENDBLK
  5
596D
330
596B
100
AcDbEntity
  8
0
100
AcDbBlockEnd
  0
BLOCK
  5
5988
330
5987
100
AcDbEntity
  8
0
100
AcDbBlockBegin
  2
*D20
 70
     1
 10
0.0
 20
0.0
 30
0.0
  3
*D20
  1

  0
LINE
  5
72E2
330
5987
100
AcDbEntity
  8
AM_5 寸法線
 62
     3
100
AcDbLine
 10
499.6113762079585
 20
413.5737217114376
 30
0.0
 11
499.6113762079585
 21
375.0737217114377
 31
0.0
  0
LINE
  5
72E3
330
5987
100
AcDbEntity
  8
AM_5 寸法線
 62
     3
100
AcDbLine
 10
514.6113762079585
 20
414.3613071273874
 30
0.0
 11
514.6113762079585
 21
375.0737217114377
 31
0.0
  0
LINE
  5
72E4
330
5987
100
AcDbEntity
  8
AM_5 寸法線
 62
     3
100
AcDbLine
 10
493.3613762079585
 20
376.6362217114377
 30
0.0
 11
487.1113762079585
 21
376.6362217114377
 31
0.0
  0
LINE
  5
72E5
330
5987
100
AcDbEntity
  8
AM_5 寸法線
 62
     3
100
AcDbLine
 10
520.8613762079585
 20
376.6362217114377
 30
0.0
 11
527.1113762079585
 21
376.6362217114377
 31
0.0
  0
MTEXT
  5
72E6
330
5987
100
AcDbEntity
  8
AM_5 寸法線
 62
     3
100
AcDbMText
 10
525.0103010507499
 20
384.7721985716123
 30
0.0
 40
8.75
 41
0.0
 46
0.0
 71
     5
 72
     1
  1
15
  7
SEISA
 73
     1
 44
1.0
  0
LINE
  5
72E7
330
5987
100
AcDbEntity
  8
AM_5 寸法線
 62
     3
100
AcDbLine
 10
499.6113762079585
 20
376.6362217114377
 30
0.0
 11
514.6113762079585
 21
376.6362217114377
 31
0.0
  0
INSERT
  5
72E8
330
5987
100
AcDbEntity
  8
AM_5 寸法線
 62
     3
100
AcDbBlockReference
  2
GENDOT
 10
499.6113762079585
 20
376.6362217114377
 30
0.0
 41
6.25
 42
6.25
 43
6.25
  0
INSERT
  5
72E9
330
5987
100
AcDbEntity
  8
AM_5 寸法線
 62
     3
100
AcDbBlockReference
  2
_Open30
 10
514.6113762079585
 20
376.6362217114377
 30
0.0
 41
6.25
 42
6.25
 43
6.25
 50
180.0
  0
POINT
  5
72EA
330
5987
100
AcDbEntity
  8
Defpoints
 62
     0
100
AcDbPoint
 10
499.6113762079585
 20
415.1362217114376
 30
0.0
  0
POINT
  5
72EB
330
5987
100
AcDbEntity
  8
Defpoints
 62
     0
100
AcDbPoint
 10
514.6113762079585
 20
415.9238071273874
 30
0.0
  0
POINT
  5
72EC
330
5987
100
AcDbEntity
  8
Defpoints
 62
     0
100
AcDbPoint
 10
514.6113762079585
 20
376.6362217114377
 30
0.0
  0
ENDBLK
  5
5989
330
5987
100
AcDbEntity
  8
0
100
AcDbBlockEnd
  0
BLOCK
  5
59DD
330
59DC
100
AcDbEntity
  8
0
100
AcDbBlockBegin
  2
*D21
 70
     1
 10
0.0
 20
0.0
 30
0.0
  3
*D21
  1

  0
LINE
  5
72ED
330
59DC
100
AcDbEntity
  8
AM_5 寸法線
 62
     3
100
AcDbLine
 10
499.6113762079585
 20
413.5737217114376
 30
0.0
 11
499.6113762079585
 21
350.0737217114377
 31
0.0
  0
LINE
  5
72EE
330
59DC
100
AcDbEntity
  8
AM_5 寸法線
 62
     3
100
AcDbLine
 10
381.6113762079585
 20
453.5737217114376
 30
0.0
 11
381.6113762079585
 21
350.0737217114377
 31
0.0
  0
LINE
  5
72EF
330
59DC
100
AcDbEntity
  8
AM_5 寸法線
 62
     3
100
AcDbLine
 10
493.3613762079585
 20
351.6362217114377
 30
0.0
 11
387.8613762079585
 21
351.6362217114377
 31
0.0
  0
INSERT
  5
72F0
330
59DC
100
AcDbEntity
  8
AM_5 寸法線
 62
     3
100
AcDbBlockReference
  2
_Open30
 10
499.6113762079585
 20
351.6362217114377
 30
0.0
 41
6.25
 42
6.25
 43
6.25
  0
INSERT
  5
72F1
330
59DC
100
AcDbEntity
  8
AM_5 寸法線
 62
     3
100
AcDbBlockReference
  2
_Open30
 10
381.6113762079585
 20
351.6362217114377
 30
0.0
 41
6.25
 42
6.25
 43
6.25
 50
180.0
  0
MTEXT
  5
72F2
330
59DC
100
AcDbEntity
  8
AM_5 寸法線
 62
     3
100
AcDbMText
 10
440.6113762079585
 20
359.7612217114376
 30
0.0
 40
8.75
 41
0.0
 46
0.0
 71
     5
 72
     1
  1
118
  7
SEISA
 73
     1
 44
1.0
  0
POINT
  5
72F3
330
59DC
100
AcDbEntity
  8
Defpoints
 62
     0
100
AcDbPoint
 10
499.6113762079585
 20
415.1362217114376
 30
0.0
  0
POINT
  5
72F4
330
59DC
100
AcDbEntity
  8
Defpoints
 62
     0
100
AcDbPoint
 10
381.6113762079585
 20
455.1362217114376
 30
0.0
  0
POINT
  5
72F5
330
59DC
100
AcDbEntity
  8
Defpoints
 62
     0
100
AcDbPoint
 10
381.6113762079585
 20
351.6362217114377
 30
0.0
  0
ENDBLK
  5
59DE
330
59DC
100
AcDbEntity
  8
0
100
AcDbBlockEnd
  0
BLOCK
  5
59F5
330
59F4
100
AcDbEntity
  8
0
100
AcDbBlockBegin
  2
*D22
 70
     1
 10
0.0
 20
0.0
 30
0.0
  3
*D22
  1

  0
LINE
  5
72F6
330
59F4
100
AcDbEntity
  8
AM_5 寸法線
 62
     3
100
AcDbLine
 10
499.6113762079585
 20
413.5737217114376
 30
0.0
 11
499.6113762079585
 21
350.0737217114377
 31
0.0
  0
LINE
  5
72F7
330
59F4
100
AcDbEntity
  8
AM_5 寸法線
 62
     3
100
AcDbLine
 10
564.6113762079585
 20
441.5737217114376
 30
0.0
 11
564.6113762079585
 21
350.0737217114377
 31
0.0
  0
LINE
  5
72F8
330
59F4
100
AcDbEntity
  8
AM_5 寸法線
 62
     3
100
AcDbLine
 10
505.8613762079585
 20
351.6362217114377
 30
0.0
 11
558.3613762079585
 21
351.6362217114377
 31
0.0
  0
INSERT
  5
72F9
330
59F4
100
AcDbEntity
  8
AM_5 寸法線
 62
     3
100
AcDbBlockReference
  2
_Open30
 10
499.6113762079585
 20
351.6362217114377
 30
0.0
 41
6.25
 42
6.25
 43
6.25
 50
180.0
  0
INSERT
  5
72FA
330
59F4
100
AcDbEntity
  8
AM_5 寸法線
 62
     3
100
AcDbBlockReference
  2
_Open30
 10
564.6113762079585
 20
351.6362217114377
 30
0.0
 41
6.25
 42
6.25
 43
6.25
  0
MTEXT
  5
72FB
330
59F4
100
AcDbEntity
  8
AM_5 寸法線
 62
     3
100
AcDbMText
 10
532.1113762079585
 20
359.7612217114376
 30
0.0
 40
8.75
 41
0.0
 46
0.0
 71
     5
 72
     1
  1
65
  7
SEISA
 73
     1
 44
1.0
  0
POINT
  5
72FC
330
59F4
100
AcDbEntity
  8
Defpoints
 62
     0
100
AcDbPoint
 10
499.6113762079585
 20
415.1362217114376
 30
0.0
  0
POINT
  5
72FD
330
59F4
100
AcDbEntity
  8
Defpoints
 62
     0
100
AcDbPoint
 10
564.6113762079585
 20
443.1362217114376
 30
0.0
  0
POINT
  5
72FE
330
59F4
100
AcDbEntity
  8
Defpoints
 62
     0
100
AcDbPoint
 10
564.6113762079585
 20
351.6362217114377
 30
0.0
  0
ENDBLK
  5
59F6
330
59F4
100
AcDbEntity
  8
0
100
AcDbBlockEnd
  0
BLOCK
  5
5A0D
330
5A0C
100
AcDbEntity
  8
0
100
AcDbBlockBegin
  2
*D23
 70
     1
 10
0.0
 20
0.0
 30
0.0
  3
*D23
  1

  0
LINE
  5
72FF
330
5A0C
100
AcDbEntity
  8
AM_5 寸法線
 62
     3
100
AcDbLine
 10
564.6113762079585
 20
441.5737217114376
 30
0.0
 11
564.6113762079585
 21
350.0737217114377
 31
0.0
  0
LINE
  5
7300
330
5A0C
100
AcDbEntity
  8
AM_5 寸法線
 62
     3
100
AcDbLine
 10
617.6113762079585
 20
456.6737217114376
 30
0.0
 11
617.6113762079585
 21
350.0737217114377
 31
0.0
  0
LINE
  5
7301
330
5A0C
100
AcDbEntity
  8
AM_5 寸法線
 62
     3
100
AcDbLine
 10
570.8613762079585
 20
351.6362217114377
 30
0.0
 11
611.3613762079585
 21
351.6362217114377
 31
0.0
  0
INSERT
  5
7302
330
5A0C
100
AcDbEntity
  8
AM_5 寸法線
 62
     3
100
AcDbBlockReference
  2
_Open30
 10
564.6113762079585
 20
351.6362217114377
 30
0.0
 41
6.25
 42
6.25
 43
6.25
 50
180.0
  0
INSERT
  5
7303
330
5A0C
100
AcDbEntity
  8
AM_5 寸法線
 62
     3
100
AcDbBlockReference
  2
_Open30
 10
617.6113762079585
 20
351.6362217114377
 30
0.0
 41
6.25
 42
6.25
 43
6.25
  0
MTEXT
  5
7304
330
5A0C
100
AcDbEntity
  8
AM_5 寸法線
 62
     3
100
AcDbMText
 10
591.1113762079585
 20
359.7612217114376
 30
0.0
 40
8.75
 41
0.0
 46
0.0
 71
     5
 72
     1
  1
53
  7
SEISA
 73
     1
 44
1.0
  0
POINT
  5
7305
330
5A0C
100
AcDbEntity
  8
Defpoints
 62
     0
100
AcDbPoint
 10
564.6113762079585
 20
443.1362217114376
 30
0.0
  0
POINT
  5
7306
330
5A0C
100
AcDbEntity
  8
Defpoints
 62
     0
100
AcDbPoint
 10
617.6113762079585
 20
458.2362217114376
 30
0.0
  0
POINT
  5
7307
330
5A0C
100
AcDbEntity
  8
Defpoints
 62
     0
100
AcDbPoint
 10
617.6113762079585
 20
351.6362217114377
 30
0.0
  0
ENDBLK
  5
5A0E
330
5A0C
100
AcDbEntity
  8
0
100
AcDbBlockEnd
  0
BLOCK
  5
5A25
330
5A24
100
AcDbEntity
  8
0
100
AcDbBlockBegin
  2
*D24
 70
     1
 10
0.0
 20
0.0
 30
0.0
  3
*D24
  1

  0
LINE
  5
7308
330
5A24
100
AcDbEntity
  8
AM_5 寸法線
 62
     3
100
AcDbLine
 10
381.6113762079585
 20
453.5737217114376
 30
0.0
 11
381.6113762079585
 21
325.0737217114377
 31
0.0
  0
LINE
  5
7309
330
5A24
100
AcDbEntity
  8
AM_5 寸法線
 62
     3
100
AcDbLine
 10
617.6113762079585
 20
456.6737217114376
 30
0.0
 11
617.6113762079585
 21
325.0737217114377
 31
0.0
  0
LINE
  5
730A
330
5A24
100
AcDbEntity
  8
AM_5 寸法線
 62
     3
100
AcDbLine
 10
387.8613762079585
 20
326.6362217114377
 30
0.0
 11
611.3613762079585
 21
326.6362217114377
 31
0.0
  0
INSERT
  5
730B
330
5A24
100
AcDbEntity
  8
AM_5 寸法線
 62
     3
100
AcDbBlockReference
  2
_Open30
 10
381.6113762079585
 20
326.6362217114377
 30
0.0
 41
6.25
 42
6.25
 43
6.25
 50
180.0
  0
INSERT
  5
730C
330
5A24
100
AcDbEntity
  8
AM_5 寸法線
 62
     3
100
AcDbBlockReference
  2
_Open30
 10
617.6113762079585
 20
326.6362217114377
 30
0.0
 41
6.25
 42
6.25
 43
6.25
  0
MTEXT
  5
730D
330
5A24
100
AcDbEntity
  8
AM_5 寸法線
 62
     3
100
AcDbMText
 10
499.6113762079585
 20
334.7612217114376
 30
0.0
 40
8.75
 41
0.0
 46
0.0
 71
     5
 72
     1
  1
236
  7
SEISA
 73
     1
 44
1.0
  0
POINT
  5
730E
330
5A24
100
AcDbEntity
  8
Defpoints
 62
     0
100
AcDbPoint
 10
381.6113762079585
 20
455.1362217114376
 30
0.0
  0
POINT
  5
730F
330
5A24
100
AcDbEntity
  8
Defpoints
 62
     0
100
AcDbPoint
 10
617.6113762079585
 20
458.2362217114376
 30
0.0
  0
POINT
  5
7310
330
5A24
100
AcDbEntity
  8
Defpoints
 62
     0
100
AcDbPoint
 10
617.6113762079585
 20
326.6362217114377
 30
0.0
  0
ENDBLK
  5
5A26
330
5A24
100
AcDbEntity
  8
0
100
AcDbBlockEnd
  0
BLOCK
  5
6C63
330
6C60
100
AcDbEntity
  8
0
100
AcDbBlockBegin
  2
GENDOT
 70
     0
 10
0.0
 20
0.0
 30
0.0
  3
GENDOT
  1

  0
LINE
  5
6C61
330
6C60
100
AcDbEntity
  8
0
100
AcDbLine
 10
0.0
 20
0.0
 30
0.0
 11
-1.0
 21
0.0
 31
0.0
  0
LWPOLYLINE
  5
6C62
330
6C60
100
AcDbEntity
  8
0
100
AcDbPolyline
 90
        2
 70
     1
 43
0.25
 10
-0.125
 20
0.0
 42
1.0
 10
0.125
 20
0.0
 42
1.0
  0
ENDBLK
  5
6C64
330
6C60
100
AcDbEntity
  8
0
100
AcDbBlockEnd
  0
BLOCK
  5
7711
330
7710
100
AcDbEntity
  8
0
100
AcDbBlockBegin
  2
*D26
 70
     1
 10
0.0
 20
0.0
 30
0.0
  3
*D26
  1

  0
LINE
  5
77CC
330
7710
100
AcDbEntity
  8
AM_5 寸法線
 62
     3
100
AcDbLine
 10
505.6113762079585
 20
595.0737217114376
 30
0.0
 11
505.6113762079585
 21
574.4274339061262
 31
0.0
  0
LINE
  5
77CD
330
7710
100
AcDbEntity
  8
AM_5 寸法線
 62
     3
100
AcDbLine
 10
523.6113762079585
 20
596.0737217114377
 30
0.0
 11
523.6113762079585
 21
574.4274339061262
 31
0.0
  0
LINE
  5
77CE
330
7710
100
AcDbEntity
  8
AM_5 寸法線
 62
     3
100
AcDbLine
 10
499.3613762079585
 20
575.9899339061262
 30
0.0
 11
493.1113762079585
 21
575.9899339061262
 31
0.0
  0
LINE
  5
77CF
330
7710
100
AcDbEntity
  8
AM_5 寸法線
 62
     3
100
AcDbLine
 10
523.6113762079585
 20
575.9899339061262
 30
0.0
 11
529.8613762079585
 21
575.9899339061262
 31
0.0
  0
MTEXT
  5
77D0
330
7710
100
AcDbEntity
  8
AM_5 寸法線
 62
     3
100
AcDbMText
 10
513.809878757902
 20
582.9992599291891
 30
0.0
 40
8.75
 41
0.0
 46
0.0
 71
     5
 72
     1
  1
18
  7
SEISA
 73
     1
 44
1.0
  0
LINE
  5
77D1
330
7710
100
AcDbEntity
  8
AM_5 寸法線
 62
     3
100
AcDbLine
 10
505.6113762079585
 20
575.9899339061262
 30
0.0
 11
523.6113762079585
 21
575.9899339061262
 31
0.0
  0
INSERT
  5
77D2
330
7710
100
AcDbEntity
  8
AM_5 寸法線
 62
     3
100
AcDbBlockReference
  2
_Open30
 10
505.6113762079585
 20
575.9899339061262
 30
0.0
 41
6.25
 42
6.25
 43
6.25
  0
INSERT
  5
77D3
330
7710
100
AcDbEntity
  8
AM_5 寸法線
 62
     3
100
AcDbBlockReference
  2
_DotSmall
 10
523.6113762079585
 20
575.9899339061262
 30
0.0
 41
6.25
 42
6.25
 43
6.25
 50
180.0
  0
POINT
  5
77D4
330
7710
100
AcDbEntity
  8
Defpoints
 62
     0
100
AcDbPoint
 10
505.6113762079585
 20
596.6362217114376
 30
0.0
  0
POINT
  5
77D5
330
7710
100
AcDbEntity
  8
Defpoints
 62
     0
100
AcDbPoint
 10
523.6113762079585
 20
597.6362217114377
 30
0.0
  0
POINT
  5
77D6
330
7710
100
AcDbEntity
  8
Defpoints
 62
     0
100
AcDbPoint
 10
523.6113762079585
 20
575.9899339061262
 30
0.0
  0
ENDBLK
  5
7712
330
7710
100
AcDbEntity
  8
0
100
AcDbBlockEnd
  0
BLOCK
  5
7743
330
7742
100
AcDbEntity
  8
0
100
AcDbBlockBegin
  2
*D27
 70
     1
 10
0.0
 20
0.0
 30
0.0
  3
*D27
  1

  0
LINE
  5
77C3
330
7742
100
AcDbEntity
  8
AM_5 寸法線
 62
     3
100
AcDbLine
 10
523.6113762079585
 20
596.0737217114377
 30
0.0
 11
523.6113762079585
 21
574.4274339061258
 31
0.0
  0
LINE
  5
77C4
330
7742
100
AcDbEntity
  8
AM_5 寸法線
 62
     3
100
AcDbLine
 10
547.6113762079584
 20
598.0945520930377
 30
0.0
 11
547.6113762079584
 21
574.4274339061258
 31
0.0
  0
LINE
  5
77C5
330
7742
100
AcDbEntity
  8
AM_5 寸法線
 62
     3
100
AcDbLine
 10
523.6113762079585
 20
575.9899339061258
 30
0.0
 11
547.6113762079584
 21
575.9899339061258
 31
0.0
  0
INSERT
  5
77C6
330
7742
100
AcDbEntity
  8
AM_5 寸法線
 62
     3
100
AcDbBlockReference
  2
_DotSmall
 10
523.6113762079585
 20
575.9899339061258
 30
0.0
 41
6.25
 42
6.25
 43
6.25
 50
180.0
  0
INSERT
  5
77C7
330
7742
100
AcDbEntity
  8
AM_5 寸法線
 62
     3
100
AcDbBlockReference
  2
_DotSmall
 10
547.6113762079584
 20
575.9899339061258
 30
0.0
 41
6.25
 42
6.25
 43
6.25
  0
MTEXT
  5
77C8
330
7742
100
AcDbEntity
  8
AM_5 寸法線
 62
     3
100
AcDbMText
 10
535.6113762079585
 20
584.1149339061257
 30
0.0
 40
8.75
 41
0.0
 46
0.0
 71
     5
 72
     1
  1
24
  7
SEISA
 73
     1
 44
1.0
  0
POINT
  5
77C9
330
7742
100
AcDbEntity
  8
Defpoints
 62
     0
100
AcDbPoint
 10
523.6113762079585
 20
597.6362217114377
 30
0.0
  0
POINT
  5
77CA
330
7742
100
AcDbEntity
  8
Defpoints
 62
     0
100
AcDbPoint
 10
547.6113762079584
 20
599.6570520930377
 30
0.0
  0
POINT
  5
77CB
330
7742
100
AcDbEntity
  8
Defpoints
 62
     0
100
AcDbPoint
 10
547.6113762079584
 20
575.9899339061258
 30
0.0
  0
ENDBLK
  5
7744
330
7742
100
AcDbEntity
  8
0
100
AcDbBlockEnd
  0
BLOCK
  5
77A2
330
77A0
100
AcDbEntity
  8
0
100
AcDbBlockBegin
  2
_DotSmall
 70
     0
 10
0.0
 20
0.0
 30
0.0
  3
_DotSmall
  1

  0
LWPOLYLINE
  5
77A1
330
77A0
100
AcDbEntity
  8
0
  6
ByBlock
 62
     0
100
AcDbPolyline
 90
        2
 70
     1
 43
0.5
 10
-0.0625
 20
0.0
 42
1.0
 10
0.0625
 20
0.0
 42
1.0
  0
ENDBLK
  5
77A3
330
77A0
100
AcDbEntity
  8
0
100
AcDbBlockEnd
  0
BLOCK
  5
781A
330
7819
100
AcDbEntity
  8
0
100
AcDbBlockBegin
  2
*D29
 70
     1
 10
0.0
 20
0.0
 30
0.0
  3
*D29
  1

  0
LINE
  5
796A
330
7819
100
AcDbEntity
  8
AM_5 寸法線
 62
     3
100
AcDbLine
 10
617.6113762079585
 20
595.5987217114377
 30
0.0
 11
617.6113762079585
 21
653.6601121038336
 31
0.0
  0
LINE
  5
796B
330
7819
100
AcDbEntity
  8
AM_5 寸法線
 62
     3
100
AcDbLine
 10
618.6113762079585
 20
610.6987217114376
 30
0.0
 11
618.6113762079585
 21
653.6601121038336
 31
0.0
  0
LINE
  5
796C
330
7819
100
AcDbEntity
  8
AM_5 寸法線
 62
     3
100
AcDbLine
 10
611.3613762079585
 20
652.0976121038336
 30
0.0
 11
605.1113762079585
 21
652.0976121038336
 31
0.0
  0
LINE
  5
796D
330
7819
100
AcDbEntity
  8
AM_5 寸法線
 62
     3
100
AcDbLine
 10
624.8613762079585
 20
652.0976121038336
 30
0.0
 11
640.4863762079585
 21
652.0976121038336
 31
0.0
  0
LINE
  5
796E
330
7819
100
AcDbEntity
  8
AM_5 寸法線
 62
     3
100
AcDbLine
 10
617.6113762079585
 20
652.0976121038336
 30
0.0
 11
618.6113762079585
 21
652.0976121038336
 31
0.0
  0
INSERT
  5
796F
330
7819
100
AcDbEntity
  8
AM_5 寸法線
 62
     3
100
AcDbBlockReference
  2
_Open30
 10
617.6113762079585
 20
652.0976121038336
 30
0.0
 41
6.25
 42
6.25
 43
6.25
  0
INSERT
  5
7970
330
7819
100
AcDbEntity
  8
AM_5 寸法線
 62
     3
100
AcDbBlockReference
  2
_Open30
 10
618.6113762079585
 20
652.0976121038336
 30
0.0
 41
6.25
 42
6.25
 43
6.25
 50
180.0
  0
MTEXT
  5
7971
330
7819
100
AcDbEntity
  8
AM_5 寸法線
 62
     3
100
AcDbMText
 10
635.7988762079585
 20
660.2226121038336
 30
0.0
 40
8.75
 41
0.0
 46
0.0
 71
     5
 72
     1
  1
1
  7
SEISA
 73
     1
 44
1.0
  0
POINT
  5
7972
330
7819
100
AcDbEntity
  8
Defpoints
 62
     0
100
AcDbPoint
 10
617.6113762079585
 20
594.0362217114377
 30
0.0
  0
POINT
  5
7973
330
7819
100
AcDbEntity
  8
Defpoints
 62
     0
100
AcDbPoint
 10
618.6113762079585
 20
609.1362217114376
 30
0.0
  0
POINT
  5
7974
330
7819
100
AcDbEntity
  8
Defpoints
 62
     0
100
AcDbPoint
 10
618.6113762079585
 20
652.0976121038336
 30
0.0
  0
ENDBLK
  5
781B
330
7819
100
AcDbEntity
  8
0
100
AcDbBlockEnd
  0
BLOCK
  5
7995
330
7994
100
AcDbEntity
  8
0
100
AcDbBlockBegin
  2
ケース
 70
     0
 10
0.0
 20
0.0
 30
0.0
  3
ケース
  1

  0
LINE
  5
7997
330
7994
100
AcDbEntity
  8
AM_11 想像線
 48
0.1
100
AcDbLine
 10
0.0
 20
-9.5
 30
0.0
 11
9.855531001225243
 21
-9.5
 31
0.0
  0
LINE
  5
7998
330
7994
100
AcDbEntity
  8
AM_11 想像線
 48
0.1
100
AcDbLine
 10
6.855531001225243
 20
-11.5
 30
0.0
 11
0.0
 21
-11.5
 31
0.0
  0
LINE
  5
7999
330
7994
100
AcDbEntity
  8
AM_11 想像線
 48
0.1
100
AcDbLine
 10
0.0
 20
0.0
 30
0.0
 11
21.85553100122525
 21
0.0
 31
0.0
  0
LINE
  5
799A
330
7994
100
AcDbEntity
  8
AM_11 想像線
 48
0.1
100
AcDbLine
 10
0.0
 20
-7.0
 30
0.0
 11
7.855531001225243
 21
-7.0
 31
0.0
  0
ARC
  5
799B
330
7994
100
AcDbEntity
  8
AM_11 想像線
 48
0.1
100
AcDbCircle
 10
21.85553100122525
 20
-4.0
 30
0.0
 40
4.0
100
AcDbArc
 50
0.0
 51
90.0
  0
LINE
  5
799C
330
7994
100
AcDbEntity
  8
AM_11 想像線
 48
0.1
100
AcDbLine
 10
22.6555310012252
 20
-9.799999999999952
 30
0.0
 11
16.05553100122528
 21
-9.799999999999952
 31
0.0
  0
LINE
  5
799D
330
7994
100
AcDbEntity
  8
AM_11 想像線
 48
0.1
100
AcDbLine
 10
11.85553100122524
 20
-6.5
 30
0.0
 11
8.855531001225243
 21
-6.5
 31
0.0
  0
LINE
  5
799E
330
7994
100
AcDbEntity
  8
AM_11 想像線
 48
0.1
100
AcDbLine
 10
7.855531001225243
 20
-10.5
 30
0.0
 11
6.855531001225243
 21
-11.5
 31
0.0
  0
LINE
  5
799F
330
7994
100
AcDbEntity
  8
AM_11 想像線
 48
0.1
100
AcDbLine
 10
7.855531001225243
 20
-8.099028998370386
 30
0.0
 11
7.855531001225243
 21
-10.5
 31
0.0
  0
ARC
  5
79A0
330
7994
100
AcDbEntity
  8
AM_11 想像線
 48
0.1
100
AcDbCircle
 10
8.855531001225243
 20
-7.5
 30
0.0
 40
1.0
100
AcDbArc
 50
90.0
 51
180.0
  0
ARC
  5
79A1
330
7994
100
AcDbEntity
  8
AM_11 想像線
 48
0.1
100
AcDbCircle
 10
11.85553100122524
 20
-7.5
 30
0.0
 40
1.0
100
AcDbArc
 50
0.0
 51
90.0
  0
LINE
  5
79A2
330
7994
100
AcDbEntity
  8
AM_11 想像線
 48
0.1
100
AcDbLine
 10
12.85553100122524
 20
-13.25
 30
0.0
 11
12.85553100122524
 21
-7.5
 31
0.0
  0
LINE
  5
79A3
330
7994
100
AcDbEntity
  8
AM_11 想像線
 48
0.1
100
AcDbLine
 10
15.55553100122529
 20
-13.25
 30
0.0
 11
12.85553100122524
 21
-13.25
 31
0.0
  0
LINE
  5
79A4
330
7994
100
AcDbEntity
  8
AM_11 想像線
 48
0.1
100
AcDbLine
 10
15.55553100122529
 20
-10.29999999999995
 30
0.0
 11
15.55553100122529
 21
-13.25
 31
0.0
  0
ARC
  5
79A5
330
7994
100
AcDbEntity
  8
AM_11 想像線
 48
0.1
100
AcDbCircle
 10
16.05553100122528
 20
-10.29999999999995
 30
0.0
 40
0.5
100
AcDbArc
 50
90.0
 51
180.0
  0
LINE
  5
79A6
330
7994
100
AcDbEntity
  8
AM_11 想像線
 48
0.1
100
AcDbLine
 10
15.55553100122529
 20
-13.25
 30
0.0
 11
15.55553100122529
 21
-14.5
 31
0.0
  0
LINE
  5
79A7
330
7994
100
AcDbEntity
  8
AM_11 想像線
 48
0.1
100
AcDbLine
 10
12.85553100122524
 20
-13.25
 30
0.0
 11
12.85553100122524
 21
-14.5
 31
0.0
  0
ARC
  5
79A8
330
7994
100
AcDbEntity
  8
AM_11 想像線
 48
0.1
100
AcDbCircle
 10
22.6555310012252
 20
-10.29999999999995
 30
0.0
 40
0.5
100
AcDbArc
 50
0.0
 51
90.0
  0
LINE
  5
79A9
330
7994
100
AcDbEntity
  8
AM_11 想像線
 48
0.1
100
AcDbLine
 10
23.1555310012252
 20
-13.25
 30
0.0
 11
23.1555310012252
 21
-10.29999999999995
 31
0.0
  0
LINE
  5
79AA
330
7994
100
AcDbEntity
  8
AM_11 想像線
 48
0.1
100
AcDbLine
 10
25.85553100122524
 20
-13.25
 30
0.0
 11
23.1555310012252
 21
-13.25
 31
0.0
  0
LINE
  5
79AB
330
7994
100
AcDbEntity
  8
AM_11 想像線
 48
0.1
100
AcDbLine
 10
25.85553100122524
 20
-4.0
 30
0.0
 11
25.85553100122524
 21
-13.25
 31
0.0
  0
LINE
  5
79AC
330
7994
100
AcDbEntity
  8
AM_11 想像線
 48
0.1
100
AcDbLine
 10
25.85553100122524
 20
-13.25
 30
0.0
 11
25.85553100122524
 21
-14.5
 31
0.0
  0
LINE
  5
79AD
330
7994
100
AcDbEntity
  8
AM_11 想像線
 48
0.1
100
AcDbLine
 10
23.1555310012252
 20
-13.25
 30
0.0
 11
23.1555310012252
 21
-14.5
 31
0.0
  0
LINE
  5
79AE
330
7994
100
AcDbEntity
  8
AM_11 想像線
 48
0.1
100
AcDbLine
 10
7.855531001225243
 20
-7.5
 30
0.0
 11
7.855531001225243
 21
-8.099028999999973
 31
0.0
  0
ENDBLK
  5
7996
330
7994
100
AcDbEntity
  8
0
100
AcDbBlockEnd
  0
ENDSEC
  0
SECTION
  2
ENTITIES
  0
MTEXT
  5
31AD
330
1F
100
AcDbEntity
  8
AM_5 寸法線
100
AcDbMText
 10
-671.754792617721
 20
616.1063865097749
 30
0.0
 40
7.0
 41
0.0
 46
0.0
 71
     9
 72
     1
  1

  7
SEISA
 73
     1
 44
1.0
  0
LINE
  5
3DD0
330
1F
100
AcDbEntity
  8
AM_7 中心線
100
AcDbLine
 10
622.6113762079585
 20
526.1362217114376
 30
0.0
 11
376.6113762079585
 21
526.1362217114376
 31
0.0
  0
LINE
  5
3E14
330
1F
100
AcDbEntity
  8
AM_0 外形線1
100
AcDbLine
 10
495.6113762079585
 20
606.6362217114376
 30
0.0
 11
495.6113762079585
 21
610.6362217114376
 31
0.0
  0
INSERT
  5
4EAD
102
{ACAD_REACTORS
330
57F1
330
58D3
330
59A1
330
5A0A
330
5A22
330
58BB
102
}
330
1F
100
AcDbEntity
  8
AM_0 外形線1
100
AcDbBlockReference
  2
ケースＡ SEM224
 10
499.6113762079585
 20
526.1362217114376
 30
0.0
  0
INSERT
  5
4FF3
102
{ACAD_REACTORS
330
56F3
330
572F
330
574B
330
5985
330
59A1
330
59F2
330
5A0A
330
5A3A
102
}
330
1F
100
AcDbEntity
  8
AM_0 外形線1
100
AcDbBlockReference
  2
リジット SEM224
 10
499.6113762079585
 20
526.1362217114376
 30
0.0
  0
INSERT
  5
50CE
102
{ACAD_REACTORS
330
574B
330
5763
330
57F1
330
589A
330
5A22
330
5A3A
330
771F
330
774F
102
}
330
1F
100
AcDbEntity
  8
AM_0 外形線1
100
AcDbBlockReference
  2
センタ SEM224
 10
505.6113762079585
 20
526.1362217114376
 30
0.0
  0
INSERT
  5
528D
330
1F
100
AcDbEntity
  8
AM_0 外形線1
100
AcDbBlockReference
  2
リーマボルト SEM224 M10
 10
484.6113762079585
 20
627.1362217114377
 30
0.0
  0
DIMENSION
  5
56DC
102
{ACAD_XDICTIONARY
360
56E9
102
}
102
{ACAD_REACTORS
330
56F3
102
}
330
1F
100
AcDbEntity
  8
AM_5 寸法線
100
AcDbDimension
  2
*D11
 10
331.6113762079585
 20
451.1362217114378
 30
0.0
 11
323.4863762079585
 21
526.1362217114379
 31
0.0
 70
    32
  1
%%c<>
 71
     5
 42
149.9999999999999
 73
     0
 74
     0
 75
     0
  3
SEISA$0
100
AcDbAlignedDimension
 13
385.6113762079585
 23
601.1362217114376
 33
0.0
 14
385.6113762079585
 24
451.1362217114376
 34
0.0
 50
90.0
100
AcDbRotatedDimension
1001
ACAD_DSTYLE_DIMINSPECT
1070
   396
1000
100%
1070
   395
1000

1070
   394
1070
    33
1070
   393
1070
     0
  0
DIMENSION
  5
5718
102
{ACAD_XDICTIONARY
360
5725
102
}
102
{ACAD_REACTORS
330
572F
102
}
330
1F
100
AcDbEntity
  8
AM_5 寸法線
100
AcDbDimension
  2
*D12
 10
493.6113762079584
 20
541.6214179669156
 30
0.0
 11
437.6113762079585
 21
549.7464179669157
 31
0.0
 70
    32
 71
     5
 42
112.0
 73
     0
 74
     0
 75
     0
  3
SEISA$0
100
AcDbAlignedDimension
 13
381.6113762079585
 23
526.1362217114376
 33
0.0
 14
493.6113762079584
 24
526.1362217114376
 34
0.0
100
AcDbRotatedDimension
  0
DIMENSION
  5
5730
102
{ACAD_XDICTIONARY
360
573F
102
}
102
{ACAD_REACTORS
330
574B
102
}
330
1F
100
AcDbEntity
  8
AM_5 寸法線
100
AcDbDimension
  2
*D13
 10
505.6113762079585
 20
541.6214179669156
 30
0.0
 11
518.0882080589563
 21
550.177531341563
 31
0.0
 70
   160
 71
     5
 42
12.0
 73
     0
 74
     0
 75
     0
  3
SEISA$0
100
AcDbAlignedDimension
 13
493.6113762079584
 23
526.1362217114376
 33
0.0
 14
505.6113762079585
 24
526.1362217114376
 34
0.0
100
AcDbRotatedDimension
1001
ACAD
1000
DSTYLE
1002
{
1070
   279
1070
     2
1002
}
  0
DIMENSION
  5
574C
102
{ACAD_XDICTIONARY
360
5759
102
}
102
{ACAD_REACTORS
330
5763
102
}
330
1F
100
AcDbEntity
  8
AM_5 寸法線
100
AcDbDimension
  2
*D14
 10
617.6113762079585
 20
541.6214179669156
 30
0.0
 11
561.6113762079585
 21
549.7464179669157
 31
0.0
 70
    32
 71
     5
 42
112.0
 73
     0
 74
     0
 75
     0
  3
SEISA$0
100
AcDbAlignedDimension
 13
505.6113762079585
 23
526.1362217114376
 33
0.0
 14
617.6113762079585
 24
526.1362217114376
 34
0.0
100
AcDbRotatedDimension
  0
DIMENSION
  5
57D6
102
{ACAD_XDICTIONARY
360
57E5
102
}
102
{ACAD_REACTORS
330
57F1
102
}
330
1F
100
AcDbEntity
  8
AM_5 寸法線
100
AcDbDimension
  2
*D15
 10
551.6113762079585
 20
575.9899339061258
 30
0.0
 11
570.6738762079585
 21
584.1149339061257
 31
0.0
 70
    32
 71
     5
 42
4.0
 73
     0
 74
     0
 75
     0
  3
SEISA$0
100
AcDbAlignedDimension
 13
547.6113762079585
 23
599.1362217114376
 33
0.0
 14
551.6113762079585
 24
598.6362217114376
 34
0.0
100
AcDbRotatedDimension
1001
ACAD
1000
DSTYLE
1002
{
1070
   343
1005
77A0
1070
   342
1005
0
1070
   173
1070
     1
1070
   344
1005
69
1002
}
  0
DIMENSION
  5
5883
102
{ACAD_XDICTIONARY
360
5890
102
}
102
{ACAD_REACTORS
330
589A
102
}
330
1F
100
AcDbEntity
  8
AM_5 寸法線
100
AcDbDimension
  2
*D16
 10
667.6113762079585
 20
453.6362217114375
 30
0.0
 11
659.4863762079584
 21
526.1362217114379
 31
0.0
 70
    32
  1
%%c<>
 71
     5
 42
144.9999999999999
 73
     0
 74
     0
 75
     0
  3
SEISA$0
100
AcDbAlignedDimension
 13
576.6113762079585
 23
598.6362217114376
 33
0.0
 14
576.6113762079585
 24
453.6362217114376
 34
0.0
 50
90.0
100
AcDbRotatedDimension
1001
ACAD_DSTYLE_DIMINSPECT
1070
   396
1000
100%
1070
   395
1000

1070
   394
1070
    33
1070
   393
1070
     0
1001
ACAD
1000
DSTYLE
1002
{
1070
   279
1070
     0
1002
}
  0
DIMENSION
  5
58A4
102
{ACAD_XDICTIONARY
360
58B1
102
}
102
{ACAD_REACTORS
330
58BB
102
}
330
1F
100
AcDbEntity
  8
AM_5 寸法線
100
AcDbDimension
  2
*D17
 10
692.6113762079586
 20
439.1362217114376
 30
0.0
 11
692.6113762079585
 21
526.1362217114379
 31
0.0
 70
   160
  1
%%c<>
 71
     5
 42
173.9999999999999
 73
     0
 74
     0
 75
     0
  3
SEISA$0
100
AcDbAlignedDimension
 13
560.6113762079585
 23
613.1362217114376
 33
0.0
 14
560.6113762079585
 24
439.1362217114376
 34
0.0
 50
90.0
100
AcDbRotatedDimension
1001
ACAD_DSTYLE_DIMINSPECT
1070
   396
1000
100%
1070
   395
1000

1070
   394
1070
    33
1070
   393
1070
     0
1001
ACAD
1000
DSTYLE
1002
{
1070
   279
1070
     0
1002
}
  0
DIMENSION
  5
58BC
102
{ACAD_XDICTIONARY
360
58C9
102
}
102
{ACAD_REACTORS
330
58D3
102
}
330
1F
100
AcDbEntity
  8
AM_5 寸法線
100
AcDbDimension
  2
*D18
 10
717.6113762079586
 20
414.1362217114376
 30
0.0
 11
717.6113762079586
 21
526.1362217114379
 31
0.0
 70
   160
  1
%%c<>
 71
     5
 42
223.9999999999999
 73
     0
 74
     0
 75
     0
  3
SEISA$0
100
AcDbAlignedDimension
 13
513.6113762079585
 23
638.1362217114376
 33
0.0
 14
513.6113762079585
 24
414.1362217114376
 34
0.0
 50
90.0
100
AcDbRotatedDimension
1001
ACAD_DSTYLE_DIMINSPECT
1070
   396
1000
100%
1070
   395
1000

1070
   394
1070
    33
1070
   393
1070
     0
1001
ACAD
1000
DSTYLE
1002
{
1070
   279
1070
     0
1002
}
  0
DIMENSION
  5
596A
102
{ACAD_XDICTIONARY
360
5979
102
}
102
{ACAD_REACTORS
330
5985
102
}
330
1F
100
AcDbEntity
  8
AM_5 寸法線
100
AcDbDimension
  2
*D19
 10
484.6113762079585
 20
376.6362217114377
 30
0.0
 11
474.0760921924398
 21
384.8393548842962
 31
0.0
 70
   160
 71
     5
 42
15.0
 73
     0
 74
     0
 75
     0
  3
SEISA$0
100
AcDbAlignedDimension
 13
499.6113762079585
 23
415.1362217114376
 33
0.0
 14
484.6113762079585
 24
415.1362217114376
 34
0.0
100
AcDbRotatedDimension
1001
ACAD_DSTYLE_DIMINSPECT
1070
   396
1000
100%
1070
   395
1000

1070
   394
1070
    33
1070
   393
1070
     0
1001
ACAD
1000
DSTYLE
1002
{
1070
   173
1070
     1
1070
   279
1070
     2
1070
   342
1005
0
1070
   343
1005
6C60
1070
   344
1005
69
1002
}
  0
DIMENSION
  5
5986
102
{ACAD_XDICTIONARY
360
5995
102
}
102
{ACAD_REACTORS
330
59A1
102
}
330
1F
100
AcDbEntity
  8
AM_5 寸法線
100
AcDbDimension
  2
*D20
 10
514.6113762079585
 20
376.6362217114377
 30
0.0
 11
525.0103010507499
 21
384.7721985716123
 31
0.0
 70
   160
 71
     5
 42
15.0
 73
     0
 74
     0
 75
     0
  3
SEISA$0
100
AcDbAlignedDimension
 13
499.6113762079585
 23
415.1362217114376
 33
0.0
 14
514.6113762079585
 24
415.9238071273874
 34
0.0
100
AcDbRotatedDimension
1001
ACAD_DSTYLE_DIMINSPECT
1070
   396
1000
100%
1070
   395
1000

1070
   394
1070
    33
1070
   393
1070
     0
1001
ACAD
1000
DSTYLE
1002
{
1070
   173
1070
     1
1070
   279
1070
     2
1070
   342
1005
0
1070
   343
1005
6C60
1070
   344
1005
69
1002
}
  0
DIMENSION
  5
59DB
102
{ACAD_XDICTIONARY
360
59E8
102
}
102
{ACAD_REACTORS
330
59F2
102
}
330
1F
100
AcDbEntity
  8
AM_5 寸法線
100
AcDbDimension
  2
*D21
 10
381.6113762079585
 20
351.6362217114377
 30
0.0
 11
440.6113762079585
 21
351.6362217114377
 31
0.0
 70
   160
 71
     5
 42
118.0
 73
     0
 74
     0
 75
     0
  3
SEISA$0
100
AcDbAlignedDimension
 13
499.6113762079585
 23
415.1362217114376
 33
0.0
 14
381.6113762079585
 24
455.1362217114376
 34
0.0
100
AcDbRotatedDimension
1001
ACAD
1000
DSTYLE
1002
{
1070
   279
1070
     0
1002
}
  0
DIMENSION
  5
59F3
102
{ACAD_XDICTIONARY
360
5A00
102
}
102
{ACAD_REACTORS
330
5A0A
102
}
330
1F
100
AcDbEntity
  8
AM_5 寸法線
100
AcDbDimension
  2
*D22
 10
564.6113762079585
 20
351.6362217114377
 30
0.0
 11
532.1113762079585
 21
351.6362217114377
 31
0.0
 70
   160
 71
     5
 42
65.0
 73
     0
 74
     0
 75
     0
  3
SEISA$0
100
AcDbAlignedDimension
 13
499.6113762079585
 23
415.1362217114376
 33
0.0
 14
564.6113762079585
 24
443.1362217114376
 34
0.0
100
AcDbRotatedDimension
1001
ACAD
1000
DSTYLE
1002
{
1070
   279
1070
     0
1002
}
  0
DIMENSION
  5
5A0B
102
{ACAD_XDICTIONARY
360
5A18
102
}
102
{ACAD_REACTORS
330
5A22
102
}
330
1F
100
AcDbEntity
  8
AM_5 寸法線
100
AcDbDimension
  2
*D23
 10
617.6113762079585
 20
351.6362217114377
 30
0.0
 11
591.1113762079585
 21
351.6362217114377
 31
0.0
 70
   160
 71
     5
 42
53.0
 73
     0
 74
     0
 75
     0
  3
SEISA$0
100
AcDbAlignedDimension
 13
564.6113762079585
 23
443.1362217114376
 33
0.0
 14
617.6113762079585
 24
458.2362217114376
 34
0.0
100
AcDbRotatedDimension
1001
ACAD
1000
DSTYLE
1002
{
1070
   279
1070
     0
1002
}
  0
DIMENSION
  5
5A23
102
{ACAD_XDICTIONARY
360
5A30
102
}
102
{ACAD_REACTORS
330
5A3A
102
}
330
1F
100
AcDbEntity
  8
AM_5 寸法線
100
AcDbDimension
  2
*D24
 10
617.6113762079585
 20
326.6362217114377
 30
0.0
 11
499.6113762079585
 21
326.6362217114377
 31
0.0
 70
   160
 71
     5
 42
236.0
 73
     0
 74
     0
 75
     0
  3
SEISA$0
100
AcDbAlignedDimension
 13
381.6113762079585
 23
455.1362217114376
 33
0.0
 14
617.6113762079585
 24
458.2362217114376
 34
0.0
100
AcDbRotatedDimension
1001
ACAD
1000
DSTYLE
1002
{
1070
   279
1070
     0
1002
}
  0
LINE
  5
6EA6
330
1F
100
AcDbEntity
  8
AM_5 寸法線
100
AcDbLine
 10
527.1113762079585
 20
376.6362217114377
 30
0.0
 11
531.8009120814049
 21
376.6362217114377
 31
0.0
  0
LINE
  5
6EA7
330
1F
100
AcDbEntity
  8
AM_5 寸法線
100
AcDbLine
 10
472.1113762079585
 20
376.6362217114377
 30
0.0
 11
468.3797552135366
 21
376.6362217114377
 31
0.0
  0
MTEXT
  5
7661
330
1F
100
AcDbEntity
  8
AM_6 文字
100
AcDbMText
 10
639.0276002713062
 20
394.1481742384313
 30
0.0
 40
8.75
 41
190.9645303194131
 46
55.39817191497679
 71
     1
 72
     5
  1
{\W0.6;TYPE:SEM224/SEMH224\PSHAFT DIA:MAX/MIN \P RIGID SIDE φ105/φ42\P COUPLING CENTER SIDE φ100/φ42}
  7
SEISA
 73
     1
 44
1.0
  0
DIMENSION
  5
770F
102
{ACAD_XDICTIONARY
360
771E
102
}
102
{ACAD_REACTORS
330
771F
102
}
330
1F
100
AcDbEntity
  8
AM_5 寸法線
100
AcDbDimension
  2
*D26
 10
523.6113762079585
 20
575.9899339061262
 30
0.0
 11
513.809878757902
 21
582.9992599291891
 31
0.0
 70
   160
 71
     5
 42
18.0
 73
     0
 74
     0
 75
     0
  3
SEISA$0
100
AcDbAlignedDimension
 13
505.6113762079585
 23
596.6362217114376
 33
0.0
 14
523.6113762079585
 24
597.6362217114377
 34
0.0
 50
0.0000000000001132
100
AcDbRotatedDimension
1001
ACAD_DSTYLE_DIMINSPECT
1070
   396
1000
100%
1070
   395
1000

1070
   394
1070
    33
1070
   393
1070
     0
1001
ACAD
1000
DSTYLE
1002
{
1070
   344
1005
77A0
1070
   342
1005
0
1070
   173
1070
     1
1070
   343
1005
69
1070
   279
1070
     2
1002
}
  0
DIMENSION
  5
7741
102
{ACAD_XDICTIONARY
360
774E
102
}
102
{ACAD_REACTORS
330
774F
102
}
330
1F
100
AcDbEntity
  8
AM_5 寸法線
100
AcDbDimension
  2
*D27
 10
547.6113762079584
 20
575.9899339061258
 30
0.0
 11
535.6113762079585
 21
584.1149339061257
 31
0.0
 70
    32
 71
     5
 42
23.99999999999989
 73
     0
 74
     0
 75
     0
  3
SEISA$0
100
AcDbAlignedDimension
 13
523.6113762079585
 23
597.6362217114377
 33
0.0
 14
547.6113762079584
 24
599.6570520930377
 34
0.0
 50
0.0000000000001132
100
AcDbRotatedDimension
1001
ACAD_DSTYLE_DIMINSPECT
1070
   396
1000
100%
1070
   395
1000

1070
   394
1070
    33
1070
   393
1070
     0
1001
ACAD
1000
DSTYLE
1002
{
1070
   344
1005
77A0
1070
   342
1005
0
1070
   173
1070
     1
1070
   343
1005
77A0
1070
   279
1070
     2
1002
}
  0
DIMENSION
  5
7818
330
1F
100
AcDbEntity
  8
AM_5 寸法線
100
AcDbDimension
  2
*D29
 10
618.6113762079585
 20
652.0976121038336
 30
0.0
 11
635.7988762079585
 21
660.2226121038336
 31
0.0
 70
    32
 71
     5
 42
-1.0
 73
     0
 74
     0
 75
     0
  3
SEISA$0
100
AcDbAlignedDimension
 13
617.6113762079585
 23
594.0362217114377
 33
0.0
 14
618.6113762079585
 24
609.1362217114376
 34
0.0
 50
0.0000000000000114
100
AcDbRotatedDimension
1001
ACAD_DSTYLE_DIMINSPECT
1070
   396
1000
100%
1070
   395
1000

1070
   394
1070
    33
1070
   393
1070
     0
  0
INSERT
  5
79AF
330
1F
100
AcDbEntity
  8
AM_11 想像線
100
AcDbBlockReference
  2
ケース
 10
592.7558452067333
 20
613.1362217114376
 30
0.0
  0
ENDSEC
  0
SECTION
  2
OBJECTS
  0
DICTIONARY
  5
C
330
0
100
AcDbDictionary
281
     1
  3
ACAD_COLOR
350
C5
  3
ACAD_GROUP
350
D
  3
ACAD_LAYOUT
350
1A
  3
ACAD_MATERIAL
350
C4
  3
ACAD_MLEADERSTYLE
350
2D5
  3
ACAD_MLINESTYLE
350
17
  3
ACAD_PLOTSETTINGS
350
19
  3
ACAD_PLOTSTYLENAME
350
E
  3
ACAD_SCALELIST
350
2B3
  3
ACAD_TABLESTYLE
350
121
  3
ACAD_VISUALSTYLE
350
27F
  3
ACDB_RECOMPOSE_DATA
350
2F7
  3
AcDbVariableDictionary
350
34
  3
AcmDictionary
350
49
  3
AMG
350
2B
  3
AMGSNAPSETTINGS
350
1DE
  0
DICTIONARY
  5
BF
330
2
100
AcDbDictionary
280
     1
281
     1
  3
ACAD_LAYERSTATES
360
7658
  3
AMLAYER_GROUPCOLORS
360
C0
  0
DICTIONARY
  5
29F7
330
10
100
AcDbDictionary
280
     1
281
     1
  3
ADSK_XREC_LAYER_RECONCILED
360
29F8
  0
DICTIONARY
  5
29F9
330
81
100
AcDbDictionary
280
     1
281
     1
  3
ADSK_XREC_LAYER_RECONCILED
360
29FA
  0
DICTIONARY
  5
82
330
1F
100
AcDbDictionary
280
     1
281
     1
  3
ACAD_SORTENTS
360
A41
  0
DICTIONARY
  5
349A
330
3499
100
AcDbDictionary
280
     1
281
     1
  3
ACAD_SORTENTS
360
64D8
  0
DICTIONARY
  5
4F44
330
4E70
100
AcDbDictionary
280
     1
281
     1
  3
ACAD_SORTENTS
360
7072
  0
DICTIONARY
  5
5065
330
4FC9
100
AcDbDictionary
280
     1
281
     1
  3
ACAD_SORTENTS
360
770E
  0
DICTIONARY
  5
5129
330
50A8
100
AcDbDictionary
280
     1
281
     1
  3
ACAD_SORTENTS
360
78F9
  0
DICTIONARY
  5
536E
330
525C
100
AcDbDictionary
280
     1
281
     1
  3
ACAD_SORTENTS
360
7265
  0
DICTIONARY
  5
56E9
330
56DC
100
AcDbDictionary
280
     1
281
     1
  3
ACAD_DIMASSOC
360
56F3
  0
DICTIONARY
  5
5725
330
5718
100
AcDbDictionary
280
     1
281
     1
  3
ACAD_DIMASSOC
360
572F
  0
DICTIONARY
  5
573F
330
5730
100
AcDbDictionary
280
     1
281
     1
  3
ACAD_DIMASSOC
360
574B
  0
DICTIONARY
  5
5759
330
574C
100
AcDbDictionary
280
     1
281
     1
  3
ACAD_DIMASSOC
360
5763
  0
DICTIONARY
  5
57E5
330
57D6
100
AcDbDictionary
280
     1
281
     1
  3
ACAD_DIMASSOC
360
57F1
  0
DICTIONARY
  5
5890
330
5883
100
AcDbDictionary
280
     1
281
     1
  3
ACAD_DIMASSOC
360
589A
  0
DICTIONARY
  5
58B1
330
58A4
100
AcDbDictionary
280
     1
281
     1
  3
ACAD_DIMASSOC
360
58BB
  0
DICTIONARY
  5
58C9
330
58BC
100
AcDbDictionary
280
     1
281
     1
  3
ACAD_DIMASSOC
360
58D3
  0
DICTIONARY
  5
5979
330
596A
100
AcDbDictionary
280
     1
281
     1
  3
ACAD_DIMASSOC
360
5985
  0
DICTIONARY
  5
5995
330
5986
100
AcDbDictionary
280
     1
281
     1
  3
ACAD_DIMASSOC
360
59A1
  0
DICTIONARY
  5
59E8
330
59DB
100
AcDbDictionary
280
     1
281
     1
  3
ACAD_DIMASSOC
360
59F2
  0
DICTIONARY
  5
5A00
330
59F3
100
AcDbDictionary
280
     1
281
     1
  3
ACAD_DIMASSOC
360
5A0A
  0
DICTIONARY
  5
5A18
330
5A0B
100
AcDbDictionary
280
     1
281
     1
  3
ACAD_DIMASSOC
360
5A22
  0
DICTIONARY
  5
5A30
330
5A23
100
AcDbDictionary
280
     1
281
     1
  3
ACAD_DIMASSOC
360
5A3A
  0
DICTIONARY
  5
771E
330
770F
100
AcDbDictionary
280
     1
281
     1
  3
ACAD_DIMASSOC
360
771F
  0
DICTIONARY
  5
774E
330
7741
100
AcDbDictionary
280
     1
281
     1
  3
ACAD_DIMASSOC
360
774F
  0
DICTIONARY
  5
C5
102
{ACAD_REACTORS
330
C
102
}
330
C
100
AcDbDictionary
281
     1
  0
DICTIONARY
  5
D
102
{ACAD_REACTORS
330
C
102
}
330
C
100
AcDbDictionary
281
     1
  0
DICTIONARY
  5
1A
102
{ACAD_REACTORS
330
C
102
}
330
C
100
AcDbDictionary
281
     1
  3
Model
350
22
  3
レイアウト1
350
1E
  3
レイアウト2
350
26
  0
DICTIONARY
  5
C4
102
{ACAD_REACTORS
330
C
102
}
330
C
100
AcDbDictionary
281
     1
  3
ByBlock
350
27D
  3
ByLayer
350
27C
  3
Global
350
27E
  0
DICTIONARY
  5
2D5
102
{ACAD_REACTORS
330
C
102
}
330
C
100
AcDbDictionary
281
     1
  3
Standard
350
2D6
  0
DICTIONARY
  5
17
102
{ACAD_REACTORS
330
C
102
}
330
C
100
AcDbDictionary
281
     1
  3
Standard
350
18
  0
DICTIONARY
  5
19
102
{ACAD_REACTORS
330
C
102
}
330
C
100
AcDbDictionary
281
     1
  3
SEISA基本
350
1C7E
  0
ACDBDICTIONARYWDFLT
  5
E
102
{ACAD_REACTORS
330
C
102
}
330
C
100
AcDbDictionary
281
     1
  3
Normal
350
F
100
AcDbDictionaryWithDefault
340
F
  0
DICTIONARY
  5
2B3
102
{ACAD_REACTORS
330
C
102
}
330
C
100
AcDbDictionary
281
     1
  3
*A1
350
2A04
  3
*A2
350
36B0
  3
A0
350
2B4
  3
A1
350
2B5
  3
A2
350
2B6
  3
A3
350
2B7
  3
A4
350
2B8
  3
A5
350
2B9
  3
A6
350
2BA
  3
A7
350
2BB
  3
A8
350
2BC
  3
A9
350
2BD
  3
B0
350
2BE
  3
B1
350
2BF
  3
B2
350
2C0
  3
B3
350
2C1
  3
B4
350
2C2
  3
B5
350
2C3
  3
B6
350
2C4
  3
B7
350
2C5
  3
B8
350
2C6
  3
B9
350
2C7
  3
C0
350
2C8
  3
C1
350
2C9
  3
C2
350
2CA
  3
C3
350
2CB
  3
C4
350
2CC
  3
C5
350
2CD
  3
C6
350
2CE
  3
C7
350
2CF
  3
C8
350
2D0
  3
C9
350
2D1
  3
D0
350
2D2
  3
D1
350
2D3
  3
D2
350
2D4
  0
DICTIONARY
  5
121
102
{ACAD_REACTORS
330
C
102
}
330
C
100
AcDbDictionary
281
     1
  3
Standard
350
122
  0
DICTIONARY
  5
27F
102
{ACAD_REACTORS
330
C
102
}
330
C
100
AcDbDictionary
281
     1
  3
2dWireframe
350
285
  3
3D Hidden
350
287
  3
3dWireframe
350
286
  3
Basic
350
284
  3
Brighten
350
28B
  3
ColorChange
350
28F
  3
Conceptual
350
288
  3
Dim
350
28A
  3
Facepattern
350
28E
  3
Flat
350
280
  3
FlatWithEdges
350
281
  3
Gouraud
350
282
  3
GouraudWithEdges
350
283
  3
Linepattern
350
28D
  3
Realistic
350
289
  3
Thicken
350
28C
  0
XRECORD
  5
2F7
102
{ACAD_REACTORS
330
C
102
}
330
C
100
AcDbXrecord
280
     1
 90
        1
330
122
  0
DICTIONARY
  5
34
102
{ACAD_REACTORS
330
C
102
}
330
C
100
AcDbDictionary
281
     1
  3
CANNOSCALE
350
2FA
  3
CMLEADERSTYLE
350
2F8
  3
CTABLESTYLE
350
140
  3
DIMASSOC
350
AC
  3
INDEXCTL
350
35
  3
LAYEREVAL
350
6974
  3
LAYERNOTIFY
350
6975
  3
LIGHTINGUNITS
350
2FB
  3
MSLTSCALE
350
2F9
  0
DICTIONARY
  5
49
102
{ACAD_REACTORS
330
C
102
}
330
C
100
AcDbDictionary
281
     1
  3
AcmBOM
350
161B
  3
AcmStdDictionary
350
4A
  3
AMDTSECTSYM_ARROWCOLOR
350
12B
  0
DICTIONARY
  5
2B
102
{ACAD_REACTORS
330
C
102
}
330
C
100
AcDbDictionary
281
     1
  0
DICTIONARY
  5
1DE
102
{ACAD_REACTORS
330
C
102
}
330
C
100
AcDbDictionary
281
     1
  0
DICTIONARY
  5
7658
102
{ACAD_REACTORS
330
BF
102
}
330
BF
100
AcDbDictionary
281
     1
  0
DICTIONARY
  5
C0
102
{ACAD_REACTORS
330
BF
102
}
330
BF
100
AcDbDictionary
280
     1
281
     1
  0
XRECORD
  5
29F8
102
{ACAD_REACTORS
330
29F7
102
}
330
29F7
100
AcDbXrecord
280
     1
290
     1
  0
XRECORD
  5
29FA
102
{ACAD_REACTORS
330
29F9
102
}
330
29F9
100
AcDbXrecord
280
     1
290
     1
  0
SORTENTSTABLE
  5
A41
102
{ACAD_REACTORS
330
82
102
}
330
82
100
AcDbSortentsTable
330
1F
331
3E14
  5
3E14
331
5A0B
  5
5A23
331
6EA6
  5
74F3
331
57D6
  5
57FB
331
5718
  5
5730
331
5986
  5
59DB
331
5A23
  5
5A3B
331
574C
  5
578A
331
6EA7
  5
74F4
331
3DD0
  5
3DD0
331
31AD
  5
31AD
331
58A4
  5
58BC
331
528D
  5
541B
331
596A
  5
5986
331
7741
  5
7741
331
59F3
  5
5A0B
331
5730
  5
574C
331
4EAD
  5
4FF3
331
5883
  5
58A4
331
7661
  5
7661
331
59DB
  5
59F3
331
4FF3
  5
50CE
331
56DC
  5
570E
331
50CE
  5
51B5
331
58BC
  5
596A
331
770F
  5
770F
  0
SORTENTSTABLE
  5
64D8
102
{ACAD_REACTORS
330
349A
102
}
330
349A
100
AcDbSortentsTable
330
3499
  0
SORTENTSTABLE
  5
7072
102
{ACAD_REACTORS
330
4F44
102
}
330
4F44
100
AcDbSortentsTable
330
4E70
331
4E94
  5
4E96
331
65D3
  5
4E80
331
4E90
  5
4E92
331
4EAA
  5
4EAC
331
4E8C
  5
4E8E
331
52CB
  5
4E73
331
4EA7
  5
4EA9
331
4E88
  5
4E8A
331
4EA3
  5
4EA5
331
4E75
  5
4E76
331
4E84
  5
4E86
331
4E80
  5
4E82
331
4E7C
  5
4E7D
331
4E9F
  5
4EA1
331
4E78
  5
4E79
331
4E9B
  5
4E9D
331
4E97
  5
4E9A
331
4E93
  5
4E95
331
4E8F
  5
4E91
331
4EA9
  5
4EAB
331
4E8B
  5
4E8D
331
4EA6
  5
4EA8
331
4EA2
  5
4EA4
331
4E74
  5
4E75
331
4E87
  5
4E89
331
4E83
  5
4E85
331
4E7F
  5
4E81
331
4E7B
  5
4E7C
331
4E9E
  5
4EA0
331
4E9A
  5
4E9C
331
4E96
  5
4E98
331
4E92
  5
4E94
331
4EAC
  5
65D3
331
4E8E
  5
4E90
331
4EA8
  5
4EAA
331
4E8A
  5
4E8C
331
4EA5
  5
4EA7
331
4EA1
  5
4EA3
331
4E77
  5
4E78
331
4E73
  5
4E74
331
4E86
  5
4E88
331
4E82
  5
4E84
331
4E7E
  5
4E7F
331
4E7A
  5
4E7B
331
4E9D
  5
4E9F
331
4E95
  5
4E97
331
4E91
  5
4E93
331
4EAB
  5
52CB
331
4E8D
  5
4E8F
331
4E89
  5
4E8B
331
4EA4
  5
4EA6
331
4EA0
  5
4EA2
331
4E76
  5
4E77
331
4E85
  5
4E87
331
4E81
  5
4E83
331
4E7D
  5
4E7E
331
4E79
  5
4E7A
331
4E9C
  5
4E9E
331
4E98
  5
4E9B
  0
SORTENTSTABLE
  5
770E
102
{ACAD_REACTORS
330
5065
102
}
330
5065
100
AcDbSortentsTable
330
4FC9
  0
SORTENTSTABLE
  5
78F9
102
{ACAD_REACTORS
330
5129
102
}
330
5129
100
AcDbSortentsTable
330
50A8
331
50B1
  5
50B3
331
50B0
  5
50B2
331
50B3
  5
50B5
331
50B2
  5
50B4
331
50B5
  5
50B7
331
50B4
  5
50B6
331
50B8
  5
50BC
331
50C8
  5
50CB
331
50B7
  5
50B9
331
50B9
  5
50BD
331
50C9
  5
76B6
331
50BC
  5
50BE
331
50BE
  5
50C0
331
50BD
  5
50BF
331
50C0
  5
50C2
331
50BF
  5
50C1
331
50C2
  5
50C4
331
50C1
  5
50C3
331
50CB
  5
76B7
331
50AB
  5
50AD
331
50C4
  5
50C6
331
50AC
  5
50AE
331
50C3
  5
50C5
331
50AD
  5
50AF
331
50C6
  5
50C8
331
50AE
  5
50B0
331
50C5
  5
50C7
331
50B6
  5
50B8
331
50AF
  5
50B1
331
76B7
  5
50AB
331
76B6
  5
50AC
331
50C7
  5
50C9
  0
SORTENTSTABLE
  5
7265
102
{ACAD_REACTORS
330
536E
102
}
330
536E
100
AcDbSortentsTable
330
525C
  0
DIMASSOC
  5
56F3
102
{ACAD_REACTORS
330
56E9
102
}
330
56E9
100
AcDbDimAssoc
330
56DC
 90
        3
 70
     0
 71
     0
  1
AcDbOsnapPointRef
 72
     1
331
4FF3
331
4FD1
 73
     2
 91
        0
 40
1.0
 10
0.0
 20
0.0
 30
2.000000000000000E+50
 75
     0
  1
AcDbOsnapPointRef
 72
     1
331
4FF3
331
4FD2
 73
     2
 91
        0
 40
1.0
 10
0.0
 20
0.0
 30
2.000000000000000E+50
 75
     0
  0
DIMASSOC
  5
572F
102
{ACAD_REACTORS
330
5725
102
}
330
5725
100
AcDbDimAssoc
330
5718
 90
        3
 70
     0
 71
     0
  1
AcDbOsnapPointRef
 72
     1
331
4FF3
331
4FD4
 73
     2
 91
        0
 40
1.0
 10
0.0
 20
0.0
 30
2.000000000000000E+50
 75
     0
  1
AcDbOsnapPointRef
 72
    13
331
4FF3
331
4FD8
 73
     2
 91
        0
 40
0.0
 10
0.0
 20
0.0
 30
2.000000000000000E+50
 75
     0
  0
DIMASSOC
  5
574B
102
{ACAD_REACTORS
330
573F
102
}
330
573F
100
AcDbDimAssoc
330
5730
 90
        3
 70
     0
 71
     0
  1
AcDbOsnapPointRef
 72
    13
331
4FF3
331
4FD8
 73
     2
 91
        0
 40
0.0
 10
0.0
 20
0.0
 30
2.000000000000000E+50
 75
     0
  1
AcDbOsnapPointRef
 72
     1
331
50CE
331
50AB
 73
     2
 91
        0
 40
1.0
 10
0.0
 20
0.0
 30
2.000000000000000E+50
 75
     0
  0
DIMASSOC
  5
5763
102
{ACAD_REACTORS
330
5759
102
}
330
5759
100
AcDbDimAssoc
330
574C
 90
        3
 70
     0
 71
     0
  1
AcDbOsnapPointRef
 72
     1
331
50CE
331
50AB
 73
     2
 91
        0
 40
1.0
 10
0.0
 20
0.0
 30
2.000000000000000E+50
 75
     0
  1
AcDbOsnapPointRef
 72
     2
331
50CE
331
50AC
 73
     2
 91
        0
 40
0.5
 10
0.0
 20
0.0
 30
0.0
 75
     0
  0
DIMASSOC
  5
57F1
102
{ACAD_REACTORS
330
57E5
102
}
330
57E5
100
AcDbDimAssoc
330
57D6
 90
        3
 70
     0
 71
     0
  1
AcDbOsnapPointRef
 72
    13
331
50CE
331
50C6
 73
     2
 91
        0
 40
0.0
 10
0.0
 20
0.0
 30
2.000000000000000E+50
 75
     0
  1
AcDbOsnapPointRef
 72
     1
331
4EAD
331
4EA4
 73
     2
 91
        0
 40
1.0
 10
0.0
 20
0.0
 30
2.000000000000000E+50
 75
     0
  0
DIMASSOC
  5
589A
102
{ACAD_REACTORS
330
5890
102
}
330
5890
100
AcDbDimAssoc
330
5883
 90
        3
 70
     0
 71
     0
  1
AcDbOsnapPointRef
 72
    13
331
50CE
331
50C4
 73
     2
 91
        0
 40
0.0
 10
0.0
 20
0.0
 30
2.000000000000000E+50
 75
     0
  1
AcDbOsnapPointRef
 72
    13
331
50CE
331
50B5
 73
     2
 91
        0
 40
0.0
 10
0.0
 20
0.0
 30
2.000000000000000E+50
 75
     0
  0
DIMASSOC
  5
58BB
102
{ACAD_REACTORS
330
58B1
102
}
330
58B1
100
AcDbDimAssoc
330
58A4
 90
        2
 70
     0
 71
     0
  1
AcDbOsnapPointRef
 72
     1
331
4EAD
331
4E79
 73
     2
 91
        0
 40
1.0
 10
0.0
 20
0.0
 30
2.000000000000000E+50
 75
     0
  0
DIMASSOC
  5
58D3
102
{ACAD_REACTORS
330
58C9
102
}
330
58C9
100
AcDbDimAssoc
330
58BC
 90
        3
 70
     0
 71
     0
  1
AcDbOsnapPointRef
 72
     1
331
4EAD
331
4E92
 73
     2
 91
        0
 40
1.0
 10
0.0
 20
0.0
 30
2.000000000000000E+50
 75
     0
  1
AcDbOsnapPointRef
 72
     1
331
4EAD
331
4E76
 73
     2
 91
        0
 40
1.0
 10
0.0
 20
0.0
 30
2.000000000000000E+50
 75
     0
  0
DIMASSOC
  5
5985
102
{ACAD_REACTORS
330
5979
102
}
330
5979
100
AcDbDimAssoc
330
596A
 90
        3
 70
     0
 71
     0
  1
AcDbOsnapPointRef
 72
    13
331
4FF3
331
4FD0
 73
     2
 91
        0
 40
0.0
 10
0.0
 20
0.0
 30
2.000000000000000E+50
 75
     0
  1
AcDbOsnapPointRef
 72
    13
331
4FF3
331
4FCC
 73
     2
 91
        0
 40
0.0
 10
0.0
 20
0.0
 30
2.000000000000000E+50
 75
     0
  0
DIMASSOC
  5
59A1
102
{ACAD_REACTORS
330
5995
102
}
330
5995
100
AcDbDimAssoc
330
5986
 90
        3
 70
     0
 71
     0
  1
AcDbOsnapPointRef
 72
    13
331
4FF3
331
4FD0
 73
     2
 91
        0
 40
0.0
 10
0.0
 20
0.0
 30
2.000000000000000E+50
 75
     0
  1
AcDbOsnapPointRef
 72
    10
331
4EAD
331
4E74
 73
     2
 91
        0
 40
0.0070953641076545
 10
0.0
 20
0.0
 30
0.0
 75
     0
  0
DIMASSOC
  5
59F2
102
{ACAD_REACTORS
330
59E8
102
}
330
59E8
100
AcDbDimAssoc
330
59DB
 90
        3
 70
     0
 71
     0
  1
AcDbOsnapPointRef
 72
    13
331
4FF3
331
4FD0
 73
     2
 91
        0
 40
0.0
 10
0.0
 20
0.0
 30
2.000000000000000E+50
 75
     0
  1
AcDbOsnapPointRef
 72
    13
331
4FF3
331
4FD5
 73
     2
 91
        0
 40
0.0
 10
0.0
 20
0.0
 30
2.000000000000000E+50
 75
     0
  0
DIMASSOC
  5
5A0A
102
{ACAD_REACTORS
330
5A00
102
}
330
5A00
100
AcDbDimAssoc
330
59F3
 90
        3
 70
     0
 71
     0
  1
AcDbOsnapPointRef
 72
    13
331
4FF3
331
4FD0
 73
     2
 91
        0
 40
0.0
 10
0.0
 20
0.0
 30
2.000000000000000E+50
 75
     0
  1
AcDbOsnapPointRef
 72
    13
331
4EAD
331
4E7B
 73
     2
 91
        0
 40
0.0
 10
0.0
 20
0.0
 30
2.000000000000000E+50
 75
     0
  0
DIMASSOC
  5
5A22
102
{ACAD_REACTORS
330
5A18
102
}
330
5A18
100
AcDbDimAssoc
330
5A0B
 90
        3
 70
     0
 71
     0
  1
AcDbOsnapPointRef
 72
    13
331
4EAD
331
4E7B
 73
     2
 91
        0
 40
0.0
 10
0.0
 20
0.0
 30
2.000000000000000E+50
 75
     0
  1
AcDbOsnapPointRef
 72
    13
331
50CE
331
50AC
 73
     2
 91
        0
 40
0.0
 10
0.0
 20
0.0
 30
2.000000000000000E+50
 75
     0
  0
DIMASSOC
  5
5A3A
102
{ACAD_REACTORS
330
5A30
102
}
330
5A30
100
AcDbDimAssoc
330
5A23
 90
        3
 70
     0
 71
     0
  1
AcDbOsnapPointRef
 72
    13
331
4FF3
331
4FD5
 73
     2
 91
        0
 40
0.0
 10
0.0
 20
0.0
 30
2.000000000000000E+50
 75
     0
  1
AcDbOsnapPointRef
 72
    13
331
50CE
331
50AC
 73
     2
 91
        0
 40
0.0
 10
0.0
 20
0.0
 30
2.000000000000000E+50
 75
     0
  0
DIMASSOC
  5
771F
102
{ACAD_REACTORS
330
771E
102
}
330
771E
100
AcDbDimAssoc
330
770F
 90
        3
 70
     0
 71
     0
  1
AcDbOsnapPointRef
 72
    13
331
50CE
331
50AB
 73
     0
 91
        0
 40
0.0
 10
0.0
 20
0.0
 30
2.000000000000000E+50
 75
     0
  1
AcDbOsnapPointRef
 72
     1
331
50CE
331
50C0
 73
     0
 91
        0
 40
0.0
 10
0.0
 20
0.0
 30
2.000000000000000E+50
 75
     0
  0
DIMASSOC
  5
774F
102
{ACAD_REACTORS
330
774E
102
}
330
774E
100
AcDbDimAssoc
330
7741
 90
        2
 70
     0
 71
     0
  1
AcDbOsnapPointRef
 72
    13
331
50CE
331
76B7
 73
     0
 91
        0
 40
0.0
 10
0.0
 20
0.0
 30
2.000000000000000E+50
 75
     0
  0
LAYOUT
  5
22
102
{ACAD_REACTORS
330
1A
102
}
330
1A
100
AcDbPlotSettings
  1

  2
KONICA MINOLTA 501 PCL
  4
A4
  6

 40
5.027082920074462
 41
5.027085781097412
 42
5.027069091796875
 43
5.027069091796875
 44
209.9733276367186
 45
296.9259948730469
 46
0.0
 47
12.13896414077339
 48
0.0
 49
0.0
140
0.0
141
0.0
142
1.0
143
1.783724646971821
 70
 11956
 72
     1
 73
     1
 74
     1
  7
SEISA.ctb
 75
     0
147
0.560624646689539
 76
     0
 77
     2
 78
   300
148
-319.0406832263593
149
-324.911730935743
100
AcDbLayout
  1
Model
 70
     1
 71
     0
 10
0.0
 20
0.0
 11
12.0
 21
9.0
 12
0.0
 22
0.0
 32
0.0
 14
0.0
 24
0.0
 34
0.0
 15
0.0
 25
0.0
 35
0.0
146
0.0
 13
0.0
 23
0.0
 33
0.0
 16
1.0
 26
0.0
 36
0.0
 17
0.0
 27
1.0
 37
0.0
 76
     0
330
1F
331
27A
1001
ACAD_PSEXT
1000
KONICA MINOLTA 501 PCL
1000
KONICA MINOLTA 501/421/361PCL
1000
IP_192.168.20.231_(1)
1000

1070
     0
  0
LAYOUT
  5
1E
102
{ACAD_REACTORS
330
1A
102
}
330
1A
100
AcDbPlotSettings
  1

  2
none_device
  4
Letter_(8.50_x_11.00_Inches)
  6

 40
6.349999904632567
 41
6.349999904632567
 42
6.350006103515625
 43
6.350006103515625
 44
215.8999938964844
 45
279.3999938964844
 46
0.0
 47
0.0
 48
0.0
 49
0.0
140
0.0
141
0.0
142
1.0
143
1.0
 70
 15024
 72
     1
 73
     1
 74
     5
  7
SEISA.ctb
 75
    16
147
1.0
 76
     0
 77
     2
 78
   300
148
0.0
149
0.0
100
AcDbLayout
  1
レイアウト1
 70
     1
 71
     1
 10
0.0
 20
0.0
 11
420.0
 21
297.0
 12
0.0
 22
0.0
 32
0.0
 14
1.000000000000000E+20
 24
1.000000000000000E+20
 34
1.000000000000000E+20
 15
-1.000000000000000E+20
 25
-1.000000000000000E+20
 35
-1.000000000000000E+20
146
0.0
 13
0.0
 23
0.0
 33
0.0
 16
1.0
 26
0.0
 36
0.0
 17
0.0
 27
1.0
 37
0.0
 76
     0
330
1B
  0
LAYOUT
  5
26
102
{ACAD_REACTORS
330
1A
102
}
330
1A
100
AcDbPlotSettings
  1

  2
none_device
  4
Letter_(8.50_x_11.00_Inches)
  6

 40
6.349999904632567
 41
6.349999904632567
 42
6.350006103515625
 43
6.350006103515625
 44
215.8999938964844
 45
279.3999938964844
 46
0.0
 47
0.0
 48
0.0
 49
0.0
140
0.0
141
0.0
142
1.0
143
1.0
 70
 15024
 72
     1
 73
     1
 74
     5
  7
SEISA.ctb
 75
    16
147
1.0
 76
     0
 77
     2
 78
   300
148
0.0
149
0.0
100
AcDbLayout
  1
レイアウト2
 70
     1
 71
     2
 10
0.0
 20
0.0
 11
12.0
 21
9.0
 12
0.0
 22
0.0
 32
0.0
 14
0.0
 24
0.0
 34
0.0
 15
0.0
 25
0.0
 35
0.0
146
0.0
 13
0.0
 23
0.0
 33
0.0
 16
1.0
 26
0.0
 36
0.0
 17
0.0
 27
1.0
 37
0.0
 76
     0
330
23
  0
MATERIAL
  5
27D
102
{ACAD_REACTORS
330
C4
102
}
330
C4
100
AcDbMaterial
  1
ByBlock
 73
     1
 78
     1
172
     1
176
     1
270
     1
274
     1
 94
       63
  0
MATERIAL
  5
27C
102
{ACAD_REACTORS
330
C4
102
}
330
C4
100
AcDbMaterial
  1
ByLayer
 73
     1
 78
     1
172
     1
176
     1
270
     1
274
     1
 94
       63
  0
MATERIAL
  5
27E
102
{ACAD_REACTORS
330
C4
102
}
330
C4
100
AcDbMaterial
  1
Global
 73
     1
 78
     1
172
     1
176
     1
270
     1
274
     1
 94
       63
  0
MLEADERSTYLE
  5
2D6
102
{ACAD_REACTORS
330
2D5
102
}
330
2D5
100
AcDbMLeaderStyle
170
     2
171
     1
172
     0
 90
        2
 40
0.0
 41
0.0
173
     1
 91
-1056964608
340
14
 92
       -2
290
     1
 42
2.0
291
     1
 43
0.36
  3
Standard
 44
4.0
300

342
11
174
     1
178
     6
175
     1
176
     0
 93
-1056964608
 45
4.0
292
     0
297
     0
 46
4.0
 94
-1056964608
 47
1.0
 49
1.0
140
1.0
293
     1
141
0.0
294
     1
177
     0
142
1.0
295
     0
296
     0
143
0.125
1001
ACAD_MLEADERVER
1070
     2
  0
MLINESTYLE
  5
18
102
{ACAD_REACTORS
330
17
102
}
330
17
100
AcDbMlineStyle
  2
STANDARD
 70
     0
  3

 62
   256
 51
90.0
 52
90.0
 71
     2
 49
0.5
 62
   256
  6
BYLAYER
 49
-0.5
 62
   256
  6
BYLAYER
  0
PLOTSETTINGS
  5
1C7E
102
{ACAD_REACTORS
330
19
102
}
330
19
100
AcDbPlotSettings
  1
SEISA基本
  2
none_device
  4
Letter_(8.50_x_11.00_Inches)
  6

 40
6.349999904632567
 41
6.349999904632567
 42
6.350006103515625
 43
6.350006103515625
 44
215.8999938964844
 45
279.3999938964844
 46
7.302498226506357
 47
0.0
 48
0.0
 49
0.0
140
0.0
141
0.0
142
1.0
143
1.574803221122935
 70
 11956
 72
     1
 73
     1
 74
     2
  7
SEISA.ctb
 75
     0
147
0.6349999711627054
 76
     0
 77
     2
 78
   300
148
0.0
149
0.0
1001
ACAD_PSEXT
1000
なし
1000
なし
1000
適切ではありません
1000
新しいプロッタ環境設定名を選択しない限り、レイアウトは印刷されません。
1070
     0
  0
ACDBPLACEHOLDER
  5
F
102
{ACAD_REACTORS
330
E
102
}
330
E
  0
SCALE
  5
2A04
102
{ACAD_REACTORS
330
2B3
102
}
330
2B3
100
AcDbScale
 70
     0
300
1:2.5
140
1.0
141
2.5
290
     0
  0
SCALE
  5
36B0
102
{ACAD_REACTORS
330
2B3
102
}
330
2B3
100
AcDbScale
 70
     0
300
1:1.5
140
1.0
141
1.5
290
     0
  0
SCALE
  5
2B4
102
{ACAD_REACTORS
330
2B3
102
}
330
2B3
100
AcDbScale
 70
     0
300
1:1
140
1.0
141
1.0
290
     1
  0
SCALE
  5
2B5
102
{ACAD_REACTORS
330
2B3
102
}
330
2B3
100
AcDbScale
 70
     0
300
1:2
140
1.0
141
2.0
290
     0
  0
SCALE
  5
2B6
102
{ACAD_REACTORS
330
2B3
102
}
330
2B3
100
AcDbScale
 70
     0
300
1:4
140
1.0
141
4.0
290
     0
  0
SCALE
  5
2B7
102
{ACAD_REACTORS
330
2B3
102
}
330
2B3
100
AcDbScale
 70
     0
300
1:5
140
1.0
141
5.0
290
     0
  0
SCALE
  5
2B8
102
{ACAD_REACTORS
330
2B3
102
}
330
2B3
100
AcDbScale
 70
     0
300
1:8
140
1.0
141
8.0
290
     0
  0
SCALE
  5
2B9
102
{ACAD_REACTORS
330
2B3
102
}
330
2B3
100
AcDbScale
 70
     0
300
1:10
140
1.0
141
10.0
290
     0
  0
SCALE
  5
2BA
102
{ACAD_REACTORS
330
2B3
102
}
330
2B3
100
AcDbScale
 70
     0
300
1:16
140
1.0
141
16.0
290
     0
  0
SCALE
  5
2BB
102
{ACAD_REACTORS
330
2B3
102
}
330
2B3
100
AcDbScale
 70
     0
300
1:20
140
1.0
141
20.0
290
     0
  0
SCALE
  5
2BC
102
{ACAD_REACTORS
330
2B3
102
}
330
2B3
100
AcDbScale
 70
     0
300
1:30
140
1.0
141
30.0
290
     0
  0
SCALE
  5
2BD
102
{ACAD_REACTORS
330
2B3
102
}
330
2B3
100
AcDbScale
 70
     0
300
1:40
140
1.0
141
40.0
290
     0
  0
SCALE
  5
2BE
102
{ACAD_REACTORS
330
2B3
102
}
330
2B3
100
AcDbScale
 70
     0
300
1:50
140
1.0
141
50.0
290
     0
  0
SCALE
  5
2BF
102
{ACAD_REACTORS
330
2B3
102
}
330
2B3
100
AcDbScale
 70
     0
300
1:100
140
1.0
141
100.0
290
     0
  0
SCALE
  5
2C0
102
{ACAD_REACTORS
330
2B3
102
}
330
2B3
100
AcDbScale
 70
     0
300
2:1
140
2.0
141
1.0
290
     0
  0
SCALE
  5
2C1
102
{ACAD_REACTORS
330
2B3
102
}
330
2B3
100
AcDbScale
 70
     0
300
4:1
140
4.0
141
1.0
290
     0
  0
SCALE
  5
2C2
102
{ACAD_REACTORS
330
2B3
102
}
330
2B3
100
AcDbScale
 70
     0
300
8:1
140
8.0
141
1.0
290
     0
  0
SCALE
  5
2C3
102
{ACAD_REACTORS
330
2B3
102
}
330
2B3
100
AcDbScale
 70
     0
300
10:1
140
10.0
141
1.0
290
     0
  0
SCALE
  5
2C4
102
{ACAD_REACTORS
330
2B3
102
}
330
2B3
100
AcDbScale
 70
     0
300
100:1
140
100.0
141
1.0
290
     0
  0
SCALE
  5
2C5
102
{ACAD_REACTORS
330
2B3
102
}
330
2B3
100
AcDbScale
 70
     0
300
1/128" = 1'-0"
140
0.0078125
141
12.0
290
     0
  0
SCALE
  5
2C6
102
{ACAD_REACTORS
330
2B3
102
}
330
2B3
100
AcDbScale
 70
     0
300
1/64" = 1'-0"
140
0.015625
141
12.0
290
     0
  0
SCALE
  5
2C7
102
{ACAD_REACTORS
330
2B3
102
}
330
2B3
100
AcDbScale
 70
     0
300
1/32" = 1'-0"
140
0.03125
141
12.0
290
     0
  0
SCALE
  5
2C8
102
{ACAD_REACTORS
330
2B3
102
}
330
2B3
100
AcDbScale
 70
     0
300
1/16" = 1'-0"
140
0.0625
141
12.0
290
     0
  0
SCALE
  5
2C9
102
{ACAD_REACTORS
330
2B3
102
}
330
2B3
100
AcDbScale
 70
     0
300
3/32" = 1'-0"
140
0.09375
141
12.0
290
     0
  0
SCALE
  5
2CA
102
{ACAD_REACTORS
330
2B3
102
}
330
2B3
100
AcDbScale
 70
     0
300
1/8" = 1'-0"
140
0.125
141
12.0
290
     0
  0
SCALE
  5
2CB
102
{ACAD_REACTORS
330
2B3
102
}
330
2B3
100
AcDbScale
 70
     0
300
3/16" = 1'-0"
140
0.1875
141
12.0
290
     0
  0
SCALE
  5
2CC
102
{ACAD_REACTORS
330
2B3
102
}
330
2B3
100
AcDbScale
 70
     0
300
1/4" = 1'-0"
140
0.25
141
12.0
290
     0
  0
SCALE
  5
2CD
102
{ACAD_REACTORS
330
2B3
102
}
330
2B3
100
AcDbScale
 70
     0
300
3/8" = 1'-0"
140
0.375
141
12.0
290
     0
  0
SCALE
  5
2CE
102
{ACAD_REACTORS
330
2B3
102
}
330
2B3
100
AcDbScale
 70
     0
300
1/2" = 1'-0"
140
0.5
141
12.0
290
     0
  0
SCALE
  5
2CF
102
{ACAD_REACTORS
330
2B3
102
}
330
2B3
100
AcDbScale
 70
     0
300
3/4" = 1'-0"
140
0.75
141
12.0
290
     0
  0
SCALE
  5
2D0
102
{ACAD_REACTORS
330
2B3
102
}
330
2B3
100
AcDbScale
 70
     0
300
1" = 1'-0"
140
1.0
141
12.0
290
     0
  0
SCALE
  5
2D1
102
{ACAD_REACTORS
330
2B3
102
}
330
2B3
100
AcDbScale
 70
     0
300
1-1/2" = 1'-0"
140
1.5
141
12.0
290
     0
  0
SCALE
  5
2D2
102
{ACAD_REACTORS
330
2B3
102
}
330
2B3
100
AcDbScale
 70
     0
300
3" = 1'-0"
140
3.0
141
12.0
290
     0
  0
SCALE
  5
2D3
102
{ACAD_REACTORS
330
2B3
102
}
330
2B3
100
AcDbScale
 70
     0
300
6" = 1'-0"
140
6.0
141
12.0
290
     0
  0
SCALE
  5
2D4
102
{ACAD_REACTORS
330
2B3
102
}
330
2B3
100
AcDbScale
 70
     0
300
1'-0" = 1'-0"
140
12.0
141
12.0
290
     0
  0
TABLESTYLE
  5
122
102
{ACAD_XDICTIONARY
360
2F5
102
}
102
{ACAD_REACTORS
330
121
102
}
330
121
100
AcDbTableStyle
  3
Standard
 70
     0
 71
     0
 40
1.5
 41
1.5
280
     0
281
     0
  7
STANDARD
140
4.5
170
     2
 62
     0
 63
     7
283
     0
 90
      512
 91
        0
  1

274
    -2
284
     1
 64
     0
275
    -2
285
     1
 65
     0
276
    -2
286
     1
 66
     0
277
    -2
287
     1
 67
     0
278
    -2
288
     1
 68
     0
279
    -2
289
     1
 69
     0
  7
STANDARD
140
6.0
170
     5
 62
     0
 63
     7
283
     0
 90
      512
 91
        0
  1

274
    -2
284
     1
 64
     0
275
    -2
285
     1
 65
     0
276
    -2
286
     1
 66
     0
277
    -2
287
     1
 67
     0
278
    -2
288
     1
 68
     0
279
    -2
289
     1
 69
     0
  7
STANDARD
140
4.5
170
     5
 62
     0
 63
     7
283
     0
 90
      512
 91
        0
  1

274
    -2
284
     1
 64
     0
275
    -2
285
     1
 65
     0
276
    -2
286
     1
 66
     0
277
    -2
287
     1
 67
     0
278
    -2
288
     1
 68
     0
279
    -2
289
     1
 69
     0
  0
VISUALSTYLE
  5
285
102
{ACAD_REACTORS
330
27F
102
}
330
27F
100
AcDbVisualStyle
  2
2dWireframe
 70
     4
 71
     0
 72
     2
 73
     0
 90
        0
 40
-0.6
 41
-30.0
 62
     5
 63
     7
421
 16777215
 74
     1
 91
        4
 64
     7
 65
   257
 75
     1
175
     1
 42
1.0
 92
        0
 66
   257
 43
1.0
 76
     1
 77
     6
 78
     2
 67
     7
 79
     5
170
     0
171
     0
290
     0
174
     0
 93
        1
 44
0.0
173
     0
291
     0
 45
0.0
  0
VISUALSTYLE
  5
287
102
{ACAD_REACTORS
330
27F
102
}
330
27F
100
AcDbVisualStyle
  2
3D Hidden
 70
     6
 71
     1
 72
     2
 73
     2
 90
        0
 40
-0.6
 41
-30.0
 62
     5
 63
     7
421
 16777215
 74
     2
 91
        2
 64
     7
 65
   257
 75
     2
175
     1
 42
40.0
 92
        0
 66
   257
 43
1.0
 76
     1
 77
     6
 78
     2
 67
     7
 79
     3
170
     0
171
     0
290
     0
174
     0
 93
        1
 44
0.0
173
     0
291
     0
 45
0.0
  0
VISUALSTYLE
  5
286
102
{ACAD_REACTORS
330
27F
102
}
330
27F
100
AcDbVisualStyle
  2
3dWireframe
 70
     5
 71
     0
 72
     2
 73
     0
 90
        0
 40
-0.6
 41
-30.0
 62
     5
 63
     7
421
 16777215
 74
     1
 91
        4
 64
     7
 65
   257
 75
     1
175
     1
 42
1.0
 92
        0
 66
   257
 43
1.0
 76
     1
 77
     6
 78
     2
 67
     7
 79
     5
170
     0
171
     0
290
     0
174
     0
 93
        1
 44
0.0
173
     0
291
     0
 45
0.0
  0
VISUALSTYLE
  5
284
102
{ACAD_REACTORS
330
27F
102
}
330
27F
100
AcDbVisualStyle
  2
Basic
 70
     7
 71
     1
 72
     0
 73
     1
 90
        0
 40
-0.6
 41
-30.0
 62
     5
 63
     7
421
 16777215
 74
     0
 91
        4
 64
     7
 65
   257
 75
     1
175
     1
 42
1.0
 92
        8
 66
     7
 43
1.0
 76
     1
 77
     6
 78
     2
 67
     7
 79
     5
170
     0
171
     0
290
     0
174
     0
 93
        1
 44
0.0
173
     0
291
     1
 45
0.0
  0
VISUALSTYLE
  5
28B
102
{ACAD_REACTORS
330
27F
102
}
330
27F
100
AcDbVisualStyle
  2
Brighten
 70
    12
 71
     2
 72
     2
 73
     0
 90
        0
 40
-0.6
 41
-30.0
 62
     5
 63
     7
421
 16777215
 74
     1
 91
        4
 64
     7
 65
   257
 75
     1
175
     1
 42
1.0
 92
        8
 66
     7
 43
1.0
 76
     1
 77
     6
 78
     2
 67
     7
 79
     5
170
     0
171
     0
290
     0
174
     0
 93
        1
 44
50.0
173
     0
291
     1
 45
0.0
  0
VISUALSTYLE
  5
28F
102
{ACAD_REACTORS
330
27F
102
}
330
27F
100
AcDbVisualStyle
  2
ColorChange
 70
    16
 71
     2
 72
     2
 73
     3
 90
        0
 40
-0.6
 41
-30.0
 62
     5
 63
     8
421
  8421504
 74
     1
 91
        4
 64
     7
 65
   257
 75
     1
175
     1
 42
1.0
 92
        8
 66
     8
424
  8421504
 43
1.0
 76
     1
 77
     6
 78
     2
 67
     7
 79
     5
170
     0
171
     0
290
     0
174
     0
 93
        1
 44
0.0
173
     0
291
     1
 45
0.0
  0
VISUALSTYLE
  5
288
102
{ACAD_REACTORS
330
27F
102
}
330
27F
100
AcDbVisualStyle
  2
Conceptual
 70
     9
 71
     3
 72
     2
 73
     0
 90
        0
 40
-0.6
 41
-30.0
 62
     5
 63
     7
421
 16777215
 74
     2
 91
        2
 64
     7
 65
   257
 75
     1
175
     1
 42
40.0
 92
        8
 66
     7
 43
1.0
 76
     1
 77
     6
 78
     2
 67
     7
 79
     3
170
     0
171
     0
290
     0
174
     0
 93
        1
 44
0.0
173
     0
291
     0
 45
0.0
  0
VISUALSTYLE
  5
28A
102
{ACAD_REACTORS
330
27F
102
}
330
27F
100
AcDbVisualStyle
  2
Dim
 70
    11
 71
     2
 72
     2
 73
     0
 90
        0
 40
-0.6
 41
-30.0
 62
     5
 63
     7
421
 16777215
 74
     1
 91
        4
 64
     7
 65
   257
 75
     1
175
     1
 42
1.0
 92
        8
 66
     7
 43
1.0
 76
     1
 77
     6
 78
     2
 67
     7
 79
     5
170
     0
171
     0
290
     0
174
     0
 93
        1
 44
-50.0
173
     0
291
     1
 45
0.0
  0
VISUALSTYLE
  5
28E
102
{ACAD_REACTORS
330
27F
102
}
330
27F
100
AcDbVisualStyle
  2
Facepattern
 70
    15
 71
     2
 72
     2
 73
     0
 90
        0
 40
-0.6
 41
-30.0
 62
     5
 63
     7
421
 16777215
 74
     1
 91
        4
 64
     7
 65
   257
 75
     1
175
     1
 42
1.0
 92
        8
 66
     7
 43
1.0
 76
     1
 77
     6
 78
     2
 67
     7
 79
     5
170
     0
171
     0
290
     0
174
     0
 93
        1
 44
0.0
173
     0
291
     1
 45
0.0
  0
VISUALSTYLE
  5
280
102
{ACAD_REACTORS
330
27F
102
}
330
27F
100
AcDbVisualStyle
  2
Flat
 70
     0
 71
     2
 72
     1
 73
     1
 90
        2
 40
-0.6
 41
30.0
 62
     5
 63
     7
421
 16777215
 74
     0
 91
        4
 64
     7
 65
   257
 75
     1
175
     1
 42
1.0
 92
        8
 66
     7
 43
1.0
 76
     1
 77
     6
 78
     2
 67
     7
 79
     5
170
     0
171
     0
290
     0
174
     0
 93
       13
 44
0.0
173
     0
291
     1
 45
0.0
  0
VISUALSTYLE
  5
281
102
{ACAD_REACTORS
330
27F
102
}
330
27F
100
AcDbVisualStyle
  2
FlatWithEdges
 70
     1
 71
     2
 72
     1
 73
     1
 90
        2
 40
-0.6
 41
30.0
 62
     5
 63
     7
421
 16777215
 74
     1
 91
        4
 64
     7
 65
   257
 75
     1
175
     1
 42
1.0
 92
        0
 66
   257
 43
1.0
 76
     1
 77
     6
 78
     2
 67
     7
 79
     5
170
     0
171
     0
290
     0
174
     0
 93
       13
 44
0.0
173
     0
291
     1
 45
0.0
  0
VISUALSTYLE
  5
282
102
{ACAD_REACTORS
330
27F
102
}
330
27F
100
AcDbVisualStyle
  2
Gouraud
 70
     2
 71
     2
 72
     2
 73
     1
 90
        2
 40
-0.6
 41
30.0
 62
     5
 63
     7
421
 16777215
 74
     0
 91
        4
 64
     7
 65
   257
 75
     1
175
     1
 42
1.0
 92
        0
 66
     7
 43
1.0
 76
     1
 77
     6
 78
     2
 67
     7
 79
     5
170
     0
171
     0
290
     0
174
     0
 93
       13
 44
0.0
173
     0
291
     1
 45
0.0
  0
VISUALSTYLE
  5
283
102
{ACAD_REACTORS
330
27F
102
}
330
27F
100
AcDbVisualStyle
  2
GouraudWithEdges
 70
     3
 71
     2
 72
     2
 73
     1
 90
        2
 40
-0.6
 41
30.0
 62
     5
 63
     7
421
 16777215
 74
     1
 91
        4
 64
     7
 65
   257
 75
     1
175
     1
 42
1.0
 92
        0
 66
   257
 43
1.0
 76
     1
 77
     6
 78
     2
 67
     7
 79
     5
170
     0
171
     0
290
     0
174
     0
 93
       13
 44
0.0
173
     0
291
     1
 45
0.0
  0
VISUALSTYLE
  5
28D
102
{ACAD_REACTORS
330
27F
102
}
330
27F
100
AcDbVisualStyle
  2
Linepattern
 70
    14
 71
     2
 72
     2
 73
     0
 90
        0
 40
-0.6
 41
-30.0
 62
     5
 63
     7
421
 16777215
 74
     1
 91
        4
 64
     7
 65
   257
 75
     7
175
     7
 42
1.0
 92
        8
 66
     7
 43
1.0
 76
     1
 77
     6
 78
     2
 67
     7
 79
     5
170
     0
171
     0
290
     0
174
     0
 93
        1
 44
0.0
173
     0
291
     1
 45
0.0
  0
VISUALSTYLE
  5
289
102
{ACAD_REACTORS
330
27F
102
}
330
27F
100
AcDbVisualStyle
  2
Realistic
 70
     8
 71
     2
 72
     2
 73
     0
 90
        0
 40
-0.6
 41
-30.0
 62
     5
 63
     7
421
 16777215
 74
     1
 91
        0
 64
     7
 65
   257
 75
     1
175
     1
 42
1.0
 92
        8
 66
     8
424
  7895160
 43
1.0
 76
     1
 77
     6
 78
     2
 67
     7
 79
     5
170
     0
171
     0
290
     0
174
     0
 93
       13
 44
0.0
173
     0
291
     0
 45
0.0
  0
VISUALSTYLE
  5
28C
102
{ACAD_REACTORS
330
27F
102
}
330
27F
100
AcDbVisualStyle
  2
Thicken
 70
    13
 71
     2
 72
     2
 73
     0
 90
        0
 40
-0.6
 41
-30.0
 62
     5
 63
     7
421
 16777215
 74
     1
 91
        4
 64
     7
 65
   257
 75
     1
175
     1
 42
1.0
 92
       12
 66
     7
 43
1.0
 76
     1
 77
     6
 78
     2
 67
     7
 79
     5
170
     0
171
     0
290
     0
174
     0
 93
        1
 44
0.0
173
     0
291
     1
 45
0.0
  0
DICTIONARYVAR
  5
2FA
102
{ACAD_REACTORS
330
34
102
}
330
34
100
DictionaryVariables
280
     0
  1
1:2.5
  0
DICTIONARYVAR
  5
2F8
102
{ACAD_REACTORS
330
34
102
}
330
34
100
DictionaryVariables
280
     0
  1
STANDARD
  0
DICTIONARYVAR
  5
140
102
{ACAD_REACTORS
330
34
102
}
330
34
100
DictionaryVariables
280
     0
  1
STANDARD
  0
DICTIONARYVAR
  5
AC
102
{ACAD_REACTORS
330
34
102
}
330
34
100
DictionaryVariables
280
     0
  1
1
  0
DICTIONARYVAR
  5
35
102
{ACAD_REACTORS
330
34
102
}
330
34
100
DictionaryVariables
280
     0
  1
1
  0
DICTIONARYVAR
  5
6974
102
{ACAD_REACTORS
330
34
102
}
330
34
100
DictionaryVariables
280
     0
  1
1
  0
DICTIONARYVAR
  5
6975
102
{ACAD_REACTORS
330
34
102
}
330
34
100
DictionaryVariables
280
     0
  1
15
  0
DICTIONARYVAR
  5
2FB
102
{ACAD_REACTORS
330
34
102
}
330
34
100
DictionaryVariables
280
     0
  1
0
  0
DICTIONARYVAR
  5
2F9
102
{ACAD_REACTORS
330
34
102
}
330
34
100
DictionaryVariables
280
     0
  1
0
  0
DICTIONARY
  5
161B
102
{ACAD_REACTORS
330
49
102
}
330
49
100
AcDbDictionary
281
     1
  0
DICTIONARY
  5
4A
102
{ACAD_REACTORS
330
49
102
}
330
49
100
AcDbDictionary
281
     1
  0
XRECORD
  5
12B
102
{ACAD_REACTORS
330
49
102
}
330
49
100
AcDbXrecord
280
     1
 90
-1023410169
  0
DICTIONARY
  5
2F5
330
122
100
AcDbDictionary
280
     1
281
     1
  3
ACAD_ROUNDTRIP_2008_TABLESTYLE_CELLSTYLEMAP
360
7A66
  0
CELLSTYLEMAP
  5
7A66
102
{ACAD_REACTORS
330
2F5
102
}
330
2F5
100
AcDbCellStyleMap
 90
        3
300
CELLSTYLE
  1
TABLEFORMAT_BEGIN
 90
        5
170
     1
 91
        0
 92
    32768
 62
   257
 93
        1
300
CONTENTFORMAT
  1
CONTENTFORMAT_BEGIN
 90
        0
 91
        0
 92
      512
 93
        0
300

 40
0.0
140
1.0
 94
        5
 62
     0
340
11
144
6.0
309
CONTENTFORMAT_END
171
     1
301
MARGIN
  1
CELLMARGIN_BEGIN
 40
1.5
 40
1.5
 40
1.5
 40
1.5
 40
0.18
 40
0.18
309
CELLMARGIN_END
 94
        6
 95
        1
302
GRIDFORMAT
  1
GRIDFORMAT_BEGIN
 90
        0
 91
        1
 62
     0
 92
       -2
340
0
 93
        0
 40
0.045
309
GRIDFORMAT_END
 95
        2
302
GRIDFORMAT
  1
GRIDFORMAT_BEGIN
 90
        0
 91
        1
 62
     0
 92
       -2
340
0
 93
        0
 40
0.045
309
GRIDFORMAT_END
 95
        4
302
GRIDFORMAT
  1
GRIDFORMAT_BEGIN
 90
        0
 91
        1
 62
     0
 92
       -2
340
0
 93
        0
 40
0.045
309
GRIDFORMAT_END
 95
        8
302
GRIDFORMAT
  1
GRIDFORMAT_BEGIN
 90
        0
 91
        1
 62
     0
 92
       -2
340
0
 93
        0
 40
0.045
309
GRIDFORMAT_END
 95
       16
302
GRIDFORMAT
  1
GRIDFORMAT_BEGIN
 90
        0
 91
        1
 62
     0
 92
       -2
340
0
 93
        0
 40
0.045
309
GRIDFORMAT_END
 95
       32
302
GRIDFORMAT
  1
GRIDFORMAT_BEGIN
 90
        0
 91
        1
 62
     0
 92
       -2
340
0
 93
        0
 40
0.045
309
GRIDFORMAT_END
309
TABLEFORMAT_END
  1
CELLSTYLE_BEGIN
 90
        1
 91
        1
300
_TITLE
309
CELLSTYLE_END
300
CELLSTYLE
  1
TABLEFORMAT_BEGIN
 90
        5
170
     1
 91
        0
 92
        0
 62
   257
 93
        1
300
CONTENTFORMAT
  1
CONTENTFORMAT_BEGIN
 90
        0
 91
        0
 92
      512
 93
        0
300

 40
0.0
140
1.0
 94
        5
 62
     0
340
11
144
4.5
309
CONTENTFORMAT_END
171
     1
301
MARGIN
  1
CELLMARGIN_BEGIN
 40
1.5
 40
1.5
 40
1.5
 40
1.5
 40
0.18
 40
0.18
309
CELLMARGIN_END
 94
        6
 95
        1
302
GRIDFORMAT
  1
GRIDFORMAT_BEGIN
 90
        0
 91
        1
 62
     0
 92
       -2
340
0
 93
        0
 40
0.045
309
GRIDFORMAT_END
 95
        2
302
GRIDFORMAT
  1
GRIDFORMAT_BEGIN
 90
        0
 91
        1
 62
     0
 92
       -2
340
0
 93
        0
 40
0.045
309
GRIDFORMAT_END
 95
        4
302
GRIDFORMAT
  1
GRIDFORMAT_BEGIN
 90
        0
 91
        1
 62
     0
 92
       -2
340
0
 93
        0
 40
0.045
309
GRIDFORMAT_END
 95
        8
302
GRIDFORMAT
  1
GRIDFORMAT_BEGIN
 90
        0
 91
        1
 62
     0
 92
       -2
340
0
 93
        0
 40
0.045
309
GRIDFORMAT_END
 95
       16
302
GRIDFORMAT
  1
GRIDFORMAT_BEGIN
 90
        0
 91
        1
 62
     0
 92
       -2
340
0
 93
        0
 40
0.045
309
GRIDFORMAT_END
 95
       32
302
GRIDFORMAT
  1
GRIDFORMAT_BEGIN
 90
        0
 91
        1
 62
     0
 92
       -2
340
0
 93
        0
 40
0.045
309
GRIDFORMAT_END
309
TABLEFORMAT_END
  1
CELLSTYLE_BEGIN
 90
        2
 91
        1
300
_HEADER
309
CELLSTYLE_END
300
CELLSTYLE
  1
TABLEFORMAT_BEGIN
 90
        5
170
     1
 91
        0
 92
        0
 62
   257
 93
        1
300
CONTENTFORMAT
  1
CONTENTFORMAT_BEGIN
 90
        0
 91
        0
 92
      512
 93
        0
300

 40
0.0
140
1.0
 94
        2
 62
     0
340
11
144
4.5
309
CONTENTFORMAT_END
171
     1
301
MARGIN
  1
CELLMARGIN_BEGIN
 40
1.5
 40
1.5
 40
1.5
 40
1.5
 40
0.18
 40
0.18
309
CELLMARGIN_END
 94
        6
 95
        1
302
GRIDFORMAT
  1
GRIDFORMAT_BEGIN
 90
        0
 91
        1
 62
     0
 92
       -2
340
0
 93
        0
 40
0.045
309
GRIDFORMAT_END
 95
        2
302
GRIDFORMAT
  1
GRIDFORMAT_BEGIN
 90
        0
 91
        1
 62
     0
 92
       -2
340
0
 93
        0
 40
0.045
309
GRIDFORMAT_END
 95
        4
302
GRIDFORMAT
  1
GRIDFORMAT_BEGIN
 90
        0
 91
        1
 62
     0
 92
       -2
340
0
 93
        0
 40
0.045
309
GRIDFORMAT_END
 95
        8
302
GRIDFORMAT
  1
GRIDFORMAT_BEGIN
 90
        0
 91
        1
 62
     0
 92
       -2
340
0
 93
        0
 40
0.045
309
GRIDFORMAT_END
 95
       16
302
GRIDFORMAT
  1
GRIDFORMAT_BEGIN
 90
        0
 91
        1
 62
     0
 92
       -2
340
0
 93
        0
 40
0.045
309
GRIDFORMAT_END
 95
       32
302
GRIDFORMAT
  1
GRIDFORMAT_BEGIN
 90
        0
 91
        1
 62
     0
 92
       -2
340
0
 93
        0
 40
0.045
309
GRIDFORMAT_END
309
TABLEFORMAT_END
  1
CELLSTYLE_BEGIN
 90
        3
 91
        2
300
_DATA
309
CELLSTYLE_END
  0
ENDSEC
  0
EOF
