  0
SECTION
  2
HEADER
  9
$ACADVER
  1
AC1021
  9
$ACADMAINTVER
 70
    26
  9
$DWGCODEPAGE
  3
ANSI_932
  9
$LASTSAVEDBY
  1
Htm_Terada
  9
$CUSTOMPROPERTYTAG
  1
AmdtFileType
  9
$CUSTOMPROPERTY
  1
84
  9
$INSBASE
 10
0.0
 20
0.0
 30
0.0
  9
$EXTMIN
 10
245.7884818728096
 20
257.660550253197
 30
0.0
  9
$EXTMAX
 10
614.3286758988049
 20
527.7225890344533
 30
0.0
  9
$LIMMIN
 10
0.0000003828677109
 20
0.000000738764129
  9
$LIMMAX
 10
840.0000003828676
 20
594.0000007387642
  9
$ORTHOMODE
 70
     1
  9
$REGENMODE
 70
     1
  9
$FILLMODE
 70
     1
  9
$QTEXTMODE
 70
     0
  9
$MIRRTEXT
 70
     1
  9
$LTSCALE
 40
2.0
  9
$ATTMODE
 70
     1
  9
$TEXTSIZE
 40
25.0
  9
$TRACEWID
 40
1.0
  9
$TEXTSTYLE
  7
SEISA
  9
$CLAYER
  8
AM_5 寸法線
  9
$CELTYPE
  6
ByLayer
  9
$CECOLOR
 62
   256
  9
$CELTSCALE
 40
1.0
  9
$DISPSILH
 70
     0
  9
$DIMSCALE
 40
2.0
  9
$DIMASZ
 40
2.5
  9
$DIMEXO
 40
0.625
  9
$DIMDLI
 40
10.0
  9
$DIMRND
 40
0.0
  9
$DIMDLE
 40
0.0
  9
$DIMEXE
 40
0.625
  9
$DIMTP
 40
0.1
  9
$DIMTM
 40
0.1
  9
$DIMTXT
 40
3.5
  9
$DIMCEN
 40
0.0
  9
$DIMTSZ
 40
0.0
  9
$DIMTOL
 70
     0
  9
$DIMLIM
 70
     0
  9
$DIMTIH
 70
     0
  9
$DIMTOH
 70
     0
  9
$DIMSE1
 70
     0
  9
$DIMSE2
 70
     0
  9
$DIMTAD
 70
     3
  9
$DIMZIN
 70
     8
  9
$DIMBLK
  1
Open30
  9
$DIMASO
 70
     1
  9
$DIMSHO
 70
     1
  9
$DIMPOST
  1

  9
$DIMAPOST
  1
"
  9
$DIMALT
 70
     0
  9
$DIMALTD
 70
     2
  9
$DIMALTF
 40
0.0393701
  9
$DIMLFAC
 40
1.0
  9
$DIMTOFL
 70
     1
  9
$DIMTVP
 40
0.0
  9
$DIMTIX
 70
     0
  9
$DIMSOXD
 70
     0
  9
$DIMSAH
 70
     0
  9
$DIMBLK1
  1

  9
$DIMBLK2
  1

  9
$DIMSTYLE
  2
SEISA
  9
$DIMCLRD
 70
     3
  9
$DIMCLRE
 70
     3
  9
$DIMCLRT
 70
     3
  9
$DIMTFAC
 40
0.71
  9
$DIMGAP
 40
1.5
  9
$DIMJUST
 70
     0
  9
$DIMSD1
 70
     0
  9
$DIMSD2
 70
     0
  9
$DIMTOLJ
 70
     0
  9
$DIMTZIN
 70
     0
  9
$DIMALTZ
 70
     0
  9
$DIMALTTZ
 70
     8
  9
$DIMUPT
 70
     0
  9
$DIMDEC
 70
     2
  9
$DIMTDEC
 70
     2
  9
$DIMALTU
 70
     2
  9
$DIMALTTD
 70
     2
  9
$DIMTXSTY
  7
SEISA
  9
$DIMAUNIT
 70
     0
  9
$DIMADEC
 70
     0
  9
$DIMALTRND
 40
0.0
  9
$DIMAZIN
 70
     2
  9
$DIMDSEP
 70
    46
  9
$DIMATFIT
 70
     3
  9
$DIMFRAC
 70
     0
  9
$DIMLDRBLK
  1
Open30
  9
$DIMLUNIT
 70
     2
  9
$DIMLWD
 70
    -1
  9
$DIMLWE
 70
    -1
  9
$DIMTMOVE
 70
     0
  9
$DIMFXL
 40
1.0
  9
$DIMFXLON
 70
     0
  9
$DIMJOGANG
 40
0.7853981633974483
  9
$DIMTFILL
 70
     0
  9
$DIMTFILLCLR
 70
     0
  9
$DIMARCSYM
 70
     1
  9
$DIMLTYPE
  6

  9
$DIMLTEX1
  6

  9
$DIMLTEX2
  6

  9
$LUNITS
 70
     2
  9
$LUPREC
 70
     2
  9
$SKETCHINC
 40
1.0
  9
$FILLETRAD
 40
5.0
  9
$AUNITS
 70
     0
  9
$AUPREC
 70
     0
  9
$MENU
  1
.
  9
$ELEVATION
 40
0.0
  9
$PELEVATION
 40
0.0
  9
$THICKNESS
 40
0.0
  9
$LIMCHECK
 70
     0
  9
$CHAMFERA
 40
0.9999999999997156
  9
$CHAMFERB
 40
0.9999999999996587
  9
$CHAMFERC
 40
0.9999999999997156
  9
$CHAMFERD
 40
0.7853981633974199
  9
$SKPOLY
 70
     0
  9
$TDCREATE
 40
2454908.608608692
  9
$TDUCREATE
 40
2454908.233608692
  9
$TDUPDATE
 40
2456478.705196574
  9
$TDUUPDATE
 40
2456478.330196574
  9
$TDINDWG
 40
0.2228765162
  9
$TDUSRTIMER
 40
0.2228750694
  9
$USRTIMER
 70
     1
  9
$ANGBASE
 50
0.0
  9
$ANGDIR
 70
     0
  9
$PDMODE
 70
     0
  9
$PDSIZE
 40
0.0
  9
$PLINEWID
 40
0.0
  9
$SPLFRAME
 70
     0
  9
$SPLINETYPE
 70
     6
  9
$SPLINESEGS
 70
     8
  9
$HANDSEED
  5
6834
  9
$SURFTAB1
 70
     6
  9
$SURFTAB2
 70
     6
  9
$SURFTYPE
 70
     6
  9
$SURFU
 70
     6
  9
$SURFV
 70
     6
  9
$UCSBASE
  2

  9
$UCSNAME
  2

  9
$UCSORG
 10
0.0
 20
0.0
 30
0.0
  9
$UCSXDIR
 10
1.0
 20
0.0
 30
0.0
  9
$UCSYDIR
 10
0.0
 20
1.0
 30
0.0
  9
$UCSORTHOREF
  2

  9
$UCSORTHOVIEW
 70
     0
  9
$UCSORGTOP
 10
0.0
 20
0.0
 30
0.0
  9
$UCSORGBOTTOM
 10
0.0
 20
0.0
 30
0.0
  9
$UCSORGLEFT
 10
0.0
 20
0.0
 30
0.0
  9
$UCSORGRIGHT
 10
0.0
 20
0.0
 30
0.0
  9
$UCSORGFRONT
 10
0.0
 20
0.0
 30
0.0
  9
$UCSORGBACK
 10
0.0
 20
0.0
 30
0.0
  9
$PUCSBASE
  2

  9
$PUCSNAME
  2

  9
$PUCSORG
 10
0.0
 20
0.0
 30
0.0
  9
$PUCSXDIR
 10
1.0
 20
0.0
 30
0.0
  9
$PUCSYDIR
 10
0.0
 20
1.0
 30
0.0
  9
$PUCSORTHOREF
  2

  9
$PUCSORTHOVIEW
 70
     0
  9
$PUCSORGTOP
 10
0.0
 20
0.0
 30
0.0
  9
$PUCSORGBOTTOM
 10
0.0
 20
0.0
 30
0.0
  9
$PUCSORGLEFT
 10
0.0
 20
0.0
 30
0.0
  9
$PUCSORGRIGHT
 10
0.0
 20
0.0
 30
0.0
  9
$PUCSORGFRONT
 10
0.0
 20
0.0
 30
0.0
  9
$PUCSORGBACK
 10
0.0
 20
0.0
 30
0.0
  9
$USERI1
 70
     0
  9
$USERI2
 70
     0
  9
$USERI3
 70
     0
  9
$USERI4
 70
     0
  9
$USERI5
 70
     0
  9
$USERR1
 40
0.0
  9
$USERR2
 40
0.0
  9
$USERR3
 40
0.0
  9
$USERR4
 40
0.0
  9
$USERR5
 40
0.0
  9
$WORLDVIEW
 70
     1
  9
$SHADEDGE
 70
     3
  9
$SHADEDIF
 70
    70
  9
$TILEMODE
 70
     1
  9
$MAXACTVP
 70
    64
  9
$PINSBASE
 10
0.0
 20
0.0
 30
0.0
  9
$PLIMCHECK
 70
     0
  9
$PEXTMIN
 10
1.000000000000000E+20
 20
1.000000000000000E+20
 30
1.000000000000000E+20
  9
$PEXTMAX
 10
-1.000000000000000E+20
 20
-1.000000000000000E+20
 30
-1.000000000000000E+20
  9
$PLIMMIN
 10
0.0
 20
0.0
  9
$PLIMMAX
 10
420.0
 20
297.0
  9
$UNITMODE
 70
     0
  9
$VISRETAIN
 70
     1
  9
$PLINEGEN
 70
     0
  9
$PSLTSCALE
 70
     1
  9
$TREEDEPTH
 70
  3020
  9
$CMLSTYLE
  2
Standard
  9
$CMLJUST
 70
     0
  9
$CMLSCALE
 40
20.0
  9
$PROXYGRAPHICS
 70
     1
  9
$MEASUREMENT
 70
     1
  9
$CELWEIGHT
370
    -1
  9
$ENDCAPS
280
     0
  9
$JOINSTYLE
280
     0
  9
$LWDISPLAY
290
     0
  9
$INSUNITS
 70
     4
  9
$HYPERLINKBASE
  1

  9
$STYLESHEET
  1
SEISA.CTB
  9
$XEDIT
290
     1
  9
$CEPSNTYPE
380
     0
  9
$PSTYLEMODE
290
     1
  9
$FINGERPRINTGUID
  2
{3D646591-1A26-437A-9695-F0D762DB1D09}
  9
$VERSIONGUID
  2
{343A1738-A983-4EEF-BDB1-BF63563746C6}
  9
$EXTNAMES
290
     1
  9
$PSVPSCALE
 40
0.0
  9
$OLESTARTUP
290
     0
  9
$SORTENTS
280
   127
  9
$INDEXCTL
280
     0
  9
$HIDETEXT
280
     0
  9
$XCLIPFRAME
290
     0
  9
$HALOGAP
280
     0
  9
$OBSCOLOR
 70
   257
  9
$OBSLTYPE
280
     0
  9
$INTERSECTIONDISPLAY
280
     0
  9
$INTERSECTIONCOLOR
 70
   257
  9
$DIMASSOC
280
     2
  9
$PROJECTNAME
  1

  9
$CAMERADISPLAY
290
     0
  9
$LENSLENGTH
 40
50.0
  9
$CAMERAHEIGHT
 40
0.0
  9
$STEPSPERSEC
 40
2.0
  9
$STEPSIZE
 40
6.0
  9
$3DDWFPREC
 40
2.0
  9
$PSOLWIDTH
 40
0.25
  9
$PSOLHEIGHT
 40
4.0
  9
$LOFTANG1
 40
1.570796326794896
  9
$LOFTANG2
 40
1.570796326794896
  9
$LOFTMAG1
 40
0.0
  9
$LOFTMAG2
 40
0.0
  9
$LOFTPARAM
 70
     7
  9
$LOFTNORMALS
280
     1
  9
$LATITUDE
 40
37.795
  9
$LONGITUDE
 40
-122.394
  9
$NORTHDIRECTION
 40
0.0
  9
$TIMEZONE
 70
 -8000
  9
$LIGHTGLYPHDISPLAY
280
     1
  9
$TILEMODELIGHTSYNCH
280
     1
  9
$CMATERIAL
347
27C
  9
$SOLIDHIST
280
     1
  9
$SHOWHIST
280
     1
  9
$DWFFRAME
280
     2
  9
$DGNFRAME
280
     0
  9
$REALWORLDSCALE
290
     1
  9
$INTERFERECOLOR
 62
     1
  9
$INTERFEREOBJVS
345
289
  9
$INTERFEREVPVS
346
286
  9
$CSHADOW
280
     0
  9
$SHADOWPLANELOCATION
 40
0.0
  0
ENDSEC
  0
SECTION
  2
CLASSES
  0
CLASS
  1
ACDBDICTIONARYWDFLT
  2
AcDbDictionaryWithDefault
  3
ObjectDBX Classes
 90
        0
 91
        1
280
     0
281
     0
  0
CLASS
  1
AMGSETTINGSOBJ
  2
AmgSettingsObj
  3
"AcadM|Product Description: AutoCAD Mechanical|Company: Autodesk, Inc."
 90
     1024
 91
        2
280
     0
281
     0
  0
CLASS
  1
ACME_DOCUMENT
  2
AcMeDbDoc
  3
AcMeServices
 90
     1024
 91
        1
280
     0
281
     0
  0
CLASS
  1
ACMESCOPE
  2
AcMeScope
  3
AcMeServices
 90
     1024
 91
        1
280
     0
281
     0
  0
CLASS
  1
ACMECOMMANDHISTORY
  2
AcMeCommandHistory
  3
AcMeServices
 90
     1024
 91
        1
280
     0
281
     0
  0
CLASS
  1
DICTIONARYVAR
  2
AcDbDictionaryVar
  3
ObjectDBX Classes
 90
        0
 91
        9
280
     0
281
     0
  0
CLASS
  1
ACIMSYSVARMAN
  2
AcImSysVarManager
  3
AcMeServices
 90
     1024
 91
        5
280
     0
281
     0
  0
CLASS
  1
ACIMREALSYSVAR
  2
AcImRealSysVar
  3
AcMeServices
 90
     1024
 91
        1
280
     0
281
     0
  0
CLASS
  1
ACIMINTSYSVAR
  2
AcImIntSysVar
  3
AcMeServices
 90
     1024
 91
       27
280
     0
281
     0
  0
CLASS
  1
ACMEDRAWINGMAN
  2
AcMeDrawingMan
  3
AcMeServices
 90
     1024
 91
        1
280
     0
281
     0
  0
CLASS
  1
ACMEVIEW
  2
AcMeView
  3
AcMeServices
 90
     1024
 91
        1
280
     0
281
     0
  0
CLASS
  1
ACDBENTITYCACHE
  2
AcMeEntityCache
  3
AcMeServices
 90
     1024
 91
        1
280
     0
281
     0
  0
CLASS
  1
GSMANAGER
  2
AcMeGSManager
  3
AcMeServices
 90
     1024
 91
        1
280
     0
281
     0
  0
CLASS
  1
AMDTINTERNALREACTOR
  2
AmdtInternalReactor
  3
AcMeServices
 90
     1024
 91
        2
280
     0
281
     0
  0
CLASS
  1
ACMESTATEMGR
  2
AcMeStateMgr
  3
AcMeServices
 90
     1024
 91
        1
280
     0
281
     0
  0
CLASS
  1
ACGREFMASTER
  2
AcGrefMaster
  3
AcAttribServices
 90
     1024
 91
        1
280
     0
281
     0
  0
CLASS
  1
ACME_DATABASE
  2
AcMeDbDatabase
  3
AcMeServices
 90
     1024
 91
        1
280
     0
281
     0
  0
CLASS
  1
ACRFINSADJUSTERMGR
  2
AcRfInsAdjusterMgr
  3
AcMeServices
 90
     1024
 91
        1
280
     0
281
     0
  0
CLASS
  1
ACGREFACADMASTER
  2
AcGrefacadMaster
  3
AcGrefServices
 90
     1024
 91
        1
280
     0
281
     0
  0
CLASS
  1
AMIMASTER
  2
AmiMaster
  3
AmiServices
 90
     1024
 91
        1
280
     0
281
     0
  0
CLASS
  1
ACIMSTRSYSVAR
  2
AcImStrSysVar
  3
AcMeServices
 90
     1024
 91
        5
280
     0
281
     0
  0
CLASS
  1
ACMSTANDARDJIS
  2
AcmStandardJIS
  3
"Amdt_StdImp|Product Description: AutoCAD Mechanical|Company: Autodesk, Inc."
 90
     1024
 91
        0
280
     0
281
     0
  0
CLASS
  1
AMGOBJPROPCFG
  2
AmgObjPropCfg
  3
"AmgLay|Product Description: AutoCAD Mechanical|Company: Autodesk, Inc."
 90
     1025
 91
        1
280
     0
281
     0
  0
CLASS
  1
ACMSURFSTANDARDJIS
  2
AcmSurfTextStdJIS
  3
"Amdt_StdImp|Product Description: AutoCAD Mechanical|Company: Autodesk, Inc."
 90
     1024
 91
        0
280
     0
281
     0
  0
CLASS
  1
ACMFCFSTANDARDJIS
  2
AcmFCFStdJIS
  3
"Amdt_StdImp|Product Description: AutoCAD Mechanical|Company: Autodesk, Inc."
 90
     1024
 91
        0
280
     0
281
     0
  0
CLASS
  1
ACMWELDSTANDARDJIS
  2
AcmWeldingStdJIS
  3
"Amdt_StdImp|Product Description: AutoCAD Mechanical|Company: Autodesk, Inc."
 90
     1024
 91
        0
280
     0
281
     0
  0
CLASS
  1
ACMIDSTANDARDJIS
  2
AcmIdStdJIS
  3
"Amdt_StdImp|Product Description: AutoCAD Mechanical|Company: Autodesk, Inc."
 90
     1024
 91
        0
280
     0
281
     0
  0
CLASS
  1
ACMDATUMSTANDARDJIS
  2
AcmDatumStdJIS
  3
"Amdt_StdImp|Product Description: AutoCAD Mechanical|Company: Autodesk, Inc."
 90
     1024
 91
        0
280
     0
281
     0
  0
CLASS
  1
ACMBOMSTANDARDJIS
  2
AcmBOMStdJIS
  3
"Amdt_StdImp|Product Description: AutoCAD Mechanical|Company: Autodesk, Inc."
 90
     1024
 91
        0
280
     0
281
     0
  0
CLASS
  1
ACMDETAILSTANDARDJIS
  2
AmdtDetailSymStdJIS
  3
"Amdt_StdImp|Product Description: AutoCAD Mechanical|Company: Autodesk, Inc."
 90
     1024
 91
        0
280
     0
281
     0
  0
CLASS
  1
ACMSECTIONSTANDARDJIS
  2
AmdtSectionSymStdJIS
  3
"Amdt_StdImp|Product Description: AutoCAD Mechanical|Company: Autodesk, Inc."
 90
     1024
 91
        0
280
     0
281
     0
  0
CLASS
  1
ACMCENTERLINESTANDARDJIS
  2
AmdtCenterLineStdJIS
  3
"Amdt_StdImp|Product Description: AutoCAD Mechanical|Company: Autodesk, Inc."
 90
     1024
 91
        0
280
     0
281
     0
  0
CLASS
  1
ACMTHREADLINESTANDARDJIS
  2
AmdtThreadLineStdJIS
  3
"Amdt_StdImp|Product Description: AutoCAD Mechanical|Company: Autodesk, Inc."
 90
     1024
 91
        0
280
     0
281
     0
  0
CLASS
  1
ACAMGLAYSTD
  2
AcAmgLayStd
  3
"AmgLay|Product Description: AutoCAD Mechanical|Company: Autodesk, Inc."
 90
     1024
 91
        1
280
     0
281
     0
  0
CLASS
  1
ACAMGDIMSTD
  2
AcAmgDimStd
  3
"AmgDim|Product Description: AutoCAD Mechanical|Company: Autodesk, Inc."
 90
     1024
 91
        1
280
     0
281
     0
  0
CLASS
  1
ACAMGTITLESTD
  2
AcAmgTitleStd
  3
"AmgTitle|Product Description: AutoCAD Mechanical|Company: Autodesk, Inc."
 90
     4095
 91
        1
280
     0
281
     0
  0
CLASS
  1
ACMDATADICTIONARY
  2
AcmDataDictionary
  3
"AcmSymBB|Product Description: AutoCAD Mechanical|Company: Autodesk, Inc."
 90
     1024
 91
        1
280
     0
281
     0
  0
CLASS
  1
ACMDATAENTRYBLOCK
  2
AcmDataEntryBlock
  3
AcmSymBB|Product Description: AutoCAD Mechanical|Company: Autodesk, Inc.
 90
     1024
 91
        0
280
     0
281
     0
  0
CLASS
  1
LAYER_INDEX
  2
AcDbLayerIndex
  3
ObjectDBX Classes
 90
        0
 91
        0
280
     0
281
     0
  0
CLASS
  1
IDBUFFER
  2
AcDbIdBuffer
  3
ObjectDBX Classes
 90
        0
 91
        0
280
     0
281
     0
  0
CLASS
  1
ACMNOTESTANDARDJIS
  2
AmdtNoteStdJIS
  3
"Amdt_StdImp|Product Description: AutoCAD Mechanical|Company: Autodesk, Inc."
 90
     1024
 91
        0
280
     0
281
     0
  0
CLASS
  1
ACAMGHOLECHARTSTDJIS
  2
AcAmgHoleChartStdJIS
  3
AmgDim|Product Description: AutoCAD Mechanical|Company: Autodesk, Inc.
 90
     1024
 91
        0
280
     0
281
     0
  0
CLASS
  1
AM_DRAWING_MGR
  2
AcDmDwgMgr
  3
AcMechDwgViewMgmt
 90
     1024
 91
        1
280
     0
281
     0
  0
CLASS
  1
AM_DWG_DOCUMENT
  2
AcDmDwgDocument
  3
AcMechDwgViewMgmt
 90
     1024
 91
        1
280
     0
281
     0
  0
CLASS
  1
AM_DWG_SHEET
  2
AcDmSheet
  3
AcMechDwgViewMgmt
 90
     1024
 91
        2
280
     0
281
     0
  0
CLASS
  1
AM_VIEWDIMPARMAP
  2
AcDmViewDimParMap
  3
AcMechDwgViewMgmt
 90
     1024
 91
        2
280
     0
281
     0
  0
CLASS
  1
AM_DWGMGR_NAME
  2
AcDmDwgMgrName
  3
AcMechDwgViewMgmt
 90
     1024
 91
        1
280
     0
281
     0
  0
CLASS
  1
AMDTMENUSTATEMGR
  2
AmdtMenuStateMgr
  3
McadcomServices
 90
     1024
 91
        1
280
     0
281
     0
  0
CLASS
  1
AMDTMCOMMENUSTATE
  2
AmdtMcomMenuState
  3
McadcomServices
 90
     1024
 91
        1
280
     0
281
     0
  0
CLASS
  1
MAPIAMMOUDLE
  2
MApiAmModule
  3
MApiAmServices
 90
     1024
 91
        1
280
     0
281
     0
  0
CLASS
  1
AMDTADMENUSTATE
  2
AmdtAdMenuState
  3
DesignerServices
 90
     1024
 91
        1
280
     0
281
     0
  0
CLASS
  1
ADAPPL
  2
AcAdAppl
  3
DesignerServices
 90
     1024
 91
        1
280
     0
281
     0
  0
CLASS
  1
DEPMGR
  2
AcAdDepMgr
  3
DesignerServices
 90
     1024
 91
        1
280
     0
281
     0
  0
CLASS
  1
PARAMMGR
  2
AcAdParamMgr
  3
DesignerServices
 90
     1024
 91
        1
280
     0
281
     0
  0
CLASS
  1
PARAMSCOPE
  2
AcAdParamScope
  3
DesignerServices
 90
     1024
 91
        1
280
     0
281
     0
  0
CLASS
  1
NAMEDAPPL
  2
AcAdNamedAppl
  3
DesignerServices
 90
     1024
 91
        1
280
     0
281
     0
  0
CLASS
  1
AMDTDMMENUSTATE
  2
AmdtDmMenuState
  3
AcMechDwgViewMgmt
 90
     1024
 91
        1
280
     0
281
     0
  0
CLASS
  1
AMDTAMMENUSTATE
  2
AmdtAmMenuState
  3
DesignerAssemblies
 90
     1024
 91
        1
280
     0
281
     0
  0
CLASS
  1
ACAMPROJECT
  2
AcAmProject
  3
DesignerAssemblies
 90
     1024
 91
        1
280
     0
281
     0
  0
CLASS
  1
ACAMGRCOMPDEF
  2
AcAmGrCompDef
  3
DesignerAssemblies
 90
     1024
 91
        1
280
     0
281
     0
  0
CLASS
  1
ACCMCONTEXT
  2
AcCmContext
  3
DesignerAssemblies
 90
     1024
 91
        1
280
     0
281
     0
  0
CLASS
  1
ACAMCOMPDEF
  2
AcAmCompDef
  3
DesignerAssemblies
 90
     1024
 91
        1
280
     0
281
     0
  0
CLASS
  1
ACAMCOMPDEFMGR
  2
AcAmCompDefMgr
  3
DesignerAssemblies
 90
     1024
 91
        1
280
     0
281
     0
  0
CLASS
  1
AMCONTEXTMGR
  2
AcAmContextMgr
  3
DesignerAssemblies
 90
     1024
 91
        1
280
     0
281
     0
  0
CLASS
  1
ACAMCONTEXTMODELER
  2
AcAmContextModeler
  3
DesignerAssemblies
 90
     1024
 91
        1
280
     0
281
     0
  0
CLASS
  1
CATALOGSTATE
  2
AcAmCatalogState
  3
DesignerAssemblies
 90
     1024
 91
        1
280
     0
281
     0
  0
CLASS
  1
ACAMGRCOMPDEFSET
  2
AcAmGrCompDefSet
  3
DesignerAssemblies
 90
     1024
 91
        1
280
     0
281
     0
  0
CLASS
  1
AMDTBROWSERDBTAB
  2
AmdtBrowserDbTab
  3
McadcomServices
 90
     1024
 91
        1
280
     0
281
     0
  0
CLASS
  1
CBROWSERAPPOBJECT
  2
CBrowserAppObject
  3
McadcomServices
 90
     1024
 91
        3
280
     0
281
     0
  0
CLASS
  1
DM_PLACEHOLDER
  2
AcDmSelsetPlaceholder
  3
AcMechDwgViewMgmt
 90
     1024
 91
        1
280
     0
281
     0
  0
CLASS
  1
TABLESTYLE
  2
AcDbTableStyle
  3
ObjectDBX Classes
 90
     4095
 91
        1
280
     0
281
     0
  0
CLASS
  1
VAACXREFPANELOBJECT
  2
VaAcXREFPanelObject
  3
VAAC_ADDIN
 90
        0
 91
        0
280
     0
281
     0
  0
CLASS
  1
VAACIMAGEINVENTORY
  2
VaAcImageInventory
  3
VAAC_ADDIN
 90
        0
 91
        0
280
     0
281
     0
  0
CLASS
  1
AMDTNOTETEMPLATEDB
  2
AmdtNoteTemplateDB
  3
AcmSymBB|Product Description: AutoCAD Mechanical|Company: Autodesk, Inc.
 90
     1024
 91
        6
280
     0
281
     0
  0
CLASS
  1
ACAMGFILTERDAT
  2
AcAmgFilterDat
  3
"AcadM|Product Description: AutoCAD Mechanical|Company: Autodesk, Inc."
 90
     1024
 91
        0
280
     0
281
     0
  0
CLASS
  1
MATERIAL
  2
AcDbMaterial
  3
ObjectDBX Classes
 90
     1153
 91
        3
280
     0
281
     0
  0
CLASS
  1
VISUALSTYLE
  2
AcDbVisualStyle
  3
ObjectDBX Classes
 90
     4095
 91
       16
280
     0
281
     0
  0
CLASS
  1
ACRFATTGENMGR
  2
AcRfAttGeneralMgr
  3
AcAttribServices
 90
     1024
 91
        0
280
     0
281
     0
  0
CLASS
  1
ACRFOBJATTMGR
  2
AcRfObjAttGroupMgr
  3
AcAttribServices
 90
     1024
 91
        0
280
     0
281
     0
  0
CLASS
  1
ACRFMCADAPIATTHOLDER
  2
AcRfMCADAPIAttHolder
  3
AcAttribServices
 90
     1024
 91
        0
280
     0
281
     0
  0
CLASS
  1
AMDTSYSATTR
  2
AmdtSystemAttribute
  3
AcAttribServices
 90
     1024
 91
        0
280
     0
281
     0
  0
CLASS
  1
ACMTAPERSTANDARDJIS
  2
AcmTaperStdJIS
  3
"Amdt_StdImp|Product Description: AutoCAD Mechanical|Company: Autodesk, Inc."
 90
     1024
 91
        0
280
     0
281
     0
  0
CLASS
  1
CAMSSTRUCTBTNSTATE
  2
StructBtnState
  3
DesignerAssemblies
 90
     1024
 91
        0
280
     0
281
     0
  0
CLASS
  1
SCALE
  2
AcDbScale
  3
ObjectDBX Classes
 90
     1153
 91
       34
280
     0
281
     0
  0
CLASS
  1
MLEADERSTYLE
  2
AcDbMLeaderStyle
  3
ACDB_MLEADERSTYLE_CLASS
 90
     4095
 91
        1
280
     0
281
     0
  0
CLASS
  1
ACMANOOTATIONVIEWSTANDARDJIS
  2
AmdtAnViewStdJIS
  3
"Amdt_StdImp|Product Description: AutoCAD Mechanical|Company: Autodesk, Inc."
 90
     1024
 91
        0
280
     0
281
     0
  0
CLASS
  1
ACMSURFSTANDARDJIS2003
  2
AcmSurfTextStdJIS2003
  3
"Amdt_StdImp|Product Description: AutoCAD Mechanical|Company: Autodesk, Inc."
 90
     1024
 91
        0
280
     0
281
     0
  0
CLASS
  1
CELLSTYLEMAP
  2
AcDbCellStyleMap
  3
ObjectDBX Classes
 90
     1152
 91
        2
280
     0
281
     0
  0
CLASS
  1
ACMFCFSTANDARDJIS98
  2
AcmFCFStdJIS98
  3
"Amdt_StdImp|Product Description: AutoCAD Mechanical|Company: Autodesk, Inc."
 90
     1024
 91
        0
280
     0
281
     0
  0
CLASS
  1
SORTENTSTABLE
  2
AcDbSortentsTable
  3
ObjectDBX Classes
 90
        0
 91
        9
280
     0
281
     0
  0
CLASS
  1
DIMASSOC
  2
AcDbDimAssoc
  3
"AcDbDimAssoc|Product Desc:     AcDim ARX App For Dimension|Company:          Autodesk, Inc.|WEB Address:      www.autodesk.com"
 90
        0
 91
       16
280
     0
281
     0
  0
CLASS
  1
STDPART2D
  2
AmgStdPart
  3
AmgStdPart|Product Description: AutoCAD Mechanical|Company: Autodesk, Inc.
 90
     4095
 91
        0
280
     0
281
     1
  0
CLASS
  1
ACMDATAENTRYPART
  2
AcmDataEntryPart
  3
AcmSymBB|Product Description: AutoCAD Mechanical|Company: Autodesk, Inc.
 90
     1024
 91
        0
280
     0
281
     0
  0
CLASS
  1
ACMPARTREF
  2
AcmPartRef
  3
"AcmSymBB|Product Description: AutoCAD Mechanical|Company: Autodesk, Inc."
 90
     4095
 91
        0
280
     0
281
     1
  0
CLASS
  1
ACDBSTDPARTRES_LINE
  2
AcDbStdPartRes_Line
  3
AmgStdPart|Product Description: AutoCAD Mechanical|Company: Autodesk, Inc.
 90
     1024
 91
        0
280
     0
281
     0
  0
CLASS
  1
ACMBOM
  2
AcmBom
  3
"AcmSymBB|Product Description: AutoCAD Mechanical|Company: Autodesk, Inc."
 90
     1024
 91
        0
280
     0
281
     0
  0
CLASS
  1
AMDTFORMULAUPDATEDISPATCHER
  2
AmdtFormulaUpdateDispatcher
  3
AcMeServices
 90
     1024
 91
        0
280
     0
281
     0
  0
CLASS
  1
ACMBOMROW
  2
AcmBomRow
  3
"AcmSymBB|Product Description: AutoCAD Mechanical|Company: Autodesk, Inc."
 90
     1024
 91
        0
280
     0
281
     0
  0
CLASS
  1
ACMPARTLIST
  2
AcmPartList
  3
"AcmSymBB|Product Description: AutoCAD Mechanical|Company: Autodesk, Inc."
 90
     4095
 91
        0
280
     0
281
     1
  0
CLASS
  1
ACDBLINERES
  2
AcDbLineRes
  3
AcGrefServices
 90
     1024
 91
        0
280
     0
281
     0
  0
CLASS
  1
ACRFINSADJ
  2
AcRfInsAdjuster
  3
AcMeServices
 90
     1024
 91
        0
280
     0
281
     0
  0
CLASS
  1
ACMSTANDARDISO
  2
AcmStandardISO
  3
"Amdt_StdImp|Product Description: AutoCAD Mechanical|Company: Autodesk, Inc."
 90
     1024
 91
        1
280
     0
281
     0
  0
CLASS
  1
AMDTEDGESTANDARDISO13715
  2
AmdtEdgeStdISO13715
  3
"Amdt_StdImp|Product Description: AutoCAD Mechanical|Company: Autodesk, Inc."
 90
     1024
 91
        1
280
     0
281
     0
  0
CLASS
  1
ACMSURFSTANDARDISO2002
  2
AcmSurfTextStdISO2002
  3
"Amdt_StdImp|Product Description: AutoCAD Mechanical|Company: Autodesk, Inc."
 90
     1024
 91
        1
280
     0
281
     0
  0
CLASS
  1
ACMFCFSTANDARDISO
  2
AcmFCFStdISO
  3
"Amdt_StdImp|Product Description: AutoCAD Mechanical|Company: Autodesk, Inc."
 90
     1024
 91
        1
280
     0
281
     0
  0
CLASS
  1
ACMWELDSTANDARDISO
  2
AcmWeldingStdISO
  3
"Amdt_StdImp|Product Description: AutoCAD Mechanical|Company: Autodesk, Inc."
 90
     1024
 91
        1
280
     0
281
     0
  0
CLASS
  1
ACMIDSTANDARDISO
  2
AcmIdStdISO
  3
"Amdt_StdImp|Product Description: AutoCAD Mechanical|Company: Autodesk, Inc."
 90
     1024
 91
        1
280
     0
281
     0
  0
CLASS
  1
ACMDATUMSTANDARDISO
  2
AcmDatumStdISO
  3
"Amdt_StdImp|Product Description: AutoCAD Mechanical|Company: Autodesk, Inc."
 90
     1024
 91
        1
280
     0
281
     0
  0
CLASS
  1
ACMBOMSTANDARDISO
  2
AcmBOMStdISO
  3
"Amdt_StdImp|Product Description: AutoCAD Mechanical|Company: Autodesk, Inc."
 90
     1024
 91
        1
280
     0
281
     0
  0
CLASS
  1
ACMDETAILSTANDARDISO
  2
AmdtDetailSymStdISO
  3
"Amdt_StdImp|Product Description: AutoCAD Mechanical|Company: Autodesk, Inc."
 90
     1024
 91
        1
280
     0
281
     0
  0
CLASS
  1
ACMSECTIONSTANDARDISO2001
  2
AmdtSectionSymStdISO2001
  3
"Amdt_StdImp|Product Description: AutoCAD Mechanical|Company: Autodesk, Inc."
 90
     1024
 91
        1
280
     0
281
     0
  0
CLASS
  1
ACMCENTERLINESTANDARDISO
  2
AmdtCenterLineStdISO
  3
"Amdt_StdImp|Product Description: AutoCAD Mechanical|Company: Autodesk, Inc."
 90
     1024
 91
        1
280
     0
281
     0
  0
CLASS
  1
ACMTHREADLINESTANDARDISO
  2
AmdtThreadLineStdISO
  3
"Amdt_StdImp|Product Description: AutoCAD Mechanical|Company: Autodesk, Inc."
 90
     1024
 91
        1
280
     0
281
     0
  0
CLASS
  1
ACMNOTESTANDARDISO
  2
AmdtNoteStdISO
  3
"Amdt_StdImp|Product Description: AutoCAD Mechanical|Company: Autodesk, Inc."
 90
     1024
 91
        1
280
     0
281
     0
  0
CLASS
  1
ACMTAPERSTANDARDISO
  2
AcmTaperStdISO
  3
"Amdt_StdImp|Product Description: AutoCAD Mechanical|Company: Autodesk, Inc."
 90
     1024
 91
        1
280
     0
281
     0
  0
CLASS
  1
ACMANOOTATIONVIEWSTANDARDISO
  2
AmdtAnViewStdISO
  3
"Amdt_StdImp|Product Description: AutoCAD Mechanical|Company: Autodesk, Inc."
 90
     1024
 91
        1
280
     0
281
     0
  0
CLASS
  1
ACAMGHOLECHARTSTDISO
  2
AcAmgHoleChartStdISO
  3
AmgDim|Product Description: AutoCAD Mechanical|Company: Autodesk, Inc.
 90
     1024
 91
        1
280
     0
281
     0
  0
CLASS
  1
EXACXREFPANELOBJECT
  2
ExAcXREFPanelObject
  3
EXAC_ESW
 90
     1025
 91
        0
280
     0
281
     0
  0
CLASS
  1
NPOCOLLECTION
  2
AcDbImpNonPersistentObjectsCollection
  3
ObjectDBX Classes
 90
     1153
 91
        0
280
     0
281
     0
  0
CLASS
  1
ACDBSTDPARTRES_ARC
  2
AcDbStdPartRes_Arc
  3
AmgStdPart|Product Description: AutoCAD Mechanical|Company: Autodesk, Inc.
 90
     1024
 91
        0
280
     0
281
     0
  0
CLASS
  1
AMDTNOTE
  2
AmdtNote
  3
"AcmSymBB|Product Description: AutoCAD Mechanical|Company: Autodesk, Inc."
 90
     4095
 91
        0
280
     0
281
     1
  0
CLASS
  1
PLOTSETTINGS
  2
AcDbPlotSettings
  3
ObjectDBX Classes
 90
        0
 91
        1
280
     0
281
     0
  0
CLASS
  1
ACMSTANDARDANSI
  2
AcmStandardANSI
  3
"Amdt_StdImp|Product Description: AutoCAD Mechanical|Company: Autodesk, Inc."
 90
     1024
 91
        0
280
     0
281
     0
  0
CLASS
  1
ACMSURFSTANDARDANSI
  2
AcmSurfTextStdANSI
  3
"Amdt_StdImp|Product Description: AutoCAD Mechanical|Company: Autodesk, Inc."
 90
     1024
 91
        0
280
     0
281
     0
  0
CLASS
  1
ACMFCFSTANDARDANSI
  2
AcmFCFStdANSI
  3
"Amdt_StdImp|Product Description: AutoCAD Mechanical|Company: Autodesk, Inc."
 90
     1024
 91
        0
280
     0
281
     0
  0
CLASS
  1
ACMWELDSTANDARDANSI
  2
AcmWeldingStdANSI
  3
"Amdt_StdImp|Product Description: AutoCAD Mechanical|Company: Autodesk, Inc."
 90
     1024
 91
        0
280
     0
281
     0
  0
CLASS
  1
ACMIDSTANDARDANSI
  2
AcmIdStdANSI
  3
"Amdt_StdImp|Product Description: AutoCAD Mechanical|Company: Autodesk, Inc."
 90
     1024
 91
        0
280
     0
281
     0
  0
CLASS
  1
ACMDATUMSTANDARDANSI
  2
AcmDatumStdANSI
  3
"Amdt_StdImp|Product Description: AutoCAD Mechanical|Company: Autodesk, Inc."
 90
     1024
 91
        0
280
     0
281
     0
  0
CLASS
  1
ACMBOMSTANDARDANSI
  2
AcmBOMStdANSI
  3
"Amdt_StdImp|Product Description: AutoCAD Mechanical|Company: Autodesk, Inc."
 90
     1024
 91
        0
280
     0
281
     0
  0
CLASS
  1
ACMDETAILSTANDARDANSI
  2
AmdtDetailSymStdANSI
  3
"Amdt_StdImp|Product Description: AutoCAD Mechanical|Company: Autodesk, Inc."
 90
     1024
 91
        0
280
     0
281
     0
  0
CLASS
  1
ACMSECTIONSTANDARDANSI
  2
AmdtSectionSymStdANSI
  3
"Amdt_StdImp|Product Description: AutoCAD Mechanical|Company: Autodesk, Inc."
 90
     1024
 91
        0
280
     0
281
     0
  0
CLASS
  1
ACMCENTERLINESTANDARDANSI
  2
AmdtCenterLineStdANSI
  3
"Amdt_StdImp|Product Description: AutoCAD Mechanical|Company: Autodesk, Inc."
 90
     1024
 91
        0
280
     0
281
     0
  0
CLASS
  1
ACMTHREADLINESTANDARDANSI
  2
AmdtThreadLineStdANSI
  3
"Amdt_StdImp|Product Description: AutoCAD Mechanical|Company: Autodesk, Inc."
 90
     1024
 91
        0
280
     0
281
     0
  0
CLASS
  1
ACMNOTESTANDARDANSI
  2
AmdtNoteStdANSI
  3
"Amdt_StdImp|Product Description: AutoCAD Mechanical|Company: Autodesk, Inc."
 90
     1024
 91
        0
280
     0
281
     0
  0
CLASS
  1
ACMTAPERSTANDARDANSI
  2
AcmTaperStdANSI
  3
"Amdt_StdImp|Product Description: AutoCAD Mechanical|Company: Autodesk, Inc."
 90
     1024
 91
        0
280
     0
281
     0
  0
CLASS
  1
ACMANOOTATIONVIEWSTANDARDANSI
  2
AmdtAnViewStdANSI
  3
"Amdt_StdImp|Product Description: AutoCAD Mechanical|Company: Autodesk, Inc."
 90
     1024
 91
        0
280
     0
281
     0
  0
CLASS
  1
ACAMGHOLECHARTSTDANSI
  2
AcAmgHoleChartStdANSI
  3
AmgDim|Product Description: AutoCAD Mechanical|Company: Autodesk, Inc.
 90
     1024
 91
        0
280
     0
281
     0
  0
CLASS
  1
ACMSTANDARDBSI
  2
AcmStandardBSI
  3
"Amdt_StdImp|Product Description: AutoCAD Mechanical|Company: Autodesk, Inc."
 90
     1024
 91
        0
280
     0
281
     0
  0
CLASS
  1
ACMSURFSTANDARDBSI2002
  2
AcmSurfTextStdBSI2002
  3
"Amdt_StdImp|Product Description: AutoCAD Mechanical|Company: Autodesk, Inc."
 90
     1024
 91
        0
280
     0
281
     0
  0
CLASS
  1
ACMFCFSTANDARDBSI
  2
AcmFCFStdBSI
  3
"Amdt_StdImp|Product Description: AutoCAD Mechanical|Company: Autodesk, Inc."
 90
     1024
 91
        0
280
     0
281
     0
  0
CLASS
  1
ACMWELDSTANDARDBSI
  2
AcmWeldingStdBSI
  3
"Amdt_StdImp|Product Description: AutoCAD Mechanical|Company: Autodesk, Inc."
 90
     1024
 91
        0
280
     0
281
     0
  0
CLASS
  1
ACMIDSTANDARDBSI
  2
AcmIdStdBSI
  3
"Amdt_StdImp|Product Description: AutoCAD Mechanical|Company: Autodesk, Inc."
 90
     1024
 91
        0
280
     0
281
     0
  0
CLASS
  1
ACMDATUMSTANDARDBSI
  2
AcmDatumStdBSI
  3
"Amdt_StdImp|Product Description: AutoCAD Mechanical|Company: Autodesk, Inc."
 90
     1024
 91
        0
280
     0
281
     0
  0
CLASS
  1
ACMBOMSTANDARDBSI
  2
AcmBOMStdBSI
  3
"Amdt_StdImp|Product Description: AutoCAD Mechanical|Company: Autodesk, Inc."
 90
     1024
 91
        0
280
     0
281
     0
  0
CLASS
  1
ACMDETAILSTANDARDBSI
  2
AmdtDetailSymStdBSI
  3
"Amdt_StdImp|Product Description: AutoCAD Mechanical|Company: Autodesk, Inc."
 90
     1024
 91
        0
280
     0
281
     0
  0
CLASS
  1
ACMSECTIONSTANDARDBSI2001
  2
AmdtSectionSymStdBSI2001
  3
"Amdt_StdImp|Product Description: AutoCAD Mechanical|Company: Autodesk, Inc."
 90
     1024
 91
        0
280
     0
281
     0
  0
CLASS
  1
ACMCENTERLINESTANDARDBSI
  2
AmdtCenterLineStdBSI
  3
"Amdt_StdImp|Product Description: AutoCAD Mechanical|Company: Autodesk, Inc."
 90
     1024
 91
        0
280
     0
281
     0
  0
CLASS
  1
ACMTHREADLINESTANDARDBSI
  2
AmdtThreadLineStdBSI
  3
"Amdt_StdImp|Product Description: AutoCAD Mechanical|Company: Autodesk, Inc."
 90
     1024
 91
        0
280
     0
281
     0
  0
CLASS
  1
ACMNOTESTANDARDBSI
  2
AmdtNoteStdBSI
  3
"Amdt_StdImp|Product Description: AutoCAD Mechanical|Company: Autodesk, Inc."
 90
     1024
 91
        0
280
     0
281
     0
  0
CLASS
  1
ACMTAPERSTANDARDBSI
  2
AcmTaperStdBSI
  3
"Amdt_StdImp|Product Description: AutoCAD Mechanical|Company: Autodesk, Inc."
 90
     1024
 91
        0
280
     0
281
     0
  0
CLASS
  1
ACMANOOTATIONVIEWSTANDARDBSI
  2
AmdtAnViewStdBSI
  3
"Amdt_StdImp|Product Description: AutoCAD Mechanical|Company: Autodesk, Inc."
 90
     1024
 91
        0
280
     0
281
     0
  0
CLASS
  1
ACAMGHOLECHARTSTDBSI
  2
AcAmgHoleChartStdBSI
  3
AmgDim|Product Description: AutoCAD Mechanical|Company: Autodesk, Inc.
 90
     1024
 91
        0
280
     0
281
     0
  0
CLASS
  1
AMDTEDGESTANDARDJIS
  2
AmdtEdgeStdJIS
  3
"Amdt_StdImp|Product Description: AutoCAD Mechanical|Company: Autodesk, Inc."
 90
     1024
 91
        0
280
     0
281
     0
  0
CLASS
  1
ACMSURFSYM
  2
AcmSurfaceTexture
  3
"AcmSymBB|Product Description: AutoCAD Mechanical|Company: Autodesk, Inc."
 90
     4095
 91
        0
280
     0
281
     1
  0
CLASS
  1
ACDBDIMENSIONRES
  2
AcDbDimensionRes
  3
AcmSymBB|Product Description: AutoCAD Mechanical|Company: Autodesk, Inc.
 90
     1024
 91
        0
280
     0
281
     0
  0
CLASS
  1
ACDBCIRCARCRES
  2
AcDbCircArcRes
  3
AcGrefServices
 90
     1024
 91
        0
280
     0
281
     0
  0
CLASS
  1
ACMDIMBREAKPERSREACTOR
  2
AcmDimBreakPersReactor
  3
AmgDim|Product Description: AutoCAD Mechanical|Company: Autodesk, Inc.
 90
     4095
 91
        0
280
     0
281
     0
  0
CLASS
  1
AMDTACMWBLOCKBOMENTITY
  2
AmdtAcmWblockBomEntity
  3
"AcmSymBB|Product Description: AutoCAD Mechanical|Company: Autodesk, Inc."
 90
     4095
 91
        0
280
     0
281
     1
  0
CLASS
  1
ACDBOPPOLYLINERES
  2
AcDbOpPolylineRes
  3
AcGrefServices
 90
     1024
 91
        0
280
     0
281
     0
  0
CLASS
  1
ACDB_BLKREFOBJECTCONTEXTDATA_CLASS
  2
AcDbBlkRefObjectContextData
  3
ObjectDBX Classes
 90
     1153
 91
        0
280
     0
281
     0
  0
CLASS
  1
SOLID_BACKGROUND
  2
AcDbSolidBackground
  3
SCENEOE
 90
     4095
 91
        0
280
     0
281
     0
  0
CLASS
  1
ACMPICKOBJ
  2
AcmPickEnt
  3
"AcmSymBB|Product Description: AutoCAD Mechanical|Company: Autodesk, Inc."
 90
     1024
 91
        0
280
     0
281
     1
  0
CLASS
  1
ACMBALLOON
  2
AcmBalloon
  3
"AcmSymBB|Product Description: AutoCAD Mechanical|Company: Autodesk, Inc."
 90
     4095
 91
        0
280
     0
281
     1
  0
ENDSEC
  0
SECTION
  2
TABLES
  0
TABLE
  2
VPORT
  5
8
330
0
100
AcDbSymbolTable
 70
     1
  0
VPORT
  5
27A
330
8
100
AcDbSymbolTableRecord
100
AcDbViewportTableRecord
  2
*Active
 70
     0
 10
0.0
 20
0.0
 11
1.0
 21
1.0
 12
-228.2107586281139
 22
-66.83299235954087
 13
0.0
 23
0.0
 14
5.0
 24
5.0
 15
20.0
 25
20.0
 16
0.0
 26
0.0
 36
95.29726685119721
 17
672.5670298718593
 27
459.5232259159593
 37
0.0
 40
288.4150483089362
 41
1.384839650145772
 42
50.0
 43
0.0
 44
0.0
 50
0.0
 51
0.0
 71
     0
 72
 20000
 73
     1
 74
     3
 75
     0
 76
     0
 77
     0
 78
     0
281
     0
 65
     0
110
0.0
120
0.0
130
0.0
111
1.0
121
0.0
131
0.0
112
0.0
122
1.0
132
0.0
 79
     0
146
0.0
348
285
 60
     3
 61
     5
292
     1
282
     0
141
0.0
142
0.0
 63
   250
421
  3355443
  0
ENDTAB
  0
TABLE
  2
LTYPE
  5
5
330
0
100
AcDbSymbolTable
 70
    22
  0
LTYPE
  5
14
330
5
100
AcDbSymbolTableRecord
100
AcDbLinetypeTableRecord
  2
ByBlock
 70
     0
  3

 72
    65
 73
     0
 40
0.0
  0
LTYPE
  5
15
330
5
100
AcDbSymbolTableRecord
100
AcDbLinetypeTableRecord
  2
ByLayer
 70
     0
  3

 72
    65
 73
     0
 40
0.0
  0
LTYPE
  5
16
330
5
100
AcDbSymbolTableRecord
100
AcDbLinetypeTableRecord
  2
Continuous
 70
     0
  3
Solid line
 72
    65
 73
     0
 40
0.0
  0
LTYPE
  5
4D
330
5
100
AcDbSymbolTableRecord
100
AcDbLinetypeTableRecord
  2
AM_ISO02W050
 70
     0
  3
__ __ __ __ __ __ __ __ __ __ __ __ __ __ __
 72
    65
 73
     2
 40
7.5
 49
6.0
 74
     0
 49
-1.5
 74
     0
  0
LTYPE
  5
4E
330
5
100
AcDbSymbolTableRecord
100
AcDbLinetypeTableRecord
  2
AM_ISO08W050
 70
     0
  3
____ . ____ . ____ . ____ . ____ . ____ . ____
 72
    65
 73
     4
 40
18.0
 49
12.0
 74
     0
 49
-1.5
 74
     0
 49
3.0
 74
     0
 49
-1.5
 74
     0
  0
LTYPE
  5
4F
330
5
100
AcDbSymbolTableRecord
100
AcDbLinetypeTableRecord
  2
AM_ISO09W050
 70
     0
  3
_____ . . _____ . . _____ . . ____ .. ____
 72
    65
 73
     6
 40
22.5
 49
12.0
 74
     0
 49
-1.5
 74
     0
 49
3.0
 74
     0
 49
-1.5
 74
     0
 49
3.0
 74
     0
 49
-1.5
 74
     0
  0
LTYPE
  5
50
330
5
100
AcDbSymbolTableRecord
100
AcDbLinetypeTableRecord
  2
Amconstr
 70
     0
  3
_______________________
 72
    65
 73
     2
 40
9999.0
 49
9999.0
 74
     0
 49
0.0
 74
     0
  0
LTYPE
  5
51
330
5
100
AcDbSymbolTableRecord
100
AcDbLinetypeTableRecord
  2
AM_ISO08W050x2
 70
     0
  3
__ . __ . __ . __ . __ . __
 72
    65
 73
     4
 40
9.0
 49
6.0
 74
     0
 49
-0.75
 74
     0
 49
1.5
 74
     0
 49
-0.75
 74
     0
  0
LTYPE
  5
52
330
5
100
AcDbSymbolTableRecord
100
AcDbLinetypeTableRecord
  2
AM_ISO02W050x2
 70
     0
  3
 _ _ _ _ _ _ _ _ _ _ _ _
 72
    65
 73
     2
 40
3.75
 49
3.0
 74
     0
 49
-0.75
 74
     0
  0
LTYPE
  5
55
330
5
100
AcDbSymbolTableRecord
100
AcDbLinetypeTableRecord
  2
Amzigzag
 70
     0
  3
/\/-/\/-/\/-/\/-/\/-/\/
 72
    65
 73
     2
 40
11.0001
 49
0.0001
 74
     4
 75
   136
340
23D
 46
0.04
 50
0.0
 44
0.0
 45
0.0
 49
-11.0
 74
     0
  0
LTYPE
  5
65
330
5
100
AcDbSymbolTableRecord
100
AcDbLinetypeTableRecord
  2
CENTER
 70
     0
  3
__ . __
 72
    65
 73
     4
 40
7.0
 49
4.0
 74
     0
 49
-1.0
 74
     0
 49
1.0
 74
     0
 49
-1.0
 74
     0
  0
LTYPE
  5
E0
330
5
100
AcDbSymbolTableRecord
100
AcDbLinetypeTableRecord
  2
HIDDEN
 70
     0
  3
Hidden __ __ __ __ __ __ __ __ __ __ __ __ __ _
 72
    65
 73
     2
 40
9.524999999999996
 49
6.349999999999998
 74
     0
 49
-3.174999999999998
 74
     0
  0
LTYPE
  5
E1
330
5
100
AcDbSymbolTableRecord
100
AcDbLinetypeTableRecord
  2
PHANTOM2
 70
     0
  3
Phantom (.5x) ___ _ _ ___ _ _ ___ _ _ ___ _ _
 72
    65
 73
     6
 40
31.75
 49
15.875
 74
     0
 49
-3.174999999999998
 74
     0
 49
3.174999999999998
 74
     0
 49
-3.174999999999998
 74
     0
 49
3.174999999999998
 74
     0
 49
-3.174999999999998
 74
     0
  0
LTYPE
  5
5A2
330
5
100
AcDbSymbolTableRecord
100
AcDbLinetypeTableRecord
  2
ACJISWELD
 70
     0
  3
_ _ _ _ _
 72
    65
 73
     2
 40
2.0
 49
2.0
 74
     0
 49
-1.0
 74
     0
  0
LTYPE
  5
681F
330
5
100
AcDbSymbolTableRecord
100
AcDbLinetypeTableRecord
  2
ACISOWELD
 70
     0
  3
_ _ _ _ _
 72
    65
 73
     2
 40
2.0
 49
2.0
 74
     0
 49
-1.0
 74
     0
  0
LTYPE
  5
6820
330
5
100
AcDbSymbolTableRecord
100
AcDbLinetypeTableRecord
  2
ACISOTGB
 70
     0
  3
__ . . __ . .
 72
    65
 73
     6
 40
9.0
 49
4.0
 74
     0
 49
-1.0
 74
     0
 49
1.0
 74
     0
 49
-1.0
 74
     0
 49
1.0
 74
     0
 49
-1.0
 74
     0
  0
LTYPE
  5
6821
330
5
100
AcDbSymbolTableRecord
100
AcDbLinetypeTableRecord
  2
ACISOTGL
 70
     0
  3
_ _ _ _ _
 72
    65
 73
     2
 40
3.0
 49
2.0
 74
     0
 49
-1.0
 74
     0
  0
ENDTAB
  0
TABLE
  2
LAYER
  5
2
102
{ACAD_XDICTIONARY
360
BF
102
}
330
0
100
AcDbSymbolTable
 70
    10
  0
LAYER
  5
10
102
{ACAD_XDICTIONARY
360
29F7
102
}
330
2
100
AcDbSymbolTableRecord
100
AcDbLayerTableRecord
  2
0
 70
     0
 62
     7
  6
Continuous
370
    -3
390
F
347
27E
  0
LAYER
  5
81
102
{ACAD_XDICTIONARY
360
29F9
102
}
330
2
100
AcDbSymbolTableRecord
100
AcDbLayerTableRecord
  2
AM_0 外形線1
 70
     0
 62
     7
  6
Continuous
370
    25
390
F
347
27E
  0
LAYER
  5
427
330
2
100
AcDbSymbolTableRecord
100
AcDbLayerTableRecord
  2
Defpoints
 70
     0
 62
     7
  6
Continuous
290
     0
370
    -3
390
F
347
27E
  0
LAYER
  5
3620
330
2
100
AcDbSymbolTableRecord
100
AcDbLayerTableRecord
  2
AM_5 寸法線
 70
     0
 62
     3
  6
Continuous
370
    13
390
F
347
27E
1001
AcAecLayerStandard
1000

1000

  0
LAYER
  5
3621
330
2
100
AcDbSymbolTableRecord
100
AcDbLayerTableRecord
  2
AM_4 細線
 70
     0
 62
     4
  6
Continuous
370
    13
390
F
347
27E
1001
AcAecLayerStandard
1000

1000

  0
LAYER
  5
3622
330
2
100
AcDbSymbolTableRecord
100
AcDbLayerTableRecord
  2
AM_7 中心線
 70
     0
 62
     1
  6
AM_ISO08W050
370
    13
390
F
347
27E
1001
AcAecLayerStandard
1000

1000

  0
LAYER
  5
3623
330
2
100
AcDbSymbolTableRecord
100
AcDbLayerTableRecord
  2
AM_3 隠れ線
 70
     0
 62
     8
  6
ACJISWELD
370
    13
390
F
347
27E
1001
AcAecLayerStandard
1000

1000

  0
LAYER
  5
3625
330
2
100
AcDbSymbolTableRecord
100
AcDbLayerTableRecord
  2
AM_6 文字
 70
     0
 62
     2
  6
Continuous
370
    13
390
F
347
27E
1001
AcAecLayerStandard
1000

1000

  0
LAYER
  5
6480
330
2
100
AcDbSymbolTableRecord
100
AcDbLayerTableRecord
  2
AM_11 想像線
 70
     0
 62
     5
  6
AM_ISO09W050
370
    13
390
F
347
27E
1001
AcAecLayerStandard
1000

1000

  0
ENDTAB
  0
TABLE
  2
STYLE
  5
3
330
0
100
AcDbSymbolTable
 70
    10
  0
STYLE
  5
11
330
3
100
AcDbSymbolTableRecord
100
AcDbTextStyleTableRecord
  2
STANDARD
 70
     0
 40
0.0
 41
1.0
 50
0.0
 71
     0
 42
25.0
  3
ISOCP.SHX
  4
EXTFONT.SHX
  0
STYLE
  5
23D
330
3
100
AcDbSymbolTableRecord
100
AcDbTextStyleTableRecord
  2

 70
     1
 40
0.0
 41
1.0
 50
0.0
 71
     0
 42
2.5
  3
genltshp.shx
  4

  0
STYLE
  5
5D5
330
3
100
AcDbSymbolTableRecord
100
AcDbTextStyleTableRecord
  2
SEISA
 70
     0
 40
0.0
 41
0.9
 50
0.0
 71
     0
 42
25.0
  3
romans.shx
  4
extfont2.shx
  0
STYLE
  5
680F
330
3
100
AcDbSymbolTableRecord
100
AcDbTextStyleTableRecord
  2
ACISOTS
 70
     0
 40
1.0
 41
1.0
 50
0.0
 71
     0
 42
25.0
  3
isocp.shx
  4
extfont.shx
  0
STYLE
  5
681E
330
3
100
AcDbSymbolTableRecord
100
AcDbTextStyleTableRecord
  2
ACISOGDT
 70
     0
 40
0.0
 41
1.0
 50
0.0
 71
     0
 42
25.0
  3
amgdt.shx
  4

  0
ENDTAB
  0
TABLE
  2
VIEW
  5
6
330
0
100
AcDbSymbolTable
 70
     6
  0
VIEW
  5
91B
330
6
100
AcDbSymbolTableRecord
100
AcDbViewTableRecord
  2
AM_VIEW1
 70
     0
 40
297.0
 10
292.2450742744934
 20
445.5000007387641
 41
584.4901477832514
 11
0.0
 21
0.0
 31
1.0
 12
0.0
 22
0.0
 32
0.0
 42
50.0
 43
0.0
 44
0.0
 50
0.0
 71
    16
281
     0
 72
     0
 73
     0
  0
VIEW
  5
91C
330
6
100
AcDbSymbolTableRecord
100
AcDbViewTableRecord
  2
AM_VIEW2
 70
     0
 40
297.0
 10
547.754926491242
 20
445.5000007387641
 41
584.4901477832514
 11
0.0
 21
0.0
 31
1.0
 12
0.0
 22
0.0
 32
0.0
 42
50.0
 43
0.0
 44
0.0
 50
0.0
 71
    16
281
     0
 72
     0
 73
     0
  0
VIEW
  5
91D
330
6
100
AcDbSymbolTableRecord
100
AcDbViewTableRecord
  2
AM_VIEW3
 70
     0
 40
297.0
 10
292.2450742744934
 20
148.5000007387641
 41
584.4901477832514
 11
0.0
 21
0.0
 31
1.0
 12
0.0
 22
0.0
 32
0.0
 42
50.0
 43
0.0
 44
0.0
 50
0.0
 71
    16
281
     0
 72
     0
 73
     0
  0
VIEW
  5
91E
330
6
100
AcDbSymbolTableRecord
100
AcDbViewTableRecord
  2
AM_VIEW4
 70
     0
 40
297.0
 10
547.754926491242
 20
148.5000007387641
 41
584.4901477832514
 11
0.0
 21
0.0
 31
1.0
 12
0.0
 22
0.0
 32
0.0
 42
50.0
 43
0.0
 44
0.0
 50
0.0
 71
    16
281
     0
 72
     0
 73
     0
  0
VIEW
  5
91F
330
6
100
AcDbSymbolTableRecord
100
AcDbViewTableRecord
  2
AM_VIEW5
 70
     0
 40
297.0000000000001
 10
420.0000003828676
 20
297.0000007387642
 41
584.4901477832514
 11
0.0
 21
0.0
 31
1.0
 12
0.0
 22
0.0
 32
0.0
 42
50.0
 43
0.0
 44
0.0
 50
0.0
 71
    16
281
     0
 72
     0
 73
     0
  0
VIEW
  5
920
330
6
100
AcDbSymbolTableRecord
100
AcDbViewTableRecord
  2
AM_VIEW6
 70
     0
 40
593.9940599999999
 10
420.0000003828676
 20
297.0000007387642
 41
1168.968605763547
 11
0.0
 21
0.0
 31
1.0
 12
0.0
 22
0.0
 32
0.0
 42
50.0
 43
0.0
 44
0.0
 50
0.0
 71
    16
281
     0
 72
     0
 73
     0
  0
ENDTAB
  0
TABLE
  2
UCS
  5
7
330
0
100
AcDbSymbolTable
 70
     0
  0
ENDTAB
  0
TABLE
  2
APPID
  5
9
330
0
100
AcDbSymbolTable
 70
   392
  0
APPID
  5
12
330
9
100
AcDbSymbolTableRecord
100
AcDbRegAppTableRecord
  2
ACAD
 70
     0
  0
APPID
  5
30
330
9
100
AcDbSymbolTableRecord
100
AcDbRegAppTableRecord
  2
MCAD_NO_VIS
 70
     0
  0
APPID
  5
31
330
9
100
AcDbSymbolTableRecord
100
AcDbRegAppTableRecord
  2
ACAD_TEMP_GRAPHIC
 70
     0
  0
APPID
  5
44
330
9
100
AcDbSymbolTableRecord
100
AcDbRegAppTableRecord
  2
ACATTRIBSERVICES
 70
     0
  0
APPID
  5
F6
330
9
100
AcDbSymbolTableRecord
100
AcDbRegAppTableRecord
  2
AD_DRAW
 70
     0
  0
APPID
  5
114
330
9
100
AcDbSymbolTableRecord
100
AcDbRegAppTableRecord
  2
DESIGNERASSEMBLIES
 70
     0
  0
APPID
  5
118
330
9
100
AcDbSymbolTableRecord
100
AcDbRegAppTableRecord
  2
ACADM_DIM_EDIT
 70
     0
  0
APPID
  5
119
330
9
100
AcDbSymbolTableRecord
100
AcDbRegAppTableRecord
  2
AMDT_DM_ADJ
 70
     0
  0
APPID
  5
1AF
330
9
100
AcDbSymbolTableRecord
100
AcDbRegAppTableRecord
  2
ACAD_DSTYLE_DIMARC_LENGTH_SYMBOL
 70
     0
  0
APPID
  5
1B0
330
9
100
AcDbSymbolTableRecord
100
AcDbRegAppTableRecord
  2
ACAD_DSTYLE_DIMJOGGED_JOGANGLE_SYMBOL
 70
     0
  0
APPID
  5
2D7
330
9
100
AcDbSymbolTableRecord
100
AcDbRegAppTableRecord
  2
ACAD_MLEADERVER
 70
     0
  0
APPID
  5
355
330
9
100
AcDbSymbolTableRecord
100
AcDbRegAppTableRecord
  2
AcadAnnoPO
 70
     0
  0
APPID
  5
428
330
9
100
AcDbSymbolTableRecord
100
AcDbRegAppTableRecord
  2
ACAD_DSTYLE_DIMTEXT_FILL
 70
     0
  0
APPID
  5
429
330
9
100
AcDbSymbolTableRecord
100
AcDbRegAppTableRecord
  2
GENIUS_GENSCREG_15
 70
     0
  0
APPID
  5
42A
330
9
100
AcDbSymbolTableRecord
100
AcDbRegAppTableRecord
  2
GENIUS_GENOBJ-N-SDF_13
 70
     0
  0
APPID
  5
42B
330
9
100
AcDbSymbolTableRecord
100
AcDbRegAppTableRecord
  2
GENIUS_GENODEF_13
 70
     0
  0
APPID
  5
42C
330
9
100
AcDbSymbolTableRecord
100
AcDbRegAppTableRecord
  2
ACAD_EXEMPT_FROM_CAD_STANDARDS
 70
     0
  0
APPID
  5
42D
330
9
100
AcDbSymbolTableRecord
100
AcDbRegAppTableRecord
  2
AcAecLayerStandard
 70
     0
  0
APPID
  5
42E
330
9
100
AcDbSymbolTableRecord
100
AcDbRegAppTableRecord
  2
GENIUS_GENOBJ-N-CEN_13
 70
     0
  0
APPID
  5
42F
330
9
100
AcDbSymbolTableRecord
100
AcDbRegAppTableRecord
  2
GENIUS_GENCEN_19
 70
     0
  0
APPID
  5
430
330
9
100
AcDbSymbolTableRecord
100
AcDbRegAppTableRecord
  2
ACAD_DSTYLE_DIMINSPECT
 70
     0
  0
APPID
  5
431
330
9
100
AcDbSymbolTableRecord
100
AcDbRegAppTableRecord
  2
GENIUS_AMGTXT_16
 70
     0
  0
APPID
  5
432
330
9
100
AcDbSymbolTableRecord
100
AcDbRegAppTableRecord
  2
GENIUS_GENFIL_13
 70
     0
  0
APPID
  5
433
330
9
100
AcDbSymbolTableRecord
100
AcDbRegAppTableRecord
  2
GENIUS_GENOLIS_13
 70
     0
  0
APPID
  5
434
330
9
100
AcDbSymbolTableRecord
100
AcDbRegAppTableRecord
  2
GENIUS_GENOBJ-N-CHA_13
 70
     0
  0
APPID
  5
435
330
9
100
AcDbSymbolTableRecord
100
AcDbRegAppTableRecord
  2
GENIUS_GENOENT_13
 70
     0
  0
APPID
  5
436
330
9
100
AcDbSymbolTableRecord
100
AcDbRegAppTableRecord
  2
GENIUS_GENOREF_13
 70
     0
  0
APPID
  5
437
330
9
100
AcDbSymbolTableRecord
100
AcDbRegAppTableRecord
  2
GENIUS_GENOBJ-N-FIL_13
 70
     0
  0
APPID
  5
438
330
9
100
AcDbSymbolTableRecord
100
AcDbRegAppTableRecord
  2
GEVID1208829536
 70
     0
  0
APPID
  5
439
330
9
100
AcDbSymbolTableRecord
100
AcDbRegAppTableRecord
  2
GEVDC
 70
     0
  0
APPID
  5
43A
330
9
100
AcDbSymbolTableRecord
100
AcDbRegAppTableRecord
  2
GEVRADREF
 70
     0
  0
APPID
  5
43B
330
9
100
AcDbSymbolTableRecord
100
AcDbRegAppTableRecord
  2
GENIUS_GENBH_13
 70
     0
  0
APPID
  5
43C
330
9
100
AcDbSymbolTableRecord
100
AcDbRegAppTableRecord
  2
GENIUS_GENOBJ-NBEHI-BHF_13
 70
     0
  0
APPID
  5
43D
330
9
100
AcDbSymbolTableRecord
100
AcDbRegAppTableRecord
  2
GENIUS_GENOBJ-NBEHI-BHB_13
 70
     0
  0
APPID
  5
43E
330
9
100
AcDbSymbolTableRecord
100
AcDbRegAppTableRecord
  2
GEVID1208829537
 70
     0
  0
APPID
  5
43F
330
9
100
AcDbSymbolTableRecord
100
AcDbRegAppTableRecord
  2
ACAD_DSTYLE_DIMJAG
 70
     0
  0
APPID
  5
440
330
9
100
AcDbSymbolTableRecord
100
AcDbRegAppTableRecord
  2
ACAD_DSTYLE_DIMTALN
 70
     0
  0
APPID
  5
441
330
9
100
AcDbSymbolTableRecord
100
AcDbRegAppTableRecord
  2
AMG_2DHIDE
 70
     0
  0
APPID
  5
442
330
9
100
AcDbSymbolTableRecord
100
AcDbRegAppTableRecord
  2
AMG_2DSTRUCT_BTR
 70
     0
  0
APPID
  5
443
330
9
100
AcDbSymbolTableRecord
100
AcDbRegAppTableRecord
  2
GEVID1208845772
 70
     0
  0
APPID
  5
444
330
9
100
AcDbSymbolTableRecord
100
AcDbRegAppTableRecord
  2
GEVID1208845773
 70
     0
  0
APPID
  5
445
330
9
100
AcDbSymbolTableRecord
100
AcDbRegAppTableRecord
  2
ACADM_2DVIEW_IGN_NOTIFY
 70
     0
  0
APPID
  5
446
330
9
100
AcDbSymbolTableRecord
100
AcDbRegAppTableRecord
  2
GEVID1208845774
 70
     0
  0
APPID
  5
447
330
9
100
AcDbSymbolTableRecord
100
AcDbRegAppTableRecord
  2
GEVID1208845775
 70
     0
  0
APPID
  5
448
330
9
100
AcDbSymbolTableRecord
100
AcDbRegAppTableRecord
  2
GEVID1208845776
 70
     0
  0
APPID
  5
449
330
9
100
AcDbSymbolTableRecord
100
AcDbRegAppTableRecord
  2
GEVID1208845777
 70
     0
  0
APPID
  5
44A
330
9
100
AcDbSymbolTableRecord
100
AcDbRegAppTableRecord
  2
GEVCON
 70
     0
  0
APPID
  5
44B
330
9
100
AcDbSymbolTableRecord
100
AcDbRegAppTableRecord
  2
GENIUS_GENOBJ-F-SCPASSM_13
 70
     0
  0
APPID
  5
44C
330
9
100
AcDbSymbolTableRecord
100
AcDbRegAppTableRecord
  2
GEVID1208845778
 70
     0
  0
APPID
  5
44D
330
9
100
AcDbSymbolTableRecord
100
AcDbRegAppTableRecord
  2
GEVID1208845779
 70
     0
  0
APPID
  5
44E
330
9
100
AcDbSymbolTableRecord
100
AcDbRegAppTableRecord
  2
GEVID1208845780
 70
     0
  0
APPID
  5
44F
330
9
100
AcDbSymbolTableRecord
100
AcDbRegAppTableRecord
  2
GEVID1208845781
 70
     0
  0
APPID
  5
450
330
9
100
AcDbSymbolTableRecord
100
AcDbRegAppTableRecord
  2
GEVID1208845782
 70
     0
  0
APPID
  5
451
330
9
100
AcDbSymbolTableRecord
100
AcDbRegAppTableRecord
  2
GEVID1208845783
 70
     0
  0
APPID
  5
452
330
9
100
AcDbSymbolTableRecord
100
AcDbRegAppTableRecord
  2
GEVID1208845784
 70
     0
  0
APPID
  5
453
330
9
100
AcDbSymbolTableRecord
100
AcDbRegAppTableRecord
  2
GEVID1208845785
 70
     0
  0
APPID
  5
454
330
9
100
AcDbSymbolTableRecord
100
AcDbRegAppTableRecord
  2
GEVID1208845787
 70
     0
  0
APPID
  5
455
330
9
100
AcDbSymbolTableRecord
100
AcDbRegAppTableRecord
  2
GEVID1208845788
 70
     0
  0
APPID
  5
456
330
9
100
AcDbSymbolTableRecord
100
AcDbRegAppTableRecord
  2
GEVID1208845789
 70
     0
  0
APPID
  5
457
330
9
100
AcDbSymbolTableRecord
100
AcDbRegAppTableRecord
  2
GEVID1208845790
 70
     0
  0
APPID
  5
458
330
9
100
AcDbSymbolTableRecord
100
AcDbRegAppTableRecord
  2
GEVID1208845791
 70
     0
  0
APPID
  5
459
330
9
100
AcDbSymbolTableRecord
100
AcDbRegAppTableRecord
  2
GEVID1208845792
 70
     0
  0
APPID
  5
45A
330
9
100
AcDbSymbolTableRecord
100
AcDbRegAppTableRecord
  2
GEVID1208845793
 70
     0
  0
APPID
  5
45B
330
9
100
AcDbSymbolTableRecord
100
AcDbRegAppTableRecord
  2
GEVID1208845794
 70
     0
  0
APPID
  5
45C
330
9
100
AcDbSymbolTableRecord
100
AcDbRegAppTableRecord
  2
GEVID1208845795
 70
     0
  0
APPID
  5
45D
330
9
100
AcDbSymbolTableRecord
100
AcDbRegAppTableRecord
  2
GEVID1208845796
 70
     0
  0
APPID
  5
45E
330
9
100
AcDbSymbolTableRecord
100
AcDbRegAppTableRecord
  2
GEVID1208845797
 70
     0
  0
APPID
  5
45F
330
9
100
AcDbSymbolTableRecord
100
AcDbRegAppTableRecord
  2
GEVID1208845798
 70
     0
  0
APPID
  5
460
330
9
100
AcDbSymbolTableRecord
100
AcDbRegAppTableRecord
  2
GEVID1208845799
 70
     0
  0
APPID
  5
461
330
9
100
AcDbSymbolTableRecord
100
AcDbRegAppTableRecord
  2
GEVID1208845800
 70
     0
  0
APPID
  5
462
330
9
100
AcDbSymbolTableRecord
100
AcDbRegAppTableRecord
  2
GEVID1208845801
 70
     0
  0
APPID
  5
463
330
9
100
AcDbSymbolTableRecord
100
AcDbRegAppTableRecord
  2
GEVID1208845802
 70
     0
  0
APPID
  5
464
330
9
100
AcDbSymbolTableRecord
100
AcDbRegAppTableRecord
  2
GENIUS_GENOBJ-N-DIM_13
 70
     0
  0
APPID
  5
465
330
9
100
AcDbSymbolTableRecord
100
AcDbRegAppTableRecord
  2
GENIUS_GENDIM_13
 70
     0
  0
APPID
  5
466
330
9
100
AcDbSymbolTableRecord
100
AcDbRegAppTableRecord
  2
GENIUS_GENDIMSH_14
 70
     0
  0
APPID
  5
467
330
9
100
AcDbSymbolTableRecord
100
AcDbRegAppTableRecord
  2
GEVID1208845803
 70
     0
  0
APPID
  5
468
330
9
100
AcDbSymbolTableRecord
100
AcDbRegAppTableRecord
  2
GEVID1208845804
 70
     0
  0
APPID
  5
469
330
9
100
AcDbSymbolTableRecord
100
AcDbRegAppTableRecord
  2
GEVID1208845805
 70
     0
  0
APPID
  5
46A
330
9
100
AcDbSymbolTableRecord
100
AcDbRegAppTableRecord
  2
GEVID1208845806
 70
     0
  0
APPID
  5
46B
330
9
100
AcDbSymbolTableRecord
100
AcDbRegAppTableRecord
  2
GEVID1208845807
 70
     0
  0
APPID
  5
46C
330
9
100
AcDbSymbolTableRecord
100
AcDbRegAppTableRecord
  2
GEVID1208845808
 70
     0
  0
APPID
  5
46D
330
9
100
AcDbSymbolTableRecord
100
AcDbRegAppTableRecord
  2
GEVID1208845809
 70
     0
  0
APPID
  5
46E
330
9
100
AcDbSymbolTableRecord
100
AcDbRegAppTableRecord
  2
GEVID1208845810
 70
     0
  0
APPID
  5
46F
330
9
100
AcDbSymbolTableRecord
100
AcDbRegAppTableRecord
  2
GEVID1208845811
 70
     0
  0
APPID
  5
470
330
9
100
AcDbSymbolTableRecord
100
AcDbRegAppTableRecord
  2
GEVID1208845813
 70
     0
  0
APPID
  5
471
330
9
100
AcDbSymbolTableRecord
100
AcDbRegAppTableRecord
  2
GEVID1208845814
 70
     0
  0
APPID
  5
472
330
9
100
AcDbSymbolTableRecord
100
AcDbRegAppTableRecord
  2
GEVID1208845815
 70
     0
  0
APPID
  5
473
330
9
100
AcDbSymbolTableRecord
100
AcDbRegAppTableRecord
  2
GEVID1208845816
 70
     0
  0
APPID
  5
474
330
9
100
AcDbSymbolTableRecord
100
AcDbRegAppTableRecord
  2
GEVID1208845817
 70
     0
  0
APPID
  5
475
330
9
100
AcDbSymbolTableRecord
100
AcDbRegAppTableRecord
  2
GEVID1208845818
 70
     0
  0
APPID
  5
476
330
9
100
AcDbSymbolTableRecord
100
AcDbRegAppTableRecord
  2
GEVID1208845819
 70
     0
  0
APPID
  5
477
330
9
100
AcDbSymbolTableRecord
100
AcDbRegAppTableRecord
  2
GEVID1208845820
 70
     0
  0
APPID
  5
478
330
9
100
AcDbSymbolTableRecord
100
AcDbRegAppTableRecord
  2
GENIUS_GENOBJ-F-SHCL_13
 70
     0
  0
APPID
  5
479
330
9
100
AcDbSymbolTableRecord
100
AcDbRegAppTableRecord
  2
GENIUS_GEFMSH_13
 70
     0
  0
APPID
  5
47A
330
9
100
AcDbSymbolTableRecord
100
AcDbRegAppTableRecord
  2
GENIUS_GENOBJ-F-SHCA_13
 70
     0
  0
APPID
  5
47B
330
9
100
AcDbSymbolTableRecord
100
AcDbRegAppTableRecord
  2
GENIUS_GEFSH_13
 70
     0
  0
APPID
  5
47C
330
9
100
AcDbSymbolTableRecord
100
AcDbRegAppTableRecord
  2
GENIUS_GEFSHP_13
 70
     0
  0
APPID
  5
47D
330
9
100
AcDbSymbolTableRecord
100
AcDbRegAppTableRecord
  2
GENIUS_GEFSHP0_13
 70
     0
  0
APPID
  5
47E
330
9
100
AcDbSymbolTableRecord
100
AcDbRegAppTableRecord
  2
GENIUS_GEFSH0_13
 70
     0
  0
APPID
  5
47F
330
9
100
AcDbSymbolTableRecord
100
AcDbRegAppTableRecord
  2
GENIUS_GEFSHP1_13
 70
     0
  0
APPID
  5
480
330
9
100
AcDbSymbolTableRecord
100
AcDbRegAppTableRecord
  2
GENIUS_GEFSH1_13
 70
     0
  0
APPID
  5
481
330
9
100
AcDbSymbolTableRecord
100
AcDbRegAppTableRecord
  2
GEVID1208866337
 70
     0
  0
APPID
  5
482
330
9
100
AcDbSymbolTableRecord
100
AcDbRegAppTableRecord
  2
GEVID1208866338
 70
     0
  0
APPID
  5
483
330
9
100
AcDbSymbolTableRecord
100
AcDbRegAppTableRecord
  2
GEVID1208866339
 70
     0
  0
APPID
  5
484
330
9
100
AcDbSymbolTableRecord
100
AcDbRegAppTableRecord
  2
GEVID1208866340
 70
     0
  0
APPID
  5
485
330
9
100
AcDbSymbolTableRecord
100
AcDbRegAppTableRecord
  2
GEVID1208866341
 70
     0
  0
APPID
  5
486
330
9
100
AcDbSymbolTableRecord
100
AcDbRegAppTableRecord
  2
ACAD_PSEXT
 70
     0
  0
APPID
  5
487
330
9
100
AcDbSymbolTableRecord
100
AcDbRegAppTableRecord
  2
GEVID1208866342
 70
     0
  0
APPID
  5
488
330
9
100
AcDbSymbolTableRecord
100
AcDbRegAppTableRecord
  2
GEVID1208913836
 70
     0
  0
APPID
  5
489
330
9
100
AcDbSymbolTableRecord
100
AcDbRegAppTableRecord
  2
GEVID1208913837
 70
     0
  0
APPID
  5
48A
330
9
100
AcDbSymbolTableRecord
100
AcDbRegAppTableRecord
  2
GEVID1208913838
 70
     0
  0
APPID
  5
48B
330
9
100
AcDbSymbolTableRecord
100
AcDbRegAppTableRecord
  2
GEVID1208913839
 70
     0
  0
APPID
  5
48C
330
9
100
AcDbSymbolTableRecord
100
AcDbRegAppTableRecord
  2
GENIUS_GENDTOL_13
 70
     0
  0
APPID
  5
48D
330
9
100
AcDbSymbolTableRecord
100
AcDbRegAppTableRecord
  2
GEVID1208928889
 70
     0
  0
APPID
  5
48E
330
9
100
AcDbSymbolTableRecord
100
AcDbRegAppTableRecord
  2
GEVID1208928890
 70
     0
  0
APPID
  5
48F
330
9
100
AcDbSymbolTableRecord
100
AcDbRegAppTableRecord
  2
GEVID1208928891
 70
     0
  0
APPID
  5
490
330
9
100
AcDbSymbolTableRecord
100
AcDbRegAppTableRecord
  2
GEVID1208928892
 70
     0
  0
APPID
  5
491
330
9
100
AcDbSymbolTableRecord
100
AcDbRegAppTableRecord
  2
GEVID1208933827
 70
     0
  0
APPID
  5
492
330
9
100
AcDbSymbolTableRecord
100
AcDbRegAppTableRecord
  2
GEVID1208933829
 70
     0
  0
APPID
  5
493
330
9
100
AcDbSymbolTableRecord
100
AcDbRegAppTableRecord
  2
GEVID1208933830
 70
     0
  0
APPID
  5
494
330
9
100
AcDbSymbolTableRecord
100
AcDbRegAppTableRecord
  2
GEVID1208933831
 70
     0
  0
APPID
  5
495
330
9
100
AcDbSymbolTableRecord
100
AcDbRegAppTableRecord
  2
GEVID1208933832
 70
     0
  0
APPID
  5
496
330
9
100
AcDbSymbolTableRecord
100
AcDbRegAppTableRecord
  2
GEVID1208933833
 70
     0
  0
APPID
  5
497
330
9
100
AcDbSymbolTableRecord
100
AcDbRegAppTableRecord
  2
GEVID1208933834
 70
     0
  0
APPID
  5
498
330
9
100
AcDbSymbolTableRecord
100
AcDbRegAppTableRecord
  2
GEVID1208933835
 70
     0
  0
APPID
  5
499
330
9
100
AcDbSymbolTableRecord
100
AcDbRegAppTableRecord
  2
GEVID1208933836
 70
     0
  0
APPID
  5
49A
330
9
100
AcDbSymbolTableRecord
100
AcDbRegAppTableRecord
  2
GEVID1208933837
 70
     0
  0
APPID
  5
49B
330
9
100
AcDbSymbolTableRecord
100
AcDbRegAppTableRecord
  2
GEVID1208933838
 70
     0
  0
APPID
  5
49C
330
9
100
AcDbSymbolTableRecord
100
AcDbRegAppTableRecord
  2
GEVID1208933840
 70
     0
  0
APPID
  5
49D
330
9
100
AcDbSymbolTableRecord
100
AcDbRegAppTableRecord
  2
GEVID1208933842
 70
     0
  0
APPID
  5
49E
330
9
100
AcDbSymbolTableRecord
100
AcDbRegAppTableRecord
  2
GEVID1208933843
 70
     0
  0
APPID
  5
49F
330
9
100
AcDbSymbolTableRecord
100
AcDbRegAppTableRecord
  2
GEVID1208933844
 70
     0
  0
APPID
  5
4A0
330
9
100
AcDbSymbolTableRecord
100
AcDbRegAppTableRecord
  2
GEVID1208933845
 70
     0
  0
APPID
  5
4A1
330
9
100
AcDbSymbolTableRecord
100
AcDbRegAppTableRecord
  2
GEVID1208933846
 70
     0
  0
APPID
  5
4A2
330
9
100
AcDbSymbolTableRecord
100
AcDbRegAppTableRecord
  2
GEVID1208933847
 70
     0
  0
APPID
  5
4A3
330
9
100
AcDbSymbolTableRecord
100
AcDbRegAppTableRecord
  2
GEVID1208933848
 70
     0
  0
APPID
  5
4A4
330
9
100
AcDbSymbolTableRecord
100
AcDbRegAppTableRecord
  2
GEVID1208933849
 70
     0
  0
APPID
  5
4A5
330
9
100
AcDbSymbolTableRecord
100
AcDbRegAppTableRecord
  2
GEVID1208933850
 70
     0
  0
APPID
  5
4A6
330
9
100
AcDbSymbolTableRecord
100
AcDbRegAppTableRecord
  2
GEVID1208933851
 70
     0
  0
APPID
  5
4A7
330
9
100
AcDbSymbolTableRecord
100
AcDbRegAppTableRecord
  2
GEVID1208933852
 70
     0
  0
APPID
  5
4A8
330
9
100
AcDbSymbolTableRecord
100
AcDbRegAppTableRecord
  2
GEVID1208933853
 70
     0
  0
APPID
  5
4A9
330
9
100
AcDbSymbolTableRecord
100
AcDbRegAppTableRecord
  2
GEVID1208933854
 70
     0
  0
APPID
  5
4AA
330
9
100
AcDbSymbolTableRecord
100
AcDbRegAppTableRecord
  2
GEVID1208933855
 70
     0
  0
APPID
  5
4AB
330
9
100
AcDbSymbolTableRecord
100
AcDbRegAppTableRecord
  2
GEVID1208933856
 70
     0
  0
APPID
  5
4AC
330
9
100
AcDbSymbolTableRecord
100
AcDbRegAppTableRecord
  2
GEVID1208933857
 70
     0
  0
APPID
  5
4AD
330
9
100
AcDbSymbolTableRecord
100
AcDbRegAppTableRecord
  2
GEVID1208933858
 70
     0
  0
APPID
  5
4AE
330
9
100
AcDbSymbolTableRecord
100
AcDbRegAppTableRecord
  2
GEVID1208933859
 70
     0
  0
APPID
  5
4AF
330
9
100
AcDbSymbolTableRecord
100
AcDbRegAppTableRecord
  2
GEVID1208933860
 70
     0
  0
APPID
  5
4B0
330
9
100
AcDbSymbolTableRecord
100
AcDbRegAppTableRecord
  2
GEVID1208933861
 70
     0
  0
APPID
  5
4B1
330
9
100
AcDbSymbolTableRecord
100
AcDbRegAppTableRecord
  2
GEVID1208933862
 70
     0
  0
APPID
  5
4B2
330
9
100
AcDbSymbolTableRecord
100
AcDbRegAppTableRecord
  2
GEVID1208933863
 70
     0
  0
APPID
  5
4B3
330
9
100
AcDbSymbolTableRecord
100
AcDbRegAppTableRecord
  2
GEVID1208933864
 70
     0
  0
APPID
  5
4B4
330
9
100
AcDbSymbolTableRecord
100
AcDbRegAppTableRecord
  2
GEVID1208933865
 70
     0
  0
APPID
  5
4B5
330
9
100
AcDbSymbolTableRecord
100
AcDbRegAppTableRecord
  2
GEVID1208933866
 70
     0
  0
APPID
  5
4B6
330
9
100
AcDbSymbolTableRecord
100
AcDbRegAppTableRecord
  2
GEVID1208933867
 70
     0
  0
APPID
  5
4B7
330
9
100
AcDbSymbolTableRecord
100
AcDbRegAppTableRecord
  2
GEVID1208933868
 70
     0
  0
APPID
  5
4B8
330
9
100
AcDbSymbolTableRecord
100
AcDbRegAppTableRecord
  2
GEVID1208933869
 70
     0
  0
APPID
  5
4B9
330
9
100
AcDbSymbolTableRecord
100
AcDbRegAppTableRecord
  2
GEVID1208933870
 70
     0
  0
APPID
  5
4BA
330
9
100
AcDbSymbolTableRecord
100
AcDbRegAppTableRecord
  2
GEVID1208933871
 70
     0
  0
APPID
  5
4BB
330
9
100
AcDbSymbolTableRecord
100
AcDbRegAppTableRecord
  2
GEVID1208933872
 70
     0
  0
APPID
  5
4BC
330
9
100
AcDbSymbolTableRecord
100
AcDbRegAppTableRecord
  2
GEVID1208933873
 70
     0
  0
APPID
  5
4BD
330
9
100
AcDbSymbolTableRecord
100
AcDbRegAppTableRecord
  2
GEVID1208933874
 70
     0
  0
APPID
  5
4BE
330
9
100
AcDbSymbolTableRecord
100
AcDbRegAppTableRecord
  2
GEVID1208933875
 70
     0
  0
APPID
  5
4BF
330
9
100
AcDbSymbolTableRecord
100
AcDbRegAppTableRecord
  2
GEVID1208933876
 70
     0
  0
APPID
  5
4C0
330
9
100
AcDbSymbolTableRecord
100
AcDbRegAppTableRecord
  2
ACAD_DSTYLE_DIMRADIAL_EXTENSION
 70
     0
  0
APPID
  5
4C1
330
9
100
AcDbSymbolTableRecord
100
AcDbRegAppTableRecord
  2
GEVID1208999100
 70
     0
  0
APPID
  5
4C2
330
9
100
AcDbSymbolTableRecord
100
AcDbRegAppTableRecord
  2
GEVID1208999101
 70
     0
  0
APPID
  5
4C3
330
9
100
AcDbSymbolTableRecord
100
AcDbRegAppTableRecord
  2
GEVID1208999102
 70
     0
  0
APPID
  5
4C4
330
9
100
AcDbSymbolTableRecord
100
AcDbRegAppTableRecord
  2
GEVID1208999103
 70
     0
  0
APPID
  5
4C5
330
9
100
AcDbSymbolTableRecord
100
AcDbRegAppTableRecord
  2
GEVID1208999105
 70
     0
  0
APPID
  5
4C6
330
9
100
AcDbSymbolTableRecord
100
AcDbRegAppTableRecord
  2
GEVID1208999106
 70
     0
  0
APPID
  5
4C7
330
9
100
AcDbSymbolTableRecord
100
AcDbRegAppTableRecord
  2
GEVID1208999108
 70
     0
  0
APPID
  5
4C8
330
9
100
AcDbSymbolTableRecord
100
AcDbRegAppTableRecord
  2
GEVID1208999109
 70
     0
  0
APPID
  5
4C9
330
9
100
AcDbSymbolTableRecord
100
AcDbRegAppTableRecord
  2
GEVID1208999110
 70
     0
  0
APPID
  5
4CA
330
9
100
AcDbSymbolTableRecord
100
AcDbRegAppTableRecord
  2
GEVID1208999111
 70
     0
  0
APPID
  5
4CB
330
9
100
AcDbSymbolTableRecord
100
AcDbRegAppTableRecord
  2
GEVID1208999112
 70
     0
  0
APPID
  5
4CC
330
9
100
AcDbSymbolTableRecord
100
AcDbRegAppTableRecord
  2
GEVID1208999113
 70
     0
  0
APPID
  5
4CD
330
9
100
AcDbSymbolTableRecord
100
AcDbRegAppTableRecord
  2
GEVID1208999114
 70
     0
  0
APPID
  5
4CE
330
9
100
AcDbSymbolTableRecord
100
AcDbRegAppTableRecord
  2
GEVID1210218799
 70
     0
  0
APPID
  5
4CF
330
9
100
AcDbSymbolTableRecord
100
AcDbRegAppTableRecord
  2
GEVID1210218800
 70
     0
  0
APPID
  5
4D0
330
9
100
AcDbSymbolTableRecord
100
AcDbRegAppTableRecord
  2
GENIUS_GEFWELD_13
 70
     0
  0
APPID
  5
4D1
330
9
100
AcDbSymbolTableRecord
100
AcDbRegAppTableRecord
  2
GENIUS_GENOBJ-F-WELS_13
 70
     0
  0
APPID
  5
4D2
330
9
100
AcDbSymbolTableRecord
100
AcDbRegAppTableRecord
  2
AcadAnnotative
 70
     0
  0
APPID
  5
4D3
330
9
100
AcDbSymbolTableRecord
100
AcDbRegAppTableRecord
  2
GEVID1210145339
 70
     0
  0
APPID
  5
4D4
330
9
100
AcDbSymbolTableRecord
100
AcDbRegAppTableRecord
  2
ACAD_DSTYLE_DIMBREAK
 70
     0
  0
APPID
  5
4D5
330
9
100
AcDbSymbolTableRecord
100
AcDbRegAppTableRecord
  2
GEVID1210145340
 70
     0
  0
APPID
  5
4D6
330
9
100
AcDbSymbolTableRecord
100
AcDbRegAppTableRecord
  2
GEVID1210145341
 70
     0
  0
APPID
  5
4D7
330
9
100
AcDbSymbolTableRecord
100
AcDbRegAppTableRecord
  2
GEVID1210145342
 70
     0
  0
APPID
  5
4D8
330
9
100
AcDbSymbolTableRecord
100
AcDbRegAppTableRecord
  2
GEVID1210145343
 70
     0
  0
APPID
  5
4D9
330
9
100
AcDbSymbolTableRecord
100
AcDbRegAppTableRecord
  2
GEVID1210145344
 70
     0
  0
APPID
  5
4DA
330
9
100
AcDbSymbolTableRecord
100
AcDbRegAppTableRecord
  2
GEVID1210145345
 70
     0
  0
APPID
  5
4DB
330
9
100
AcDbSymbolTableRecord
100
AcDbRegAppTableRecord
  2
GEVID1210152816
 70
     0
  0
APPID
  5
4DC
330
9
100
AcDbSymbolTableRecord
100
AcDbRegAppTableRecord
  2
GEVID1210153850
 70
     0
  0
APPID
  5
4DD
330
9
100
AcDbSymbolTableRecord
100
AcDbRegAppTableRecord
  2
GEVID1210153851
 70
     0
  0
APPID
  5
4DE
330
9
100
AcDbSymbolTableRecord
100
AcDbRegAppTableRecord
  2
GEVID1210153852
 70
     0
  0
APPID
  5
4DF
330
9
100
AcDbSymbolTableRecord
100
AcDbRegAppTableRecord
  2
GEVID1210549898
 70
     0
  0
APPID
  5
4E0
330
9
100
AcDbSymbolTableRecord
100
AcDbRegAppTableRecord
  2
GEVID1210549899
 70
     0
  0
APPID
  5
4E1
330
9
100
AcDbSymbolTableRecord
100
AcDbRegAppTableRecord
  2
GEVID1210549900
 70
     0
  0
APPID
  5
4E2
330
9
100
AcDbSymbolTableRecord
100
AcDbRegAppTableRecord
  2
GEVID1210549901
 70
     0
  0
APPID
  5
4E3
330
9
100
AcDbSymbolTableRecord
100
AcDbRegAppTableRecord
  2
GEVID1210549902
 70
     0
  0
APPID
  5
4E4
330
9
100
AcDbSymbolTableRecord
100
AcDbRegAppTableRecord
  2
GEVID1210549903
 70
     0
  0
APPID
  5
4E5
330
9
100
AcDbSymbolTableRecord
100
AcDbRegAppTableRecord
  2
GEVID1210549904
 70
     0
  0
APPID
  5
4E6
330
9
100
AcDbSymbolTableRecord
100
AcDbRegAppTableRecord
  2
GEVID1210549905
 70
     0
  0
APPID
  5
4E7
330
9
100
AcDbSymbolTableRecord
100
AcDbRegAppTableRecord
  2
GEVID1210549906
 70
     0
  0
APPID
  5
4E8
330
9
100
AcDbSymbolTableRecord
100
AcDbRegAppTableRecord
  2
GEVID1210549907
 70
     0
  0
APPID
  5
4E9
330
9
100
AcDbSymbolTableRecord
100
AcDbRegAppTableRecord
  2
GEVID1210549908
 70
     0
  0
APPID
  5
4EA
330
9
100
AcDbSymbolTableRecord
100
AcDbRegAppTableRecord
  2
GEVID1210549909
 70
     0
  0
APPID
  5
4EB
330
9
100
AcDbSymbolTableRecord
100
AcDbRegAppTableRecord
  2
GEVID1210549910
 70
     0
  0
APPID
  5
4EC
330
9
100
AcDbSymbolTableRecord
100
AcDbRegAppTableRecord
  2
GEVID1210549911
 70
     0
  0
APPID
  5
4ED
330
9
100
AcDbSymbolTableRecord
100
AcDbRegAppTableRecord
  2
GEVID1210549912
 70
     0
  0
APPID
  5
4EE
330
9
100
AcDbSymbolTableRecord
100
AcDbRegAppTableRecord
  2
GEVID1210549913
 70
     0
  0
APPID
  5
4EF
330
9
100
AcDbSymbolTableRecord
100
AcDbRegAppTableRecord
  2
GEVID1210549914
 70
     0
  0
APPID
  5
4F0
330
9
100
AcDbSymbolTableRecord
100
AcDbRegAppTableRecord
  2
GEVID1210549915
 70
     0
  0
APPID
  5
4F1
330
9
100
AcDbSymbolTableRecord
100
AcDbRegAppTableRecord
  2
GEVID1210549916
 70
     0
  0
APPID
  5
4F2
330
9
100
AcDbSymbolTableRecord
100
AcDbRegAppTableRecord
  2
GEVID1210549917
 70
     0
  0
APPID
  5
4F3
330
9
100
AcDbSymbolTableRecord
100
AcDbRegAppTableRecord
  2
GENIUS_GENOBJ-N-CRS_13
 70
     0
  0
APPID
  5
4F4
330
9
100
AcDbSymbolTableRecord
100
AcDbRegAppTableRecord
  2
GEVID1210549918
 70
     0
  0
APPID
  5
4F5
330
9
100
AcDbSymbolTableRecord
100
AcDbRegAppTableRecord
  2
GENIUS_GENOBJ-N-CRC_13
 70
     0
  0
APPID
  5
4F6
330
9
100
AcDbSymbolTableRecord
100
AcDbRegAppTableRecord
  2
GENIUS_GENCRC_14
 70
     0
  0
APPID
  5
4F7
330
9
100
AcDbSymbolTableRecord
100
AcDbRegAppTableRecord
  2
GEVID1210549919
 70
     0
  0
APPID
  5
4F8
330
9
100
AcDbSymbolTableRecord
100
AcDbRegAppTableRecord
  2
GEVID1210549921
 70
     0
  0
APPID
  5
4F9
330
9
100
AcDbSymbolTableRecord
100
AcDbRegAppTableRecord
  2
GEVID1210549922
 70
     0
  0
APPID
  5
4FA
330
9
100
AcDbSymbolTableRecord
100
AcDbRegAppTableRecord
  2
GEVID1210635173
 70
     0
  0
APPID
  5
4FB
330
9
100
AcDbSymbolTableRecord
100
AcDbRegAppTableRecord
  2
GEVID1210635174
 70
     0
  0
APPID
  5
4FC
330
9
100
AcDbSymbolTableRecord
100
AcDbRegAppTableRecord
  2
GEVID1210635175
 70
     0
  0
APPID
  5
4FD
330
9
100
AcDbSymbolTableRecord
100
AcDbRegAppTableRecord
  2
GEVID1210635176
 70
     0
  0
APPID
  5
4FE
330
9
100
AcDbSymbolTableRecord
100
AcDbRegAppTableRecord
  2
GEVID1210635177
 70
     0
  0
APPID
  5
4FF
330
9
100
AcDbSymbolTableRecord
100
AcDbRegAppTableRecord
  2
GEVID1210635178
 70
     0
  0
APPID
  5
500
330
9
100
AcDbSymbolTableRecord
100
AcDbRegAppTableRecord
  2
GENIUS_GENIUS_GENBHEDTMP_13
 70
     0
  0
APPID
  5
501
330
9
100
AcDbSymbolTableRecord
100
AcDbRegAppTableRecord
  2
GEVID1210635179
 70
     0
  0
APPID
  5
502
330
9
100
AcDbSymbolTableRecord
100
AcDbRegAppTableRecord
  2
GEVID1210635180
 70
     0
  0
APPID
  5
503
330
9
100
AcDbSymbolTableRecord
100
AcDbRegAppTableRecord
  2
GEVID1210635181
 70
     0
  0
APPID
  5
504
330
9
100
AcDbSymbolTableRecord
100
AcDbRegAppTableRecord
  2
GEVID1210635182
 70
     0
  0
APPID
  5
505
330
9
100
AcDbSymbolTableRecord
100
AcDbRegAppTableRecord
  2
GEVID1210635184
 70
     0
  0
APPID
  5
506
330
9
100
AcDbSymbolTableRecord
100
AcDbRegAppTableRecord
  2
GEVID1210635185
 70
     0
  0
APPID
  5
507
330
9
100
AcDbSymbolTableRecord
100
AcDbRegAppTableRecord
  2
GEVID1210635186
 70
     0
  0
APPID
  5
508
330
9
100
AcDbSymbolTableRecord
100
AcDbRegAppTableRecord
  2
GEVID1210635187
 70
     0
  0
APPID
  5
509
330
9
100
AcDbSymbolTableRecord
100
AcDbRegAppTableRecord
  2
GEVID1210635188
 70
     0
  0
APPID
  5
50A
330
9
100
AcDbSymbolTableRecord
100
AcDbRegAppTableRecord
  2
GEVID1210635189
 70
     0
  0
APPID
  5
50B
330
9
100
AcDbSymbolTableRecord
100
AcDbRegAppTableRecord
  2
GEVID1210635190
 70
     0
  0
APPID
  5
50C
330
9
100
AcDbSymbolTableRecord
100
AcDbRegAppTableRecord
  2
GENIUS_GENREC_14
 70
     0
  0
APPID
  5
50D
330
9
100
AcDbSymbolTableRecord
100
AcDbRegAppTableRecord
  2
GENIUS_GENOBJ-N-REC_13
 70
     0
  0
APPID
  5
50E
330
9
100
AcDbSymbolTableRecord
100
AcDbRegAppTableRecord
  2
GEVID1210676655
 70
     0
  0
APPID
  5
50F
330
9
100
AcDbSymbolTableRecord
100
AcDbRegAppTableRecord
  2
GEVID1210676656
 70
     0
  0
APPID
  5
510
330
9
100
AcDbSymbolTableRecord
100
AcDbRegAppTableRecord
  2
GEVID1210676657
 70
     0
  0
APPID
  5
511
330
9
100
AcDbSymbolTableRecord
100
AcDbRegAppTableRecord
  2
GEVID1210676659
 70
     0
  0
APPID
  5
512
330
9
100
AcDbSymbolTableRecord
100
AcDbRegAppTableRecord
  2
GEVID1210676660
 70
     0
  0
APPID
  5
513
330
9
100
AcDbSymbolTableRecord
100
AcDbRegAppTableRecord
  2
GEVID1210676661
 70
     0
  0
APPID
  5
514
330
9
100
AcDbSymbolTableRecord
100
AcDbRegAppTableRecord
  2
GEVID1210676662
 70
     0
  0
APPID
  5
515
330
9
100
AcDbSymbolTableRecord
100
AcDbRegAppTableRecord
  2
GEVID1210721646
 70
     0
  0
APPID
  5
516
330
9
100
AcDbSymbolTableRecord
100
AcDbRegAppTableRecord
  2
GEVID1210721647
 70
     0
  0
APPID
  5
517
330
9
100
AcDbSymbolTableRecord
100
AcDbRegAppTableRecord
  2
GEVID1210721648
 70
     0
  0
APPID
  5
518
330
9
100
AcDbSymbolTableRecord
100
AcDbRegAppTableRecord
  2
GEVID1210721649
 70
     0
  0
APPID
  5
519
330
9
100
AcDbSymbolTableRecord
100
AcDbRegAppTableRecord
  2
GEVID1210721650
 70
     0
  0
APPID
  5
51A
330
9
100
AcDbSymbolTableRecord
100
AcDbRegAppTableRecord
  2
GEVID1210721651
 70
     0
  0
APPID
  5
51B
330
9
100
AcDbSymbolTableRecord
100
AcDbRegAppTableRecord
  2
GEVID1210721652
 70
     0
  0
APPID
  5
51C
330
9
100
AcDbSymbolTableRecord
100
AcDbRegAppTableRecord
  2
GEVID1210721653
 70
     0
  0
APPID
  5
51D
330
9
100
AcDbSymbolTableRecord
100
AcDbRegAppTableRecord
  2
PE_URL
 70
     0
  0
APPID
  5
51E
330
9
100
AcDbSymbolTableRecord
100
AcDbRegAppTableRecord
  2
GEVID1210825555
 70
     0
  0
APPID
  5
51F
330
9
100
AcDbSymbolTableRecord
100
AcDbRegAppTableRecord
  2
GEVID1210825556
 70
     0
  0
APPID
  5
520
330
9
100
AcDbSymbolTableRecord
100
AcDbRegAppTableRecord
  2
GEVID1210825557
 70
     0
  0
APPID
  5
521
330
9
100
AcDbSymbolTableRecord
100
AcDbRegAppTableRecord
  2
GEVID1210825558
 70
     0
  0
APPID
  5
522
330
9
100
AcDbSymbolTableRecord
100
AcDbRegAppTableRecord
  2
GEVID1210825559
 70
     0
  0
APPID
  5
523
330
9
100
AcDbSymbolTableRecord
100
AcDbRegAppTableRecord
  2
GEVID1210825560
 70
     0
  0
APPID
  5
524
330
9
100
AcDbSymbolTableRecord
100
AcDbRegAppTableRecord
  2
GEVID1210825561
 70
     0
  0
APPID
  5
525
330
9
100
AcDbSymbolTableRecord
100
AcDbRegAppTableRecord
  2
GEVID1210825562
 70
     0
  0
APPID
  5
526
330
9
100
AcDbSymbolTableRecord
100
AcDbRegAppTableRecord
  2
GEVID1210825563
 70
     0
  0
APPID
  5
527
330
9
100
AcDbSymbolTableRecord
100
AcDbRegAppTableRecord
  2
GEVID1210825564
 70
     0
  0
APPID
  5
528
330
9
100
AcDbSymbolTableRecord
100
AcDbRegAppTableRecord
  2
GEVID1210825565
 70
     0
  0
APPID
  5
529
330
9
100
AcDbSymbolTableRecord
100
AcDbRegAppTableRecord
  2
GEVID1210825566
 70
     0
  0
APPID
  5
52A
330
9
100
AcDbSymbolTableRecord
100
AcDbRegAppTableRecord
  2
GEVID1210825567
 70
     0
  0
APPID
  5
52B
330
9
100
AcDbSymbolTableRecord
100
AcDbRegAppTableRecord
  2
GENIUS_GENOBJ-N-ZOO_13
 70
     0
  0
APPID
  5
52C
330
9
100
AcDbSymbolTableRecord
100
AcDbRegAppTableRecord
  2
GENIUS_GENZOO_17
 70
     0
  0
APPID
  5
52D
330
9
100
AcDbSymbolTableRecord
100
AcDbRegAppTableRecord
  2
ACADANNOTATIVEDECOMPOSITION
 70
     0
  0
APPID
  5
52E
330
9
100
AcDbSymbolTableRecord
100
AcDbRegAppTableRecord
  2
GENIUS_GENOBJ-N-HTC_13
 70
     0
  0
APPID
  5
52F
330
9
100
AcDbSymbolTableRecord
100
AcDbRegAppTableRecord
  2
GENIUS_GENHATCH_13
 70
     0
  0
APPID
  5
530
330
9
100
AcDbSymbolTableRecord
100
AcDbRegAppTableRecord
  2
GEVID1210896020
 70
     0
  0
APPID
  5
531
330
9
100
AcDbSymbolTableRecord
100
AcDbRegAppTableRecord
  2
GEVID1210896021
 70
     0
  0
APPID
  5
532
330
9
100
AcDbSymbolTableRecord
100
AcDbRegAppTableRecord
  2
GEVID1209083540
 70
     0
  0
APPID
  5
533
330
9
100
AcDbSymbolTableRecord
100
AcDbRegAppTableRecord
  2
GEVMK
 70
     0
  0
APPID
  5
534
330
9
100
AcDbSymbolTableRecord
100
AcDbRegAppTableRecord
  2
GEVID1209083542
 70
     0
  0
APPID
  5
535
330
9
100
AcDbSymbolTableRecord
100
AcDbRegAppTableRecord
  2
GEVID1209083543
 70
     0
  0
APPID
  5
536
330
9
100
AcDbSymbolTableRecord
100
AcDbRegAppTableRecord
  2
GEVID1209083544
 70
     0
  0
APPID
  5
537
330
9
100
AcDbSymbolTableRecord
100
AcDbRegAppTableRecord
  2
GEVID1209083545
 70
     0
  0
APPID
  5
538
330
9
100
AcDbSymbolTableRecord
100
AcDbRegAppTableRecord
  2
GEVID1209083546
 70
     0
  0
APPID
  5
539
330
9
100
AcDbSymbolTableRecord
100
AcDbRegAppTableRecord
  2
GEVID1209083547
 70
     0
  0
APPID
  5
53A
330
9
100
AcDbSymbolTableRecord
100
AcDbRegAppTableRecord
  2
GEVID1209083548
 70
     0
  0
APPID
  5
53B
330
9
100
AcDbSymbolTableRecord
100
AcDbRegAppTableRecord
  2
GEVID1209083549
 70
     0
  0
APPID
  5
53C
330
9
100
AcDbSymbolTableRecord
100
AcDbRegAppTableRecord
  2
GEVID1209083550
 70
     0
  0
APPID
  5
53D
330
9
100
AcDbSymbolTableRecord
100
AcDbRegAppTableRecord
  2
GEVID1209083551
 70
     0
  0
APPID
  5
53E
330
9
100
AcDbSymbolTableRecord
100
AcDbRegAppTableRecord
  2
GEVID1209083552
 70
     0
  0
APPID
  5
53F
330
9
100
AcDbSymbolTableRecord
100
AcDbRegAppTableRecord
  2
GEVID1209083553
 70
     0
  0
APPID
  5
540
330
9
100
AcDbSymbolTableRecord
100
AcDbRegAppTableRecord
  2
GEVID1210896022
 70
     0
  0
APPID
  5
541
330
9
100
AcDbSymbolTableRecord
100
AcDbRegAppTableRecord
  2
GEVID1211508364
 70
     0
  0
APPID
  5
542
330
9
100
AcDbSymbolTableRecord
100
AcDbRegAppTableRecord
  2
GEVID1211414908
 70
     0
  0
APPID
  5
543
330
9
100
AcDbSymbolTableRecord
100
AcDbRegAppTableRecord
  2
GEVID1211414909
 70
     0
  0
APPID
  5
544
330
9
100
AcDbSymbolTableRecord
100
AcDbRegAppTableRecord
  2
GEVID1211508359
 70
     0
  0
APPID
  5
545
330
9
100
AcDbSymbolTableRecord
100
AcDbRegAppTableRecord
  2
GEVID1211508360
 70
     0
  0
APPID
  5
546
330
9
100
AcDbSymbolTableRecord
100
AcDbRegAppTableRecord
  2
GEVID1211508361
 70
     0
  0
APPID
  5
547
330
9
100
AcDbSymbolTableRecord
100
AcDbRegAppTableRecord
  2
GEVID1211508362
 70
     0
  0
APPID
  5
548
330
9
100
AcDbSymbolTableRecord
100
AcDbRegAppTableRecord
  2
GEVID1211508363
 70
     0
  0
APPID
  5
549
330
9
100
AcDbSymbolTableRecord
100
AcDbRegAppTableRecord
  2
GEVID1211878469
 70
     0
  0
APPID
  5
54A
330
9
100
AcDbSymbolTableRecord
100
AcDbRegAppTableRecord
  2
GEVID1212642819
 70
     0
  0
APPID
  5
54B
330
9
100
AcDbSymbolTableRecord
100
AcDbRegAppTableRecord
  2
GEVID1212642820
 70
     0
  0
APPID
  5
54C
330
9
100
AcDbSymbolTableRecord
100
AcDbRegAppTableRecord
  2
GEVID1212642821
 70
     0
  0
APPID
  5
54D
330
9
100
AcDbSymbolTableRecord
100
AcDbRegAppTableRecord
  2
GEVID1212642822
 70
     0
  0
APPID
  5
54E
330
9
100
AcDbSymbolTableRecord
100
AcDbRegAppTableRecord
  2
GEVID1212642823
 70
     0
  0
APPID
  5
54F
330
9
100
AcDbSymbolTableRecord
100
AcDbRegAppTableRecord
  2
GEVID1212642825
 70
     0
  0
APPID
  5
550
330
9
100
AcDbSymbolTableRecord
100
AcDbRegAppTableRecord
  2
GEVID1212642826
 70
     0
  0
APPID
  5
551
330
9
100
AcDbSymbolTableRecord
100
AcDbRegAppTableRecord
  2
GEVID1212642827
 70
     0
  0
APPID
  5
552
330
9
100
AcDbSymbolTableRecord
100
AcDbRegAppTableRecord
  2
GEVID1212642828
 70
     0
  0
APPID
  5
553
330
9
100
AcDbSymbolTableRecord
100
AcDbRegAppTableRecord
  2
GEVID1212642831
 70
     0
  0
APPID
  5
554
330
9
100
AcDbSymbolTableRecord
100
AcDbRegAppTableRecord
  2
GEVID1212642834
 70
     0
  0
APPID
  5
555
330
9
100
AcDbSymbolTableRecord
100
AcDbRegAppTableRecord
  2
GEVID1212642835
 70
     0
  0
APPID
  5
556
330
9
100
AcDbSymbolTableRecord
100
AcDbRegAppTableRecord
  2
GEVID1212642836
 70
     0
  0
APPID
  5
557
330
9
100
AcDbSymbolTableRecord
100
AcDbRegAppTableRecord
  2
GEVID1212642837
 70
     0
  0
APPID
  5
558
330
9
100
AcDbSymbolTableRecord
100
AcDbRegAppTableRecord
  2
GEVID1212642839
 70
     0
  0
APPID
  5
559
330
9
100
AcDbSymbolTableRecord
100
AcDbRegAppTableRecord
  2
GEVID1212642840
 70
     0
  0
APPID
  5
55A
330
9
100
AcDbSymbolTableRecord
100
AcDbRegAppTableRecord
  2
GEVID1212642841
 70
     0
  0
APPID
  5
55B
330
9
100
AcDbSymbolTableRecord
100
AcDbRegAppTableRecord
  2
GEVID1212655312
 70
     0
  0
APPID
  5
55C
330
9
100
AcDbSymbolTableRecord
100
AcDbRegAppTableRecord
  2
GEVID1212655313
 70
     0
  0
APPID
  5
55D
330
9
100
AcDbSymbolTableRecord
100
AcDbRegAppTableRecord
  2
GEVID1212656533
 70
     0
  0
APPID
  5
55E
330
9
100
AcDbSymbolTableRecord
100
AcDbRegAppTableRecord
  2
GEVID1212656534
 70
     0
  0
APPID
  5
55F
330
9
100
AcDbSymbolTableRecord
100
AcDbRegAppTableRecord
  2
GEVID1212656535
 70
     0
  0
APPID
  5
560
330
9
100
AcDbSymbolTableRecord
100
AcDbRegAppTableRecord
  2
GEVID1212656536
 70
     0
  0
APPID
  5
561
330
9
100
AcDbSymbolTableRecord
100
AcDbRegAppTableRecord
  2
GEVID1212656538
 70
     0
  0
APPID
  5
562
330
9
100
AcDbSymbolTableRecord
100
AcDbRegAppTableRecord
  2
GEVID1212656541
 70
     0
  0
APPID
  5
563
330
9
100
AcDbSymbolTableRecord
100
AcDbRegAppTableRecord
  2
GEVID1212656543
 70
     0
  0
APPID
  5
564
330
9
100
AcDbSymbolTableRecord
100
AcDbRegAppTableRecord
  2
GENIUS_GENOBJ-F-PFASSM_13
 70
     0
  0
APPID
  5
565
330
9
100
AcDbSymbolTableRecord
100
AcDbRegAppTableRecord
  2
GEVID1212656544
 70
     0
  0
APPID
  5
566
330
9
100
AcDbSymbolTableRecord
100
AcDbRegAppTableRecord
  2
GEVID1212656545
 70
     0
  0
APPID
  5
567
330
9
100
AcDbSymbolTableRecord
100
AcDbRegAppTableRecord
  2
GEVID1212656546
 70
     0
  0
APPID
  5
568
330
9
100
AcDbSymbolTableRecord
100
AcDbRegAppTableRecord
  2
GEVID1212656547
 70
     0
  0
APPID
  5
569
330
9
100
AcDbSymbolTableRecord
100
AcDbRegAppTableRecord
  2
GEVID1212656548
 70
     0
  0
APPID
  5
56A
330
9
100
AcDbSymbolTableRecord
100
AcDbRegAppTableRecord
  2
GEVID1212656549
 70
     0
  0
APPID
  5
56B
330
9
100
AcDbSymbolTableRecord
100
AcDbRegAppTableRecord
  2
GEVID1212656550
 70
     0
  0
APPID
  5
56C
330
9
100
AcDbSymbolTableRecord
100
AcDbRegAppTableRecord
  2
GEVID1212656552
 70
     0
  0
APPID
  5
56D
330
9
100
AcDbSymbolTableRecord
100
AcDbRegAppTableRecord
  2
GEVID1212656553
 70
     0
  0
APPID
  5
56E
330
9
100
AcDbSymbolTableRecord
100
AcDbRegAppTableRecord
  2
GEVID1212656554
 70
     0
  0
APPID
  5
56F
330
9
100
AcDbSymbolTableRecord
100
AcDbRegAppTableRecord
  2
GEVID1212656555
 70
     0
  0
APPID
  5
570
330
9
100
AcDbSymbolTableRecord
100
AcDbRegAppTableRecord
  2
GEVID1212656556
 70
     0
  0
APPID
  5
571
330
9
100
AcDbSymbolTableRecord
100
AcDbRegAppTableRecord
  2
GEVID1212656557
 70
     0
  0
APPID
  5
572
330
9
100
AcDbSymbolTableRecord
100
AcDbRegAppTableRecord
  2
GEVID1212656559
 70
     0
  0
APPID
  5
573
330
9
100
AcDbSymbolTableRecord
100
AcDbRegAppTableRecord
  2
GEVID1212656560
 70
     0
  0
APPID
  5
574
330
9
100
AcDbSymbolTableRecord
100
AcDbRegAppTableRecord
  2
GEVID1212656561
 70
     0
  0
APPID
  5
575
330
9
100
AcDbSymbolTableRecord
100
AcDbRegAppTableRecord
  2
GEVID1212656562
 70
     0
  0
APPID
  5
576
330
9
100
AcDbSymbolTableRecord
100
AcDbRegAppTableRecord
  2
GEVID1212656563
 70
     0
  0
APPID
  5
577
330
9
100
AcDbSymbolTableRecord
100
AcDbRegAppTableRecord
  2
GEVID1212711781
 70
     0
  0
APPID
  5
578
330
9
100
AcDbSymbolTableRecord
100
AcDbRegAppTableRecord
  2
GEVID1212711782
 70
     0
  0
APPID
  5
579
330
9
100
AcDbSymbolTableRecord
100
AcDbRegAppTableRecord
  2
GEVID1212711783
 70
     0
  0
APPID
  5
57A
330
9
100
AcDbSymbolTableRecord
100
AcDbRegAppTableRecord
  2
GEVID1212711784
 70
     0
  0
APPID
  5
57B
330
9
100
AcDbSymbolTableRecord
100
AcDbRegAppTableRecord
  2
GEVID1212711788
 70
     0
  0
APPID
  5
57C
330
9
100
AcDbSymbolTableRecord
100
AcDbRegAppTableRecord
  2
GEVID1212711789
 70
     0
  0
APPID
  5
57D
330
9
100
AcDbSymbolTableRecord
100
AcDbRegAppTableRecord
  2
GEVID1212711790
 70
     0
  0
APPID
  5
57E
330
9
100
AcDbSymbolTableRecord
100
AcDbRegAppTableRecord
  2
GEVID1212711791
 70
     0
  0
APPID
  5
57F
330
9
100
AcDbSymbolTableRecord
100
AcDbRegAppTableRecord
  2
GEVID1212711792
 70
     0
  0
APPID
  5
580
330
9
100
AcDbSymbolTableRecord
100
AcDbRegAppTableRecord
  2
GEVID1212711793
 70
     0
  0
APPID
  5
581
330
9
100
AcDbSymbolTableRecord
100
AcDbRegAppTableRecord
  2
GEVID1212711794
 70
     0
  0
APPID
  5
582
330
9
100
AcDbSymbolTableRecord
100
AcDbRegAppTableRecord
  2
GEVID1212711795
 70
     0
  0
APPID
  5
583
330
9
100
AcDbSymbolTableRecord
100
AcDbRegAppTableRecord
  2
GEVID1212711797
 70
     0
  0
APPID
  5
584
330
9
100
AcDbSymbolTableRecord
100
AcDbRegAppTableRecord
  2
GEVID1212711798
 70
     0
  0
APPID
  5
585
330
9
100
AcDbSymbolTableRecord
100
AcDbRegAppTableRecord
  2
GEVID1212711799
 70
     0
  0
APPID
  5
586
330
9
100
AcDbSymbolTableRecord
100
AcDbRegAppTableRecord
  2
GEVID1212711800
 70
     0
  0
APPID
  5
587
330
9
100
AcDbSymbolTableRecord
100
AcDbRegAppTableRecord
  2
GEVID1212711801
 70
     0
  0
APPID
  5
588
330
9
100
AcDbSymbolTableRecord
100
AcDbRegAppTableRecord
  2
GEVID1212711802
 70
     0
  0
APPID
  5
589
330
9
100
AcDbSymbolTableRecord
100
AcDbRegAppTableRecord
  2
GEVID1212711803
 70
     0
  0
APPID
  5
58A
330
9
100
AcDbSymbolTableRecord
100
AcDbRegAppTableRecord
  2
GEVID1212711804
 70
     0
  0
APPID
  5
58B
330
9
100
AcDbSymbolTableRecord
100
AcDbRegAppTableRecord
  2
GEVID1212711805
 70
     0
  0
APPID
  5
58C
330
9
100
AcDbSymbolTableRecord
100
AcDbRegAppTableRecord
  2
GEVID1212711806
 70
     0
  0
APPID
  5
58D
330
9
100
AcDbSymbolTableRecord
100
AcDbRegAppTableRecord
  2
GEVID1212711807
 70
     0
  0
APPID
  5
58E
330
9
100
AcDbSymbolTableRecord
100
AcDbRegAppTableRecord
  2
GEVID1212711808
 70
     0
  0
APPID
  5
58F
330
9
100
AcDbSymbolTableRecord
100
AcDbRegAppTableRecord
  2
GEVID1212711809
 70
     0
  0
APPID
  5
590
330
9
100
AcDbSymbolTableRecord
100
AcDbRegAppTableRecord
  2
GEVID1212711810
 70
     0
  0
APPID
  5
591
330
9
100
AcDbSymbolTableRecord
100
AcDbRegAppTableRecord
  2
GEVID1212711811
 70
     0
  0
APPID
  5
90A
330
9
100
AcDbSymbolTableRecord
100
AcDbRegAppTableRecord
  2
GENIUS_GENTRA_14
 70
     0
  0
APPID
  5
919
330
9
100
AcDbSymbolTableRecord
100
AcDbRegAppTableRecord
  2
GENIUS_GENOBJ-N-TIT_13
 70
     0
  0
APPID
  5
91A
330
9
100
AcDbSymbolTableRecord
100
AcDbRegAppTableRecord
  2
GENIUS_GENTITLE_13
 70
     0
  0
APPID
  5
949
330
9
100
AcDbSymbolTableRecord
100
AcDbRegAppTableRecord
  2
GENIUS_GENBLLY_14
 70
     0
  0
APPID
  5
DDD
330
9
100
AcDbSymbolTableRecord
100
AcDbRegAppTableRecord
  2
GEVID1213165152
 70
     0
  0
APPID
  5
12F9
330
9
100
AcDbSymbolTableRecord
100
AcDbRegAppTableRecord
  2
AcDbDynamicBlockTrueName
 70
     0
  0
APPID
  5
12FA
330
9
100
AcDbSymbolTableRecord
100
AcDbRegAppTableRecord
  2
ACDBBLOCKREPETAG
 70
     0
  0
APPID
  5
1C15
330
9
100
AcDbSymbolTableRecord
100
AcDbRegAppTableRecord
  2
GEVID1214872427
 70
     0
  0
APPID
  5
1C2A
330
9
100
AcDbSymbolTableRecord
100
AcDbRegAppTableRecord
  2
GEVID1214872428
 70
     0
  0
APPID
  5
1C2F
330
9
100
AcDbSymbolTableRecord
100
AcDbRegAppTableRecord
  2
GEVID1214872429
 70
     0
  0
APPID
  5
1C33
330
9
100
AcDbSymbolTableRecord
100
AcDbRegAppTableRecord
  2
GEVID1214872430
 70
     0
  0
APPID
  5
1C3F
330
9
100
AcDbSymbolTableRecord
100
AcDbRegAppTableRecord
  2
GEVID1214872432
 70
     0
  0
APPID
  5
1C4E
330
9
100
AcDbSymbolTableRecord
100
AcDbRegAppTableRecord
  2
GEVID1214872433
 70
     0
  0
APPID
  5
20DC
330
9
100
AcDbSymbolTableRecord
100
AcDbRegAppTableRecord
  2
AcDbDynamicBlockGUID
 70
     0
  0
APPID
  5
20FD
330
9
100
AcDbSymbolTableRecord
100
AcDbRegAppTableRecord
  2
GENIUS_GENOBJ-N-REV_13
 70
     0
  0
APPID
  5
20FE
330
9
100
AcDbSymbolTableRecord
100
AcDbRegAppTableRecord
  2
GENIUS_GENOBJ-N-RSSYM_13
 70
     0
  0
APPID
  5
20FF
330
9
100
AcDbSymbolTableRecord
100
AcDbRegAppTableRecord
  2
GENIUS_GENSYMENT_13
 70
     0
  0
APPID
  5
2100
330
9
100
AcDbSymbolTableRecord
100
AcDbRegAppTableRecord
  2
GENIUS_GENSCSYM_13
 70
     0
  0
ENDTAB
  0
TABLE
  2
DIMSTYLE
  5
A
330
0
100
AcDbSymbolTable
 70
    29
100
AcDbDimStyleTable
 71
     1
340
5AB
  0
DIMSTYLE
105
5AB
330
A
100
AcDbSymbolTableRecord
100
AcDbDimStyleTableRecord
  2
SEISA
 70
     0
  4
"
 40
2.0
 41
2.5
 42
0.625
 43
10.0
 44
0.625
 47
0.1
 48
0.1
 73
     0
 74
     0
 77
     3
 78
     8
 79
     2
 90
     1
140
3.5
141
0.0
143
0.0393701
146
0.71
147
1.5
172
     1
176
     3
177
     3
178
     3
271
     2
272
     2
283
     0
286
     8
340
5D5
341
69
342
69
371
    -1
372
    -1
1001
ACAD_DSTYLE_DIMJAG
1070
   388
1040
1.5
1001
ACAD_DSTYLE_DIMTALN
1070
   392
1070
     1
  0
DIMSTYLE
105
5E9
102
{ACAD_REACTORS
330
4958
330
4990
330
49A8
330
49C4
330
4A0E
330
4AB5
330
4ADF
330
4AF7
330
4B77
330
4B93
330
4BDD
330
4C86
330
4C9E
330
4CB6
330
4CCE
330
65B6
330
65E8
102
}
330
A
100
AcDbSymbolTableRecord
100
AcDbDimStyleTableRecord
  2
SEISA$0
 70
     0
  4
"
 40
2.0
 41
2.5
 42
0.625
 43
10.0
 44
0.625
 47
0.1
 48
0.1
 73
     0
 74
     0
 77
     3
 78
     8
 79
     2
 90
     1
140
3.5
141
0.0
143
0.0393701
146
0.71
147
1.5
172
     1
176
     3
177
     3
178
     3
271
     2
272
     2
283
     0
286
     8
340
5D5
341
69
342
69
371
    -1
372
    -1
  0
DIMSTYLE
105
682A
330
A
100
AcDbSymbolTableRecord
100
AcDbDimStyleTableRecord
  2
AM_ISO
 70
     0
  4
"
 41
2.5
 42
1.0
 43
10.0
 44
1.0
 47
0.1
 48
0.1
 73
     0
 74
     0
 77
     1
 78
     8
 79
     2
 90
     1
140
3.5
141
0.0
143
0.0393701
146
0.71
147
1.5
172
     1
176
   256
177
   256
178
     2
271
     2
272
     3
274
     4
283
     0
284
     8
340
11
371
    -1
372
    -1
  0
DIMSTYLE
105
682B
330
A
100
AcDbSymbolTableRecord
100
AcDbDimStyleTableRecord
  2
AM_ISO$3
 70
     0
  4
"
 41
2.5
 42
1.0
 43
10.0
 44
1.0
 47
0.1
 48
0.1
 73
     0
 77
     1
 78
     8
 79
     2
 90
     1
140
3.5
141
0.0
143
0.0393701
146
0.71
147
1.5
176
   256
177
   256
178
     2
271
     2
272
     3
274
     4
283
     0
284
     8
288
     1
289
     0
340
11
371
    -1
372
    -1
  0
DIMSTYLE
105
682C
330
A
100
AcDbSymbolTableRecord
100
AcDbDimStyleTableRecord
  2
AM_ISO$4
 70
     0
  4
"
 41
2.5
 42
1.0
 43
10.0
 44
1.0
 47
0.1
 48
0.1
 73
     0
 77
     1
 78
     8
 79
     2
 90
     1
140
3.5
141
0.0
143
0.0393701
146
0.71
147
1.5
176
   256
177
   256
178
     2
271
     2
272
     3
274
     4
283
     0
284
     8
288
     1
289
     0
340
11
371
    -1
372
    -1
  0
DIMSTYLE
105
682D
330
A
100
AcDbSymbolTableRecord
100
AcDbDimStyleTableRecord
  2
AM_ISO$6
 70
     0
  4
"
 41
2.5
 42
1.0
 43
10.0
 44
1.0
 47
0.1
 48
0.1
 73
     0
 74
     0
 78
     8
 79
     2
 90
     1
140
3.5
141
0.0
143
0.0393701
146
0.71
147
1.5
172
     1
176
   256
177
   256
178
     2
271
     2
272
     3
274
     4
283
     0
284
     8
340
11
371
    -1
372
    -1
  0
DIMSTYLE
105
682E
330
A
100
AcDbSymbolTableRecord
100
AcDbDimStyleTableRecord
  2
AM_ISO$7
 70
     0
  4
"
 41
2.5
 42
1.0
 43
10.0
 44
1.0
 47
0.1
 48
0.1
 73
     0
 74
     0
 77
     1
 78
     8
 79
     2
 90
     1
140
5.0
141
0.0
143
0.0393701
146
0.71
147
1.5
172
     1
176
   256
177
   256
178
     2
271
     2
272
     3
274
     4
283
     0
284
     8
340
11
371
    -1
372
    -1
  0
DIMSTYLE
105
682F
330
A
100
AcDbSymbolTableRecord
100
AcDbDimStyleTableRecord
  2
AM_ISO$SF
 70
     0
  4
"
 41
2.5
 42
1.0
 43
10.0
 44
1.0
 47
0.1
 48
0.1
 73
     0
 74
     0
 75
     1
 76
     1
 77
     1
 78
     8
 79
     2
 90
     1
140
3.5
141
0.0
143
0.0393701
146
0.71
147
1.5
172
     1
176
   256
177
   256
178
     2
271
     2
272
     3
274
     4
283
     0
284
     8
340
11
371
    -1
372
    -1
  0
DIMSTYLE
105
6830
330
A
100
AcDbSymbolTableRecord
100
AcDbDimStyleTableRecord
  2
AM_ISO$SH
 70
     0
  4
"
 41
2.5
 42
1.0
 43
10.0
 44
1.0
 47
0.1
 48
0.1
 73
     0
 74
     0
 75
     1
 76
     1
 77
     1
 78
     8
 79
     2
 90
     1
140
3.5
141
0.0
143
0.0393701
144
2.0
146
0.71
147
1.5
172
     1
173
     1
176
   256
177
   256
178
     2
271
     2
272
     3
274
     4
283
     0
284
     8
340
11
343
74
371
    -1
372
    -1
  0
ENDTAB
  0
TABLE
  2
BLOCK_RECORD
  5
1
330
0
100
AcDbSymbolTable
 70
    31
  0
BLOCK_RECORD
  5
1F
102
{ACAD_XDICTIONARY
360
82
102
}
330
1
100
AcDbSymbolTableRecord
100
AcDbBlockTableRecord
  2
*Model_Space
340
22
 70
     0
280
     1
281
     0
  0
BLOCK_RECORD
  5
1B
330
1
100
AcDbSymbolTableRecord
100
AcDbBlockTableRecord
  2
*Paper_Space
340
1E
 70
     0
280
     1
281
     0
  0
BLOCK_RECORD
  5
23
330
1
100
AcDbSymbolTableRecord
100
AcDbBlockTableRecord
  2
*Paper_Space0
340
26
 70
     0
280
     1
281
     0
  0
BLOCK_RECORD
  5
69
330
1
100
AcDbSymbolTableRecord
100
AcDbBlockTableRecord
  2
_Open30
340
0
102
{BLKREFS
331
60C1
331
60C2
331
60CA
331
60CB
331
60DE
331
60DF
331
60E9
331
60EA
331
60F9
331
60FA
331
6102
331
6103
331
610B
331
610C
331
6118
331
6123
331
6140
331
6141
331
6149
331
614A
331
6152
331
6153
331
615B
331
615C
331
6615
331
6616
331
6637
331
6638
331
6684
331
6685
331
669B
331
669C
102
}
 70
     0
280
     1
281
     0
  0
BLOCK_RECORD
  5
74
330
1
100
AcDbSymbolTableRecord
100
AcDbBlockTableRecord
  2
GENAXEH
340
0
 70
     0
280
     1
281
     0
  0
BLOCK_RECORD
  5
340F
102
{ACAD_XDICTIONARY
360
3410
102
}
330
1
100
AcDbSymbolTableRecord
100
AcDbBlockTableRecord
  2
ロッカクアナツキプラグ R1／8
340
0
310
2800000020000000200000000100080000000000000400000000000000000000000000000000000000000000000080000080000000808000800000008000800080800000C0C0C000C0DCC000F0CAA6000020400000206000002080000020A0000020C0000020E00000400000004020000040400000406000004080000040A0
310
000040C0000040E00000600000006020000060400000606000006080000060A0000060C0000060E00000800000008020000080400000806000008080000080A0000080C0000080E00000A0000000A0200000A0400000A0600000A0800000A0A00000A0C00000A0E00000C0000000C0200000C0400000C0600000C0800000C0
310
A00000C0C00000C0E00000E0000000E0200000E0400000E0600000E0800000E0A00000E0C00000E0E00040000000400020004000400040006000400080004000A0004000C0004000E00040200000402020004020400040206000402080004020A0004020C0004020E000404000004040200040404000404060004040800040
310
40A0004040C0004040E00040600000406020004060400040606000406080004060A0004060C0004060E00040800000408020004080400040806000408080004080A0004080C0004080E00040A0000040A0200040A0400040A0600040A0800040A0A00040A0C00040A0E00040C0000040C0200040C0400040C0600040C08000
310
40C0A00040C0C00040C0E00040E0000040E0200040E0400040E0600040E0800040E0A00040E0C00040E0E00080000000800020008000400080006000800080008000A0008000C0008000E00080200000802020008020400080206000802080008020A0008020C0008020E00080400000804020008040400080406000804080
310
008040A0008040C0008040E00080600000806020008060400080606000806080008060A0008060C0008060E00080800000808020008080400080806000808080008080A0008080C0008080E00080A0000080A0200080A0400080A0600080A0800080A0A00080A0C00080A0E00080C0000080C0200080C0400080C0600080C0
310
800080C0A00080C0C00080C0E00080E0000080E0200080E0400080E0600080E0800080E0A00080E0C00080E0E000C0000000C0002000C0004000C0006000C0008000C000A000C000C000C000E000C0200000C0202000C0204000C0206000C0208000C020A000C020C000C020E000C0400000C0402000C0404000C0406000C0
310
408000C040A000C040C000C040E000C0600000C0602000C0604000C0606000C0608000C060A000C060C000C060E000C0800000C0802000C0804000C0806000C0808000C080A000C080C000C080E000C0A00000C0A02000C0A04000C0A06000C0A08000C0A0A000C0A0C000C0A0E000C0C00000C0C02000C0C04000C0C06000
310
C0C08000C0C0A000F0FBFF00A4A0A000808080000000FF0000FF000000FFFF00FF000000FF00FF00FFFF0000FFFFFF000000000000000000000000000000000000000000000000000000000000000000000000000000000000000000000000F900000000000000000000000000000000000000000000000000000000000000
310
F900000000000000000000000000000000000000000000000000000000000000F9000000000000000000000000000000000000000000000000000000000000FFF900000000000000000000000000000000000000000000000000000000FFFFFEF9FEFEFFFFFF000000000000000000000000000000000000000000FFFFFEFE
310
00F90000FEFE00FF000000000000000000000000000000000000FFFFFEFE000000F900000000FEFEFF00000000000000000000000000000000FF00FE0000000000F9000000000000FEFFFF00000000000000000000000000FF00FE000000000000F900000000000000FEFF00000000000000000000000000FF00FE00000000
310
0000FF0000000000000000FEFF0000000000000000000000FF00FE0000000000FFFFF9FFFF000000000000FEFF0000000000000000000000FF00FE00000000FF0000F90000FFFF0000000000FEFF00000000000000000000FFFE00000000FF000000F900000000FF00000000FEFF00000000000000000000FFFE00000000FF
310
000000F900000000FF00000000FEFF00000000000000000000FE0000000000FF000000F900000000FF0000000000FEFF0000000000F9F9F9F9F9F9F9F9F9F9FFF9F9F9F9F9F9F9F9FFF9F9F9F9F9F9F9F9F9F9000000000000FFFE00000000FF000000F900000000FF0000000000FEFF000000000000000000FFFE00000000
310
FF000000F900000000FF00000000FEFF00000000000000000000FF00FE00000000FFFF00F90000FFFF0000000000FEFF00000000000000000000FF00FE000000000000FFF9FFFF000000000000FEFF000000000000000000000000FF00FE000000000000FF0000000000000000FEFF000000000000000000000000FF00FE00
310
0000000000F900000000000000FEFF0000000000000000000000000000FF00FE0000000000F9000000000000FE00FF000000000000000000000000000000FF00FE00000000F90000000000FEFFFF0000000000000000000000000000000000FFFFFEFE0000F9000000FEFEFF00000000000000000000000000000000000000
310
0000FFFFFEFEF9FEFEFEFFFF00000000000000000000000000000000000000000000000000FFF9FF000000000000000000000000000000000000000000000000000000000000F900000000000000000000000000000000000000000000000000000000000000F9000000000000000000000000000000000000000000000000
310
00000000000000F9000000000000000000000000000000000000000000000000000000000000000000000000000000000000000000000000
102
{BLKREFS
331
445E
102
}
 70
     4
280
     1
281
     0
  0
BLOCK_RECORD
  5
4420
102
{ACAD_XDICTIONARY
360
44E1
102
}
330
1
100
AcDbSymbolTableRecord
100
AcDbBlockTableRecord
  2
ケースＡ SEM180
340
0
310
2800000020000000200000000100080000000000000400000000000000000000000000000000000000000000000080000080000000808000800000008000800080800000C0C0C000C0DCC000F0CAA6000020400000206000002080000020A0000020C0000020E00000400000004020000040400000406000004080000040A0
310
000040C0000040E00000600000006020000060400000606000006080000060A0000060C0000060E00000800000008020000080400000806000008080000080A0000080C0000080E00000A0000000A0200000A0400000A0600000A0800000A0A00000A0C00000A0E00000C0000000C0200000C0400000C0600000C0800000C0
310
A00000C0C00000C0E00000E0000000E0200000E0400000E0600000E0800000E0A00000E0C00000E0E00040000000400020004000400040006000400080004000A0004000C0004000E00040200000402020004020400040206000402080004020A0004020C0004020E000404000004040200040404000404060004040800040
310
40A0004040C0004040E00040600000406020004060400040606000406080004060A0004060C0004060E00040800000408020004080400040806000408080004080A0004080C0004080E00040A0000040A0200040A0400040A0600040A0800040A0A00040A0C00040A0E00040C0000040C0200040C0400040C0600040C08000
310
40C0A00040C0C00040C0E00040E0000040E0200040E0400040E0600040E0800040E0A00040E0C00040E0E00080000000800020008000400080006000800080008000A0008000C0008000E00080200000802020008020400080206000802080008020A0008020C0008020E00080400000804020008040400080406000804080
310
008040A0008040C0008040E00080600000806020008060400080606000806080008060A0008060C0008060E00080800000808020008080400080806000808080008080A0008080C0008080E00080A0000080A0200080A0400080A0600080A0800080A0A00080A0C00080A0E00080C0000080C0200080C0400080C0600080C0
310
800080C0A00080C0C00080C0E00080E0000080E0200080E0400080E0600080E0800080E0A00080E0C00080E0E000C0000000C0002000C0004000C0006000C0008000C000A000C000C000C000E000C0200000C0202000C0204000C0206000C0208000C020A000C020C000C020E000C0400000C0402000C0404000C0406000C0
310
408000C040A000C040C000C040E000C0600000C0602000C0604000C0606000C0608000C060A000C060C000C060E000C0800000C0802000C0804000C0806000C0808000C080A000C080C000C080E000C0A00000C0A02000C0A04000C0A06000C0A08000C0A0A000C0A0C000C0A0E000C0C00000C0C02000C0C04000C0C06000
310
C0C08000C0C0A000F0FBFF00A4A0A000808080000000FF0000FF000000FFFF00FF000000FF00FF00FFFF0000FFFFFF000000000000000000000000000000000000000000000000000000000000000000000000000000000000FFFFFF0000000000000000000000000000000000000000000000000000000000FF00FF000000
310
0000000000000000000000000000000000000000000000000000FF00FF0000000000000000000000000000000000000000000000000000000000FF00FF0000000000000000000000000000000000000000000000000000000000FF00FFFFFFFFFFFFFF0000000000000000000000000000000000000000000000FF00FF0000
310
000000FF0000000000000000000000000000000000000000000000FF00FF0000000000FF0000000000000000000000000000000000000000000000FF00FF0000000000FF0000000000000000000000000000000000000000000000FF00FF0000000000FF0000000000000000000000000000000000000000000000FFF9FF00
310
00000000FF0000000000000000000000000000000000000000000000F9FFF90000000000FF0000000000000000000000000000000000000000000000FFF9FF0000000000FF0000000000000000000000000000000000000000000000FF00FF0000000000FF0000000000000000000000000000000000000000000000FF00FF
310
0000000000FF00000000000000000000000000000000000000000000000000000000000000000000000000000000000000000000000000000000000000000000000000000000000000000000000000000000000000000000000000000000000000000000000000000000000000000000000000000000000000000000000000
310
00000000000000000000000000000000000000000000000000000000000000000000000000000000000000000000000000000000000000000000000000000000000000000000000000000000000000000000000000000000000000000000000000000000FFFAFF00000000000000000000000000000000000000000000FFFF
310
FFFFFFFFFFFFFFFA00000000000000000000000000000000000000000000FFFF00FFFFFFFFFFFFFFFA0000000000000000000000000000000000000000FFFFFFFFFF00000000000000FA0000000000000000000000000000000000F9F9F9F9F9F9FFF9F9000000000000FA000000000000000000000000000000000000FFFF
310
FFFFFF000000000000000000FAFA0000000000000000000000000000000000000000000000000000000000000000FA0000000000000000000000000000000000000000000000000000000000000000FA0000000000000000000000000000000000000000000000000000000000000000FA0000000000000000000000000000
310
000000000000000000000000000000000000FA00000000000000000000000000000000000000000000000000000000000000000000000000
102
{BLKREFS
331
445F
102
}
 70
     4
280
     1
281
     0
  0
BLOCK_RECORD
  5
453E
102
{ACAD_XDICTIONARY
360
459F
102
}
330
1
100
AcDbSymbolTableRecord
100
AcDbBlockTableRecord
  2
リジット SEM180
340
0
310
2800000020000000200000000100080000000000000400000000000000000000000000000000000000000000000080000080000000808000800000008000800080800000C0C0C000C0DCC000F0CAA6000020400000206000002080000020A0000020C0000020E00000400000004020000040400000406000004080000040A0
310
000040C0000040E00000600000006020000060400000606000006080000060A0000060C0000060E00000800000008020000080400000806000008080000080A0000080C0000080E00000A0000000A0200000A0400000A0600000A0800000A0A00000A0C00000A0E00000C0000000C0200000C0400000C0600000C0800000C0
310
A00000C0C00000C0E00000E0000000E0200000E0400000E0600000E0800000E0A00000E0C00000E0E00040000000400020004000400040006000400080004000A0004000C0004000E00040200000402020004020400040206000402080004020A0004020C0004020E000404000004040200040404000404060004040800040
310
40A0004040C0004040E00040600000406020004060400040606000406080004060A0004060C0004060E00040800000408020004080400040806000408080004080A0004080C0004080E00040A0000040A0200040A0400040A0600040A0800040A0A00040A0C00040A0E00040C0000040C0200040C0400040C0600040C08000
310
40C0A00040C0C00040C0E00040E0000040E0200040E0400040E0600040E0800040E0A00040E0C00040E0E00080000000800020008000400080006000800080008000A0008000C0008000E00080200000802020008020400080206000802080008020A0008020C0008020E00080400000804020008040400080406000804080
310
008040A0008040C0008040E00080600000806020008060400080606000806080008060A0008060C0008060E00080800000808020008080400080806000808080008080A0008080C0008080E00080A0000080A0200080A0400080A0600080A0800080A0A00080A0C00080A0E00080C0000080C0200080C0400080C0600080C0
310
800080C0A00080C0C00080C0E00080E0000080E0200080E0400080E0600080E0800080E0A00080E0C00080E0E000C0000000C0002000C0004000C0006000C0008000C000A000C000C000C000E000C0200000C0202000C0204000C0206000C0208000C020A000C020C000C020E000C0400000C0402000C0404000C0406000C0
310
408000C040A000C040C000C040E000C0600000C0602000C0604000C0606000C0608000C060A000C060C000C060E000C0800000C0802000C0804000C0806000C0808000C080A000C080C000C080E000C0A00000C0A02000C0A04000C0A06000C0A08000C0A0A000C0A0C000C0A0E000C0C00000C0C02000C0C04000C0C06000
310
C0C08000C0C0A000F0FBFF00A4A0A000808080000000FF0000FF000000FFFF00FF000000FF00FF00FFFF0000FFFFFF00000000000000000000000000000000000000000000000000000000000000000000000000000000000000000000000000000000FFFFFF00000000000000000000000000000000000000000000000000
310
00000000FF000000000000000000000000000000000000000000000000000000000000F9F9F9F9F9F9F9F900000000000000000000000000000000000000000000000000FF00000000000000000000000000000000000000000000000000000000000000FF00000000000000000000000000000000000000FFFFFFFFFFFFFF
310
FFFFFFFFFFFF000000000000000000000000000000000000FF000000000000000000000000FF000000000000000000000000000000000000FF000000000000000000000000FF000000000000000000000000000000000000FF000000000000000000000000FF000000000000000000000000000000000000FF000000000000
310
000000000000FF000000000000000000000000000000000000FF000000000000000000000000FF000000000000000000000000000000000000FF000000000000000000000000FF000000000000000000000000000000000000FF000000000000000000000000FF000000000000000000000000000000000000FF0000000000
310
00000000000000FF000000000000000000000000000000000000FF000000000000000000000000FFFF0000000000000000000000000000000000FF00000000000000000000000000FF0000000000000000000000000000000000FF00000000000000000000000000FF0000000000000000000000000000000000FF00000000
310
000000000000000000FF0000000000000000000000000000000000FF00000000000000000000000000FF0000000000000000000000000000000000FFFFFFFFFFFFFFFFFFFFFFFFFFFFFF0000000000000000000000000000000000FF00000000000000000000000000FF0000000000000000000000000000000000FF000000
310
00000000000000000000FF0000000000000000000000000000000000FF00000000000000000000000000FF0000000000000000000000000000000000FF00000000000000000000000000FF000000000000000000000000000000000000FFFFFFFFFFFFFFFFFFFFFFFF00FF0000000000000000000000000000000000000000
310
00000000000000000000FF00FF0000000000000000000000000000000000000000000000000000000000FF00000000000000000000000000000000000000000000000000000000000000FF00000000000000000000000000000000000000000000000000000000000000FF0000000000000000000000000000000000000000
310
0000000000000000000000FFFFFF000000000000000000000000000000000000000000000000000000000000000000000000000000000000
102
{BLKREFS
331
455B
102
}
 70
     4
280
     1
281
     0
  0
BLOCK_RECORD
  5
4614
102
{ACAD_XDICTIONARY
360
561A
102
}
330
1
100
AcDbSymbolTableRecord
100
AcDbBlockTableRecord
  2
センタ SEM180
340
0
310
2800000020000000200000000100080000000000000400000000000000000000000000000000000000000000000080000080000000808000800000008000800080800000C0C0C000C0DCC000F0CAA6000020400000206000002080000020A0000020C0000020E00000400000004020000040400000406000004080000040A0
310
000040C0000040E00000600000006020000060400000606000006080000060A0000060C0000060E00000800000008020000080400000806000008080000080A0000080C0000080E00000A0000000A0200000A0400000A0600000A0800000A0A00000A0C00000A0E00000C0000000C0200000C0400000C0600000C0800000C0
310
A00000C0C00000C0E00000E0000000E0200000E0400000E0600000E0800000E0A00000E0C00000E0E00040000000400020004000400040006000400080004000A0004000C0004000E00040200000402020004020400040206000402080004020A0004020C0004020E000404000004040200040404000404060004040800040
310
40A0004040C0004040E00040600000406020004060400040606000406080004060A0004060C0004060E00040800000408020004080400040806000408080004080A0004080C0004080E00040A0000040A0200040A0400040A0600040A0800040A0A00040A0C00040A0E00040C0000040C0200040C0400040C0600040C08000
310
40C0A00040C0C00040C0E00040E0000040E0200040E0400040E0600040E0800040E0A00040E0C00040E0E00080000000800020008000400080006000800080008000A0008000C0008000E00080200000802020008020400080206000802080008020A0008020C0008020E00080400000804020008040400080406000804080
310
008040A0008040C0008040E00080600000806020008060400080606000806080008060A0008060C0008060E00080800000808020008080400080806000808080008080A0008080C0008080E00080A0000080A0200080A0400080A0600080A0800080A0A00080A0C00080A0E00080C0000080C0200080C0400080C0600080C0
310
800080C0A00080C0C00080C0E00080E0000080E0200080E0400080E0600080E0800080E0A00080E0C00080E0E000C0000000C0002000C0004000C0006000C0008000C000A000C000C000C000E000C0200000C0202000C0204000C0206000C0208000C020A000C020C000C020E000C0400000C0402000C0404000C0406000C0
310
408000C040A000C040C000C040E000C0600000C0602000C0604000C0606000C0608000C060A000C060C000C060E000C0800000C0802000C0804000C0806000C0808000C080A000C080C000C080E000C0A00000C0A02000C0A04000C0A06000C0A08000C0A0A000C0A0C000C0A0E000C0C00000C0C02000C0C04000C0C06000
310
C0C08000C0C0A000F0FBFF00A4A0A000808080000000FF0000FF000000FFFF00FF000000FF00FF00FFFF0000FFFFFF0000000000000000000000000000000000000000000000000000000000000000000000000000000000000000000000000000FFFFFF000000000000000000000000000000000000000000000000000000
310
00000000FFFFFFFFFFFFFFFF000000000000000000000000000000000000000000000000FFFF0000000000FF000000000000000000000000000000000000000000000000FFFF0000000000FF000000000000000000000000000000000000000000000000FFFF0000000000FF00000000000000000000000000000000000000
310
0000000000FFFF0000000000FF000000000000000000000000000000000000000000000000FFFF0000000000FF000000000000000000000000000000000000000000000000FFFF0000000000FF000000000000000000000000000000000000000000000000FFFF0000000000FF000000000000000000000000000000000000
310
000000000000FFFF0000000000FF000000000000000000000000000000000000000000000000FFFF0000000000FF000000000000000000000000000000000000000000000000FFFF0000000000FF000000000000000000000000000000000000000000000000FFFF0000000000FF00000000000000000000FF000000000000
310
00000000000000FFFF0000000000FF00000000000000000000FF0000000000000000000000000000000000000000FF00000000000000000000FF0000000000000000000000000000000000000000FF00000000000000000000FF0000000000000000000000000000000000000000FF00000000000000000000FF0000000000
310
000000000000000000000000000000FF00000000000000000000FF0000000000000000000000000000000000000000FF00000000000000000000FF0000000000000000000000000000000000000000FF00000000000000000000FFFFFFFFFFFFFFFFFFFFFFFFFFFFFFFFFFFFFFFFFFFF00000000000000000000FFFFFFFFFF
310
FFFFFFFFFFFFFFFFFFFFFFFFFFFFFFFFFF00000000000000000000FF0000000000000000000000000000000000000000FF00000000000000000000FF0000000000000000000000000000000000000000FF00000000000000000000FF0000000000000000000000000000000000000000FF00000000000000000000FF000000
310
0000000000000000000000000000000000FF00000000000000000000FFFFFFFF00F90000FFFFFFFFFFFFFFFFFFFFFFFFFFFF000000000000000000000000F9FFFFF9FFFFFFF900000000000000000000000000000000000000000000000000FFFFF9FFFFFF0000000000000000000000000000000000000000000000000000
310
0000F90000000000000000000000000000000000000000000000000000000000000000000000000000000000000000000000000000000000
102
{BLKREFS
331
4633
102
}
 70
     4
280
     1
281
     0
  0
BLOCK_RECORD
  5
479D
102
{ACAD_XDICTIONARY
360
483B
102
}
330
1
100
AcDbSymbolTableRecord
100
AcDbBlockTableRecord
  2
リーマボルト SEM180 M8
340
0
310
2800000020000000200000000100080000000000000400000000000000000000000000000000000000000000000080000080000000808000800000008000800080800000C0C0C000C0DCC000F0CAA6000020400000206000002080000020A0000020C0000020E00000400000004020000040400000406000004080000040A0
310
000040C0000040E00000600000006020000060400000606000006080000060A0000060C0000060E00000800000008020000080400000806000008080000080A0000080C0000080E00000A0000000A0200000A0400000A0600000A0800000A0A00000A0C00000A0E00000C0000000C0200000C0400000C0600000C0800000C0
310
A00000C0C00000C0E00000E0000000E0200000E0400000E0600000E0800000E0A00000E0C00000E0E00040000000400020004000400040006000400080004000A0004000C0004000E00040200000402020004020400040206000402080004020A0004020C0004020E000404000004040200040404000404060004040800040
310
40A0004040C0004040E00040600000406020004060400040606000406080004060A0004060C0004060E00040800000408020004080400040806000408080004080A0004080C0004080E00040A0000040A0200040A0400040A0600040A0800040A0A00040A0C00040A0E00040C0000040C0200040C0400040C0600040C08000
310
40C0A00040C0C00040C0E00040E0000040E0200040E0400040E0600040E0800040E0A00040E0C00040E0E00080000000800020008000400080006000800080008000A0008000C0008000E00080200000802020008020400080206000802080008020A0008020C0008020E00080400000804020008040400080406000804080
310
008040A0008040C0008040E00080600000806020008060400080606000806080008060A0008060C0008060E00080800000808020008080400080806000808080008080A0008080C0008080E00080A0000080A0200080A0400080A0600080A0800080A0A00080A0C00080A0E00080C0000080C0200080C0400080C0600080C0
310
800080C0A00080C0C00080C0E00080E0000080E0200080E0400080E0600080E0800080E0A00080E0C00080E0E000C0000000C0002000C0004000C0006000C0008000C000A000C000C000C000E000C0200000C0202000C0204000C0206000C0208000C020A000C020C000C020E000C0400000C0402000C0404000C0406000C0
310
408000C040A000C040C000C040E000C0600000C0602000C0604000C0606000C0608000C060A000C060C000C060E000C0800000C0802000C0804000C0806000C0808000C080A000C080C000C080E000C0A00000C0A02000C0A04000C0A06000C0A08000C0A0A000C0A0C000C0A0E000C0C00000C0C02000C0C04000C0C06000
310
C0C08000C0C0A000F0FBFF00A4A0A000808080000000FF0000FF000000FFFF00FF000000FF00FF00FFFF0000FFFFFF0000000000000000000000000000000000000000000000000000000000000000000000000000000000000000000000000000000000000000000000000000000000000000000000000000000000000000
310
00000000000000000000000000000000000000000000000000000000000000000000000000000000000000000000000000000000000000000000000000000000000000000000000000000000000000000000000000000000000000000000000000000000000000000000000000000000000000000000000000000000000000
310
00000000000000000000000000000000000000000000000000000000000000000000000000000000000000000000000000000000000000000000000000000000000000000000000000000000000000000000000000000000000000000000000000000000000000000000000000000000000000000000000000000000000000
310
000000000000000000000000000000000000000000FFFFFFFF00000000000000000000000000000000FFFFFFFFFFFF0000000000FFFF000000000000000000000000000000000000000000FF0000FFFF00000000FFFFFFFFFFFF000000000000000000000000FFFFFFFF00FFFFFFFFFFFF000000FFFF000000FF0000000000
310
00000000000000FFFF000000FF0000FFFFFFFF0000FFFF000000FF000000000000000000000000FFFF00FF00FF0000FFFFFFFF0000FFFF000000FF000000000000000000000000FFFF0000FFFF0000FFFFFFFF0000FFFF000000FF000000000000000000000000FFFF000000FF0000FFFFFFFF0000FFFFFFFFFFFF00000000
310
0000000000000000FFFFFFFF00FFFFFFFFFFFF000000FFFF000000000000000000000000000000000000000000FF0000FFFF0000000000FFFFFFFF00000000000000000000000000000000FFFFFFFFFFFF00000000000000000000000000000000000000000000000000000000000000000000000000000000000000000000
310
00000000000000000000000000000000000000000000000000000000000000000000000000000000000000000000000000000000000000000000000000000000000000000000000000000000000000000000000000000000000000000000000000000000000000000000000000000000000000000000000000000000000000
310
00000000000000000000000000000000000000000000000000000000000000000000000000000000000000000000000000000000000000000000000000000000000000000000000000000000000000000000000000000000000000000000000000000000000000000000000000000000000000000000000000000000000000
310
0000000000000000000000000000000000000000000000000000000000000000000000000000000000000000000000000000000000000000
102
{BLKREFS
331
47CF
102
}
 70
     4
280
     1
281
     0
  0
BLOCK_RECORD
  5
4959
330
1
100
AcDbSymbolTableRecord
100
AcDbBlockTableRecord
  2
*D11
340
0
 70
     0
280
     1
281
     0
  0
BLOCK_RECORD
  5
4991
330
1
100
AcDbSymbolTableRecord
100
AcDbBlockTableRecord
  2
*D12
340
0
 70
     0
280
     1
281
     0
  0
BLOCK_RECORD
  5
49A9
330
1
100
AcDbSymbolTableRecord
100
AcDbBlockTableRecord
  2
*D13
340
0
 70
     0
280
     1
281
     0
  0
BLOCK_RECORD
  5
49C5
330
1
100
AcDbSymbolTableRecord
100
AcDbBlockTableRecord
  2
*D14
340
0
 70
     0
280
     1
281
     0
  0
BLOCK_RECORD
  5
4A0F
330
1
100
AcDbSymbolTableRecord
100
AcDbBlockTableRecord
  2
*D15
340
0
 70
     0
280
     1
281
     0
  0
BLOCK_RECORD
  5
4AB6
330
1
100
AcDbSymbolTableRecord
100
AcDbBlockTableRecord
  2
*D16
340
0
 70
     0
280
     1
281
     0
  0
BLOCK_RECORD
  5
4AE0
330
1
100
AcDbSymbolTableRecord
100
AcDbBlockTableRecord
  2
*D17
340
0
 70
     0
280
     1
281
     0
  0
BLOCK_RECORD
  5
4AF8
330
1
100
AcDbSymbolTableRecord
100
AcDbBlockTableRecord
  2
*D18
340
0
 70
     0
280
     1
281
     0
  0
BLOCK_RECORD
  5
4B78
330
1
100
AcDbSymbolTableRecord
100
AcDbBlockTableRecord
  2
*D19
340
0
 70
     0
280
     1
281
     0
  0
BLOCK_RECORD
  5
4B94
330
1
100
AcDbSymbolTableRecord
100
AcDbBlockTableRecord
  2
*D20
340
0
 70
     0
280
     1
281
     0
  0
BLOCK_RECORD
  5
4BDE
330
1
100
AcDbSymbolTableRecord
100
AcDbBlockTableRecord
  2
*D21
340
0
 70
     0
280
     1
281
     0
  0
BLOCK_RECORD
  5
4C87
330
1
100
AcDbSymbolTableRecord
100
AcDbBlockTableRecord
  2
*D22
340
0
 70
     0
280
     1
281
     0
  0
BLOCK_RECORD
  5
4C9F
330
1
100
AcDbSymbolTableRecord
100
AcDbBlockTableRecord
  2
*D23
340
0
 70
     0
280
     1
281
     0
  0
BLOCK_RECORD
  5
4CB7
330
1
100
AcDbSymbolTableRecord
100
AcDbBlockTableRecord
  2
*D24
340
0
 70
     0
280
     1
281
     0
  0
BLOCK_RECORD
  5
4CCF
330
1
100
AcDbSymbolTableRecord
100
AcDbBlockTableRecord
  2
*D25
340
0
 70
     0
280
     1
281
     0
  0
BLOCK_RECORD
  5
5A8E
330
1
100
AcDbSymbolTableRecord
100
AcDbBlockTableRecord
  2
GENDOT
340
0
102
{BLKREFS
331
6117
331
6122
102
}
 70
     0
280
     1
281
     0
  0
BLOCK_RECORD
  5
65B7
330
1
100
AcDbSymbolTableRecord
100
AcDbBlockTableRecord
  2
*D27
340
0
 70
     0
280
     1
281
     0
  0
BLOCK_RECORD
  5
65E9
330
1
100
AcDbSymbolTableRecord
100
AcDbBlockTableRecord
  2
*D28
340
0
 70
     0
280
     1
281
     0
  0
BLOCK_RECORD
  5
6769
330
1
100
AcDbSymbolTableRecord
100
AcDbBlockTableRecord
  2
ケース
340
0
310
2800000020000000200000000100080000000000000400000000000000000000000000000000000000000000000080000080000000808000800000008000800080800000C0C0C000C0DCC000F0CAA6000020400000206000002080000020A0000020C0000020E00000400000004020000040400000406000004080000040A0
310
000040C0000040E00000600000006020000060400000606000006080000060A0000060C0000060E00000800000008020000080400000806000008080000080A0000080C0000080E00000A0000000A0200000A0400000A0600000A0800000A0A00000A0C00000A0E00000C0000000C0200000C0400000C0600000C0800000C0
310
A00000C0C00000C0E00000E0000000E0200000E0400000E0600000E0800000E0A00000E0C00000E0E00040000000400020004000400040006000400080004000A0004000C0004000E00040200000402020004020400040206000402080004020A0004020C0004020E000404000004040200040404000404060004040800040
310
40A0004040C0004040E00040600000406020004060400040606000406080004060A0004060C0004060E00040800000408020004080400040806000408080004080A0004080C0004080E00040A0000040A0200040A0400040A0600040A0800040A0A00040A0C00040A0E00040C0000040C0200040C0400040C0600040C08000
310
40C0A00040C0C00040C0E00040E0000040E0200040E0400040E0600040E0800040E0A00040E0C00040E0E00080000000800020008000400080006000800080008000A0008000C0008000E00080200000802020008020400080206000802080008020A0008020C0008020E00080400000804020008040400080406000804080
310
008040A0008040C0008040E00080600000806020008060400080606000806080008060A0008060C0008060E00080800000808020008080400080806000808080008080A0008080C0008080E00080A0000080A0200080A0400080A0600080A0800080A0A00080A0C00080A0E00080C0000080C0200080C0400080C0600080C0
310
800080C0A00080C0C00080C0E00080E0000080E0200080E0400080E0600080E0800080E0A00080E0C00080E0E000C0000000C0002000C0004000C0006000C0008000C000A000C000C000C000E000C0200000C0202000C0204000C0206000C0208000C020A000C020C000C020E000C0400000C0402000C0404000C0406000C0
310
408000C040A000C040C000C040E000C0600000C0602000C0604000C0606000C0608000C060A000C060C000C060E000C0800000C0802000C0804000C0806000C0808000C080A000C080C000C080E000C0A00000C0A02000C0A04000C0A06000C0A08000C0A0A000C0A0C000C0A0E000C0C00000C0C02000C0C04000C0C06000
310
C0C08000C0C0A000F0FBFF00A4A0A000808080000000FF0000FF000000FFFF00FF000000FF00FF00FFFF0000FFFFFF0000000000000000000000000000000000000000000000000000000000000000000000000000000000000000000000000000000000000000000000000000000000000000000000000000000000000000
310
00000000000000000000000000000000000000000000000000000000000000000000000000000000000000000000000000000000000000000000000000000000000000000000000000000000000000000000000000000000000000000000000000000000000000000000000000000000000000000000000000000000000000
310
0000000000000000000000000000000000000000000000000000000000000000FC000000FC00000000000000FC000000FC000000000000000000000000000000FCFCFCFCFC00000000000000FCFCFCFCFC000000000000000000000000000000FC000000FC00000000000000FC000000FC0000000000000000000000000000
310
00FC000000FC00000000000000FC000000FC000000000000000000000000000000FC000000FC00000000000000FC000000FC0000FCFCFCFCFCFCFCFCFC00000000FC000000FC00000000000000FC000000FC0000FCFCFCFCFCFCFCFCFCFCFCFC00FC000000FCFCFCFCFCFCFCFCFC000000FC0000000000000000000000FC00
310
0000FC000000000000000000000000000000FC0000000000000000000000FC000000FC000000000000000000000000000000FC0000FCFCFCFCFCFCFCFCFCFCFCFCFC00000000000000000000000000000000FC00000000000000000000000000000000000000000000000000000000000000FC000000000000000000000000
310
00000000000000000000000000000000000000FC00000000000000000000000000000000000000000000000000000000000000FC00000000000000000000000000000000000000000000000000000000000000FC000000000000000000000000000000000000000000000000000000000000FC000000000000000000000000
310
000000000000000000000000000000000000FC000000000000000000000000000000000000000000000000000000000000FC0000000000FCFCFCFCFCFCFCFCFCFCFCFCFCFCFCFCFCFCFCFCFCFCFCFCFCFC00000000000000000000000000000000000000000000000000000000000000000000000000000000000000000000
310
00000000000000000000000000000000000000000000000000000000000000000000000000000000000000000000000000000000000000000000000000000000000000000000000000000000000000000000000000000000000000000000000000000000000000000000000000000000000000000000000000000000000000
310
0000000000000000000000000000000000000000000000000000000000000000000000000000000000000000000000000000000000000000
102
{BLKREFS
331
6784
102
}
 70
     4
280
     1
281
     1
  0
ENDTAB
  0
ENDSEC
  0
SECTION
  2
BLOCKS
  0
BLOCK
  5
20
330
1F
100
AcDbEntity
  8
0
100
AcDbBlockBegin
  2
*Model_Space
 70
     0
 10
0.0
 20
0.0
 30
0.0
  3
*Model_Space
  1

  0
ENDBLK
  5
21
330
1F
100
AcDbEntity
  8
0
100
AcDbBlockEnd
  0
BLOCK
  5
1C
330
1B
100
AcDbEntity
 67
     1
  8
0
100
AcDbBlockBegin
  2
*Paper_Space
 70
     0
 10
0.0
 20
0.0
 30
0.0
  3
*Paper_Space
  1

  0
ENDBLK
  5
1D
330
1B
100
AcDbEntity
 67
     1
  8
0
100
AcDbBlockEnd
  0
BLOCK
  5
24
330
23
100
AcDbEntity
 67
     1
  8
0
100
AcDbBlockBegin
  2
*Paper_Space0
 70
     0
 10
0.0
 20
0.0
 30
0.0
  3
*Paper_Space0
  1

  0
ENDBLK
  5
25
330
23
100
AcDbEntity
 67
     1
  8
0
100
AcDbBlockEnd
  0
BLOCK
  5
6D
330
69
100
AcDbEntity
  8
0
100
AcDbBlockBegin
  2
_Open30
 70
     0
 10
0.0
 20
0.0
 30
0.0
  3
_Open30
  1

  0
LINE
  5
6A
330
69
100
AcDbEntity
  8
0
  6
ByBlock
 62
     0
370
    -2
100
AcDbLine
 10
-1.0
 20
0.26794919
 30
0.0
 11
0.0
 21
0.0
 31
0.0
  0
LINE
  5
6B
330
69
100
AcDbEntity
  8
0
  6
ByBlock
 62
     0
370
    -2
100
AcDbLine
 10
0.0
 20
0.0
 30
0.0
 11
-1.0
 21
-0.26794919
 31
0.0
  0
LINE
  5
6C
330
69
100
AcDbEntity
  8
0
  6
ByBlock
 62
     0
370
    -2
100
AcDbLine
 10
0.0
 20
0.0
 30
0.0
 11
-1.0
 21
0.0
 31
0.0
  0
ENDBLK
  5
6E
330
69
100
AcDbEntity
  8
0
100
AcDbBlockEnd
  0
BLOCK
  5
76
330
74
100
AcDbEntity
  8
0
100
AcDbBlockBegin
  2
GENAXEH
 70
     0
 10
0.0
 20
0.0
 30
0.0
  3
GENAXEH
  1

  0
LINE
  5
75
330
74
100
AcDbEntity
  8
0
100
AcDbLine
 10
-1.0
 20
0.0
 30
0.0
 11
1.0
 21
0.0
 31
0.0
  0
ENDBLK
  5
77
330
74
100
AcDbEntity
  8
0
100
AcDbBlockEnd
  0
BLOCK
  5
3412
330
340F
100
AcDbEntity
  8
0
100
AcDbBlockBegin
  2
ロッカクアナツキプラグ R1／8
 70
     0
 10
0.0
 20
0.0
 30
0.0
  3
ロッカクアナツキプラグ R1／8
  1

  0
CIRCLE
  5
4398
330
340F
100
AcDbEntity
  8
AM_0 外形線1
100
AcDbCircle
 10
0.0
 20
0.0
 30
0.0
 40
5.271232
  0
CIRCLE
  5
4399
330
340F
100
AcDbEntity
  8
AM_4 細線
100
AcDbCircle
 10
0.0
 20
0.0
 30
0.0
 40
4.816232
  0
LINE
  5
439A
330
340F
100
AcDbEntity
  8
AM_7 中心線
100
AcDbLine
 10
6.716232000000047
 20
0.0
 30
0.0
 11
-6.716231999999933
 21
0.0
 31
0.0
  0
LINE
  5
439B
330
340F
100
AcDbEntity
  8
AM_0 外形線1
100
AcDbLine
 10
-2.178054000000031
 20
-1.257499999999992
 30
0.0
 11
0.0
 21
-2.514999999999985
 31
0.0
  0
LINE
  5
439C
330
340F
100
AcDbEntity
  8
AM_0 外形線1
100
AcDbLine
 10
0.0
 20
2.515000000000042
 30
0.0
 11
-2.178054000000031
 21
1.257499999999992
 31
0.0
  0
LINE
  5
439D
330
340F
100
AcDbEntity
  8
AM_0 外形線1
100
AcDbLine
 10
-2.178054000000031
 20
1.257499999999992
 30
0.0
 11
-2.178054000000031
 21
-1.257499999999992
 31
0.0
  0
LINE
  5
439E
330
340F
100
AcDbEntity
  8
AM_7 中心線
100
AcDbLine
 10
0.0
 20
6.71623199999999
 30
0.0
 11
0.0
 21
-6.71623199999999
 31
0.0
  0
LINE
  5
439F
330
340F
100
AcDbEntity
  8
AM_0 外形線1
100
AcDbLine
 10
2.178053999999974
 20
-1.257499999999992
 30
0.0
 11
2.178053999999974
 21
1.257499999999992
 31
0.0
  0
LINE
  5
43A0
330
340F
100
AcDbEntity
  8
AM_0 外形線1
100
AcDbLine
 10
0.0
 20
-2.514999999999985
 30
0.0
 11
2.178053999999974
 21
-1.257499999999992
 31
0.0
  0
LINE
  5
43A1
330
340F
100
AcDbEntity
  8
AM_0 外形線1
100
AcDbLine
 10
2.178053999999974
 20
1.257499999999992
 30
0.0
 11
0.0
 21
2.515000000000042
 31
0.0
  0
ENDBLK
  5
341D
330
340F
100
AcDbEntity
  8
0
100
AcDbBlockEnd
  0
BLOCK
  5
4421
330
4420
100
AcDbEntity
  8
0
100
AcDbBlockBegin
  2
ケースＡ SEM180
 70
     0
 10
0.0
 20
0.0
 30
0.0
  3
ケースＡ SEM180
  1

  0
LINE
  5
4423
330
4420
100
AcDbEntity
  8
AM_0 外形線1
100
AcDbLine
 10
0.0
 20
0.0
 30
0.0
 11
0.0
 21
-89.49999999999993
 31
0.0
  0
LINE
  5
4424
330
4420
100
AcDbEntity
  8
AM_0 外形線1
100
AcDbLine
 10
15.0
 20
-89.49999999999993
 30
0.0
 11
15.0
 21
0.0
 31
0.0
  0
LINE
  5
4425
330
4420
100
AcDbEntity
  8
AM_0 外形線1
100
AcDbLine
 10
0.5
 20
-89.99999999999994
 30
0.0
 11
14.5
 21
-89.99999999999994
 31
0.0
  0
LINE
  5
4426
330
4420
100
AcDbEntity
  8
AM_0 外形線1
100
AcDbLine
 10
0.0
 20
-89.49999999999993
 30
0.0
 11
0.5
 21
-89.99999999999994
 31
0.0
  0
LINE
  5
4427
330
4420
100
AcDbEntity
  8
AM_0 外形線1
100
AcDbLine
 10
14.5
 20
-89.99999999999994
 30
0.0
 11
15.0
 21
-89.49999999999993
 31
0.0
  0
LINE
  5
4428
330
4420
100
AcDbEntity
  8
AM_0 外形線1
100
AcDbLine
 10
18.0
 20
-67.0
 30
0.0
 11
53.0
 21
-67.0
 31
0.0
  0
ARC
  5
4429
330
4420
100
AcDbEntity
  8
AM_0 外形線1
100
AcDbCircle
 10
18.0
 20
-70.0
 30
0.0
 40
3.0
100
AcDbArc
 50
90.0
 51
180.0
  0
LINE
  5
442A
330
4420
100
AcDbEntity
  8
AM_0 外形線1
100
AcDbLine
 10
56.0
 20
-61.25
 30
0.0
 11
56.0
 21
0.0
 31
0.0
  0
ARC
  5
442B
330
4420
100
AcDbEntity
  8
AM_0 外形線1
100
AcDbCircle
 10
53.0
 20
-64.0
 30
0.0
 40
3.0
100
AcDbArc
 50
270.0
 51
0.0
  0
LINE
  5
442C
330
4420
100
AcDbEntity
  8
AM_0 外形線1
100
AcDbLine
 10
56.0
 20
-64.0
 30
0.0
 11
56.0
 21
-61.25
 31
0.0
  0
LINE
  5
442D
330
4420
100
AcDbEntity
  8
AM_3 隠れ線
100
AcDbLine
 10
19.0
 20
56.40000000000004
 30
0.0
 11
38.0
 21
56.40000000000004
 31
0.0
  0
LINE
  5
442E
330
4420
100
AcDbEntity
  8
AM_7 中心線
100
AcDbLine
 10
-25.49999999999994
 20
81.5
 30
0.0
 11
32.0
 21
81.5
 31
0.0
  0
LINE
  5
442F
330
4420
100
AcDbEntity
  8
AM_7 中心線
100
AcDbLine
 10
14.0
 20
58.0
 30
0.0
 11
41.0
 21
58.0
 31
0.0
  0
LINE
  5
4430
330
4420
100
AcDbEntity
  8
AM_0 外形線1
100
AcDbLine
 10
18.0
 20
67.0
 30
0.0
 11
53.0
 21
67.0
 31
0.0
  0
LINE
  5
4431
330
4420
100
AcDbEntity
  8
AM_0 外形線1
100
AcDbLine
 10
16.0
 20
60.0
 30
0.0
 11
39.0
 21
60.0
 31
0.0
  0
LINE
  5
4432
330
4420
100
AcDbEntity
  8
AM_0 外形線1
100
AcDbLine
 10
-3.0
 20
60.5
 30
0.0
 11
-3.0
 21
64.5
 31
0.0
  0
LINE
  5
4433
330
4420
100
AcDbEntity
  8
AM_0 外形線1
100
AcDbLine
 10
15.0
 20
60.5
 30
0.0
 11
-3.0
 21
60.5
 31
0.0
  0
ARC
  5
4434
330
4420
100
AcDbEntity
  8
AM_0 外形線1
100
AcDbCircle
 10
15.0
 20
59.5
 30
0.0
 40
1.0
100
AcDbArc
 50
0.0
 51
90.0
  0
LINE
  5
4435
330
4420
100
AcDbEntity
  8
AM_0 外形線1
100
AcDbLine
 10
19.0
 20
56.40000000000004
 30
0.0
 11
17.0
 21
56.40000000000004
 31
0.0
  0
LINE
  5
4436
330
4420
100
AcDbEntity
  8
AM_0 外形線1
100
AcDbLine
 10
16.0
 20
57.40000000000002
 30
0.0
 11
16.0
 21
59.5
 31
0.0
  0
LINE
  5
4437
330
4420
100
AcDbEntity
  8
AM_0 外形線1
100
AcDbLine
 10
17.0
 20
56.40000000000004
 30
0.0
 11
16.0
 21
57.40000000000002
 31
0.0
  0
LINE
  5
4438
330
4420
100
AcDbEntity
  8
AM_0 外形線1
100
AcDbLine
 10
0.0
 20
77.0
 30
0.0
 11
15.0
 21
77.0
 31
0.0
  0
LINE
  5
4439
330
4420
100
AcDbEntity
  8
AM_0 外形線1
100
AcDbLine
 10
0.0
 20
86.00000000000006
 30
0.0
 11
15.0
 21
86.00000000000006
 31
0.0
  0
LINE
  5
443A
330
4420
100
AcDbEntity
  8
AM_0 外形線1
100
AcDbLine
 10
15.0
 20
70.0
 30
0.0
 11
15.0
 21
89.50000000000006
 31
0.0
  0
LINE
  5
443B
330
4420
100
AcDbEntity
  8
AM_0 外形線1
100
AcDbLine
 10
0.0
 20
86.00000000000006
 30
0.0
 11
0.0
 21
89.50000000000006
 31
0.0
  0
LINE
  5
443C
330
4420
100
AcDbEntity
  8
AM_0 外形線1
100
AcDbLine
 10
0.0
 20
68.90000000000009
 30
0.0
 11
0.0
 21
77.0
 31
0.0
  0
LINE
  5
443D
330
4420
100
AcDbEntity
  8
AM_0 外形線1
100
AcDbLine
 10
-2.5
 20
65.0
 30
0.0
 11
1.899999999999976
 21
65.0
 31
0.0
  0
LINE
  5
443E
330
4420
100
AcDbEntity
  8
AM_0 外形線1
100
AcDbLine
 10
-3.0
 20
64.5
 30
0.0
 11
-2.5
 21
65.0
 31
0.0
  0
LWPOLYLINE
  5
443F
330
4420
100
AcDbEntity
  8
AM_0 外形線1
100
AcDbPolyline
 90
       73
 70
     0
 43
0.0
 10
1.199999999999988
 20
65.0
 10
1.304587000000025
 20
65.00741999999997
 10
1.408377000000028
 20
65.02962500000001
 10
1.510582999999995
 20
65.06644499999999
 10
1.610424000000023
 20
65.11759899999998
 10
1.707141999999976
 20
65.18270000000001
 10
1.800000000000011
 20
65.26125100000001
 10
1.88829099999998
 20
65.35265400000003
 10
1.971344999999985
 20
65.45621299999999
 10
2.048528000000032
 20
65.571142
 10
2.119253000000014
 20
65.69656399999996
 10
2.182982000000038
 20
65.831526
 10
2.239229999999962
 20
65.97500000000002
 10
2.287569000000019
 20
66.12589400000001
 10
2.327631000000053
 20
66.28306100000003
 10
2.359111000000041
 20
66.44530300000003
 10
2.381769000000018
 20
66.61138599999998
 10
2.395433000000025
 20
66.78004600000003
 10
2.399999999999977
 20
66.95000000000003
 10
2.395433000000025
 20
67.11995400000001
 10
2.381769000000018
 20
67.28861399999999
 10
2.359111000000041
 20
67.45469700000001
 10
2.327631000000053
 20
67.616939
 10
2.287569000000019
 20
67.77410599999996
 10
2.239229999999962
 20
67.92500000000001
 10
2.182982000000038
 20
68.06847399999998
 10
2.119253000000014
 20
68.20343600000001
 10
2.048528000000032
 20
68.32885799999997
 10
1.971344999999985
 20
68.44378699999999
 10
1.88829099999998
 20
68.547347
 10
1.800000000000011
 20
68.63875000000001
 10
1.707141999999976
 20
68.71730000000003
 10
1.610424000000023
 20
68.78240099999999
 10
1.510582999999995
 20
68.83355499999999
 10
1.408377000000028
 20
68.87037500000002
 10
1.304587000000025
 20
68.89258000000001
 10
1.199999999999988
 20
68.90000000000004
 10
1.095413000000007
 20
68.89258000000001
 10
0.9916220000000636
 20
68.87037500000002
 10
0.8894169999999801
 20
68.83355499999999
 10
0.7895759999999541
 20
68.78240099999999
 10
0.6928580000000011
 20
68.71730000000003
 10
0.5999999999999659
 20
68.63875000000001
 10
0.5117079999999988
 20
68.547347
 10
0.4286549999999921
 20
68.44378699999999
 10
0.351472000000058
 20
68.32885799999997
 10
0.2807459999999651
 20
68.20343600000001
 10
0.2170169999999985
 20
68.06847399999998
 10
0.1607690000000161
 20
67.92500000000001
 10
0.1124299999999607
 20
67.77410599999996
 10
0.0723690000000374
 20
67.616939
 10
0.0408890000000497
 20
67.45469700000001
 10
0.01822999999996
 20
67.28861399999999
 10
0.0045660000000112
 20
67.11995400000001
 10
0.0
 20
66.95000000000003
 10
0.0045660000000112
 20
66.78004600000003
 10
0.01822999999996
 20
66.61138599999998
 10
0.0408890000000497
 20
66.44530300000003
 10
0.0723690000000374
 20
66.28306100000003
 10
0.1124299999999607
 20
66.12589400000001
 10
0.1607690000000161
 20
65.97500000000002
 10
0.2170169999999985
 20
65.831526
 10
0.2807459999999651
 20
65.69656399999996
 10
0.351472000000058
 20
65.571142
 10
0.4286549999999921
 20
65.45621299999999
 10
0.5117079999999988
 20
65.35265400000003
 10
0.5999999999999659
 20
65.26125100000001
 10
0.6928580000000011
 20
65.18270000000001
 10
0.7895759999999541
 20
65.11759899999998
 10
0.8894169999999801
 20
65.06644499999999
 10
0.9916220000000636
 20
65.02962500000001
 10
1.095413000000007
 20
65.00741999999997
 10
1.199999999999988
 20
65.0
  0
LINE
  5
4440
330
4420
100
AcDbEntity
  8
AM_0 外形線1
100
AcDbLine
 10
1.899999999999976
 20
68.90000000000004
 30
0.0
 11
0.0
 21
68.90000000000004
 31
0.0
  0
ARC
  5
4441
330
4420
100
AcDbEntity
  8
AM_0 外形線1
100
AcDbCircle
 10
1.899999999999976
 20
68.40000000000003
 30
0.0
 40
0.5
100
AcDbArc
 50
0.0
 51
90.0
  0
LINE
  5
4442
330
4420
100
AcDbEntity
  8
AM_0 外形線1
100
AcDbLine
 10
2.399999999999977
 20
65.5
 30
0.0
 11
2.399999999999977
 21
68.40000000000003
 31
0.0
  0
ARC
  5
4443
330
4420
100
AcDbEntity
  8
AM_0 外形線1
100
AcDbCircle
 10
1.899999999999976
 20
65.5
 30
0.0
 40
0.5
100
AcDbArc
 50
270.0
 51
0.0
  0
ARC
  5
4444
330
4420
100
AcDbEntity
  8
AM_0 外形線1
100
AcDbCircle
 10
18.0
 20
70.0
 30
0.0
 40
3.0
100
AcDbArc
 50
180.0
 51
270.0
  0
LINE
  5
4445
330
4420
100
AcDbEntity
  8
AM_0 外形線1
100
AcDbLine
 10
0.5
 20
90.00000000000005
 30
0.0
 11
14.5
 21
90.00000000000005
 31
0.0
  0
LINE
  5
4446
330
4420
100
AcDbEntity
  8
AM_0 外形線1
100
AcDbLine
 10
0.0
 20
89.50000000000006
 30
0.0
 11
0.5
 21
90.00000000000005
 31
0.0
  0
LINE
  5
4447
330
4420
100
AcDbEntity
  8
AM_0 外形線1
100
AcDbLine
 10
14.5
 20
90.00000000000005
 30
0.0
 11
15.0
 21
89.50000000000006
 31
0.0
  0
ARC
  5
4448
330
4420
100
AcDbEntity
  8
AM_0 外形線1
100
AcDbCircle
 10
53.0
 20
64.0
 30
0.0
 40
3.0
100
AcDbArc
 50
0.0
 51
90.0
  0
LINE
  5
4449
330
4420
100
AcDbEntity
  8
AM_0 外形線1
100
AcDbLine
 10
42.0
 20
60.5
 30
0.0
 11
40.0
 21
60.5
 31
0.0
  0
LINE
  5
444A
330
4420
100
AcDbEntity
  8
AM_3 隠れ線
100
AcDbLine
 10
39.0
 20
58.881321
 30
0.0
 11
39.0
 21
57.40000000000002
 31
0.0
  0
LINE
  5
444B
330
4420
100
AcDbEntity
  8
AM_3 隠れ線
100
AcDbLine
 10
39.0
 20
57.40000000000002
 30
0.0
 11
38.0
 21
56.40000000000004
 31
0.0
  0
LINE
  5
444C
330
4420
100
AcDbEntity
  8
AM_0 外形線1
100
AcDbLine
 10
39.0
 20
58.881321
 30
0.0
 11
39.0
 21
59.5
 31
0.0
  0
ARC
  5
444D
330
4420
100
AcDbEntity
  8
AM_0 外形線1
100
AcDbCircle
 10
40.0
 20
59.5
 30
0.0
 40
1.0
100
AcDbArc
 50
90.0
 51
180.0
  0
LWPOLYLINE
  5
444E
330
4420
100
AcDbEntity
  8
AM_0 外形線1
100
AcDbPolyline
 90
       73
 70
     0
 43
0.0
 10
53.30000000000001
 20
54.85000000000002
 10
53.28554000000003
 20
55.05481600000002
 10
53.24226900000002
 20
55.25807300000002
 10
53.17051800000001
 20
55.45822500000003
 10
53.070832
 20
55.65374700000001
 10
52.94396900000004
 20
55.84315300000003
 10
52.79089600000003
 20
56.02500000000002
 10
52.61277699999999
 20
56.19790499999999
 10
52.41096900000002
 20
56.360551
 10
52.187005
 20
56.51170100000001
 10
51.94259299999998
 20
56.65020400000003
 10
51.67959000000002
 20
56.77500700000002
 10
51.39999999999997
 20
56.88515999999999
 10
51.10594900000001
 20
56.97982300000001
 10
50.79967600000003
 20
57.05827800000003
 10
50.48351200000002
 20
57.11992600000002
 10
50.15986300000003
 20
57.16429800000003
 10
49.83119200000004
 20
57.191058
 10
49.5
 20
57.20000000000005
 10
49.16880800000001
 20
57.191058
 10
48.84013700000003
 20
57.16429800000003
 10
48.51648699999998
 20
57.11992600000002
 10
48.20032300000002
 20
57.05827800000003
 10
47.89404999999999
 20
56.97982300000001
 10
47.59999999999997
 20
56.88515999999999
 10
47.32040899999998
 20
56.77500700000002
 10
47.05740700000001
 20
56.65020400000003
 10
46.81299400000006
 20
56.51170100000001
 10
46.58903100000002
 20
56.360551
 10
46.38722200000006
 20
56.19790499999999
 10
46.20910300000002
 20
56.02500000000002
 10
46.05602999999996
 20
55.84315300000003
 10
45.92916800000007
 20
55.65374700000001
 10
45.82948200000004
 20
55.45822500000003
 10
45.75772999999998
 20
55.25807300000002
 10
45.71446000000003
 20
55.05481600000002
 10
45.69999999999999
 20
54.85000000000002
 10
45.71446000000003
 20
54.64518400000002
 10
45.75772999999998
 20
54.44192700000002
 10
45.82948200000004
 20
54.24177500000002
 10
45.92916800000007
 20
54.04625299999998
 10
46.05602999999996
 20
53.85684700000002
 10
46.20910300000002
 20
53.67500000000001
 10
46.38722200000006
 20
53.502095
 10
46.58903100000002
 20
53.339449
 10
46.81299400000006
 20
53.18829899999997
 10
47.05740700000001
 20
53.04979600000002
 10
47.32040899999998
 20
52.92499299999997
 10
47.59999999999997
 20
52.81484
 10
47.89404999999999
 20
52.72017700000002
 10
48.20032300000002
 20
52.641722
 10
48.51648699999998
 20
52.58007400000002
 10
48.84013700000003
 20
52.53570200000002
 10
49.16880800000001
 20
52.50894299999998
 10
49.5
 20
52.5
 10
49.83119200000004
 20
52.50894299999998
 10
50.15986300000003
 20
52.53570200000002
 10
50.48351200000002
 20
52.58007400000002
 10
50.79967600000003
 20
52.641722
 10
51.10594900000001
 20
52.72017700000002
 10
51.39999999999997
 20
52.81484
 10
51.67959000000002
 20
52.92499299999997
 10
51.94259299999998
 20
53.04979600000002
 10
52.187005
 20
53.18829899999997
 10
52.41096900000002
 20
53.339449
 10
52.61277699999999
 20
53.502095
 10
52.79089600000003
 20
53.67500000000001
 10
52.94396900000004
 20
53.85684700000002
 10
53.070832
 20
54.04625299999998
 10
53.17051800000001
 20
54.24177500000002
 10
53.24226900000002
 20
54.44192700000002
 10
53.28554000000003
 20
54.64518400000002
 10
53.30000000000001
 20
54.85000000000002
  0
LINE
  5
444F
330
4420
100
AcDbEntity
  8
AM_0 外形線1
100
AcDbLine
 10
56.0
 20
53.75
 30
0.0
 11
56.0
 21
52.5
 31
0.0
  0
LINE
  5
4450
330
4420
100
AcDbEntity
  8
AM_0 外形線1
100
AcDbLine
 10
53.30000000000001
 20
53.75
 30
0.0
 11
53.30000000000001
 21
52.5
 31
0.0
  0
LINE
  5
4451
330
4420
100
AcDbEntity
  8
AM_0 外形線1
100
AcDbLine
 10
45.69999999999999
 20
53.75
 30
0.0
 11
45.69999999999999
 21
52.5
 31
0.0
  0
LINE
  5
4452
330
4420
100
AcDbEntity
  8
AM_0 外形線1
100
AcDbLine
 10
43.0
 20
53.75
 30
0.0
 11
43.0
 21
52.5
 31
0.0
  0
LINE
  5
4453
330
4420
100
AcDbEntity
  8
AM_0 外形線1
100
AcDbLine
 10
52.80000000000001
 20
57.20000000000005
 30
0.0
 11
46.19999999999999
 21
57.20000000000005
 31
0.0
  0
ARC
  5
4454
330
4420
100
AcDbEntity
  8
AM_0 外形線1
100
AcDbCircle
 10
42.0
 20
59.5
 30
0.0
 40
1.0
100
AcDbArc
 50
0.0
 51
90.0
  0
LINE
  5
4455
330
4420
100
AcDbEntity
  8
AM_0 外形線1
100
AcDbLine
 10
43.0
 20
53.75
 30
0.0
 11
43.0
 21
59.5
 31
0.0
  0
LINE
  5
4456
330
4420
100
AcDbEntity
  8
AM_0 外形線1
100
AcDbLine
 10
45.69999999999999
 20
53.75
 30
0.0
 11
43.0
 21
53.75
 31
0.0
  0
LINE
  5
4457
330
4420
100
AcDbEntity
  8
AM_0 外形線1
100
AcDbLine
 10
45.69999999999999
 20
56.70000000000005
 30
0.0
 11
45.69999999999999
 21
53.75
 31
0.0
  0
ARC
  5
4458
330
4420
100
AcDbEntity
  8
AM_0 外形線1
100
AcDbCircle
 10
46.19999999999999
 20
56.70000000000005
 30
0.0
 40
0.5
100
AcDbArc
 50
90.0
 51
180.0
  0
ARC
  5
4459
330
4420
100
AcDbEntity
  8
AM_0 外形線1
100
AcDbCircle
 10
52.80000000000001
 20
56.70000000000005
 30
0.0
 40
0.5
100
AcDbArc
 50
0.0
 51
90.0
  0
LINE
  5
445A
330
4420
100
AcDbEntity
  8
AM_0 外形線1
100
AcDbLine
 10
53.30000000000001
 20
53.75
 30
0.0
 11
53.30000000000001
 21
56.70000000000005
 31
0.0
  0
LINE
  5
445B
330
4420
100
AcDbEntity
  8
AM_0 外形線1
100
AcDbLine
 10
56.0
 20
53.75
 30
0.0
 11
53.30000000000001
 21
53.75
 31
0.0
  0
LINE
  5
445C
330
4420
100
AcDbEntity
  8
AM_0 外形線1
100
AcDbLine
 10
56.0
 20
64.0
 30
0.0
 11
56.0
 21
53.75
 31
0.0
  0
INSERT
  5
445E
330
4420
100
AcDbEntity
  8
AM_0 外形線1
100
AcDbBlockReference
  2
ロッカクアナツキプラグ R1／8
 10
7.5
 20
-21.093752
 30
0.0
  0
ENDBLK
  5
4422
330
4420
100
AcDbEntity
  8
0
100
AcDbBlockEnd
  0
BLOCK
  5
453F
330
453E
100
AcDbEntity
  8
0
100
AcDbBlockBegin
  2
リジット SEM180
 70
     0
 10
0.0
 20
0.0
 30
0.0
  3
リジット SEM180
  1

  0
LINE
  5
4541
330
453E
100
AcDbEntity
  8
AM_0 外形線1
100
AcDbLine
 10
-14.99999999999994
 20
-89.49999999999993
 30
0.0
 11
-14.99999999999994
 21
0.0
 31
0.0
  0
LINE
  5
4542
330
453E
100
AcDbEntity
  8
AM_7 中心線
100
AcDbLine
 10
22.32916402634907
 20
-81.5
 30
0.0
 11
-22.32916402634896
 21
-81.5
 31
0.0
  0
LINE
  5
4543
330
453E
100
AcDbEntity
  8
AM_0 外形線1
100
AcDbLine
 10
-0.4999999999999433
 20
-89.99999999999994
 30
0.0
 11
-14.49999999999994
 21
-89.99999999999994
 31
0.0
  0
LINE
  5
4544
330
453E
100
AcDbEntity
  8
AM_0 外形線1
100
AcDbLine
 10
-14.49999999999994
 20
-89.99999999999994
 30
0.0
 11
-14.99999999999994
 21
-89.49999999999993
 31
0.0
  0
LINE
  5
4545
330
453E
100
AcDbEntity
  8
AM_0 外形線1
100
AcDbLine
 10
0.0000000000000568
 20
-89.49999999999993
 30
0.0
 11
-0.4999999999999433
 21
-89.99999999999994
 31
0.0
  0
LINE
  5
4546
330
453E
100
AcDbEntity
  8
AM_0 外形線1
100
AcDbLine
 10
-24.99999999999989
 20
57.5
 30
0.0
 11
-92.0
 21
57.5
 31
0.0
  0
LINE
  5
4547
330
453E
100
AcDbEntity
  8
AM_0 外形線1
100
AcDbLine
 10
-24.99999999999989
 20
-57.5
 30
0.0
 11
-92.0
 21
-57.5
 31
0.0
  0
LINE
  5
4548
330
453E
100
AcDbEntity
  8
AM_0 外形線1
100
AcDbLine
 10
-95.0
 20
54.5
 30
0.0
 11
-95.0
 21
0.0
 31
0.0
  0
LINE
  5
4549
330
453E
100
AcDbEntity
  8
AM_0 外形線1
100
AcDbLine
 10
-95.0
 20
-54.5
 30
0.0
 11
-95.0
 21
0.0
 31
0.0
  0
ARC
  5
454A
330
453E
100
AcDbEntity
  8
AM_0 外形線1
100
AcDbCircle
 10
-92.0
 20
-54.5
 30
0.0
 40
3.0
100
AcDbArc
 50
180.0
 51
270.0
  0
ARC
  5
454B
330
453E
100
AcDbEntity
  8
AM_0 外形線1
100
AcDbCircle
 10
-92.0
 20
54.5
 30
0.0
 40
3.0
100
AcDbArc
 50
90.0
 51
180.0
  0
LINE
  5
454C
330
453E
100
AcDbEntity
  8
AM_0 外形線1
100
AcDbLine
 10
-4.999999999999943
 20
0.0
 30
0.0
 11
-4.999999999999943
 21
63.0
 31
0.0
  0
ARC
  5
454E
330
453E
100
AcDbEntity
  8
AM_0 外形線1
100
AcDbCircle
 10
-24.99999999999989
 20
-67.5
 30
0.0
 40
10.0
100
AcDbArc
 50
0.0
 51
90.0
  0
ARC
  5
454F
330
453E
100
AcDbEntity
  8
AM_0 外形線1
100
AcDbCircle
 10
-24.99999999999989
 20
67.5
 30
0.0
 40
10.0
100
AcDbArc
 50
270.0
 51
0.0
  0
ARC
  5
4550
330
453E
100
AcDbEntity
  8
AM_0 外形線1
100
AcDbCircle
 10
-2.999999999999943
 20
63.0
 30
0.0
 40
2.0
100
AcDbArc
 50
90.0
 51
180.0
  0
LINE
  5
4552
330
453E
100
AcDbEntity
  8
AM_0 外形線1
100
AcDbLine
 10
-0.4999999999999433
 20
90.00000000000005
 30
0.0
 11
-14.49999999999994
 21
90.00000000000005
 31
0.0
  0
LINE
  5
4553
330
453E
100
AcDbEntity
  8
AM_0 外形線1
100
AcDbLine
 10
-14.99999999999994
 20
67.5
 30
0.0
 11
-14.99999999999994
 21
89.50000000000006
 31
0.0
  0
LINE
  5
4554
330
453E
100
AcDbEntity
  8
AM_0 外形線1
100
AcDbLine
 10
-14.49999999999994
 20
90.00000000000005
 30
0.0
 11
-14.99999999999994
 21
89.50000000000006
 31
0.0
  0
LINE
  5
4555
330
453E
100
AcDbEntity
  8
AM_0 外形線1
100
AcDbLine
 10
-0.4999999999999433
 20
65.0
 30
0.0
 11
0.0000000000000568
 21
65.5
 31
0.0
  0
LINE
  5
4556
330
453E
100
AcDbEntity
  8
AM_0 外形線1
100
AcDbLine
 10
0.0000000000000568
 20
89.50000000000006
 30
0.0
 11
-0.4999999999999433
 21
90.00000000000005
 31
0.0
  0
LINE
  5
4558
330
453E
100
AcDbEntity
  8
AM_0 外形線1
100
AcDbLine
 10
-95.0
 20
27.50000000000006
 30
0.0
 11
-5.0
 21
27.5
 31
0.0
  0
LINE
  5
4599
330
453E
100
AcDbEntity
  8
AM_0 外形線1
100
AcDbLine
 10
0.0000000000000568
 20
-89.49999999999993
 30
0.0
 11
0.0000000000000568
 21
-0.0000000000000568
 31
0.0
  0
LINE
  5
459A
330
453E
100
AcDbEntity
  8
AM_0 外形線1
100
AcDbLine
 10
-2.999999999999943
 20
65.0
 30
0.0
 11
-0.4999999999999433
 21
65.0
 31
0.0
  0
LINE
  5
459B
330
453E
100
AcDbEntity
  8
AM_0 外形線1
100
AcDbLine
 10
0.0000000000000568
 20
65.5
 30
0.0
 11
0.0000000000000568
 21
77.00000000000007
 31
0.0
  0
LINE
  5
459C
330
453E
100
AcDbEntity
  8
AM_0 外形線1
100
AcDbLine
 10
-14.99999999999994
 20
86.00000000000006
 30
0.0
 11
0.0000000000000568
 21
86.00000000000006
 31
0.0
  0
LINE
  5
459D
330
453E
100
AcDbEntity
  8
AM_0 外形線1
100
AcDbLine
 10
-14.99999999999994
 20
77.00000000000007
 30
0.0
 11
0.0000000000000568
 21
77.00000000000007
 31
0.0
  0
LINE
  5
459E
330
453E
100
AcDbEntity
  8
AM_0 外形線1
100
AcDbLine
 10
0.0000000000000568
 20
86.00000000000006
 30
0.0
 11
0.0000000000000568
 21
89.50000000000006
 31
0.0
  0
ENDBLK
  5
4540
330
453E
100
AcDbEntity
  8
0
100
AcDbBlockEnd
  0
BLOCK
  5
4615
330
4614
100
AcDbEntity
  8
0
100
AcDbBlockBegin
  2
センタ SEM180
 70
     0
 10
0.0
 20
0.0
 30
0.0
  3
センタ SEM180
  1

  0
LINE
  5
4617
330
4614
100
AcDbEntity
  8
AM_0 外形線1
100
AcDbLine
 10
87.0
 20
51.90000000000003
 30
0.0
 11
62.0
 21
51.90000000000003
 31
0.0
  0
LINE
  5
4618
330
4614
100
AcDbEntity
  8
AM_0 外形線1
100
AcDbLine
 10
62.0
 20
-51.89999999999997
 30
0.0
 11
87.0
 21
-51.89999999999997
 31
0.0
  0
LINE
  5
4619
330
4614
100
AcDbEntity
  8
AM_0 外形線1
100
AcDbLine
 10
0.0
 20
52.0
 30
0.0
 11
0.0
 21
0.0
 31
0.0
  0
LINE
  5
461A
330
4614
100
AcDbEntity
  8
AM_0 外形線1
100
AcDbLine
 10
62.0
 20
-51.89999999999997
 30
0.0
 11
62.0
 21
0.0
 31
0.0
  0
LINE
  5
461B
330
4614
100
AcDbEntity
  8
AM_0 外形線1
100
AcDbLine
 10
60.0
 20
-52.5
 30
0.0
 11
60.0
 21
0.0
 31
0.0
  0
LINE
  5
461C
330
4614
100
AcDbEntity
  8
AM_0 外形線1
100
AcDbLine
 10
51.0
 20
-52.5
 30
0.0
 11
60.0
 21
-52.5
 31
0.0
  0
LINE
  5
461D
330
4614
100
AcDbEntity
  8
AM_0 外形線1
100
AcDbLine
 10
60.0
 20
-52.5
 30
0.0
 11
62.0
 21
-51.89999999999997
 31
0.0
  0
ARC
  5
4620
330
4614
100
AcDbEntity
  8
AM_0 外形線1
100
AcDbCircle
 10
23.0
 20
0.0
 30
0.0
 40
59.9
100
AcDbArc
 50
79.41818300000264
 51
97.6751240000005
  0
LINE
  5
4621
330
4614
100
AcDbEntity
  8
AM_0 外形線1
100
AcDbLine
 10
13.5
 20
52.5
 30
0.0
 11
0.5
 21
52.5
 31
0.0
  0
LINE
  5
4622
330
4614
100
AcDbEntity
  8
AM_0 外形線1
100
AcDbLine
 10
0.5
 20
52.5
 30
0.0
 11
0.0
 21
52.0
 31
0.0
  0
ARC
  5
4623
330
4614
100
AcDbEntity
  8
AM_0 外形線1
100
AcDbCircle
 10
13.5
 20
53.0
 30
0.0
 40
0.5
100
AcDbArc
 50
270.0
 51
0.0
  0
LINE
  5
4624
330
4614
100
AcDbEntity
  8
AM_0 外形線1
100
AcDbLine
 10
14.0
 20
58.22001399999999
 30
0.0
 11
14.0
 21
53.0
 31
0.0
  0
LINE
  5
4625
330
4614
100
AcDbEntity
  8
AM_0 外形線1
100
AcDbLine
 10
15.0
 20
59.36337300000001
 30
0.0
 11
14.0
 21
58.22001399999999
 31
0.0
  0
LINE
  5
4626
330
4614
100
AcDbEntity
  8
AM_7 中心線
100
AcDbLine
 10
23.0
 20
63.14720444870555
 30
0.0
 11
23.0
 21
52.85279555129443
 31
0.0
  0
LINE
  5
4627
330
4614
100
AcDbEntity
  8
AM_0 外形線1
100
AcDbLine
 10
60.0
 20
52.5
 30
0.0
 11
35.5
 21
52.5
 31
0.0
  0
ARC
  5
4628
330
4614
100
AcDbEntity
  8
AM_0 外形線1
100
AcDbCircle
 10
35.5
 20
53.0
 30
0.0
 40
0.5
100
AcDbArc
 50
180.0
 51
270.0
  0
LINE
  5
4629
330
4614
100
AcDbEntity
  8
AM_0 外形線1
100
AcDbLine
 10
35.0
 20
57.68568800000003
 30
0.0
 11
34.0
 21
58.881321
 31
0.0
  0
LINE
  5
462A
330
4614
100
AcDbEntity
  8
AM_0 外形線1
100
AcDbLine
 10
35.0
 20
53.0
 30
0.0
 11
35.0
 21
57.68568800000003
 31
0.0
  0
LINE
  5
462B
330
4614
100
AcDbEntity
  8
AM_0 外形線1
100
AcDbLine
 10
62.0
 20
51.90000000000003
 30
0.0
 11
60.0
 21
52.5
 31
0.0
  0
LINE
  5
462C
330
4614
100
AcDbEntity
  8
AM_0 外形線1
100
AcDbLine
 10
90.0
 20
-48.89999999999997
 30
0.0
 11
90.0
 21
48.90000000000004
 31
0.0
  0
ARC
  5
462D
330
4614
100
AcDbEntity
  8
AM_0 外形線1
100
AcDbCircle
 10
87.0
 20
-48.89999999999997
 30
0.0
 40
3.0
100
AcDbArc
 50
270.0
 51
0.0
  0
ARC
  5
462E
330
4614
100
AcDbEntity
  8
AM_0 外形線1
100
AcDbCircle
 10
87.0
 20
48.90000000000004
 30
0.0
 40
3.0
100
AcDbArc
 50
0.0
 51
90.0
  0
LINE
  5
4630
330
4614
100
AcDbEntity
  8
AM_0 外形線1
100
AcDbLine
 10
0.0000000000000568
 20
27.5
 30
0.0
 11
90.00000000000005
 21
27.49999999999995
 31
0.0
  0
ARC
  5
65B3
330
4614
100
AcDbEntity
  8
AM_7 中心線
100
AcDbCircle
 10
23.0
 20
0.0
 30
0.0
 40
57.99999999999993
100
AcDbArc
 50
75.91680249363067
 51
100.2668828108406
  0
ARC
  5
65B4
330
4614
100
AcDbEntity
  8
AM_0 外形線1
100
AcDbCircle
 10
23.0
 20
0.0
 30
0.0
 40
55.80000000000001
100
AcDbArc
 50
77.58131849418262
 51
99.28179908667893
  0
ENDBLK
  5
4616
330
4614
100
AcDbEntity
  8
0
100
AcDbBlockEnd
  0
BLOCK
  5
479E
330
479D
100
AcDbEntity
  8
0
100
AcDbBlockBegin
  2
リーマボルト SEM180 M8
 70
     0
 10
0.0
 20
0.0
 30
0.0
  3
リーマボルト SEM180 M8
  1

  0
LINE
  5
47A0
330
479D
100
AcDbEntity
  8
AM_4 細線
100
AcDbLine
 10
38.5
 20
-3.375
 30
0.0
 11
41.625
 21
-3.375
 31
0.0
  0
LINE
  5
47A1
330
479D
100
AcDbEntity
  8
AM_4 細線
100
AcDbLine
 10
38.5
 20
3.375000000000055
 30
0.0
 11
41.625
 21
3.375000000000055
 31
0.0
  0
LINE
  5
47A2
330
479D
100
AcDbEntity
  8
AM_0 外形線1
100
AcDbLine
 10
41.0
 20
-4.0
 30
0.0
 11
38.5
 21
-4.0
 31
0.0
  0
LINE
  5
47A3
330
479D
100
AcDbEntity
  8
AM_0 外形線1
100
AcDbLine
 10
38.5
 20
4.000000000000055
 30
0.0
 11
41.0
 21
4.000000000000055
 31
0.0
  0
ARC
  5
47A4
330
479D
100
AcDbEntity
  8
AM_0 外形線1
100
AcDbCircle
 10
-2.171212000000025
 20
5.626387999999963
 30
0.0
 40
3.328787999999998
100
AcDbArc
 50
145.746812999999
 51
214.2531870000009
  0
LINE
  5
47A5
330
479D
100
AcDbEntity
  8
AM_0 外形線1
100
AcDbLine
 10
-5.5
 20
6.500000000000056
 30
0.0
 11
-5.5
 21
-6.5
 31
0.0
  0
ARC
  5
47A6
330
479D
100
AcDbEntity
  8
AM_0 外形線1
100
AcDbCircle
 10
-2.171212000000025
 20
-5.626388000000019
 30
0.0
 40
3.328787999999998
100
AcDbArc
 50
145.746812999999
 51
214.2531870000009
  0
LINE
  5
47A7
330
479D
100
AcDbEntity
  8
AM_0 外形線1
100
AcDbLine
 10
-4.922650000000031
 20
-7.5
 30
0.0
 11
0.0
 21
-7.5
 31
0.0
  0
LINE
  5
47A8
330
479D
100
AcDbEntity
  8
AM_0 外形線1
100
AcDbLine
 10
-5.5
 20
-6.5
 30
0.0
 11
-4.922650000000031
 21
-7.5
 31
0.0
  0
LINE
  5
47A9
330
479D
100
AcDbEntity
  8
AM_0 外形線1
100
AcDbLine
 10
0.0
 20
-3.752777000000036
 30
0.0
 11
-4.922650000000031
 21
-3.752777000000036
 31
0.0
  0
LINE
  5
47AA
330
479D
100
AcDbEntity
  8
AM_0 外形線1
100
AcDbLine
 10
0.0
 20
3.752776999999979
 30
0.0
 11
-4.922650000000031
 21
3.752776999999979
 31
0.0
  0
ARC
  5
47AB
330
479D
100
AcDbEntity
  8
AM_0 外形線1
100
AcDbCircle
 10
6.985199000000022
 20
0.0
 30
0.0
 40
12.4852
100
AcDbArc
 50
162.5076750000038
 51
197.4923249999962
  0
LINE
  5
47AC
330
479D
100
AcDbEntity
  8
AM_0 外形線1
100
AcDbLine
 10
1.5
 20
-4.5
 30
0.0
 11
1.5
 21
4.500000000000056
 31
0.0
  0
ARC
  5
47AD
330
479D
100
AcDbEntity
  8
AM_0 外形線1
100
AcDbCircle
 10
1.0
 20
-4.5
 30
0.0
 40
0.5
100
AcDbArc
 50
0.0
 51
90.0
  0
LINE
  5
47AE
330
479D
100
AcDbEntity
  8
AM_0 外形線1
100
AcDbLine
 10
0.5
 20
-4.0
 30
0.0
 11
1.0
 21
-4.0
 31
0.0
  0
ARC
  5
47AF
330
479D
100
AcDbEntity
  8
AM_0 外形線1
100
AcDbCircle
 10
0.5
 20
-4.5
 30
0.0
 40
0.5
100
AcDbArc
 50
90.0
 51
180.0
  0
ARC
  5
47B0
330
479D
100
AcDbEntity
  8
AM_0 外形線1
100
AcDbCircle
 10
1.0
 20
4.500000000000056
 30
0.0
 40
0.5
100
AcDbArc
 50
270.0
 51
0.0
  0
LINE
  5
47B1
330
479D
100
AcDbEntity
  8
AM_0 外形線1
100
AcDbLine
 10
0.5
 20
4.000000000000055
 30
0.0
 11
1.0
 21
4.000000000000055
 31
0.0
  0
ARC
  5
47B2
330
479D
100
AcDbEntity
  8
AM_0 外形線1
100
AcDbCircle
 10
0.5
 20
4.500000000000056
 30
0.0
 40
0.5
100
AcDbArc
 50
180.0
 51
270.0
  0
LINE
  5
47B3
330
479D
100
AcDbEntity
  8
AM_0 外形線1
100
AcDbLine
 10
0.0
 20
7.500000000000056
 30
0.0
 11
-4.922650000000031
 21
7.500000000000056
 31
0.0
  0
LINE
  5
47B4
330
479D
100
AcDbEntity
  8
AM_0 外形線1
100
AcDbLine
 10
-4.922650000000031
 20
7.500000000000056
 30
0.0
 11
-5.5
 21
6.500000000000056
 31
0.0
  0
ARC
  5
47B5
330
479D
100
AcDbEntity
  8
AM_0 外形線1
100
AcDbCircle
 10
35.17121100000004
 20
5.626387999999963
 30
0.0
 40
3.328787999999998
100
AcDbArc
 50
325.7468129999991
 51
34.25318700000094
  0
LINE
  5
47B6
330
479D
100
AcDbEntity
  8
AM_0 外形線1
100
AcDbLine
 10
32.0
 20
-7.5
 30
0.0
 11
32.0
 21
7.500000000000056
 31
0.0
  0
LINE
  5
47B7
330
479D
100
AcDbEntity
  8
AM_0 外形線1
100
AcDbLine
 10
38.5
 20
6.500000000000056
 30
0.0
 11
38.5
 21
-6.5
 31
0.0
  0
ARC
  5
47B8
330
479D
100
AcDbEntity
  8
AM_0 外形線1
100
AcDbCircle
 10
35.17121100000004
 20
-5.626388000000019
 30
0.0
 40
3.328787999999998
100
AcDbArc
 50
325.7468129999991
 51
34.25318700000094
  0
LINE
  5
47B9
330
479D
100
AcDbEntity
  8
AM_0 外形線1
100
AcDbLine
 10
30.0
 20
-7.699999999999986
 30
0.0
 11
32.0
 21
-7.699999999999986
 31
0.0
  0
LINE
  5
47BA
330
479D
100
AcDbEntity
  8
AM_0 外形線1
100
AcDbLine
 10
37.92264900000004
 20
-7.5
 30
0.0
 11
32.0
 21
-7.5
 31
0.0
  0
LINE
  5
47BB
330
479D
100
AcDbEntity
  8
AM_0 外形線1
100
AcDbLine
 10
38.5
 20
-6.5
 30
0.0
 11
37.92264900000004
 21
-7.5
 31
0.0
  0
LINE
  5
47BC
330
479D
100
AcDbEntity
  8
AM_0 外形線1
100
AcDbLine
 10
32.0
 20
-7.699999999999986
 30
0.0
 11
32.0
 21
-7.5
 31
0.0
  0
LINE
  5
47BD
330
479D
100
AcDbEntity
  8
AM_0 外形線1
100
AcDbLine
 10
32.0
 20
0.6666670000000181
 30
0.0
 11
30.0
 21
-1.333332999999981
 31
0.0
  0
LINE
  5
47BE
330
479D
100
AcDbEntity
  8
AM_0 外形線1
100
AcDbLine
 10
32.0
 20
1.333333000000038
 30
0.0
 11
30.0
 21
-0.6666669999999613
 31
0.0
  0
LINE
  5
47BF
330
479D
100
AcDbEntity
  8
AM_0 外形線1
100
AcDbLine
 10
25.0
 20
-3.922649999999975
 30
0.0
 11
30.0
 21
-3.922649999999975
 31
0.0
  0
LINE
  5
47C0
330
479D
100
AcDbEntity
  8
AM_0 外形線1
100
AcDbLine
 10
25.0
 20
3.922650000000031
 30
0.0
 11
30.0
 21
3.922650000000031
 31
0.0
  0
LINE
  5
47C1
330
479D
100
AcDbEntity
  8
AM_0 外形線1
100
AcDbLine
 10
24.0
 20
4.500000000000056
 30
0.0
 11
24.0
 21
-4.5
 31
0.0
  0
LINE
  5
47C2
330
479D
100
AcDbEntity
  8
AM_0 外形線1
100
AcDbLine
 10
25.0
 20
-3.922649999999975
 30
0.0
 11
24.0
 21
-4.5
 31
0.0
  0
LINE
  5
47C3
330
479D
100
AcDbEntity
  8
AM_0 外形線1
100
AcDbLine
 10
25.0
 20
3.922650000000031
 30
0.0
 11
25.0
 21
-3.922649999999975
 31
0.0
  0
LINE
  5
47C4
330
479D
100
AcDbEntity
  8
AM_0 外形線1
100
AcDbLine
 10
24.0
 20
4.500000000000056
 30
0.0
 11
25.0
 21
3.922650000000031
 31
0.0
  0
LINE
  5
47C5
330
479D
100
AcDbEntity
  8
AM_0 外形線1
100
AcDbLine
 10
32.0
 20
-3.752777000000036
 30
0.0
 11
37.92264900000004
 21
-3.752777000000036
 31
0.0
  0
LINE
  5
47C6
330
479D
100
AcDbEntity
  8
AM_0 外形線1
100
AcDbLine
 10
32.0
 20
3.752776999999979
 30
0.0
 11
37.92264900000004
 21
3.752776999999979
 31
0.0
  0
ARC
  5
47C7
330
479D
100
AcDbEntity
  8
AM_0 外形線1
100
AcDbCircle
 10
26.01479999999998
 20
0.0
 30
0.0
 40
12.4852
100
AcDbArc
 50
342.5076750000038
 51
17.49232499999622
  0
LINE
  5
47C8
330
479D
100
AcDbEntity
  8
AM_0 外形線1
100
AcDbLine
 10
32.0
 20
7.700000000000102
 30
0.0
 11
30.0
 21
7.700000000000102
 31
0.0
  0
LINE
  5
47C9
330
479D
100
AcDbEntity
  8
AM_0 外形線1
100
AcDbLine
 10
37.92264900000004
 20
7.500000000000056
 30
0.0
 11
38.5
 21
6.500000000000056
 31
0.0
  0
LINE
  5
47CA
330
479D
100
AcDbEntity
  8
AM_0 外形線1
100
AcDbLine
 10
32.0
 20
7.500000000000056
 30
0.0
 11
37.92264900000004
 21
7.500000000000056
 31
0.0
  0
LINE
  5
47CB
330
479D
100
AcDbEntity
  8
AM_0 外形線1
100
AcDbLine
 10
41.0
 20
4.000000000000055
 30
0.0
 11
41.0
 21
-4.0
 31
0.0
  0
LINE
  5
47CC
330
479D
100
AcDbEntity
  8
AM_0 外形線1
100
AcDbLine
 10
42.0
 20
-3.0
 30
0.0
 11
41.0
 21
-4.0
 31
0.0
  0
LINE
  5
47CD
330
479D
100
AcDbEntity
  8
AM_0 外形線1
100
AcDbLine
 10
42.0
 20
3.000000000000055
 30
0.0
 11
42.0
 21
-3.0
 31
0.0
  0
LINE
  5
47CE
330
479D
100
AcDbEntity
  8
AM_0 外形線1
100
AcDbLine
 10
41.0
 20
4.000000000000055
 30
0.0
 11
42.0
 21
3.000000000000055
 31
0.0
  0
LINE
  5
4836
330
479D
100
AcDbEntity
  8
AM_0 外形線1
100
AcDbLine
 10
0.0
 20
-7.5
 30
0.0
 11
0.0
 21
7.500000000000056
 31
0.0
  0
LINE
  5
4837
330
479D
100
AcDbEntity
  8
AM_0 外形線1
100
AcDbLine
 10
30.00000000000006
 20
-7.699999999999986
 30
0.0
 11
30.00000000000006
 21
7.700000000000102
 31
0.0
  0
LINE
  5
4838
330
479D
100
AcDbEntity
  8
AM_0 外形線1
100
AcDbLine
 10
1.5
 20
4.500000000000056
 30
0.0
 11
24.0
 21
4.500000000000056
 31
0.0
  0
LINE
  5
4839
330
479D
100
AcDbEntity
  8
AM_0 外形線1
100
AcDbLine
 10
1.5
 20
-4.499999999999886
 30
0.0
 11
24.0
 21
-4.499999999999943
 31
0.0
  0
LINE
  5
483A
330
479D
100
AcDbEntity
  8
AM_0 外形線1
100
AcDbLine
 10
32.0
 20
7.500000000000056
 30
0.0
 11
32.0
 21
7.700000000000102
 31
0.0
  0
ENDBLK
  5
479F
330
479D
100
AcDbEntity
  8
0
100
AcDbBlockEnd
  0
BLOCK
  5
495A
330
4959
100
AcDbEntity
  8
0
100
AcDbBlockBegin
  2
*D11
 70
     1
 10
0.0
 20
0.0
 30
0.0
  3
*D11
  1

  0
LINE
  5
60BE
330
4959
100
AcDbEntity
  8
AM_5 寸法線
 62
     3
100
AcDbLine
 10
299.4736229587325
 20
476.5002962031968
 30
0.0
 11
254.5384818728098
 21
476.5002962031968
 31
0.0
  0
LINE
  5
60BF
330
4959
100
AcDbEntity
  8
AM_5 寸法線
 62
     3
100
AcDbLine
 10
299.4736229587325
 20
361.5002962031969
 30
0.0
 11
254.5384818728097
 21
361.5002962031969
 31
0.0
  0
LINE
  5
60C0
330
4959
100
AcDbEntity
  8
AM_5 寸法線
 62
     3
100
AcDbLine
 10
255.7884818728097
 20
471.5002962031968
 30
0.0
 11
255.7884818728097
 21
366.5002962031969
 31
0.0
  0
INSERT
  5
60C1
330
4959
100
AcDbEntity
  8
AM_5 寸法線
 62
     3
100
AcDbBlockReference
  2
_Open30
 10
255.7884818728097
 20
476.5002962031968
 30
0.0
 41
5.0
 42
5.0
 43
5.0
 50
90.0
  0
INSERT
  5
60C2
330
4959
100
AcDbEntity
  8
AM_5 寸法線
 62
     3
100
AcDbBlockReference
  2
_Open30
 10
255.7884818728097
 20
361.5002962031969
 30
0.0
 41
5.0
 42
5.0
 43
5.0
 50
270.0
  0
MTEXT
  5
60C3
330
4959
100
AcDbEntity
  8
AM_5 寸法線
 62
     3
100
AcDbMText
 10
249.2884818728096
 20
419.0002962031968
 30
0.0
 40
7.0
 41
0.0
 46
0.0
 71
     5
 72
     1
  1
%%c115
  7
SEISA
 11
0.0000000000000001
 21
1.0
 31
0.0
 73
     1
 44
1.0
  0
POINT
  5
60C4
330
4959
100
AcDbEntity
  8
Defpoints
 62
     0
100
AcDbPoint
 10
300.7236229587324
 20
476.5002962031968
 30
0.0
  0
POINT
  5
60C5
330
4959
100
AcDbEntity
  8
Defpoints
 62
     0
100
AcDbPoint
 10
300.7236229587324
 20
361.5002962031969
 30
0.0
  0
POINT
  5
60C6
330
4959
100
AcDbEntity
  8
Defpoints
 62
     0
100
AcDbPoint
 10
255.7884818728097
 20
361.5002962031969
 30
0.0
  0
ENDBLK
  5
495B
330
4959
100
AcDbEntity
  8
0
100
AcDbBlockEnd
  0
BLOCK
  5
4992
330
4991
100
AcDbEntity
  8
0
100
AcDbBlockBegin
  2
*D12
 70
     1
 10
0.0
 20
0.0
 30
0.0
  3
*D12
  1

  0
LINE
  5
60C7
330
4991
100
AcDbEntity
  8
AM_5 寸法線
 62
     3
100
AcDbLine
 10
296.9273228728097
 20
420.2502962031968
 30
0.0
 11
296.9273228728097
 21
430.4737670874017
 31
0.0
  0
LINE
  5
60C8
330
4991
100
AcDbEntity
  8
AM_5 寸法線
 62
     3
100
AcDbLine
 10
386.9273228728097
 20
420.2502962031968
 30
0.0
 11
386.9273228728097
 21
430.4737670874017
 31
0.0
  0
LINE
  5
60C9
330
4991
100
AcDbEntity
  8
AM_5 寸法線
 62
     3
100
AcDbLine
 10
301.9273228728097
 20
429.2237670874016
 30
0.0
 11
381.9273228728097
 21
429.2237670874016
 31
0.0
  0
INSERT
  5
60CA
330
4991
100
AcDbEntity
  8
AM_5 寸法線
 62
     3
100
AcDbBlockReference
  2
_Open30
 10
296.9273228728097
 20
429.2237670874016
 30
0.0
 41
5.0
 42
5.0
 43
5.0
 50
180.0
  0
INSERT
  5
60CB
330
4991
100
AcDbEntity
  8
AM_5 寸法線
 62
     3
100
AcDbBlockReference
  2
_Open30
 10
386.9273228728097
 20
429.2237670874016
 30
0.0
 41
5.0
 42
5.0
 43
5.0
  0
MTEXT
  5
60CC
330
4991
100
AcDbEntity
  8
AM_5 寸法線
 62
     3
100
AcDbMText
 10
341.9273228728097
 20
435.7237670874016
 30
0.0
 40
7.0
 41
0.0
 46
0.0
 71
     5
 72
     1
  1
90
  7
SEISA
 73
     1
 44
1.0
  0
POINT
  5
60CD
330
4991
100
AcDbEntity
  8
Defpoints
 62
     0
100
AcDbPoint
 10
296.9273228728097
 20
419.0002962031968
 30
0.0
  0
POINT
  5
60CE
330
4991
100
AcDbEntity
  8
Defpoints
 62
     0
100
AcDbPoint
 10
386.9273228728097
 20
419.0002962031968
 30
0.0
  0
POINT
  5
60CF
330
4991
100
AcDbEntity
  8
Defpoints
 62
     0
100
AcDbPoint
 10
386.9273228728097
 20
429.2237670874016
 30
0.0
  0
ENDBLK
  5
4993
330
4991
100
AcDbEntity
  8
0
100
AcDbBlockEnd
  0
BLOCK
  5
49AA
330
49A9
100
AcDbEntity
  8
0
100
AcDbBlockBegin
  2
*D13
 70
     1
 10
0.0
 20
0.0
 30
0.0
  3
*D13
  1

  0
LINE
  5
6695
330
49A9
100
AcDbEntity
  8
AM_5 寸法線
 62
     3
100
AcDbLine
 10
386.9273228728097
 20
420.2502962031968
 30
0.0
 11
386.9273228728097
 21
430.4737670874017
 31
0.0
  0
LINE
  5
6696
330
49A9
100
AcDbEntity
  8
AM_5 寸法線
 62
     3
100
AcDbLine
 10
396.9273228728097
 20
420.2502962031968
 30
0.0
 11
396.9273228728097
 21
430.4737670874017
 31
0.0
  0
LINE
  5
6697
330
49A9
100
AcDbEntity
  8
AM_5 寸法線
 62
     3
100
AcDbLine
 10
381.9273228728097
 20
429.2237670874016
 30
0.0
 11
376.9273228728097
 21
429.2237670874016
 31
0.0
  0
LINE
  5
6698
330
49A9
100
AcDbEntity
  8
AM_5 寸法線
 62
     3
100
AcDbLine
 10
401.9273228728097
 20
429.2237670874016
 30
0.0
 11
406.9273228728096
 21
429.2237670874016
 31
0.0
  0
MTEXT
  5
6699
330
49A9
100
AcDbEntity
  8
AM_5 寸法線
 62
     3
100
AcDbMText
 10
407.2169723437491
 20
435.47546955966
 30
0.0
 40
7.0
 41
0.0
 46
0.0
 71
     5
 72
     1
  1
10
  7
SEISA
 73
     1
 44
1.0
  0
LINE
  5
669A
330
49A9
100
AcDbEntity
  8
AM_5 寸法線
 62
     3
100
AcDbLine
 10
386.9273228728097
 20
429.2237670874016
 30
0.0
 11
396.9273228728097
 21
429.2237670874016
 31
0.0
  0
INSERT
  5
669B
330
49A9
100
AcDbEntity
  8
AM_5 寸法線
 62
     3
100
AcDbBlockReference
  2
_Open30
 10
386.9273228728097
 20
429.2237670874016
 30
0.0
 41
5.0
 42
5.0
 43
5.0
  0
INSERT
  5
669C
330
49A9
100
AcDbEntity
  8
AM_5 寸法線
 62
     3
100
AcDbBlockReference
  2
_Open30
 10
396.9273228728097
 20
429.2237670874016
 30
0.0
 41
5.0
 42
5.0
 43
5.0
 50
180.0
  0
POINT
  5
669D
330
49A9
100
AcDbEntity
  8
Defpoints
 62
     0
100
AcDbPoint
 10
386.9273228728097
 20
419.0002962031968
 30
0.0
  0
POINT
  5
669E
330
49A9
100
AcDbEntity
  8
Defpoints
 62
     0
100
AcDbPoint
 10
396.9273228728097
 20
419.0002962031968
 30
0.0
  0
POINT
  5
669F
330
49A9
100
AcDbEntity
  8
Defpoints
 62
     0
100
AcDbPoint
 10
396.9273228728097
 20
429.2237670874016
 30
0.0
  0
ENDBLK
  5
49AB
330
49A9
100
AcDbEntity
  8
0
100
AcDbBlockEnd
  0
BLOCK
  5
49C6
330
49C5
100
AcDbEntity
  8
0
100
AcDbBlockBegin
  2
*D14
 70
     1
 10
0.0
 20
0.0
 30
0.0
  3
*D14
  1

  0
LINE
  5
60DB
330
49C5
100
AcDbEntity
  8
AM_5 寸法線
 62
     3
100
AcDbLine
 10
396.9273228728097
 20
420.2502962031968
 30
0.0
 11
396.9273228728097
 21
430.4737670874017
 31
0.0
  0
LINE
  5
60DC
330
49C5
100
AcDbEntity
  8
AM_5 寸法線
 62
     3
100
AcDbLine
 10
486.9273228728096
 20
420.2502962031968
 30
0.0
 11
486.9273228728096
 21
430.4737670874017
 31
0.0
  0
LINE
  5
60DD
330
49C5
100
AcDbEntity
  8
AM_5 寸法線
 62
     3
100
AcDbLine
 10
401.9273228728097
 20
429.2237670874016
 30
0.0
 11
481.9273228728096
 21
429.2237670874016
 31
0.0
  0
INSERT
  5
60DE
330
49C5
100
AcDbEntity
  8
AM_5 寸法線
 62
     3
100
AcDbBlockReference
  2
_Open30
 10
396.9273228728097
 20
429.2237670874016
 30
0.0
 41
5.0
 42
5.0
 43
5.0
 50
180.0
  0
INSERT
  5
60DF
330
49C5
100
AcDbEntity
  8
AM_5 寸法線
 62
     3
100
AcDbBlockReference
  2
_Open30
 10
486.9273228728096
 20
429.2237670874016
 30
0.0
 41
5.0
 42
5.0
 43
5.0
  0
MTEXT
  5
60E0
330
49C5
100
AcDbEntity
  8
AM_5 寸法線
 62
     3
100
AcDbMText
 10
441.9273228728096
 20
435.7237670874016
 30
0.0
 40
7.0
 41
0.0
 46
0.0
 71
     5
 72
     1
  1
90
  7
SEISA
 73
     1
 44
1.0
  0
POINT
  5
60E1
330
49C5
100
AcDbEntity
  8
Defpoints
 62
     0
100
AcDbPoint
 10
396.9273228728097
 20
419.0002962031968
 30
0.0
  0
POINT
  5
60E2
330
49C5
100
AcDbEntity
  8
Defpoints
 62
     0
100
AcDbPoint
 10
486.9273228728096
 20
419.0002962031968
 30
0.0
  0
POINT
  5
60E3
330
49C5
100
AcDbEntity
  8
Defpoints
 62
     0
100
AcDbPoint
 10
486.9273228728096
 20
429.2237670874016
 30
0.0
  0
ENDBLK
  5
49C7
330
49C5
100
AcDbEntity
  8
0
100
AcDbBlockEnd
  0
BLOCK
  5
4A10
330
4A0F
100
AcDbEntity
  8
0
100
AcDbBlockBegin
  2
*D15
 70
     1
 10
0.0
 20
0.0
 30
0.0
  3
*D15
  1

  0
LINE
  5
60E4
330
4A0F
100
AcDbEntity
  8
AM_5 寸法線
 62
     3
100
AcDbLine
 10
431.9273228728096
 20
470.7502962031968
 30
0.0
 11
431.9273228728096
 21
456.1665803849292
 31
0.0
  0
LINE
  5
60E5
330
4A0F
100
AcDbEntity
  8
AM_5 寸法線
 62
     3
100
AcDbLine
 10
434.9273228728097
 20
470.2502962031968
 30
0.0
 11
434.9273228728097
 21
456.1665803849292
 31
0.0
  0
LINE
  5
60E6
330
4A0F
100
AcDbEntity
  8
AM_5 寸法線
 62
     3
100
AcDbLine
 10
426.9273228728097
 20
457.4165803849292
 30
0.0
 11
421.9273228728097
 21
457.4165803849292
 31
0.0
  0
LINE
  5
60E7
330
4A0F
100
AcDbEntity
  8
AM_5 寸法線
 62
     3
100
AcDbLine
 10
439.9273228728096
 20
457.4165803849292
 30
0.0
 11
455.1273228728097
 21
457.4165803849292
 31
0.0
  0
LINE
  5
60E8
330
4A0F
100
AcDbEntity
  8
AM_5 寸法線
 62
     3
100
AcDbLine
 10
431.9273228728096
 20
457.4165803849292
 30
0.0
 11
434.9273228728097
 21
457.4165803849292
 31
0.0
  0
INSERT
  5
60E9
330
4A0F
100
AcDbEntity
  8
AM_5 寸法線
 62
     3
100
AcDbBlockReference
  2
_Open30
 10
431.9273228728096
 20
457.4165803849292
 30
0.0
 41
5.0
 42
5.0
 43
5.0
  0
INSERT
  5
60EA
330
4A0F
100
AcDbEntity
  8
AM_5 寸法線
 62
     3
100
AcDbBlockReference
  2
_Open30
 10
434.9273228728097
 20
457.4165803849292
 30
0.0
 41
5.0
 42
5.0
 43
5.0
 50
180.0
  0
MTEXT
  5
60EB
330
4A0F
100
AcDbEntity
  8
AM_5 寸法線
 62
     3
100
AcDbMText
 10
450.0273228728096
 20
463.9165803849294
 30
0.0
 40
7.0
 41
0.0
 46
0.0
 71
     5
 72
     1
  1
3
  7
SEISA
 73
     1
 44
1.0
  0
POINT
  5
60EC
102
{ACAD_REACTORS
330
65F6
102
}
330
4A0F
100
AcDbEntity
  8
Defpoints
 62
     0
100
AcDbPoint
 10
431.9273228728096
 20
472.0002962031967
 30
0.0
  0
POINT
  5
60ED
330
4A0F
100
AcDbEntity
  8
Defpoints
 62
     0
100
AcDbPoint
 10
434.9273228728097
 20
471.5002962031968
 30
0.0
  0
POINT
  5
60EE
330
4A0F
100
AcDbEntity
  8
Defpoints
 62
     0
100
AcDbPoint
 10
434.9273228728097
 20
457.4165803849292
 30
0.0
  0
ENDBLK
  5
4A11
330
4A0F
100
AcDbEntity
  8
0
100
AcDbBlockEnd
  0
BLOCK
  5
4AB7
330
4AB6
100
AcDbEntity
  8
0
100
AcDbBlockBegin
  2
*D16
 70
     1
 10
0.0
 20
0.0
 30
0.0
  3
*D16
  1

  0
LINE
  5
60F6
330
4AB6
100
AcDbEntity
  8
AM_5 寸法線
 62
     3
100
AcDbLine
 10
458.1773228728097
 20
471.5002962031968
 30
0.0
 11
528.1773228728098
 21
471.5002962031968
 31
0.0
  0
LINE
  5
60F7
330
4AB6
100
AcDbEntity
  8
AM_5 寸法線
 62
     3
100
AcDbLine
 10
458.1773228728097
 20
366.5002962031969
 30
0.0
 11
528.1773228728098
 21
366.5002962031969
 31
0.0
  0
LINE
  5
60F8
330
4AB6
100
AcDbEntity
  8
AM_5 寸法線
 62
     3
100
AcDbLine
 10
526.9273228728097
 20
466.5002962031969
 30
0.0
 11
526.9273228728097
 21
371.5002962031968
 31
0.0
  0
INSERT
  5
60F9
330
4AB6
100
AcDbEntity
  8
AM_5 寸法線
 62
     3
100
AcDbBlockReference
  2
_Open30
 10
526.9273228728097
 20
471.5002962031968
 30
0.0
 41
5.0
 42
5.0
 43
5.0
 50
90.0
  0
INSERT
  5
60FA
330
4AB6
100
AcDbEntity
  8
AM_5 寸法線
 62
     3
100
AcDbBlockReference
  2
_Open30
 10
526.9273228728097
 20
366.5002962031969
 30
0.0
 41
5.0
 42
5.0
 43
5.0
 50
270.0
  0
MTEXT
  5
60FB
330
4AB6
100
AcDbEntity
  8
AM_5 寸法線
 62
     3
100
AcDbMText
 10
520.4273228728095
 20
419.0002962031968
 30
0.0
 40
7.0
 41
0.0
 46
0.0
 71
     5
 72
     1
  1
%%c105
  7
SEISA
 11
0.0000000000000001
 21
1.0
 31
0.0
 73
     1
 44
1.0
  0
POINT
  5
60FC
330
4AB6
100
AcDbEntity
  8
Defpoints
 62
     0
100
AcDbPoint
 10
456.9273228728096
 20
471.5002962031968
 30
0.0
  0
POINT
  5
60FD
330
4AB6
100
AcDbEntity
  8
Defpoints
 62
     0
100
AcDbPoint
 10
456.9273228728096
 20
366.5002962031969
 30
0.0
  0
POINT
  5
60FE
330
4AB6
100
AcDbEntity
  8
Defpoints
 62
     0
100
AcDbPoint
 10
526.9273228728097
 20
366.5002962031969
 30
0.0
  0
ENDBLK
  5
4AB8
330
4AB6
100
AcDbEntity
  8
0
100
AcDbBlockEnd
  0
BLOCK
  5
4AE1
330
4AE0
100
AcDbEntity
  8
0
100
AcDbBlockBegin
  2
*D17
 70
     1
 10
0.0
 20
0.0
 30
0.0
  3
*D17
  1

  0
LINE
  5
60FF
330
4AE0
100
AcDbEntity
  8
AM_5 寸法線
 62
     3
100
AcDbLine
 10
446.1773228728096
 20
486.0002962031968
 30
0.0
 11
548.1773228728099
 21
486.0002962031968
 31
0.0
  0
LINE
  5
6100
330
4AE0
100
AcDbEntity
  8
AM_5 寸法線
 62
     3
100
AcDbLine
 10
446.1773228728096
 20
352.0002962031969
 30
0.0
 11
548.1773228728099
 21
352.0002962031969
 31
0.0
  0
LINE
  5
6101
330
4AE0
100
AcDbEntity
  8
AM_5 寸法線
 62
     3
100
AcDbLine
 10
546.9273228728098
 20
481.0002962031968
 30
0.0
 11
546.9273228728098
 21
357.0002962031968
 31
0.0
  0
INSERT
  5
6102
330
4AE0
100
AcDbEntity
  8
AM_5 寸法線
 62
     3
100
AcDbBlockReference
  2
_Open30
 10
546.9273228728098
 20
486.0002962031968
 30
0.0
 41
5.0
 42
5.0
 43
5.0
 50
90.0
  0
INSERT
  5
6103
330
4AE0
100
AcDbEntity
  8
AM_5 寸法線
 62
     3
100
AcDbBlockReference
  2
_Open30
 10
546.9273228728098
 20
352.0002962031969
 30
0.0
 41
5.0
 42
5.0
 43
5.0
 50
270.0
  0
MTEXT
  5
6104
330
4AE0
100
AcDbEntity
  8
AM_5 寸法線
 62
     3
100
AcDbMText
 10
540.4273228728096
 20
419.0002962031968
 30
0.0
 40
7.0
 41
0.0
 46
0.0
 71
     5
 72
     1
  1
%%c134
  7
SEISA
 11
0.0000000000000001
 21
1.0
 31
0.0
 73
     1
 44
1.0
  0
POINT
  5
6105
330
4AE0
100
AcDbEntity
  8
Defpoints
 62
     0
100
AcDbPoint
 10
444.9273228728096
 20
486.0002962031968
 30
0.0
  0
POINT
  5
6106
330
4AE0
100
AcDbEntity
  8
Defpoints
 62
     0
100
AcDbPoint
 10
444.9273228728096
 20
352.0002962031969
 30
0.0
  0
POINT
  5
6107
330
4AE0
100
AcDbEntity
  8
Defpoints
 62
     0
100
AcDbPoint
 10
546.9273228728098
 20
352.0002962031969
 30
0.0
  0
ENDBLK
  5
4AE2
330
4AE0
100
AcDbEntity
  8
0
100
AcDbBlockEnd
  0
BLOCK
  5
4AF9
330
4AF8
100
AcDbEntity
  8
0
100
AcDbBlockBegin
  2
*D18
 70
     1
 10
0.0
 20
0.0
 30
0.0
  3
*D18
  1

  0
LINE
  5
6108
330
4AF8
100
AcDbEntity
  8
AM_5 寸法線
 62
     3
100
AcDbLine
 10
407.6773228728097
 20
509.0002962031968
 30
0.0
 11
568.17732287281
 21
509.0002962031968
 31
0.0
  0
LINE
  5
6109
330
4AF8
100
AcDbEntity
  8
AM_5 寸法線
 62
     3
100
AcDbLine
 10
407.6773228728097
 20
329.000296203197
 30
0.0
 11
568.17732287281
 21
329.000296203197
 31
0.0
  0
LINE
  5
610A
330
4AF8
100
AcDbEntity
  8
AM_5 寸法線
 62
     3
100
AcDbLine
 10
566.92732287281
 20
504.0002962031969
 30
0.0
 11
566.92732287281
 21
334.000296203197
 31
0.0
  0
INSERT
  5
610B
330
4AF8
100
AcDbEntity
  8
AM_5 寸法線
 62
     3
100
AcDbBlockReference
  2
_Open30
 10
566.92732287281
 20
509.0002962031968
 30
0.0
 41
5.0
 42
5.0
 43
5.0
 50
90.0
  0
INSERT
  5
610C
330
4AF8
100
AcDbEntity
  8
AM_5 寸法線
 62
     3
100
AcDbBlockReference
  2
_Open30
 10
566.92732287281
 20
329.000296203197
 30
0.0
 41
5.0
 42
5.0
 43
5.0
 50
270.0
  0
MTEXT
  5
610D
330
4AF8
100
AcDbEntity
  8
AM_5 寸法線
 62
     3
100
AcDbMText
 10
560.4273228728097
 20
419.000296203197
 30
0.0
 40
7.0
 41
0.0
 46
0.0
 71
     5
 72
     1
  1
%%c180
  7
SEISA
 11
0.0000000000000001
 21
1.0
 31
0.0
 73
     1
 44
1.0
  0
POINT
  5
610E
330
4AF8
100
AcDbEntity
  8
Defpoints
 62
     0
100
AcDbPoint
 10
406.4273228728096
 20
509.0002962031968
 30
0.0
  0
POINT
  5
610F
330
4AF8
100
AcDbEntity
  8
Defpoints
 62
     0
100
AcDbPoint
 10
406.4273228728096
 20
329.000296203197
 30
0.0
  0
POINT
  5
6110
330
4AF8
100
AcDbEntity
  8
Defpoints
 62
     0
100
AcDbPoint
 10
566.92732287281
 20
329.000296203197
 30
0.0
  0
ENDBLK
  5
4AFA
330
4AF8
100
AcDbEntity
  8
0
100
AcDbBlockEnd
  0
BLOCK
  5
4B79
330
4B78
100
AcDbEntity
  8
0
100
AcDbBlockBegin
  2
*D19
 70
     1
 10
0.0
 20
0.0
 30
0.0
  3
*D19
  1

  0
LINE
  5
6111
330
4B78
100
AcDbEntity
  8
AM_5 寸法線
 62
     3
100
AcDbLine
 10
391.9273228728097
 20
328.250296203197
 30
0.0
 11
391.9273228728097
 21
297.7502962031969
 31
0.0
  0
LINE
  5
6112
330
4B78
100
AcDbEntity
  8
AM_5 寸法線
 62
     3
100
AcDbLine
 10
376.9273228728097
 20
328.250296203197
 30
0.0
 11
376.9273228728097
 21
297.7502962031969
 31
0.0
  0
LINE
  5
6113
330
4B78
100
AcDbEntity
  8
AM_5 寸法線
 62
     3
100
AcDbLine
 10
396.9273228728097
 20
299.000296203197
 30
0.0
 11
401.9273228728097
 21
299.000296203197
 31
0.0
  0
LINE
  5
6114
330
4B78
100
AcDbEntity
  8
AM_5 寸法線
 62
     3
100
AcDbLine
 10
371.9273228728097
 20
299.000296203197
 30
0.0
 11
366.9273228728097
 21
299.000296203197
 31
0.0
  0
MTEXT
  5
6115
330
4B78
100
AcDbEntity
  8
AM_5 寸法線
 62
     3
100
AcDbMText
 10
369.6718817143437
 20
305.5494615094005
 30
0.0
 40
7.0
 41
0.0
 46
0.0
 71
     5
 72
     1
  1
15
  7
SEISA
 73
     1
 44
1.0
  0
LINE
  5
6116
330
4B78
100
AcDbEntity
  8
AM_5 寸法線
 62
     3
100
AcDbLine
 10
391.9273228728097
 20
299.000296203197
 30
0.0
 11
376.9273228728097
 21
299.000296203197
 31
0.0
  0
INSERT
  5
6117
330
4B78
100
AcDbEntity
  8
AM_5 寸法線
 62
     3
100
AcDbBlockReference
  2
GENDOT
 10
391.9273228728097
 20
299.000296203197
 30
0.0
 41
5.0
 42
5.0
 43
5.0
 50
180.0
  0
INSERT
  5
6118
330
4B78
100
AcDbEntity
  8
AM_5 寸法線
 62
     3
100
AcDbBlockReference
  2
_Open30
 10
376.9273228728097
 20
299.000296203197
 30
0.0
 41
5.0
 42
5.0
 43
5.0
  0
POINT
  5
6119
330
4B78
100
AcDbEntity
  8
Defpoints
 62
     0
100
AcDbPoint
 10
391.9273228728097
 20
329.500296203197
 30
0.0
  0
POINT
  5
611A
330
4B78
100
AcDbEntity
  8
Defpoints
 62
     0
100
AcDbPoint
 10
376.9273228728097
 20
329.500296203197
 30
0.0
  0
POINT
  5
611B
330
4B78
100
AcDbEntity
  8
Defpoints
 62
     0
100
AcDbPoint
 10
376.9273228728097
 20
299.000296203197
 30
0.0
  0
ENDBLK
  5
4B7A
330
4B78
100
AcDbEntity
  8
0
100
AcDbBlockEnd
  0
BLOCK
  5
4B95
330
4B94
100
AcDbEntity
  8
0
100
AcDbBlockBegin
  2
*D20
 70
     1
 10
0.0
 20
0.0
 30
0.0
  3
*D20
  1

  0
LINE
  5
611C
330
4B94
100
AcDbEntity
  8
AM_5 寸法線
 62
     3
100
AcDbLine
 10
391.9273228728097
 20
328.250296203197
 30
0.0
 11
391.9273228728097
 21
297.7502962031969
 31
0.0
  0
LINE
  5
611D
330
4B94
100
AcDbEntity
  8
AM_5 寸法線
 62
     3
100
AcDbLine
 10
406.9273228728096
 20
328.250296203197
 30
0.0
 11
406.9273228728096
 21
297.7502962031969
 31
0.0
  0
LINE
  5
611E
330
4B94
100
AcDbEntity
  8
AM_5 寸法線
 62
     3
100
AcDbLine
 10
386.9273228728097
 20
299.000296203197
 30
0.0
 11
381.9273228728097
 21
299.000296203197
 31
0.0
  0
LINE
  5
611F
330
4B94
100
AcDbEntity
  8
AM_5 寸法線
 62
     3
100
AcDbLine
 10
411.9273228728096
 20
299.000296203197
 30
0.0
 11
416.9273228728096
 21
299.000296203197
 31
0.0
  0
MTEXT
  5
6120
330
4B94
100
AcDbEntity
  8
AM_5 寸法線
 62
     3
100
AcDbMText
 10
415.0369081554408
 20
305.5467341762148
 30
0.0
 40
7.0
 41
0.0
 46
0.0
 71
     5
 72
     1
  1
15
  7
SEISA
 73
     1
 44
1.0
  0
LINE
  5
6121
330
4B94
100
AcDbEntity
  8
AM_5 寸法線
 62
     3
100
AcDbLine
 10
391.9273228728097
 20
299.000296203197
 30
0.0
 11
406.9273228728096
 21
299.000296203197
 31
0.0
  0
INSERT
  5
6122
330
4B94
100
AcDbEntity
  8
AM_5 寸法線
 62
     3
100
AcDbBlockReference
  2
GENDOT
 10
391.9273228728097
 20
299.000296203197
 30
0.0
 41
5.0
 42
5.0
 43
5.0
  0
INSERT
  5
6123
330
4B94
100
AcDbEntity
  8
AM_5 寸法線
 62
     3
100
AcDbBlockReference
  2
_Open30
 10
406.9273228728096
 20
299.000296203197
 30
0.0
 41
5.0
 42
5.0
 43
5.0
 50
180.0
  0
POINT
  5
6124
330
4B94
100
AcDbEntity
  8
Defpoints
 62
     0
100
AcDbPoint
 10
391.9273228728097
 20
329.500296203197
 30
0.0
  0
POINT
  5
6125
330
4B94
100
AcDbEntity
  8
Defpoints
 62
     0
100
AcDbPoint
 10
406.9273228728096
 20
329.500296203197
 30
0.0
  0
POINT
  5
6126
330
4B94
100
AcDbEntity
  8
Defpoints
 62
     0
100
AcDbPoint
 10
406.9273228728096
 20
299.000296203197
 30
0.0
  0
ENDBLK
  5
4B96
330
4B94
100
AcDbEntity
  8
0
100
AcDbBlockEnd
  0
BLOCK
  5
4BDF
330
4BDE
100
AcDbEntity
  8
0
100
AcDbBlockBegin
  2
*D21
 70
     1
 10
0.0
 20
0.0
 30
0.0
  3
*D21
  1

  0
LINE
  5
667E
330
4BDE
100
AcDbEntity
  8
AM_5 寸法線
 62
     3
100
AcDbLine
 10
486.9273228728096
 20
469.1502962031968
 30
0.0
 11
486.9273228728096
 21
516.2225890344533
 31
0.0
  0
LINE
  5
667F
330
4BDE
100
AcDbEntity
  8
AM_5 寸法線
 62
     3
100
AcDbLine
 10
491.9273228728096
 20
484.2502962031968
 30
0.0
 11
491.9273228728096
 21
516.2225890344533
 31
0.0
  0
LINE
  5
6680
330
4BDE
100
AcDbEntity
  8
AM_5 寸法線
 62
     3
100
AcDbLine
 10
481.9273228728096
 20
514.9725890344533
 30
0.0
 11
476.9273228728097
 21
514.9725890344533
 31
0.0
  0
LINE
  5
6681
330
4BDE
100
AcDbEntity
  8
AM_5 寸法線
 62
     3
100
AcDbLine
 10
496.9273228728097
 20
514.9725890344533
 30
0.0
 11
501.9273228728097
 21
514.9725890344533
 31
0.0
  0
MTEXT
  5
6682
330
4BDE
100
AcDbEntity
  8
AM_5 寸法線
 62
     3
100
AcDbMText
 10
489.4273228728097
 20
524.2225890344533
 30
0.0
 40
7.0
 41
0.0
 46
0.0
 71
     5
 72
     1
  1
5
  7
SEISA
 73
     1
 44
1.0
  0
LINE
  5
6683
330
4BDE
100
AcDbEntity
  8
AM_5 寸法線
 62
     3
100
AcDbLine
 10
486.9273228728096
 20
514.9725890344533
 30
0.0
 11
491.9273228728096
 21
514.9725890344533
 31
0.0
  0
INSERT
  5
6684
330
4BDE
100
AcDbEntity
  8
AM_5 寸法線
 62
     3
100
AcDbBlockReference
  2
_Open30
 10
486.9273228728096
 20
514.9725890344533
 30
0.0
 41
5.0
 42
5.0
 43
5.0
  0
INSERT
  5
6685
330
4BDE
100
AcDbEntity
  8
AM_5 寸法線
 62
     3
100
AcDbBlockReference
  2
_Open30
 10
491.9273228728096
 20
514.9725890344533
 30
0.0
 41
5.0
 42
5.0
 43
5.0
 50
180.0
  0
POINT
  5
6686
330
4BDE
100
AcDbEntity
  8
Defpoints
 62
     0
100
AcDbPoint
 10
486.9273228728096
 20
467.9002962031969
 30
0.0
  0
POINT
  5
6687
330
4BDE
100
AcDbEntity
  8
Defpoints
 62
     0
100
AcDbPoint
 10
491.9273228728096
 20
483.0002962031968
 30
0.0
  0
POINT
  5
6688
330
4BDE
100
AcDbEntity
  8
Defpoints
 62
     0
100
AcDbPoint
 10
491.9273228728096
 20
514.9725890344533
 30
0.0
  0
ENDBLK
  5
4BE0
330
4BDE
100
AcDbEntity
  8
0
100
AcDbBlockEnd
  0
BLOCK
  5
4C88
330
4C87
100
AcDbEntity
  8
0
100
AcDbBlockBegin
  2
*D22
 70
     1
 10
0.0
 20
0.0
 30
0.0
  3
*D22
  1

  0
LINE
  5
613D
330
4C87
100
AcDbEntity
  8
AM_5 寸法線
 62
     3
100
AcDbLine
 10
296.9273228728097
 20
363.2502962031968
 30
0.0
 11
296.9273228728097
 21
277.750296203197
 31
0.0
  0
LINE
  5
613E
330
4C87
100
AcDbEntity
  8
AM_5 寸法線
 62
     3
100
AcDbLine
 10
391.9273228728097
 20
328.4374960956959
 30
0.0
 11
391.9273228728097
 21
277.750296203197
 31
0.0
  0
LINE
  5
613F
330
4C87
100
AcDbEntity
  8
AM_5 寸法線
 62
     3
100
AcDbLine
 10
301.9273228728097
 20
279.0002962031969
 30
0.0
 11
386.9273228728097
 21
279.0002962031969
 31
0.0
  0
INSERT
  5
6140
330
4C87
100
AcDbEntity
  8
AM_5 寸法線
 62
     3
100
AcDbBlockReference
  2
_Open30
 10
296.9273228728097
 20
279.0002962031969
 30
0.0
 41
5.0
 42
5.0
 43
5.0
 50
180.0
  0
INSERT
  5
6141
330
4C87
100
AcDbEntity
  8
AM_5 寸法線
 62
     3
100
AcDbBlockReference
  2
_Open30
 10
391.9273228728097
 20
279.0002962031969
 30
0.0
 41
5.0
 42
5.0
 43
5.0
  0
MTEXT
  5
6142
330
4C87
100
AcDbEntity
  8
AM_5 寸法線
 62
     3
100
AcDbMText
 10
344.4273228728097
 20
285.500296203197
 30
0.0
 40
7.0
 41
0.0
 46
0.0
 71
     5
 72
     1
  1
95
  7
SEISA
 73
     1
 44
1.0
  0
POINT
  5
6143
330
4C87
100
AcDbEntity
  8
Defpoints
 62
     0
100
AcDbPoint
 10
296.9273228728097
 20
364.5002962031969
 30
0.0
  0
POINT
  5
6144
330
4C87
100
AcDbEntity
  8
Defpoints
 62
     0
100
AcDbPoint
 10
391.9273228728097
 20
329.6874960956959
 30
0.0
  0
POINT
  5
6145
330
4C87
100
AcDbEntity
  8
Defpoints
 62
     0
100
AcDbPoint
 10
391.9273228728097
 20
279.0002962031969
 30
0.0
  0
ENDBLK
  5
4C89
330
4C87
100
AcDbEntity
  8
0
100
AcDbBlockEnd
  0
BLOCK
  5
4CA0
330
4C9F
100
AcDbEntity
  8
0
100
AcDbBlockBegin
  2
*D23
 70
     1
 10
0.0
 20
0.0
 30
0.0
  3
*D23
  1

  0
LINE
  5
6146
330
4C9F
100
AcDbEntity
  8
AM_5 寸法線
 62
     3
100
AcDbLine
 10
391.9273228728097
 20
328.250296203197
 30
0.0
 11
391.9273228728097
 21
277.750296203197
 31
0.0
  0
LINE
  5
6147
330
4C9F
100
AcDbEntity
  8
AM_5 寸法線
 62
     3
100
AcDbLine
 10
447.9273228728096
 20
353.7502962031969
 30
0.0
 11
447.9273228728096
 21
277.750296203197
 31
0.0
  0
LINE
  5
6148
330
4C9F
100
AcDbEntity
  8
AM_5 寸法線
 62
     3
100
AcDbLine
 10
396.9273228728097
 20
279.0002962031969
 30
0.0
 11
442.9273228728097
 21
279.0002962031969
 31
0.0
  0
INSERT
  5
6149
330
4C9F
100
AcDbEntity
  8
AM_5 寸法線
 62
     3
100
AcDbBlockReference
  2
_Open30
 10
391.9273228728097
 20
279.0002962031969
 30
0.0
 41
5.0
 42
5.0
 43
5.0
 50
180.0
  0
INSERT
  5
614A
330
4C9F
100
AcDbEntity
  8
AM_5 寸法線
 62
     3
100
AcDbBlockReference
  2
_Open30
 10
447.9273228728096
 20
279.0002962031969
 30
0.0
 41
5.0
 42
5.0
 43
5.0
  0
MTEXT
  5
614B
330
4C9F
100
AcDbEntity
  8
AM_5 寸法線
 62
     3
100
AcDbMText
 10
419.9273228728096
 20
285.500296203197
 30
0.0
 40
7.0
 41
0.0
 46
0.0
 71
     5
 72
     1
  1
56
  7
SEISA
 73
     1
 44
1.0
  0
POINT
  5
614C
330
4C9F
100
AcDbEntity
  8
Defpoints
 62
     0
100
AcDbPoint
 10
391.9273228728097
 20
329.500296203197
 30
0.0
  0
POINT
  5
614D
330
4C9F
100
AcDbEntity
  8
Defpoints
 62
     0
100
AcDbPoint
 10
447.9273228728096
 20
355.0002962031968
 30
0.0
  0
POINT
  5
614E
330
4C9F
100
AcDbEntity
  8
Defpoints
 62
     0
100
AcDbPoint
 10
447.9273228728096
 20
279.0002962031969
 30
0.0
  0
ENDBLK
  5
4CA1
330
4C9F
100
AcDbEntity
  8
0
100
AcDbBlockEnd
  0
BLOCK
  5
4CB8
330
4CB7
100
AcDbEntity
  8
0
100
AcDbBlockBegin
  2
*D24
 70
     1
 10
0.0
 20
0.0
 30
0.0
  3
*D24
  1

  0
LINE
  5
614F
330
4CB7
100
AcDbEntity
  8
AM_5 寸法線
 62
     3
100
AcDbLine
 10
447.9273228728096
 20
353.7502962031969
 30
0.0
 11
447.9273228728096
 21
277.750296203197
 31
0.0
  0
LINE
  5
6150
330
4CB7
100
AcDbEntity
  8
AM_5 寸法線
 62
     3
100
AcDbLine
 10
486.9273228728096
 20
368.8502962031969
 30
0.0
 11
486.9273228728096
 21
277.750296203197
 31
0.0
  0
LINE
  5
6151
330
4CB7
100
AcDbEntity
  8
AM_5 寸法線
 62
     3
100
AcDbLine
 10
452.9273228728096
 20
279.0002962031969
 30
0.0
 11
481.9273228728096
 21
279.0002962031969
 31
0.0
  0
INSERT
  5
6152
330
4CB7
100
AcDbEntity
  8
AM_5 寸法線
 62
     3
100
AcDbBlockReference
  2
_Open30
 10
447.9273228728096
 20
279.0002962031969
 30
0.0
 41
5.0
 42
5.0
 43
5.0
 50
180.0
  0
INSERT
  5
6153
330
4CB7
100
AcDbEntity
  8
AM_5 寸法線
 62
     3
100
AcDbBlockReference
  2
_Open30
 10
486.9273228728096
 20
279.0002962031969
 30
0.0
 41
5.0
 42
5.0
 43
5.0
  0
MTEXT
  5
6154
330
4CB7
100
AcDbEntity
  8
AM_5 寸法線
 62
     3
100
AcDbMText
 10
467.4273228728096
 20
285.500296203197
 30
0.0
 40
7.0
 41
0.0
 46
0.0
 71
     5
 72
     1
  1
39
  7
SEISA
 73
     1
 44
1.0
  0
POINT
  5
6155
330
4CB7
100
AcDbEntity
  8
Defpoints
 62
     0
100
AcDbPoint
 10
447.9273228728096
 20
355.0002962031968
 30
0.0
  0
POINT
  5
6156
330
4CB7
100
AcDbEntity
  8
Defpoints
 62
     0
100
AcDbPoint
 10
486.9273228728096
 20
370.1002962031969
 30
0.0
  0
POINT
  5
6157
330
4CB7
100
AcDbEntity
  8
Defpoints
 62
     0
100
AcDbPoint
 10
486.9273228728096
 20
279.0002962031969
 30
0.0
  0
ENDBLK
  5
4CB9
330
4CB7
100
AcDbEntity
  8
0
100
AcDbBlockEnd
  0
BLOCK
  5
4CD0
330
4CCF
100
AcDbEntity
  8
0
100
AcDbBlockBegin
  2
*D25
 70
     1
 10
0.0
 20
0.0
 30
0.0
  3
*D25
  1

  0
LINE
  5
6158
330
4CCF
100
AcDbEntity
  8
AM_5 寸法線
 62
     3
100
AcDbLine
 10
296.9273228728097
 20
363.2502962031968
 30
0.0
 11
296.9273228728097
 21
257.750296203197
 31
0.0
  0
LINE
  5
6159
330
4CCF
100
AcDbEntity
  8
AM_5 寸法線
 62
     3
100
AcDbLine
 10
486.9273228728096
 20
370.1448015179224
 30
0.0
 11
486.9273228728096
 21
257.750296203197
 31
0.0
  0
LINE
  5
615A
330
4CCF
100
AcDbEntity
  8
AM_5 寸法線
 62
     3
100
AcDbLine
 10
301.9273228728097
 20
259.000296203197
 30
0.0
 11
481.9273228728096
 21
259.000296203197
 31
0.0
  0
INSERT
  5
615B
330
4CCF
100
AcDbEntity
  8
AM_5 寸法線
 62
     3
100
AcDbBlockReference
  2
_Open30
 10
296.9273228728097
 20
259.000296203197
 30
0.0
 41
5.0
 42
5.0
 43
5.0
 50
180.0
  0
INSERT
  5
615C
330
4CCF
100
AcDbEntity
  8
AM_5 寸法線
 62
     3
100
AcDbBlockReference
  2
_Open30
 10
486.9273228728096
 20
259.000296203197
 30
0.0
 41
5.0
 42
5.0
 43
5.0
  0
MTEXT
  5
615D
330
4CCF
100
AcDbEntity
  8
AM_5 寸法線
 62
     3
100
AcDbMText
 10
391.9273228728097
 20
265.500296203197
 30
0.0
 40
7.0
 41
0.0
 46
0.0
 71
     5
 72
     1
  1
190
  7
SEISA
 73
     1
 44
1.0
  0
POINT
  5
615E
330
4CCF
100
AcDbEntity
  8
Defpoints
 62
     0
100
AcDbPoint
 10
296.9273228728097
 20
364.5002962031969
 30
0.0
  0
POINT
  5
615F
330
4CCF
100
AcDbEntity
  8
Defpoints
 62
     0
100
AcDbPoint
 10
486.9273228728096
 20
371.3948015179223
 30
0.0
  0
POINT
  5
6160
330
4CCF
100
AcDbEntity
  8
Defpoints
 62
     0
100
AcDbPoint
 10
486.9273228728096
 20
259.000296203197
 30
0.0
  0
ENDBLK
  5
4CD1
330
4CCF
100
AcDbEntity
  8
0
100
AcDbBlockEnd
  0
BLOCK
  5
5A91
330
5A8E
100
AcDbEntity
  8
0
100
AcDbBlockBegin
  2
GENDOT
 70
     0
 10
0.0
 20
0.0
 30
0.0
  3
GENDOT
  1

  0
LINE
  5
5A8F
330
5A8E
100
AcDbEntity
  8
0
100
AcDbLine
 10
0.0
 20
0.0
 30
0.0
 11
-1.0
 21
0.0
 31
0.0
  0
LWPOLYLINE
  5
5A90
330
5A8E
100
AcDbEntity
  8
0
100
AcDbPolyline
 90
        2
 70
     1
 43
0.25
 10
-0.125
 20
0.0
 42
1.0
 10
0.125
 20
0.0
 42
1.0
  0
ENDBLK
  5
5A92
330
5A8E
100
AcDbEntity
  8
0
100
AcDbBlockEnd
  0
BLOCK
  5
65B8
330
65B7
100
AcDbEntity
  8
0
100
AcDbBlockBegin
  2
*D27
 70
     1
 10
0.0
 20
0.0
 30
0.0
  3
*D27
  1

  0
LINE
  5
6631
330
65B7
100
AcDbEntity
  8
AM_5 寸法線
 62
     3
100
AcDbLine
 10
396.9273228728097
 20
469.7502962031967
 30
0.0
 11
396.9273228728097
 21
456.1665803849292
 31
0.0
  0
LINE
  5
6632
330
65B7
100
AcDbEntity
  8
AM_5 寸法線
 62
     3
100
AcDbLine
 10
410.9273228728096
 20
470.7502962031968
 30
0.0
 11
410.9273228728096
 21
456.1665803849292
 31
0.0
  0
LINE
  5
6633
330
65B7
100
AcDbEntity
  8
AM_5 寸法線
 62
     3
100
AcDbLine
 10
391.9273228728097
 20
457.4165803849292
 30
0.0
 11
386.9273228728097
 21
457.4165803849292
 31
0.0
  0
LINE
  5
6634
330
65B7
100
AcDbEntity
  8
AM_5 寸法線
 62
     3
100
AcDbLine
 10
415.9273228728096
 20
457.4165803849292
 30
0.0
 11
420.9273228728096
 21
457.4165803849292
 31
0.0
  0
MTEXT
  5
6635
330
65B7
100
AcDbEntity
  8
AM_5 寸法線
 62
     3
100
AcDbMText
 10
403.6239616733218
 20
463.2570506341968
 30
0.0
 40
7.0
 41
0.0
 46
0.0
 71
     5
 72
     1
  1
14
  7
SEISA
 73
     1
 44
1.0
  0
LINE
  5
6636
330
65B7
100
AcDbEntity
  8
AM_5 寸法線
 62
     3
100
AcDbLine
 10
396.9273228728097
 20
457.4165803849292
 30
0.0
 11
410.9273228728096
 21
457.4165803849292
 31
0.0
  0
INSERT
  5
6637
330
65B7
100
AcDbEntity
  8
AM_5 寸法線
 62
     3
100
AcDbBlockReference
  2
_Open30
 10
396.9273228728097
 20
457.4165803849292
 30
0.0
 41
5.0
 42
5.0
 43
5.0
  0
INSERT
  5
6638
330
65B7
100
AcDbEntity
  8
AM_5 寸法線
 62
     3
100
AcDbBlockReference
  2
_Open30
 10
410.9273228728096
 20
457.4165803849292
 30
0.0
 41
5.0
 42
5.0
 43
5.0
 50
180.0
  0
POINT
  5
6639
330
65B7
100
AcDbEntity
  8
Defpoints
 62
     0
100
AcDbPoint
 10
396.9273228728097
 20
471.0002962031968
 30
0.0
  0
POINT
  5
663A
330
65B7
100
AcDbEntity
  8
Defpoints
 62
     0
100
AcDbPoint
 10
410.9273228728096
 20
472.0002962031967
 30
0.0
  0
POINT
  5
663B
330
65B7
100
AcDbEntity
  8
Defpoints
 62
     0
100
AcDbPoint
 10
410.9273228728096
 20
457.4165803849292
 30
0.0
  0
ENDBLK
  5
65B9
330
65B7
100
AcDbEntity
  8
0
100
AcDbBlockEnd
  0
BLOCK
  5
65EA
330
65E9
100
AcDbEntity
  8
0
100
AcDbBlockBegin
  2
*D28
 70
     1
 10
0.0
 20
0.0
 30
0.0
  3
*D28
  1

  0
LINE
  5
6612
330
65E9
100
AcDbEntity
  8
AM_5 寸法線
 62
     3
100
AcDbLine
 10
410.9273228728096
 20
470.7502962031968
 30
0.0
 11
410.9273228728096
 21
456.1665803849292
 31
0.0
  0
LINE
  5
6613
330
65E9
100
AcDbEntity
  8
AM_5 寸法線
 62
     3
100
AcDbLine
 10
431.9273228728096
 20
470.7502962031968
 30
0.0
 11
431.9273228728096
 21
456.1665803849292
 31
0.0
  0
LINE
  5
6614
330
65E9
100
AcDbEntity
  8
AM_5 寸法線
 62
     3
100
AcDbLine
 10
415.9273228728096
 20
457.4165803849292
 30
0.0
 11
426.9273228728097
 21
457.4165803849292
 31
0.0
  0
INSERT
  5
6615
330
65E9
100
AcDbEntity
  8
AM_5 寸法線
 62
     3
100
AcDbBlockReference
  2
_Open30
 10
410.9273228728096
 20
457.4165803849292
 30
0.0
 41
5.0
 42
5.0
 43
5.0
 50
180.0
  0
INSERT
  5
6616
330
65E9
100
AcDbEntity
  8
AM_5 寸法線
 62
     3
100
AcDbBlockReference
  2
_Open30
 10
431.9273228728096
 20
457.4165803849292
 30
0.0
 41
5.0
 42
5.0
 43
5.0
  0
MTEXT
  5
6617
330
65E9
100
AcDbEntity
  8
AM_5 寸法線
 62
     3
100
AcDbMText
 10
421.4273228728096
 20
463.9165803849294
 30
0.0
 40
7.0
 41
0.0
 46
0.0
 71
     5
 72
     1
  1
21
  7
SEISA
 73
     1
 44
1.0
  0
POINT
  5
6618
330
65E9
100
AcDbEntity
  8
Defpoints
 62
     0
100
AcDbPoint
 10
410.9273228728096
 20
472.0002962031967
 30
0.0
  0
POINT
  5
6619
330
65E9
100
AcDbEntity
  8
Defpoints
 62
     0
100
AcDbPoint
 10
431.9273228728096
 20
472.0002962031967
 30
0.0
  0
POINT
  5
661A
330
65E9
100
AcDbEntity
  8
Defpoints
 62
     0
100
AcDbPoint
 10
431.9273228728096
 20
457.4165803849292
 30
0.0
  0
ENDBLK
  5
65EB
330
65E9
100
AcDbEntity
  8
0
100
AcDbBlockEnd
  0
BLOCK
  5
676A
330
6769
100
AcDbEntity
  8
0
100
AcDbBlockBegin
  2
ケース
 70
     0
 10
0.0
 20
0.0
 30
0.0
  3
ケース
  1

  0
LINE
  5
676C
330
6769
100
AcDbEntity
  8
AM_11 想像線
 48
0.1
100
AcDbLine
 10
0.0
 20
-10.59999999999996
 30
0.0
 11
6.109115175666373
 21
-10.59999999999996
 31
0.0
  0
LINE
  5
676D
330
6769
100
AcDbEntity
  8
AM_11 想像線
 48
0.1
100
AcDbLine
 10
0.0
 20
-9.0
 30
0.0
 11
9.109115175666373
 21
-9.0
 31
0.0
  0
LINE
  5
676E
330
6769
100
AcDbEntity
  8
AM_11 想像線
 48
0.1
100
AcDbLine
 10
0.0
 20
0.0
 30
0.0
 11
21.10911517566638
 21
0.0
 31
0.0
  0
LINE
  5
676F
330
6769
100
AcDbEntity
  8
AM_11 想像線
 48
0.1
100
AcDbLine
 10
0.0
 20
-7.0
 30
0.0
 11
7.109115175666373
 21
-7.0
 31
0.0
  0
ARC
  5
6770
330
6769
100
AcDbEntity
  8
AM_11 想像線
 48
0.1
100
AcDbCircle
 10
21.10911517566638
 20
-3.0
 30
0.0
 40
3.0
100
AcDbArc
 50
0.0
 51
90.0
  0
LINE
  5
6771
330
6769
100
AcDbEntity
  8
AM_11 想像線
 48
0.1
100
AcDbLine
 10
10.10911517566637
 20
-6.5
 30
0.0
 11
8.109115175666374
 21
-6.5
 31
0.0
  0
LINE
  5
6772
330
6769
100
AcDbEntity
  8
AM_11 想像線
 48
0.1
100
AcDbLine
 10
7.109115175666373
 20
-8.118678999999985
 30
0.0
 11
7.109115175666373
 21
-9.599999999999962
 31
0.0
  0
LINE
  5
6773
330
6769
100
AcDbEntity
  8
AM_11 想像線
 48
0.1
100
AcDbLine
 10
7.109115175666373
 20
-9.599999999999962
 30
0.0
 11
6.109115175666373
 21
-10.59999999999996
 31
0.0
  0
LINE
  5
6774
330
6769
100
AcDbEntity
  8
AM_11 想像線
 48
0.1
100
AcDbLine
 10
7.109115175666373
 20
-8.118678999999985
 30
0.0
 11
7.109115175666373
 21
-7.5
 31
0.0
  0
ARC
  5
6775
330
6769
100
AcDbEntity
  8
AM_11 想像線
 48
0.1
100
AcDbCircle
 10
8.109115175666374
 20
-7.5
 30
0.0
 40
1.0
100
AcDbArc
 50
90.0
 51
180.0
  0
LINE
  5
6776
330
6769
100
AcDbEntity
  8
AM_11 想像線
 48
0.1
100
AcDbLine
 10
24.10911517566638
 20
-13.25
 30
0.0
 11
24.10911517566638
 21
-14.5
 31
0.0
  0
LINE
  5
6777
330
6769
100
AcDbEntity
  8
AM_11 想像線
 48
0.1
100
AcDbLine
 10
21.40911517566633
 20
-13.25
 30
0.0
 11
21.40911517566633
 21
-14.5
 31
0.0
  0
LINE
  5
6778
330
6769
100
AcDbEntity
  8
AM_11 想像線
 48
0.1
100
AcDbLine
 10
13.80911517566642
 20
-13.25
 30
0.0
 11
13.80911517566642
 21
-14.5
 31
0.0
  0
LINE
  5
6779
330
6769
100
AcDbEntity
  8
AM_11 想像線
 48
0.1
100
AcDbLine
 10
11.10911517566637
 20
-13.25
 30
0.0
 11
11.10911517566637
 21
-14.5
 31
0.0
  0
LINE
  5
677A
330
6769
100
AcDbEntity
  8
AM_11 想像線
 48
0.1
100
AcDbLine
 10
20.90911517566633
 20
-9.799999999999952
 30
0.0
 11
14.30911517566642
 21
-9.799999999999952
 31
0.0
  0
ARC
  5
677B
330
6769
100
AcDbEntity
  8
AM_11 想像線
 48
0.1
100
AcDbCircle
 10
10.10911517566637
 20
-7.5
 30
0.0
 40
1.0
100
AcDbArc
 50
0.0
 51
90.0
  0
LINE
  5
677C
330
6769
100
AcDbEntity
  8
AM_11 想像線
 48
0.1
100
AcDbLine
 10
11.10911517566637
 20
-13.25
 30
0.0
 11
11.10911517566637
 21
-7.5
 31
0.0
  0
LINE
  5
677D
330
6769
100
AcDbEntity
  8
AM_11 想像線
 48
0.1
100
AcDbLine
 10
13.80911517566642
 20
-13.25
 30
0.0
 11
11.10911517566637
 21
-13.25
 31
0.0
  0
LINE
  5
677E
330
6769
100
AcDbEntity
  8
AM_11 想像線
 48
0.1
100
AcDbLine
 10
13.80911517566642
 20
-10.29999999999995
 30
0.0
 11
13.80911517566642
 21
-13.25
 31
0.0
  0
ARC
  5
677F
330
6769
100
AcDbEntity
  8
AM_11 想像線
 48
0.1
100
AcDbCircle
 10
14.30911517566642
 20
-10.29999999999995
 30
0.0
 40
0.5
100
AcDbArc
 50
90.0
 51
180.0
  0
ARC
  5
6780
330
6769
100
AcDbEntity
  8
AM_11 想像線
 48
0.1
100
AcDbCircle
 10
20.90911517566633
 20
-10.29999999999995
 30
0.0
 40
0.5
100
AcDbArc
 50
0.0
 51
90.0
  0
LINE
  5
6781
330
6769
100
AcDbEntity
  8
AM_11 想像線
 48
0.1
100
AcDbLine
 10
21.40911517566633
 20
-13.25
 30
0.0
 11
21.40911517566633
 21
-10.29999999999995
 31
0.0
  0
LINE
  5
6782
330
6769
100
AcDbEntity
  8
AM_11 想像線
 48
0.1
100
AcDbLine
 10
24.10911517566638
 20
-13.25
 30
0.0
 11
21.40911517566633
 21
-13.25
 31
0.0
  0
LINE
  5
6783
330
6769
100
AcDbEntity
  8
AM_11 想像線
 48
0.1
100
AcDbLine
 10
24.10911517566638
 20
-3.0
 30
0.0
 11
24.10911517566638
 21
-13.25
 31
0.0
  0
ENDBLK
  5
676B
330
6769
100
AcDbEntity
  8
0
100
AcDbBlockEnd
  0
ENDSEC
  0
SECTION
  2
ENTITIES
  0
LINE
  5
3D9A
102
{ACAD_REACTORS
330
49DB
102
}
330
1F
100
AcDbEntity
  8
AM_7 中心線
100
AcDbLine
 10
491.9273228728096
 20
419.0002962031968
 30
0.0
 11
291.9273228728097
 21
419.0002962031968
 31
0.0
  0
INSERT
  5
445F
102
{ACAD_REACTORS
330
4A29
330
4AF6
330
4B0E
330
4BAE
330
4CB5
330
4CCD
102
}
330
1F
100
AcDbEntity
  8
AM_0 外形線1
100
AcDbBlockReference
  2
ケースＡ SEM180
 10
391.9273228728097
 20
419.0002962031968
 30
0.0
  0
INSERT
  5
455B
102
{ACAD_REACTORS
330
496F
330
49A7
330
49C3
330
4B92
330
4BAE
330
4C9D
330
4CB5
330
4CE5
102
}
330
1F
100
AcDbEntity
  8
AM_0 外形線1
100
AcDbBlockReference
  2
リジット SEM180
 10
391.9273228728097
 20
419.0002962031968
 30
0.0
  0
INSERT
  5
4633
102
{ACAD_REACTORS
330
49C3
330
49DB
330
4A29
330
4ACC
330
4CCD
330
4CE5
330
65C6
102
}
330
1F
100
AcDbEntity
  8
AM_0 外形線1
100
AcDbBlockReference
  2
センタ SEM180
 10
396.9273228728097
 20
419.0002962031968
 30
0.0
  0
INSERT
  5
47CF
330
1F
100
AcDbEntity
  8
AM_0 外形線1
100
AcDbBlockReference
  2
リーマボルト SEM180 M8
 10
376.9273228728097
 20
500.5002962031968
 30
0.0
  0
DIMENSION
  5
4958
102
{ACAD_XDICTIONARY
360
4965
102
}
102
{ACAD_REACTORS
330
496F
102
}
330
1F
100
AcDbEntity
  8
AM_5 寸法線
100
AcDbDimension
  2
*D11
 10
255.7884818728097
 20
361.5002962031969
 30
0.0
 11
249.2884818728096
 21
419.0002962031968
 31
0.0
 70
    32
  1
%%c<>
 71
     5
 42
115.0
 73
     0
 74
     0
 75
     0
  3
SEISA$0
100
AcDbAlignedDimension
 13
300.7236229587324
 23
476.5002962031968
 33
0.0
 14
300.7236229587324
 24
361.5002962031969
 34
0.0
 50
90.0
100
AcDbRotatedDimension
1001
ACAD_DSTYLE_DIMINSPECT
1070
   396
1000
100%
1070
   395
1000

1070
   394
1070
    33
1070
   393
1070
     0
  0
DIMENSION
  5
4990
102
{ACAD_XDICTIONARY
360
499D
102
}
102
{ACAD_REACTORS
330
49A7
102
}
330
1F
100
AcDbEntity
  8
AM_5 寸法線
100
AcDbDimension
  2
*D12
 10
386.9273228728097
 20
429.2237670874016
 30
0.0
 11
341.9273228728097
 21
435.7237670874016
 31
0.0
 70
    32
 71
     5
 42
90.00000000000005
 73
     0
 74
     0
 75
     0
  3
SEISA$0
100
AcDbAlignedDimension
 13
296.9273228728097
 23
419.0002962031968
 33
0.0
 14
386.9273228728097
 24
419.0002962031968
 34
0.0
100
AcDbRotatedDimension
  0
DIMENSION
  5
49A8
102
{ACAD_XDICTIONARY
360
49B7
102
}
102
{ACAD_REACTORS
330
49C3
102
}
330
1F
100
AcDbEntity
  8
AM_5 寸法線
100
AcDbDimension
  2
*D13
 10
396.9273228728097
 20
429.2237670874016
 30
0.0
 11
407.2169723437491
 21
435.47546955966
 31
0.0
 70
   160
 71
     5
 42
10.0
 73
     0
 74
     0
 75
     0
  3
SEISA$0
100
AcDbAlignedDimension
 13
386.9273228728097
 23
419.0002962031968
 33
0.0
 14
396.9273228728097
 24
419.0002962031968
 34
0.0
100
AcDbRotatedDimension
1001
ACAD
1000
DSTYLE
1002
{
1070
   279
1070
     2
1002
}
  0
DIMENSION
  5
49C4
102
{ACAD_XDICTIONARY
360
49D1
102
}
102
{ACAD_REACTORS
330
49DB
102
}
330
1F
100
AcDbEntity
  8
AM_5 寸法線
100
AcDbDimension
  2
*D14
 10
486.9273228728096
 20
429.2237670874016
 30
0.0
 11
441.9273228728096
 21
435.7237670874016
 31
0.0
 70
    32
 71
     5
 42
90.0
 73
     0
 74
     0
 75
     0
  3
SEISA$0
100
AcDbAlignedDimension
 13
396.9273228728097
 23
419.0002962031968
 33
0.0
 14
486.9273228728096
 24
419.0002962031968
 34
0.0
100
AcDbRotatedDimension
  0
DIMENSION
  5
4A0E
102
{ACAD_XDICTIONARY
360
4A1D
102
}
102
{ACAD_REACTORS
330
4A29
330
65F6
102
}
330
1F
100
AcDbEntity
  8
AM_5 寸法線
100
AcDbDimension
  2
*D15
 10
434.9273228728097
 20
457.4165803849292
 30
0.0
 11
450.0273228728096
 21
463.9165803849294
 31
0.0
 70
    32
 71
     5
 42
3.0
 73
     0
 74
     0
 75
     0
  3
SEISA$0
100
AcDbAlignedDimension
 13
431.9273228728096
 23
472.0002962031967
 33
0.0
 14
434.9273228728097
 24
471.5002962031968
 34
0.0
100
AcDbRotatedDimension
  0
DIMENSION
  5
4AB5
102
{ACAD_XDICTIONARY
360
4AC2
102
}
102
{ACAD_REACTORS
330
4ACC
102
}
330
1F
100
AcDbEntity
  8
AM_5 寸法線
100
AcDbDimension
  2
*D16
 10
526.9273228728097
 20
366.5002962031969
 30
0.0
 11
520.4273228728095
 21
419.0002962031968
 31
0.0
 70
    32
  1
%%c<>
 71
     5
 42
105.0
 73
     0
 74
     0
 75
     0
  3
SEISA$0
100
AcDbAlignedDimension
 13
456.9273228728096
 23
471.5002962031968
 33
0.0
 14
456.9273228728096
 24
366.5002962031969
 34
0.0
 50
90.0
100
AcDbRotatedDimension
1001
ACAD_DSTYLE_DIMINSPECT
1070
   396
1000
100%
1070
   395
1000

1070
   394
1070
    33
1070
   393
1070
     0
1001
ACAD
1000
DSTYLE
1002
{
1070
   279
1070
     0
1002
}
  0
DIMENSION
  5
4ADF
102
{ACAD_XDICTIONARY
360
4AEC
102
}
102
{ACAD_REACTORS
330
4AF6
102
}
330
1F
100
AcDbEntity
  8
AM_5 寸法線
100
AcDbDimension
  2
*D17
 10
546.9273228728098
 20
352.0002962031969
 30
0.0
 11
546.9273228728098
 21
419.0002962031968
 31
0.0
 70
   160
  1
%%c<>
 71
     5
 42
134.0
 73
     0
 74
     0
 75
     0
  3
SEISA$0
100
AcDbAlignedDimension
 13
444.9273228728096
 23
486.0002962031968
 33
0.0
 14
444.9273228728096
 24
352.0002962031969
 34
0.0
 50
90.0
100
AcDbRotatedDimension
1001
ACAD_DSTYLE_DIMINSPECT
1070
   396
1000
100%
1070
   395
1000

1070
   394
1070
    33
1070
   393
1070
     0
1001
ACAD
1000
DSTYLE
1002
{
1070
   279
1070
     0
1002
}
  0
DIMENSION
  5
4AF7
102
{ACAD_XDICTIONARY
360
4B04
102
}
102
{ACAD_REACTORS
330
4B0E
102
}
330
1F
100
AcDbEntity
  8
AM_5 寸法線
100
AcDbDimension
  2
*D18
 10
566.92732287281
 20
329.000296203197
 30
0.0
 11
566.9273228728099
 21
419.000296203197
 31
0.0
 70
   160
  1
%%c<>
 71
     5
 42
180.0
 73
     0
 74
     0
 75
     0
  3
SEISA$0
100
AcDbAlignedDimension
 13
406.4273228728096
 23
509.0002962031968
 33
0.0
 14
406.4273228728096
 24
329.000296203197
 34
0.0
 50
90.0
100
AcDbRotatedDimension
1001
ACAD_DSTYLE_DIMINSPECT
1070
   396
1000
100%
1070
   395
1000

1070
   394
1070
    33
1070
   393
1070
     0
1001
ACAD
1000
DSTYLE
1002
{
1070
   279
1070
     0
1002
}
  0
DIMENSION
  5
4B77
102
{ACAD_XDICTIONARY
360
4B86
102
}
102
{ACAD_REACTORS
330
4B92
102
}
330
1F
100
AcDbEntity
  8
AM_5 寸法線
100
AcDbDimension
  2
*D19
 10
376.9273228728097
 20
299.000296203197
 30
0.0
 11
369.6718817143437
 21
305.5494615094005
 31
0.0
 70
   160
 71
     5
 42
15.0
 73
     0
 74
     0
 75
     0
  3
SEISA$0
100
AcDbAlignedDimension
 13
391.9273228728097
 23
329.500296203197
 33
0.0
 14
376.9273228728097
 24
329.500296203197
 34
0.0
100
AcDbRotatedDimension
1001
ACAD_DSTYLE_DIMINSPECT
1070
   396
1000
100%
1070
   395
1000

1070
   394
1070
    33
1070
   393
1070
     0
1001
ACAD
1000
DSTYLE
1002
{
1070
   173
1070
     1
1070
   279
1070
     2
1070
   342
1005
0
1070
   343
1005
5A8E
1070
   344
1005
69
1002
}
  0
DIMENSION
  5
4B93
102
{ACAD_XDICTIONARY
360
4BA2
102
}
102
{ACAD_REACTORS
330
4BAE
102
}
330
1F
100
AcDbEntity
  8
AM_5 寸法線
100
AcDbDimension
  2
*D20
 10
406.9273228728096
 20
299.000296203197
 30
0.0
 11
415.0369081554408
 21
305.5467341762148
 31
0.0
 70
   160
 71
     5
 42
15.0
 73
     0
 74
     0
 75
     0
  3
SEISA$0
100
AcDbAlignedDimension
 13
391.9273228728097
 23
329.500296203197
 33
0.0
 14
406.9273228728096
 24
329.500296203197
 34
0.0
100
AcDbRotatedDimension
1001
ACAD_DSTYLE_DIMINSPECT
1070
   396
1000
100%
1070
   395
1000

1070
   394
1070
    33
1070
   393
1070
     0
1001
ACAD
1000
DSTYLE
1002
{
1070
   173
1070
     1
1070
   279
1070
     2
1070
   342
1005
0
1070
   343
1005
5A8E
1070
   344
1005
69
1002
}
  0
DIMENSION
  5
4BDD
330
1F
100
AcDbEntity
  8
AM_5 寸法線
100
AcDbDimension
  2
*D21
 10
491.9273228728096
 20
514.9725890344533
 30
0.0
 11
489.4273228728097
 21
524.2225890344533
 31
0.0
 70
    32
  1
<>
 71
     5
 42
5.0
 73
     0
 74
     0
 75
     0
  3
SEISA$0
100
AcDbAlignedDimension
 13
486.9273228728096
 23
467.9002962031969
 33
0.0
 14
491.9273228728096
 24
483.0002962031968
 34
0.0
100
AcDbRotatedDimension
1001
ACAD_DSTYLE_DIMINSPECT
1070
   396
1000
100%
1070
   395
1000

1070
   394
1070
    33
1070
   393
1070
     0
1001
ACAD
1000
DSTYLE
1002
{
1070
   173
1070
     1
1070
   279
1070
     2
1070
   342
1005
0
1070
   343
1005
69
1070
   344
1005
69
1002
}
  0
DIMENSION
  5
4C86
102
{ACAD_XDICTIONARY
360
4C93
102
}
102
{ACAD_REACTORS
330
4C9D
102
}
330
1F
100
AcDbEntity
  8
AM_5 寸法線
100
AcDbDimension
  2
*D22
 10
391.9273228728097
 20
279.0002962031969
 30
0.0
 11
344.4273228728097
 21
279.0002962031969
 31
0.0
 70
   160
 71
     5
 42
95.00000000000005
 73
     0
 74
     0
 75
     0
  3
SEISA$0
100
AcDbAlignedDimension
 13
296.9273228728097
 23
364.5002962031969
 33
0.0
 14
391.9273228728097
 24
329.6874960956959
 34
0.0
100
AcDbRotatedDimension
1001
ACAD
1000
DSTYLE
1002
{
1070
   279
1070
     0
1002
}
  0
DIMENSION
  5
4C9E
102
{ACAD_XDICTIONARY
360
4CAB
102
}
102
{ACAD_REACTORS
330
4CB5
102
}
330
1F
100
AcDbEntity
  8
AM_5 寸法線
100
AcDbDimension
  2
*D23
 10
447.9273228728096
 20
279.0002962031969
 30
0.0
 11
419.9273228728096
 21
279.0002962031969
 31
0.0
 70
   160
 71
     5
 42
56.0
 73
     0
 74
     0
 75
     0
  3
SEISA$0
100
AcDbAlignedDimension
 13
391.9273228728097
 23
329.500296203197
 33
0.0
 14
447.9273228728096
 24
355.0002962031968
 34
0.0
100
AcDbRotatedDimension
1001
ACAD
1000
DSTYLE
1002
{
1070
   279
1070
     0
1002
}
  0
DIMENSION
  5
4CB6
102
{ACAD_XDICTIONARY
360
4CC3
102
}
102
{ACAD_REACTORS
330
4CCD
102
}
330
1F
100
AcDbEntity
  8
AM_5 寸法線
100
AcDbDimension
  2
*D24
 10
486.9273228728096
 20
279.0002962031969
 30
0.0
 11
467.4273228728096
 21
279.0002962031969
 31
0.0
 70
   160
 71
     5
 42
39.0
 73
     0
 74
     0
 75
     0
  3
SEISA$0
100
AcDbAlignedDimension
 13
447.9273228728096
 23
355.0002962031968
 33
0.0
 14
486.9273228728096
 24
370.1002962031969
 34
0.0
100
AcDbRotatedDimension
1001
ACAD
1000
DSTYLE
1002
{
1070
   279
1070
     0
1002
}
  0
DIMENSION
  5
4CCE
102
{ACAD_XDICTIONARY
360
4CDB
102
}
102
{ACAD_REACTORS
330
4CE5
102
}
330
1F
100
AcDbEntity
  8
AM_5 寸法線
100
AcDbDimension
  2
*D25
 10
486.9273228728096
 20
259.000296203197
 30
0.0
 11
391.9273228728097
 21
259.000296203197
 31
0.0
 70
   160
 71
     5
 42
190.0
 73
     0
 74
     0
 75
     0
  3
SEISA$0
100
AcDbAlignedDimension
 13
296.9273228728097
 23
364.5002962031969
 33
0.0
 14
486.9273228728096
 24
371.3948015179223
 34
0.0
100
AcDbRotatedDimension
1001
ACAD
1000
DSTYLE
1002
{
1070
   279
1070
     0
1002
}
  0
LINE
  5
5C7A
330
1F
100
AcDbEntity
  8
AM_5 寸法線
100
AcDbLine
 10
366.9273228728097
 20
299.000296203197
 30
0.0
 11
363.5572238627119
 21
299.000296203197
 31
0.0
  0
LINE
  5
5C7B
330
1F
100
AcDbEntity
  8
AM_5 寸法線
100
AcDbLine
 10
416.9273228728096
 20
299.000296203197
 30
0.0
 11
420.7251519987051
 21
299.000296203197
 31
0.0
  0
MTEXT
  5
648A
330
1F
100
AcDbEntity
  8
AM_6 文字
100
AcDbMText
 10
499.6486758988053
 20
315.7032456981692
 30
0.0
 40
7.0
 41
155.9492364802533
 46
44.5929442840084
 71
     1
 72
     5
  1
{\W0.6;TYPE:SEM180/SEMH180\PSHAFT DIA:MAX/MIN \P RIGID SIDE φ80/φ32\P COUPLING CENTER SIDE φ75/φ32}
  7
SEISA
 73
     1
 44
1.0
  0
DIMENSION
  5
65B6
102
{ACAD_XDICTIONARY
360
65C5
102
}
102
{ACAD_REACTORS
330
65C6
102
}
330
1F
100
AcDbEntity
  8
AM_5 寸法線
100
AcDbDimension
  2
*D27
 10
410.9273228728096
 20
457.4165803849292
 30
0.0
 11
403.6239616733218
 21
456.757050634197
 31
0.0
 70
   160
 71
     5
 42
14.0
 73
     0
 74
     0
 75
     0
  3
SEISA$0
100
AcDbAlignedDimension
 13
396.9273228728097
 23
471.0002962031968
 33
0.0
 14
410.9273228728096
 24
472.0002962031967
 34
0.0
 50
0.0000000000001132
100
AcDbRotatedDimension
1001
ACAD_DSTYLE_DIMINSPECT
1070
   396
1000
100%
1070
   395
1000

1070
   394
1070
    33
1070
   393
1070
     0
1001
ACAD
1000
DSTYLE
1002
{
1070
   279
1070
     1
1002
}
  0
DIMENSION
  5
65E8
102
{ACAD_XDICTIONARY
360
65F5
102
}
102
{ACAD_REACTORS
330
65F6
102
}
330
1F
100
AcDbEntity
  8
AM_5 寸法線
100
AcDbDimension
  2
*D28
 10
431.9273228728096
 20
457.4165803849292
 30
0.0
 11
421.4273228728096
 21
463.9165803849294
 31
0.0
 70
    32
 71
     5
 42
21.0
 73
     0
 74
     0
 75
     0
  3
SEISA$0
100
AcDbAlignedDimension
 13
410.9273228728096
 23
472.0002962031967
 33
0.0
 14
431.9273228728096
 24
472.0002962031967
 34
0.0
 50
0.0000000000001132
100
AcDbRotatedDimension
1001
ACAD_DSTYLE_DIMINSPECT
1070
   396
1000
100%
1070
   395
1000

1070
   394
1070
    33
1070
   393
1070
     0
  0
INSERT
  5
6784
330
1F
100
AcDbEntity
  8
AM_5 寸法線
100
AcDbBlockReference
  2
ケース
 10
467.8182076971433
 20
486.0002962031968
 30
0.0
  0
ENDSEC
  0
SECTION
  2
OBJECTS
  0
DICTIONARY
  5
C
330
0
100
AcDbDictionary
281
     1
  3
ACAD_BACKGROUND
350
4E4F
  3
ACAD_COLOR
350
C5
  3
ACAD_GROUP
350
D
  3
ACAD_LAYOUT
350
1A
  3
ACAD_MATERIAL
350
C4
  3
ACAD_MLEADERSTYLE
350
2D5
  3
ACAD_MLINESTYLE
350
17
  3
ACAD_PLOTSETTINGS
350
19
  3
ACAD_PLOTSTYLENAME
350
E
  3
ACAD_SCALELIST
350
2B3
  3
ACAD_TABLESTYLE
350
121
  3
ACAD_VISUALSTYLE
350
27F
  3
ACDB_RECOMPOSE_DATA
350
2F7
  3
AcDbVariableDictionary
350
34
  3
AcmDictionary
350
49
  3
AMG
350
2B
  3
AMGSNAPSETTINGS
350
1DE
  0
DICTIONARY
  5
BF
330
2
100
AcDbDictionary
280
     1
281
     1
  3
ACAD_LAYERSTATES
360
6481
  3
AMLAYER_GROUPCOLORS
360
C0
  0
DICTIONARY
  5
29F7
330
10
100
AcDbDictionary
280
     1
281
     1
  3
ADSK_XREC_LAYER_RECONCILED
360
29F8
  0
DICTIONARY
  5
29F9
330
81
100
AcDbDictionary
280
     1
281
     1
  3
ADSK_XREC_LAYER_RECONCILED
360
29FA
  0
DICTIONARY
  5
82
330
1F
100
AcDbDictionary
280
     1
281
     1
  3
ACAD_SORTENTS
360
A41
  0
DICTIONARY
  5
3410
330
340F
100
AcDbDictionary
280
     1
281
     1
  3
ACAD_SORTENTS
360
5498
  0
DICTIONARY
  5
44E1
330
4420
100
AcDbDictionary
280
     1
281
     1
  3
ACAD_SORTENTS
360
5EE5
  0
DICTIONARY
  5
459F
330
453E
100
AcDbDictionary
280
     1
281
     1
  3
ACAD_SORTENTS
360
6679
  0
DICTIONARY
  5
561A
330
4614
100
AcDbDictionary
280
     1
281
     1
  3
ACAD_SORTENTS
360
66F9
  0
DICTIONARY
  5
483B
330
479D
100
AcDbDictionary
280
     1
281
     1
  3
ACAD_SORTENTS
360
5F89
  0
DICTIONARY
  5
4965
330
4958
100
AcDbDictionary
280
     1
281
     1
  3
ACAD_DIMASSOC
360
496F
  0
DICTIONARY
  5
499D
330
4990
100
AcDbDictionary
280
     1
281
     1
  3
ACAD_DIMASSOC
360
49A7
  0
DICTIONARY
  5
49B7
330
49A8
100
AcDbDictionary
280
     1
281
     1
  3
ACAD_DIMASSOC
360
49C3
  0
DICTIONARY
  5
49D1
330
49C4
100
AcDbDictionary
280
     1
281
     1
  3
ACAD_DIMASSOC
360
49DB
  0
DICTIONARY
  5
4A1D
330
4A0E
100
AcDbDictionary
280
     1
281
     1
  3
ACAD_DIMASSOC
360
4A29
  0
DICTIONARY
  5
4AC2
330
4AB5
100
AcDbDictionary
280
     1
281
     1
  3
ACAD_DIMASSOC
360
4ACC
  0
DICTIONARY
  5
4AEC
330
4ADF
100
AcDbDictionary
280
     1
281
     1
  3
ACAD_DIMASSOC
360
4AF6
  0
DICTIONARY
  5
4B04
330
4AF7
100
AcDbDictionary
280
     1
281
     1
  3
ACAD_DIMASSOC
360
4B0E
  0
DICTIONARY
  5
4B86
330
4B77
100
AcDbDictionary
280
     1
281
     1
  3
ACAD_DIMASSOC
360
4B92
  0
DICTIONARY
  5
4BA2
330
4B93
100
AcDbDictionary
280
     1
281
     1
  3
ACAD_DIMASSOC
360
4BAE
  0
DICTIONARY
  5
4C93
330
4C86
100
AcDbDictionary
280
     1
281
     1
  3
ACAD_DIMASSOC
360
4C9D
  0
DICTIONARY
  5
4CAB
330
4C9E
100
AcDbDictionary
280
     1
281
     1
  3
ACAD_DIMASSOC
360
4CB5
  0
DICTIONARY
  5
4CC3
330
4CB6
100
AcDbDictionary
280
     1
281
     1
  3
ACAD_DIMASSOC
360
4CCD
  0
DICTIONARY
  5
4CDB
330
4CCE
100
AcDbDictionary
280
     1
281
     1
  3
ACAD_DIMASSOC
360
4CE5
  0
DICTIONARY
  5
65C5
330
65B6
100
AcDbDictionary
280
     1
281
     1
  3
ACAD_DIMASSOC
360
65C6
  0
DICTIONARY
  5
65F5
330
65E8
100
AcDbDictionary
280
     1
281
     1
  3
ACAD_DIMASSOC
360
65F6
  0
DICTIONARY
  5
4E4F
102
{ACAD_REACTORS
330
C
102
}
330
C
100
AcDbDictionary
281
     1
  0
DICTIONARY
  5
C5
102
{ACAD_REACTORS
330
C
102
}
330
C
100
AcDbDictionary
281
     1
  0
DICTIONARY
  5
D
102
{ACAD_REACTORS
330
C
102
}
330
C
100
AcDbDictionary
281
     1
  0
DICTIONARY
  5
1A
102
{ACAD_REACTORS
330
C
102
}
330
C
100
AcDbDictionary
281
     1
  3
Model
350
22
  3
レイアウト1
350
1E
  3
レイアウト2
350
26
  0
DICTIONARY
  5
C4
102
{ACAD_REACTORS
330
C
102
}
330
C
100
AcDbDictionary
281
     1
  3
ByBlock
350
27D
  3
ByLayer
350
27C
  3
Global
350
27E
  0
DICTIONARY
  5
2D5
102
{ACAD_REACTORS
330
C
102
}
330
C
100
AcDbDictionary
281
     1
  3
Standard
350
2D6
  0
DICTIONARY
  5
17
102
{ACAD_REACTORS
330
C
102
}
330
C
100
AcDbDictionary
281
     1
  3
Standard
350
18
  0
DICTIONARY
  5
19
102
{ACAD_REACTORS
330
C
102
}
330
C
100
AcDbDictionary
281
     1
  3
SEISA基本
350
1C7E
  0
ACDBDICTIONARYWDFLT
  5
E
102
{ACAD_REACTORS
330
C
102
}
330
C
100
AcDbDictionary
281
     1
  3
Normal
350
F
100
AcDbDictionaryWithDefault
340
F
  0
DICTIONARY
  5
2B3
102
{ACAD_REACTORS
330
C
102
}
330
C
100
AcDbDictionary
281
     1
  3
*A1
350
3626
  3
A0
350
2B4
  3
A1
350
2B5
  3
A2
350
2B6
  3
A3
350
2B7
  3
A4
350
2B8
  3
A5
350
2B9
  3
A6
350
2BA
  3
A7
350
2BB
  3
A8
350
2BC
  3
A9
350
2BD
  3
B0
350
2BE
  3
B1
350
2BF
  3
B2
350
2C0
  3
B3
350
2C1
  3
B4
350
2C2
  3
B5
350
2C3
  3
B6
350
2C4
  3
B7
350
2C5
  3
B8
350
2C6
  3
B9
350
2C7
  3
C0
350
2C8
  3
C1
350
2C9
  3
C2
350
2CA
  3
C3
350
2CB
  3
C4
350
2CC
  3
C5
350
2CD
  3
C6
350
2CE
  3
C7
350
2CF
  3
C8
350
2D0
  3
C9
350
2D1
  3
D0
350
2D2
  3
D1
350
2D3
  3
D2
350
2D4
  0
DICTIONARY
  5
121
102
{ACAD_REACTORS
330
C
102
}
330
C
100
AcDbDictionary
281
     1
  3
Standard
350
122
  0
DICTIONARY
  5
27F
102
{ACAD_REACTORS
330
C
102
}
330
C
100
AcDbDictionary
281
     1
  3
2dWireframe
350
285
  3
3D Hidden
350
287
  3
3dWireframe
350
286
  3
Basic
350
284
  3
Brighten
350
28B
  3
ColorChange
350
28F
  3
Conceptual
350
288
  3
Dim
350
28A
  3
Facepattern
350
28E
  3
Flat
350
280
  3
FlatWithEdges
350
281
  3
Gouraud
350
282
  3
GouraudWithEdges
350
283
  3
Linepattern
350
28D
  3
Realistic
350
289
  3
Thicken
350
28C
  0
XRECORD
  5
2F7
102
{ACAD_REACTORS
330
C
102
}
330
C
100
AcDbXrecord
280
     1
 90
        1
330
122
  0
DICTIONARY
  5
34
102
{ACAD_REACTORS
330
C
102
}
330
C
100
AcDbDictionary
281
     1
  3
CANNOSCALE
350
2FA
  3
CMLEADERSTYLE
350
2F8
  3
CTABLESTYLE
350
140
  3
DIMASSOC
350
AC
  3
INDEXCTL
350
35
  3
LAYEREVAL
350
3D39
  3
LAYERNOTIFY
350
3D3A
  3
LIGHTINGUNITS
350
2FB
  3
MSLTSCALE
350
2F9
  0
DICTIONARY
  5
49
102
{ACAD_REACTORS
330
C
102
}
330
C
100
AcDbDictionary
281
     1
  3
AcmBOM
350
161B
  3
AcmStdDictionary
350
4A
  3
AMDTSECTSYM_ARROWCOLOR
350
12B
  0
DICTIONARY
  5
2B
102
{ACAD_REACTORS
330
C
102
}
330
C
100
AcDbDictionary
281
     1
  0
DICTIONARY
  5
1DE
102
{ACAD_REACTORS
330
C
102
}
330
C
100
AcDbDictionary
281
     1
  0
DICTIONARY
  5
6481
102
{ACAD_REACTORS
330
BF
102
}
330
BF
100
AcDbDictionary
281
     1
  0
DICTIONARY
  5
C0
102
{ACAD_REACTORS
330
BF
102
}
330
BF
100
AcDbDictionary
280
     1
281
     1
  0
XRECORD
  5
29F8
102
{ACAD_REACTORS
330
29F7
102
}
330
29F7
100
AcDbXrecord
280
     1
290
     1
  0
XRECORD
  5
29FA
102
{ACAD_REACTORS
330
29F9
102
}
330
29F9
100
AcDbXrecord
280
     1
290
     1
  0
SORTENTSTABLE
  5
A41
102
{ACAD_REACTORS
330
82
102
}
330
82
100
AcDbSortentsTable
330
1F
331
4CCE
  5
4DD3
331
49C4
  5
4A0E
331
445F
  5
455B
331
4958
  5
4988
331
4BDD
  5
4BF9
331
5C7A
  5
6316
331
4B93
  5
4BDD
331
4990
  5
49A8
331
648A
  5
648A
331
455B
  5
46FF
331
49A8
  5
49C4
331
4ADF
  5
4AF7
331
5C7B
  5
6317
331
4AB5
  5
4ADF
331
4B77
  5
4B93
331
4AF7
  5
4B77
331
47CF
  5
489B
331
4633
  5
471F
331
4C86
  5
4C9E
331
3D9A
  5
3D9A
331
4A0E
  5
4A36
331
4CB6
  5
4CCE
331
4C9E
  5
4CB6
  0
SORTENTSTABLE
  5
5498
102
{ACAD_REACTORS
330
3410
102
}
330
3410
100
AcDbSortentsTable
330
340F
  0
SORTENTSTABLE
  5
5EE5
102
{ACAD_REACTORS
330
44E1
102
}
330
44E1
100
AcDbSortentsTable
330
4420
  0
SORTENTSTABLE
  5
6679
102
{ACAD_REACTORS
330
459F
102
}
330
459F
100
AcDbSortentsTable
330
453E
331
459D
  5
459E
331
459E
  5
459C
331
459C
  5
459D
  0
SORTENTSTABLE
  5
66F9
102
{ACAD_REACTORS
330
561A
102
}
330
561A
100
AcDbSortentsTable
330
4614
331
4624
  5
4626
331
4617
  5
4619
331
461C
  5
4620
331
462D
  5
4630
331
4625
  5
4627
331
461D
  5
4621
331
462E
  5
65B3
331
4630
  5
65B4
331
4626
  5
4628
331
4627
  5
4629
331
4628
  5
462A
331
4620
  5
4622
331
4618
  5
461A
331
4629
  5
462B
331
4621
  5
4623
331
4619
  5
461B
331
65B3
  5
4618
331
462A
  5
462C
331
4622
  5
4624
331
461A
  5
461C
331
65B4
  5
4617
331
462B
  5
462D
331
4623
  5
4625
331
461B
  5
461D
331
462C
  5
462E
  0
SORTENTSTABLE
  5
5F89
102
{ACAD_REACTORS
330
483B
102
}
330
483B
100
AcDbSortentsTable
330
479D
331
47C5
  5
47C6
331
47CC
  5
47CD
331
47B4
  5
47B5
331
47A7
  5
47A8
331
47BB
  5
47BC
331
47AE
  5
47AF
331
47A1
  5
47A2
331
47C6
  5
47C7
331
47A8
  5
47A9
331
47B5
  5
47B6
331
47CD
  5
47CE
331
4838
  5
4839
331
47C0
  5
47C1
331
47BC
  5
47BD
331
47AF
  5
47B0
331
47A2
  5
47A3
331
47A9
  5
47AA
331
4839
  5
483A
331
47C7
  5
47C8
331
47CE
  5
4836
331
47B6
  5
47B7
331
47C1
  5
47C2
331
4836
  5
4837
331
47B0
  5
47B1
331
47A3
  5
47A4
331
47BD
  5
47BE
331
47C8
  5
47C9
331
47AA
  5
47AB
331
47B7
  5
47B8
331
483A
  5
47A0
331
47C2
  5
47C3
331
4837
  5
4838
331
47B1
  5
47B2
331
47A4
  5
47A5
331
47BE
  5
47BF
331
47C9
  5
47CA
331
47AB
  5
47AC
331
47B8
  5
47B9
331
47C3
  5
47C4
331
47CA
  5
47CB
331
47BF
  5
47C0
331
47B2
  5
47B3
331
47A5
  5
47A6
331
47B9
  5
47BA
331
47AC
  5
47AD
331
47C4
  5
47C5
331
47B3
  5
47B4
331
47A6
  5
47A7
331
47CB
  5
47CC
331
47BA
  5
47BB
331
47AD
  5
47AE
331
47A0
  5
47A1
  0
DIMASSOC
  5
496F
102
{ACAD_REACTORS
330
4965
102
}
330
4965
100
AcDbDimAssoc
330
4958
 90
        3
 70
     0
 71
     0
  1
AcDbOsnapPointRef
 72
    10
331
455B
331
4546
 73
     2
 91
        0
 40
0.9881149240907047
 10
0.0
 20
0.0
 30
0.0
 75
     0
  1
AcDbOsnapPointRef
 72
     8
331
455B
331
4547
 73
     2
 91
        0
 40
0.9881149240907047
 10
0.0
 20
0.0
 30
0.0
 75
     1
  1
AcDbOsnapPointRef
 72
    10
331
455B
331
4546
 73
     2
 91
        0
 40
0.9881149240907047
 10
0.0
 20
0.0
 30
0.0
 75
     0
  0
DIMASSOC
  5
49A7
102
{ACAD_REACTORS
330
499D
102
}
330
499D
100
AcDbDimAssoc
330
4990
 90
        3
 70
     0
 71
     0
  1
AcDbOsnapPointRef
 72
     1
331
455B
331
4548
 73
     2
 91
        0
 40
1.0
 10
0.0
 20
0.0
 30
2.000000000000000E+50
 75
     0
  1
AcDbOsnapPointRef
 72
    13
331
455B
331
454C
 73
     2
 91
        0
 40
0.0
 10
0.0
 20
0.0
 30
2.000000000000000E+50
 75
     0
  0
DIMASSOC
  5
49C3
102
{ACAD_REACTORS
330
49B7
102
}
330
49B7
100
AcDbDimAssoc
330
49A8
 90
        3
 70
     0
 71
     0
  1
AcDbOsnapPointRef
 72
    13
331
455B
331
454C
 73
     2
 91
        0
 40
0.0
 10
0.0
 20
0.0
 30
2.000000000000000E+50
 75
     0
  1
AcDbOsnapPointRef
 72
     1
331
4633
331
4619
 73
     2
 91
        0
 40
1.0
 10
0.0
 20
0.0
 30
2.000000000000000E+50
 75
     0
  0
DIMASSOC
  5
49DB
102
{ACAD_REACTORS
330
49D1
102
}
330
49D1
100
AcDbDimAssoc
330
49C4
 90
        3
 70
     0
 71
     0
  1
AcDbOsnapPointRef
 72
     1
331
4633
331
4619
 73
     2
 91
        0
 40
1.0
 10
0.0
 20
0.0
 30
2.000000000000000E+50
 75
     0
  1
AcDbOsnapPointRef
 72
     6
331
4633
331
462C
 73
     2
 91
        0
 40
0.4999999999999999
 10
0.0
 20
0.0
 30
0.0
332
3D9A
 74
     2
 92
        0
 75
     0
  0
DIMASSOC
  5
4A29
102
{ACAD_REACTORS
330
4A1D
102
}
330
4A1D
100
AcDbDimAssoc
330
4A0E
 90
        3
 70
     0
 71
     0
  1
AcDbOsnapPointRef
 72
    13
331
4633
331
4628
 73
     2
 91
        0
 40
3.141592653589792
 10
0.0
 20
0.0
 30
2.000000000000000E+50
 75
     0
  1
AcDbOsnapPointRef
 72
     1
331
445F
331
4452
 73
     2
 91
        0
 40
1.0
 10
0.0
 20
0.0
 30
2.000000000000000E+50
 75
     0
  0
DIMASSOC
  5
4ACC
102
{ACAD_REACTORS
330
4AC2
102
}
330
4AC2
100
AcDbDimAssoc
330
4AB5
 90
        3
 70
     0
 71
     0
  1
AcDbOsnapPointRef
 72
    13
331
4633
331
4627
 73
     2
 91
        0
 40
0.0
 10
0.0
 20
0.0
 30
2.000000000000000E+50
 75
     0
  1
AcDbOsnapPointRef
 72
    13
331
4633
331
461B
 73
     2
 91
        0
 40
0.0
 10
0.0
 20
0.0
 30
2.000000000000000E+50
 75
     0
  0
DIMASSOC
  5
4AF6
102
{ACAD_REACTORS
330
4AEC
102
}
330
4AEC
100
AcDbDimAssoc
330
4ADF
 90
        3
 70
     0
 71
     0
  1
AcDbOsnapPointRef
 72
     1
331
445F
331
4430
 73
     2
 91
        0
 40
1.0
 10
0.0
 20
0.0
 30
2.000000000000000E+50
 75
     0
  1
AcDbOsnapPointRef
 72
     1
331
445F
331
4428
 73
     2
 91
        0
 40
1.0
 10
0.0
 20
0.0
 30
2.000000000000000E+50
 75
     0
  0
DIMASSOC
  5
4B0E
102
{ACAD_REACTORS
330
4B04
102
}
330
4B04
100
AcDbDimAssoc
330
4AF7
 90
        3
 70
     0
 71
     0
  1
AcDbOsnapPointRef
 72
     1
331
445F
331
4445
 73
     2
 91
        0
 40
1.0
 10
0.0
 20
0.0
 30
2.000000000000000E+50
 75
     0
  1
AcDbOsnapPointRef
 72
     8
331
445F
331
4425
 73
     2
 91
        0
 40
0.999999999999996
 10
0.0
 20
0.0
 30
0.0
 75
     1
  1
AcDbOsnapPointRef
 72
     1
331
445F
331
4445
 73
     2
 91
        0
 40
1.0
 10
0.0
 20
0.0
 30
2.000000000000000E+50
 75
     0
  0
DIMASSOC
  5
4B92
102
{ACAD_REACTORS
330
4B86
102
}
330
4B86
100
AcDbDimAssoc
330
4B77
 90
        3
 70
     0
 71
     0
  1
AcDbOsnapPointRef
 72
    13
331
455B
331
4545
 73
     2
 91
        0
 40
0.0
 10
0.0
 20
0.0
 30
2.000000000000000E+50
 75
     0
  1
AcDbOsnapPointRef
 72
    13
331
455B
331
4541
 73
     2
 91
        0
 40
0.0
 10
0.0
 20
0.0
 30
2.000000000000000E+50
 75
     0
  0
DIMASSOC
  5
4BAE
102
{ACAD_REACTORS
330
4BA2
102
}
330
4BA2
100
AcDbDimAssoc
330
4B93
 90
        3
 70
     0
 71
     0
  1
AcDbOsnapPointRef
 72
    13
331
455B
331
4545
 73
     2
 91
        0
 40
0.0
 10
0.0
 20
0.0
 30
2.000000000000000E+50
 75
     0
  1
AcDbOsnapPointRef
 72
    13
331
445F
331
4424
 73
     2
 91
        0
 40
0.0
 10
0.0
 20
0.0
 30
2.000000000000000E+50
 75
     0
  0
DIMASSOC
  5
4C9D
102
{ACAD_REACTORS
330
4C93
102
}
330
4C93
100
AcDbDimAssoc
330
4C86
 90
        3
 70
     0
 71
     0
  1
AcDbOsnapPointRef
 72
    13
331
455B
331
4549
 73
     2
 91
        0
 40
0.0
 10
0.0
 20
0.0
 30
2.000000000000000E+50
 75
     0
  1
AcDbOsnapPointRef
 72
    10
331
455B
331
4599
 73
     2
 91
        0
 40
0.0020916189106027
 10
0.0
 20
0.0
 30
0.0
 75
     0
  0
DIMASSOC
  5
4CB5
102
{ACAD_REACTORS
330
4CAB
102
}
330
4CAB
100
AcDbDimAssoc
330
4C9E
 90
        3
 70
     0
 71
     0
  1
AcDbOsnapPointRef
 72
    13
331
455B
331
4545
 73
     2
 91
        0
 40
0.0
 10
0.0
 20
0.0
 30
2.000000000000000E+50
 75
     0
  1
AcDbOsnapPointRef
 72
     1
331
445F
331
442B
 73
     2
 91
        0
 40
6.283185307179585
 10
0.0
 20
0.0
 30
2.000000000000000E+50
 75
     0
  0
DIMASSOC
  5
4CCD
102
{ACAD_REACTORS
330
4CC3
102
}
330
4CC3
100
AcDbDimAssoc
330
4CB6
 90
        3
 70
     0
 71
     0
  1
AcDbOsnapPointRef
 72
     1
331
445F
331
442B
 73
     2
 91
        0
 40
6.283185307179585
 10
0.0
 20
0.0
 30
2.000000000000000E+50
 75
     0
  1
AcDbOsnapPointRef
 72
    13
331
4633
331
462C
 73
     2
 91
        0
 40
0.0
 10
0.0
 20
0.0
 30
2.000000000000000E+50
 75
     0
  0
DIMASSOC
  5
4CE5
102
{ACAD_REACTORS
330
4CDB
102
}
330
4CDB
100
AcDbDimAssoc
330
4CCE
 90
        3
 70
     0
 71
     0
  1
AcDbOsnapPointRef
 72
    13
331
455B
331
4549
 73
     2
 91
        0
 40
0.0
 10
0.0
 20
0.0
 30
2.000000000000000E+50
 75
     0
  1
AcDbOsnapPointRef
 72
    10
331
4633
331
462C
 73
     2
 91
        0
 40
0.0132362506618142
 10
0.0
 20
0.0
 30
0.0
 75
     0
  0
DIMASSOC
  5
65C6
102
{ACAD_REACTORS
330
65C5
102
}
330
65C5
100
AcDbDimAssoc
330
65B6
 90
        3
 70
     0
 71
     0
  1
AcDbOsnapPointRef
 72
    13
331
4633
331
4619
 73
     0
 91
        0
 40
0.0
 10
0.0
 20
0.0
 30
2.000000000000000E+50
 75
     0
  1
AcDbOsnapPointRef
 72
     1
331
4633
331
4623
 73
     0
 91
        0
 40
0.0
 10
0.0
 20
0.0
 30
2.000000000000000E+50
 75
     0
  0
DIMASSOC
  5
65F6
102
{ACAD_REACTORS
330
65F5
102
}
330
65F5
100
AcDbDimAssoc
330
65E8
 90
        2
 70
     0
 71
     0
  1
AcDbOsnapPointRef
 72
     4
331
4A0E
331
60EC
 73
     0
 91
        0
 40
0.0
 10
0.0
 20
0.0
 30
0.0
 75
     0
  0
LAYOUT
  5
22
102
{ACAD_REACTORS
330
1A
102
}
330
1A
100
AcDbPlotSettings
  1

  2
KONICA MINOLTA 501 PCL
  4
A4
  6
AM_VIEW1
 40
5.027082920074462
 41
5.027085781097412
 42
5.027069091796875
 43
5.027069091796875
 44
209.9733276367186
 45
296.9259948730469
 46
0.0
 47
7.035077374691893
 48
0.0
 49
0.0
140
0.0
141
0.0
142
1.0
143
1.351267052474016
 70
 11956
 72
     1
 73
     1
 74
     1
  7
SEISA.ctb
 75
     0
147
0.7400461649450519
 76
     0
 77
     2
 78
   300
148
426.8193465830632
149
201.9050899493523
100
AcDbLayout
  1
Model
 70
     1
 71
     0
 10
0.0
 20
0.0
 11
12.0
 21
9.0
 12
0.0
 22
0.0
 32
0.0
 14
0.0
 24
0.0
 34
0.0
 15
0.0
 25
0.0
 35
0.0
146
0.0
 13
0.0
 23
0.0
 33
0.0
 16
1.0
 26
0.0
 36
0.0
 17
0.0
 27
1.0
 37
0.0
 76
     0
330
1F
331
27A
1001
ACAD_PSEXT
1000
KONICA MINOLTA 501 PCL
1000
KONICA MINOLTA 501/421/361PCL
1000
IP_192.168.20.231_(1)
1000

1070
     0
  0
LAYOUT
  5
1E
102
{ACAD_REACTORS
330
1A
102
}
330
1A
100
AcDbPlotSettings
  1

  2
none_device
  4
Letter_(8.50_x_11.00_Inches)
  6

 40
6.349999904632567
 41
6.349999904632567
 42
6.350006103515625
 43
6.350006103515625
 44
215.8999938964844
 45
279.3999938964844
 46
0.0
 47
0.0
 48
0.0
 49
0.0
140
0.0
141
0.0
142
1.0
143
1.0
 70
 15024
 72
     1
 73
     1
 74
     5
  7
SEISA.ctb
 75
    16
147
1.0
 76
     0
 77
     2
 78
   300
148
0.0
149
0.0
100
AcDbLayout
  1
レイアウト1
 70
     1
 71
     1
 10
0.0
 20
0.0
 11
420.0
 21
297.0
 12
0.0
 22
0.0
 32
0.0
 14
1.000000000000000E+20
 24
1.000000000000000E+20
 34
1.000000000000000E+20
 15
-1.000000000000000E+20
 25
-1.000000000000000E+20
 35
-1.000000000000000E+20
146
0.0
 13
0.0
 23
0.0
 33
0.0
 16
1.0
 26
0.0
 36
0.0
 17
0.0
 27
1.0
 37
0.0
 76
     0
330
1B
  0
LAYOUT
  5
26
102
{ACAD_REACTORS
330
1A
102
}
330
1A
100
AcDbPlotSettings
  1

  2
none_device
  4
Letter_(8.50_x_11.00_Inches)
  6

 40
6.349999904632567
 41
6.349999904632567
 42
6.350006103515625
 43
6.350006103515625
 44
215.8999938964844
 45
279.3999938964844
 46
0.0
 47
0.0
 48
0.0
 49
0.0
140
0.0
141
0.0
142
1.0
143
1.0
 70
 15024
 72
     1
 73
     1
 74
     5
  7
SEISA.ctb
 75
    16
147
1.0
 76
     0
 77
     2
 78
   300
148
0.0
149
0.0
100
AcDbLayout
  1
レイアウト2
 70
     1
 71
     2
 10
0.0
 20
0.0
 11
12.0
 21
9.0
 12
0.0
 22
0.0
 32
0.0
 14
0.0
 24
0.0
 34
0.0
 15
0.0
 25
0.0
 35
0.0
146
0.0
 13
0.0
 23
0.0
 33
0.0
 16
1.0
 26
0.0
 36
0.0
 17
0.0
 27
1.0
 37
0.0
 76
     0
330
23
  0
MATERIAL
  5
27D
102
{ACAD_REACTORS
330
C4
102
}
330
C4
100
AcDbMaterial
  1
ByBlock
 73
     1
 78
     1
172
     1
176
     1
270
     1
274
     1
 94
       63
  0
MATERIAL
  5
27C
102
{ACAD_REACTORS
330
C4
102
}
330
C4
100
AcDbMaterial
  1
ByLayer
 73
     1
 78
     1
172
     1
176
     1
270
     1
274
     1
 94
       63
  0
MATERIAL
  5
27E
102
{ACAD_REACTORS
330
C4
102
}
330
C4
100
AcDbMaterial
  1
Global
 73
     1
 78
     1
172
     1
176
     1
270
     1
274
     1
 94
       63
  0
MLEADERSTYLE
  5
2D6
102
{ACAD_REACTORS
330
2D5
102
}
330
2D5
100
AcDbMLeaderStyle
170
     2
171
     1
172
     0
 90
        2
 40
0.0
 41
0.0
173
     1
 91
-1056964608
340
14
 92
       -2
290
     1
 42
2.0
291
     1
 43
0.36
  3
Standard
 44
4.0
300

342
11
174
     1
178
     6
175
     1
176
     0
 93
-1056964608
 45
4.0
292
     0
297
     0
 46
4.0
 94
-1056964608
 47
1.0
 49
1.0
140
1.0
293
     1
141
0.0
294
     1
177
     0
142
1.0
295
     0
296
     0
143
0.125
1001
ACAD_MLEADERVER
1070
     2
  0
MLINESTYLE
  5
18
102
{ACAD_REACTORS
330
17
102
}
330
17
100
AcDbMlineStyle
  2
STANDARD
 70
     0
  3

 62
   256
 51
90.0
 52
90.0
 71
     2
 49
0.5
 62
   256
  6
BYLAYER
 49
-0.5
 62
   256
  6
BYLAYER
  0
PLOTSETTINGS
  5
1C7E
102
{ACAD_REACTORS
330
19
102
}
330
19
100
AcDbPlotSettings
  1
SEISA基本
  2
none_device
  4
Letter_(8.50_x_11.00_Inches)
  6

 40
6.349999904632567
 41
6.349999904632567
 42
6.350006103515625
 43
6.350006103515625
 44
215.8999938964844
 45
279.3999938964844
 46
7.302498226506357
 47
0.0
 48
0.0
 49
0.0
140
0.0
141
0.0
142
1.0
143
1.574803221122935
 70
 11956
 72
     1
 73
     1
 74
     2
  7
SEISA.ctb
 75
     0
147
0.6349999711627054
 76
     0
 77
     2
 78
   300
148
0.0
149
0.0
1001
ACAD_PSEXT
1000
なし
1000
なし
1000
適切ではありません
1000
新しいプロッタ環境設定名を選択しない限り、レイアウトは印刷されません。
1070
     0
  0
ACDBPLACEHOLDER
  5
F
102
{ACAD_REACTORS
330
E
102
}
330
E
  0
SCALE
  5
3626
102
{ACAD_REACTORS
330
2B3
102
}
330
2B3
100
AcDbScale
 70
     0
300
1:1.5
140
1.0
141
1.5
290
     0
  0
SCALE
  5
2B4
102
{ACAD_REACTORS
330
2B3
102
}
330
2B3
100
AcDbScale
 70
     0
300
1:1
140
1.0
141
1.0
290
     1
  0
SCALE
  5
2B5
102
{ACAD_REACTORS
330
2B3
102
}
330
2B3
100
AcDbScale
 70
     0
300
1:2
140
1.0
141
2.0
290
     0
  0
SCALE
  5
2B6
102
{ACAD_REACTORS
330
2B3
102
}
330
2B3
100
AcDbScale
 70
     0
300
1:4
140
1.0
141
4.0
290
     0
  0
SCALE
  5
2B7
102
{ACAD_REACTORS
330
2B3
102
}
330
2B3
100
AcDbScale
 70
     0
300
1:5
140
1.0
141
5.0
290
     0
  0
SCALE
  5
2B8
102
{ACAD_REACTORS
330
2B3
102
}
330
2B3
100
AcDbScale
 70
     0
300
1:8
140
1.0
141
8.0
290
     0
  0
SCALE
  5
2B9
102
{ACAD_REACTORS
330
2B3
102
}
330
2B3
100
AcDbScale
 70
     0
300
1:10
140
1.0
141
10.0
290
     0
  0
SCALE
  5
2BA
102
{ACAD_REACTORS
330
2B3
102
}
330
2B3
100
AcDbScale
 70
     0
300
1:16
140
1.0
141
16.0
290
     0
  0
SCALE
  5
2BB
102
{ACAD_REACTORS
330
2B3
102
}
330
2B3
100
AcDbScale
 70
     0
300
1:20
140
1.0
141
20.0
290
     0
  0
SCALE
  5
2BC
102
{ACAD_REACTORS
330
2B3
102
}
330
2B3
100
AcDbScale
 70
     0
300
1:30
140
1.0
141
30.0
290
     0
  0
SCALE
  5
2BD
102
{ACAD_REACTORS
330
2B3
102
}
330
2B3
100
AcDbScale
 70
     0
300
1:40
140
1.0
141
40.0
290
     0
  0
SCALE
  5
2BE
102
{ACAD_REACTORS
330
2B3
102
}
330
2B3
100
AcDbScale
 70
     0
300
1:50
140
1.0
141
50.0
290
     0
  0
SCALE
  5
2BF
102
{ACAD_REACTORS
330
2B3
102
}
330
2B3
100
AcDbScale
 70
     0
300
1:100
140
1.0
141
100.0
290
     0
  0
SCALE
  5
2C0
102
{ACAD_REACTORS
330
2B3
102
}
330
2B3
100
AcDbScale
 70
     0
300
2:1
140
2.0
141
1.0
290
     0
  0
SCALE
  5
2C1
102
{ACAD_REACTORS
330
2B3
102
}
330
2B3
100
AcDbScale
 70
     0
300
4:1
140
4.0
141
1.0
290
     0
  0
SCALE
  5
2C2
102
{ACAD_REACTORS
330
2B3
102
}
330
2B3
100
AcDbScale
 70
     0
300
8:1
140
8.0
141
1.0
290
     0
  0
SCALE
  5
2C3
102
{ACAD_REACTORS
330
2B3
102
}
330
2B3
100
AcDbScale
 70
     0
300
10:1
140
10.0
141
1.0
290
     0
  0
SCALE
  5
2C4
102
{ACAD_REACTORS
330
2B3
102
}
330
2B3
100
AcDbScale
 70
     0
300
100:1
140
100.0
141
1.0
290
     0
  0
SCALE
  5
2C5
102
{ACAD_REACTORS
330
2B3
102
}
330
2B3
100
AcDbScale
 70
     0
300
1/128" = 1'-0"
140
0.0078125
141
12.0
290
     0
  0
SCALE
  5
2C6
102
{ACAD_REACTORS
330
2B3
102
}
330
2B3
100
AcDbScale
 70
     0
300
1/64" = 1'-0"
140
0.015625
141
12.0
290
     0
  0
SCALE
  5
2C7
102
{ACAD_REACTORS
330
2B3
102
}
330
2B3
100
AcDbScale
 70
     0
300
1/32" = 1'-0"
140
0.03125
141
12.0
290
     0
  0
SCALE
  5
2C8
102
{ACAD_REACTORS
330
2B3
102
}
330
2B3
100
AcDbScale
 70
     0
300
1/16" = 1'-0"
140
0.0625
141
12.0
290
     0
  0
SCALE
  5
2C9
102
{ACAD_REACTORS
330
2B3
102
}
330
2B3
100
AcDbScale
 70
     0
300
3/32" = 1'-0"
140
0.09375
141
12.0
290
     0
  0
SCALE
  5
2CA
102
{ACAD_REACTORS
330
2B3
102
}
330
2B3
100
AcDbScale
 70
     0
300
1/8" = 1'-0"
140
0.125
141
12.0
290
     0
  0
SCALE
  5
2CB
102
{ACAD_REACTORS
330
2B3
102
}
330
2B3
100
AcDbScale
 70
     0
300
3/16" = 1'-0"
140
0.1875
141
12.0
290
     0
  0
SCALE
  5
2CC
102
{ACAD_REACTORS
330
2B3
102
}
330
2B3
100
AcDbScale
 70
     0
300
1/4" = 1'-0"
140
0.25
141
12.0
290
     0
  0
SCALE
  5
2CD
102
{ACAD_REACTORS
330
2B3
102
}
330
2B3
100
AcDbScale
 70
     0
300
3/8" = 1'-0"
140
0.375
141
12.0
290
     0
  0
SCALE
  5
2CE
102
{ACAD_REACTORS
330
2B3
102
}
330
2B3
100
AcDbScale
 70
     0
300
1/2" = 1'-0"
140
0.5
141
12.0
290
     0
  0
SCALE
  5
2CF
102
{ACAD_REACTORS
330
2B3
102
}
330
2B3
100
AcDbScale
 70
     0
300
3/4" = 1'-0"
140
0.75
141
12.0
290
     0
  0
SCALE
  5
2D0
102
{ACAD_REACTORS
330
2B3
102
}
330
2B3
100
AcDbScale
 70
     0
300
1" = 1'-0"
140
1.0
141
12.0
290
     0
  0
SCALE
  5
2D1
102
{ACAD_REACTORS
330
2B3
102
}
330
2B3
100
AcDbScale
 70
     0
300
1-1/2" = 1'-0"
140
1.5
141
12.0
290
     0
  0
SCALE
  5
2D2
102
{ACAD_REACTORS
330
2B3
102
}
330
2B3
100
AcDbScale
 70
     0
300
3" = 1'-0"
140
3.0
141
12.0
290
     0
  0
SCALE
  5
2D3
102
{ACAD_REACTORS
330
2B3
102
}
330
2B3
100
AcDbScale
 70
     0
300
6" = 1'-0"
140
6.0
141
12.0
290
     0
  0
SCALE
  5
2D4
102
{ACAD_REACTORS
330
2B3
102
}
330
2B3
100
AcDbScale
 70
     0
300
1'-0" = 1'-0"
140
12.0
141
12.0
290
     0
  0
TABLESTYLE
  5
122
102
{ACAD_XDICTIONARY
360
2F5
102
}
102
{ACAD_REACTORS
330
121
102
}
330
121
100
AcDbTableStyle
  3
Standard
 70
     0
 71
     0
 40
1.5
 41
1.5
280
     0
281
     0
  7
STANDARD
140
4.5
170
     2
 62
     0
 63
     7
283
     0
 90
      512
 91
        0
  1

274
    -2
284
     1
 64
     0
275
    -2
285
     1
 65
     0
276
    -2
286
     1
 66
     0
277
    -2
287
     1
 67
     0
278
    -2
288
     1
 68
     0
279
    -2
289
     1
 69
     0
  7
STANDARD
140
6.0
170
     5
 62
     0
 63
     7
283
     0
 90
      512
 91
        0
  1

274
    -2
284
     1
 64
     0
275
    -2
285
     1
 65
     0
276
    -2
286
     1
 66
     0
277
    -2
287
     1
 67
     0
278
    -2
288
     1
 68
     0
279
    -2
289
     1
 69
     0
  7
STANDARD
140
4.5
170
     5
 62
     0
 63
     7
283
     0
 90
      512
 91
        0
  1

274
    -2
284
     1
 64
     0
275
    -2
285
     1
 65
     0
276
    -2
286
     1
 66
     0
277
    -2
287
     1
 67
     0
278
    -2
288
     1
 68
     0
279
    -2
289
     1
 69
     0
  0
VISUALSTYLE
  5
285
102
{ACAD_REACTORS
330
27F
102
}
330
27F
100
AcDbVisualStyle
  2
2dWireframe
 70
     4
 71
     0
 72
     2
 73
     0
 90
        0
 40
-0.6
 41
-30.0
 62
     5
 63
     7
421
 16777215
 74
     1
 91
        4
 64
     7
 65
   257
 75
     1
175
     1
 42
1.0
 92
        0
 66
   257
 43
1.0
 76
     1
 77
     6
 78
     2
 67
     7
 79
     5
170
     0
171
     0
290
     0
174
     0
 93
        1
 44
0.0
173
     0
291
     0
 45
0.0
  0
VISUALSTYLE
  5
287
102
{ACAD_REACTORS
330
27F
102
}
330
27F
100
AcDbVisualStyle
  2
3D Hidden
 70
     6
 71
     1
 72
     2
 73
     2
 90
        0
 40
-0.6
 41
-30.0
 62
     5
 63
     7
421
 16777215
 74
     2
 91
        2
 64
     7
 65
   257
 75
     2
175
     1
 42
40.0
 92
        0
 66
   257
 43
1.0
 76
     1
 77
     6
 78
     2
 67
     7
 79
     3
170
     0
171
     0
290
     0
174
     0
 93
        1
 44
0.0
173
     0
291
     0
 45
0.0
  0
VISUALSTYLE
  5
286
102
{ACAD_REACTORS
330
27F
102
}
330
27F
100
AcDbVisualStyle
  2
3dWireframe
 70
     5
 71
     0
 72
     2
 73
     0
 90
        0
 40
-0.6
 41
-30.0
 62
     5
 63
     7
421
 16777215
 74
     1
 91
        4
 64
     7
 65
   257
 75
     1
175
     1
 42
1.0
 92
        0
 66
   257
 43
1.0
 76
     1
 77
     6
 78
     2
 67
     7
 79
     5
170
     0
171
     0
290
     0
174
     0
 93
        1
 44
0.0
173
     0
291
     0
 45
0.0
  0
VISUALSTYLE
  5
284
102
{ACAD_REACTORS
330
27F
102
}
330
27F
100
AcDbVisualStyle
  2
Basic
 70
     7
 71
     1
 72
     0
 73
     1
 90
        0
 40
-0.6
 41
-30.0
 62
     5
 63
     7
421
 16777215
 74
     0
 91
        4
 64
     7
 65
   257
 75
     1
175
     1
 42
1.0
 92
        8
 66
     7
 43
1.0
 76
     1
 77
     6
 78
     2
 67
     7
 79
     5
170
     0
171
     0
290
     0
174
     0
 93
        1
 44
0.0
173
     0
291
     1
 45
0.0
  0
VISUALSTYLE
  5
28B
102
{ACAD_REACTORS
330
27F
102
}
330
27F
100
AcDbVisualStyle
  2
Brighten
 70
    12
 71
     2
 72
     2
 73
     0
 90
        0
 40
-0.6
 41
-30.0
 62
     5
 63
     7
421
 16777215
 74
     1
 91
        4
 64
     7
 65
   257
 75
     1
175
     1
 42
1.0
 92
        8
 66
     7
 43
1.0
 76
     1
 77
     6
 78
     2
 67
     7
 79
     5
170
     0
171
     0
290
     0
174
     0
 93
        1
 44
50.0
173
     0
291
     1
 45
0.0
  0
VISUALSTYLE
  5
28F
102
{ACAD_REACTORS
330
27F
102
}
330
27F
100
AcDbVisualStyle
  2
ColorChange
 70
    16
 71
     2
 72
     2
 73
     3
 90
        0
 40
-0.6
 41
-30.0
 62
     5
 63
     8
421
  8421504
 74
     1
 91
        4
 64
     7
 65
   257
 75
     1
175
     1
 42
1.0
 92
        8
 66
     8
424
  8421504
 43
1.0
 76
     1
 77
     6
 78
     2
 67
     7
 79
     5
170
     0
171
     0
290
     0
174
     0
 93
        1
 44
0.0
173
     0
291
     1
 45
0.0
  0
VISUALSTYLE
  5
288
102
{ACAD_REACTORS
330
27F
102
}
330
27F
100
AcDbVisualStyle
  2
Conceptual
 70
     9
 71
     3
 72
     2
 73
     0
 90
        0
 40
-0.6
 41
-30.0
 62
     5
 63
     7
421
 16777215
 74
     2
 91
        2
 64
     7
 65
   257
 75
     1
175
     1
 42
40.0
 92
        8
 66
     7
 43
1.0
 76
     1
 77
     6
 78
     2
 67
     7
 79
     3
170
     0
171
     0
290
     0
174
     0
 93
        1
 44
0.0
173
     0
291
     0
 45
0.0
  0
VISUALSTYLE
  5
28A
102
{ACAD_REACTORS
330
27F
102
}
330
27F
100
AcDbVisualStyle
  2
Dim
 70
    11
 71
     2
 72
     2
 73
     0
 90
        0
 40
-0.6
 41
-30.0
 62
     5
 63
     7
421
 16777215
 74
     1
 91
        4
 64
     7
 65
   257
 75
     1
175
     1
 42
1.0
 92
        8
 66
     7
 43
1.0
 76
     1
 77
     6
 78
     2
 67
     7
 79
     5
170
     0
171
     0
290
     0
174
     0
 93
        1
 44
-50.0
173
     0
291
     1
 45
0.0
  0
VISUALSTYLE
  5
28E
102
{ACAD_REACTORS
330
27F
102
}
330
27F
100
AcDbVisualStyle
  2
Facepattern
 70
    15
 71
     2
 72
     2
 73
     0
 90
        0
 40
-0.6
 41
-30.0
 62
     5
 63
     7
421
 16777215
 74
     1
 91
        4
 64
     7
 65
   257
 75
     1
175
     1
 42
1.0
 92
        8
 66
     7
 43
1.0
 76
     1
 77
     6
 78
     2
 67
     7
 79
     5
170
     0
171
     0
290
     0
174
     0
 93
        1
 44
0.0
173
     0
291
     1
 45
0.0
  0
VISUALSTYLE
  5
280
102
{ACAD_REACTORS
330
27F
102
}
330
27F
100
AcDbVisualStyle
  2
Flat
 70
     0
 71
     2
 72
     1
 73
     1
 90
        2
 40
-0.6
 41
30.0
 62
     5
 63
     7
421
 16777215
 74
     0
 91
        4
 64
     7
 65
   257
 75
     1
175
     1
 42
1.0
 92
        8
 66
     7
 43
1.0
 76
     1
 77
     6
 78
     2
 67
     7
 79
     5
170
     0
171
     0
290
     0
174
     0
 93
       13
 44
0.0
173
     0
291
     1
 45
0.0
  0
VISUALSTYLE
  5
281
102
{ACAD_REACTORS
330
27F
102
}
330
27F
100
AcDbVisualStyle
  2
FlatWithEdges
 70
     1
 71
     2
 72
     1
 73
     1
 90
        2
 40
-0.6
 41
30.0
 62
     5
 63
     7
421
 16777215
 74
     1
 91
        4
 64
     7
 65
   257
 75
     1
175
     1
 42
1.0
 92
        0
 66
   257
 43
1.0
 76
     1
 77
     6
 78
     2
 67
     7
 79
     5
170
     0
171
     0
290
     0
174
     0
 93
       13
 44
0.0
173
     0
291
     1
 45
0.0
  0
VISUALSTYLE
  5
282
102
{ACAD_REACTORS
330
27F
102
}
330
27F
100
AcDbVisualStyle
  2
Gouraud
 70
     2
 71
     2
 72
     2
 73
     1
 90
        2
 40
-0.6
 41
30.0
 62
     5
 63
     7
421
 16777215
 74
     0
 91
        4
 64
     7
 65
   257
 75
     1
175
     1
 42
1.0
 92
        0
 66
     7
 43
1.0
 76
     1
 77
     6
 78
     2
 67
     7
 79
     5
170
     0
171
     0
290
     0
174
     0
 93
       13
 44
0.0
173
     0
291
     1
 45
0.0
  0
VISUALSTYLE
  5
283
102
{ACAD_REACTORS
330
27F
102
}
330
27F
100
AcDbVisualStyle
  2
GouraudWithEdges
 70
     3
 71
     2
 72
     2
 73
     1
 90
        2
 40
-0.6
 41
30.0
 62
     5
 63
     7
421
 16777215
 74
     1
 91
        4
 64
     7
 65
   257
 75
     1
175
     1
 42
1.0
 92
        0
 66
   257
 43
1.0
 76
     1
 77
     6
 78
     2
 67
     7
 79
     5
170
     0
171
     0
290
     0
174
     0
 93
       13
 44
0.0
173
     0
291
     1
 45
0.0
  0
VISUALSTYLE
  5
28D
102
{ACAD_REACTORS
330
27F
102
}
330
27F
100
AcDbVisualStyle
  2
Linepattern
 70
    14
 71
     2
 72
     2
 73
     0
 90
        0
 40
-0.6
 41
-30.0
 62
     5
 63
     7
421
 16777215
 74
     1
 91
        4
 64
     7
 65
   257
 75
     7
175
     7
 42
1.0
 92
        8
 66
     7
 43
1.0
 76
     1
 77
     6
 78
     2
 67
     7
 79
     5
170
     0
171
     0
290
     0
174
     0
 93
        1
 44
0.0
173
     0
291
     1
 45
0.0
  0
VISUALSTYLE
  5
289
102
{ACAD_REACTORS
330
27F
102
}
330
27F
100
AcDbVisualStyle
  2
Realistic
 70
     8
 71
     2
 72
     2
 73
     0
 90
        0
 40
-0.6
 41
-30.0
 62
     5
 63
     7
421
 16777215
 74
     1
 91
        0
 64
     7
 65
   257
 75
     1
175
     1
 42
1.0
 92
        8
 66
     8
424
  7895160
 43
1.0
 76
     1
 77
     6
 78
     2
 67
     7
 79
     5
170
     0
171
     0
290
     0
174
     0
 93
       13
 44
0.0
173
     0
291
     0
 45
0.0
  0
VISUALSTYLE
  5
28C
102
{ACAD_REACTORS
330
27F
102
}
330
27F
100
AcDbVisualStyle
  2
Thicken
 70
    13
 71
     2
 72
     2
 73
     0
 90
        0
 40
-0.6
 41
-30.0
 62
     5
 63
     7
421
 16777215
 74
     1
 91
        4
 64
     7
 65
   257
 75
     1
175
     1
 42
1.0
 92
       12
 66
     7
 43
1.0
 76
     1
 77
     6
 78
     2
 67
     7
 79
     5
170
     0
171
     0
290
     0
174
     0
 93
        1
 44
0.0
173
     0
291
     1
 45
0.0
  0
DICTIONARYVAR
  5
2FA
102
{ACAD_REACTORS
330
34
102
}
330
34
100
DictionaryVariables
280
     0
  1
1:2
  0
DICTIONARYVAR
  5
2F8
102
{ACAD_REACTORS
330
34
102
}
330
34
100
DictionaryVariables
280
     0
  1
STANDARD
  0
DICTIONARYVAR
  5
140
102
{ACAD_REACTORS
330
34
102
}
330
34
100
DictionaryVariables
280
     0
  1
STANDARD
  0
DICTIONARYVAR
  5
AC
102
{ACAD_REACTORS
330
34
102
}
330
34
100
DictionaryVariables
280
     0
  1
1
  0
DICTIONARYVAR
  5
35
102
{ACAD_REACTORS
330
34
102
}
330
34
100
DictionaryVariables
280
     0
  1
1
  0
DICTIONARYVAR
  5
3D39
102
{ACAD_REACTORS
330
34
102
}
330
34
100
DictionaryVariables
280
     0
  1
1
  0
DICTIONARYVAR
  5
3D3A
102
{ACAD_REACTORS
330
34
102
}
330
34
100
DictionaryVariables
280
     0
  1
15
  0
DICTIONARYVAR
  5
2FB
102
{ACAD_REACTORS
330
34
102
}
330
34
100
DictionaryVariables
280
     0
  1
0
  0
DICTIONARYVAR
  5
2F9
102
{ACAD_REACTORS
330
34
102
}
330
34
100
DictionaryVariables
280
     0
  1
0
  0
DICTIONARY
  5
161B
102
{ACAD_REACTORS
330
49
102
}
330
49
100
AcDbDictionary
281
     1
  0
DICTIONARY
  5
4A
102
{ACAD_REACTORS
330
49
102
}
330
49
100
AcDbDictionary
281
     1
  0
XRECORD
  5
12B
102
{ACAD_REACTORS
330
49
102
}
330
49
100
AcDbXrecord
280
     1
 90
-1023410169
  0
DICTIONARY
  5
2F5
330
122
100
AcDbDictionary
280
     1
281
     1
  3
ACAD_ROUNDTRIP_2008_TABLESTYLE_CELLSTYLEMAP
360
6833
  0
CELLSTYLEMAP
  5
6833
102
{ACAD_REACTORS
330
2F5
102
}
330
2F5
100
AcDbCellStyleMap
 90
        3
300
CELLSTYLE
  1
TABLEFORMAT_BEGIN
 90
        5
170
     1
 91
        0
 92
    32768
 62
   257
 93
        1
300
CONTENTFORMAT
  1
CONTENTFORMAT_BEGIN
 90
        0
 91
        0
 92
      512
 93
        0
300

 40
0.0
140
1.0
 94
        5
 62
     0
340
11
144
6.0
309
CONTENTFORMAT_END
171
     1
301
MARGIN
  1
CELLMARGIN_BEGIN
 40
1.5
 40
1.5
 40
1.5
 40
1.5
 40
0.18
 40
0.18
309
CELLMARGIN_END
 94
        6
 95
        1
302
GRIDFORMAT
  1
GRIDFORMAT_BEGIN
 90
        0
 91
        1
 62
     0
 92
       -2
340
0
 93
        0
 40
0.045
309
GRIDFORMAT_END
 95
        2
302
GRIDFORMAT
  1
GRIDFORMAT_BEGIN
 90
        0
 91
        1
 62
     0
 92
       -2
340
0
 93
        0
 40
0.045
309
GRIDFORMAT_END
 95
        4
302
GRIDFORMAT
  1
GRIDFORMAT_BEGIN
 90
        0
 91
        1
 62
     0
 92
       -2
340
0
 93
        0
 40
0.045
309
GRIDFORMAT_END
 95
        8
302
GRIDFORMAT
  1
GRIDFORMAT_BEGIN
 90
        0
 91
        1
 62
     0
 92
       -2
340
0
 93
        0
 40
0.045
309
GRIDFORMAT_END
 95
       16
302
GRIDFORMAT
  1
GRIDFORMAT_BEGIN
 90
        0
 91
        1
 62
     0
 92
       -2
340
0
 93
        0
 40
0.045
309
GRIDFORMAT_END
 95
       32
302
GRIDFORMAT
  1
GRIDFORMAT_BEGIN
 90
        0
 91
        1
 62
     0
 92
       -2
340
0
 93
        0
 40
0.045
309
GRIDFORMAT_END
309
TABLEFORMAT_END
  1
CELLSTYLE_BEGIN
 90
        1
 91
        1
300
_TITLE
309
CELLSTYLE_END
300
CELLSTYLE
  1
TABLEFORMAT_BEGIN
 90
        5
170
     1
 91
        0
 92
        0
 62
   257
 93
        1
300
CONTENTFORMAT
  1
CONTENTFORMAT_BEGIN
 90
        0
 91
        0
 92
      512
 93
        0
300

 40
0.0
140
1.0
 94
        5
 62
     0
340
11
144
4.5
309
CONTENTFORMAT_END
171
     1
301
MARGIN
  1
CELLMARGIN_BEGIN
 40
1.5
 40
1.5
 40
1.5
 40
1.5
 40
0.18
 40
0.18
309
CELLMARGIN_END
 94
        6
 95
        1
302
GRIDFORMAT
  1
GRIDFORMAT_BEGIN
 90
        0
 91
        1
 62
     0
 92
       -2
340
0
 93
        0
 40
0.045
309
GRIDFORMAT_END
 95
        2
302
GRIDFORMAT
  1
GRIDFORMAT_BEGIN
 90
        0
 91
        1
 62
     0
 92
       -2
340
0
 93
        0
 40
0.045
309
GRIDFORMAT_END
 95
        4
302
GRIDFORMAT
  1
GRIDFORMAT_BEGIN
 90
        0
 91
        1
 62
     0
 92
       -2
340
0
 93
        0
 40
0.045
309
GRIDFORMAT_END
 95
        8
302
GRIDFORMAT
  1
GRIDFORMAT_BEGIN
 90
        0
 91
        1
 62
     0
 92
       -2
340
0
 93
        0
 40
0.045
309
GRIDFORMAT_END
 95
       16
302
GRIDFORMAT
  1
GRIDFORMAT_BEGIN
 90
        0
 91
        1
 62
     0
 92
       -2
340
0
 93
        0
 40
0.045
309
GRIDFORMAT_END
 95
       32
302
GRIDFORMAT
  1
GRIDFORMAT_BEGIN
 90
        0
 91
        1
 62
     0
 92
       -2
340
0
 93
        0
 40
0.045
309
GRIDFORMAT_END
309
TABLEFORMAT_END
  1
CELLSTYLE_BEGIN
 90
        2
 91
        1
300
_HEADER
309
CELLSTYLE_END
300
CELLSTYLE
  1
TABLEFORMAT_BEGIN
 90
        5
170
     1
 91
        0
 92
        0
 62
   257
 93
        1
300
CONTENTFORMAT
  1
CONTENTFORMAT_BEGIN
 90
        0
 91
        0
 92
      512
 93
        0
300

 40
0.0
140
1.0
 94
        2
 62
     0
340
11
144
4.5
309
CONTENTFORMAT_END
171
     1
301
MARGIN
  1
CELLMARGIN_BEGIN
 40
1.5
 40
1.5
 40
1.5
 40
1.5
 40
0.18
 40
0.18
309
CELLMARGIN_END
 94
        6
 95
        1
302
GRIDFORMAT
  1
GRIDFORMAT_BEGIN
 90
        0
 91
        1
 62
     0
 92
       -2
340
0
 93
        0
 40
0.045
309
GRIDFORMAT_END
 95
        2
302
GRIDFORMAT
  1
GRIDFORMAT_BEGIN
 90
        0
 91
        1
 62
     0
 92
       -2
340
0
 93
        0
 40
0.045
309
GRIDFORMAT_END
 95
        4
302
GRIDFORMAT
  1
GRIDFORMAT_BEGIN
 90
        0
 91
        1
 62
     0
 92
       -2
340
0
 93
        0
 40
0.045
309
GRIDFORMAT_END
 95
        8
302
GRIDFORMAT
  1
GRIDFORMAT_BEGIN
 90
        0
 91
        1
 62
     0
 92
       -2
340
0
 93
        0
 40
0.045
309
GRIDFORMAT_END
 95
       16
302
GRIDFORMAT
  1
GRIDFORMAT_BEGIN
 90
        0
 91
        1
 62
     0
 92
       -2
340
0
 93
        0
 40
0.045
309
GRIDFORMAT_END
 95
       32
302
GRIDFORMAT
  1
GRIDFORMAT_BEGIN
 90
        0
 91
        1
 62
     0
 92
       -2
340
0
 93
        0
 40
0.045
309
GRIDFORMAT_END
309
TABLEFORMAT_END
  1
CELLSTYLE_BEGIN
 90
        3
 91
        2
300
_DATA
309
CELLSTYLE_END
  0
ENDSEC
  0
EOF
