  0
SECTION
  2
HEADER
  9
$ACADVER
  1
AC1021
  9
$ACADMAINTVER
 70
    26
  9
$DWGCODEPAGE
  3
ANSI_932
  9
$LASTSAVEDBY
  1
Htm_Terada
  9
$CUSTOMPROPERTYTAG
  1
AmdtFileType
  9
$CUSTOMPROPERTY
  1
84
  9
$INSBASE
 10
0.0
 20
0.0
 30
0.0
  9
$EXTMIN
 10
255.2450981593104
 20
262.4706174729009
 30
0.0
  9
$EXTMAX
 10
611.7786812233016
 20
528.2902654801984
 30
0.0
  9
$LIMMIN
 10
0.0000003828677109
 20
0.000000738764129
  9
$LIMMAX
 10
840.0000003828676
 20
594.0000007387642
  9
$ORTHOMODE
 70
     1
  9
$REGENMODE
 70
     1
  9
$FILLMODE
 70
     1
  9
$QTEXTMODE
 70
     0
  9
$MIRRTEXT
 70
     1
  9
$LTSCALE
 40
2.0
  9
$ATTMODE
 70
     1
  9
$TEXTSIZE
 40
25.0
  9
$TRACEWID
 40
1.0
  9
$TEXTSTYLE
  7
SEISA
  9
$CLAYER
  8
AM_5 寸法線
  9
$CELTYPE
  6
ByLayer
  9
$CECOLOR
 62
   256
  9
$CELTSCALE
 40
1.0
  9
$DISPSILH
 70
     0
  9
$DIMSCALE
 40
2.0
  9
$DIMASZ
 40
2.5
  9
$DIMEXO
 40
0.625
  9
$DIMDLI
 40
10.0
  9
$DIMRND
 40
0.0
  9
$DIMDLE
 40
0.0
  9
$DIMEXE
 40
0.625
  9
$DIMTP
 40
0.1
  9
$DIMTM
 40
0.1
  9
$DIMTXT
 40
3.5
  9
$DIMCEN
 40
0.0
  9
$DIMTSZ
 40
0.0
  9
$DIMTOL
 70
     0
  9
$DIMLIM
 70
     0
  9
$DIMTIH
 70
     0
  9
$DIMTOH
 70
     0
  9
$DIMSE1
 70
     0
  9
$DIMSE2
 70
     0
  9
$DIMTAD
 70
     3
  9
$DIMZIN
 70
     8
  9
$DIMBLK
  1
Open30
  9
$DIMASO
 70
     1
  9
$DIMSHO
 70
     1
  9
$DIMPOST
  1

  9
$DIMAPOST
  1
"
  9
$DIMALT
 70
     0
  9
$DIMALTD
 70
     2
  9
$DIMALTF
 40
0.0393701
  9
$DIMLFAC
 40
1.0
  9
$DIMTOFL
 70
     1
  9
$DIMTVP
 40
0.0
  9
$DIMTIX
 70
     0
  9
$DIMSOXD
 70
     0
  9
$DIMSAH
 70
     0
  9
$DIMBLK1
  1

  9
$DIMBLK2
  1

  9
$DIMSTYLE
  2
SEISA
  9
$DIMCLRD
 70
     3
  9
$DIMCLRE
 70
     3
  9
$DIMCLRT
 70
     3
  9
$DIMTFAC
 40
0.71
  9
$DIMGAP
 40
1.5
  9
$DIMJUST
 70
     0
  9
$DIMSD1
 70
     0
  9
$DIMSD2
 70
     0
  9
$DIMTOLJ
 70
     0
  9
$DIMTZIN
 70
     0
  9
$DIMALTZ
 70
     0
  9
$DIMALTTZ
 70
     8
  9
$DIMUPT
 70
     0
  9
$DIMDEC
 70
     2
  9
$DIMTDEC
 70
     2
  9
$DIMALTU
 70
     2
  9
$DIMALTTD
 70
     2
  9
$DIMTXSTY
  7
SEISA
  9
$DIMAUNIT
 70
     0
  9
$DIMADEC
 70
     0
  9
$DIMALTRND
 40
0.0
  9
$DIMAZIN
 70
     2
  9
$DIMDSEP
 70
    46
  9
$DIMATFIT
 70
     3
  9
$DIMFRAC
 70
     0
  9
$DIMLDRBLK
  1
Open30
  9
$DIMLUNIT
 70
     2
  9
$DIMLWD
 70
    -1
  9
$DIMLWE
 70
    -1
  9
$DIMTMOVE
 70
     0
  9
$DIMFXL
 40
1.0
  9
$DIMFXLON
 70
     0
  9
$DIMJOGANG
 40
0.7853981633974483
  9
$DIMTFILL
 70
     0
  9
$DIMTFILLCLR
 70
     0
  9
$DIMARCSYM
 70
     1
  9
$DIMLTYPE
  6

  9
$DIMLTEX1
  6

  9
$DIMLTEX2
  6

  9
$LUNITS
 70
     2
  9
$LUPREC
 70
     2
  9
$SKETCHINC
 40
1.0
  9
$FILLETRAD
 40
5.0
  9
$AUNITS
 70
     0
  9
$AUPREC
 70
     0
  9
$MENU
  1
.
  9
$ELEVATION
 40
0.0
  9
$PELEVATION
 40
0.0
  9
$THICKNESS
 40
0.0
  9
$LIMCHECK
 70
     0
  9
$CHAMFERA
 40
0.9999999999998292
  9
$CHAMFERB
 40
0.9999999999998292
  9
$CHAMFERC
 40
0.9999999999998292
  9
$CHAMFERD
 40
0.7853981633974483
  9
$SKPOLY
 70
     0
  9
$TDCREATE
 40
2454908.461121401
  9
$TDUCREATE
 40
2454908.086121401
  9
$TDUPDATE
 40
2456478.705489722
  9
$TDUUPDATE
 40
2456478.330489722
  9
$TDINDWG
 40
0.2579892477
  9
$TDUSRTIMER
 40
0.2579885417
  9
$USRTIMER
 70
     1
  9
$ANGBASE
 50
0.0
  9
$ANGDIR
 70
     0
  9
$PDMODE
 70
     0
  9
$PDSIZE
 40
0.0
  9
$PLINEWID
 40
0.0
  9
$SPLFRAME
 70
     0
  9
$SPLINETYPE
 70
     6
  9
$SPLINESEGS
 70
     8
  9
$HANDSEED
  5
6FD6
  9
$SURFTAB1
 70
     6
  9
$SURFTAB2
 70
     6
  9
$SURFTYPE
 70
     6
  9
$SURFU
 70
     6
  9
$SURFV
 70
     6
  9
$UCSBASE
  2

  9
$UCSNAME
  2

  9
$UCSORG
 10
0.0
 20
0.0
 30
0.0
  9
$UCSXDIR
 10
1.0
 20
0.0
 30
0.0
  9
$UCSYDIR
 10
0.0
 20
1.0
 30
0.0
  9
$UCSORTHOREF
  2

  9
$UCSORTHOVIEW
 70
     0
  9
$UCSORGTOP
 10
0.0
 20
0.0
 30
0.0
  9
$UCSORGBOTTOM
 10
0.0
 20
0.0
 30
0.0
  9
$UCSORGLEFT
 10
0.0
 20
0.0
 30
0.0
  9
$UCSORGRIGHT
 10
0.0
 20
0.0
 30
0.0
  9
$UCSORGFRONT
 10
0.0
 20
0.0
 30
0.0
  9
$UCSORGBACK
 10
0.0
 20
0.0
 30
0.0
  9
$PUCSBASE
  2

  9
$PUCSNAME
  2

  9
$PUCSORG
 10
0.0
 20
0.0
 30
0.0
  9
$PUCSXDIR
 10
1.0
 20
0.0
 30
0.0
  9
$PUCSYDIR
 10
0.0
 20
1.0
 30
0.0
  9
$PUCSORTHOREF
  2

  9
$PUCSORTHOVIEW
 70
     0
  9
$PUCSORGTOP
 10
0.0
 20
0.0
 30
0.0
  9
$PUCSORGBOTTOM
 10
0.0
 20
0.0
 30
0.0
  9
$PUCSORGLEFT
 10
0.0
 20
0.0
 30
0.0
  9
$PUCSORGRIGHT
 10
0.0
 20
0.0
 30
0.0
  9
$PUCSORGFRONT
 10
0.0
 20
0.0
 30
0.0
  9
$PUCSORGBACK
 10
0.0
 20
0.0
 30
0.0
  9
$USERI1
 70
     0
  9
$USERI2
 70
     0
  9
$USERI3
 70
     0
  9
$USERI4
 70
     0
  9
$USERI5
 70
     0
  9
$USERR1
 40
0.0
  9
$USERR2
 40
0.0
  9
$USERR3
 40
0.0
  9
$USERR4
 40
0.0
  9
$USERR5
 40
0.0
  9
$WORLDVIEW
 70
     1
  9
$SHADEDGE
 70
     3
  9
$SHADEDIF
 70
    70
  9
$TILEMODE
 70
     1
  9
$MAXACTVP
 70
    64
  9
$PINSBASE
 10
0.0
 20
0.0
 30
0.0
  9
$PLIMCHECK
 70
     0
  9
$PEXTMIN
 10
1.000000000000000E+20
 20
1.000000000000000E+20
 30
1.000000000000000E+20
  9
$PEXTMAX
 10
-1.000000000000000E+20
 20
-1.000000000000000E+20
 30
-1.000000000000000E+20
  9
$PLIMMIN
 10
0.0
 20
0.0
  9
$PLIMMAX
 10
420.0
 20
297.0
  9
$UNITMODE
 70
     0
  9
$VISRETAIN
 70
     1
  9
$PLINEGEN
 70
     0
  9
$PSLTSCALE
 70
     1
  9
$TREEDEPTH
 70
  3020
  9
$CMLSTYLE
  2
Standard
  9
$CMLJUST
 70
     0
  9
$CMLSCALE
 40
20.0
  9
$PROXYGRAPHICS
 70
     1
  9
$MEASUREMENT
 70
     1
  9
$CELWEIGHT
370
    -1
  9
$ENDCAPS
280
     0
  9
$JOINSTYLE
280
     0
  9
$LWDISPLAY
290
     0
  9
$INSUNITS
 70
     4
  9
$HYPERLINKBASE
  1

  9
$STYLESHEET
  1
SEISA.CTB
  9
$XEDIT
290
     1
  9
$CEPSNTYPE
380
     0
  9
$PSTYLEMODE
290
     1
  9
$FINGERPRINTGUID
  2
{EC6E1928-70F1-4AD4-9F25-86EBE7A90C52}
  9
$VERSIONGUID
  2
{02C66B8C-9A12-4BD7-AD64-79CF16EF6258}
  9
$EXTNAMES
290
     1
  9
$PSVPSCALE
 40
0.0
  9
$OLESTARTUP
290
     0
  9
$SORTENTS
280
   127
  9
$INDEXCTL
280
     0
  9
$HIDETEXT
280
     0
  9
$XCLIPFRAME
290
     0
  9
$HALOGAP
280
     0
  9
$OBSCOLOR
 70
   257
  9
$OBSLTYPE
280
     0
  9
$INTERSECTIONDISPLAY
280
     0
  9
$INTERSECTIONCOLOR
 70
   257
  9
$DIMASSOC
280
     2
  9
$PROJECTNAME
  1

  9
$CAMERADISPLAY
290
     0
  9
$LENSLENGTH
 40
50.0
  9
$CAMERAHEIGHT
 40
0.0
  9
$STEPSPERSEC
 40
2.0
  9
$STEPSIZE
 40
6.0
  9
$3DDWFPREC
 40
2.0
  9
$PSOLWIDTH
 40
0.25
  9
$PSOLHEIGHT
 40
4.0
  9
$LOFTANG1
 40
1.570796326794896
  9
$LOFTANG2
 40
1.570796326794896
  9
$LOFTMAG1
 40
0.0
  9
$LOFTMAG2
 40
0.0
  9
$LOFTPARAM
 70
     7
  9
$LOFTNORMALS
280
     1
  9
$LATITUDE
 40
37.795
  9
$LONGITUDE
 40
-122.394
  9
$NORTHDIRECTION
 40
0.0
  9
$TIMEZONE
 70
 -8000
  9
$LIGHTGLYPHDISPLAY
280
     1
  9
$TILEMODELIGHTSYNCH
280
     1
  9
$CMATERIAL
347
27C
  9
$SOLIDHIST
280
     1
  9
$SHOWHIST
280
     1
  9
$DWFFRAME
280
     2
  9
$DGNFRAME
280
     0
  9
$REALWORLDSCALE
290
     1
  9
$INTERFERECOLOR
 62
     1
  9
$INTERFEREOBJVS
345
289
  9
$INTERFEREVPVS
346
286
  9
$CSHADOW
280
     0
  9
$SHADOWPLANELOCATION
 40
0.0
  0
ENDSEC
  0
SECTION
  2
CLASSES
  0
CLASS
  1
ACDBDICTIONARYWDFLT
  2
AcDbDictionaryWithDefault
  3
ObjectDBX Classes
 90
        0
 91
        1
280
     0
281
     0
  0
CLASS
  1
AMGSETTINGSOBJ
  2
AmgSettingsObj
  3
"AcadM|Product Description: AutoCAD Mechanical|Company: Autodesk, Inc."
 90
     1024
 91
        2
280
     0
281
     0
  0
CLASS
  1
ACME_DOCUMENT
  2
AcMeDbDoc
  3
AcMeServices
 90
     1024
 91
        1
280
     0
281
     0
  0
CLASS
  1
ACMESCOPE
  2
AcMeScope
  3
AcMeServices
 90
     1024
 91
        1
280
     0
281
     0
  0
CLASS
  1
ACMECOMMANDHISTORY
  2
AcMeCommandHistory
  3
AcMeServices
 90
     1024
 91
        1
280
     0
281
     0
  0
CLASS
  1
DICTIONARYVAR
  2
AcDbDictionaryVar
  3
ObjectDBX Classes
 90
        0
 91
        9
280
     0
281
     0
  0
CLASS
  1
ACIMSYSVARMAN
  2
AcImSysVarManager
  3
AcMeServices
 90
     1024
 91
        5
280
     0
281
     0
  0
CLASS
  1
ACIMREALSYSVAR
  2
AcImRealSysVar
  3
AcMeServices
 90
     1024
 91
        1
280
     0
281
     0
  0
CLASS
  1
ACIMINTSYSVAR
  2
AcImIntSysVar
  3
AcMeServices
 90
     1024
 91
       27
280
     0
281
     0
  0
CLASS
  1
ACMEDRAWINGMAN
  2
AcMeDrawingMan
  3
AcMeServices
 90
     1024
 91
        1
280
     0
281
     0
  0
CLASS
  1
ACMEVIEW
  2
AcMeView
  3
AcMeServices
 90
     1024
 91
        1
280
     0
281
     0
  0
CLASS
  1
ACDBENTITYCACHE
  2
AcMeEntityCache
  3
AcMeServices
 90
     1024
 91
        1
280
     0
281
     0
  0
CLASS
  1
GSMANAGER
  2
AcMeGSManager
  3
AcMeServices
 90
     1024
 91
        1
280
     0
281
     0
  0
CLASS
  1
AMDTINTERNALREACTOR
  2
AmdtInternalReactor
  3
AcMeServices
 90
     1024
 91
        2
280
     0
281
     0
  0
CLASS
  1
ACMESTATEMGR
  2
AcMeStateMgr
  3
AcMeServices
 90
     1024
 91
        1
280
     0
281
     0
  0
CLASS
  1
ACGREFMASTER
  2
AcGrefMaster
  3
AcAttribServices
 90
     1024
 91
        1
280
     0
281
     0
  0
CLASS
  1
ACME_DATABASE
  2
AcMeDbDatabase
  3
AcMeServices
 90
     1024
 91
        1
280
     0
281
     0
  0
CLASS
  1
ACRFINSADJUSTERMGR
  2
AcRfInsAdjusterMgr
  3
AcMeServices
 90
     1024
 91
        1
280
     0
281
     0
  0
CLASS
  1
ACGREFACADMASTER
  2
AcGrefacadMaster
  3
AcGrefServices
 90
     1024
 91
        1
280
     0
281
     0
  0
CLASS
  1
AMIMASTER
  2
AmiMaster
  3
AmiServices
 90
     1024
 91
        1
280
     0
281
     0
  0
CLASS
  1
ACIMSTRSYSVAR
  2
AcImStrSysVar
  3
AcMeServices
 90
     1024
 91
        5
280
     0
281
     0
  0
CLASS
  1
ACMSTANDARDJIS
  2
AcmStandardJIS
  3
"Amdt_StdImp|Product Description: AutoCAD Mechanical|Company: Autodesk, Inc."
 90
     1024
 91
        0
280
     0
281
     0
  0
CLASS
  1
AMGOBJPROPCFG
  2
AmgObjPropCfg
  3
"AmgLay|Product Description: AutoCAD Mechanical|Company: Autodesk, Inc."
 90
     1025
 91
        1
280
     0
281
     0
  0
CLASS
  1
ACMSURFSTANDARDJIS
  2
AcmSurfTextStdJIS
  3
"Amdt_StdImp|Product Description: AutoCAD Mechanical|Company: Autodesk, Inc."
 90
     1024
 91
        0
280
     0
281
     0
  0
CLASS
  1
ACMFCFSTANDARDJIS
  2
AcmFCFStdJIS
  3
"Amdt_StdImp|Product Description: AutoCAD Mechanical|Company: Autodesk, Inc."
 90
     1024
 91
        0
280
     0
281
     0
  0
CLASS
  1
ACMWELDSTANDARDJIS
  2
AcmWeldingStdJIS
  3
"Amdt_StdImp|Product Description: AutoCAD Mechanical|Company: Autodesk, Inc."
 90
     1024
 91
        0
280
     0
281
     0
  0
CLASS
  1
ACMIDSTANDARDJIS
  2
AcmIdStdJIS
  3
"Amdt_StdImp|Product Description: AutoCAD Mechanical|Company: Autodesk, Inc."
 90
     1024
 91
        0
280
     0
281
     0
  0
CLASS
  1
ACMDATUMSTANDARDJIS
  2
AcmDatumStdJIS
  3
"Amdt_StdImp|Product Description: AutoCAD Mechanical|Company: Autodesk, Inc."
 90
     1024
 91
        0
280
     0
281
     0
  0
CLASS
  1
ACMBOMSTANDARDJIS
  2
AcmBOMStdJIS
  3
"Amdt_StdImp|Product Description: AutoCAD Mechanical|Company: Autodesk, Inc."
 90
     1024
 91
        0
280
     0
281
     0
  0
CLASS
  1
ACMDETAILSTANDARDJIS
  2
AmdtDetailSymStdJIS
  3
"Amdt_StdImp|Product Description: AutoCAD Mechanical|Company: Autodesk, Inc."
 90
     1024
 91
        0
280
     0
281
     0
  0
CLASS
  1
ACMSECTIONSTANDARDJIS
  2
AmdtSectionSymStdJIS
  3
"Amdt_StdImp|Product Description: AutoCAD Mechanical|Company: Autodesk, Inc."
 90
     1024
 91
        0
280
     0
281
     0
  0
CLASS
  1
ACMCENTERLINESTANDARDJIS
  2
AmdtCenterLineStdJIS
  3
"Amdt_StdImp|Product Description: AutoCAD Mechanical|Company: Autodesk, Inc."
 90
     1024
 91
        0
280
     0
281
     0
  0
CLASS
  1
ACMTHREADLINESTANDARDJIS
  2
AmdtThreadLineStdJIS
  3
"Amdt_StdImp|Product Description: AutoCAD Mechanical|Company: Autodesk, Inc."
 90
     1024
 91
        0
280
     0
281
     0
  0
CLASS
  1
ACAMGLAYSTD
  2
AcAmgLayStd
  3
"AmgLay|Product Description: AutoCAD Mechanical|Company: Autodesk, Inc."
 90
     1024
 91
        1
280
     0
281
     0
  0
CLASS
  1
ACAMGDIMSTD
  2
AcAmgDimStd
  3
"AmgDim|Product Description: AutoCAD Mechanical|Company: Autodesk, Inc."
 90
     1024
 91
        1
280
     0
281
     0
  0
CLASS
  1
ACAMGTITLESTD
  2
AcAmgTitleStd
  3
"AmgTitle|Product Description: AutoCAD Mechanical|Company: Autodesk, Inc."
 90
     4095
 91
        1
280
     0
281
     0
  0
CLASS
  1
ACMDATADICTIONARY
  2
AcmDataDictionary
  3
"AcmSymBB|Product Description: AutoCAD Mechanical|Company: Autodesk, Inc."
 90
     1024
 91
        1
280
     0
281
     0
  0
CLASS
  1
ACMDATAENTRYBLOCK
  2
AcmDataEntryBlock
  3
AcmSymBB|Product Description: AutoCAD Mechanical|Company: Autodesk, Inc.
 90
     1024
 91
        0
280
     0
281
     0
  0
CLASS
  1
LAYER_INDEX
  2
AcDbLayerIndex
  3
ObjectDBX Classes
 90
        0
 91
        0
280
     0
281
     0
  0
CLASS
  1
IDBUFFER
  2
AcDbIdBuffer
  3
ObjectDBX Classes
 90
        0
 91
        0
280
     0
281
     0
  0
CLASS
  1
ACMNOTESTANDARDJIS
  2
AmdtNoteStdJIS
  3
"Amdt_StdImp|Product Description: AutoCAD Mechanical|Company: Autodesk, Inc."
 90
     1024
 91
        0
280
     0
281
     0
  0
CLASS
  1
ACAMGHOLECHARTSTDJIS
  2
AcAmgHoleChartStdJIS
  3
AmgDim|Product Description: AutoCAD Mechanical|Company: Autodesk, Inc.
 90
     1024
 91
        0
280
     0
281
     0
  0
CLASS
  1
AM_DRAWING_MGR
  2
AcDmDwgMgr
  3
AcMechDwgViewMgmt
 90
     1024
 91
        1
280
     0
281
     0
  0
CLASS
  1
AM_DWG_DOCUMENT
  2
AcDmDwgDocument
  3
AcMechDwgViewMgmt
 90
     1024
 91
        1
280
     0
281
     0
  0
CLASS
  1
AM_DWG_SHEET
  2
AcDmSheet
  3
AcMechDwgViewMgmt
 90
     1024
 91
        2
280
     0
281
     0
  0
CLASS
  1
AM_VIEWDIMPARMAP
  2
AcDmViewDimParMap
  3
AcMechDwgViewMgmt
 90
     1024
 91
        2
280
     0
281
     0
  0
CLASS
  1
AM_DWGMGR_NAME
  2
AcDmDwgMgrName
  3
AcMechDwgViewMgmt
 90
     1024
 91
        1
280
     0
281
     0
  0
CLASS
  1
AMDTMENUSTATEMGR
  2
AmdtMenuStateMgr
  3
McadcomServices
 90
     1024
 91
        1
280
     0
281
     0
  0
CLASS
  1
AMDTMCOMMENUSTATE
  2
AmdtMcomMenuState
  3
McadcomServices
 90
     1024
 91
        1
280
     0
281
     0
  0
CLASS
  1
MAPIAMMOUDLE
  2
MApiAmModule
  3
MApiAmServices
 90
     1024
 91
        1
280
     0
281
     0
  0
CLASS
  1
AMDTADMENUSTATE
  2
AmdtAdMenuState
  3
DesignerServices
 90
     1024
 91
        1
280
     0
281
     0
  0
CLASS
  1
ADAPPL
  2
AcAdAppl
  3
DesignerServices
 90
     1024
 91
        1
280
     0
281
     0
  0
CLASS
  1
DEPMGR
  2
AcAdDepMgr
  3
DesignerServices
 90
     1024
 91
        1
280
     0
281
     0
  0
CLASS
  1
PARAMMGR
  2
AcAdParamMgr
  3
DesignerServices
 90
     1024
 91
        1
280
     0
281
     0
  0
CLASS
  1
PARAMSCOPE
  2
AcAdParamScope
  3
DesignerServices
 90
     1024
 91
        1
280
     0
281
     0
  0
CLASS
  1
NAMEDAPPL
  2
AcAdNamedAppl
  3
DesignerServices
 90
     1024
 91
        1
280
     0
281
     0
  0
CLASS
  1
AMDTDMMENUSTATE
  2
AmdtDmMenuState
  3
AcMechDwgViewMgmt
 90
     1024
 91
        1
280
     0
281
     0
  0
CLASS
  1
AMDTAMMENUSTATE
  2
AmdtAmMenuState
  3
DesignerAssemblies
 90
     1024
 91
        1
280
     0
281
     0
  0
CLASS
  1
ACAMPROJECT
  2
AcAmProject
  3
DesignerAssemblies
 90
     1024
 91
        1
280
     0
281
     0
  0
CLASS
  1
ACAMGRCOMPDEF
  2
AcAmGrCompDef
  3
DesignerAssemblies
 90
     1024
 91
        1
280
     0
281
     0
  0
CLASS
  1
ACCMCONTEXT
  2
AcCmContext
  3
DesignerAssemblies
 90
     1024
 91
        1
280
     0
281
     0
  0
CLASS
  1
ACAMCOMPDEF
  2
AcAmCompDef
  3
DesignerAssemblies
 90
     1024
 91
        1
280
     0
281
     0
  0
CLASS
  1
ACAMCOMPDEFMGR
  2
AcAmCompDefMgr
  3
DesignerAssemblies
 90
     1024
 91
        1
280
     0
281
     0
  0
CLASS
  1
AMCONTEXTMGR
  2
AcAmContextMgr
  3
DesignerAssemblies
 90
     1024
 91
        1
280
     0
281
     0
  0
CLASS
  1
ACAMCONTEXTMODELER
  2
AcAmContextModeler
  3
DesignerAssemblies
 90
     1024
 91
        1
280
     0
281
     0
  0
CLASS
  1
CATALOGSTATE
  2
AcAmCatalogState
  3
DesignerAssemblies
 90
     1024
 91
        1
280
     0
281
     0
  0
CLASS
  1
ACAMGRCOMPDEFSET
  2
AcAmGrCompDefSet
  3
DesignerAssemblies
 90
     1024
 91
        1
280
     0
281
     0
  0
CLASS
  1
AMDTBROWSERDBTAB
  2
AmdtBrowserDbTab
  3
McadcomServices
 90
     1024
 91
        1
280
     0
281
     0
  0
CLASS
  1
CBROWSERAPPOBJECT
  2
CBrowserAppObject
  3
McadcomServices
 90
     1024
 91
        3
280
     0
281
     0
  0
CLASS
  1
DM_PLACEHOLDER
  2
AcDmSelsetPlaceholder
  3
AcMechDwgViewMgmt
 90
     1024
 91
        1
280
     0
281
     0
  0
CLASS
  1
TABLESTYLE
  2
AcDbTableStyle
  3
ObjectDBX Classes
 90
     4095
 91
        1
280
     0
281
     0
  0
CLASS
  1
VAACXREFPANELOBJECT
  2
VaAcXREFPanelObject
  3
VAAC_ADDIN
 90
        0
 91
        0
280
     0
281
     0
  0
CLASS
  1
VAACIMAGEINVENTORY
  2
VaAcImageInventory
  3
VAAC_ADDIN
 90
        0
 91
        0
280
     0
281
     0
  0
CLASS
  1
AMDTNOTETEMPLATEDB
  2
AmdtNoteTemplateDB
  3
AcmSymBB|Product Description: AutoCAD Mechanical|Company: Autodesk, Inc.
 90
     1024
 91
        6
280
     0
281
     0
  0
CLASS
  1
ACAMGFILTERDAT
  2
AcAmgFilterDat
  3
"AcadM|Product Description: AutoCAD Mechanical|Company: Autodesk, Inc."
 90
     1024
 91
        0
280
     0
281
     0
  0
CLASS
  1
MATERIAL
  2
AcDbMaterial
  3
ObjectDBX Classes
 90
     1153
 91
        3
280
     0
281
     0
  0
CLASS
  1
VISUALSTYLE
  2
AcDbVisualStyle
  3
ObjectDBX Classes
 90
     4095
 91
       16
280
     0
281
     0
  0
CLASS
  1
ACRFATTGENMGR
  2
AcRfAttGeneralMgr
  3
AcAttribServices
 90
     1024
 91
        0
280
     0
281
     0
  0
CLASS
  1
ACRFOBJATTMGR
  2
AcRfObjAttGroupMgr
  3
AcAttribServices
 90
     1024
 91
        0
280
     0
281
     0
  0
CLASS
  1
ACRFMCADAPIATTHOLDER
  2
AcRfMCADAPIAttHolder
  3
AcAttribServices
 90
     1024
 91
        0
280
     0
281
     0
  0
CLASS
  1
AMDTSYSATTR
  2
AmdtSystemAttribute
  3
AcAttribServices
 90
     1024
 91
        0
280
     0
281
     0
  0
CLASS
  1
ACMTAPERSTANDARDJIS
  2
AcmTaperStdJIS
  3
"Amdt_StdImp|Product Description: AutoCAD Mechanical|Company: Autodesk, Inc."
 90
     1024
 91
        0
280
     0
281
     0
  0
CLASS
  1
CAMSSTRUCTBTNSTATE
  2
StructBtnState
  3
DesignerAssemblies
 90
     1024
 91
        0
280
     0
281
     0
  0
CLASS
  1
SCALE
  2
AcDbScale
  3
ObjectDBX Classes
 90
     1153
 91
       34
280
     0
281
     0
  0
CLASS
  1
MLEADERSTYLE
  2
AcDbMLeaderStyle
  3
ACDB_MLEADERSTYLE_CLASS
 90
     4095
 91
        1
280
     0
281
     0
  0
CLASS
  1
ACMANOOTATIONVIEWSTANDARDJIS
  2
AmdtAnViewStdJIS
  3
"Amdt_StdImp|Product Description: AutoCAD Mechanical|Company: Autodesk, Inc."
 90
     1024
 91
        0
280
     0
281
     0
  0
CLASS
  1
ACMSURFSTANDARDJIS2003
  2
AcmSurfTextStdJIS2003
  3
"Amdt_StdImp|Product Description: AutoCAD Mechanical|Company: Autodesk, Inc."
 90
     1024
 91
        0
280
     0
281
     0
  0
CLASS
  1
CELLSTYLEMAP
  2
AcDbCellStyleMap
  3
ObjectDBX Classes
 90
     1152
 91
        2
280
     0
281
     0
  0
CLASS
  1
ACMFCFSTANDARDJIS98
  2
AcmFCFStdJIS98
  3
"Amdt_StdImp|Product Description: AutoCAD Mechanical|Company: Autodesk, Inc."
 90
     1024
 91
        0
280
     0
281
     0
  0
CLASS
  1
SORTENTSTABLE
  2
AcDbSortentsTable
  3
ObjectDBX Classes
 90
        0
 91
        9
280
     0
281
     0
  0
CLASS
  1
DIMASSOC
  2
AcDbDimAssoc
  3
"AcDbDimAssoc|Product Desc:     AcDim ARX App For Dimension|Company:          Autodesk, Inc.|WEB Address:      www.autodesk.com"
 90
        0
 91
       15
280
     0
281
     0
  0
CLASS
  1
STDPART2D
  2
AmgStdPart
  3
AmgStdPart|Product Description: AutoCAD Mechanical|Company: Autodesk, Inc.
 90
     4095
 91
        0
280
     0
281
     1
  0
CLASS
  1
ACMDATAENTRYPART
  2
AcmDataEntryPart
  3
AcmSymBB|Product Description: AutoCAD Mechanical|Company: Autodesk, Inc.
 90
     1024
 91
        0
280
     0
281
     0
  0
CLASS
  1
ACMPARTREF
  2
AcmPartRef
  3
"AcmSymBB|Product Description: AutoCAD Mechanical|Company: Autodesk, Inc."
 90
     4095
 91
        0
280
     0
281
     1
  0
CLASS
  1
ACDBSTDPARTRES_LINE
  2
AcDbStdPartRes_Line
  3
AmgStdPart|Product Description: AutoCAD Mechanical|Company: Autodesk, Inc.
 90
     1024
 91
        0
280
     0
281
     0
  0
CLASS
  1
ACMBOM
  2
AcmBom
  3
"AcmSymBB|Product Description: AutoCAD Mechanical|Company: Autodesk, Inc."
 90
     1024
 91
        0
280
     0
281
     0
  0
CLASS
  1
AMDTFORMULAUPDATEDISPATCHER
  2
AmdtFormulaUpdateDispatcher
  3
AcMeServices
 90
     1024
 91
        0
280
     0
281
     0
  0
CLASS
  1
ACMBOMROW
  2
AcmBomRow
  3
"AcmSymBB|Product Description: AutoCAD Mechanical|Company: Autodesk, Inc."
 90
     1024
 91
        0
280
     0
281
     0
  0
CLASS
  1
ACMPARTLIST
  2
AcmPartList
  3
"AcmSymBB|Product Description: AutoCAD Mechanical|Company: Autodesk, Inc."
 90
     4095
 91
        0
280
     0
281
     1
  0
CLASS
  1
ACDBLINERES
  2
AcDbLineRes
  3
AcGrefServices
 90
     1024
 91
        0
280
     0
281
     0
  0
CLASS
  1
ACRFINSADJ
  2
AcRfInsAdjuster
  3
AcMeServices
 90
     1024
 91
        0
280
     0
281
     0
  0
CLASS
  1
ACMSTANDARDISO
  2
AcmStandardISO
  3
"Amdt_StdImp|Product Description: AutoCAD Mechanical|Company: Autodesk, Inc."
 90
     1024
 91
        1
280
     0
281
     0
  0
CLASS
  1
AMDTEDGESTANDARDISO13715
  2
AmdtEdgeStdISO13715
  3
"Amdt_StdImp|Product Description: AutoCAD Mechanical|Company: Autodesk, Inc."
 90
     1024
 91
        1
280
     0
281
     0
  0
CLASS
  1
ACMSURFSTANDARDISO2002
  2
AcmSurfTextStdISO2002
  3
"Amdt_StdImp|Product Description: AutoCAD Mechanical|Company: Autodesk, Inc."
 90
     1024
 91
        1
280
     0
281
     0
  0
CLASS
  1
ACMFCFSTANDARDISO
  2
AcmFCFStdISO
  3
"Amdt_StdImp|Product Description: AutoCAD Mechanical|Company: Autodesk, Inc."
 90
     1024
 91
        1
280
     0
281
     0
  0
CLASS
  1
ACMWELDSTANDARDISO
  2
AcmWeldingStdISO
  3
"Amdt_StdImp|Product Description: AutoCAD Mechanical|Company: Autodesk, Inc."
 90
     1024
 91
        1
280
     0
281
     0
  0
CLASS
  1
ACMIDSTANDARDISO
  2
AcmIdStdISO
  3
"Amdt_StdImp|Product Description: AutoCAD Mechanical|Company: Autodesk, Inc."
 90
     1024
 91
        1
280
     0
281
     0
  0
CLASS
  1
ACMDATUMSTANDARDISO
  2
AcmDatumStdISO
  3
"Amdt_StdImp|Product Description: AutoCAD Mechanical|Company: Autodesk, Inc."
 90
     1024
 91
        1
280
     0
281
     0
  0
CLASS
  1
ACMBOMSTANDARDISO
  2
AcmBOMStdISO
  3
"Amdt_StdImp|Product Description: AutoCAD Mechanical|Company: Autodesk, Inc."
 90
     1024
 91
        1
280
     0
281
     0
  0
CLASS
  1
ACMDETAILSTANDARDISO
  2
AmdtDetailSymStdISO
  3
"Amdt_StdImp|Product Description: AutoCAD Mechanical|Company: Autodesk, Inc."
 90
     1024
 91
        1
280
     0
281
     0
  0
CLASS
  1
ACMSECTIONSTANDARDISO2001
  2
AmdtSectionSymStdISO2001
  3
"Amdt_StdImp|Product Description: AutoCAD Mechanical|Company: Autodesk, Inc."
 90
     1024
 91
        1
280
     0
281
     0
  0
CLASS
  1
ACMCENTERLINESTANDARDISO
  2
AmdtCenterLineStdISO
  3
"Amdt_StdImp|Product Description: AutoCAD Mechanical|Company: Autodesk, Inc."
 90
     1024
 91
        1
280
     0
281
     0
  0
CLASS
  1
ACMTHREADLINESTANDARDISO
  2
AmdtThreadLineStdISO
  3
"Amdt_StdImp|Product Description: AutoCAD Mechanical|Company: Autodesk, Inc."
 90
     1024
 91
        1
280
     0
281
     0
  0
CLASS
  1
ACMNOTESTANDARDISO
  2
AmdtNoteStdISO
  3
"Amdt_StdImp|Product Description: AutoCAD Mechanical|Company: Autodesk, Inc."
 90
     1024
 91
        1
280
     0
281
     0
  0
CLASS
  1
ACMTAPERSTANDARDISO
  2
AcmTaperStdISO
  3
"Amdt_StdImp|Product Description: AutoCAD Mechanical|Company: Autodesk, Inc."
 90
     1024
 91
        1
280
     0
281
     0
  0
CLASS
  1
ACMANOOTATIONVIEWSTANDARDISO
  2
AmdtAnViewStdISO
  3
"Amdt_StdImp|Product Description: AutoCAD Mechanical|Company: Autodesk, Inc."
 90
     1024
 91
        1
280
     0
281
     0
  0
CLASS
  1
ACAMGHOLECHARTSTDISO
  2
AcAmgHoleChartStdISO
  3
AmgDim|Product Description: AutoCAD Mechanical|Company: Autodesk, Inc.
 90
     1024
 91
        1
280
     0
281
     0
  0
CLASS
  1
EXACXREFPANELOBJECT
  2
ExAcXREFPanelObject
  3
EXAC_ESW
 90
     1025
 91
        0
280
     0
281
     0
  0
CLASS
  1
NPOCOLLECTION
  2
AcDbImpNonPersistentObjectsCollection
  3
ObjectDBX Classes
 90
     1153
 91
        0
280
     0
281
     0
  0
CLASS
  1
ACDBSTDPARTRES_ARC
  2
AcDbStdPartRes_Arc
  3
AmgStdPart|Product Description: AutoCAD Mechanical|Company: Autodesk, Inc.
 90
     1024
 91
        0
280
     0
281
     0
  0
CLASS
  1
AMDTNOTE
  2
AmdtNote
  3
"AcmSymBB|Product Description: AutoCAD Mechanical|Company: Autodesk, Inc."
 90
     4095
 91
        0
280
     0
281
     1
  0
CLASS
  1
PLOTSETTINGS
  2
AcDbPlotSettings
  3
ObjectDBX Classes
 90
        0
 91
        1
280
     0
281
     0
  0
CLASS
  1
ACMSTANDARDANSI
  2
AcmStandardANSI
  3
"Amdt_StdImp|Product Description: AutoCAD Mechanical|Company: Autodesk, Inc."
 90
     1024
 91
        0
280
     0
281
     0
  0
CLASS
  1
ACMSURFSTANDARDANSI
  2
AcmSurfTextStdANSI
  3
"Amdt_StdImp|Product Description: AutoCAD Mechanical|Company: Autodesk, Inc."
 90
     1024
 91
        0
280
     0
281
     0
  0
CLASS
  1
ACMFCFSTANDARDANSI
  2
AcmFCFStdANSI
  3
"Amdt_StdImp|Product Description: AutoCAD Mechanical|Company: Autodesk, Inc."
 90
     1024
 91
        0
280
     0
281
     0
  0
CLASS
  1
ACMWELDSTANDARDANSI
  2
AcmWeldingStdANSI
  3
"Amdt_StdImp|Product Description: AutoCAD Mechanical|Company: Autodesk, Inc."
 90
     1024
 91
        0
280
     0
281
     0
  0
CLASS
  1
ACMIDSTANDARDANSI
  2
AcmIdStdANSI
  3
"Amdt_StdImp|Product Description: AutoCAD Mechanical|Company: Autodesk, Inc."
 90
     1024
 91
        0
280
     0
281
     0
  0
CLASS
  1
ACMDATUMSTANDARDANSI
  2
AcmDatumStdANSI
  3
"Amdt_StdImp|Product Description: AutoCAD Mechanical|Company: Autodesk, Inc."
 90
     1024
 91
        0
280
     0
281
     0
  0
CLASS
  1
ACMBOMSTANDARDANSI
  2
AcmBOMStdANSI
  3
"Amdt_StdImp|Product Description: AutoCAD Mechanical|Company: Autodesk, Inc."
 90
     1024
 91
        0
280
     0
281
     0
  0
CLASS
  1
ACMDETAILSTANDARDANSI
  2
AmdtDetailSymStdANSI
  3
"Amdt_StdImp|Product Description: AutoCAD Mechanical|Company: Autodesk, Inc."
 90
     1024
 91
        0
280
     0
281
     0
  0
CLASS
  1
ACMSECTIONSTANDARDANSI
  2
AmdtSectionSymStdANSI
  3
"Amdt_StdImp|Product Description: AutoCAD Mechanical|Company: Autodesk, Inc."
 90
     1024
 91
        0
280
     0
281
     0
  0
CLASS
  1
ACMCENTERLINESTANDARDANSI
  2
AmdtCenterLineStdANSI
  3
"Amdt_StdImp|Product Description: AutoCAD Mechanical|Company: Autodesk, Inc."
 90
     1024
 91
        0
280
     0
281
     0
  0
CLASS
  1
ACMTHREADLINESTANDARDANSI
  2
AmdtThreadLineStdANSI
  3
"Amdt_StdImp|Product Description: AutoCAD Mechanical|Company: Autodesk, Inc."
 90
     1024
 91
        0
280
     0
281
     0
  0
CLASS
  1
ACMNOTESTANDARDANSI
  2
AmdtNoteStdANSI
  3
"Amdt_StdImp|Product Description: AutoCAD Mechanical|Company: Autodesk, Inc."
 90
     1024
 91
        0
280
     0
281
     0
  0
CLASS
  1
ACMTAPERSTANDARDANSI
  2
AcmTaperStdANSI
  3
"Amdt_StdImp|Product Description: AutoCAD Mechanical|Company: Autodesk, Inc."
 90
     1024
 91
        0
280
     0
281
     0
  0
CLASS
  1
ACMANOOTATIONVIEWSTANDARDANSI
  2
AmdtAnViewStdANSI
  3
"Amdt_StdImp|Product Description: AutoCAD Mechanical|Company: Autodesk, Inc."
 90
     1024
 91
        0
280
     0
281
     0
  0
CLASS
  1
ACAMGHOLECHARTSTDANSI
  2
AcAmgHoleChartStdANSI
  3
AmgDim|Product Description: AutoCAD Mechanical|Company: Autodesk, Inc.
 90
     1024
 91
        0
280
     0
281
     0
  0
CLASS
  1
ACMSTANDARDBSI
  2
AcmStandardBSI
  3
"Amdt_StdImp|Product Description: AutoCAD Mechanical|Company: Autodesk, Inc."
 90
     1024
 91
        0
280
     0
281
     0
  0
CLASS
  1
ACMSURFSTANDARDBSI2002
  2
AcmSurfTextStdBSI2002
  3
"Amdt_StdImp|Product Description: AutoCAD Mechanical|Company: Autodesk, Inc."
 90
     1024
 91
        0
280
     0
281
     0
  0
CLASS
  1
ACMFCFSTANDARDBSI
  2
AcmFCFStdBSI
  3
"Amdt_StdImp|Product Description: AutoCAD Mechanical|Company: Autodesk, Inc."
 90
     1024
 91
        0
280
     0
281
     0
  0
CLASS
  1
ACMWELDSTANDARDBSI
  2
AcmWeldingStdBSI
  3
"Amdt_StdImp|Product Description: AutoCAD Mechanical|Company: Autodesk, Inc."
 90
     1024
 91
        0
280
     0
281
     0
  0
CLASS
  1
ACMIDSTANDARDBSI
  2
AcmIdStdBSI
  3
"Amdt_StdImp|Product Description: AutoCAD Mechanical|Company: Autodesk, Inc."
 90
     1024
 91
        0
280
     0
281
     0
  0
CLASS
  1
ACMDATUMSTANDARDBSI
  2
AcmDatumStdBSI
  3
"Amdt_StdImp|Product Description: AutoCAD Mechanical|Company: Autodesk, Inc."
 90
     1024
 91
        0
280
     0
281
     0
  0
CLASS
  1
ACMBOMSTANDARDBSI
  2
AcmBOMStdBSI
  3
"Amdt_StdImp|Product Description: AutoCAD Mechanical|Company: Autodesk, Inc."
 90
     1024
 91
        0
280
     0
281
     0
  0
CLASS
  1
ACMDETAILSTANDARDBSI
  2
AmdtDetailSymStdBSI
  3
"Amdt_StdImp|Product Description: AutoCAD Mechanical|Company: Autodesk, Inc."
 90
     1024
 91
        0
280
     0
281
     0
  0
CLASS
  1
ACMSECTIONSTANDARDBSI2001
  2
AmdtSectionSymStdBSI2001
  3
"Amdt_StdImp|Product Description: AutoCAD Mechanical|Company: Autodesk, Inc."
 90
     1024
 91
        0
280
     0
281
     0
  0
CLASS
  1
ACMCENTERLINESTANDARDBSI
  2
AmdtCenterLineStdBSI
  3
"Amdt_StdImp|Product Description: AutoCAD Mechanical|Company: Autodesk, Inc."
 90
     1024
 91
        0
280
     0
281
     0
  0
CLASS
  1
ACMTHREADLINESTANDARDBSI
  2
AmdtThreadLineStdBSI
  3
"Amdt_StdImp|Product Description: AutoCAD Mechanical|Company: Autodesk, Inc."
 90
     1024
 91
        0
280
     0
281
     0
  0
CLASS
  1
ACMNOTESTANDARDBSI
  2
AmdtNoteStdBSI
  3
"Amdt_StdImp|Product Description: AutoCAD Mechanical|Company: Autodesk, Inc."
 90
     1024
 91
        0
280
     0
281
     0
  0
CLASS
  1
ACMTAPERSTANDARDBSI
  2
AcmTaperStdBSI
  3
"Amdt_StdImp|Product Description: AutoCAD Mechanical|Company: Autodesk, Inc."
 90
     1024
 91
        0
280
     0
281
     0
  0
CLASS
  1
ACMANOOTATIONVIEWSTANDARDBSI
  2
AmdtAnViewStdBSI
  3
"Amdt_StdImp|Product Description: AutoCAD Mechanical|Company: Autodesk, Inc."
 90
     1024
 91
        0
280
     0
281
     0
  0
CLASS
  1
ACAMGHOLECHARTSTDBSI
  2
AcAmgHoleChartStdBSI
  3
AmgDim|Product Description: AutoCAD Mechanical|Company: Autodesk, Inc.
 90
     1024
 91
        0
280
     0
281
     0
  0
CLASS
  1
AMDTEDGESTANDARDJIS
  2
AmdtEdgeStdJIS
  3
"Amdt_StdImp|Product Description: AutoCAD Mechanical|Company: Autodesk, Inc."
 90
     1024
 91
        0
280
     0
281
     0
  0
CLASS
  1
ACMSURFSYM
  2
AcmSurfaceTexture
  3
"AcmSymBB|Product Description: AutoCAD Mechanical|Company: Autodesk, Inc."
 90
     4095
 91
        0
280
     0
281
     1
  0
CLASS
  1
ACDBDIMENSIONRES
  2
AcDbDimensionRes
  3
AcmSymBB|Product Description: AutoCAD Mechanical|Company: Autodesk, Inc.
 90
     1024
 91
        0
280
     0
281
     0
  0
CLASS
  1
ACDBCIRCARCRES
  2
AcDbCircArcRes
  3
AcGrefServices
 90
     1024
 91
        0
280
     0
281
     0
  0
CLASS
  1
ACMDIMBREAKPERSREACTOR
  2
AcmDimBreakPersReactor
  3
AmgDim|Product Description: AutoCAD Mechanical|Company: Autodesk, Inc.
 90
     4095
 91
        0
280
     0
281
     0
  0
CLASS
  1
AMDTACMWBLOCKBOMENTITY
  2
AmdtAcmWblockBomEntity
  3
"AcmSymBB|Product Description: AutoCAD Mechanical|Company: Autodesk, Inc."
 90
     4095
 91
        0
280
     0
281
     1
  0
CLASS
  1
ACDBOPPOLYLINERES
  2
AcDbOpPolylineRes
  3
AcGrefServices
 90
     1024
 91
        0
280
     0
281
     0
  0
CLASS
  1
ACDB_BLKREFOBJECTCONTEXTDATA_CLASS
  2
AcDbBlkRefObjectContextData
  3
ObjectDBX Classes
 90
     1153
 91
        0
280
     0
281
     0
  0
CLASS
  1
ACMPICKOBJ
  2
AcmPickEnt
  3
"AcmSymBB|Product Description: AutoCAD Mechanical|Company: Autodesk, Inc."
 90
     1024
 91
        0
280
     0
281
     1
  0
CLASS
  1
ACMBALLOON
  2
AcmBalloon
  3
"AcmSymBB|Product Description: AutoCAD Mechanical|Company: Autodesk, Inc."
 90
     4095
 91
        0
280
     0
281
     1
  0
ENDSEC
  0
SECTION
  2
TABLES
  0
TABLE
  2
VPORT
  5
8
330
0
100
AcDbSymbolTable
 70
     1
  0
VPORT
  5
27A
330
8
100
AcDbSymbolTableRecord
100
AcDbViewportTableRecord
  2
*Active
 70
     0
 10
0.0
 20
0.0
 11
1.0
 21
1.0
 12
647.681952410433
 22
357.5483067137938
 13
0.0
 23
0.0
 14
5.0
 24
5.0
 15
20.0
 25
20.0
 16
0.0
 26
0.0
 36
1.0
 17
0.0
 27
0.0
 37
0.0
 40
446.3195380993981
 41
1.638814016172506
 42
50.0
 43
0.0
 44
0.0
 50
0.0
 51
0.0
 71
    16
 72
 20000
 73
     1
 74
     3
 75
     0
 76
     0
 77
     0
 78
     0
281
     0
 65
     0
110
0.0
120
0.0
130
0.0
111
1.0
121
0.0
131
0.0
112
0.0
122
1.0
132
0.0
 79
     0
146
0.0
348
285
 60
     3
 61
     5
292
     1
282
     0
141
0.0
142
0.0
 63
   250
421
  3355443
  0
ENDTAB
  0
TABLE
  2
LTYPE
  5
5
330
0
100
AcDbSymbolTable
 70
    22
  0
LTYPE
  5
14
330
5
100
AcDbSymbolTableRecord
100
AcDbLinetypeTableRecord
  2
ByBlock
 70
     0
  3

 72
    65
 73
     0
 40
0.0
  0
LTYPE
  5
15
330
5
100
AcDbSymbolTableRecord
100
AcDbLinetypeTableRecord
  2
ByLayer
 70
     0
  3

 72
    65
 73
     0
 40
0.0
  0
LTYPE
  5
16
330
5
100
AcDbSymbolTableRecord
100
AcDbLinetypeTableRecord
  2
Continuous
 70
     0
  3
Solid line
 72
    65
 73
     0
 40
0.0
  0
LTYPE
  5
4D
330
5
100
AcDbSymbolTableRecord
100
AcDbLinetypeTableRecord
  2
AM_ISO02W050
 70
     0
  3
__ __ __ __ __ __ __ __ __ __ __ __ __ __ __
 72
    65
 73
     2
 40
7.5
 49
6.0
 74
     0
 49
-1.5
 74
     0
  0
LTYPE
  5
4E
330
5
100
AcDbSymbolTableRecord
100
AcDbLinetypeTableRecord
  2
AM_ISO08W050
 70
     0
  3
____ . ____ . ____ . ____ . ____ . ____ . ____
 72
    65
 73
     4
 40
18.0
 49
12.0
 74
     0
 49
-1.5
 74
     0
 49
3.0
 74
     0
 49
-1.5
 74
     0
  0
LTYPE
  5
4F
330
5
100
AcDbSymbolTableRecord
100
AcDbLinetypeTableRecord
  2
AM_ISO09W050
 70
     0
  3
_____ . . _____ . . _____ . . ____ .. ____
 72
    65
 73
     6
 40
22.5
 49
12.0
 74
     0
 49
-1.5
 74
     0
 49
3.0
 74
     0
 49
-1.5
 74
     0
 49
3.0
 74
     0
 49
-1.5
 74
     0
  0
LTYPE
  5
50
330
5
100
AcDbSymbolTableRecord
100
AcDbLinetypeTableRecord
  2
Amconstr
 70
     0
  3
_______________________
 72
    65
 73
     2
 40
9999.0
 49
9999.0
 74
     0
 49
0.0
 74
     0
  0
LTYPE
  5
51
330
5
100
AcDbSymbolTableRecord
100
AcDbLinetypeTableRecord
  2
AM_ISO08W050x2
 70
     0
  3
__ . __ . __ . __ . __ . __
 72
    65
 73
     4
 40
9.0
 49
6.0
 74
     0
 49
-0.75
 74
     0
 49
1.5
 74
     0
 49
-0.75
 74
     0
  0
LTYPE
  5
52
330
5
100
AcDbSymbolTableRecord
100
AcDbLinetypeTableRecord
  2
AM_ISO02W050x2
 70
     0
  3
 _ _ _ _ _ _ _ _ _ _ _ _
 72
    65
 73
     2
 40
3.75
 49
3.0
 74
     0
 49
-0.75
 74
     0
  0
LTYPE
  5
55
330
5
100
AcDbSymbolTableRecord
100
AcDbLinetypeTableRecord
  2
Amzigzag
 70
     0
  3
/\/-/\/-/\/-/\/-/\/-/\/
 72
    65
 73
     2
 40
11.0001
 49
0.0001
 74
     4
 75
   136
340
23D
 46
0.04
 50
0.0
 44
0.0
 45
0.0
 49
-11.0
 74
     0
  0
LTYPE
  5
65
330
5
100
AcDbSymbolTableRecord
100
AcDbLinetypeTableRecord
  2
CENTER
 70
     0
  3
__ . __
 72
    65
 73
     4
 40
7.0
 49
4.0
 74
     0
 49
-1.0
 74
     0
 49
1.0
 74
     0
 49
-1.0
 74
     0
  0
LTYPE
  5
E0
330
5
100
AcDbSymbolTableRecord
100
AcDbLinetypeTableRecord
  2
HIDDEN
 70
     0
  3
Hidden __ __ __ __ __ __ __ __ __ __ __ __ __ _
 72
    65
 73
     2
 40
9.524999999999996
 49
6.349999999999998
 74
     0
 49
-3.174999999999998
 74
     0
  0
LTYPE
  5
E1
330
5
100
AcDbSymbolTableRecord
100
AcDbLinetypeTableRecord
  2
PHANTOM2
 70
     0
  3
Phantom (.5x) ___ _ _ ___ _ _ ___ _ _ ___ _ _
 72
    65
 73
     6
 40
31.75
 49
15.875
 74
     0
 49
-3.174999999999998
 74
     0
 49
3.174999999999998
 74
     0
 49
-3.174999999999998
 74
     0
 49
3.174999999999998
 74
     0
 49
-3.174999999999998
 74
     0
  0
LTYPE
  5
5A2
330
5
100
AcDbSymbolTableRecord
100
AcDbLinetypeTableRecord
  2
ACJISWELD
 70
     0
  3
_ _ _ _ _
 72
    65
 73
     2
 40
2.0
 49
2.0
 74
     0
 49
-1.0
 74
     0
  0
LTYPE
  5
6FC1
330
5
100
AcDbSymbolTableRecord
100
AcDbLinetypeTableRecord
  2
ACISOWELD
 70
     0
  3
_ _ _ _ _
 72
    65
 73
     2
 40
2.0
 49
2.0
 74
     0
 49
-1.0
 74
     0
  0
LTYPE
  5
6FC2
330
5
100
AcDbSymbolTableRecord
100
AcDbLinetypeTableRecord
  2
ACISOTGB
 70
     0
  3
__ . . __ . .
 72
    65
 73
     6
 40
9.0
 49
4.0
 74
     0
 49
-1.0
 74
     0
 49
1.0
 74
     0
 49
-1.0
 74
     0
 49
1.0
 74
     0
 49
-1.0
 74
     0
  0
LTYPE
  5
6FC3
330
5
100
AcDbSymbolTableRecord
100
AcDbLinetypeTableRecord
  2
ACISOTGL
 70
     0
  3
_ _ _ _ _
 72
    65
 73
     2
 40
3.0
 49
2.0
 74
     0
 49
-1.0
 74
     0
  0
ENDTAB
  0
TABLE
  2
LAYER
  5
2
102
{ACAD_XDICTIONARY
360
BF
102
}
330
0
100
AcDbSymbolTable
 70
    10
  0
LAYER
  5
10
102
{ACAD_XDICTIONARY
360
29F7
102
}
330
2
100
AcDbSymbolTableRecord
100
AcDbLayerTableRecord
  2
0
 70
     0
 62
     7
  6
Continuous
370
    -3
390
F
347
27E
  0
LAYER
  5
81
102
{ACAD_XDICTIONARY
360
29F9
102
}
330
2
100
AcDbSymbolTableRecord
100
AcDbLayerTableRecord
  2
AM_0 外形線1
 70
     0
 62
     7
  6
Continuous
370
    25
390
F
347
27E
  0
LAYER
  5
427
330
2
100
AcDbSymbolTableRecord
100
AcDbLayerTableRecord
  2
Defpoints
 70
     0
 62
     7
  6
Continuous
290
     0
370
    -3
390
F
347
27E
  0
LAYER
  5
361B
330
2
100
AcDbSymbolTableRecord
100
AcDbLayerTableRecord
  2
AM_5 寸法線
 70
     0
 62
     3
  6
Continuous
370
    13
390
F
347
27E
1001
AcAecLayerStandard
1000

1000

  0
LAYER
  5
361C
330
2
100
AcDbSymbolTableRecord
100
AcDbLayerTableRecord
  2
AM_4 細線
 70
     0
 62
     4
  6
Continuous
370
    13
390
F
347
27E
1001
AcAecLayerStandard
1000

1000

  0
LAYER
  5
361D
330
2
100
AcDbSymbolTableRecord
100
AcDbLayerTableRecord
  2
AM_7 中心線
 70
     0
 62
     1
  6
AM_ISO08W050
370
    13
390
F
347
27E
1001
AcAecLayerStandard
1000

1000

  0
LAYER
  5
361E
330
2
100
AcDbSymbolTableRecord
100
AcDbLayerTableRecord
  2
AM_3 隠れ線
 70
     0
 62
     8
  6
ACJISWELD
370
    13
390
F
347
27E
1001
AcAecLayerStandard
1000

1000

  0
LAYER
  5
3620
330
2
100
AcDbSymbolTableRecord
100
AcDbLayerTableRecord
  2
AM_6 文字
 70
     0
 62
     2
  6
Continuous
370
    13
390
F
347
27E
1001
AcAecLayerStandard
1000

1000

  0
LAYER
  5
6C42
330
2
100
AcDbSymbolTableRecord
100
AcDbLayerTableRecord
  2
AM_11 想像線
 70
     0
 62
     5
  6
AM_ISO09W050
370
    13
390
F
347
27E
1001
AcAecLayerStandard
1000

1000

  0
ENDTAB
  0
TABLE
  2
STYLE
  5
3
330
0
100
AcDbSymbolTable
 70
    10
  0
STYLE
  5
11
330
3
100
AcDbSymbolTableRecord
100
AcDbTextStyleTableRecord
  2
STANDARD
 70
     0
 40
0.0
 41
1.0
 50
0.0
 71
     0
 42
25.0
  3
ISOCP.SHX
  4
EXTFONT.SHX
  0
STYLE
  5
23D
330
3
100
AcDbSymbolTableRecord
100
AcDbTextStyleTableRecord
  2

 70
     1
 40
0.0
 41
1.0
 50
0.0
 71
     0
 42
2.5
  3
genltshp.shx
  4

  0
STYLE
  5
5D5
330
3
100
AcDbSymbolTableRecord
100
AcDbTextStyleTableRecord
  2
SEISA
 70
     0
 40
0.0
 41
0.9
 50
0.0
 71
     0
 42
25.0
  3
romans.shx
  4
extfont2.shx
  0
STYLE
  5
6FB1
330
3
100
AcDbSymbolTableRecord
100
AcDbTextStyleTableRecord
  2
ACISOTS
 70
     0
 40
1.0
 41
1.0
 50
0.0
 71
     0
 42
25.0
  3
isocp.shx
  4
extfont.shx
  0
STYLE
  5
6FC0
330
3
100
AcDbSymbolTableRecord
100
AcDbTextStyleTableRecord
  2
ACISOGDT
 70
     0
 40
0.0
 41
1.0
 50
0.0
 71
     0
 42
25.0
  3
amgdt.shx
  4

  0
ENDTAB
  0
TABLE
  2
VIEW
  5
6
330
0
100
AcDbSymbolTable
 70
     6
  0
VIEW
  5
91B
330
6
100
AcDbSymbolTableRecord
100
AcDbViewTableRecord
  2
AM_VIEW1
 70
     0
 40
297.0
 10
292.2450742744934
 20
445.5000007387641
 41
584.4901477832514
 11
0.0
 21
0.0
 31
1.0
 12
0.0
 22
0.0
 32
0.0
 42
50.0
 43
0.0
 44
0.0
 50
0.0
 71
    16
281
     0
 72
     0
 73
     0
  0
VIEW
  5
91C
330
6
100
AcDbSymbolTableRecord
100
AcDbViewTableRecord
  2
AM_VIEW2
 70
     0
 40
297.0
 10
547.754926491242
 20
445.5000007387641
 41
584.4901477832514
 11
0.0
 21
0.0
 31
1.0
 12
0.0
 22
0.0
 32
0.0
 42
50.0
 43
0.0
 44
0.0
 50
0.0
 71
    16
281
     0
 72
     0
 73
     0
  0
VIEW
  5
91D
330
6
100
AcDbSymbolTableRecord
100
AcDbViewTableRecord
  2
AM_VIEW3
 70
     0
 40
297.0
 10
292.2450742744934
 20
148.5000007387641
 41
584.4901477832514
 11
0.0
 21
0.0
 31
1.0
 12
0.0
 22
0.0
 32
0.0
 42
50.0
 43
0.0
 44
0.0
 50
0.0
 71
    16
281
     0
 72
     0
 73
     0
  0
VIEW
  5
91E
330
6
100
AcDbSymbolTableRecord
100
AcDbViewTableRecord
  2
AM_VIEW4
 70
     0
 40
297.0
 10
547.754926491242
 20
148.5000007387641
 41
584.4901477832514
 11
0.0
 21
0.0
 31
1.0
 12
0.0
 22
0.0
 32
0.0
 42
50.0
 43
0.0
 44
0.0
 50
0.0
 71
    16
281
     0
 72
     0
 73
     0
  0
VIEW
  5
91F
330
6
100
AcDbSymbolTableRecord
100
AcDbViewTableRecord
  2
AM_VIEW5
 70
     0
 40
297.0000000000001
 10
420.0000003828676
 20
297.0000007387642
 41
584.4901477832514
 11
0.0
 21
0.0
 31
1.0
 12
0.0
 22
0.0
 32
0.0
 42
50.0
 43
0.0
 44
0.0
 50
0.0
 71
    16
281
     0
 72
     0
 73
     0
  0
VIEW
  5
920
330
6
100
AcDbSymbolTableRecord
100
AcDbViewTableRecord
  2
AM_VIEW6
 70
     0
 40
593.9940599999999
 10
420.0000003828676
 20
297.0000007387642
 41
1168.968605763547
 11
0.0
 21
0.0
 31
1.0
 12
0.0
 22
0.0
 32
0.0
 42
50.0
 43
0.0
 44
0.0
 50
0.0
 71
    16
281
     0
 72
     0
 73
     0
  0
ENDTAB
  0
TABLE
  2
UCS
  5
7
330
0
100
AcDbSymbolTable
 70
     0
  0
ENDTAB
  0
TABLE
  2
APPID
  5
9
330
0
100
AcDbSymbolTable
 70
   393
  0
APPID
  5
12
330
9
100
AcDbSymbolTableRecord
100
AcDbRegAppTableRecord
  2
ACAD
 70
     0
  0
APPID
  5
30
330
9
100
AcDbSymbolTableRecord
100
AcDbRegAppTableRecord
  2
MCAD_NO_VIS
 70
     0
  0
APPID
  5
31
330
9
100
AcDbSymbolTableRecord
100
AcDbRegAppTableRecord
  2
ACAD_TEMP_GRAPHIC
 70
     0
  0
APPID
  5
44
330
9
100
AcDbSymbolTableRecord
100
AcDbRegAppTableRecord
  2
ACATTRIBSERVICES
 70
     0
  0
APPID
  5
F6
330
9
100
AcDbSymbolTableRecord
100
AcDbRegAppTableRecord
  2
AD_DRAW
 70
     0
  0
APPID
  5
114
330
9
100
AcDbSymbolTableRecord
100
AcDbRegAppTableRecord
  2
DESIGNERASSEMBLIES
 70
     0
  0
APPID
  5
118
330
9
100
AcDbSymbolTableRecord
100
AcDbRegAppTableRecord
  2
ACADM_DIM_EDIT
 70
     0
  0
APPID
  5
119
330
9
100
AcDbSymbolTableRecord
100
AcDbRegAppTableRecord
  2
AMDT_DM_ADJ
 70
     0
  0
APPID
  5
1AF
330
9
100
AcDbSymbolTableRecord
100
AcDbRegAppTableRecord
  2
ACAD_DSTYLE_DIMARC_LENGTH_SYMBOL
 70
     0
  0
APPID
  5
1B0
330
9
100
AcDbSymbolTableRecord
100
AcDbRegAppTableRecord
  2
ACAD_DSTYLE_DIMJOGGED_JOGANGLE_SYMBOL
 70
     0
  0
APPID
  5
2D7
330
9
100
AcDbSymbolTableRecord
100
AcDbRegAppTableRecord
  2
ACAD_MLEADERVER
 70
     0
  0
APPID
  5
355
330
9
100
AcDbSymbolTableRecord
100
AcDbRegAppTableRecord
  2
AcadAnnoPO
 70
     0
  0
APPID
  5
428
330
9
100
AcDbSymbolTableRecord
100
AcDbRegAppTableRecord
  2
ACAD_DSTYLE_DIMTEXT_FILL
 70
     0
  0
APPID
  5
429
330
9
100
AcDbSymbolTableRecord
100
AcDbRegAppTableRecord
  2
GENIUS_GENSCREG_15
 70
     0
  0
APPID
  5
42A
330
9
100
AcDbSymbolTableRecord
100
AcDbRegAppTableRecord
  2
GENIUS_GENOBJ-N-SDF_13
 70
     0
  0
APPID
  5
42B
330
9
100
AcDbSymbolTableRecord
100
AcDbRegAppTableRecord
  2
GENIUS_GENODEF_13
 70
     0
  0
APPID
  5
42C
330
9
100
AcDbSymbolTableRecord
100
AcDbRegAppTableRecord
  2
ACAD_EXEMPT_FROM_CAD_STANDARDS
 70
     0
  0
APPID
  5
42D
330
9
100
AcDbSymbolTableRecord
100
AcDbRegAppTableRecord
  2
AcAecLayerStandard
 70
     0
  0
APPID
  5
42E
330
9
100
AcDbSymbolTableRecord
100
AcDbRegAppTableRecord
  2
GENIUS_GENOBJ-N-CEN_13
 70
     0
  0
APPID
  5
42F
330
9
100
AcDbSymbolTableRecord
100
AcDbRegAppTableRecord
  2
GENIUS_GENCEN_19
 70
     0
  0
APPID
  5
430
330
9
100
AcDbSymbolTableRecord
100
AcDbRegAppTableRecord
  2
ACAD_DSTYLE_DIMINSPECT
 70
     0
  0
APPID
  5
431
330
9
100
AcDbSymbolTableRecord
100
AcDbRegAppTableRecord
  2
GENIUS_AMGTXT_16
 70
     0
  0
APPID
  5
432
330
9
100
AcDbSymbolTableRecord
100
AcDbRegAppTableRecord
  2
GENIUS_GENFIL_13
 70
     0
  0
APPID
  5
433
330
9
100
AcDbSymbolTableRecord
100
AcDbRegAppTableRecord
  2
GENIUS_GENOLIS_13
 70
     0
  0
APPID
  5
434
330
9
100
AcDbSymbolTableRecord
100
AcDbRegAppTableRecord
  2
GENIUS_GENOBJ-N-CHA_13
 70
     0
  0
APPID
  5
435
330
9
100
AcDbSymbolTableRecord
100
AcDbRegAppTableRecord
  2
GENIUS_GENOENT_13
 70
     0
  0
APPID
  5
436
330
9
100
AcDbSymbolTableRecord
100
AcDbRegAppTableRecord
  2
GENIUS_GENOREF_13
 70
     0
  0
APPID
  5
437
330
9
100
AcDbSymbolTableRecord
100
AcDbRegAppTableRecord
  2
GENIUS_GENOBJ-N-FIL_13
 70
     0
  0
APPID
  5
438
330
9
100
AcDbSymbolTableRecord
100
AcDbRegAppTableRecord
  2
GEVID1208829536
 70
     0
  0
APPID
  5
439
330
9
100
AcDbSymbolTableRecord
100
AcDbRegAppTableRecord
  2
GEVDC
 70
     0
  0
APPID
  5
43A
330
9
100
AcDbSymbolTableRecord
100
AcDbRegAppTableRecord
  2
GEVRADREF
 70
     0
  0
APPID
  5
43B
330
9
100
AcDbSymbolTableRecord
100
AcDbRegAppTableRecord
  2
GENIUS_GENBH_13
 70
     0
  0
APPID
  5
43C
330
9
100
AcDbSymbolTableRecord
100
AcDbRegAppTableRecord
  2
GENIUS_GENOBJ-NBEHI-BHF_13
 70
     0
  0
APPID
  5
43D
330
9
100
AcDbSymbolTableRecord
100
AcDbRegAppTableRecord
  2
GENIUS_GENOBJ-NBEHI-BHB_13
 70
     0
  0
APPID
  5
43E
330
9
100
AcDbSymbolTableRecord
100
AcDbRegAppTableRecord
  2
GEVID1208829537
 70
     0
  0
APPID
  5
43F
330
9
100
AcDbSymbolTableRecord
100
AcDbRegAppTableRecord
  2
ACAD_DSTYLE_DIMJAG
 70
     0
  0
APPID
  5
440
330
9
100
AcDbSymbolTableRecord
100
AcDbRegAppTableRecord
  2
ACAD_DSTYLE_DIMTALN
 70
     0
  0
APPID
  5
441
330
9
100
AcDbSymbolTableRecord
100
AcDbRegAppTableRecord
  2
AMG_2DHIDE
 70
     0
  0
APPID
  5
442
330
9
100
AcDbSymbolTableRecord
100
AcDbRegAppTableRecord
  2
AMG_2DSTRUCT_BTR
 70
     0
  0
APPID
  5
443
330
9
100
AcDbSymbolTableRecord
100
AcDbRegAppTableRecord
  2
GEVID1208845772
 70
     0
  0
APPID
  5
444
330
9
100
AcDbSymbolTableRecord
100
AcDbRegAppTableRecord
  2
GEVID1208845773
 70
     0
  0
APPID
  5
445
330
9
100
AcDbSymbolTableRecord
100
AcDbRegAppTableRecord
  2
ACADM_2DVIEW_IGN_NOTIFY
 70
     0
  0
APPID
  5
446
330
9
100
AcDbSymbolTableRecord
100
AcDbRegAppTableRecord
  2
GEVID1208845774
 70
     0
  0
APPID
  5
447
330
9
100
AcDbSymbolTableRecord
100
AcDbRegAppTableRecord
  2
GEVID1208845775
 70
     0
  0
APPID
  5
448
330
9
100
AcDbSymbolTableRecord
100
AcDbRegAppTableRecord
  2
GEVID1208845776
 70
     0
  0
APPID
  5
449
330
9
100
AcDbSymbolTableRecord
100
AcDbRegAppTableRecord
  2
GEVID1208845777
 70
     0
  0
APPID
  5
44A
330
9
100
AcDbSymbolTableRecord
100
AcDbRegAppTableRecord
  2
GEVCON
 70
     0
  0
APPID
  5
44B
330
9
100
AcDbSymbolTableRecord
100
AcDbRegAppTableRecord
  2
GENIUS_GENOBJ-F-SCPASSM_13
 70
     0
  0
APPID
  5
44C
330
9
100
AcDbSymbolTableRecord
100
AcDbRegAppTableRecord
  2
GEVID1208845778
 70
     0
  0
APPID
  5
44D
330
9
100
AcDbSymbolTableRecord
100
AcDbRegAppTableRecord
  2
GEVID1208845779
 70
     0
  0
APPID
  5
44E
330
9
100
AcDbSymbolTableRecord
100
AcDbRegAppTableRecord
  2
GEVID1208845780
 70
     0
  0
APPID
  5
44F
330
9
100
AcDbSymbolTableRecord
100
AcDbRegAppTableRecord
  2
GEVID1208845781
 70
     0
  0
APPID
  5
450
330
9
100
AcDbSymbolTableRecord
100
AcDbRegAppTableRecord
  2
GEVID1208845782
 70
     0
  0
APPID
  5
451
330
9
100
AcDbSymbolTableRecord
100
AcDbRegAppTableRecord
  2
GEVID1208845783
 70
     0
  0
APPID
  5
452
330
9
100
AcDbSymbolTableRecord
100
AcDbRegAppTableRecord
  2
GEVID1208845784
 70
     0
  0
APPID
  5
453
330
9
100
AcDbSymbolTableRecord
100
AcDbRegAppTableRecord
  2
GEVID1208845785
 70
     0
  0
APPID
  5
454
330
9
100
AcDbSymbolTableRecord
100
AcDbRegAppTableRecord
  2
GEVID1208845787
 70
     0
  0
APPID
  5
455
330
9
100
AcDbSymbolTableRecord
100
AcDbRegAppTableRecord
  2
GEVID1208845788
 70
     0
  0
APPID
  5
456
330
9
100
AcDbSymbolTableRecord
100
AcDbRegAppTableRecord
  2
GEVID1208845789
 70
     0
  0
APPID
  5
457
330
9
100
AcDbSymbolTableRecord
100
AcDbRegAppTableRecord
  2
GEVID1208845790
 70
     0
  0
APPID
  5
458
330
9
100
AcDbSymbolTableRecord
100
AcDbRegAppTableRecord
  2
GEVID1208845791
 70
     0
  0
APPID
  5
459
330
9
100
AcDbSymbolTableRecord
100
AcDbRegAppTableRecord
  2
GEVID1208845792
 70
     0
  0
APPID
  5
45A
330
9
100
AcDbSymbolTableRecord
100
AcDbRegAppTableRecord
  2
GEVID1208845793
 70
     0
  0
APPID
  5
45B
330
9
100
AcDbSymbolTableRecord
100
AcDbRegAppTableRecord
  2
GEVID1208845794
 70
     0
  0
APPID
  5
45C
330
9
100
AcDbSymbolTableRecord
100
AcDbRegAppTableRecord
  2
GEVID1208845795
 70
     0
  0
APPID
  5
45D
330
9
100
AcDbSymbolTableRecord
100
AcDbRegAppTableRecord
  2
GEVID1208845796
 70
     0
  0
APPID
  5
45E
330
9
100
AcDbSymbolTableRecord
100
AcDbRegAppTableRecord
  2
GEVID1208845797
 70
     0
  0
APPID
  5
45F
330
9
100
AcDbSymbolTableRecord
100
AcDbRegAppTableRecord
  2
GEVID1208845798
 70
     0
  0
APPID
  5
460
330
9
100
AcDbSymbolTableRecord
100
AcDbRegAppTableRecord
  2
GEVID1208845799
 70
     0
  0
APPID
  5
461
330
9
100
AcDbSymbolTableRecord
100
AcDbRegAppTableRecord
  2
GEVID1208845800
 70
     0
  0
APPID
  5
462
330
9
100
AcDbSymbolTableRecord
100
AcDbRegAppTableRecord
  2
GEVID1208845801
 70
     0
  0
APPID
  5
463
330
9
100
AcDbSymbolTableRecord
100
AcDbRegAppTableRecord
  2
GEVID1208845802
 70
     0
  0
APPID
  5
464
330
9
100
AcDbSymbolTableRecord
100
AcDbRegAppTableRecord
  2
GENIUS_GENOBJ-N-DIM_13
 70
     0
  0
APPID
  5
465
330
9
100
AcDbSymbolTableRecord
100
AcDbRegAppTableRecord
  2
GENIUS_GENDIM_13
 70
     0
  0
APPID
  5
466
330
9
100
AcDbSymbolTableRecord
100
AcDbRegAppTableRecord
  2
GENIUS_GENDIMSH_14
 70
     0
  0
APPID
  5
467
330
9
100
AcDbSymbolTableRecord
100
AcDbRegAppTableRecord
  2
GEVID1208845803
 70
     0
  0
APPID
  5
468
330
9
100
AcDbSymbolTableRecord
100
AcDbRegAppTableRecord
  2
GEVID1208845804
 70
     0
  0
APPID
  5
469
330
9
100
AcDbSymbolTableRecord
100
AcDbRegAppTableRecord
  2
GEVID1208845805
 70
     0
  0
APPID
  5
46A
330
9
100
AcDbSymbolTableRecord
100
AcDbRegAppTableRecord
  2
GEVID1208845806
 70
     0
  0
APPID
  5
46B
330
9
100
AcDbSymbolTableRecord
100
AcDbRegAppTableRecord
  2
GEVID1208845807
 70
     0
  0
APPID
  5
46C
330
9
100
AcDbSymbolTableRecord
100
AcDbRegAppTableRecord
  2
GEVID1208845808
 70
     0
  0
APPID
  5
46D
330
9
100
AcDbSymbolTableRecord
100
AcDbRegAppTableRecord
  2
GEVID1208845809
 70
     0
  0
APPID
  5
46E
330
9
100
AcDbSymbolTableRecord
100
AcDbRegAppTableRecord
  2
GEVID1208845810
 70
     0
  0
APPID
  5
46F
330
9
100
AcDbSymbolTableRecord
100
AcDbRegAppTableRecord
  2
GEVID1208845811
 70
     0
  0
APPID
  5
470
330
9
100
AcDbSymbolTableRecord
100
AcDbRegAppTableRecord
  2
GEVID1208845813
 70
     0
  0
APPID
  5
471
330
9
100
AcDbSymbolTableRecord
100
AcDbRegAppTableRecord
  2
GEVID1208845814
 70
     0
  0
APPID
  5
472
330
9
100
AcDbSymbolTableRecord
100
AcDbRegAppTableRecord
  2
GEVID1208845815
 70
     0
  0
APPID
  5
473
330
9
100
AcDbSymbolTableRecord
100
AcDbRegAppTableRecord
  2
GEVID1208845816
 70
     0
  0
APPID
  5
474
330
9
100
AcDbSymbolTableRecord
100
AcDbRegAppTableRecord
  2
GEVID1208845817
 70
     0
  0
APPID
  5
475
330
9
100
AcDbSymbolTableRecord
100
AcDbRegAppTableRecord
  2
GEVID1208845818
 70
     0
  0
APPID
  5
476
330
9
100
AcDbSymbolTableRecord
100
AcDbRegAppTableRecord
  2
GEVID1208845819
 70
     0
  0
APPID
  5
477
330
9
100
AcDbSymbolTableRecord
100
AcDbRegAppTableRecord
  2
GEVID1208845820
 70
     0
  0
APPID
  5
478
330
9
100
AcDbSymbolTableRecord
100
AcDbRegAppTableRecord
  2
GENIUS_GENOBJ-F-SHCL_13
 70
     0
  0
APPID
  5
479
330
9
100
AcDbSymbolTableRecord
100
AcDbRegAppTableRecord
  2
GENIUS_GEFMSH_13
 70
     0
  0
APPID
  5
47A
330
9
100
AcDbSymbolTableRecord
100
AcDbRegAppTableRecord
  2
GENIUS_GENOBJ-F-SHCA_13
 70
     0
  0
APPID
  5
47B
330
9
100
AcDbSymbolTableRecord
100
AcDbRegAppTableRecord
  2
GENIUS_GEFSH_13
 70
     0
  0
APPID
  5
47C
330
9
100
AcDbSymbolTableRecord
100
AcDbRegAppTableRecord
  2
GENIUS_GEFSHP_13
 70
     0
  0
APPID
  5
47D
330
9
100
AcDbSymbolTableRecord
100
AcDbRegAppTableRecord
  2
GENIUS_GEFSHP0_13
 70
     0
  0
APPID
  5
47E
330
9
100
AcDbSymbolTableRecord
100
AcDbRegAppTableRecord
  2
GENIUS_GEFSH0_13
 70
     0
  0
APPID
  5
47F
330
9
100
AcDbSymbolTableRecord
100
AcDbRegAppTableRecord
  2
GENIUS_GEFSHP1_13
 70
     0
  0
APPID
  5
480
330
9
100
AcDbSymbolTableRecord
100
AcDbRegAppTableRecord
  2
GENIUS_GEFSH1_13
 70
     0
  0
APPID
  5
481
330
9
100
AcDbSymbolTableRecord
100
AcDbRegAppTableRecord
  2
GEVID1208866337
 70
     0
  0
APPID
  5
482
330
9
100
AcDbSymbolTableRecord
100
AcDbRegAppTableRecord
  2
GEVID1208866338
 70
     0
  0
APPID
  5
483
330
9
100
AcDbSymbolTableRecord
100
AcDbRegAppTableRecord
  2
GEVID1208866339
 70
     0
  0
APPID
  5
484
330
9
100
AcDbSymbolTableRecord
100
AcDbRegAppTableRecord
  2
GEVID1208866340
 70
     0
  0
APPID
  5
485
330
9
100
AcDbSymbolTableRecord
100
AcDbRegAppTableRecord
  2
GEVID1208866341
 70
     0
  0
APPID
  5
486
330
9
100
AcDbSymbolTableRecord
100
AcDbRegAppTableRecord
  2
ACAD_PSEXT
 70
     0
  0
APPID
  5
487
330
9
100
AcDbSymbolTableRecord
100
AcDbRegAppTableRecord
  2
GEVID1208866342
 70
     0
  0
APPID
  5
488
330
9
100
AcDbSymbolTableRecord
100
AcDbRegAppTableRecord
  2
GEVID1208913836
 70
     0
  0
APPID
  5
489
330
9
100
AcDbSymbolTableRecord
100
AcDbRegAppTableRecord
  2
GEVID1208913837
 70
     0
  0
APPID
  5
48A
330
9
100
AcDbSymbolTableRecord
100
AcDbRegAppTableRecord
  2
GEVID1208913838
 70
     0
  0
APPID
  5
48B
330
9
100
AcDbSymbolTableRecord
100
AcDbRegAppTableRecord
  2
GEVID1208913839
 70
     0
  0
APPID
  5
48C
330
9
100
AcDbSymbolTableRecord
100
AcDbRegAppTableRecord
  2
GENIUS_GENDTOL_13
 70
     0
  0
APPID
  5
48D
330
9
100
AcDbSymbolTableRecord
100
AcDbRegAppTableRecord
  2
GEVID1208928889
 70
     0
  0
APPID
  5
48E
330
9
100
AcDbSymbolTableRecord
100
AcDbRegAppTableRecord
  2
GEVID1208928890
 70
     0
  0
APPID
  5
48F
330
9
100
AcDbSymbolTableRecord
100
AcDbRegAppTableRecord
  2
GEVID1208928891
 70
     0
  0
APPID
  5
490
330
9
100
AcDbSymbolTableRecord
100
AcDbRegAppTableRecord
  2
GEVID1208928892
 70
     0
  0
APPID
  5
491
330
9
100
AcDbSymbolTableRecord
100
AcDbRegAppTableRecord
  2
GEVID1208933827
 70
     0
  0
APPID
  5
492
330
9
100
AcDbSymbolTableRecord
100
AcDbRegAppTableRecord
  2
GEVID1208933829
 70
     0
  0
APPID
  5
493
330
9
100
AcDbSymbolTableRecord
100
AcDbRegAppTableRecord
  2
GEVID1208933830
 70
     0
  0
APPID
  5
494
330
9
100
AcDbSymbolTableRecord
100
AcDbRegAppTableRecord
  2
GEVID1208933831
 70
     0
  0
APPID
  5
495
330
9
100
AcDbSymbolTableRecord
100
AcDbRegAppTableRecord
  2
GEVID1208933832
 70
     0
  0
APPID
  5
496
330
9
100
AcDbSymbolTableRecord
100
AcDbRegAppTableRecord
  2
GEVID1208933833
 70
     0
  0
APPID
  5
497
330
9
100
AcDbSymbolTableRecord
100
AcDbRegAppTableRecord
  2
GEVID1208933834
 70
     0
  0
APPID
  5
498
330
9
100
AcDbSymbolTableRecord
100
AcDbRegAppTableRecord
  2
GEVID1208933835
 70
     0
  0
APPID
  5
499
330
9
100
AcDbSymbolTableRecord
100
AcDbRegAppTableRecord
  2
GEVID1208933836
 70
     0
  0
APPID
  5
49A
330
9
100
AcDbSymbolTableRecord
100
AcDbRegAppTableRecord
  2
GEVID1208933837
 70
     0
  0
APPID
  5
49B
330
9
100
AcDbSymbolTableRecord
100
AcDbRegAppTableRecord
  2
GEVID1208933838
 70
     0
  0
APPID
  5
49C
330
9
100
AcDbSymbolTableRecord
100
AcDbRegAppTableRecord
  2
GEVID1208933840
 70
     0
  0
APPID
  5
49D
330
9
100
AcDbSymbolTableRecord
100
AcDbRegAppTableRecord
  2
GEVID1208933842
 70
     0
  0
APPID
  5
49E
330
9
100
AcDbSymbolTableRecord
100
AcDbRegAppTableRecord
  2
GEVID1208933843
 70
     0
  0
APPID
  5
49F
330
9
100
AcDbSymbolTableRecord
100
AcDbRegAppTableRecord
  2
GEVID1208933844
 70
     0
  0
APPID
  5
4A0
330
9
100
AcDbSymbolTableRecord
100
AcDbRegAppTableRecord
  2
GEVID1208933845
 70
     0
  0
APPID
  5
4A1
330
9
100
AcDbSymbolTableRecord
100
AcDbRegAppTableRecord
  2
GEVID1208933846
 70
     0
  0
APPID
  5
4A2
330
9
100
AcDbSymbolTableRecord
100
AcDbRegAppTableRecord
  2
GEVID1208933847
 70
     0
  0
APPID
  5
4A3
330
9
100
AcDbSymbolTableRecord
100
AcDbRegAppTableRecord
  2
GEVID1208933848
 70
     0
  0
APPID
  5
4A4
330
9
100
AcDbSymbolTableRecord
100
AcDbRegAppTableRecord
  2
GEVID1208933849
 70
     0
  0
APPID
  5
4A5
330
9
100
AcDbSymbolTableRecord
100
AcDbRegAppTableRecord
  2
GEVID1208933850
 70
     0
  0
APPID
  5
4A6
330
9
100
AcDbSymbolTableRecord
100
AcDbRegAppTableRecord
  2
GEVID1208933851
 70
     0
  0
APPID
  5
4A7
330
9
100
AcDbSymbolTableRecord
100
AcDbRegAppTableRecord
  2
GEVID1208933852
 70
     0
  0
APPID
  5
4A8
330
9
100
AcDbSymbolTableRecord
100
AcDbRegAppTableRecord
  2
GEVID1208933853
 70
     0
  0
APPID
  5
4A9
330
9
100
AcDbSymbolTableRecord
100
AcDbRegAppTableRecord
  2
GEVID1208933854
 70
     0
  0
APPID
  5
4AA
330
9
100
AcDbSymbolTableRecord
100
AcDbRegAppTableRecord
  2
GEVID1208933855
 70
     0
  0
APPID
  5
4AB
330
9
100
AcDbSymbolTableRecord
100
AcDbRegAppTableRecord
  2
GEVID1208933856
 70
     0
  0
APPID
  5
4AC
330
9
100
AcDbSymbolTableRecord
100
AcDbRegAppTableRecord
  2
GEVID1208933857
 70
     0
  0
APPID
  5
4AD
330
9
100
AcDbSymbolTableRecord
100
AcDbRegAppTableRecord
  2
GEVID1208933858
 70
     0
  0
APPID
  5
4AE
330
9
100
AcDbSymbolTableRecord
100
AcDbRegAppTableRecord
  2
GEVID1208933859
 70
     0
  0
APPID
  5
4AF
330
9
100
AcDbSymbolTableRecord
100
AcDbRegAppTableRecord
  2
GEVID1208933860
 70
     0
  0
APPID
  5
4B0
330
9
100
AcDbSymbolTableRecord
100
AcDbRegAppTableRecord
  2
GEVID1208933861
 70
     0
  0
APPID
  5
4B1
330
9
100
AcDbSymbolTableRecord
100
AcDbRegAppTableRecord
  2
GEVID1208933862
 70
     0
  0
APPID
  5
4B2
330
9
100
AcDbSymbolTableRecord
100
AcDbRegAppTableRecord
  2
GEVID1208933863
 70
     0
  0
APPID
  5
4B3
330
9
100
AcDbSymbolTableRecord
100
AcDbRegAppTableRecord
  2
GEVID1208933864
 70
     0
  0
APPID
  5
4B4
330
9
100
AcDbSymbolTableRecord
100
AcDbRegAppTableRecord
  2
GEVID1208933865
 70
     0
  0
APPID
  5
4B5
330
9
100
AcDbSymbolTableRecord
100
AcDbRegAppTableRecord
  2
GEVID1208933866
 70
     0
  0
APPID
  5
4B6
330
9
100
AcDbSymbolTableRecord
100
AcDbRegAppTableRecord
  2
GEVID1208933867
 70
     0
  0
APPID
  5
4B7
330
9
100
AcDbSymbolTableRecord
100
AcDbRegAppTableRecord
  2
GEVID1208933868
 70
     0
  0
APPID
  5
4B8
330
9
100
AcDbSymbolTableRecord
100
AcDbRegAppTableRecord
  2
GEVID1208933869
 70
     0
  0
APPID
  5
4B9
330
9
100
AcDbSymbolTableRecord
100
AcDbRegAppTableRecord
  2
GEVID1208933870
 70
     0
  0
APPID
  5
4BA
330
9
100
AcDbSymbolTableRecord
100
AcDbRegAppTableRecord
  2
GEVID1208933871
 70
     0
  0
APPID
  5
4BB
330
9
100
AcDbSymbolTableRecord
100
AcDbRegAppTableRecord
  2
GEVID1208933872
 70
     0
  0
APPID
  5
4BC
330
9
100
AcDbSymbolTableRecord
100
AcDbRegAppTableRecord
  2
GEVID1208933873
 70
     0
  0
APPID
  5
4BD
330
9
100
AcDbSymbolTableRecord
100
AcDbRegAppTableRecord
  2
GEVID1208933874
 70
     0
  0
APPID
  5
4BE
330
9
100
AcDbSymbolTableRecord
100
AcDbRegAppTableRecord
  2
GEVID1208933875
 70
     0
  0
APPID
  5
4BF
330
9
100
AcDbSymbolTableRecord
100
AcDbRegAppTableRecord
  2
GEVID1208933876
 70
     0
  0
APPID
  5
4C0
330
9
100
AcDbSymbolTableRecord
100
AcDbRegAppTableRecord
  2
ACAD_DSTYLE_DIMRADIAL_EXTENSION
 70
     0
  0
APPID
  5
4C1
330
9
100
AcDbSymbolTableRecord
100
AcDbRegAppTableRecord
  2
GEVID1208999100
 70
     0
  0
APPID
  5
4C2
330
9
100
AcDbSymbolTableRecord
100
AcDbRegAppTableRecord
  2
GEVID1208999101
 70
     0
  0
APPID
  5
4C3
330
9
100
AcDbSymbolTableRecord
100
AcDbRegAppTableRecord
  2
GEVID1208999102
 70
     0
  0
APPID
  5
4C4
330
9
100
AcDbSymbolTableRecord
100
AcDbRegAppTableRecord
  2
GEVID1208999103
 70
     0
  0
APPID
  5
4C5
330
9
100
AcDbSymbolTableRecord
100
AcDbRegAppTableRecord
  2
GEVID1208999105
 70
     0
  0
APPID
  5
4C6
330
9
100
AcDbSymbolTableRecord
100
AcDbRegAppTableRecord
  2
GEVID1208999106
 70
     0
  0
APPID
  5
4C7
330
9
100
AcDbSymbolTableRecord
100
AcDbRegAppTableRecord
  2
GEVID1208999108
 70
     0
  0
APPID
  5
4C8
330
9
100
AcDbSymbolTableRecord
100
AcDbRegAppTableRecord
  2
GEVID1208999109
 70
     0
  0
APPID
  5
4C9
330
9
100
AcDbSymbolTableRecord
100
AcDbRegAppTableRecord
  2
GEVID1208999110
 70
     0
  0
APPID
  5
4CA
330
9
100
AcDbSymbolTableRecord
100
AcDbRegAppTableRecord
  2
GEVID1208999111
 70
     0
  0
APPID
  5
4CB
330
9
100
AcDbSymbolTableRecord
100
AcDbRegAppTableRecord
  2
GEVID1208999112
 70
     0
  0
APPID
  5
4CC
330
9
100
AcDbSymbolTableRecord
100
AcDbRegAppTableRecord
  2
GEVID1208999113
 70
     0
  0
APPID
  5
4CD
330
9
100
AcDbSymbolTableRecord
100
AcDbRegAppTableRecord
  2
GEVID1208999114
 70
     0
  0
APPID
  5
4CE
330
9
100
AcDbSymbolTableRecord
100
AcDbRegAppTableRecord
  2
GEVID1210218799
 70
     0
  0
APPID
  5
4CF
330
9
100
AcDbSymbolTableRecord
100
AcDbRegAppTableRecord
  2
GEVID1210218800
 70
     0
  0
APPID
  5
4D0
330
9
100
AcDbSymbolTableRecord
100
AcDbRegAppTableRecord
  2
GENIUS_GEFWELD_13
 70
     0
  0
APPID
  5
4D1
330
9
100
AcDbSymbolTableRecord
100
AcDbRegAppTableRecord
  2
GENIUS_GENOBJ-F-WELS_13
 70
     0
  0
APPID
  5
4D2
330
9
100
AcDbSymbolTableRecord
100
AcDbRegAppTableRecord
  2
AcadAnnotative
 70
     0
  0
APPID
  5
4D3
330
9
100
AcDbSymbolTableRecord
100
AcDbRegAppTableRecord
  2
GEVID1210145339
 70
     0
  0
APPID
  5
4D4
330
9
100
AcDbSymbolTableRecord
100
AcDbRegAppTableRecord
  2
ACAD_DSTYLE_DIMBREAK
 70
     0
  0
APPID
  5
4D5
330
9
100
AcDbSymbolTableRecord
100
AcDbRegAppTableRecord
  2
GEVID1210145340
 70
     0
  0
APPID
  5
4D6
330
9
100
AcDbSymbolTableRecord
100
AcDbRegAppTableRecord
  2
GEVID1210145341
 70
     0
  0
APPID
  5
4D7
330
9
100
AcDbSymbolTableRecord
100
AcDbRegAppTableRecord
  2
GEVID1210145342
 70
     0
  0
APPID
  5
4D8
330
9
100
AcDbSymbolTableRecord
100
AcDbRegAppTableRecord
  2
GEVID1210145343
 70
     0
  0
APPID
  5
4D9
330
9
100
AcDbSymbolTableRecord
100
AcDbRegAppTableRecord
  2
GEVID1210145344
 70
     0
  0
APPID
  5
4DA
330
9
100
AcDbSymbolTableRecord
100
AcDbRegAppTableRecord
  2
GEVID1210145345
 70
     0
  0
APPID
  5
4DB
330
9
100
AcDbSymbolTableRecord
100
AcDbRegAppTableRecord
  2
GEVID1210152816
 70
     0
  0
APPID
  5
4DC
330
9
100
AcDbSymbolTableRecord
100
AcDbRegAppTableRecord
  2
GEVID1210153850
 70
     0
  0
APPID
  5
4DD
330
9
100
AcDbSymbolTableRecord
100
AcDbRegAppTableRecord
  2
GEVID1210153851
 70
     0
  0
APPID
  5
4DE
330
9
100
AcDbSymbolTableRecord
100
AcDbRegAppTableRecord
  2
GEVID1210153852
 70
     0
  0
APPID
  5
4DF
330
9
100
AcDbSymbolTableRecord
100
AcDbRegAppTableRecord
  2
GEVID1210549898
 70
     0
  0
APPID
  5
4E0
330
9
100
AcDbSymbolTableRecord
100
AcDbRegAppTableRecord
  2
GEVID1210549899
 70
     0
  0
APPID
  5
4E1
330
9
100
AcDbSymbolTableRecord
100
AcDbRegAppTableRecord
  2
GEVID1210549900
 70
     0
  0
APPID
  5
4E2
330
9
100
AcDbSymbolTableRecord
100
AcDbRegAppTableRecord
  2
GEVID1210549901
 70
     0
  0
APPID
  5
4E3
330
9
100
AcDbSymbolTableRecord
100
AcDbRegAppTableRecord
  2
GEVID1210549902
 70
     0
  0
APPID
  5
4E4
330
9
100
AcDbSymbolTableRecord
100
AcDbRegAppTableRecord
  2
GEVID1210549903
 70
     0
  0
APPID
  5
4E5
330
9
100
AcDbSymbolTableRecord
100
AcDbRegAppTableRecord
  2
GEVID1210549904
 70
     0
  0
APPID
  5
4E6
330
9
100
AcDbSymbolTableRecord
100
AcDbRegAppTableRecord
  2
GEVID1210549905
 70
     0
  0
APPID
  5
4E7
330
9
100
AcDbSymbolTableRecord
100
AcDbRegAppTableRecord
  2
GEVID1210549906
 70
     0
  0
APPID
  5
4E8
330
9
100
AcDbSymbolTableRecord
100
AcDbRegAppTableRecord
  2
GEVID1210549907
 70
     0
  0
APPID
  5
4E9
330
9
100
AcDbSymbolTableRecord
100
AcDbRegAppTableRecord
  2
GEVID1210549908
 70
     0
  0
APPID
  5
4EA
330
9
100
AcDbSymbolTableRecord
100
AcDbRegAppTableRecord
  2
GEVID1210549909
 70
     0
  0
APPID
  5
4EB
330
9
100
AcDbSymbolTableRecord
100
AcDbRegAppTableRecord
  2
GEVID1210549910
 70
     0
  0
APPID
  5
4EC
330
9
100
AcDbSymbolTableRecord
100
AcDbRegAppTableRecord
  2
GEVID1210549911
 70
     0
  0
APPID
  5
4ED
330
9
100
AcDbSymbolTableRecord
100
AcDbRegAppTableRecord
  2
GEVID1210549912
 70
     0
  0
APPID
  5
4EE
330
9
100
AcDbSymbolTableRecord
100
AcDbRegAppTableRecord
  2
GEVID1210549913
 70
     0
  0
APPID
  5
4EF
330
9
100
AcDbSymbolTableRecord
100
AcDbRegAppTableRecord
  2
GEVID1210549914
 70
     0
  0
APPID
  5
4F0
330
9
100
AcDbSymbolTableRecord
100
AcDbRegAppTableRecord
  2
GEVID1210549915
 70
     0
  0
APPID
  5
4F1
330
9
100
AcDbSymbolTableRecord
100
AcDbRegAppTableRecord
  2
GEVID1210549916
 70
     0
  0
APPID
  5
4F2
330
9
100
AcDbSymbolTableRecord
100
AcDbRegAppTableRecord
  2
GEVID1210549917
 70
     0
  0
APPID
  5
4F3
330
9
100
AcDbSymbolTableRecord
100
AcDbRegAppTableRecord
  2
GENIUS_GENOBJ-N-CRS_13
 70
     0
  0
APPID
  5
4F4
330
9
100
AcDbSymbolTableRecord
100
AcDbRegAppTableRecord
  2
GEVID1210549918
 70
     0
  0
APPID
  5
4F5
330
9
100
AcDbSymbolTableRecord
100
AcDbRegAppTableRecord
  2
GENIUS_GENOBJ-N-CRC_13
 70
     0
  0
APPID
  5
4F6
330
9
100
AcDbSymbolTableRecord
100
AcDbRegAppTableRecord
  2
GENIUS_GENCRC_14
 70
     0
  0
APPID
  5
4F7
330
9
100
AcDbSymbolTableRecord
100
AcDbRegAppTableRecord
  2
GEVID1210549919
 70
     0
  0
APPID
  5
4F8
330
9
100
AcDbSymbolTableRecord
100
AcDbRegAppTableRecord
  2
GEVID1210549921
 70
     0
  0
APPID
  5
4F9
330
9
100
AcDbSymbolTableRecord
100
AcDbRegAppTableRecord
  2
GEVID1210549922
 70
     0
  0
APPID
  5
4FA
330
9
100
AcDbSymbolTableRecord
100
AcDbRegAppTableRecord
  2
GEVID1210635173
 70
     0
  0
APPID
  5
4FB
330
9
100
AcDbSymbolTableRecord
100
AcDbRegAppTableRecord
  2
GEVID1210635174
 70
     0
  0
APPID
  5
4FC
330
9
100
AcDbSymbolTableRecord
100
AcDbRegAppTableRecord
  2
GEVID1210635175
 70
     0
  0
APPID
  5
4FD
330
9
100
AcDbSymbolTableRecord
100
AcDbRegAppTableRecord
  2
GEVID1210635176
 70
     0
  0
APPID
  5
4FE
330
9
100
AcDbSymbolTableRecord
100
AcDbRegAppTableRecord
  2
GEVID1210635177
 70
     0
  0
APPID
  5
4FF
330
9
100
AcDbSymbolTableRecord
100
AcDbRegAppTableRecord
  2
GEVID1210635178
 70
     0
  0
APPID
  5
500
330
9
100
AcDbSymbolTableRecord
100
AcDbRegAppTableRecord
  2
GENIUS_GENIUS_GENBHEDTMP_13
 70
     0
  0
APPID
  5
501
330
9
100
AcDbSymbolTableRecord
100
AcDbRegAppTableRecord
  2
GEVID1210635179
 70
     0
  0
APPID
  5
502
330
9
100
AcDbSymbolTableRecord
100
AcDbRegAppTableRecord
  2
GEVID1210635180
 70
     0
  0
APPID
  5
503
330
9
100
AcDbSymbolTableRecord
100
AcDbRegAppTableRecord
  2
GEVID1210635181
 70
     0
  0
APPID
  5
504
330
9
100
AcDbSymbolTableRecord
100
AcDbRegAppTableRecord
  2
GEVID1210635182
 70
     0
  0
APPID
  5
505
330
9
100
AcDbSymbolTableRecord
100
AcDbRegAppTableRecord
  2
GEVID1210635184
 70
     0
  0
APPID
  5
506
330
9
100
AcDbSymbolTableRecord
100
AcDbRegAppTableRecord
  2
GEVID1210635185
 70
     0
  0
APPID
  5
507
330
9
100
AcDbSymbolTableRecord
100
AcDbRegAppTableRecord
  2
GEVID1210635186
 70
     0
  0
APPID
  5
508
330
9
100
AcDbSymbolTableRecord
100
AcDbRegAppTableRecord
  2
GEVID1210635187
 70
     0
  0
APPID
  5
509
330
9
100
AcDbSymbolTableRecord
100
AcDbRegAppTableRecord
  2
GEVID1210635188
 70
     0
  0
APPID
  5
50A
330
9
100
AcDbSymbolTableRecord
100
AcDbRegAppTableRecord
  2
GEVID1210635189
 70
     0
  0
APPID
  5
50B
330
9
100
AcDbSymbolTableRecord
100
AcDbRegAppTableRecord
  2
GEVID1210635190
 70
     0
  0
APPID
  5
50C
330
9
100
AcDbSymbolTableRecord
100
AcDbRegAppTableRecord
  2
GENIUS_GENREC_14
 70
     0
  0
APPID
  5
50D
330
9
100
AcDbSymbolTableRecord
100
AcDbRegAppTableRecord
  2
GENIUS_GENOBJ-N-REC_13
 70
     0
  0
APPID
  5
50E
330
9
100
AcDbSymbolTableRecord
100
AcDbRegAppTableRecord
  2
GEVID1210676655
 70
     0
  0
APPID
  5
50F
330
9
100
AcDbSymbolTableRecord
100
AcDbRegAppTableRecord
  2
GEVID1210676656
 70
     0
  0
APPID
  5
510
330
9
100
AcDbSymbolTableRecord
100
AcDbRegAppTableRecord
  2
GEVID1210676657
 70
     0
  0
APPID
  5
511
330
9
100
AcDbSymbolTableRecord
100
AcDbRegAppTableRecord
  2
GEVID1210676659
 70
     0
  0
APPID
  5
512
330
9
100
AcDbSymbolTableRecord
100
AcDbRegAppTableRecord
  2
GEVID1210676660
 70
     0
  0
APPID
  5
513
330
9
100
AcDbSymbolTableRecord
100
AcDbRegAppTableRecord
  2
GEVID1210676661
 70
     0
  0
APPID
  5
514
330
9
100
AcDbSymbolTableRecord
100
AcDbRegAppTableRecord
  2
GEVID1210676662
 70
     0
  0
APPID
  5
515
330
9
100
AcDbSymbolTableRecord
100
AcDbRegAppTableRecord
  2
GEVID1210721646
 70
     0
  0
APPID
  5
516
330
9
100
AcDbSymbolTableRecord
100
AcDbRegAppTableRecord
  2
GEVID1210721647
 70
     0
  0
APPID
  5
517
330
9
100
AcDbSymbolTableRecord
100
AcDbRegAppTableRecord
  2
GEVID1210721648
 70
     0
  0
APPID
  5
518
330
9
100
AcDbSymbolTableRecord
100
AcDbRegAppTableRecord
  2
GEVID1210721649
 70
     0
  0
APPID
  5
519
330
9
100
AcDbSymbolTableRecord
100
AcDbRegAppTableRecord
  2
GEVID1210721650
 70
     0
  0
APPID
  5
51A
330
9
100
AcDbSymbolTableRecord
100
AcDbRegAppTableRecord
  2
GEVID1210721651
 70
     0
  0
APPID
  5
51B
330
9
100
AcDbSymbolTableRecord
100
AcDbRegAppTableRecord
  2
GEVID1210721652
 70
     0
  0
APPID
  5
51C
330
9
100
AcDbSymbolTableRecord
100
AcDbRegAppTableRecord
  2
GEVID1210721653
 70
     0
  0
APPID
  5
51D
330
9
100
AcDbSymbolTableRecord
100
AcDbRegAppTableRecord
  2
PE_URL
 70
     0
  0
APPID
  5
51E
330
9
100
AcDbSymbolTableRecord
100
AcDbRegAppTableRecord
  2
GEVID1210825555
 70
     0
  0
APPID
  5
51F
330
9
100
AcDbSymbolTableRecord
100
AcDbRegAppTableRecord
  2
GEVID1210825556
 70
     0
  0
APPID
  5
520
330
9
100
AcDbSymbolTableRecord
100
AcDbRegAppTableRecord
  2
GEVID1210825557
 70
     0
  0
APPID
  5
521
330
9
100
AcDbSymbolTableRecord
100
AcDbRegAppTableRecord
  2
GEVID1210825558
 70
     0
  0
APPID
  5
522
330
9
100
AcDbSymbolTableRecord
100
AcDbRegAppTableRecord
  2
GEVID1210825559
 70
     0
  0
APPID
  5
523
330
9
100
AcDbSymbolTableRecord
100
AcDbRegAppTableRecord
  2
GEVID1210825560
 70
     0
  0
APPID
  5
524
330
9
100
AcDbSymbolTableRecord
100
AcDbRegAppTableRecord
  2
GEVID1210825561
 70
     0
  0
APPID
  5
525
330
9
100
AcDbSymbolTableRecord
100
AcDbRegAppTableRecord
  2
GEVID1210825562
 70
     0
  0
APPID
  5
526
330
9
100
AcDbSymbolTableRecord
100
AcDbRegAppTableRecord
  2
GEVID1210825563
 70
     0
  0
APPID
  5
527
330
9
100
AcDbSymbolTableRecord
100
AcDbRegAppTableRecord
  2
GEVID1210825564
 70
     0
  0
APPID
  5
528
330
9
100
AcDbSymbolTableRecord
100
AcDbRegAppTableRecord
  2
GEVID1210825565
 70
     0
  0
APPID
  5
529
330
9
100
AcDbSymbolTableRecord
100
AcDbRegAppTableRecord
  2
GEVID1210825566
 70
     0
  0
APPID
  5
52A
330
9
100
AcDbSymbolTableRecord
100
AcDbRegAppTableRecord
  2
GEVID1210825567
 70
     0
  0
APPID
  5
52B
330
9
100
AcDbSymbolTableRecord
100
AcDbRegAppTableRecord
  2
GENIUS_GENOBJ-N-ZOO_13
 70
     0
  0
APPID
  5
52C
330
9
100
AcDbSymbolTableRecord
100
AcDbRegAppTableRecord
  2
GENIUS_GENZOO_17
 70
     0
  0
APPID
  5
52D
330
9
100
AcDbSymbolTableRecord
100
AcDbRegAppTableRecord
  2
ACADANNOTATIVEDECOMPOSITION
 70
     0
  0
APPID
  5
52E
330
9
100
AcDbSymbolTableRecord
100
AcDbRegAppTableRecord
  2
GENIUS_GENOBJ-N-HTC_13
 70
     0
  0
APPID
  5
52F
330
9
100
AcDbSymbolTableRecord
100
AcDbRegAppTableRecord
  2
GENIUS_GENHATCH_13
 70
     0
  0
APPID
  5
530
330
9
100
AcDbSymbolTableRecord
100
AcDbRegAppTableRecord
  2
GEVID1210896020
 70
     0
  0
APPID
  5
531
330
9
100
AcDbSymbolTableRecord
100
AcDbRegAppTableRecord
  2
GEVID1210896021
 70
     0
  0
APPID
  5
532
330
9
100
AcDbSymbolTableRecord
100
AcDbRegAppTableRecord
  2
GEVID1209083540
 70
     0
  0
APPID
  5
533
330
9
100
AcDbSymbolTableRecord
100
AcDbRegAppTableRecord
  2
GEVMK
 70
     0
  0
APPID
  5
534
330
9
100
AcDbSymbolTableRecord
100
AcDbRegAppTableRecord
  2
GEVID1209083542
 70
     0
  0
APPID
  5
535
330
9
100
AcDbSymbolTableRecord
100
AcDbRegAppTableRecord
  2
GEVID1209083543
 70
     0
  0
APPID
  5
536
330
9
100
AcDbSymbolTableRecord
100
AcDbRegAppTableRecord
  2
GEVID1209083544
 70
     0
  0
APPID
  5
537
330
9
100
AcDbSymbolTableRecord
100
AcDbRegAppTableRecord
  2
GEVID1209083545
 70
     0
  0
APPID
  5
538
330
9
100
AcDbSymbolTableRecord
100
AcDbRegAppTableRecord
  2
GEVID1209083546
 70
     0
  0
APPID
  5
539
330
9
100
AcDbSymbolTableRecord
100
AcDbRegAppTableRecord
  2
GEVID1209083547
 70
     0
  0
APPID
  5
53A
330
9
100
AcDbSymbolTableRecord
100
AcDbRegAppTableRecord
  2
GEVID1209083548
 70
     0
  0
APPID
  5
53B
330
9
100
AcDbSymbolTableRecord
100
AcDbRegAppTableRecord
  2
GEVID1209083549
 70
     0
  0
APPID
  5
53C
330
9
100
AcDbSymbolTableRecord
100
AcDbRegAppTableRecord
  2
GEVID1209083550
 70
     0
  0
APPID
  5
53D
330
9
100
AcDbSymbolTableRecord
100
AcDbRegAppTableRecord
  2
GEVID1209083551
 70
     0
  0
APPID
  5
53E
330
9
100
AcDbSymbolTableRecord
100
AcDbRegAppTableRecord
  2
GEVID1209083552
 70
     0
  0
APPID
  5
53F
330
9
100
AcDbSymbolTableRecord
100
AcDbRegAppTableRecord
  2
GEVID1209083553
 70
     0
  0
APPID
  5
540
330
9
100
AcDbSymbolTableRecord
100
AcDbRegAppTableRecord
  2
GEVID1210896022
 70
     0
  0
APPID
  5
541
330
9
100
AcDbSymbolTableRecord
100
AcDbRegAppTableRecord
  2
GEVID1211508364
 70
     0
  0
APPID
  5
542
330
9
100
AcDbSymbolTableRecord
100
AcDbRegAppTableRecord
  2
GEVID1211414908
 70
     0
  0
APPID
  5
543
330
9
100
AcDbSymbolTableRecord
100
AcDbRegAppTableRecord
  2
GEVID1211414909
 70
     0
  0
APPID
  5
544
330
9
100
AcDbSymbolTableRecord
100
AcDbRegAppTableRecord
  2
GEVID1211508359
 70
     0
  0
APPID
  5
545
330
9
100
AcDbSymbolTableRecord
100
AcDbRegAppTableRecord
  2
GEVID1211508360
 70
     0
  0
APPID
  5
546
330
9
100
AcDbSymbolTableRecord
100
AcDbRegAppTableRecord
  2
GEVID1211508361
 70
     0
  0
APPID
  5
547
330
9
100
AcDbSymbolTableRecord
100
AcDbRegAppTableRecord
  2
GEVID1211508362
 70
     0
  0
APPID
  5
548
330
9
100
AcDbSymbolTableRecord
100
AcDbRegAppTableRecord
  2
GEVID1211508363
 70
     0
  0
APPID
  5
549
330
9
100
AcDbSymbolTableRecord
100
AcDbRegAppTableRecord
  2
GEVID1211878469
 70
     0
  0
APPID
  5
54A
330
9
100
AcDbSymbolTableRecord
100
AcDbRegAppTableRecord
  2
GEVID1212642819
 70
     0
  0
APPID
  5
54B
330
9
100
AcDbSymbolTableRecord
100
AcDbRegAppTableRecord
  2
GEVID1212642820
 70
     0
  0
APPID
  5
54C
330
9
100
AcDbSymbolTableRecord
100
AcDbRegAppTableRecord
  2
GEVID1212642821
 70
     0
  0
APPID
  5
54D
330
9
100
AcDbSymbolTableRecord
100
AcDbRegAppTableRecord
  2
GEVID1212642822
 70
     0
  0
APPID
  5
54E
330
9
100
AcDbSymbolTableRecord
100
AcDbRegAppTableRecord
  2
GEVID1212642823
 70
     0
  0
APPID
  5
54F
330
9
100
AcDbSymbolTableRecord
100
AcDbRegAppTableRecord
  2
GEVID1212642825
 70
     0
  0
APPID
  5
550
330
9
100
AcDbSymbolTableRecord
100
AcDbRegAppTableRecord
  2
GEVID1212642826
 70
     0
  0
APPID
  5
551
330
9
100
AcDbSymbolTableRecord
100
AcDbRegAppTableRecord
  2
GEVID1212642827
 70
     0
  0
APPID
  5
552
330
9
100
AcDbSymbolTableRecord
100
AcDbRegAppTableRecord
  2
GEVID1212642828
 70
     0
  0
APPID
  5
553
330
9
100
AcDbSymbolTableRecord
100
AcDbRegAppTableRecord
  2
GEVID1212642831
 70
     0
  0
APPID
  5
554
330
9
100
AcDbSymbolTableRecord
100
AcDbRegAppTableRecord
  2
GEVID1212642834
 70
     0
  0
APPID
  5
555
330
9
100
AcDbSymbolTableRecord
100
AcDbRegAppTableRecord
  2
GEVID1212642835
 70
     0
  0
APPID
  5
556
330
9
100
AcDbSymbolTableRecord
100
AcDbRegAppTableRecord
  2
GEVID1212642836
 70
     0
  0
APPID
  5
557
330
9
100
AcDbSymbolTableRecord
100
AcDbRegAppTableRecord
  2
GEVID1212642837
 70
     0
  0
APPID
  5
558
330
9
100
AcDbSymbolTableRecord
100
AcDbRegAppTableRecord
  2
GEVID1212642839
 70
     0
  0
APPID
  5
559
330
9
100
AcDbSymbolTableRecord
100
AcDbRegAppTableRecord
  2
GEVID1212642840
 70
     0
  0
APPID
  5
55A
330
9
100
AcDbSymbolTableRecord
100
AcDbRegAppTableRecord
  2
GEVID1212642841
 70
     0
  0
APPID
  5
55B
330
9
100
AcDbSymbolTableRecord
100
AcDbRegAppTableRecord
  2
GEVID1212655312
 70
     0
  0
APPID
  5
55C
330
9
100
AcDbSymbolTableRecord
100
AcDbRegAppTableRecord
  2
GEVID1212655313
 70
     0
  0
APPID
  5
55D
330
9
100
AcDbSymbolTableRecord
100
AcDbRegAppTableRecord
  2
GEVID1212656533
 70
     0
  0
APPID
  5
55E
330
9
100
AcDbSymbolTableRecord
100
AcDbRegAppTableRecord
  2
GEVID1212656534
 70
     0
  0
APPID
  5
55F
330
9
100
AcDbSymbolTableRecord
100
AcDbRegAppTableRecord
  2
GEVID1212656535
 70
     0
  0
APPID
  5
560
330
9
100
AcDbSymbolTableRecord
100
AcDbRegAppTableRecord
  2
GEVID1212656536
 70
     0
  0
APPID
  5
561
330
9
100
AcDbSymbolTableRecord
100
AcDbRegAppTableRecord
  2
GEVID1212656538
 70
     0
  0
APPID
  5
562
330
9
100
AcDbSymbolTableRecord
100
AcDbRegAppTableRecord
  2
GEVID1212656541
 70
     0
  0
APPID
  5
563
330
9
100
AcDbSymbolTableRecord
100
AcDbRegAppTableRecord
  2
GEVID1212656543
 70
     0
  0
APPID
  5
564
330
9
100
AcDbSymbolTableRecord
100
AcDbRegAppTableRecord
  2
GENIUS_GENOBJ-F-PFASSM_13
 70
     0
  0
APPID
  5
565
330
9
100
AcDbSymbolTableRecord
100
AcDbRegAppTableRecord
  2
GEVID1212656544
 70
     0
  0
APPID
  5
566
330
9
100
AcDbSymbolTableRecord
100
AcDbRegAppTableRecord
  2
GEVID1212656545
 70
     0
  0
APPID
  5
567
330
9
100
AcDbSymbolTableRecord
100
AcDbRegAppTableRecord
  2
GEVID1212656546
 70
     0
  0
APPID
  5
568
330
9
100
AcDbSymbolTableRecord
100
AcDbRegAppTableRecord
  2
GEVID1212656547
 70
     0
  0
APPID
  5
569
330
9
100
AcDbSymbolTableRecord
100
AcDbRegAppTableRecord
  2
GEVID1212656548
 70
     0
  0
APPID
  5
56A
330
9
100
AcDbSymbolTableRecord
100
AcDbRegAppTableRecord
  2
GEVID1212656549
 70
     0
  0
APPID
  5
56B
330
9
100
AcDbSymbolTableRecord
100
AcDbRegAppTableRecord
  2
GEVID1212656550
 70
     0
  0
APPID
  5
56C
330
9
100
AcDbSymbolTableRecord
100
AcDbRegAppTableRecord
  2
GEVID1212656552
 70
     0
  0
APPID
  5
56D
330
9
100
AcDbSymbolTableRecord
100
AcDbRegAppTableRecord
  2
GEVID1212656553
 70
     0
  0
APPID
  5
56E
330
9
100
AcDbSymbolTableRecord
100
AcDbRegAppTableRecord
  2
GEVID1212656554
 70
     0
  0
APPID
  5
56F
330
9
100
AcDbSymbolTableRecord
100
AcDbRegAppTableRecord
  2
GEVID1212656555
 70
     0
  0
APPID
  5
570
330
9
100
AcDbSymbolTableRecord
100
AcDbRegAppTableRecord
  2
GEVID1212656556
 70
     0
  0
APPID
  5
571
330
9
100
AcDbSymbolTableRecord
100
AcDbRegAppTableRecord
  2
GEVID1212656557
 70
     0
  0
APPID
  5
572
330
9
100
AcDbSymbolTableRecord
100
AcDbRegAppTableRecord
  2
GEVID1212656559
 70
     0
  0
APPID
  5
573
330
9
100
AcDbSymbolTableRecord
100
AcDbRegAppTableRecord
  2
GEVID1212656560
 70
     0
  0
APPID
  5
574
330
9
100
AcDbSymbolTableRecord
100
AcDbRegAppTableRecord
  2
GEVID1212656561
 70
     0
  0
APPID
  5
575
330
9
100
AcDbSymbolTableRecord
100
AcDbRegAppTableRecord
  2
GEVID1212656562
 70
     0
  0
APPID
  5
576
330
9
100
AcDbSymbolTableRecord
100
AcDbRegAppTableRecord
  2
GEVID1212656563
 70
     0
  0
APPID
  5
577
330
9
100
AcDbSymbolTableRecord
100
AcDbRegAppTableRecord
  2
GEVID1212711781
 70
     0
  0
APPID
  5
578
330
9
100
AcDbSymbolTableRecord
100
AcDbRegAppTableRecord
  2
GEVID1212711782
 70
     0
  0
APPID
  5
579
330
9
100
AcDbSymbolTableRecord
100
AcDbRegAppTableRecord
  2
GEVID1212711783
 70
     0
  0
APPID
  5
57A
330
9
100
AcDbSymbolTableRecord
100
AcDbRegAppTableRecord
  2
GEVID1212711784
 70
     0
  0
APPID
  5
57B
330
9
100
AcDbSymbolTableRecord
100
AcDbRegAppTableRecord
  2
GEVID1212711788
 70
     0
  0
APPID
  5
57C
330
9
100
AcDbSymbolTableRecord
100
AcDbRegAppTableRecord
  2
GEVID1212711789
 70
     0
  0
APPID
  5
57D
330
9
100
AcDbSymbolTableRecord
100
AcDbRegAppTableRecord
  2
GEVID1212711790
 70
     0
  0
APPID
  5
57E
330
9
100
AcDbSymbolTableRecord
100
AcDbRegAppTableRecord
  2
GEVID1212711791
 70
     0
  0
APPID
  5
57F
330
9
100
AcDbSymbolTableRecord
100
AcDbRegAppTableRecord
  2
GEVID1212711792
 70
     0
  0
APPID
  5
580
330
9
100
AcDbSymbolTableRecord
100
AcDbRegAppTableRecord
  2
GEVID1212711793
 70
     0
  0
APPID
  5
581
330
9
100
AcDbSymbolTableRecord
100
AcDbRegAppTableRecord
  2
GEVID1212711794
 70
     0
  0
APPID
  5
582
330
9
100
AcDbSymbolTableRecord
100
AcDbRegAppTableRecord
  2
GEVID1212711795
 70
     0
  0
APPID
  5
583
330
9
100
AcDbSymbolTableRecord
100
AcDbRegAppTableRecord
  2
GEVID1212711797
 70
     0
  0
APPID
  5
584
330
9
100
AcDbSymbolTableRecord
100
AcDbRegAppTableRecord
  2
GEVID1212711798
 70
     0
  0
APPID
  5
585
330
9
100
AcDbSymbolTableRecord
100
AcDbRegAppTableRecord
  2
GEVID1212711799
 70
     0
  0
APPID
  5
586
330
9
100
AcDbSymbolTableRecord
100
AcDbRegAppTableRecord
  2
GEVID1212711800
 70
     0
  0
APPID
  5
587
330
9
100
AcDbSymbolTableRecord
100
AcDbRegAppTableRecord
  2
GEVID1212711801
 70
     0
  0
APPID
  5
588
330
9
100
AcDbSymbolTableRecord
100
AcDbRegAppTableRecord
  2
GEVID1212711802
 70
     0
  0
APPID
  5
589
330
9
100
AcDbSymbolTableRecord
100
AcDbRegAppTableRecord
  2
GEVID1212711803
 70
     0
  0
APPID
  5
58A
330
9
100
AcDbSymbolTableRecord
100
AcDbRegAppTableRecord
  2
GEVID1212711804
 70
     0
  0
APPID
  5
58B
330
9
100
AcDbSymbolTableRecord
100
AcDbRegAppTableRecord
  2
GEVID1212711805
 70
     0
  0
APPID
  5
58C
330
9
100
AcDbSymbolTableRecord
100
AcDbRegAppTableRecord
  2
GEVID1212711806
 70
     0
  0
APPID
  5
58D
330
9
100
AcDbSymbolTableRecord
100
AcDbRegAppTableRecord
  2
GEVID1212711807
 70
     0
  0
APPID
  5
58E
330
9
100
AcDbSymbolTableRecord
100
AcDbRegAppTableRecord
  2
GEVID1212711808
 70
     0
  0
APPID
  5
58F
330
9
100
AcDbSymbolTableRecord
100
AcDbRegAppTableRecord
  2
GEVID1212711809
 70
     0
  0
APPID
  5
590
330
9
100
AcDbSymbolTableRecord
100
AcDbRegAppTableRecord
  2
GEVID1212711810
 70
     0
  0
APPID
  5
591
330
9
100
AcDbSymbolTableRecord
100
AcDbRegAppTableRecord
  2
GEVID1212711811
 70
     0
  0
APPID
  5
90A
330
9
100
AcDbSymbolTableRecord
100
AcDbRegAppTableRecord
  2
GENIUS_GENTRA_14
 70
     0
  0
APPID
  5
919
330
9
100
AcDbSymbolTableRecord
100
AcDbRegAppTableRecord
  2
GENIUS_GENOBJ-N-TIT_13
 70
     0
  0
APPID
  5
91A
330
9
100
AcDbSymbolTableRecord
100
AcDbRegAppTableRecord
  2
GENIUS_GENTITLE_13
 70
     0
  0
APPID
  5
949
330
9
100
AcDbSymbolTableRecord
100
AcDbRegAppTableRecord
  2
GENIUS_GENBLLY_14
 70
     0
  0
APPID
  5
DDD
330
9
100
AcDbSymbolTableRecord
100
AcDbRegAppTableRecord
  2
GEVID1213165152
 70
     0
  0
APPID
  5
12F9
330
9
100
AcDbSymbolTableRecord
100
AcDbRegAppTableRecord
  2
AcDbDynamicBlockTrueName
 70
     0
  0
APPID
  5
12FA
330
9
100
AcDbSymbolTableRecord
100
AcDbRegAppTableRecord
  2
ACDBBLOCKREPETAG
 70
     0
  0
APPID
  5
1C15
330
9
100
AcDbSymbolTableRecord
100
AcDbRegAppTableRecord
  2
GEVID1214872427
 70
     0
  0
APPID
  5
1C2A
330
9
100
AcDbSymbolTableRecord
100
AcDbRegAppTableRecord
  2
GEVID1214872428
 70
     0
  0
APPID
  5
1C2F
330
9
100
AcDbSymbolTableRecord
100
AcDbRegAppTableRecord
  2
GEVID1214872429
 70
     0
  0
APPID
  5
1C33
330
9
100
AcDbSymbolTableRecord
100
AcDbRegAppTableRecord
  2
GEVID1214872430
 70
     0
  0
APPID
  5
1C3F
330
9
100
AcDbSymbolTableRecord
100
AcDbRegAppTableRecord
  2
GEVID1214872432
 70
     0
  0
APPID
  5
1C4E
330
9
100
AcDbSymbolTableRecord
100
AcDbRegAppTableRecord
  2
GEVID1214872433
 70
     0
  0
APPID
  5
20DC
330
9
100
AcDbSymbolTableRecord
100
AcDbRegAppTableRecord
  2
AcDbDynamicBlockGUID
 70
     0
  0
APPID
  5
20FD
330
9
100
AcDbSymbolTableRecord
100
AcDbRegAppTableRecord
  2
GENIUS_GENOBJ-N-REV_13
 70
     0
  0
APPID
  5
20FE
330
9
100
AcDbSymbolTableRecord
100
AcDbRegAppTableRecord
  2
GENIUS_GENOBJ-N-RSSYM_13
 70
     0
  0
APPID
  5
20FF
330
9
100
AcDbSymbolTableRecord
100
AcDbRegAppTableRecord
  2
GENIUS_GENSYMENT_13
 70
     0
  0
APPID
  5
2100
330
9
100
AcDbSymbolTableRecord
100
AcDbRegAppTableRecord
  2
GENIUS_GENSCSYM_13
 70
     0
  0
APPID
  5
5232
330
9
100
AcDbSymbolTableRecord
100
AcDbRegAppTableRecord
  2
ACLAYERTOOLS
 70
     0
  0
ENDTAB
  0
TABLE
  2
DIMSTYLE
  5
A
330
0
100
AcDbSymbolTable
 70
    29
100
AcDbDimStyleTable
 71
     1
340
5AB
  0
DIMSTYLE
105
5AB
330
A
100
AcDbSymbolTableRecord
100
AcDbDimStyleTableRecord
  2
SEISA
 70
     0
  4
"
 40
2.0
 41
2.5
 42
0.625
 43
10.0
 44
0.625
 47
0.1
 48
0.1
 73
     0
 74
     0
 77
     3
 78
     8
 79
     2
 90
     1
140
3.5
141
0.0
143
0.0393701
146
0.71
147
1.5
172
     1
176
     3
177
     3
178
     3
271
     2
272
     2
283
     0
286
     8
340
5D5
341
69
342
69
371
    -1
372
    -1
1001
ACAD_DSTYLE_DIMJAG
1070
   388
1040
1.5
1001
ACAD_DSTYLE_DIMTALN
1070
   392
1070
     1
  0
DIMSTYLE
105
5E9
102
{ACAD_REACTORS
330
4DB7
330
4DF3
330
4F5D
330
4F75
330
5001
330
501D
330
5069
330
5081
330
5099
330
50B1
330
52DE
330
52FA
330
533C
330
53EF
330
6C4C
330
6CCD
330
6CF7
102
}
330
A
100
AcDbSymbolTableRecord
100
AcDbDimStyleTableRecord
  2
SEISA$0
 70
     0
  4
"
 40
2.0
 41
2.5
 42
0.625
 43
10.0
 44
0.625
 47
0.1
 48
0.1
 73
     0
 74
     0
 77
     3
 78
     8
 79
     2
 90
     1
140
3.5
141
0.0
143
0.0393701
146
0.71
147
1.5
172
     1
176
     3
177
     3
178
     3
271
     2
272
     2
283
     0
286
     8
340
5D5
341
69
342
69
371
    -1
372
    -1
  0
DIMSTYLE
105
6FCC
330
A
100
AcDbSymbolTableRecord
100
AcDbDimStyleTableRecord
  2
AM_ISO
 70
     0
  4
"
 41
2.5
 42
1.0
 43
10.0
 44
1.0
 47
0.1
 48
0.1
 73
     0
 74
     0
 77
     1
 78
     8
 79
     2
 90
     1
140
3.5
141
0.0
143
0.0393701
146
0.71
147
1.5
172
     1
176
   256
177
   256
178
     2
271
     2
272
     3
274
     4
283
     0
284
     8
340
11
371
    -1
372
    -1
  0
DIMSTYLE
105
6FCD
330
A
100
AcDbSymbolTableRecord
100
AcDbDimStyleTableRecord
  2
AM_ISO$3
 70
     0
  4
"
 41
2.5
 42
1.0
 43
10.0
 44
1.0
 47
0.1
 48
0.1
 73
     0
 77
     1
 78
     8
 79
     2
 90
     1
140
3.5
141
0.0
143
0.0393701
146
0.71
147
1.5
176
   256
177
   256
178
     2
271
     2
272
     3
274
     4
283
     0
284
     8
288
     1
289
     0
340
11
371
    -1
372
    -1
  0
DIMSTYLE
105
6FCE
330
A
100
AcDbSymbolTableRecord
100
AcDbDimStyleTableRecord
  2
AM_ISO$4
 70
     0
  4
"
 41
2.5
 42
1.0
 43
10.0
 44
1.0
 47
0.1
 48
0.1
 73
     0
 77
     1
 78
     8
 79
     2
 90
     1
140
3.5
141
0.0
143
0.0393701
146
0.71
147
1.5
176
   256
177
   256
178
     2
271
     2
272
     3
274
     4
283
     0
284
     8
288
     1
289
     0
340
11
371
    -1
372
    -1
  0
DIMSTYLE
105
6FCF
330
A
100
AcDbSymbolTableRecord
100
AcDbDimStyleTableRecord
  2
AM_ISO$6
 70
     0
  4
"
 41
2.5
 42
1.0
 43
10.0
 44
1.0
 47
0.1
 48
0.1
 73
     0
 74
     0
 78
     8
 79
     2
 90
     1
140
3.5
141
0.0
143
0.0393701
146
0.71
147
1.5
172
     1
176
   256
177
   256
178
     2
271
     2
272
     3
274
     4
283
     0
284
     8
340
11
371
    -1
372
    -1
  0
DIMSTYLE
105
6FD0
330
A
100
AcDbSymbolTableRecord
100
AcDbDimStyleTableRecord
  2
AM_ISO$7
 70
     0
  4
"
 41
2.5
 42
1.0
 43
10.0
 44
1.0
 47
0.1
 48
0.1
 73
     0
 74
     0
 77
     1
 78
     8
 79
     2
 90
     1
140
5.0
141
0.0
143
0.0393701
146
0.71
147
1.5
172
     1
176
   256
177
   256
178
     2
271
     2
272
     3
274
     4
283
     0
284
     8
340
11
371
    -1
372
    -1
  0
DIMSTYLE
105
6FD1
330
A
100
AcDbSymbolTableRecord
100
AcDbDimStyleTableRecord
  2
AM_ISO$SF
 70
     0
  4
"
 41
2.5
 42
1.0
 43
10.0
 44
1.0
 47
0.1
 48
0.1
 73
     0
 74
     0
 75
     1
 76
     1
 77
     1
 78
     8
 79
     2
 90
     1
140
3.5
141
0.0
143
0.0393701
146
0.71
147
1.5
172
     1
176
   256
177
   256
178
     2
271
     2
272
     3
274
     4
283
     0
284
     8
340
11
371
    -1
372
    -1
  0
DIMSTYLE
105
6FD2
330
A
100
AcDbSymbolTableRecord
100
AcDbDimStyleTableRecord
  2
AM_ISO$SH
 70
     0
  4
"
 41
2.5
 42
1.0
 43
10.0
 44
1.0
 47
0.1
 48
0.1
 73
     0
 74
     0
 75
     1
 76
     1
 77
     1
 78
     8
 79
     2
 90
     1
140
3.5
141
0.0
143
0.0393701
144
2.0
146
0.71
147
1.5
172
     1
173
     1
176
   256
177
   256
178
     2
271
     2
272
     3
274
     4
283
     0
284
     8
340
11
343
74
371
    -1
372
    -1
  0
ENDTAB
  0
TABLE
  2
BLOCK_RECORD
  5
1
330
0
100
AcDbSymbolTable
 70
    31
  0
BLOCK_RECORD
  5
1F
102
{ACAD_XDICTIONARY
360
82
102
}
330
1
100
AcDbSymbolTableRecord
100
AcDbBlockTableRecord
  2
*Model_Space
340
22
 70
     0
280
     1
281
     0
  0
BLOCK_RECORD
  5
1B
330
1
100
AcDbSymbolTableRecord
100
AcDbBlockTableRecord
  2
*Paper_Space
340
1E
 70
     0
280
     1
281
     0
  0
BLOCK_RECORD
  5
23
330
1
100
AcDbSymbolTableRecord
100
AcDbBlockTableRecord
  2
*Paper_Space0
340
26
 70
     0
280
     1
281
     0
  0
BLOCK_RECORD
  5
69
330
1
100
AcDbSymbolTableRecord
100
AcDbBlockTableRecord
  2
_Open30
340
0
102
{BLKREFS
331
685F
331
6860
331
6878
331
6879
331
6881
331
6882
331
688E
331
6899
331
68A0
331
68A1
331
68A9
331
68AA
331
68B2
331
68B3
331
68BB
331
68BC
331
68F9
331
68FA
331
6D23
331
6D24
331
6D37
331
6D38
331
6D40
331
6D41
331
6D4C
331
6D4D
331
6D54
331
6D55
331
6D5F
331
6D60
331
6DBD
331
6DBE
102
}
 70
     0
280
     1
281
     0
  0
BLOCK_RECORD
  5
74
330
1
100
AcDbSymbolTableRecord
100
AcDbBlockTableRecord
  2
GENAXEH
340
0
 70
     0
280
     1
281
     0
  0
BLOCK_RECORD
  5
340A
102
{ACAD_XDICTIONARY
360
340B
102
}
330
1
100
AcDbSymbolTableRecord
100
AcDbBlockTableRecord
  2
ロッカクアナツキプラグ R1／8
340
0
310
2800000020000000200000000100080000000000000400000000000000000000000000000000000000000000000080000080000000808000800000008000800080800000C0C0C000C0DCC000F0CAA6000020400000206000002080000020A0000020C0000020E00000400000004020000040400000406000004080000040A0
310
000040C0000040E00000600000006020000060400000606000006080000060A0000060C0000060E00000800000008020000080400000806000008080000080A0000080C0000080E00000A0000000A0200000A0400000A0600000A0800000A0A00000A0C00000A0E00000C0000000C0200000C0400000C0600000C0800000C0
310
A00000C0C00000C0E00000E0000000E0200000E0400000E0600000E0800000E0A00000E0C00000E0E00040000000400020004000400040006000400080004000A0004000C0004000E00040200000402020004020400040206000402080004020A0004020C0004020E000404000004040200040404000404060004040800040
310
40A0004040C0004040E00040600000406020004060400040606000406080004060A0004060C0004060E00040800000408020004080400040806000408080004080A0004080C0004080E00040A0000040A0200040A0400040A0600040A0800040A0A00040A0C00040A0E00040C0000040C0200040C0400040C0600040C08000
310
40C0A00040C0C00040C0E00040E0000040E0200040E0400040E0600040E0800040E0A00040E0C00040E0E00080000000800020008000400080006000800080008000A0008000C0008000E00080200000802020008020400080206000802080008020A0008020C0008020E00080400000804020008040400080406000804080
310
008040A0008040C0008040E00080600000806020008060400080606000806080008060A0008060C0008060E00080800000808020008080400080806000808080008080A0008080C0008080E00080A0000080A0200080A0400080A0600080A0800080A0A00080A0C00080A0E00080C0000080C0200080C0400080C0600080C0
310
800080C0A00080C0C00080C0E00080E0000080E0200080E0400080E0600080E0800080E0A00080E0C00080E0E000C0000000C0002000C0004000C0006000C0008000C000A000C000C000C000E000C0200000C0202000C0204000C0206000C0208000C020A000C020C000C020E000C0400000C0402000C0404000C0406000C0
310
408000C040A000C040C000C040E000C0600000C0602000C0604000C0606000C0608000C060A000C060C000C060E000C0800000C0802000C0804000C0806000C0808000C080A000C080C000C080E000C0A00000C0A02000C0A04000C0A06000C0A08000C0A0A000C0A0C000C0A0E000C0C00000C0C02000C0C04000C0C06000
310
C0C08000C0C0A000F0FBFF00A4A0A000808080000000FF0000FF000000FFFF00FF000000FF00FF00FFFF0000FFFFFF000000000000000000000000000000000000000000000000000000000000000000000000000000000000000000000000F900000000000000000000000000000000000000000000000000000000000000
310
F900000000000000000000000000000000000000000000000000000000000000F9000000000000000000000000000000000000000000000000000000000000FFF900000000000000000000000000000000000000000000000000000000FFFFFEF9FFFFFFFFFF000000000000000000000000000000000000000000FFFFFEFE
310
00F90000FEFE00FF000000000000000000000000000000000000FFFFFEFE000000F900000000FEFEFF00000000000000000000000000000000FF00FE0000000000F9000000000000FEFFFF00000000000000000000000000FF00FE000000000000F900000000000000FEFF00000000000000000000000000FF00FE00000000
310
0000FF0000000000000000FEFF0000000000000000000000FF00FE0000000000FFFFF9FFFF000000000000FEFF0000000000000000000000FF00FE00000000FF0000F90000FFFF0000000000FEFF00000000000000000000FFFE00000000FF000000F900000000FF00000000FEFF00000000000000000000FFFE00000000FF
310
000000F900000000FF00000000FEFF00000000000000000000FF0000000000FF000000F900000000FF0000000000FEFF0000000000F9F9F9F9F9F9F9F9F9F9FFF9F9F9F9F9F9F9F9FFF9F9F9F9F9F9F9F9F9F9000000000000FFFE00000000FF000000F900000000FF0000000000FEFF000000000000000000FFFE00000000
310
FF000000F900000000FF00000000FEFF00000000000000000000FF00FE00000000FFFF00F90000FFFF0000000000FEFF00000000000000000000FF00FE000000000000FFF9FFFF000000000000FEFF000000000000000000000000FF00FE000000000000FF0000000000000000FEFF000000000000000000000000FF00FE00
310
0000000000F900000000000000FEFF0000000000000000000000000000FF00FE0000000000F9000000000000FE00FF000000000000000000000000000000FF00FE00000000F90000000000FEFFFF0000000000000000000000000000000000FFFFFEFE0000F9000000FEFEFF00000000000000000000000000000000000000
310
0000FFFFFFFEF9FEFFFFFFFF00000000000000000000000000000000000000000000000000FFF9FF000000000000000000000000000000000000000000000000000000000000F900000000000000000000000000000000000000000000000000000000000000F9000000000000000000000000000000000000000000000000
310
00000000000000F9000000000000000000000000000000000000000000000000000000000000000000000000000000000000000000000000
102
{BLKREFS
331
4887
102
}
 70
     4
280
     1
281
     0
  0
BLOCK_RECORD
  5
484A
102
{ACAD_XDICTIONARY
360
4909
102
}
330
1
100
AcDbSymbolTableRecord
100
AcDbBlockTableRecord
  2
ケースＡ SEM160
340
0
310
2800000020000000200000000100080000000000000400000000000000000000000000000000000000000000000080000080000000808000800000008000800080800000C0C0C000C0DCC000F0CAA6000020400000206000002080000020A0000020C0000020E00000400000004020000040400000406000004080000040A0
310
000040C0000040E00000600000006020000060400000606000006080000060A0000060C0000060E00000800000008020000080400000806000008080000080A0000080C0000080E00000A0000000A0200000A0400000A0600000A0800000A0A00000A0C00000A0E00000C0000000C0200000C0400000C0600000C0800000C0
310
A00000C0C00000C0E00000E0000000E0200000E0400000E0600000E0800000E0A00000E0C00000E0E00040000000400020004000400040006000400080004000A0004000C0004000E00040200000402020004020400040206000402080004020A0004020C0004020E000404000004040200040404000404060004040800040
310
40A0004040C0004040E00040600000406020004060400040606000406080004060A0004060C0004060E00040800000408020004080400040806000408080004080A0004080C0004080E00040A0000040A0200040A0400040A0600040A0800040A0A00040A0C00040A0E00040C0000040C0200040C0400040C0600040C08000
310
40C0A00040C0C00040C0E00040E0000040E0200040E0400040E0600040E0800040E0A00040E0C00040E0E00080000000800020008000400080006000800080008000A0008000C0008000E00080200000802020008020400080206000802080008020A0008020C0008020E00080400000804020008040400080406000804080
310
008040A0008040C0008040E00080600000806020008060400080606000806080008060A0008060C0008060E00080800000808020008080400080806000808080008080A0008080C0008080E00080A0000080A0200080A0400080A0600080A0800080A0A00080A0C00080A0E00080C0000080C0200080C0400080C0600080C0
310
800080C0A00080C0C00080C0E00080E0000080E0200080E0400080E0600080E0800080E0A00080E0C00080E0E000C0000000C0002000C0004000C0006000C0008000C000A000C000C000C000E000C0200000C0202000C0204000C0206000C0208000C020A000C020C000C020E000C0400000C0402000C0404000C0406000C0
310
408000C040A000C040C000C040E000C0600000C0602000C0604000C0606000C0608000C060A000C060C000C060E000C0800000C0802000C0804000C0806000C0808000C080A000C080C000C080E000C0A00000C0A02000C0A04000C0A06000C0A08000C0A0A000C0A0C000C0A0E000C0C00000C0C02000C0C04000C0C06000
310
C0C08000C0C0A000F0FBFF00A4A0A000808080000000FF0000FF000000FFFF00FF000000FF00FF00FFFF0000FFFFFF00000000000000000000000000000000000000000000000000000000000000000000000000000000000000000000FFFFFFFF00000000000000000000000000000000000000000000000000000000FF00
310
00FF00000000000000000000000000000000000000000000000000000000FFF900FF00000000000000000000000000000000000000000000000000000000FFFFFFFF00000000000000000000000000000000000000000000000000000000F9FFFFF9FFFFFFFFFFFF00000000000000000000000000000000000000000000FF
310
F900FF0000000000FF00000000000000000000000000000000000000000000FF0000FF0000000000FF00000000000000000000000000000000000000000000FF0000FF0000000000FF00000000000000000000000000000000000000000000FF0000FF0000000000FF00000000000000000000000000000000000000000000
310
FF0000FF0000000000FF00000000000000000000000000000000000000000000FF0000FF0000000000FF00000000000000000000000000000000000000000000FF0000FF0000000000FF00000000000000000000000000000000000000000000FF0000FF0000000000FF000000000000000000000000000000000000000000
310
00FF0000FF0000000000FF00000000000000000000000000000000000000000000FF0000FF0000000000FF00000000000000000000000000000000000000000000FF0000FF0000000000FF00000000000000000000000000000000000000000000000000000000000000000000000000000000000000000000000000000000
310
00000000000000000000000000000000000000000000000000000000000000000000000000000000000000000000000000000000000000000000000000000000000000000000000000000000000000000000000000000000000000000000000000000000000000000000000000000000000000000000000000000000000000
310
00000000000000000000000000000000000000000000000000000000000000000000000000000000000000000000000000000000000000000000000000000000000000000000FFFFA4A4FFFFFF00000000000000000000000000000000000000000000FFFFFFFFFFFFFFFFFFFF000000000000000000000000000000000000
310
00000000FFFF00FFFFFFFFFFFFFF0000000000000000000000000000000000000000FFFFFFFFFFFF000000000000000000000000000000000000000000000000F9F9F9F9F9F9F9FFF9F9F90000000000000000000000000000000000000000000000FFFFFFFFFFFF0000000000000000000000000000000000000000000000
310
0000000000FFFFFFFF0000000000000000000000000000000000000000000000000000000000000000000000000000000000000000000000
102
{BLKREFS
331
4888
102
}
 70
     4
280
     1
281
     0
  0
BLOCK_RECORD
  5
49F1
102
{ACAD_XDICTIONARY
360
4A50
102
}
330
1
100
AcDbSymbolTableRecord
100
AcDbBlockTableRecord
  2
リジット SEM160
340
0
310
2800000020000000200000000100080000000000000400000000000000000000000000000000000000000000000080000080000000808000800000008000800080800000C0C0C000C0DCC000F0CAA6000020400000206000002080000020A0000020C0000020E00000400000004020000040400000406000004080000040A0
310
000040C0000040E00000600000006020000060400000606000006080000060A0000060C0000060E00000800000008020000080400000806000008080000080A0000080C0000080E00000A0000000A0200000A0400000A0600000A0800000A0A00000A0C00000A0E00000C0000000C0200000C0400000C0600000C0800000C0
310
A00000C0C00000C0E00000E0000000E0200000E0400000E0600000E0800000E0A00000E0C00000E0E00040000000400020004000400040006000400080004000A0004000C0004000E00040200000402020004020400040206000402080004020A0004020C0004020E000404000004040200040404000404060004040800040
310
40A0004040C0004040E00040600000406020004060400040606000406080004060A0004060C0004060E00040800000408020004080400040806000408080004080A0004080C0004080E00040A0000040A0200040A0400040A0600040A0800040A0A00040A0C00040A0E00040C0000040C0200040C0400040C0600040C08000
310
40C0A00040C0C00040C0E00040E0000040E0200040E0400040E0600040E0800040E0A00040E0C00040E0E00080000000800020008000400080006000800080008000A0008000C0008000E00080200000802020008020400080206000802080008020A0008020C0008020E00080400000804020008040400080406000804080
310
008040A0008040C0008040E00080600000806020008060400080606000806080008060A0008060C0008060E00080800000808020008080400080806000808080008080A0008080C0008080E00080A0000080A0200080A0400080A0600080A0800080A0A00080A0C00080A0E00080C0000080C0200080C0400080C0600080C0
310
800080C0A00080C0C00080C0E00080E0000080E0200080E0400080E0600080E0800080E0A00080E0C00080E0E000C0000000C0002000C0004000C0006000C0008000C000A000C000C000C000E000C0200000C0202000C0204000C0206000C0208000C020A000C020C000C020E000C0400000C0402000C0404000C0406000C0
310
408000C040A000C040C000C040E000C0600000C0602000C0604000C0606000C0608000C060A000C060C000C060E000C0800000C0802000C0804000C0806000C0808000C080A000C080C000C080E000C0A00000C0A02000C0A04000C0A06000C0A08000C0A0A000C0A0C000C0A0E000C0C00000C0C02000C0C04000C0C06000
310
C0C08000C0C0A000F0FBFF00A4A0A000808080000000FF0000FF000000FFFF00FF000000FF00FF00FFFF0000FFFFFF00000000000000000000000000000000000000000000000000000000000000000000000000000000000000000000000000000000FFFFFF00000000000000000000000000000000000000000000000000
310
00000000FF000000000000000000000000000000000000000000000000000000000000F9F9F9F9F9F9F9F900000000000000000000000000000000000000000000000000FF00000000000000000000000000000000000000000000000000000000000000FF00000000000000000000000000000000000000FFFFFFFFFFFFFF
310
FFFFFFFFFFFF000000000000000000000000000000000000FF000000000000000000000000FF000000000000000000000000000000000000FF000000000000000000000000FF000000000000000000000000000000000000FF000000000000000000000000FF000000000000000000000000000000000000FF000000000000
310
000000000000FF000000000000000000000000000000000000FF000000000000000000000000FF000000000000000000000000000000000000FF000000000000000000000000FF000000000000000000000000000000000000FF000000000000000000000000FF000000000000000000000000000000000000FF0000000000
310
00000000000000FF000000000000000000000000000000000000FF000000000000000000000000FF000000000000000000000000000000000000FF000000000000000000000000FFFF0000000000000000000000000000000000FF00000000000000000000000000FF0000000000000000000000000000000000FF00000000
310
000000000000000000FF0000000000000000000000000000000000FF00000000000000000000000000FF0000000000000000000000000000000000FFFFFFFFFFFFFFFFFFFFFFFFFFFFFF0000000000000000000000000000000000FFFFFFFFFFFFFFFFFFFFFFFFFFFFFF0000000000000000000000000000000000FF000000
310
00000000000000000000FF0000000000000000000000000000000000FF00000000000000000000000000FF0000000000000000000000000000000000FF00000000000000000000000000FF000000000000000000000000000000000000FFFFFFFFFFFFFFFFFFFFFF0000FF0000000000000000000000000000000000000000
310
000000000000000000FFFF00FF0000000000000000000000000000000000000000000000000000000000FF00000000000000000000000000000000000000000000000000000000000000FF00000000000000000000000000000000000000000000000000000000000000FF0000000000000000000000000000000000000000
310
0000000000000000000000FFFFFF000000000000000000000000000000000000000000000000000000000000000000000000000000000000
102
{BLKREFS
331
4A0D
102
}
 70
     4
280
     1
281
     0
  0
BLOCK_RECORD
  5
4BD9
102
{ACAD_XDICTIONARY
360
4C79
102
}
330
1
100
AcDbSymbolTableRecord
100
AcDbBlockTableRecord
  2
リーマボルト SEM160 M8
340
0
310
2800000020000000200000000100080000000000000400000000000000000000000000000000000000000000000080000080000000808000800000008000800080800000C0C0C000C0DCC000F0CAA6000020400000206000002080000020A0000020C0000020E00000400000004020000040400000406000004080000040A0
310
000040C0000040E00000600000006020000060400000606000006080000060A0000060C0000060E00000800000008020000080400000806000008080000080A0000080C0000080E00000A0000000A0200000A0400000A0600000A0800000A0A00000A0C00000A0E00000C0000000C0200000C0400000C0600000C0800000C0
310
A00000C0C00000C0E00000E0000000E0200000E0400000E0600000E0800000E0A00000E0C00000E0E00040000000400020004000400040006000400080004000A0004000C0004000E00040200000402020004020400040206000402080004020A0004020C0004020E000404000004040200040404000404060004040800040
310
40A0004040C0004040E00040600000406020004060400040606000406080004060A0004060C0004060E00040800000408020004080400040806000408080004080A0004080C0004080E00040A0000040A0200040A0400040A0600040A0800040A0A00040A0C00040A0E00040C0000040C0200040C0400040C0600040C08000
310
40C0A00040C0C00040C0E00040E0000040E0200040E0400040E0600040E0800040E0A00040E0C00040E0E00080000000800020008000400080006000800080008000A0008000C0008000E00080200000802020008020400080206000802080008020A0008020C0008020E00080400000804020008040400080406000804080
310
008040A0008040C0008040E00080600000806020008060400080606000806080008060A0008060C0008060E00080800000808020008080400080806000808080008080A0008080C0008080E00080A0000080A0200080A0400080A0600080A0800080A0A00080A0C00080A0E00080C0000080C0200080C0400080C0600080C0
310
800080C0A00080C0C00080C0E00080E0000080E0200080E0400080E0600080E0800080E0A00080E0C00080E0E000C0000000C0002000C0004000C0006000C0008000C000A000C000C000C000E000C0200000C0202000C0204000C0206000C0208000C020A000C020C000C020E000C0400000C0402000C0404000C0406000C0
310
408000C040A000C040C000C040E000C0600000C0602000C0604000C0606000C0608000C060A000C060C000C060E000C0800000C0802000C0804000C0806000C0808000C080A000C080C000C080E000C0A00000C0A02000C0A04000C0A06000C0A08000C0A0A000C0A0C000C0A0E000C0C00000C0C02000C0C04000C0C06000
310
C0C08000C0C0A000F0FBFF00A4A0A000808080000000FF0000FF000000FFFF00FF000000FF00FF00FFFF0000FFFFFF0000000000000000000000000000000000000000000000000000000000000000000000000000000000000000000000000000000000000000000000000000000000000000000000000000000000000000
310
00000000000000000000000000000000000000000000000000000000000000000000000000000000000000000000000000000000000000000000000000000000000000000000000000000000000000000000000000000000000000000000000000000000000000000000000000000000000000000000000000000000000000
310
00000000000000000000000000000000000000000000000000000000000000000000000000000000000000000000000000000000000000000000000000000000000000000000000000000000000000000000000000000000000000000000000000000000000000000000000000000000000000000000000000000000000000
310
000000000000000000000000000000000000000000FFFFFFFF00000000000000000000000000000000FFFFFFFFFFFF0000000000FFFF000000000000000000000000000000000000000000FF0000FFFF00000000FFFFFFFFFFFF000000000000000000000000FFFFFFFF00FFFFFFFFFFFF000000FFFF000000FF0000000000
310
00000000000000FFFF000000FF0000FFFFFFFF0000FFFF000000FF000000000000000000000000FFFF00FF00FF0000FFFFFFFF0000FFFF000000FF000000000000000000000000FFFF0000FFFF0000FFFFFFFF0000FFFF000000FF000000000000000000000000FFFF000000FF0000FFFFFFFF0000FFFFFFFFFFFF00000000
310
0000000000000000FFFFFFFF00FFFFFFFFFFFF000000FFFF000000000000000000000000000000000000000000FF0000FFFF0000000000FFFFFFFF00000000000000000000000000000000FFFFFFFFFFFF00000000000000000000000000000000000000000000000000000000000000000000000000000000000000000000
310
00000000000000000000000000000000000000000000000000000000000000000000000000000000000000000000000000000000000000000000000000000000000000000000000000000000000000000000000000000000000000000000000000000000000000000000000000000000000000000000000000000000000000
310
00000000000000000000000000000000000000000000000000000000000000000000000000000000000000000000000000000000000000000000000000000000000000000000000000000000000000000000000000000000000000000000000000000000000000000000000000000000000000000000000000000000000000
310
0000000000000000000000000000000000000000000000000000000000000000000000000000000000000000000000000000000000000000
102
{BLKREFS
331
4C0C
102
}
 70
     4
280
     1
281
     0
  0
BLOCK_RECORD
  5
4DB8
330
1
100
AcDbSymbolTableRecord
100
AcDbBlockTableRecord
  2
*D10
340
0
 70
     0
280
     1
281
     0
  0
BLOCK_RECORD
  5
4DF4
330
1
100
AcDbSymbolTableRecord
100
AcDbBlockTableRecord
  2
*D11
340
0
 70
     0
280
     1
281
     0
  0
BLOCK_RECORD
  5
4F5E
330
1
100
AcDbSymbolTableRecord
100
AcDbBlockTableRecord
  2
*D12
340
0
 70
     0
280
     1
281
     0
  0
BLOCK_RECORD
  5
4F76
330
1
100
AcDbSymbolTableRecord
100
AcDbBlockTableRecord
  2
*D13
340
0
 70
     0
280
     1
281
     0
  0
BLOCK_RECORD
  5
5002
330
1
100
AcDbSymbolTableRecord
100
AcDbBlockTableRecord
  2
*D14
340
0
 70
     0
280
     1
281
     0
  0
BLOCK_RECORD
  5
501E
330
1
100
AcDbSymbolTableRecord
100
AcDbBlockTableRecord
  2
*D15
340
0
 70
     0
280
     1
281
     0
  0
BLOCK_RECORD
  5
506A
330
1
100
AcDbSymbolTableRecord
100
AcDbBlockTableRecord
  2
*D16
340
0
 70
     0
280
     1
281
     0
  0
BLOCK_RECORD
  5
5082
330
1
100
AcDbSymbolTableRecord
100
AcDbBlockTableRecord
  2
*D17
340
0
 70
     0
280
     1
281
     0
  0
BLOCK_RECORD
  5
509A
330
1
100
AcDbSymbolTableRecord
100
AcDbBlockTableRecord
  2
*D18
340
0
 70
     0
280
     1
281
     0
  0
BLOCK_RECORD
  5
50B2
330
1
100
AcDbSymbolTableRecord
100
AcDbBlockTableRecord
  2
*D19
340
0
 70
     0
280
     1
281
     0
  0
BLOCK_RECORD
  5
5294
102
{ACAD_XDICTIONARY
360
5F05
102
}
330
1
100
AcDbSymbolTableRecord
100
AcDbBlockTableRecord
  2
センタ SEM160
340
0
310
2800000020000000200000000100080000000000000400000000000000000000000000000000000000000000000080000080000000808000800000008000800080800000C0C0C000C0DCC000F0CAA6000020400000206000002080000020A0000020C0000020E00000400000004020000040400000406000004080000040A0
310
000040C0000040E00000600000006020000060400000606000006080000060A0000060C0000060E00000800000008020000080400000806000008080000080A0000080C0000080E00000A0000000A0200000A0400000A0600000A0800000A0A00000A0C00000A0E00000C0000000C0200000C0400000C0600000C0800000C0
310
A00000C0C00000C0E00000E0000000E0200000E0400000E0600000E0800000E0A00000E0C00000E0E00040000000400020004000400040006000400080004000A0004000C0004000E00040200000402020004020400040206000402080004020A0004020C0004020E000404000004040200040404000404060004040800040
310
40A0004040C0004040E00040600000406020004060400040606000406080004060A0004060C0004060E00040800000408020004080400040806000408080004080A0004080C0004080E00040A0000040A0200040A0400040A0600040A0800040A0A00040A0C00040A0E00040C0000040C0200040C0400040C0600040C08000
310
40C0A00040C0C00040C0E00040E0000040E0200040E0400040E0600040E0800040E0A00040E0C00040E0E00080000000800020008000400080006000800080008000A0008000C0008000E00080200000802020008020400080206000802080008020A0008020C0008020E00080400000804020008040400080406000804080
310
008040A0008040C0008040E00080600000806020008060400080606000806080008060A0008060C0008060E00080800000808020008080400080806000808080008080A0008080C0008080E00080A0000080A0200080A0400080A0600080A0800080A0A00080A0C00080A0E00080C0000080C0200080C0400080C0600080C0
310
800080C0A00080C0C00080C0E00080E0000080E0200080E0400080E0600080E0800080E0A00080E0C00080E0E000C0000000C0002000C0004000C0006000C0008000C000A000C000C000C000E000C0200000C0202000C0204000C0206000C0208000C020A000C020C000C020E000C0400000C0402000C0404000C0406000C0
310
408000C040A000C040C000C040E000C0600000C0602000C0604000C0606000C0608000C060A000C060C000C060E000C0800000C0802000C0804000C0806000C0808000C080A000C080C000C080E000C0A00000C0A02000C0A04000C0A06000C0A08000C0A0A000C0A0C000C0A0E000C0C00000C0C02000C0C04000C0C06000
310
C0C08000C0C0A000F0FBFF00A4A0A000808080000000FF0000FF000000FFFF00FF000000FF00FF00FFFF0000FFFFFF0000000000000000000000000000000000000000000000000000000000000000000000000000000000000000000000000000FFFFFF000000000000000000000000000000000000000000000000000000
310
00000000FFFFFFFFFFFFFFFF000000000000000000000000000000000000000000000000FFFF0000000000FF000000000000000000000000000000000000000000000000FFFF0000000000FF000000000000000000000000000000000000000000000000FFFF0000000000FF00000000000000000000000000000000000000
310
0000000000FFFF0000000000FF000000000000000000000000000000000000000000000000FFFF0000000000FF000000000000000000000000000000000000000000000000FFFF0000000000FF000000000000000000000000000000000000000000000000FFFF0000000000FF000000000000000000000000000000000000
310
000000000000FFFF0000000000FF000000000000000000000000000000000000000000000000FFFF0000000000FF000000000000000000000000000000000000000000000000FFFF0000000000FF000000000000000000000000000000000000000000000000FFFF0000000000FF00000000000000000000FF000000000000
310
00000000000000FFFF0000000000FF00000000000000000000FF0000000000000000000000000000000000000000FF00000000000000000000FF0000000000000000000000000000000000000000FF00000000000000000000FF0000000000000000000000000000000000000000FF00000000000000000000FF0000000000
310
000000000000000000000000000000FF00000000000000000000FF0000000000000000000000000000000000000000FF00000000000000000000FF0000000000000000000000000000000000000000FF00000000000000000000FFFFFFFFFFFFFFFFFFFFFFFFFFFFFFFFFFFFFFFFFFFF00000000000000000000FFFFFFFFFF
310
FFFFFFFFFFFFFFFFFFFFFFFFFFFFFFFFFF00000000000000000000FF0000000000000000000000000000000000000000FF00000000000000000000FF0000000000000000000000000000000000000000FF00000000000000000000FF0000000000000000000000000000000000000000FF00000000000000000000FF000000
310
0000000000000000000000000000000000FF00000000000000000000FFFFFFFF00F90000FFFFFFFFFFFFFFFFFFFFFFFFFFFF00000000000000000000000000FFFFFFFFFFFFF900000000000000000000000000000000000000000000000000FFFFFFFFFFFF0000000000000000000000000000000000000000000000000000
310
0000F90000000000000000000000000000000000000000000000000000000000000000000000000000000000000000000000000000000000
102
{BLKREFS
331
52D5
102
}
 70
     4
280
     1
281
     0
  0
BLOCK_RECORD
  5
52DF
330
1
100
AcDbSymbolTableRecord
100
AcDbBlockTableRecord
  2
*D21
340
0
 70
     0
280
     1
281
     0
  0
BLOCK_RECORD
  5
52FB
330
1
100
AcDbSymbolTableRecord
100
AcDbBlockTableRecord
  2
*D22
340
0
 70
     0
280
     1
281
     0
  0
BLOCK_RECORD
  5
533D
330
1
100
AcDbSymbolTableRecord
100
AcDbBlockTableRecord
  2
*D23
340
0
 70
     0
280
     1
281
     0
  0
BLOCK_RECORD
  5
53F0
330
1
100
AcDbSymbolTableRecord
100
AcDbBlockTableRecord
  2
*D24
340
0
 70
     0
280
     1
281
     0
  0
BLOCK_RECORD
  5
62FC
330
1
100
AcDbSymbolTableRecord
100
AcDbBlockTableRecord
  2
GENDOT
340
0
102
{BLKREFS
331
688D
331
6898
102
}
 70
     0
280
     1
281
     0
  0
BLOCK_RECORD
  5
6C4D
330
1
100
AcDbSymbolTableRecord
100
AcDbBlockTableRecord
  2
*D26
340
0
 70
     0
280
     1
281
     0
  0
BLOCK_RECORD
  5
6CCE
330
1
100
AcDbSymbolTableRecord
100
AcDbBlockTableRecord
  2
*D27
340
0
 70
     0
280
     1
281
     0
  0
BLOCK_RECORD
  5
6CF8
330
1
100
AcDbSymbolTableRecord
100
AcDbBlockTableRecord
  2
*D28
340
0
 70
     0
280
     1
281
     0
  0
BLOCK_RECORD
  5
6F0C
330
1
100
AcDbSymbolTableRecord
100
AcDbBlockTableRecord
  2
ケース
340
0
310
2800000020000000200000000100080000000000000400000000000000000000000000000000000000000000000080000080000000808000800000008000800080800000C0C0C000C0DCC000F0CAA6000020400000206000002080000020A0000020C0000020E00000400000004020000040400000406000004080000040A0
310
000040C0000040E00000600000006020000060400000606000006080000060A0000060C0000060E00000800000008020000080400000806000008080000080A0000080C0000080E00000A0000000A0200000A0400000A0600000A0800000A0A00000A0C00000A0E00000C0000000C0200000C0400000C0600000C0800000C0
310
A00000C0C00000C0E00000E0000000E0200000E0400000E0600000E0800000E0A00000E0C00000E0E00040000000400020004000400040006000400080004000A0004000C0004000E00040200000402020004020400040206000402080004020A0004020C0004020E000404000004040200040404000404060004040800040
310
40A0004040C0004040E00040600000406020004060400040606000406080004060A0004060C0004060E00040800000408020004080400040806000408080004080A0004080C0004080E00040A0000040A0200040A0400040A0600040A0800040A0A00040A0C00040A0E00040C0000040C0200040C0400040C0600040C08000
310
40C0A00040C0C00040C0E00040E0000040E0200040E0400040E0600040E0800040E0A00040E0C00040E0E00080000000800020008000400080006000800080008000A0008000C0008000E00080200000802020008020400080206000802080008020A0008020C0008020E00080400000804020008040400080406000804080
310
008040A0008040C0008040E00080600000806020008060400080606000806080008060A0008060C0008060E00080800000808020008080400080806000808080008080A0008080C0008080E00080A0000080A0200080A0400080A0600080A0800080A0A00080A0C00080A0E00080C0000080C0200080C0400080C0600080C0
310
800080C0A00080C0C00080C0E00080E0000080E0200080E0400080E0600080E0800080E0A00080E0C00080E0E000C0000000C0002000C0004000C0006000C0008000C000A000C000C000C000E000C0200000C0202000C0204000C0206000C0208000C020A000C020C000C020E000C0400000C0402000C0404000C0406000C0
310
408000C040A000C040C000C040E000C0600000C0602000C0604000C0606000C0608000C060A000C060C000C060E000C0800000C0802000C0804000C0806000C0808000C080A000C080C000C080E000C0A00000C0A02000C0A04000C0A06000C0A08000C0A0A000C0A0C000C0A0E000C0C00000C0C02000C0C04000C0C06000
310
C0C08000C0C0A000F0FBFF00A4A0A000808080000000FF0000FF000000FFFF00FF000000FF00FF00FFFF0000FFFFFF0000000000000000000000000000000000000000000000000000000000000000000000000000000000000000000000000000000000000000000000000000000000000000000000000000000000000000
310
00000000000000000000000000000000000000000000000000000000000000000000000000000000000000000000000000000000000000000000000000000000000000000000000000000000000000000000000000000000000000000000000000000000000000000000000000000000000000000000000000000000000000
310
00000000000000000000000000000000000000000000000000000000000000FC0000FC00000000000000000000FC0000FC0000000000000000000000000000FCFCFCFC00000000000000000000FCFCFCFC0000000000000000000000000000FC0000FC00000000000000000000FC0000FC0000000000000000000000000000
310
FC0000FC00000000000000000000FC0000FC0000FCFCFCFCFCFC000000000000FC0000FC00000000000000000000FC0000FC0000000000000000FC0000000000FC0000FC00000000000000000000FC0000FC0000FCFCFCFCFCFCFCFCFCFC0000FC0000FCFCFCFCFCFCFCFCFCFCFCFC0000FC0000000000000000FC00000000
310
00FC00000000000000000000000000000000FC0000000000000000FC0000000000FC00000000000000000000000000000000FC0000FCFCFCFCFCFCFCFC00000000FC00000000000000000000000000000000FC00000000000000000000FCFCFCFC0000000000000000000000000000000000FC000000000000000000000000
310
00000000000000000000000000000000000000FC00000000000000000000000000000000000000000000000000000000000000FC00000000000000000000000000000000000000000000000000000000000000FC000000000000000000000000000000000000000000000000000000000000FC000000000000000000000000
310
0000000000000000000000000000000000FCFC0000000000000000000000000000000000000000000000000000000000FC000000000000FCFCFCFCFCFCFCFCFCFCFCFCFCFCFCFCFCFCFCFCFCFCFCFCFC0000000000000000000000000000000000000000000000000000000000000000000000000000000000000000000000
310
00000000000000000000000000000000000000000000000000000000000000000000000000000000000000000000000000000000000000000000000000000000000000000000000000000000000000000000000000000000000000000000000000000000000000000000000000000000000000000000000000000000000000
310
0000000000000000000000000000000000000000000000000000000000000000000000000000000000000000000000000000000000000000
102
{BLKREFS
331
6F27
102
}
 70
     4
280
     1
281
     1
  0
ENDTAB
  0
ENDSEC
  0
SECTION
  2
BLOCKS
  0
BLOCK
  5
20
330
1F
100
AcDbEntity
  8
0
100
AcDbBlockBegin
  2
*Model_Space
 70
     0
 10
0.0
 20
0.0
 30
0.0
  3
*Model_Space
  1

  0
ENDBLK
  5
21
330
1F
100
AcDbEntity
  8
0
100
AcDbBlockEnd
  0
BLOCK
  5
1C
330
1B
100
AcDbEntity
 67
     1
  8
0
100
AcDbBlockBegin
  2
*Paper_Space
 70
     0
 10
0.0
 20
0.0
 30
0.0
  3
*Paper_Space
  1

  0
ENDBLK
  5
1D
330
1B
100
AcDbEntity
 67
     1
  8
0
100
AcDbBlockEnd
  0
BLOCK
  5
24
330
23
100
AcDbEntity
 67
     1
  8
0
100
AcDbBlockBegin
  2
*Paper_Space0
 70
     0
 10
0.0
 20
0.0
 30
0.0
  3
*Paper_Space0
  1

  0
ENDBLK
  5
25
330
23
100
AcDbEntity
 67
     1
  8
0
100
AcDbBlockEnd
  0
BLOCK
  5
6D
330
69
100
AcDbEntity
  8
0
100
AcDbBlockBegin
  2
_Open30
 70
     0
 10
0.0
 20
0.0
 30
0.0
  3
_Open30
  1

  0
LINE
  5
6A
330
69
100
AcDbEntity
  8
0
  6
ByBlock
 62
     0
370
    -2
100
AcDbLine
 10
-1.0
 20
0.26794919
 30
0.0
 11
0.0
 21
0.0
 31
0.0
  0
LINE
  5
6B
330
69
100
AcDbEntity
  8
0
  6
ByBlock
 62
     0
370
    -2
100
AcDbLine
 10
0.0
 20
0.0
 30
0.0
 11
-1.0
 21
-0.26794919
 31
0.0
  0
LINE
  5
6C
330
69
100
AcDbEntity
  8
0
  6
ByBlock
 62
     0
370
    -2
100
AcDbLine
 10
0.0
 20
0.0
 30
0.0
 11
-1.0
 21
0.0
 31
0.0
  0
ENDBLK
  5
6E
330
69
100
AcDbEntity
  8
0
100
AcDbBlockEnd
  0
BLOCK
  5
76
330
74
100
AcDbEntity
  8
0
100
AcDbBlockBegin
  2
GENAXEH
 70
     0
 10
0.0
 20
0.0
 30
0.0
  3
GENAXEH
  1

  0
LINE
  5
75
330
74
100
AcDbEntity
  8
0
100
AcDbLine
 10
-1.0
 20
0.0
 30
0.0
 11
1.0
 21
0.0
 31
0.0
  0
ENDBLK
  5
77
330
74
100
AcDbEntity
  8
0
100
AcDbBlockEnd
  0
BLOCK
  5
340D
330
340A
100
AcDbEntity
  8
0
100
AcDbBlockBegin
  2
ロッカクアナツキプラグ R1／8
 70
     0
 10
0.0
 20
0.0
 30
0.0
  3
ロッカクアナツキプラグ R1／8
  1

  0
CIRCLE
  5
478A
330
340A
100
AcDbEntity
  8
AM_4 細線
100
AcDbCircle
 10
0.0
 20
0.0
 30
0.0
 40
4.816232
  0
CIRCLE
  5
478B
330
340A
100
AcDbEntity
  8
AM_0 外形線1
100
AcDbCircle
 10
0.0
 20
0.0
 30
0.0
 40
5.271232
  0
LINE
  5
478C
330
340A
100
AcDbEntity
  8
AM_7 中心線
100
AcDbLine
 10
6.716232000000047
 20
0.0
 30
0.0
 11
-6.716232000000047
 21
0.0
 31
0.0
  0
LINE
  5
478D
330
340A
100
AcDbEntity
  8
AM_0 外形線1
100
AcDbLine
 10
-2.178053999999974
 20
-1.257499999999992
 30
0.0
 11
0.0
 21
-2.515000000000042
 31
0.0
  0
LINE
  5
478E
330
340A
100
AcDbEntity
  8
AM_0 外形線1
100
AcDbLine
 10
0.0
 20
2.514999999999985
 30
0.0
 11
-2.178053999999974
 21
1.257499999999992
 31
0.0
  0
LINE
  5
478F
330
340A
100
AcDbEntity
  8
AM_0 外形線1
100
AcDbLine
 10
-2.178053999999974
 20
1.257499999999992
 30
0.0
 11
-2.178053999999974
 21
-1.257499999999992
 31
0.0
  0
LINE
  5
4790
330
340A
100
AcDbEntity
  8
AM_7 中心線
100
AcDbLine
 10
0.0
 20
6.71623199999999
 30
0.0
 11
0.0
 21
-6.71623199999999
 31
0.0
  0
LINE
  5
4791
330
340A
100
AcDbEntity
  8
AM_0 外形線1
100
AcDbLine
 10
2.178054000000031
 20
-1.257499999999992
 30
0.0
 11
2.178054000000031
 21
1.257499999999992
 31
0.0
  0
LINE
  5
4792
330
340A
100
AcDbEntity
  8
AM_0 外形線1
100
AcDbLine
 10
0.0
 20
-2.515000000000042
 30
0.0
 11
2.178054000000031
 21
-1.257499999999992
 31
0.0
  0
LINE
  5
4793
330
340A
100
AcDbEntity
  8
AM_0 外形線1
100
AcDbLine
 10
2.178054000000031
 20
1.257499999999992
 30
0.0
 11
0.0
 21
2.514999999999985
 31
0.0
  0
ENDBLK
  5
3418
330
340A
100
AcDbEntity
  8
0
100
AcDbBlockEnd
  0
BLOCK
  5
484B
330
484A
100
AcDbEntity
  8
0
100
AcDbBlockBegin
  2
ケースＡ SEM160
 70
     0
 10
0.0
 20
0.0
 30
0.0
  3
ケースＡ SEM160
  1

  0
LINE
  5
484D
330
484A
100
AcDbEntity
  8
AM_0 外形線1
100
AcDbLine
 10
0.0
 20
0.0
 30
0.0
 11
0.0
 21
-79.5
 31
0.0
  0
LINE
  5
484E
330
484A
100
AcDbEntity
  8
AM_0 外形線1
100
AcDbLine
 10
15.0
 20
-79.5
 30
0.0
 11
15.0
 21
0.0
 31
0.0
  0
LINE
  5
484F
330
484A
100
AcDbEntity
  8
AM_0 外形線1
100
AcDbLine
 10
0.5
 20
-80.0
 30
0.0
 11
14.5
 21
-80.0
 31
0.0
  0
LINE
  5
4850
330
484A
100
AcDbEntity
  8
AM_0 外形線1
100
AcDbLine
 10
0.0
 20
-79.5
 30
0.0
 11
0.5
 21
-80.0
 31
0.0
  0
LINE
  5
4851
330
484A
100
AcDbEntity
  8
AM_0 外形線1
100
AcDbLine
 10
14.5
 20
-80.0
 30
0.0
 11
15.0
 21
-79.5
 31
0.0
  0
LINE
  5
4852
330
484A
100
AcDbEntity
  8
AM_0 外形線1
100
AcDbLine
 10
52.0
 20
-54.11347499999999
 30
0.0
 11
52.0
 21
0.0
 31
0.0
  0
LINE
  5
4853
330
484A
100
AcDbEntity
  8
AM_0 外形線1
100
AcDbLine
 10
18.0
 20
-60.0
 30
0.0
 11
49.0
 21
-60.0
 31
0.0
  0
ARC
  5
4854
330
484A
100
AcDbEntity
  8
AM_0 外形線1
100
AcDbCircle
 10
18.0
 20
-63.0
 30
0.0
 40
3.0
100
AcDbArc
 50
90.0
 51
180.0
  0
ARC
  5
4855
330
484A
100
AcDbEntity
  8
AM_0 外形線1
100
AcDbCircle
 10
49.0
 20
-57.0
 30
0.0
 40
3.0
100
AcDbArc
 50
270.0
 51
0.0
  0
LINE
  5
4856
330
484A
100
AcDbEntity
  8
AM_0 外形線1
100
AcDbLine
 10
52.0
 20
-57.0
 30
0.0
 11
52.0
 21
-54.11347499999999
 31
0.0
  0
LINE
  5
4857
330
484A
100
AcDbEntity
  8
AM_7 中心線
100
AcDbLine
 10
-25.49999999999994
 20
71.5
 30
0.0
 11
32.0
 21
71.5
 31
0.0
  0
LINE
  5
4858
330
484A
100
AcDbEntity
  8
AM_0 外形線1
100
AcDbLine
 10
15.0
 20
54.5
 30
0.0
 11
-3.0
 21
54.5
 31
0.0
  0
LINE
  5
4859
330
484A
100
AcDbEntity
  8
AM_0 外形線1
100
AcDbLine
 10
0.0
 20
67.0
 30
0.0
 11
15.0
 21
67.0
 31
0.0
  0
LINE
  5
485A
330
484A
100
AcDbEntity
  8
AM_0 外形線1
100
AcDbLine
 10
0.0
 20
75.99999999999993
 30
0.0
 11
15.0
 21
76.0
 31
0.0
  0
LINE
  5
485B
330
484A
100
AcDbEntity
  8
AM_0 外形線1
100
AcDbLine
 10
0.5
 20
80.0
 30
0.0
 11
14.5
 21
80.0
 31
0.0
  0
LWPOLYLINE
  5
485C
330
484A
100
AcDbEntity
  8
AM_0 外形線1
100
AcDbPolyline
 90
       73
 70
     0
 43
0.0
 10
1.199999999999988
 20
57.5
 10
1.304587000000025
 20
57.50742099999996
 10
1.408378000000026
 20
57.52962500000001
 10
1.510582999999995
 20
57.56644499999999
 10
1.610424000000023
 20
57.61759999999998
 10
1.707141999999976
 20
57.68270000000001
 10
1.800000000000011
 20
57.76125100000001
 10
1.888291999999977
 20
57.85265399999997
 10
1.971345000000042
 20
57.95621399999999
 10
2.048528000000032
 20
58.071142
 10
2.119253000000014
 20
58.19656400000003
 10
2.182982000000038
 20
58.331526
 10
2.239229999999962
 20
58.47499999999996
 10
2.287569000000019
 20
58.62589500000002
 10
2.327630999999938
 20
58.78306099999996
 10
2.359111000000041
 20
58.94530300000003
 10
2.381769000000018
 20
59.11138599999998
 10
2.395433999999965
 20
59.28004700000002
 10
2.399999999999977
 20
59.44999999999999
 10
2.395433999999965
 20
59.61995400000001
 10
2.381769000000018
 20
59.78861399999999
 10
2.359111000000041
 20
59.95469700000001
 10
2.327630999999938
 20
60.11694
 10
2.287569000000019
 20
60.27410600000002
 10
2.239229999999962
 20
60.42500000000001
 10
2.182982000000038
 20
60.56847400000004
 10
2.119253000000014
 20
60.70343599999995
 10
2.048528000000032
 20
60.82885899999997
 10
1.971345000000042
 20
60.943787
 10
1.888291999999977
 20
61.04734699999999
 10
1.800000000000011
 20
61.13875000000001
 10
1.707141999999976
 20
61.21729999999995
 10
1.610424000000023
 20
61.28240099999999
 10
1.510582999999995
 20
61.33355599999998
 10
1.408378000000026
 20
61.37037499999998
 10
1.304587000000025
 20
61.39258000000001
 10
1.199999999999988
 20
61.39999999999997
 10
1.095413000000007
 20
61.39258000000001
 10
0.9916219999999498
 20
61.37037499999998
 10
0.8894169999999801
 20
61.33355599999998
 10
0.7895759999999541
 20
61.28240099999999
 10
0.6928580000000011
 20
61.21729999999995
 10
0.6000000000000229
 20
61.13875000000001
 10
0.5117079999999988
 20
61.04734699999999
 10
0.4286549999999921
 20
60.943787
 10
0.3514720000000011
 20
60.82885899999997
 10
0.2807469999999625
 20
60.70343599999995
 10
0.2170169999999985
 20
60.56847400000004
 10
0.1607690000000161
 20
60.42500000000001
 10
0.1124309999999582
 20
60.27410600000002
 10
0.0723690000000374
 20
60.11694
 10
0.0408889999999929
 20
59.95469700000001
 10
0.0182309999999575
 20
59.78861399999999
 10
0.0045660000000112
 20
59.61995400000001
 10
0.0
 20
59.44999999999999
 10
0.0045660000000112
 20
59.28004700000002
 10
0.0182309999999575
 20
59.11138599999998
 10
0.0408889999999929
 20
58.94530300000003
 10
0.0723690000000374
 20
58.78306099999996
 10
0.1124309999999582
 20
58.62589500000002
 10
0.1607690000000161
 20
58.47499999999996
 10
0.2170169999999985
 20
58.331526
 10
0.2807469999999625
 20
58.19656400000003
 10
0.3514720000000011
 20
58.071142
 10
0.4286549999999921
 20
57.95621399999999
 10
0.5117079999999988
 20
57.85265399999997
 10
0.6000000000000229
 20
57.76125100000001
 10
0.6928580000000011
 20
57.68270000000001
 10
0.7895759999999541
 20
57.61759999999998
 10
0.8894169999999801
 20
57.56644499999999
 10
0.9916219999999498
 20
57.52962500000001
 10
1.095413000000007
 20
57.50742099999996
 10
1.199999999999988
 20
57.5
  0
LINE
  5
485D
330
484A
100
AcDbEntity
  8
AM_0 外形線1
100
AcDbLine
 10
2.399999999999977
 20
58.0
 30
0.0
 11
2.399999999999977
 21
60.89999999999998
 31
0.0
  0
LINE
  5
485E
330
484A
100
AcDbEntity
  8
AM_0 外形線1
100
AcDbLine
 10
0.0
 20
61.39999999999997
 30
0.0
 11
0.0
 21
67.0
 31
0.0
  0
LINE
  5
485F
330
484A
100
AcDbEntity
  8
AM_0 外形線1
100
AcDbLine
 10
-2.500000000000055
 20
57.5
 30
0.0
 11
1.899999999999976
 21
57.5
 31
0.0
  0
LINE
  5
4860
330
484A
100
AcDbEntity
  8
AM_0 外形線1
100
AcDbLine
 10
-3.0
 20
57.0
 30
0.0
 11
-2.5
 21
57.5
 31
0.0
  0
LINE
  5
4861
330
484A
100
AcDbEntity
  8
AM_0 外形線1
100
AcDbLine
 10
-3.0
 20
54.5
 30
0.0
 11
-3.0
 21
57.0
 31
0.0
  0
ARC
  5
4862
330
484A
100
AcDbEntity
  8
AM_0 外形線1
100
AcDbCircle
 10
1.899999999999976
 20
58.0
 30
0.0
 40
0.5
100
AcDbArc
 50
270.0
 51
0.0
  0
LINE
  5
4863
330
484A
100
AcDbEntity
  8
AM_0 外形線1
100
AcDbLine
 10
1.899999999999976
 20
61.39999999999997
 30
0.0
 11
0.0
 21
61.39999999999997
 31
0.0
  0
ARC
  5
4864
330
484A
100
AcDbEntity
  8
AM_0 外形線1
100
AcDbCircle
 10
1.899999999999976
 20
60.89999999999998
 30
0.0
 40
0.5
100
AcDbArc
 50
0.0
 51
90.0
  0
LINE
  5
4865
330
484A
100
AcDbEntity
  8
AM_0 外形線1
100
AcDbLine
 10
0.0
 20
76.0
 30
0.0
 11
0.0
 21
79.5
 31
0.0
  0
LINE
  5
4866
330
484A
100
AcDbEntity
  8
AM_0 外形線1
100
AcDbLine
 10
0.0
 20
79.5
 30
0.0
 11
0.5
 21
80.0
 31
0.0
  0
LINE
  5
4867
330
484A
100
AcDbEntity
  8
AM_0 外形線1
100
AcDbLine
 10
15.0
 20
63.0
 30
0.0
 11
15.0
 21
79.5
 31
0.0
  0
ARC
  5
4868
330
484A
100
AcDbEntity
  8
AM_0 外形線1
100
AcDbCircle
 10
39.0
 20
53.5
 30
0.0
 40
1.0
100
AcDbArc
 50
0.0
 51
90.0
  0
LINE
  5
4869
330
484A
100
AcDbEntity
  8
AM_0 外形線1
100
AcDbLine
 10
18.0
 20
60.0
 30
0.0
 11
49.0
 21
60.0
 31
0.0
  0
LINE
  5
486A
330
484A
100
AcDbEntity
  8
AM_3 隠れ線
100
AcDbLine
 10
19.0
 20
50.39999999999999
 30
0.0
 11
35.0
 21
50.39999999999999
 31
0.0
  0
LINE
  5
486B
330
484A
100
AcDbEntity
  8
AM_7 中心線
100
AcDbLine
 10
14.0
 20
52.0
 30
0.0
 11
38.0
 21
52.0
 31
0.0
  0
LINE
  5
486C
330
484A
100
AcDbEntity
  8
AM_0 外形線1
100
AcDbLine
 10
16.0
 20
54.0
 30
0.0
 11
36.0
 21
54.0
 31
0.0
  0
ARC
  5
486D
330
484A
100
AcDbEntity
  8
AM_0 外形線1
100
AcDbCircle
 10
15.0
 20
53.5
 30
0.0
 40
1.0
100
AcDbArc
 50
0.0
 51
90.0
  0
LINE
  5
486E
330
484A
100
AcDbEntity
  8
AM_0 外形線1
100
AcDbLine
 10
19.0
 20
50.39999999999999
 30
0.0
 11
17.0
 21
50.39999999999999
 31
0.0
  0
LINE
  5
486F
330
484A
100
AcDbEntity
  8
AM_0 外形線1
100
AcDbLine
 10
16.0
 20
51.39999999999997
 30
0.0
 11
16.0
 21
53.5
 31
0.0
  0
LINE
  5
4870
330
484A
100
AcDbEntity
  8
AM_0 外形線1
100
AcDbLine
 10
17.0
 20
50.39999999999999
 30
0.0
 11
16.0
 21
51.39999999999997
 31
0.0
  0
ARC
  5
4871
330
484A
100
AcDbEntity
  8
AM_0 外形線1
100
AcDbCircle
 10
18.0
 20
63.0
 30
0.0
 40
3.0
100
AcDbArc
 50
180.0
 51
270.0
  0
LINE
  5
4872
330
484A
100
AcDbEntity
  8
AM_3 隠れ線
100
AcDbLine
 10
36.0
 20
53.06127613429589
 30
0.0
 11
36.0
 21
51.39999999999997
 31
0.0
  0
LINE
  5
4873
330
484A
100
AcDbEntity
  8
AM_3 隠れ線
100
AcDbLine
 10
36.0
 20
51.39999999999997
 30
0.0
 11
35.0
 21
50.39999999999999
 31
0.0
  0
ARC
  5
4874
330
484A
100
AcDbEntity
  8
AM_0 外形線1
100
AcDbCircle
 10
37.0
 20
53.5
 30
0.0
 40
1.0
100
AcDbArc
 50
90.0
 51
180.0
  0
LINE
  5
4875
330
484A
100
AcDbEntity
  8
AM_0 外形線1
100
AcDbLine
 10
39.0
 20
54.5
 30
0.0
 11
37.0
 21
54.5
 31
0.0
  0
ARC
  5
4876
330
484A
100
AcDbEntity
  8
AM_0 外形線1
100
AcDbCircle
 10
49.0
 20
57.0
 30
0.0
 40
3.0
100
AcDbArc
 50
0.0
 51
90.0
  0
LWPOLYLINE
  5
4877
330
484A
100
AcDbEntity
  8
AM_0 外形線1
100
AcDbPolyline
 90
       73
 70
     0
 43
0.0
 10
49.80000000000001
 20
49.84999999999995
 10
49.78553999999997
 20
50.05481600000002
 10
49.74226900000002
 20
50.25807400000002
 10
49.67051800000001
 20
50.45822499999997
 10
49.57083199999999
 20
50.653748
 10
49.44396899999998
 20
50.84315300000003
 10
49.29089599999997
 20
51.02499999999999
 10
49.11277799999999
 20
51.19790500000005
 10
48.91096900000001
 20
51.36055100000003
 10
48.687006
 20
51.51170100000001
 10
48.44259300000004
 20
51.65020500000003
 10
48.17959000000001
 20
51.775008
 10
47.89999999999998
 20
51.88515999999999
 10
47.605949
 20
51.979824
 10
47.29967599999997
 20
52.05827800000003
 10
46.98351200000002
 20
52.11992600000002
 10
46.65986299999997
 20
52.16429900000003
 10
46.33119199999998
 20
52.191058
 10
46.0
 20
52.19999999999998
 10
45.66880800000001
 20
52.191058
 10
45.34013700000001
 20
52.16429900000003
 10
45.01648799999998
 20
52.11992600000002
 10
44.70032300000002
 20
52.05827800000003
 10
44.39405099999999
 20
51.979824
 10
44.10000000000001
 20
51.88515999999999
 10
43.82040899999998
 20
51.775008
 10
43.55740700000001
 20
51.65020500000003
 10
43.312994
 20
51.51170100000001
 10
43.08903100000002
 20
51.36055100000003
 10
42.88722200000001
 20
51.19790500000005
 10
42.70910299999996
 20
51.02499999999999
 10
42.55602999999996
 20
50.84315300000003
 10
42.42916799999999
 20
50.653748
 10
42.32948199999998
 20
50.45822499999997
 10
42.25772999999997
 20
50.25807400000002
 10
42.21446000000002
 20
50.05481600000002
 10
42.19999999999997
 20
49.84999999999995
 10
42.21446000000002
 20
49.64518399999997
 10
42.25772999999997
 20
49.44192700000002
 10
42.32948199999998
 20
49.24177600000001
 10
42.42916799999999
 20
49.04625300000002
 10
42.55602999999996
 20
48.85684700000002
 10
42.70910299999996
 20
48.67500000000001
 10
42.88722200000001
 20
48.50209599999999
 10
43.08903100000002
 20
48.339449
 10
43.312994
 20
48.18829900000003
 10
43.55740700000001
 20
48.04979600000002
 10
43.82040899999998
 20
47.92499300000002
 10
44.10000000000001
 20
47.81484099999999
 10
44.39405099999999
 20
47.72017699999998
 10
44.70032300000002
 20
47.64172300000001
 10
45.01648799999998
 20
47.58007499999997
 10
45.34013700000001
 20
47.53570200000001
 10
45.66880800000001
 20
47.50894299999997
 10
46.0
 20
47.5
 10
46.33119199999998
 20
47.50894299999997
 10
46.65986299999997
 20
47.53570200000001
 10
46.98351200000002
 20
47.58007499999997
 10
47.29967599999997
 20
47.64172300000001
 10
47.605949
 20
47.72017699999998
 10
47.89999999999998
 20
47.81484099999999
 10
48.17959000000001
 20
47.92499300000002
 10
48.44259300000004
 20
48.04979600000002
 10
48.687006
 20
48.18829900000003
 10
48.91096900000001
 20
48.339449
 10
49.11277799999999
 20
48.50209599999999
 10
49.29089599999997
 20
48.67500000000001
 10
49.44396899999998
 20
48.85684700000002
 10
49.57083199999999
 20
49.04625300000002
 10
49.67051800000001
 20
49.24177600000001
 10
49.74226900000002
 20
49.44192700000002
 10
49.78553999999997
 20
49.64518399999997
 10
49.80000000000001
 20
49.84999999999995
  0
LINE
  5
4878
330
484A
100
AcDbEntity
  8
AM_0 外形線1
100
AcDbLine
 10
49.30000000000001
 20
52.19999999999998
 30
0.0
 11
42.69999999999997
 21
52.19999999999998
 31
0.0
  0
LINE
  5
4879
330
484A
100
AcDbEntity
  8
AM_0 外形線1
100
AcDbLine
 10
40.0
 20
48.5
 30
0.0
 11
40.0
 21
53.5
 31
0.0
  0
LINE
  5
487A
330
484A
100
AcDbEntity
  8
AM_0 外形線1
100
AcDbLine
 10
42.19999999999997
 20
48.5
 30
0.0
 11
40.0
 21
48.5
 31
0.0
  0
LINE
  5
487B
330
484A
100
AcDbEntity
  8
AM_0 外形線1
100
AcDbLine
 10
42.19999999999997
 20
51.69999999999999
 30
0.0
 11
42.19999999999997
 21
48.5
 31
0.0
  0
ARC
  5
487C
330
484A
100
AcDbEntity
  8
AM_0 外形線1
100
AcDbCircle
 10
42.69999999999997
 20
51.69999999999999
 30
0.0
 40
0.5
100
AcDbArc
 50
90.0
 51
180.0
  0
LINE
  5
487D
330
484A
100
AcDbEntity
  8
AM_0 外形線1
100
AcDbLine
 10
42.19999999999997
 20
48.5
 30
0.0
 11
42.19999999999997
 21
47.5
 31
0.0
  0
LINE
  5
487E
330
484A
100
AcDbEntity
  8
AM_0 外形線1
100
AcDbLine
 10
40.0
 20
48.5
 30
0.0
 11
40.0
 21
47.5
 31
0.0
  0
ARC
  5
487F
330
484A
100
AcDbEntity
  8
AM_0 外形線1
100
AcDbCircle
 10
49.30000000000001
 20
51.69999999999999
 30
0.0
 40
0.5
100
AcDbArc
 50
0.0
 51
90.0
  0
LINE
  5
4880
330
484A
100
AcDbEntity
  8
AM_0 外形線1
100
AcDbLine
 10
49.80000000000001
 20
48.5
 30
0.0
 11
49.80000000000001
 21
51.69999999999999
 31
0.0
  0
LINE
  5
4881
330
484A
100
AcDbEntity
  8
AM_0 外形線1
100
AcDbLine
 10
52.0
 20
48.5
 30
0.0
 11
49.80000000000001
 21
48.5
 31
0.0
  0
LINE
  5
4882
330
484A
100
AcDbEntity
  8
AM_0 外形線1
100
AcDbLine
 10
52.0
 20
57.0
 30
0.0
 11
52.0
 21
48.5
 31
0.0
  0
LINE
  5
4883
330
484A
100
AcDbEntity
  8
AM_0 外形線1
100
AcDbLine
 10
52.0
 20
48.5
 30
0.0
 11
52.0
 21
47.5
 31
0.0
  0
LINE
  5
4884
330
484A
100
AcDbEntity
  8
AM_0 外形線1
100
AcDbLine
 10
49.80000000000001
 20
48.5
 30
0.0
 11
49.80000000000001
 21
47.5
 31
0.0
  0
LINE
  5
4885
330
484A
100
AcDbEntity
  8
AM_0 外形線1
100
AcDbLine
 10
14.5
 20
80.0
 30
0.0
 11
15.0
 21
79.5
 31
0.0
  0
LINE
  5
4886
330
484A
100
AcDbEntity
  8
AM_0 外形線1
100
AcDbLine
 10
36.0
 20
53.5
 30
0.0
 11
36.00000001372086
 21
53.06127613183935
 31
0.0
  0
INSERT
  5
4887
330
484A
100
AcDbEntity
  8
AM_0 外形線1
100
AcDbBlockReference
  2
ロッカクアナツキプラグ R1／8
 10
7.5
 20
-61.920816
 30
0.0
  0
ENDBLK
  5
484C
330
484A
100
AcDbEntity
  8
0
100
AcDbBlockEnd
  0
BLOCK
  5
49F2
330
49F1
100
AcDbEntity
  8
0
100
AcDbBlockBegin
  2
リジット SEM160
 70
     0
 10
0.0
 20
0.0
 30
0.0
  3
リジット SEM160
  1

  0
LINE
  5
49F4
330
49F1
100
AcDbEntity
  8
AM_0 外形線1
100
AcDbLine
 10
-15.0
 20
-79.5
 30
0.0
 11
-15.0
 21
0.0
 31
0.0
  0
LINE
  5
49F5
330
49F1
100
AcDbEntity
  8
AM_7 中心線
100
AcDbLine
 10
20.0
 20
-71.5
 30
0.0
 11
-19.99999999999994
 21
-71.5
 31
0.0
  0
LINE
  5
49F6
330
49F1
100
AcDbEntity
  8
AM_0 外形線1
100
AcDbLine
 10
-0.5
 20
-80.0
 30
0.0
 11
-14.5
 21
-80.0
 31
0.0
  0
LINE
  5
49F7
330
49F1
100
AcDbEntity
  8
AM_0 外形線1
100
AcDbLine
 10
-14.5
 20
-80.0
 30
0.0
 11
-15.0
 21
-79.5
 31
0.0
  0
LINE
  5
49F8
330
49F1
100
AcDbEntity
  8
AM_0 外形線1
100
AcDbLine
 10
0.0
 20
-79.5
 30
0.0
 11
-0.5
 21
-80.0
 31
0.0
  0
LINE
  5
49F9
330
49F1
100
AcDbEntity
  8
AM_0 外形線1
100
AcDbLine
 10
-22.99999999999994
 20
52.5
 30
0.0
 11
-81.99999999999993
 21
52.5
 31
0.0
  0
LINE
  5
49FA
330
49F1
100
AcDbEntity
  8
AM_0 外形線1
100
AcDbLine
 10
-22.99999999999994
 20
-52.5
 30
0.0
 11
-81.99999999999993
 21
-52.5
 31
0.0
  0
LINE
  5
49FB
330
49F1
100
AcDbEntity
  8
AM_0 外形線1
100
AcDbLine
 10
-84.99999999999992
 20
49.5
 30
0.0
 11
-84.99999999999992
 21
0.0
 31
0.0
  0
LINE
  5
49FC
330
49F1
100
AcDbEntity
  8
AM_0 外形線1
100
AcDbLine
 10
-84.99999999999992
 20
-49.5
 30
0.0
 11
-84.99999999999992
 21
0.0
 31
0.0
  0
ARC
  5
49FD
330
49F1
100
AcDbEntity
  8
AM_0 外形線1
100
AcDbCircle
 10
-81.99999999999993
 20
-49.5
 30
0.0
 40
3.0
100
AcDbArc
 50
180.0
 51
270.0
  0
ARC
  5
49FE
330
49F1
100
AcDbEntity
  8
AM_0 外形線1
100
AcDbCircle
 10
-81.99999999999993
 20
49.5
 30
0.0
 40
3.0
100
AcDbArc
 50
90.0
 51
180.0
  0
LINE
  5
49FF
330
49F1
100
AcDbEntity
  8
AM_0 外形線1
100
AcDbLine
 10
-5.0
 20
0.0
 30
0.0
 11
-5.0
 21
55.5
 31
0.0
  0
ARC
  5
4A00
330
49F1
100
AcDbEntity
  8
AM_0 外形線1
100
AcDbCircle
 10
-22.99999999999994
 20
-60.5
 30
0.0
 40
8.0
100
AcDbArc
 50
0.0
 51
90.0
  0
LINE
  5
4A01
330
49F1
100
AcDbEntity
  8
AM_0 外形線1
100
AcDbLine
 10
-15.0
 20
60.5
 30
0.0
 11
-15.0
 21
79.5
 31
0.0
  0
ARC
  5
4A03
330
49F1
100
AcDbEntity
  8
AM_0 外形線1
100
AcDbCircle
 10
-22.99999999999994
 20
60.5
 30
0.0
 40
8.0
100
AcDbArc
 50
270.0
 51
0.0
  0
ARC
  5
4A04
330
49F1
100
AcDbEntity
  8
AM_0 外形線1
100
AcDbCircle
 10
-3.0
 20
55.5
 30
0.0
 40
2.0
100
AcDbArc
 50
90.0
 51
180.0
  0
LINE
  5
4A05
330
49F1
100
AcDbEntity
  8
AM_0 外形線1
100
AcDbLine
 10
-0.5
 20
57.5
 30
0.0
 11
0.0
 21
58.0
 31
0.0
  0
LINE
  5
4A06
330
49F1
100
AcDbEntity
  8
AM_0 外形線1
100
AcDbLine
 10
-0.5
 20
80.0
 30
0.0
 11
-14.5
 21
80.0
 31
0.0
  0
LINE
  5
4A07
330
49F1
100
AcDbEntity
  8
AM_0 外形線1
100
AcDbLine
 10
-14.5
 20
80.0
 30
0.0
 11
-15.0
 21
79.5
 31
0.0
  0
LINE
  5
4A08
330
49F1
100
AcDbEntity
  8
AM_0 外形線1
100
AcDbLine
 10
0.0
 20
79.5
 30
0.0
 11
-0.5
 21
80.0
 31
0.0
  0
LINE
  5
4A09
330
49F1
100
AcDbEntity
  8
AM_0 外形線1
100
AcDbLine
 10
-84.99999999999992
 20
25.0
 30
0.0
 11
-4.999999999999943
 21
25.00000000000006
 31
0.0
  0
LINE
  5
4A4A
330
49F1
100
AcDbEntity
  8
AM_0 外形線1
100
AcDbLine
 10
-15.0
 20
75.99999999999993
 30
0.0
 11
0.0
 21
75.99999999999993
 31
0.0
  0
LINE
  5
4A4B
330
49F1
100
AcDbEntity
  8
AM_0 外形線1
100
AcDbLine
 10
-15.0
 20
67.0
 30
0.0
 11
0.0
 21
67.0
 31
0.0
  0
LINE
  5
4A4C
330
49F1
100
AcDbEntity
  8
AM_0 外形線1
100
AcDbLine
 10
0.0
 20
58.0
 30
0.0
 11
0.0
 21
67.0
 31
0.0
  0
LINE
  5
4A4D
330
49F1
100
AcDbEntity
  8
AM_0 外形線1
100
AcDbLine
 10
-3.0
 20
57.5
 30
0.0
 11
-0.5
 21
57.5
 31
0.0
  0
LINE
  5
4A4E
330
49F1
100
AcDbEntity
  8
AM_0 外形線1
100
AcDbLine
 10
0.0
 20
75.99999999999987
 30
0.0
 11
0.0
 21
79.5
 31
0.0
  0
LINE
  5
4A4F
330
49F1
100
AcDbEntity
  8
AM_0 外形線1
100
AcDbLine
 10
0.0
 20
0.0
 30
0.0
 11
0.0
 21
-79.5
 31
0.0
  0
ENDBLK
  5
49F3
330
49F1
100
AcDbEntity
  8
0
100
AcDbBlockEnd
  0
BLOCK
  5
4BDA
330
4BD9
100
AcDbEntity
  8
0
100
AcDbBlockBegin
  2
リーマボルト SEM160 M8
 70
     0
 10
0.0
 20
0.0
 30
0.0
  3
リーマボルト SEM160 M8
  1

  0
LINE
  5
4BDC
330
4BD9
100
AcDbEntity
  8
AM_0 外形線1
100
AcDbLine
 10
1.5
 20
-4.5
 30
0.0
 11
1.5
 21
4.5
 31
0.0
  0
ARC
  5
4BDD
330
4BD9
100
AcDbEntity
  8
AM_0 外形線1
100
AcDbCircle
 10
6.985199000000022
 20
0.0
 30
0.0
 40
12.4852
100
AcDbArc
 50
162.5076750000038
 51
197.4923249999962
  0
LINE
  5
4BDE
330
4BD9
100
AcDbEntity
  8
AM_0 外形線1
100
AcDbLine
 10
-5.499999999999943
 20
6.5
 30
0.0
 11
-5.499999999999943
 21
-6.5
 31
0.0
  0
LINE
  5
4BDF
330
4BD9
100
AcDbEntity
  8
AM_0 外形線1
100
AcDbLine
 10
0.0
 20
-3.752775999999982
 30
0.0
 11
-4.922649999999919
 21
-3.752775999999982
 31
0.0
  0
LINE
  5
4BE0
330
4BD9
100
AcDbEntity
  8
AM_0 外形線1
100
AcDbLine
 10
-4.922649999999919
 20
-7.5
 30
0.0
 11
0.0
 21
-7.5
 31
0.0
  0
ARC
  5
4BE1
330
4BD9
100
AcDbEntity
  8
AM_0 外形線1
100
AcDbCircle
 10
-2.171212000000025
 20
-5.626388000000019
 30
0.0
 40
3.328787999999998
100
AcDbArc
 50
145.746812999999
 51
214.2531870000009
  0
LINE
  5
4BE2
330
4BD9
100
AcDbEntity
  8
AM_0 外形線1
100
AcDbLine
 10
-5.499999999999943
 20
-6.5
 30
0.0
 11
-4.922649999999919
 21
-7.5
 31
0.0
  0
ARC
  5
4BE3
330
4BD9
100
AcDbEntity
  8
AM_0 外形線1
100
AcDbCircle
 10
1.0
 20
-4.5
 30
0.0
 40
0.5
100
AcDbArc
 50
0.0
 51
90.0
  0
LINE
  5
4BE4
330
4BD9
100
AcDbEntity
  8
AM_0 外形線1
100
AcDbLine
 10
0.5
 20
-4.0
 30
0.0
 11
1.0
 21
-4.0
 31
0.0
  0
ARC
  5
4BE5
330
4BD9
100
AcDbEntity
  8
AM_0 外形線1
100
AcDbCircle
 10
0.5
 20
-4.5
 30
0.0
 40
0.5
100
AcDbArc
 50
90.0
 51
180.0
  0
LINE
  5
4BE6
330
4BD9
100
AcDbEntity
  8
AM_0 外形線1
100
AcDbLine
 10
0.0
 20
3.752776999999979
 30
0.0
 11
-4.922649999999919
 21
3.752776999999979
 31
0.0
  0
LINE
  5
4BE7
330
4BD9
100
AcDbEntity
  8
AM_0 外形線1
100
AcDbLine
 10
0.0
 20
7.5
 30
0.0
 11
-4.922649999999919
 21
7.5
 31
0.0
  0
ARC
  5
4BE8
330
4BD9
100
AcDbEntity
  8
AM_0 外形線1
100
AcDbCircle
 10
-2.171212000000025
 20
5.626389000000016
 30
0.0
 40
3.328787999999998
100
AcDbArc
 50
145.746812999999
 51
214.2531870000009
  0
LINE
  5
4BE9
330
4BD9
100
AcDbEntity
  8
AM_0 外形線1
100
AcDbLine
 10
-4.922649999999919
 20
7.5
 30
0.0
 11
-5.499999999999943
 21
6.5
 31
0.0
  0
ARC
  5
4BEA
330
4BD9
100
AcDbEntity
  8
AM_0 外形線1
100
AcDbCircle
 10
1.0
 20
4.5
 30
0.0
 40
0.5
100
AcDbArc
 50
270.0
 51
0.0
  0
LINE
  5
4BEB
330
4BD9
100
AcDbEntity
  8
AM_0 外形線1
100
AcDbLine
 10
0.5
 20
4.0
 30
0.0
 11
1.0
 21
4.0
 31
0.0
  0
ARC
  5
4BEC
330
4BD9
100
AcDbEntity
  8
AM_0 外形線1
100
AcDbCircle
 10
0.5
 20
4.5
 30
0.0
 40
0.5
100
AcDbArc
 50
180.0
 51
270.0
  0
LINE
  5
4BED
330
4BD9
100
AcDbEntity
  8
AM_0 外形線1
100
AcDbLine
 10
41.0
 20
4.0
 30
0.0
 11
41.0
 21
-4.0
 31
0.0
  0
LINE
  5
4BEE
330
4BD9
100
AcDbEntity
  8
AM_0 外形線1
100
AcDbLine
 10
42.0
 20
3.0
 30
0.0
 11
42.0
 21
-3.0
 31
0.0
  0
ARC
  5
4BEF
330
4BD9
100
AcDbEntity
  8
AM_0 外形線1
100
AcDbCircle
 10
26.01479999999998
 20
0.0
 30
0.0
 40
12.4852
100
AcDbArc
 50
342.5076750000038
 51
17.49232499999622
  0
LINE
  5
4BF0
330
4BD9
100
AcDbEntity
  8
AM_0 外形線1
100
AcDbLine
 10
32.0
 20
-7.5
 30
0.0
 11
32.0
 21
7.5
 31
0.0
  0
LINE
  5
4BF1
330
4BD9
100
AcDbEntity
  8
AM_0 外形線1
100
AcDbLine
 10
38.5
 20
6.5
 30
0.0
 11
38.5
 21
-6.5
 31
0.0
  0
LINE
  5
4BF2
330
4BD9
100
AcDbEntity
  8
AM_0 外形線1
100
AcDbLine
 10
24.0
 20
4.5
 30
0.0
 11
24.0
 21
-4.5
 31
0.0
  0
LINE
  5
4BF3
330
4BD9
100
AcDbEntity
  8
AM_0 外形線1
100
AcDbLine
 10
25.0
 20
3.922649999999975
 30
0.0
 11
25.0
 21
-3.922648999999978
 31
0.0
  0
ARC
  5
4BF4
330
4BD9
100
AcDbEntity
  8
AM_0 外形線1
100
AcDbCircle
 10
35.17121100000004
 20
-5.626388000000019
 30
0.0
 40
3.328787999999998
100
AcDbArc
 50
325.7468129999991
 51
34.25318700000094
  0
LINE
  5
4BF5
330
4BD9
100
AcDbEntity
  8
AM_0 外形線1
100
AcDbLine
 10
38.5
 20
-6.5
 30
0.0
 11
37.92264999999998
 21
-7.5
 31
0.0
  0
LINE
  5
4BF6
330
4BD9
100
AcDbEntity
  8
AM_0 外形線1
100
AcDbLine
 10
30.0
 20
-7.699999999999986
 30
0.0
 11
32.0
 21
-7.699999999999986
 31
0.0
  0
LINE
  5
4BF7
330
4BD9
100
AcDbEntity
  8
AM_0 外形線1
100
AcDbLine
 10
25.0
 20
-3.922648999999978
 30
0.0
 11
30.0
 21
-3.922648999999978
 31
0.0
  0
LINE
  5
4BF8
330
4BD9
100
AcDbEntity
  8
AM_0 外形線1
100
AcDbLine
 10
25.0
 20
-3.922648999999978
 30
0.0
 11
24.0
 21
-4.5
 31
0.0
  0
LINE
  5
4BF9
330
4BD9
100
AcDbEntity
  8
AM_0 外形線1
100
AcDbLine
 10
32.0
 20
-3.752775999999982
 30
0.0
 11
37.92264999999998
 21
-3.752775999999982
 31
0.0
  0
LINE
  5
4BFA
330
4BD9
100
AcDbEntity
  8
AM_0 外形線1
100
AcDbLine
 10
37.92264999999998
 20
-7.5
 30
0.0
 11
32.0
 21
-7.5
 31
0.0
  0
LINE
  5
4BFB
330
4BD9
100
AcDbEntity
  8
AM_0 外形線1
100
AcDbLine
 10
32.0
 20
-7.699999999999986
 30
0.0
 11
32.0
 21
-7.5
 31
0.0
  0
LINE
  5
4BFC
330
4BD9
100
AcDbEntity
  8
AM_4 細線
100
AcDbLine
 10
38.5
 20
-3.375
 30
0.0
 11
41.625
 21
-3.375
 31
0.0
  0
LINE
  5
4BFD
330
4BD9
100
AcDbEntity
  8
AM_0 外形線1
100
AcDbLine
 10
41.0
 20
-4.0
 30
0.0
 11
38.5
 21
-4.0
 31
0.0
  0
LINE
  5
4BFE
330
4BD9
100
AcDbEntity
  8
AM_0 外形線1
100
AcDbLine
 10
42.0
 20
-3.0
 30
0.0
 11
41.0
 21
-4.0
 31
0.0
  0
ARC
  5
4BFF
330
4BD9
100
AcDbEntity
  8
AM_0 外形線1
100
AcDbCircle
 10
35.17121100000004
 20
5.626389000000016
 30
0.0
 40
3.328787999999998
100
AcDbArc
 50
325.7468129999991
 51
34.25318700000094
  0
LINE
  5
4C00
330
4BD9
100
AcDbEntity
  8
AM_0 外形線1
100
AcDbLine
 10
37.92264999999998
 20
7.5
 30
0.0
 11
38.5
 21
6.5
 31
0.0
  0
LINE
  5
4C01
330
4BD9
100
AcDbEntity
  8
AM_0 外形線1
100
AcDbLine
 10
32.0
 20
0.6666669999999613
 30
0.0
 11
30.0
 21
-1.333333000000038
 31
0.0
  0
LINE
  5
4C02
330
4BD9
100
AcDbEntity
  8
AM_0 外形線1
100
AcDbLine
 10
32.0
 20
1.333333999999978
 30
0.0
 11
30.0
 21
-0.6666660000000208
 31
0.0
  0
LINE
  5
4C03
330
4BD9
100
AcDbEntity
  8
AM_0 外形線1
100
AcDbLine
 10
32.0
 20
7.699999999999986
 30
0.0
 11
30.0
 21
7.699999999999986
 31
0.0
  0
LINE
  5
4C04
330
4BD9
100
AcDbEntity
  8
AM_0 外形線1
100
AcDbLine
 10
25.0
 20
3.922649999999975
 30
0.0
 11
30.0
 21
3.922649999999975
 31
0.0
  0
LINE
  5
4C05
330
4BD9
100
AcDbEntity
  8
AM_0 外形線1
100
AcDbLine
 10
24.0
 20
4.5
 30
0.0
 11
25.0
 21
3.922649999999975
 31
0.0
  0
LINE
  5
4C06
330
4BD9
100
AcDbEntity
  8
AM_0 外形線1
100
AcDbLine
 10
32.0
 20
3.752776999999979
 30
0.0
 11
37.92264999999998
 21
3.752776999999979
 31
0.0
  0
LINE
  5
4C07
330
4BD9
100
AcDbEntity
  8
AM_0 外形線1
100
AcDbLine
 10
32.0
 20
7.5
 30
0.0
 11
37.92264999999998
 21
7.5
 31
0.0
  0
LINE
  5
4C08
330
4BD9
100
AcDbEntity
  8
AM_0 外形線1
100
AcDbLine
 10
32.0
 20
7.5
 30
0.0
 11
32.0
 21
7.699999999999986
 31
0.0
  0
LINE
  5
4C09
330
4BD9
100
AcDbEntity
  8
AM_4 細線
100
AcDbLine
 10
38.5
 20
3.375
 30
0.0
 11
41.625
 21
3.375
 31
0.0
  0
LINE
  5
4C0A
330
4BD9
100
AcDbEntity
  8
AM_0 外形線1
100
AcDbLine
 10
41.0
 20
4.0
 30
0.0
 11
42.0
 21
3.0
 31
0.0
  0
LINE
  5
4C0B
330
4BD9
100
AcDbEntity
  8
AM_0 外形線1
100
AcDbLine
 10
38.5
 20
4.0
 30
0.0
 11
41.0
 21
4.0
 31
0.0
  0
LINE
  5
4C75
330
4BD9
100
AcDbEntity
  8
AM_0 外形線1
100
AcDbLine
 10
0.0
 20
7.5
 30
0.0
 11
0.0
 21
-7.5
 31
0.0
  0
LINE
  5
4C76
330
4BD9
100
AcDbEntity
  8
AM_0 外形線1
100
AcDbLine
 10
1.5
 20
4.5
 30
0.0
 11
24.0
 21
4.5
 31
0.0
  0
LINE
  5
4C77
330
4BD9
100
AcDbEntity
  8
AM_0 外形線1
100
AcDbLine
 10
24.0
 20
-4.5
 30
0.0
 11
1.5
 21
-4.5
 31
0.0
  0
LINE
  5
4C78
330
4BD9
100
AcDbEntity
  8
AM_0 外形線1
100
AcDbLine
 10
30.0
 20
7.699999999999986
 30
0.0
 11
30.0
 21
-7.699999999999986
 31
0.0
  0
ENDBLK
  5
4BDB
330
4BD9
100
AcDbEntity
  8
0
100
AcDbBlockEnd
  0
BLOCK
  5
4DB9
330
4DB8
100
AcDbEntity
  8
0
100
AcDbBlockBegin
  2
*D10
 70
     1
 10
0.0
 20
0.0
 30
0.0
  3
*D10
  1

  0
LINE
  5
685C
330
4DB8
100
AcDbEntity
  8
AM_5 寸法線
 62
     3
100
AcDbLine
 10
306.9950981593106
 20
361.3103634229008
 30
0.0
 11
263.9950981593105
 21
361.3103634229008
 31
0.0
  0
LINE
  5
685D
330
4DB8
100
AcDbEntity
  8
AM_5 寸法線
 62
     3
100
AcDbLine
 10
306.9950981593106
 20
466.3103634229008
 30
0.0
 11
263.9950981593106
 21
466.3103634229008
 31
0.0
  0
LINE
  5
685E
330
4DB8
100
AcDbEntity
  8
AM_5 寸法線
 62
     3
100
AcDbLine
 10
265.2450981593105
 20
366.3103634229008
 30
0.0
 11
265.2450981593105
 21
461.3103634229008
 31
0.0
  0
INSERT
  5
685F
330
4DB8
100
AcDbEntity
  8
AM_5 寸法線
 62
     3
100
AcDbBlockReference
  2
_Open30
 10
265.2450981593105
 20
361.3103634229008
 30
0.0
 41
5.0
 42
5.0
 43
5.0
 50
270.0
  0
INSERT
  5
6860
330
4DB8
100
AcDbEntity
  8
AM_5 寸法線
 62
     3
100
AcDbBlockReference
  2
_Open30
 10
265.2450981593105
 20
466.3103634229008
 30
0.0
 41
5.0
 42
5.0
 43
5.0
 50
90.0
  0
MTEXT
  5
6861
330
4DB8
100
AcDbEntity
  8
AM_5 寸法線
 62
     3
100
AcDbMText
 10
258.7450981593104
 20
413.8103634229008
 30
0.0
 40
7.0
 41
0.0
 46
0.0
 71
     5
 72
     1
  1
%%c105
  7
SEISA
 11
0.0000000000000001
 21
1.0
 31
0.0
 73
     1
 44
1.0
  0
POINT
  5
6862
330
4DB8
100
AcDbEntity
  8
Defpoints
 62
     0
100
AcDbPoint
 10
308.2450981593106
 20
361.3103634229008
 30
0.0
  0
POINT
  5
6863
330
4DB8
100
AcDbEntity
  8
Defpoints
 62
     0
100
AcDbPoint
 10
308.2450981593106
 20
466.3103634229008
 30
0.0
  0
POINT
  5
6864
330
4DB8
100
AcDbEntity
  8
Defpoints
 62
     0
100
AcDbPoint
 10
265.2450981593105
 20
466.3103634229008
 30
0.0
  0
ENDBLK
  5
4DBA
330
4DB8
100
AcDbEntity
  8
0
100
AcDbBlockEnd
  0
BLOCK
  5
4DF5
330
4DF4
100
AcDbEntity
  8
0
100
AcDbBlockBegin
  2
*D11
 70
     1
 10
0.0
 20
0.0
 30
0.0
  3
*D11
  1

  0
LINE
  5
6D3D
330
4DF4
100
AcDbEntity
  8
AM_5 寸法線
 62
     3
100
AcDbLine
 10
305.2450981593106
 20
415.0603634229008
 30
0.0
 11
305.2450981593106
 21
421.6788286220929
 31
0.0
  0
LINE
  5
6D3E
330
4DF4
100
AcDbEntity
  8
AM_5 寸法線
 62
     3
100
AcDbLine
 10
385.2450981593106
 20
415.0603634229008
 30
0.0
 11
385.2450981593106
 21
421.6788286220929
 31
0.0
  0
LINE
  5
6D3F
330
4DF4
100
AcDbEntity
  8
AM_5 寸法線
 62
     3
100
AcDbLine
 10
310.2450981593106
 20
420.4288286220929
 30
0.0
 11
380.2450981593105
 21
420.4288286220929
 31
0.0
  0
INSERT
  5
6D40
330
4DF4
100
AcDbEntity
  8
AM_5 寸法線
 62
     3
100
AcDbBlockReference
  2
_Open30
 10
305.2450981593106
 20
420.4288286220929
 30
0.0
 41
5.0
 42
5.0
 43
5.0
 50
180.0
  0
INSERT
  5
6D41
330
4DF4
100
AcDbEntity
  8
AM_5 寸法線
 62
     3
100
AcDbBlockReference
  2
_Open30
 10
385.2450981593106
 20
420.4288286220929
 30
0.0
 41
5.0
 42
5.0
 43
5.0
  0
MTEXT
  5
6D42
330
4DF4
100
AcDbEntity
  8
AM_5 寸法線
 62
     3
100
AcDbMText
 10
345.2450981593106
 20
426.928828622093
 30
0.0
 40
7.0
 41
0.0
 46
0.0
 71
     5
 72
     1
  1
80
  7
SEISA
 73
     1
 44
1.0
  0
POINT
  5
6D43
330
4DF4
100
AcDbEntity
  8
Defpoints
 62
     0
100
AcDbPoint
 10
305.2450981593106
 20
413.8103634229008
 30
0.0
  0
POINT
  5
6D44
330
4DF4
100
AcDbEntity
  8
Defpoints
 62
     0
100
AcDbPoint
 10
385.2450981593106
 20
413.8103634229008
 30
0.0
  0
POINT
  5
6D45
330
4DF4
100
AcDbEntity
  8
Defpoints
 62
     0
100
AcDbPoint
 10
385.2450981593106
 20
420.4288286220929
 30
0.0
  0
ENDBLK
  5
4DF6
330
4DF4
100
AcDbEntity
  8
0
100
AcDbBlockEnd
  0
BLOCK
  5
4F5F
330
4F5E
100
AcDbEntity
  8
0
100
AcDbBlockBegin
  2
*D12
 70
     1
 10
0.0
 20
0.0
 30
0.0
  3
*D12
  1

  0
LINE
  5
6875
330
4F5E
100
AcDbEntity
  8
AM_5 寸法線
 62
     3
100
AcDbLine
 10
440.4950981593105
 20
473.8103634229008
 30
0.0
 11
536.4950981593107
 21
473.8103634229008
 31
0.0
  0
LINE
  5
6876
330
4F5E
100
AcDbEntity
  8
AM_5 寸法線
 62
     3
100
AcDbLine
 10
440.4950981593105
 20
353.8103634229008
 30
0.0
 11
536.4950981593107
 21
353.8103634229008
 31
0.0
  0
LINE
  5
6877
330
4F5E
100
AcDbEntity
  8
AM_5 寸法線
 62
     3
100
AcDbLine
 10
535.2450981593107
 20
468.8103634229007
 30
0.0
 11
535.2450981593107
 21
358.8103634229008
 31
0.0
  0
INSERT
  5
6878
330
4F5E
100
AcDbEntity
  8
AM_5 寸法線
 62
     3
100
AcDbBlockReference
  2
_Open30
 10
535.2450981593107
 20
473.8103634229008
 30
0.0
 41
5.0
 42
5.0
 43
5.0
 50
90.0
  0
INSERT
  5
6879
330
4F5E
100
AcDbEntity
  8
AM_5 寸法線
 62
     3
100
AcDbBlockReference
  2
_Open30
 10
535.2450981593107
 20
353.8103634229008
 30
0.0
 41
5.0
 42
5.0
 43
5.0
 50
270.0
  0
MTEXT
  5
687A
330
4F5E
100
AcDbEntity
  8
AM_5 寸法線
 62
     3
100
AcDbMText
 10
528.7450981593106
 20
413.8103634229008
 30
0.0
 40
7.0
 41
0.0
 46
0.0
 71
     5
 72
     1
  1
%%c120
  7
SEISA
 11
0.0000000000000001
 21
1.0
 31
0.0
 73
     1
 44
1.0
  0
POINT
  5
687B
330
4F5E
100
AcDbEntity
  8
Defpoints
 62
     0
100
AcDbPoint
 10
439.2450981593105
 20
473.8103634229008
 30
0.0
  0
POINT
  5
687C
330
4F5E
100
AcDbEntity
  8
Defpoints
 62
     0
100
AcDbPoint
 10
439.2450981593105
 20
353.8103634229008
 30
0.0
  0
POINT
  5
687D
330
4F5E
100
AcDbEntity
  8
Defpoints
 62
     0
100
AcDbPoint
 10
535.2450981593107
 20
353.8103634229008
 30
0.0
  0
ENDBLK
  5
4F60
330
4F5E
100
AcDbEntity
  8
0
100
AcDbBlockEnd
  0
BLOCK
  5
4F77
330
4F76
100
AcDbEntity
  8
0
100
AcDbBlockBegin
  2
*D13
 70
     1
 10
0.0
 20
0.0
 30
0.0
  3
*D13
  1

  0
LINE
  5
687E
330
4F76
100
AcDbEntity
  8
AM_5 寸法線
 62
     3
100
AcDbLine
 10
405.9950981593105
 20
493.8103634229007
 30
0.0
 11
556.4950981593108
 21
493.8103634229007
 31
0.0
  0
LINE
  5
687F
330
4F76
100
AcDbEntity
  8
AM_5 寸法線
 62
     3
100
AcDbLine
 10
405.9950981593105
 20
333.8103634229009
 30
0.0
 11
556.4950981593108
 21
333.8103634229009
 31
0.0
  0
LINE
  5
6880
330
4F76
100
AcDbEntity
  8
AM_5 寸法線
 62
     3
100
AcDbLine
 10
555.2450981593108
 20
488.8103634229008
 30
0.0
 11
555.2450981593108
 21
338.8103634229009
 31
0.0
  0
INSERT
  5
6881
330
4F76
100
AcDbEntity
  8
AM_5 寸法線
 62
     3
100
AcDbBlockReference
  2
_Open30
 10
555.2450981593108
 20
493.8103634229007
 30
0.0
 41
5.0
 42
5.0
 43
5.0
 50
90.0
  0
INSERT
  5
6882
330
4F76
100
AcDbEntity
  8
AM_5 寸法線
 62
     3
100
AcDbBlockReference
  2
_Open30
 10
555.2450981593108
 20
333.8103634229009
 30
0.0
 41
5.0
 42
5.0
 43
5.0
 50
270.0
  0
MTEXT
  5
6883
330
4F76
100
AcDbEntity
  8
AM_5 寸法線
 62
     3
100
AcDbMText
 10
548.7450981593107
 20
413.8103634229008
 30
0.0
 40
7.0
 41
0.0
 46
0.0
 71
     5
 72
     1
  1
%%c160
  7
SEISA
 11
0.0000000000000001
 21
1.0
 31
0.0
 73
     1
 44
1.0
  0
POINT
  5
6884
330
4F76
100
AcDbEntity
  8
Defpoints
 62
     0
100
AcDbPoint
 10
404.7450981593105
 20
493.8103634229007
 30
0.0
  0
POINT
  5
6885
330
4F76
100
AcDbEntity
  8
Defpoints
 62
     0
100
AcDbPoint
 10
404.7450981593105
 20
333.8103634229009
 30
0.0
  0
POINT
  5
6886
330
4F76
100
AcDbEntity
  8
Defpoints
 62
     0
100
AcDbPoint
 10
555.2450981593108
 20
333.8103634229009
 30
0.0
  0
ENDBLK
  5
4F78
330
4F76
100
AcDbEntity
  8
0
100
AcDbBlockEnd
  0
BLOCK
  5
5003
330
5002
100
AcDbEntity
  8
0
100
AcDbBlockBegin
  2
*D14
 70
     1
 10
0.0
 20
0.0
 30
0.0
  3
*D14
  1

  0
LINE
  5
6887
330
5002
100
AcDbEntity
  8
AM_5 寸法線
 62
     3
100
AcDbLine
 10
390.2450981593105
 20
333.0603634229009
 30
0.0
 11
390.2450981593105
 21
302.5603634229009
 31
0.0
  0
LINE
  5
6888
330
5002
100
AcDbEntity
  8
AM_5 寸法線
 62
     3
100
AcDbLine
 10
375.2450981593105
 20
333.0603634229009
 30
0.0
 11
375.2450981593105
 21
302.5603634229009
 31
0.0
  0
LINE
  5
6889
330
5002
100
AcDbEntity
  8
AM_5 寸法線
 62
     3
100
AcDbLine
 10
395.2450981593106
 20
303.8103634229009
 30
0.0
 11
400.2450981593105
 21
303.8103634229009
 31
0.0
  0
LINE
  5
688A
330
5002
100
AcDbEntity
  8
AM_5 寸法線
 62
     3
100
AcDbLine
 10
370.2450981593106
 20
303.8103634229009
 30
0.0
 11
365.2450981593105
 21
303.8103634229009
 31
0.0
  0
MTEXT
  5
688B
330
5002
100
AcDbEntity
  8
AM_5 寸法線
 62
     3
100
AcDbMText
 10
367.7654044857563
 20
310.3532240198126
 30
0.0
 40
7.0
 41
0.0
 46
0.0
 71
     5
 72
     1
  1
15
  7
SEISA
 73
     1
 44
1.0
  0
LINE
  5
688C
330
5002
100
AcDbEntity
  8
AM_5 寸法線
 62
     3
100
AcDbLine
 10
390.2450981593105
 20
303.8103634229009
 30
0.0
 11
375.2450981593105
 21
303.8103634229009
 31
0.0
  0
INSERT
  5
688D
330
5002
100
AcDbEntity
  8
AM_5 寸法線
 62
     3
100
AcDbBlockReference
  2
GENDOT
 10
390.2450981593105
 20
303.8103634229009
 30
0.0
 41
5.0
 42
5.0
 43
5.0
 50
180.0
  0
INSERT
  5
688E
330
5002
100
AcDbEntity
  8
AM_5 寸法線
 62
     3
100
AcDbBlockReference
  2
_Open30
 10
375.2450981593105
 20
303.8103634229009
 30
0.0
 41
5.0
 42
5.0
 43
5.0
  0
POINT
  5
688F
330
5002
100
AcDbEntity
  8
Defpoints
 62
     0
100
AcDbPoint
 10
390.2450981593105
 20
334.3103634229009
 30
0.0
  0
POINT
  5
6890
330
5002
100
AcDbEntity
  8
Defpoints
 62
     0
100
AcDbPoint
 10
375.2450981593105
 20
334.3103634229009
 30
0.0
  0
POINT
  5
6891
330
5002
100
AcDbEntity
  8
Defpoints
 62
     0
100
AcDbPoint
 10
375.2450981593105
 20
303.8103634229009
 30
0.0
  0
ENDBLK
  5
5004
330
5002
100
AcDbEntity
  8
0
100
AcDbBlockEnd
  0
BLOCK
  5
501F
330
501E
100
AcDbEntity
  8
0
100
AcDbBlockBegin
  2
*D15
 70
     1
 10
0.0
 20
0.0
 30
0.0
  3
*D15
  1

  0
LINE
  5
6892
330
501E
100
AcDbEntity
  8
AM_5 寸法線
 62
     3
100
AcDbLine
 10
390.2450981593105
 20
333.0603634229009
 30
0.0
 11
390.2450981593105
 21
302.5603634229009
 31
0.0
  0
LINE
  5
6893
330
501E
100
AcDbEntity
  8
AM_5 寸法線
 62
     3
100
AcDbLine
 10
405.2450981593105
 20
333.0603634229009
 30
0.0
 11
405.2450981593105
 21
302.5603634229009
 31
0.0
  0
LINE
  5
6894
330
501E
100
AcDbEntity
  8
AM_5 寸法線
 62
     3
100
AcDbLine
 10
385.2450981593106
 20
303.8103634229009
 30
0.0
 11
380.2450981593105
 21
303.8103634229009
 31
0.0
  0
LINE
  5
6895
330
501E
100
AcDbEntity
  8
AM_5 寸法線
 62
     3
100
AcDbLine
 10
410.2450981593105
 20
303.8103634229009
 30
0.0
 11
415.2450981593105
 21
303.8103634229009
 31
0.0
  0
MTEXT
  5
6896
330
501E
100
AcDbEntity
  8
AM_5 寸法線
 62
     3
100
AcDbMText
 10
412.4285104765153
 20
310.3544973489518
 30
0.0
 40
7.0
 41
0.0
 46
0.0
 71
     5
 72
     1
  1
15
  7
SEISA
 73
     1
 44
1.0
  0
LINE
  5
6897
330
501E
100
AcDbEntity
  8
AM_5 寸法線
 62
     3
100
AcDbLine
 10
390.2450981593105
 20
303.8103634229009
 30
0.0
 11
405.2450981593105
 21
303.8103634229009
 31
0.0
  0
INSERT
  5
6898
330
501E
100
AcDbEntity
  8
AM_5 寸法線
 62
     3
100
AcDbBlockReference
  2
GENDOT
 10
390.2450981593105
 20
303.8103634229009
 30
0.0
 41
5.0
 42
5.0
 43
5.0
  0
INSERT
  5
6899
330
501E
100
AcDbEntity
  8
AM_5 寸法線
 62
     3
100
AcDbBlockReference
  2
_Open30
 10
405.2450981593105
 20
303.8103634229009
 30
0.0
 41
5.0
 42
5.0
 43
5.0
 50
180.0
  0
POINT
  5
689A
330
501E
100
AcDbEntity
  8
Defpoints
 62
     0
100
AcDbPoint
 10
390.2450981593105
 20
334.3103634229009
 30
0.0
  0
POINT
  5
689B
330
501E
100
AcDbEntity
  8
Defpoints
 62
     0
100
AcDbPoint
 10
405.2450981593105
 20
334.3103634229009
 30
0.0
  0
POINT
  5
689C
330
501E
100
AcDbEntity
  8
Defpoints
 62
     0
100
AcDbPoint
 10
405.2450981593105
 20
303.8103634229009
 30
0.0
  0
ENDBLK
  5
5020
330
501E
100
AcDbEntity
  8
0
100
AcDbBlockEnd
  0
BLOCK
  5
506B
330
506A
100
AcDbEntity
  8
0
100
AcDbBlockBegin
  2
*D16
 70
     1
 10
0.0
 20
0.0
 30
0.0
  3
*D16
  1

  0
LINE
  5
689D
330
506A
100
AcDbEntity
  8
AM_5 寸法線
 62
     3
100
AcDbLine
 10
390.2450981593105
 20
333.0603634229009
 30
0.0
 11
390.2450981593105
 21
282.5603634229009
 31
0.0
  0
LINE
  5
689E
330
506A
100
AcDbEntity
  8
AM_5 寸法線
 62
     3
100
AcDbLine
 10
305.2450981593106
 20
363.0603634229008
 30
0.0
 11
305.2450981593106
 21
282.5603634229009
 31
0.0
  0
LINE
  5
689F
330
506A
100
AcDbEntity
  8
AM_5 寸法線
 62
     3
100
AcDbLine
 10
385.2450981593106
 20
283.8103634229009
 30
0.0
 11
310.2450981593106
 21
283.8103634229009
 31
0.0
  0
INSERT
  5
68A0
330
506A
100
AcDbEntity
  8
AM_5 寸法線
 62
     3
100
AcDbBlockReference
  2
_Open30
 10
390.2450981593105
 20
283.8103634229009
 30
0.0
 41
5.0
 42
5.0
 43
5.0
  0
INSERT
  5
68A1
330
506A
100
AcDbEntity
  8
AM_5 寸法線
 62
     3
100
AcDbBlockReference
  2
_Open30
 10
305.2450981593106
 20
283.8103634229009
 30
0.0
 41
5.0
 42
5.0
 43
5.0
 50
180.0
  0
MTEXT
  5
68A2
330
506A
100
AcDbEntity
  8
AM_5 寸法線
 62
     3
100
AcDbMText
 10
347.7450981593106
 20
290.3103634229008
 30
0.0
 40
7.0
 41
0.0
 46
0.0
 71
     5
 72
     1
  1
85
  7
SEISA
 73
     1
 44
1.0
  0
POINT
  5
68A3
330
506A
100
AcDbEntity
  8
Defpoints
 62
     0
100
AcDbPoint
 10
390.2450981593105
 20
334.3103634229009
 30
0.0
  0
POINT
  5
68A4
330
506A
100
AcDbEntity
  8
Defpoints
 62
     0
100
AcDbPoint
 10
305.2450981593106
 20
364.3103634229008
 30
0.0
  0
POINT
  5
68A5
330
506A
100
AcDbEntity
  8
Defpoints
 62
     0
100
AcDbPoint
 10
305.2450981593106
 20
283.8103634229009
 30
0.0
  0
ENDBLK
  5
506C
330
506A
100
AcDbEntity
  8
0
100
AcDbBlockEnd
  0
BLOCK
  5
5083
330
5082
100
AcDbEntity
  8
0
100
AcDbBlockBegin
  2
*D17
 70
     1
 10
0.0
 20
0.0
 30
0.0
  3
*D17
  1

  0
LINE
  5
68A6
330
5082
100
AcDbEntity
  8
AM_5 寸法線
 62
     3
100
AcDbLine
 10
390.2450981593105
 20
333.533283720905
 30
0.0
 11
390.2450981593105
 21
282.5603634229009
 31
0.0
  0
LINE
  5
68A7
330
5082
100
AcDbEntity
  8
AM_5 寸法線
 62
     3
100
AcDbLine
 10
442.2450981593105
 20
357.0036259229008
 30
0.0
 11
442.2450981593105
 21
282.5603634229009
 31
0.0
  0
LINE
  5
68A8
330
5082
100
AcDbEntity
  8
AM_5 寸法線
 62
     3
100
AcDbLine
 10
395.2450981593106
 20
283.8103634229009
 30
0.0
 11
437.2450981593105
 21
283.8103634229009
 31
0.0
  0
INSERT
  5
68A9
330
5082
100
AcDbEntity
  8
AM_5 寸法線
 62
     3
100
AcDbBlockReference
  2
_Open30
 10
390.2450981593105
 20
283.8103634229009
 30
0.0
 41
5.0
 42
5.0
 43
5.0
 50
180.0
  0
INSERT
  5
68AA
330
5082
100
AcDbEntity
  8
AM_5 寸法線
 62
     3
100
AcDbBlockReference
  2
_Open30
 10
442.2450981593105
 20
283.8103634229009
 30
0.0
 41
5.0
 42
5.0
 43
5.0
  0
MTEXT
  5
68AB
330
5082
100
AcDbEntity
  8
AM_5 寸法線
 62
     3
100
AcDbMText
 10
416.2450981593105
 20
290.3103634229008
 30
0.0
 40
7.0
 41
0.0
 46
0.0
 71
     5
 72
     1
  1
52
  7
SEISA
 73
     1
 44
1.0
  0
POINT
  5
68AC
330
5082
100
AcDbEntity
  8
Defpoints
 62
     0
100
AcDbPoint
 10
390.2450981593105
 20
334.783283720905
 30
0.0
  0
POINT
  5
68AD
330
5082
100
AcDbEntity
  8
Defpoints
 62
     0
100
AcDbPoint
 10
442.2450981593105
 20
358.2536259229008
 30
0.0
  0
POINT
  5
68AE
330
5082
100
AcDbEntity
  8
Defpoints
 62
     0
100
AcDbPoint
 10
442.2450981593105
 20
283.8103634229009
 30
0.0
  0
ENDBLK
  5
5084
330
5082
100
AcDbEntity
  8
0
100
AcDbBlockEnd
  0
BLOCK
  5
509B
330
509A
100
AcDbEntity
  8
0
100
AcDbBlockBegin
  2
*D18
 70
     1
 10
0.0
 20
0.0
 30
0.0
  3
*D18
  1

  0
LINE
  5
68AF
330
509A
100
AcDbEntity
  8
AM_5 寸法線
 62
     3
100
AcDbLine
 10
442.2450981593105
 20
355.7536259229008
 30
0.0
 11
442.2450981593105
 21
282.5603634229009
 31
0.0
  0
LINE
  5
68B0
330
509A
100
AcDbEntity
  8
AM_5 寸法線
 62
     3
100
AcDbLine
 10
475.2450981593105
 20
368.6603634229009
 30
0.0
 11
475.2450981593105
 21
282.5603634229009
 31
0.0
  0
LINE
  5
68B1
330
509A
100
AcDbEntity
  8
AM_5 寸法線
 62
     3
100
AcDbLine
 10
447.2450981593105
 20
283.8103634229009
 30
0.0
 11
470.2450981593105
 21
283.8103634229009
 31
0.0
  0
INSERT
  5
68B2
330
509A
100
AcDbEntity
  8
AM_5 寸法線
 62
     3
100
AcDbBlockReference
  2
_Open30
 10
442.2450981593105
 20
283.8103634229009
 30
0.0
 41
5.0
 42
5.0
 43
5.0
 50
180.0
  0
INSERT
  5
68B3
330
509A
100
AcDbEntity
  8
AM_5 寸法線
 62
     3
100
AcDbBlockReference
  2
_Open30
 10
475.2450981593105
 20
283.8103634229009
 30
0.0
 41
5.0
 42
5.0
 43
5.0
  0
MTEXT
  5
68B4
330
509A
100
AcDbEntity
  8
AM_5 寸法線
 62
     3
100
AcDbMText
 10
458.7450981593105
 20
290.3103634229008
 30
0.0
 40
7.0
 41
0.0
 46
0.0
 71
     5
 72
     1
  1
33
  7
SEISA
 73
     1
 44
1.0
  0
POINT
  5
68B5
330
509A
100
AcDbEntity
  8
Defpoints
 62
     0
100
AcDbPoint
 10
442.2450981593105
 20
357.0036259229008
 30
0.0
  0
POINT
  5
68B6
330
509A
100
AcDbEntity
  8
Defpoints
 62
     0
100
AcDbPoint
 10
475.2450981593105
 20
369.9103634229008
 30
0.0
  0
POINT
  5
68B7
330
509A
100
AcDbEntity
  8
Defpoints
 62
     0
100
AcDbPoint
 10
475.2450981593105
 20
283.8103634229009
 30
0.0
  0
ENDBLK
  5
509C
330
509A
100
AcDbEntity
  8
0
100
AcDbBlockEnd
  0
BLOCK
  5
50B3
330
50B2
100
AcDbEntity
  8
0
100
AcDbBlockBegin
  2
*D19
 70
     1
 10
0.0
 20
0.0
 30
0.0
  3
*D19
  1

  0
LINE
  5
68B8
330
50B2
100
AcDbEntity
  8
AM_5 寸法線
 62
     3
100
AcDbLine
 10
305.2450981593106
 20
363.0603634229008
 30
0.0
 11
305.2450981593106
 21
262.5603634229009
 31
0.0
  0
LINE
  5
68B9
330
50B2
100
AcDbEntity
  8
AM_5 寸法線
 62
     3
100
AcDbLine
 10
475.2450981593105
 20
368.6603634229009
 30
0.0
 11
475.2450981593105
 21
262.5603634229009
 31
0.0
  0
LINE
  5
68BA
330
50B2
100
AcDbEntity
  8
AM_5 寸法線
 62
     3
100
AcDbLine
 10
310.2450981593106
 20
263.8103634229009
 30
0.0
 11
470.2450981593105
 21
263.8103634229009
 31
0.0
  0
INSERT
  5
68BB
330
50B2
100
AcDbEntity
  8
AM_5 寸法線
 62
     3
100
AcDbBlockReference
  2
_Open30
 10
305.2450981593106
 20
263.8103634229009
 30
0.0
 41
5.0
 42
5.0
 43
5.0
 50
180.0
  0
INSERT
  5
68BC
330
50B2
100
AcDbEntity
  8
AM_5 寸法線
 62
     3
100
AcDbBlockReference
  2
_Open30
 10
475.2450981593105
 20
263.8103634229009
 30
0.0
 41
5.0
 42
5.0
 43
5.0
  0
MTEXT
  5
68BD
330
50B2
100
AcDbEntity
  8
AM_5 寸法線
 62
     3
100
AcDbMText
 10
390.2450981593106
 20
270.3103634229009
 30
0.0
 40
7.0
 41
0.0
 46
0.0
 71
     5
 72
     1
  1
170
  7
SEISA
 73
     1
 44
1.0
  0
POINT
  5
68BE
330
50B2
100
AcDbEntity
  8
Defpoints
 62
     0
100
AcDbPoint
 10
305.2450981593106
 20
364.3103634229008
 30
0.0
  0
POINT
  5
68BF
330
50B2
100
AcDbEntity
  8
Defpoints
 62
     0
100
AcDbPoint
 10
475.2450981593105
 20
369.9103634229008
 30
0.0
  0
POINT
  5
68C0
330
50B2
100
AcDbEntity
  8
Defpoints
 62
     0
100
AcDbPoint
 10
475.2450981593105
 20
263.8103634229009
 30
0.0
  0
ENDBLK
  5
50B4
330
50B2
100
AcDbEntity
  8
0
100
AcDbBlockEnd
  0
BLOCK
  5
5295
330
5294
100
AcDbEntity
  8
0
100
AcDbBlockBegin
  2
センタ SEM160
 70
     0
 10
0.0
 20
0.0
 30
0.0
  3
センタ SEM160
  1

  0
LINE
  5
5297
330
5294
100
AcDbEntity
  8
AM_0 外形線1
100
AcDbLine
 10
77.0
 20
46.89999999999996
 30
0.0
 11
56.0
 21
46.89999999999996
 31
0.0
  0
LINE
  5
5298
330
5294
100
AcDbEntity
  8
AM_0 外形線1
100
AcDbLine
 10
56.0
 20
-46.90000000000003
 30
0.0
 11
77.0
 21
-46.90000000000003
 31
0.0
  0
LINE
  5
5299
330
5294
100
AcDbEntity
  8
AM_0 外形線1
100
AcDbLine
 10
0.0
 20
46.5
 30
0.0
 11
0.0
 21
0.0
 31
0.0
  0
LINE
  5
529A
330
5294
100
AcDbEntity
  8
AM_0 外形線1
100
AcDbLine
 10
56.0
 20
-46.90000000000003
 30
0.0
 11
56.0
 21
0.0
 31
0.0
  0
LINE
  5
529B
330
5294
100
AcDbEntity
  8
AM_0 外形線1
100
AcDbLine
 10
54.0
 20
-47.5
 30
0.0
 11
54.0
 21
0.0
 31
0.0
  0
LINE
  5
529C
330
5294
100
AcDbEntity
  8
AM_0 外形線1
100
AcDbLine
 10
47.0
 20
-47.5
 30
0.0
 11
54.0
 21
-47.5
 31
0.0
  0
LINE
  5
529D
330
5294
100
AcDbEntity
  8
AM_0 外形線1
100
AcDbLine
 10
54.0
 20
-47.5
 30
0.0
 11
56.0
 21
-46.90000000000003
 31
0.0
  0
LINE
  5
529E
330
5294
100
AcDbEntity
  8
AM_0 外形線1
100
AcDbLine
 10
13.5
 20
47.0
 30
0.0
 11
0.5
 21
47.0
 31
0.0
  0
LINE
  5
529F
330
5294
100
AcDbEntity
  8
AM_0 外形線1
100
AcDbLine
 10
0.5
 20
47.0
 30
0.0
 11
0.0
 21
46.5
 31
0.0
  0
LINE
  5
52A0
330
5294
100
AcDbEntity
  8
AM_0 外形線1
100
AcDbLine
 10
54.0
 20
47.5
 30
0.0
 11
32.5
 21
47.5
 31
0.0
  0
LINE
  5
52A1
330
5294
100
AcDbEntity
  8
AM_7 中心線
100
AcDbLine
 10
21.5
 20
55.78287523077229
 30
0.0
 11
21.5
 21
47.92212476922765
 31
0.0
  0
ARC
  5
52A2
330
5294
100
AcDbEntity
  8
AM_0 外形線1
100
AcDbCircle
 10
13.5
 20
47.5
 30
0.0
 40
0.5
100
AcDbArc
 50
270.0
 51
0.0
  0
ARC
  5
52A4
330
5294
100
AcDbEntity
  8
AM_0 外形線1
100
AcDbCircle
 10
21.5
 20
0.0
 30
0.0
 40
53.905
100
AcDbArc
 50
79.84940800000003
 51
96.92572200000224
  0
LINE
  5
52A6
330
5294
100
AcDbEntity
  8
AM_0 外形線1
100
AcDbLine
 10
14.0
 20
52.38069899999999
 30
0.0
 11
14.0
 21
47.5
 31
0.0
  0
LINE
  5
52A7
330
5294
100
AcDbEntity
  8
AM_0 外形線1
100
AcDbLine
 10
15.0
 20
53.51167200000002
 30
0.0
 11
14.0
 21
52.38069899999999
 31
0.0
  0
LINE
  5
52A8
330
5294
100
AcDbEntity
  8
AM_0 外形線1
100
AcDbLine
 10
32.0
 20
51.872479
 30
0.0
 11
31.0
 21
53.06127600000002
 31
0.0
  0
LINE
  5
52A9
330
5294
100
AcDbEntity
  8
AM_0 外形線1
100
AcDbLine
 10
32.0
 20
48.0
 30
0.0
 11
32.0
 21
51.872479
 31
0.0
  0
ARC
  5
52AA
330
5294
100
AcDbEntity
  8
AM_0 外形線1
100
AcDbCircle
 10
32.5
 20
48.0
 30
0.0
 40
0.5
100
AcDbArc
 50
180.0
 51
270.0
  0
LINE
  5
52AB
330
5294
100
AcDbEntity
  8
AM_0 外形線1
100
AcDbLine
 10
56.0
 20
46.89999999999996
 30
0.0
 11
54.0
 21
47.5
 31
0.0
  0
LINE
  5
52AC
330
5294
100
AcDbEntity
  8
AM_0 外形線1
100
AcDbLine
 10
80.0
 20
-43.90000000000003
 30
0.0
 11
80.0
 21
43.89999999999997
 31
0.0
  0
ARC
  5
52AD
330
5294
100
AcDbEntity
  8
AM_0 外形線1
100
AcDbCircle
 10
77.0
 20
-43.90000000000003
 30
0.0
 40
3.0
100
AcDbArc
 50
270.0
 51
0.0
  0
ARC
  5
52AE
330
5294
100
AcDbEntity
  8
AM_0 外形線1
100
AcDbCircle
 10
77.0
 20
43.89999999999997
 30
0.0
 40
3.0
100
AcDbArc
 50
0.0
 51
90.0
  0
LINE
  5
52AF
330
5294
100
AcDbEntity
  8
AM_0 外形線1
100
AcDbLine
 10
0.0
 20
22.5
 30
0.0
 11
80.0
 21
22.5
 31
0.0
  0
ARC
  5
6CCA
330
5294
100
AcDbEntity
  8
AM_7 中心線
100
AcDbCircle
 10
21.49999999999995
 20
0.0
 30
0.0
 40
52.0
100
AcDbArc
 50
76.47429144329947
 51
100.3023171289706
  0
ARC
  5
6CCB
330
5294
100
AcDbEntity
  8
AM_0 外形線1
100
AcDbCircle
 10
21.49999999999995
 20
0.0
 30
0.0
 40
49.80000000000001
100
AcDbArc
 50
77.82821934507842
 51
98.66183868200129
  0
ENDBLK
  5
5296
330
5294
100
AcDbEntity
  8
0
100
AcDbBlockEnd
  0
BLOCK
  5
52E0
330
52DF
100
AcDbEntity
  8
0
100
AcDbBlockBegin
  2
*D21
 70
     1
 10
0.0
 20
0.0
 30
0.0
  3
*D21
  1

  0
LINE
  5
6D46
330
52DF
100
AcDbEntity
  8
AM_5 寸法線
 62
     3
100
AcDbLine
 10
385.2450981593106
 20
415.0603634229008
 30
0.0
 11
385.2450981593106
 21
421.6788286220929
 31
0.0
  0
LINE
  5
6D47
330
52DF
100
AcDbEntity
  8
AM_5 寸法線
 62
     3
100
AcDbLine
 10
395.2450981593106
 20
415.0603634229008
 30
0.0
 11
395.2450981593106
 21
421.6788286220929
 31
0.0
  0
LINE
  5
6D48
330
52DF
100
AcDbEntity
  8
AM_5 寸法線
 62
     3
100
AcDbLine
 10
380.2450981593105
 20
420.4288286220929
 30
0.0
 11
375.2450981593105
 21
420.4288286220929
 31
0.0
  0
LINE
  5
6D49
330
52DF
100
AcDbEntity
  8
AM_5 寸法線
 62
     3
100
AcDbLine
 10
400.2450981593105
 20
420.4288286220929
 30
0.0
 11
405.2450981593105
 21
420.4288286220929
 31
0.0
  0
MTEXT
  5
6D4A
330
52DF
100
AcDbEntity
  8
AM_5 寸法線
 62
     3
100
AcDbMText
 10
404.6976794420515
 20
427.4576914322502
 30
0.0
 40
7.0
 41
0.0
 46
0.0
 71
     5
 72
     1
  1
10
  7
SEISA
 73
     1
 44
1.0
  0
LINE
  5
6D4B
330
52DF
100
AcDbEntity
  8
AM_5 寸法線
 62
     3
100
AcDbLine
 10
385.2450981593106
 20
420.4288286220929
 30
0.0
 11
395.2450981593106
 21
420.4288286220929
 31
0.0
  0
INSERT
  5
6D4C
330
52DF
100
AcDbEntity
  8
AM_5 寸法線
 62
     3
100
AcDbBlockReference
  2
_Open30
 10
385.2450981593106
 20
420.4288286220929
 30
0.0
 41
5.0
 42
5.0
 43
5.0
  0
INSERT
  5
6D4D
330
52DF
100
AcDbEntity
  8
AM_5 寸法線
 62
     3
100
AcDbBlockReference
  2
_Open30
 10
395.2450981593106
 20
420.4288286220929
 30
0.0
 41
5.0
 42
5.0
 43
5.0
 50
180.0
  0
POINT
  5
6D4E
330
52DF
100
AcDbEntity
  8
Defpoints
 62
     0
100
AcDbPoint
 10
385.2450981593106
 20
413.8103634229008
 30
0.0
  0
POINT
  5
6D4F
330
52DF
100
AcDbEntity
  8
Defpoints
 62
     0
100
AcDbPoint
 10
395.2450981593106
 20
413.8103634229008
 30
0.0
  0
POINT
  5
6D50
330
52DF
100
AcDbEntity
  8
Defpoints
 62
     0
100
AcDbPoint
 10
395.2450981593106
 20
420.4288286220929
 30
0.0
  0
ENDBLK
  5
52E1
330
52DF
100
AcDbEntity
  8
0
100
AcDbBlockEnd
  0
BLOCK
  5
52FC
330
52FB
100
AcDbEntity
  8
0
100
AcDbBlockBegin
  2
*D22
 70
     1
 10
0.0
 20
0.0
 30
0.0
  3
*D22
  1

  0
LINE
  5
6D34
330
52FB
100
AcDbEntity
  8
AM_5 寸法線
 62
     3
100
AcDbLine
 10
395.2450981593106
 20
415.0603634229008
 30
0.0
 11
395.2450981593106
 21
421.6788286220929
 31
0.0
  0
LINE
  5
6D35
330
52FB
100
AcDbEntity
  8
AM_5 寸法線
 62
     3
100
AcDbLine
 10
475.2450981593105
 20
415.0603634229008
 30
0.0
 11
475.2450981593105
 21
421.6788286220929
 31
0.0
  0
LINE
  5
6D36
330
52FB
100
AcDbEntity
  8
AM_5 寸法線
 62
     3
100
AcDbLine
 10
400.2450981593105
 20
420.4288286220929
 30
0.0
 11
470.2450981593105
 21
420.4288286220929
 31
0.0
  0
INSERT
  5
6D37
330
52FB
100
AcDbEntity
  8
AM_5 寸法線
 62
     3
100
AcDbBlockReference
  2
_Open30
 10
395.2450981593106
 20
420.4288286220929
 30
0.0
 41
5.0
 42
5.0
 43
5.0
 50
180.0
  0
INSERT
  5
6D38
330
52FB
100
AcDbEntity
  8
AM_5 寸法線
 62
     3
100
AcDbBlockReference
  2
_Open30
 10
475.2450981593105
 20
420.4288286220929
 30
0.0
 41
5.0
 42
5.0
 43
5.0
  0
MTEXT
  5
6D39
330
52FB
100
AcDbEntity
  8
AM_5 寸法線
 62
     3
100
AcDbMText
 10
435.2450981593105
 20
426.928828622093
 30
0.0
 40
7.0
 41
0.0
 46
0.0
 71
     5
 72
     1
  1
80
  7
SEISA
 73
     1
 44
1.0
  0
POINT
  5
6D3A
330
52FB
100
AcDbEntity
  8
Defpoints
 62
     0
100
AcDbPoint
 10
395.2450981593106
 20
413.8103634229008
 30
0.0
  0
POINT
  5
6D3B
330
52FB
100
AcDbEntity
  8
Defpoints
 62
     0
100
AcDbPoint
 10
475.2450981593105
 20
413.8103634229008
 30
0.0
  0
POINT
  5
6D3C
330
52FB
100
AcDbEntity
  8
Defpoints
 62
     0
100
AcDbPoint
 10
475.2450981593105
 20
420.4288286220929
 30
0.0
  0
ENDBLK
  5
52FD
330
52FB
100
AcDbEntity
  8
0
100
AcDbBlockEnd
  0
BLOCK
  5
533E
330
533D
100
AcDbEntity
  8
0
100
AcDbBlockBegin
  2
*D23
 70
     1
 10
0.0
 20
0.0
 30
0.0
  3
*D23
  1

  0
LINE
  5
6D5A
330
533D
100
AcDbEntity
  8
AM_5 寸法線
 62
     3
100
AcDbLine
 10
427.2450981593105
 20
460.5603634229008
 30
0.0
 11
427.2450981593105
 21
445.3638900882721
 31
0.0
  0
LINE
  5
6D5B
330
533D
100
AcDbEntity
  8
AM_5 寸法線
 62
     3
100
AcDbLine
 10
430.2450981593105
 20
460.0603634229008
 30
0.0
 11
430.2450981593105
 21
445.3638900882721
 31
0.0
  0
LINE
  5
6D5C
330
533D
100
AcDbEntity
  8
AM_5 寸法線
 62
     3
100
AcDbLine
 10
422.2450981593105
 20
446.613890088272
 30
0.0
 11
417.2450981593105
 21
446.613890088272
 31
0.0
  0
LINE
  5
6D5D
330
533D
100
AcDbEntity
  8
AM_5 寸法線
 62
     3
100
AcDbLine
 10
435.2450981593105
 20
446.613890088272
 30
0.0
 11
450.4450981593105
 21
446.613890088272
 31
0.0
  0
LINE
  5
6D5E
330
533D
100
AcDbEntity
  8
AM_5 寸法線
 62
     3
100
AcDbLine
 10
427.2450981593105
 20
446.613890088272
 30
0.0
 11
430.2450981593105
 21
446.613890088272
 31
0.0
  0
INSERT
  5
6D5F
330
533D
100
AcDbEntity
  8
AM_5 寸法線
 62
     3
100
AcDbBlockReference
  2
_Open30
 10
427.2450981593105
 20
446.613890088272
 30
0.0
 41
5.0
 42
5.0
 43
5.0
  0
INSERT
  5
6D60
330
533D
100
AcDbEntity
  8
AM_5 寸法線
 62
     3
100
AcDbBlockReference
  2
_Open30
 10
430.2450981593105
 20
446.613890088272
 30
0.0
 41
5.0
 42
5.0
 43
5.0
 50
180.0
  0
MTEXT
  5
6D61
330
533D
100
AcDbEntity
  8
AM_5 寸法線
 62
     3
100
AcDbMText
 10
445.3450981593105
 20
453.1138900882719
 30
0.0
 40
7.0
 41
0.0
 46
0.0
 71
     5
 72
     1
  1
3
  7
SEISA
 73
     1
 44
1.0
  0
POINT
  5
6D62
330
533D
100
AcDbEntity
  8
Defpoints
 62
     0
100
AcDbPoint
 10
427.2450981593105
 20
461.8103634229008
 30
0.0
  0
POINT
  5
6D63
330
533D
100
AcDbEntity
  8
Defpoints
 62
     0
100
AcDbPoint
 10
430.2450981593105
 20
461.3103634229008
 30
0.0
  0
POINT
  5
6D64
330
533D
100
AcDbEntity
  8
Defpoints
 62
     0
100
AcDbPoint
 10
430.2450981593105
 20
446.613890088272
 30
0.0
  0
ENDBLK
  5
533F
330
533D
100
AcDbEntity
  8
0
100
AcDbBlockEnd
  0
BLOCK
  5
53F1
330
53F0
100
AcDbEntity
  8
0
100
AcDbBlockBegin
  2
*D24
 70
     1
 10
0.0
 20
0.0
 30
0.0
  3
*D24
  1

  0
LINE
  5
68F6
330
53F0
100
AcDbEntity
  8
AM_5 寸法線
 62
     3
100
AcDbLine
 10
450.4950981593105
 20
461.3103634229008
 30
0.0
 11
516.4950981593106
 21
461.3103634229008
 31
0.0
  0
LINE
  5
68F7
330
53F0
100
AcDbEntity
  8
AM_5 寸法線
 62
     3
100
AcDbLine
 10
450.4950981593105
 20
366.3103634229008
 30
0.0
 11
516.4950981593106
 21
366.3103634229008
 31
0.0
  0
LINE
  5
68F8
330
53F0
100
AcDbEntity
  8
AM_5 寸法線
 62
     3
100
AcDbLine
 10
515.2450981593106
 20
456.3103634229007
 30
0.0
 11
515.2450981593106
 21
371.3103634229008
 31
0.0
  0
INSERT
  5
68F9
330
53F0
100
AcDbEntity
  8
AM_5 寸法線
 62
     3
100
AcDbBlockReference
  2
_Open30
 10
515.2450981593106
 20
461.3103634229008
 30
0.0
 41
5.0
 42
5.0
 43
5.0
 50
90.0
  0
INSERT
  5
68FA
330
53F0
100
AcDbEntity
  8
AM_5 寸法線
 62
     3
100
AcDbBlockReference
  2
_Open30
 10
515.2450981593106
 20
366.3103634229008
 30
0.0
 41
5.0
 42
5.0
 43
5.0
 50
270.0
  0
MTEXT
  5
68FB
330
53F0
100
AcDbEntity
  8
AM_5 寸法線
 62
     3
100
AcDbMText
 10
508.7450981593105
 20
413.8103634229008
 30
0.0
 40
7.0
 41
0.0
 46
0.0
 71
     5
 72
     1
  1
%%c95
  7
SEISA
 11
0.0000000000000001
 21
1.0
 31
0.0
 73
     1
 44
1.0
  0
POINT
  5
68FC
330
53F0
100
AcDbEntity
  8
Defpoints
 62
     0
100
AcDbPoint
 10
449.2450981593105
 20
461.3103634229008
 30
0.0
  0
POINT
  5
68FD
330
53F0
100
AcDbEntity
  8
Defpoints
 62
     0
100
AcDbPoint
 10
449.2450981593105
 20
366.3103634229008
 30
0.0
  0
POINT
  5
68FE
330
53F0
100
AcDbEntity
  8
Defpoints
 62
     0
100
AcDbPoint
 10
515.2450981593106
 20
366.3103634229008
 30
0.0
  0
ENDBLK
  5
53F2
330
53F0
100
AcDbEntity
  8
0
100
AcDbBlockEnd
  0
BLOCK
  5
62FF
330
62FC
100
AcDbEntity
  8
0
100
AcDbBlockBegin
  2
GENDOT
 70
     0
 10
0.0
 20
0.0
 30
0.0
  3
GENDOT
  1

  0
LINE
  5
62FD
330
62FC
100
AcDbEntity
  8
0
100
AcDbLine
 10
0.0
 20
0.0
 30
0.0
 11
-1.0
 21
0.0
 31
0.0
  0
LWPOLYLINE
  5
62FE
330
62FC
100
AcDbEntity
  8
0
100
AcDbPolyline
 90
        2
 70
     1
 43
0.25
 10
-0.125
 20
0.0
 42
1.0
 10
0.125
 20
0.0
 42
1.0
  0
ENDBLK
  5
6300
330
62FC
100
AcDbEntity
  8
0
100
AcDbBlockEnd
  0
BLOCK
  5
6C4E
330
6C4D
100
AcDbEntity
  8
0
100
AcDbBlockBegin
  2
*D26
 70
     1
 10
0.0
 20
0.0
 30
0.0
  3
*D26
  1

  0
LINE
  5
6DB8
330
6C4D
100
AcDbEntity
  8
AM_5 寸法線
 62
     3
100
AcDbLine
 10
475.2450981593105
 20
458.9603634229008
 30
0.0
 11
475.2450981593105
 21
519.5402654801985
 31
0.0
  0
LINE
  5
6DB9
330
6C4D
100
AcDbEntity
  8
AM_5 寸法線
 62
     3
100
AcDbLine
 10
482.2450981593106
 20
472.0603634229008
 30
0.0
 11
482.2450981593106
 21
519.5402654801985
 31
0.0
  0
LINE
  5
6DBA
330
6C4D
100
AcDbEntity
  8
AM_5 寸法線
 62
     3
100
AcDbLine
 10
470.2450981593105
 20
518.2902654801985
 30
0.0
 11
465.2450981593105
 21
518.2902654801985
 31
0.0
  0
LINE
  5
6DBB
330
6C4D
100
AcDbEntity
  8
AM_5 寸法線
 62
     3
100
AcDbLine
 10
487.2450981593106
 20
518.2902654801985
 30
0.0
 11
502.4450981593106
 21
518.2902654801985
 31
0.0
  0
LINE
  5
6DBC
330
6C4D
100
AcDbEntity
  8
AM_5 寸法線
 62
     3
100
AcDbLine
 10
475.2450981593105
 20
518.2902654801985
 30
0.0
 11
482.2450981593106
 21
518.2902654801985
 31
0.0
  0
INSERT
  5
6DBD
330
6C4D
100
AcDbEntity
  8
AM_5 寸法線
 62
     3
100
AcDbBlockReference
  2
_Open30
 10
475.2450981593105
 20
518.2902654801985
 30
0.0
 41
5.0
 42
5.0
 43
5.0
  0
INSERT
  5
6DBE
330
6C4D
100
AcDbEntity
  8
AM_5 寸法線
 62
     3
100
AcDbBlockReference
  2
_Open30
 10
482.2450981593106
 20
518.2902654801985
 30
0.0
 41
5.0
 42
5.0
 43
5.0
 50
180.0
  0
MTEXT
  5
6DBF
330
6C4D
100
AcDbEntity
  8
AM_5 寸法線
 62
     3
100
AcDbMText
 10
497.3450981593106
 20
524.7902654801984
 30
0.0
 40
7.0
 41
0.0
 46
0.0
 71
     5
 72
     1
  1
7
  7
SEISA
 73
     1
 44
1.0
  0
POINT
  5
6DC0
330
6C4D
100
AcDbEntity
  8
Defpoints
 62
     0
100
AcDbPoint
 10
475.2450981593105
 20
457.7103634229009
 30
0.0
  0
POINT
  5
6DC1
330
6C4D
100
AcDbEntity
  8
Defpoints
 62
     0
100
AcDbPoint
 10
482.2450981593106
 20
470.8103634229008
 30
0.0
  0
POINT
  5
6DC2
330
6C4D
100
AcDbEntity
  8
Defpoints
 62
     0
100
AcDbPoint
 10
482.2450981593106
 20
518.2902654801985
 30
0.0
  0
ENDBLK
  5
6C4F
330
6C4D
100
AcDbEntity
  8
0
100
AcDbBlockEnd
  0
BLOCK
  5
6CCF
330
6CCE
100
AcDbEntity
  8
0
100
AcDbBlockBegin
  2
*D27
 70
     1
 10
0.0
 20
0.0
 30
0.0
  3
*D27
  1

  0
LINE
  5
6D51
330
6CCE
100
AcDbEntity
  8
AM_5 寸法線
 62
     3
100
AcDbLine
 10
409.2450981593105
 20
460.0603634229008
 30
0.0
 11
409.2450981593105
 21
445.3638900882721
 31
0.0
  0
LINE
  5
6D52
330
6CCE
100
AcDbEntity
  8
AM_5 寸法線
 62
     3
100
AcDbLine
 10
427.2450981593105
 20
460.5603634229008
 30
0.0
 11
427.2450981593105
 21
445.3638900882721
 31
0.0
  0
LINE
  5
6D53
330
6CCE
100
AcDbEntity
  8
AM_5 寸法線
 62
     3
100
AcDbLine
 10
414.2450981593105
 20
446.613890088272
 30
0.0
 11
422.2450981593105
 21
446.613890088272
 31
0.0
  0
INSERT
  5
6D54
330
6CCE
100
AcDbEntity
  8
AM_5 寸法線
 62
     3
100
AcDbBlockReference
  2
_Open30
 10
409.2450981593105
 20
446.613890088272
 30
0.0
 41
5.0
 42
5.0
 43
5.0
 50
180.0
  0
INSERT
  5
6D55
330
6CCE
100
AcDbEntity
  8
AM_5 寸法線
 62
     3
100
AcDbBlockReference
  2
_Open30
 10
427.2450981593105
 20
446.613890088272
 30
0.0
 41
5.0
 42
5.0
 43
5.0
  0
MTEXT
  5
6D56
330
6CCE
100
AcDbEntity
  8
AM_5 寸法線
 62
     3
100
AcDbMText
 10
418.2450981593105
 20
453.1138900882719
 30
0.0
 40
7.0
 41
0.0
 46
0.0
 71
     5
 72
     1
  1
18
  7
SEISA
 73
     1
 44
1.0
  0
POINT
  5
6D57
330
6CCE
100
AcDbEntity
  8
Defpoints
 62
     0
100
AcDbPoint
 10
409.2450981593105
 20
461.3103634229008
 30
0.0
  0
POINT
  5
6D58
330
6CCE
100
AcDbEntity
  8
Defpoints
 62
     0
100
AcDbPoint
 10
427.2450981593105
 20
461.8103634229008
 30
0.0
  0
POINT
  5
6D59
330
6CCE
100
AcDbEntity
  8
Defpoints
 62
     0
100
AcDbPoint
 10
427.2450981593105
 20
446.613890088272
 30
0.0
  0
ENDBLK
  5
6CD0
330
6CCE
100
AcDbEntity
  8
0
100
AcDbBlockEnd
  0
BLOCK
  5
6CF9
330
6CF8
100
AcDbEntity
  8
0
100
AcDbBlockBegin
  2
*D28
 70
     1
 10
0.0
 20
0.0
 30
0.0
  3
*D28
  1

  0
LINE
  5
6D1E
330
6CF8
100
AcDbEntity
  8
AM_5 寸法線
 62
     3
100
AcDbLine
 10
409.2450981593105
 20
460.0603634229008
 30
0.0
 11
409.2450981593105
 21
445.363890088272
 31
0.0
  0
LINE
  5
6D1F
330
6CF8
100
AcDbEntity
  8
AM_5 寸法線
 62
     3
100
AcDbLine
 10
395.2450981593106
 20
459.0603634229008
 30
0.0
 11
395.2450981593106
 21
445.363890088272
 31
0.0
  0
LINE
  5
6D20
330
6CF8
100
AcDbEntity
  8
AM_5 寸法線
 62
     3
100
AcDbLine
 10
414.2450981593105
 20
446.613890088272
 30
0.0
 11
419.2450981593105
 21
446.613890088272
 31
0.0
  0
LINE
  5
6D21
330
6CF8
100
AcDbEntity
  8
AM_5 寸法線
 62
     3
100
AcDbLine
 10
390.2450981593105
 20
446.613890088272
 30
0.0
 11
369.6450981593105
 21
446.613890088272
 31
0.0
  0
LINE
  5
6D22
330
6CF8
100
AcDbEntity
  8
AM_5 寸法線
 62
     3
100
AcDbLine
 10
409.2450981593105
 20
446.613890088272
 30
0.0
 11
395.2450981593106
 21
446.613890088272
 31
0.0
  0
INSERT
  5
6D23
330
6CF8
100
AcDbEntity
  8
AM_5 寸法線
 62
     3
100
AcDbBlockReference
  2
_Open30
 10
409.2450981593105
 20
446.613890088272
 30
0.0
 41
5.0
 42
5.0
 43
5.0
 50
180.0
  0
INSERT
  5
6D24
330
6CF8
100
AcDbEntity
  8
AM_5 寸法線
 62
     3
100
AcDbBlockReference
  2
_Open30
 10
395.2450981593106
 20
446.613890088272
 30
0.0
 41
5.0
 42
5.0
 43
5.0
  0
MTEXT
  5
6D25
330
6CF8
100
AcDbEntity
  8
AM_5 寸法線
 62
     3
100
AcDbMText
 10
377.4450981593105
 20
453.1138900882718
 30
0.0
 40
7.0
 41
0.0
 46
0.0
 71
     5
 72
     1
  1
14
  7
SEISA
 73
     1
 44
1.0
  0
POINT
  5
6D26
330
6CF8
100
AcDbEntity
  8
Defpoints
 62
     0
100
AcDbPoint
 10
409.2450981593105
 20
461.3103634229008
 30
0.0
  0
POINT
  5
6D27
330
6CF8
100
AcDbEntity
  8
Defpoints
 62
     0
100
AcDbPoint
 10
395.2450981593106
 20
460.3103634229007
 30
0.0
  0
POINT
  5
6D28
330
6CF8
100
AcDbEntity
  8
Defpoints
 62
     0
100
AcDbPoint
 10
395.2450981593106
 20
446.613890088272
 30
0.0
  0
ENDBLK
  5
6CFA
330
6CF8
100
AcDbEntity
  8
0
100
AcDbBlockEnd
  0
BLOCK
  5
6F0D
330
6F0C
100
AcDbEntity
  8
0
100
AcDbBlockBegin
  2
ケース
 70
     0
 10
0.0
 20
0.0
 30
0.0
  3
ケース
  1

  0
ARC
  5
6F0F
330
6F0C
100
AcDbEntity
  8
AM_11 想像線
 48
0.1
100
AcDbCircle
 10
7.365338046443866
 20
-6.5
 30
0.0
 40
1.0
100
AcDbArc
 50
0.0
 51
90.0
  0
LINE
  5
6F10
330
6F0C
100
AcDbEntity
  8
AM_11 想像線
 48
0.1
100
AcDbLine
 10
0.0
 20
0.0
 30
0.0
 11
17.36533804644387
 21
0.0
 31
0.0
  0
LINE
  5
6F11
330
6F0C
100
AcDbEntity
  8
AM_11 想像線
 48
0.1
100
AcDbLine
 10
0.0
 20
-9.600000000000024
 30
0.0
 11
3.365338046443866
 21
-9.600000000000024
 31
0.0
  0
LINE
  5
6F12
330
6F0C
100
AcDbEntity
  8
AM_11 想像線
 48
0.1
100
AcDbLine
 10
0.0
 20
-8.0
 30
0.0
 11
6.365338046443866
 21
-8.0
 31
0.0
  0
LINE
  5
6F13
330
6F0C
100
AcDbEntity
  8
AM_11 想像線
 48
0.1
100
AcDbLine
 10
0.0
 20
-6.0
 30
0.0
 11
4.365338046443866
 21
-6.0
 31
0.0
  0
LINE
  5
6F14
330
6F0C
100
AcDbEntity
  8
AM_11 想像線
 48
0.1
100
AcDbLine
 10
4.365338046443866
 20
-6.938723865704105
 30
0.0
 11
4.365338046443866
 21
-8.600000000000022
 31
0.0
  0
LINE
  5
6F15
330
6F0C
100
AcDbEntity
  8
AM_11 想像線
 48
0.1
100
AcDbLine
 10
4.365338046443866
 20
-8.600000000000022
 30
0.0
 11
3.365338046443866
 21
-9.600000000000024
 31
0.0
  0
ARC
  5
6F16
330
6F0C
100
AcDbEntity
  8
AM_11 想像線
 48
0.1
100
AcDbCircle
 10
5.365338046443866
 20
-6.5
 30
0.0
 40
1.0
100
AcDbArc
 50
90.0
 51
180.0
  0
LINE
  5
6F17
330
6F0C
100
AcDbEntity
  8
AM_11 想像線
 48
0.1
100
AcDbLine
 10
7.365338046443866
 20
-5.5
 30
0.0
 11
5.365338046443866
 21
-5.5
 31
0.0
  0
ARC
  5
6F18
330
6F0C
100
AcDbEntity
  8
AM_11 想像線
 48
0.1
100
AcDbCircle
 10
17.36533804644387
 20
-3.0
 30
0.0
 40
3.0
100
AcDbArc
 50
0.0
 51
90.0
  0
LINE
  5
6F19
330
6F0C
100
AcDbEntity
  8
AM_11 想像線
 48
0.1
100
AcDbLine
 10
17.66533804644382
 20
-7.800000000000012
 30
0.0
 11
11.06533804644391
 21
-7.800000000000012
 31
0.0
  0
LINE
  5
6F1A
330
6F0C
100
AcDbEntity
  8
AM_11 想像線
 48
0.1
100
AcDbLine
 10
8.365338046443866
 20
-11.5
 30
0.0
 11
8.365338046443866
 21
-6.5
 31
0.0
  0
LINE
  5
6F1B
330
6F0C
100
AcDbEntity
  8
AM_11 想像線
 48
0.1
100
AcDbLine
 10
10.56533804644391
 20
-11.5
 30
0.0
 11
8.365338046443866
 21
-11.5
 31
0.0
  0
LINE
  5
6F1C
330
6F0C
100
AcDbEntity
  8
AM_11 想像線
 48
0.1
100
AcDbLine
 10
10.56533804644391
 20
-8.300000000000011
 30
0.0
 11
10.56533804644391
 21
-11.5
 31
0.0
  0
ARC
  5
6F1D
330
6F0C
100
AcDbEntity
  8
AM_11 想像線
 48
0.1
100
AcDbCircle
 10
11.06533804644391
 20
-8.300000000000011
 30
0.0
 40
0.5
100
AcDbArc
 50
90.0
 51
180.0
  0
LINE
  5
6F1E
330
6F0C
100
AcDbEntity
  8
AM_11 想像線
 48
0.1
100
AcDbLine
 10
10.56533804644391
 20
-11.5
 30
0.0
 11
10.56533804644391
 21
-12.5
 31
0.0
  0
LINE
  5
6F1F
330
6F0C
100
AcDbEntity
  8
AM_11 想像線
 48
0.1
100
AcDbLine
 10
8.365338046443866
 20
-11.5
 30
0.0
 11
8.365338046443866
 21
-12.5
 31
0.0
  0
ARC
  5
6F20
330
6F0C
100
AcDbEntity
  8
AM_11 想像線
 48
0.1
100
AcDbCircle
 10
17.66533804644382
 20
-8.300000000000011
 30
0.0
 40
0.5
100
AcDbArc
 50
0.0
 51
90.0
  0
LINE
  5
6F21
330
6F0C
100
AcDbEntity
  8
AM_11 想像線
 48
0.1
100
AcDbLine
 10
18.16533804644382
 20
-11.5
 30
0.0
 11
18.16533804644382
 21
-8.300000000000011
 31
0.0
  0
LINE
  5
6F22
330
6F0C
100
AcDbEntity
  8
AM_11 想像線
 48
0.1
100
AcDbLine
 10
20.36533804644387
 20
-11.5
 30
0.0
 11
18.16533804644382
 21
-11.5
 31
0.0
  0
LINE
  5
6F23
330
6F0C
100
AcDbEntity
  8
AM_11 想像線
 48
0.1
100
AcDbLine
 10
20.36533804644387
 20
-3.0
 30
0.0
 11
20.36533804644387
 21
-11.5
 31
0.0
  0
LINE
  5
6F24
330
6F0C
100
AcDbEntity
  8
AM_11 想像線
 48
0.1
100
AcDbLine
 10
20.36533804644387
 20
-11.5
 30
0.0
 11
20.36533804644387
 21
-12.5
 31
0.0
  0
LINE
  5
6F25
330
6F0C
100
AcDbEntity
  8
AM_11 想像線
 48
0.1
100
AcDbLine
 10
18.16533804644382
 20
-11.5
 30
0.0
 11
18.16533804644382
 21
-12.5
 31
0.0
  0
LINE
  5
6F26
330
6F0C
100
AcDbEntity
  8
AM_11 想像線
 48
0.1
100
AcDbLine
 10
4.365338046443866
 20
-6.5
 30
0.0
 11
4.365338060164731
 21
-6.93872386816065
 31
0.0
  0
ENDBLK
  5
6F0E
330
6F0C
100
AcDbEntity
  8
0
100
AcDbBlockEnd
  0
ENDSEC
  0
SECTION
  2
ENTITIES
  0
LINE
  5
40A7
330
1F
100
AcDbEntity
  8
AM_7 中心線
100
AcDbLine
 10
390.2450981593105
 20
413.8103634229008
 30
0.0
 11
478.6474311593105
 21
413.8103634229008
 31
0.0
  0
LINE
  5
40BE
330
1F
100
AcDbEntity
  8
AM_7 中心線
100
AcDbLine
 10
300.2450981593106
 20
413.8103634229008
 30
0.0
 11
390.2450981593105
 21
413.8103634229008
 31
0.0
  0
INSERT
  5
4888
102
{ACAD_REACTORS
330
4F74
330
4F8C
330
5038
330
5098
330
5357
102
}
330
1F
100
AcDbEntity
  8
AM_0 外形線1
100
AcDbBlockReference
  2
ケースＡ SEM160
 10
390.2450981593105
 20
413.8103634229008
 30
0.0
  0
INSERT
  5
4A0D
102
{ACAD_REACTORS
330
4DCE
330
4E0A
330
501C
330
5038
330
5080
330
5098
330
50C8
330
52F9
102
}
330
1F
100
AcDbEntity
  8
AM_0 外形線1
100
AcDbBlockReference
  2
リジット SEM160
 10
390.2450981593105
 20
413.8103634229008
 30
0.0
  0
INSERT
  5
4C0C
330
1F
100
AcDbEntity
  8
AM_0 外形線1
100
AcDbBlockReference
  2
リーマボルト SEM160 M8
 10
375.2450981593105
 20
485.3103634229007
 30
0.0
  0
DIMENSION
  5
4DB7
102
{ACAD_XDICTIONARY
360
4DC4
102
}
102
{ACAD_REACTORS
330
4DCE
102
}
330
1F
100
AcDbEntity
  8
AM_5 寸法線
100
AcDbDimension
  2
*D10
 10
265.2450981593105
 20
466.3103634229008
 30
0.0
 11
258.7450981593104
 21
413.8103634229008
 31
0.0
 70
    32
  1
%%c<>
 71
     5
 42
105.0
 73
     0
 74
     0
 75
     0
  3
SEISA$0
100
AcDbAlignedDimension
 13
308.2450981593106
 23
361.3103634229008
 33
0.0
 14
308.2450981593106
 24
466.3103634229008
 34
0.0
 50
90.0
100
AcDbRotatedDimension
1001
ACAD_DSTYLE_DIMINSPECT
1070
   396
1000
100%
1070
   395
1000

1070
   394
1070
    33
1070
   393
1070
     0
  0
DIMENSION
  5
4DF3
102
{ACAD_XDICTIONARY
360
4E00
102
}
102
{ACAD_REACTORS
330
4E0A
102
}
330
1F
100
AcDbEntity
  8
AM_5 寸法線
100
AcDbDimension
  2
*D11
 10
385.2450981593106
 20
420.4288286220929
 30
0.0
 11
345.2450981593106
 21
426.928828622093
 31
0.0
 70
    32
 71
     5
 42
79.99999999999992
 73
     0
 74
     0
 75
     0
  3
SEISA$0
100
AcDbAlignedDimension
 13
305.2450981593106
 23
413.8103634229008
 33
0.0
 14
385.2450981593106
 24
413.8103634229008
 34
0.0
100
AcDbRotatedDimension
  0
DIMENSION
  5
4F5D
102
{ACAD_XDICTIONARY
360
4F6A
102
}
102
{ACAD_REACTORS
330
4F74
102
}
330
1F
100
AcDbEntity
  8
AM_5 寸法線
100
AcDbDimension
  2
*D12
 10
535.2450981593107
 20
353.8103634229008
 30
0.0
 11
535.2450981593106
 21
413.8103634229008
 31
0.0
 70
   160
  1
%%c<>
 71
     5
 42
120.0
 73
     0
 74
     0
 75
     0
  3
SEISA$0
100
AcDbAlignedDimension
 13
439.2450981593105
 23
473.8103634229008
 33
0.0
 14
439.2450981593105
 24
353.8103634229008
 34
0.0
 50
90.0
100
AcDbRotatedDimension
1001
ACAD
1000
DSTYLE
1002
{
1070
   279
1070
     0
1002
}
1001
ACAD_DSTYLE_DIMINSPECT
1070
   396
1000
100%
1070
   395
1000

1070
   394
1070
    33
1070
   393
1070
     0
  0
DIMENSION
  5
4F75
102
{ACAD_XDICTIONARY
360
4F82
102
}
102
{ACAD_REACTORS
330
4F8C
102
}
330
1F
100
AcDbEntity
  8
AM_5 寸法線
100
AcDbDimension
  2
*D13
 10
555.2450981593108
 20
333.8103634229009
 30
0.0
 11
555.2450981593107
 21
413.8103634229008
 31
0.0
 70
   160
  1
%%c<>
 71
     5
 42
160.0
 73
     0
 74
     0
 75
     0
  3
SEISA$0
100
AcDbAlignedDimension
 13
404.7450981593105
 23
493.8103634229007
 33
0.0
 14
404.7450981593105
 24
333.8103634229009
 34
0.0
 50
90.0
100
AcDbRotatedDimension
1001
ACAD
1000
DSTYLE
1002
{
1070
   279
1070
     0
1002
}
1001
ACAD_DSTYLE_DIMINSPECT
1070
   396
1000
100%
1070
   395
1000

1070
   394
1070
    33
1070
   393
1070
     0
  0
DIMENSION
  5
5001
102
{ACAD_XDICTIONARY
360
5010
102
}
102
{ACAD_REACTORS
330
501C
102
}
330
1F
100
AcDbEntity
  8
AM_5 寸法線
100
AcDbDimension
  2
*D14
 10
375.2450981593105
 20
303.8103634229009
 30
0.0
 11
367.7654044857563
 21
310.3532240198126
 31
0.0
 70
   160
 71
     5
 42
15.0
 73
     0
 74
     0
 75
     0
  3
SEISA$0
100
AcDbAlignedDimension
 13
390.2450981593105
 23
334.3103634229009
 33
0.0
 14
375.2450981593105
 24
334.3103634229009
 34
0.0
100
AcDbRotatedDimension
1001
ACAD_DSTYLE_DIMINSPECT
1070
   396
1000
100%
1070
   395
1000

1070
   394
1070
    33
1070
   393
1070
     0
1001
ACAD
1000
DSTYLE
1002
{
1070
   173
1070
     1
1070
   279
1070
     2
1070
   342
1005
0
1070
   343
1005
62FC
1070
   344
1005
69
1002
}
  0
DIMENSION
  5
501D
102
{ACAD_XDICTIONARY
360
502C
102
}
102
{ACAD_REACTORS
330
5038
102
}
330
1F
100
AcDbEntity
  8
AM_5 寸法線
100
AcDbDimension
  2
*D15
 10
405.2450981593105
 20
303.8103634229009
 30
0.0
 11
412.4285104765153
 21
310.3544973489518
 31
0.0
 70
   160
 71
     5
 42
15.0
 73
     0
 74
     0
 75
     0
  3
SEISA$0
100
AcDbAlignedDimension
 13
390.2450981593105
 23
334.3103634229009
 33
0.0
 14
405.2450981593105
 24
334.3103634229009
 34
0.0
100
AcDbRotatedDimension
1001
ACAD_DSTYLE_DIMINSPECT
1070
   396
1000
100%
1070
   395
1000

1070
   394
1070
    33
1070
   393
1070
     0
1001
ACAD
1000
DSTYLE
1002
{
1070
   173
1070
     1
1070
   279
1070
     2
1070
   342
1005
0
1070
   343
1005
62FC
1070
   344
1005
69
1002
}
  0
DIMENSION
  5
5069
102
{ACAD_XDICTIONARY
360
5076
102
}
102
{ACAD_REACTORS
330
5080
102
}
330
1F
100
AcDbEntity
  8
AM_5 寸法線
100
AcDbDimension
  2
*D16
 10
305.2450981593106
 20
283.8103634229009
 30
0.0
 11
347.7450981593106
 21
283.8103634229009
 31
0.0
 70
   160
 71
     5
 42
84.99999999999992
 73
     0
 74
     0
 75
     0
  3
SEISA$0
100
AcDbAlignedDimension
 13
390.2450981593105
 23
334.3103634229009
 33
0.0
 14
305.2450981593106
 24
364.3103634229008
 34
0.0
100
AcDbRotatedDimension
1001
ACAD
1000
DSTYLE
1002
{
1070
   279
1070
     0
1002
}
  0
DIMENSION
  5
5081
102
{ACAD_XDICTIONARY
360
508E
102
}
102
{ACAD_REACTORS
330
5098
102
}
330
1F
100
AcDbEntity
  8
AM_5 寸法線
100
AcDbDimension
  2
*D17
 10
442.2450981593105
 20
283.8103634229009
 30
0.0
 11
416.2450981593105
 21
283.8103634229009
 31
0.0
 70
   160
 71
     5
 42
52.0
 73
     0
 74
     0
 75
     0
  3
SEISA$0
100
AcDbAlignedDimension
 13
390.2450981593105
 23
334.783283720905
 33
0.0
 14
442.2450981593105
 24
358.2536259229008
 34
0.0
100
AcDbRotatedDimension
1001
ACAD
1000
DSTYLE
1002
{
1070
   279
1070
     0
1002
}
  0
DIMENSION
  5
5099
330
1F
100
AcDbEntity
  8
AM_5 寸法線
100
AcDbDimension
  2
*D18
 10
475.2450981593105
 20
283.8103634229009
 30
0.0
 11
458.7450981593105
 21
283.8103634229009
 31
0.0
 70
   160
 71
     5
 42
33.0
 73
     0
 74
     0
 75
     0
  3
SEISA$0
100
AcDbAlignedDimension
 13
442.2450981593105
 23
357.0036259229008
 33
0.0
 14
475.2450981593105
 24
369.9103634229008
 34
0.0
100
AcDbRotatedDimension
1001
ACAD
1000
DSTYLE
1002
{
1070
   279
1070
     0
1002
}
  0
DIMENSION
  5
50B1
102
{ACAD_XDICTIONARY
360
50BE
102
}
102
{ACAD_REACTORS
330
50C8
102
}
330
1F
100
AcDbEntity
  8
AM_5 寸法線
100
AcDbDimension
  2
*D19
 10
475.2450981593105
 20
263.8103634229009
 30
0.0
 11
390.2450981593106
 21
263.8103634229009
 31
0.0
 70
   160
 71
     5
 42
169.9999999999999
 73
     0
 74
     0
 75
     0
  3
SEISA$0
100
AcDbAlignedDimension
 13
305.2450981593106
 23
364.3103634229008
 33
0.0
 14
475.2450981593105
 24
369.9103634229008
 34
0.0
100
AcDbRotatedDimension
1001
ACAD
1000
DSTYLE
1002
{
1070
   279
1070
     0
1002
}
  0
INSERT
  5
52D5
102
{ACAD_REACTORS
330
52F9
330
5311
330
5357
330
5406
330
6CDB
330
6D07
102
}
330
1F
100
AcDbEntity
  8
AM_0 外形線1
100
AcDbBlockReference
  2
センタ SEM160
 10
395.2450981593106
 20
413.8103634229008
 30
0.0
  0
DIMENSION
  5
52DE
102
{ACAD_XDICTIONARY
360
52ED
102
}
102
{ACAD_REACTORS
330
52F9
102
}
330
1F
100
AcDbEntity
  8
AM_5 寸法線
100
AcDbDimension
  2
*D21
 10
395.2450981593106
 20
420.4288286220929
 30
0.0
 11
404.6976794420515
 21
427.4576914322502
 31
0.0
 70
   160
 71
     5
 42
10.0
 73
     0
 74
     0
 75
     0
  3
SEISA$0
100
AcDbAlignedDimension
 13
385.2450981593106
 23
413.8103634229008
 33
0.0
 14
395.2450981593106
 24
413.8103634229008
 34
0.0
100
AcDbRotatedDimension
1001
ACAD
1000
DSTYLE
1002
{
1070
   279
1070
     2
1002
}
  0
DIMENSION
  5
52FA
102
{ACAD_XDICTIONARY
360
5307
102
}
102
{ACAD_REACTORS
330
5311
102
}
330
1F
100
AcDbEntity
  8
AM_5 寸法線
100
AcDbDimension
  2
*D22
 10
475.2450981593105
 20
420.4288286220929
 30
0.0
 11
435.2450981593105
 21
426.928828622093
 31
0.0
 70
    32
 71
     5
 42
80.0
 73
     0
 74
     0
 75
     0
  3
SEISA$0
100
AcDbAlignedDimension
 13
395.2450981593106
 23
413.8103634229008
 33
0.0
 14
475.2450981593105
 24
413.8103634229008
 34
0.0
100
AcDbRotatedDimension
  0
DIMENSION
  5
533C
102
{ACAD_XDICTIONARY
360
534B
102
}
102
{ACAD_REACTORS
330
5357
102
}
330
1F
100
AcDbEntity
  8
AM_5 寸法線
100
AcDbDimension
  2
*D23
 10
430.2450981593105
 20
446.613890088272
 30
0.0
 11
445.3450981593105
 21
453.1138900882719
 31
0.0
 70
    32
 71
     5
 42
3.0
 73
     0
 74
     0
 75
     0
  3
SEISA$0
100
AcDbAlignedDimension
 13
427.2450981593105
 23
461.8103634229008
 33
0.0
 14
430.2450981593105
 24
461.3103634229008
 34
0.0
100
AcDbRotatedDimension
  0
DIMENSION
  5
53EF
102
{ACAD_XDICTIONARY
360
53FC
102
}
102
{ACAD_REACTORS
330
5406
102
}
330
1F
100
AcDbEntity
  8
AM_5 寸法線
100
AcDbDimension
  2
*D24
 10
515.2450981593106
 20
366.3103634229008
 30
0.0
 11
508.7450981593105
 21
413.8103634229008
 31
0.0
 70
    32
  1
%%c<>
 71
     5
 42
95.0
 73
     0
 74
     0
 75
     0
  3
SEISA$0
100
AcDbAlignedDimension
 13
449.2450981593105
 23
461.3103634229008
 33
0.0
 14
449.2450981593105
 24
366.3103634229008
 34
0.0
 50
90.0
100
AcDbRotatedDimension
1001
ACAD_DSTYLE_DIMINSPECT
1070
   396
1000
100%
1070
   395
1000

1070
   394
1070
    33
1070
   393
1070
     0
  0
LINE
  5
6522
330
1F
100
AcDbEntity
  8
AM_5 寸法線
100
AcDbLine
 10
365.2450981593105
 20
303.8103634229009
 30
0.0
 11
362.2305442252705
 21
303.8103634229009
 31
0.0
  0
LINE
  5
6523
330
1F
100
AcDbEntity
  8
AM_5 寸法線
100
AcDbLine
 10
415.2450981593105
 20
303.8103634229009
 30
0.0
 11
418.9348504017856
 21
303.8103634229009
 31
0.0
  0
MTEXT
  5
6C4B
330
1F
100
AcDbEntity
  8
AM_6 文字
100
AcDbMText
 10
497.0986812233018
 20
313.9801962028478
 30
0.0
 40
7.0
 41
195.5683143567391
 46
61.02806383705559
 71
     1
 72
     5
  1
{\W0.6;TYPE:SEM160/SEMH160\PSHAFT DIA:MAX/MIN \P RIGID SIDE φ75/φ22\P COUPLING CENTER SIDE φ65/φ22}
  7
SEISA
 73
     1
 44
1.0
  0
DIMENSION
  5
6C4C
330
1F
100
AcDbEntity
  8
AM_5 寸法線
100
AcDbDimension
  2
*D26
 10
482.2450981593106
 20
518.2902654801985
 30
0.0
 11
497.3450981593106
 21
524.7902654801984
 31
0.0
 70
    32
 71
     5
 42
7.000000000000056
 73
     0
 74
     0
 75
     0
  3
SEISA$0
100
AcDbAlignedDimension
 13
475.2450981593105
 23
457.7103634229009
 33
0.0
 14
482.2450981593106
 24
470.8103634229008
 34
0.0
100
AcDbRotatedDimension
1001
ACAD_DSTYLE_DIMINSPECT
1070
   396
1000
100%
1070
   395
1000

1070
   394
1070
    33
1070
   393
1070
     0
  0
DIMENSION
  5
6CCD
102
{ACAD_XDICTIONARY
360
6CDA
102
}
102
{ACAD_REACTORS
330
6CDB
102
}
330
1F
100
AcDbEntity
  8
AM_5 寸法線
100
AcDbDimension
  2
*D27
 10
427.2450981593105
 20
446.613890088272
 30
0.0
 11
418.2450981593105
 21
453.1138900882719
 31
0.0
 70
    32
 71
     5
 42
18.0
 73
     0
 74
     0
 75
     0
  3
SEISA$0
100
AcDbAlignedDimension
 13
409.2450981593105
 23
461.3103634229008
 33
0.0
 14
427.2450981593105
 24
461.8103634229008
 34
0.0
 50
0.0000000000001132
100
AcDbRotatedDimension
1001
ACAD_DSTYLE_DIMINSPECT
1070
   396
1000
100%
1070
   395
1000

1070
   394
1070
    33
1070
   393
1070
     0
  0
DIMENSION
  5
6CF7
102
{ACAD_XDICTIONARY
360
6D06
102
}
102
{ACAD_REACTORS
330
6D07
102
}
330
1F
100
AcDbEntity
  8
AM_5 寸法線
100
AcDbDimension
  2
*D28
 10
395.2450981593106
 20
446.613890088272
 30
0.0
 11
377.4450981593105
 21
453.1138900882718
 31
0.0
 70
    32
 71
     5
 42
14.0
 73
     0
 74
     0
 75
     0
  3
SEISA$0
100
AcDbAlignedDimension
 13
409.2450981593105
 23
461.3103634229008
 33
0.0
 14
395.2450981593106
 24
460.3103634229007
 34
0.0
 50
0.0000000000001132
100
AcDbRotatedDimension
1001
ACAD_DSTYLE_DIMINSPECT
1070
   396
1000
100%
1070
   395
1000

1070
   394
1070
    33
1070
   393
1070
     0
  0
INSERT
  5
6F27
330
1F
100
AcDbEntity
  8
AM_5 寸法線
100
AcDbBlockReference
  2
ケース
 10
461.8797601128666
 20
473.8103634229008
 30
0.0
  0
ENDSEC
  0
SECTION
  2
OBJECTS
  0
DICTIONARY
  5
C
330
0
100
AcDbDictionary
281
     1
  3
ACAD_COLOR
350
C5
  3
ACAD_GROUP
350
D
  3
ACAD_LAYOUT
350
1A
  3
ACAD_MATERIAL
350
C4
  3
ACAD_MLEADERSTYLE
350
2D5
  3
ACAD_MLINESTYLE
350
17
  3
ACAD_PLOTSETTINGS
350
19
  3
ACAD_PLOTSTYLENAME
350
E
  3
ACAD_SCALELIST
350
2B3
  3
ACAD_TABLESTYLE
350
121
  3
ACAD_VISUALSTYLE
350
27F
  3
ACDB_RECOMPOSE_DATA
350
2F7
  3
AcDbVariableDictionary
350
34
  3
AcmDictionary
350
49
  3
AMG
350
2B
  3
AMGSNAPSETTINGS
350
1DE
  0
DICTIONARY
  5
BF
330
2
100
AcDbDictionary
280
     1
281
     1
  3
ACAD_LAYERSTATES
360
522E
  3
AMLAYER_GROUPCOLORS
360
C0
  0
DICTIONARY
  5
29F7
330
10
100
AcDbDictionary
280
     1
281
     1
  3
ADSK_XREC_LAYER_RECONCILED
360
29F8
  0
DICTIONARY
  5
29F9
330
81
100
AcDbDictionary
280
     1
281
     1
  3
ADSK_XREC_LAYER_RECONCILED
360
29FA
  0
DICTIONARY
  5
82
330
1F
100
AcDbDictionary
280
     1
281
     1
  3
ACAD_SORTENTS
360
A41
  0
DICTIONARY
  5
340B
330
340A
100
AcDbDictionary
280
     1
281
     1
  3
ACAD_SORTENTS
360
5C47
  0
DICTIONARY
  5
4909
330
484A
100
AcDbDictionary
280
     1
281
     1
  3
ACAD_SORTENTS
360
677C
  0
DICTIONARY
  5
4A50
330
49F1
100
AcDbDictionary
280
     1
281
     1
  3
ACAD_SORTENTS
360
6E40
  0
DICTIONARY
  5
4C79
330
4BD9
100
AcDbDictionary
280
     1
281
     1
  3
ACAD_SORTENTS
360
6820
  0
DICTIONARY
  5
5F05
330
5294
100
AcDbDictionary
280
     1
281
     1
  3
ACAD_SORTENTS
360
6E9C
  0
DICTIONARY
  5
4DC4
330
4DB7
100
AcDbDictionary
280
     1
281
     1
  3
ACAD_DIMASSOC
360
4DCE
  0
DICTIONARY
  5
4E00
330
4DF3
100
AcDbDictionary
280
     1
281
     1
  3
ACAD_DIMASSOC
360
4E0A
  0
DICTIONARY
  5
4F6A
330
4F5D
100
AcDbDictionary
280
     1
281
     1
  3
ACAD_DIMASSOC
360
4F74
  0
DICTIONARY
  5
4F82
330
4F75
100
AcDbDictionary
280
     1
281
     1
  3
ACAD_DIMASSOC
360
4F8C
  0
DICTIONARY
  5
5010
330
5001
100
AcDbDictionary
280
     1
281
     1
  3
ACAD_DIMASSOC
360
501C
  0
DICTIONARY
  5
502C
330
501D
100
AcDbDictionary
280
     1
281
     1
  3
ACAD_DIMASSOC
360
5038
  0
DICTIONARY
  5
5076
330
5069
100
AcDbDictionary
280
     1
281
     1
  3
ACAD_DIMASSOC
360
5080
  0
DICTIONARY
  5
508E
330
5081
100
AcDbDictionary
280
     1
281
     1
  3
ACAD_DIMASSOC
360
5098
  0
DICTIONARY
  5
50BE
330
50B1
100
AcDbDictionary
280
     1
281
     1
  3
ACAD_DIMASSOC
360
50C8
  0
DICTIONARY
  5
52ED
330
52DE
100
AcDbDictionary
280
     1
281
     1
  3
ACAD_DIMASSOC
360
52F9
  0
DICTIONARY
  5
5307
330
52FA
100
AcDbDictionary
280
     1
281
     1
  3
ACAD_DIMASSOC
360
5311
  0
DICTIONARY
  5
534B
330
533C
100
AcDbDictionary
280
     1
281
     1
  3
ACAD_DIMASSOC
360
5357
  0
DICTIONARY
  5
53FC
330
53EF
100
AcDbDictionary
280
     1
281
     1
  3
ACAD_DIMASSOC
360
5406
  0
DICTIONARY
  5
6CDA
330
6CCD
100
AcDbDictionary
280
     1
281
     1
  3
ACAD_DIMASSOC
360
6CDB
  0
DICTIONARY
  5
6D06
330
6CF7
100
AcDbDictionary
280
     1
281
     1
  3
ACAD_DIMASSOC
360
6D07
  0
DICTIONARY
  5
C5
102
{ACAD_REACTORS
330
C
102
}
330
C
100
AcDbDictionary
281
     1
  0
DICTIONARY
  5
D
102
{ACAD_REACTORS
330
C
102
}
330
C
100
AcDbDictionary
281
     1
  0
DICTIONARY
  5
1A
102
{ACAD_REACTORS
330
C
102
}
330
C
100
AcDbDictionary
281
     1
  3
Model
350
22
  3
レイアウト1
350
1E
  3
レイアウト2
350
26
  0
DICTIONARY
  5
C4
102
{ACAD_REACTORS
330
C
102
}
330
C
100
AcDbDictionary
281
     1
  3
ByBlock
350
27D
  3
ByLayer
350
27C
  3
Global
350
27E
  0
DICTIONARY
  5
2D5
102
{ACAD_REACTORS
330
C
102
}
330
C
100
AcDbDictionary
281
     1
  3
Standard
350
2D6
  0
DICTIONARY
  5
17
102
{ACAD_REACTORS
330
C
102
}
330
C
100
AcDbDictionary
281
     1
  3
Standard
350
18
  0
DICTIONARY
  5
19
102
{ACAD_REACTORS
330
C
102
}
330
C
100
AcDbDictionary
281
     1
  3
SEISA基本
350
1C7E
  0
ACDBDICTIONARYWDFLT
  5
E
102
{ACAD_REACTORS
330
C
102
}
330
C
100
AcDbDictionary
281
     1
  3
Normal
350
F
100
AcDbDictionaryWithDefault
340
F
  0
DICTIONARY
  5
2B3
102
{ACAD_REACTORS
330
C
102
}
330
C
100
AcDbDictionary
281
     1
  3
*A1
350
3621
  3
A0
350
2B4
  3
A1
350
2B5
  3
A2
350
2B6
  3
A3
350
2B7
  3
A4
350
2B8
  3
A5
350
2B9
  3
A6
350
2BA
  3
A7
350
2BB
  3
A8
350
2BC
  3
A9
350
2BD
  3
B0
350
2BE
  3
B1
350
2BF
  3
B2
350
2C0
  3
B3
350
2C1
  3
B4
350
2C2
  3
B5
350
2C3
  3
B6
350
2C4
  3
B7
350
2C5
  3
B8
350
2C6
  3
B9
350
2C7
  3
C0
350
2C8
  3
C1
350
2C9
  3
C2
350
2CA
  3
C3
350
2CB
  3
C4
350
2CC
  3
C5
350
2CD
  3
C6
350
2CE
  3
C7
350
2CF
  3
C8
350
2D0
  3
C9
350
2D1
  3
D0
350
2D2
  3
D1
350
2D3
  3
D2
350
2D4
  0
DICTIONARY
  5
121
102
{ACAD_REACTORS
330
C
102
}
330
C
100
AcDbDictionary
281
     1
  3
Standard
350
122
  0
DICTIONARY
  5
27F
102
{ACAD_REACTORS
330
C
102
}
330
C
100
AcDbDictionary
281
     1
  3
2dWireframe
350
285
  3
3D Hidden
350
287
  3
3dWireframe
350
286
  3
Basic
350
284
  3
Brighten
350
28B
  3
ColorChange
350
28F
  3
Conceptual
350
288
  3
Dim
350
28A
  3
Facepattern
350
28E
  3
Flat
350
280
  3
FlatWithEdges
350
281
  3
Gouraud
350
282
  3
GouraudWithEdges
350
283
  3
Linepattern
350
28D
  3
Realistic
350
289
  3
Thicken
350
28C
  0
XRECORD
  5
2F7
102
{ACAD_REACTORS
330
C
102
}
330
C
100
AcDbXrecord
280
     1
 90
        1
330
122
  0
DICTIONARY
  5
34
102
{ACAD_REACTORS
330
C
102
}
330
C
100
AcDbDictionary
281
     1
  3
CANNOSCALE
350
2FA
  3
CMLEADERSTYLE
350
2F8
  3
CTABLESTYLE
350
140
  3
DIMASSOC
350
AC
  3
INDEXCTL
350
35
  3
LAYEREVAL
350
6017
  3
LAYERNOTIFY
350
6018
  3
LIGHTINGUNITS
350
2FB
  3
MSLTSCALE
350
2F9
  0
DICTIONARY
  5
49
102
{ACAD_REACTORS
330
C
102
}
330
C
100
AcDbDictionary
281
     1
  3
AcmBOM
350
161B
  3
AcmStdDictionary
350
4A
  3
AMDTSECTSYM_ARROWCOLOR
350
12B
  0
DICTIONARY
  5
2B
102
{ACAD_REACTORS
330
C
102
}
330
C
100
AcDbDictionary
281
     1
  0
DICTIONARY
  5
1DE
102
{ACAD_REACTORS
330
C
102
}
330
C
100
AcDbDictionary
281
     1
  0
DICTIONARY
  5
522E
102
{ACAD_REACTORS
330
BF
102
}
330
BF
100
AcDbDictionary
281
     1
  0
DICTIONARY
  5
C0
102
{ACAD_REACTORS
330
BF
102
}
330
BF
100
AcDbDictionary
280
     1
281
     1
  0
XRECORD
  5
29F8
102
{ACAD_REACTORS
330
29F7
102
}
330
29F7
100
AcDbXrecord
280
     1
290
     1
  0
XRECORD
  5
29FA
102
{ACAD_REACTORS
330
29F9
102
}
330
29F9
100
AcDbXrecord
280
     1
290
     1
  0
SORTENTSTABLE
  5
A41
102
{ACAD_REACTORS
330
82
102
}
330
82
100
AcDbSortentsTable
330
1F
331
4A0D
  5
4B20
331
5081
  5
5099
331
40BE
  5
40BE
331
4DF3
  5
4E94
331
52FA
  5
533C
331
4F5D
  5
4F75
331
5099
  5
50B1
331
533C
  5
53DD
331
501D
  5
5069
331
4888
  5
4A0D
331
53EF
  5
549E
331
5069
  5
5081
331
5001
  5
501D
331
6522
  5
6AD8
331
4F75
  5
4FFF
331
6C4B
  5
6C4B
331
6CCD
  5
6CCD
331
52DE
  5
52FA
331
50B1
  5
5119
331
52D5
  5
52DE
331
6CF7
  5
6CF7
331
4DB7
  5
4DE9
331
4C0C
  5
4CF9
331
40A7
  5
40A7
331
6C4C
  5
6C4C
331
6523
  5
6AD9
  0
SORTENTSTABLE
  5
5C47
102
{ACAD_REACTORS
330
340B
102
}
330
340B
100
AcDbSortentsTable
330
340A
  0
SORTENTSTABLE
  5
677C
102
{ACAD_REACTORS
330
4909
102
}
330
4909
100
AcDbSortentsTable
330
484A
  0
SORTENTSTABLE
  5
6E40
102
{ACAD_REACTORS
330
4A50
102
}
330
4A50
100
AcDbSortentsTable
330
49F1
331
4A4D
  5
4A4E
331
4A4E
  5
4A4D
  0
SORTENTSTABLE
  5
6820
102
{ACAD_REACTORS
330
4C79
102
}
330
4C79
100
AcDbSortentsTable
330
4BD9
  0
SORTENTSTABLE
  5
6E9C
102
{ACAD_REACTORS
330
5F05
102
}
330
5F05
100
AcDbSortentsTable
330
5294
331
5299
  5
529B
331
52AD
  5
52AF
331
52A2
  5
52A6
331
52AE
  5
6CCA
331
529A
  5
529C
331
529B
  5
529D
331
52AF
  5
6CCB
331
52A4
  5
52A7
331
529C
  5
529E
331
52A8
  5
52AA
331
529D
  5
529F
331
52A9
  5
52AB
331
52A6
  5
52A8
331
529E
  5
52A0
331
52AA
  5
52AC
331
6CCA
  5
5298
331
52A7
  5
52A9
331
529F
  5
52A1
331
52AB
  5
52AD
331
6CCB
  5
5297
331
5297
  5
5299
331
52A0
  5
52A2
331
52AC
  5
52AE
331
5298
  5
529A
331
52A1
  5
52A4
  0
DIMASSOC
  5
4DCE
102
{ACAD_REACTORS
330
4DC4
102
}
330
4DC4
100
AcDbDimAssoc
330
4DB7
 90
        3
 70
     0
 71
     0
  1
AcDbOsnapPointRef
 72
     1
331
4A0D
331
49FA
 73
     2
 91
        0
 40
1.0
 10
0.0
 20
0.0
 30
2.000000000000000E+50
 75
     0
  1
AcDbOsnapPointRef
 72
     1
331
4A0D
331
49F9
 73
     2
 91
        0
 40
1.0
 10
0.0
 20
0.0
 30
2.000000000000000E+50
 75
     0
  0
DIMASSOC
  5
4E0A
102
{ACAD_REACTORS
330
4E00
102
}
330
4E00
100
AcDbDimAssoc
330
4DF3
 90
        3
 70
     0
 71
     0
  1
AcDbOsnapPointRef
 72
     1
331
4A0D
331
49FB
 73
     2
 91
        0
 40
1.0
 10
0.0
 20
0.0
 30
2.000000000000000E+50
 75
     0
  1
AcDbOsnapPointRef
 72
    13
331
4A0D
331
49FF
 73
     2
 91
        0
 40
0.0
 10
0.0
 20
0.0
 30
2.000000000000000E+50
 75
     0
  0
DIMASSOC
  5
4F74
102
{ACAD_REACTORS
330
4F6A
102
}
330
4F6A
100
AcDbDimAssoc
330
4F5D
 90
        3
 70
     0
 71
     0
  1
AcDbOsnapPointRef
 72
     1
331
4888
331
4869
 73
     2
 91
        0
 40
1.0
 10
0.0
 20
0.0
 30
2.000000000000000E+50
 75
     0
  1
AcDbOsnapPointRef
 72
     1
331
4888
331
4853
 73
     2
 91
        0
 40
1.0
 10
0.0
 20
0.0
 30
2.000000000000000E+50
 75
     0
  0
DIMASSOC
  5
4F8C
102
{ACAD_REACTORS
330
4F82
102
}
330
4F82
100
AcDbDimAssoc
330
4F75
 90
        3
 70
     0
 71
     0
  1
AcDbOsnapPointRef
 72
     1
331
4888
331
485B
 73
     2
 91
        0
 40
1.0
 10
0.0
 20
0.0
 30
2.000000000000000E+50
 75
     0
  1
AcDbOsnapPointRef
 72
     1
331
4888
331
484F
 73
     2
 91
        0
 40
1.0
 10
0.0
 20
0.0
 30
2.000000000000000E+50
 75
     0
  0
DIMASSOC
  5
501C
102
{ACAD_REACTORS
330
5010
102
}
330
5010
100
AcDbDimAssoc
330
5001
 90
        3
 70
     0
 71
     0
  1
AcDbOsnapPointRef
 72
    13
331
4A0D
331
49F8
 73
     2
 91
        0
 40
0.0
 10
0.0
 20
0.0
 30
2.000000000000000E+50
 75
     0
  1
AcDbOsnapPointRef
 72
    13
331
4A0D
331
49F4
 73
     2
 91
        0
 40
0.0
 10
0.0
 20
0.0
 30
2.000000000000000E+50
 75
     0
  0
DIMASSOC
  5
5038
102
{ACAD_REACTORS
330
502C
102
}
330
502C
100
AcDbDimAssoc
330
501D
 90
        3
 70
     0
 71
     0
  1
AcDbOsnapPointRef
 72
    13
331
4A0D
331
49F8
 73
     2
 91
        0
 40
0.0
 10
0.0
 20
0.0
 30
2.000000000000000E+50
 75
     0
  1
AcDbOsnapPointRef
 72
    13
331
4888
331
484E
 73
     2
 91
        0
 40
0.0
 10
0.0
 20
0.0
 30
2.000000000000000E+50
 75
     0
  0
DIMASSOC
  5
5080
102
{ACAD_REACTORS
330
5076
102
}
330
5076
100
AcDbDimAssoc
330
5069
 90
        3
 70
     0
 71
     0
  1
AcDbOsnapPointRef
 72
    13
331
4A0D
331
49F8
 73
     2
 91
        0
 40
0.0
 10
0.0
 20
0.0
 30
2.000000000000000E+50
 75
     0
  1
AcDbOsnapPointRef
 72
    13
331
4A0D
331
49FC
 73
     2
 91
        0
 40
0.0
 10
0.0
 20
0.0
 30
2.000000000000000E+50
 75
     0
  0
DIMASSOC
  5
5098
102
{ACAD_REACTORS
330
508E
102
}
330
508E
100
AcDbDimAssoc
330
5081
 90
        3
 70
     0
 71
     0
  1
AcDbOsnapPointRef
 72
    10
331
4A0D
331
4A4F
 73
     2
 91
        0
 40
0.9940513170062375
 10
0.0
 20
0.0
 30
0.0
 75
     0
  1
AcDbOsnapPointRef
 72
     2
331
4888
331
4856
 73
     2
 91
        0
 40
0.5
 10
0.0
 20
0.0
 30
0.0
 75
     0
  0
DIMASSOC
  5
50C8
102
{ACAD_REACTORS
330
50BE
102
}
330
50BE
100
AcDbDimAssoc
330
50B1
 90
        1
 70
     0
 71
     0
  1
AcDbOsnapPointRef
 72
    13
331
4A0D
331
49FC
 73
     2
 91
        0
 40
0.0
 10
0.0
 20
0.0
 30
2.000000000000000E+50
 75
     0
  0
DIMASSOC
  5
52F9
102
{ACAD_REACTORS
330
52ED
102
}
330
52ED
100
AcDbDimAssoc
330
52DE
 90
        3
 70
     0
 71
     0
  1
AcDbOsnapPointRef
 72
    13
331
4A0D
331
49FF
 73
     2
 91
        0
 40
0.0
 10
0.0
 20
0.0
 30
2.000000000000000E+50
 75
     0
  1
AcDbOsnapPointRef
 72
     1
331
52D5
331
5299
 73
     2
 91
        0
 40
1.0
 10
0.0
 20
0.0
 30
2.000000000000000E+50
 75
     0
  0
DIMASSOC
  5
5311
102
{ACAD_REACTORS
330
5307
102
}
330
5307
100
AcDbDimAssoc
330
52FA
 90
        3
 70
     0
 71
     0
  1
AcDbOsnapPointRef
 72
     1
331
52D5
331
5299
 73
     2
 91
        0
 40
1.0
 10
0.0
 20
0.0
 30
2.000000000000000E+50
 75
     0
  1
AcDbOsnapPointRef
 72
     2
331
52D5
331
52AC
 73
     2
 91
        0
 40
0.5000000000000005
 10
0.0
 20
0.0
 30
0.0
 75
     0
  0
DIMASSOC
  5
5357
102
{ACAD_REACTORS
330
534B
102
}
330
534B
100
AcDbDimAssoc
330
533C
 90
        3
 70
     0
 71
     0
  1
AcDbOsnapPointRef
 72
    13
331
52D5
331
52A9
 73
     2
 91
        0
 40
0.0
 10
0.0
 20
0.0
 30
2.000000000000000E+50
 75
     0
  1
AcDbOsnapPointRef
 72
     1
331
4888
331
487E
 73
     2
 91
        0
 40
1.0
 10
0.0
 20
0.0
 30
2.000000000000000E+50
 75
     0
  0
DIMASSOC
  5
5406
102
{ACAD_REACTORS
330
53FC
102
}
330
53FC
100
AcDbDimAssoc
330
53EF
 90
        3
 70
     0
 71
     0
  1
AcDbOsnapPointRef
 72
    13
331
52D5
331
52A0
 73
     2
 91
        0
 40
0.0
 10
0.0
 20
0.0
 30
2.000000000000000E+50
 75
     0
  1
AcDbOsnapPointRef
 72
    13
331
52D5
331
529B
 73
     2
 91
        0
 40
0.0
 10
0.0
 20
0.0
 30
2.000000000000000E+50
 75
     0
  0
DIMASSOC
  5
6CDB
102
{ACAD_REACTORS
330
6CDA
102
}
330
6CDA
100
AcDbDimAssoc
330
6CCD
 90
        1
 70
     0
 71
     0
  1
AcDbOsnapPointRef
 72
     1
331
52D5
331
52A2
 73
     0
 91
        0
 40
0.0
 10
0.0
 20
0.0
 30
2.000000000000000E+50
 75
     0
  0
DIMASSOC
  5
6D07
102
{ACAD_REACTORS
330
6D06
102
}
330
6D06
100
AcDbDimAssoc
330
6CF7
 90
        2
 70
     0
 71
     0
  1
AcDbOsnapPointRef
 72
    13
331
52D5
331
5299
 73
     0
 91
        0
 40
0.0
 10
0.0
 20
0.0
 30
2.000000000000000E+50
 75
     0
  0
LAYOUT
  5
22
102
{ACAD_REACTORS
330
1A
102
}
330
1A
100
AcDbPlotSettings
  1

  2
KONICA MINOLTA 501 PCL
  4
A4
  6

 40
5.027082920074462
 41
5.027085781097412
 42
5.027069091796875
 43
5.027069091796875
 44
209.9733276367186
 45
296.9259948730469
 46
0.0
 47
9.356426615201373
 48
0.0
 49
0.0
140
0.0
141
0.0
142
1.0
143
1.329732012998488
 70
 11956
 72
     1
 73
     1
 74
     1
  7
SEISA.ctb
 75
     0
147
0.7520312290181261
 76
     0
 77
     2
 78
   300
148
-255.2325465810875
149
-262.4672265484239
100
AcDbLayout
  1
Model
 70
     1
 71
     0
 10
0.0
 20
0.0
 11
12.0
 21
9.0
 12
0.0
 22
0.0
 32
0.0
 14
0.0
 24
0.0
 34
0.0
 15
0.0
 25
0.0
 35
0.0
146
0.0
 13
0.0
 23
0.0
 33
0.0
 16
1.0
 26
0.0
 36
0.0
 17
0.0
 27
1.0
 37
0.0
 76
     0
330
1F
331
27A
1001
ACAD_PSEXT
1000
KONICA MINOLTA 501 PCL
1000
KONICA MINOLTA 501/421/361PCL
1000
IP_192.168.20.231_(1)
1000

1070
     0
  0
LAYOUT
  5
1E
102
{ACAD_REACTORS
330
1A
102
}
330
1A
100
AcDbPlotSettings
  1

  2
none_device
  4
Letter_(8.50_x_11.00_Inches)
  6

 40
6.349999904632567
 41
6.349999904632567
 42
6.350006103515625
 43
6.350006103515625
 44
215.8999938964844
 45
279.3999938964844
 46
0.0
 47
0.0
 48
0.0
 49
0.0
140
0.0
141
0.0
142
1.0
143
1.0
 70
 15024
 72
     1
 73
     1
 74
     5
  7
SEISA.ctb
 75
    16
147
1.0
 76
     0
 77
     2
 78
   300
148
0.0
149
0.0
100
AcDbLayout
  1
レイアウト1
 70
     1
 71
     1
 10
0.0
 20
0.0
 11
420.0
 21
297.0
 12
0.0
 22
0.0
 32
0.0
 14
1.000000000000000E+20
 24
1.000000000000000E+20
 34
1.000000000000000E+20
 15
-1.000000000000000E+20
 25
-1.000000000000000E+20
 35
-1.000000000000000E+20
146
0.0
 13
0.0
 23
0.0
 33
0.0
 16
1.0
 26
0.0
 36
0.0
 17
0.0
 27
1.0
 37
0.0
 76
     0
330
1B
  0
LAYOUT
  5
26
102
{ACAD_REACTORS
330
1A
102
}
330
1A
100
AcDbPlotSettings
  1

  2
none_device
  4
Letter_(8.50_x_11.00_Inches)
  6

 40
6.349999904632567
 41
6.349999904632567
 42
6.350006103515625
 43
6.350006103515625
 44
215.8999938964844
 45
279.3999938964844
 46
0.0
 47
0.0
 48
0.0
 49
0.0
140
0.0
141
0.0
142
1.0
143
1.0
 70
 15024
 72
     1
 73
     1
 74
     5
  7
SEISA.ctb
 75
    16
147
1.0
 76
     0
 77
     2
 78
   300
148
0.0
149
0.0
100
AcDbLayout
  1
レイアウト2
 70
     1
 71
     2
 10
0.0
 20
0.0
 11
12.0
 21
9.0
 12
0.0
 22
0.0
 32
0.0
 14
0.0
 24
0.0
 34
0.0
 15
0.0
 25
0.0
 35
0.0
146
0.0
 13
0.0
 23
0.0
 33
0.0
 16
1.0
 26
0.0
 36
0.0
 17
0.0
 27
1.0
 37
0.0
 76
     0
330
23
  0
MATERIAL
  5
27D
102
{ACAD_REACTORS
330
C4
102
}
330
C4
100
AcDbMaterial
  1
ByBlock
 73
     1
 78
     1
172
     1
176
     1
270
     1
274
     1
 94
       63
  0
MATERIAL
  5
27C
102
{ACAD_REACTORS
330
C4
102
}
330
C4
100
AcDbMaterial
  1
ByLayer
 73
     1
 78
     1
172
     1
176
     1
270
     1
274
     1
 94
       63
  0
MATERIAL
  5
27E
102
{ACAD_REACTORS
330
C4
102
}
330
C4
100
AcDbMaterial
  1
Global
 73
     1
 78
     1
172
     1
176
     1
270
     1
274
     1
 94
       63
  0
MLEADERSTYLE
  5
2D6
102
{ACAD_REACTORS
330
2D5
102
}
330
2D5
100
AcDbMLeaderStyle
170
     2
171
     1
172
     0
 90
        2
 40
0.0
 41
0.0
173
     1
 91
-1056964608
340
14
 92
       -2
290
     1
 42
2.0
291
     1
 43
0.36
  3
Standard
 44
4.0
300

342
11
174
     1
178
     6
175
     1
176
     0
 93
-1056964608
 45
4.0
292
     0
297
     0
 46
4.0
 94
-1056964608
 47
1.0
 49
1.0
140
1.0
293
     1
141
0.0
294
     1
177
     0
142
1.0
295
     0
296
     0
143
0.125
1001
ACAD_MLEADERVER
1070
     2
  0
MLINESTYLE
  5
18
102
{ACAD_REACTORS
330
17
102
}
330
17
100
AcDbMlineStyle
  2
STANDARD
 70
     0
  3

 62
   256
 51
90.0
 52
90.0
 71
     2
 49
0.5
 62
   256
  6
BYLAYER
 49
-0.5
 62
   256
  6
BYLAYER
  0
PLOTSETTINGS
  5
1C7E
102
{ACAD_REACTORS
330
19
102
}
330
19
100
AcDbPlotSettings
  1
SEISA基本
  2
none_device
  4
Letter_(8.50_x_11.00_Inches)
  6

 40
6.349999904632567
 41
6.349999904632567
 42
6.350006103515625
 43
6.350006103515625
 44
215.8999938964844
 45
279.3999938964844
 46
7.302498226506357
 47
0.0
 48
0.0
 49
0.0
140
0.0
141
0.0
142
1.0
143
1.574803221122935
 70
 11956
 72
     1
 73
     1
 74
     2
  7
SEISA.ctb
 75
     0
147
0.6349999711627054
 76
     0
 77
     2
 78
   300
148
0.0
149
0.0
1001
ACAD_PSEXT
1000
なし
1000
なし
1000
適切ではありません
1000
新しいプロッタ環境設定名を選択しない限り、レイアウトは印刷されません。
1070
     0
  0
ACDBPLACEHOLDER
  5
F
102
{ACAD_REACTORS
330
E
102
}
330
E
  0
SCALE
  5
3621
102
{ACAD_REACTORS
330
2B3
102
}
330
2B3
100
AcDbScale
 70
     0
300
1:1.5
140
1.0
141
1.5
290
     0
  0
SCALE
  5
2B4
102
{ACAD_REACTORS
330
2B3
102
}
330
2B3
100
AcDbScale
 70
     0
300
1:1
140
1.0
141
1.0
290
     1
  0
SCALE
  5
2B5
102
{ACAD_REACTORS
330
2B3
102
}
330
2B3
100
AcDbScale
 70
     0
300
1:2
140
1.0
141
2.0
290
     0
  0
SCALE
  5
2B6
102
{ACAD_REACTORS
330
2B3
102
}
330
2B3
100
AcDbScale
 70
     0
300
1:4
140
1.0
141
4.0
290
     0
  0
SCALE
  5
2B7
102
{ACAD_REACTORS
330
2B3
102
}
330
2B3
100
AcDbScale
 70
     0
300
1:5
140
1.0
141
5.0
290
     0
  0
SCALE
  5
2B8
102
{ACAD_REACTORS
330
2B3
102
}
330
2B3
100
AcDbScale
 70
     0
300
1:8
140
1.0
141
8.0
290
     0
  0
SCALE
  5
2B9
102
{ACAD_REACTORS
330
2B3
102
}
330
2B3
100
AcDbScale
 70
     0
300
1:10
140
1.0
141
10.0
290
     0
  0
SCALE
  5
2BA
102
{ACAD_REACTORS
330
2B3
102
}
330
2B3
100
AcDbScale
 70
     0
300
1:16
140
1.0
141
16.0
290
     0
  0
SCALE
  5
2BB
102
{ACAD_REACTORS
330
2B3
102
}
330
2B3
100
AcDbScale
 70
     0
300
1:20
140
1.0
141
20.0
290
     0
  0
SCALE
  5
2BC
102
{ACAD_REACTORS
330
2B3
102
}
330
2B3
100
AcDbScale
 70
     0
300
1:30
140
1.0
141
30.0
290
     0
  0
SCALE
  5
2BD
102
{ACAD_REACTORS
330
2B3
102
}
330
2B3
100
AcDbScale
 70
     0
300
1:40
140
1.0
141
40.0
290
     0
  0
SCALE
  5
2BE
102
{ACAD_REACTORS
330
2B3
102
}
330
2B3
100
AcDbScale
 70
     0
300
1:50
140
1.0
141
50.0
290
     0
  0
SCALE
  5
2BF
102
{ACAD_REACTORS
330
2B3
102
}
330
2B3
100
AcDbScale
 70
     0
300
1:100
140
1.0
141
100.0
290
     0
  0
SCALE
  5
2C0
102
{ACAD_REACTORS
330
2B3
102
}
330
2B3
100
AcDbScale
 70
     0
300
2:1
140
2.0
141
1.0
290
     0
  0
SCALE
  5
2C1
102
{ACAD_REACTORS
330
2B3
102
}
330
2B3
100
AcDbScale
 70
     0
300
4:1
140
4.0
141
1.0
290
     0
  0
SCALE
  5
2C2
102
{ACAD_REACTORS
330
2B3
102
}
330
2B3
100
AcDbScale
 70
     0
300
8:1
140
8.0
141
1.0
290
     0
  0
SCALE
  5
2C3
102
{ACAD_REACTORS
330
2B3
102
}
330
2B3
100
AcDbScale
 70
     0
300
10:1
140
10.0
141
1.0
290
     0
  0
SCALE
  5
2C4
102
{ACAD_REACTORS
330
2B3
102
}
330
2B3
100
AcDbScale
 70
     0
300
100:1
140
100.0
141
1.0
290
     0
  0
SCALE
  5
2C5
102
{ACAD_REACTORS
330
2B3
102
}
330
2B3
100
AcDbScale
 70
     0
300
1/128" = 1'-0"
140
0.0078125
141
12.0
290
     0
  0
SCALE
  5
2C6
102
{ACAD_REACTORS
330
2B3
102
}
330
2B3
100
AcDbScale
 70
     0
300
1/64" = 1'-0"
140
0.015625
141
12.0
290
     0
  0
SCALE
  5
2C7
102
{ACAD_REACTORS
330
2B3
102
}
330
2B3
100
AcDbScale
 70
     0
300
1/32" = 1'-0"
140
0.03125
141
12.0
290
     0
  0
SCALE
  5
2C8
102
{ACAD_REACTORS
330
2B3
102
}
330
2B3
100
AcDbScale
 70
     0
300
1/16" = 1'-0"
140
0.0625
141
12.0
290
     0
  0
SCALE
  5
2C9
102
{ACAD_REACTORS
330
2B3
102
}
330
2B3
100
AcDbScale
 70
     0
300
3/32" = 1'-0"
140
0.09375
141
12.0
290
     0
  0
SCALE
  5
2CA
102
{ACAD_REACTORS
330
2B3
102
}
330
2B3
100
AcDbScale
 70
     0
300
1/8" = 1'-0"
140
0.125
141
12.0
290
     0
  0
SCALE
  5
2CB
102
{ACAD_REACTORS
330
2B3
102
}
330
2B3
100
AcDbScale
 70
     0
300
3/16" = 1'-0"
140
0.1875
141
12.0
290
     0
  0
SCALE
  5
2CC
102
{ACAD_REACTORS
330
2B3
102
}
330
2B3
100
AcDbScale
 70
     0
300
1/4" = 1'-0"
140
0.25
141
12.0
290
     0
  0
SCALE
  5
2CD
102
{ACAD_REACTORS
330
2B3
102
}
330
2B3
100
AcDbScale
 70
     0
300
3/8" = 1'-0"
140
0.375
141
12.0
290
     0
  0
SCALE
  5
2CE
102
{ACAD_REACTORS
330
2B3
102
}
330
2B3
100
AcDbScale
 70
     0
300
1/2" = 1'-0"
140
0.5
141
12.0
290
     0
  0
SCALE
  5
2CF
102
{ACAD_REACTORS
330
2B3
102
}
330
2B3
100
AcDbScale
 70
     0
300
3/4" = 1'-0"
140
0.75
141
12.0
290
     0
  0
SCALE
  5
2D0
102
{ACAD_REACTORS
330
2B3
102
}
330
2B3
100
AcDbScale
 70
     0
300
1" = 1'-0"
140
1.0
141
12.0
290
     0
  0
SCALE
  5
2D1
102
{ACAD_REACTORS
330
2B3
102
}
330
2B3
100
AcDbScale
 70
     0
300
1-1/2" = 1'-0"
140
1.5
141
12.0
290
     0
  0
SCALE
  5
2D2
102
{ACAD_REACTORS
330
2B3
102
}
330
2B3
100
AcDbScale
 70
     0
300
3" = 1'-0"
140
3.0
141
12.0
290
     0
  0
SCALE
  5
2D3
102
{ACAD_REACTORS
330
2B3
102
}
330
2B3
100
AcDbScale
 70
     0
300
6" = 1'-0"
140
6.0
141
12.0
290
     0
  0
SCALE
  5
2D4
102
{ACAD_REACTORS
330
2B3
102
}
330
2B3
100
AcDbScale
 70
     0
300
1'-0" = 1'-0"
140
12.0
141
12.0
290
     0
  0
TABLESTYLE
  5
122
102
{ACAD_XDICTIONARY
360
2F5
102
}
102
{ACAD_REACTORS
330
121
102
}
330
121
100
AcDbTableStyle
  3
Standard
 70
     0
 71
     0
 40
1.5
 41
1.5
280
     0
281
     0
  7
STANDARD
140
4.5
170
     2
 62
     0
 63
     7
283
     0
 90
      512
 91
        0
  1

274
    -2
284
     1
 64
     0
275
    -2
285
     1
 65
     0
276
    -2
286
     1
 66
     0
277
    -2
287
     1
 67
     0
278
    -2
288
     1
 68
     0
279
    -2
289
     1
 69
     0
  7
STANDARD
140
6.0
170
     5
 62
     0
 63
     7
283
     0
 90
      512
 91
        0
  1

274
    -2
284
     1
 64
     0
275
    -2
285
     1
 65
     0
276
    -2
286
     1
 66
     0
277
    -2
287
     1
 67
     0
278
    -2
288
     1
 68
     0
279
    -2
289
     1
 69
     0
  7
STANDARD
140
4.5
170
     5
 62
     0
 63
     7
283
     0
 90
      512
 91
        0
  1

274
    -2
284
     1
 64
     0
275
    -2
285
     1
 65
     0
276
    -2
286
     1
 66
     0
277
    -2
287
     1
 67
     0
278
    -2
288
     1
 68
     0
279
    -2
289
     1
 69
     0
  0
VISUALSTYLE
  5
285
102
{ACAD_REACTORS
330
27F
102
}
330
27F
100
AcDbVisualStyle
  2
2dWireframe
 70
     4
 71
     0
 72
     2
 73
     0
 90
        0
 40
-0.6
 41
-30.0
 62
     5
 63
     7
421
 16777215
 74
     1
 91
        4
 64
     7
 65
   257
 75
     1
175
     1
 42
1.0
 92
        0
 66
   257
 43
1.0
 76
     1
 77
     6
 78
     2
 67
     7
 79
     5
170
     0
171
     0
290
     0
174
     0
 93
        1
 44
0.0
173
     0
291
     0
 45
0.0
  0
VISUALSTYLE
  5
287
102
{ACAD_REACTORS
330
27F
102
}
330
27F
100
AcDbVisualStyle
  2
3D Hidden
 70
     6
 71
     1
 72
     2
 73
     2
 90
        0
 40
-0.6
 41
-30.0
 62
     5
 63
     7
421
 16777215
 74
     2
 91
        2
 64
     7
 65
   257
 75
     2
175
     1
 42
40.0
 92
        0
 66
   257
 43
1.0
 76
     1
 77
     6
 78
     2
 67
     7
 79
     3
170
     0
171
     0
290
     0
174
     0
 93
        1
 44
0.0
173
     0
291
     0
 45
0.0
  0
VISUALSTYLE
  5
286
102
{ACAD_REACTORS
330
27F
102
}
330
27F
100
AcDbVisualStyle
  2
3dWireframe
 70
     5
 71
     0
 72
     2
 73
     0
 90
        0
 40
-0.6
 41
-30.0
 62
     5
 63
     7
421
 16777215
 74
     1
 91
        4
 64
     7
 65
   257
 75
     1
175
     1
 42
1.0
 92
        0
 66
   257
 43
1.0
 76
     1
 77
     6
 78
     2
 67
     7
 79
     5
170
     0
171
     0
290
     0
174
     0
 93
        1
 44
0.0
173
     0
291
     0
 45
0.0
  0
VISUALSTYLE
  5
284
102
{ACAD_REACTORS
330
27F
102
}
330
27F
100
AcDbVisualStyle
  2
Basic
 70
     7
 71
     1
 72
     0
 73
     1
 90
        0
 40
-0.6
 41
-30.0
 62
     5
 63
     7
421
 16777215
 74
     0
 91
        4
 64
     7
 65
   257
 75
     1
175
     1
 42
1.0
 92
        8
 66
     7
 43
1.0
 76
     1
 77
     6
 78
     2
 67
     7
 79
     5
170
     0
171
     0
290
     0
174
     0
 93
        1
 44
0.0
173
     0
291
     1
 45
0.0
  0
VISUALSTYLE
  5
28B
102
{ACAD_REACTORS
330
27F
102
}
330
27F
100
AcDbVisualStyle
  2
Brighten
 70
    12
 71
     2
 72
     2
 73
     0
 90
        0
 40
-0.6
 41
-30.0
 62
     5
 63
     7
421
 16777215
 74
     1
 91
        4
 64
     7
 65
   257
 75
     1
175
     1
 42
1.0
 92
        8
 66
     7
 43
1.0
 76
     1
 77
     6
 78
     2
 67
     7
 79
     5
170
     0
171
     0
290
     0
174
     0
 93
        1
 44
50.0
173
     0
291
     1
 45
0.0
  0
VISUALSTYLE
  5
28F
102
{ACAD_REACTORS
330
27F
102
}
330
27F
100
AcDbVisualStyle
  2
ColorChange
 70
    16
 71
     2
 72
     2
 73
     3
 90
        0
 40
-0.6
 41
-30.0
 62
     5
 63
     8
421
  8421504
 74
     1
 91
        4
 64
     7
 65
   257
 75
     1
175
     1
 42
1.0
 92
        8
 66
     8
424
  8421504
 43
1.0
 76
     1
 77
     6
 78
     2
 67
     7
 79
     5
170
     0
171
     0
290
     0
174
     0
 93
        1
 44
0.0
173
     0
291
     1
 45
0.0
  0
VISUALSTYLE
  5
288
102
{ACAD_REACTORS
330
27F
102
}
330
27F
100
AcDbVisualStyle
  2
Conceptual
 70
     9
 71
     3
 72
     2
 73
     0
 90
        0
 40
-0.6
 41
-30.0
 62
     5
 63
     7
421
 16777215
 74
     2
 91
        2
 64
     7
 65
   257
 75
     1
175
     1
 42
40.0
 92
        8
 66
     7
 43
1.0
 76
     1
 77
     6
 78
     2
 67
     7
 79
     3
170
     0
171
     0
290
     0
174
     0
 93
        1
 44
0.0
173
     0
291
     0
 45
0.0
  0
VISUALSTYLE
  5
28A
102
{ACAD_REACTORS
330
27F
102
}
330
27F
100
AcDbVisualStyle
  2
Dim
 70
    11
 71
     2
 72
     2
 73
     0
 90
        0
 40
-0.6
 41
-30.0
 62
     5
 63
     7
421
 16777215
 74
     1
 91
        4
 64
     7
 65
   257
 75
     1
175
     1
 42
1.0
 92
        8
 66
     7
 43
1.0
 76
     1
 77
     6
 78
     2
 67
     7
 79
     5
170
     0
171
     0
290
     0
174
     0
 93
        1
 44
-50.0
173
     0
291
     1
 45
0.0
  0
VISUALSTYLE
  5
28E
102
{ACAD_REACTORS
330
27F
102
}
330
27F
100
AcDbVisualStyle
  2
Facepattern
 70
    15
 71
     2
 72
     2
 73
     0
 90
        0
 40
-0.6
 41
-30.0
 62
     5
 63
     7
421
 16777215
 74
     1
 91
        4
 64
     7
 65
   257
 75
     1
175
     1
 42
1.0
 92
        8
 66
     7
 43
1.0
 76
     1
 77
     6
 78
     2
 67
     7
 79
     5
170
     0
171
     0
290
     0
174
     0
 93
        1
 44
0.0
173
     0
291
     1
 45
0.0
  0
VISUALSTYLE
  5
280
102
{ACAD_REACTORS
330
27F
102
}
330
27F
100
AcDbVisualStyle
  2
Flat
 70
     0
 71
     2
 72
     1
 73
     1
 90
        2
 40
-0.6
 41
30.0
 62
     5
 63
     7
421
 16777215
 74
     0
 91
        4
 64
     7
 65
   257
 75
     1
175
     1
 42
1.0
 92
        8
 66
     7
 43
1.0
 76
     1
 77
     6
 78
     2
 67
     7
 79
     5
170
     0
171
     0
290
     0
174
     0
 93
       13
 44
0.0
173
     0
291
     1
 45
0.0
  0
VISUALSTYLE
  5
281
102
{ACAD_REACTORS
330
27F
102
}
330
27F
100
AcDbVisualStyle
  2
FlatWithEdges
 70
     1
 71
     2
 72
     1
 73
     1
 90
        2
 40
-0.6
 41
30.0
 62
     5
 63
     7
421
 16777215
 74
     1
 91
        4
 64
     7
 65
   257
 75
     1
175
     1
 42
1.0
 92
        0
 66
   257
 43
1.0
 76
     1
 77
     6
 78
     2
 67
     7
 79
     5
170
     0
171
     0
290
     0
174
     0
 93
       13
 44
0.0
173
     0
291
     1
 45
0.0
  0
VISUALSTYLE
  5
282
102
{ACAD_REACTORS
330
27F
102
}
330
27F
100
AcDbVisualStyle
  2
Gouraud
 70
     2
 71
     2
 72
     2
 73
     1
 90
        2
 40
-0.6
 41
30.0
 62
     5
 63
     7
421
 16777215
 74
     0
 91
        4
 64
     7
 65
   257
 75
     1
175
     1
 42
1.0
 92
        0
 66
     7
 43
1.0
 76
     1
 77
     6
 78
     2
 67
     7
 79
     5
170
     0
171
     0
290
     0
174
     0
 93
       13
 44
0.0
173
     0
291
     1
 45
0.0
  0
VISUALSTYLE
  5
283
102
{ACAD_REACTORS
330
27F
102
}
330
27F
100
AcDbVisualStyle
  2
GouraudWithEdges
 70
     3
 71
     2
 72
     2
 73
     1
 90
        2
 40
-0.6
 41
30.0
 62
     5
 63
     7
421
 16777215
 74
     1
 91
        4
 64
     7
 65
   257
 75
     1
175
     1
 42
1.0
 92
        0
 66
   257
 43
1.0
 76
     1
 77
     6
 78
     2
 67
     7
 79
     5
170
     0
171
     0
290
     0
174
     0
 93
       13
 44
0.0
173
     0
291
     1
 45
0.0
  0
VISUALSTYLE
  5
28D
102
{ACAD_REACTORS
330
27F
102
}
330
27F
100
AcDbVisualStyle
  2
Linepattern
 70
    14
 71
     2
 72
     2
 73
     0
 90
        0
 40
-0.6
 41
-30.0
 62
     5
 63
     7
421
 16777215
 74
     1
 91
        4
 64
     7
 65
   257
 75
     7
175
     7
 42
1.0
 92
        8
 66
     7
 43
1.0
 76
     1
 77
     6
 78
     2
 67
     7
 79
     5
170
     0
171
     0
290
     0
174
     0
 93
        1
 44
0.0
173
     0
291
     1
 45
0.0
  0
VISUALSTYLE
  5
289
102
{ACAD_REACTORS
330
27F
102
}
330
27F
100
AcDbVisualStyle
  2
Realistic
 70
     8
 71
     2
 72
     2
 73
     0
 90
        0
 40
-0.6
 41
-30.0
 62
     5
 63
     7
421
 16777215
 74
     1
 91
        0
 64
     7
 65
   257
 75
     1
175
     1
 42
1.0
 92
        8
 66
     8
424
  7895160
 43
1.0
 76
     1
 77
     6
 78
     2
 67
     7
 79
     5
170
     0
171
     0
290
     0
174
     0
 93
       13
 44
0.0
173
     0
291
     0
 45
0.0
  0
VISUALSTYLE
  5
28C
102
{ACAD_REACTORS
330
27F
102
}
330
27F
100
AcDbVisualStyle
  2
Thicken
 70
    13
 71
     2
 72
     2
 73
     0
 90
        0
 40
-0.6
 41
-30.0
 62
     5
 63
     7
421
 16777215
 74
     1
 91
        4
 64
     7
 65
   257
 75
     1
175
     1
 42
1.0
 92
       12
 66
     7
 43
1.0
 76
     1
 77
     6
 78
     2
 67
     7
 79
     5
170
     0
171
     0
290
     0
174
     0
 93
        1
 44
0.0
173
     0
291
     1
 45
0.0
  0
DICTIONARYVAR
  5
2FA
102
{ACAD_REACTORS
330
34
102
}
330
34
100
DictionaryVariables
280
     0
  1
1:2
  0
DICTIONARYVAR
  5
2F8
102
{ACAD_REACTORS
330
34
102
}
330
34
100
DictionaryVariables
280
     0
  1
STANDARD
  0
DICTIONARYVAR
  5
140
102
{ACAD_REACTORS
330
34
102
}
330
34
100
DictionaryVariables
280
     0
  1
STANDARD
  0
DICTIONARYVAR
  5
AC
102
{ACAD_REACTORS
330
34
102
}
330
34
100
DictionaryVariables
280
     0
  1
1
  0
DICTIONARYVAR
  5
35
102
{ACAD_REACTORS
330
34
102
}
330
34
100
DictionaryVariables
280
     0
  1
1
  0
DICTIONARYVAR
  5
6017
102
{ACAD_REACTORS
330
34
102
}
330
34
100
DictionaryVariables
280
     0
  1
1
  0
DICTIONARYVAR
  5
6018
102
{ACAD_REACTORS
330
34
102
}
330
34
100
DictionaryVariables
280
     0
  1
15
  0
DICTIONARYVAR
  5
2FB
102
{ACAD_REACTORS
330
34
102
}
330
34
100
DictionaryVariables
280
     0
  1
0
  0
DICTIONARYVAR
  5
2F9
102
{ACAD_REACTORS
330
34
102
}
330
34
100
DictionaryVariables
280
     0
  1
0
  0
DICTIONARY
  5
161B
102
{ACAD_REACTORS
330
49
102
}
330
49
100
AcDbDictionary
281
     1
  0
DICTIONARY
  5
4A
102
{ACAD_REACTORS
330
49
102
}
330
49
100
AcDbDictionary
281
     1
  0
XRECORD
  5
12B
102
{ACAD_REACTORS
330
49
102
}
330
49
100
AcDbXrecord
280
     1
 90
-1023410169
  0
DICTIONARY
  5
2F5
330
122
100
AcDbDictionary
280
     1
281
     1
  3
ACAD_ROUNDTRIP_2008_TABLESTYLE_CELLSTYLEMAP
360
6FD5
  0
CELLSTYLEMAP
  5
6FD5
102
{ACAD_REACTORS
330
2F5
102
}
330
2F5
100
AcDbCellStyleMap
 90
        3
300
CELLSTYLE
  1
TABLEFORMAT_BEGIN
 90
        5
170
     1
 91
        0
 92
    32768
 62
   257
 93
        1
300
CONTENTFORMAT
  1
CONTENTFORMAT_BEGIN
 90
        0
 91
        0
 92
      512
 93
        0
300

 40
0.0
140
1.0
 94
        5
 62
     0
340
11
144
6.0
309
CONTENTFORMAT_END
171
     1
301
MARGIN
  1
CELLMARGIN_BEGIN
 40
1.5
 40
1.5
 40
1.5
 40
1.5
 40
0.18
 40
0.18
309
CELLMARGIN_END
 94
        6
 95
        1
302
GRIDFORMAT
  1
GRIDFORMAT_BEGIN
 90
        0
 91
        1
 62
     0
 92
       -2
340
0
 93
        0
 40
0.045
309
GRIDFORMAT_END
 95
        2
302
GRIDFORMAT
  1
GRIDFORMAT_BEGIN
 90
        0
 91
        1
 62
     0
 92
       -2
340
0
 93
        0
 40
0.045
309
GRIDFORMAT_END
 95
        4
302
GRIDFORMAT
  1
GRIDFORMAT_BEGIN
 90
        0
 91
        1
 62
     0
 92
       -2
340
0
 93
        0
 40
0.045
309
GRIDFORMAT_END
 95
        8
302
GRIDFORMAT
  1
GRIDFORMAT_BEGIN
 90
        0
 91
        1
 62
     0
 92
       -2
340
0
 93
        0
 40
0.045
309
GRIDFORMAT_END
 95
       16
302
GRIDFORMAT
  1
GRIDFORMAT_BEGIN
 90
        0
 91
        1
 62
     0
 92
       -2
340
0
 93
        0
 40
0.045
309
GRIDFORMAT_END
 95
       32
302
GRIDFORMAT
  1
GRIDFORMAT_BEGIN
 90
        0
 91
        1
 62
     0
 92
       -2
340
0
 93
        0
 40
0.045
309
GRIDFORMAT_END
309
TABLEFORMAT_END
  1
CELLSTYLE_BEGIN
 90
        1
 91
        1
300
_TITLE
309
CELLSTYLE_END
300
CELLSTYLE
  1
TABLEFORMAT_BEGIN
 90
        5
170
     1
 91
        0
 92
        0
 62
   257
 93
        1
300
CONTENTFORMAT
  1
CONTENTFORMAT_BEGIN
 90
        0
 91
        0
 92
      512
 93
        0
300

 40
0.0
140
1.0
 94
        5
 62
     0
340
11
144
4.5
309
CONTENTFORMAT_END
171
     1
301
MARGIN
  1
CELLMARGIN_BEGIN
 40
1.5
 40
1.5
 40
1.5
 40
1.5
 40
0.18
 40
0.18
309
CELLMARGIN_END
 94
        6
 95
        1
302
GRIDFORMAT
  1
GRIDFORMAT_BEGIN
 90
        0
 91
        1
 62
     0
 92
       -2
340
0
 93
        0
 40
0.045
309
GRIDFORMAT_END
 95
        2
302
GRIDFORMAT
  1
GRIDFORMAT_BEGIN
 90
        0
 91
        1
 62
     0
 92
       -2
340
0
 93
        0
 40
0.045
309
GRIDFORMAT_END
 95
        4
302
GRIDFORMAT
  1
GRIDFORMAT_BEGIN
 90
        0
 91
        1
 62
     0
 92
       -2
340
0
 93
        0
 40
0.045
309
GRIDFORMAT_END
 95
        8
302
GRIDFORMAT
  1
GRIDFORMAT_BEGIN
 90
        0
 91
        1
 62
     0
 92
       -2
340
0
 93
        0
 40
0.045
309
GRIDFORMAT_END
 95
       16
302
GRIDFORMAT
  1
GRIDFORMAT_BEGIN
 90
        0
 91
        1
 62
     0
 92
       -2
340
0
 93
        0
 40
0.045
309
GRIDFORMAT_END
 95
       32
302
GRIDFORMAT
  1
GRIDFORMAT_BEGIN
 90
        0
 91
        1
 62
     0
 92
       -2
340
0
 93
        0
 40
0.045
309
GRIDFORMAT_END
309
TABLEFORMAT_END
  1
CELLSTYLE_BEGIN
 90
        2
 91
        1
300
_HEADER
309
CELLSTYLE_END
300
CELLSTYLE
  1
TABLEFORMAT_BEGIN
 90
        5
170
     1
 91
        0
 92
        0
 62
   257
 93
        1
300
CONTENTFORMAT
  1
CONTENTFORMAT_BEGIN
 90
        0
 91
        0
 92
      512
 93
        0
300

 40
0.0
140
1.0
 94
        2
 62
     0
340
11
144
4.5
309
CONTENTFORMAT_END
171
     1
301
MARGIN
  1
CELLMARGIN_BEGIN
 40
1.5
 40
1.5
 40
1.5
 40
1.5
 40
0.18
 40
0.18
309
CELLMARGIN_END
 94
        6
 95
        1
302
GRIDFORMAT
  1
GRIDFORMAT_BEGIN
 90
        0
 91
        1
 62
     0
 92
       -2
340
0
 93
        0
 40
0.045
309
GRIDFORMAT_END
 95
        2
302
GRIDFORMAT
  1
GRIDFORMAT_BEGIN
 90
        0
 91
        1
 62
     0
 92
       -2
340
0
 93
        0
 40
0.045
309
GRIDFORMAT_END
 95
        4
302
GRIDFORMAT
  1
GRIDFORMAT_BEGIN
 90
        0
 91
        1
 62
     0
 92
       -2
340
0
 93
        0
 40
0.045
309
GRIDFORMAT_END
 95
        8
302
GRIDFORMAT
  1
GRIDFORMAT_BEGIN
 90
        0
 91
        1
 62
     0
 92
       -2
340
0
 93
        0
 40
0.045
309
GRIDFORMAT_END
 95
       16
302
GRIDFORMAT
  1
GRIDFORMAT_BEGIN
 90
        0
 91
        1
 62
     0
 92
       -2
340
0
 93
        0
 40
0.045
309
GRIDFORMAT_END
 95
       32
302
GRIDFORMAT
  1
GRIDFORMAT_BEGIN
 90
        0
 91
        1
 62
     0
 92
       -2
340
0
 93
        0
 40
0.045
309
GRIDFORMAT_END
309
TABLEFORMAT_END
  1
CELLSTYLE_BEGIN
 90
        3
 91
        2
300
_DATA
309
CELLSTYLE_END
  0
ENDSEC
  0
EOF
