  0
SECTION
  2
HEADER
  9
$ACADVER
  1
AC1021
  9
$ACADMAINTVER
 70
    26
  9
$DWGCODEPAGE
  3
ANSI_932
  9
$LASTSAVEDBY
  1
Htm_Terada
  9
$CUSTOMPROPERTYTAG
  1
AmdtFileType
  9
$CUSTOMPROPERTY
  1
84
  9
$INSBASE
 10
0.0
 20
0.0
 30
0.0
  9
$EXTMIN
 10
110.3768933876619
 20
126.0672924674163
 30
-0.0015258207003583
  9
$EXTMAX
 10
300.5548106005826
 20
273.5113688313963
 30
0.0000000349246037
  9
$LIMMIN
 10
0.0000001914338554
 20
0.0000003693820645
  9
$LIMMAX
 10
420.0000001914338
 20
297.0000003693821
  9
$ORTHOMODE
 70
     1
  9
$REGENMODE
 70
     1
  9
$FILLMODE
 70
     1
  9
$QTEXTMODE
 70
     0
  9
$MIRRTEXT
 70
     1
  9
$LTSCALE
 40
1.0
  9
$ATTMODE
 70
     1
  9
$TEXTSIZE
 40
25.0
  9
$TRACEWID
 40
1.0
  9
$TEXTSTYLE
  7
SEISA
  9
$CLAYER
  8
AM_11 想像線
  9
$CELTYPE
  6
ByLayer
  9
$CECOLOR
 62
   256
  9
$CELTSCALE
 40
1.0
  9
$DISPSILH
 70
     0
  9
$DIMSCALE
 40
1.0
  9
$DIMASZ
 40
2.5
  9
$DIMEXO
 40
0.625
  9
$DIMDLI
 40
10.0
  9
$DIMRND
 40
0.0
  9
$DIMDLE
 40
0.0
  9
$DIMEXE
 40
0.625
  9
$DIMTP
 40
0.1
  9
$DIMTM
 40
0.1
  9
$DIMTXT
 40
3.5
  9
$DIMCEN
 40
0.0
  9
$DIMTSZ
 40
0.0
  9
$DIMTOL
 70
     0
  9
$DIMLIM
 70
     0
  9
$DIMTIH
 70
     0
  9
$DIMTOH
 70
     0
  9
$DIMSE1
 70
     0
  9
$DIMSE2
 70
     0
  9
$DIMTAD
 70
     3
  9
$DIMZIN
 70
     8
  9
$DIMBLK
  1
Open30
  9
$DIMASO
 70
     1
  9
$DIMSHO
 70
     1
  9
$DIMPOST
  1

  9
$DIMAPOST
  1
"
  9
$DIMALT
 70
     0
  9
$DIMALTD
 70
     2
  9
$DIMALTF
 40
0.0393701
  9
$DIMLFAC
 40
1.0
  9
$DIMTOFL
 70
     1
  9
$DIMTVP
 40
0.0
  9
$DIMTIX
 70
     0
  9
$DIMSOXD
 70
     0
  9
$DIMSAH
 70
     0
  9
$DIMBLK1
  1

  9
$DIMBLK2
  1

  9
$DIMSTYLE
  2
SEISA
  9
$DIMCLRD
 70
     3
  9
$DIMCLRE
 70
     3
  9
$DIMCLRT
 70
     3
  9
$DIMTFAC
 40
0.71
  9
$DIMGAP
 40
1.5
  9
$DIMJUST
 70
     0
  9
$DIMSD1
 70
     0
  9
$DIMSD2
 70
     0
  9
$DIMTOLJ
 70
     0
  9
$DIMTZIN
 70
     0
  9
$DIMALTZ
 70
     0
  9
$DIMALTTZ
 70
     8
  9
$DIMUPT
 70
     0
  9
$DIMDEC
 70
     2
  9
$DIMTDEC
 70
     3
  9
$DIMALTU
 70
     2
  9
$DIMALTTD
 70
     2
  9
$DIMTXSTY
  7
SEISA
  9
$DIMAUNIT
 70
     0
  9
$DIMADEC
 70
     0
  9
$DIMALTRND
 40
0.0
  9
$DIMAZIN
 70
     2
  9
$DIMDSEP
 70
    46
  9
$DIMATFIT
 70
     3
  9
$DIMFRAC
 70
     0
  9
$DIMLDRBLK
  1
Open30
  9
$DIMLUNIT
 70
     2
  9
$DIMLWD
 70
    -1
  9
$DIMLWE
 70
    -1
  9
$DIMTMOVE
 70
     0
  9
$DIMFXL
 40
1.0
  9
$DIMFXLON
 70
     0
  9
$DIMJOGANG
 40
0.7853981633974483
  9
$DIMTFILL
 70
     0
  9
$DIMTFILLCLR
 70
     0
  9
$DIMARCSYM
 70
     1
  9
$DIMLTYPE
  6

  9
$DIMLTEX1
  6

  9
$DIMLTEX2
  6

  9
$LUNITS
 70
     2
  9
$LUPREC
 70
     2
  9
$SKETCHINC
 40
1.0
  9
$FILLETRAD
 40
2.5
  9
$AUNITS
 70
     0
  9
$AUPREC
 70
     0
  9
$MENU
  1
.
  9
$ELEVATION
 40
0.0
  9
$PELEVATION
 40
0.0
  9
$THICKNESS
 40
0.0
  9
$LIMCHECK
 70
     0
  9
$CHAMFERA
 40
0.9999999999999715
  9
$CHAMFERB
 40
0.9999999999999715
  9
$CHAMFERC
 40
0.9999999999999715
  9
$CHAMFERD
 40
0.7853981633974767
  9
$SKPOLY
 70
     0
  9
$TDCREATE
 40
2454915.421355463
  9
$TDUCREATE
 40
2454915.046355463
  9
$TDUPDATE
 40
2456478.647841250
  9
$TDUUPDATE
 40
2456478.272841250
  9
$TDINDWG
 40
0.2062098264
  9
$TDUSRTIMER
 40
0.2062089352
  9
$USRTIMER
 70
     1
  9
$ANGBASE
 50
0.0
  9
$ANGDIR
 70
     0
  9
$PDMODE
 70
     0
  9
$PDSIZE
 40
0.0
  9
$PLINEWID
 40
0.0
  9
$SPLFRAME
 70
     0
  9
$SPLINETYPE
 70
     6
  9
$SPLINESEGS
 70
     8
  9
$HANDSEED
  5
6953
  9
$SURFTAB1
 70
     6
  9
$SURFTAB2
 70
     6
  9
$SURFTYPE
 70
     6
  9
$SURFU
 70
     6
  9
$SURFV
 70
     6
  9
$UCSBASE
  2

  9
$UCSNAME
  2

  9
$UCSORG
 10
0.0
 20
0.0
 30
0.0
  9
$UCSXDIR
 10
1.0
 20
0.0
 30
0.0
  9
$UCSYDIR
 10
0.0
 20
1.0
 30
0.0
  9
$UCSORTHOREF
  2

  9
$UCSORTHOVIEW
 70
     0
  9
$UCSORGTOP
 10
0.0
 20
0.0
 30
0.0
  9
$UCSORGBOTTOM
 10
0.0
 20
0.0
 30
0.0
  9
$UCSORGLEFT
 10
0.0
 20
0.0
 30
0.0
  9
$UCSORGRIGHT
 10
0.0
 20
0.0
 30
0.0
  9
$UCSORGFRONT
 10
0.0
 20
0.0
 30
0.0
  9
$UCSORGBACK
 10
0.0
 20
0.0
 30
0.0
  9
$PUCSBASE
  2

  9
$PUCSNAME
  2

  9
$PUCSORG
 10
0.0
 20
0.0
 30
0.0
  9
$PUCSXDIR
 10
1.0
 20
0.0
 30
0.0
  9
$PUCSYDIR
 10
0.0
 20
1.0
 30
0.0
  9
$PUCSORTHOREF
  2

  9
$PUCSORTHOVIEW
 70
     0
  9
$PUCSORGTOP
 10
0.0
 20
0.0
 30
0.0
  9
$PUCSORGBOTTOM
 10
0.0
 20
0.0
 30
0.0
  9
$PUCSORGLEFT
 10
0.0
 20
0.0
 30
0.0
  9
$PUCSORGRIGHT
 10
0.0
 20
0.0
 30
0.0
  9
$PUCSORGFRONT
 10
0.0
 20
0.0
 30
0.0
  9
$PUCSORGBACK
 10
0.0
 20
0.0
 30
0.0
  9
$USERI1
 70
     0
  9
$USERI2
 70
     0
  9
$USERI3
 70
     0
  9
$USERI4
 70
     0
  9
$USERI5
 70
     0
  9
$USERR1
 40
0.0
  9
$USERR2
 40
0.0
  9
$USERR3
 40
0.0
  9
$USERR4
 40
0.0
  9
$USERR5
 40
0.0
  9
$WORLDVIEW
 70
     1
  9
$SHADEDGE
 70
     3
  9
$SHADEDIF
 70
    70
  9
$TILEMODE
 70
     1
  9
$MAXACTVP
 70
    64
  9
$PINSBASE
 10
0.0
 20
0.0
 30
0.0
  9
$PLIMCHECK
 70
     0
  9
$PEXTMIN
 10
1.000000000000000E+20
 20
1.000000000000000E+20
 30
1.000000000000000E+20
  9
$PEXTMAX
 10
-1.000000000000000E+20
 20
-1.000000000000000E+20
 30
-1.000000000000000E+20
  9
$PLIMMIN
 10
0.0
 20
0.0
  9
$PLIMMAX
 10
420.0
 20
297.0
  9
$UNITMODE
 70
     0
  9
$VISRETAIN
 70
     1
  9
$PLINEGEN
 70
     0
  9
$PSLTSCALE
 70
     1
  9
$TREEDEPTH
 70
  3020
  9
$CMLSTYLE
  2
Standard
  9
$CMLJUST
 70
     0
  9
$CMLSCALE
 40
20.0
  9
$PROXYGRAPHICS
 70
     1
  9
$MEASUREMENT
 70
     1
  9
$CELWEIGHT
370
    -1
  9
$ENDCAPS
280
     0
  9
$JOINSTYLE
280
     0
  9
$LWDISPLAY
290
     0
  9
$INSUNITS
 70
     4
  9
$HYPERLINKBASE
  1

  9
$STYLESHEET
  1
SEISA.CTB
  9
$XEDIT
290
     1
  9
$CEPSNTYPE
380
     0
  9
$PSTYLEMODE
290
     1
  9
$FINGERPRINTGUID
  2
{305341CD-CEF5-4B03-8CAE-ADA5D1EA2F28}
  9
$VERSIONGUID
  2
{E6BD86E7-CAAA-4C23-A622-204125473221}
  9
$EXTNAMES
290
     1
  9
$PSVPSCALE
 40
0.0
  9
$OLESTARTUP
290
     0
  9
$SORTENTS
280
   127
  9
$INDEXCTL
280
     0
  9
$HIDETEXT
280
     0
  9
$XCLIPFRAME
290
     0
  9
$HALOGAP
280
     0
  9
$OBSCOLOR
 70
   257
  9
$OBSLTYPE
280
     0
  9
$INTERSECTIONDISPLAY
280
     0
  9
$INTERSECTIONCOLOR
 70
   257
  9
$DIMASSOC
280
     2
  9
$PROJECTNAME
  1

  9
$CAMERADISPLAY
290
     0
  9
$LENSLENGTH
 40
50.0
  9
$CAMERAHEIGHT
 40
0.0
  9
$STEPSPERSEC
 40
2.0
  9
$STEPSIZE
 40
6.0
  9
$3DDWFPREC
 40
2.0
  9
$PSOLWIDTH
 40
0.25
  9
$PSOLHEIGHT
 40
4.0
  9
$LOFTANG1
 40
1.570796326794896
  9
$LOFTANG2
 40
1.570796326794896
  9
$LOFTMAG1
 40
0.0
  9
$LOFTMAG2
 40
0.0
  9
$LOFTPARAM
 70
     7
  9
$LOFTNORMALS
280
     1
  9
$LATITUDE
 40
37.795
  9
$LONGITUDE
 40
-122.394
  9
$NORTHDIRECTION
 40
0.0
  9
$TIMEZONE
 70
 -8000
  9
$LIGHTGLYPHDISPLAY
280
     1
  9
$TILEMODELIGHTSYNCH
280
     1
  9
$CMATERIAL
347
27C
  9
$SOLIDHIST
280
     1
  9
$SHOWHIST
280
     1
  9
$DWFFRAME
280
     2
  9
$DGNFRAME
280
     0
  9
$REALWORLDSCALE
290
     1
  9
$INTERFERECOLOR
 62
     1
  9
$INTERFEREOBJVS
345
289
  9
$INTERFEREVPVS
346
286
  9
$CSHADOW
280
     0
  9
$SHADOWPLANELOCATION
 40
0.0
  0
ENDSEC
  0
SECTION
  2
CLASSES
  0
CLASS
  1
ACDBDICTIONARYWDFLT
  2
AcDbDictionaryWithDefault
  3
ObjectDBX Classes
 90
        0
 91
        1
280
     0
281
     0
  0
CLASS
  1
AMGSETTINGSOBJ
  2
AmgSettingsObj
  3
"AcadM|Product Description: AutoCAD Mechanical|Company: Autodesk, Inc."
 90
     1024
 91
        2
280
     0
281
     0
  0
CLASS
  1
ACME_DOCUMENT
  2
AcMeDbDoc
  3
AcMeServices
 90
     1024
 91
        1
280
     0
281
     0
  0
CLASS
  1
ACMESCOPE
  2
AcMeScope
  3
AcMeServices
 90
     1024
 91
        1
280
     0
281
     0
  0
CLASS
  1
ACMECOMMANDHISTORY
  2
AcMeCommandHistory
  3
AcMeServices
 90
     1024
 91
        1
280
     0
281
     0
  0
CLASS
  1
DICTIONARYVAR
  2
AcDbDictionaryVar
  3
ObjectDBX Classes
 90
        0
 91
        9
280
     0
281
     0
  0
CLASS
  1
ACIMSYSVARMAN
  2
AcImSysVarManager
  3
AcMeServices
 90
     1024
 91
        5
280
     0
281
     0
  0
CLASS
  1
ACIMREALSYSVAR
  2
AcImRealSysVar
  3
AcMeServices
 90
     1024
 91
        1
280
     0
281
     0
  0
CLASS
  1
ACIMINTSYSVAR
  2
AcImIntSysVar
  3
AcMeServices
 90
     1024
 91
       27
280
     0
281
     0
  0
CLASS
  1
ACMEDRAWINGMAN
  2
AcMeDrawingMan
  3
AcMeServices
 90
     1024
 91
        1
280
     0
281
     0
  0
CLASS
  1
ACMEVIEW
  2
AcMeView
  3
AcMeServices
 90
     1024
 91
        1
280
     0
281
     0
  0
CLASS
  1
ACDBENTITYCACHE
  2
AcMeEntityCache
  3
AcMeServices
 90
     1024
 91
        1
280
     0
281
     0
  0
CLASS
  1
GSMANAGER
  2
AcMeGSManager
  3
AcMeServices
 90
     1024
 91
        1
280
     0
281
     0
  0
CLASS
  1
AMDTINTERNALREACTOR
  2
AmdtInternalReactor
  3
AcMeServices
 90
     1024
 91
        2
280
     0
281
     0
  0
CLASS
  1
ACMESTATEMGR
  2
AcMeStateMgr
  3
AcMeServices
 90
     1024
 91
        1
280
     0
281
     0
  0
CLASS
  1
ACGREFMASTER
  2
AcGrefMaster
  3
AcAttribServices
 90
     1024
 91
        1
280
     0
281
     0
  0
CLASS
  1
ACME_DATABASE
  2
AcMeDbDatabase
  3
AcMeServices
 90
     1024
 91
        1
280
     0
281
     0
  0
CLASS
  1
ACRFINSADJUSTERMGR
  2
AcRfInsAdjusterMgr
  3
AcMeServices
 90
     1024
 91
        1
280
     0
281
     0
  0
CLASS
  1
ACGREFACADMASTER
  2
AcGrefacadMaster
  3
AcGrefServices
 90
     1024
 91
        1
280
     0
281
     0
  0
CLASS
  1
AMIMASTER
  2
AmiMaster
  3
AmiServices
 90
     1024
 91
        1
280
     0
281
     0
  0
CLASS
  1
ACIMSTRSYSVAR
  2
AcImStrSysVar
  3
AcMeServices
 90
     1024
 91
        5
280
     0
281
     0
  0
CLASS
  1
ACMSTANDARDJIS
  2
AcmStandardJIS
  3
"Amdt_StdImp|Product Description: AutoCAD Mechanical|Company: Autodesk, Inc."
 90
     1024
 91
        0
280
     0
281
     0
  0
CLASS
  1
AMGOBJPROPCFG
  2
AmgObjPropCfg
  3
"AmgLay|Product Description: AutoCAD Mechanical|Company: Autodesk, Inc."
 90
     1025
 91
        1
280
     0
281
     0
  0
CLASS
  1
ACMSURFSTANDARDJIS
  2
AcmSurfTextStdJIS
  3
"Amdt_StdImp|Product Description: AutoCAD Mechanical|Company: Autodesk, Inc."
 90
     1024
 91
        0
280
     0
281
     0
  0
CLASS
  1
ACMFCFSTANDARDJIS
  2
AcmFCFStdJIS
  3
"Amdt_StdImp|Product Description: AutoCAD Mechanical|Company: Autodesk, Inc."
 90
     1024
 91
        0
280
     0
281
     0
  0
CLASS
  1
ACMWELDSTANDARDJIS
  2
AcmWeldingStdJIS
  3
"Amdt_StdImp|Product Description: AutoCAD Mechanical|Company: Autodesk, Inc."
 90
     1024
 91
        0
280
     0
281
     0
  0
CLASS
  1
ACMIDSTANDARDJIS
  2
AcmIdStdJIS
  3
"Amdt_StdImp|Product Description: AutoCAD Mechanical|Company: Autodesk, Inc."
 90
     1024
 91
        0
280
     0
281
     0
  0
CLASS
  1
ACMDATUMSTANDARDJIS
  2
AcmDatumStdJIS
  3
"Amdt_StdImp|Product Description: AutoCAD Mechanical|Company: Autodesk, Inc."
 90
     1024
 91
        0
280
     0
281
     0
  0
CLASS
  1
ACMBOMSTANDARDJIS
  2
AcmBOMStdJIS
  3
"Amdt_StdImp|Product Description: AutoCAD Mechanical|Company: Autodesk, Inc."
 90
     1024
 91
        0
280
     0
281
     0
  0
CLASS
  1
ACMDETAILSTANDARDJIS
  2
AmdtDetailSymStdJIS
  3
"Amdt_StdImp|Product Description: AutoCAD Mechanical|Company: Autodesk, Inc."
 90
     1024
 91
        0
280
     0
281
     0
  0
CLASS
  1
ACMSECTIONSTANDARDJIS
  2
AmdtSectionSymStdJIS
  3
"Amdt_StdImp|Product Description: AutoCAD Mechanical|Company: Autodesk, Inc."
 90
     1024
 91
        0
280
     0
281
     0
  0
CLASS
  1
ACMCENTERLINESTANDARDJIS
  2
AmdtCenterLineStdJIS
  3
"Amdt_StdImp|Product Description: AutoCAD Mechanical|Company: Autodesk, Inc."
 90
     1024
 91
        0
280
     0
281
     0
  0
CLASS
  1
ACMTHREADLINESTANDARDJIS
  2
AmdtThreadLineStdJIS
  3
"Amdt_StdImp|Product Description: AutoCAD Mechanical|Company: Autodesk, Inc."
 90
     1024
 91
        0
280
     0
281
     0
  0
CLASS
  1
ACAMGLAYSTD
  2
AcAmgLayStd
  3
"AmgLay|Product Description: AutoCAD Mechanical|Company: Autodesk, Inc."
 90
     1024
 91
        1
280
     0
281
     0
  0
CLASS
  1
ACAMGDIMSTD
  2
AcAmgDimStd
  3
"AmgDim|Product Description: AutoCAD Mechanical|Company: Autodesk, Inc."
 90
     1024
 91
        1
280
     0
281
     0
  0
CLASS
  1
ACAMGTITLESTD
  2
AcAmgTitleStd
  3
"AmgTitle|Product Description: AutoCAD Mechanical|Company: Autodesk, Inc."
 90
     4095
 91
        1
280
     0
281
     0
  0
CLASS
  1
ACMDATADICTIONARY
  2
AcmDataDictionary
  3
"AcmSymBB|Product Description: AutoCAD Mechanical|Company: Autodesk, Inc."
 90
     1024
 91
        1
280
     0
281
     0
  0
CLASS
  1
ACMDATAENTRYBLOCK
  2
AcmDataEntryBlock
  3
AcmSymBB|Product Description: AutoCAD Mechanical|Company: Autodesk, Inc.
 90
     1024
 91
        0
280
     0
281
     0
  0
CLASS
  1
LAYER_INDEX
  2
AcDbLayerIndex
  3
ObjectDBX Classes
 90
        0
 91
        0
280
     0
281
     0
  0
CLASS
  1
IDBUFFER
  2
AcDbIdBuffer
  3
ObjectDBX Classes
 90
        0
 91
        0
280
     0
281
     0
  0
CLASS
  1
ACMNOTESTANDARDJIS
  2
AmdtNoteStdJIS
  3
"Amdt_StdImp|Product Description: AutoCAD Mechanical|Company: Autodesk, Inc."
 90
     1024
 91
        0
280
     0
281
     0
  0
CLASS
  1
ACAMGHOLECHARTSTDJIS
  2
AcAmgHoleChartStdJIS
  3
AmgDim|Product Description: AutoCAD Mechanical|Company: Autodesk, Inc.
 90
     1024
 91
        0
280
     0
281
     0
  0
CLASS
  1
AM_DRAWING_MGR
  2
AcDmDwgMgr
  3
AcMechDwgViewMgmt
 90
     1024
 91
        1
280
     0
281
     0
  0
CLASS
  1
AM_DWG_DOCUMENT
  2
AcDmDwgDocument
  3
AcMechDwgViewMgmt
 90
     1024
 91
        1
280
     0
281
     0
  0
CLASS
  1
AM_DWG_SHEET
  2
AcDmSheet
  3
AcMechDwgViewMgmt
 90
     1024
 91
        2
280
     0
281
     0
  0
CLASS
  1
AM_VIEWDIMPARMAP
  2
AcDmViewDimParMap
  3
AcMechDwgViewMgmt
 90
     1024
 91
        2
280
     0
281
     0
  0
CLASS
  1
AM_DWGMGR_NAME
  2
AcDmDwgMgrName
  3
AcMechDwgViewMgmt
 90
     1024
 91
        1
280
     0
281
     0
  0
CLASS
  1
AMDTMENUSTATEMGR
  2
AmdtMenuStateMgr
  3
McadcomServices
 90
     1024
 91
        1
280
     0
281
     0
  0
CLASS
  1
AMDTMCOMMENUSTATE
  2
AmdtMcomMenuState
  3
McadcomServices
 90
     1024
 91
        1
280
     0
281
     0
  0
CLASS
  1
MAPIAMMOUDLE
  2
MApiAmModule
  3
MApiAmServices
 90
     1024
 91
        1
280
     0
281
     0
  0
CLASS
  1
AMDTADMENUSTATE
  2
AmdtAdMenuState
  3
DesignerServices
 90
     1024
 91
        1
280
     0
281
     0
  0
CLASS
  1
ADAPPL
  2
AcAdAppl
  3
DesignerServices
 90
     1024
 91
        1
280
     0
281
     0
  0
CLASS
  1
DEPMGR
  2
AcAdDepMgr
  3
DesignerServices
 90
     1024
 91
        1
280
     0
281
     0
  0
CLASS
  1
PARAMMGR
  2
AcAdParamMgr
  3
DesignerServices
 90
     1024
 91
        1
280
     0
281
     0
  0
CLASS
  1
PARAMSCOPE
  2
AcAdParamScope
  3
DesignerServices
 90
     1024
 91
        1
280
     0
281
     0
  0
CLASS
  1
NAMEDAPPL
  2
AcAdNamedAppl
  3
DesignerServices
 90
     1024
 91
        1
280
     0
281
     0
  0
CLASS
  1
AMDTDMMENUSTATE
  2
AmdtDmMenuState
  3
AcMechDwgViewMgmt
 90
     1024
 91
        1
280
     0
281
     0
  0
CLASS
  1
AMDTAMMENUSTATE
  2
AmdtAmMenuState
  3
DesignerAssemblies
 90
     1024
 91
        1
280
     0
281
     0
  0
CLASS
  1
ACAMPROJECT
  2
AcAmProject
  3
DesignerAssemblies
 90
     1024
 91
        1
280
     0
281
     0
  0
CLASS
  1
ACAMGRCOMPDEF
  2
AcAmGrCompDef
  3
DesignerAssemblies
 90
     1024
 91
        1
280
     0
281
     0
  0
CLASS
  1
ACCMCONTEXT
  2
AcCmContext
  3
DesignerAssemblies
 90
     1024
 91
        1
280
     0
281
     0
  0
CLASS
  1
ACAMCOMPDEF
  2
AcAmCompDef
  3
DesignerAssemblies
 90
     1024
 91
        1
280
     0
281
     0
  0
CLASS
  1
ACAMCOMPDEFMGR
  2
AcAmCompDefMgr
  3
DesignerAssemblies
 90
     1024
 91
        1
280
     0
281
     0
  0
CLASS
  1
AMCONTEXTMGR
  2
AcAmContextMgr
  3
DesignerAssemblies
 90
     1024
 91
        1
280
     0
281
     0
  0
CLASS
  1
ACAMCONTEXTMODELER
  2
AcAmContextModeler
  3
DesignerAssemblies
 90
     1024
 91
        1
280
     0
281
     0
  0
CLASS
  1
CATALOGSTATE
  2
AcAmCatalogState
  3
DesignerAssemblies
 90
     1024
 91
        1
280
     0
281
     0
  0
CLASS
  1
ACAMGRCOMPDEFSET
  2
AcAmGrCompDefSet
  3
DesignerAssemblies
 90
     1024
 91
        1
280
     0
281
     0
  0
CLASS
  1
AMDTBROWSERDBTAB
  2
AmdtBrowserDbTab
  3
McadcomServices
 90
     1024
 91
        1
280
     0
281
     0
  0
CLASS
  1
CBROWSERAPPOBJECT
  2
CBrowserAppObject
  3
McadcomServices
 90
     1024
 91
        3
280
     0
281
     0
  0
CLASS
  1
DM_PLACEHOLDER
  2
AcDmSelsetPlaceholder
  3
AcMechDwgViewMgmt
 90
     1024
 91
        1
280
     0
281
     0
  0
CLASS
  1
TABLESTYLE
  2
AcDbTableStyle
  3
ObjectDBX Classes
 90
     4095
 91
        1
280
     0
281
     0
  0
CLASS
  1
VAACXREFPANELOBJECT
  2
VaAcXREFPanelObject
  3
VAAC_ADDIN
 90
        0
 91
        0
280
     0
281
     0
  0
CLASS
  1
VAACIMAGEINVENTORY
  2
VaAcImageInventory
  3
VAAC_ADDIN
 90
        0
 91
        0
280
     0
281
     0
  0
CLASS
  1
AMDTNOTETEMPLATEDB
  2
AmdtNoteTemplateDB
  3
AcmSymBB|Product Description: AutoCAD Mechanical|Company: Autodesk, Inc.
 90
     1024
 91
        6
280
     0
281
     0
  0
CLASS
  1
ACAMGFILTERDAT
  2
AcAmgFilterDat
  3
"AcadM|Product Description: AutoCAD Mechanical|Company: Autodesk, Inc."
 90
     1024
 91
        0
280
     0
281
     0
  0
CLASS
  1
MATERIAL
  2
AcDbMaterial
  3
ObjectDBX Classes
 90
     1153
 91
        3
280
     0
281
     0
  0
CLASS
  1
VISUALSTYLE
  2
AcDbVisualStyle
  3
ObjectDBX Classes
 90
     4095
 91
       16
280
     0
281
     0
  0
CLASS
  1
ACRFATTGENMGR
  2
AcRfAttGeneralMgr
  3
AcAttribServices
 90
     1024
 91
        0
280
     0
281
     0
  0
CLASS
  1
ACRFOBJATTMGR
  2
AcRfObjAttGroupMgr
  3
AcAttribServices
 90
     1024
 91
        0
280
     0
281
     0
  0
CLASS
  1
ACRFMCADAPIATTHOLDER
  2
AcRfMCADAPIAttHolder
  3
AcAttribServices
 90
     1024
 91
        0
280
     0
281
     0
  0
CLASS
  1
AMDTSYSATTR
  2
AmdtSystemAttribute
  3
AcAttribServices
 90
     1024
 91
        0
280
     0
281
     0
  0
CLASS
  1
ACMTAPERSTANDARDJIS
  2
AcmTaperStdJIS
  3
"Amdt_StdImp|Product Description: AutoCAD Mechanical|Company: Autodesk, Inc."
 90
     1024
 91
        0
280
     0
281
     0
  0
CLASS
  1
CAMSSTRUCTBTNSTATE
  2
StructBtnState
  3
DesignerAssemblies
 90
     1024
 91
        0
280
     0
281
     0
  0
CLASS
  1
SCALE
  2
AcDbScale
  3
ObjectDBX Classes
 90
     1153
 91
       34
280
     0
281
     0
  0
CLASS
  1
MLEADERSTYLE
  2
AcDbMLeaderStyle
  3
ACDB_MLEADERSTYLE_CLASS
 90
     4095
 91
        1
280
     0
281
     0
  0
CLASS
  1
ACMANOOTATIONVIEWSTANDARDJIS
  2
AmdtAnViewStdJIS
  3
"Amdt_StdImp|Product Description: AutoCAD Mechanical|Company: Autodesk, Inc."
 90
     1024
 91
        0
280
     0
281
     0
  0
CLASS
  1
ACMSURFSTANDARDJIS2003
  2
AcmSurfTextStdJIS2003
  3
"Amdt_StdImp|Product Description: AutoCAD Mechanical|Company: Autodesk, Inc."
 90
     1024
 91
        0
280
     0
281
     0
  0
CLASS
  1
CELLSTYLEMAP
  2
AcDbCellStyleMap
  3
ObjectDBX Classes
 90
     1152
 91
        2
280
     0
281
     0
  0
CLASS
  1
ACMFCFSTANDARDJIS98
  2
AcmFCFStdJIS98
  3
"Amdt_StdImp|Product Description: AutoCAD Mechanical|Company: Autodesk, Inc."
 90
     1024
 91
        0
280
     0
281
     0
  0
CLASS
  1
SORTENTSTABLE
  2
AcDbSortentsTable
  3
ObjectDBX Classes
 90
        0
 91
        9
280
     0
281
     0
  0
CLASS
  1
DIMASSOC
  2
AcDbDimAssoc
  3
"AcDbDimAssoc|Product Desc:     AcDim ARX App For Dimension|Company:          Autodesk, Inc.|WEB Address:      www.autodesk.com"
 90
        0
 91
       17
280
     0
281
     0
  0
CLASS
  1
STDPART2D
  2
AmgStdPart
  3
AmgStdPart|Product Description: AutoCAD Mechanical|Company: Autodesk, Inc.
 90
     4095
 91
        0
280
     0
281
     1
  0
CLASS
  1
ACMDATAENTRYPART
  2
AcmDataEntryPart
  3
AcmSymBB|Product Description: AutoCAD Mechanical|Company: Autodesk, Inc.
 90
     1024
 91
        0
280
     0
281
     0
  0
CLASS
  1
ACMPARTREF
  2
AcmPartRef
  3
"AcmSymBB|Product Description: AutoCAD Mechanical|Company: Autodesk, Inc."
 90
     4095
 91
        0
280
     0
281
     1
  0
CLASS
  1
ACDBSTDPARTRES_LINE
  2
AcDbStdPartRes_Line
  3
AmgStdPart|Product Description: AutoCAD Mechanical|Company: Autodesk, Inc.
 90
     1024
 91
        0
280
     0
281
     0
  0
CLASS
  1
ACMBOM
  2
AcmBom
  3
"AcmSymBB|Product Description: AutoCAD Mechanical|Company: Autodesk, Inc."
 90
     1024
 91
        0
280
     0
281
     0
  0
CLASS
  1
AMDTFORMULAUPDATEDISPATCHER
  2
AmdtFormulaUpdateDispatcher
  3
AcMeServices
 90
     1024
 91
        0
280
     0
281
     0
  0
CLASS
  1
ACMBOMROW
  2
AcmBomRow
  3
"AcmSymBB|Product Description: AutoCAD Mechanical|Company: Autodesk, Inc."
 90
     1024
 91
        0
280
     0
281
     0
  0
CLASS
  1
ACMPARTLIST
  2
AcmPartList
  3
"AcmSymBB|Product Description: AutoCAD Mechanical|Company: Autodesk, Inc."
 90
     4095
 91
        0
280
     0
281
     1
  0
CLASS
  1
ACDBLINERES
  2
AcDbLineRes
  3
AcGrefServices
 90
     1024
 91
        0
280
     0
281
     0
  0
CLASS
  1
ACRFINSADJ
  2
AcRfInsAdjuster
  3
AcMeServices
 90
     1024
 91
        0
280
     0
281
     0
  0
CLASS
  1
ACMSTANDARDISO
  2
AcmStandardISO
  3
"Amdt_StdImp|Product Description: AutoCAD Mechanical|Company: Autodesk, Inc."
 90
     1024
 91
        1
280
     0
281
     0
  0
CLASS
  1
AMDTEDGESTANDARDISO13715
  2
AmdtEdgeStdISO13715
  3
"Amdt_StdImp|Product Description: AutoCAD Mechanical|Company: Autodesk, Inc."
 90
     1024
 91
        1
280
     0
281
     0
  0
CLASS
  1
ACMSURFSTANDARDISO2002
  2
AcmSurfTextStdISO2002
  3
"Amdt_StdImp|Product Description: AutoCAD Mechanical|Company: Autodesk, Inc."
 90
     1024
 91
        1
280
     0
281
     0
  0
CLASS
  1
ACMFCFSTANDARDISO
  2
AcmFCFStdISO
  3
"Amdt_StdImp|Product Description: AutoCAD Mechanical|Company: Autodesk, Inc."
 90
     1024
 91
        1
280
     0
281
     0
  0
CLASS
  1
ACMWELDSTANDARDISO
  2
AcmWeldingStdISO
  3
"Amdt_StdImp|Product Description: AutoCAD Mechanical|Company: Autodesk, Inc."
 90
     1024
 91
        1
280
     0
281
     0
  0
CLASS
  1
ACMIDSTANDARDISO
  2
AcmIdStdISO
  3
"Amdt_StdImp|Product Description: AutoCAD Mechanical|Company: Autodesk, Inc."
 90
     1024
 91
        1
280
     0
281
     0
  0
CLASS
  1
ACMDATUMSTANDARDISO
  2
AcmDatumStdISO
  3
"Amdt_StdImp|Product Description: AutoCAD Mechanical|Company: Autodesk, Inc."
 90
     1024
 91
        1
280
     0
281
     0
  0
CLASS
  1
ACMBOMSTANDARDISO
  2
AcmBOMStdISO
  3
"Amdt_StdImp|Product Description: AutoCAD Mechanical|Company: Autodesk, Inc."
 90
     1024
 91
        1
280
     0
281
     0
  0
CLASS
  1
ACMDETAILSTANDARDISO
  2
AmdtDetailSymStdISO
  3
"Amdt_StdImp|Product Description: AutoCAD Mechanical|Company: Autodesk, Inc."
 90
     1024
 91
        1
280
     0
281
     0
  0
CLASS
  1
ACMSECTIONSTANDARDISO2001
  2
AmdtSectionSymStdISO2001
  3
"Amdt_StdImp|Product Description: AutoCAD Mechanical|Company: Autodesk, Inc."
 90
     1024
 91
        1
280
     0
281
     0
  0
CLASS
  1
ACMCENTERLINESTANDARDISO
  2
AmdtCenterLineStdISO
  3
"Amdt_StdImp|Product Description: AutoCAD Mechanical|Company: Autodesk, Inc."
 90
     1024
 91
        1
280
     0
281
     0
  0
CLASS
  1
ACMTHREADLINESTANDARDISO
  2
AmdtThreadLineStdISO
  3
"Amdt_StdImp|Product Description: AutoCAD Mechanical|Company: Autodesk, Inc."
 90
     1024
 91
        1
280
     0
281
     0
  0
CLASS
  1
ACMNOTESTANDARDISO
  2
AmdtNoteStdISO
  3
"Amdt_StdImp|Product Description: AutoCAD Mechanical|Company: Autodesk, Inc."
 90
     1024
 91
        1
280
     0
281
     0
  0
CLASS
  1
ACMTAPERSTANDARDISO
  2
AcmTaperStdISO
  3
"Amdt_StdImp|Product Description: AutoCAD Mechanical|Company: Autodesk, Inc."
 90
     1024
 91
        1
280
     0
281
     0
  0
CLASS
  1
ACMANOOTATIONVIEWSTANDARDISO
  2
AmdtAnViewStdISO
  3
"Amdt_StdImp|Product Description: AutoCAD Mechanical|Company: Autodesk, Inc."
 90
     1024
 91
        1
280
     0
281
     0
  0
CLASS
  1
ACAMGHOLECHARTSTDISO
  2
AcAmgHoleChartStdISO
  3
AmgDim|Product Description: AutoCAD Mechanical|Company: Autodesk, Inc.
 90
     1024
 91
        1
280
     0
281
     0
  0
CLASS
  1
EXACXREFPANELOBJECT
  2
ExAcXREFPanelObject
  3
EXAC_ESW
 90
     1025
 91
        0
280
     0
281
     0
  0
CLASS
  1
NPOCOLLECTION
  2
AcDbImpNonPersistentObjectsCollection
  3
ObjectDBX Classes
 90
     1153
 91
        0
280
     0
281
     0
  0
CLASS
  1
ACDBSTDPARTRES_ARC
  2
AcDbStdPartRes_Arc
  3
AmgStdPart|Product Description: AutoCAD Mechanical|Company: Autodesk, Inc.
 90
     1024
 91
        0
280
     0
281
     0
  0
CLASS
  1
AMDTNOTE
  2
AmdtNote
  3
"AcmSymBB|Product Description: AutoCAD Mechanical|Company: Autodesk, Inc."
 90
     4095
 91
        0
280
     0
281
     1
  0
CLASS
  1
PLOTSETTINGS
  2
AcDbPlotSettings
  3
ObjectDBX Classes
 90
        0
 91
        1
280
     0
281
     0
  0
CLASS
  1
ACMSTANDARDANSI
  2
AcmStandardANSI
  3
"Amdt_StdImp|Product Description: AutoCAD Mechanical|Company: Autodesk, Inc."
 90
     1024
 91
        0
280
     0
281
     0
  0
CLASS
  1
ACMSURFSTANDARDANSI
  2
AcmSurfTextStdANSI
  3
"Amdt_StdImp|Product Description: AutoCAD Mechanical|Company: Autodesk, Inc."
 90
     1024
 91
        0
280
     0
281
     0
  0
CLASS
  1
ACMFCFSTANDARDANSI
  2
AcmFCFStdANSI
  3
"Amdt_StdImp|Product Description: AutoCAD Mechanical|Company: Autodesk, Inc."
 90
     1024
 91
        0
280
     0
281
     0
  0
CLASS
  1
ACMWELDSTANDARDANSI
  2
AcmWeldingStdANSI
  3
"Amdt_StdImp|Product Description: AutoCAD Mechanical|Company: Autodesk, Inc."
 90
     1024
 91
        0
280
     0
281
     0
  0
CLASS
  1
ACMIDSTANDARDANSI
  2
AcmIdStdANSI
  3
"Amdt_StdImp|Product Description: AutoCAD Mechanical|Company: Autodesk, Inc."
 90
     1024
 91
        0
280
     0
281
     0
  0
CLASS
  1
ACMDATUMSTANDARDANSI
  2
AcmDatumStdANSI
  3
"Amdt_StdImp|Product Description: AutoCAD Mechanical|Company: Autodesk, Inc."
 90
     1024
 91
        0
280
     0
281
     0
  0
CLASS
  1
ACMBOMSTANDARDANSI
  2
AcmBOMStdANSI
  3
"Amdt_StdImp|Product Description: AutoCAD Mechanical|Company: Autodesk, Inc."
 90
     1024
 91
        0
280
     0
281
     0
  0
CLASS
  1
ACMDETAILSTANDARDANSI
  2
AmdtDetailSymStdANSI
  3
"Amdt_StdImp|Product Description: AutoCAD Mechanical|Company: Autodesk, Inc."
 90
     1024
 91
        0
280
     0
281
     0
  0
CLASS
  1
ACMSECTIONSTANDARDANSI
  2
AmdtSectionSymStdANSI
  3
"Amdt_StdImp|Product Description: AutoCAD Mechanical|Company: Autodesk, Inc."
 90
     1024
 91
        0
280
     0
281
     0
  0
CLASS
  1
ACMCENTERLINESTANDARDANSI
  2
AmdtCenterLineStdANSI
  3
"Amdt_StdImp|Product Description: AutoCAD Mechanical|Company: Autodesk, Inc."
 90
     1024
 91
        0
280
     0
281
     0
  0
CLASS
  1
ACMTHREADLINESTANDARDANSI
  2
AmdtThreadLineStdANSI
  3
"Amdt_StdImp|Product Description: AutoCAD Mechanical|Company: Autodesk, Inc."
 90
     1024
 91
        0
280
     0
281
     0
  0
CLASS
  1
ACMNOTESTANDARDANSI
  2
AmdtNoteStdANSI
  3
"Amdt_StdImp|Product Description: AutoCAD Mechanical|Company: Autodesk, Inc."
 90
     1024
 91
        0
280
     0
281
     0
  0
CLASS
  1
ACMTAPERSTANDARDANSI
  2
AcmTaperStdANSI
  3
"Amdt_StdImp|Product Description: AutoCAD Mechanical|Company: Autodesk, Inc."
 90
     1024
 91
        0
280
     0
281
     0
  0
CLASS
  1
ACMANOOTATIONVIEWSTANDARDANSI
  2
AmdtAnViewStdANSI
  3
"Amdt_StdImp|Product Description: AutoCAD Mechanical|Company: Autodesk, Inc."
 90
     1024
 91
        0
280
     0
281
     0
  0
CLASS
  1
ACAMGHOLECHARTSTDANSI
  2
AcAmgHoleChartStdANSI
  3
AmgDim|Product Description: AutoCAD Mechanical|Company: Autodesk, Inc.
 90
     1024
 91
        0
280
     0
281
     0
  0
CLASS
  1
ACMSTANDARDBSI
  2
AcmStandardBSI
  3
"Amdt_StdImp|Product Description: AutoCAD Mechanical|Company: Autodesk, Inc."
 90
     1024
 91
        0
280
     0
281
     0
  0
CLASS
  1
ACMSURFSTANDARDBSI2002
  2
AcmSurfTextStdBSI2002
  3
"Amdt_StdImp|Product Description: AutoCAD Mechanical|Company: Autodesk, Inc."
 90
     1024
 91
        0
280
     0
281
     0
  0
CLASS
  1
ACMFCFSTANDARDBSI
  2
AcmFCFStdBSI
  3
"Amdt_StdImp|Product Description: AutoCAD Mechanical|Company: Autodesk, Inc."
 90
     1024
 91
        0
280
     0
281
     0
  0
CLASS
  1
ACMWELDSTANDARDBSI
  2
AcmWeldingStdBSI
  3
"Amdt_StdImp|Product Description: AutoCAD Mechanical|Company: Autodesk, Inc."
 90
     1024
 91
        0
280
     0
281
     0
  0
CLASS
  1
ACMIDSTANDARDBSI
  2
AcmIdStdBSI
  3
"Amdt_StdImp|Product Description: AutoCAD Mechanical|Company: Autodesk, Inc."
 90
     1024
 91
        0
280
     0
281
     0
  0
CLASS
  1
ACMDATUMSTANDARDBSI
  2
AcmDatumStdBSI
  3
"Amdt_StdImp|Product Description: AutoCAD Mechanical|Company: Autodesk, Inc."
 90
     1024
 91
        0
280
     0
281
     0
  0
CLASS
  1
ACMBOMSTANDARDBSI
  2
AcmBOMStdBSI
  3
"Amdt_StdImp|Product Description: AutoCAD Mechanical|Company: Autodesk, Inc."
 90
     1024
 91
        0
280
     0
281
     0
  0
CLASS
  1
ACMDETAILSTANDARDBSI
  2
AmdtDetailSymStdBSI
  3
"Amdt_StdImp|Product Description: AutoCAD Mechanical|Company: Autodesk, Inc."
 90
     1024
 91
        0
280
     0
281
     0
  0
CLASS
  1
ACMSECTIONSTANDARDBSI2001
  2
AmdtSectionSymStdBSI2001
  3
"Amdt_StdImp|Product Description: AutoCAD Mechanical|Company: Autodesk, Inc."
 90
     1024
 91
        0
280
     0
281
     0
  0
CLASS
  1
ACMCENTERLINESTANDARDBSI
  2
AmdtCenterLineStdBSI
  3
"Amdt_StdImp|Product Description: AutoCAD Mechanical|Company: Autodesk, Inc."
 90
     1024
 91
        0
280
     0
281
     0
  0
CLASS
  1
ACMTHREADLINESTANDARDBSI
  2
AmdtThreadLineStdBSI
  3
"Amdt_StdImp|Product Description: AutoCAD Mechanical|Company: Autodesk, Inc."
 90
     1024
 91
        0
280
     0
281
     0
  0
CLASS
  1
ACMNOTESTANDARDBSI
  2
AmdtNoteStdBSI
  3
"Amdt_StdImp|Product Description: AutoCAD Mechanical|Company: Autodesk, Inc."
 90
     1024
 91
        0
280
     0
281
     0
  0
CLASS
  1
ACMTAPERSTANDARDBSI
  2
AcmTaperStdBSI
  3
"Amdt_StdImp|Product Description: AutoCAD Mechanical|Company: Autodesk, Inc."
 90
     1024
 91
        0
280
     0
281
     0
  0
CLASS
  1
ACMANOOTATIONVIEWSTANDARDBSI
  2
AmdtAnViewStdBSI
  3
"Amdt_StdImp|Product Description: AutoCAD Mechanical|Company: Autodesk, Inc."
 90
     1024
 91
        0
280
     0
281
     0
  0
CLASS
  1
ACAMGHOLECHARTSTDBSI
  2
AcAmgHoleChartStdBSI
  3
AmgDim|Product Description: AutoCAD Mechanical|Company: Autodesk, Inc.
 90
     1024
 91
        0
280
     0
281
     0
  0
CLASS
  1
AMDTEDGESTANDARDJIS
  2
AmdtEdgeStdJIS
  3
"Amdt_StdImp|Product Description: AutoCAD Mechanical|Company: Autodesk, Inc."
 90
     1024
 91
        0
280
     0
281
     0
  0
CLASS
  1
ACMSURFSYM
  2
AcmSurfaceTexture
  3
"AcmSymBB|Product Description: AutoCAD Mechanical|Company: Autodesk, Inc."
 90
     4095
 91
        0
280
     0
281
     1
  0
CLASS
  1
ACDBDIMENSIONRES
  2
AcDbDimensionRes
  3
AcmSymBB|Product Description: AutoCAD Mechanical|Company: Autodesk, Inc.
 90
     1024
 91
        0
280
     0
281
     0
  0
CLASS
  1
ACDBCIRCARCRES
  2
AcDbCircArcRes
  3
AcGrefServices
 90
     1024
 91
        0
280
     0
281
     0
  0
CLASS
  1
AMDTACMWBLOCKBOMENTITY
  2
AmdtAcmWblockBomEntity
  3
"AcmSymBB|Product Description: AutoCAD Mechanical|Company: Autodesk, Inc."
 90
     4095
 91
        0
280
     0
281
     1
  0
CLASS
  1
ACDBOPPOLYLINERES
  2
AcDbOpPolylineRes
  3
AcGrefServices
 90
     1024
 91
        0
280
     0
281
     0
  0
CLASS
  1
ACDB_BLKREFOBJECTCONTEXTDATA_CLASS
  2
AcDbBlkRefObjectContextData
  3
ObjectDBX Classes
 90
     1153
 91
        0
280
     0
281
     0
  0
CLASS
  1
ACMPICKOBJ
  2
AcmPickEnt
  3
"AcmSymBB|Product Description: AutoCAD Mechanical|Company: Autodesk, Inc."
 90
     1024
 91
        0
280
     0
281
     1
  0
CLASS
  1
ACMBALLOON
  2
AcmBalloon
  3
"AcmSymBB|Product Description: AutoCAD Mechanical|Company: Autodesk, Inc."
 90
     4095
 91
        0
280
     0
281
     1
  0
ENDSEC
  0
SECTION
  2
TABLES
  0
TABLE
  2
VPORT
  5
8
330
0
100
AcDbSymbolTable
 70
     1
  0
VPORT
  5
27A
330
8
100
AcDbSymbolTableRecord
100
AcDbViewportTableRecord
  2
*Active
 70
     0
 10
0.0
 20
0.0
 11
1.0
 21
1.0
 12
205.4658519941222
 22
199.7893306494063
 13
0.0
 23
0.0
 14
2.5
 24
2.5
 15
10.0
 25
10.0
 16
0.0
 26
0.0
 36
1.0
 17
0.0
 27
0.0
 37
0.0
 40
148.7954895561153
 41
1.285714285714285
 42
50.0
 43
0.0
 44
0.0
 50
0.0
 51
0.0
 71
    16
 72
 20000
 73
     1
 74
     3
 75
     0
 76
     0
 77
     0
 78
     0
281
     0
 65
     0
110
0.0
120
0.0
130
0.0
111
1.0
121
0.0
131
0.0
112
0.0
122
1.0
132
0.0
 79
     0
146
0.0
348
285
 60
     3
 61
     5
292
     1
282
     0
141
0.0
142
0.0
 63
   250
421
  3355443
  0
ENDTAB
  0
TABLE
  2
LTYPE
  5
5
330
0
100
AcDbSymbolTable
 70
    22
  0
LTYPE
  5
14
330
5
100
AcDbSymbolTableRecord
100
AcDbLinetypeTableRecord
  2
ByBlock
 70
     0
  3

 72
    65
 73
     0
 40
0.0
  0
LTYPE
  5
15
330
5
100
AcDbSymbolTableRecord
100
AcDbLinetypeTableRecord
  2
ByLayer
 70
     0
  3

 72
    65
 73
     0
 40
0.0
  0
LTYPE
  5
16
330
5
100
AcDbSymbolTableRecord
100
AcDbLinetypeTableRecord
  2
Continuous
 70
     0
  3
Solid line
 72
    65
 73
     0
 40
0.0
  0
LTYPE
  5
4D
330
5
100
AcDbSymbolTableRecord
100
AcDbLinetypeTableRecord
  2
AM_ISO02W050
 70
     0
  3
__ __ __ __ __ __ __ __ __ __ __ __ __ __ __
 72
    65
 73
     2
 40
7.5
 49
6.0
 74
     0
 49
-1.5
 74
     0
  0
LTYPE
  5
4E
330
5
100
AcDbSymbolTableRecord
100
AcDbLinetypeTableRecord
  2
AM_ISO08W050
 70
     0
  3
____ . ____ . ____ . ____ . ____ . ____ . ____
 72
    65
 73
     4
 40
18.0
 49
12.0
 74
     0
 49
-1.5
 74
     0
 49
3.0
 74
     0
 49
-1.5
 74
     0
  0
LTYPE
  5
4F
330
5
100
AcDbSymbolTableRecord
100
AcDbLinetypeTableRecord
  2
AM_ISO09W050
 70
     0
  3
_____ . . _____ . . _____ . . ____ .. ____
 72
    65
 73
     6
 40
22.5
 49
12.0
 74
     0
 49
-1.5
 74
     0
 49
3.0
 74
     0
 49
-1.5
 74
     0
 49
3.0
 74
     0
 49
-1.5
 74
     0
  0
LTYPE
  5
50
330
5
100
AcDbSymbolTableRecord
100
AcDbLinetypeTableRecord
  2
Amconstr
 70
     0
  3
_______________________
 72
    65
 73
     2
 40
9999.0
 49
9999.0
 74
     0
 49
0.0
 74
     0
  0
LTYPE
  5
51
330
5
100
AcDbSymbolTableRecord
100
AcDbLinetypeTableRecord
  2
AM_ISO08W050x2
 70
     0
  3
__ . __ . __ . __ . __ . __
 72
    65
 73
     4
 40
9.0
 49
6.0
 74
     0
 49
-0.75
 74
     0
 49
1.5
 74
     0
 49
-0.75
 74
     0
  0
LTYPE
  5
52
330
5
100
AcDbSymbolTableRecord
100
AcDbLinetypeTableRecord
  2
AM_ISO02W050x2
 70
     0
  3
 _ _ _ _ _ _ _ _ _ _ _ _
 72
    65
 73
     2
 40
3.75
 49
3.0
 74
     0
 49
-0.75
 74
     0
  0
LTYPE
  5
55
330
5
100
AcDbSymbolTableRecord
100
AcDbLinetypeTableRecord
  2
Amzigzag
 70
     0
  3
/\/-/\/-/\/-/\/-/\/-/\/
 72
    65
 73
     2
 40
11.0001
 49
0.0001
 74
     4
 75
   136
340
23D
 46
0.04
 50
0.0
 44
0.0
 45
0.0
 49
-11.0
 74
     0
  0
LTYPE
  5
65
330
5
100
AcDbSymbolTableRecord
100
AcDbLinetypeTableRecord
  2
CENTER
 70
     0
  3
__ . __
 72
    65
 73
     4
 40
7.0
 49
4.0
 74
     0
 49
-1.0
 74
     0
 49
1.0
 74
     0
 49
-1.0
 74
     0
  0
LTYPE
  5
E0
330
5
100
AcDbSymbolTableRecord
100
AcDbLinetypeTableRecord
  2
HIDDEN
 70
     0
  3
Hidden __ __ __ __ __ __ __ __ __ __ __ __ __ _
 72
    65
 73
     2
 40
9.524999999999996
 49
6.349999999999998
 74
     0
 49
-3.174999999999998
 74
     0
  0
LTYPE
  5
E1
330
5
100
AcDbSymbolTableRecord
100
AcDbLinetypeTableRecord
  2
PHANTOM2
 70
     0
  3
Phantom (.5x) ___ _ _ ___ _ _ ___ _ _ ___ _ _
 72
    65
 73
     6
 40
31.75
 49
15.875
 74
     0
 49
-3.174999999999998
 74
     0
 49
3.174999999999998
 74
     0
 49
-3.174999999999998
 74
     0
 49
3.174999999999998
 74
     0
 49
-3.174999999999998
 74
     0
  0
LTYPE
  5
5A2
330
5
100
AcDbSymbolTableRecord
100
AcDbLinetypeTableRecord
  2
ACJISWELD
 70
     0
  3
_ _ _ _ _
 72
    65
 73
     2
 40
2.0
 49
2.0
 74
     0
 49
-1.0
 74
     0
  0
LTYPE
  5
693E
330
5
100
AcDbSymbolTableRecord
100
AcDbLinetypeTableRecord
  2
ACISOWELD
 70
     0
  3
_ _ _ _ _
 72
    65
 73
     2
 40
2.0
 49
2.0
 74
     0
 49
-1.0
 74
     0
  0
LTYPE
  5
693F
330
5
100
AcDbSymbolTableRecord
100
AcDbLinetypeTableRecord
  2
ACISOTGB
 70
     0
  3
__ . . __ . .
 72
    65
 73
     6
 40
9.0
 49
4.0
 74
     0
 49
-1.0
 74
     0
 49
1.0
 74
     0
 49
-1.0
 74
     0
 49
1.0
 74
     0
 49
-1.0
 74
     0
  0
LTYPE
  5
6940
330
5
100
AcDbSymbolTableRecord
100
AcDbLinetypeTableRecord
  2
ACISOTGL
 70
     0
  3
_ _ _ _ _
 72
    65
 73
     2
 40
3.0
 49
2.0
 74
     0
 49
-1.0
 74
     0
  0
ENDTAB
  0
TABLE
  2
LAYER
  5
2
102
{ACAD_XDICTIONARY
360
BF
102
}
330
0
100
AcDbSymbolTable
 70
    10
  0
LAYER
  5
10
102
{ACAD_XDICTIONARY
360
29F7
102
}
330
2
100
AcDbSymbolTableRecord
100
AcDbLayerTableRecord
  2
0
 70
     0
 62
     7
  6
Continuous
370
    -3
390
F
347
27E
  0
LAYER
  5
81
102
{ACAD_XDICTIONARY
360
29F9
102
}
330
2
100
AcDbSymbolTableRecord
100
AcDbLayerTableRecord
  2
AM_0 外形線1
 70
     0
 62
     7
  6
Continuous
370
    25
390
F
347
27E
  0
LAYER
  5
427
330
2
100
AcDbSymbolTableRecord
100
AcDbLayerTableRecord
  2
Defpoints
 70
     0
 62
     7
  6
Continuous
290
     0
370
    -3
390
F
347
27E
  0
LAYER
  5
38FA
330
2
100
AcDbSymbolTableRecord
100
AcDbLayerTableRecord
  2
AM_5 寸法線
 70
     0
 62
     3
  6
Continuous
370
    13
390
F
347
27E
1001
AcAecLayerStandard
1000

1000

  0
LAYER
  5
38FB
330
2
100
AcDbSymbolTableRecord
100
AcDbLayerTableRecord
  2
AM_4 細線
 70
     0
 62
     4
  6
Continuous
370
    13
390
F
347
27E
1001
AcAecLayerStandard
1000

1000

  0
LAYER
  5
38FC
330
2
100
AcDbSymbolTableRecord
100
AcDbLayerTableRecord
  2
AM_7 中心線
 70
     0
 62
     1
  6
AM_ISO08W050
370
    13
390
F
347
27E
1001
AcAecLayerStandard
1000

1000

  0
LAYER
  5
38FD
330
2
100
AcDbSymbolTableRecord
100
AcDbLayerTableRecord
  2
AM_3 隠れ線
 70
     0
 62
     8
  6
ACJISWELD
370
    13
390
F
347
27E
1001
AcAecLayerStandard
1000

1000

  0
LAYER
  5
3900
330
2
100
AcDbSymbolTableRecord
100
AcDbLayerTableRecord
  2
AM_6 文字
 70
     0
 62
     2
  6
Continuous
370
    13
390
F
347
27E
1001
AcAecLayerStandard
1000

1000

  0
LAYER
  5
640E
330
2
100
AcDbSymbolTableRecord
100
AcDbLayerTableRecord
  2
AM_11 想像線
 70
     0
 62
     5
  6
AM_ISO09W050
370
    13
390
F
347
27E
1001
AcAecLayerStandard
1000

1000

  0
ENDTAB
  0
TABLE
  2
STYLE
  5
3
330
0
100
AcDbSymbolTable
 70
    10
  0
STYLE
  5
11
330
3
100
AcDbSymbolTableRecord
100
AcDbTextStyleTableRecord
  2
STANDARD
 70
     0
 40
0.0
 41
1.0
 50
0.0
 71
     0
 42
25.0
  3
ISOCP.SHX
  4
EXTFONT.SHX
  0
STYLE
  5
23D
330
3
100
AcDbSymbolTableRecord
100
AcDbTextStyleTableRecord
  2

 70
     1
 40
0.0
 41
1.0
 50
0.0
 71
     0
 42
2.5
  3
genltshp.shx
  4

  0
STYLE
  5
5D5
330
3
100
AcDbSymbolTableRecord
100
AcDbTextStyleTableRecord
  2
SEISA
 70
     0
 40
0.0
 41
0.9
 50
0.0
 71
     0
 42
25.0
  3
romans.shx
  4
extfont2.shx
  0
STYLE
  5
692E
330
3
100
AcDbSymbolTableRecord
100
AcDbTextStyleTableRecord
  2
ACISOTS
 70
     0
 40
1.0
 41
1.0
 50
0.0
 71
     0
 42
25.0
  3
isocp.shx
  4
extfont.shx
  0
STYLE
  5
693D
330
3
100
AcDbSymbolTableRecord
100
AcDbTextStyleTableRecord
  2
ACISOGDT
 70
     0
 40
0.0
 41
1.0
 50
0.0
 71
     0
 42
25.0
  3
amgdt.shx
  4

  0
ENDTAB
  0
TABLE
  2
VIEW
  5
6
330
0
100
AcDbSymbolTable
 70
     6
  0
VIEW
  5
91B
330
6
100
AcDbSymbolTableRecord
100
AcDbViewTableRecord
  2
AM_VIEW1
 70
     0
 40
148.5
 10
146.1225371372467
 20
222.7500003693821
 41
292.2450738916257
 11
0.0
 21
0.0
 31
1.0
 12
0.0
 22
0.0
 32
0.0
 42
50.0
 43
0.0
 44
0.0
 50
0.0
 71
    16
281
     0
 72
     0
 73
     0
  0
VIEW
  5
91C
330
6
100
AcDbSymbolTableRecord
100
AcDbViewTableRecord
  2
AM_VIEW2
 70
     0
 40
148.5
 10
273.877463245621
 20
222.7500003693821
 41
292.2450738916257
 11
0.0
 21
0.0
 31
1.0
 12
0.0
 22
0.0
 32
0.0
 42
50.0
 43
0.0
 44
0.0
 50
0.0
 71
    16
281
     0
 72
     0
 73
     0
  0
VIEW
  5
91D
330
6
100
AcDbSymbolTableRecord
100
AcDbViewTableRecord
  2
AM_VIEW3
 70
     0
 40
148.5
 10
146.1225371372467
 20
74.25000036938206
 41
292.2450738916257
 11
0.0
 21
0.0
 31
1.0
 12
0.0
 22
0.0
 32
0.0
 42
50.0
 43
0.0
 44
0.0
 50
0.0
 71
    16
281
     0
 72
     0
 73
     0
  0
VIEW
  5
91E
330
6
100
AcDbSymbolTableRecord
100
AcDbViewTableRecord
  2
AM_VIEW4
 70
     0
 40
148.5
 10
273.877463245621
 20
74.25000036938206
 41
292.2450738916257
 11
0.0
 21
0.0
 31
1.0
 12
0.0
 22
0.0
 32
0.0
 42
50.0
 43
0.0
 44
0.0
 50
0.0
 71
    16
281
     0
 72
     0
 73
     0
  0
VIEW
  5
91F
330
6
100
AcDbSymbolTableRecord
100
AcDbViewTableRecord
  2
AM_VIEW5
 70
     0
 40
148.5
 10
210.0000001914338
 20
148.5000003693821
 41
292.2450738916257
 11
0.0
 21
0.0
 31
1.0
 12
0.0
 22
0.0
 32
0.0
 42
50.0
 43
0.0
 44
0.0
 50
0.0
 71
    16
281
     0
 72
     0
 73
     0
  0
VIEW
  5
920
330
6
100
AcDbSymbolTableRecord
100
AcDbViewTableRecord
  2
AM_VIEW6
 70
     0
 40
296.99703
 10
210.0000001914338
 20
148.5000003693821
 41
584.4843028817734
 11
0.0
 21
0.0
 31
1.0
 12
0.0
 22
0.0
 32
0.0
 42
50.0
 43
0.0
 44
0.0
 50
0.0
 71
    16
281
     0
 72
     0
 73
     0
  0
ENDTAB
  0
TABLE
  2
UCS
  5
7
330
0
100
AcDbSymbolTable
 70
     0
  0
ENDTAB
  0
TABLE
  2
APPID
  5
9
330
0
100
AcDbSymbolTable
 70
   393
  0
APPID
  5
12
330
9
100
AcDbSymbolTableRecord
100
AcDbRegAppTableRecord
  2
ACAD
 70
     0
  0
APPID
  5
30
330
9
100
AcDbSymbolTableRecord
100
AcDbRegAppTableRecord
  2
MCAD_NO_VIS
 70
     0
  0
APPID
  5
31
330
9
100
AcDbSymbolTableRecord
100
AcDbRegAppTableRecord
  2
ACAD_TEMP_GRAPHIC
 70
     0
  0
APPID
  5
44
330
9
100
AcDbSymbolTableRecord
100
AcDbRegAppTableRecord
  2
ACATTRIBSERVICES
 70
     0
  0
APPID
  5
F6
330
9
100
AcDbSymbolTableRecord
100
AcDbRegAppTableRecord
  2
AD_DRAW
 70
     0
  0
APPID
  5
114
330
9
100
AcDbSymbolTableRecord
100
AcDbRegAppTableRecord
  2
DESIGNERASSEMBLIES
 70
     0
  0
APPID
  5
118
330
9
100
AcDbSymbolTableRecord
100
AcDbRegAppTableRecord
  2
ACADM_DIM_EDIT
 70
     0
  0
APPID
  5
119
330
9
100
AcDbSymbolTableRecord
100
AcDbRegAppTableRecord
  2
AMDT_DM_ADJ
 70
     0
  0
APPID
  5
1AF
330
9
100
AcDbSymbolTableRecord
100
AcDbRegAppTableRecord
  2
ACAD_DSTYLE_DIMARC_LENGTH_SYMBOL
 70
     0
  0
APPID
  5
1B0
330
9
100
AcDbSymbolTableRecord
100
AcDbRegAppTableRecord
  2
ACAD_DSTYLE_DIMJOGGED_JOGANGLE_SYMBOL
 70
     0
  0
APPID
  5
2D7
330
9
100
AcDbSymbolTableRecord
100
AcDbRegAppTableRecord
  2
ACAD_MLEADERVER
 70
     0
  0
APPID
  5
355
330
9
100
AcDbSymbolTableRecord
100
AcDbRegAppTableRecord
  2
AcadAnnoPO
 70
     0
  0
APPID
  5
428
330
9
100
AcDbSymbolTableRecord
100
AcDbRegAppTableRecord
  2
ACAD_DSTYLE_DIMTEXT_FILL
 70
     0
  0
APPID
  5
429
330
9
100
AcDbSymbolTableRecord
100
AcDbRegAppTableRecord
  2
GENIUS_GENSCREG_15
 70
     0
  0
APPID
  5
42A
330
9
100
AcDbSymbolTableRecord
100
AcDbRegAppTableRecord
  2
GENIUS_GENOBJ-N-SDF_13
 70
     0
  0
APPID
  5
42B
330
9
100
AcDbSymbolTableRecord
100
AcDbRegAppTableRecord
  2
GENIUS_GENODEF_13
 70
     0
  0
APPID
  5
42C
330
9
100
AcDbSymbolTableRecord
100
AcDbRegAppTableRecord
  2
ACAD_EXEMPT_FROM_CAD_STANDARDS
 70
     0
  0
APPID
  5
42D
330
9
100
AcDbSymbolTableRecord
100
AcDbRegAppTableRecord
  2
AcAecLayerStandard
 70
     0
  0
APPID
  5
42E
330
9
100
AcDbSymbolTableRecord
100
AcDbRegAppTableRecord
  2
GENIUS_GENOBJ-N-CEN_13
 70
     0
  0
APPID
  5
42F
330
9
100
AcDbSymbolTableRecord
100
AcDbRegAppTableRecord
  2
GENIUS_GENCEN_19
 70
     0
  0
APPID
  5
430
330
9
100
AcDbSymbolTableRecord
100
AcDbRegAppTableRecord
  2
ACAD_DSTYLE_DIMINSPECT
 70
     0
  0
APPID
  5
431
330
9
100
AcDbSymbolTableRecord
100
AcDbRegAppTableRecord
  2
GENIUS_AMGTXT_16
 70
     0
  0
APPID
  5
432
330
9
100
AcDbSymbolTableRecord
100
AcDbRegAppTableRecord
  2
GENIUS_GENFIL_13
 70
     0
  0
APPID
  5
433
330
9
100
AcDbSymbolTableRecord
100
AcDbRegAppTableRecord
  2
GENIUS_GENOLIS_13
 70
     0
  0
APPID
  5
434
330
9
100
AcDbSymbolTableRecord
100
AcDbRegAppTableRecord
  2
GENIUS_GENOBJ-N-CHA_13
 70
     0
  0
APPID
  5
435
330
9
100
AcDbSymbolTableRecord
100
AcDbRegAppTableRecord
  2
GENIUS_GENOENT_13
 70
     0
  0
APPID
  5
436
330
9
100
AcDbSymbolTableRecord
100
AcDbRegAppTableRecord
  2
GENIUS_GENOREF_13
 70
     0
  0
APPID
  5
437
330
9
100
AcDbSymbolTableRecord
100
AcDbRegAppTableRecord
  2
GENIUS_GENOBJ-N-FIL_13
 70
     0
  0
APPID
  5
438
330
9
100
AcDbSymbolTableRecord
100
AcDbRegAppTableRecord
  2
GEVID1208829536
 70
     0
  0
APPID
  5
439
330
9
100
AcDbSymbolTableRecord
100
AcDbRegAppTableRecord
  2
GEVDC
 70
     0
  0
APPID
  5
43A
330
9
100
AcDbSymbolTableRecord
100
AcDbRegAppTableRecord
  2
GEVRADREF
 70
     0
  0
APPID
  5
43B
330
9
100
AcDbSymbolTableRecord
100
AcDbRegAppTableRecord
  2
GENIUS_GENBH_13
 70
     0
  0
APPID
  5
43C
330
9
100
AcDbSymbolTableRecord
100
AcDbRegAppTableRecord
  2
GENIUS_GENOBJ-NBEHI-BHF_13
 70
     0
  0
APPID
  5
43D
330
9
100
AcDbSymbolTableRecord
100
AcDbRegAppTableRecord
  2
GENIUS_GENOBJ-NBEHI-BHB_13
 70
     0
  0
APPID
  5
43E
330
9
100
AcDbSymbolTableRecord
100
AcDbRegAppTableRecord
  2
GEVID1208829537
 70
     0
  0
APPID
  5
43F
330
9
100
AcDbSymbolTableRecord
100
AcDbRegAppTableRecord
  2
ACAD_DSTYLE_DIMJAG
 70
     0
  0
APPID
  5
440
330
9
100
AcDbSymbolTableRecord
100
AcDbRegAppTableRecord
  2
ACAD_DSTYLE_DIMTALN
 70
     0
  0
APPID
  5
441
330
9
100
AcDbSymbolTableRecord
100
AcDbRegAppTableRecord
  2
AMG_2DHIDE
 70
     0
  0
APPID
  5
442
330
9
100
AcDbSymbolTableRecord
100
AcDbRegAppTableRecord
  2
AMG_2DSTRUCT_BTR
 70
     0
  0
APPID
  5
443
330
9
100
AcDbSymbolTableRecord
100
AcDbRegAppTableRecord
  2
GEVID1208845772
 70
     0
  0
APPID
  5
444
330
9
100
AcDbSymbolTableRecord
100
AcDbRegAppTableRecord
  2
GEVID1208845773
 70
     0
  0
APPID
  5
445
330
9
100
AcDbSymbolTableRecord
100
AcDbRegAppTableRecord
  2
ACADM_2DVIEW_IGN_NOTIFY
 70
     0
  0
APPID
  5
446
330
9
100
AcDbSymbolTableRecord
100
AcDbRegAppTableRecord
  2
GEVID1208845774
 70
     0
  0
APPID
  5
447
330
9
100
AcDbSymbolTableRecord
100
AcDbRegAppTableRecord
  2
GEVID1208845775
 70
     0
  0
APPID
  5
448
330
9
100
AcDbSymbolTableRecord
100
AcDbRegAppTableRecord
  2
GEVID1208845776
 70
     0
  0
APPID
  5
449
330
9
100
AcDbSymbolTableRecord
100
AcDbRegAppTableRecord
  2
GEVID1208845777
 70
     0
  0
APPID
  5
44A
330
9
100
AcDbSymbolTableRecord
100
AcDbRegAppTableRecord
  2
GEVCON
 70
     0
  0
APPID
  5
44B
330
9
100
AcDbSymbolTableRecord
100
AcDbRegAppTableRecord
  2
GENIUS_GENOBJ-F-SCPASSM_13
 70
     0
  0
APPID
  5
44C
330
9
100
AcDbSymbolTableRecord
100
AcDbRegAppTableRecord
  2
GEVID1208845778
 70
     0
  0
APPID
  5
44D
330
9
100
AcDbSymbolTableRecord
100
AcDbRegAppTableRecord
  2
GEVID1208845779
 70
     0
  0
APPID
  5
44E
330
9
100
AcDbSymbolTableRecord
100
AcDbRegAppTableRecord
  2
GEVID1208845780
 70
     0
  0
APPID
  5
44F
330
9
100
AcDbSymbolTableRecord
100
AcDbRegAppTableRecord
  2
GEVID1208845781
 70
     0
  0
APPID
  5
450
330
9
100
AcDbSymbolTableRecord
100
AcDbRegAppTableRecord
  2
GEVID1208845782
 70
     0
  0
APPID
  5
451
330
9
100
AcDbSymbolTableRecord
100
AcDbRegAppTableRecord
  2
GEVID1208845783
 70
     0
  0
APPID
  5
452
330
9
100
AcDbSymbolTableRecord
100
AcDbRegAppTableRecord
  2
GEVID1208845784
 70
     0
  0
APPID
  5
453
330
9
100
AcDbSymbolTableRecord
100
AcDbRegAppTableRecord
  2
GEVID1208845785
 70
     0
  0
APPID
  5
454
330
9
100
AcDbSymbolTableRecord
100
AcDbRegAppTableRecord
  2
GEVID1208845787
 70
     0
  0
APPID
  5
455
330
9
100
AcDbSymbolTableRecord
100
AcDbRegAppTableRecord
  2
GEVID1208845788
 70
     0
  0
APPID
  5
456
330
9
100
AcDbSymbolTableRecord
100
AcDbRegAppTableRecord
  2
GEVID1208845789
 70
     0
  0
APPID
  5
457
330
9
100
AcDbSymbolTableRecord
100
AcDbRegAppTableRecord
  2
GEVID1208845790
 70
     0
  0
APPID
  5
458
330
9
100
AcDbSymbolTableRecord
100
AcDbRegAppTableRecord
  2
GEVID1208845791
 70
     0
  0
APPID
  5
459
330
9
100
AcDbSymbolTableRecord
100
AcDbRegAppTableRecord
  2
GEVID1208845792
 70
     0
  0
APPID
  5
45A
330
9
100
AcDbSymbolTableRecord
100
AcDbRegAppTableRecord
  2
GEVID1208845793
 70
     0
  0
APPID
  5
45B
330
9
100
AcDbSymbolTableRecord
100
AcDbRegAppTableRecord
  2
GEVID1208845794
 70
     0
  0
APPID
  5
45C
330
9
100
AcDbSymbolTableRecord
100
AcDbRegAppTableRecord
  2
GEVID1208845795
 70
     0
  0
APPID
  5
45D
330
9
100
AcDbSymbolTableRecord
100
AcDbRegAppTableRecord
  2
GEVID1208845796
 70
     0
  0
APPID
  5
45E
330
9
100
AcDbSymbolTableRecord
100
AcDbRegAppTableRecord
  2
GEVID1208845797
 70
     0
  0
APPID
  5
45F
330
9
100
AcDbSymbolTableRecord
100
AcDbRegAppTableRecord
  2
GEVID1208845798
 70
     0
  0
APPID
  5
460
330
9
100
AcDbSymbolTableRecord
100
AcDbRegAppTableRecord
  2
GEVID1208845799
 70
     0
  0
APPID
  5
461
330
9
100
AcDbSymbolTableRecord
100
AcDbRegAppTableRecord
  2
GEVID1208845800
 70
     0
  0
APPID
  5
462
330
9
100
AcDbSymbolTableRecord
100
AcDbRegAppTableRecord
  2
GEVID1208845801
 70
     0
  0
APPID
  5
463
330
9
100
AcDbSymbolTableRecord
100
AcDbRegAppTableRecord
  2
GEVID1208845802
 70
     0
  0
APPID
  5
464
330
9
100
AcDbSymbolTableRecord
100
AcDbRegAppTableRecord
  2
GENIUS_GENOBJ-N-DIM_13
 70
     0
  0
APPID
  5
465
330
9
100
AcDbSymbolTableRecord
100
AcDbRegAppTableRecord
  2
GENIUS_GENDIM_13
 70
     0
  0
APPID
  5
466
330
9
100
AcDbSymbolTableRecord
100
AcDbRegAppTableRecord
  2
GENIUS_GENDIMSH_14
 70
     0
  0
APPID
  5
467
330
9
100
AcDbSymbolTableRecord
100
AcDbRegAppTableRecord
  2
GEVID1208845803
 70
     0
  0
APPID
  5
468
330
9
100
AcDbSymbolTableRecord
100
AcDbRegAppTableRecord
  2
GEVID1208845804
 70
     0
  0
APPID
  5
469
330
9
100
AcDbSymbolTableRecord
100
AcDbRegAppTableRecord
  2
GEVID1208845805
 70
     0
  0
APPID
  5
46A
330
9
100
AcDbSymbolTableRecord
100
AcDbRegAppTableRecord
  2
GEVID1208845806
 70
     0
  0
APPID
  5
46B
330
9
100
AcDbSymbolTableRecord
100
AcDbRegAppTableRecord
  2
GEVID1208845807
 70
     0
  0
APPID
  5
46C
330
9
100
AcDbSymbolTableRecord
100
AcDbRegAppTableRecord
  2
GEVID1208845808
 70
     0
  0
APPID
  5
46D
330
9
100
AcDbSymbolTableRecord
100
AcDbRegAppTableRecord
  2
GEVID1208845809
 70
     0
  0
APPID
  5
46E
330
9
100
AcDbSymbolTableRecord
100
AcDbRegAppTableRecord
  2
GEVID1208845810
 70
     0
  0
APPID
  5
46F
330
9
100
AcDbSymbolTableRecord
100
AcDbRegAppTableRecord
  2
GEVID1208845811
 70
     0
  0
APPID
  5
470
330
9
100
AcDbSymbolTableRecord
100
AcDbRegAppTableRecord
  2
GEVID1208845813
 70
     0
  0
APPID
  5
471
330
9
100
AcDbSymbolTableRecord
100
AcDbRegAppTableRecord
  2
GEVID1208845814
 70
     0
  0
APPID
  5
472
330
9
100
AcDbSymbolTableRecord
100
AcDbRegAppTableRecord
  2
GEVID1208845815
 70
     0
  0
APPID
  5
473
330
9
100
AcDbSymbolTableRecord
100
AcDbRegAppTableRecord
  2
GEVID1208845816
 70
     0
  0
APPID
  5
474
330
9
100
AcDbSymbolTableRecord
100
AcDbRegAppTableRecord
  2
GEVID1208845817
 70
     0
  0
APPID
  5
475
330
9
100
AcDbSymbolTableRecord
100
AcDbRegAppTableRecord
  2
GEVID1208845818
 70
     0
  0
APPID
  5
476
330
9
100
AcDbSymbolTableRecord
100
AcDbRegAppTableRecord
  2
GEVID1208845819
 70
     0
  0
APPID
  5
477
330
9
100
AcDbSymbolTableRecord
100
AcDbRegAppTableRecord
  2
GEVID1208845820
 70
     0
  0
APPID
  5
478
330
9
100
AcDbSymbolTableRecord
100
AcDbRegAppTableRecord
  2
GENIUS_GENOBJ-F-SHCL_13
 70
     0
  0
APPID
  5
479
330
9
100
AcDbSymbolTableRecord
100
AcDbRegAppTableRecord
  2
GENIUS_GEFMSH_13
 70
     0
  0
APPID
  5
47A
330
9
100
AcDbSymbolTableRecord
100
AcDbRegAppTableRecord
  2
GENIUS_GENOBJ-F-SHCA_13
 70
     0
  0
APPID
  5
47B
330
9
100
AcDbSymbolTableRecord
100
AcDbRegAppTableRecord
  2
GENIUS_GEFSH_13
 70
     0
  0
APPID
  5
47C
330
9
100
AcDbSymbolTableRecord
100
AcDbRegAppTableRecord
  2
GENIUS_GEFSHP_13
 70
     0
  0
APPID
  5
47D
330
9
100
AcDbSymbolTableRecord
100
AcDbRegAppTableRecord
  2
GENIUS_GEFSHP0_13
 70
     0
  0
APPID
  5
47E
330
9
100
AcDbSymbolTableRecord
100
AcDbRegAppTableRecord
  2
GENIUS_GEFSH0_13
 70
     0
  0
APPID
  5
47F
330
9
100
AcDbSymbolTableRecord
100
AcDbRegAppTableRecord
  2
GENIUS_GEFSHP1_13
 70
     0
  0
APPID
  5
480
330
9
100
AcDbSymbolTableRecord
100
AcDbRegAppTableRecord
  2
GENIUS_GEFSH1_13
 70
     0
  0
APPID
  5
481
330
9
100
AcDbSymbolTableRecord
100
AcDbRegAppTableRecord
  2
GEVID1208866337
 70
     0
  0
APPID
  5
482
330
9
100
AcDbSymbolTableRecord
100
AcDbRegAppTableRecord
  2
GEVID1208866338
 70
     0
  0
APPID
  5
483
330
9
100
AcDbSymbolTableRecord
100
AcDbRegAppTableRecord
  2
GEVID1208866339
 70
     0
  0
APPID
  5
484
330
9
100
AcDbSymbolTableRecord
100
AcDbRegAppTableRecord
  2
GEVID1208866340
 70
     0
  0
APPID
  5
485
330
9
100
AcDbSymbolTableRecord
100
AcDbRegAppTableRecord
  2
GEVID1208866341
 70
     0
  0
APPID
  5
486
330
9
100
AcDbSymbolTableRecord
100
AcDbRegAppTableRecord
  2
ACAD_PSEXT
 70
     0
  0
APPID
  5
487
330
9
100
AcDbSymbolTableRecord
100
AcDbRegAppTableRecord
  2
GEVID1208866342
 70
     0
  0
APPID
  5
488
330
9
100
AcDbSymbolTableRecord
100
AcDbRegAppTableRecord
  2
GEVID1208913836
 70
     0
  0
APPID
  5
489
330
9
100
AcDbSymbolTableRecord
100
AcDbRegAppTableRecord
  2
GEVID1208913837
 70
     0
  0
APPID
  5
48A
330
9
100
AcDbSymbolTableRecord
100
AcDbRegAppTableRecord
  2
GEVID1208913838
 70
     0
  0
APPID
  5
48B
330
9
100
AcDbSymbolTableRecord
100
AcDbRegAppTableRecord
  2
GEVID1208913839
 70
     0
  0
APPID
  5
48C
330
9
100
AcDbSymbolTableRecord
100
AcDbRegAppTableRecord
  2
GENIUS_GENDTOL_13
 70
     0
  0
APPID
  5
48D
330
9
100
AcDbSymbolTableRecord
100
AcDbRegAppTableRecord
  2
GEVID1208928889
 70
     0
  0
APPID
  5
48E
330
9
100
AcDbSymbolTableRecord
100
AcDbRegAppTableRecord
  2
GEVID1208928890
 70
     0
  0
APPID
  5
48F
330
9
100
AcDbSymbolTableRecord
100
AcDbRegAppTableRecord
  2
GEVID1208928891
 70
     0
  0
APPID
  5
490
330
9
100
AcDbSymbolTableRecord
100
AcDbRegAppTableRecord
  2
GEVID1208928892
 70
     0
  0
APPID
  5
491
330
9
100
AcDbSymbolTableRecord
100
AcDbRegAppTableRecord
  2
GEVID1208933827
 70
     0
  0
APPID
  5
492
330
9
100
AcDbSymbolTableRecord
100
AcDbRegAppTableRecord
  2
GEVID1208933829
 70
     0
  0
APPID
  5
493
330
9
100
AcDbSymbolTableRecord
100
AcDbRegAppTableRecord
  2
GEVID1208933830
 70
     0
  0
APPID
  5
494
330
9
100
AcDbSymbolTableRecord
100
AcDbRegAppTableRecord
  2
GEVID1208933831
 70
     0
  0
APPID
  5
495
330
9
100
AcDbSymbolTableRecord
100
AcDbRegAppTableRecord
  2
GEVID1208933832
 70
     0
  0
APPID
  5
496
330
9
100
AcDbSymbolTableRecord
100
AcDbRegAppTableRecord
  2
GEVID1208933833
 70
     0
  0
APPID
  5
497
330
9
100
AcDbSymbolTableRecord
100
AcDbRegAppTableRecord
  2
GEVID1208933834
 70
     0
  0
APPID
  5
498
330
9
100
AcDbSymbolTableRecord
100
AcDbRegAppTableRecord
  2
GEVID1208933835
 70
     0
  0
APPID
  5
499
330
9
100
AcDbSymbolTableRecord
100
AcDbRegAppTableRecord
  2
GEVID1208933836
 70
     0
  0
APPID
  5
49A
330
9
100
AcDbSymbolTableRecord
100
AcDbRegAppTableRecord
  2
GEVID1208933837
 70
     0
  0
APPID
  5
49B
330
9
100
AcDbSymbolTableRecord
100
AcDbRegAppTableRecord
  2
GEVID1208933838
 70
     0
  0
APPID
  5
49C
330
9
100
AcDbSymbolTableRecord
100
AcDbRegAppTableRecord
  2
GEVID1208933840
 70
     0
  0
APPID
  5
49D
330
9
100
AcDbSymbolTableRecord
100
AcDbRegAppTableRecord
  2
GEVID1208933842
 70
     0
  0
APPID
  5
49E
330
9
100
AcDbSymbolTableRecord
100
AcDbRegAppTableRecord
  2
GEVID1208933843
 70
     0
  0
APPID
  5
49F
330
9
100
AcDbSymbolTableRecord
100
AcDbRegAppTableRecord
  2
GEVID1208933844
 70
     0
  0
APPID
  5
4A0
330
9
100
AcDbSymbolTableRecord
100
AcDbRegAppTableRecord
  2
GEVID1208933845
 70
     0
  0
APPID
  5
4A1
330
9
100
AcDbSymbolTableRecord
100
AcDbRegAppTableRecord
  2
GEVID1208933846
 70
     0
  0
APPID
  5
4A2
330
9
100
AcDbSymbolTableRecord
100
AcDbRegAppTableRecord
  2
GEVID1208933847
 70
     0
  0
APPID
  5
4A3
330
9
100
AcDbSymbolTableRecord
100
AcDbRegAppTableRecord
  2
GEVID1208933848
 70
     0
  0
APPID
  5
4A4
330
9
100
AcDbSymbolTableRecord
100
AcDbRegAppTableRecord
  2
GEVID1208933849
 70
     0
  0
APPID
  5
4A5
330
9
100
AcDbSymbolTableRecord
100
AcDbRegAppTableRecord
  2
GEVID1208933850
 70
     0
  0
APPID
  5
4A6
330
9
100
AcDbSymbolTableRecord
100
AcDbRegAppTableRecord
  2
GEVID1208933851
 70
     0
  0
APPID
  5
4A7
330
9
100
AcDbSymbolTableRecord
100
AcDbRegAppTableRecord
  2
GEVID1208933852
 70
     0
  0
APPID
  5
4A8
330
9
100
AcDbSymbolTableRecord
100
AcDbRegAppTableRecord
  2
GEVID1208933853
 70
     0
  0
APPID
  5
4A9
330
9
100
AcDbSymbolTableRecord
100
AcDbRegAppTableRecord
  2
GEVID1208933854
 70
     0
  0
APPID
  5
4AA
330
9
100
AcDbSymbolTableRecord
100
AcDbRegAppTableRecord
  2
GEVID1208933855
 70
     0
  0
APPID
  5
4AB
330
9
100
AcDbSymbolTableRecord
100
AcDbRegAppTableRecord
  2
GEVID1208933856
 70
     0
  0
APPID
  5
4AC
330
9
100
AcDbSymbolTableRecord
100
AcDbRegAppTableRecord
  2
GEVID1208933857
 70
     0
  0
APPID
  5
4AD
330
9
100
AcDbSymbolTableRecord
100
AcDbRegAppTableRecord
  2
GEVID1208933858
 70
     0
  0
APPID
  5
4AE
330
9
100
AcDbSymbolTableRecord
100
AcDbRegAppTableRecord
  2
GEVID1208933859
 70
     0
  0
APPID
  5
4AF
330
9
100
AcDbSymbolTableRecord
100
AcDbRegAppTableRecord
  2
GEVID1208933860
 70
     0
  0
APPID
  5
4B0
330
9
100
AcDbSymbolTableRecord
100
AcDbRegAppTableRecord
  2
GEVID1208933861
 70
     0
  0
APPID
  5
4B1
330
9
100
AcDbSymbolTableRecord
100
AcDbRegAppTableRecord
  2
GEVID1208933862
 70
     0
  0
APPID
  5
4B2
330
9
100
AcDbSymbolTableRecord
100
AcDbRegAppTableRecord
  2
GEVID1208933863
 70
     0
  0
APPID
  5
4B3
330
9
100
AcDbSymbolTableRecord
100
AcDbRegAppTableRecord
  2
GEVID1208933864
 70
     0
  0
APPID
  5
4B4
330
9
100
AcDbSymbolTableRecord
100
AcDbRegAppTableRecord
  2
GEVID1208933865
 70
     0
  0
APPID
  5
4B5
330
9
100
AcDbSymbolTableRecord
100
AcDbRegAppTableRecord
  2
GEVID1208933866
 70
     0
  0
APPID
  5
4B6
330
9
100
AcDbSymbolTableRecord
100
AcDbRegAppTableRecord
  2
GEVID1208933867
 70
     0
  0
APPID
  5
4B7
330
9
100
AcDbSymbolTableRecord
100
AcDbRegAppTableRecord
  2
GEVID1208933868
 70
     0
  0
APPID
  5
4B8
330
9
100
AcDbSymbolTableRecord
100
AcDbRegAppTableRecord
  2
GEVID1208933869
 70
     0
  0
APPID
  5
4B9
330
9
100
AcDbSymbolTableRecord
100
AcDbRegAppTableRecord
  2
GEVID1208933870
 70
     0
  0
APPID
  5
4BA
330
9
100
AcDbSymbolTableRecord
100
AcDbRegAppTableRecord
  2
GEVID1208933871
 70
     0
  0
APPID
  5
4BB
330
9
100
AcDbSymbolTableRecord
100
AcDbRegAppTableRecord
  2
GEVID1208933872
 70
     0
  0
APPID
  5
4BC
330
9
100
AcDbSymbolTableRecord
100
AcDbRegAppTableRecord
  2
GEVID1208933873
 70
     0
  0
APPID
  5
4BD
330
9
100
AcDbSymbolTableRecord
100
AcDbRegAppTableRecord
  2
GEVID1208933874
 70
     0
  0
APPID
  5
4BE
330
9
100
AcDbSymbolTableRecord
100
AcDbRegAppTableRecord
  2
GEVID1208933875
 70
     0
  0
APPID
  5
4BF
330
9
100
AcDbSymbolTableRecord
100
AcDbRegAppTableRecord
  2
GEVID1208933876
 70
     0
  0
APPID
  5
4C0
330
9
100
AcDbSymbolTableRecord
100
AcDbRegAppTableRecord
  2
ACAD_DSTYLE_DIMRADIAL_EXTENSION
 70
     0
  0
APPID
  5
4C1
330
9
100
AcDbSymbolTableRecord
100
AcDbRegAppTableRecord
  2
GEVID1208999100
 70
     0
  0
APPID
  5
4C2
330
9
100
AcDbSymbolTableRecord
100
AcDbRegAppTableRecord
  2
GEVID1208999101
 70
     0
  0
APPID
  5
4C3
330
9
100
AcDbSymbolTableRecord
100
AcDbRegAppTableRecord
  2
GEVID1208999102
 70
     0
  0
APPID
  5
4C4
330
9
100
AcDbSymbolTableRecord
100
AcDbRegAppTableRecord
  2
GEVID1208999103
 70
     0
  0
APPID
  5
4C5
330
9
100
AcDbSymbolTableRecord
100
AcDbRegAppTableRecord
  2
GEVID1208999105
 70
     0
  0
APPID
  5
4C6
330
9
100
AcDbSymbolTableRecord
100
AcDbRegAppTableRecord
  2
GEVID1208999106
 70
     0
  0
APPID
  5
4C7
330
9
100
AcDbSymbolTableRecord
100
AcDbRegAppTableRecord
  2
GEVID1208999108
 70
     0
  0
APPID
  5
4C8
330
9
100
AcDbSymbolTableRecord
100
AcDbRegAppTableRecord
  2
GEVID1208999109
 70
     0
  0
APPID
  5
4C9
330
9
100
AcDbSymbolTableRecord
100
AcDbRegAppTableRecord
  2
GEVID1208999110
 70
     0
  0
APPID
  5
4CA
330
9
100
AcDbSymbolTableRecord
100
AcDbRegAppTableRecord
  2
GEVID1208999111
 70
     0
  0
APPID
  5
4CB
330
9
100
AcDbSymbolTableRecord
100
AcDbRegAppTableRecord
  2
GEVID1208999112
 70
     0
  0
APPID
  5
4CC
330
9
100
AcDbSymbolTableRecord
100
AcDbRegAppTableRecord
  2
GEVID1208999113
 70
     0
  0
APPID
  5
4CD
330
9
100
AcDbSymbolTableRecord
100
AcDbRegAppTableRecord
  2
GEVID1208999114
 70
     0
  0
APPID
  5
4CE
330
9
100
AcDbSymbolTableRecord
100
AcDbRegAppTableRecord
  2
GEVID1210218799
 70
     0
  0
APPID
  5
4CF
330
9
100
AcDbSymbolTableRecord
100
AcDbRegAppTableRecord
  2
GEVID1210218800
 70
     0
  0
APPID
  5
4D0
330
9
100
AcDbSymbolTableRecord
100
AcDbRegAppTableRecord
  2
GENIUS_GEFWELD_13
 70
     0
  0
APPID
  5
4D1
330
9
100
AcDbSymbolTableRecord
100
AcDbRegAppTableRecord
  2
GENIUS_GENOBJ-F-WELS_13
 70
     0
  0
APPID
  5
4D2
330
9
100
AcDbSymbolTableRecord
100
AcDbRegAppTableRecord
  2
AcadAnnotative
 70
     0
  0
APPID
  5
4D3
330
9
100
AcDbSymbolTableRecord
100
AcDbRegAppTableRecord
  2
GEVID1210145339
 70
     0
  0
APPID
  5
4D4
330
9
100
AcDbSymbolTableRecord
100
AcDbRegAppTableRecord
  2
ACAD_DSTYLE_DIMBREAK
 70
     0
  0
APPID
  5
4D5
330
9
100
AcDbSymbolTableRecord
100
AcDbRegAppTableRecord
  2
GEVID1210145340
 70
     0
  0
APPID
  5
4D6
330
9
100
AcDbSymbolTableRecord
100
AcDbRegAppTableRecord
  2
GEVID1210145341
 70
     0
  0
APPID
  5
4D7
330
9
100
AcDbSymbolTableRecord
100
AcDbRegAppTableRecord
  2
GEVID1210145342
 70
     0
  0
APPID
  5
4D8
330
9
100
AcDbSymbolTableRecord
100
AcDbRegAppTableRecord
  2
GEVID1210145343
 70
     0
  0
APPID
  5
4D9
330
9
100
AcDbSymbolTableRecord
100
AcDbRegAppTableRecord
  2
GEVID1210145344
 70
     0
  0
APPID
  5
4DA
330
9
100
AcDbSymbolTableRecord
100
AcDbRegAppTableRecord
  2
GEVID1210145345
 70
     0
  0
APPID
  5
4DB
330
9
100
AcDbSymbolTableRecord
100
AcDbRegAppTableRecord
  2
GEVID1210152816
 70
     0
  0
APPID
  5
4DC
330
9
100
AcDbSymbolTableRecord
100
AcDbRegAppTableRecord
  2
GEVID1210153850
 70
     0
  0
APPID
  5
4DD
330
9
100
AcDbSymbolTableRecord
100
AcDbRegAppTableRecord
  2
GEVID1210153851
 70
     0
  0
APPID
  5
4DE
330
9
100
AcDbSymbolTableRecord
100
AcDbRegAppTableRecord
  2
GEVID1210153852
 70
     0
  0
APPID
  5
4DF
330
9
100
AcDbSymbolTableRecord
100
AcDbRegAppTableRecord
  2
GEVID1210549898
 70
     0
  0
APPID
  5
4E0
330
9
100
AcDbSymbolTableRecord
100
AcDbRegAppTableRecord
  2
GEVID1210549899
 70
     0
  0
APPID
  5
4E1
330
9
100
AcDbSymbolTableRecord
100
AcDbRegAppTableRecord
  2
GEVID1210549900
 70
     0
  0
APPID
  5
4E2
330
9
100
AcDbSymbolTableRecord
100
AcDbRegAppTableRecord
  2
GEVID1210549901
 70
     0
  0
APPID
  5
4E3
330
9
100
AcDbSymbolTableRecord
100
AcDbRegAppTableRecord
  2
GEVID1210549902
 70
     0
  0
APPID
  5
4E4
330
9
100
AcDbSymbolTableRecord
100
AcDbRegAppTableRecord
  2
GEVID1210549903
 70
     0
  0
APPID
  5
4E5
330
9
100
AcDbSymbolTableRecord
100
AcDbRegAppTableRecord
  2
GEVID1210549904
 70
     0
  0
APPID
  5
4E6
330
9
100
AcDbSymbolTableRecord
100
AcDbRegAppTableRecord
  2
GEVID1210549905
 70
     0
  0
APPID
  5
4E7
330
9
100
AcDbSymbolTableRecord
100
AcDbRegAppTableRecord
  2
GEVID1210549906
 70
     0
  0
APPID
  5
4E8
330
9
100
AcDbSymbolTableRecord
100
AcDbRegAppTableRecord
  2
GEVID1210549907
 70
     0
  0
APPID
  5
4E9
330
9
100
AcDbSymbolTableRecord
100
AcDbRegAppTableRecord
  2
GEVID1210549908
 70
     0
  0
APPID
  5
4EA
330
9
100
AcDbSymbolTableRecord
100
AcDbRegAppTableRecord
  2
GEVID1210549909
 70
     0
  0
APPID
  5
4EB
330
9
100
AcDbSymbolTableRecord
100
AcDbRegAppTableRecord
  2
GEVID1210549910
 70
     0
  0
APPID
  5
4EC
330
9
100
AcDbSymbolTableRecord
100
AcDbRegAppTableRecord
  2
GEVID1210549911
 70
     0
  0
APPID
  5
4ED
330
9
100
AcDbSymbolTableRecord
100
AcDbRegAppTableRecord
  2
GEVID1210549912
 70
     0
  0
APPID
  5
4EE
330
9
100
AcDbSymbolTableRecord
100
AcDbRegAppTableRecord
  2
GEVID1210549913
 70
     0
  0
APPID
  5
4EF
330
9
100
AcDbSymbolTableRecord
100
AcDbRegAppTableRecord
  2
GEVID1210549914
 70
     0
  0
APPID
  5
4F0
330
9
100
AcDbSymbolTableRecord
100
AcDbRegAppTableRecord
  2
GEVID1210549915
 70
     0
  0
APPID
  5
4F1
330
9
100
AcDbSymbolTableRecord
100
AcDbRegAppTableRecord
  2
GEVID1210549916
 70
     0
  0
APPID
  5
4F2
330
9
100
AcDbSymbolTableRecord
100
AcDbRegAppTableRecord
  2
GEVID1210549917
 70
     0
  0
APPID
  5
4F3
330
9
100
AcDbSymbolTableRecord
100
AcDbRegAppTableRecord
  2
GENIUS_GENOBJ-N-CRS_13
 70
     0
  0
APPID
  5
4F4
330
9
100
AcDbSymbolTableRecord
100
AcDbRegAppTableRecord
  2
GEVID1210549918
 70
     0
  0
APPID
  5
4F5
330
9
100
AcDbSymbolTableRecord
100
AcDbRegAppTableRecord
  2
GENIUS_GENOBJ-N-CRC_13
 70
     0
  0
APPID
  5
4F6
330
9
100
AcDbSymbolTableRecord
100
AcDbRegAppTableRecord
  2
GENIUS_GENCRC_14
 70
     0
  0
APPID
  5
4F7
330
9
100
AcDbSymbolTableRecord
100
AcDbRegAppTableRecord
  2
GEVID1210549919
 70
     0
  0
APPID
  5
4F8
330
9
100
AcDbSymbolTableRecord
100
AcDbRegAppTableRecord
  2
GEVID1210549921
 70
     0
  0
APPID
  5
4F9
330
9
100
AcDbSymbolTableRecord
100
AcDbRegAppTableRecord
  2
GEVID1210549922
 70
     0
  0
APPID
  5
4FA
330
9
100
AcDbSymbolTableRecord
100
AcDbRegAppTableRecord
  2
GEVID1210635173
 70
     0
  0
APPID
  5
4FB
330
9
100
AcDbSymbolTableRecord
100
AcDbRegAppTableRecord
  2
GEVID1210635174
 70
     0
  0
APPID
  5
4FC
330
9
100
AcDbSymbolTableRecord
100
AcDbRegAppTableRecord
  2
GEVID1210635175
 70
     0
  0
APPID
  5
4FD
330
9
100
AcDbSymbolTableRecord
100
AcDbRegAppTableRecord
  2
GEVID1210635176
 70
     0
  0
APPID
  5
4FE
330
9
100
AcDbSymbolTableRecord
100
AcDbRegAppTableRecord
  2
GEVID1210635177
 70
     0
  0
APPID
  5
4FF
330
9
100
AcDbSymbolTableRecord
100
AcDbRegAppTableRecord
  2
GEVID1210635178
 70
     0
  0
APPID
  5
500
330
9
100
AcDbSymbolTableRecord
100
AcDbRegAppTableRecord
  2
GENIUS_GENIUS_GENBHEDTMP_13
 70
     0
  0
APPID
  5
501
330
9
100
AcDbSymbolTableRecord
100
AcDbRegAppTableRecord
  2
GEVID1210635179
 70
     0
  0
APPID
  5
502
330
9
100
AcDbSymbolTableRecord
100
AcDbRegAppTableRecord
  2
GEVID1210635180
 70
     0
  0
APPID
  5
503
330
9
100
AcDbSymbolTableRecord
100
AcDbRegAppTableRecord
  2
GEVID1210635181
 70
     0
  0
APPID
  5
504
330
9
100
AcDbSymbolTableRecord
100
AcDbRegAppTableRecord
  2
GEVID1210635182
 70
     0
  0
APPID
  5
505
330
9
100
AcDbSymbolTableRecord
100
AcDbRegAppTableRecord
  2
GEVID1210635184
 70
     0
  0
APPID
  5
506
330
9
100
AcDbSymbolTableRecord
100
AcDbRegAppTableRecord
  2
GEVID1210635185
 70
     0
  0
APPID
  5
507
330
9
100
AcDbSymbolTableRecord
100
AcDbRegAppTableRecord
  2
GEVID1210635186
 70
     0
  0
APPID
  5
508
330
9
100
AcDbSymbolTableRecord
100
AcDbRegAppTableRecord
  2
GEVID1210635187
 70
     0
  0
APPID
  5
509
330
9
100
AcDbSymbolTableRecord
100
AcDbRegAppTableRecord
  2
GEVID1210635188
 70
     0
  0
APPID
  5
50A
330
9
100
AcDbSymbolTableRecord
100
AcDbRegAppTableRecord
  2
GEVID1210635189
 70
     0
  0
APPID
  5
50B
330
9
100
AcDbSymbolTableRecord
100
AcDbRegAppTableRecord
  2
GEVID1210635190
 70
     0
  0
APPID
  5
50C
330
9
100
AcDbSymbolTableRecord
100
AcDbRegAppTableRecord
  2
GENIUS_GENREC_14
 70
     0
  0
APPID
  5
50D
330
9
100
AcDbSymbolTableRecord
100
AcDbRegAppTableRecord
  2
GENIUS_GENOBJ-N-REC_13
 70
     0
  0
APPID
  5
50E
330
9
100
AcDbSymbolTableRecord
100
AcDbRegAppTableRecord
  2
GEVID1210676655
 70
     0
  0
APPID
  5
50F
330
9
100
AcDbSymbolTableRecord
100
AcDbRegAppTableRecord
  2
GEVID1210676656
 70
     0
  0
APPID
  5
510
330
9
100
AcDbSymbolTableRecord
100
AcDbRegAppTableRecord
  2
GEVID1210676657
 70
     0
  0
APPID
  5
511
330
9
100
AcDbSymbolTableRecord
100
AcDbRegAppTableRecord
  2
GEVID1210676659
 70
     0
  0
APPID
  5
512
330
9
100
AcDbSymbolTableRecord
100
AcDbRegAppTableRecord
  2
GEVID1210676660
 70
     0
  0
APPID
  5
513
330
9
100
AcDbSymbolTableRecord
100
AcDbRegAppTableRecord
  2
GEVID1210676661
 70
     0
  0
APPID
  5
514
330
9
100
AcDbSymbolTableRecord
100
AcDbRegAppTableRecord
  2
GEVID1210676662
 70
     0
  0
APPID
  5
515
330
9
100
AcDbSymbolTableRecord
100
AcDbRegAppTableRecord
  2
GEVID1210721646
 70
     0
  0
APPID
  5
516
330
9
100
AcDbSymbolTableRecord
100
AcDbRegAppTableRecord
  2
GEVID1210721647
 70
     0
  0
APPID
  5
517
330
9
100
AcDbSymbolTableRecord
100
AcDbRegAppTableRecord
  2
GEVID1210721648
 70
     0
  0
APPID
  5
518
330
9
100
AcDbSymbolTableRecord
100
AcDbRegAppTableRecord
  2
GEVID1210721649
 70
     0
  0
APPID
  5
519
330
9
100
AcDbSymbolTableRecord
100
AcDbRegAppTableRecord
  2
GEVID1210721650
 70
     0
  0
APPID
  5
51A
330
9
100
AcDbSymbolTableRecord
100
AcDbRegAppTableRecord
  2
GEVID1210721651
 70
     0
  0
APPID
  5
51B
330
9
100
AcDbSymbolTableRecord
100
AcDbRegAppTableRecord
  2
GEVID1210721652
 70
     0
  0
APPID
  5
51C
330
9
100
AcDbSymbolTableRecord
100
AcDbRegAppTableRecord
  2
GEVID1210721653
 70
     0
  0
APPID
  5
51D
330
9
100
AcDbSymbolTableRecord
100
AcDbRegAppTableRecord
  2
PE_URL
 70
     0
  0
APPID
  5
51E
330
9
100
AcDbSymbolTableRecord
100
AcDbRegAppTableRecord
  2
GEVID1210825555
 70
     0
  0
APPID
  5
51F
330
9
100
AcDbSymbolTableRecord
100
AcDbRegAppTableRecord
  2
GEVID1210825556
 70
     0
  0
APPID
  5
520
330
9
100
AcDbSymbolTableRecord
100
AcDbRegAppTableRecord
  2
GEVID1210825557
 70
     0
  0
APPID
  5
521
330
9
100
AcDbSymbolTableRecord
100
AcDbRegAppTableRecord
  2
GEVID1210825558
 70
     0
  0
APPID
  5
522
330
9
100
AcDbSymbolTableRecord
100
AcDbRegAppTableRecord
  2
GEVID1210825559
 70
     0
  0
APPID
  5
523
330
9
100
AcDbSymbolTableRecord
100
AcDbRegAppTableRecord
  2
GEVID1210825560
 70
     0
  0
APPID
  5
524
330
9
100
AcDbSymbolTableRecord
100
AcDbRegAppTableRecord
  2
GEVID1210825561
 70
     0
  0
APPID
  5
525
330
9
100
AcDbSymbolTableRecord
100
AcDbRegAppTableRecord
  2
GEVID1210825562
 70
     0
  0
APPID
  5
526
330
9
100
AcDbSymbolTableRecord
100
AcDbRegAppTableRecord
  2
GEVID1210825563
 70
     0
  0
APPID
  5
527
330
9
100
AcDbSymbolTableRecord
100
AcDbRegAppTableRecord
  2
GEVID1210825564
 70
     0
  0
APPID
  5
528
330
9
100
AcDbSymbolTableRecord
100
AcDbRegAppTableRecord
  2
GEVID1210825565
 70
     0
  0
APPID
  5
529
330
9
100
AcDbSymbolTableRecord
100
AcDbRegAppTableRecord
  2
GEVID1210825566
 70
     0
  0
APPID
  5
52A
330
9
100
AcDbSymbolTableRecord
100
AcDbRegAppTableRecord
  2
GEVID1210825567
 70
     0
  0
APPID
  5
52B
330
9
100
AcDbSymbolTableRecord
100
AcDbRegAppTableRecord
  2
GENIUS_GENOBJ-N-ZOO_13
 70
     0
  0
APPID
  5
52C
330
9
100
AcDbSymbolTableRecord
100
AcDbRegAppTableRecord
  2
GENIUS_GENZOO_17
 70
     0
  0
APPID
  5
52D
330
9
100
AcDbSymbolTableRecord
100
AcDbRegAppTableRecord
  2
ACADANNOTATIVEDECOMPOSITION
 70
     0
  0
APPID
  5
52E
330
9
100
AcDbSymbolTableRecord
100
AcDbRegAppTableRecord
  2
GENIUS_GENOBJ-N-HTC_13
 70
     0
  0
APPID
  5
52F
330
9
100
AcDbSymbolTableRecord
100
AcDbRegAppTableRecord
  2
GENIUS_GENHATCH_13
 70
     0
  0
APPID
  5
530
330
9
100
AcDbSymbolTableRecord
100
AcDbRegAppTableRecord
  2
GEVID1210896020
 70
     0
  0
APPID
  5
531
330
9
100
AcDbSymbolTableRecord
100
AcDbRegAppTableRecord
  2
GEVID1210896021
 70
     0
  0
APPID
  5
532
330
9
100
AcDbSymbolTableRecord
100
AcDbRegAppTableRecord
  2
GEVID1209083540
 70
     0
  0
APPID
  5
533
330
9
100
AcDbSymbolTableRecord
100
AcDbRegAppTableRecord
  2
GEVMK
 70
     0
  0
APPID
  5
534
330
9
100
AcDbSymbolTableRecord
100
AcDbRegAppTableRecord
  2
GEVID1209083542
 70
     0
  0
APPID
  5
535
330
9
100
AcDbSymbolTableRecord
100
AcDbRegAppTableRecord
  2
GEVID1209083543
 70
     0
  0
APPID
  5
536
330
9
100
AcDbSymbolTableRecord
100
AcDbRegAppTableRecord
  2
GEVID1209083544
 70
     0
  0
APPID
  5
537
330
9
100
AcDbSymbolTableRecord
100
AcDbRegAppTableRecord
  2
GEVID1209083545
 70
     0
  0
APPID
  5
538
330
9
100
AcDbSymbolTableRecord
100
AcDbRegAppTableRecord
  2
GEVID1209083546
 70
     0
  0
APPID
  5
539
330
9
100
AcDbSymbolTableRecord
100
AcDbRegAppTableRecord
  2
GEVID1209083547
 70
     0
  0
APPID
  5
53A
330
9
100
AcDbSymbolTableRecord
100
AcDbRegAppTableRecord
  2
GEVID1209083548
 70
     0
  0
APPID
  5
53B
330
9
100
AcDbSymbolTableRecord
100
AcDbRegAppTableRecord
  2
GEVID1209083549
 70
     0
  0
APPID
  5
53C
330
9
100
AcDbSymbolTableRecord
100
AcDbRegAppTableRecord
  2
GEVID1209083550
 70
     0
  0
APPID
  5
53D
330
9
100
AcDbSymbolTableRecord
100
AcDbRegAppTableRecord
  2
GEVID1209083551
 70
     0
  0
APPID
  5
53E
330
9
100
AcDbSymbolTableRecord
100
AcDbRegAppTableRecord
  2
GEVID1209083552
 70
     0
  0
APPID
  5
53F
330
9
100
AcDbSymbolTableRecord
100
AcDbRegAppTableRecord
  2
GEVID1209083553
 70
     0
  0
APPID
  5
540
330
9
100
AcDbSymbolTableRecord
100
AcDbRegAppTableRecord
  2
GEVID1210896022
 70
     0
  0
APPID
  5
541
330
9
100
AcDbSymbolTableRecord
100
AcDbRegAppTableRecord
  2
GEVID1211508364
 70
     0
  0
APPID
  5
542
330
9
100
AcDbSymbolTableRecord
100
AcDbRegAppTableRecord
  2
GEVID1211414908
 70
     0
  0
APPID
  5
543
330
9
100
AcDbSymbolTableRecord
100
AcDbRegAppTableRecord
  2
GEVID1211414909
 70
     0
  0
APPID
  5
544
330
9
100
AcDbSymbolTableRecord
100
AcDbRegAppTableRecord
  2
GEVID1211508359
 70
     0
  0
APPID
  5
545
330
9
100
AcDbSymbolTableRecord
100
AcDbRegAppTableRecord
  2
GEVID1211508360
 70
     0
  0
APPID
  5
546
330
9
100
AcDbSymbolTableRecord
100
AcDbRegAppTableRecord
  2
GEVID1211508361
 70
     0
  0
APPID
  5
547
330
9
100
AcDbSymbolTableRecord
100
AcDbRegAppTableRecord
  2
GEVID1211508362
 70
     0
  0
APPID
  5
548
330
9
100
AcDbSymbolTableRecord
100
AcDbRegAppTableRecord
  2
GEVID1211508363
 70
     0
  0
APPID
  5
549
330
9
100
AcDbSymbolTableRecord
100
AcDbRegAppTableRecord
  2
GEVID1211878469
 70
     0
  0
APPID
  5
54A
330
9
100
AcDbSymbolTableRecord
100
AcDbRegAppTableRecord
  2
GEVID1212642819
 70
     0
  0
APPID
  5
54B
330
9
100
AcDbSymbolTableRecord
100
AcDbRegAppTableRecord
  2
GEVID1212642820
 70
     0
  0
APPID
  5
54C
330
9
100
AcDbSymbolTableRecord
100
AcDbRegAppTableRecord
  2
GEVID1212642821
 70
     0
  0
APPID
  5
54D
330
9
100
AcDbSymbolTableRecord
100
AcDbRegAppTableRecord
  2
GEVID1212642822
 70
     0
  0
APPID
  5
54E
330
9
100
AcDbSymbolTableRecord
100
AcDbRegAppTableRecord
  2
GEVID1212642823
 70
     0
  0
APPID
  5
54F
330
9
100
AcDbSymbolTableRecord
100
AcDbRegAppTableRecord
  2
GEVID1212642825
 70
     0
  0
APPID
  5
550
330
9
100
AcDbSymbolTableRecord
100
AcDbRegAppTableRecord
  2
GEVID1212642826
 70
     0
  0
APPID
  5
551
330
9
100
AcDbSymbolTableRecord
100
AcDbRegAppTableRecord
  2
GEVID1212642827
 70
     0
  0
APPID
  5
552
330
9
100
AcDbSymbolTableRecord
100
AcDbRegAppTableRecord
  2
GEVID1212642828
 70
     0
  0
APPID
  5
553
330
9
100
AcDbSymbolTableRecord
100
AcDbRegAppTableRecord
  2
GEVID1212642831
 70
     0
  0
APPID
  5
554
330
9
100
AcDbSymbolTableRecord
100
AcDbRegAppTableRecord
  2
GEVID1212642834
 70
     0
  0
APPID
  5
555
330
9
100
AcDbSymbolTableRecord
100
AcDbRegAppTableRecord
  2
GEVID1212642835
 70
     0
  0
APPID
  5
556
330
9
100
AcDbSymbolTableRecord
100
AcDbRegAppTableRecord
  2
GEVID1212642836
 70
     0
  0
APPID
  5
557
330
9
100
AcDbSymbolTableRecord
100
AcDbRegAppTableRecord
  2
GEVID1212642837
 70
     0
  0
APPID
  5
558
330
9
100
AcDbSymbolTableRecord
100
AcDbRegAppTableRecord
  2
GEVID1212642839
 70
     0
  0
APPID
  5
559
330
9
100
AcDbSymbolTableRecord
100
AcDbRegAppTableRecord
  2
GEVID1212642840
 70
     0
  0
APPID
  5
55A
330
9
100
AcDbSymbolTableRecord
100
AcDbRegAppTableRecord
  2
GEVID1212642841
 70
     0
  0
APPID
  5
55B
330
9
100
AcDbSymbolTableRecord
100
AcDbRegAppTableRecord
  2
GEVID1212655312
 70
     0
  0
APPID
  5
55C
330
9
100
AcDbSymbolTableRecord
100
AcDbRegAppTableRecord
  2
GEVID1212655313
 70
     0
  0
APPID
  5
55D
330
9
100
AcDbSymbolTableRecord
100
AcDbRegAppTableRecord
  2
GEVID1212656533
 70
     0
  0
APPID
  5
55E
330
9
100
AcDbSymbolTableRecord
100
AcDbRegAppTableRecord
  2
GEVID1212656534
 70
     0
  0
APPID
  5
55F
330
9
100
AcDbSymbolTableRecord
100
AcDbRegAppTableRecord
  2
GEVID1212656535
 70
     0
  0
APPID
  5
560
330
9
100
AcDbSymbolTableRecord
100
AcDbRegAppTableRecord
  2
GEVID1212656536
 70
     0
  0
APPID
  5
561
330
9
100
AcDbSymbolTableRecord
100
AcDbRegAppTableRecord
  2
GEVID1212656538
 70
     0
  0
APPID
  5
562
330
9
100
AcDbSymbolTableRecord
100
AcDbRegAppTableRecord
  2
GEVID1212656541
 70
     0
  0
APPID
  5
563
330
9
100
AcDbSymbolTableRecord
100
AcDbRegAppTableRecord
  2
GEVID1212656543
 70
     0
  0
APPID
  5
564
330
9
100
AcDbSymbolTableRecord
100
AcDbRegAppTableRecord
  2
GENIUS_GENOBJ-F-PFASSM_13
 70
     0
  0
APPID
  5
565
330
9
100
AcDbSymbolTableRecord
100
AcDbRegAppTableRecord
  2
GEVID1212656544
 70
     0
  0
APPID
  5
566
330
9
100
AcDbSymbolTableRecord
100
AcDbRegAppTableRecord
  2
GEVID1212656545
 70
     0
  0
APPID
  5
567
330
9
100
AcDbSymbolTableRecord
100
AcDbRegAppTableRecord
  2
GEVID1212656546
 70
     0
  0
APPID
  5
568
330
9
100
AcDbSymbolTableRecord
100
AcDbRegAppTableRecord
  2
GEVID1212656547
 70
     0
  0
APPID
  5
569
330
9
100
AcDbSymbolTableRecord
100
AcDbRegAppTableRecord
  2
GEVID1212656548
 70
     0
  0
APPID
  5
56A
330
9
100
AcDbSymbolTableRecord
100
AcDbRegAppTableRecord
  2
GEVID1212656549
 70
     0
  0
APPID
  5
56B
330
9
100
AcDbSymbolTableRecord
100
AcDbRegAppTableRecord
  2
GEVID1212656550
 70
     0
  0
APPID
  5
56C
330
9
100
AcDbSymbolTableRecord
100
AcDbRegAppTableRecord
  2
GEVID1212656552
 70
     0
  0
APPID
  5
56D
330
9
100
AcDbSymbolTableRecord
100
AcDbRegAppTableRecord
  2
GEVID1212656553
 70
     0
  0
APPID
  5
56E
330
9
100
AcDbSymbolTableRecord
100
AcDbRegAppTableRecord
  2
GEVID1212656554
 70
     0
  0
APPID
  5
56F
330
9
100
AcDbSymbolTableRecord
100
AcDbRegAppTableRecord
  2
GEVID1212656555
 70
     0
  0
APPID
  5
570
330
9
100
AcDbSymbolTableRecord
100
AcDbRegAppTableRecord
  2
GEVID1212656556
 70
     0
  0
APPID
  5
571
330
9
100
AcDbSymbolTableRecord
100
AcDbRegAppTableRecord
  2
GEVID1212656557
 70
     0
  0
APPID
  5
572
330
9
100
AcDbSymbolTableRecord
100
AcDbRegAppTableRecord
  2
GEVID1212656559
 70
     0
  0
APPID
  5
573
330
9
100
AcDbSymbolTableRecord
100
AcDbRegAppTableRecord
  2
GEVID1212656560
 70
     0
  0
APPID
  5
574
330
9
100
AcDbSymbolTableRecord
100
AcDbRegAppTableRecord
  2
GEVID1212656561
 70
     0
  0
APPID
  5
575
330
9
100
AcDbSymbolTableRecord
100
AcDbRegAppTableRecord
  2
GEVID1212656562
 70
     0
  0
APPID
  5
576
330
9
100
AcDbSymbolTableRecord
100
AcDbRegAppTableRecord
  2
GEVID1212656563
 70
     0
  0
APPID
  5
577
330
9
100
AcDbSymbolTableRecord
100
AcDbRegAppTableRecord
  2
GEVID1212711781
 70
     0
  0
APPID
  5
578
330
9
100
AcDbSymbolTableRecord
100
AcDbRegAppTableRecord
  2
GEVID1212711782
 70
     0
  0
APPID
  5
579
330
9
100
AcDbSymbolTableRecord
100
AcDbRegAppTableRecord
  2
GEVID1212711783
 70
     0
  0
APPID
  5
57A
330
9
100
AcDbSymbolTableRecord
100
AcDbRegAppTableRecord
  2
GEVID1212711784
 70
     0
  0
APPID
  5
57B
330
9
100
AcDbSymbolTableRecord
100
AcDbRegAppTableRecord
  2
GEVID1212711788
 70
     0
  0
APPID
  5
57C
330
9
100
AcDbSymbolTableRecord
100
AcDbRegAppTableRecord
  2
GEVID1212711789
 70
     0
  0
APPID
  5
57D
330
9
100
AcDbSymbolTableRecord
100
AcDbRegAppTableRecord
  2
GEVID1212711790
 70
     0
  0
APPID
  5
57E
330
9
100
AcDbSymbolTableRecord
100
AcDbRegAppTableRecord
  2
GEVID1212711791
 70
     0
  0
APPID
  5
57F
330
9
100
AcDbSymbolTableRecord
100
AcDbRegAppTableRecord
  2
GEVID1212711792
 70
     0
  0
APPID
  5
580
330
9
100
AcDbSymbolTableRecord
100
AcDbRegAppTableRecord
  2
GEVID1212711793
 70
     0
  0
APPID
  5
581
330
9
100
AcDbSymbolTableRecord
100
AcDbRegAppTableRecord
  2
GEVID1212711794
 70
     0
  0
APPID
  5
582
330
9
100
AcDbSymbolTableRecord
100
AcDbRegAppTableRecord
  2
GEVID1212711795
 70
     0
  0
APPID
  5
583
330
9
100
AcDbSymbolTableRecord
100
AcDbRegAppTableRecord
  2
GEVID1212711797
 70
     0
  0
APPID
  5
584
330
9
100
AcDbSymbolTableRecord
100
AcDbRegAppTableRecord
  2
GEVID1212711798
 70
     0
  0
APPID
  5
585
330
9
100
AcDbSymbolTableRecord
100
AcDbRegAppTableRecord
  2
GEVID1212711799
 70
     0
  0
APPID
  5
586
330
9
100
AcDbSymbolTableRecord
100
AcDbRegAppTableRecord
  2
GEVID1212711800
 70
     0
  0
APPID
  5
587
330
9
100
AcDbSymbolTableRecord
100
AcDbRegAppTableRecord
  2
GEVID1212711801
 70
     0
  0
APPID
  5
588
330
9
100
AcDbSymbolTableRecord
100
AcDbRegAppTableRecord
  2
GEVID1212711802
 70
     0
  0
APPID
  5
589
330
9
100
AcDbSymbolTableRecord
100
AcDbRegAppTableRecord
  2
GEVID1212711803
 70
     0
  0
APPID
  5
58A
330
9
100
AcDbSymbolTableRecord
100
AcDbRegAppTableRecord
  2
GEVID1212711804
 70
     0
  0
APPID
  5
58B
330
9
100
AcDbSymbolTableRecord
100
AcDbRegAppTableRecord
  2
GEVID1212711805
 70
     0
  0
APPID
  5
58C
330
9
100
AcDbSymbolTableRecord
100
AcDbRegAppTableRecord
  2
GEVID1212711806
 70
     0
  0
APPID
  5
58D
330
9
100
AcDbSymbolTableRecord
100
AcDbRegAppTableRecord
  2
GEVID1212711807
 70
     0
  0
APPID
  5
58E
330
9
100
AcDbSymbolTableRecord
100
AcDbRegAppTableRecord
  2
GEVID1212711808
 70
     0
  0
APPID
  5
58F
330
9
100
AcDbSymbolTableRecord
100
AcDbRegAppTableRecord
  2
GEVID1212711809
 70
     0
  0
APPID
  5
590
330
9
100
AcDbSymbolTableRecord
100
AcDbRegAppTableRecord
  2
GEVID1212711810
 70
     0
  0
APPID
  5
591
330
9
100
AcDbSymbolTableRecord
100
AcDbRegAppTableRecord
  2
GEVID1212711811
 70
     0
  0
APPID
  5
90A
330
9
100
AcDbSymbolTableRecord
100
AcDbRegAppTableRecord
  2
GENIUS_GENTRA_14
 70
     0
  0
APPID
  5
919
330
9
100
AcDbSymbolTableRecord
100
AcDbRegAppTableRecord
  2
GENIUS_GENOBJ-N-TIT_13
 70
     0
  0
APPID
  5
91A
330
9
100
AcDbSymbolTableRecord
100
AcDbRegAppTableRecord
  2
GENIUS_GENTITLE_13
 70
     0
  0
APPID
  5
949
330
9
100
AcDbSymbolTableRecord
100
AcDbRegAppTableRecord
  2
GENIUS_GENBLLY_14
 70
     0
  0
APPID
  5
DDD
330
9
100
AcDbSymbolTableRecord
100
AcDbRegAppTableRecord
  2
GEVID1213165152
 70
     0
  0
APPID
  5
12F9
330
9
100
AcDbSymbolTableRecord
100
AcDbRegAppTableRecord
  2
AcDbDynamicBlockTrueName
 70
     0
  0
APPID
  5
12FA
330
9
100
AcDbSymbolTableRecord
100
AcDbRegAppTableRecord
  2
ACDBBLOCKREPETAG
 70
     0
  0
APPID
  5
1C15
330
9
100
AcDbSymbolTableRecord
100
AcDbRegAppTableRecord
  2
GEVID1214872427
 70
     0
  0
APPID
  5
1C2A
330
9
100
AcDbSymbolTableRecord
100
AcDbRegAppTableRecord
  2
GEVID1214872428
 70
     0
  0
APPID
  5
1C2F
330
9
100
AcDbSymbolTableRecord
100
AcDbRegAppTableRecord
  2
GEVID1214872429
 70
     0
  0
APPID
  5
1C33
330
9
100
AcDbSymbolTableRecord
100
AcDbRegAppTableRecord
  2
GEVID1214872430
 70
     0
  0
APPID
  5
1C3F
330
9
100
AcDbSymbolTableRecord
100
AcDbRegAppTableRecord
  2
GEVID1214872432
 70
     0
  0
APPID
  5
1C4E
330
9
100
AcDbSymbolTableRecord
100
AcDbRegAppTableRecord
  2
GEVID1214872433
 70
     0
  0
APPID
  5
20DC
330
9
100
AcDbSymbolTableRecord
100
AcDbRegAppTableRecord
  2
AcDbDynamicBlockGUID
 70
     0
  0
APPID
  5
20FD
330
9
100
AcDbSymbolTableRecord
100
AcDbRegAppTableRecord
  2
GENIUS_GENOBJ-N-REV_13
 70
     0
  0
APPID
  5
20FE
330
9
100
AcDbSymbolTableRecord
100
AcDbRegAppTableRecord
  2
GENIUS_GENOBJ-N-RSSYM_13
 70
     0
  0
APPID
  5
20FF
330
9
100
AcDbSymbolTableRecord
100
AcDbRegAppTableRecord
  2
GENIUS_GENSYMENT_13
 70
     0
  0
APPID
  5
2100
330
9
100
AcDbSymbolTableRecord
100
AcDbRegAppTableRecord
  2
GENIUS_GENSCSYM_13
 70
     0
  0
APPID
  5
4D51
330
9
100
AcDbSymbolTableRecord
100
AcDbRegAppTableRecord
  2
ACLAYERTOOLS
 70
     0
  0
ENDTAB
  0
TABLE
  2
DIMSTYLE
  5
A
330
0
100
AcDbSymbolTable
 70
    29
100
AcDbDimStyleTable
 71
     1
340
5AB
  0
DIMSTYLE
105
5AB
330
A
100
AcDbSymbolTableRecord
100
AcDbDimStyleTableRecord
  2
SEISA
 70
     0
  4
"
 41
2.5
 42
0.625
 43
10.0
 44
0.625
 47
0.1
 48
0.1
 73
     0
 74
     0
 77
     3
 78
     8
 79
     2
 90
     1
140
3.5
141
0.0
143
0.0393701
146
0.71
147
1.5
172
     1
176
     3
177
     3
178
     3
271
     2
272
     3
283
     0
286
     8
340
5D5
341
69
342
69
371
    -1
372
    -1
1001
ACAD_DSTYLE_DIMJAG
1070
   388
1040
1.5
1001
ACAD_DSTYLE_DIMTALN
1070
   392
1070
     1
  0
DIMSTYLE
105
5E9
102
{ACAD_REACTORS
330
48D2
330
491F
330
4A31
330
4A4D
330
4B66
330
4C33
330
4C6D
330
4C85
330
4D11
330
4D29
330
4E4F
330
4E67
330
4E7F
330
4E97
330
6468
330
64C9
330
64F3
102
}
330
A
100
AcDbSymbolTableRecord
100
AcDbDimStyleTableRecord
  2
SEISA$0
 70
     0
  4
"
 41
2.5
 42
0.625
 43
10.0
 44
0.625
 47
0.1
 48
0.1
 73
     0
 74
     0
 77
     3
 78
     8
 79
     2
 90
     1
140
3.5
141
0.0
143
0.0393701
146
0.71
147
1.5
172
     1
176
     3
177
     3
178
     3
271
     2
272
     3
283
     0
286
     8
340
5D5
341
69
342
69
371
    -1
372
    -1
  0
DIMSTYLE
105
6949
330
A
100
AcDbSymbolTableRecord
100
AcDbDimStyleTableRecord
  2
AM_ISO
 70
     0
  4
"
 41
2.5
 42
1.0
 43
10.0
 44
1.0
 47
0.1
 48
0.1
 73
     0
 74
     0
 77
     1
 78
     8
 79
     2
 90
     1
140
3.5
141
0.0
143
0.0393701
146
0.71
147
1.5
172
     1
176
   256
177
   256
178
     2
271
     2
272
     3
274
     4
283
     0
284
     8
340
11
371
    -1
372
    -1
  0
DIMSTYLE
105
694A
330
A
100
AcDbSymbolTableRecord
100
AcDbDimStyleTableRecord
  2
AM_ISO$3
 70
     0
  4
"
 41
2.5
 42
1.0
 43
10.0
 44
1.0
 47
0.1
 48
0.1
 73
     0
 77
     1
 78
     8
 79
     2
 90
     1
140
3.5
141
0.0
143
0.0393701
146
0.71
147
1.5
176
   256
177
   256
178
     2
271
     2
272
     3
274
     4
283
     0
284
     8
288
     1
289
     0
340
11
371
    -1
372
    -1
  0
DIMSTYLE
105
694B
330
A
100
AcDbSymbolTableRecord
100
AcDbDimStyleTableRecord
  2
AM_ISO$4
 70
     0
  4
"
 41
2.5
 42
1.0
 43
10.0
 44
1.0
 47
0.1
 48
0.1
 73
     0
 77
     1
 78
     8
 79
     2
 90
     1
140
3.5
141
0.0
143
0.0393701
146
0.71
147
1.5
176
   256
177
   256
178
     2
271
     2
272
     3
274
     4
283
     0
284
     8
288
     1
289
     0
340
11
371
    -1
372
    -1
  0
DIMSTYLE
105
694C
330
A
100
AcDbSymbolTableRecord
100
AcDbDimStyleTableRecord
  2
AM_ISO$6
 70
     0
  4
"
 41
2.5
 42
1.0
 43
10.0
 44
1.0
 47
0.1
 48
0.1
 73
     0
 74
     0
 78
     8
 79
     2
 90
     1
140
3.5
141
0.0
143
0.0393701
146
0.71
147
1.5
172
     1
176
   256
177
   256
178
     2
271
     2
272
     3
274
     4
283
     0
284
     8
340
11
371
    -1
372
    -1
  0
DIMSTYLE
105
694D
330
A
100
AcDbSymbolTableRecord
100
AcDbDimStyleTableRecord
  2
AM_ISO$7
 70
     0
  4
"
 41
2.5
 42
1.0
 43
10.0
 44
1.0
 47
0.1
 48
0.1
 73
     0
 74
     0
 77
     1
 78
     8
 79
     2
 90
     1
140
5.0
141
0.0
143
0.0393701
146
0.71
147
1.5
172
     1
176
   256
177
   256
178
     2
271
     2
272
     3
274
     4
283
     0
284
     8
340
11
371
    -1
372
    -1
  0
DIMSTYLE
105
694E
330
A
100
AcDbSymbolTableRecord
100
AcDbDimStyleTableRecord
  2
AM_ISO$SF
 70
     0
  4
"
 41
2.5
 42
1.0
 43
10.0
 44
1.0
 47
0.1
 48
0.1
 73
     0
 74
     0
 75
     1
 76
     1
 77
     1
 78
     8
 79
     2
 90
     1
140
3.5
141
0.0
143
0.0393701
146
0.71
147
1.5
172
     1
176
   256
177
   256
178
     2
271
     2
272
     3
274
     4
283
     0
284
     8
340
11
371
    -1
372
    -1
  0
DIMSTYLE
105
694F
330
A
100
AcDbSymbolTableRecord
100
AcDbDimStyleTableRecord
  2
AM_ISO$SH
 70
     0
  4
"
 41
2.5
 42
1.0
 43
10.0
 44
1.0
 47
0.1
 48
0.1
 73
     0
 74
     0
 75
     1
 76
     1
 77
     1
 78
     8
 79
     2
 90
     1
140
3.5
141
0.0
143
0.0393701
144
2.0
146
0.71
147
1.5
172
     1
173
     1
176
   256
177
   256
178
     2
271
     2
272
     3
274
     4
283
     0
284
     8
340
11
343
74
371
    -1
372
    -1
  0
ENDTAB
  0
TABLE
  2
BLOCK_RECORD
  5
1
330
0
100
AcDbSymbolTable
 70
    30
  0
BLOCK_RECORD
  5
1F
102
{ACAD_XDICTIONARY
360
82
102
}
330
1
100
AcDbSymbolTableRecord
100
AcDbBlockTableRecord
  2
*Model_Space
340
22
 70
     0
280
     1
281
     0
  0
BLOCK_RECORD
  5
1B
330
1
100
AcDbSymbolTableRecord
100
AcDbBlockTableRecord
  2
*Paper_Space
340
1E
 70
     0
280
     1
281
     0
  0
BLOCK_RECORD
  5
23
330
1
100
AcDbSymbolTableRecord
100
AcDbBlockTableRecord
  2
*Paper_Space0
340
26
 70
     0
280
     1
281
     0
  0
BLOCK_RECORD
  5
69
330
1
100
AcDbSymbolTableRecord
100
AcDbBlockTableRecord
  2
_Open30
340
0
102
{BLKREFS
331
55C2
331
55C3
331
55CB
331
55CC
331
55D6
331
55D7
331
55DF
331
55E0
331
55EA
331
55EB
331
55FA
331
55FB
331
5603
331
5604
331
560C
331
560D
331
5615
331
5616
331
561E
331
561F
331
563B
331
563C
331
5644
331
5645
331
5656
331
5657
331
5DC3
331
5DC4
331
648C
331
648D
331
64ED
331
64EE
331
6520
331
6521
102
}
 70
     0
280
     1
281
     0
  0
BLOCK_RECORD
  5
74
330
1
100
AcDbSymbolTableRecord
100
AcDbBlockTableRecord
  2
GENAXEH
340
0
 70
     0
280
     1
281
     0
  0
BLOCK_RECORD
  5
43F7
102
{ACAD_XDICTIONARY
360
5942
102
}
330
1
100
AcDbSymbolTableRecord
100
AcDbBlockTableRecord
  2
ロッカクアナツキプラグ R1／8
340
0
310
2800000020000000200000000100080000000000000400000000000000000000000000000000000000000000000080000080000000808000800000008000800080800000C0C0C000C0DCC000F0CAA6000020400000206000002080000020A0000020C0000020E00000400000004020000040400000406000004080000040A0
310
000040C0000040E00000600000006020000060400000606000006080000060A0000060C0000060E00000800000008020000080400000806000008080000080A0000080C0000080E00000A0000000A0200000A0400000A0600000A0800000A0A00000A0C00000A0E00000C0000000C0200000C0400000C0600000C0800000C0
310
A00000C0C00000C0E00000E0000000E0200000E0400000E0600000E0800000E0A00000E0C00000E0E00040000000400020004000400040006000400080004000A0004000C0004000E00040200000402020004020400040206000402080004020A0004020C0004020E000404000004040200040404000404060004040800040
310
40A0004040C0004040E00040600000406020004060400040606000406080004060A0004060C0004060E00040800000408020004080400040806000408080004080A0004080C0004080E00040A0000040A0200040A0400040A0600040A0800040A0A00040A0C00040A0E00040C0000040C0200040C0400040C0600040C08000
310
40C0A00040C0C00040C0E00040E0000040E0200040E0400040E0600040E0800040E0A00040E0C00040E0E00080000000800020008000400080006000800080008000A0008000C0008000E00080200000802020008020400080206000802080008020A0008020C0008020E00080400000804020008040400080406000804080
310
008040A0008040C0008040E00080600000806020008060400080606000806080008060A0008060C0008060E00080800000808020008080400080806000808080008080A0008080C0008080E00080A0000080A0200080A0400080A0600080A0800080A0A00080A0C00080A0E00080C0000080C0200080C0400080C0600080C0
310
800080C0A00080C0C00080C0E00080E0000080E0200080E0400080E0600080E0800080E0A00080E0C00080E0E000C0000000C0002000C0004000C0006000C0008000C000A000C000C000C000E000C0200000C0202000C0204000C0206000C0208000C020A000C020C000C020E000C0400000C0402000C0404000C0406000C0
310
408000C040A000C040C000C040E000C0600000C0602000C0604000C0606000C0608000C060A000C060C000C060E000C0800000C0802000C0804000C0806000C0808000C080A000C080C000C080E000C0A00000C0A02000C0A04000C0A06000C0A08000C0A0A000C0A0C000C0A0E000C0C00000C0C02000C0C04000C0C06000
310
C0C08000C0C0A000F0FBFF00A4A0A000808080000000FF0000FF000000FFFF00FF000000FF00FF00FFFF0000FFFFFF00000000000000000000000000000000000000000000000000000000000000000000000000000000000000000000000000F9000000000000000000000000000000000000000000000000000000000000
310
00F900000000000000000000000000000000000000000000000000000000000000F90000000000000000000000000000000000000000000000000000000000FFFFF9FFFF00000000000000000000000000000000000000000000000000FFFFFEFEFEFE00FFFF000000000000000000000000000000000000000000FFFFFEFE
310
0000F900FEFE00FFFF0000000000000000000000000000000000FFFFFEFE00000000F9000000FEFE00FF000000000000000000000000000000FF00FE000000000000F90000000000FE00FF00000000000000000000000000FF00FE00000000000000F9000000000000FE00FF000000000000000000000000FFFE0000000000
310
000000FF00000000000000FE00FF00000000000000000000FFFE00000000000000FFFFF9FF00000000000000FEFF00000000000000000000FFFE0000000000FFFF0000F900FFFF0000000000FEFF00000000000000000000FFFE00000000FF00000000F9000000FF00000000FEFF000000000000000000FF00FE00000000FF
310
00000000F9000000FF0000000000FEFF0000000000F9F9F9FFFEF9F9F9F9F9FFF9F9F9F9F9F9F9F9FFF9F9F9F9F9FEFFF9F9F90000000000FFFE0000000000FF00000000F9000000FF0000000000FEFF0000000000000000FF00FE00000000FF00000000F9000000FF00000000FEFF00000000000000000000FFFE00000000
310
FF00000000F9000000FF00000000FEFF00000000000000000000FFFE0000000000FFFF0000F90000FF0000000000FEFF00000000000000000000FFFE00000000000000FFFFF9FFFF000000000000FEFF0000000000000000000000FFFE0000000000000000FF00000000000000FE00FF0000000000000000000000FF00FE00
310
000000000000F9000000000000FE00FF00000000000000000000000000FF00FE000000000000F90000000000FE00FF000000000000000000000000000000FF00FE0000000000F900000000FE00FF0000000000000000000000000000000000FFFFFEFE000000F90000FEFE00FF000000000000000000000000000000000000
310
0000FFFFFEFEFEFEFEFEFFFFFF000000000000000000000000000000000000000000000000FFFFF9FFFF0000000000000000000000000000000000000000000000000000000000F900000000000000000000000000000000000000000000000000000000000000F90000000000000000000000000000000000000000000000
310
0000000000000000F90000000000000000000000000000000000000000000000000000000000000000000000000000000000000000000000
102
{BLKREFS
331
44CE
102
}
 70
     4
280
     1
281
     0
  0
BLOCK_RECORD
  5
4490
102
{ACAD_XDICTIONARY
360
4571
102
}
330
1
100
AcDbSymbolTableRecord
100
AcDbBlockTableRecord
  2
ケースＡ SEM100
340
0
310
2800000020000000200000000100080000000000000400000000000000000000000000000000000000000000000080000080000000808000800000008000800080800000C0C0C000C0DCC000F0CAA6000020400000206000002080000020A0000020C0000020E00000400000004020000040400000406000004080000040A0
310
000040C0000040E00000600000006020000060400000606000006080000060A0000060C0000060E00000800000008020000080400000806000008080000080A0000080C0000080E00000A0000000A0200000A0400000A0600000A0800000A0A00000A0C00000A0E00000C0000000C0200000C0400000C0600000C0800000C0
310
A00000C0C00000C0E00000E0000000E0200000E0400000E0600000E0800000E0A00000E0C00000E0E00040000000400020004000400040006000400080004000A0004000C0004000E00040200000402020004020400040206000402080004020A0004020C0004020E000404000004040200040404000404060004040800040
310
40A0004040C0004040E00040600000406020004060400040606000406080004060A0004060C0004060E00040800000408020004080400040806000408080004080A0004080C0004080E00040A0000040A0200040A0400040A0600040A0800040A0A00040A0C00040A0E00040C0000040C0200040C0400040C0600040C08000
310
40C0A00040C0C00040C0E00040E0000040E0200040E0400040E0600040E0800040E0A00040E0C00040E0E00080000000800020008000400080006000800080008000A0008000C0008000E00080200000802020008020400080206000802080008020A0008020C0008020E00080400000804020008040400080406000804080
310
008040A0008040C0008040E00080600000806020008060400080606000806080008060A0008060C0008060E00080800000808020008080400080806000808080008080A0008080C0008080E00080A0000080A0200080A0400080A0600080A0800080A0A00080A0C00080A0E00080C0000080C0200080C0400080C0600080C0
310
800080C0A00080C0C00080C0E00080E0000080E0200080E0400080E0600080E0800080E0A00080E0C00080E0E000C0000000C0002000C0004000C0006000C0008000C000A000C000C000C000E000C0200000C0202000C0204000C0206000C0208000C020A000C020C000C020E000C0400000C0402000C0404000C0406000C0
310
408000C040A000C040C000C040E000C0600000C0602000C0604000C0606000C0608000C060A000C060C000C060E000C0800000C0802000C0804000C0806000C0808000C080A000C080C000C080E000C0A00000C0A02000C0A04000C0A06000C0A08000C0A0A000C0A0C000C0A0E000C0C00000C0C02000C0C04000C0C06000
310
C0C08000C0C0A000F0FBFF00A4A0A000808080000000FF0000FF000000FFFF00FF000000FF00FF00FFFF0000FFFFFF0000000000000000000000000000000000000000000000000000000000000000000000000000000000000000000000FFFFFFFFFF000000000000000000000000000000000000000000000000000000FF
310
000000FF000000000000000000000000000000000000000000000000000000FF000000FF000000000000000000000000000000000000000000000000000000FF000000FF000000000000000000000000000000000000000000000000000000FF000000FF000000000000000000000000000000000000000000000000000000
310
FF000000FFFFFFFFFF0000000000000000000000000000000000000000000000FF000000FF00000000FF00000000000000000000000000000000000000000000FFFEFEFEFF00000000FF00000000000000000000000000000000000000000000FEFFFFFEF900000000FF000000000000000000000000000000000000000000
310
00FEFFFFFEFF00000000FF00000000000000000000000000000000000000000000FFFEFE00FF00000000FF00000000000000000000000000000000000000000000FF000000FF00000000FF00000000000000000000000000000000000000000000FF000000FF00000000FF0000000000000000000000000000000000000000
310
0000FF000000FF00000000FF00000000000000000000000000000000000000000000FF000000FF00000000FF0000000000000000000000000000000000000000000000000000000000000000000000000000000000000000000000000000000000000000000000000000000000000000000000000000000000000000000000
310
000000000000000000000000000000000000000000000000000000000000000000000000000000000000000000000000000000000000000000000000000000000000000000000000FAFAFA0000000000000000000000000000000000000000000000000000000000FAFAFAFA00000000000000000000000000000000000000
310
00000000000000000000FAFFFFFF000000000000000000000000000000000000000000000000F9FFFFF9FFFFFFFF000000000000000000000000000000000000000000FFFFFFFFFFFFFFFF0000FF000000000000000000000000000000000000000000FFFF00000000FFFFFFFF000000000000000000000000000000000000
310
0000000000FF000000FF000000000000000000000000000000000000000000000000000000FFFFFFFFFF000000000000000000000000000000000000000000F9F9F9F9F9F9F9F9F9F9F9F9F9F9000000000000000000000000000000000000000000000000FFFFFFFFFF000000000000000000000000000000000000000000
310
000000000000FFFFFFFFFF000000000000000000000000000000000000000000000000000000000000000000000000000000000000000000
102
{BLKREFS
331
44CF
102
}
 70
     4
280
     1
281
     0
  0
BLOCK_RECORD
  5
45BB
102
{ACAD_XDICTIONARY
360
461D
102
}
330
1
100
AcDbSymbolTableRecord
100
AcDbBlockTableRecord
  2
リジット SEM100
340
0
310
2800000020000000200000000100080000000000000400000000000000000000000000000000000000000000000080000080000000808000800000008000800080800000C0C0C000C0DCC000F0CAA6000020400000206000002080000020A0000020C0000020E00000400000004020000040400000406000004080000040A0
310
000040C0000040E00000600000006020000060400000606000006080000060A0000060C0000060E00000800000008020000080400000806000008080000080A0000080C0000080E00000A0000000A0200000A0400000A0600000A0800000A0A00000A0C00000A0E00000C0000000C0200000C0400000C0600000C0800000C0
310
A00000C0C00000C0E00000E0000000E0200000E0400000E0600000E0800000E0A00000E0C00000E0E00040000000400020004000400040006000400080004000A0004000C0004000E00040200000402020004020400040206000402080004020A0004020C0004020E000404000004040200040404000404060004040800040
310
40A0004040C0004040E00040600000406020004060400040606000406080004060A0004060C0004060E00040800000408020004080400040806000408080004080A0004080C0004080E00040A0000040A0200040A0400040A0600040A0800040A0A00040A0C00040A0E00040C0000040C0200040C0400040C0600040C08000
310
40C0A00040C0C00040C0E00040E0000040E0200040E0400040E0600040E0800040E0A00040E0C00040E0E00080000000800020008000400080006000800080008000A0008000C0008000E00080200000802020008020400080206000802080008020A0008020C0008020E00080400000804020008040400080406000804080
310
008040A0008040C0008040E00080600000806020008060400080606000806080008060A0008060C0008060E00080800000808020008080400080806000808080008080A0008080C0008080E00080A0000080A0200080A0400080A0600080A0800080A0A00080A0C00080A0E00080C0000080C0200080C0400080C0600080C0
310
800080C0A00080C0C00080C0E00080E0000080E0200080E0400080E0600080E0800080E0A00080E0C00080E0E000C0000000C0002000C0004000C0006000C0008000C000A000C000C000C000E000C0200000C0202000C0204000C0206000C0208000C020A000C020C000C020E000C0400000C0402000C0404000C0406000C0
310
408000C040A000C040C000C040E000C0600000C0602000C0604000C0606000C0608000C060A000C060C000C060E000C0800000C0802000C0804000C0806000C0808000C080A000C080C000C080E000C0A00000C0A02000C0A04000C0A06000C0A08000C0A0A000C0A0C000C0A0E000C0C00000C0C02000C0C04000C0C06000
310
C0C08000C0C0A000F0FBFF00A4A0A000808080000000FF0000FF000000FFFF00FF000000FF00FF00FFFF0000FFFFFF000000000000000000000000000000000000000000000000000000000000000000000000000000000000000000000000FFFFFFFFFFFF0000000000000000000000000000000000000000000000000000
310
FF000000000000000000000000000000000000000000000000000000000000F9F9F9F9F9F9F9F9F9F9F9F9000000000000000000000000000000000000000000FF00000000000000000000000000000000000000000000000000000000000000FF000000000000000000000000000000000000000000000000000000000000
310
00FF00000000000000000000000000000000000000000000000000000000000000FF0000000000000000000000000000000000000000000000FFFFFFFFFFFFFFFFFF00000000000000000000000000000000000000000000FF0000000000000000FF00000000000000000000000000000000000000000000FF000000000000
310
0000FF00000000000000000000000000000000000000000000FF0000000000000000FF00000000000000000000000000000000000000000000FF0000000000000000FF00000000000000000000000000000000000000000000FF0000000000000000FF00000000000000000000000000000000000000000000FF0000000000
310
000000FF00000000000000000000000000000000000000000000FF0000000000000000FF0000FF00000000000000000000000000000000000000FF0000000000000000000000FF00000000000000000000000000000000000000FF0000000000000000000000FF00000000000000000000000000000000000000FF00000000
310
00000000000000FF00000000000000000000000000000000000000FF0000000000000000000000FF00000000000000000000000000000000000000FFFFFFFFFFFFFFFFFFFFFFFFFF00000000000000000000000000000000000000FFFFFFFFFFFFFFFFFFFFFFFFFF00000000000000000000000000000000000000FF000000
310
0000000000000000FF0000000000000000000000000000000000000000FFFFFFFFFFFFFFFF000000FF00000000000000000000000000000000000000000000000000000000FF0000FF00000000000000000000000000000000000000000000000000000000FF000000FFFF0000000000000000000000000000000000000000
310
000000000000FF00000000FF0000000000000000000000000000000000000000000000000000FFFFFFFFFFFF00000000000000000000000000000000000000000000000000000000000000000000000000000000000000000000000000000000000000000000FFFFFFFFFFFF00000000000000000000000000000000000000
310
00000000000000FFFFFFFFFFFF00000000000000000000000000000000000000000000000000000000000000000000000000000000000000
102
{BLKREFS
331
45DB
102
}
 70
     4
280
     1
281
     0
  0
BLOCK_RECORD
  5
46A8
102
{ACAD_XDICTIONARY
360
473C
102
}
330
1
100
AcDbSymbolTableRecord
100
AcDbBlockTableRecord
  2
リーマボルト SEM100 M6
340
0
310
2800000020000000200000000100080000000000000400000000000000000000000000000000000000000000000080000080000000808000800000008000800080800000C0C0C000C0DCC000F0CAA6000020400000206000002080000020A0000020C0000020E00000400000004020000040400000406000004080000040A0
310
000040C0000040E00000600000006020000060400000606000006080000060A0000060C0000060E00000800000008020000080400000806000008080000080A0000080C0000080E00000A0000000A0200000A0400000A0600000A0800000A0A00000A0C00000A0E00000C0000000C0200000C0400000C0600000C0800000C0
310
A00000C0C00000C0E00000E0000000E0200000E0400000E0600000E0800000E0A00000E0C00000E0E00040000000400020004000400040006000400080004000A0004000C0004000E00040200000402020004020400040206000402080004020A0004020C0004020E000404000004040200040404000404060004040800040
310
40A0004040C0004040E00040600000406020004060400040606000406080004060A0004060C0004060E00040800000408020004080400040806000408080004080A0004080C0004080E00040A0000040A0200040A0400040A0600040A0800040A0A00040A0C00040A0E00040C0000040C0200040C0400040C0600040C08000
310
40C0A00040C0C00040C0E00040E0000040E0200040E0400040E0600040E0800040E0A00040E0C00040E0E00080000000800020008000400080006000800080008000A0008000C0008000E00080200000802020008020400080206000802080008020A0008020C0008020E00080400000804020008040400080406000804080
310
008040A0008040C0008040E00080600000806020008060400080606000806080008060A0008060C0008060E00080800000808020008080400080806000808080008080A0008080C0008080E00080A0000080A0200080A0400080A0600080A0800080A0A00080A0C00080A0E00080C0000080C0200080C0400080C0600080C0
310
800080C0A00080C0C00080C0E00080E0000080E0200080E0400080E0600080E0800080E0A00080E0C00080E0E000C0000000C0002000C0004000C0006000C0008000C000A000C000C000C000E000C0200000C0202000C0204000C0206000C0208000C020A000C020C000C020E000C0400000C0402000C0404000C0406000C0
310
408000C040A000C040C000C040E000C0600000C0602000C0604000C0606000C0608000C060A000C060C000C060E000C0800000C0802000C0804000C0806000C0808000C080A000C080C000C080E000C0A00000C0A02000C0A04000C0A06000C0A08000C0A0A000C0A0C000C0A0E000C0C00000C0C02000C0C04000C0C06000
310
C0C08000C0C0A000F0FBFF00A4A0A000808080000000FF0000FF000000FFFF00FF000000FF00FF00FFFF0000FFFFFF0000000000000000000000000000000000000000000000000000000000000000000000000000000000000000000000000000000000000000000000000000000000000000000000000000000000000000
310
00000000000000000000000000000000000000000000000000000000000000000000000000000000000000000000000000000000000000000000000000000000000000000000000000000000000000000000000000000000000000000000000000000000000000000000000000000000000000000000000000000000000000
310
00000000000000000000000000000000000000000000000000000000000000000000000000000000000000000000000000000000000000000000000000000000000000000000000000000000000000000000000000000000000000000000000000000000000000000000000000000000000000000000000000000000000000
310
00000000000000000000000000000000000000000000000000000000000000000000000000000000000000000000000000000000FFFFFFFF00000000000000000000000000000000000000FFFFFFFFFF00000000FFFF00FFFF000000000000000000000000000000FF000000FF0000FF00000000FFFFFFFFFF000000000000
310
000000000000000000FFFFFFFFFFFFFFFFFFFF0000FFFF0000FF000000000000000000000000000000FFFF00FFFF0000FFFFFF0000FFFF0000FF000000000000000000000000000000FFFF0000FF0000FFFFFF0000FFFFFFFFFF000000000000000000000000000000FFFFFFFFFFFFFFFFFFFF0000FFFF00FFFF0000000000
310
00000000000000000000FF000000FF0000FF00000000FFFFFFFF00000000000000000000000000000000000000FFFFFFFFFF0000000000000000000000000000000000000000000000000000000000000000000000000000000000000000000000000000000000000000000000000000000000000000000000000000000000
310
00000000000000000000000000000000000000000000000000000000000000000000000000000000000000000000000000000000000000000000000000000000000000000000000000000000000000000000000000000000000000000000000000000000000000000000000000000000000000000000000000000000000000
310
00000000000000000000000000000000000000000000000000000000000000000000000000000000000000000000000000000000000000000000000000000000000000000000000000000000000000000000000000000000000000000000000000000000000000000000000000000000000000000000000000000000000000
310
0000000000000000000000000000000000000000000000000000000000000000000000000000000000000000000000000000000000000000
102
{BLKREFS
331
46D7
102
}
 70
     4
280
     1
281
     0
  0
BLOCK_RECORD
  5
48D3
330
1
100
AcDbSymbolTableRecord
100
AcDbBlockTableRecord
  2
*D10
340
0
 70
     0
280
     1
281
     0
  0
BLOCK_RECORD
  5
4920
330
1
100
AcDbSymbolTableRecord
100
AcDbBlockTableRecord
  2
*D11
340
0
 70
     0
280
     1
281
     0
  0
BLOCK_RECORD
  5
49E7
102
{ACAD_XDICTIONARY
360
4AA6
102
}
330
1
100
AcDbSymbolTableRecord
100
AcDbBlockTableRecord
  2
センタ SEM100
340
0
310
2800000020000000200000000100080000000000000400000000000000000000000000000000000000000000000080000080000000808000800000008000800080800000C0C0C000C0DCC000F0CAA6000020400000206000002080000020A0000020C0000020E00000400000004020000040400000406000004080000040A0
310
000040C0000040E00000600000006020000060400000606000006080000060A0000060C0000060E00000800000008020000080400000806000008080000080A0000080C0000080E00000A0000000A0200000A0400000A0600000A0800000A0A00000A0C00000A0E00000C0000000C0200000C0400000C0600000C0800000C0
310
A00000C0C00000C0E00000E0000000E0200000E0400000E0600000E0800000E0A00000E0C00000E0E00040000000400020004000400040006000400080004000A0004000C0004000E00040200000402020004020400040206000402080004020A0004020C0004020E000404000004040200040404000404060004040800040
310
40A0004040C0004040E00040600000406020004060400040606000406080004060A0004060C0004060E00040800000408020004080400040806000408080004080A0004080C0004080E00040A0000040A0200040A0400040A0600040A0800040A0A00040A0C00040A0E00040C0000040C0200040C0400040C0600040C08000
310
40C0A00040C0C00040C0E00040E0000040E0200040E0400040E0600040E0800040E0A00040E0C00040E0E00080000000800020008000400080006000800080008000A0008000C0008000E00080200000802020008020400080206000802080008020A0008020C0008020E00080400000804020008040400080406000804080
310
008040A0008040C0008040E00080600000806020008060400080606000806080008060A0008060C0008060E00080800000808020008080400080806000808080008080A0008080C0008080E00080A0000080A0200080A0400080A0600080A0800080A0A00080A0C00080A0E00080C0000080C0200080C0400080C0600080C0
310
800080C0A00080C0C00080C0E00080E0000080E0200080E0400080E0600080E0800080E0A00080E0C00080E0E000C0000000C0002000C0004000C0006000C0008000C000A000C000C000C000E000C0200000C0202000C0204000C0206000C0208000C020A000C020C000C020E000C0400000C0402000C0404000C0406000C0
310
408000C040A000C040C000C040E000C0600000C0602000C0604000C0606000C0608000C060A000C060C000C060E000C0800000C0802000C0804000C0806000C0808000C080A000C080C000C080E000C0A00000C0A02000C0A04000C0A06000C0A08000C0A0A000C0A0C000C0A0E000C0C00000C0C02000C0C04000C0C06000
310
C0C08000C0C0A000F0FBFF00A4A0A000808080000000FF0000FF000000FFFF00FF000000FF00FF00FFFF0000FFFFFF00000000000000000000000000000000000000000000000000000000000000000000000000000000000000000000000000000000FFFFFFFFFFFFFFFF0000000000000000000000000000000000000000
310
000000000000000000000000FF00000000000000000000000000000000000000000000000000000000000000FF00000000000000000000000000000000000000000000000000000000000000FF00000000000000000000000000000000000000000000000000000000000000FF000000000000000000000000000000000000
310
00000000000000000000000000FF00000000000000000000000000000000000000000000000000000000000000FF00000000000000000000000000000000000000000000000000000000000000FF00000000000000000000000000000000000000000000000000000000000000FF0000000000000000000000000000000000
310
0000000000000000000000000000FF00000000000000000000000000000000000000000000000000000000000000FF00000000000000000000000000000000000000000000000000000000000000FF0000000000000000FF00000000000000000000000000000000000000000000FF0000000000000000FF00000000000000
310
000000000000000000000000000000FF0000000000000000FF00000000000000000000000000000000000000000000FF0000000000000000FF00000000000000000000000000000000000000000000FF0000000000000000FF00000000000000000000000000000000000000000000FF0000000000000000FF000000000000
310
00000000000000000000000000000000FF0000000000000000FF00000000000000000000000000000000000000000000FF0000000000000000FFFFFFFFFFFFFFFFFFFFFFFFFFFFFFFFFFFFFFFFFFFFFFFF0000000000000000FF00000000000000000000000000000000000000000000FF0000000000000000FFFFFFFFFFFF
310
FFFFFFFFFFFFFFFFFFFFFFFFFFFFFFFFFFFF0000000000000000FF00000000000000000000000000000000000000000000FF0000000000000000FF00000000000000000000000000000000000000000000FF0000000000000000FFFFFFFFFFFF00F90000FFFFFFFFFFFFFFFFFFFFFFFFFF0000000000000000000000000000
310
FFFFF9FFFFFF00000000000000000000000000000000000000000000000000F9FFF9F9F9F9FFF900000000000000000000000000000000000000000000000000FFFFF9FFFFFF00000000000000000000000000000000000000000000000000000000F900000000000000000000000000000000000000000000000000000000
310
000000F900000000000000000000000000000000000000000000000000000000000000000000000000000000000000000000000000000000
102
{BLKREFS
331
4A00
102
}
 70
     4
280
     1
281
     0
  0
BLOCK_RECORD
  5
4A32
330
1
100
AcDbSymbolTableRecord
100
AcDbBlockTableRecord
  2
*D13
340
0
 70
     0
280
     1
281
     0
  0
BLOCK_RECORD
  5
4A4E
330
1
100
AcDbSymbolTableRecord
100
AcDbBlockTableRecord
  2
*D14
340
0
 70
     0
280
     1
281
     0
  0
BLOCK_RECORD
  5
4B67
330
1
100
AcDbSymbolTableRecord
100
AcDbBlockTableRecord
  2
*D15
340
0
 70
     0
280
     1
281
     0
  0
BLOCK_RECORD
  5
4C34
330
1
100
AcDbSymbolTableRecord
100
AcDbBlockTableRecord
  2
*D16
340
0
 70
     0
280
     1
281
     0
  0
BLOCK_RECORD
  5
4C6E
330
1
100
AcDbSymbolTableRecord
100
AcDbBlockTableRecord
  2
*D17
340
0
 70
     0
280
     1
281
     0
  0
BLOCK_RECORD
  5
4C86
330
1
100
AcDbSymbolTableRecord
100
AcDbBlockTableRecord
  2
*D18
340
0
 70
     0
280
     1
281
     0
  0
BLOCK_RECORD
  5
4D12
330
1
100
AcDbSymbolTableRecord
100
AcDbBlockTableRecord
  2
*D19
340
0
 70
     0
280
     1
281
     0
  0
BLOCK_RECORD
  5
4D2A
330
1
100
AcDbSymbolTableRecord
100
AcDbBlockTableRecord
  2
*D20
340
0
 70
     0
280
     1
281
     0
  0
BLOCK_RECORD
  5
4E50
330
1
100
AcDbSymbolTableRecord
100
AcDbBlockTableRecord
  2
*D21
340
0
 70
     0
280
     1
281
     0
  0
BLOCK_RECORD
  5
4E68
330
1
100
AcDbSymbolTableRecord
100
AcDbBlockTableRecord
  2
*D22
340
0
 70
     0
280
     1
281
     0
  0
BLOCK_RECORD
  5
4E80
330
1
100
AcDbSymbolTableRecord
100
AcDbBlockTableRecord
  2
*D23
340
0
 70
     0
280
     1
281
     0
  0
BLOCK_RECORD
  5
4E98
330
1
100
AcDbSymbolTableRecord
100
AcDbBlockTableRecord
  2
*D24
340
0
 70
     0
280
     1
281
     0
  0
BLOCK_RECORD
  5
6469
330
1
100
AcDbSymbolTableRecord
100
AcDbBlockTableRecord
  2
*D25
340
0
 70
     0
280
     1
281
     0
  0
BLOCK_RECORD
  5
64CA
330
1
100
AcDbSymbolTableRecord
100
AcDbBlockTableRecord
  2
*D26
340
0
 70
     0
280
     1
281
     0
  0
BLOCK_RECORD
  5
64F4
330
1
100
AcDbSymbolTableRecord
100
AcDbBlockTableRecord
  2
*D27
340
0
 70
     0
280
     1
281
     0
  0
BLOCK_RECORD
  5
6889
330
1
100
AcDbSymbolTableRecord
100
AcDbBlockTableRecord
  2
ケース
340
0
310
2800000020000000200000000100080000000000000400000000000000000000000000000000000000000000000080000080000000808000800000008000800080800000C0C0C000C0DCC000F0CAA6000020400000206000002080000020A0000020C0000020E00000400000004020000040400000406000004080000040A0
310
000040C0000040E00000600000006020000060400000606000006080000060A0000060C0000060E00000800000008020000080400000806000008080000080A0000080C0000080E00000A0000000A0200000A0400000A0600000A0800000A0A00000A0C00000A0E00000C0000000C0200000C0400000C0600000C0800000C0
310
A00000C0C00000C0E00000E0000000E0200000E0400000E0600000E0800000E0A00000E0C00000E0E00040000000400020004000400040006000400080004000A0004000C0004000E00040200000402020004020400040206000402080004020A0004020C0004020E000404000004040200040404000404060004040800040
310
40A0004040C0004040E00040600000406020004060400040606000406080004060A0004060C0004060E00040800000408020004080400040806000408080004080A0004080C0004080E00040A0000040A0200040A0400040A0600040A0800040A0A00040A0C00040A0E00040C0000040C0200040C0400040C0600040C08000
310
40C0A00040C0C00040C0E00040E0000040E0200040E0400040E0600040E0800040E0A00040E0C00040E0E00080000000800020008000400080006000800080008000A0008000C0008000E00080200000802020008020400080206000802080008020A0008020C0008020E00080400000804020008040400080406000804080
310
008040A0008040C0008040E00080600000806020008060400080606000806080008060A0008060C0008060E00080800000808020008080400080806000808080008080A0008080C0008080E00080A0000080A0200080A0400080A0600080A0800080A0A00080A0C00080A0E00080C0000080C0200080C0400080C0600080C0
310
800080C0A00080C0C00080C0E00080E0000080E0200080E0400080E0600080E0800080E0A00080E0C00080E0E000C0000000C0002000C0004000C0006000C0008000C000A000C000C000C000E000C0200000C0202000C0204000C0206000C0208000C020A000C020C000C020E000C0400000C0402000C0404000C0406000C0
310
408000C040A000C040C000C040E000C0600000C0602000C0604000C0606000C0608000C060A000C060C000C060E000C0800000C0802000C0804000C0806000C0808000C080A000C080C000C080E000C0A00000C0A02000C0A04000C0A06000C0A08000C0A0A000C0A0C000C0A0E000C0C00000C0C02000C0C04000C0C06000
310
C0C08000C0C0A000F0FBFF00A4A0A000808080000000FF0000FF000000FFFF00FF000000FF00FF00FFFF0000FFFFFF0000000000000000000000000000000000000000000000000000000000000000000000000000000000000000000000000000000000000000000000000000000000000000000000000000000000000000
310
00000000000000000000000000000000000000000000000000000000000000000000000000000000000000000000000000000000000000000000000000000000000000000000000000000000000000000000000000000000000000000000000000000000000000000000000000000000000000000000000000000000000000
310
FC000000FC00000000000000FC000000FC000000000000000000000000000000FC000000FC00000000000000FC000000FC000000000000000000000000000000FCFCFCFCFC00000000000000FCFCFCFCFC000000000000000000000000000000FC000000FC00000000000000FC000000FC0000000000000000000000000000
310
00FC000000FC00000000000000FC000000FC000000FCFCFCFCFCFCFC0000000000FC000000FC00000000000000FC000000FC000000000000000000FC0000000000FC000000FCFCFCFCFCFCFCFC00000000FC000000FCFCFCFCFCFCFCFCFCFCFC00FC000000000000000000000000000000FC000000000000000000FC000000
310
0000FC000000000000000000000000000000FC000000000000000000FC0000000000FC000000000000000000000000000000FC000000FCFCFCFCFCFCFCFC000000FC00000000000000000000000000000000FC0000000000000000000000FCFCFC0000000000000000000000000000000000FC000000000000000000000000
310
00000000000000000000000000000000000000FC00000000000000000000000000000000000000000000000000000000000000FC000000000000000000000000000000000000000000000000000000000000FC000000000000000000000000000000000000000000000000000000000000FC00000000000000000000000000
310
0000000000000000000000000000000000FC000000000000000000000000000000000000000000000000000000000000FC000000000000000000000000000000000000000000000000000000000000FC00000000000000FCFCFCFCFCFCFCFCFCFCFCFCFCFCFCFCFCFCFCFCFCFCFCFC00000000000000000000000000000000
310
00000000000000000000000000000000000000000000000000000000000000000000000000000000000000000000000000000000000000000000000000000000000000000000000000000000000000000000000000000000000000000000000000000000000000000000000000000000000000000000000000000000000000
310
0000000000000000000000000000000000000000000000000000000000000000000000000000000000000000000000000000000000000000
102
{BLKREFS
331
68A4
102
}
 70
     4
280
     1
281
     1
  0
ENDTAB
  0
ENDSEC
  0
SECTION
  2
BLOCKS
  0
BLOCK
  5
20
330
1F
100
AcDbEntity
  8
0
100
AcDbBlockBegin
  2
*Model_Space
 70
     0
 10
0.0
 20
0.0
 30
0.0
  3
*Model_Space
  1

  0
ENDBLK
  5
21
330
1F
100
AcDbEntity
  8
0
100
AcDbBlockEnd
  0
BLOCK
  5
1C
330
1B
100
AcDbEntity
 67
     1
  8
0
100
AcDbBlockBegin
  2
*Paper_Space
 70
     0
 10
0.0
 20
0.0
 30
0.0
  3
*Paper_Space
  1

  0
ENDBLK
  5
1D
330
1B
100
AcDbEntity
 67
     1
  8
0
100
AcDbBlockEnd
  0
BLOCK
  5
24
330
23
100
AcDbEntity
 67
     1
  8
0
100
AcDbBlockBegin
  2
*Paper_Space0
 70
     0
 10
0.0
 20
0.0
 30
0.0
  3
*Paper_Space0
  1

  0
ENDBLK
  5
25
330
23
100
AcDbEntity
 67
     1
  8
0
100
AcDbBlockEnd
  0
BLOCK
  5
6D
330
69
100
AcDbEntity
  8
0
100
AcDbBlockBegin
  2
_Open30
 70
     0
 10
0.0
 20
0.0
 30
0.0
  3
_Open30
  1

  0
LINE
  5
6A
330
69
100
AcDbEntity
  8
0
  6
ByBlock
 62
     0
370
    -2
100
AcDbLine
 10
-1.0
 20
0.26794919
 30
0.0
 11
0.0
 21
0.0
 31
0.0
  0
LINE
  5
6B
330
69
100
AcDbEntity
  8
0
  6
ByBlock
 62
     0
370
    -2
100
AcDbLine
 10
0.0
 20
0.0
 30
0.0
 11
-1.0
 21
-0.26794919
 31
0.0
  0
LINE
  5
6C
330
69
100
AcDbEntity
  8
0
  6
ByBlock
 62
     0
370
    -2
100
AcDbLine
 10
0.0
 20
0.0
 30
0.0
 11
-1.0
 21
0.0
 31
0.0
  0
ENDBLK
  5
6E
330
69
100
AcDbEntity
  8
0
100
AcDbBlockEnd
  0
BLOCK
  5
76
330
74
100
AcDbEntity
  8
0
100
AcDbBlockBegin
  2
GENAXEH
 70
     0
 10
0.0
 20
0.0
 30
0.0
  3
GENAXEH
  1

  0
LINE
  5
75
330
74
100
AcDbEntity
  8
0
100
AcDbLine
 10
-1.0
 20
0.0
 30
0.0
 11
1.0
 21
0.0
 31
0.0
  0
ENDBLK
  5
77
330
74
100
AcDbEntity
  8
0
100
AcDbBlockEnd
  0
BLOCK
  5
43F8
330
43F7
100
AcDbEntity
  8
0
100
AcDbBlockBegin
  2
ロッカクアナツキプラグ R1／8
 70
     0
 10
0.0
 20
0.0
 30
0.0
  3
ロッカクアナツキプラグ R1／8
  1

  0
LINE
  5
43FA
330
43F7
100
AcDbEntity
  8
AM_7 中心線
100
AcDbLine
 10
-6.596407999999996
 20
0.0
 30
0.0
 11
6.596406999999942
 21
0.0
 31
0.0
  0
CIRCLE
  5
43FB
330
43F7
100
AcDbEntity
  8
AM_0 外形線1
  6
ByBlock
100
AcDbCircle
 10
0.0
 20
0.0
 30
0.0
 40
5.271232
  0
LINE
  5
43FC
330
43F7
100
AcDbEntity
  8
AM_7 中心線
100
AcDbLine
 10
0.0
 20
-6.585753999999981
 30
0.0
 11
0.0
 21
6.585755000000006
 31
0.0
  0
CIRCLE
  5
43FD
330
43F7
100
AcDbEntity
  8
AM_4 細線
  6
ByBlock
100
AcDbCircle
 10
0.0
 20
0.0
 30
0.0
 40
4.816232
  0
LINE
  5
43FE
330
43F7
100
AcDbEntity
  8
AM_0 外形線1
  6
ByBlock
100
AcDbLine
 10
-2.178054000000031
 20
-1.257499999999992
 30
0.0
 11
0.0
 21
-2.514999999999985
 31
0.0
  0
LINE
  5
43FF
330
43F7
100
AcDbEntity
  8
AM_0 外形線1
  6
ByBlock
100
AcDbLine
 10
0.0
 20
2.515000000000014
 30
0.0
 11
-2.178054000000031
 21
1.25750000000002
 31
0.0
  0
LINE
  5
4400
330
43F7
100
AcDbEntity
  8
AM_0 外形線1
  6
ByBlock
100
AcDbLine
 10
-2.178054000000031
 20
1.25750000000002
 30
0.0
 11
-2.178054000000031
 21
-1.257499999999992
 31
0.0
  0
LINE
  5
4401
330
43F7
100
AcDbEntity
  8
AM_0 外形線1
  6
ByBlock
100
AcDbLine
 10
2.178052999999976
 20
-1.257499999999992
 30
0.0
 11
2.178052999999976
 21
1.25750000000002
 31
0.0
  0
LINE
  5
4402
330
43F7
100
AcDbEntity
  8
AM_0 外形線1
  6
ByBlock
100
AcDbLine
 10
0.0
 20
-2.514999999999985
 30
0.0
 11
2.178052999999976
 21
-1.257499999999992
 31
0.0
  0
LINE
  5
4403
330
43F7
100
AcDbEntity
  8
AM_0 外形線1
  6
ByBlock
100
AcDbLine
 10
2.178052999999976
 20
1.25750000000002
 30
0.0
 11
0.0
 21
2.515000000000014
 31
0.0
  0
ENDBLK
  5
43F9
330
43F7
100
AcDbEntity
  8
0
100
AcDbBlockEnd
  0
BLOCK
  5
4491
330
4490
100
AcDbEntity
  8
0
100
AcDbBlockBegin
  2
ケースＡ SEM100
 70
     0
 10
0.0
 20
0.0
 30
0.0
  3
ケースＡ SEM100
  1

  0
ARC
  5
4493
330
4490
100
AcDbEntity
  8
AM_0 外形線1
  6
ByBlock
100
AcDbCircle
 10
18.00000000000006
 20
-36.5
 30
0.0
 40
3.0
100
AcDbArc
 50
90.0
 51
180.0
  0
LINE
  5
4494
330
4490
100
AcDbEntity
  8
AM_0 外形線1
  6
ByBlock
100
AcDbLine
 10
15.00000000000006
 20
-49.79999999999998
 30
0.0
 11
15.00000000000006
 21
0.0
 31
0.0
  0
LINE
  5
4495
330
4490
100
AcDbEntity
  8
AM_0 外形線1
  6
ByBlock
100
AcDbLine
 10
0.0000000000000568
 20
0.0
 30
0.0
 11
0.0000000000000568
 21
-49.79999999999998
 31
0.0
  0
LINE
  5
4496
330
4490
100
AcDbEntity
  8
AM_0 外形線1
  6
ByBlock
100
AcDbLine
 10
0.1999999999999886
 20
-49.99999999999997
 30
0.0
 11
14.80000000000001
 21
-49.99999999999997
 31
0.0
  0
LINE
  5
4497
330
4490
100
AcDbEntity
  8
AM_0 外形線1
  6
ByBlock
100
AcDbLine
 10
0.0000000000000568
 20
-49.79999999999998
 30
0.0
 11
0.1999999999999886
 21
-49.99999999999997
 31
0.0
  0
LINE
  5
4498
330
4490
100
AcDbEntity
  8
AM_0 外形線1
  6
ByBlock
100
AcDbLine
 10
14.80000000000001
 20
-49.99999999999997
 30
0.0
 11
15.00000000000006
 21
-49.79999999999998
 31
0.0
  0
LINE
  5
4499
330
4490
100
AcDbEntity
  8
AM_7 中心線
100
AcDbLine
 10
-20.471632
 20
43.5
 30
0.0
 11
25.59929000000003
 21
43.5
 31
0.0
  0
LINE
  5
449A
330
4490
100
AcDbEntity
  8
AM_0 外形線1
  6
ByBlock
100
AcDbLine
 10
18.00000000000006
 20
-33.5
 30
0.0
 11
31.00000000000003
 21
-33.5
 31
0.0
  0
LINE
  5
449B
330
4490
100
AcDbEntity
  8
AM_0 外形線1
  6
ByBlock
100
AcDbLine
 10
34.0
 20
-27.78014199999998
 30
0.0
 11
34.0
 21
0.0
 31
0.0
  0
LINE
  5
449C
330
4490
100
AcDbEntity
  8
AM_0 外形線1
  6
ByBlock
100
AcDbLine
 10
34.0
 20
-30.5
 30
0.0
 11
34.0
 21
-27.78014199999998
 31
0.0
  0
ARC
  5
449D
330
4490
100
AcDbEntity
  8
AM_0 外形線1
  6
ByBlock
100
AcDbCircle
 10
31.00000000000003
 20
-30.5
 30
0.0
 40
3.0
100
AcDbArc
 50
270.0
 51
0.0
  0
LINE
  5
449E
330
4490
100
AcDbEntity
  8
AM_3 隠れ線
100
AcDbLine
 10
14.00000000000005
 20
25.80000000000001
 30
0.0
 11
21.50000000000003
 21
25.80000000000001
 31
0.0
  0
LINE
  5
449F
330
4490
100
AcDbEntity
  8
AM_0 外形線1
  6
ByBlock
100
AcDbLine
 10
18.00000000000006
 20
33.5
 30
0.0
 11
31.00000000000003
 21
33.5
 31
0.0
  0
LINE
  5
44A0
330
4490
100
AcDbEntity
  8
AM_0 外形線1
  6
ByBlock
100
AcDbLine
 10
12.00000000000005
 20
28.5
 30
0.0
 11
22.00000000000003
 21
28.5
 31
0.0
  0
LINE
  5
44A1
330
4490
100
AcDbEntity
  8
AM_7 中心線
100
AcDbLine
 10
10.00000000000005
 20
27.0
 30
0.0
 11
24.00000000000003
 21
27.0
 31
0.0
  0
LWPOLYLINE
  5
44A2
330
4490
100
AcDbEntity
  8
AM_0 外形線1
  6
ByBlock
100
AcDbPolyline
 90
       73
 70
     0
 43
0.0
 10
1.199999999999988
 20
32.5
 10
1.304586000000028
 20
32.507421
 10
1.408376999999973
 20
32.52962500000001
 10
1.510581999999999
 20
32.56644500000002
 10
1.610424000000023
 20
32.61760000000001
 10
1.707142000000033
 20
32.68270000000001
 10
1.800000000000011
 20
32.76125100000002
 10
1.88829099999998
 20
32.852654
 10
1.971344999999985
 20
32.95621400000002
 10
2.048527999999975
 20
33.07114200000004
 10
2.119253000000014
 20
33.19656400000003
 10
2.18298199999998
 20
33.33152600000004
 10
2.23923000000002
 20
33.47500000000002
 10
2.287569000000019
 20
33.62589500000002
 10
2.327630999999996
 20
33.78306100000003
 10
2.359111000000041
 20
33.94530300000003
 10
2.381769000000018
 20
34.11138600000001
 10
2.395432999999968
 20
34.280047
 10
2.400000000000034
 20
34.45000000000002
 10
2.395432999999968
 20
34.61995400000001
 10
2.381769000000018
 20
34.78861400000003
 10
2.359111000000041
 20
34.95469700000001
 10
2.327630999999996
 20
35.11694000000004
 10
2.287569000000019
 20
35.27410600000003
 10
2.23923000000002
 20
35.42500000000001
 10
2.18298199999998
 20
35.56847400000001
 10
2.119253000000014
 20
35.70343600000001
 10
2.048527999999975
 20
35.82885800000003
 10
1.971344999999985
 20
35.94378700000002
 10
1.88829099999998
 20
36.047347
 10
1.800000000000011
 20
36.13875000000002
 10
1.707142000000033
 20
36.21730000000003
 10
1.610424000000023
 20
36.28240100000002
 10
1.510581999999999
 20
36.33355600000002
 10
1.408376999999973
 20
36.37037500000003
 10
1.304586000000028
 20
36.39258000000001
 10
1.199999999999988
 20
36.40000000000001
 10
1.095413000000007
 20
36.39258000000001
 10
0.9916220000000064
 20
36.37037500000003
 10
0.8894170000000372
 20
36.33355600000002
 10
0.7895750000000135
 20
36.28240100000002
 10
0.6928580000000011
 20
36.21730000000003
 10
0.6000000000000229
 20
36.13875000000002
 10
0.5117079999999988
 20
36.047347
 10
0.4286539999999947
 20
35.94378700000002
 10
0.3514710000000036
 20
35.82885800000003
 10
0.2807460000000219
 20
35.70343600000001
 10
0.2170169999999985
 20
35.56847400000001
 10
0.1607690000000161
 20
35.42500000000001
 10
0.1124300000000176
 20
35.27410600000003
 10
0.0723679999999831
 20
35.11694000000004
 10
0.0408889999999929
 20
34.95469700000001
 10
0.0182300000000169
 20
34.78861400000003
 10
0.0045660000000112
 20
34.61995400000001
 10
0.0000000000000568
 20
34.45000000000002
 10
0.0045660000000112
 20
34.280047
 10
0.0182300000000169
 20
34.11138600000001
 10
0.0408889999999929
 20
33.94530300000003
 10
0.0723679999999831
 20
33.78306100000003
 10
0.1124300000000176
 20
33.62589500000002
 10
0.1607690000000161
 20
33.47500000000002
 10
0.2170169999999985
 20
33.33152600000004
 10
0.2807460000000219
 20
33.19656400000003
 10
0.3514710000000036
 20
33.07114200000004
 10
0.4286539999999947
 20
32.95621400000002
 10
0.5117079999999988
 20
32.852654
 10
0.6000000000000229
 20
32.76125100000002
 10
0.6928580000000011
 20
32.68270000000001
 10
0.7895750000000135
 20
32.61760000000001
 10
0.8894170000000372
 20
32.56644500000002
 10
0.9916220000000064
 20
32.52962500000001
 10
1.095413000000007
 20
32.507421
 10
1.199999999999988
 20
32.5
  0
ARC
  5
44A3
330
4490
100
AcDbEntity
  8
AM_0 外形線1
  6
ByBlock
100
AcDbCircle
 10
18.00000000000006
 20
36.5
 30
0.0
 40
3.0
100
AcDbArc
 50
180.0
 51
270.0
  0
LINE
  5
44A4
330
4490
100
AcDbEntity
  8
AM_0 外形線1
  6
ByBlock
100
AcDbLine
 10
2.400000000000034
 20
33.0
 30
0.0
 11
2.400000000000034
 21
35.90000000000002
 31
0.0
  0
LINE
  5
44A5
330
4490
100
AcDbEntity
  8
AM_0 外形線1
  6
ByBlock
100
AcDbLine
 10
11.00000000000005
 20
29.0
 30
0.0
 11
-1.999999999999943
 21
29.0
 31
0.0
  0
LINE
  5
44A6
330
4490
100
AcDbEntity
  8
AM_0 外形線1
  6
ByBlock
100
AcDbLine
 10
-1.800000000000011
 20
32.5
 30
0.0
 11
1.900000000000034
 21
32.5
 31
0.0
  0
LINE
  5
44A7
330
4490
100
AcDbEntity
  8
AM_0 外形線1
  6
ByBlock
100
AcDbLine
 10
-1.999999999999943
 20
32.30000000000001
 30
0.0
 11
-1.800000000000011
 21
32.5
 31
0.0
  0
LINE
  5
44A8
330
4490
100
AcDbEntity
  8
AM_0 外形線1
  6
ByBlock
100
AcDbLine
 10
-1.999999999999943
 20
29.0
 30
0.0
 11
-1.999999999999943
 21
32.30000000000001
 31
0.0
  0
ARC
  5
44A9
330
4490
100
AcDbEntity
  8
AM_0 外形線1
  6
ByBlock
100
AcDbCircle
 10
1.900000000000034
 20
33.0
 30
0.0
 40
0.5
100
AcDbArc
 50
270.0
 51
0.0
  0
LINE
  5
44AA
330
4490
100
AcDbEntity
  8
AM_0 外形線1
  6
ByBlock
100
AcDbLine
 10
12.00000000000005
 20
26.30000000000001
 30
0.0
 11
12.00000000000005
 21
28.0
 31
0.0
  0
LINE
  5
44AB
330
4490
100
AcDbEntity
  8
AM_0 外形線1
  6
ByBlock
100
AcDbLine
 10
14.00000000000005
 20
25.80000000000001
 30
0.0
 11
12.50000000000005
 21
25.80000000000001
 31
0.0
  0
LINE
  5
44AC
330
4490
100
AcDbEntity
  8
AM_0 外形線1
  6
ByBlock
100
AcDbLine
 10
12.50000000000005
 20
25.80000000000001
 30
0.0
 11
12.00000000000005
 21
26.30000000000001
 31
0.0
  0
ARC
  5
44AD
330
4490
100
AcDbEntity
  8
AM_0 外形線1
  6
ByBlock
100
AcDbCircle
 10
11.00000000000005
 20
28.0
 30
0.0
 40
1.0
100
AcDbArc
 50
0.0
 51
90.0
  0
LINE
  5
44AE
330
4490
100
AcDbEntity
  8
AM_0 外形線1
  6
ByBlock
100
AcDbLine
 10
0.0000000000000568
 20
40.0
 30
0.0
 11
15.00000000000006
 21
40.0
 31
0.0
  0
LINE
  5
44AF
330
4490
100
AcDbEntity
  8
AM_0 外形線1
  6
ByBlock
100
AcDbLine
 10
15.00000000000006
 20
46.99999999999997
 30
0.0
 11
0.0000000000000568
 21
46.99999999999997
 31
0.0
  0
LINE
  5
44B0
330
4490
100
AcDbEntity
  8
AM_0 外形線1
  6
ByBlock
100
AcDbLine
 10
0.1999999999999886
 20
49.99999999999997
 30
0.0
 11
14.80000000000001
 21
49.99999999999997
 31
0.0
  0
LINE
  5
44B1
330
4490
100
AcDbEntity
  8
AM_0 外形線1
  6
ByBlock
100
AcDbLine
 10
0.0000000000000568
 20
36.40000000000001
 30
0.0
 11
0.0000000000000568
 21
40.0
 31
0.0
  0
LINE
  5
44B2
330
4490
100
AcDbEntity
  8
AM_0 外形線1
  6
ByBlock
100
AcDbLine
 10
1.900000000000034
 20
36.40000000000001
 30
0.0
 11
0.0000000000000568
 21
36.40000000000001
 31
0.0
  0
ARC
  5
44B3
330
4490
100
AcDbEntity
  8
AM_0 外形線1
  6
ByBlock
100
AcDbCircle
 10
1.900000000000034
 20
35.90000000000002
 30
0.0
 40
0.5
100
AcDbArc
 50
0.0
 51
90.0
  0
LINE
  5
44B4
330
4490
100
AcDbEntity
  8
AM_0 外形線1
  6
ByBlock
100
AcDbLine
 10
0.0000000000000568
 20
49.80000000000003
 30
0.0
 11
0.1999999999999886
 21
49.99999999999997
 31
0.0
  0
LINE
  5
44B5
330
4490
100
AcDbEntity
  8
AM_0 外形線1
  6
ByBlock
100
AcDbLine
 10
0.0000000000000568
 20
46.99999999999997
 30
0.0
 11
0.0000000000000568
 21
49.80000000000003
 31
0.0
  0
LINE
  5
44B7
330
4490
100
AcDbEntity
  8
AM_0 外形線1
  6
ByBlock
100
AcDbLine
 10
14.80000000000001
 20
49.99999999999997
 30
0.0
 11
15.00000000000006
 21
49.80000000000003
 31
0.0
  0
LINE
  5
44B8
330
4490
100
AcDbEntity
  8
AM_0 外形線1
  6
ByBlock
100
AcDbLine
 10
15.00000000000006
 20
49.80000000000003
 30
0.0
 11
15.00000000000006
 21
36.5
 31
0.0
  0
ARC
  5
44B9
330
4490
100
AcDbEntity
  8
AM_0 外形線1
  6
ByBlock
100
AcDbCircle
 10
31.00000000000003
 20
30.5
 30
0.0
 40
3.0
100
AcDbArc
 50
0.0
 51
90.0
  0
LINE
  5
44BB
330
4490
100
AcDbEntity
  8
AM_0 外形線1
  6
ByBlock
100
AcDbLine
 10
27.20000000000002
 20
24.0
 30
0.0
 11
25.00000000000003
 21
24.0
 31
0.0
  0
ARC
  5
44BC
330
4490
100
AcDbEntity
  8
AM_0 外形線1
  6
ByBlock
100
AcDbCircle
 10
27.70000000000002
 20
25.5
 30
0.0
 40
0.5
100
AcDbArc
 50
90.0
 51
180.0
  0
LINE
  5
44BD
330
4490
100
AcDbEntity
  8
AM_3 隠れ線
100
AcDbLine
 10
22.00000000000003
 20
28.0
 30
0.0
 11
22.00000000000003
 21
26.30000000000001
 31
0.0
  0
LINE
  5
44BE
330
4490
100
AcDbEntity
  8
AM_0 外形線1
  6
ByBlock
100
AcDbLine
 10
25.00000000000003
 20
24.0
 30
0.0
 11
25.00000000000003
 21
28.0
 31
0.0
  0
LINE
  5
44BF
330
4490
100
AcDbEntity
  8
AM_3 隠れ線
100
AcDbLine
 10
22.00000000000003
 20
26.30000000000001
 30
0.0
 11
21.50000000000003
 21
25.80000000000001
 31
0.0
  0
LINE
  5
44C0
330
4490
100
AcDbEntity
  8
AM_0 外形線1
  6
ByBlock
100
AcDbLine
 10
25.00000000000003
 20
24.0
 30
0.0
 11
25.00000000000003
 21
23.0
 31
0.0
  0
LINE
  5
44C1
330
4490
100
AcDbEntity
  8
AM_0 外形線1
  6
ByBlock
100
AcDbLine
 10
24.00000000000003
 20
29.0
 30
0.0
 11
23.00000000000003
 21
29.0
 31
0.0
  0
ARC
  5
44C2
330
4490
100
AcDbEntity
  8
AM_0 外形線1
  6
ByBlock
100
AcDbCircle
 10
23.00000000000003
 20
28.0
 30
0.0
 40
1.0
100
AcDbArc
 50
90.0
 51
173.9993804796335
  0
ARC
  5
44C3
330
4490
100
AcDbEntity
  8
AM_0 外形線1
  6
ByBlock
100
AcDbCircle
 10
24.00000000000003
 20
28.0
 30
0.0
 40
1.0
100
AcDbArc
 50
0.0
 51
90.0
  0
LINE
  5
44C4
330
4490
100
AcDbEntity
  8
AM_0 外形線1
  6
ByBlock
100
AcDbLine
 10
34.0
 20
30.5
 30
0.0
 11
34.0
 21
24.0
 31
0.0
  0
LWPOLYLINE
  5
44C5
330
4490
100
AcDbEntity
  8
AM_0 外形線1
  6
ByBlock
100
AcDbPolyline
 90
       73
 70
     0
 43
0.0
 10
31.80000000000004
 20
24.5
 10
31.791247
 20
24.63073400000002
 10
31.76505700000002
 20
24.76047300000002
 10
31.72162899999998
 20
24.88822900000002
 10
31.661293
 20
25.01303000000002
 10
31.58450800000001
 20
25.13392800000004
 10
31.49185799999998
 20
25.25
 10
31.38404900000001
 20
25.36036500000003
 10
31.26190199999999
 20
25.46418200000002
 10
31.12634499999999
 20
25.56066000000001
 10
30.97841100000002
 20
25.64906700000003
 10
30.81922500000002
 20
25.72872800000002
 10
30.65000000000003
 20
25.79903800000002
 10
30.47202200000001
 20
25.85946200000001
 10
30.28664600000002
 20
25.90953900000002
 10
30.09528299999999
 20
25.94888900000004
 10
29.89939000000001
 20
25.97721200000001
 10
29.700458
 20
25.99429200000003
 10
29.50000000000003
 20
26.0
 10
29.29954100000001
 20
25.99429200000003
 10
29.10060900000002
 20
25.97721200000001
 10
28.90471600000001
 20
25.94888900000004
 10
28.71335300000001
 20
25.90953900000002
 10
28.52797800000002
 20
25.85946200000001
 10
28.35000000000002
 20
25.79903800000002
 10
28.18077400000002
 20
25.72872800000002
 10
28.02158800000001
 20
25.64906700000003
 10
27.87365399999999
 20
25.56066000000001
 10
27.73809700000001
 20
25.46418200000002
 10
27.61595000000003
 20
25.36036500000003
 10
27.50814099999999
 20
25.25
 10
27.41549200000003
 20
25.13392800000004
 10
27.338707
 20
25.01303000000002
 10
27.27837
 20
24.88822900000002
 10
27.23494200000002
 20
24.76047300000002
 10
27.20875199999998
 20
24.63073400000002
 10
27.20000000000002
 20
24.5
 10
27.20875199999998
 20
24.36926700000004
 10
27.23494200000002
 20
24.23952800000001
 10
27.27837
 20
24.111772
 10
27.338707
 20
23.98697000000002
 10
27.41549200000003
 20
23.866073
 10
27.50814099999999
 20
23.75
 10
27.61595000000003
 20
23.63963600000003
 10
27.73809700000001
 20
23.535819
 10
27.87365399999999
 20
23.43934000000002
 10
28.02158800000001
 20
23.35093400000002
 10
28.18077400000002
 20
23.27127200000001
 10
28.35000000000002
 20
23.20096200000003
 10
28.52797800000002
 20
23.14053900000002
 10
28.71335300000001
 20
23.09046100000003
 10
28.90471600000001
 20
23.05111200000002
 10
29.10060900000002
 20
23.02278900000002
 10
29.29954100000001
 20
23.00570800000004
 10
29.50000000000003
 20
23.0
 10
29.700458
 20
23.00570800000004
 10
29.89939000000001
 20
23.02278900000002
 10
30.09528299999999
 20
23.05111200000002
 10
30.28664600000002
 20
23.09046100000003
 10
30.47202200000001
 20
23.14053900000002
 10
30.65000000000003
 20
23.20096200000003
 10
30.81922500000002
 20
23.27127200000001
 10
30.97841100000002
 20
23.35093400000002
 10
31.12634499999999
 20
23.43934000000002
 10
31.26190199999999
 20
23.535819
 10
31.38404900000001
 20
23.63963600000003
 10
31.49185799999998
 20
23.75
 10
31.58450800000001
 20
23.866073
 10
31.661293
 20
23.98697000000002
 10
31.72162899999998
 20
24.111772
 10
31.76505700000002
 20
24.23952800000001
 10
31.791247
 20
24.36926700000004
 10
31.80000000000004
 20
24.5
  0
LINE
  5
44C6
330
4490
100
AcDbEntity
  8
AM_0 外形線1
  6
ByBlock
100
AcDbLine
 10
31.30000000000004
 20
26.0
 30
0.0
 11
27.70000000000002
 21
26.0
 31
0.0
  0
LINE
  5
44C7
330
4490
100
AcDbEntity
  8
AM_0 外形線1
  6
ByBlock
100
AcDbLine
 10
27.20000000000002
 20
25.5
 30
0.0
 11
27.20000000000002
 21
24.0
 31
0.0
  0
LINE
  5
44C8
330
4490
100
AcDbEntity
  8
AM_0 外形線1
  6
ByBlock
100
AcDbLine
 10
27.20000000000002
 20
24.0
 30
0.0
 11
27.20000000000002
 21
23.0
 31
0.0
  0
ARC
  5
44C9
330
4490
100
AcDbEntity
  8
AM_0 外形線1
  6
ByBlock
100
AcDbCircle
 10
31.30000000000004
 20
25.5
 30
0.0
 40
0.5
100
AcDbArc
 50
0.0
 51
90.0
  0
LINE
  5
44CA
330
4490
100
AcDbEntity
  8
AM_0 外形線1
  6
ByBlock
100
AcDbLine
 10
31.80000000000004
 20
24.0
 30
0.0
 11
31.80000000000004
 21
25.5
 31
0.0
  0
LINE
  5
44CB
330
4490
100
AcDbEntity
  8
AM_0 外形線1
  6
ByBlock
100
AcDbLine
 10
34.0
 20
24.0
 30
0.0
 11
31.80000000000004
 21
24.0
 31
0.0
  0
LINE
  5
44CC
330
4490
100
AcDbEntity
  8
AM_0 外形線1
  6
ByBlock
100
AcDbLine
 10
34.0
 20
24.0
 30
0.0
 11
34.0
 21
23.0
 31
0.0
  0
LINE
  5
44CD
330
4490
100
AcDbEntity
  8
AM_0 外形線1
  6
ByBlock
100
AcDbLine
 10
31.80000000000004
 20
24.0
 30
0.0
 11
31.80000000000004
 21
23.0
 31
0.0
  0
INSERT
  5
44CE
330
4490
100
AcDbEntity
  8
AM_0 外形線1
100
AcDbBlockReference
  2
ロッカクアナツキプラグ R1／8
 10
7.500000000000056
 20
-21.75
 30
0.0
  0
ARC
  5
4570
330
4490
100
AcDbEntity
  8
AM_3 隠れ線
100
AcDbCircle
 10
23.00000000000003
 20
28.0
 30
0.0
 40
1.0
100
AcDbArc
 50
173.9929267328551
 51
180.0
  0
ENDBLK
  5
4492
330
4490
100
AcDbEntity
  8
0
100
AcDbBlockEnd
  0
BLOCK
  5
45BC
330
45BB
100
AcDbEntity
  8
0
100
AcDbBlockBegin
  2
リジット SEM100
 70
     0
 10
0.0
 20
0.0
 30
0.0
  3
リジット SEM100
  1

  0
LINE
  5
45BE
330
45BB
100
AcDbEntity
  8
AM_0 外形線1
  6
ByBlock
100
AcDbLine
 10
-15.00000000000006
 20
-49.79999999999998
 30
0.0
 11
-15.00000000000006
 21
0.0
 31
0.0
  0
LINE
  5
45BF
330
45BB
100
AcDbEntity
  8
AM_0 外形線1
  6
ByBlock
100
AcDbLine
 10
-0.2000000000000455
 20
-49.99999999999997
 30
0.0
 11
-14.80000000000001
 21
-49.99999999999997
 31
0.0
  0
LINE
  5
45C0
330
45BB
100
AcDbEntity
  8
AM_7 中心線
100
AcDbLine
 10
19.83787047293686
 20
-43.49999999999996
 30
0.0
 11
-20.00000000000006
 21
-43.49999999999996
 31
0.0
  0
LINE
  5
45C1
330
45BB
100
AcDbEntity
  8
AM_0 外形線1
  6
ByBlock
100
AcDbLine
 10
-14.80000000000001
 20
-49.99999999999997
 30
0.0
 11
-15.00000000000006
 21
-49.79999999999998
 31
0.0
  0
LINE
  5
45C2
330
45BB
100
AcDbEntity
  8
AM_0 外形線1
  6
ByBlock
100
AcDbLine
 10
0.0
 20
-49.79999999999998
 30
0.0
 11
-0.2000000000000455
 21
-49.99999999999997
 31
0.0
  0
ARC
  5
45C3
330
45BB
100
AcDbEntity
  8
AM_0 外形線1
  6
ByBlock
100
AcDbCircle
 10
-21.00000000000006
 20
33.5
 30
0.0
 40
6.0
100
AcDbArc
 50
270.0
 51
0.0
  0
LINE
  5
45C4
330
45BB
100
AcDbEntity
  8
AM_0 外形線1
  6
ByBlock
100
AcDbLine
 10
0.0
 20
40.0
 30
0.0
 11
-15.00000000000006
 21
40.0
 31
0.0
  0
LINE
  5
45C5
330
45BB
100
AcDbEntity
  8
AM_0 外形線1
  6
ByBlock
100
AcDbLine
 10
-15.00000000000006
 20
46.99999999999997
 30
0.0
 11
0.0
 21
46.99999999999997
 31
0.0
  0
LINE
  5
45C6
330
45BB
100
AcDbEntity
  8
AM_0 外形線1
  6
ByBlock
100
AcDbLine
 10
-0.2000000000000455
 20
49.99999999999997
 30
0.0
 11
-14.80000000000001
 21
49.99999999999997
 31
0.0
  0
ARC
  5
45C7
330
45BB
100
AcDbEntity
  8
AM_0 外形線1
  6
ByBlock
100
AcDbCircle
 10
-21.00000000000006
 20
-33.5
 30
0.0
 40
6.0
100
AcDbArc
 50
0.0
 51
90.0
  0
LINE
  5
45C8
330
45BB
100
AcDbEntity
  8
AM_0 外形線1
  6
ByBlock
100
AcDbLine
 10
-49.00000000000005
 20
24.5
 30
0.0
 11
-49.00000000000005
 21
0.0
 31
0.0
  0
ARC
  5
45C9
330
45BB
100
AcDbEntity
  8
AM_0 外形線1
  6
ByBlock
100
AcDbCircle
 10
-46.00000000000004
 20
-24.5
 30
0.0
 40
3.0
100
AcDbArc
 50
180.0
 51
270.0
  0
LINE
  5
45CA
330
45BB
100
AcDbEntity
  8
AM_0 外形線1
  6
ByBlock
100
AcDbLine
 10
-49.00000000000005
 20
-24.5
 30
0.0
 11
-49.00000000000005
 21
0.0
 31
0.0
  0
LINE
  5
45CB
330
45BB
100
AcDbEntity
  8
AM_0 外形線1
  6
ByBlock
100
AcDbLine
 10
-21.00000000000006
 20
-27.5
 30
0.0
 11
-46.00000000000004
 21
-27.5
 31
0.0
  0
ARC
  5
45CC
330
45BB
100
AcDbEntity
  8
AM_0 外形線1
  6
ByBlock
100
AcDbCircle
 10
-46.00000000000004
 20
24.5
 30
0.0
 40
3.0
100
AcDbArc
 50
90.0
 51
180.0
  0
LINE
  5
45CD
330
45BB
100
AcDbEntity
  8
AM_0 外形線1
  6
ByBlock
100
AcDbLine
 10
-15.00000000000006
 20
49.80000000000003
 30
0.0
 11
-15.00000000000006
 21
33.5
 31
0.0
  0
LINE
  5
45CE
330
45BB
100
AcDbEntity
  8
AM_0 外形線1
  6
ByBlock
100
AcDbLine
 10
-21.00000000000006
 20
27.5
 30
0.0
 11
-46.00000000000004
 21
27.5
 31
0.0
  0
LINE
  5
45D0
330
45BB
100
AcDbEntity
  8
AM_0 外形線1
  6
ByBlock
100
AcDbLine
 10
-14.80000000000001
 20
49.99999999999997
 30
0.0
 11
-15.00000000000006
 21
49.80000000000003
 31
0.0
  0
LINE
  5
45D1
330
45BB
100
AcDbEntity
  8
AM_0 外形線1
  6
ByBlock
100
AcDbLine
 10
-4.0
 20
0.0
 30
0.0
 11
-4.0
 21
30.5
 31
0.0
  0
LINE
  5
45D2
330
45BB
100
AcDbEntity
  8
AM_0 外形線1
  6
ByBlock
100
AcDbLine
 10
0.0
 20
32.70000000000002
 30
0.0
 11
0.0
 21
40.0
 31
0.0
  0
LINE
  5
45D3
330
45BB
100
AcDbEntity
  8
AM_0 外形線1
  6
ByBlock
100
AcDbLine
 10
-2.0
 20
32.5
 30
0.0
 11
-0.2000000000000455
 21
32.5
 31
0.0
  0
ARC
  5
45D4
330
45BB
100
AcDbEntity
  8
AM_0 外形線1
  6
ByBlock
100
AcDbCircle
 10
-2.0
 20
30.5
 30
0.0
 40
2.0
100
AcDbArc
 50
90.0
 51
180.0
  0
LINE
  5
45D5
330
45BB
100
AcDbEntity
  8
AM_0 外形線1
  6
ByBlock
100
AcDbLine
 10
-0.2000000000000455
 20
32.5
 30
0.0
 11
0.0
 21
32.70000000000002
 31
0.0
  0
LINE
  5
45D6
330
45BB
100
AcDbEntity
  8
AM_0 外形線1
  6
ByBlock
100
AcDbLine
 10
0.0
 20
49.80000000000003
 30
0.0
 11
-0.2000000000000455
 21
49.99999999999997
 31
0.0
  0
LINE
  5
45D8
330
45BB
100
AcDbEntity
  8
AM_0 外形線1
100
AcDbLine
 10
-4.0
 20
15.0
 30
0.0
 11
-49.00000000000005
 21
14.99999999999997
 31
0.0
  0
LINE
  5
461B
330
45BB
100
AcDbEntity
  8
AM_0 外形線1
100
AcDbLine
 10
-0.0000000000000568
 20
0.0
 30
0.0
 11
0.0
 21
-49.79999999999998
 31
0.0
  0
LINE
  5
461C
330
45BB
100
AcDbEntity
  8
AM_0 外形線1
100
AcDbLine
 10
0.0
 20
46.99999999999997
 30
0.0
 11
0.0
 21
49.80000000000003
 31
0.0
  0
ENDBLK
  5
45BD
330
45BB
100
AcDbEntity
  8
0
100
AcDbBlockEnd
  0
BLOCK
  5
46A9
330
46A8
100
AcDbEntity
  8
0
100
AcDbBlockBegin
  2
リーマボルト SEM100 M6
 70
     0
 10
0.0
 20
0.0
 30
0.0
  3
リーマボルト SEM100 M6
  1

  0
LINE
  5
46AB
330
46A8
100
AcDbEntity
  8
AM_0 外形線1
  6
ByBlock
100
AcDbLine
 10
1.000000000000055
 20
-3.5
 30
0.0
 11
1.000000000000055
 21
3.499999999999971
 31
0.0
  0
ARC
  5
46AC
330
46A8
100
AcDbEntity
  8
AM_0 外形線1
  6
ByBlock
100
AcDbCircle
 10
5.839009999999972
 20
0.0
 30
0.0
 40
9.839010999999999
100
AcDbArc
 50
162.9384689999997
 51
197.0615310000002
  0
LINE
  5
46AD
330
46A8
100
AcDbEntity
  8
AM_0 外形線1
  6
ByBlock
100
AcDbLine
 10
-4.0
 20
4.999999999999971
 30
0.0
 11
-4.0
 21
-5.0
 31
0.0
  0
ARC
  5
46AE
330
46A8
100
AcDbEntity
  8
AM_0 外形線1
  6
ByBlock
100
AcDbCircle
 10
-1.416879999999991
 20
-4.318375000000003
 30
0.0
 40
2.583120999999998
100
AcDbArc
 50
146.3428029999978
 51
213.6571970000022
  0
LINE
  5
46AF
330
46A8
100
AcDbEntity
  8
AM_0 外形線1
  6
ByBlock
100
AcDbLine
 10
-3.566987999999979
 20
-5.75
 30
0.0
 11
0.0
 21
-5.75
 31
0.0
  0
LINE
  5
46B0
330
46A8
100
AcDbEntity
  8
AM_0 外形線1
  6
ByBlock
100
AcDbLine
 10
-4.0
 20
-5.0
 30
0.0
 11
-3.566987999999979
 21
-5.75
 31
0.0
  0
LINE
  5
46B1
330
46A8
100
AcDbEntity
  8
AM_0 外形線1
  6
ByBlock
100
AcDbLine
 10
0.0
 20
-2.886750999999975
 30
0.0
 11
-3.566987999999979
 21
-2.886750999999975
 31
0.0
  0
ARC
  5
46B2
330
46A8
100
AcDbEntity
  8
AM_0 外形線1
  6
ByBlock
100
AcDbCircle
 10
0.5
 20
-3.5
 30
0.0
 40
0.5
100
AcDbArc
 50
0.0
 51
180.0
  0
LINE
  5
46B3
330
46A8
100
AcDbEntity
  8
AM_0 外形線1
  6
ByBlock
100
AcDbLine
 10
0.0
 20
2.886751999999971
 30
0.0
 11
-3.566987999999979
 21
2.886751999999971
 31
0.0
  0
LINE
  5
46B4
330
46A8
100
AcDbEntity
  8
AM_0 外形線1
  6
ByBlock
100
AcDbLine
 10
0.0
 20
5.749999999999971
 30
0.0
 11
-3.566987999999979
 21
5.749999999999971
 31
0.0
  0
ARC
  5
46B5
330
46A8
100
AcDbEntity
  8
AM_0 外形線1
  6
ByBlock
100
AcDbCircle
 10
-1.416879999999991
 20
4.318376000000028
 30
0.0
 40
2.583120999999998
100
AcDbArc
 50
146.3428029999978
 51
213.6571970000022
  0
LINE
  5
46B6
330
46A8
100
AcDbEntity
  8
AM_0 外形線1
  6
ByBlock
100
AcDbLine
 10
-3.566987999999979
 20
5.749999999999971
 30
0.0
 11
-4.0
 21
4.999999999999971
 31
0.0
  0
ARC
  5
46B7
330
46A8
100
AcDbEntity
  8
AM_0 外形線1
  6
ByBlock
100
AcDbCircle
 10
0.5
 20
3.499999999999971
 30
0.0
 40
0.5
100
AcDbArc
 50
180.0
 51
0.0
  0
LINE
  5
46B8
330
46A8
100
AcDbEntity
  8
AM_0 外形線1
  6
ByBlock
100
AcDbLine
 10
31.50000000000006
 20
-2.886750999999975
 30
0.0
 11
36.06698699999999
 21
-2.886750999999975
 31
0.0
  0
LINE
  5
46B9
330
46A8
100
AcDbEntity
  8
AM_0 外形線1
  6
ByBlock
100
AcDbLine
 10
31.50000000000006
 20
2.886751999999971
 30
0.0
 11
36.06698699999999
 21
2.886751999999971
 31
0.0
  0
LINE
  5
46BA
330
46A8
100
AcDbEntity
  8
AM_0 外形線1
  6
ByBlock
100
AcDbLine
 10
36.06698699999999
 20
-5.75
 30
0.0
 11
31.50000000000006
 21
-5.75
 31
0.0
  0
LINE
  5
46BB
330
46A8
100
AcDbEntity
  8
AM_0 外形線1
  6
ByBlock
100
AcDbLine
 10
31.50000000000006
 20
5.749999999999971
 30
0.0
 11
36.06698699999999
 21
5.749999999999971
 31
0.0
  0
LINE
  5
46BC
330
46A8
100
AcDbEntity
  8
AM_0 外形線1
  6
ByBlock
100
AcDbLine
 10
31.50000000000006
 20
-5.75
 30
0.0
 11
31.50000000000006
 21
5.749999999999971
 31
0.0
  0
LINE
  5
46BD
330
46A8
100
AcDbEntity
  8
AM_0 外形線1
  6
ByBlock
100
AcDbLine
 10
26.00000000000006
 20
3.499999999999971
 30
0.0
 11
26.00000000000006
 21
-3.5
 31
0.0
  0
LINE
  5
46BE
330
46A8
100
AcDbEntity
  8
AM_0 外形線1
  6
ByBlock
100
AcDbLine
 10
27.00000000000006
 20
2.922650000000004
 30
0.0
 11
27.00000000000006
 21
-2.922648999999978
 31
0.0
  0
LINE
  5
46BF
330
46A8
100
AcDbEntity
  8
AM_0 外形線1
  6
ByBlock
100
AcDbLine
 10
31.50000000000006
 20
-6.099999999999994
 30
0.0
 11
31.50000000000006
 21
-5.75
 31
0.0
  0
LINE
  5
46C0
330
46A8
100
AcDbEntity
  8
AM_0 外形線1
  6
ByBlock
100
AcDbLine
 10
30.00000000000006
 20
-6.099999999999994
 30
0.0
 11
31.50000000000006
 21
-6.099999999999994
 31
0.0
  0
LINE
  5
46C1
330
46A8
100
AcDbEntity
  8
AM_0 外形線1
  6
ByBlock
100
AcDbLine
 10
27.00000000000006
 20
-2.922648999999978
 30
0.0
 11
30.00000000000006
 21
-2.922648999999978
 31
0.0
  0
LINE
  5
46C2
330
46A8
100
AcDbEntity
  8
AM_0 外形線1
  6
ByBlock
100
AcDbLine
 10
27.00000000000006
 20
-2.922648999999978
 30
0.0
 11
26.00000000000006
 21
-3.5
 31
0.0
  0
LINE
  5
46C3
330
46A8
100
AcDbEntity
  8
AM_0 外形線1
  6
ByBlock
100
AcDbLine
 10
31.50000000000006
 20
0.5
 30
0.0
 11
30.00000000000006
 21
-1.0
 31
0.0
  0
LINE
  5
46C4
330
46A8
100
AcDbEntity
  8
AM_0 外形線1
  6
ByBlock
100
AcDbLine
 10
31.50000000000006
 20
0.9999999999999715
 30
0.0
 11
30.00000000000006
 21
-0.5
 31
0.0
  0
LINE
  5
46C5
330
46A8
100
AcDbEntity
  8
AM_0 外形線1
  6
ByBlock
100
AcDbLine
 10
27.00000000000006
 20
2.922650000000004
 30
0.0
 11
30.00000000000006
 21
2.922650000000004
 31
0.0
  0
LINE
  5
46C6
330
46A8
100
AcDbEntity
  8
AM_0 外形線1
  6
ByBlock
100
AcDbLine
 10
26.00000000000006
 20
3.499999999999971
 30
0.0
 11
27.00000000000006
 21
2.922650000000004
 31
0.0
  0
LINE
  5
46C7
330
46A8
100
AcDbEntity
  8
AM_0 外形線1
  6
ByBlock
100
AcDbLine
 10
31.50000000000006
 20
6.099999999999994
 30
0.0
 11
30.00000000000006
 21
6.099999999999994
 31
0.0
  0
LINE
  5
46C8
330
46A8
100
AcDbEntity
  8
AM_0 外形線1
  6
ByBlock
100
AcDbLine
 10
31.50000000000006
 20
5.749999999999971
 30
0.0
 11
31.50000000000006
 21
6.099999999999994
 31
0.0
  0
LINE
  5
46C9
330
46A8
100
AcDbEntity
  8
AM_0 外形線1
  6
ByBlock
100
AcDbLine
 10
38.00000000000004
 20
2.999999999999971
 30
0.0
 11
38.00000000000004
 21
-3.0
 31
0.0
  0
LINE
  5
46CA
330
46A8
100
AcDbEntity
  8
AM_0 外形線1
  6
ByBlock
100
AcDbLine
 10
39.00000000000004
 20
1.999999999999971
 30
0.0
 11
39.00000000000004
 21
-2.0
 31
0.0
  0
ARC
  5
46CB
330
46A8
100
AcDbEntity
  8
AM_0 外形線1
  6
ByBlock
100
AcDbCircle
 10
26.66098900000003
 20
0.0
 30
0.0
 40
9.839010999999999
100
AcDbArc
 50
342.9384689999998
 51
17.06153100000025
  0
LINE
  5
46CC
330
46A8
100
AcDbEntity
  8
AM_0 外形線1
  6
ByBlock
100
AcDbLine
 10
36.50000000000004
 20
4.999999999999971
 30
0.0
 11
36.50000000000004
 21
-5.0
 31
0.0
  0
ARC
  5
46CD
330
46A8
100
AcDbEntity
  8
AM_0 外形線1
  6
ByBlock
100
AcDbCircle
 10
33.91687899999999
 20
-4.318375000000003
 30
0.0
 40
2.583120999999998
100
AcDbArc
 50
326.3428029999979
 51
33.65719700000222
  0
LINE
  5
46CE
330
46A8
100
AcDbEntity
  8
AM_0 外形線1
  6
ByBlock
100
AcDbLine
 10
36.50000000000004
 20
-5.0
 30
0.0
 11
36.06698699999999
 21
-5.75
 31
0.0
  0
LINE
  5
46CF
330
46A8
100
AcDbEntity
  8
AM_0 外形線1
  6
ByBlock
100
AcDbLine
 10
39.00000000000004
 20
-2.0
 30
0.0
 11
38.00000000000004
 21
-3.0
 31
0.0
  0
LINE
  5
46D0
330
46A8
100
AcDbEntity
  8
AM_4 細線
  6
ByBlock
100
AcDbLine
 10
36.50000000000004
 20
-2.5
 30
0.0
 11
38.50000000000004
 21
-2.5
 31
0.0
  0
LINE
  5
46D1
330
46A8
100
AcDbEntity
  8
AM_0 外形線1
  6
ByBlock
100
AcDbLine
 10
38.00000000000004
 20
-3.0
 30
0.0
 11
36.50000000000004
 21
-3.0
 31
0.0
  0
LINE
  5
46D2
330
46A8
100
AcDbEntity
  8
AM_0 外形線1
  6
ByBlock
100
AcDbLine
 10
38.00000000000004
 20
2.999999999999971
 30
0.0
 11
39.00000000000004
 21
1.999999999999971
 31
0.0
  0
LINE
  5
46D3
330
46A8
100
AcDbEntity
  8
AM_4 細線
  6
ByBlock
100
AcDbLine
 10
36.50000000000004
 20
2.49999999999997
 30
0.0
 11
38.50000000000004
 21
2.49999999999997
 31
0.0
  0
LINE
  5
46D4
330
46A8
100
AcDbEntity
  8
AM_0 外形線1
  6
ByBlock
100
AcDbLine
 10
36.50000000000004
 20
2.999999999999971
 30
0.0
 11
38.00000000000004
 21
2.999999999999971
 31
0.0
  0
ARC
  5
46D5
330
46A8
100
AcDbEntity
  8
AM_0 外形線1
  6
ByBlock
100
AcDbCircle
 10
33.91687899999999
 20
4.318376000000028
 30
0.0
 40
2.583120999999998
100
AcDbArc
 50
326.3428029999979
 51
33.65719700000222
  0
LINE
  5
46D6
330
46A8
100
AcDbEntity
  8
AM_0 外形線1
  6
ByBlock
100
AcDbLine
 10
36.06698699999999
 20
5.749999999999971
 30
0.0
 11
36.50000000000004
 21
4.999999999999971
 31
0.0
  0
LINE
  5
4738
330
46A8
100
AcDbEntity
  8
AM_0 外形線1
100
AcDbLine
 10
0.0
 20
5.749999999999971
 30
0.0
 11
0.0
 21
-5.75
 31
0.0
  0
LINE
  5
4739
330
46A8
100
AcDbEntity
  8
AM_0 外形線1
100
AcDbLine
 10
1.000000000000055
 20
3.499999999999971
 30
0.0
 11
26.00000000000006
 21
3.499999999999971
 31
0.0
  0
LINE
  5
473A
330
46A8
100
AcDbEntity
  8
AM_0 外形線1
100
AcDbLine
 10
1.000000000000055
 20
-3.500000000000055
 30
0.0
 11
26.00000000000006
 21
-3.500000000000055
 31
0.0
  0
LINE
  5
473B
330
46A8
100
AcDbEntity
  8
AM_0 外形線1
100
AcDbLine
 10
30.00000000000006
 20
6.099999999999994
 30
0.0
 11
30.00000000000006
 21
-6.099999999999994
 31
0.0
  0
ENDBLK
  5
46AA
330
46A8
100
AcDbEntity
  8
0
100
AcDbBlockEnd
  0
BLOCK
  5
48D4
330
48D3
100
AcDbEntity
  8
0
100
AcDbBlockBegin
  2
*D10
 70
     1
 10
0.0
 20
0.0
 30
0.0
  3
*D10
  1

  0
LINE
  5
55BF
330
48D3
100
AcDbEntity
  8
AM_5 寸法線
 62
     3
100
AcDbLine
 10
137.7710132922288
 20
239.2545931673623
 30
0.0
 11
114.7710132922288
 21
239.2545931673623
 31
0.0
  0
LINE
  5
55C0
330
48D3
100
AcDbEntity
  8
AM_5 寸法線
 62
     3
100
AcDbLine
 10
137.7710132922288
 20
184.2545931673623
 30
0.0
 11
114.7710132922288
 21
184.2545931673623
 31
0.0
  0
LINE
  5
55C1
330
48D3
100
AcDbEntity
  8
AM_5 寸法線
 62
     3
100
AcDbLine
 10
115.3960132922288
 20
236.7545931673623
 30
0.0
 11
115.3960132922288
 21
186.7545931673623
 31
0.0
  0
INSERT
  5
55C2
330
48D3
100
AcDbEntity
  8
AM_5 寸法線
 62
     3
100
AcDbBlockReference
  2
_Open30
 10
115.3960132922288
 20
239.2545931673623
 30
0.0
 41
2.5
 42
2.5
 43
2.5
 50
90.0
  0
INSERT
  5
55C3
330
48D3
100
AcDbEntity
  8
AM_5 寸法線
 62
     3
100
AcDbBlockReference
  2
_Open30
 10
115.3960132922288
 20
184.2545931673623
 30
0.0
 41
2.5
 42
2.5
 43
2.5
 50
270.0
  0
MTEXT
  5
55C4
330
48D3
100
AcDbEntity
  8
AM_5 寸法線
 62
     3
100
AcDbMText
 10
112.1460132922287
 20
211.7545931673623
 30
0.0
 40
3.5
 41
0.0
 46
0.0
 71
     5
 72
     1
  1
%%c55
  7
SEISA
 11
0.0000000000000001
 21
1.0
 31
0.0
 73
     1
 44
1.0
  0
POINT
  5
55C5
330
48D3
100
AcDbEntity
  8
Defpoints
 62
     0
100
AcDbPoint
 10
138.3960132922288
 20
239.2545931673623
 30
0.0
  0
POINT
  5
55C6
330
48D3
100
AcDbEntity
  8
Defpoints
 62
     0
100
AcDbPoint
 10
138.3960132922288
 20
184.2545931673623
 30
0.0
  0
POINT
  5
55C7
330
48D3
100
AcDbEntity
  8
Defpoints
 62
     0
100
AcDbPoint
 10
115.3960132922288
 20
184.2545931673623
 30
0.0
  0
ENDBLK
  5
48D5
330
48D3
100
AcDbEntity
  8
0
100
AcDbBlockEnd
  0
BLOCK
  5
4921
330
4920
100
AcDbEntity
  8
0
100
AcDbBlockBegin
  2
*D11
 70
     1
 10
0.0
 20
0.0
 30
0.0
  3
*D11
  1

  0
LINE
  5
55C8
330
4920
100
AcDbEntity
  8
AM_5 寸法線
 62
     3
100
AcDbLine
 10
180.3960132922289
 20
212.3795931673623
 30
0.0
 11
180.3960132922289
 21
217.1689669829983
 31
0.0
  0
LINE
  5
55C9
330
4920
100
AcDbEntity
  8
AM_5 寸法線
 62
     3
100
AcDbLine
 10
135.3960132922288
 20
212.3795931673623
 30
0.0
 11
135.3960132922288
 21
217.1689669829983
 31
0.0
  0
LINE
  5
55CA
330
4920
100
AcDbEntity
  8
AM_5 寸法線
 62
     3
100
AcDbLine
 10
177.8960132922289
 20
216.5439669829983
 30
0.0
 11
137.8960132922288
 21
216.5439669829983
 31
0.0
  0
INSERT
  5
55CB
330
4920
100
AcDbEntity
  8
AM_5 寸法線
 62
     3
100
AcDbBlockReference
  2
_Open30
 10
180.3960132922289
 20
216.5439669829983
 30
0.0
 41
2.5
 42
2.5
 43
2.5
  0
INSERT
  5
55CC
330
4920
100
AcDbEntity
  8
AM_5 寸法線
 62
     3
100
AcDbBlockReference
  2
_Open30
 10
135.3960132922288
 20
216.5439669829983
 30
0.0
 41
2.5
 42
2.5
 43
2.5
 50
180.0
  0
MTEXT
  5
55CD
330
4920
100
AcDbEntity
  8
AM_5 寸法線
 62
     3
100
AcDbMText
 10
157.8960132922288
 20
219.7939669829983
 30
0.0
 40
3.5
 41
0.0
 46
0.0
 71
     5
 72
     1
  1
45
  7
SEISA
 73
     1
 44
1.0
  0
POINT
  5
55CE
330
4920
100
AcDbEntity
  8
Defpoints
 62
     0
100
AcDbPoint
 10
180.3960132922289
 20
211.7545931673623
 30
0.0
  0
POINT
  5
55CF
330
4920
100
AcDbEntity
  8
Defpoints
 62
     0
100
AcDbPoint
 10
135.3960132922288
 20
211.7545931673623
 30
0.0
  0
POINT
  5
55D0
330
4920
100
AcDbEntity
  8
Defpoints
 62
     0
100
AcDbPoint
 10
135.3960132922288
 20
216.5439669829983
 30
0.0
  0
ENDBLK
  5
4922
330
4920
100
AcDbEntity
  8
0
100
AcDbBlockEnd
  0
BLOCK
  5
49E8
330
49E7
100
AcDbEntity
  8
0
100
AcDbBlockBegin
  2
センタ SEM100
 70
     0
 10
0.0
 20
0.0
 30
0.0
  3
センタ SEM100
  1

  0
LINE
  5
49EA
330
49E7
100
AcDbEntity
  8
AM_0 外形線1
  6
ByBlock
100
AcDbLine
 10
0.0
 20
21.99999999999997
 30
0.0
 11
0.0
 21
0.0
 31
0.0
  0
LINE
  5
49EB
330
49E7
100
AcDbEntity
  8
AM_0 外形線1
  6
ByBlock
100
AcDbLine
 10
44.99999999999993
 20
-20.0
 30
0.0
 11
44.99999999999993
 21
20.0
 31
0.0
  0
LINE
  5
49EC
330
49E7
100
AcDbEntity
  8
AM_0 外形線1
  6
ByBlock
100
AcDbLine
 10
29.99999999999995
 20
-23.0
 30
0.0
 11
41.99999999999993
 21
-23.0
 31
0.0
  0
ARC
  5
49ED
330
49E7
100
AcDbEntity
  8
AM_0 外形線1
  6
ByBlock
100
AcDbCircle
 10
41.99999999999993
 20
-20.0
 30
0.0
 40
3.0
100
AcDbArc
 50
270.0
 51
0.0
  0
ARC
  5
49EF
330
49E7
100
AcDbEntity
  8
AM_0 外形線1
  6
ByBlock
100
AcDbCircle
 10
13.75
 20
0.0
 30
0.0
 40
28.425
100
AcDbArc
 50
80.38037700000044
 51
96.56532599999987
  0
LINE
  5
49F1
330
49E7
100
AcDbEntity
  8
AM_7 中心線
100
AcDbLine
 10
13.75
 20
31.13890929971205
 30
0.0
 11
13.75
 21
22.63609070028798
 31
0.0
  0
LINE
  5
49F2
330
49E7
100
AcDbEntity
  8
AM_0 外形線1
  6
ByBlock
100
AcDbLine
 10
9.5
 20
22.49999999999997
 30
0.0
 11
0.5
 21
22.49999999999997
 31
0.0
  0
LINE
  5
49F3
330
49E7
100
AcDbEntity
  8
AM_0 外形線1
  6
ByBlock
100
AcDbLine
 10
0.5
 20
22.49999999999997
 30
0.0
 11
0.0
 21
21.99999999999997
 31
0.0
  0
LINE
  5
49F4
330
49E7
100
AcDbEntity
  8
AM_0 外形線1
  6
ByBlock
100
AcDbLine
 10
10.5
 20
28.23859300000004
 30
0.0
 11
10.0
 21
27.67655300000001
 31
0.0
  0
ARC
  5
49F5
330
49E7
100
AcDbEntity
  8
AM_0 外形線1
  6
ByBlock
100
AcDbCircle
 10
9.5
 20
22.99999999999997
 30
0.0
 40
0.5
100
AcDbArc
 50
270.0
 51
0.0
  0
LINE
  5
49F6
330
49E7
100
AcDbEntity
  8
AM_0 外形線1
  6
ByBlock
100
AcDbLine
 10
10.0
 20
27.67655300000001
 30
0.0
 11
10.0
 21
22.99999999999997
 31
0.0
  0
LINE
  5
49F7
330
49E7
100
AcDbEntity
  8
AM_0 外形線1
  6
ByBlock
100
AcDbLine
 10
41.99999999999993
 20
23.0
 30
0.0
 11
19.49999999999997
 21
23.0
 31
0.0
  0
LINE
  5
49F8
330
49E7
100
AcDbEntity
  8
AM_0 外形線1
  6
ByBlock
100
AcDbLine
 10
18.99999999999996
 20
27.43596500000004
 30
0.0
 11
18.49999999999997
 21
28.02531200000002
 31
0.0
  0
ARC
  5
49F9
330
49E7
100
AcDbEntity
  8
AM_0 外形線1
  6
ByBlock
100
AcDbCircle
 10
19.49999999999997
 20
23.5
 30
0.0
 40
0.5
100
AcDbArc
 50
180.0
 51
270.0
  0
LINE
  5
49FA
330
49E7
100
AcDbEntity
  8
AM_0 外形線1
  6
ByBlock
100
AcDbLine
 10
18.99999999999996
 20
23.5
 30
0.0
 11
18.99999999999996
 21
27.43596500000004
 31
0.0
  0
ARC
  5
49FB
330
49E7
100
AcDbEntity
  8
AM_0 外形線1
  6
ByBlock
100
AcDbCircle
 10
41.99999999999993
 20
20.0
 30
0.0
 40
3.0
100
AcDbArc
 50
0.0
 51
90.0
  0
LINE
  5
49FD
330
49E7
100
AcDbEntity
  8
AM_0 外形線1
100
AcDbLine
 10
-0.0000000000000568
 20
12.49999999999997
 30
0.0
 11
44.99999999999993
 21
12.49999999999997
 31
0.0
  0
ARC
  5
64B2
330
49E7
100
AcDbEntity
  8
AM_0 外形線1
  6
ByBlock
100
AcDbCircle
 10
13.75
 20
0.0
 30
0.0
 40
25.35000000000002
100
AcDbArc
 50
78.04750659897877
 51
98.50692775586129
  0
ARC
  5
64C7
330
49E7
100
AcDbEntity
  8
AM_7 中心線
100
AcDbCircle
 10
13.75
 20
0.0
 30
0.0
 40
27.0
100
AcDbArc
 50
74.42387092342889
 51
102.439706537219
  0
ENDBLK
  5
49E9
330
49E7
100
AcDbEntity
  8
0
100
AcDbBlockEnd
  0
BLOCK
  5
4A33
330
4A32
100
AcDbEntity
  8
0
100
AcDbBlockBegin
  2
*D13
 70
     1
 10
0.0
 20
0.0
 30
0.0
  3
*D13
  1

  0
LINE
  5
55D1
330
4A32
100
AcDbEntity
  8
AM_5 寸法線
 62
     3
100
AcDbLine
 10
188.3960132922289
 20
212.3795931673623
 30
0.0
 11
188.3960132922289
 21
217.1689669829983
 31
0.0
  0
LINE
  5
55D2
330
4A32
100
AcDbEntity
  8
AM_5 寸法線
 62
     3
100
AcDbLine
 10
180.3960132922289
 20
212.3795931673623
 30
0.0
 11
180.3960132922289
 21
217.1689669829983
 31
0.0
  0
LINE
  5
55D3
330
4A32
100
AcDbEntity
  8
AM_5 寸法線
 62
     3
100
AcDbLine
 10
190.8960132922288
 20
216.5439669829983
 30
0.0
 11
193.3960132922289
 21
216.5439669829983
 31
0.0
  0
LINE
  5
55D4
330
4A32
100
AcDbEntity
  8
AM_5 寸法線
 62
     3
100
AcDbLine
 10
177.8960132922289
 20
216.5439669829983
 30
0.0
 11
175.3960132922288
 21
216.5439669829983
 31
0.0
  0
LINE
  5
55D5
330
4A32
100
AcDbEntity
  8
AM_5 寸法線
 62
     3
100
AcDbLine
 10
188.3960132922289
 20
216.5439669829983
 30
0.0
 11
180.3960132922289
 21
216.5439669829983
 31
0.0
  0
INSERT
  5
55D6
330
4A32
100
AcDbEntity
  8
AM_5 寸法線
 62
     3
100
AcDbBlockReference
  2
_Open30
 10
188.3960132922289
 20
216.5439669829983
 30
0.0
 41
2.5
 42
2.5
 43
2.5
 50
180.0
  0
INSERT
  5
55D7
330
4A32
100
AcDbEntity
  8
AM_5 寸法線
 62
     3
100
AcDbBlockReference
  2
_Open30
 10
180.3960132922289
 20
216.5439669829983
 30
0.0
 41
2.5
 42
2.5
 43
2.5
  0
MTEXT
  5
55D8
330
4A32
100
AcDbEntity
  8
AM_5 寸法線
 62
     3
100
AcDbMText
 10
184.3960132922289
 20
219.7939669829983
 30
0.0
 40
3.5
 41
0.0
 46
0.0
 71
     5
 72
     1
  1
8
  7
SEISA
 73
     1
 44
1.0
  0
POINT
  5
55D9
330
4A32
100
AcDbEntity
  8
Defpoints
 62
     0
100
AcDbPoint
 10
188.3960132922289
 20
211.7545931673622
 30
0.0
  0
POINT
  5
55DA
330
4A32
100
AcDbEntity
  8
Defpoints
 62
     0
100
AcDbPoint
 10
180.3960132922289
 20
211.7545931673623
 30
0.0
  0
POINT
  5
55DB
330
4A32
100
AcDbEntity
  8
Defpoints
 62
     0
100
AcDbPoint
 10
180.3960132922289
 20
216.5439669829983
 30
0.0
  0
ENDBLK
  5
4A34
330
4A32
100
AcDbEntity
  8
0
100
AcDbBlockEnd
  0
BLOCK
  5
4A4F
330
4A4E
100
AcDbEntity
  8
0
100
AcDbBlockBegin
  2
*D14
 70
     1
 10
0.0
 20
0.0
 30
0.0
  3
*D14
  1

  0
LINE
  5
55DC
330
4A4E
100
AcDbEntity
  8
AM_5 寸法線
 62
     3
100
AcDbLine
 10
233.3960132922288
 20
212.3795931673623
 30
0.0
 11
233.3960132922288
 21
217.1689669829983
 31
0.0
  0
LINE
  5
55DD
330
4A4E
100
AcDbEntity
  8
AM_5 寸法線
 62
     3
100
AcDbLine
 10
188.3960132922289
 20
212.3795931673623
 30
0.0
 11
188.3960132922289
 21
217.1689669829983
 31
0.0
  0
LINE
  5
55DE
330
4A4E
100
AcDbEntity
  8
AM_5 寸法線
 62
     3
100
AcDbLine
 10
230.8960132922288
 20
216.5439669829983
 30
0.0
 11
190.8960132922288
 21
216.5439669829983
 31
0.0
  0
INSERT
  5
55DF
330
4A4E
100
AcDbEntity
  8
AM_5 寸法線
 62
     3
100
AcDbBlockReference
  2
_Open30
 10
233.3960132922288
 20
216.5439669829983
 30
0.0
 41
2.5
 42
2.5
 43
2.5
  0
INSERT
  5
55E0
330
4A4E
100
AcDbEntity
  8
AM_5 寸法線
 62
     3
100
AcDbBlockReference
  2
_Open30
 10
188.3960132922289
 20
216.5439669829983
 30
0.0
 41
2.5
 42
2.5
 43
2.5
 50
180.0
  0
MTEXT
  5
55E1
330
4A4E
100
AcDbEntity
  8
AM_5 寸法線
 62
     3
100
AcDbMText
 10
210.8960132922288
 20
219.7939669829983
 30
0.0
 40
3.5
 41
0.0
 46
0.0
 71
     5
 72
     1
  1
45
  7
SEISA
 73
     1
 44
1.0
  0
POINT
  5
55E2
330
4A4E
100
AcDbEntity
  8
Defpoints
 62
     0
100
AcDbPoint
 10
233.3960132922288
 20
211.7545931673623
 30
0.0
  0
POINT
  5
55E3
330
4A4E
100
AcDbEntity
  8
Defpoints
 62
     0
100
AcDbPoint
 10
188.3960132922289
 20
211.7545931673623
 30
0.0
  0
POINT
  5
55E4
330
4A4E
100
AcDbEntity
  8
Defpoints
 62
     0
100
AcDbPoint
 10
188.3960132922289
 20
216.5439669829983
 30
0.0
  0
ENDBLK
  5
4A50
330
4A4E
100
AcDbEntity
  8
0
100
AcDbBlockEnd
  0
BLOCK
  5
4B68
330
4B67
100
AcDbEntity
  8
0
100
AcDbBlockBegin
  2
*D15
 70
     1
 10
0.0
 20
0.0
 30
0.0
  3
*D15
  1

  0
LINE
  5
55E5
330
4B67
100
AcDbEntity
  8
AM_5 寸法線
 62
     3
100
AcDbLine
 10
209.3960132922288
 20
234.1295931673623
 30
0.0
 11
209.3960132922288
 21
228.1846238472922
 31
0.0
  0
LINE
  5
55E6
330
4B67
100
AcDbEntity
  8
AM_5 寸法線
 62
     3
100
AcDbLine
 10
207.3960132922288
 20
234.6295931673623
 30
0.0
 11
207.3960132922288
 21
228.1846238472922
 31
0.0
  0
LINE
  5
55E7
330
4B67
100
AcDbEntity
  8
AM_5 寸法線
 62
     3
100
AcDbLine
 10
204.8960132922288
 20
228.8096238472922
 30
0.0
 11
202.3960132922288
 21
228.8096238472922
 31
0.0
  0
LINE
  5
55E8
330
4B67
100
AcDbEntity
  8
AM_5 寸法線
 62
     3
100
AcDbLine
 10
211.8960132922289
 20
228.8096238472922
 30
0.0
 11
219.4960132922288
 21
228.8096238472922
 31
0.0
  0
LINE
  5
55E9
330
4B67
100
AcDbEntity
  8
AM_5 寸法線
 62
     3
100
AcDbLine
 10
207.3960132922288
 20
228.8096238472922
 30
0.0
 11
209.3960132922288
 21
228.8096238472922
 31
0.0
  0
INSERT
  5
55EA
330
4B67
100
AcDbEntity
  8
AM_5 寸法線
 62
     3
100
AcDbBlockReference
  2
_Open30
 10
207.3960132922288
 20
228.8096238472922
 30
0.0
 41
2.5
 42
2.5
 43
2.5
  0
INSERT
  5
55EB
330
4B67
100
AcDbEntity
  8
AM_5 寸法線
 62
     3
100
AcDbBlockReference
  2
_Open30
 10
209.3960132922288
 20
228.8096238472922
 30
0.0
 41
2.5
 42
2.5
 43
2.5
 50
180.0
  0
MTEXT
  5
55EC
330
4B67
100
AcDbEntity
  8
AM_5 寸法線
 62
     3
100
AcDbMText
 10
216.9460132922289
 20
232.0596238472922
 30
0.0
 40
3.5
 41
0.0
 46
0.0
 71
     5
 72
     1
  1
2
  7
SEISA
 73
     1
 44
1.0
  0
POINT
  5
55ED
330
4B67
100
AcDbEntity
  8
Defpoints
 62
     0
100
AcDbPoint
 10
209.3960132922288
 20
234.7545931673623
 30
0.0
  0
POINT
  5
55EE
102
{ACAD_REACTORS
330
64D7
102
}
330
4B67
100
AcDbEntity
  8
Defpoints
 62
     0
100
AcDbPoint
 10
207.3960132922288
 20
235.2545931673623
 30
0.0
  0
POINT
  5
55EF
330
4B67
100
AcDbEntity
  8
Defpoints
 62
     0
100
AcDbPoint
 10
207.3960132922288
 20
228.8096238472922
 30
0.0
  0
ENDBLK
  5
4B69
330
4B67
100
AcDbEntity
  8
0
100
AcDbBlockEnd
  0
BLOCK
  5
4C35
330
4C34
100
AcDbEntity
  8
0
100
AcDbBlockBegin
  2
*D16
 70
     1
 10
0.0
 20
0.0
 30
0.0
  3
*D16
  1

  0
LINE
  5
55F7
330
4C34
100
AcDbEntity
  8
AM_5 寸法線
 62
     3
100
AcDbLine
 10
231.0210132922288
 20
234.7545931673623
 30
0.0
 11
254.0210132922288
 21
234.7545931673623
 31
0.0
  0
LINE
  5
55F8
330
4C34
100
AcDbEntity
  8
AM_5 寸法線
 62
     3
100
AcDbLine
 10
231.0210132922288
 20
188.7545931673623
 30
0.0
 11
254.0210132922287
 21
188.7545931673623
 31
0.0
  0
LINE
  5
55F9
330
4C34
100
AcDbEntity
  8
AM_5 寸法線
 62
     3
100
AcDbLine
 10
253.3960132922288
 20
232.2545931673623
 30
0.0
 11
253.3960132922288
 21
191.2545931673623
 31
0.0
  0
INSERT
  5
55FA
330
4C34
100
AcDbEntity
  8
AM_5 寸法線
 62
     3
100
AcDbBlockReference
  2
_Open30
 10
253.3960132922288
 20
234.7545931673623
 30
0.0
 41
2.5
 42
2.5
 43
2.5
 50
90.0
  0
INSERT
  5
55FB
330
4C34
100
AcDbEntity
  8
AM_5 寸法線
 62
     3
100
AcDbBlockReference
  2
_Open30
 10
253.3960132922288
 20
188.7545931673623
 30
0.0
 41
2.5
 42
2.5
 43
2.5
 50
270.0
  0
MTEXT
  5
55FC
330
4C34
100
AcDbEntity
  8
AM_5 寸法線
 62
     3
100
AcDbMText
 10
250.1460132922287
 20
211.7545931673623
 30
0.0
 40
3.5
 41
0.0
 46
0.0
 71
     5
 72
     1
  1
%%c46
  7
SEISA
 11
0.0000000000000001
 21
1.0
 31
0.0
 73
     1
 44
1.0
  0
POINT
  5
55FD
330
4C34
100
AcDbEntity
  8
Defpoints
 62
     0
100
AcDbPoint
 10
230.3960132922288
 20
234.7545931673623
 30
0.0
  0
POINT
  5
55FE
330
4C34
100
AcDbEntity
  8
Defpoints
 62
     0
100
AcDbPoint
 10
230.3960132922288
 20
188.7545931673623
 30
0.0
  0
POINT
  5
55FF
330
4C34
100
AcDbEntity
  8
Defpoints
 62
     0
100
AcDbPoint
 10
253.3960132922288
 20
188.7545931673623
 30
0.0
  0
ENDBLK
  5
4C36
330
4C34
100
AcDbEntity
  8
0
100
AcDbBlockEnd
  0
BLOCK
  5
4C6F
330
4C6E
100
AcDbEntity
  8
0
100
AcDbBlockBegin
  2
*D17
 70
     1
 10
0.0
 20
0.0
 30
0.0
  3
*D17
  1

  0
LINE
  5
5600
330
4C6E
100
AcDbEntity
  8
AM_5 寸法線
 62
     3
100
AcDbLine
 10
216.0210132922288
 20
245.2545931673623
 30
0.0
 11
264.0210132922288
 21
245.2545931673623
 31
0.0
  0
LINE
  5
5601
330
4C6E
100
AcDbEntity
  8
AM_5 寸法線
 62
     3
100
AcDbLine
 10
216.0210132922288
 20
178.2545931673623
 30
0.0
 11
264.0210132922288
 21
178.2545931673623
 31
0.0
  0
LINE
  5
5602
330
4C6E
100
AcDbEntity
  8
AM_5 寸法線
 62
     3
100
AcDbLine
 10
263.3960132922288
 20
242.7545931673623
 30
0.0
 11
263.3960132922288
 21
180.7545931673623
 31
0.0
  0
INSERT
  5
5603
330
4C6E
100
AcDbEntity
  8
AM_5 寸法線
 62
     3
100
AcDbBlockReference
  2
_Open30
 10
263.3960132922288
 20
245.2545931673623
 30
0.0
 41
2.5
 42
2.5
 43
2.5
 50
90.0
  0
INSERT
  5
5604
330
4C6E
100
AcDbEntity
  8
AM_5 寸法線
 62
     3
100
AcDbBlockReference
  2
_Open30
 10
263.3960132922288
 20
178.2545931673623
 30
0.0
 41
2.5
 42
2.5
 43
2.5
 50
270.0
  0
MTEXT
  5
5605
330
4C6E
100
AcDbEntity
  8
AM_5 寸法線
 62
     3
100
AcDbMText
 10
260.1460132922288
 20
211.7545931673623
 30
0.0
 40
3.5
 41
0.0
 46
0.0
 71
     5
 72
     1
  1
%%c67
  7
SEISA
 11
0.0000000000000001
 21
1.0
 31
0.0
 73
     1
 44
1.0
  0
POINT
  5
5606
330
4C6E
100
AcDbEntity
  8
Defpoints
 62
     0
100
AcDbPoint
 10
215.3960132922288
 20
245.2545931673623
 30
0.0
  0
POINT
  5
5607
330
4C6E
100
AcDbEntity
  8
Defpoints
 62
     0
100
AcDbPoint
 10
215.3960132922288
 20
178.2545931673623
 30
0.0
  0
POINT
  5
5608
330
4C6E
100
AcDbEntity
  8
Defpoints
 62
     0
100
AcDbPoint
 10
263.3960132922288
 20
178.2545931673623
 30
0.0
  0
ENDBLK
  5
4C70
330
4C6E
100
AcDbEntity
  8
0
100
AcDbBlockEnd
  0
BLOCK
  5
4C87
330
4C86
100
AcDbEntity
  8
0
100
AcDbBlockBegin
  2
*D18
 70
     1
 10
0.0
 20
0.0
 30
0.0
  3
*D18
  1

  0
LINE
  5
5609
330
4C86
100
AcDbEntity
  8
AM_5 寸法線
 62
     3
100
AcDbLine
 10
199.8210132922288
 20
261.7545931673622
 30
0.0
 11
274.0210132922288
 21
261.7545931673622
 31
0.0
  0
LINE
  5
560A
330
4C86
100
AcDbEntity
  8
AM_5 寸法線
 62
     3
100
AcDbLine
 10
199.8210132922288
 20
161.7545931673623
 30
0.0
 11
274.0210132922288
 21
161.7545931673623
 31
0.0
  0
LINE
  5
560B
330
4C86
100
AcDbEntity
  8
AM_5 寸法線
 62
     3
100
AcDbLine
 10
273.3960132922288
 20
259.2545931673623
 30
0.0
 11
273.3960132922288
 21
164.2545931673623
 31
0.0
  0
INSERT
  5
560C
330
4C86
100
AcDbEntity
  8
AM_5 寸法線
 62
     3
100
AcDbBlockReference
  2
_Open30
 10
273.3960132922288
 20
261.7545931673622
 30
0.0
 41
2.5
 42
2.5
 43
2.5
 50
90.0
  0
INSERT
  5
560D
330
4C86
100
AcDbEntity
  8
AM_5 寸法線
 62
     3
100
AcDbBlockReference
  2
_Open30
 10
273.3960132922288
 20
161.7545931673623
 30
0.0
 41
2.5
 42
2.5
 43
2.5
 50
270.0
  0
MTEXT
  5
560E
330
4C86
100
AcDbEntity
  8
AM_5 寸法線
 62
     3
100
AcDbMText
 10
270.1460132922288
 20
211.7545931673623
 30
0.0
 40
3.5
 41
0.0
 46
0.0
 71
     5
 72
     1
  1
%%c100
  7
SEISA
 11
0.0000000000000001
 21
1.0
 31
0.0
 73
     1
 44
1.0
  0
POINT
  5
560F
330
4C86
100
AcDbEntity
  8
Defpoints
 62
     0
100
AcDbPoint
 10
199.1960132922288
 20
261.7545931673622
 30
0.0
  0
POINT
  5
5610
330
4C86
100
AcDbEntity
  8
Defpoints
 62
     0
100
AcDbPoint
 10
199.1960132922288
 20
161.7545931673623
 30
0.0
  0
POINT
  5
5611
330
4C86
100
AcDbEntity
  8
Defpoints
 62
     0
100
AcDbPoint
 10
273.3960132922288
 20
161.7545931673623
 30
0.0
  0
ENDBLK
  5
4C88
330
4C86
100
AcDbEntity
  8
0
100
AcDbBlockEnd
  0
BLOCK
  5
4D13
330
4D12
100
AcDbEntity
  8
0
100
AcDbBlockBegin
  2
*D19
 70
     1
 10
0.0
 20
0.0
 30
0.0
  3
*D19
  1

  0
LINE
  5
5612
330
4D12
100
AcDbEntity
  8
AM_5 寸法線
 62
     3
100
AcDbLine
 10
184.3960132922289
 20
161.3295931673623
 30
0.0
 11
184.3960132922289
 21
146.1295931673623
 31
0.0
  0
LINE
  5
5613
330
4D12
100
AcDbEntity
  8
AM_5 寸法線
 62
     3
100
AcDbLine
 10
169.3960132922288
 20
161.3295931673623
 30
0.0
 11
169.3960132922288
 21
146.1295931673623
 31
0.0
  0
LINE
  5
5614
330
4D12
100
AcDbEntity
  8
AM_5 寸法線
 62
     3
100
AcDbLine
 10
181.8960132922289
 20
146.7545931673623
 30
0.0
 11
171.8960132922288
 21
146.7545931673623
 31
0.0
  0
INSERT
  5
5615
330
4D12
100
AcDbEntity
  8
AM_5 寸法線
 62
     3
100
AcDbBlockReference
  2
_Open30
 10
184.3960132922289
 20
146.7545931673623
 30
0.0
 41
2.5
 42
2.5
 43
2.5
  0
INSERT
  5
5616
330
4D12
100
AcDbEntity
  8
AM_5 寸法線
 62
     3
100
AcDbBlockReference
  2
_Open30
 10
169.3960132922288
 20
146.7545931673623
 30
0.0
 41
2.5
 42
2.5
 43
2.5
 50
180.0
  0
MTEXT
  5
5617
330
4D12
100
AcDbEntity
  8
AM_5 寸法線
 62
     3
100
AcDbMText
 10
176.8960132922288
 20
150.0045931673623
 30
0.0
 40
3.5
 41
0.0
 46
0.0
 71
     5
 72
     1
  1
15
  7
SEISA
 73
     1
 44
1.0
  0
POINT
  5
5618
330
4D12
100
AcDbEntity
  8
Defpoints
 62
     0
100
AcDbPoint
 10
184.3960132922289
 20
161.9545931673623
 30
0.0
  0
POINT
  5
5619
330
4D12
100
AcDbEntity
  8
Defpoints
 62
     0
100
AcDbPoint
 10
169.3960132922288
 20
161.9545931673623
 30
0.0
  0
POINT
  5
561A
330
4D12
100
AcDbEntity
  8
Defpoints
 62
     0
100
AcDbPoint
 10
169.3960132922288
 20
146.7545931673623
 30
0.0
  0
ENDBLK
  5
4D14
330
4D12
100
AcDbEntity
  8
0
100
AcDbBlockEnd
  0
BLOCK
  5
4D2B
330
4D2A
100
AcDbEntity
  8
0
100
AcDbBlockBegin
  2
*D20
 70
     1
 10
0.0
 20
0.0
 30
0.0
  3
*D20
  1

  0
LINE
  5
561B
330
4D2A
100
AcDbEntity
  8
AM_5 寸法線
 62
     3
100
AcDbLine
 10
184.3960132922289
 20
161.3295931673623
 30
0.0
 11
184.3960132922289
 21
146.1295931673623
 31
0.0
  0
LINE
  5
561C
330
4D2A
100
AcDbEntity
  8
AM_5 寸法線
 62
     3
100
AcDbLine
 10
199.3960132922288
 20
161.3295931673623
 30
0.0
 11
199.3960132922288
 21
146.1295931673623
 31
0.0
  0
LINE
  5
561D
330
4D2A
100
AcDbEntity
  8
AM_5 寸法線
 62
     3
100
AcDbLine
 10
186.8960132922288
 20
146.7545931673623
 30
0.0
 11
196.8960132922289
 21
146.7545931673623
 31
0.0
  0
INSERT
  5
561E
330
4D2A
100
AcDbEntity
  8
AM_5 寸法線
 62
     3
100
AcDbBlockReference
  2
_Open30
 10
184.3960132922289
 20
146.7545931673623
 30
0.0
 41
2.5
 42
2.5
 43
2.5
 50
180.0
  0
INSERT
  5
561F
330
4D2A
100
AcDbEntity
  8
AM_5 寸法線
 62
     3
100
AcDbBlockReference
  2
_Open30
 10
199.3960132922288
 20
146.7545931673623
 30
0.0
 41
2.5
 42
2.5
 43
2.5
  0
MTEXT
  5
5620
330
4D2A
100
AcDbEntity
  8
AM_5 寸法線
 62
     3
100
AcDbMText
 10
191.8960132922288
 20
150.0045931673623
 30
0.0
 40
3.5
 41
0.0
 46
0.0
 71
     5
 72
     1
  1
15
  7
SEISA
 73
     1
 44
1.0
  0
POINT
  5
5621
330
4D2A
100
AcDbEntity
  8
Defpoints
 62
     0
100
AcDbPoint
 10
184.3960132922289
 20
161.9545931673623
 30
0.0
  0
POINT
  5
5622
330
4D2A
100
AcDbEntity
  8
Defpoints
 62
     0
100
AcDbPoint
 10
199.3960132922288
 20
161.9545931673623
 30
0.0
  0
POINT
  5
5623
330
4D2A
100
AcDbEntity
  8
Defpoints
 62
     0
100
AcDbPoint
 10
199.3960132922288
 20
146.7545931673623
 30
0.0
  0
ENDBLK
  5
4D2C
330
4D2A
100
AcDbEntity
  8
0
100
AcDbBlockEnd
  0
BLOCK
  5
4E51
330
4E50
100
AcDbEntity
  8
0
100
AcDbBlockBegin
  2
*D21
 70
     1
 10
0.0
 20
0.0
 30
0.0
  3
*D21
  1

  0
LINE
  5
5638
330
4E50
100
AcDbEntity
  8
AM_5 寸法線
 62
     3
100
AcDbLine
 10
184.3960132922289
 20
161.3295931673623
 30
0.0
 11
184.3960132922289
 21
136.1295931673623
 31
0.0
  0
LINE
  5
5639
330
4E50
100
AcDbEntity
  8
AM_5 寸法線
 62
     3
100
AcDbLine
 10
135.3960132922288
 20
186.6295931673623
 30
0.0
 11
135.3960132922288
 21
136.1295931673623
 31
0.0
  0
LINE
  5
563A
330
4E50
100
AcDbEntity
  8
AM_5 寸法線
 62
     3
100
AcDbLine
 10
181.8960132922289
 20
136.7545931673623
 30
0.0
 11
137.8960132922288
 21
136.7545931673623
 31
0.0
  0
INSERT
  5
563B
330
4E50
100
AcDbEntity
  8
AM_5 寸法線
 62
     3
100
AcDbBlockReference
  2
_Open30
 10
184.3960132922289
 20
136.7545931673623
 30
0.0
 41
2.5
 42
2.5
 43
2.5
  0
INSERT
  5
563C
330
4E50
100
AcDbEntity
  8
AM_5 寸法線
 62
     3
100
AcDbBlockReference
  2
_Open30
 10
135.3960132922288
 20
136.7545931673623
 30
0.0
 41
2.5
 42
2.5
 43
2.5
 50
180.0
  0
MTEXT
  5
563D
330
4E50
100
AcDbEntity
  8
AM_5 寸法線
 62
     3
100
AcDbMText
 10
159.8960132922288
 20
140.0045931673623
 30
0.0
 40
3.5
 41
0.0
 46
0.0
 71
     5
 72
     1
  1
49
  7
SEISA
 73
     1
 44
1.0
  0
POINT
  5
563E
330
4E50
100
AcDbEntity
  8
Defpoints
 62
     0
100
AcDbPoint
 10
184.3960132922289
 20
161.9545931673623
 30
0.0
  0
POINT
  5
563F
330
4E50
100
AcDbEntity
  8
Defpoints
 62
     0
100
AcDbPoint
 10
135.3960132922288
 20
187.2545931673623
 30
0.0
  0
POINT
  5
5640
330
4E50
100
AcDbEntity
  8
Defpoints
 62
     0
100
AcDbPoint
 10
135.3960132922288
 20
136.7545931673623
 30
0.0
  0
ENDBLK
  5
4E52
330
4E50
100
AcDbEntity
  8
0
100
AcDbBlockEnd
  0
BLOCK
  5
4E69
330
4E68
100
AcDbEntity
  8
0
100
AcDbBlockBegin
  2
*D22
 70
     1
 10
0.0
 20
0.0
 30
0.0
  3
*D22
  1

  0
LINE
  5
5641
330
4E68
100
AcDbEntity
  8
AM_5 寸法線
 62
     3
100
AcDbLine
 10
184.3960132922289
 20
161.3295931673623
 30
0.0
 11
184.3960132922289
 21
136.1295931673623
 31
0.0
  0
LINE
  5
5642
330
4E68
100
AcDbEntity
  8
AM_5 寸法線
 62
     3
100
AcDbLine
 10
218.3960132922288
 20
180.6295931673623
 30
0.0
 11
218.3960132922288
 21
136.1295931673623
 31
0.0
  0
LINE
  5
5643
330
4E68
100
AcDbEntity
  8
AM_5 寸法線
 62
     3
100
AcDbLine
 10
186.8960132922288
 20
136.7545931673623
 30
0.0
 11
215.8960132922288
 21
136.7545931673623
 31
0.0
  0
INSERT
  5
5644
330
4E68
100
AcDbEntity
  8
AM_5 寸法線
 62
     3
100
AcDbBlockReference
  2
_Open30
 10
184.3960132922289
 20
136.7545931673623
 30
0.0
 41
2.5
 42
2.5
 43
2.5
 50
180.0
  0
INSERT
  5
5645
330
4E68
100
AcDbEntity
  8
AM_5 寸法線
 62
     3
100
AcDbBlockReference
  2
_Open30
 10
218.3960132922288
 20
136.7545931673623
 30
0.0
 41
2.5
 42
2.5
 43
2.5
  0
MTEXT
  5
5646
330
4E68
100
AcDbEntity
  8
AM_5 寸法線
 62
     3
100
AcDbMText
 10
201.3960132922288
 20
140.0045931673623
 30
0.0
 40
3.5
 41
0.0
 46
0.0
 71
     5
 72
     1
  1
34
  7
SEISA
 73
     1
 44
1.0
  0
POINT
  5
5647
330
4E68
100
AcDbEntity
  8
Defpoints
 62
     0
100
AcDbPoint
 10
184.3960132922289
 20
161.9545931673623
 30
0.0
  0
POINT
  5
5648
330
4E68
100
AcDbEntity
  8
Defpoints
 62
     0
100
AcDbPoint
 10
218.3960132922288
 20
181.2545931673623
 30
0.0
  0
POINT
  5
5649
330
4E68
100
AcDbEntity
  8
Defpoints
 62
     0
100
AcDbPoint
 10
218.3960132922288
 20
136.7545931673623
 30
0.0
  0
ENDBLK
  5
4E6A
330
4E68
100
AcDbEntity
  8
0
100
AcDbBlockEnd
  0
BLOCK
  5
4E81
330
4E80
100
AcDbEntity
  8
0
100
AcDbBlockBegin
  2
*D23
 70
     1
 10
0.0
 20
0.0
 30
0.0
  3
*D23
  1

  0
LINE
  5
5DBF
330
4E80
100
AcDbEntity
  8
AM_5 寸法線
 62
     3
100
AcDbLine
 10
218.3960132922289
 20
180.6295931673623
 30
0.0
 11
218.3960132922289
 21
136.1295931673623
 31
0.0
  0
LINE
  5
5DC0
330
4E80
100
AcDbEntity
  8
AM_5 寸法線
 62
     3
100
AcDbLine
 10
233.3960132922288
 20
191.1295931673623
 30
0.0
 11
233.3960132922288
 21
136.1295931673623
 31
0.0
  0
LINE
  5
5DC1
330
4E80
100
AcDbEntity
  8
AM_5 寸法線
 62
     3
100
AcDbLine
 10
220.8960132922288
 20
136.7545931673623
 30
0.0
 11
230.8960132922288
 21
136.7545931673623
 31
0.0
  0
MTEXT
  5
5DC2
330
4E80
100
AcDbEntity
  8
AM_5 寸法線
 62
     3
100
AcDbMText
 10
225.1475835828821
 20
140.0503570685948
 30
0.0
 40
3.5
 41
0.0
 46
0.0
 71
     5
 72
     1
  1
15
  7
SEISA
 73
     1
 44
1.0
  0
INSERT
  5
5DC3
330
4E80
100
AcDbEntity
  8
AM_5 寸法線
 62
     3
100
AcDbBlockReference
  2
_Open30
 10
218.3960132922289
 20
136.7545931673623
 30
0.0
 41
2.5
 42
2.5
 43
2.5
 50
180.0
  0
INSERT
  5
5DC4
330
4E80
100
AcDbEntity
  8
AM_5 寸法線
 62
     3
100
AcDbBlockReference
  2
_Open30
 10
233.3960132922288
 20
136.7545931673623
 30
0.0
 41
2.5
 42
2.5
 43
2.5
  0
POINT
  5
5DC5
330
4E80
100
AcDbEntity
  8
Defpoints
 62
     0
100
AcDbPoint
 10
218.3960132922289
 20
181.2545931673623
 30
0.0
  0
POINT
  5
5DC6
330
4E80
100
AcDbEntity
  8
Defpoints
 62
     0
100
AcDbPoint
 10
233.3960132922288
 20
191.7545931673623
 30
0.0
  0
POINT
  5
5DC7
330
4E80
100
AcDbEntity
  8
Defpoints
 62
     0
100
AcDbPoint
 10
233.3960132922288
 20
136.7545931673623
 30
0.0
  0
ENDBLK
  5
4E82
330
4E80
100
AcDbEntity
  8
0
100
AcDbBlockEnd
  0
BLOCK
  5
4E99
330
4E98
100
AcDbEntity
  8
0
100
AcDbBlockBegin
  2
*D24
 70
     1
 10
0.0
 20
0.0
 30
0.0
  3
*D24
  1

  0
LINE
  5
5653
330
4E98
100
AcDbEntity
  8
AM_5 寸法線
 62
     3
100
AcDbLine
 10
135.3960132922288
 20
186.6295931673623
 30
0.0
 11
135.3960132922288
 21
126.1295931673623
 31
0.0
  0
LINE
  5
5654
330
4E98
100
AcDbEntity
  8
AM_5 寸法線
 62
     3
100
AcDbLine
 10
233.3960132922288
 20
191.1295931673623
 30
0.0
 11
233.3960132922288
 21
126.1295931673623
 31
0.0
  0
LINE
  5
5655
330
4E98
100
AcDbEntity
  8
AM_5 寸法線
 62
     3
100
AcDbLine
 10
137.8960132922288
 20
126.7545931673623
 30
0.0
 11
230.8960132922288
 21
126.7545931673623
 31
0.0
  0
INSERT
  5
5656
330
4E98
100
AcDbEntity
  8
AM_5 寸法線
 62
     3
100
AcDbBlockReference
  2
_Open30
 10
135.3960132922288
 20
126.7545931673623
 30
0.0
 41
2.5
 42
2.5
 43
2.5
 50
180.0
  0
INSERT
  5
5657
330
4E98
100
AcDbEntity
  8
AM_5 寸法線
 62
     3
100
AcDbBlockReference
  2
_Open30
 10
233.3960132922288
 20
126.7545931673623
 30
0.0
 41
2.5
 42
2.5
 43
2.5
  0
MTEXT
  5
5658
330
4E98
100
AcDbEntity
  8
AM_5 寸法線
 62
     3
100
AcDbMText
 10
184.3960132922288
 20
130.0045931673623
 30
0.0
 40
3.5
 41
0.0
 46
0.0
 71
     5
 72
     1
  1
98
  7
SEISA
 73
     1
 44
1.0
  0
POINT
  5
5659
330
4E98
100
AcDbEntity
  8
Defpoints
 62
     0
100
AcDbPoint
 10
135.3960132922288
 20
187.2545931673623
 30
0.0
  0
POINT
  5
565A
330
4E98
100
AcDbEntity
  8
Defpoints
 62
     0
100
AcDbPoint
 10
233.3960132922288
 20
191.7545931673623
 30
0.0
  0
POINT
  5
565B
330
4E98
100
AcDbEntity
  8
Defpoints
 62
     0
100
AcDbPoint
 10
233.3960132922288
 20
126.7545931673623
 30
0.0
  0
ENDBLK
  5
4E9A
330
4E98
100
AcDbEntity
  8
0
100
AcDbBlockEnd
  0
BLOCK
  5
646A
330
6469
100
AcDbEntity
  8
0
100
AcDbBlockBegin
  2
*D25
 70
     1
 10
0.0
 20
0.0
 30
0.0
  3
*D25
  1

  0
LINE
  5
6489
330
6469
100
AcDbEntity
  8
AM_5 寸法線
 62
     3
100
AcDbLine
 10
233.3960132922288
 20
232.3795931673623
 30
0.0
 11
233.3960132922288
 21
269.1190339349472
 31
0.0
  0
LINE
  5
648A
330
6469
100
AcDbEntity
  8
AM_5 寸法線
 62
     3
100
AcDbLine
 10
243.3960132922288
 20
242.8795931673623
 30
0.0
 11
243.3960132922288
 21
269.1190339349472
 31
0.0
  0
LINE
  5
648B
330
6469
100
AcDbEntity
  8
AM_5 寸法線
 62
     3
100
AcDbLine
 10
235.8960132922288
 20
268.4940339349472
 30
0.0
 11
240.8960132922288
 21
268.4940339349472
 31
0.0
  0
INSERT
  5
648C
330
6469
100
AcDbEntity
  8
AM_5 寸法線
 62
     3
100
AcDbBlockReference
  2
_Open30
 10
233.3960132922288
 20
268.4940339349472
 30
0.0
 41
2.5
 42
2.5
 43
2.5
 50
180.0
  0
INSERT
  5
648D
330
6469
100
AcDbEntity
  8
AM_5 寸法線
 62
     3
100
AcDbBlockReference
  2
_Open30
 10
243.3960132922288
 20
268.4940339349472
 30
0.0
 41
2.5
 42
2.5
 43
2.5
  0
MTEXT
  5
648E
330
6469
100
AcDbEntity
  8
AM_5 寸法線
 62
     3
100
AcDbMText
 10
238.3960132922288
 20
271.7440339349472
 30
0.0
 40
3.5
 41
0.0
 46
0.0
 71
     5
 72
     1
  1
10
  7
SEISA
 73
     1
 44
1.0
  0
POINT
  5
648F
330
6469
100
AcDbEntity
  8
Defpoints
 62
     0
100
AcDbPoint
 10
233.3960132922288
 20
231.7545931673623
 30
0.0
  0
POINT
  5
6490
330
6469
100
AcDbEntity
  8
Defpoints
 62
     0
100
AcDbPoint
 10
243.3960132922288
 20
242.2545931673623
 30
0.0
  0
POINT
  5
6491
330
6469
100
AcDbEntity
  8
Defpoints
 62
     0
100
AcDbPoint
 10
243.3960132922288
 20
268.4940339349472
 30
0.0
  0
ENDBLK
  5
646B
330
6469
100
AcDbEntity
  8
0
100
AcDbBlockEnd
  0
BLOCK
  5
64CB
330
64CA
100
AcDbEntity
  8
0
100
AcDbBlockBegin
  2
*D26
 70
     1
 10
0.0
 20
0.0
 30
0.0
  3
*D26
  1

  0
LINE
  5
64EA
330
64CA
100
AcDbEntity
  8
AM_5 寸法線
 62
     3
100
AcDbLine
 10
207.3960132922288
 20
234.6295931673623
 30
0.0
 11
207.3960132922288
 21
228.1846238472924
 31
0.0
  0
LINE
  5
64EB
330
64CA
100
AcDbEntity
  8
AM_5 寸法線
 62
     3
100
AcDbLine
 10
198.3960132922288
 20
234.1295931673623
 30
0.0
 11
198.3960132922288
 21
228.1846238472924
 31
0.0
  0
LINE
  5
64EC
330
64CA
100
AcDbEntity
  8
AM_5 寸法線
 62
     3
100
AcDbLine
 10
204.8960132922288
 20
228.8096238472924
 30
0.0
 11
200.8960132922289
 21
228.8096238472924
 31
0.0
  0
INSERT
  5
64ED
330
64CA
100
AcDbEntity
  8
AM_5 寸法線
 62
     3
100
AcDbBlockReference
  2
_Open30
 10
207.3960132922288
 20
228.8096238472924
 30
0.0
 41
2.5
 42
2.5
 43
2.5
  0
INSERT
  5
64EE
330
64CA
100
AcDbEntity
  8
AM_5 寸法線
 62
     3
100
AcDbBlockReference
  2
_Open30
 10
198.3960132922288
 20
228.8096238472924
 30
0.0
 41
2.5
 42
2.5
 43
2.5
 50
180.0
  0
MTEXT
  5
64EF
330
64CA
100
AcDbEntity
  8
AM_5 寸法線
 62
     3
100
AcDbMText
 10
202.8960132922289
 20
232.0596238472925
 30
0.0
 40
3.5
 41
0.0
 46
0.0
 71
     5
 72
     1
  1
9
  7
SEISA
 73
     1
 44
1.0
  0
POINT
  5
64F0
330
64CA
100
AcDbEntity
  8
Defpoints
 62
     0
100
AcDbPoint
 10
207.3960132922288
 20
235.2545931673623
 30
0.0
  0
POINT
  5
64F1
102
{ACAD_REACTORS
330
6501
102
}
330
64CA
100
AcDbEntity
  8
Defpoints
 62
     0
100
AcDbPoint
 10
198.3960132922288
 20
234.7545931673622
 30
0.0
  0
POINT
  5
64F2
330
64CA
100
AcDbEntity
  8
Defpoints
 62
     0
100
AcDbPoint
 10
198.3960132922288
 20
228.8096238472924
 30
0.0
  0
ENDBLK
  5
64CC
330
64CA
100
AcDbEntity
  8
0
100
AcDbBlockEnd
  0
BLOCK
  5
64F5
330
64F4
100
AcDbEntity
  8
0
100
AcDbBlockBegin
  2
*D27
 70
     1
 10
0.0
 20
0.0
 30
0.0
  3
*D27
  1

  0
LINE
  5
651D
330
64F4
100
AcDbEntity
  8
AM_5 寸法線
 62
     3
100
AcDbLine
 10
198.3960132922288
 20
234.1295931673623
 30
0.0
 11
198.3960132922288
 21
228.1846238472924
 31
0.0
  0
LINE
  5
651E
330
64F4
100
AcDbEntity
  8
AM_5 寸法線
 62
     3
100
AcDbLine
 10
188.3960132922289
 20
233.1295931673623
 30
0.0
 11
188.3960132922289
 21
228.1846238472924
 31
0.0
  0
LINE
  5
651F
330
64F4
100
AcDbEntity
  8
AM_5 寸法線
 62
     3
100
AcDbLine
 10
195.8960132922289
 20
228.8096238472924
 30
0.0
 11
190.8960132922288
 21
228.8096238472924
 31
0.0
  0
INSERT
  5
6520
330
64F4
100
AcDbEntity
  8
AM_5 寸法線
 62
     3
100
AcDbBlockReference
  2
_Open30
 10
198.3960132922288
 20
228.8096238472924
 30
0.0
 41
2.5
 42
2.5
 43
2.5
  0
INSERT
  5
6521
330
64F4
100
AcDbEntity
  8
AM_5 寸法線
 62
     3
100
AcDbBlockReference
  2
_Open30
 10
188.3960132922289
 20
228.8096238472924
 30
0.0
 41
2.5
 42
2.5
 43
2.5
 50
180.0
  0
MTEXT
  5
6522
330
64F4
100
AcDbEntity
  8
AM_5 寸法線
 62
     3
100
AcDbMText
 10
193.3960132922289
 20
232.0596238472924
 30
0.0
 40
3.5
 41
0.0
 46
0.0
 71
     5
 72
     1
  1
10
  7
SEISA
 73
     1
 44
1.0
  0
POINT
  5
6523
330
64F4
100
AcDbEntity
  8
Defpoints
 62
     0
100
AcDbPoint
 10
198.3960132922288
 20
234.7545931673622
 30
0.0
  0
POINT
  5
6524
330
64F4
100
AcDbEntity
  8
Defpoints
 62
     0
100
AcDbPoint
 10
188.3960132922289
 20
233.7545931673623
 30
0.0
  0
POINT
  5
6525
330
64F4
100
AcDbEntity
  8
Defpoints
 62
     0
100
AcDbPoint
 10
188.3960132922289
 20
228.8096238472924
 30
0.0
  0
ENDBLK
  5
64F6
330
64F4
100
AcDbEntity
  8
0
100
AcDbBlockEnd
  0
BLOCK
  5
688A
330
6889
100
AcDbEntity
  8
0
100
AcDbBlockBegin
  2
ケース
 70
     0
 10
0.0
 20
0.0
 30
0.0
  3
ケース
  1

  0
LINE
  5
688C
330
6889
100
AcDbEntity
  8
AM_11 想像線
 48
0.2
100
AcDbLine
 10
0.2153673286244953
 20
-7.699999999999986
 30
0.0
 11
3.499999999999943
 21
-7.699999999999986
 31
0.0
  0
LINE
  5
688D
330
6889
100
AcDbEntity
  8
AM_11 想像線
 48
0.2
100
AcDbLine
 10
0.0
 20
0.0
 30
0.0
 11
12.99999999999994
 21
0.0
 31
0.0
  0
LINE
  5
688E
330
6889
100
AcDbEntity
  8
AM_11 想像線
 48
0.2
100
AcDbLine
 10
0.2153673286244953
 20
-5.0
 30
0.0
 11
3.999999999999943
 21
-5.0
 31
0.0
  0
LINE
  5
688F
330
6889
100
AcDbEntity
  8
AM_11 想像線
 48
0.2
100
AcDbLine
 10
0.2153673286244953
 20
-6.5
 30
0.0
 11
5.999999999999943
 21
-6.5
 31
0.0
  0
ARC
  5
6890
330
6889
100
AcDbEntity
  8
AM_11 想像線
 48
0.2
100
AcDbCircle
 10
12.99999999999994
 20
-3.0
 30
0.0
 40
3.0
100
AcDbArc
 50
0.0
 51
90.0
  0
LINE
  5
6891
330
6889
100
AcDbEntity
  8
AM_11 想像線
 48
0.2
100
AcDbLine
 10
9.199999999999988
 20
-9.5
 30
0.0
 11
6.999999999999943
 21
-9.5
 31
0.0
  0
ARC
  5
6892
330
6889
100
AcDbEntity
  8
AM_11 想像線
 48
0.2
100
AcDbCircle
 10
9.699999999999988
 20
-8.0
 30
0.0
 40
0.5
100
AcDbArc
 50
90.0
 51
180.0
  0
LINE
  5
6893
330
6889
100
AcDbEntity
  8
AM_11 想像線
 48
0.2
100
AcDbLine
 10
3.999999999999943
 20
-5.5
 30
0.0
 11
3.999999999999943
 21
-7.199999999999986
 31
0.0
  0
LINE
  5
6894
330
6889
100
AcDbEntity
  8
AM_11 想像線
 48
0.2
100
AcDbLine
 10
6.999999999999943
 20
-9.5
 30
0.0
 11
6.999999999999943
 21
-5.5
 31
0.0
  0
LINE
  5
6895
330
6889
100
AcDbEntity
  8
AM_11 想像線
 48
0.2
100
AcDbLine
 10
3.999999999999943
 20
-7.199999999999986
 30
0.0
 11
3.499999999999943
 21
-7.699999999999986
 31
0.0
  0
LINE
  5
6896
330
6889
100
AcDbEntity
  8
AM_11 想像線
 48
0.2
100
AcDbLine
 10
6.999999999999943
 20
-9.5
 30
0.0
 11
6.999999999999943
 21
-10.5
 31
0.0
  0
LINE
  5
6897
330
6889
100
AcDbEntity
  8
AM_11 想像線
 48
0.2
100
AcDbLine
 10
5.999999999999943
 20
-4.5
 30
0.0
 11
4.999999999999943
 21
-4.5
 31
0.0
  0
ARC
  5
6898
330
6889
100
AcDbEntity
  8
AM_11 想像線
 48
0.2
100
AcDbCircle
 10
4.999999999999943
 20
-5.5
 30
0.0
 40
1.0
100
AcDbArc
 50
90.0
 51
173.9993804796335
  0
ARC
  5
6899
330
6889
100
AcDbEntity
  8
AM_11 想像線
 48
0.2
100
AcDbCircle
 10
4.999999999999943
 20
-5.5
 30
0.0
 40
1.0
100
AcDbArc
 50
173.9929267328551
 51
180.0
  0
ARC
  5
689A
330
6889
100
AcDbEntity
  8
AM_11 想像線
 48
0.2
100
AcDbCircle
 10
5.999999999999943
 20
-5.5
 30
0.0
 40
1.0
100
AcDbArc
 50
0.0
 51
90.0
  0
LINE
  5
689B
102
{ACAD_REACTORS
330
6476
102
}
330
6889
100
AcDbEntity
  8
AM_11 想像線
 48
0.2
100
AcDbLine
 10
15.99999999999994
 20
-3.0
 30
0.0
 11
15.99999999999994
 21
-9.5
 31
0.0
  0
LINE
  5
689C
330
6889
100
AcDbEntity
  8
AM_11 想像線
 48
0.2
100
AcDbLine
 10
13.30000000000001
 20
-7.5
 30
0.0
 11
9.699999999999988
 21
-7.5
 31
0.0
  0
LINE
  5
689D
330
6889
100
AcDbEntity
  8
AM_11 想像線
 48
0.2
100
AcDbLine
 10
9.199999999999988
 20
-8.0
 30
0.0
 11
9.199999999999988
 21
-9.5
 31
0.0
  0
LINE
  5
689E
330
6889
100
AcDbEntity
  8
AM_11 想像線
 48
0.2
100
AcDbLine
 10
9.199999999999988
 20
-9.5
 30
0.0
 11
9.199999999999988
 21
-10.5
 31
0.0
  0
ARC
  5
689F
330
6889
100
AcDbEntity
  8
AM_11 想像線
 48
0.2
100
AcDbCircle
 10
13.30000000000001
 20
-8.0
 30
0.0
 40
0.5
100
AcDbArc
 50
0.0
 51
90.0
  0
LINE
  5
68A0
330
6889
100
AcDbEntity
  8
AM_11 想像線
 48
0.2
100
AcDbLine
 10
13.80000000000001
 20
-9.5
 30
0.0
 11
13.80000000000001
 21
-8.0
 31
0.0
  0
LINE
  5
68A1
330
6889
100
AcDbEntity
  8
AM_11 想像線
 48
0.2
100
AcDbLine
 10
15.99999999999994
 20
-9.5
 30
0.0
 11
13.80000000000001
 21
-9.5
 31
0.0
  0
LINE
  5
68A2
330
6889
100
AcDbEntity
  8
AM_11 想像線
 48
0.2
100
AcDbLine
 10
15.99999999999994
 20
-9.5
 30
0.0
 11
15.99999999999994
 21
-10.5
 31
0.0
  0
LINE
  5
68A3
330
6889
100
AcDbEntity
  8
AM_11 想像線
 48
0.2
100
AcDbLine
 10
13.80000000000001
 20
-9.5
 30
0.0
 11
13.80000000000001
 21
-10.5
 31
0.0
  0
ENDBLK
  5
688B
330
6889
100
AcDbEntity
  8
0
100
AcDbBlockEnd
  0
ENDSEC
  0
SECTION
  2
ENTITIES
  0
LINE
  5
3302
330
1F
100
AcDbEntity
  8
AM_0 外形線1
  6
ByBlock
100
AcDbLine
 10
184.3960132922289
 20
211.7545931673623
 30
0.0
 11
184.3960132922289
 21
161.9545931673623
 31
0.0
  0
LINE
  5
3313
330
1F
100
AcDbEntity
  8
AM_0 外形線1
  6
ByBlock
100
AcDbLine
 10
195.3960132922289
 20
251.7545931673623
 30
0.0
 11
170.3960132922288
 21
251.7545931673623
 31
0.0
  0
LINE
  5
3314
330
1F
100
AcDbEntity
  8
AM_0 外形線1
  6
ByBlock
100
AcDbLine
 10
170.3960132922288
 20
258.7545931673623
 30
0.0
 11
195.3960132922289
 21
258.7545931673623
 31
0.0
  0
LINE
  5
331B
330
1F
100
AcDbEntity
  8
AM_7 中心線
100
AcDbLine
 10
238.3960132922288
 20
211.7545931673623
 30
0.0
 11
130.3960132922288
 21
211.7545931673623
 31
0.0
  0
LINE
  5
3327
330
1F
100
AcDbEntity
  8
AM_0 外形線1
  6
ByBlock
100
AcDbLine
 10
169.3960132922288
 20
249.5045931673623
 30
0.0
 11
169.3960132922288
 21
261.0045931673623
 31
0.0
  0
LINE
  5
3369
330
1F
100
AcDbEntity
  8
AM_0 外形線1
  6
ByBlock
100
AcDbLine
 10
196.3960132922288
 20
238.3473831673623
 30
0.0
 11
196.3960132922288
 21
238.0545931673623
 31
0.0
  0
LINE
  5
3374
330
1F
100
AcDbEntity
  8
AM_0 外形線1
  6
ByBlock
100
AcDbLine
 10
184.3960132922289
 20
258.7545931673623
 30
0.0
 11
184.3960132922289
 21
261.5545931673623
 31
0.0
  0
LINE
  5
3378
330
1F
100
AcDbEntity
  8
AM_0 外形線1
  6
ByBlock
100
AcDbLine
 10
199.3960132922288
 20
261.3545931673623
 30
0.0
 11
199.3960132922288
 21
249.1545931673623
 31
0.0
  0
INSERT
  5
44CF
102
{ACAD_REACTORS
330
4B81
330
4C84
330
4C9C
330
4D40
330
4E7E
330
4E96
102
}
330
1F
100
AcDbEntity
  8
AM_0 外形線1
100
AcDbBlockReference
  2
ケースＡ SEM100
 10
184.3960132922288
 20
211.7545931673623
 30
0.0
  0
INSERT
  5
45DB
102
{ACAD_REACTORS
330
48E9
330
4936
330
4A4C
330
4D28
330
4D40
330
4E66
330
4E7E
330
4EAE
102
}
330
1F
100
AcDbEntity
  8
AM_0 外形線1
100
AcDbBlockReference
  2
リジット SEM100
 10
184.3960132922289
 20
211.7545931673623
 30
0.0
  0
INSERT
  5
46D7
330
1F
100
AcDbEntity
  8
AM_0 外形線1
100
AcDbBlockReference
  2
リーマボルト SEM100 M6
 10
169.3960132922288
 20
255.2545931673623
 30
0.0
  0
DIMENSION
  5
48D2
102
{ACAD_XDICTIONARY
360
48DF
102
}
102
{ACAD_REACTORS
330
48E9
102
}
330
1F
100
AcDbEntity
  8
AM_5 寸法線
100
AcDbDimension
  2
*D10
 10
115.3960132922288
 20
184.2545931673623
 30
0.0
 11
112.1460132922287
 21
211.7545931673623
 31
0.0
 70
    32
  1
%%c<>
 71
     5
 42
55.0
 73
     0
 74
     0
 75
     0
  3
SEISA$0
100
AcDbAlignedDimension
 13
138.3960132922288
 23
239.2545931673623
 33
0.0
 14
138.3960132922288
 24
184.2545931673623
 34
0.0
 50
90.0
100
AcDbRotatedDimension
1001
ACAD_DSTYLE_DIMINSPECT
1070
   396
1000
100%
1070
   395
1000

1070
   394
1070
    33
1070
   393
1070
     0
  0
DIMENSION
  5
491F
102
{ACAD_XDICTIONARY
360
492C
102
}
102
{ACAD_REACTORS
330
4936
102
}
330
1F
100
AcDbEntity
  8
AM_5 寸法線
100
AcDbDimension
  2
*D11
 10
135.3960132922288
 20
216.5439669829983
 30
0.0
 11
157.8960132922288
 21
219.7939669829983
 31
0.0
 70
    32
 71
     5
 42
45.00000000000006
 73
     0
 74
     0
 75
     0
  3
SEISA$0
100
AcDbAlignedDimension
 13
180.3960132922289
 23
211.7545931673623
 33
0.0
 14
135.3960132922288
 24
211.7545931673623
 34
0.0
100
AcDbRotatedDimension
  0
INSERT
  5
4A00
102
{ACAD_REACTORS
330
4A64
330
4B81
330
4C4A
330
4E96
330
4EAE
330
6476
330
64D7
330
6501
102
}
330
1F
100
AcDbEntity
  8
AM_0 外形線1
100
AcDbBlockReference
  2
センタ SEM100
 10
188.3960132922289
 20
211.7545931673623
 30
0.0
  0
DIMENSION
  5
4A31
102
{ACAD_XDICTIONARY
360
4A40
102
}
102
{ACAD_REACTORS
330
4A4C
102
}
330
1F
100
AcDbEntity
  8
AM_5 寸法線
100
AcDbDimension
  2
*D13
 10
180.3960132922289
 20
216.5439669829983
 30
0.0
 11
184.3960132922289
 21
219.7939669829983
 31
0.0
 70
    32
 71
     5
 42
8.0
 73
     0
 74
     0
 75
     0
  3
SEISA$0
100
AcDbAlignedDimension
 13
188.3960132922289
 23
211.7545931673622
 33
0.0
 14
180.3960132922289
 24
211.7545931673623
 34
0.0
100
AcDbRotatedDimension
  0
DIMENSION
  5
4A4D
102
{ACAD_XDICTIONARY
360
4A5A
102
}
102
{ACAD_REACTORS
330
4A64
102
}
330
1F
100
AcDbEntity
  8
AM_5 寸法線
100
AcDbDimension
  2
*D14
 10
188.3960132922289
 20
216.5439669829983
 30
0.0
 11
210.8960132922288
 21
219.7939669829983
 31
0.0
 70
    32
 71
     5
 42
44.99999999999993
 73
     0
 74
     0
 75
     0
  3
SEISA$0
100
AcDbAlignedDimension
 13
233.3960132922288
 23
211.7545931673623
 33
0.0
 14
188.3960132922289
 24
211.7545931673623
 34
0.0
100
AcDbRotatedDimension
  0
DIMENSION
  5
4B66
102
{ACAD_XDICTIONARY
360
4B75
102
}
102
{ACAD_REACTORS
330
4B81
330
64D7
102
}
330
1F
100
AcDbEntity
  8
AM_5 寸法線
100
AcDbDimension
  2
*D15
 10
207.3960132922288
 20
228.8096238472922
 30
0.0
 11
216.9460132922289
 21
228.8096238472922
 31
0.0
 70
   160
 71
     5
 42
2.0
 73
     0
 74
     0
 75
     0
  3
SEISA$0
100
AcDbAlignedDimension
 13
209.3960132922288
 23
234.7545931673623
 33
0.0
 14
207.3960132922288
 24
235.2545931673623
 34
0.0
100
AcDbRotatedDimension
  0
DIMENSION
  5
4C33
102
{ACAD_XDICTIONARY
360
4C40
102
}
102
{ACAD_REACTORS
330
4C4A
102
}
330
1F
100
AcDbEntity
  8
AM_5 寸法線
100
AcDbDimension
  2
*D16
 10
253.3960132922288
 20
188.7545931673623
 30
0.0
 11
250.1460132922287
 21
211.7545931673623
 31
0.0
 70
    32
  1
%%c<>
 71
     5
 42
46.0
 73
     0
 74
     0
 75
     0
  3
SEISA$0
100
AcDbAlignedDimension
 13
230.3960132922288
 23
234.7545931673623
 33
0.0
 14
230.3960132922288
 24
188.7545931673623
 34
0.0
 50
90.0
100
AcDbRotatedDimension
1001
ACAD_DSTYLE_DIMINSPECT
1070
   396
1000
100%
1070
   395
1000

1070
   394
1070
    33
1070
   393
1070
     0
1001
ACAD
1000
DSTYLE
1002
{
1070
   279
1070
     0
1002
}
  0
DIMENSION
  5
4C6D
102
{ACAD_XDICTIONARY
360
4C7A
102
}
102
{ACAD_REACTORS
330
4C84
102
}
330
1F
100
AcDbEntity
  8
AM_5 寸法線
100
AcDbDimension
  2
*D17
 10
263.3960132922288
 20
178.2545931673623
 30
0.0
 11
263.3960132922287
 21
211.7545931673623
 31
0.0
 70
   160
  1
%%c<>
 71
     5
 42
67.0
 73
     0
 74
     0
 75
     0
  3
SEISA$0
100
AcDbAlignedDimension
 13
215.3960132922288
 23
245.2545931673623
 33
0.0
 14
215.3960132922288
 24
178.2545931673623
 34
0.0
 50
90.0
100
AcDbRotatedDimension
1001
ACAD_DSTYLE_DIMINSPECT
1070
   396
1000
100%
1070
   395
1000

1070
   394
1070
    33
1070
   393
1070
     0
1001
ACAD
1000
DSTYLE
1002
{
1070
   279
1070
     0
1002
}
  0
DIMENSION
  5
4C85
102
{ACAD_XDICTIONARY
360
4C92
102
}
102
{ACAD_REACTORS
330
4C9C
102
}
330
1F
100
AcDbEntity
  8
AM_5 寸法線
100
AcDbDimension
  2
*D18
 10
273.3960132922288
 20
161.7545931673623
 30
0.0
 11
273.3960132922288
 21
211.7545931673623
 31
0.0
 70
   160
  1
%%c<>
 71
     5
 42
99.99999999999994
 73
     0
 74
     0
 75
     0
  3
SEISA$0
100
AcDbAlignedDimension
 13
199.1960132922288
 23
261.7545931673622
 33
0.0
 14
199.1960132922288
 24
161.7545931673623
 34
0.0
 50
90.0
100
AcDbRotatedDimension
1001
ACAD_DSTYLE_DIMINSPECT
1070
   396
1000
100%
1070
   395
1000

1070
   394
1070
    33
1070
   393
1070
     0
1001
ACAD
1000
DSTYLE
1002
{
1070
   279
1070
     0
1002
}
  0
DIMENSION
  5
4D11
102
{ACAD_XDICTIONARY
360
4D1E
102
}
102
{ACAD_REACTORS
330
4D28
102
}
330
1F
100
AcDbEntity
  8
AM_5 寸法線
100
AcDbDimension
  2
*D19
 10
169.3960132922288
 20
146.7545931673623
 30
0.0
 11
176.8960132922288
 21
150.0045931673623
 31
0.0
 70
    32
 71
     5
 42
15.00000000000006
 73
     0
 74
     0
 75
     0
  3
SEISA$0
100
AcDbAlignedDimension
 13
184.3960132922289
 23
161.9545931673623
 33
0.0
 14
169.3960132922288
 24
161.9545931673623
 34
0.0
100
AcDbRotatedDimension
1001
ACAD
1000
DSTYLE
1002
{
1070
   279
1070
     0
1002
}
  0
DIMENSION
  5
4D29
102
{ACAD_XDICTIONARY
360
4D36
102
}
102
{ACAD_REACTORS
330
4D40
102
}
330
1F
100
AcDbEntity
  8
AM_5 寸法線
100
AcDbDimension
  2
*D20
 10
199.3960132922288
 20
146.7545931673623
 30
0.0
 11
191.8960132922288
 21
150.0045931673623
 31
0.0
 70
    32
 71
     5
 42
15.0
 73
     0
 74
     0
 75
     0
  3
SEISA$0
100
AcDbAlignedDimension
 13
184.3960132922289
 23
161.9545931673623
 33
0.0
 14
199.3960132922288
 24
161.9545931673623
 34
0.0
100
AcDbRotatedDimension
  0
DIMENSION
  5
4E4F
102
{ACAD_XDICTIONARY
360
4E5C
102
}
102
{ACAD_REACTORS
330
4E66
102
}
330
1F
100
AcDbEntity
  8
AM_5 寸法線
100
AcDbDimension
  2
*D21
 10
135.3960132922288
 20
136.7545931673623
 30
0.0
 11
159.8960132922288
 21
136.7545931673623
 31
0.0
 70
   160
 71
     5
 42
49.00000000000005
 73
     0
 74
     0
 75
     0
  3
SEISA$0
100
AcDbAlignedDimension
 13
184.3960132922289
 23
161.9545931673623
 33
0.0
 14
135.3960132922288
 24
187.2545931673623
 34
0.0
100
AcDbRotatedDimension
1001
ACAD
1000
DSTYLE
1002
{
1070
   279
1070
     0
1002
}
  0
DIMENSION
  5
4E67
102
{ACAD_XDICTIONARY
360
4E74
102
}
102
{ACAD_REACTORS
330
4E7E
102
}
330
1F
100
AcDbEntity
  8
AM_5 寸法線
100
AcDbDimension
  2
*D22
 10
218.3960132922288
 20
136.7545931673623
 30
0.0
 11
201.3960132922288
 21
136.7545931673623
 31
0.0
 70
   160
 71
     5
 42
33.99999999999991
 73
     0
 74
     0
 75
     0
  3
SEISA$0
100
AcDbAlignedDimension
 13
184.3960132922289
 23
161.9545931673623
 33
0.0
 14
218.3960132922288
 24
181.2545931673623
 34
0.0
100
AcDbRotatedDimension
1001
ACAD
1000
DSTYLE
1002
{
1070
   279
1070
     0
1002
}
  0
DIMENSION
  5
4E7F
102
{ACAD_XDICTIONARY
360
4E8C
102
}
102
{ACAD_REACTORS
330
4E96
102
}
330
1F
100
AcDbEntity
  8
AM_5 寸法線
100
AcDbDimension
  2
*D23
 10
233.3960132922288
 20
136.7545931673623
 30
0.0
 11
225.1475835828821
 21
140.0503570685948
 31
0.0
 70
   160
 71
     5
 42
14.99999999999997
 73
     0
 74
     0
 75
     0
  3
SEISA$0
100
AcDbAlignedDimension
 13
218.3960132922289
 23
181.2545931673623
 33
0.0
 14
233.3960132922288
 24
191.7545931673623
 34
0.0
100
AcDbRotatedDimension
1001
ACAD
1000
DSTYLE
1002
{
1070
   279
1070
     2
1002
}
  0
DIMENSION
  5
4E97
102
{ACAD_XDICTIONARY
360
4EA4
102
}
102
{ACAD_REACTORS
330
4EAE
102
}
330
1F
100
AcDbEntity
  8
AM_5 寸法線
100
AcDbDimension
  2
*D24
 10
233.3960132922288
 20
126.7545931673623
 30
0.0
 11
184.3960132922288
 21
126.7545931673623
 31
0.0
 70
   160
 71
     5
 42
98.0
 73
     0
 74
     0
 75
     0
  3
SEISA$0
100
AcDbAlignedDimension
 13
135.3960132922288
 23
187.2545931673623
 33
0.0
 14
233.3960132922288
 24
191.7545931673623
 34
0.0
100
AcDbRotatedDimension
1001
ACAD
1000
DSTYLE
1002
{
1070
   279
1070
     0
1002
}
  0
MTEXT
  5
6417
330
1F
100
AcDbEntity
  8
AM_6 文字
100
AcDbMText
 10
243.1881279349366
 20
153.6483214062996
 30
0.0
 40
3.5
 41
85.28344840715766
 46
15.84558748075602
 71
     1
 72
     5
  1
{\W0.6;TYPE:SEM100/SEMH100\PSHAFT DIA:MAX/MIN \P RIGID SIDE φ40/φ17\P COUPLING CENTER SIDE φ32/φ17}
  7
SEISA
 73
     1
 44
1.0
  0
DIMENSION
  5
6468
102
{ACAD_XDICTIONARY
360
6475
102
}
102
{ACAD_REACTORS
330
6476
102
}
330
1F
100
AcDbEntity
  8
AM_5 寸法線
100
AcDbDimension
  2
*D25
 10
243.3960132922288
 20
268.4940339349472
 30
0.0
 11
238.3960132922288
 21
271.7440339349472
 31
0.0
 70
    32
 71
     5
 42
10.0
 73
     0
 74
     0
 75
     0
  3
SEISA$0
100
AcDbAlignedDimension
 13
233.3960132922288
 23
231.7545931673623
 33
0.0
 14
243.3960132922288
 24
242.2545931673623
 34
0.0
100
AcDbRotatedDimension
1001
ACAD_DSTYLE_DIMINSPECT
1070
   396
1000
100%
1070
   395
1000

1070
   394
1070
    33
1070
   393
1070
     0
  0
DIMENSION
  5
64C9
102
{ACAD_XDICTIONARY
360
64D6
102
}
102
{ACAD_REACTORS
330
64D7
330
6501
102
}
330
1F
100
AcDbEntity
  8
AM_5 寸法線
100
AcDbDimension
  2
*D26
 10
198.3960132922288
 20
228.8096238472924
 30
0.0
 11
202.8960132922289
 21
232.0596238472925
 31
0.0
 70
    32
 71
     5
 42
8.999999999999969
 73
     0
 74
     0
 75
     0
  3
SEISA$0
100
AcDbAlignedDimension
 13
207.3960132922288
 23
235.2545931673623
 33
0.0
 14
198.3960132922288
 24
234.7545931673622
 34
0.0
 50
0.0000000000001132
100
AcDbRotatedDimension
1001
ACAD_DSTYLE_DIMINSPECT
1070
   396
1000
100%
1070
   395
1000

1070
   394
1070
    33
1070
   393
1070
     0
  0
DIMENSION
  5
64F3
102
{ACAD_XDICTIONARY
360
6500
102
}
102
{ACAD_REACTORS
330
6501
102
}
330
1F
100
AcDbEntity
  8
AM_5 寸法線
100
AcDbDimension
  2
*D27
 10
188.3960132922289
 20
228.8096238472924
 30
0.0
 11
193.3960132922289
 21
232.0596238472924
 31
0.0
 70
    32
 71
     5
 42
10.0
 73
     0
 74
     0
 75
     0
  3
SEISA$0
100
AcDbAlignedDimension
 13
198.3960132922288
 23
234.7545931673622
 33
0.0
 14
188.3960132922289
 24
233.7545931673623
 34
0.0
 50
0.0000000000001132
100
AcDbRotatedDimension
1001
ACAD_DSTYLE_DIMINSPECT
1070
   396
1000
100%
1070
   395
1000

1070
   394
1070
    33
1070
   393
1070
     0
  0
INSERT
  5
68A4
330
1F
100
AcDbEntity
  8
AM_11 想像線
100
AcDbBlockReference
  2
ケース
 10
227.3960132922289
 20
245.2545931673623
 30
0.0
  0
ENDSEC
  0
SECTION
  2
OBJECTS
  0
DICTIONARY
  5
C
330
0
100
AcDbDictionary
281
     1
  3
ACAD_COLOR
350
C5
  3
ACAD_GROUP
350
D
  3
ACAD_LAYOUT
350
1A
  3
ACAD_MATERIAL
350
C4
  3
ACAD_MLEADERSTYLE
350
2D5
  3
ACAD_MLINESTYLE
350
17
  3
ACAD_PLOTSETTINGS
350
19
  3
ACAD_PLOTSTYLENAME
350
E
  3
ACAD_SCALELIST
350
2B3
  3
ACAD_TABLESTYLE
350
121
  3
ACAD_VISUALSTYLE
350
27F
  3
ACDB_RECOMPOSE_DATA
350
2F7
  3
AcDbVariableDictionary
350
34
  3
AcmDictionary
350
49
  3
AMG
350
2B
  3
AMGSNAPSETTINGS
350
1DE
  0
DICTIONARY
  5
BF
330
2
100
AcDbDictionary
280
     1
281
     1
  3
ACAD_LAYERSTATES
360
4D4D
  3
AMLAYER_GROUPCOLORS
360
C0
  0
DICTIONARY
  5
29F7
330
10
100
AcDbDictionary
280
     1
281
     1
  3
ADSK_XREC_LAYER_RECONCILED
360
29F8
  0
DICTIONARY
  5
29F9
330
81
100
AcDbDictionary
280
     1
281
     1
  3
ADSK_XREC_LAYER_RECONCILED
360
29FA
  0
DICTIONARY
  5
82
330
1F
100
AcDbDictionary
280
     1
281
     1
  3
ACAD_SORTENTS
360
A41
  0
DICTIONARY
  5
5942
330
43F7
100
AcDbDictionary
280
     1
281
     1
  3
ACAD_SORTENTS
360
5943
  0
DICTIONARY
  5
4571
330
4490
100
AcDbDictionary
280
     1
281
     1
  3
ACAD_SORTENTS
360
59C6
  0
DICTIONARY
  5
461D
330
45BB
100
AcDbDictionary
280
     1
281
     1
  3
ACAD_SORTENTS
360
67AF
  0
DICTIONARY
  5
473C
330
46A8
100
AcDbDictionary
280
     1
281
     1
  3
ACAD_SORTENTS
360
60E9
  0
DICTIONARY
  5
4AA6
330
49E7
100
AcDbDictionary
280
     1
281
     1
  3
ACAD_SORTENTS
360
6771
  0
DICTIONARY
  5
48DF
330
48D2
100
AcDbDictionary
280
     1
281
     1
  3
ACAD_DIMASSOC
360
48E9
  0
DICTIONARY
  5
492C
330
491F
100
AcDbDictionary
280
     1
281
     1
  3
ACAD_DIMASSOC
360
4936
  0
DICTIONARY
  5
4A40
330
4A31
100
AcDbDictionary
280
     1
281
     1
  3
ACAD_DIMASSOC
360
4A4C
  0
DICTIONARY
  5
4A5A
330
4A4D
100
AcDbDictionary
280
     1
281
     1
  3
ACAD_DIMASSOC
360
4A64
  0
DICTIONARY
  5
4B75
330
4B66
100
AcDbDictionary
280
     1
281
     1
  3
ACAD_DIMASSOC
360
4B81
  0
DICTIONARY
  5
4C40
330
4C33
100
AcDbDictionary
280
     1
281
     1
  3
ACAD_DIMASSOC
360
4C4A
  0
DICTIONARY
  5
4C7A
330
4C6D
100
AcDbDictionary
280
     1
281
     1
  3
ACAD_DIMASSOC
360
4C84
  0
DICTIONARY
  5
4C92
330
4C85
100
AcDbDictionary
280
     1
281
     1
  3
ACAD_DIMASSOC
360
4C9C
  0
DICTIONARY
  5
4D1E
330
4D11
100
AcDbDictionary
280
     1
281
     1
  3
ACAD_DIMASSOC
360
4D28
  0
DICTIONARY
  5
4D36
330
4D29
100
AcDbDictionary
280
     1
281
     1
  3
ACAD_DIMASSOC
360
4D40
  0
DICTIONARY
  5
4E5C
330
4E4F
100
AcDbDictionary
280
     1
281
     1
  3
ACAD_DIMASSOC
360
4E66
  0
DICTIONARY
  5
4E74
330
4E67
100
AcDbDictionary
280
     1
281
     1
  3
ACAD_DIMASSOC
360
4E7E
  0
DICTIONARY
  5
4E8C
330
4E7F
100
AcDbDictionary
280
     1
281
     1
  3
ACAD_DIMASSOC
360
4E96
  0
DICTIONARY
  5
4EA4
330
4E97
100
AcDbDictionary
280
     1
281
     1
  3
ACAD_DIMASSOC
360
4EAE
  0
DICTIONARY
  5
6475
330
6468
100
AcDbDictionary
280
     1
281
     1
  3
ACAD_DIMASSOC
360
6476
  0
DICTIONARY
  5
64D6
330
64C9
100
AcDbDictionary
280
     1
281
     1
  3
ACAD_DIMASSOC
360
64D7
  0
DICTIONARY
  5
6500
330
64F3
100
AcDbDictionary
280
     1
281
     1
  3
ACAD_DIMASSOC
360
6501
  0
DICTIONARY
  5
C5
102
{ACAD_REACTORS
330
C
102
}
330
C
100
AcDbDictionary
281
     1
  0
DICTIONARY
  5
D
102
{ACAD_REACTORS
330
C
102
}
330
C
100
AcDbDictionary
281
     1
  0
DICTIONARY
  5
1A
102
{ACAD_REACTORS
330
C
102
}
330
C
100
AcDbDictionary
281
     1
  3
Model
350
22
  3
レイアウト1
350
1E
  3
レイアウト2
350
26
  0
DICTIONARY
  5
C4
102
{ACAD_REACTORS
330
C
102
}
330
C
100
AcDbDictionary
281
     1
  3
ByBlock
350
27D
  3
ByLayer
350
27C
  3
Global
350
27E
  0
DICTIONARY
  5
2D5
102
{ACAD_REACTORS
330
C
102
}
330
C
100
AcDbDictionary
281
     1
  3
Standard
350
2D6
  0
DICTIONARY
  5
17
102
{ACAD_REACTORS
330
C
102
}
330
C
100
AcDbDictionary
281
     1
  3
Standard
350
18
  0
DICTIONARY
  5
19
102
{ACAD_REACTORS
330
C
102
}
330
C
100
AcDbDictionary
281
     1
  3
SEISA基本
350
1C7E
  0
ACDBDICTIONARYWDFLT
  5
E
102
{ACAD_REACTORS
330
C
102
}
330
C
100
AcDbDictionary
281
     1
  3
Normal
350
F
100
AcDbDictionaryWithDefault
340
F
  0
DICTIONARY
  5
2B3
102
{ACAD_REACTORS
330
C
102
}
330
C
100
AcDbDictionary
281
     1
  3
*A1
350
5ACF
  3
A0
350
2B4
  3
A1
350
2B5
  3
A2
350
2B6
  3
A3
350
2B7
  3
A4
350
2B8
  3
A5
350
2B9
  3
A6
350
2BA
  3
A7
350
2BB
  3
A8
350
2BC
  3
A9
350
2BD
  3
B0
350
2BE
  3
B1
350
2BF
  3
B2
350
2C0
  3
B3
350
2C1
  3
B4
350
2C2
  3
B5
350
2C3
  3
B6
350
2C4
  3
B7
350
2C5
  3
B8
350
2C6
  3
B9
350
2C7
  3
C0
350
2C8
  3
C1
350
2C9
  3
C2
350
2CA
  3
C3
350
2CB
  3
C4
350
2CC
  3
C5
350
2CD
  3
C6
350
2CE
  3
C7
350
2CF
  3
C8
350
2D0
  3
C9
350
2D1
  3
D0
350
2D2
  3
D1
350
2D3
  3
D2
350
2D4
  0
DICTIONARY
  5
121
102
{ACAD_REACTORS
330
C
102
}
330
C
100
AcDbDictionary
281
     1
  3
Standard
350
122
  0
DICTIONARY
  5
27F
102
{ACAD_REACTORS
330
C
102
}
330
C
100
AcDbDictionary
281
     1
  3
2dWireframe
350
285
  3
3D Hidden
350
287
  3
3dWireframe
350
286
  3
Basic
350
284
  3
Brighten
350
28B
  3
ColorChange
350
28F
  3
Conceptual
350
288
  3
Dim
350
28A
  3
Facepattern
350
28E
  3
Flat
350
280
  3
FlatWithEdges
350
281
  3
Gouraud
350
282
  3
GouraudWithEdges
350
283
  3
Linepattern
350
28D
  3
Realistic
350
289
  3
Thicken
350
28C
  0
XRECORD
  5
2F7
102
{ACAD_REACTORS
330
C
102
}
330
C
100
AcDbXrecord
280
     1
 90
        1
330
122
  0
DICTIONARY
  5
34
102
{ACAD_REACTORS
330
C
102
}
330
C
100
AcDbDictionary
281
     1
  3
CANNOSCALE
350
2FA
  3
CMLEADERSTYLE
350
2F8
  3
CTABLESTYLE
350
140
  3
DIMASSOC
350
AC
  3
INDEXCTL
350
35
  3
LAYEREVAL
350
5B3C
  3
LAYERNOTIFY
350
5B3D
  3
LIGHTINGUNITS
350
2FB
  3
MSLTSCALE
350
2F9
  0
DICTIONARY
  5
49
102
{ACAD_REACTORS
330
C
102
}
330
C
100
AcDbDictionary
281
     1
  3
AcmBOM
350
161B
  3
AcmStdDictionary
350
4A
  3
AMDTSECTSYM_ARROWCOLOR
350
12B
  0
DICTIONARY
  5
2B
102
{ACAD_REACTORS
330
C
102
}
330
C
100
AcDbDictionary
281
     1
  0
DICTIONARY
  5
1DE
102
{ACAD_REACTORS
330
C
102
}
330
C
100
AcDbDictionary
281
     1
  0
DICTIONARY
  5
4D4D
102
{ACAD_REACTORS
330
BF
102
}
330
BF
100
AcDbDictionary
281
     1
  0
DICTIONARY
  5
C0
102
{ACAD_REACTORS
330
BF
102
}
330
BF
100
AcDbDictionary
280
     1
281
     1
  0
XRECORD
  5
29F8
102
{ACAD_REACTORS
330
29F7
102
}
330
29F7
100
AcDbXrecord
280
     1
290
     1
  0
XRECORD
  5
29FA
102
{ACAD_REACTORS
330
29F9
102
}
330
29F9
100
AcDbXrecord
280
     1
290
     1
  0
SORTENTSTABLE
  5
A41
102
{ACAD_REACTORS
330
82
102
}
330
82
100
AcDbSortentsTable
330
1F
331
4C85
  5
4D11
331
4D29
  5
4D52
331
3327
  5
3348
331
6417
  5
6417
331
3302
  5
3302
331
4A31
  5
4AB8
331
4A00
  5
4A4D
331
44CF
  5
46D7
331
491F
  5
4A31
331
4C6D
  5
4C85
331
4D11
  5
4D29
331
45DB
  5
479A
331
4E7F
  5
4E97
331
3369
  5
3374
331
331B
  5
331B
331
4E4F
  5
4E67
331
4E97
  5
4F30
331
4E67
  5
4E7F
331
4C33
  5
4C6D
331
3314
  5
3314
331
48D2
  5
491F
331
46D7
  5
479C
331
3313
  5
3313
331
4A4D
  5
4B66
331
3378
  5
33B0
331
4B66
  5
4BCD
331
3374
  5
3378
  0
SORTENTSTABLE
  5
5943
102
{ACAD_REACTORS
330
5942
102
}
330
5942
100
AcDbSortentsTable
330
43F7
  0
SORTENTSTABLE
  5
59C6
102
{ACAD_REACTORS
330
4571
102
}
330
4571
100
AcDbSortentsTable
330
4490
331
44CD
  5
44CE
331
44C3
  5
44C4
331
44CB
  5
44CC
331
44C9
  5
44CA
331
4570
  5
44C3
331
44C6
  5
44C7
331
44C4
  5
44C5
331
44CE
  5
4570
331
44CC
  5
44CD
331
44CA
  5
44CB
331
44C8
  5
44C9
331
44C7
  5
44C8
331
44C5
  5
44C6
  0
SORTENTSTABLE
  5
67AF
102
{ACAD_REACTORS
330
461D
102
}
330
461D
100
AcDbSortentsTable
330
45BB
  0
SORTENTSTABLE
  5
60E9
102
{ACAD_REACTORS
330
473C
102
}
330
473C
100
AcDbSortentsTable
330
46A8
  0
SORTENTSTABLE
  5
6771
102
{ACAD_REACTORS
330
4AA6
102
}
330
4AA6
100
AcDbSortentsTable
330
49E7
331
49EF
  5
49F2
331
49ED
  5
49F1
331
49EC
  5
49EF
331
49EB
  5
49ED
331
49FD
  5
64C7
331
64C7
  5
49EB
331
49EA
  5
49EC
331
49FB
  5
64B2
331
49FA
  5
49FD
331
49F9
  5
49FB
331
49F8
  5
49FA
331
49F7
  5
49F9
331
49F6
  5
49F8
331
49F5
  5
49F7
331
49F4
  5
49F6
331
49F3
  5
49F5
331
49F2
  5
49F4
331
49F1
  5
49F3
331
64B2
  5
49EA
  0
DIMASSOC
  5
48E9
102
{ACAD_REACTORS
330
48DF
102
}
330
48DF
100
AcDbDimAssoc
330
48D2
 90
        3
 70
     0
 71
     0
  1
AcDbOsnapPointRef
 72
    13
331
45DB
331
45CC
 73
     2
 91
        0
 40
1.570796326794896
 10
0.0
 20
0.0
 30
2.000000000000000E+50
 75
     0
  1
AcDbOsnapPointRef
 72
     1
331
45DB
331
45C9
 73
     2
 91
        0
 40
4.712388980384688
 10
0.0
 20
0.0
 30
2.000000000000000E+50
 75
     0
  0
DIMASSOC
  5
4936
102
{ACAD_REACTORS
330
492C
102
}
330
492C
100
AcDbDimAssoc
330
491F
 90
        3
 70
     0
 71
     0
  1
AcDbOsnapPointRef
 72
    13
331
45DB
331
45D1
 73
     2
 91
        0
 40
0.0
 10
0.0
 20
0.0
 30
2.000000000000000E+50
 75
     0
  1
AcDbOsnapPointRef
 72
     1
331
45DB
331
45C8
 73
     2
 91
        0
 40
1.0
 10
0.0
 20
0.0
 30
2.000000000000000E+50
 75
     0
  0
DIMASSOC
  5
4A4C
102
{ACAD_REACTORS
330
4A40
102
}
330
4A40
100
AcDbDimAssoc
330
4A31
 90
        2
 70
     0
 71
     0
  1
AcDbOsnapPointRef
 72
    13
331
45DB
331
45D1
 73
     2
 91
        0
 40
0.0
 10
0.0
 20
0.0
 30
2.000000000000000E+50
 75
     0
  0
DIMASSOC
  5
4A64
102
{ACAD_REACTORS
330
4A5A
102
}
330
4A5A
100
AcDbDimAssoc
330
4A4D
 90
        1
 70
     0
 71
     0
  1
AcDbOsnapPointRef
 72
     2
331
4A00
331
49EB
 73
     2
 91
        0
 40
0.5
 10
0.0
 20
0.0
 30
0.0
 75
     0
  0
DIMASSOC
  5
4B81
102
{ACAD_REACTORS
330
4B75
102
}
330
4B75
100
AcDbDimAssoc
330
4B66
 90
        3
 70
     0
 71
     0
  1
AcDbOsnapPointRef
 72
     1
331
44CF
331
44C0
 73
     2
 91
        0
 40
1.0
 10
0.0
 20
0.0
 30
2.000000000000000E+50
 75
     0
  1
AcDbOsnapPointRef
 72
    13
331
4A00
331
49F9
 73
     2
 91
        0
 40
3.141592653589792
 10
0.0
 20
0.0
 30
2.000000000000000E+50
 75
     0
  0
DIMASSOC
  5
4C4A
102
{ACAD_REACTORS
330
4C40
102
}
330
4C40
100
AcDbDimAssoc
330
4C33
 90
        3
 70
     0
 71
     0
  1
AcDbOsnapPointRef
 72
    13
331
4A00
331
49F7
 73
     2
 91
        0
 40
0.0
 10
0.0
 20
0.0
 30
2.000000000000000E+50
 75
     0
  1
AcDbOsnapPointRef
 72
     1
331
4A00
331
49EC
 73
     2
 91
        0
 40
1.0
 10
0.0
 20
0.0
 30
2.000000000000000E+50
 75
     0
  0
DIMASSOC
  5
4C84
102
{ACAD_REACTORS
330
4C7A
102
}
330
4C7A
100
AcDbDimAssoc
330
4C6D
 90
        3
 70
     0
 71
     0
  1
AcDbOsnapPointRef
 72
     1
331
44CF
331
449F
 73
     2
 91
        0
 40
1.0
 10
0.0
 20
0.0
 30
2.000000000000000E+50
 75
     0
  1
AcDbOsnapPointRef
 72
     1
331
44CF
331
449A
 73
     2
 91
        0
 40
1.0
 10
0.0
 20
0.0
 30
2.000000000000000E+50
 75
     0
  0
DIMASSOC
  5
4C9C
102
{ACAD_REACTORS
330
4C92
102
}
330
4C92
100
AcDbDimAssoc
330
4C85
 90
        3
 70
     0
 71
     0
  1
AcDbOsnapPointRef
 72
     1
331
44CF
331
44B0
 73
     2
 91
        0
 40
0.9999999999999998
 10
0.0
 20
0.0
 30
2.000000000000000E+50
 75
     0
  1
AcDbOsnapPointRef
 72
     1
331
44CF
331
4496
 73
     2
 91
        0
 40
0.9999999999999998
 10
0.0
 20
0.0
 30
2.000000000000000E+50
 75
     0
  0
DIMASSOC
  5
4D28
102
{ACAD_REACTORS
330
4D1E
102
}
330
4D1E
100
AcDbDimAssoc
330
4D11
 90
        3
 70
     0
 71
     0
  1
AcDbOsnapPointRef
 72
    13
331
45DB
331
45C2
 73
     2
 91
        0
 40
0.0
 10
0.0
 20
0.0
 30
2.000000000000000E+50
 75
     0
  1
AcDbOsnapPointRef
 72
    13
331
45DB
331
45BE
 73
     2
 91
        0
 40
0.0
 10
0.0
 20
0.0
 30
2.000000000000000E+50
 75
     0
  0
DIMASSOC
  5
4D40
102
{ACAD_REACTORS
330
4D36
102
}
330
4D36
100
AcDbDimAssoc
330
4D29
 90
        3
 70
     0
 71
     0
  1
AcDbOsnapPointRef
 72
    13
331
45DB
331
45C2
 73
     2
 91
        0
 40
0.0
 10
0.0
 20
0.0
 30
2.000000000000000E+50
 75
     0
  1
AcDbOsnapPointRef
 72
    13
331
44CF
331
4494
 73
     2
 91
        0
 40
0.0
 10
0.0
 20
0.0
 30
2.000000000000000E+50
 75
     0
  0
DIMASSOC
  5
4E66
102
{ACAD_REACTORS
330
4E5C
102
}
330
4E5C
100
AcDbDimAssoc
330
4E4F
 90
        3
 70
     0
 71
     0
  1
AcDbOsnapPointRef
 72
    13
331
45DB
331
45C2
 73
     2
 91
        0
 40
0.0
 10
0.0
 20
0.0
 30
2.000000000000000E+50
 75
     0
  1
AcDbOsnapPointRef
 72
    13
331
45DB
331
45C9
 73
     2
 91
        0
 40
3.141592653589792
 10
0.0
 20
0.0
 30
2.000000000000000E+50
 75
     0
  0
DIMASSOC
  5
4E7E
102
{ACAD_REACTORS
330
4E74
102
}
330
4E74
100
AcDbDimAssoc
330
4E67
 90
        3
 70
     0
 71
     0
  1
AcDbOsnapPointRef
 72
    13
331
45DB
331
45C2
 73
     2
 91
        0
 40
0.0
 10
0.0
 20
0.0
 30
2.000000000000000E+50
 75
     0
  1
AcDbOsnapPointRef
 72
     6
331
44CF
331
449C
 73
     2
 91
        0
 40
0.0
 10
0.0
 20
0.0
 30
0.0
332
44CF
332
449D
 74
     2
 92
        0
 75
     0
  0
DIMASSOC
  5
4E96
102
{ACAD_REACTORS
330
4E8C
102
}
330
4E8C
100
AcDbDimAssoc
330
4E7F
 90
        3
 70
     0
 71
     0
  1
AcDbOsnapPointRef
 72
     1
331
44CF
331
449D
 73
     2
 91
        0
 40
6.283185307179585
 10
0.0
 20
0.0
 30
2.000000000000000E+50
 75
     0
  1
AcDbOsnapPointRef
 72
    13
331
4A00
331
49EB
 73
     2
 91
        0
 40
0.0
 10
0.0
 20
0.0
 30
2.000000000000000E+50
 75
     0
  0
DIMASSOC
  5
4EAE
102
{ACAD_REACTORS
330
4EA4
102
}
330
4EA4
100
AcDbDimAssoc
330
4E97
 90
        3
 70
     0
 71
     0
  1
AcDbOsnapPointRef
 72
    13
331
45DB
331
45C9
 73
     2
 91
        0
 40
3.141592653589792
 10
0.0
 20
0.0
 30
2.000000000000000E+50
 75
     0
  1
AcDbOsnapPointRef
 72
    13
331
4A00
331
49EB
 73
     2
 91
        0
 40
0.0
 10
0.0
 20
0.0
 30
2.000000000000000E+50
 75
     0
  0
DIMASSOC
  5
6476
102
{ACAD_REACTORS
330
6475
102
}
330
6475
100
AcDbDimAssoc
330
6468
 90
        1
 70
     0
 71
     0
  1
AcDbOsnapPointRef
 72
     1
331
4A00
331
49EB
 73
     0
 91
        0
 40
0.0
 10
0.0
 20
0.0
 30
2.000000000000000E+50
 75
     0
  0
DIMASSOC
  5
64D7
102
{ACAD_REACTORS
330
64D6
102
}
330
64D6
100
AcDbDimAssoc
330
64C9
 90
        3
 70
     0
 71
     0
  1
AcDbOsnapPointRef
 72
     4
331
4B66
331
55EE
 73
     0
 91
        0
 40
0.0
 10
0.0
 20
0.0
 30
0.0
 75
     0
  1
AcDbOsnapPointRef
 72
     1
331
4A00
331
49F5
 73
     0
 91
        0
 40
0.0
 10
0.0
 20
0.0
 30
2.000000000000000E+50
 75
     0
  0
DIMASSOC
  5
6501
102
{ACAD_REACTORS
330
6500
102
}
330
6500
100
AcDbDimAssoc
330
64F3
 90
        3
 70
     0
 71
     0
  1
AcDbOsnapPointRef
 72
     4
331
64C9
331
64F1
 73
     0
 91
        0
 40
0.0
 10
0.0
 20
0.0
 30
0.0
 75
     0
  1
AcDbOsnapPointRef
 72
    13
331
4A00
331
49EA
 73
     0
 91
        0
 40
0.0
 10
0.0
 20
0.0
 30
2.000000000000000E+50
 75
     0
  0
LAYOUT
  5
22
102
{ACAD_REACTORS
330
1A
102
}
330
1A
100
AcDbPlotSettings
  1

  2
KONICA MINOLTA 501 PCL
  4
A4
  6

 40
5.027082920074462
 41
5.027085781097412
 42
5.027069091796875
 43
5.027069091796875
 44
209.9733276367186
 45
296.9259948730469
 46
0.0000000000000142
 47
3.404081058265687
 48
0.0
 49
0.0
140
0.0
141
0.0
142
1.0
143
0.7375184291508984
 70
 11956
 72
     1
 73
     1
 74
     1
  7
SEISA.ctb
 75
     0
147
1.355898321281672
 76
     0
 77
     2
 78
   300
148
-110.376893387662
149
-126.0672924674163
100
AcDbLayout
  1
Model
 70
     1
 71
     0
 10
0.0
 20
0.0
 11
12.0
 21
9.0
 12
0.0
 22
0.0
 32
0.0
 14
0.0
 24
0.0
 34
0.0
 15
0.0
 25
0.0
 35
0.0
146
0.0
 13
0.0
 23
0.0
 33
0.0
 16
1.0
 26
0.0
 36
0.0
 17
0.0
 27
1.0
 37
0.0
 76
     0
330
1F
331
27A
1001
ACAD_PSEXT
1000
KONICA MINOLTA 501 PCL
1000
KONICA MINOLTA 501/421/361PCL
1000
IP_192.168.20.231_(1)
1000

1070
     0
  0
LAYOUT
  5
1E
102
{ACAD_REACTORS
330
1A
102
}
330
1A
100
AcDbPlotSettings
  1

  2
none_device
  4
Letter_(8.50_x_11.00_Inches)
  6

 40
6.349999904632567
 41
6.349999904632567
 42
6.350006103515625
 43
6.350006103515625
 44
215.8999938964844
 45
279.3999938964844
 46
0.0
 47
0.0
 48
0.0
 49
0.0
140
0.0
141
0.0
142
1.0
143
1.0
 70
 15024
 72
     1
 73
     1
 74
     5
  7
SEISA.ctb
 75
    16
147
1.0
 76
     0
 77
     2
 78
   300
148
0.0
149
0.0
100
AcDbLayout
  1
レイアウト1
 70
     1
 71
     1
 10
0.0
 20
0.0
 11
420.0
 21
297.0
 12
0.0
 22
0.0
 32
0.0
 14
1.000000000000000E+20
 24
1.000000000000000E+20
 34
1.000000000000000E+20
 15
-1.000000000000000E+20
 25
-1.000000000000000E+20
 35
-1.000000000000000E+20
146
0.0
 13
0.0
 23
0.0
 33
0.0
 16
1.0
 26
0.0
 36
0.0
 17
0.0
 27
1.0
 37
0.0
 76
     0
330
1B
  0
LAYOUT
  5
26
102
{ACAD_REACTORS
330
1A
102
}
330
1A
100
AcDbPlotSettings
  1

  2
none_device
  4
Letter_(8.50_x_11.00_Inches)
  6

 40
6.349999904632567
 41
6.349999904632567
 42
6.350006103515625
 43
6.350006103515625
 44
215.8999938964844
 45
279.3999938964844
 46
0.0
 47
0.0
 48
0.0
 49
0.0
140
0.0
141
0.0
142
1.0
143
1.0
 70
 15024
 72
     1
 73
     1
 74
     5
  7
SEISA.ctb
 75
    16
147
1.0
 76
     0
 77
     2
 78
   300
148
0.0
149
0.0
100
AcDbLayout
  1
レイアウト2
 70
     1
 71
     2
 10
0.0
 20
0.0
 11
12.0
 21
9.0
 12
0.0
 22
0.0
 32
0.0
 14
0.0
 24
0.0
 34
0.0
 15
0.0
 25
0.0
 35
0.0
146
0.0
 13
0.0
 23
0.0
 33
0.0
 16
1.0
 26
0.0
 36
0.0
 17
0.0
 27
1.0
 37
0.0
 76
     0
330
23
  0
MATERIAL
  5
27D
102
{ACAD_REACTORS
330
C4
102
}
330
C4
100
AcDbMaterial
  1
ByBlock
 73
     1
 78
     1
172
     1
176
     1
270
     1
274
     1
 94
       63
  0
MATERIAL
  5
27C
102
{ACAD_REACTORS
330
C4
102
}
330
C4
100
AcDbMaterial
  1
ByLayer
 73
     1
 78
     1
172
     1
176
     1
270
     1
274
     1
 94
       63
  0
MATERIAL
  5
27E
102
{ACAD_REACTORS
330
C4
102
}
330
C4
100
AcDbMaterial
  1
Global
 73
     1
 78
     1
172
     1
176
     1
270
     1
274
     1
 94
       63
  0
MLEADERSTYLE
  5
2D6
102
{ACAD_REACTORS
330
2D5
102
}
330
2D5
100
AcDbMLeaderStyle
170
     2
171
     1
172
     0
 90
        2
 40
0.0
 41
0.0
173
     1
 91
-1056964608
340
14
 92
       -2
290
     1
 42
2.0
291
     1
 43
0.36
  3
Standard
 44
4.0
300

342
11
174
     1
178
     6
175
     1
176
     0
 93
-1056964608
 45
4.0
292
     0
297
     0
 46
4.0
 94
-1056964608
 47
1.0
 49
1.0
140
1.0
293
     1
141
0.0
294
     1
177
     0
142
1.0
295
     0
296
     0
143
0.125
1001
ACAD_MLEADERVER
1070
     2
  0
MLINESTYLE
  5
18
102
{ACAD_REACTORS
330
17
102
}
330
17
100
AcDbMlineStyle
  2
STANDARD
 70
     0
  3

 62
   256
 51
90.0
 52
90.0
 71
     2
 49
0.5
 62
   256
  6
BYLAYER
 49
-0.5
 62
   256
  6
BYLAYER
  0
PLOTSETTINGS
  5
1C7E
102
{ACAD_REACTORS
330
19
102
}
330
19
100
AcDbPlotSettings
  1
SEISA基本
  2
none_device
  4
Letter_(8.50_x_11.00_Inches)
  6

 40
6.349999904632567
 41
6.349999904632567
 42
6.350006103515625
 43
6.350006103515625
 44
215.8999938964844
 45
279.3999938964844
 46
7.302498226506357
 47
0.0
 48
0.0
 49
0.0
140
0.0
141
0.0
142
1.0
143
1.574803221122935
 70
 11956
 72
     1
 73
     1
 74
     2
  7
SEISA.ctb
 75
     0
147
0.6349999711627054
 76
     0
 77
     2
 78
   300
148
0.0
149
0.0
1001
ACAD_PSEXT
1000
なし
1000
なし
1000
適切ではありません
1000
新しいプロッタ環境設定名を選択しない限り、レイアウトは印刷されません。
1070
     0
  0
ACDBPLACEHOLDER
  5
F
102
{ACAD_REACTORS
330
E
102
}
330
E
  0
SCALE
  5
5ACF
102
{ACAD_REACTORS
330
2B3
102
}
330
2B3
100
AcDbScale
 70
     0
300
1:1.5
140
1.0
141
1.5
290
     0
  0
SCALE
  5
2B4
102
{ACAD_REACTORS
330
2B3
102
}
330
2B3
100
AcDbScale
 70
     0
300
1:1
140
1.0
141
1.0
290
     1
  0
SCALE
  5
2B5
102
{ACAD_REACTORS
330
2B3
102
}
330
2B3
100
AcDbScale
 70
     0
300
1:2
140
1.0
141
2.0
290
     0
  0
SCALE
  5
2B6
102
{ACAD_REACTORS
330
2B3
102
}
330
2B3
100
AcDbScale
 70
     0
300
1:4
140
1.0
141
4.0
290
     0
  0
SCALE
  5
2B7
102
{ACAD_REACTORS
330
2B3
102
}
330
2B3
100
AcDbScale
 70
     0
300
1:5
140
1.0
141
5.0
290
     0
  0
SCALE
  5
2B8
102
{ACAD_REACTORS
330
2B3
102
}
330
2B3
100
AcDbScale
 70
     0
300
1:8
140
1.0
141
8.0
290
     0
  0
SCALE
  5
2B9
102
{ACAD_REACTORS
330
2B3
102
}
330
2B3
100
AcDbScale
 70
     0
300
1:10
140
1.0
141
10.0
290
     0
  0
SCALE
  5
2BA
102
{ACAD_REACTORS
330
2B3
102
}
330
2B3
100
AcDbScale
 70
     0
300
1:16
140
1.0
141
16.0
290
     0
  0
SCALE
  5
2BB
102
{ACAD_REACTORS
330
2B3
102
}
330
2B3
100
AcDbScale
 70
     0
300
1:20
140
1.0
141
20.0
290
     0
  0
SCALE
  5
2BC
102
{ACAD_REACTORS
330
2B3
102
}
330
2B3
100
AcDbScale
 70
     0
300
1:30
140
1.0
141
30.0
290
     0
  0
SCALE
  5
2BD
102
{ACAD_REACTORS
330
2B3
102
}
330
2B3
100
AcDbScale
 70
     0
300
1:40
140
1.0
141
40.0
290
     0
  0
SCALE
  5
2BE
102
{ACAD_REACTORS
330
2B3
102
}
330
2B3
100
AcDbScale
 70
     0
300
1:50
140
1.0
141
50.0
290
     0
  0
SCALE
  5
2BF
102
{ACAD_REACTORS
330
2B3
102
}
330
2B3
100
AcDbScale
 70
     0
300
1:100
140
1.0
141
100.0
290
     0
  0
SCALE
  5
2C0
102
{ACAD_REACTORS
330
2B3
102
}
330
2B3
100
AcDbScale
 70
     0
300
2:1
140
2.0
141
1.0
290
     0
  0
SCALE
  5
2C1
102
{ACAD_REACTORS
330
2B3
102
}
330
2B3
100
AcDbScale
 70
     0
300
4:1
140
4.0
141
1.0
290
     0
  0
SCALE
  5
2C2
102
{ACAD_REACTORS
330
2B3
102
}
330
2B3
100
AcDbScale
 70
     0
300
8:1
140
8.0
141
1.0
290
     0
  0
SCALE
  5
2C3
102
{ACAD_REACTORS
330
2B3
102
}
330
2B3
100
AcDbScale
 70
     0
300
10:1
140
10.0
141
1.0
290
     0
  0
SCALE
  5
2C4
102
{ACAD_REACTORS
330
2B3
102
}
330
2B3
100
AcDbScale
 70
     0
300
100:1
140
100.0
141
1.0
290
     0
  0
SCALE
  5
2C5
102
{ACAD_REACTORS
330
2B3
102
}
330
2B3
100
AcDbScale
 70
     0
300
1/128" = 1'-0"
140
0.0078125
141
12.0
290
     0
  0
SCALE
  5
2C6
102
{ACAD_REACTORS
330
2B3
102
}
330
2B3
100
AcDbScale
 70
     0
300
1/64" = 1'-0"
140
0.015625
141
12.0
290
     0
  0
SCALE
  5
2C7
102
{ACAD_REACTORS
330
2B3
102
}
330
2B3
100
AcDbScale
 70
     0
300
1/32" = 1'-0"
140
0.03125
141
12.0
290
     0
  0
SCALE
  5
2C8
102
{ACAD_REACTORS
330
2B3
102
}
330
2B3
100
AcDbScale
 70
     0
300
1/16" = 1'-0"
140
0.0625
141
12.0
290
     0
  0
SCALE
  5
2C9
102
{ACAD_REACTORS
330
2B3
102
}
330
2B3
100
AcDbScale
 70
     0
300
3/32" = 1'-0"
140
0.09375
141
12.0
290
     0
  0
SCALE
  5
2CA
102
{ACAD_REACTORS
330
2B3
102
}
330
2B3
100
AcDbScale
 70
     0
300
1/8" = 1'-0"
140
0.125
141
12.0
290
     0
  0
SCALE
  5
2CB
102
{ACAD_REACTORS
330
2B3
102
}
330
2B3
100
AcDbScale
 70
     0
300
3/16" = 1'-0"
140
0.1875
141
12.0
290
     0
  0
SCALE
  5
2CC
102
{ACAD_REACTORS
330
2B3
102
}
330
2B3
100
AcDbScale
 70
     0
300
1/4" = 1'-0"
140
0.25
141
12.0
290
     0
  0
SCALE
  5
2CD
102
{ACAD_REACTORS
330
2B3
102
}
330
2B3
100
AcDbScale
 70
     0
300
3/8" = 1'-0"
140
0.375
141
12.0
290
     0
  0
SCALE
  5
2CE
102
{ACAD_REACTORS
330
2B3
102
}
330
2B3
100
AcDbScale
 70
     0
300
1/2" = 1'-0"
140
0.5
141
12.0
290
     0
  0
SCALE
  5
2CF
102
{ACAD_REACTORS
330
2B3
102
}
330
2B3
100
AcDbScale
 70
     0
300
3/4" = 1'-0"
140
0.75
141
12.0
290
     0
  0
SCALE
  5
2D0
102
{ACAD_REACTORS
330
2B3
102
}
330
2B3
100
AcDbScale
 70
     0
300
1" = 1'-0"
140
1.0
141
12.0
290
     0
  0
SCALE
  5
2D1
102
{ACAD_REACTORS
330
2B3
102
}
330
2B3
100
AcDbScale
 70
     0
300
1-1/2" = 1'-0"
140
1.5
141
12.0
290
     0
  0
SCALE
  5
2D2
102
{ACAD_REACTORS
330
2B3
102
}
330
2B3
100
AcDbScale
 70
     0
300
3" = 1'-0"
140
3.0
141
12.0
290
     0
  0
SCALE
  5
2D3
102
{ACAD_REACTORS
330
2B3
102
}
330
2B3
100
AcDbScale
 70
     0
300
6" = 1'-0"
140
6.0
141
12.0
290
     0
  0
SCALE
  5
2D4
102
{ACAD_REACTORS
330
2B3
102
}
330
2B3
100
AcDbScale
 70
     0
300
1'-0" = 1'-0"
140
12.0
141
12.0
290
     0
  0
TABLESTYLE
  5
122
102
{ACAD_XDICTIONARY
360
2F5
102
}
102
{ACAD_REACTORS
330
121
102
}
330
121
100
AcDbTableStyle
  3
Standard
 70
     0
 71
     0
 40
1.5
 41
1.5
280
     0
281
     0
  7
STANDARD
140
4.5
170
     2
 62
     0
 63
     7
283
     0
 90
      512
 91
        0
  1

274
    -2
284
     1
 64
     0
275
    -2
285
     1
 65
     0
276
    -2
286
     1
 66
     0
277
    -2
287
     1
 67
     0
278
    -2
288
     1
 68
     0
279
    -2
289
     1
 69
     0
  7
STANDARD
140
6.0
170
     5
 62
     0
 63
     7
283
     0
 90
      512
 91
        0
  1

274
    -2
284
     1
 64
     0
275
    -2
285
     1
 65
     0
276
    -2
286
     1
 66
     0
277
    -2
287
     1
 67
     0
278
    -2
288
     1
 68
     0
279
    -2
289
     1
 69
     0
  7
STANDARD
140
4.5
170
     5
 62
     0
 63
     7
283
     0
 90
      512
 91
        0
  1

274
    -2
284
     1
 64
     0
275
    -2
285
     1
 65
     0
276
    -2
286
     1
 66
     0
277
    -2
287
     1
 67
     0
278
    -2
288
     1
 68
     0
279
    -2
289
     1
 69
     0
  0
VISUALSTYLE
  5
285
102
{ACAD_REACTORS
330
27F
102
}
330
27F
100
AcDbVisualStyle
  2
2dWireframe
 70
     4
 71
     0
 72
     2
 73
     0
 90
        0
 40
-0.6
 41
-30.0
 62
     5
 63
     7
421
 16777215
 74
     1
 91
        4
 64
     7
 65
   257
 75
     1
175
     1
 42
1.0
 92
        0
 66
   257
 43
1.0
 76
     1
 77
     6
 78
     2
 67
     7
 79
     5
170
     0
171
     0
290
     0
174
     0
 93
        1
 44
0.0
173
     0
291
     0
 45
0.0
  0
VISUALSTYLE
  5
287
102
{ACAD_REACTORS
330
27F
102
}
330
27F
100
AcDbVisualStyle
  2
3D Hidden
 70
     6
 71
     1
 72
     2
 73
     2
 90
        0
 40
-0.6
 41
-30.0
 62
     5
 63
     7
421
 16777215
 74
     2
 91
        2
 64
     7
 65
   257
 75
     2
175
     1
 42
40.0
 92
        0
 66
   257
 43
1.0
 76
     1
 77
     6
 78
     2
 67
     7
 79
     3
170
     0
171
     0
290
     0
174
     0
 93
        1
 44
0.0
173
     0
291
     0
 45
0.0
  0
VISUALSTYLE
  5
286
102
{ACAD_REACTORS
330
27F
102
}
330
27F
100
AcDbVisualStyle
  2
3dWireframe
 70
     5
 71
     0
 72
     2
 73
     0
 90
        0
 40
-0.6
 41
-30.0
 62
     5
 63
     7
421
 16777215
 74
     1
 91
        4
 64
     7
 65
   257
 75
     1
175
     1
 42
1.0
 92
        0
 66
   257
 43
1.0
 76
     1
 77
     6
 78
     2
 67
     7
 79
     5
170
     0
171
     0
290
     0
174
     0
 93
        1
 44
0.0
173
     0
291
     0
 45
0.0
  0
VISUALSTYLE
  5
284
102
{ACAD_REACTORS
330
27F
102
}
330
27F
100
AcDbVisualStyle
  2
Basic
 70
     7
 71
     1
 72
     0
 73
     1
 90
        0
 40
-0.6
 41
-30.0
 62
     5
 63
     7
421
 16777215
 74
     0
 91
        4
 64
     7
 65
   257
 75
     1
175
     1
 42
1.0
 92
        8
 66
     7
 43
1.0
 76
     1
 77
     6
 78
     2
 67
     7
 79
     5
170
     0
171
     0
290
     0
174
     0
 93
        1
 44
0.0
173
     0
291
     1
 45
0.0
  0
VISUALSTYLE
  5
28B
102
{ACAD_REACTORS
330
27F
102
}
330
27F
100
AcDbVisualStyle
  2
Brighten
 70
    12
 71
     2
 72
     2
 73
     0
 90
        0
 40
-0.6
 41
-30.0
 62
     5
 63
     7
421
 16777215
 74
     1
 91
        4
 64
     7
 65
   257
 75
     1
175
     1
 42
1.0
 92
        8
 66
     7
 43
1.0
 76
     1
 77
     6
 78
     2
 67
     7
 79
     5
170
     0
171
     0
290
     0
174
     0
 93
        1
 44
50.0
173
     0
291
     1
 45
0.0
  0
VISUALSTYLE
  5
28F
102
{ACAD_REACTORS
330
27F
102
}
330
27F
100
AcDbVisualStyle
  2
ColorChange
 70
    16
 71
     2
 72
     2
 73
     3
 90
        0
 40
-0.6
 41
-30.0
 62
     5
 63
     8
421
  8421504
 74
     1
 91
        4
 64
     7
 65
   257
 75
     1
175
     1
 42
1.0
 92
        8
 66
     8
424
  8421504
 43
1.0
 76
     1
 77
     6
 78
     2
 67
     7
 79
     5
170
     0
171
     0
290
     0
174
     0
 93
        1
 44
0.0
173
     0
291
     1
 45
0.0
  0
VISUALSTYLE
  5
288
102
{ACAD_REACTORS
330
27F
102
}
330
27F
100
AcDbVisualStyle
  2
Conceptual
 70
     9
 71
     3
 72
     2
 73
     0
 90
        0
 40
-0.6
 41
-30.0
 62
     5
 63
     7
421
 16777215
 74
     2
 91
        2
 64
     7
 65
   257
 75
     1
175
     1
 42
40.0
 92
        8
 66
     7
 43
1.0
 76
     1
 77
     6
 78
     2
 67
     7
 79
     3
170
     0
171
     0
290
     0
174
     0
 93
        1
 44
0.0
173
     0
291
     0
 45
0.0
  0
VISUALSTYLE
  5
28A
102
{ACAD_REACTORS
330
27F
102
}
330
27F
100
AcDbVisualStyle
  2
Dim
 70
    11
 71
     2
 72
     2
 73
     0
 90
        0
 40
-0.6
 41
-30.0
 62
     5
 63
     7
421
 16777215
 74
     1
 91
        4
 64
     7
 65
   257
 75
     1
175
     1
 42
1.0
 92
        8
 66
     7
 43
1.0
 76
     1
 77
     6
 78
     2
 67
     7
 79
     5
170
     0
171
     0
290
     0
174
     0
 93
        1
 44
-50.0
173
     0
291
     1
 45
0.0
  0
VISUALSTYLE
  5
28E
102
{ACAD_REACTORS
330
27F
102
}
330
27F
100
AcDbVisualStyle
  2
Facepattern
 70
    15
 71
     2
 72
     2
 73
     0
 90
        0
 40
-0.6
 41
-30.0
 62
     5
 63
     7
421
 16777215
 74
     1
 91
        4
 64
     7
 65
   257
 75
     1
175
     1
 42
1.0
 92
        8
 66
     7
 43
1.0
 76
     1
 77
     6
 78
     2
 67
     7
 79
     5
170
     0
171
     0
290
     0
174
     0
 93
        1
 44
0.0
173
     0
291
     1
 45
0.0
  0
VISUALSTYLE
  5
280
102
{ACAD_REACTORS
330
27F
102
}
330
27F
100
AcDbVisualStyle
  2
Flat
 70
     0
 71
     2
 72
     1
 73
     1
 90
        2
 40
-0.6
 41
30.0
 62
     5
 63
     7
421
 16777215
 74
     0
 91
        4
 64
     7
 65
   257
 75
     1
175
     1
 42
1.0
 92
        8
 66
     7
 43
1.0
 76
     1
 77
     6
 78
     2
 67
     7
 79
     5
170
     0
171
     0
290
     0
174
     0
 93
       13
 44
0.0
173
     0
291
     1
 45
0.0
  0
VISUALSTYLE
  5
281
102
{ACAD_REACTORS
330
27F
102
}
330
27F
100
AcDbVisualStyle
  2
FlatWithEdges
 70
     1
 71
     2
 72
     1
 73
     1
 90
        2
 40
-0.6
 41
30.0
 62
     5
 63
     7
421
 16777215
 74
     1
 91
        4
 64
     7
 65
   257
 75
     1
175
     1
 42
1.0
 92
        0
 66
   257
 43
1.0
 76
     1
 77
     6
 78
     2
 67
     7
 79
     5
170
     0
171
     0
290
     0
174
     0
 93
       13
 44
0.0
173
     0
291
     1
 45
0.0
  0
VISUALSTYLE
  5
282
102
{ACAD_REACTORS
330
27F
102
}
330
27F
100
AcDbVisualStyle
  2
Gouraud
 70
     2
 71
     2
 72
     2
 73
     1
 90
        2
 40
-0.6
 41
30.0
 62
     5
 63
     7
421
 16777215
 74
     0
 91
        4
 64
     7
 65
   257
 75
     1
175
     1
 42
1.0
 92
        0
 66
     7
 43
1.0
 76
     1
 77
     6
 78
     2
 67
     7
 79
     5
170
     0
171
     0
290
     0
174
     0
 93
       13
 44
0.0
173
     0
291
     1
 45
0.0
  0
VISUALSTYLE
  5
283
102
{ACAD_REACTORS
330
27F
102
}
330
27F
100
AcDbVisualStyle
  2
GouraudWithEdges
 70
     3
 71
     2
 72
     2
 73
     1
 90
        2
 40
-0.6
 41
30.0
 62
     5
 63
     7
421
 16777215
 74
     1
 91
        4
 64
     7
 65
   257
 75
     1
175
     1
 42
1.0
 92
        0
 66
   257
 43
1.0
 76
     1
 77
     6
 78
     2
 67
     7
 79
     5
170
     0
171
     0
290
     0
174
     0
 93
       13
 44
0.0
173
     0
291
     1
 45
0.0
  0
VISUALSTYLE
  5
28D
102
{ACAD_REACTORS
330
27F
102
}
330
27F
100
AcDbVisualStyle
  2
Linepattern
 70
    14
 71
     2
 72
     2
 73
     0
 90
        0
 40
-0.6
 41
-30.0
 62
     5
 63
     7
421
 16777215
 74
     1
 91
        4
 64
     7
 65
   257
 75
     7
175
     7
 42
1.0
 92
        8
 66
     7
 43
1.0
 76
     1
 77
     6
 78
     2
 67
     7
 79
     5
170
     0
171
     0
290
     0
174
     0
 93
        1
 44
0.0
173
     0
291
     1
 45
0.0
  0
VISUALSTYLE
  5
289
102
{ACAD_REACTORS
330
27F
102
}
330
27F
100
AcDbVisualStyle
  2
Realistic
 70
     8
 71
     2
 72
     2
 73
     0
 90
        0
 40
-0.6
 41
-30.0
 62
     5
 63
     7
421
 16777215
 74
     1
 91
        0
 64
     7
 65
   257
 75
     1
175
     1
 42
1.0
 92
        8
 66
     8
424
  7895160
 43
1.0
 76
     1
 77
     6
 78
     2
 67
     7
 79
     5
170
     0
171
     0
290
     0
174
     0
 93
       13
 44
0.0
173
     0
291
     0
 45
0.0
  0
VISUALSTYLE
  5
28C
102
{ACAD_REACTORS
330
27F
102
}
330
27F
100
AcDbVisualStyle
  2
Thicken
 70
    13
 71
     2
 72
     2
 73
     0
 90
        0
 40
-0.6
 41
-30.0
 62
     5
 63
     7
421
 16777215
 74
     1
 91
        4
 64
     7
 65
   257
 75
     1
175
     1
 42
1.0
 92
       12
 66
     7
 43
1.0
 76
     1
 77
     6
 78
     2
 67
     7
 79
     5
170
     0
171
     0
290
     0
174
     0
 93
        1
 44
0.0
173
     0
291
     1
 45
0.0
  0
DICTIONARYVAR
  5
2FA
102
{ACAD_REACTORS
330
34
102
}
330
34
100
DictionaryVariables
280
     0
  1
1:1
  0
DICTIONARYVAR
  5
2F8
102
{ACAD_REACTORS
330
34
102
}
330
34
100
DictionaryVariables
280
     0
  1
STANDARD
  0
DICTIONARYVAR
  5
140
102
{ACAD_REACTORS
330
34
102
}
330
34
100
DictionaryVariables
280
     0
  1
STANDARD
  0
DICTIONARYVAR
  5
AC
102
{ACAD_REACTORS
330
34
102
}
330
34
100
DictionaryVariables
280
     0
  1
1
  0
DICTIONARYVAR
  5
35
102
{ACAD_REACTORS
330
34
102
}
330
34
100
DictionaryVariables
280
     0
  1
1
  0
DICTIONARYVAR
  5
5B3C
102
{ACAD_REACTORS
330
34
102
}
330
34
100
DictionaryVariables
280
     0
  1
1
  0
DICTIONARYVAR
  5
5B3D
102
{ACAD_REACTORS
330
34
102
}
330
34
100
DictionaryVariables
280
     0
  1
15
  0
DICTIONARYVAR
  5
2FB
102
{ACAD_REACTORS
330
34
102
}
330
34
100
DictionaryVariables
280
     0
  1
0
  0
DICTIONARYVAR
  5
2F9
102
{ACAD_REACTORS
330
34
102
}
330
34
100
DictionaryVariables
280
     0
  1
0
  0
DICTIONARY
  5
161B
102
{ACAD_REACTORS
330
49
102
}
330
49
100
AcDbDictionary
281
     1
  0
DICTIONARY
  5
4A
102
{ACAD_REACTORS
330
49
102
}
330
49
100
AcDbDictionary
281
     1
  0
XRECORD
  5
12B
102
{ACAD_REACTORS
330
49
102
}
330
49
100
AcDbXrecord
280
     1
 90
-1023410169
  0
DICTIONARY
  5
2F5
330
122
100
AcDbDictionary
280
     1
281
     1
  3
ACAD_ROUNDTRIP_2008_TABLESTYLE_CELLSTYLEMAP
360
6952
  0
CELLSTYLEMAP
  5
6952
102
{ACAD_REACTORS
330
2F5
102
}
330
2F5
100
AcDbCellStyleMap
 90
        3
300
CELLSTYLE
  1
TABLEFORMAT_BEGIN
 90
        5
170
     1
 91
        0
 92
    32768
 62
   257
 93
        1
300
CONTENTFORMAT
  1
CONTENTFORMAT_BEGIN
 90
        0
 91
        0
 92
      512
 93
        0
300

 40
0.0
140
1.0
 94
        5
 62
     0
340
11
144
6.0
309
CONTENTFORMAT_END
171
     1
301
MARGIN
  1
CELLMARGIN_BEGIN
 40
1.5
 40
1.5
 40
1.5
 40
1.5
 40
0.18
 40
0.18
309
CELLMARGIN_END
 94
        6
 95
        1
302
GRIDFORMAT
  1
GRIDFORMAT_BEGIN
 90
        0
 91
        1
 62
     0
 92
       -2
340
0
 93
        0
 40
0.045
309
GRIDFORMAT_END
 95
        2
302
GRIDFORMAT
  1
GRIDFORMAT_BEGIN
 90
        0
 91
        1
 62
     0
 92
       -2
340
0
 93
        0
 40
0.045
309
GRIDFORMAT_END
 95
        4
302
GRIDFORMAT
  1
GRIDFORMAT_BEGIN
 90
        0
 91
        1
 62
     0
 92
       -2
340
0
 93
        0
 40
0.045
309
GRIDFORMAT_END
 95
        8
302
GRIDFORMAT
  1
GRIDFORMAT_BEGIN
 90
        0
 91
        1
 62
     0
 92
       -2
340
0
 93
        0
 40
0.045
309
GRIDFORMAT_END
 95
       16
302
GRIDFORMAT
  1
GRIDFORMAT_BEGIN
 90
        0
 91
        1
 62
     0
 92
       -2
340
0
 93
        0
 40
0.045
309
GRIDFORMAT_END
 95
       32
302
GRIDFORMAT
  1
GRIDFORMAT_BEGIN
 90
        0
 91
        1
 62
     0
 92
       -2
340
0
 93
        0
 40
0.045
309
GRIDFORMAT_END
309
TABLEFORMAT_END
  1
CELLSTYLE_BEGIN
 90
        1
 91
        1
300
_TITLE
309
CELLSTYLE_END
300
CELLSTYLE
  1
TABLEFORMAT_BEGIN
 90
        5
170
     1
 91
        0
 92
        0
 62
   257
 93
        1
300
CONTENTFORMAT
  1
CONTENTFORMAT_BEGIN
 90
        0
 91
        0
 92
      512
 93
        0
300

 40
0.0
140
1.0
 94
        5
 62
     0
340
11
144
4.5
309
CONTENTFORMAT_END
171
     1
301
MARGIN
  1
CELLMARGIN_BEGIN
 40
1.5
 40
1.5
 40
1.5
 40
1.5
 40
0.18
 40
0.18
309
CELLMARGIN_END
 94
        6
 95
        1
302
GRIDFORMAT
  1
GRIDFORMAT_BEGIN
 90
        0
 91
        1
 62
     0
 92
       -2
340
0
 93
        0
 40
0.045
309
GRIDFORMAT_END
 95
        2
302
GRIDFORMAT
  1
GRIDFORMAT_BEGIN
 90
        0
 91
        1
 62
     0
 92
       -2
340
0
 93
        0
 40
0.045
309
GRIDFORMAT_END
 95
        4
302
GRIDFORMAT
  1
GRIDFORMAT_BEGIN
 90
        0
 91
        1
 62
     0
 92
       -2
340
0
 93
        0
 40
0.045
309
GRIDFORMAT_END
 95
        8
302
GRIDFORMAT
  1
GRIDFORMAT_BEGIN
 90
        0
 91
        1
 62
     0
 92
       -2
340
0
 93
        0
 40
0.045
309
GRIDFORMAT_END
 95
       16
302
GRIDFORMAT
  1
GRIDFORMAT_BEGIN
 90
        0
 91
        1
 62
     0
 92
       -2
340
0
 93
        0
 40
0.045
309
GRIDFORMAT_END
 95
       32
302
GRIDFORMAT
  1
GRIDFORMAT_BEGIN
 90
        0
 91
        1
 62
     0
 92
       -2
340
0
 93
        0
 40
0.045
309
GRIDFORMAT_END
309
TABLEFORMAT_END
  1
CELLSTYLE_BEGIN
 90
        2
 91
        1
300
_HEADER
309
CELLSTYLE_END
300
CELLSTYLE
  1
TABLEFORMAT_BEGIN
 90
        5
170
     1
 91
        0
 92
        0
 62
   257
 93
        1
300
CONTENTFORMAT
  1
CONTENTFORMAT_BEGIN
 90
        0
 91
        0
 92
      512
 93
        0
300

 40
0.0
140
1.0
 94
        2
 62
     0
340
11
144
4.5
309
CONTENTFORMAT_END
171
     1
301
MARGIN
  1
CELLMARGIN_BEGIN
 40
1.5
 40
1.5
 40
1.5
 40
1.5
 40
0.18
 40
0.18
309
CELLMARGIN_END
 94
        6
 95
        1
302
GRIDFORMAT
  1
GRIDFORMAT_BEGIN
 90
        0
 91
        1
 62
     0
 92
       -2
340
0
 93
        0
 40
0.045
309
GRIDFORMAT_END
 95
        2
302
GRIDFORMAT
  1
GRIDFORMAT_BEGIN
 90
        0
 91
        1
 62
     0
 92
       -2
340
0
 93
        0
 40
0.045
309
GRIDFORMAT_END
 95
        4
302
GRIDFORMAT
  1
GRIDFORMAT_BEGIN
 90
        0
 91
        1
 62
     0
 92
       -2
340
0
 93
        0
 40
0.045
309
GRIDFORMAT_END
 95
        8
302
GRIDFORMAT
  1
GRIDFORMAT_BEGIN
 90
        0
 91
        1
 62
     0
 92
       -2
340
0
 93
        0
 40
0.045
309
GRIDFORMAT_END
 95
       16
302
GRIDFORMAT
  1
GRIDFORMAT_BEGIN
 90
        0
 91
        1
 62
     0
 92
       -2
340
0
 93
        0
 40
0.045
309
GRIDFORMAT_END
 95
       32
302
GRIDFORMAT
  1
GRIDFORMAT_BEGIN
 90
        0
 91
        1
 62
     0
 92
       -2
340
0
 93
        0
 40
0.045
309
GRIDFORMAT_END
309
TABLEFORMAT_END
  1
CELLSTYLE_BEGIN
 90
        3
 91
        2
300
_DATA
309
CELLSTYLE_END
  0
ENDSEC
  0
EOF
