  0
SECTION
  2
HEADER
  9
$ACADVER
  1
AC1021
  9
$ACADMAINTVER
 70
    26
  9
$DWGCODEPAGE
  3
ANSI_932
  9
$LASTSAVEDBY
  1
Htm_Terada
  9
$CUSTOMPROPERTYTAG
  1
AmdtFileType
  9
$CUSTOMPROPERTY
  1
84
  9
$INSBASE
 10
0.0
 20
0.0
 30
0.0
  9
$EXTMIN
 10
541.950995247058
 20
818.0687776191074
 30
-0.0000000349181948
  9
$EXTMAX
 10
1639.118962829608
 20
1407.097325770395
 30
0.0000000814935747
  9
$LIMMIN
 10
0.0000009571692772
 20
0.0000018469103225
  9
$LIMMAX
 10
2100.000000957169
 20
1485.00000184691
  9
$ORTHOMODE
 70
     0
  9
$REGENMODE
 70
     1
  9
$FILLMODE
 70
     1
  9
$QTEXTMODE
 70
     0
  9
$MIRRTEXT
 70
     1
  9
$LTSCALE
 40
5.0
  9
$ATTMODE
 70
     1
  9
$TEXTSIZE
 40
25.0
  9
$TRACEWID
 40
1.0
  9
$TEXTSTYLE
  7
SEISA
  9
$CLAYER
  8
AM_0 外形線1
  9
$CELTYPE
  6
ByLayer
  9
$CECOLOR
 62
   256
  9
$CELTSCALE
 40
1.0
  9
$DISPSILH
 70
     0
  9
$DIMSCALE
 40
5.0
  9
$DIMASZ
 40
2.5
  9
$DIMEXO
 40
0.625
  9
$DIMDLI
 40
10.0
  9
$DIMRND
 40
0.0
  9
$DIMDLE
 40
0.0
  9
$DIMEXE
 40
0.625
  9
$DIMTP
 40
0.1
  9
$DIMTM
 40
0.1
  9
$DIMTXT
 40
3.5
  9
$DIMCEN
 40
0.0
  9
$DIMTSZ
 40
0.0
  9
$DIMTOL
 70
     0
  9
$DIMLIM
 70
     0
  9
$DIMTIH
 70
     0
  9
$DIMTOH
 70
     0
  9
$DIMSE1
 70
     0
  9
$DIMSE2
 70
     0
  9
$DIMTAD
 70
     3
  9
$DIMZIN
 70
     8
  9
$DIMBLK
  1
Open30
  9
$DIMASO
 70
     1
  9
$DIMSHO
 70
     1
  9
$DIMPOST
  1

  9
$DIMAPOST
  1
"
  9
$DIMALT
 70
     0
  9
$DIMALTD
 70
     2
  9
$DIMALTF
 40
0.0393701
  9
$DIMLFAC
 40
1.0
  9
$DIMTOFL
 70
     1
  9
$DIMTVP
 40
0.0
  9
$DIMTIX
 70
     0
  9
$DIMSOXD
 70
     0
  9
$DIMSAH
 70
     0
  9
$DIMBLK1
  1

  9
$DIMBLK2
  1

  9
$DIMSTYLE
  2
SEISA
  9
$DIMCLRD
 70
     3
  9
$DIMCLRE
 70
     3
  9
$DIMCLRT
 70
     3
  9
$DIMTFAC
 40
0.71
  9
$DIMGAP
 40
1.5
  9
$DIMJUST
 70
     0
  9
$DIMSD1
 70
     0
  9
$DIMSD2
 70
     0
  9
$DIMTOLJ
 70
     0
  9
$DIMTZIN
 70
     0
  9
$DIMALTZ
 70
     0
  9
$DIMALTTZ
 70
     8
  9
$DIMUPT
 70
     0
  9
$DIMDEC
 70
     2
  9
$DIMTDEC
 70
     2
  9
$DIMALTU
 70
     2
  9
$DIMALTTD
 70
     2
  9
$DIMTXSTY
  7
SEISA
  9
$DIMAUNIT
 70
     0
  9
$DIMADEC
 70
     0
  9
$DIMALTRND
 40
0.0
  9
$DIMAZIN
 70
     2
  9
$DIMDSEP
 70
    46
  9
$DIMATFIT
 70
     3
  9
$DIMFRAC
 70
     0
  9
$DIMLDRBLK
  1
Open30
  9
$DIMLUNIT
 70
     2
  9
$DIMLWD
 70
    -1
  9
$DIMLWE
 70
    -1
  9
$DIMTMOVE
 70
     0
  9
$DIMFXL
 40
1.0
  9
$DIMFXLON
 70
     0
  9
$DIMJOGANG
 40
0.7853981633974483
  9
$DIMTFILL
 70
     0
  9
$DIMTFILLCLR
 70
     0
  9
$DIMARCSYM
 70
     1
  9
$DIMLTYPE
  6

  9
$DIMLTEX1
  6

  9
$DIMLTEX2
  6

  9
$LUNITS
 70
     2
  9
$LUPREC
 70
     2
  9
$SKETCHINC
 40
1.0
  9
$FILLETRAD
 40
1.0
  9
$AUNITS
 70
     0
  9
$AUPREC
 70
     0
  9
$MENU
  1
.
  9
$ELEVATION
 40
0.0
  9
$PELEVATION
 40
0.0
  9
$THICKNESS
 40
0.0
  9
$LIMCHECK
 70
     0
  9
$CHAMFERA
 40
2.000000000000454
  9
$CHAMFERB
 40
2.000000000000112
  9
$CHAMFERC
 40
2.000000000000454
  9
$CHAMFERD
 40
0.7853981633975053
  9
$SKPOLY
 70
     0
  9
$TDCREATE
 40
2454967.739447836
  9
$TDUCREATE
 40
2454967.364447836
  9
$TDUPDATE
 40
2456479.587080069
  9
$TDUUPDATE
 40
2456479.212080069
  9
$TDINDWG
 40
0.3358806481
  9
$TDUSRTIMER
 40
0.3358775810
  9
$USRTIMER
 70
     1
  9
$ANGBASE
 50
0.0
  9
$ANGDIR
 70
     0
  9
$PDMODE
 70
     0
  9
$PDSIZE
 40
0.0
  9
$PLINEWID
 40
0.0
  9
$SPLFRAME
 70
     0
  9
$SPLINETYPE
 70
     6
  9
$SPLINESEGS
 70
     8
  9
$HANDSEED
  5
956F
  9
$SURFTAB1
 70
     6
  9
$SURFTAB2
 70
     6
  9
$SURFTYPE
 70
     6
  9
$SURFU
 70
     6
  9
$SURFV
 70
     6
  9
$UCSBASE
  2

  9
$UCSNAME
  2

  9
$UCSORG
 10
0.0
 20
0.0
 30
0.0
  9
$UCSXDIR
 10
1.0
 20
0.0
 30
0.0
  9
$UCSYDIR
 10
0.0
 20
1.0
 30
0.0
  9
$UCSORTHOREF
  2

  9
$UCSORTHOVIEW
 70
     0
  9
$UCSORGTOP
 10
0.0
 20
0.0
 30
0.0
  9
$UCSORGBOTTOM
 10
0.0
 20
0.0
 30
0.0
  9
$UCSORGLEFT
 10
0.0
 20
0.0
 30
0.0
  9
$UCSORGRIGHT
 10
0.0
 20
0.0
 30
0.0
  9
$UCSORGFRONT
 10
0.0
 20
0.0
 30
0.0
  9
$UCSORGBACK
 10
0.0
 20
0.0
 30
0.0
  9
$PUCSBASE
  2

  9
$PUCSNAME
  2

  9
$PUCSORG
 10
0.0
 20
0.0
 30
0.0
  9
$PUCSXDIR
 10
1.0
 20
0.0
 30
0.0
  9
$PUCSYDIR
 10
0.0
 20
1.0
 30
0.0
  9
$PUCSORTHOREF
  2

  9
$PUCSORTHOVIEW
 70
     0
  9
$PUCSORGTOP
 10
0.0
 20
0.0
 30
0.0
  9
$PUCSORGBOTTOM
 10
0.0
 20
0.0
 30
0.0
  9
$PUCSORGLEFT
 10
0.0
 20
0.0
 30
0.0
  9
$PUCSORGRIGHT
 10
0.0
 20
0.0
 30
0.0
  9
$PUCSORGFRONT
 10
0.0
 20
0.0
 30
0.0
  9
$PUCSORGBACK
 10
0.0
 20
0.0
 30
0.0
  9
$USERI1
 70
     0
  9
$USERI2
 70
     0
  9
$USERI3
 70
     0
  9
$USERI4
 70
     0
  9
$USERI5
 70
     0
  9
$USERR1
 40
0.0
  9
$USERR2
 40
0.0
  9
$USERR3
 40
0.0
  9
$USERR4
 40
0.0
  9
$USERR5
 40
0.0
  9
$WORLDVIEW
 70
     1
  9
$SHADEDGE
 70
     3
  9
$SHADEDIF
 70
    70
  9
$TILEMODE
 70
     1
  9
$MAXACTVP
 70
    64
  9
$PINSBASE
 10
0.0
 20
0.0
 30
0.0
  9
$PLIMCHECK
 70
     0
  9
$PEXTMIN
 10
1.000000000000000E+20
 20
1.000000000000000E+20
 30
1.000000000000000E+20
  9
$PEXTMAX
 10
-1.000000000000000E+20
 20
-1.000000000000000E+20
 30
-1.000000000000000E+20
  9
$PLIMMIN
 10
0.0
 20
0.0
  9
$PLIMMAX
 10
420.0
 20
297.0
  9
$UNITMODE
 70
     0
  9
$VISRETAIN
 70
     1
  9
$PLINEGEN
 70
     0
  9
$PSLTSCALE
 70
     1
  9
$TREEDEPTH
 70
  3020
  9
$CMLSTYLE
  2
Standard
  9
$CMLJUST
 70
     0
  9
$CMLSCALE
 40
20.0
  9
$PROXYGRAPHICS
 70
     1
  9
$MEASUREMENT
 70
     1
  9
$CELWEIGHT
370
    -1
  9
$ENDCAPS
280
     0
  9
$JOINSTYLE
280
     0
  9
$LWDISPLAY
290
     0
  9
$INSUNITS
 70
     4
  9
$HYPERLINKBASE
  1

  9
$STYLESHEET
  1
SEISA.CTB
  9
$XEDIT
290
     1
  9
$CEPSNTYPE
380
     0
  9
$PSTYLEMODE
290
     1
  9
$FINGERPRINTGUID
  2
{9A3B54B7-A177-43B1-B683-259924FE65A0}
  9
$VERSIONGUID
  2
{8F5F9706-CA66-42B6-BEAF-D3C0A28721BD}
  9
$EXTNAMES
290
     1
  9
$PSVPSCALE
 40
0.0
  9
$OLESTARTUP
290
     0
  9
$SORTENTS
280
   127
  9
$INDEXCTL
280
     0
  9
$HIDETEXT
280
     0
  9
$XCLIPFRAME
290
     0
  9
$HALOGAP
280
     0
  9
$OBSCOLOR
 70
   257
  9
$OBSLTYPE
280
     0
  9
$INTERSECTIONDISPLAY
280
     0
  9
$INTERSECTIONCOLOR
 70
   257
  9
$DIMASSOC
280
     2
  9
$PROJECTNAME
  1

  9
$CAMERADISPLAY
290
     0
  9
$LENSLENGTH
 40
50.0
  9
$CAMERAHEIGHT
 40
0.0
  9
$STEPSPERSEC
 40
2.0
  9
$STEPSIZE
 40
6.0
  9
$3DDWFPREC
 40
2.0
  9
$PSOLWIDTH
 40
0.25
  9
$PSOLHEIGHT
 40
4.0
  9
$LOFTANG1
 40
1.570796326794896
  9
$LOFTANG2
 40
1.570796326794896
  9
$LOFTMAG1
 40
0.0
  9
$LOFTMAG2
 40
0.0
  9
$LOFTPARAM
 70
     7
  9
$LOFTNORMALS
280
     1
  9
$LATITUDE
 40
37.795
  9
$LONGITUDE
 40
-122.394
  9
$NORTHDIRECTION
 40
0.0
  9
$TIMEZONE
 70
 -8000
  9
$LIGHTGLYPHDISPLAY
280
     1
  9
$TILEMODELIGHTSYNCH
280
     1
  9
$CMATERIAL
347
27C
  9
$SOLIDHIST
280
     1
  9
$SHOWHIST
280
     1
  9
$DWFFRAME
280
     2
  9
$DGNFRAME
280
     0
  9
$REALWORLDSCALE
290
     1
  9
$INTERFERECOLOR
 62
     1
  9
$INTERFEREOBJVS
345
289
  9
$INTERFEREVPVS
346
286
  9
$CSHADOW
280
     0
  9
$SHADOWPLANELOCATION
 40
0.0
  0
ENDSEC
  0
SECTION
  2
CLASSES
  0
CLASS
  1
ACDBDICTIONARYWDFLT
  2
AcDbDictionaryWithDefault
  3
ObjectDBX Classes
 90
        0
 91
        1
280
     0
281
     0
  0
CLASS
  1
AMGSETTINGSOBJ
  2
AmgSettingsObj
  3
"AcadM|Product Description: AutoCAD Mechanical|Company: Autodesk, Inc."
 90
     1024
 91
        2
280
     0
281
     0
  0
CLASS
  1
ACME_DOCUMENT
  2
AcMeDbDoc
  3
AcMeServices
 90
     1024
 91
        1
280
     0
281
     0
  0
CLASS
  1
ACMESCOPE
  2
AcMeScope
  3
AcMeServices
 90
     1024
 91
        1
280
     0
281
     0
  0
CLASS
  1
ACMECOMMANDHISTORY
  2
AcMeCommandHistory
  3
AcMeServices
 90
     1024
 91
        1
280
     0
281
     0
  0
CLASS
  1
DICTIONARYVAR
  2
AcDbDictionaryVar
  3
ObjectDBX Classes
 90
        0
 91
        9
280
     0
281
     0
  0
CLASS
  1
ACIMSYSVARMAN
  2
AcImSysVarManager
  3
AcMeServices
 90
     1024
 91
        5
280
     0
281
     0
  0
CLASS
  1
ACIMREALSYSVAR
  2
AcImRealSysVar
  3
AcMeServices
 90
     1024
 91
        1
280
     0
281
     0
  0
CLASS
  1
ACIMINTSYSVAR
  2
AcImIntSysVar
  3
AcMeServices
 90
     1024
 91
       27
280
     0
281
     0
  0
CLASS
  1
ACMEDRAWINGMAN
  2
AcMeDrawingMan
  3
AcMeServices
 90
     1024
 91
        1
280
     0
281
     0
  0
CLASS
  1
ACMEVIEW
  2
AcMeView
  3
AcMeServices
 90
     1024
 91
        1
280
     0
281
     0
  0
CLASS
  1
ACDBENTITYCACHE
  2
AcMeEntityCache
  3
AcMeServices
 90
     1024
 91
        1
280
     0
281
     0
  0
CLASS
  1
GSMANAGER
  2
AcMeGSManager
  3
AcMeServices
 90
     1024
 91
        1
280
     0
281
     0
  0
CLASS
  1
AMDTINTERNALREACTOR
  2
AmdtInternalReactor
  3
AcMeServices
 90
     1024
 91
        2
280
     0
281
     0
  0
CLASS
  1
ACMESTATEMGR
  2
AcMeStateMgr
  3
AcMeServices
 90
     1024
 91
        1
280
     0
281
     0
  0
CLASS
  1
ACGREFMASTER
  2
AcGrefMaster
  3
AcAttribServices
 90
     1024
 91
        1
280
     0
281
     0
  0
CLASS
  1
ACME_DATABASE
  2
AcMeDbDatabase
  3
AcMeServices
 90
     1024
 91
        1
280
     0
281
     0
  0
CLASS
  1
ACRFINSADJUSTERMGR
  2
AcRfInsAdjusterMgr
  3
AcMeServices
 90
     1024
 91
        1
280
     0
281
     0
  0
CLASS
  1
ACGREFACADMASTER
  2
AcGrefacadMaster
  3
AcGrefServices
 90
     1024
 91
        1
280
     0
281
     0
  0
CLASS
  1
AMIMASTER
  2
AmiMaster
  3
AmiServices
 90
     1024
 91
        1
280
     0
281
     0
  0
CLASS
  1
ACIMSTRSYSVAR
  2
AcImStrSysVar
  3
AcMeServices
 90
     1024
 91
        5
280
     0
281
     0
  0
CLASS
  1
ACMSTANDARDJIS
  2
AcmStandardJIS
  3
"Amdt_StdImp|Product Description: AutoCAD Mechanical|Company: Autodesk, Inc."
 90
     1024
 91
        0
280
     0
281
     0
  0
CLASS
  1
AMGOBJPROPCFG
  2
AmgObjPropCfg
  3
"AmgLay|Product Description: AutoCAD Mechanical|Company: Autodesk, Inc."
 90
     1025
 91
        1
280
     0
281
     0
  0
CLASS
  1
ACMSURFSTANDARDJIS
  2
AcmSurfTextStdJIS
  3
"Amdt_StdImp|Product Description: AutoCAD Mechanical|Company: Autodesk, Inc."
 90
     1024
 91
        0
280
     0
281
     0
  0
CLASS
  1
ACMFCFSTANDARDJIS
  2
AcmFCFStdJIS
  3
"Amdt_StdImp|Product Description: AutoCAD Mechanical|Company: Autodesk, Inc."
 90
     1024
 91
        0
280
     0
281
     0
  0
CLASS
  1
ACMWELDSTANDARDJIS
  2
AcmWeldingStdJIS
  3
"Amdt_StdImp|Product Description: AutoCAD Mechanical|Company: Autodesk, Inc."
 90
     1024
 91
        0
280
     0
281
     0
  0
CLASS
  1
ACMIDSTANDARDJIS
  2
AcmIdStdJIS
  3
"Amdt_StdImp|Product Description: AutoCAD Mechanical|Company: Autodesk, Inc."
 90
     1024
 91
        0
280
     0
281
     0
  0
CLASS
  1
ACMDATUMSTANDARDJIS
  2
AcmDatumStdJIS
  3
"Amdt_StdImp|Product Description: AutoCAD Mechanical|Company: Autodesk, Inc."
 90
     1024
 91
        0
280
     0
281
     0
  0
CLASS
  1
ACMBOMSTANDARDJIS
  2
AcmBOMStdJIS
  3
"Amdt_StdImp|Product Description: AutoCAD Mechanical|Company: Autodesk, Inc."
 90
     1024
 91
        0
280
     0
281
     0
  0
CLASS
  1
ACMDETAILSTANDARDJIS
  2
AmdtDetailSymStdJIS
  3
"Amdt_StdImp|Product Description: AutoCAD Mechanical|Company: Autodesk, Inc."
 90
     1024
 91
        0
280
     0
281
     0
  0
CLASS
  1
ACMSECTIONSTANDARDJIS
  2
AmdtSectionSymStdJIS
  3
"Amdt_StdImp|Product Description: AutoCAD Mechanical|Company: Autodesk, Inc."
 90
     1024
 91
        0
280
     0
281
     0
  0
CLASS
  1
ACMCENTERLINESTANDARDJIS
  2
AmdtCenterLineStdJIS
  3
"Amdt_StdImp|Product Description: AutoCAD Mechanical|Company: Autodesk, Inc."
 90
     1024
 91
        0
280
     0
281
     0
  0
CLASS
  1
ACMTHREADLINESTANDARDJIS
  2
AmdtThreadLineStdJIS
  3
"Amdt_StdImp|Product Description: AutoCAD Mechanical|Company: Autodesk, Inc."
 90
     1024
 91
        0
280
     0
281
     0
  0
CLASS
  1
ACAMGLAYSTD
  2
AcAmgLayStd
  3
"AmgLay|Product Description: AutoCAD Mechanical|Company: Autodesk, Inc."
 90
     1024
 91
        1
280
     0
281
     0
  0
CLASS
  1
ACAMGDIMSTD
  2
AcAmgDimStd
  3
"AmgDim|Product Description: AutoCAD Mechanical|Company: Autodesk, Inc."
 90
     1024
 91
        1
280
     0
281
     0
  0
CLASS
  1
ACAMGTITLESTD
  2
AcAmgTitleStd
  3
"AmgTitle|Product Description: AutoCAD Mechanical|Company: Autodesk, Inc."
 90
     4095
 91
        1
280
     0
281
     0
  0
CLASS
  1
ACMDATADICTIONARY
  2
AcmDataDictionary
  3
"AcmSymBB|Product Description: AutoCAD Mechanical|Company: Autodesk, Inc."
 90
     1024
 91
        1
280
     0
281
     0
  0
CLASS
  1
ACMDATAENTRYBLOCK
  2
AcmDataEntryBlock
  3
AcmSymBB|Product Description: AutoCAD Mechanical|Company: Autodesk, Inc.
 90
     1024
 91
        0
280
     0
281
     0
  0
CLASS
  1
LAYER_INDEX
  2
AcDbLayerIndex
  3
ObjectDBX Classes
 90
        0
 91
        0
280
     0
281
     0
  0
CLASS
  1
IDBUFFER
  2
AcDbIdBuffer
  3
ObjectDBX Classes
 90
        0
 91
        0
280
     0
281
     0
  0
CLASS
  1
ACMNOTESTANDARDJIS
  2
AmdtNoteStdJIS
  3
"Amdt_StdImp|Product Description: AutoCAD Mechanical|Company: Autodesk, Inc."
 90
     1024
 91
        0
280
     0
281
     0
  0
CLASS
  1
ACAMGHOLECHARTSTDJIS
  2
AcAmgHoleChartStdJIS
  3
AmgDim|Product Description: AutoCAD Mechanical|Company: Autodesk, Inc.
 90
     1024
 91
        0
280
     0
281
     0
  0
CLASS
  1
AM_DRAWING_MGR
  2
AcDmDwgMgr
  3
AcMechDwgViewMgmt
 90
     1024
 91
        1
280
     0
281
     0
  0
CLASS
  1
AM_DWG_DOCUMENT
  2
AcDmDwgDocument
  3
AcMechDwgViewMgmt
 90
     1024
 91
        1
280
     0
281
     0
  0
CLASS
  1
AM_DWG_SHEET
  2
AcDmSheet
  3
AcMechDwgViewMgmt
 90
     1024
 91
        2
280
     0
281
     0
  0
CLASS
  1
AM_VIEWDIMPARMAP
  2
AcDmViewDimParMap
  3
AcMechDwgViewMgmt
 90
     1024
 91
        2
280
     0
281
     0
  0
CLASS
  1
AM_DWGMGR_NAME
  2
AcDmDwgMgrName
  3
AcMechDwgViewMgmt
 90
     1024
 91
        1
280
     0
281
     0
  0
CLASS
  1
AMDTMENUSTATEMGR
  2
AmdtMenuStateMgr
  3
McadcomServices
 90
     1024
 91
        1
280
     0
281
     0
  0
CLASS
  1
AMDTMCOMMENUSTATE
  2
AmdtMcomMenuState
  3
McadcomServices
 90
     1024
 91
        1
280
     0
281
     0
  0
CLASS
  1
MAPIAMMOUDLE
  2
MApiAmModule
  3
MApiAmServices
 90
     1024
 91
        1
280
     0
281
     0
  0
CLASS
  1
AMDTADMENUSTATE
  2
AmdtAdMenuState
  3
DesignerServices
 90
     1024
 91
        1
280
     0
281
     0
  0
CLASS
  1
ADAPPL
  2
AcAdAppl
  3
DesignerServices
 90
     1024
 91
        1
280
     0
281
     0
  0
CLASS
  1
DEPMGR
  2
AcAdDepMgr
  3
DesignerServices
 90
     1024
 91
        1
280
     0
281
     0
  0
CLASS
  1
PARAMMGR
  2
AcAdParamMgr
  3
DesignerServices
 90
     1024
 91
        1
280
     0
281
     0
  0
CLASS
  1
PARAMSCOPE
  2
AcAdParamScope
  3
DesignerServices
 90
     1024
 91
        1
280
     0
281
     0
  0
CLASS
  1
NAMEDAPPL
  2
AcAdNamedAppl
  3
DesignerServices
 90
     1024
 91
        1
280
     0
281
     0
  0
CLASS
  1
AMDTDMMENUSTATE
  2
AmdtDmMenuState
  3
AcMechDwgViewMgmt
 90
     1024
 91
        1
280
     0
281
     0
  0
CLASS
  1
AMDTAMMENUSTATE
  2
AmdtAmMenuState
  3
DesignerAssemblies
 90
     1024
 91
        1
280
     0
281
     0
  0
CLASS
  1
ACAMPROJECT
  2
AcAmProject
  3
DesignerAssemblies
 90
     1024
 91
        1
280
     0
281
     0
  0
CLASS
  1
ACAMGRCOMPDEF
  2
AcAmGrCompDef
  3
DesignerAssemblies
 90
     1024
 91
        1
280
     0
281
     0
  0
CLASS
  1
ACCMCONTEXT
  2
AcCmContext
  3
DesignerAssemblies
 90
     1024
 91
        1
280
     0
281
     0
  0
CLASS
  1
ACAMCOMPDEF
  2
AcAmCompDef
  3
DesignerAssemblies
 90
     1024
 91
        1
280
     0
281
     0
  0
CLASS
  1
ACAMCOMPDEFMGR
  2
AcAmCompDefMgr
  3
DesignerAssemblies
 90
     1024
 91
        1
280
     0
281
     0
  0
CLASS
  1
AMCONTEXTMGR
  2
AcAmContextMgr
  3
DesignerAssemblies
 90
     1024
 91
        1
280
     0
281
     0
  0
CLASS
  1
ACAMCONTEXTMODELER
  2
AcAmContextModeler
  3
DesignerAssemblies
 90
     1024
 91
        1
280
     0
281
     0
  0
CLASS
  1
CATALOGSTATE
  2
AcAmCatalogState
  3
DesignerAssemblies
 90
     1024
 91
        1
280
     0
281
     0
  0
CLASS
  1
ACAMGRCOMPDEFSET
  2
AcAmGrCompDefSet
  3
DesignerAssemblies
 90
     1024
 91
        1
280
     0
281
     0
  0
CLASS
  1
AMDTBROWSERDBTAB
  2
AmdtBrowserDbTab
  3
McadcomServices
 90
     1024
 91
        1
280
     0
281
     0
  0
CLASS
  1
CBROWSERAPPOBJECT
  2
CBrowserAppObject
  3
McadcomServices
 90
     1024
 91
        3
280
     0
281
     0
  0
CLASS
  1
DM_PLACEHOLDER
  2
AcDmSelsetPlaceholder
  3
AcMechDwgViewMgmt
 90
     1024
 91
        1
280
     0
281
     0
  0
CLASS
  1
TABLESTYLE
  2
AcDbTableStyle
  3
ObjectDBX Classes
 90
     4095
 91
        1
280
     0
281
     0
  0
CLASS
  1
VAACXREFPANELOBJECT
  2
VaAcXREFPanelObject
  3
VAAC_ADDIN
 90
        0
 91
        0
280
     0
281
     0
  0
CLASS
  1
VAACIMAGEINVENTORY
  2
VaAcImageInventory
  3
VAAC_ADDIN
 90
        0
 91
        0
280
     0
281
     0
  0
CLASS
  1
AMDTNOTETEMPLATEDB
  2
AmdtNoteTemplateDB
  3
AcmSymBB|Product Description: AutoCAD Mechanical|Company: Autodesk, Inc.
 90
     1024
 91
        6
280
     0
281
     0
  0
CLASS
  1
ACAMGFILTERDAT
  2
AcAmgFilterDat
  3
"AcadM|Product Description: AutoCAD Mechanical|Company: Autodesk, Inc."
 90
     1024
 91
        0
280
     0
281
     0
  0
CLASS
  1
MATERIAL
  2
AcDbMaterial
  3
ObjectDBX Classes
 90
     1153
 91
        3
280
     0
281
     0
  0
CLASS
  1
VISUALSTYLE
  2
AcDbVisualStyle
  3
ObjectDBX Classes
 90
     4095
 91
       16
280
     0
281
     0
  0
CLASS
  1
ACRFATTGENMGR
  2
AcRfAttGeneralMgr
  3
AcAttribServices
 90
     1024
 91
        0
280
     0
281
     0
  0
CLASS
  1
ACRFOBJATTMGR
  2
AcRfObjAttGroupMgr
  3
AcAttribServices
 90
     1024
 91
        0
280
     0
281
     0
  0
CLASS
  1
ACRFMCADAPIATTHOLDER
  2
AcRfMCADAPIAttHolder
  3
AcAttribServices
 90
     1024
 91
        0
280
     0
281
     0
  0
CLASS
  1
AMDTSYSATTR
  2
AmdtSystemAttribute
  3
AcAttribServices
 90
     1024
 91
        0
280
     0
281
     0
  0
CLASS
  1
ACMTAPERSTANDARDJIS
  2
AcmTaperStdJIS
  3
"Amdt_StdImp|Product Description: AutoCAD Mechanical|Company: Autodesk, Inc."
 90
     1024
 91
        0
280
     0
281
     0
  0
CLASS
  1
CAMSSTRUCTBTNSTATE
  2
StructBtnState
  3
DesignerAssemblies
 90
     1024
 91
        0
280
     0
281
     0
  0
CLASS
  1
SCALE
  2
AcDbScale
  3
ObjectDBX Classes
 90
     1153
 91
       35
280
     0
281
     0
  0
CLASS
  1
MLEADERSTYLE
  2
AcDbMLeaderStyle
  3
ACDB_MLEADERSTYLE_CLASS
 90
     4095
 91
        1
280
     0
281
     0
  0
CLASS
  1
ACMANOOTATIONVIEWSTANDARDJIS
  2
AmdtAnViewStdJIS
  3
"Amdt_StdImp|Product Description: AutoCAD Mechanical|Company: Autodesk, Inc."
 90
     1024
 91
        0
280
     0
281
     0
  0
CLASS
  1
ACMSURFSTANDARDJIS2003
  2
AcmSurfTextStdJIS2003
  3
"Amdt_StdImp|Product Description: AutoCAD Mechanical|Company: Autodesk, Inc."
 90
     1024
 91
        0
280
     0
281
     0
  0
CLASS
  1
CELLSTYLEMAP
  2
AcDbCellStyleMap
  3
ObjectDBX Classes
 90
     1152
 91
        2
280
     0
281
     0
  0
CLASS
  1
ACMFCFSTANDARDJIS98
  2
AcmFCFStdJIS98
  3
"Amdt_StdImp|Product Description: AutoCAD Mechanical|Company: Autodesk, Inc."
 90
     1024
 91
        0
280
     0
281
     0
  0
CLASS
  1
SORTENTSTABLE
  2
AcDbSortentsTable
  3
ObjectDBX Classes
 90
        0
 91
       13
280
     0
281
     0
  0
CLASS
  1
DIMASSOC
  2
AcDbDimAssoc
  3
"AcDbDimAssoc|Product Desc:     AcDim ARX App For Dimension|Company:          Autodesk, Inc.|WEB Address:      www.autodesk.com"
 90
        0
 91
       17
280
     0
281
     0
  0
CLASS
  1
STDPART2D
  2
AmgStdPart
  3
AmgStdPart|Product Description: AutoCAD Mechanical|Company: Autodesk, Inc.
 90
     4095
 91
        0
280
     0
281
     1
  0
CLASS
  1
ACMDATAENTRYPART
  2
AcmDataEntryPart
  3
AcmSymBB|Product Description: AutoCAD Mechanical|Company: Autodesk, Inc.
 90
     1024
 91
        0
280
     0
281
     0
  0
CLASS
  1
ACMPARTREF
  2
AcmPartRef
  3
"AcmSymBB|Product Description: AutoCAD Mechanical|Company: Autodesk, Inc."
 90
     4095
 91
        0
280
     0
281
     1
  0
CLASS
  1
ACDBSTDPARTRES_LINE
  2
AcDbStdPartRes_Line
  3
AmgStdPart|Product Description: AutoCAD Mechanical|Company: Autodesk, Inc.
 90
     1024
 91
        0
280
     0
281
     0
  0
CLASS
  1
ACMBOM
  2
AcmBom
  3
"AcmSymBB|Product Description: AutoCAD Mechanical|Company: Autodesk, Inc."
 90
     1024
 91
        0
280
     0
281
     0
  0
CLASS
  1
AMDTFORMULAUPDATEDISPATCHER
  2
AmdtFormulaUpdateDispatcher
  3
AcMeServices
 90
     1024
 91
        0
280
     0
281
     0
  0
CLASS
  1
ACMBOMROW
  2
AcmBomRow
  3
"AcmSymBB|Product Description: AutoCAD Mechanical|Company: Autodesk, Inc."
 90
     1024
 91
        0
280
     0
281
     0
  0
CLASS
  1
ACMPARTLIST
  2
AcmPartList
  3
"AcmSymBB|Product Description: AutoCAD Mechanical|Company: Autodesk, Inc."
 90
     4095
 91
        0
280
     0
281
     1
  0
CLASS
  1
ACDBLINERES
  2
AcDbLineRes
  3
AcGrefServices
 90
     1024
 91
        0
280
     0
281
     0
  0
CLASS
  1
ACRFINSADJ
  2
AcRfInsAdjuster
  3
AcMeServices
 90
     1024
 91
        0
280
     0
281
     0
  0
CLASS
  1
ACMSTANDARDISO
  2
AcmStandardISO
  3
"Amdt_StdImp|Product Description: AutoCAD Mechanical|Company: Autodesk, Inc."
 90
     1024
 91
        1
280
     0
281
     0
  0
CLASS
  1
AMDTEDGESTANDARDISO13715
  2
AmdtEdgeStdISO13715
  3
"Amdt_StdImp|Product Description: AutoCAD Mechanical|Company: Autodesk, Inc."
 90
     1024
 91
        1
280
     0
281
     0
  0
CLASS
  1
ACMSURFSTANDARDISO2002
  2
AcmSurfTextStdISO2002
  3
"Amdt_StdImp|Product Description: AutoCAD Mechanical|Company: Autodesk, Inc."
 90
     1024
 91
        1
280
     0
281
     0
  0
CLASS
  1
ACMFCFSTANDARDISO
  2
AcmFCFStdISO
  3
"Amdt_StdImp|Product Description: AutoCAD Mechanical|Company: Autodesk, Inc."
 90
     1024
 91
        1
280
     0
281
     0
  0
CLASS
  1
ACMWELDSTANDARDISO
  2
AcmWeldingStdISO
  3
"Amdt_StdImp|Product Description: AutoCAD Mechanical|Company: Autodesk, Inc."
 90
     1024
 91
        1
280
     0
281
     0
  0
CLASS
  1
ACMIDSTANDARDISO
  2
AcmIdStdISO
  3
"Amdt_StdImp|Product Description: AutoCAD Mechanical|Company: Autodesk, Inc."
 90
     1024
 91
        1
280
     0
281
     0
  0
CLASS
  1
ACMDATUMSTANDARDISO
  2
AcmDatumStdISO
  3
"Amdt_StdImp|Product Description: AutoCAD Mechanical|Company: Autodesk, Inc."
 90
     1024
 91
        1
280
     0
281
     0
  0
CLASS
  1
ACMBOMSTANDARDISO
  2
AcmBOMStdISO
  3
"Amdt_StdImp|Product Description: AutoCAD Mechanical|Company: Autodesk, Inc."
 90
     1024
 91
        1
280
     0
281
     0
  0
CLASS
  1
ACMDETAILSTANDARDISO
  2
AmdtDetailSymStdISO
  3
"Amdt_StdImp|Product Description: AutoCAD Mechanical|Company: Autodesk, Inc."
 90
     1024
 91
        1
280
     0
281
     0
  0
CLASS
  1
ACMSECTIONSTANDARDISO2001
  2
AmdtSectionSymStdISO2001
  3
"Amdt_StdImp|Product Description: AutoCAD Mechanical|Company: Autodesk, Inc."
 90
     1024
 91
        1
280
     0
281
     0
  0
CLASS
  1
ACMCENTERLINESTANDARDISO
  2
AmdtCenterLineStdISO
  3
"Amdt_StdImp|Product Description: AutoCAD Mechanical|Company: Autodesk, Inc."
 90
     1024
 91
        1
280
     0
281
     0
  0
CLASS
  1
ACMTHREADLINESTANDARDISO
  2
AmdtThreadLineStdISO
  3
"Amdt_StdImp|Product Description: AutoCAD Mechanical|Company: Autodesk, Inc."
 90
     1024
 91
        1
280
     0
281
     0
  0
CLASS
  1
ACMNOTESTANDARDISO
  2
AmdtNoteStdISO
  3
"Amdt_StdImp|Product Description: AutoCAD Mechanical|Company: Autodesk, Inc."
 90
     1024
 91
        1
280
     0
281
     0
  0
CLASS
  1
ACMTAPERSTANDARDISO
  2
AcmTaperStdISO
  3
"Amdt_StdImp|Product Description: AutoCAD Mechanical|Company: Autodesk, Inc."
 90
     1024
 91
        1
280
     0
281
     0
  0
CLASS
  1
ACMANOOTATIONVIEWSTANDARDISO
  2
AmdtAnViewStdISO
  3
"Amdt_StdImp|Product Description: AutoCAD Mechanical|Company: Autodesk, Inc."
 90
     1024
 91
        1
280
     0
281
     0
  0
CLASS
  1
ACAMGHOLECHARTSTDISO
  2
AcAmgHoleChartStdISO
  3
AmgDim|Product Description: AutoCAD Mechanical|Company: Autodesk, Inc.
 90
     1024
 91
        1
280
     0
281
     0
  0
CLASS
  1
EXACXREFPANELOBJECT
  2
ExAcXREFPanelObject
  3
EXAC_ESW
 90
     1025
 91
        0
280
     0
281
     0
  0
CLASS
  1
NPOCOLLECTION
  2
AcDbImpNonPersistentObjectsCollection
  3
ObjectDBX Classes
 90
     1153
 91
        0
280
     0
281
     0
  0
CLASS
  1
ACDBSTDPARTRES_ARC
  2
AcDbStdPartRes_Arc
  3
AmgStdPart|Product Description: AutoCAD Mechanical|Company: Autodesk, Inc.
 90
     1024
 91
        0
280
     0
281
     0
  0
CLASS
  1
AMDTNOTE
  2
AmdtNote
  3
"AcmSymBB|Product Description: AutoCAD Mechanical|Company: Autodesk, Inc."
 90
     4095
 91
        0
280
     0
281
     1
  0
CLASS
  1
PLOTSETTINGS
  2
AcDbPlotSettings
  3
ObjectDBX Classes
 90
        0
 91
        1
280
     0
281
     0
  0
CLASS
  1
ACMSTANDARDANSI
  2
AcmStandardANSI
  3
"Amdt_StdImp|Product Description: AutoCAD Mechanical|Company: Autodesk, Inc."
 90
     1024
 91
        0
280
     0
281
     0
  0
CLASS
  1
ACMSURFSTANDARDANSI
  2
AcmSurfTextStdANSI
  3
"Amdt_StdImp|Product Description: AutoCAD Mechanical|Company: Autodesk, Inc."
 90
     1024
 91
        0
280
     0
281
     0
  0
CLASS
  1
ACMFCFSTANDARDANSI
  2
AcmFCFStdANSI
  3
"Amdt_StdImp|Product Description: AutoCAD Mechanical|Company: Autodesk, Inc."
 90
     1024
 91
        0
280
     0
281
     0
  0
CLASS
  1
ACMWELDSTANDARDANSI
  2
AcmWeldingStdANSI
  3
"Amdt_StdImp|Product Description: AutoCAD Mechanical|Company: Autodesk, Inc."
 90
     1024
 91
        0
280
     0
281
     0
  0
CLASS
  1
ACMIDSTANDARDANSI
  2
AcmIdStdANSI
  3
"Amdt_StdImp|Product Description: AutoCAD Mechanical|Company: Autodesk, Inc."
 90
     1024
 91
        0
280
     0
281
     0
  0
CLASS
  1
ACMDATUMSTANDARDANSI
  2
AcmDatumStdANSI
  3
"Amdt_StdImp|Product Description: AutoCAD Mechanical|Company: Autodesk, Inc."
 90
     1024
 91
        0
280
     0
281
     0
  0
CLASS
  1
ACMBOMSTANDARDANSI
  2
AcmBOMStdANSI
  3
"Amdt_StdImp|Product Description: AutoCAD Mechanical|Company: Autodesk, Inc."
 90
     1024
 91
        0
280
     0
281
     0
  0
CLASS
  1
ACMDETAILSTANDARDANSI
  2
AmdtDetailSymStdANSI
  3
"Amdt_StdImp|Product Description: AutoCAD Mechanical|Company: Autodesk, Inc."
 90
     1024
 91
        0
280
     0
281
     0
  0
CLASS
  1
ACMSECTIONSTANDARDANSI
  2
AmdtSectionSymStdANSI
  3
"Amdt_StdImp|Product Description: AutoCAD Mechanical|Company: Autodesk, Inc."
 90
     1024
 91
        0
280
     0
281
     0
  0
CLASS
  1
ACMCENTERLINESTANDARDANSI
  2
AmdtCenterLineStdANSI
  3
"Amdt_StdImp|Product Description: AutoCAD Mechanical|Company: Autodesk, Inc."
 90
     1024
 91
        0
280
     0
281
     0
  0
CLASS
  1
ACMTHREADLINESTANDARDANSI
  2
AmdtThreadLineStdANSI
  3
"Amdt_StdImp|Product Description: AutoCAD Mechanical|Company: Autodesk, Inc."
 90
     1024
 91
        0
280
     0
281
     0
  0
CLASS
  1
ACMNOTESTANDARDANSI
  2
AmdtNoteStdANSI
  3
"Amdt_StdImp|Product Description: AutoCAD Mechanical|Company: Autodesk, Inc."
 90
     1024
 91
        0
280
     0
281
     0
  0
CLASS
  1
ACMTAPERSTANDARDANSI
  2
AcmTaperStdANSI
  3
"Amdt_StdImp|Product Description: AutoCAD Mechanical|Company: Autodesk, Inc."
 90
     1024
 91
        0
280
     0
281
     0
  0
CLASS
  1
ACMANOOTATIONVIEWSTANDARDANSI
  2
AmdtAnViewStdANSI
  3
"Amdt_StdImp|Product Description: AutoCAD Mechanical|Company: Autodesk, Inc."
 90
     1024
 91
        0
280
     0
281
     0
  0
CLASS
  1
ACAMGHOLECHARTSTDANSI
  2
AcAmgHoleChartStdANSI
  3
AmgDim|Product Description: AutoCAD Mechanical|Company: Autodesk, Inc.
 90
     1024
 91
        0
280
     0
281
     0
  0
CLASS
  1
ACMSTANDARDBSI
  2
AcmStandardBSI
  3
"Amdt_StdImp|Product Description: AutoCAD Mechanical|Company: Autodesk, Inc."
 90
     1024
 91
        0
280
     0
281
     0
  0
CLASS
  1
ACMSURFSTANDARDBSI2002
  2
AcmSurfTextStdBSI2002
  3
"Amdt_StdImp|Product Description: AutoCAD Mechanical|Company: Autodesk, Inc."
 90
     1024
 91
        0
280
     0
281
     0
  0
CLASS
  1
ACMFCFSTANDARDBSI
  2
AcmFCFStdBSI
  3
"Amdt_StdImp|Product Description: AutoCAD Mechanical|Company: Autodesk, Inc."
 90
     1024
 91
        0
280
     0
281
     0
  0
CLASS
  1
ACMWELDSTANDARDBSI
  2
AcmWeldingStdBSI
  3
"Amdt_StdImp|Product Description: AutoCAD Mechanical|Company: Autodesk, Inc."
 90
     1024
 91
        0
280
     0
281
     0
  0
CLASS
  1
ACMIDSTANDARDBSI
  2
AcmIdStdBSI
  3
"Amdt_StdImp|Product Description: AutoCAD Mechanical|Company: Autodesk, Inc."
 90
     1024
 91
        0
280
     0
281
     0
  0
CLASS
  1
ACMDATUMSTANDARDBSI
  2
AcmDatumStdBSI
  3
"Amdt_StdImp|Product Description: AutoCAD Mechanical|Company: Autodesk, Inc."
 90
     1024
 91
        0
280
     0
281
     0
  0
CLASS
  1
ACMBOMSTANDARDBSI
  2
AcmBOMStdBSI
  3
"Amdt_StdImp|Product Description: AutoCAD Mechanical|Company: Autodesk, Inc."
 90
     1024
 91
        0
280
     0
281
     0
  0
CLASS
  1
ACMDETAILSTANDARDBSI
  2
AmdtDetailSymStdBSI
  3
"Amdt_StdImp|Product Description: AutoCAD Mechanical|Company: Autodesk, Inc."
 90
     1024
 91
        0
280
     0
281
     0
  0
CLASS
  1
ACMSECTIONSTANDARDBSI2001
  2
AmdtSectionSymStdBSI2001
  3
"Amdt_StdImp|Product Description: AutoCAD Mechanical|Company: Autodesk, Inc."
 90
     1024
 91
        0
280
     0
281
     0
  0
CLASS
  1
ACMCENTERLINESTANDARDBSI
  2
AmdtCenterLineStdBSI
  3
"Amdt_StdImp|Product Description: AutoCAD Mechanical|Company: Autodesk, Inc."
 90
     1024
 91
        0
280
     0
281
     0
  0
CLASS
  1
ACMTHREADLINESTANDARDBSI
  2
AmdtThreadLineStdBSI
  3
"Amdt_StdImp|Product Description: AutoCAD Mechanical|Company: Autodesk, Inc."
 90
     1024
 91
        0
280
     0
281
     0
  0
CLASS
  1
ACMNOTESTANDARDBSI
  2
AmdtNoteStdBSI
  3
"Amdt_StdImp|Product Description: AutoCAD Mechanical|Company: Autodesk, Inc."
 90
     1024
 91
        0
280
     0
281
     0
  0
CLASS
  1
ACMTAPERSTANDARDBSI
  2
AcmTaperStdBSI
  3
"Amdt_StdImp|Product Description: AutoCAD Mechanical|Company: Autodesk, Inc."
 90
     1024
 91
        0
280
     0
281
     0
  0
CLASS
  1
ACMANOOTATIONVIEWSTANDARDBSI
  2
AmdtAnViewStdBSI
  3
"Amdt_StdImp|Product Description: AutoCAD Mechanical|Company: Autodesk, Inc."
 90
     1024
 91
        0
280
     0
281
     0
  0
CLASS
  1
ACAMGHOLECHARTSTDBSI
  2
AcAmgHoleChartStdBSI
  3
AmgDim|Product Description: AutoCAD Mechanical|Company: Autodesk, Inc.
 90
     1024
 91
        0
280
     0
281
     0
  0
CLASS
  1
AMDTEDGESTANDARDJIS
  2
AmdtEdgeStdJIS
  3
"Amdt_StdImp|Product Description: AutoCAD Mechanical|Company: Autodesk, Inc."
 90
     1024
 91
        0
280
     0
281
     0
  0
CLASS
  1
ACMSURFSYM
  2
AcmSurfaceTexture
  3
"AcmSymBB|Product Description: AutoCAD Mechanical|Company: Autodesk, Inc."
 90
     4095
 91
        0
280
     0
281
     1
  0
CLASS
  1
ACDBDIMENSIONRES
  2
AcDbDimensionRes
  3
AcmSymBB|Product Description: AutoCAD Mechanical|Company: Autodesk, Inc.
 90
     1024
 91
        0
280
     0
281
     0
  0
CLASS
  1
ACDBCIRCARCRES
  2
AcDbCircArcRes
  3
AcGrefServices
 90
     1024
 91
        0
280
     0
281
     0
  0
CLASS
  1
ACMDIMBREAKPERSREACTOR
  2
AcmDimBreakPersReactor
  3
AmgDim|Product Description: AutoCAD Mechanical|Company: Autodesk, Inc.
 90
     4095
 91
        0
280
     0
281
     0
  0
CLASS
  1
ACDBOPPOLYLINERES
  2
AcDbOpPolylineRes
  3
AcGrefServices
 90
     1024
 91
        0
280
     0
281
     0
  0
CLASS
  1
AMDTACMWBLOCKBOMENTITY
  2
AmdtAcmWblockBomEntity
  3
"AcmSymBB|Product Description: AutoCAD Mechanical|Company: Autodesk, Inc."
 90
     4095
 91
        0
280
     0
281
     1
  0
CLASS
  1
ACDB_BLKREFOBJECTCONTEXTDATA_CLASS
  2
AcDbBlkRefObjectContextData
  3
ObjectDBX Classes
 90
     1153
 91
        0
280
     0
281
     0
  0
CLASS
  1
ACMPICKOBJ
  2
AcmPickEnt
  3
"AcmSymBB|Product Description: AutoCAD Mechanical|Company: Autodesk, Inc."
 90
     1024
 91
        0
280
     0
281
     1
  0
CLASS
  1
ACDBELLIPSERES
  2
AcDbEllipseRes
  3
AcGrefServices
 90
     1024
 91
        0
280
     0
281
     0
  0
CLASS
  1
ACMBALLOON
  2
AcmBalloon
  3
"AcmSymBB|Product Description: AutoCAD Mechanical|Company: Autodesk, Inc."
 90
     4095
 91
        0
280
     0
281
     1
  0
CLASS
  1
BREAKDATA
  2
AcDbBreakData
  3
ObjectDBX Classes
 90
     1024
 91
        0
280
     0
281
     0
  0
CLASS
  1
ACMFCFRAME
  2
AcmFCF
  3
"AcmSymBB|Product Description: AutoCAD Mechanical|Company: Autodesk, Inc."
 90
     4095
 91
        0
280
     0
281
     1
  0
CLASS
  1
ACMDATUMID
  2
AcmDatumId
  3
"AcmSymBB|Product Description: AutoCAD Mechanical|Company: Autodesk, Inc."
 90
     4095
 91
        0
280
     0
281
     1
  0
CLASS
  1
ACMWELDSYM
  2
AcmWelding
  3
"AcmSymBB|Product Description: AutoCAD Mechanical|Company: Autodesk, Inc."
 90
     4095
 91
        0
280
     0
281
     1
  0
ENDSEC
  0
SECTION
  2
TABLES
  0
TABLE
  2
VPORT
  5
8
330
0
100
AcDbSymbolTable
 70
     1
  0
VPORT
  5
27A
330
8
100
AcDbSymbolTableRecord
100
AcDbViewportTableRecord
  2
*Active
 70
     0
 10
0.0
 20
0.0
 11
1.0
 21
1.0
 12
1090.534979038333
 22
1112.583051694751
 13
0.0
 23
0.0
 14
12.5
 24
12.5
 15
50.0
 25
50.0
 16
0.0
 26
0.0
 36
1.0
 17
0.0
 27
0.0
 37
0.0
 40
701.5937798915249
 41
1.571428571428571
 42
50.0
 43
0.0
 44
0.0
 50
0.0
 51
0.0
 71
    16
 72
 20000
 73
     1
 74
     3
 75
     0
 76
     0
 77
     0
 78
     0
281
     0
 65
     0
110
0.0
120
0.0
130
0.0
111
1.0
121
0.0
131
0.0
112
0.0
122
1.0
132
0.0
 79
     0
146
0.0
348
285
 60
     3
 61
     5
292
     1
282
     0
141
0.0
142
0.0
 63
   250
421
  3355443
  0
ENDTAB
  0
TABLE
  2
LTYPE
  5
5
330
0
100
AcDbSymbolTable
 70
    22
  0
LTYPE
  5
14
330
5
100
AcDbSymbolTableRecord
100
AcDbLinetypeTableRecord
  2
ByBlock
 70
     0
  3

 72
    65
 73
     0
 40
0.0
  0
LTYPE
  5
15
330
5
100
AcDbSymbolTableRecord
100
AcDbLinetypeTableRecord
  2
ByLayer
 70
     0
  3

 72
    65
 73
     0
 40
0.0
  0
LTYPE
  5
16
330
5
100
AcDbSymbolTableRecord
100
AcDbLinetypeTableRecord
  2
Continuous
 70
     0
  3
Solid line
 72
    65
 73
     0
 40
0.0
  0
LTYPE
  5
4D
330
5
100
AcDbSymbolTableRecord
100
AcDbLinetypeTableRecord
  2
AM_ISO02W050
 70
     0
  3
__ __ __ __ __ __ __ __ __ __ __ __ __ __ __
 72
    65
 73
     2
 40
7.5
 49
6.0
 74
     0
 49
-1.5
 74
     0
  0
LTYPE
  5
4E
330
5
100
AcDbSymbolTableRecord
100
AcDbLinetypeTableRecord
  2
AM_ISO08W050
 70
     0
  3
____ . ____ . ____ . ____ . ____ . ____ . ____
 72
    65
 73
     4
 40
18.0
 49
12.0
 74
     0
 49
-1.5
 74
     0
 49
3.0
 74
     0
 49
-1.5
 74
     0
  0
LTYPE
  5
4F
330
5
100
AcDbSymbolTableRecord
100
AcDbLinetypeTableRecord
  2
AM_ISO09W050
 70
     0
  3
_____ . . _____ . . _____ . . ____ .. ____
 72
    65
 73
     6
 40
22.5
 49
12.0
 74
     0
 49
-1.5
 74
     0
 49
3.0
 74
     0
 49
-1.5
 74
     0
 49
3.0
 74
     0
 49
-1.5
 74
     0
  0
LTYPE
  5
50
330
5
100
AcDbSymbolTableRecord
100
AcDbLinetypeTableRecord
  2
Amconstr
 70
     0
  3
_______________________
 72
    65
 73
     2
 40
9999.0
 49
9999.0
 74
     0
 49
0.0
 74
     0
  0
LTYPE
  5
51
330
5
100
AcDbSymbolTableRecord
100
AcDbLinetypeTableRecord
  2
AM_ISO08W050x2
 70
     0
  3
__ . __ . __ . __ . __ . __
 72
    65
 73
     4
 40
9.0
 49
6.0
 74
     0
 49
-0.75
 74
     0
 49
1.5
 74
     0
 49
-0.75
 74
     0
  0
LTYPE
  5
52
330
5
100
AcDbSymbolTableRecord
100
AcDbLinetypeTableRecord
  2
AM_ISO02W050x2
 70
     0
  3
 _ _ _ _ _ _ _ _ _ _ _ _
 72
    65
 73
     2
 40
3.75
 49
3.0
 74
     0
 49
-0.75
 74
     0
  0
LTYPE
  5
55
330
5
100
AcDbSymbolTableRecord
100
AcDbLinetypeTableRecord
  2
Amzigzag
 70
     0
  3
/\/-/\/-/\/-/\/-/\/-/\/
 72
    65
 73
     2
 40
11.0001
 49
0.0001
 74
     4
 75
   136
340
23D
 46
0.04
 50
0.0
 44
0.0
 45
0.0
 49
-11.0
 74
     0
  0
LTYPE
  5
65
330
5
100
AcDbSymbolTableRecord
100
AcDbLinetypeTableRecord
  2
CENTER
 70
     0
  3
__ . __
 72
    65
 73
     4
 40
7.0
 49
4.0
 74
     0
 49
-1.0
 74
     0
 49
1.0
 74
     0
 49
-1.0
 74
     0
  0
LTYPE
  5
E0
330
5
100
AcDbSymbolTableRecord
100
AcDbLinetypeTableRecord
  2
HIDDEN
 70
     0
  3
Hidden __ __ __ __ __ __ __ __ __ __ __ __ __ _
 72
    65
 73
     2
 40
9.524999999999996
 49
6.349999999999998
 74
     0
 49
-3.174999999999998
 74
     0
  0
LTYPE
  5
E1
330
5
100
AcDbSymbolTableRecord
100
AcDbLinetypeTableRecord
  2
PHANTOM2
 70
     0
  3
Phantom (.5x) ___ _ _ ___ _ _ ___ _ _ ___ _ _
 72
    65
 73
     6
 40
31.75
 49
15.875
 74
     0
 49
-3.174999999999998
 74
     0
 49
3.174999999999998
 74
     0
 49
-3.174999999999998
 74
     0
 49
3.174999999999998
 74
     0
 49
-3.174999999999998
 74
     0
  0
LTYPE
  5
5A2
330
5
100
AcDbSymbolTableRecord
100
AcDbLinetypeTableRecord
  2
ACJISWELD
 70
     0
  3
_ _ _ _ _
 72
    65
 73
     2
 40
2.0
 49
2.0
 74
     0
 49
-1.0
 74
     0
  0
LTYPE
  5
955A
330
5
100
AcDbSymbolTableRecord
100
AcDbLinetypeTableRecord
  2
ACISOWELD
 70
     0
  3
_ _ _ _ _
 72
    65
 73
     2
 40
2.0
 49
2.0
 74
     0
 49
-1.0
 74
     0
  0
LTYPE
  5
955B
330
5
100
AcDbSymbolTableRecord
100
AcDbLinetypeTableRecord
  2
ACISOTGB
 70
     0
  3
__ . . __ . .
 72
    65
 73
     6
 40
9.0
 49
4.0
 74
     0
 49
-1.0
 74
     0
 49
1.0
 74
     0
 49
-1.0
 74
     0
 49
1.0
 74
     0
 49
-1.0
 74
     0
  0
LTYPE
  5
955C
330
5
100
AcDbSymbolTableRecord
100
AcDbLinetypeTableRecord
  2
ACISOTGL
 70
     0
  3
_ _ _ _ _
 72
    65
 73
     2
 40
3.0
 49
2.0
 74
     0
 49
-1.0
 74
     0
  0
ENDTAB
  0
TABLE
  2
LAYER
  5
2
102
{ACAD_XDICTIONARY
360
BF
102
}
330
0
100
AcDbSymbolTable
 70
    11
  0
LAYER
  5
10
102
{ACAD_XDICTIONARY
360
29F7
102
}
330
2
100
AcDbSymbolTableRecord
100
AcDbLayerTableRecord
  2
0
 70
     0
 62
     7
  6
Continuous
370
    -3
390
F
347
27E
  0
LAYER
  5
81
102
{ACAD_XDICTIONARY
360
29F9
102
}
330
2
100
AcDbSymbolTableRecord
100
AcDbLayerTableRecord
  2
AM_0 外形線1
 70
     0
 62
     7
  6
Continuous
370
    25
390
F
347
27E
  0
LAYER
  5
427
330
2
100
AcDbSymbolTableRecord
100
AcDbLayerTableRecord
  2
Defpoints
 70
     0
 62
     7
  6
Continuous
290
     0
370
    -3
390
F
347
27E
  0
LAYER
  5
2D5B
102
{ACAD_XDICTIONARY
360
2D5C
102
}
330
2
100
AcDbSymbolTableRecord
100
AcDbLayerTableRecord
  2
AM_6 文字
 70
     0
 62
     2
  6
Continuous
370
    13
390
F
347
27E
1001
AcAecLayerStandard
1000

1000

  0
LAYER
  5
2D5D
330
2
100
AcDbSymbolTableRecord
100
AcDbLayerTableRecord
  2
AM_5 寸法線
 70
     0
 62
     3
  6
Continuous
370
    13
390
F
347
27E
1001
AcAecLayerStandard
1000

1000

  0
LAYER
  5
2D5E
330
2
100
AcDbSymbolTableRecord
100
AcDbLayerTableRecord
  2
AM_4 細線
 70
     0
 62
     4
  6
Continuous
370
    13
390
F
347
27E
1001
AcAecLayerStandard
1000

1000

  0
LAYER
  5
2D5F
330
2
100
AcDbSymbolTableRecord
100
AcDbLayerTableRecord
  2
AM_7 中心線
 70
     0
 62
     1
  6
AM_ISO08W050
370
    13
390
F
347
27E
1001
AcAecLayerStandard
1000

1000

  0
LAYER
  5
2D60
330
2
100
AcDbSymbolTableRecord
100
AcDbLayerTableRecord
  2
AM_3 隠れ線
 70
     0
 62
     8
  6
ACJISWELD
370
    13
390
F
347
27E
1001
AcAecLayerStandard
1000

1000

  0
LAYER
  5
6E0B
330
2
100
AcDbSymbolTableRecord
100
AcDbLayerTableRecord
  2
AM_8 ハッチング
 70
     0
 62
     1
  6
Continuous
370
    13
390
F
347
27E
1001
AcAecLayerStandard
1000

1000

  0
LAYER
  5
8FF5
330
2
100
AcDbSymbolTableRecord
100
AcDbLayerTableRecord
  2
AM_11 想像線
 70
     0
 62
     5
  6
AM_ISO09W050
370
    13
390
F
347
27E
1001
AcAecLayerStandard
1000

1000

  0
ENDTAB
  0
TABLE
  2
STYLE
  5
3
330
0
100
AcDbSymbolTable
 70
    11
  0
STYLE
  5
11
330
3
100
AcDbSymbolTableRecord
100
AcDbTextStyleTableRecord
  2
STANDARD
 70
     0
 40
0.0
 41
1.0
 50
0.0
 71
     0
 42
25.0
  3
ISOCP.SHX
  4
EXTFONT.SHX
  0
STYLE
  5
23D
330
3
100
AcDbSymbolTableRecord
100
AcDbTextStyleTableRecord
  2

 70
     1
 40
0.0
 41
1.0
 50
0.0
 71
     0
 42
2.5
  3
genltshp.shx
  4

  0
STYLE
  5
5D5
330
3
100
AcDbSymbolTableRecord
100
AcDbTextStyleTableRecord
  2
SEISA
 70
     0
 40
0.0
 41
0.9
 50
0.0
 71
     0
 42
25.0
  3
romans.shx
  4
extfont2.shx
  0
STYLE
  5
954A
330
3
100
AcDbSymbolTableRecord
100
AcDbTextStyleTableRecord
  2
ACISOTS
 70
     0
 40
1.0
 41
1.0
 50
0.0
 71
     0
 42
25.0
  3
isocp.shx
  4
extfont.shx
  0
STYLE
  5
9559
330
3
100
AcDbSymbolTableRecord
100
AcDbTextStyleTableRecord
  2
ACISOGDT
 70
     0
 40
0.0
 41
1.0
 50
0.0
 71
     0
 42
25.0
  3
amgdt.shx
  4

  0
ENDTAB
  0
TABLE
  2
VIEW
  5
6
330
0
100
AcDbSymbolTable
 70
     6
  0
VIEW
  5
91B
330
6
100
AcDbSymbolTableRecord
100
AcDbViewTableRecord
  2
AM_VIEW1
 70
     0
 40
742.4999999999998
 10
717.8109615483021
 20
1113.75000184691
 41
1435.621921182266
 11
0.0
 21
0.0
 31
1.0
 12
0.0
 22
0.0
 32
0.0
 42
50.0
 43
0.0
 44
0.0
 50
0.0
 71
    16
281
     0
 72
     0
 73
     0
  0
VIEW
  5
91C
330
6
100
AcDbSymbolTableRecord
100
AcDbViewTableRecord
  2
AM_VIEW2
 70
     0
 40
742.4999999999998
 10
1382.189040366036
 20
1113.75000184691
 41
1435.621921182266
 11
0.0
 21
0.0
 31
1.0
 12
0.0
 22
0.0
 32
0.0
 42
50.0
 43
0.0
 44
0.0
 50
0.0
 71
    16
281
     0
 72
     0
 73
     0
  0
VIEW
  5
91D
330
6
100
AcDbSymbolTableRecord
100
AcDbViewTableRecord
  2
AM_VIEW3
 70
     0
 40
742.4999999999998
 10
717.8109615483021
 20
371.2500018469103
 41
1435.621921182266
 11
0.0
 21
0.0
 31
1.0
 12
0.0
 22
0.0
 32
0.0
 42
50.0
 43
0.0
 44
0.0
 50
0.0
 71
    16
281
     0
 72
     0
 73
     0
  0
VIEW
  5
91E
330
6
100
AcDbSymbolTableRecord
100
AcDbViewTableRecord
  2
AM_VIEW4
 70
     0
 40
742.4999999999998
 10
1382.189040366036
 20
371.2500018469103
 41
1435.621921182266
 11
0.0
 21
0.0
 31
1.0
 12
0.0
 22
0.0
 32
0.0
 42
50.0
 43
0.0
 44
0.0
 50
0.0
 71
    16
281
     0
 72
     0
 73
     0
  0
VIEW
  5
91F
330
6
100
AcDbSymbolTableRecord
100
AcDbViewTableRecord
  2
AM_VIEW5
 70
     0
 40
742.5000000000001
 10
1050.000000957169
 20
742.5000018469104
 41
1435.621921182266
 11
0.0
 21
0.0
 31
1.0
 12
0.0
 22
0.0
 32
0.0
 42
50.0
 43
0.0
 44
0.0
 50
0.0
 71
    16
281
     0
 72
     0
 73
     0
  0
VIEW
  5
920
330
6
100
AcDbSymbolTableRecord
100
AcDbViewTableRecord
  2
AM_VIEW6
 70
     0
 40
1484.98515
 10
1050.000000957169
 20
742.5000018469102
 41
2871.215129926108
 11
0.0
 21
0.0
 31
1.0
 12
0.0
 22
0.0
 32
0.0
 42
50.0
 43
0.0
 44
0.0
 50
0.0
 71
    16
281
     0
 72
     0
 73
     0
  0
ENDTAB
  0
TABLE
  2
UCS
  5
7
330
0
100
AcDbSymbolTable
 70
     0
  0
ENDTAB
  0
TABLE
  2
APPID
  5
9
330
0
100
AcDbSymbolTable
 70
   396
  0
APPID
  5
12
330
9
100
AcDbSymbolTableRecord
100
AcDbRegAppTableRecord
  2
ACAD
 70
     0
  0
APPID
  5
30
330
9
100
AcDbSymbolTableRecord
100
AcDbRegAppTableRecord
  2
MCAD_NO_VIS
 70
     0
  0
APPID
  5
31
330
9
100
AcDbSymbolTableRecord
100
AcDbRegAppTableRecord
  2
ACAD_TEMP_GRAPHIC
 70
     0
  0
APPID
  5
44
330
9
100
AcDbSymbolTableRecord
100
AcDbRegAppTableRecord
  2
ACATTRIBSERVICES
 70
     0
  0
APPID
  5
F6
330
9
100
AcDbSymbolTableRecord
100
AcDbRegAppTableRecord
  2
AD_DRAW
 70
     0
  0
APPID
  5
114
330
9
100
AcDbSymbolTableRecord
100
AcDbRegAppTableRecord
  2
DESIGNERASSEMBLIES
 70
     0
  0
APPID
  5
118
330
9
100
AcDbSymbolTableRecord
100
AcDbRegAppTableRecord
  2
ACADM_DIM_EDIT
 70
     0
  0
APPID
  5
119
330
9
100
AcDbSymbolTableRecord
100
AcDbRegAppTableRecord
  2
AMDT_DM_ADJ
 70
     0
  0
APPID
  5
1AF
330
9
100
AcDbSymbolTableRecord
100
AcDbRegAppTableRecord
  2
ACAD_DSTYLE_DIMARC_LENGTH_SYMBOL
 70
     0
  0
APPID
  5
1B0
330
9
100
AcDbSymbolTableRecord
100
AcDbRegAppTableRecord
  2
ACAD_DSTYLE_DIMJOGGED_JOGANGLE_SYMBOL
 70
     0
  0
APPID
  5
2D7
330
9
100
AcDbSymbolTableRecord
100
AcDbRegAppTableRecord
  2
ACAD_MLEADERVER
 70
     0
  0
APPID
  5
355
330
9
100
AcDbSymbolTableRecord
100
AcDbRegAppTableRecord
  2
AcadAnnoPO
 70
     0
  0
APPID
  5
428
330
9
100
AcDbSymbolTableRecord
100
AcDbRegAppTableRecord
  2
ACAD_DSTYLE_DIMTEXT_FILL
 70
     0
  0
APPID
  5
429
330
9
100
AcDbSymbolTableRecord
100
AcDbRegAppTableRecord
  2
GENIUS_GENSCREG_15
 70
     0
  0
APPID
  5
42A
330
9
100
AcDbSymbolTableRecord
100
AcDbRegAppTableRecord
  2
GENIUS_GENOBJ-N-SDF_13
 70
     0
  0
APPID
  5
42B
330
9
100
AcDbSymbolTableRecord
100
AcDbRegAppTableRecord
  2
GENIUS_GENODEF_13
 70
     0
  0
APPID
  5
42C
330
9
100
AcDbSymbolTableRecord
100
AcDbRegAppTableRecord
  2
ACAD_EXEMPT_FROM_CAD_STANDARDS
 70
     0
  0
APPID
  5
42D
330
9
100
AcDbSymbolTableRecord
100
AcDbRegAppTableRecord
  2
AcAecLayerStandard
 70
     0
  0
APPID
  5
42E
330
9
100
AcDbSymbolTableRecord
100
AcDbRegAppTableRecord
  2
GENIUS_GENOBJ-N-CEN_13
 70
     0
  0
APPID
  5
42F
330
9
100
AcDbSymbolTableRecord
100
AcDbRegAppTableRecord
  2
GENIUS_GENCEN_19
 70
     0
  0
APPID
  5
430
330
9
100
AcDbSymbolTableRecord
100
AcDbRegAppTableRecord
  2
ACAD_DSTYLE_DIMINSPECT
 70
     0
  0
APPID
  5
431
330
9
100
AcDbSymbolTableRecord
100
AcDbRegAppTableRecord
  2
GENIUS_AMGTXT_16
 70
     0
  0
APPID
  5
432
330
9
100
AcDbSymbolTableRecord
100
AcDbRegAppTableRecord
  2
GENIUS_GENFIL_13
 70
     0
  0
APPID
  5
433
330
9
100
AcDbSymbolTableRecord
100
AcDbRegAppTableRecord
  2
GENIUS_GENOLIS_13
 70
     0
  0
APPID
  5
434
330
9
100
AcDbSymbolTableRecord
100
AcDbRegAppTableRecord
  2
GENIUS_GENOBJ-N-CHA_13
 70
     0
  0
APPID
  5
435
330
9
100
AcDbSymbolTableRecord
100
AcDbRegAppTableRecord
  2
GENIUS_GENOENT_13
 70
     0
  0
APPID
  5
436
330
9
100
AcDbSymbolTableRecord
100
AcDbRegAppTableRecord
  2
GENIUS_GENOREF_13
 70
     0
  0
APPID
  5
437
330
9
100
AcDbSymbolTableRecord
100
AcDbRegAppTableRecord
  2
GENIUS_GENOBJ-N-FIL_13
 70
     0
  0
APPID
  5
438
330
9
100
AcDbSymbolTableRecord
100
AcDbRegAppTableRecord
  2
GEVID1208829536
 70
     0
  0
APPID
  5
439
330
9
100
AcDbSymbolTableRecord
100
AcDbRegAppTableRecord
  2
GEVDC
 70
     0
  0
APPID
  5
43A
330
9
100
AcDbSymbolTableRecord
100
AcDbRegAppTableRecord
  2
GEVRADREF
 70
     0
  0
APPID
  5
43B
330
9
100
AcDbSymbolTableRecord
100
AcDbRegAppTableRecord
  2
GENIUS_GENBH_13
 70
     0
  0
APPID
  5
43C
330
9
100
AcDbSymbolTableRecord
100
AcDbRegAppTableRecord
  2
GENIUS_GENOBJ-NBEHI-BHF_13
 70
     0
  0
APPID
  5
43D
330
9
100
AcDbSymbolTableRecord
100
AcDbRegAppTableRecord
  2
GENIUS_GENOBJ-NBEHI-BHB_13
 70
     0
  0
APPID
  5
43E
330
9
100
AcDbSymbolTableRecord
100
AcDbRegAppTableRecord
  2
GEVID1208829537
 70
     0
  0
APPID
  5
43F
330
9
100
AcDbSymbolTableRecord
100
AcDbRegAppTableRecord
  2
ACAD_DSTYLE_DIMJAG
 70
     0
  0
APPID
  5
440
330
9
100
AcDbSymbolTableRecord
100
AcDbRegAppTableRecord
  2
ACAD_DSTYLE_DIMTALN
 70
     0
  0
APPID
  5
441
330
9
100
AcDbSymbolTableRecord
100
AcDbRegAppTableRecord
  2
AMG_2DHIDE
 70
     0
  0
APPID
  5
442
330
9
100
AcDbSymbolTableRecord
100
AcDbRegAppTableRecord
  2
AMG_2DSTRUCT_BTR
 70
     0
  0
APPID
  5
443
330
9
100
AcDbSymbolTableRecord
100
AcDbRegAppTableRecord
  2
GEVID1208845772
 70
     0
  0
APPID
  5
444
330
9
100
AcDbSymbolTableRecord
100
AcDbRegAppTableRecord
  2
GEVID1208845773
 70
     0
  0
APPID
  5
445
330
9
100
AcDbSymbolTableRecord
100
AcDbRegAppTableRecord
  2
ACADM_2DVIEW_IGN_NOTIFY
 70
     0
  0
APPID
  5
446
330
9
100
AcDbSymbolTableRecord
100
AcDbRegAppTableRecord
  2
GEVID1208845774
 70
     0
  0
APPID
  5
447
330
9
100
AcDbSymbolTableRecord
100
AcDbRegAppTableRecord
  2
GEVID1208845775
 70
     0
  0
APPID
  5
448
330
9
100
AcDbSymbolTableRecord
100
AcDbRegAppTableRecord
  2
GEVID1208845776
 70
     0
  0
APPID
  5
449
330
9
100
AcDbSymbolTableRecord
100
AcDbRegAppTableRecord
  2
GEVID1208845777
 70
     0
  0
APPID
  5
44A
330
9
100
AcDbSymbolTableRecord
100
AcDbRegAppTableRecord
  2
GEVCON
 70
     0
  0
APPID
  5
44B
330
9
100
AcDbSymbolTableRecord
100
AcDbRegAppTableRecord
  2
GENIUS_GENOBJ-F-SCPASSM_13
 70
     0
  0
APPID
  5
44C
330
9
100
AcDbSymbolTableRecord
100
AcDbRegAppTableRecord
  2
GEVID1208845778
 70
     0
  0
APPID
  5
44D
330
9
100
AcDbSymbolTableRecord
100
AcDbRegAppTableRecord
  2
GEVID1208845779
 70
     0
  0
APPID
  5
44E
330
9
100
AcDbSymbolTableRecord
100
AcDbRegAppTableRecord
  2
GEVID1208845780
 70
     0
  0
APPID
  5
44F
330
9
100
AcDbSymbolTableRecord
100
AcDbRegAppTableRecord
  2
GEVID1208845781
 70
     0
  0
APPID
  5
450
330
9
100
AcDbSymbolTableRecord
100
AcDbRegAppTableRecord
  2
GEVID1208845782
 70
     0
  0
APPID
  5
451
330
9
100
AcDbSymbolTableRecord
100
AcDbRegAppTableRecord
  2
GEVID1208845783
 70
     0
  0
APPID
  5
452
330
9
100
AcDbSymbolTableRecord
100
AcDbRegAppTableRecord
  2
GEVID1208845784
 70
     0
  0
APPID
  5
453
330
9
100
AcDbSymbolTableRecord
100
AcDbRegAppTableRecord
  2
GEVID1208845785
 70
     0
  0
APPID
  5
454
330
9
100
AcDbSymbolTableRecord
100
AcDbRegAppTableRecord
  2
GEVID1208845787
 70
     0
  0
APPID
  5
455
330
9
100
AcDbSymbolTableRecord
100
AcDbRegAppTableRecord
  2
GEVID1208845788
 70
     0
  0
APPID
  5
456
330
9
100
AcDbSymbolTableRecord
100
AcDbRegAppTableRecord
  2
GEVID1208845789
 70
     0
  0
APPID
  5
457
330
9
100
AcDbSymbolTableRecord
100
AcDbRegAppTableRecord
  2
GEVID1208845790
 70
     0
  0
APPID
  5
458
330
9
100
AcDbSymbolTableRecord
100
AcDbRegAppTableRecord
  2
GEVID1208845791
 70
     0
  0
APPID
  5
459
330
9
100
AcDbSymbolTableRecord
100
AcDbRegAppTableRecord
  2
GEVID1208845792
 70
     0
  0
APPID
  5
45A
330
9
100
AcDbSymbolTableRecord
100
AcDbRegAppTableRecord
  2
GEVID1208845793
 70
     0
  0
APPID
  5
45B
330
9
100
AcDbSymbolTableRecord
100
AcDbRegAppTableRecord
  2
GEVID1208845794
 70
     0
  0
APPID
  5
45C
330
9
100
AcDbSymbolTableRecord
100
AcDbRegAppTableRecord
  2
GEVID1208845795
 70
     0
  0
APPID
  5
45D
330
9
100
AcDbSymbolTableRecord
100
AcDbRegAppTableRecord
  2
GEVID1208845796
 70
     0
  0
APPID
  5
45E
330
9
100
AcDbSymbolTableRecord
100
AcDbRegAppTableRecord
  2
GEVID1208845797
 70
     0
  0
APPID
  5
45F
330
9
100
AcDbSymbolTableRecord
100
AcDbRegAppTableRecord
  2
GEVID1208845798
 70
     0
  0
APPID
  5
460
330
9
100
AcDbSymbolTableRecord
100
AcDbRegAppTableRecord
  2
GEVID1208845799
 70
     0
  0
APPID
  5
461
330
9
100
AcDbSymbolTableRecord
100
AcDbRegAppTableRecord
  2
GEVID1208845800
 70
     0
  0
APPID
  5
462
330
9
100
AcDbSymbolTableRecord
100
AcDbRegAppTableRecord
  2
GEVID1208845801
 70
     0
  0
APPID
  5
463
330
9
100
AcDbSymbolTableRecord
100
AcDbRegAppTableRecord
  2
GEVID1208845802
 70
     0
  0
APPID
  5
464
330
9
100
AcDbSymbolTableRecord
100
AcDbRegAppTableRecord
  2
GENIUS_GENOBJ-N-DIM_13
 70
     0
  0
APPID
  5
465
330
9
100
AcDbSymbolTableRecord
100
AcDbRegAppTableRecord
  2
GENIUS_GENDIM_13
 70
     0
  0
APPID
  5
466
330
9
100
AcDbSymbolTableRecord
100
AcDbRegAppTableRecord
  2
GENIUS_GENDIMSH_14
 70
     0
  0
APPID
  5
467
330
9
100
AcDbSymbolTableRecord
100
AcDbRegAppTableRecord
  2
GEVID1208845803
 70
     0
  0
APPID
  5
468
330
9
100
AcDbSymbolTableRecord
100
AcDbRegAppTableRecord
  2
GEVID1208845804
 70
     0
  0
APPID
  5
469
330
9
100
AcDbSymbolTableRecord
100
AcDbRegAppTableRecord
  2
GEVID1208845805
 70
     0
  0
APPID
  5
46A
330
9
100
AcDbSymbolTableRecord
100
AcDbRegAppTableRecord
  2
GEVID1208845806
 70
     0
  0
APPID
  5
46B
330
9
100
AcDbSymbolTableRecord
100
AcDbRegAppTableRecord
  2
GEVID1208845807
 70
     0
  0
APPID
  5
46C
330
9
100
AcDbSymbolTableRecord
100
AcDbRegAppTableRecord
  2
GEVID1208845808
 70
     0
  0
APPID
  5
46D
330
9
100
AcDbSymbolTableRecord
100
AcDbRegAppTableRecord
  2
GEVID1208845809
 70
     0
  0
APPID
  5
46E
330
9
100
AcDbSymbolTableRecord
100
AcDbRegAppTableRecord
  2
GEVID1208845810
 70
     0
  0
APPID
  5
46F
330
9
100
AcDbSymbolTableRecord
100
AcDbRegAppTableRecord
  2
GEVID1208845811
 70
     0
  0
APPID
  5
470
330
9
100
AcDbSymbolTableRecord
100
AcDbRegAppTableRecord
  2
GEVID1208845813
 70
     0
  0
APPID
  5
471
330
9
100
AcDbSymbolTableRecord
100
AcDbRegAppTableRecord
  2
GEVID1208845814
 70
     0
  0
APPID
  5
472
330
9
100
AcDbSymbolTableRecord
100
AcDbRegAppTableRecord
  2
GEVID1208845815
 70
     0
  0
APPID
  5
473
330
9
100
AcDbSymbolTableRecord
100
AcDbRegAppTableRecord
  2
GEVID1208845816
 70
     0
  0
APPID
  5
474
330
9
100
AcDbSymbolTableRecord
100
AcDbRegAppTableRecord
  2
GEVID1208845817
 70
     0
  0
APPID
  5
475
330
9
100
AcDbSymbolTableRecord
100
AcDbRegAppTableRecord
  2
GEVID1208845818
 70
     0
  0
APPID
  5
476
330
9
100
AcDbSymbolTableRecord
100
AcDbRegAppTableRecord
  2
GEVID1208845819
 70
     0
  0
APPID
  5
477
330
9
100
AcDbSymbolTableRecord
100
AcDbRegAppTableRecord
  2
GEVID1208845820
 70
     0
  0
APPID
  5
478
330
9
100
AcDbSymbolTableRecord
100
AcDbRegAppTableRecord
  2
GENIUS_GENOBJ-F-SHCL_13
 70
     0
  0
APPID
  5
479
330
9
100
AcDbSymbolTableRecord
100
AcDbRegAppTableRecord
  2
GENIUS_GEFMSH_13
 70
     0
  0
APPID
  5
47A
330
9
100
AcDbSymbolTableRecord
100
AcDbRegAppTableRecord
  2
GENIUS_GENOBJ-F-SHCA_13
 70
     0
  0
APPID
  5
47B
330
9
100
AcDbSymbolTableRecord
100
AcDbRegAppTableRecord
  2
GENIUS_GEFSH_13
 70
     0
  0
APPID
  5
47C
330
9
100
AcDbSymbolTableRecord
100
AcDbRegAppTableRecord
  2
GENIUS_GEFSHP_13
 70
     0
  0
APPID
  5
47D
330
9
100
AcDbSymbolTableRecord
100
AcDbRegAppTableRecord
  2
GENIUS_GEFSHP0_13
 70
     0
  0
APPID
  5
47E
330
9
100
AcDbSymbolTableRecord
100
AcDbRegAppTableRecord
  2
GENIUS_GEFSH0_13
 70
     0
  0
APPID
  5
47F
330
9
100
AcDbSymbolTableRecord
100
AcDbRegAppTableRecord
  2
GENIUS_GEFSHP1_13
 70
     0
  0
APPID
  5
480
330
9
100
AcDbSymbolTableRecord
100
AcDbRegAppTableRecord
  2
GENIUS_GEFSH1_13
 70
     0
  0
APPID
  5
481
330
9
100
AcDbSymbolTableRecord
100
AcDbRegAppTableRecord
  2
GEVID1208866337
 70
     0
  0
APPID
  5
482
330
9
100
AcDbSymbolTableRecord
100
AcDbRegAppTableRecord
  2
GEVID1208866338
 70
     0
  0
APPID
  5
483
330
9
100
AcDbSymbolTableRecord
100
AcDbRegAppTableRecord
  2
GEVID1208866339
 70
     0
  0
APPID
  5
484
330
9
100
AcDbSymbolTableRecord
100
AcDbRegAppTableRecord
  2
GEVID1208866340
 70
     0
  0
APPID
  5
485
330
9
100
AcDbSymbolTableRecord
100
AcDbRegAppTableRecord
  2
GEVID1208866341
 70
     0
  0
APPID
  5
486
330
9
100
AcDbSymbolTableRecord
100
AcDbRegAppTableRecord
  2
ACAD_PSEXT
 70
     0
  0
APPID
  5
487
330
9
100
AcDbSymbolTableRecord
100
AcDbRegAppTableRecord
  2
GEVID1208866342
 70
     0
  0
APPID
  5
488
330
9
100
AcDbSymbolTableRecord
100
AcDbRegAppTableRecord
  2
GEVID1208913836
 70
     0
  0
APPID
  5
489
330
9
100
AcDbSymbolTableRecord
100
AcDbRegAppTableRecord
  2
GEVID1208913837
 70
     0
  0
APPID
  5
48A
330
9
100
AcDbSymbolTableRecord
100
AcDbRegAppTableRecord
  2
GEVID1208913838
 70
     0
  0
APPID
  5
48B
330
9
100
AcDbSymbolTableRecord
100
AcDbRegAppTableRecord
  2
GEVID1208913839
 70
     0
  0
APPID
  5
48C
330
9
100
AcDbSymbolTableRecord
100
AcDbRegAppTableRecord
  2
GENIUS_GENDTOL_13
 70
     0
  0
APPID
  5
48D
330
9
100
AcDbSymbolTableRecord
100
AcDbRegAppTableRecord
  2
GEVID1208928889
 70
     0
  0
APPID
  5
48E
330
9
100
AcDbSymbolTableRecord
100
AcDbRegAppTableRecord
  2
GEVID1208928890
 70
     0
  0
APPID
  5
48F
330
9
100
AcDbSymbolTableRecord
100
AcDbRegAppTableRecord
  2
GEVID1208928891
 70
     0
  0
APPID
  5
490
330
9
100
AcDbSymbolTableRecord
100
AcDbRegAppTableRecord
  2
GEVID1208928892
 70
     0
  0
APPID
  5
491
330
9
100
AcDbSymbolTableRecord
100
AcDbRegAppTableRecord
  2
GEVID1208933827
 70
     0
  0
APPID
  5
492
330
9
100
AcDbSymbolTableRecord
100
AcDbRegAppTableRecord
  2
GEVID1208933829
 70
     0
  0
APPID
  5
493
330
9
100
AcDbSymbolTableRecord
100
AcDbRegAppTableRecord
  2
GEVID1208933830
 70
     0
  0
APPID
  5
494
330
9
100
AcDbSymbolTableRecord
100
AcDbRegAppTableRecord
  2
GEVID1208933831
 70
     0
  0
APPID
  5
495
330
9
100
AcDbSymbolTableRecord
100
AcDbRegAppTableRecord
  2
GEVID1208933832
 70
     0
  0
APPID
  5
496
330
9
100
AcDbSymbolTableRecord
100
AcDbRegAppTableRecord
  2
GEVID1208933833
 70
     0
  0
APPID
  5
497
330
9
100
AcDbSymbolTableRecord
100
AcDbRegAppTableRecord
  2
GEVID1208933834
 70
     0
  0
APPID
  5
498
330
9
100
AcDbSymbolTableRecord
100
AcDbRegAppTableRecord
  2
GEVID1208933835
 70
     0
  0
APPID
  5
499
330
9
100
AcDbSymbolTableRecord
100
AcDbRegAppTableRecord
  2
GEVID1208933836
 70
     0
  0
APPID
  5
49A
330
9
100
AcDbSymbolTableRecord
100
AcDbRegAppTableRecord
  2
GEVID1208933837
 70
     0
  0
APPID
  5
49B
330
9
100
AcDbSymbolTableRecord
100
AcDbRegAppTableRecord
  2
GEVID1208933838
 70
     0
  0
APPID
  5
49C
330
9
100
AcDbSymbolTableRecord
100
AcDbRegAppTableRecord
  2
GEVID1208933840
 70
     0
  0
APPID
  5
49D
330
9
100
AcDbSymbolTableRecord
100
AcDbRegAppTableRecord
  2
GEVID1208933842
 70
     0
  0
APPID
  5
49E
330
9
100
AcDbSymbolTableRecord
100
AcDbRegAppTableRecord
  2
GEVID1208933843
 70
     0
  0
APPID
  5
49F
330
9
100
AcDbSymbolTableRecord
100
AcDbRegAppTableRecord
  2
GEVID1208933844
 70
     0
  0
APPID
  5
4A0
330
9
100
AcDbSymbolTableRecord
100
AcDbRegAppTableRecord
  2
GEVID1208933845
 70
     0
  0
APPID
  5
4A1
330
9
100
AcDbSymbolTableRecord
100
AcDbRegAppTableRecord
  2
GEVID1208933846
 70
     0
  0
APPID
  5
4A2
330
9
100
AcDbSymbolTableRecord
100
AcDbRegAppTableRecord
  2
GEVID1208933847
 70
     0
  0
APPID
  5
4A3
330
9
100
AcDbSymbolTableRecord
100
AcDbRegAppTableRecord
  2
GEVID1208933848
 70
     0
  0
APPID
  5
4A4
330
9
100
AcDbSymbolTableRecord
100
AcDbRegAppTableRecord
  2
GEVID1208933849
 70
     0
  0
APPID
  5
4A5
330
9
100
AcDbSymbolTableRecord
100
AcDbRegAppTableRecord
  2
GEVID1208933850
 70
     0
  0
APPID
  5
4A6
330
9
100
AcDbSymbolTableRecord
100
AcDbRegAppTableRecord
  2
GEVID1208933851
 70
     0
  0
APPID
  5
4A7
330
9
100
AcDbSymbolTableRecord
100
AcDbRegAppTableRecord
  2
GEVID1208933852
 70
     0
  0
APPID
  5
4A8
330
9
100
AcDbSymbolTableRecord
100
AcDbRegAppTableRecord
  2
GEVID1208933853
 70
     0
  0
APPID
  5
4A9
330
9
100
AcDbSymbolTableRecord
100
AcDbRegAppTableRecord
  2
GEVID1208933854
 70
     0
  0
APPID
  5
4AA
330
9
100
AcDbSymbolTableRecord
100
AcDbRegAppTableRecord
  2
GEVID1208933855
 70
     0
  0
APPID
  5
4AB
330
9
100
AcDbSymbolTableRecord
100
AcDbRegAppTableRecord
  2
GEVID1208933856
 70
     0
  0
APPID
  5
4AC
330
9
100
AcDbSymbolTableRecord
100
AcDbRegAppTableRecord
  2
GEVID1208933857
 70
     0
  0
APPID
  5
4AD
330
9
100
AcDbSymbolTableRecord
100
AcDbRegAppTableRecord
  2
GEVID1208933858
 70
     0
  0
APPID
  5
4AE
330
9
100
AcDbSymbolTableRecord
100
AcDbRegAppTableRecord
  2
GEVID1208933859
 70
     0
  0
APPID
  5
4AF
330
9
100
AcDbSymbolTableRecord
100
AcDbRegAppTableRecord
  2
GEVID1208933860
 70
     0
  0
APPID
  5
4B0
330
9
100
AcDbSymbolTableRecord
100
AcDbRegAppTableRecord
  2
GEVID1208933861
 70
     0
  0
APPID
  5
4B1
330
9
100
AcDbSymbolTableRecord
100
AcDbRegAppTableRecord
  2
GEVID1208933862
 70
     0
  0
APPID
  5
4B2
330
9
100
AcDbSymbolTableRecord
100
AcDbRegAppTableRecord
  2
GEVID1208933863
 70
     0
  0
APPID
  5
4B3
330
9
100
AcDbSymbolTableRecord
100
AcDbRegAppTableRecord
  2
GEVID1208933864
 70
     0
  0
APPID
  5
4B4
330
9
100
AcDbSymbolTableRecord
100
AcDbRegAppTableRecord
  2
GEVID1208933865
 70
     0
  0
APPID
  5
4B5
330
9
100
AcDbSymbolTableRecord
100
AcDbRegAppTableRecord
  2
GEVID1208933866
 70
     0
  0
APPID
  5
4B6
330
9
100
AcDbSymbolTableRecord
100
AcDbRegAppTableRecord
  2
GEVID1208933867
 70
     0
  0
APPID
  5
4B7
330
9
100
AcDbSymbolTableRecord
100
AcDbRegAppTableRecord
  2
GEVID1208933868
 70
     0
  0
APPID
  5
4B8
330
9
100
AcDbSymbolTableRecord
100
AcDbRegAppTableRecord
  2
GEVID1208933869
 70
     0
  0
APPID
  5
4B9
330
9
100
AcDbSymbolTableRecord
100
AcDbRegAppTableRecord
  2
GEVID1208933870
 70
     0
  0
APPID
  5
4BA
330
9
100
AcDbSymbolTableRecord
100
AcDbRegAppTableRecord
  2
GEVID1208933871
 70
     0
  0
APPID
  5
4BB
330
9
100
AcDbSymbolTableRecord
100
AcDbRegAppTableRecord
  2
GEVID1208933872
 70
     0
  0
APPID
  5
4BC
330
9
100
AcDbSymbolTableRecord
100
AcDbRegAppTableRecord
  2
GEVID1208933873
 70
     0
  0
APPID
  5
4BD
330
9
100
AcDbSymbolTableRecord
100
AcDbRegAppTableRecord
  2
GEVID1208933874
 70
     0
  0
APPID
  5
4BE
330
9
100
AcDbSymbolTableRecord
100
AcDbRegAppTableRecord
  2
GEVID1208933875
 70
     0
  0
APPID
  5
4BF
330
9
100
AcDbSymbolTableRecord
100
AcDbRegAppTableRecord
  2
GEVID1208933876
 70
     0
  0
APPID
  5
4C0
330
9
100
AcDbSymbolTableRecord
100
AcDbRegAppTableRecord
  2
ACAD_DSTYLE_DIMRADIAL_EXTENSION
 70
     0
  0
APPID
  5
4C1
330
9
100
AcDbSymbolTableRecord
100
AcDbRegAppTableRecord
  2
GEVID1208999100
 70
     0
  0
APPID
  5
4C2
330
9
100
AcDbSymbolTableRecord
100
AcDbRegAppTableRecord
  2
GEVID1208999101
 70
     0
  0
APPID
  5
4C3
330
9
100
AcDbSymbolTableRecord
100
AcDbRegAppTableRecord
  2
GEVID1208999102
 70
     0
  0
APPID
  5
4C4
330
9
100
AcDbSymbolTableRecord
100
AcDbRegAppTableRecord
  2
GEVID1208999103
 70
     0
  0
APPID
  5
4C5
330
9
100
AcDbSymbolTableRecord
100
AcDbRegAppTableRecord
  2
GEVID1208999105
 70
     0
  0
APPID
  5
4C6
330
9
100
AcDbSymbolTableRecord
100
AcDbRegAppTableRecord
  2
GEVID1208999106
 70
     0
  0
APPID
  5
4C7
330
9
100
AcDbSymbolTableRecord
100
AcDbRegAppTableRecord
  2
GEVID1208999108
 70
     0
  0
APPID
  5
4C8
330
9
100
AcDbSymbolTableRecord
100
AcDbRegAppTableRecord
  2
GEVID1208999109
 70
     0
  0
APPID
  5
4C9
330
9
100
AcDbSymbolTableRecord
100
AcDbRegAppTableRecord
  2
GEVID1208999110
 70
     0
  0
APPID
  5
4CA
330
9
100
AcDbSymbolTableRecord
100
AcDbRegAppTableRecord
  2
GEVID1208999111
 70
     0
  0
APPID
  5
4CB
330
9
100
AcDbSymbolTableRecord
100
AcDbRegAppTableRecord
  2
GEVID1208999112
 70
     0
  0
APPID
  5
4CC
330
9
100
AcDbSymbolTableRecord
100
AcDbRegAppTableRecord
  2
GEVID1208999113
 70
     0
  0
APPID
  5
4CD
330
9
100
AcDbSymbolTableRecord
100
AcDbRegAppTableRecord
  2
GEVID1208999114
 70
     0
  0
APPID
  5
4CE
330
9
100
AcDbSymbolTableRecord
100
AcDbRegAppTableRecord
  2
GEVID1210218799
 70
     0
  0
APPID
  5
4CF
330
9
100
AcDbSymbolTableRecord
100
AcDbRegAppTableRecord
  2
GEVID1210218800
 70
     0
  0
APPID
  5
4D0
330
9
100
AcDbSymbolTableRecord
100
AcDbRegAppTableRecord
  2
GENIUS_GEFWELD_13
 70
     0
  0
APPID
  5
4D1
330
9
100
AcDbSymbolTableRecord
100
AcDbRegAppTableRecord
  2
GENIUS_GENOBJ-F-WELS_13
 70
     0
  0
APPID
  5
4D2
330
9
100
AcDbSymbolTableRecord
100
AcDbRegAppTableRecord
  2
AcadAnnotative
 70
     0
  0
APPID
  5
4D3
330
9
100
AcDbSymbolTableRecord
100
AcDbRegAppTableRecord
  2
GEVID1210145339
 70
     0
  0
APPID
  5
4D4
330
9
100
AcDbSymbolTableRecord
100
AcDbRegAppTableRecord
  2
ACAD_DSTYLE_DIMBREAK
 70
     0
  0
APPID
  5
4D5
330
9
100
AcDbSymbolTableRecord
100
AcDbRegAppTableRecord
  2
GEVID1210145340
 70
     0
  0
APPID
  5
4D6
330
9
100
AcDbSymbolTableRecord
100
AcDbRegAppTableRecord
  2
GEVID1210145341
 70
     0
  0
APPID
  5
4D7
330
9
100
AcDbSymbolTableRecord
100
AcDbRegAppTableRecord
  2
GEVID1210145342
 70
     0
  0
APPID
  5
4D8
330
9
100
AcDbSymbolTableRecord
100
AcDbRegAppTableRecord
  2
GEVID1210145343
 70
     0
  0
APPID
  5
4D9
330
9
100
AcDbSymbolTableRecord
100
AcDbRegAppTableRecord
  2
GEVID1210145344
 70
     0
  0
APPID
  5
4DA
330
9
100
AcDbSymbolTableRecord
100
AcDbRegAppTableRecord
  2
GEVID1210145345
 70
     0
  0
APPID
  5
4DB
330
9
100
AcDbSymbolTableRecord
100
AcDbRegAppTableRecord
  2
GEVID1210152816
 70
     0
  0
APPID
  5
4DC
330
9
100
AcDbSymbolTableRecord
100
AcDbRegAppTableRecord
  2
GEVID1210153850
 70
     0
  0
APPID
  5
4DD
330
9
100
AcDbSymbolTableRecord
100
AcDbRegAppTableRecord
  2
GEVID1210153851
 70
     0
  0
APPID
  5
4DE
330
9
100
AcDbSymbolTableRecord
100
AcDbRegAppTableRecord
  2
GEVID1210153852
 70
     0
  0
APPID
  5
4DF
330
9
100
AcDbSymbolTableRecord
100
AcDbRegAppTableRecord
  2
GEVID1210549898
 70
     0
  0
APPID
  5
4E0
330
9
100
AcDbSymbolTableRecord
100
AcDbRegAppTableRecord
  2
GEVID1210549899
 70
     0
  0
APPID
  5
4E1
330
9
100
AcDbSymbolTableRecord
100
AcDbRegAppTableRecord
  2
GEVID1210549900
 70
     0
  0
APPID
  5
4E2
330
9
100
AcDbSymbolTableRecord
100
AcDbRegAppTableRecord
  2
GEVID1210549901
 70
     0
  0
APPID
  5
4E3
330
9
100
AcDbSymbolTableRecord
100
AcDbRegAppTableRecord
  2
GEVID1210549902
 70
     0
  0
APPID
  5
4E4
330
9
100
AcDbSymbolTableRecord
100
AcDbRegAppTableRecord
  2
GEVID1210549903
 70
     0
  0
APPID
  5
4E5
330
9
100
AcDbSymbolTableRecord
100
AcDbRegAppTableRecord
  2
GEVID1210549904
 70
     0
  0
APPID
  5
4E6
330
9
100
AcDbSymbolTableRecord
100
AcDbRegAppTableRecord
  2
GEVID1210549905
 70
     0
  0
APPID
  5
4E7
330
9
100
AcDbSymbolTableRecord
100
AcDbRegAppTableRecord
  2
GEVID1210549906
 70
     0
  0
APPID
  5
4E8
330
9
100
AcDbSymbolTableRecord
100
AcDbRegAppTableRecord
  2
GEVID1210549907
 70
     0
  0
APPID
  5
4E9
330
9
100
AcDbSymbolTableRecord
100
AcDbRegAppTableRecord
  2
GEVID1210549908
 70
     0
  0
APPID
  5
4EA
330
9
100
AcDbSymbolTableRecord
100
AcDbRegAppTableRecord
  2
GEVID1210549909
 70
     0
  0
APPID
  5
4EB
330
9
100
AcDbSymbolTableRecord
100
AcDbRegAppTableRecord
  2
GEVID1210549910
 70
     0
  0
APPID
  5
4EC
330
9
100
AcDbSymbolTableRecord
100
AcDbRegAppTableRecord
  2
GEVID1210549911
 70
     0
  0
APPID
  5
4ED
330
9
100
AcDbSymbolTableRecord
100
AcDbRegAppTableRecord
  2
GEVID1210549912
 70
     0
  0
APPID
  5
4EE
330
9
100
AcDbSymbolTableRecord
100
AcDbRegAppTableRecord
  2
GEVID1210549913
 70
     0
  0
APPID
  5
4EF
330
9
100
AcDbSymbolTableRecord
100
AcDbRegAppTableRecord
  2
GEVID1210549914
 70
     0
  0
APPID
  5
4F0
330
9
100
AcDbSymbolTableRecord
100
AcDbRegAppTableRecord
  2
GEVID1210549915
 70
     0
  0
APPID
  5
4F1
330
9
100
AcDbSymbolTableRecord
100
AcDbRegAppTableRecord
  2
GEVID1210549916
 70
     0
  0
APPID
  5
4F2
330
9
100
AcDbSymbolTableRecord
100
AcDbRegAppTableRecord
  2
GEVID1210549917
 70
     0
  0
APPID
  5
4F3
330
9
100
AcDbSymbolTableRecord
100
AcDbRegAppTableRecord
  2
GENIUS_GENOBJ-N-CRS_13
 70
     0
  0
APPID
  5
4F4
330
9
100
AcDbSymbolTableRecord
100
AcDbRegAppTableRecord
  2
GEVID1210549918
 70
     0
  0
APPID
  5
4F5
330
9
100
AcDbSymbolTableRecord
100
AcDbRegAppTableRecord
  2
GENIUS_GENOBJ-N-CRC_13
 70
     0
  0
APPID
  5
4F6
330
9
100
AcDbSymbolTableRecord
100
AcDbRegAppTableRecord
  2
GENIUS_GENCRC_14
 70
     0
  0
APPID
  5
4F7
330
9
100
AcDbSymbolTableRecord
100
AcDbRegAppTableRecord
  2
GEVID1210549919
 70
     0
  0
APPID
  5
4F8
330
9
100
AcDbSymbolTableRecord
100
AcDbRegAppTableRecord
  2
GEVID1210549921
 70
     0
  0
APPID
  5
4F9
330
9
100
AcDbSymbolTableRecord
100
AcDbRegAppTableRecord
  2
GEVID1210549922
 70
     0
  0
APPID
  5
4FA
330
9
100
AcDbSymbolTableRecord
100
AcDbRegAppTableRecord
  2
GEVID1210635173
 70
     0
  0
APPID
  5
4FB
330
9
100
AcDbSymbolTableRecord
100
AcDbRegAppTableRecord
  2
GEVID1210635174
 70
     0
  0
APPID
  5
4FC
330
9
100
AcDbSymbolTableRecord
100
AcDbRegAppTableRecord
  2
GEVID1210635175
 70
     0
  0
APPID
  5
4FD
330
9
100
AcDbSymbolTableRecord
100
AcDbRegAppTableRecord
  2
GEVID1210635176
 70
     0
  0
APPID
  5
4FE
330
9
100
AcDbSymbolTableRecord
100
AcDbRegAppTableRecord
  2
GEVID1210635177
 70
     0
  0
APPID
  5
4FF
330
9
100
AcDbSymbolTableRecord
100
AcDbRegAppTableRecord
  2
GEVID1210635178
 70
     0
  0
APPID
  5
500
330
9
100
AcDbSymbolTableRecord
100
AcDbRegAppTableRecord
  2
GENIUS_GENIUS_GENBHEDTMP_13
 70
     0
  0
APPID
  5
501
330
9
100
AcDbSymbolTableRecord
100
AcDbRegAppTableRecord
  2
GEVID1210635179
 70
     0
  0
APPID
  5
502
330
9
100
AcDbSymbolTableRecord
100
AcDbRegAppTableRecord
  2
GEVID1210635180
 70
     0
  0
APPID
  5
503
330
9
100
AcDbSymbolTableRecord
100
AcDbRegAppTableRecord
  2
GEVID1210635181
 70
     0
  0
APPID
  5
504
330
9
100
AcDbSymbolTableRecord
100
AcDbRegAppTableRecord
  2
GEVID1210635182
 70
     0
  0
APPID
  5
505
330
9
100
AcDbSymbolTableRecord
100
AcDbRegAppTableRecord
  2
GEVID1210635184
 70
     0
  0
APPID
  5
506
330
9
100
AcDbSymbolTableRecord
100
AcDbRegAppTableRecord
  2
GEVID1210635185
 70
     0
  0
APPID
  5
507
330
9
100
AcDbSymbolTableRecord
100
AcDbRegAppTableRecord
  2
GEVID1210635186
 70
     0
  0
APPID
  5
508
330
9
100
AcDbSymbolTableRecord
100
AcDbRegAppTableRecord
  2
GEVID1210635187
 70
     0
  0
APPID
  5
509
330
9
100
AcDbSymbolTableRecord
100
AcDbRegAppTableRecord
  2
GEVID1210635188
 70
     0
  0
APPID
  5
50A
330
9
100
AcDbSymbolTableRecord
100
AcDbRegAppTableRecord
  2
GEVID1210635189
 70
     0
  0
APPID
  5
50B
330
9
100
AcDbSymbolTableRecord
100
AcDbRegAppTableRecord
  2
GEVID1210635190
 70
     0
  0
APPID
  5
50C
330
9
100
AcDbSymbolTableRecord
100
AcDbRegAppTableRecord
  2
GENIUS_GENREC_14
 70
     0
  0
APPID
  5
50D
330
9
100
AcDbSymbolTableRecord
100
AcDbRegAppTableRecord
  2
GENIUS_GENOBJ-N-REC_13
 70
     0
  0
APPID
  5
50E
330
9
100
AcDbSymbolTableRecord
100
AcDbRegAppTableRecord
  2
GEVID1210676655
 70
     0
  0
APPID
  5
50F
330
9
100
AcDbSymbolTableRecord
100
AcDbRegAppTableRecord
  2
GEVID1210676656
 70
     0
  0
APPID
  5
510
330
9
100
AcDbSymbolTableRecord
100
AcDbRegAppTableRecord
  2
GEVID1210676657
 70
     0
  0
APPID
  5
511
330
9
100
AcDbSymbolTableRecord
100
AcDbRegAppTableRecord
  2
GEVID1210676659
 70
     0
  0
APPID
  5
512
330
9
100
AcDbSymbolTableRecord
100
AcDbRegAppTableRecord
  2
GEVID1210676660
 70
     0
  0
APPID
  5
513
330
9
100
AcDbSymbolTableRecord
100
AcDbRegAppTableRecord
  2
GEVID1210676661
 70
     0
  0
APPID
  5
514
330
9
100
AcDbSymbolTableRecord
100
AcDbRegAppTableRecord
  2
GEVID1210676662
 70
     0
  0
APPID
  5
515
330
9
100
AcDbSymbolTableRecord
100
AcDbRegAppTableRecord
  2
GEVID1210721646
 70
     0
  0
APPID
  5
516
330
9
100
AcDbSymbolTableRecord
100
AcDbRegAppTableRecord
  2
GEVID1210721647
 70
     0
  0
APPID
  5
517
330
9
100
AcDbSymbolTableRecord
100
AcDbRegAppTableRecord
  2
GEVID1210721648
 70
     0
  0
APPID
  5
518
330
9
100
AcDbSymbolTableRecord
100
AcDbRegAppTableRecord
  2
GEVID1210721649
 70
     0
  0
APPID
  5
519
330
9
100
AcDbSymbolTableRecord
100
AcDbRegAppTableRecord
  2
GEVID1210721650
 70
     0
  0
APPID
  5
51A
330
9
100
AcDbSymbolTableRecord
100
AcDbRegAppTableRecord
  2
GEVID1210721651
 70
     0
  0
APPID
  5
51B
330
9
100
AcDbSymbolTableRecord
100
AcDbRegAppTableRecord
  2
GEVID1210721652
 70
     0
  0
APPID
  5
51C
330
9
100
AcDbSymbolTableRecord
100
AcDbRegAppTableRecord
  2
GEVID1210721653
 70
     0
  0
APPID
  5
51D
330
9
100
AcDbSymbolTableRecord
100
AcDbRegAppTableRecord
  2
PE_URL
 70
     0
  0
APPID
  5
51E
330
9
100
AcDbSymbolTableRecord
100
AcDbRegAppTableRecord
  2
GEVID1210825555
 70
     0
  0
APPID
  5
51F
330
9
100
AcDbSymbolTableRecord
100
AcDbRegAppTableRecord
  2
GEVID1210825556
 70
     0
  0
APPID
  5
520
330
9
100
AcDbSymbolTableRecord
100
AcDbRegAppTableRecord
  2
GEVID1210825557
 70
     0
  0
APPID
  5
521
330
9
100
AcDbSymbolTableRecord
100
AcDbRegAppTableRecord
  2
GEVID1210825558
 70
     0
  0
APPID
  5
522
330
9
100
AcDbSymbolTableRecord
100
AcDbRegAppTableRecord
  2
GEVID1210825559
 70
     0
  0
APPID
  5
523
330
9
100
AcDbSymbolTableRecord
100
AcDbRegAppTableRecord
  2
GEVID1210825560
 70
     0
  0
APPID
  5
524
330
9
100
AcDbSymbolTableRecord
100
AcDbRegAppTableRecord
  2
GEVID1210825561
 70
     0
  0
APPID
  5
525
330
9
100
AcDbSymbolTableRecord
100
AcDbRegAppTableRecord
  2
GEVID1210825562
 70
     0
  0
APPID
  5
526
330
9
100
AcDbSymbolTableRecord
100
AcDbRegAppTableRecord
  2
GEVID1210825563
 70
     0
  0
APPID
  5
527
330
9
100
AcDbSymbolTableRecord
100
AcDbRegAppTableRecord
  2
GEVID1210825564
 70
     0
  0
APPID
  5
528
330
9
100
AcDbSymbolTableRecord
100
AcDbRegAppTableRecord
  2
GEVID1210825565
 70
     0
  0
APPID
  5
529
330
9
100
AcDbSymbolTableRecord
100
AcDbRegAppTableRecord
  2
GEVID1210825566
 70
     0
  0
APPID
  5
52A
330
9
100
AcDbSymbolTableRecord
100
AcDbRegAppTableRecord
  2
GEVID1210825567
 70
     0
  0
APPID
  5
52B
330
9
100
AcDbSymbolTableRecord
100
AcDbRegAppTableRecord
  2
GENIUS_GENOBJ-N-ZOO_13
 70
     0
  0
APPID
  5
52C
330
9
100
AcDbSymbolTableRecord
100
AcDbRegAppTableRecord
  2
GENIUS_GENZOO_17
 70
     0
  0
APPID
  5
52D
330
9
100
AcDbSymbolTableRecord
100
AcDbRegAppTableRecord
  2
ACADANNOTATIVEDECOMPOSITION
 70
     0
  0
APPID
  5
52E
330
9
100
AcDbSymbolTableRecord
100
AcDbRegAppTableRecord
  2
GENIUS_GENOBJ-N-HTC_13
 70
     0
  0
APPID
  5
52F
330
9
100
AcDbSymbolTableRecord
100
AcDbRegAppTableRecord
  2
GENIUS_GENHATCH_13
 70
     0
  0
APPID
  5
530
330
9
100
AcDbSymbolTableRecord
100
AcDbRegAppTableRecord
  2
GEVID1210896020
 70
     0
  0
APPID
  5
531
330
9
100
AcDbSymbolTableRecord
100
AcDbRegAppTableRecord
  2
GEVID1210896021
 70
     0
  0
APPID
  5
532
330
9
100
AcDbSymbolTableRecord
100
AcDbRegAppTableRecord
  2
GEVID1209083540
 70
     0
  0
APPID
  5
533
330
9
100
AcDbSymbolTableRecord
100
AcDbRegAppTableRecord
  2
GEVMK
 70
     0
  0
APPID
  5
534
330
9
100
AcDbSymbolTableRecord
100
AcDbRegAppTableRecord
  2
GEVID1209083542
 70
     0
  0
APPID
  5
535
330
9
100
AcDbSymbolTableRecord
100
AcDbRegAppTableRecord
  2
GEVID1209083543
 70
     0
  0
APPID
  5
536
330
9
100
AcDbSymbolTableRecord
100
AcDbRegAppTableRecord
  2
GEVID1209083544
 70
     0
  0
APPID
  5
537
330
9
100
AcDbSymbolTableRecord
100
AcDbRegAppTableRecord
  2
GEVID1209083545
 70
     0
  0
APPID
  5
538
330
9
100
AcDbSymbolTableRecord
100
AcDbRegAppTableRecord
  2
GEVID1209083546
 70
     0
  0
APPID
  5
539
330
9
100
AcDbSymbolTableRecord
100
AcDbRegAppTableRecord
  2
GEVID1209083547
 70
     0
  0
APPID
  5
53A
330
9
100
AcDbSymbolTableRecord
100
AcDbRegAppTableRecord
  2
GEVID1209083548
 70
     0
  0
APPID
  5
53B
330
9
100
AcDbSymbolTableRecord
100
AcDbRegAppTableRecord
  2
GEVID1209083549
 70
     0
  0
APPID
  5
53C
330
9
100
AcDbSymbolTableRecord
100
AcDbRegAppTableRecord
  2
GEVID1209083550
 70
     0
  0
APPID
  5
53D
330
9
100
AcDbSymbolTableRecord
100
AcDbRegAppTableRecord
  2
GEVID1209083551
 70
     0
  0
APPID
  5
53E
330
9
100
AcDbSymbolTableRecord
100
AcDbRegAppTableRecord
  2
GEVID1209083552
 70
     0
  0
APPID
  5
53F
330
9
100
AcDbSymbolTableRecord
100
AcDbRegAppTableRecord
  2
GEVID1209083553
 70
     0
  0
APPID
  5
540
330
9
100
AcDbSymbolTableRecord
100
AcDbRegAppTableRecord
  2
GEVID1210896022
 70
     0
  0
APPID
  5
541
330
9
100
AcDbSymbolTableRecord
100
AcDbRegAppTableRecord
  2
GEVID1211508364
 70
     0
  0
APPID
  5
542
330
9
100
AcDbSymbolTableRecord
100
AcDbRegAppTableRecord
  2
GEVID1211414908
 70
     0
  0
APPID
  5
543
330
9
100
AcDbSymbolTableRecord
100
AcDbRegAppTableRecord
  2
GEVID1211414909
 70
     0
  0
APPID
  5
544
330
9
100
AcDbSymbolTableRecord
100
AcDbRegAppTableRecord
  2
GEVID1211508359
 70
     0
  0
APPID
  5
545
330
9
100
AcDbSymbolTableRecord
100
AcDbRegAppTableRecord
  2
GEVID1211508360
 70
     0
  0
APPID
  5
546
330
9
100
AcDbSymbolTableRecord
100
AcDbRegAppTableRecord
  2
GEVID1211508361
 70
     0
  0
APPID
  5
547
330
9
100
AcDbSymbolTableRecord
100
AcDbRegAppTableRecord
  2
GEVID1211508362
 70
     0
  0
APPID
  5
548
330
9
100
AcDbSymbolTableRecord
100
AcDbRegAppTableRecord
  2
GEVID1211508363
 70
     0
  0
APPID
  5
549
330
9
100
AcDbSymbolTableRecord
100
AcDbRegAppTableRecord
  2
GEVID1211878469
 70
     0
  0
APPID
  5
54A
330
9
100
AcDbSymbolTableRecord
100
AcDbRegAppTableRecord
  2
GEVID1212642819
 70
     0
  0
APPID
  5
54B
330
9
100
AcDbSymbolTableRecord
100
AcDbRegAppTableRecord
  2
GEVID1212642820
 70
     0
  0
APPID
  5
54C
330
9
100
AcDbSymbolTableRecord
100
AcDbRegAppTableRecord
  2
GEVID1212642821
 70
     0
  0
APPID
  5
54D
330
9
100
AcDbSymbolTableRecord
100
AcDbRegAppTableRecord
  2
GEVID1212642822
 70
     0
  0
APPID
  5
54E
330
9
100
AcDbSymbolTableRecord
100
AcDbRegAppTableRecord
  2
GEVID1212642823
 70
     0
  0
APPID
  5
54F
330
9
100
AcDbSymbolTableRecord
100
AcDbRegAppTableRecord
  2
GEVID1212642825
 70
     0
  0
APPID
  5
550
330
9
100
AcDbSymbolTableRecord
100
AcDbRegAppTableRecord
  2
GEVID1212642826
 70
     0
  0
APPID
  5
551
330
9
100
AcDbSymbolTableRecord
100
AcDbRegAppTableRecord
  2
GEVID1212642827
 70
     0
  0
APPID
  5
552
330
9
100
AcDbSymbolTableRecord
100
AcDbRegAppTableRecord
  2
GEVID1212642828
 70
     0
  0
APPID
  5
553
330
9
100
AcDbSymbolTableRecord
100
AcDbRegAppTableRecord
  2
GEVID1212642831
 70
     0
  0
APPID
  5
554
330
9
100
AcDbSymbolTableRecord
100
AcDbRegAppTableRecord
  2
GEVID1212642834
 70
     0
  0
APPID
  5
555
330
9
100
AcDbSymbolTableRecord
100
AcDbRegAppTableRecord
  2
GEVID1212642835
 70
     0
  0
APPID
  5
556
330
9
100
AcDbSymbolTableRecord
100
AcDbRegAppTableRecord
  2
GEVID1212642836
 70
     0
  0
APPID
  5
557
330
9
100
AcDbSymbolTableRecord
100
AcDbRegAppTableRecord
  2
GEVID1212642837
 70
     0
  0
APPID
  5
558
330
9
100
AcDbSymbolTableRecord
100
AcDbRegAppTableRecord
  2
GEVID1212642839
 70
     0
  0
APPID
  5
559
330
9
100
AcDbSymbolTableRecord
100
AcDbRegAppTableRecord
  2
GEVID1212642840
 70
     0
  0
APPID
  5
55A
330
9
100
AcDbSymbolTableRecord
100
AcDbRegAppTableRecord
  2
GEVID1212642841
 70
     0
  0
APPID
  5
55B
330
9
100
AcDbSymbolTableRecord
100
AcDbRegAppTableRecord
  2
GEVID1212655312
 70
     0
  0
APPID
  5
55C
330
9
100
AcDbSymbolTableRecord
100
AcDbRegAppTableRecord
  2
GEVID1212655313
 70
     0
  0
APPID
  5
55D
330
9
100
AcDbSymbolTableRecord
100
AcDbRegAppTableRecord
  2
GEVID1212656533
 70
     0
  0
APPID
  5
55E
330
9
100
AcDbSymbolTableRecord
100
AcDbRegAppTableRecord
  2
GEVID1212656534
 70
     0
  0
APPID
  5
55F
330
9
100
AcDbSymbolTableRecord
100
AcDbRegAppTableRecord
  2
GEVID1212656535
 70
     0
  0
APPID
  5
560
330
9
100
AcDbSymbolTableRecord
100
AcDbRegAppTableRecord
  2
GEVID1212656536
 70
     0
  0
APPID
  5
561
330
9
100
AcDbSymbolTableRecord
100
AcDbRegAppTableRecord
  2
GEVID1212656538
 70
     0
  0
APPID
  5
562
330
9
100
AcDbSymbolTableRecord
100
AcDbRegAppTableRecord
  2
GEVID1212656541
 70
     0
  0
APPID
  5
563
330
9
100
AcDbSymbolTableRecord
100
AcDbRegAppTableRecord
  2
GEVID1212656543
 70
     0
  0
APPID
  5
564
330
9
100
AcDbSymbolTableRecord
100
AcDbRegAppTableRecord
  2
GENIUS_GENOBJ-F-PFASSM_13
 70
     0
  0
APPID
  5
565
330
9
100
AcDbSymbolTableRecord
100
AcDbRegAppTableRecord
  2
GEVID1212656544
 70
     0
  0
APPID
  5
566
330
9
100
AcDbSymbolTableRecord
100
AcDbRegAppTableRecord
  2
GEVID1212656545
 70
     0
  0
APPID
  5
567
330
9
100
AcDbSymbolTableRecord
100
AcDbRegAppTableRecord
  2
GEVID1212656546
 70
     0
  0
APPID
  5
568
330
9
100
AcDbSymbolTableRecord
100
AcDbRegAppTableRecord
  2
GEVID1212656547
 70
     0
  0
APPID
  5
569
330
9
100
AcDbSymbolTableRecord
100
AcDbRegAppTableRecord
  2
GEVID1212656548
 70
     0
  0
APPID
  5
56A
330
9
100
AcDbSymbolTableRecord
100
AcDbRegAppTableRecord
  2
GEVID1212656549
 70
     0
  0
APPID
  5
56B
330
9
100
AcDbSymbolTableRecord
100
AcDbRegAppTableRecord
  2
GEVID1212656550
 70
     0
  0
APPID
  5
56C
330
9
100
AcDbSymbolTableRecord
100
AcDbRegAppTableRecord
  2
GEVID1212656552
 70
     0
  0
APPID
  5
56D
330
9
100
AcDbSymbolTableRecord
100
AcDbRegAppTableRecord
  2
GEVID1212656553
 70
     0
  0
APPID
  5
56E
330
9
100
AcDbSymbolTableRecord
100
AcDbRegAppTableRecord
  2
GEVID1212656554
 70
     0
  0
APPID
  5
56F
330
9
100
AcDbSymbolTableRecord
100
AcDbRegAppTableRecord
  2
GEVID1212656555
 70
     0
  0
APPID
  5
570
330
9
100
AcDbSymbolTableRecord
100
AcDbRegAppTableRecord
  2
GEVID1212656556
 70
     0
  0
APPID
  5
571
330
9
100
AcDbSymbolTableRecord
100
AcDbRegAppTableRecord
  2
GEVID1212656557
 70
     0
  0
APPID
  5
572
330
9
100
AcDbSymbolTableRecord
100
AcDbRegAppTableRecord
  2
GEVID1212656559
 70
     0
  0
APPID
  5
573
330
9
100
AcDbSymbolTableRecord
100
AcDbRegAppTableRecord
  2
GEVID1212656560
 70
     0
  0
APPID
  5
574
330
9
100
AcDbSymbolTableRecord
100
AcDbRegAppTableRecord
  2
GEVID1212656561
 70
     0
  0
APPID
  5
575
330
9
100
AcDbSymbolTableRecord
100
AcDbRegAppTableRecord
  2
GEVID1212656562
 70
     0
  0
APPID
  5
576
330
9
100
AcDbSymbolTableRecord
100
AcDbRegAppTableRecord
  2
GEVID1212656563
 70
     0
  0
APPID
  5
577
330
9
100
AcDbSymbolTableRecord
100
AcDbRegAppTableRecord
  2
GEVID1212711781
 70
     0
  0
APPID
  5
578
330
9
100
AcDbSymbolTableRecord
100
AcDbRegAppTableRecord
  2
GEVID1212711782
 70
     0
  0
APPID
  5
579
330
9
100
AcDbSymbolTableRecord
100
AcDbRegAppTableRecord
  2
GEVID1212711783
 70
     0
  0
APPID
  5
57A
330
9
100
AcDbSymbolTableRecord
100
AcDbRegAppTableRecord
  2
GEVID1212711784
 70
     0
  0
APPID
  5
57B
330
9
100
AcDbSymbolTableRecord
100
AcDbRegAppTableRecord
  2
GEVID1212711788
 70
     0
  0
APPID
  5
57C
330
9
100
AcDbSymbolTableRecord
100
AcDbRegAppTableRecord
  2
GEVID1212711789
 70
     0
  0
APPID
  5
57D
330
9
100
AcDbSymbolTableRecord
100
AcDbRegAppTableRecord
  2
GEVID1212711790
 70
     0
  0
APPID
  5
57E
330
9
100
AcDbSymbolTableRecord
100
AcDbRegAppTableRecord
  2
GEVID1212711791
 70
     0
  0
APPID
  5
57F
330
9
100
AcDbSymbolTableRecord
100
AcDbRegAppTableRecord
  2
GEVID1212711792
 70
     0
  0
APPID
  5
580
330
9
100
AcDbSymbolTableRecord
100
AcDbRegAppTableRecord
  2
GEVID1212711793
 70
     0
  0
APPID
  5
581
330
9
100
AcDbSymbolTableRecord
100
AcDbRegAppTableRecord
  2
GEVID1212711794
 70
     0
  0
APPID
  5
582
330
9
100
AcDbSymbolTableRecord
100
AcDbRegAppTableRecord
  2
GEVID1212711795
 70
     0
  0
APPID
  5
583
330
9
100
AcDbSymbolTableRecord
100
AcDbRegAppTableRecord
  2
GEVID1212711797
 70
     0
  0
APPID
  5
584
330
9
100
AcDbSymbolTableRecord
100
AcDbRegAppTableRecord
  2
GEVID1212711798
 70
     0
  0
APPID
  5
585
330
9
100
AcDbSymbolTableRecord
100
AcDbRegAppTableRecord
  2
GEVID1212711799
 70
     0
  0
APPID
  5
586
330
9
100
AcDbSymbolTableRecord
100
AcDbRegAppTableRecord
  2
GEVID1212711800
 70
     0
  0
APPID
  5
587
330
9
100
AcDbSymbolTableRecord
100
AcDbRegAppTableRecord
  2
GEVID1212711801
 70
     0
  0
APPID
  5
588
330
9
100
AcDbSymbolTableRecord
100
AcDbRegAppTableRecord
  2
GEVID1212711802
 70
     0
  0
APPID
  5
589
330
9
100
AcDbSymbolTableRecord
100
AcDbRegAppTableRecord
  2
GEVID1212711803
 70
     0
  0
APPID
  5
58A
330
9
100
AcDbSymbolTableRecord
100
AcDbRegAppTableRecord
  2
GEVID1212711804
 70
     0
  0
APPID
  5
58B
330
9
100
AcDbSymbolTableRecord
100
AcDbRegAppTableRecord
  2
GEVID1212711805
 70
     0
  0
APPID
  5
58C
330
9
100
AcDbSymbolTableRecord
100
AcDbRegAppTableRecord
  2
GEVID1212711806
 70
     0
  0
APPID
  5
58D
330
9
100
AcDbSymbolTableRecord
100
AcDbRegAppTableRecord
  2
GEVID1212711807
 70
     0
  0
APPID
  5
58E
330
9
100
AcDbSymbolTableRecord
100
AcDbRegAppTableRecord
  2
GEVID1212711808
 70
     0
  0
APPID
  5
58F
330
9
100
AcDbSymbolTableRecord
100
AcDbRegAppTableRecord
  2
GEVID1212711809
 70
     0
  0
APPID
  5
590
330
9
100
AcDbSymbolTableRecord
100
AcDbRegAppTableRecord
  2
GEVID1212711810
 70
     0
  0
APPID
  5
591
330
9
100
AcDbSymbolTableRecord
100
AcDbRegAppTableRecord
  2
GEVID1212711811
 70
     0
  0
APPID
  5
90A
330
9
100
AcDbSymbolTableRecord
100
AcDbRegAppTableRecord
  2
GENIUS_GENTRA_14
 70
     0
  0
APPID
  5
919
330
9
100
AcDbSymbolTableRecord
100
AcDbRegAppTableRecord
  2
GENIUS_GENOBJ-N-TIT_13
 70
     0
  0
APPID
  5
91A
330
9
100
AcDbSymbolTableRecord
100
AcDbRegAppTableRecord
  2
GENIUS_GENTITLE_13
 70
     0
  0
APPID
  5
949
330
9
100
AcDbSymbolTableRecord
100
AcDbRegAppTableRecord
  2
GENIUS_GENBLLY_14
 70
     0
  0
APPID
  5
DDD
330
9
100
AcDbSymbolTableRecord
100
AcDbRegAppTableRecord
  2
GEVID1213165152
 70
     0
  0
APPID
  5
12F9
330
9
100
AcDbSymbolTableRecord
100
AcDbRegAppTableRecord
  2
AcDbDynamicBlockTrueName
 70
     0
  0
APPID
  5
12FA
330
9
100
AcDbSymbolTableRecord
100
AcDbRegAppTableRecord
  2
ACDBBLOCKREPETAG
 70
     0
  0
APPID
  5
1C15
330
9
100
AcDbSymbolTableRecord
100
AcDbRegAppTableRecord
  2
GEVID1214872427
 70
     0
  0
APPID
  5
1C2A
330
9
100
AcDbSymbolTableRecord
100
AcDbRegAppTableRecord
  2
GEVID1214872428
 70
     0
  0
APPID
  5
1C2F
330
9
100
AcDbSymbolTableRecord
100
AcDbRegAppTableRecord
  2
GEVID1214872429
 70
     0
  0
APPID
  5
1C33
330
9
100
AcDbSymbolTableRecord
100
AcDbRegAppTableRecord
  2
GEVID1214872430
 70
     0
  0
APPID
  5
1C3F
330
9
100
AcDbSymbolTableRecord
100
AcDbRegAppTableRecord
  2
GEVID1214872432
 70
     0
  0
APPID
  5
1C4E
330
9
100
AcDbSymbolTableRecord
100
AcDbRegAppTableRecord
  2
GEVID1214872433
 70
     0
  0
APPID
  5
20DC
330
9
100
AcDbSymbolTableRecord
100
AcDbRegAppTableRecord
  2
AcDbDynamicBlockGUID
 70
     0
  0
APPID
  5
20FD
330
9
100
AcDbSymbolTableRecord
100
AcDbRegAppTableRecord
  2
GENIUS_GENOBJ-N-REV_13
 70
     0
  0
APPID
  5
20FE
330
9
100
AcDbSymbolTableRecord
100
AcDbRegAppTableRecord
  2
GENIUS_GENOBJ-N-RSSYM_13
 70
     0
  0
APPID
  5
20FF
330
9
100
AcDbSymbolTableRecord
100
AcDbRegAppTableRecord
  2
GENIUS_GENSYMENT_13
 70
     0
  0
APPID
  5
2100
330
9
100
AcDbSymbolTableRecord
100
AcDbRegAppTableRecord
  2
GENIUS_GENSCSYM_13
 70
     0
  0
APPID
  5
5730
330
9
100
AcDbSymbolTableRecord
100
AcDbRegAppTableRecord
  2
GEVID1242439427
 70
     0
  0
APPID
  5
5735
330
9
100
AcDbSymbolTableRecord
100
AcDbRegAppTableRecord
  2
GEVID1242439428
 70
     0
  0
APPID
  5
5834
330
9
100
AcDbSymbolTableRecord
100
AcDbRegAppTableRecord
  2
GEVID1242439429
 70
     0
  0
APPID
  5
5838
330
9
100
AcDbSymbolTableRecord
100
AcDbRegAppTableRecord
  2
GEVID1242439430
 70
     0
  0
ENDTAB
  0
TABLE
  2
DIMSTYLE
  5
A
330
0
100
AcDbSymbolTable
 70
    29
100
AcDbDimStyleTable
 71
     1
340
5AB
  0
DIMSTYLE
105
5AB
330
A
100
AcDbSymbolTableRecord
100
AcDbDimStyleTableRecord
  2
SEISA
 70
     0
  4
"
 40
5.0
 41
2.5
 42
0.625
 43
10.0
 44
0.625
 47
0.1
 48
0.1
 73
     0
 74
     0
 77
     3
 78
     8
 79
     2
 90
     1
140
3.5
141
0.0
143
0.0393701
146
0.71
147
1.5
172
     1
176
     3
177
     3
178
     3
271
     2
272
     2
283
     0
286
     8
340
5D5
341
69
342
69
371
    -1
372
    -1
1001
ACAD_DSTYLE_DIMJAG
1070
   388
1040
1.5
1001
ACAD_DSTYLE_DIMTALN
1070
   392
1070
     1
  0
DIMSTYLE
105
5E9
102
{ACAD_REACTORS
330
598B
330
59BB
330
59D3
330
5A96
330
5B27
330
5B81
330
5E47
330
5E5F
330
5EA0
330
5EB8
330
6141
330
6162
330
617A
330
76BD
330
76FA
330
903F
330
90C4
330
9107
330
9165
330
91A5
102
}
330
A
100
AcDbSymbolTableRecord
100
AcDbDimStyleTableRecord
  2
SEISA$0
 70
     0
  4
"
 40
5.0
 41
2.5
 42
0.625
 43
10.0
 44
0.625
 47
0.1
 48
0.1
 73
     0
 74
     0
 77
     3
 78
     8
 79
     2
 90
     1
140
3.5
141
0.0
143
0.0393701
146
0.71
147
1.5
172
     1
176
     3
177
     3
178
     3
271
     2
272
     2
283
     0
286
     8
340
5D5
341
69
342
69
371
    -1
372
    -1
  0
DIMSTYLE
105
9565
330
A
100
AcDbSymbolTableRecord
100
AcDbDimStyleTableRecord
  2
AM_ISO
 70
     0
  4
"
 41
2.5
 42
1.0
 43
10.0
 44
1.0
 47
0.1
 48
0.1
 73
     0
 74
     0
 77
     1
 78
     8
 79
     2
 90
     1
140
3.5
141
0.0
143
0.0393701
146
0.71
147
1.5
172
     1
176
   256
177
   256
178
     2
271
     2
272
     3
274
     4
283
     0
284
     8
340
11
371
    -1
372
    -1
  0
DIMSTYLE
105
9566
330
A
100
AcDbSymbolTableRecord
100
AcDbDimStyleTableRecord
  2
AM_ISO$3
 70
     0
  4
"
 41
2.5
 42
1.0
 43
10.0
 44
1.0
 47
0.1
 48
0.1
 73
     0
 77
     1
 78
     8
 79
     2
 90
     1
140
3.5
141
0.0
143
0.0393701
146
0.71
147
1.5
176
   256
177
   256
178
     2
271
     2
272
     3
274
     4
283
     0
284
     8
288
     1
289
     0
340
11
371
    -1
372
    -1
  0
DIMSTYLE
105
9567
330
A
100
AcDbSymbolTableRecord
100
AcDbDimStyleTableRecord
  2
AM_ISO$4
 70
     0
  4
"
 41
2.5
 42
1.0
 43
10.0
 44
1.0
 47
0.1
 48
0.1
 73
     0
 77
     1
 78
     8
 79
     2
 90
     1
140
3.5
141
0.0
143
0.0393701
146
0.71
147
1.5
176
   256
177
   256
178
     2
271
     2
272
     3
274
     4
283
     0
284
     8
288
     1
289
     0
340
11
371
    -1
372
    -1
  0
DIMSTYLE
105
9568
330
A
100
AcDbSymbolTableRecord
100
AcDbDimStyleTableRecord
  2
AM_ISO$6
 70
     0
  4
"
 41
2.5
 42
1.0
 43
10.0
 44
1.0
 47
0.1
 48
0.1
 73
     0
 74
     0
 78
     8
 79
     2
 90
     1
140
3.5
141
0.0
143
0.0393701
146
0.71
147
1.5
172
     1
176
   256
177
   256
178
     2
271
     2
272
     3
274
     4
283
     0
284
     8
340
11
371
    -1
372
    -1
  0
DIMSTYLE
105
9569
330
A
100
AcDbSymbolTableRecord
100
AcDbDimStyleTableRecord
  2
AM_ISO$7
 70
     0
  4
"
 41
2.5
 42
1.0
 43
10.0
 44
1.0
 47
0.1
 48
0.1
 73
     0
 74
     0
 77
     1
 78
     8
 79
     2
 90
     1
140
5.0
141
0.0
143
0.0393701
146
0.71
147
1.5
172
     1
176
   256
177
   256
178
     2
271
     2
272
     3
274
     4
283
     0
284
     8
340
11
371
    -1
372
    -1
  0
DIMSTYLE
105
956A
330
A
100
AcDbSymbolTableRecord
100
AcDbDimStyleTableRecord
  2
AM_ISO$SF
 70
     0
  4
"
 41
2.5
 42
1.0
 43
10.0
 44
1.0
 47
0.1
 48
0.1
 73
     0
 74
     0
 75
     1
 76
     1
 77
     1
 78
     8
 79
     2
 90
     1
140
3.5
141
0.0
143
0.0393701
146
0.71
147
1.5
172
     1
176
   256
177
   256
178
     2
271
     2
272
     3
274
     4
283
     0
284
     8
340
11
371
    -1
372
    -1
  0
DIMSTYLE
105
956B
330
A
100
AcDbSymbolTableRecord
100
AcDbDimStyleTableRecord
  2
AM_ISO$SH
 70
     0
  4
"
 41
2.5
 42
1.0
 43
10.0
 44
1.0
 47
0.1
 48
0.1
 73
     0
 74
     0
 75
     1
 76
     1
 77
     1
 78
     8
 79
     2
 90
     1
140
3.5
141
0.0
143
0.0393701
144
2.0
146
0.71
147
1.5
172
     1
173
     1
176
   256
177
   256
178
     2
271
     2
272
     3
274
     4
283
     0
284
     8
340
11
343
74
371
    -1
372
    -1
  0
ENDTAB
  0
TABLE
  2
BLOCK_RECORD
  5
1
330
0
100
AcDbSymbolTable
 70
    38
  0
BLOCK_RECORD
  5
1F
102
{ACAD_XDICTIONARY
360
82
102
}
330
1
100
AcDbSymbolTableRecord
100
AcDbBlockTableRecord
  2
*Model_Space
340
22
 70
     0
280
     1
281
     0
  0
BLOCK_RECORD
  5
1B
330
1
100
AcDbSymbolTableRecord
100
AcDbBlockTableRecord
  2
*Paper_Space
340
1E
 70
     0
280
     1
281
     0
  0
BLOCK_RECORD
  5
23
330
1
100
AcDbSymbolTableRecord
100
AcDbBlockTableRecord
  2
*Paper_Space0
340
26
 70
     0
280
     1
281
     0
  0
BLOCK_RECORD
  5
69
330
1
100
AcDbSymbolTableRecord
100
AcDbBlockTableRecord
  2
_Open30
340
0
102
{BLKREFS
331
873E
331
873F
331
8751
331
8752
331
8768
331
8773
331
87A1
331
87A2
331
87AA
331
87AB
331
87BB
331
87BC
331
87C4
331
87C5
331
87D5
331
87D6
331
87DE
331
87DF
331
87E7
331
87E8
331
87F3
331
87FE
331
8EAB
331
8EAC
331
8EB4
331
8EB5
331
9102
331
9103
331
9160
331
9161
331
920A
331
920B
331
9220
331
9221
331
9344
331
9345
102
}
 70
     0
280
     1
281
     0
  0
BLOCK_RECORD
  5
74
330
1
100
AcDbSymbolTableRecord
100
AcDbBlockTableRecord
  2
GENAXEH
340
0
 70
     0
280
     1
281
     0
  0
BLOCK_RECORD
  5
2C82
330
1
100
AcDbSymbolTableRecord
100
AcDbBlockTableRecord
  2
GENDOT
340
0
102
{BLKREFS
331
8767
331
8772
331
87F2
331
87FD
102
}
 70
     0
280
     1
281
     0
  0
BLOCK_RECORD
  5
4C35
102
{ACAD_XDICTIONARY
360
66FE
102
}
330
1
100
AcDbSymbolTableRecord
100
AcDbBlockTableRecord
  2
ロッカクアナツキプラグ-1　R1／4
340
0
310
2800000020000000200000000100080000000000000400000000000000000000000000000000000000000000000080000080000000808000800000008000800080800000C0C0C000C0DCC000F0CAA6000020400000206000002080000020A0000020C0000020E00000400000004020000040400000406000004080000040A0
310
000040C0000040E00000600000006020000060400000606000006080000060A0000060C0000060E00000800000008020000080400000806000008080000080A0000080C0000080E00000A0000000A0200000A0400000A0600000A0800000A0A00000A0C00000A0E00000C0000000C0200000C0400000C0600000C0800000C0
310
A00000C0C00000C0E00000E0000000E0200000E0400000E0600000E0800000E0A00000E0C00000E0E00040000000400020004000400040006000400080004000A0004000C0004000E00040200000402020004020400040206000402080004020A0004020C0004020E000404000004040200040404000404060004040800040
310
40A0004040C0004040E00040600000406020004060400040606000406080004060A0004060C0004060E00040800000408020004080400040806000408080004080A0004080C0004080E00040A0000040A0200040A0400040A0600040A0800040A0A00040A0C00040A0E00040C0000040C0200040C0400040C0600040C08000
310
40C0A00040C0C00040C0E00040E0000040E0200040E0400040E0600040E0800040E0A00040E0C00040E0E00080000000800020008000400080006000800080008000A0008000C0008000E00080200000802020008020400080206000802080008020A0008020C0008020E00080400000804020008040400080406000804080
310
008040A0008040C0008040E00080600000806020008060400080606000806080008060A0008060C0008060E00080800000808020008080400080806000808080008080A0008080C0008080E00080A0000080A0200080A0400080A0600080A0800080A0A00080A0C00080A0E00080C0000080C0200080C0400080C0600080C0
310
800080C0A00080C0C00080C0E00080E0000080E0200080E0400080E0600080E0800080E0A00080E0C00080E0E000C0000000C0002000C0004000C0006000C0008000C000A000C000C000C000E000C0200000C0202000C0204000C0206000C0208000C020A000C020C000C020E000C0400000C0402000C0404000C0406000C0
310
408000C040A000C040C000C040E000C0600000C0602000C0604000C0606000C0608000C060A000C060C000C060E000C0800000C0802000C0804000C0806000C0808000C080A000C080C000C080E000C0A00000C0A02000C0A04000C0A06000C0A08000C0A0A000C0A0C000C0A0E000C0C00000C0C02000C0C04000C0C06000
310
C0C08000C0C0A000F0FBFF00A4A0A000808080000000FF0000FF000000FFFF00FF000000FF00FF00FFFF0000FFFFFF000000000000000000000000000000000000000000000000000000000000000000000000000000000000000000000000F900000000000000000000000000000000000000000000000000000000000000
310
F900000000000000000000000000000000000000000000000000000000000000FEFE000000000000000000000000000000000000000000000000000000FEFEFEF900FEFEFE00000000000000000000000000000000000000000000FEFEFFFFFFFFFFFFFFFFFEFE000000000000000000000000000000000000FEFEFFFF0000
310
00F90000000000FFFEFE000000000000000000000000000000FE00FF0000000000F9000000000000FF00FE00000000000000000000000000FE00FF000000000000F900000000000000FFFFFE000000000000000000000000FEFF00000000000000F90000000000000000FF00FE00000000000000000000FEFF000000000000
310
0000FF000000000000000000FFFE00000000000000000000FEFF000000000000FFFFF9FFFF00000000000000FFFE000000000000000000FEFF000000000000FF0000F90000FFFF000000000000FFFE0000000000000000FEFF0000000000FF000000F900000000FF0000000000FFFE0000000000000000FEFF0000000000FF
310
000000F900000000FF0000000000FFFE00000000000000FE00FF0000000000FF000000F900000000FF0000000000FF00FE00000000F9F9FEF9F9F9F9F9F9F9F9F9F9F9F9F9F9F9F9F9F9F9F9F9F9F9F9FEF9F90000000000FEFF0000000000FF000000F900000000FF0000000000FF00FE00000000000000FEFF0000000000
310
FF000000F900000000FF0000000000FFFE0000000000000000FEFF000000000000FFFF00F90000FFFF000000000000FFFE000000000000000000FEFF00000000000000FFF9FFFF00000000000000FFFE00000000000000000000FEFF0000000000000000FF000000000000000000FFFE0000000000000000000000FEFF0000
310
0000000000F90000000000000000FF00FE0000000000000000000000FE00FF000000000000F90000000000000000FFFE00000000000000000000000000FE00FF0000000000F9000000000000FFFFFE000000000000000000000000000000FE00FF00000000F90000000000FF00FE0000000000000000000000000000000000
310
FEFEFEFFFFFFFFFFFFFFFFFEFEFE000000000000000000000000000000000000000000FEFE00F900FEFEFE0000000000000000000000000000000000000000000000000000FEFEFE000000000000000000000000000000000000000000000000000000000000F9000000000000000000000000000000000000000000000000
310
00000000000000F9000000000000000000000000000000000000000000000000000000000000000000000000000000000000000000000000
102
{BLKREFS
331
4D46
102
}
 70
     4
280
     1
281
     0
  0
BLOCK_RECORD
  5
4C43
102
{ACAD_XDICTIONARY
360
6718
102
}
330
1
100
AcDbSymbolTableRecord
100
AcDbBlockTableRecord
  2
ロッカクアナツキプラグ-2　R1／4
340
0
310
2800000020000000200000000100080000000000000400000000000000000000000000000000000000000000000080000080000000808000800000008000800080800000C0C0C000C0DCC000F0CAA6000020400000206000002080000020A0000020C0000020E00000400000004020000040400000406000004080000040A0
310
000040C0000040E00000600000006020000060400000606000006080000060A0000060C0000060E00000800000008020000080400000806000008080000080A0000080C0000080E00000A0000000A0200000A0400000A0600000A0800000A0A00000A0C00000A0E00000C0000000C0200000C0400000C0600000C0800000C0
310
A00000C0C00000C0E00000E0000000E0200000E0400000E0600000E0800000E0A00000E0C00000E0E00040000000400020004000400040006000400080004000A0004000C0004000E00040200000402020004020400040206000402080004020A0004020C0004020E000404000004040200040404000404060004040800040
310
40A0004040C0004040E00040600000406020004060400040606000406080004060A0004060C0004060E00040800000408020004080400040806000408080004080A0004080C0004080E00040A0000040A0200040A0400040A0600040A0800040A0A00040A0C00040A0E00040C0000040C0200040C0400040C0600040C08000
310
40C0A00040C0C00040C0E00040E0000040E0200040E0400040E0600040E0800040E0A00040E0C00040E0E00080000000800020008000400080006000800080008000A0008000C0008000E00080200000802020008020400080206000802080008020A0008020C0008020E00080400000804020008040400080406000804080
310
008040A0008040C0008040E00080600000806020008060400080606000806080008060A0008060C0008060E00080800000808020008080400080806000808080008080A0008080C0008080E00080A0000080A0200080A0400080A0600080A0800080A0A00080A0C00080A0E00080C0000080C0200080C0400080C0600080C0
310
800080C0A00080C0C00080C0E00080E0000080E0200080E0400080E0600080E0800080E0A00080E0C00080E0E000C0000000C0002000C0004000C0006000C0008000C000A000C000C000C000E000C0200000C0202000C0204000C0206000C0208000C020A000C020C000C020E000C0400000C0402000C0404000C0406000C0
310
408000C040A000C040C000C040E000C0600000C0602000C0604000C0606000C0608000C060A000C060C000C060E000C0800000C0802000C0804000C0806000C0808000C080A000C080C000C080E000C0A00000C0A02000C0A04000C0A06000C0A08000C0A0A000C0A0C000C0A0E000C0C00000C0C02000C0C04000C0C06000
310
C0C08000C0C0A000F0FBFF00A4A0A000808080000000FF0000FF000000FFFF00FF000000FF00FF00FFFF0000FFFFFF00000000000000000000000000000000000000000000000000000000000000000000000000000000000000000000000000F9000000000000000000000000000000000000000000000000000000000000
310
00F9000000000000000000000000000000000000000000000000000000000000FEFE000000000000000000000000000000000000000000000000000000FEFEFE00F9FEFEFE00000000000000000000000000000000000000000000FEFEFFFFFFFFFFFFFFFFFEFE000000000000000000000000000000000000FEFEFFFF0000
310
0000F900000000FFFEFE000000000000000000000000000000FE00FF000000000000F90000000000FF00FE00000000000000000000000000FE00FF00000000000000F9000000000000FFFFFE000000000000000000000000FEFF0000000000000000F900000000000000FF00FE00000000000000000000FEFF000000000000
310
000000FF0000000000000000FFFE00000000000000000000FEFF00000000000000FFFFF9FFFF000000000000FFFE000000000000000000FEFF000000000000FFFF0000F90000FF000000000000FFFE0000000000000000FEFF0000000000FF00000000F9000000FF0000000000FFFE0000000000000000FEFF0000000000FF
310
00000000F9000000FF0000000000FFFE00000000000000FE00FF0000000000FF00000000F9000000FF0000000000FF00FE00000000F9F9FEF9F9F9F9F9F9F9FFF9F9F9F9F9F9F9F9FFF9F9F9F9F9F9F9FEF9F90000000000FEFF0000000000FF00000000F9000000FF0000000000FF00FE00000000000000FEFF0000000000
310
FF00000000F9000000FF0000000000FFFE0000000000000000FEFF000000000000FFFF0000F900FFFF000000000000FFFE000000000000000000FEFF00000000000000FFFFF9FF00000000000000FFFE00000000000000000000FEFF000000000000000000FF0000000000000000FFFE0000000000000000000000FEFF0000
310
000000000000F900000000000000FF00FE0000000000000000000000FE00FF00000000000000F900000000000000FFFE00000000000000000000000000FE00FF000000000000F90000000000FFFFFE000000000000000000000000000000FE00FF0000000000F900000000FF00FE0000000000000000000000000000000000
310
FEFEFEFFFFFFFFFFFFFFFFFEFEFE000000000000000000000000000000000000000000FEFEFE00F900FEFE000000000000000000000000000000000000000000000000000000FEFEFE000000000000000000000000000000000000000000000000000000000000F90000000000000000000000000000000000000000000000
310
0000000000000000F90000000000000000000000000000000000000000000000000000000000000000000000000000000000000000000000
102
{BLKREFS
331
4F28
102
}
 70
     4
280
     1
281
     0
  0
BLOCK_RECORD
  5
4D0C
102
{ACAD_XDICTIONARY
360
4DC7
102
}
330
1
100
AcDbSymbolTableRecord
100
AcDbBlockTableRecord
  2
ケースＡ-1 SAM400
340
0
310
2800000020000000200000000100080000000000000400000000000000000000000000000000000000000000000080000080000000808000800000008000800080800000C0C0C000C0DCC000F0CAA6000020400000206000002080000020A0000020C0000020E00000400000004020000040400000406000004080000040A0
310
000040C0000040E00000600000006020000060400000606000006080000060A0000060C0000060E00000800000008020000080400000806000008080000080A0000080C0000080E00000A0000000A0200000A0400000A0600000A0800000A0A00000A0C00000A0E00000C0000000C0200000C0400000C0600000C0800000C0
310
A00000C0C00000C0E00000E0000000E0200000E0400000E0600000E0800000E0A00000E0C00000E0E00040000000400020004000400040006000400080004000A0004000C0004000E00040200000402020004020400040206000402080004020A0004020C0004020E000404000004040200040404000404060004040800040
310
40A0004040C0004040E00040600000406020004060400040606000406080004060A0004060C0004060E00040800000408020004080400040806000408080004080A0004080C0004080E00040A0000040A0200040A0400040A0600040A0800040A0A00040A0C00040A0E00040C0000040C0200040C0400040C0600040C08000
310
40C0A00040C0C00040C0E00040E0000040E0200040E0400040E0600040E0800040E0A00040E0C00040E0E00080000000800020008000400080006000800080008000A0008000C0008000E00080200000802020008020400080206000802080008020A0008020C0008020E00080400000804020008040400080406000804080
310
008040A0008040C0008040E00080600000806020008060400080606000806080008060A0008060C0008060E00080800000808020008080400080806000808080008080A0008080C0008080E00080A0000080A0200080A0400080A0600080A0800080A0A00080A0C00080A0E00080C0000080C0200080C0400080C0600080C0
310
800080C0A00080C0C00080C0E00080E0000080E0200080E0400080E0600080E0800080E0A00080E0C00080E0E000C0000000C0002000C0004000C0006000C0008000C000A000C000C000C000E000C0200000C0202000C0204000C0206000C0208000C020A000C020C000C020E000C0400000C0402000C0404000C0406000C0
310
408000C040A000C040C000C040E000C0600000C0602000C0604000C0606000C0608000C060A000C060C000C060E000C0800000C0802000C0804000C0806000C0808000C080A000C080C000C080E000C0A00000C0A02000C0A04000C0A06000C0A08000C0A0A000C0A0C000C0A0E000C0C00000C0C02000C0C04000C0C06000
310
C0C08000C0C0A000F0FBFF00A4A0A000808080000000FF0000FF000000FFFF00FF000000FF00FF00FFFF0000FFFFFF00000000000000000000000000000000000000000000000000000000000000000000000000000000000000000000FFFF00000000000000000000000000000000000000000000000000000000000000FF
310
00000000000000000000000000000000000000000000000000000000000000FF00000000000000000000000000000000000000000000000000000000000000FFFFFFFFFFFFFFFF000000000000000000000000000000000000000000000000FF000000000000FF000000000000000000000000000000000000000000000000
310
FF000000000000FF000000000000000000000000000000000000000000000000FF000000000000FF000000000000000000000000000000000000000000000000FF000000000000FF000000000000000000000000000000000000000000000000FF000000000000FF0000000000000000000000000000000000000000000000
310
00FF000000000000FF000000000000000000000000000000000000000000000000FF000000000000FF0000000000000000000000000000000000000000000000FEFE000000000000FF0000000000000000000000000000000000000000000000FEFE000000000000FF00000000000000000000000000000000000000000000
310
0000FF000000000000FF000000000000000000000000000000000000000000000000FF000000000000FF000000000000000000000000000000000000000000000000FF000000000000FF0000000000000000000000000000000000000000000000000000000000000000000000000000000000000000000000000000000000
310
00000000000000000000000000000000000000000000000000000000000000000000000000000000000000000000000000000000000000000000000000000000000000000000000000000000000000000000000000000000000000000000000000000000000000000000000000000000000000000000000000000000000000
310
00000000000000000000000000000000000000000000000000000000000000000000000000000000000000000000000000000000000000000000000000000000000000000000000000000000000000000000000000000000000000000000000000000000000000000000000000000000000000000000000000000000000000
310
000000FF0000FFFFF9F9FFFFFF00000000000000000000000000000000000000000000FFFFFFFFFFFFFFFFFFFF0000000000000000000000000000000000000000F9F9F9FFFFF9F90000000000000000000000000000000000000000000000000000FFFFFFFF00000000000000000000000000000000000000000000000000
310
0000000000FFFF00000000000000000000000000000000000000000000000000000000000000000000000000000000000000000000000000
102
{BLKREFS
331
4D47
102
}
 70
     4
280
     1
281
     0
  0
BLOCK_RECORD
  5
4EEA
102
{ACAD_XDICTIONARY
360
4FCD
102
}
330
1
100
AcDbSymbolTableRecord
100
AcDbBlockTableRecord
  2
ケースＡ-2 SAM400
340
0
310
2800000020000000200000000100080000000000000400000000000000000000000000000000000000000000000080000080000000808000800000008000800080800000C0C0C000C0DCC000F0CAA6000020400000206000002080000020A0000020C0000020E00000400000004020000040400000406000004080000040A0
310
000040C0000040E00000600000006020000060400000606000006080000060A0000060C0000060E00000800000008020000080400000806000008080000080A0000080C0000080E00000A0000000A0200000A0400000A0600000A0800000A0A00000A0C00000A0E00000C0000000C0200000C0400000C0600000C0800000C0
310
A00000C0C00000C0E00000E0000000E0200000E0400000E0600000E0800000E0A00000E0C00000E0E00040000000400020004000400040006000400080004000A0004000C0004000E00040200000402020004020400040206000402080004020A0004020C0004020E000404000004040200040404000404060004040800040
310
40A0004040C0004040E00040600000406020004060400040606000406080004060A0004060C0004060E00040800000408020004080400040806000408080004080A0004080C0004080E00040A0000040A0200040A0400040A0600040A0800040A0A00040A0C00040A0E00040C0000040C0200040C0400040C0600040C08000
310
40C0A00040C0C00040C0E00040E0000040E0200040E0400040E0600040E0800040E0A00040E0C00040E0E00080000000800020008000400080006000800080008000A0008000C0008000E00080200000802020008020400080206000802080008020A0008020C0008020E00080400000804020008040400080406000804080
310
008040A0008040C0008040E00080600000806020008060400080606000806080008060A0008060C0008060E00080800000808020008080400080806000808080008080A0008080C0008080E00080A0000080A0200080A0400080A0600080A0800080A0A00080A0C00080A0E00080C0000080C0200080C0400080C0600080C0
310
800080C0A00080C0C00080C0E00080E0000080E0200080E0400080E0600080E0800080E0A00080E0C00080E0E000C0000000C0002000C0004000C0006000C0008000C000A000C000C000C000E000C0200000C0202000C0204000C0206000C0208000C020A000C020C000C020E000C0400000C0402000C0404000C0406000C0
310
408000C040A000C040C000C040E000C0600000C0602000C0604000C0606000C0608000C060A000C060C000C060E000C0800000C0802000C0804000C0806000C0808000C080A000C080C000C080E000C0A00000C0A02000C0A04000C0A06000C0A08000C0A0A000C0A0C000C0A0E000C0C00000C0C02000C0C04000C0C06000
310
C0C08000C0C0A000F0FBFF00A4A0A000808080000000FF0000FF000000FFFF00FF000000FF00FF00FFFF0000FFFFFF0000000000000000000000000000000000000000000000000000000000000000000000000000000000000000000000000000FFFF00000000000000000000000000000000000000000000000000000000
310
0000FFFF000000000000000000000000000000000000000000000000000000000000FFFF0000000000000000000000000000000000000000000000FFFFFFFFFFFFFFFFFF0000000000000000000000000000000000000000000000FF000000000000FFFF0000000000000000000000000000000000000000000000FF000000
310
000000FFFF0000000000000000000000000000000000000000000000FF000000000000FFFF0000000000000000000000000000000000000000000000FF000000000000FFFF0000000000000000000000000000000000000000000000FF000000000000FFFF0000000000000000000000000000000000000000000000FF0000
310
00000000FFFF0000000000000000000000000000000000000000000000FF000000000000FFFF0000000000000000000000000000000000000000000000FF000000000000FEFF0000000000000000000000000000000000000000000000FF000000000000FFFE0000000000000000000000000000000000000000000000FF00
310
0000000000FFFF0000000000000000000000000000000000000000000000FF000000000000FFFF0000000000000000000000000000000000000000000000FF000000000000FFFF0000000000000000000000000000000000000000000000000000000000000000000000000000000000000000000000000000000000000000
310
00000000000000000000000000000000000000000000000000000000000000000000000000000000000000000000000000000000000000000000000000000000000000000000000000000000000000000000000000000000000000000000000000000000000000000000000000000000000000000000000000000000000000
310
00000000000000000000000000000000000000000000000000000000000000000000FA0000000000000000000000000000000000000000000000000000000000FAFAFAFAFAFA00000000000000000000000000000000000000000000000000000000FAFAFAFA00000000000000000000000000000000000000000000000000
310
00FFFFFFF9F9FFFF0000FF00000000000000000000000000000000000000000000FFFFFFFFFFFFFFFFFFFF000000000000000000000000000000000000000000000000000000F9F9FFFFF9F9F9000000000000000000000000000000000000000000000000000000FFFFFFFF00000000000000000000000000000000000000
310
000000000000000000FFFF000000000000000000000000000000000000000000000000000000000000000000000000000000000000000000
102
{BLKREFS
331
4F29
102
}
 70
     4
280
     1
281
     0
  0
BLOCK_RECORD
  5
5012
102
{ACAD_XDICTIONARY
360
693F
102
}
330
1
100
AcDbSymbolTableRecord
100
AcDbBlockTableRecord
  2
センタ-1 SAM400
340
0
310
2800000020000000200000000100080000000000000400000000000000000000000000000000000000000000000080000080000000808000800000008000800080800000C0C0C000C0DCC000F0CAA6000020400000206000002080000020A0000020C0000020E00000400000004020000040400000406000004080000040A0
310
000040C0000040E00000600000006020000060400000606000006080000060A0000060C0000060E00000800000008020000080400000806000008080000080A0000080C0000080E00000A0000000A0200000A0400000A0600000A0800000A0A00000A0C00000A0E00000C0000000C0200000C0400000C0600000C0800000C0
310
A00000C0C00000C0E00000E0000000E0200000E0400000E0600000E0800000E0A00000E0C00000E0E00040000000400020004000400040006000400080004000A0004000C0004000E00040200000402020004020400040206000402080004020A0004020C0004020E000404000004040200040404000404060004040800040
310
40A0004040C0004040E00040600000406020004060400040606000406080004060A0004060C0004060E00040800000408020004080400040806000408080004080A0004080C0004080E00040A0000040A0200040A0400040A0600040A0800040A0A00040A0C00040A0E00040C0000040C0200040C0400040C0600040C08000
310
40C0A00040C0C00040C0E00040E0000040E0200040E0400040E0600040E0800040E0A00040E0C00040E0E00080000000800020008000400080006000800080008000A0008000C0008000E00080200000802020008020400080206000802080008020A0008020C0008020E00080400000804020008040400080406000804080
310
008040A0008040C0008040E00080600000806020008060400080606000806080008060A0008060C0008060E00080800000808020008080400080806000808080008080A0008080C0008080E00080A0000080A0200080A0400080A0600080A0800080A0A00080A0C00080A0E00080C0000080C0200080C0400080C0600080C0
310
800080C0A00080C0C00080C0E00080E0000080E0200080E0400080E0600080E0800080E0A00080E0C00080E0E000C0000000C0002000C0004000C0006000C0008000C000A000C000C000C000E000C0200000C0202000C0204000C0206000C0208000C020A000C020C000C020E000C0400000C0402000C0404000C0406000C0
310
408000C040A000C040C000C040E000C0600000C0602000C0604000C0606000C0608000C060A000C060C000C060E000C0800000C0802000C0804000C0806000C0808000C080A000C080C000C080E000C0A00000C0A02000C0A04000C0A06000C0A08000C0A0A000C0A0C000C0A0E000C0C00000C0C02000C0C04000C0C06000
310
C0C08000C0C0A000F0FBFF00A4A0A000808080000000FF0000FF000000FFFF00FF000000FF00FF00FFFF0000FFFFFF00000000000000000000000000000000000000000000000000000000000000000000000000000000000000000000000000FFFFFFFFFFFFFFFFFF00000000000000000000000000000000000000000000
310
00000000FF0000000000FF00000000000000000000000000000000000000000000000000FF0000000000FF00000000000000000000000000000000000000000000000000FF0000000000FF00000000000000000000000000000000000000000000000000FF0000000000FF0000000000000000000000000000000000000000
310
0000000000FF0000000000FF00000000000000000000000000000000000000000000000000FF0000000000FF00000000000000000000000000000000000000000000000000FF0000000000FF00000000000000000000000000000000000000000000000000FF0000000000FF00000000000000000000000000000000000000
310
000000000000FF0000000000FF00000000000000000000000000000000000000000000000000FF0000000000FF00000000000000000000000000000000000000000000000000FF0000000000FF00000000000000000000000000000000000000000000000000FF0000000000FF000000000000000000000000000000000000
310
00000000000000FF0000000000FF000000000000000000000000A4A4A4A4A40000000000000000FF0000000000FF000000000000000000000000FF000000000000000000000000000000000000FF000000000000000000000000FF000000000000000000000000000000000000FF000000000000000000000000FF00000000
310
0000000000000000000000000000FF000000000000000000000000FF000000000000000000000000000000000000FF000000000000000000000000FF000000000000000000000000000000000000FF000000000000000000000000FF000000000000000000000000000000000000FF000000000000000000000000FF000000
310
000000000000000000000000000000FF000000000000000000000000FFFFFFFFFFFFFFFFFFFFFFFFFFFFFFFFFFFFFFFF000000000000000000000000FFFFFFFFFFFFFFFFFFFFFFFFFFFFFFFFFFFFFFFF000000000000000000000000FF000000000000000000000000000000000000FF000000000000000000000000FF0000
310
00000000000000000000000000000000FF000000000000000000000000FF000000000000000000000000000000000000FF000000000000000000000000FFFFFFFFFFF9FFFFFFFFFFFFFFFFFFFFFFFFFF00000000000000000000000000000000FFFFF9F9F9FF00000000000000000000000000000000000000000000000000
310
000000F900000000000000000000000000000000000000000000000000000000000000000000000000000000000000000000000000000000
102
{BLKREFS
331
5038
102
}
 70
     4
280
     1
281
     0
  0
BLOCK_RECORD
  5
53D4
102
{ACAD_XDICTIONARY
360
545B
102
}
330
1
100
AcDbSymbolTableRecord
100
AcDbBlockTableRecord
  2
リーマボルト-1 SAM400 M16
340
0
310
2800000020000000200000000100080000000000000400000000000000000000000000000000000000000000000080000080000000808000800000008000800080800000C0C0C000C0DCC000F0CAA6000020400000206000002080000020A0000020C0000020E00000400000004020000040400000406000004080000040A0
310
000040C0000040E00000600000006020000060400000606000006080000060A0000060C0000060E00000800000008020000080400000806000008080000080A0000080C0000080E00000A0000000A0200000A0400000A0600000A0800000A0A00000A0C00000A0E00000C0000000C0200000C0400000C0600000C0800000C0
310
A00000C0C00000C0E00000E0000000E0200000E0400000E0600000E0800000E0A00000E0C00000E0E00040000000400020004000400040006000400080004000A0004000C0004000E00040200000402020004020400040206000402080004020A0004020C0004020E000404000004040200040404000404060004040800040
310
40A0004040C0004040E00040600000406020004060400040606000406080004060A0004060C0004060E00040800000408020004080400040806000408080004080A0004080C0004080E00040A0000040A0200040A0400040A0600040A0800040A0A00040A0C00040A0E00040C0000040C0200040C0400040C0600040C08000
310
40C0A00040C0C00040C0E00040E0000040E0200040E0400040E0600040E0800040E0A00040E0C00040E0E00080000000800020008000400080006000800080008000A0008000C0008000E00080200000802020008020400080206000802080008020A0008020C0008020E00080400000804020008040400080406000804080
310
008040A0008040C0008040E00080600000806020008060400080606000806080008060A0008060C0008060E00080800000808020008080400080806000808080008080A0008080C0008080E00080A0000080A0200080A0400080A0600080A0800080A0A00080A0C00080A0E00080C0000080C0200080C0400080C0600080C0
310
800080C0A00080C0C00080C0E00080E0000080E0200080E0400080E0600080E0800080E0A00080E0C00080E0E000C0000000C0002000C0004000C0006000C0008000C000A000C000C000C000E000C0200000C0202000C0204000C0206000C0208000C020A000C020C000C020E000C0400000C0402000C0404000C0406000C0
310
408000C040A000C040C000C040E000C0600000C0602000C0604000C0606000C0608000C060A000C060C000C060E000C0800000C0802000C0804000C0806000C0808000C080A000C080C000C080E000C0A00000C0A02000C0A04000C0A06000C0A08000C0A0A000C0A0C000C0A0E000C0C00000C0C02000C0C04000C0C06000
310
C0C08000C0C0A000F0FBFF00A4A0A000808080000000FF0000FF000000FFFF00FF000000FF00FF00FFFF0000FFFFFF0000000000000000000000000000000000000000000000000000000000000000000000000000000000000000000000000000000000000000000000000000000000000000000000000000000000000000
310
00000000000000000000000000000000000000000000000000000000000000000000000000000000000000000000000000000000000000000000000000000000000000000000000000000000000000000000000000000000000000000000000000000000000000000000000000000000000000000000000000000000000000
310
00000000000000000000000000000000000000000000000000000000000000000000000000000000000000000000000000000000000000000000000000000000000000000000000000000000000000000000000000000000000000000000000000000000000000000000000000000000000000000000000000000000000000
310
0000000000000000FFFFFFFFFFFFFF000000000000FFFFFFFF00000000000000000000000000000000FF00000000FF000000000000FF0000FFFF00000000000000000000000000FFFFFF00000000FFFFFF000000FFFF000000FF00000000000000000000000000FFFFFFFFFFFFFFFEFEFEFF0000FFFF000000FF0000000000
310
0000000000000000FFFFFF00000000FF00FFFF0000FFFF000000FF00000000000000000000000000FFFFFF00000000FF00FFFF0000FFFF000000FF00000000000000000000000000FFFFFF00000000FF00FFFF0000FFFF000000FF00000000000000000000000000FFFFFF00000000FF00FFFF0000FFFF000000FF00000000
310
000000000000000000FFFFFFFFFFFFFFFEFEFEFF000000FF0000FFFF00000000000000000000000000FFFFFF00000000FFFFFF00000000FFFFFFFF00000000000000000000000000000000FF00000000FF00000000000000000000000000000000000000000000000000FFFFFFFFFFFFFF0000000000000000000000000000
310
00000000000000000000000000000000000000000000000000000000000000000000000000000000000000000000000000000000000000000000000000000000000000000000000000000000000000000000000000000000000000000000000000000000000000000000000000000000000000000000000000000000000000
310
00000000000000000000000000000000000000000000000000000000000000000000000000000000000000000000000000000000000000000000000000000000000000000000000000000000000000000000000000000000000000000000000000000000000000000000000000000000000000000000000000000000000000
310
0000000000000000000000000000000000000000000000000000000000000000000000000000000000000000000000000000000000000000
102
{BLKREFS
331
53FE
102
}
 70
     4
280
     1
281
     0
  0
BLOCK_RECORD
  5
54C6
102
{ACAD_XDICTIONARY
360
554D
102
}
330
1
100
AcDbSymbolTableRecord
100
AcDbBlockTableRecord
  2
リーマボルト-2 SAM400 M16
340
0
310
2800000020000000200000000100080000000000000400000000000000000000000000000000000000000000000080000080000000808000800000008000800080800000C0C0C000C0DCC000F0CAA6000020400000206000002080000020A0000020C0000020E00000400000004020000040400000406000004080000040A0
310
000040C0000040E00000600000006020000060400000606000006080000060A0000060C0000060E00000800000008020000080400000806000008080000080A0000080C0000080E00000A0000000A0200000A0400000A0600000A0800000A0A00000A0C00000A0E00000C0000000C0200000C0400000C0600000C0800000C0
310
A00000C0C00000C0E00000E0000000E0200000E0400000E0600000E0800000E0A00000E0C00000E0E00040000000400020004000400040006000400080004000A0004000C0004000E00040200000402020004020400040206000402080004020A0004020C0004020E000404000004040200040404000404060004040800040
310
40A0004040C0004040E00040600000406020004060400040606000406080004060A0004060C0004060E00040800000408020004080400040806000408080004080A0004080C0004080E00040A0000040A0200040A0400040A0600040A0800040A0A00040A0C00040A0E00040C0000040C0200040C0400040C0600040C08000
310
40C0A00040C0C00040C0E00040E0000040E0200040E0400040E0600040E0800040E0A00040E0C00040E0E00080000000800020008000400080006000800080008000A0008000C0008000E00080200000802020008020400080206000802080008020A0008020C0008020E00080400000804020008040400080406000804080
310
008040A0008040C0008040E00080600000806020008060400080606000806080008060A0008060C0008060E00080800000808020008080400080806000808080008080A0008080C0008080E00080A0000080A0200080A0400080A0600080A0800080A0A00080A0C00080A0E00080C0000080C0200080C0400080C0600080C0
310
800080C0A00080C0C00080C0E00080E0000080E0200080E0400080E0600080E0800080E0A00080E0C00080E0E000C0000000C0002000C0004000C0006000C0008000C000A000C000C000C000E000C0200000C0202000C0204000C0206000C0208000C020A000C020C000C020E000C0400000C0402000C0404000C0406000C0
310
408000C040A000C040C000C040E000C0600000C0602000C0604000C0606000C0608000C060A000C060C000C060E000C0800000C0802000C0804000C0806000C0808000C080A000C080C000C080E000C0A00000C0A02000C0A04000C0A06000C0A08000C0A0A000C0A0C000C0A0E000C0C00000C0C02000C0C04000C0C06000
310
C0C08000C0C0A000F0FBFF00A4A0A000808080000000FF0000FF000000FFFF00FF000000FF00FF00FFFF0000FFFFFF0000000000000000000000000000000000000000000000000000000000000000000000000000000000000000000000000000000000000000000000000000000000000000000000000000000000000000
310
00000000000000000000000000000000000000000000000000000000000000000000000000000000000000000000000000000000000000000000000000000000000000000000000000000000000000000000000000000000000000000000000000000000000000000000000000000000000000000000000000000000000000
310
00000000000000000000000000000000000000000000000000000000000000000000000000000000000000000000000000000000000000000000000000000000000000000000000000000000000000000000000000000000000000000000000000000000000000000000000000000000000000000000FFFFFFFFFFFFFF0000
310
0000000000000000000000000000000000000000000000FF00000000FF00000000000000000000000000000000FFFFFFFF00000000FFFFFF00000000FFFFFF00000000000000000000000000FFFF0000FF000000FFFEFEFEFFFFFFFFFFFFFF00000000000000000000000000FF000000FFFF0000FFFF00FF00000000FFFFFF
310
00000000000000000000000000FF000000FFFF0000FFFF00FF00000000FFFFFF00000000000000000000000000FF000000FFFF0000FFFF00FF00000000FFFFFF00000000000000000000000000FF000000FFFF0000FFFF00FF00000000FFFFFF00000000000000000000000000FF000000FFFF0000FFFEFEFEFFFFFFFFFFFF
310
FF00000000000000000000000000FF000000FFFF000000FFFFFF00000000FFFFFF00000000000000000000000000FFFF0000FF000000000000FF00000000FF00000000000000000000000000000000FFFFFFFF000000000000FFFFFFFFFFFFFF00000000000000000000000000000000000000000000000000000000000000
310
00000000000000000000000000000000000000000000000000000000000000000000000000000000000000000000000000000000000000000000000000000000000000000000000000000000000000000000000000000000000000000000000000000000000000000000000000000000000000000000000000000000000000
310
00000000000000000000000000000000000000000000000000000000000000000000000000000000000000000000000000000000000000000000000000000000000000000000000000000000000000000000000000000000000000000000000000000000000000000000000000000000000000000000000000000000000000
310
0000000000000000000000000000000000000000000000000000000000000000000000000000000000000000000000000000000000000000
102
{BLKREFS
331
54F0
102
}
 70
     4
280
     1
281
     0
  0
BLOCK_RECORD
  5
598C
330
1
100
AcDbSymbolTableRecord
100
AcDbBlockTableRecord
  2
*D14
340
0
 70
     0
280
     1
281
     0
  0
BLOCK_RECORD
  5
59BC
330
1
100
AcDbSymbolTableRecord
100
AcDbBlockTableRecord
  2
*D15
340
0
 70
     0
280
     1
281
     0
  0
BLOCK_RECORD
  5
59D4
330
1
100
AcDbSymbolTableRecord
100
AcDbBlockTableRecord
  2
*D16
340
0
 70
     0
280
     1
281
     0
  0
BLOCK_RECORD
  5
5A97
330
1
100
AcDbSymbolTableRecord
100
AcDbBlockTableRecord
  2
*D17
340
0
 70
     0
280
     1
281
     0
  0
BLOCK_RECORD
  5
5B28
330
1
100
AcDbSymbolTableRecord
100
AcDbBlockTableRecord
  2
*D18
340
0
 70
     0
280
     1
281
     0
  0
BLOCK_RECORD
  5
5B82
330
1
100
AcDbSymbolTableRecord
100
AcDbBlockTableRecord
  2
*D19
340
0
 70
     0
280
     1
281
     0
  0
BLOCK_RECORD
  5
5E48
330
1
100
AcDbSymbolTableRecord
100
AcDbBlockTableRecord
  2
*D20
340
0
 70
     0
280
     1
281
     0
  0
BLOCK_RECORD
  5
5E60
330
1
100
AcDbSymbolTableRecord
100
AcDbBlockTableRecord
  2
*D21
340
0
 70
     0
280
     1
281
     0
  0
BLOCK_RECORD
  5
5EA1
330
1
100
AcDbSymbolTableRecord
100
AcDbBlockTableRecord
  2
*D22
340
0
 70
     0
280
     1
281
     0
  0
BLOCK_RECORD
  5
5EB9
330
1
100
AcDbSymbolTableRecord
100
AcDbBlockTableRecord
  2
*D23
340
0
 70
     0
280
     1
281
     0
  0
BLOCK_RECORD
  5
6142
330
1
100
AcDbSymbolTableRecord
100
AcDbBlockTableRecord
  2
*D24
340
0
 70
     0
280
     1
281
     0
  0
BLOCK_RECORD
  5
6163
330
1
100
AcDbSymbolTableRecord
100
AcDbBlockTableRecord
  2
*D25
340
0
 70
     0
280
     1
281
     0
  0
BLOCK_RECORD
  5
617B
330
1
100
AcDbSymbolTableRecord
100
AcDbBlockTableRecord
  2
*D26
340
0
 70
     0
280
     1
281
     0
  0
BLOCK_RECORD
  5
7384
102
{ACAD_XDICTIONARY
360
75B2
102
}
330
1
100
AcDbSymbolTableRecord
100
AcDbBlockTableRecord
  2
ＧＣスペーサ SAMY400
340
0
310
2800000020000000200000000100080000000000000400000000000000000000000000000000000000000000000080000080000000808000800000008000800080800000C0C0C000C0DCC000F0CAA6000020400000206000002080000020A0000020C0000020E00000400000004020000040400000406000004080000040A0
310
000040C0000040E00000600000006020000060400000606000006080000060A0000060C0000060E00000800000008020000080400000806000008080000080A0000080C0000080E00000A0000000A0200000A0400000A0600000A0800000A0A00000A0C00000A0E00000C0000000C0200000C0400000C0600000C0800000C0
310
A00000C0C00000C0E00000E0000000E0200000E0400000E0600000E0800000E0A00000E0C00000E0E00040000000400020004000400040006000400080004000A0004000C0004000E00040200000402020004020400040206000402080004020A0004020C0004020E000404000004040200040404000404060004040800040
310
40A0004040C0004040E00040600000406020004060400040606000406080004060A0004060C0004060E00040800000408020004080400040806000408080004080A0004080C0004080E00040A0000040A0200040A0400040A0600040A0800040A0A00040A0C00040A0E00040C0000040C0200040C0400040C0600040C08000
310
40C0A00040C0C00040C0E00040E0000040E0200040E0400040E0600040E0800040E0A00040E0C00040E0E00080000000800020008000400080006000800080008000A0008000C0008000E00080200000802020008020400080206000802080008020A0008020C0008020E00080400000804020008040400080406000804080
310
008040A0008040C0008040E00080600000806020008060400080606000806080008060A0008060C0008060E00080800000808020008080400080806000808080008080A0008080C0008080E00080A0000080A0200080A0400080A0600080A0800080A0A00080A0C00080A0E00080C0000080C0200080C0400080C0600080C0
310
800080C0A00080C0C00080C0E00080E0000080E0200080E0400080E0600080E0800080E0A00080E0C00080E0E000C0000000C0002000C0004000C0006000C0008000C000A000C000C000C000E000C0200000C0202000C0204000C0206000C0208000C020A000C020C000C020E000C0400000C0402000C0404000C0406000C0
310
408000C040A000C040C000C040E000C0600000C0602000C0604000C0606000C0608000C060A000C060C000C060E000C0800000C0802000C0804000C0806000C0808000C080A000C080C000C080E000C0A00000C0A02000C0A04000C0A06000C0A08000C0A0A000C0A0C000C0A0E000C0C00000C0C02000C0C04000C0C06000
310
C0C08000C0C0A000F0FBFF00A4A0A000808080000000FF0000FF000000FFFF00FF000000FF00FF00FFFF0000FFFFFF00000000000000000000000000000000000000000000000000000000000000000000000000FFFF0000000000000000000000000000FFFF0000000000000000000000000000FFFF000000000000000000
310
0000000000FFFF00000000000000000000000000F9F9FFFF000000000000000000000000FFFFF9F900000000000000000000000000FFFFFFFFFFFFFFFFFEFEFFFFFFFFFFFFFFFF0000000000000000000000000000FFFFFF0000000000FEFE0000000000FFFFFF0000000000000000000000000000FFFFFF0000000000FE00
310
0000000000FFFFFF0000000000000000000000000000FFFFFF0000000000FE000000000000FFFFFF0000000000000000000000000000FFFFFF0000000000FEFE0000000000FFFFFF0000000000000000000000000000FFFFFF0000000000FEFE0000000000FFFFFF0000000000000000000000000000FFFFFF0000000000FE
310
FE0000000000FFFFFF0000000000000000000000000000FFFFFF0000000000FE000000000000FFFFFF0000000000000000000000000000FFFFFF0000000000FE000000000000FFFFFF0000000000000000000000000000FFFFFF0000000000FE000000000000FFFFFF0000000000000000000000000000FFFFFF0000000000
310
FE000000000000FFFFFF0000000000000000000000000000FFFFFF0000000000FEFE0000000000FFFFFF00000000000000000000000000F9FFFFFFF9F9F9F9F9FEFEF9F9F9F9F9FFFFFFF900000000000000000000000000FF00FF0000000000FE000000000000FF00FF0000000000000000000000000000FF00FF00000000
310
00FE000000000000FF00FF0000000000000000000000000000FF00FF0000000000FE000000000000FF00FF0000000000000000000000000000FF00FF0000000000FE000000000000FF00FF0000000000000000000000000000FF00FF0000000000FEFE0000000000FF00FF0000000000000000000000000000FF00FF000000
310
0000FEFE0000000000FF00FF0000000000000000000000000000FF00FF0000000000FEFE0000000000FF00FF0000000000000000000000000000FF00FF0000000000FE000000000000FF00FF0000000000000000000000000000FF00FFFFFFFFFFFFFEFFFFFFFFFFFFFF00FF0000000000000000000000000000FF00FFFF00
310
000000FEFE00000000F9FF00FF0000000000000000000000000000FF00F9F9FFFFFFFFFEFEFFFFFFFFF9F900FF0000000000000000000000000000FFFFF9000000000000000000000000F9FFFF0000000000000000000000000000FFFF0000000000000000000000000000FFFF0000000000000000000000000000FFFF0000
310
000000000000000000000000FFFF000000000000000000000000000000000000000000000000000000000000000000000000000000000000
102
{BLKREFS
331
73FD
102
}
 70
     4
280
     1
281
     0
  0
BLOCK_RECORD
  5
76BE
330
1
100
AcDbSymbolTableRecord
100
AcDbBlockTableRecord
  2
*D28
340
0
 70
     0
280
     1
281
     0
  0
BLOCK_RECORD
  5
76FB
330
1
100
AcDbSymbolTableRecord
100
AcDbBlockTableRecord
  2
*D29
340
0
 70
     0
280
     1
281
     0
  0
BLOCK_RECORD
  5
9040
330
1
100
AcDbSymbolTableRecord
100
AcDbBlockTableRecord
  2
*D30
340
0
 70
     0
280
     1
281
     0
  0
BLOCK_RECORD
  5
90C5
330
1
100
AcDbSymbolTableRecord
100
AcDbBlockTableRecord
  2
*D31
340
0
 70
     0
280
     1
281
     0
  0
BLOCK_RECORD
  5
9108
330
1
100
AcDbSymbolTableRecord
100
AcDbBlockTableRecord
  2
*D32
340
0
 70
     0
280
     1
281
     0
  0
BLOCK_RECORD
  5
9166
330
1
100
AcDbSymbolTableRecord
100
AcDbBlockTableRecord
  2
*D33
340
0
 70
     0
280
     1
281
     0
  0
BLOCK_RECORD
  5
91A6
330
1
100
AcDbSymbolTableRecord
100
AcDbBlockTableRecord
  2
*D34
340
0
 70
     0
280
     1
281
     0
  0
BLOCK_RECORD
  5
92BD
330
1
100
AcDbSymbolTableRecord
100
AcDbBlockTableRecord
  2
ケース
340
0
310
2800000020000000200000000100080000000000000400000000000000000000000000000000000000000000000080000080000000808000800000008000800080800000C0C0C000C0DCC000F0CAA6000020400000206000002080000020A0000020C0000020E00000400000004020000040400000406000004080000040A0
310
000040C0000040E00000600000006020000060400000606000006080000060A0000060C0000060E00000800000008020000080400000806000008080000080A0000080C0000080E00000A0000000A0200000A0400000A0600000A0800000A0A00000A0C00000A0E00000C0000000C0200000C0400000C0600000C0800000C0
310
A00000C0C00000C0E00000E0000000E0200000E0400000E0600000E0800000E0A00000E0C00000E0E00040000000400020004000400040006000400080004000A0004000C0004000E00040200000402020004020400040206000402080004020A0004020C0004020E000404000004040200040404000404060004040800040
310
40A0004040C0004040E00040600000406020004060400040606000406080004060A0004060C0004060E00040800000408020004080400040806000408080004080A0004080C0004080E00040A0000040A0200040A0400040A0600040A0800040A0A00040A0C00040A0E00040C0000040C0200040C0400040C0600040C08000
310
40C0A00040C0C00040C0E00040E0000040E0200040E0400040E0600040E0800040E0A00040E0C00040E0E00080000000800020008000400080006000800080008000A0008000C0008000E00080200000802020008020400080206000802080008020A0008020C0008020E00080400000804020008040400080406000804080
310
008040A0008040C0008040E00080600000806020008060400080606000806080008060A0008060C0008060E00080800000808020008080400080806000808080008080A0008080C0008080E00080A0000080A0200080A0400080A0600080A0800080A0A00080A0C00080A0E00080C0000080C0200080C0400080C0600080C0
310
800080C0A00080C0C00080C0E00080E0000080E0200080E0400080E0600080E0800080E0A00080E0C00080E0E000C0000000C0002000C0004000C0006000C0008000C000A000C000C000C000E000C0200000C0202000C0204000C0206000C0208000C020A000C020C000C020E000C0400000C0402000C0404000C0406000C0
310
408000C040A000C040C000C040E000C0600000C0602000C0604000C0606000C0608000C060A000C060C000C060E000C0800000C0802000C0804000C0806000C0808000C080A000C080C000C080E000C0A00000C0A02000C0A04000C0A06000C0A08000C0A0A000C0A0C000C0A0E000C0C00000C0C02000C0C04000C0C06000
310
C0C08000C0C0A000F0FBFF00A4A0A000808080000000FF0000FF000000FFFF00FF000000FF00FF00FFFF0000FFFFFF0000000000000000000000000000000000000000000000000000000000000000000000000000000000000000000000000000000000000000000000000000000000000000000000000000000000000000
310
00000000000000000000000000000000000000000000000000000000000000000000000000000000000000000000000000000000000000000000000000000000000000000000000000000000000000000000000000000000000000000000000000000000000000000000000000000000000000000000000000000000000000
310
000000000000000000000000000000000000000000000000000000000000000000000000000000000000000000000000000000FC0000FC000000000000FC00FC00000000000000000000000000000000000000FCFCFCFC000000000000FCFCFC00000000000000000000000000000000000000FC0000FC000000000000FC00
310
FC00000000000000000000000000000000000000FC0000FC000000000000FC00FC00000000000000000000000000000000000000FC0000FC000000000000FC00FC00000000FCFCFCFCFCFCFCFCFCFCFCFCFC0000FC0000FCFCFCFCFCFCFCFC00FC000000FC000000000000000000000000000000FC00000000000000000000
310
00FC000000FC000000000000000000000000000000FC0000000000000000000000FC0000FCFCFCFCFCFCFCFCFCFCFCFCFCFCFC0000FC0000000000000000000000FC000000FC000000000000000000000000000000FC0000000000000000000000FC000000FCFCFCFCFCFCFCFCFCFCFCFCFCFC0000FC000000000000000000
310
000000FCFCFCFC000000000000000000000000000000FC00000000000000000000000000000000000000000000000000000000000000FC0000000000000000000000000000000000000000000000000000000000000000FC0000000000000000000000000000000000000000000000000000000000000000FC000000000000
310
0000000000000000000000000000000000000000000000000000FCFCFCFCFCFCFCFCFCFCFCFCFCFCFCFCFCFCFCFCFCFCFCFCFCFCFC0000000000000000000000000000000000000000000000000000000000000000000000000000000000000000000000000000000000000000000000000000000000000000000000000000
310
00000000000000000000000000000000000000000000000000000000000000000000000000000000000000000000000000000000000000000000000000000000000000000000000000000000000000000000000000000000000000000000000000000000000000000000000000000000000000000000000000000000000000
310
0000000000000000000000000000000000000000000000000000000000000000000000000000000000000000000000000000000000000000
102
{BLKREFS
331
92D7
102
}
 70
     4
280
     1
281
     1
  0
BLOCK_RECORD
  5
931F
102
{ACAD_XDICTIONARY
360
938C
102
}
330
1
100
AcDbSymbolTableRecord
100
AcDbBlockTableRecord
  2
センタ-2 SAM400
340
0
310
2800000020000000200000000100080000000000000400000000000000000000000000000000000000000000000080000080000000808000800000008000800080800000C0C0C000C0DCC000F0CAA6000020400000206000002080000020A0000020C0000020E00000400000004020000040400000406000004080000040A0
310
000040C0000040E00000600000006020000060400000606000006080000060A0000060C0000060E00000800000008020000080400000806000008080000080A0000080C0000080E00000A0000000A0200000A0400000A0600000A0800000A0A00000A0C00000A0E00000C0000000C0200000C0400000C0600000C0800000C0
310
A00000C0C00000C0E00000E0000000E0200000E0400000E0600000E0800000E0A00000E0C00000E0E00040000000400020004000400040006000400080004000A0004000C0004000E00040200000402020004020400040206000402080004020A0004020C0004020E000404000004040200040404000404060004040800040
310
40A0004040C0004040E00040600000406020004060400040606000406080004060A0004060C0004060E00040800000408020004080400040806000408080004080A0004080C0004080E00040A0000040A0200040A0400040A0600040A0800040A0A00040A0C00040A0E00040C0000040C0200040C0400040C0600040C08000
310
40C0A00040C0C00040C0E00040E0000040E0200040E0400040E0600040E0800040E0A00040E0C00040E0E00080000000800020008000400080006000800080008000A0008000C0008000E00080200000802020008020400080206000802080008020A0008020C0008020E00080400000804020008040400080406000804080
310
008040A0008040C0008040E00080600000806020008060400080606000806080008060A0008060C0008060E00080800000808020008080400080806000808080008080A0008080C0008080E00080A0000080A0200080A0400080A0600080A0800080A0A00080A0C00080A0E00080C0000080C0200080C0400080C0600080C0
310
800080C0A00080C0C00080C0E00080E0000080E0200080E0400080E0600080E0800080E0A00080E0C00080E0E000C0000000C0002000C0004000C0006000C0008000C000A000C000C000C000E000C0200000C0202000C0204000C0206000C0208000C020A000C020C000C020E000C0400000C0402000C0404000C0406000C0
310
408000C040A000C040C000C040E000C0600000C0602000C0604000C0606000C0608000C060A000C060C000C060E000C0800000C0802000C0804000C0806000C0808000C080A000C080C000C080E000C0A00000C0A02000C0A04000C0A06000C0A08000C0A0A000C0A0C000C0A0E000C0C00000C0C02000C0C04000C0C06000
310
C0C08000C0C0A000F0FBFF00A4A0A000808080000000FF0000FF000000FFFF00FF000000FF00FF00FFFF0000FFFFFF000000000000000000000000000000000000000000000000000000000000000000000000000000FFFFFFFFFFFFFF00000000000000000000000000000000000000000000000000FF0000000000FF0000
310
0000000000000000000000000000000000000000000000FF0000000000FF00000000000000000000000000000000000000000000000000FF0000000000FF00000000000000000000000000000000000000000000000000FF0000000000FF00000000000000000000000000000000000000000000000000FF0000000000FF00
310
000000000000000000000000000000000000000000000000FF0000000000FF00000000000000000000000000000000000000000000000000FF0000000000FF00000000000000000000000000000000000000000000000000FF0000000000FF00000000000000000000000000000000000000000000000000FF0000000000FF
310
00000000000000000000000000000000000000000000000000FF0000000000FF00000000000000000000000000000000000000000000000000FF0000000000FF00000000000000000000000000000000000000000000000000FF0000000000FF00000000000000000000000000000000000000000000000000FF0000000000
310
FF00000000000000000000000000000000000000000000000000FF0000000000FF0000000000000000A4A40000FF000000000000000000000000FF0000000000000000000000000000A4A4A4A4A4000000000000000000000000FF000000000000000000000000000000000000FF000000000000000000000000FF00000000
310
0000000000000000000000000000FF000000000000000000000000FF000000000000000000000000000000000000FF000000000000000000000000FF000000000000000000000000000000000000FF000000000000000000000000FF000000000000000000000000000000000000FF000000000000000000000000FF000000
310
000000000000000000000000000000FF000000000000000000000000FF000000000000000000000000000000000000FF000000000000000000000000FFFFFFFFFFFFFFFFFFFFFFFFFFFFFFFFFFFFFFFF000000000000000000000000FF000000000000000000000000000000000000FF000000000000000000000000FF0000
310
00000000000000000000000000000000FF000000000000000000000000FF000000000000000000000000000000000000FF000000000000000000000000FFFFFFFFFFFFFFFFFFFFFFFF00000000FFFFFFFF0000000000000000000000000000000000000000000000F9F9F9F9F9F90000000000000000000000000000000000
310
0000000000000000000000000000000000000000000000000000000000000000000000000000000000000000000000000000000000000000
102
{BLKREFS
331
934A
102
}
 70
     4
280
     1
281
     1
  0
ENDTAB
  0
ENDSEC
  0
SECTION
  2
BLOCKS
  0
BLOCK
  5
20
330
1F
100
AcDbEntity
  8
0
100
AcDbBlockBegin
  2
*Model_Space
 70
     0
 10
0.0
 20
0.0
 30
0.0
  3
*Model_Space
  1

  0
ENDBLK
  5
21
330
1F
100
AcDbEntity
  8
0
100
AcDbBlockEnd
  0
BLOCK
  5
1C
330
1B
100
AcDbEntity
 67
     1
  8
0
100
AcDbBlockBegin
  2
*Paper_Space
 70
     0
 10
0.0
 20
0.0
 30
0.0
  3
*Paper_Space
  1

  0
ENDBLK
  5
1D
330
1B
100
AcDbEntity
 67
     1
  8
0
100
AcDbBlockEnd
  0
BLOCK
  5
24
330
23
100
AcDbEntity
 67
     1
  8
0
100
AcDbBlockBegin
  2
*Paper_Space0
 70
     0
 10
0.0
 20
0.0
 30
0.0
  3
*Paper_Space0
  1

  0
ENDBLK
  5
25
330
23
100
AcDbEntity
 67
     1
  8
0
100
AcDbBlockEnd
  0
BLOCK
  5
6D
330
69
100
AcDbEntity
  8
0
100
AcDbBlockBegin
  2
_Open30
 70
     0
 10
0.0
 20
0.0
 30
0.0
  3
_Open30
  1

  0
LINE
  5
6A
330
69
100
AcDbEntity
  8
0
  6
ByBlock
 62
     0
370
    -2
100
AcDbLine
 10
-1.0
 20
0.26794919
 30
0.0
 11
0.0
 21
0.0
 31
0.0
  0
LINE
  5
6B
330
69
100
AcDbEntity
  8
0
  6
ByBlock
 62
     0
370
    -2
100
AcDbLine
 10
0.0
 20
0.0
 30
0.0
 11
-1.0
 21
-0.26794919
 31
0.0
  0
LINE
  5
6C
330
69
100
AcDbEntity
  8
0
  6
ByBlock
 62
     0
370
    -2
100
AcDbLine
 10
0.0
 20
0.0
 30
0.0
 11
-1.0
 21
0.0
 31
0.0
  0
ENDBLK
  5
6E
330
69
100
AcDbEntity
  8
0
100
AcDbBlockEnd
  0
BLOCK
  5
76
330
74
100
AcDbEntity
  8
0
100
AcDbBlockBegin
  2
GENAXEH
 70
     0
 10
0.0
 20
0.0
 30
0.0
  3
GENAXEH
  1

  0
LINE
  5
75
330
74
100
AcDbEntity
  8
0
100
AcDbLine
 10
-1.0
 20
0.0
 30
0.0
 11
1.0
 21
0.0
 31
0.0
  0
ENDBLK
  5
77
330
74
100
AcDbEntity
  8
0
100
AcDbBlockEnd
  0
BLOCK
  5
2C83
330
2C82
100
AcDbEntity
  8
0
100
AcDbBlockBegin
  2
GENDOT
 70
     0
 10
0.0
 20
0.0
 30
0.0
  3
GENDOT
  1

  0
LINE
  5
2C84
330
2C82
100
AcDbEntity
  8
0
100
AcDbLine
 10
0.0
 20
0.0
 30
0.0
 11
-1.0
 21
0.0
 31
0.0
  0
LWPOLYLINE
  5
2C85
330
2C82
100
AcDbEntity
  8
0
100
AcDbPolyline
 90
        2
 70
     1
 43
0.25
 10
-0.125
 20
0.0
 42
1.0
 10
0.125
 20
0.0
 42
1.0
  0
ENDBLK
  5
2C86
330
2C82
100
AcDbEntity
  8
0
100
AcDbBlockEnd
  0
BLOCK
  5
4C36
330
4C35
100
AcDbEntity
  8
0
100
AcDbBlockBegin
  2
ロッカクアナツキプラグ-1　R1／4
 70
     0
 10
0.0
 20
0.0
 30
0.0
  3
ロッカクアナツキプラグ-1　R1／4
  1

  0
LINE
  5
4C38
330
4C35
100
AcDbEntity
  8
AM_7 中心線
100
AcDbLine
 10
0.0
 20
8.404975999999804
 30
0.0
 11
0.0
 21
-8.404976000000031
 31
0.0
  0
LINE
  5
4C39
330
4C35
100
AcDbEntity
  8
AM_0 外形線1
100
AcDbLine
 10
2.611066000000164
 20
-1.507500000000162
 30
0.0
 11
2.611066000000164
 21
1.507499999999935
 31
0.0
  0
LINE
  5
4C3A
330
4C35
100
AcDbEntity
  8
AM_0 外形線1
100
AcDbLine
 10
0.0
 20
-3.0150000000001
 30
0.0
 11
2.611066000000164
 21
-1.507500000000162
 31
0.0
  0
LINE
  5
4C3B
330
4C35
100
AcDbEntity
  8
AM_0 外形線1
100
AcDbLine
 10
-2.611066999999819
 20
-1.507500000000162
 30
0.0
 11
0.0
 21
-3.0150000000001
 31
0.0
  0
LINE
  5
4C3C
330
4C35
100
AcDbEntity
  8
AM_0 外形線1
100
AcDbLine
 10
-2.611066999999819
 20
1.507499999999935
 30
0.0
 11
-2.611066999999819
 21
-1.507500000000162
 31
0.0
  0
LINE
  5
4C3D
330
4C35
100
AcDbEntity
  8
AM_0 外形線1
100
AcDbLine
 10
0.0
 20
3.014999999999871
 30
0.0
 11
-2.611066999999819
 21
1.507499999999935
 31
0.0
  0
LINE
  5
4C3E
330
4C35
100
AcDbEntity
  8
AM_0 外形線1
100
AcDbLine
 10
2.611066000000164
 20
1.507499999999935
 30
0.0
 11
0.0
 21
3.014999999999871
 31
0.0
  0
CIRCLE
  5
4C3F
330
4C35
100
AcDbEntity
  8
AM_0 外形線1
100
AcDbCircle
 10
0.0
 20
0.0
 30
0.0
 40
6.504976
  0
LINE
  5
4C40
330
4C35
100
AcDbEntity
  8
AM_7 中心線
100
AcDbLine
 10
8.40497600000026
 20
0.0
 30
0.0
 11
-8.404975999999804
 21
0.0
 31
0.0
  0
CIRCLE
  5
4C41
330
4C35
100
AcDbEntity
  8
AM_4 細線
100
AcDbCircle
 10
0.0
 20
0.0
 30
0.0
 40
7.174975999999999
  0
ENDBLK
  5
4C37
330
4C35
100
AcDbEntity
  8
0
100
AcDbBlockEnd
  0
BLOCK
  5
4C44
330
4C43
100
AcDbEntity
  8
0
100
AcDbBlockBegin
  2
ロッカクアナツキプラグ-2　R1／4
 70
     0
 10
0.0
 20
0.0
 30
0.0
  3
ロッカクアナツキプラグ-2　R1／4
  1

  0
LINE
  5
4C46
330
4C43
100
AcDbEntity
  8
AM_7 中心線
100
AcDbLine
 10
0.0
 20
-8.404976000000031
 30
0.0
 11
0.0
 21
8.404975999999804
 31
0.0
  0
CIRCLE
  5
4C47
330
4C43
100
AcDbEntity
  8
AM_0 外形線1
100
AcDbCircle
 10
0.0
 20
0.0
 30
0.0
 40
6.504976
  0
LINE
  5
4C48
330
4C43
100
AcDbEntity
  8
AM_7 中心線
100
AcDbLine
 10
-8.404976000000031
 20
0.0
 30
0.0
 11
8.404975999999804
 21
0.0
 31
0.0
  0
CIRCLE
  5
4C49
330
4C43
100
AcDbEntity
  8
AM_4 細線
100
AcDbCircle
 10
0.0
 20
0.0
 30
0.0
 40
7.174975999999999
  0
LINE
  5
4C4A
330
4C43
100
AcDbEntity
  8
AM_0 外形線1
100
AcDbLine
 10
-2.611067000000048
 20
-1.507500000000162
 30
0.0
 11
-2.611067000000048
 21
1.507499999999935
 31
0.0
  0
LINE
  5
4C4B
330
4C43
100
AcDbEntity
  8
AM_0 外形線1
100
AcDbLine
 10
0.0
 20
-3.0150000000001
 30
0.0
 11
-2.611067000000048
 21
-1.507500000000162
 31
0.0
  0
LINE
  5
4C4C
330
4C43
100
AcDbEntity
  8
AM_0 外形線1
100
AcDbLine
 10
2.611065999999937
 20
-1.507500000000162
 30
0.0
 11
0.0
 21
-3.0150000000001
 31
0.0
  0
LINE
  5
4C4D
330
4C43
100
AcDbEntity
  8
AM_0 外形線1
100
AcDbLine
 10
2.611065999999937
 20
1.507499999999935
 30
0.0
 11
2.611065999999937
 21
-1.507500000000162
 31
0.0
  0
LINE
  5
4C4E
330
4C43
100
AcDbEntity
  8
AM_0 外形線1
100
AcDbLine
 10
0.0
 20
3.014999999999871
 30
0.0
 11
2.611065999999937
 21
1.507499999999935
 31
0.0
  0
LINE
  5
4C4F
330
4C43
100
AcDbEntity
  8
AM_0 外形線1
100
AcDbLine
 10
-2.611067000000048
 20
1.507499999999935
 30
0.0
 11
0.0
 21
3.014999999999871
 31
0.0
  0
ENDBLK
  5
4C45
330
4C43
100
AcDbEntity
  8
0
100
AcDbBlockEnd
  0
BLOCK
  5
4D0D
330
4D0C
100
AcDbEntity
  8
0
100
AcDbBlockBegin
  2
ケースＡ-1 SAM400
 70
     0
 10
0.0
 20
0.0
 30
0.0
  3
ケースＡ-1 SAM400
  1

  0
LINE
  5
4D0F
330
4D0C
100
AcDbEntity
  8
AM_0 外形線1
100
AcDbLine
 10
25.0
 20
-164.5
 30
0.0
 11
110.0
 21
-164.5
 31
0.0
  0
LINE
  5
4D10
330
4D0C
100
AcDbEntity
  8
AM_0 外形線1
100
AcDbLine
 10
21.0
 20
-199.0
 30
0.0
 11
21.0
 21
0.0
 31
0.0
  0
ARC
  5
4D11
330
4D0C
100
AcDbEntity
  8
AM_0 外形線1
100
AcDbCircle
 10
25.0
 20
-168.5
 30
0.0
 40
4.0
100
AcDbArc
 50
90.0
 51
180.0
  0
LINE
  5
4D12
330
4D0C
100
AcDbEntity
  8
AM_0 外形線1
100
AcDbLine
 10
1.0
 20
-200.0
 30
0.0
 11
20.0
 21
-200.0
 31
0.0
  0
LINE
  5
4D13
330
4D0C
100
AcDbEntity
  8
AM_0 外形線1
100
AcDbLine
 10
0.0
 20
-199.0
 30
0.0
 11
1.0
 21
-200.0
 31
0.0
  0
LINE
  5
4D14
330
4D0C
100
AcDbEntity
  8
AM_0 外形線1
100
AcDbLine
 10
20.0
 20
-200.0
 30
0.0
 11
21.0
 21
-199.0
 31
0.0
  0
LINE
  5
4D15
330
4D0C
100
AcDbEntity
  8
AM_0 外形線1
100
AcDbLine
 10
114.0
 20
-160.5
 30
0.0
 11
114.0
 21
0.0
 31
0.0
  0
ARC
  5
4D16
330
4D0C
100
AcDbEntity
  8
AM_0 外形線1
100
AcDbCircle
 10
110.0
 20
-160.5
 30
0.0
 40
4.0
100
AcDbArc
 50
270.0
 51
0.0
  0
LINE
  5
4D17
330
4D0C
100
AcDbEntity
  8
AM_3 隠れ線
100
AcDbLine
 10
88.49999999999999
 20
148.8000000000002
 30
0.0
 11
44.0
 21
148.8000000000002
 31
0.0
  0
LINE
  5
4D18
330
4D0C
100
AcDbEntity
  8
AM_0 外形線1
100
AcDbLine
 10
25.0
 20
164.5
 30
0.0
 11
110.0
 21
164.5
 31
0.0
  0
LINE
  5
4D19
330
4D0C
100
AcDbEntity
  8
AM_0 外形線1
100
AcDbLine
 10
39.0
 20
156.0
 30
0.0
 11
89.50000000000001
 21
156.0
 31
0.0
  0
LINE
  5
4D1A
330
4D0C
100
AcDbEntity
  8
AM_7 中心線
100
AcDbLine
 10
37.0
 20
152.0
 30
0.0
 11
91.5
 21
152.0
 31
0.0
  0
LINE
  5
4D1D
330
4D0C
100
AcDbEntity
  8
AM_7 中心線
100
AcDbLine
 10
-36.0
 20
184.0
 30
0.0
 11
49.0
 21
184.0
 31
0.0
  0
LINE
  5
4D1E
330
4D0C
100
AcDbEntity
  8
AM_0 外形線1
100
AcDbLine
 10
21.0
 20
168.5
 30
0.0
 11
21.0
 21
199.0
 31
0.0
  0
LINE
  5
4D1F
330
4D0C
100
AcDbEntity
  8
AM_0 外形線1
100
AcDbLine
 10
38.0
 20
157.0
 30
0.0
 11
-5.0
 21
157.0
 31
0.0
  0
ARC
  5
4D20
330
4D0C
100
AcDbEntity
  8
AM_0 外形線1
100
AcDbCircle
 10
25.0
 20
168.5
 30
0.0
 40
4.0
100
AcDbArc
 50
180.0
 51
270.0
  0
ARC
  5
4D21
330
4D0C
100
AcDbEntity
  8
AM_0 外形線1
100
AcDbCircle
 10
2.200000000000271
 20
163.5
 30
0.0
 40
0.5
100
AcDbArc
 50
270.0
 51
0.0
  0
LINE
  5
4D22
330
4D0C
100
AcDbEntity
  8
AM_0 外形線1
100
AcDbLine
 10
-4.5
 20
163.0
 30
0.0
 11
2.200000000000271
 21
163.0
 31
0.0
  0
LINE
  5
4D24
330
4D0C
100
AcDbEntity
  8
AM_0 外形線1
100
AcDbLine
 10
-5.0
 20
162.5
 30
0.0
 11
-4.5
 21
163.0
 31
0.0
  0
LINE
  5
4D25
330
4D0C
100
AcDbEntity
  8
AM_0 外形線1
100
AcDbLine
 10
-5.0
 20
157.0
 30
0.0
 11
-5.0
 21
162.5
 31
0.0
  0
LINE
  5
4D26
330
4D0C
100
AcDbEntity
  8
AM_0 外形線1
100
AcDbLine
 10
2.200000000000271
 20
167.4000000000001
 30
0.0
 11
0.0
 21
167.4000000000001
 31
0.0
  0
LINE
  5
4D27
330
4D0C
100
AcDbEntity
  8
AM_0 外形線1
100
AcDbLine
 10
0.0
 20
167.4000000000001
 30
0.0
 11
0.0
 21
175.0
 31
0.0
  0
ARC
  5
4D28
330
4D0C
100
AcDbEntity
  8
AM_0 外形線1
100
AcDbCircle
 10
2.200000000000271
 20
166.9000000000001
 30
0.0
 40
0.5
100
AcDbArc
 50
0.0
 51
90.0
  0
LINE
  5
4D29
330
4D0C
100
AcDbEntity
  8
AM_0 外形線1
100
AcDbLine
 10
2.700000000000271
 20
163.5
 30
0.0
 11
2.700000000000271
 21
166.9000000000001
 31
0.0
  0
LINE
  5
4D2A
330
4D0C
100
AcDbEntity
  8
AM_0 外形線1
100
AcDbLine
 10
44.0
 20
148.8000000000002
 30
0.0
 11
40.0
 21
148.8000000000002
 31
0.0
  0
ARC
  5
4D2B
330
4D0C
100
AcDbEntity
  8
AM_0 外形線1
100
AcDbCircle
 10
38.0
 20
156.0
 30
0.0
 40
1.0
100
AcDbArc
 50
0.0
 51
90.0
  0
LINE
  5
4D2C
330
4D0C
100
AcDbEntity
  8
AM_0 外形線1
100
AcDbLine
 10
39.0
 20
149.8000000000001
 30
0.0
 11
39.0
 21
156.0
 31
0.0
  0
LINE
  5
4D2D
330
4D0C
100
AcDbEntity
  8
AM_0 外形線1
100
AcDbLine
 10
40.0
 20
148.8000000000002
 30
0.0
 11
39.0
 21
149.8000000000001
 31
0.0
  0
LINE
  5
4D2E
330
4D0C
100
AcDbEntity
  8
AM_0 外形線1
100
AcDbLine
 10
1.0
 20
200.0
 30
0.0
 11
20.0
 21
200.0
 31
0.0
  0
LINE
  5
4D30
330
4D0C
100
AcDbEntity
  8
AM_0 外形線1
100
AcDbLine
 10
0.0
 20
199.0
 30
0.0
 11
1.0
 21
200.0
 31
0.0
  0
LINE
  5
4D31
330
4D0C
100
AcDbEntity
  8
AM_0 外形線1
100
AcDbLine
 10
20.0
 20
200.0
 30
0.0
 11
21.0
 21
199.0
 31
0.0
  0
LINE
  5
4D32
330
4D0C
100
AcDbEntity
  8
AM_0 外形線1
100
AcDbLine
 10
110.1000000000001
 20
149.4000000000001
 30
0.0
 11
99.90000000000009
 21
149.4000000000001
 31
0.0
  0
ARC
  5
4D33
330
4D0C
100
AcDbEntity
  8
AM_0 外形線1
100
AcDbCircle
 10
90.5
 20
156.0
 30
0.0
 40
1.0
100
AcDbArc
 50
90.0
 51
180.0
  0
LINE
  5
4D34
330
4D0C
100
AcDbEntity
  8
AM_0 外形線1
100
AcDbLine
 10
95.0
 20
157.0
 30
0.0
 11
90.5
 21
157.0
 31
0.0
  0
ARC
  5
4D35
330
4D0C
100
AcDbEntity
  8
AM_0 外形線1
100
AcDbCircle
 10
95.0
 20
156.0
 30
0.0
 40
1.0
100
AcDbArc
 50
0.0
 51
90.0
  0
LINE
  5
4D36
330
4D0C
100
AcDbEntity
  8
AM_0 外形線1
100
AcDbLine
 10
96.0
 20
144.0
 30
0.0
 11
96.0
 21
156.0
 31
0.0
  0
LINE
  5
4D37
330
4D0C
100
AcDbEntity
  8
AM_0 外形線1
100
AcDbLine
 10
99.4000000000001
 20
144.0
 30
0.0
 11
96.0
 21
144.0
 31
0.0
  0
LINE
  5
4D38
330
4D0C
100
AcDbEntity
  8
AM_0 外形線1
100
AcDbLine
 10
99.4000000000001
 20
148.9000000000001
 30
0.0
 11
99.4000000000001
 21
144.0
 31
0.0
  0
ARC
  5
4D39
330
4D0C
100
AcDbEntity
  8
AM_0 外形線1
100
AcDbCircle
 10
99.90000000000009
 20
148.9000000000001
 30
0.0
 40
0.5
100
AcDbArc
 50
90.0
 51
180.0
  0
LINE
  5
4D3A
330
4D0C
100
AcDbEntity
  8
AM_0 外形線1
100
AcDbLine
 10
99.4000000000001
 20
144.0
 30
0.0
 11
99.4000000000001
 21
142.5
 31
0.0
  0
LINE
  5
4D3B
330
4D0C
100
AcDbEntity
  8
AM_0 外形線1
100
AcDbLine
 10
96.0
 20
144.0
 30
0.0
 11
96.0
 21
142.5
 31
0.0
  0
ARC
  5
4D3D
330
4D0C
100
AcDbEntity
  8
AM_0 外形線1
100
AcDbCircle
 10
110.0
 20
160.5
 30
0.0
 40
4.0
100
AcDbArc
 50
0.0
 51
90.0
  0
ARC
  5
4D3E
330
4D0C
100
AcDbEntity
  8
AM_0 外形線1
100
AcDbCircle
 10
110.1000000000001
 20
148.9000000000001
 30
0.0
 40
0.5
100
AcDbArc
 50
0.0
 51
90.0
  0
LINE
  5
4D3F
330
4D0C
100
AcDbEntity
  8
AM_0 外形線1
100
AcDbLine
 10
110.6000000000001
 20
144.0
 30
0.0
 11
110.6000000000001
 21
148.9000000000001
 31
0.0
  0
LINE
  5
4D40
330
4D0C
100
AcDbEntity
  8
AM_0 外形線1
100
AcDbLine
 10
114.0
 20
144.0
 30
0.0
 11
110.6000000000001
 21
144.0
 31
0.0
  0
LINE
  5
4D41
330
4D0C
100
AcDbEntity
  8
AM_0 外形線1
100
AcDbLine
 10
114.0
 20
160.5
 30
0.0
 11
114.0
 21
144.0
 31
0.0
  0
LINE
  5
4D42
330
4D0C
100
AcDbEntity
  8
AM_0 外形線1
100
AcDbLine
 10
114.0
 20
144.0
 30
0.0
 11
114.0
 21
142.5
 31
0.0
  0
LINE
  5
4D43
330
4D0C
100
AcDbEntity
  8
AM_0 外形線1
100
AcDbLine
 10
110.6000000000001
 20
144.0
 30
0.0
 11
110.6000000000001
 21
142.5
 31
0.0
  0
ELLIPSE
  5
4D44
330
4D0C
100
AcDbEntity
  8
AM_0 外形線1
100
AcDbEllipse
 10
105.0
 20
145.9500000000002
 30
0.0
 11
-5.599999999999909
 21
0.0
 31
0.0
210
0.0
220
0.0
230
1.0
 40
0.6160714285714467
 41
0.0
 42
6.283185307179585
  0
ELLIPSE
  5
4D45
330
4D0C
100
AcDbEntity
  8
AM_0 外形線1
100
AcDbEllipse
 10
1.350000000000135
 20
165.2000000000002
 30
0.0
 11
0.0
 21
2.200000000000045
 31
0.0
210
0.0
220
0.0
230
1.0
 40
0.6136363636364131
 41
0.0
 42
6.283185307179585
  0
INSERT
  5
4D46
330
4D0C
100
AcDbEntity
  8
AM_0 外形線1
100
AcDbBlockReference
  2
ロッカクアナツキプラグ-1　R1／4
 10
10.5
 20
-47.62270399999988
 30
0.0
  0
LINE
  5
4DC2
330
4D0C
100
AcDbEntity
  8
AM_0 外形線1
100
AcDbLine
 10
0.0
 20
0.0
 30
0.0
 11
0.0
 21
-199.0
 31
0.0
  0
LINE
  5
4DC3
330
4D0C
100
AcDbEntity
  8
AM_0 外形線1
100
AcDbLine
 10
0.0
 20
175.0
 30
0.0
 11
21.0
 21
175.0
 31
0.0
  0
LINE
  5
4DC4
330
4D0C
100
AcDbEntity
  8
AM_0 外形線1
100
AcDbLine
 10
0.0
 20
193.0
 30
0.0
 11
21.0
 21
193.0
 31
0.0
  0
LINE
  5
4DC5
330
4D0C
100
AcDbEntity
  8
AM_0 外形線1
100
AcDbLine
 10
0.0
 20
199.0
 30
0.0
 11
0.0
 21
193.0
 31
0.0
  0
LINE
  5
4DC6
330
4D0C
100
AcDbEntity
  8
AM_3 隠れ線
100
AcDbLine
 10
89.50000000000001
 20
149.8000000000001
 30
0.0
 11
89.50000000000001
 21
152.8717190000002
 31
0.0
  0
LINE
  5
678F
330
4D0C
100
AcDbEntity
  8
AM_0 外形線1
100
AcDbLine
 10
89.50000000000001
 20
152.8717190000002
 30
0.0
 11
89.50000000000001
 21
156.0
 31
0.0
  0
ENDBLK
  5
4D0E
330
4D0C
100
AcDbEntity
  8
0
100
AcDbBlockEnd
  0
BLOCK
  5
4EEB
330
4EEA
100
AcDbEntity
  8
0
100
AcDbBlockBegin
  2
ケースＡ-2 SAM400
 70
     0
 10
0.0
 20
0.0
 30
0.0
  3
ケースＡ-2 SAM400
  1

  0
LINE
  5
4EED
330
4EEA
100
AcDbEntity
  8
AM_3 隠れ線
100
AcDbLine
 10
-88.49999999999999
 20
148.8000000000002
 30
0.0
 11
-44.0
 21
148.8000000000002
 31
0.0
  0
LINE
  5
4EEE
330
4EEA
100
AcDbEntity
  8
AM_0 外形線1
100
AcDbLine
 10
-25.0
 20
164.5
 30
0.0
 11
-110.0
 21
164.5
 31
0.0
  0
LINE
  5
4EEF
330
4EEA
100
AcDbEntity
  8
AM_0 外形線1
100
AcDbLine
 10
-39.0
 20
156.0
 30
0.0
 11
-89.50000000000001
 21
156.0
 31
0.0
  0
LINE
  5
4EF0
330
4EEA
100
AcDbEntity
  8
AM_0 外形線1
100
AcDbLine
 10
-25.0
 20
-164.5
 30
0.0
 11
-110.0
 21
-164.5
 31
0.0
  0
LINE
  5
4EF1
330
4EEA
100
AcDbEntity
  8
AM_7 中心線
100
AcDbLine
 10
-37.0
 20
152.0
 30
0.0
 11
-91.5
 21
152.0
 31
0.0
  0
LINE
  5
4EF2
330
4EEA
100
AcDbEntity
  8
AM_0 外形線1
100
AcDbLine
 10
-114.0
 20
-160.5
 30
0.0
 11
-114.0
 21
0.0
 31
0.0
  0
ARC
  5
4EF3
330
4EEA
100
AcDbEntity
  8
AM_0 外形線1
100
AcDbCircle
 10
-110.0
 20
-160.5
 30
0.0
 40
4.0
100
AcDbArc
 50
180.0
 51
270.0
  0
LWPOLYLINE
  5
4EF5
330
4EEA
100
AcDbEntity
  8
AM_0 外形線1
100
AcDbPolyline
 90
       73
 70
     0
 43
0.0
 10
-99.90000000000009
 20
145.9500000000002
 10
-99.92035900000018
 20
146.2506870000002
 10
-99.98127900000007
 20
146.549086
 10
-100.0822969999999
 20
146.8429260000002
 10
-100.222645
 20
147.1299690000001
 10
-100.4012540000001
 20
147.4080330000001
 10
-100.6167639999999
 20
147.6750000000001
 10
-100.8675370000001
 20
147.9288390000001
 10
-101.1516630000001
 20
148.167617
 10
-101.466979
 20
148.3895179999999
 10
-101.811087
 20
148.5928530000001
 10
-102.181366
 20
148.7760740000003
 10
-102.575
 20
148.9377869999998
 10
-102.9889930000001
 20
149.0767620000001
 10
-103.4201930000001
 20
149.1919389999998
 10
-103.8653180000001
 20
149.2824439999999
 10
-104.3209830000001
 20
149.3475870000002
 10
-104.783717
 20
149.386872
 10
-105.25
 20
149.4000000000001
 10
-105.7162840000001
 20
149.386872
 10
-106.179018
 20
149.3475870000002
 10
-106.6346820000001
 20
149.2824439999999
 10
-107.0798080000002
 20
149.1919389999998
 10
-107.5110080000001
 20
149.0767620000001
 10
-107.9250000000002
 20
148.9377869999998
 10
-108.3186339999999
 20
148.7760740000003
 10
-108.688914
 20
148.5928530000001
 10
-109.033022
 20
148.3895179999999
 10
-109.348338
 20
148.167617
 10
-109.632464
 20
147.9288390000001
 10
-109.8832360000001
 20
147.6750000000001
 10
-110.098747
 20
147.4080330000001
 10
-110.277356
 20
147.1299690000001
 10
-110.4177039999999
 20
146.8429260000002
 10
-110.518722
 20
146.549086
 10
-110.5796420000001
 20
146.2506870000002
 10
-110.6000000000001
 20
145.9500000000002
 10
-110.5796420000001
 20
145.6493129999999
 10
-110.518722
 20
145.3509140000001
 10
-110.4177039999999
 20
145.0570740000003
 10
-110.277356
 20
144.7700300000001
 10
-110.098747
 20
144.4919669999999
 10
-109.8832360000001
 20
144.2249999999999
 10
-109.632464
 20
143.9711609999999
 10
-109.348338
 20
143.732383
 10
-109.033022
 20
143.5104809999998
 10
-108.688914
 20
143.3071469999999
 10
-108.3186339999999
 20
143.1239250000003
 10
-107.9250000000002
 20
142.9622119999999
 10
-107.5110080000001
 20
142.8232379999999
 10
-107.0798080000002
 20
142.7080599999999
 10
-106.6346820000001
 20
142.6175560000001
 10
-106.179018
 20
142.5524129999999
 10
-105.7162840000001
 20
142.513128
 10
-105.25
 20
142.5
 10
-104.783717
 20
142.513128
 10
-104.3209830000001
 20
142.5524129999999
 10
-103.8653180000001
 20
142.6175560000001
 10
-103.4201930000001
 20
142.7080599999999
 10
-102.9889930000001
 20
142.8232379999999
 10
-102.575
 20
142.9622119999999
 10
-102.181366
 20
143.1239250000003
 10
-101.811087
 20
143.3071469999999
 10
-101.466979
 20
143.5104809999998
 10
-101.1516630000001
 20
143.732383
 10
-100.8675370000001
 20
143.9711609999999
 10
-100.6167639999999
 20
144.2249999999999
 10
-100.4012540000001
 20
144.4919669999999
 10
-100.222645
 20
144.7700300000001
 10
-100.0822969999999
 20
145.0570740000003
 10
-99.98127900000007
 20
145.3509140000001
 10
-99.92035900000018
 20
145.6493129999999
 10
-99.90000000000009
 20
145.9500000000002
  0
LINE
  5
4EF6
330
4EEA
100
AcDbEntity
  8
AM_0 外形線1
100
AcDbLine
 10
-110.1000000000001
 20
149.4000000000001
 30
0.0
 11
-99.90000000000009
 21
149.4000000000001
 31
0.0
  0
ARC
  5
4EF7
330
4EEA
100
AcDbEntity
  8
AM_0 外形線1
100
AcDbCircle
 10
-110.0
 20
160.5
 30
0.0
 40
4.0
100
AcDbArc
 50
90.0
 51
180.0
  0
ARC
  5
4EF8
330
4EEA
100
AcDbEntity
  8
AM_0 外形線1
100
AcDbCircle
 10
-110.1000000000001
 20
148.9000000000001
 30
0.0
 40
0.5
100
AcDbArc
 50
90.0
 51
180.0
  0
LINE
  5
4EF9
330
4EEA
100
AcDbEntity
  8
AM_0 外形線1
100
AcDbLine
 10
-110.6000000000001
 20
144.0
 30
0.0
 11
-110.6000000000001
 21
148.9000000000001
 31
0.0
  0
LINE
  5
4EFA
330
4EEA
100
AcDbEntity
  8
AM_0 外形線1
100
AcDbLine
 10
-114.0
 20
144.0
 30
0.0
 11
-110.6000000000001
 21
144.0
 31
0.0
  0
LINE
  5
4EFB
330
4EEA
100
AcDbEntity
  8
AM_0 外形線1
100
AcDbLine
 10
-114.0
 20
160.5
 30
0.0
 11
-114.0
 21
144.0
 31
0.0
  0
LINE
  5
4EFC
330
4EEA
100
AcDbEntity
  8
AM_0 外形線1
100
AcDbLine
 10
-110.6000000000001
 20
144.0
 30
0.0
 11
-110.6000000000001
 21
142.5
 31
0.0
  0
LINE
  5
4EFD
330
4EEA
100
AcDbEntity
  8
AM_0 外形線1
100
AcDbLine
 10
-114.0
 20
144.0
 30
0.0
 11
-114.0
 21
142.5
 31
0.0
  0
LINE
  5
4EFE
330
4EEA
100
AcDbEntity
  8
AM_3 隠れ線
100
AcDbLine
 10
-89.50000000000001
 20
149.8000000000001
 30
0.0
 11
-88.49999999999999
 21
148.8000000000002
 31
0.0
  0
ARC
  5
4EFF
330
4EEA
100
AcDbEntity
  8
AM_0 外形線1
100
AcDbCircle
 10
-90.5
 20
156.0
 30
0.0
 40
1.0
100
AcDbArc
 50
0.0
 51
90.0
  0
LINE
  5
4F00
330
4EEA
100
AcDbEntity
  8
AM_0 外形線1
100
AcDbLine
 10
-95.0
 20
157.0
 30
0.0
 11
-90.5
 21
157.0
 31
0.0
  0
ARC
  5
4F01
330
4EEA
100
AcDbEntity
  8
AM_0 外形線1
100
AcDbCircle
 10
-95.0
 20
156.0
 30
0.0
 40
1.0
100
AcDbArc
 50
90.0
 51
180.0
  0
LINE
  5
4F02
330
4EEA
100
AcDbEntity
  8
AM_0 外形線1
100
AcDbLine
 10
-96.0
 20
144.0
 30
0.0
 11
-96.0
 21
156.0
 31
0.0
  0
LINE
  5
4F03
330
4EEA
100
AcDbEntity
  8
AM_0 外形線1
100
AcDbLine
 10
-99.4000000000001
 20
144.0
 30
0.0
 11
-96.0
 21
144.0
 31
0.0
  0
LINE
  5
4F04
330
4EEA
100
AcDbEntity
  8
AM_0 外形線1
100
AcDbLine
 10
-99.4000000000001
 20
148.9000000000001
 30
0.0
 11
-99.4000000000001
 21
144.0
 31
0.0
  0
ARC
  5
4F05
330
4EEA
100
AcDbEntity
  8
AM_0 外形線1
100
AcDbCircle
 10
-99.90000000000009
 20
148.9000000000001
 30
0.0
 40
0.5
100
AcDbArc
 50
0.0
 51
90.0
  0
LINE
  5
4F06
330
4EEA
100
AcDbEntity
  8
AM_0 外形線1
100
AcDbLine
 10
-96.0
 20
144.0
 30
0.0
 11
-96.0
 21
142.5
 31
0.0
  0
LINE
  5
4F07
330
4EEA
100
AcDbEntity
  8
AM_0 外形線1
100
AcDbLine
 10
-99.4000000000001
 20
144.0
 30
0.0
 11
-99.4000000000001
 21
142.5
 31
0.0
  0
LINE
  5
4F0A
330
4EEA
100
AcDbEntity
  8
AM_0 外形線1
100
AcDbLine
 10
-21.0
 20
-199.0
 30
0.0
 11
-21.0
 21
0.0
 31
0.0
  0
LINE
  5
4F0B
330
4EEA
100
AcDbEntity
  8
AM_0 外形線1
100
AcDbLine
 10
-1.0
 20
-200.0
 30
0.0
 11
-20.0
 21
-200.0
 31
0.0
  0
LINE
  5
4F0C
330
4EEA
100
AcDbEntity
  8
AM_0 外形線1
100
AcDbLine
 10
-20.0
 20
-200.0
 30
0.0
 11
-21.0
 21
-199.0
 31
0.0
  0
LINE
  5
4F0D
330
4EEA
100
AcDbEntity
  8
AM_0 外形線1
100
AcDbLine
 10
0.0
 20
-199.0
 30
0.0
 11
-1.0
 21
-200.0
 31
0.0
  0
ARC
  5
4F0E
330
4EEA
100
AcDbEntity
  8
AM_0 外形線1
100
AcDbCircle
 10
-25.0
 20
-168.5
 30
0.0
 40
4.0
100
AcDbArc
 50
0.0
 51
90.0
  0
LINE
  5
4F0F
330
4EEA
100
AcDbEntity
  8
AM_0 外形線1
100
AcDbLine
 10
-21.0
 20
175.0
 30
0.0
 11
0.0
 21
175.0
 31
0.0
  0
LINE
  5
4F10
330
4EEA
100
AcDbEntity
  8
AM_0 外形線1
100
AcDbLine
 10
-21.0
 20
193.0
 30
0.0
 11
0.0
 21
193.0
 31
0.0
  0
LINE
  5
4F11
330
4EEA
100
AcDbEntity
  8
AM_7 中心線
100
AcDbLine
 10
36.0
 20
184.0
 30
0.0
 11
-49.0
 21
184.0
 31
0.0
  0
LINE
  5
4F12
330
4EEA
100
AcDbEntity
  8
AM_0 外形線1
100
AcDbLine
 10
-21.0
 20
168.5
 30
0.0
 11
-21.0
 21
199.0
 31
0.0
  0
LINE
  5
4F13
330
4EEA
100
AcDbEntity
  8
AM_0 外形線1
100
AcDbLine
 10
-38.0
 20
157.0
 30
0.0
 11
5.0
 21
157.0
 31
0.0
  0
ARC
  5
4F15
330
4EEA
100
AcDbEntity
  8
AM_0 外形線1
100
AcDbCircle
 10
-38.0
 20
156.0
 30
0.0
 40
1.0
100
AcDbArc
 50
90.0
 51
180.0
  0
LINE
  5
4F16
330
4EEA
100
AcDbEntity
  8
AM_0 外形線1
100
AcDbLine
 10
-39.0
 20
149.8000000000001
 30
0.0
 11
-39.0
 21
156.0
 31
0.0
  0
LINE
  5
4F17
330
4EEA
100
AcDbEntity
  8
AM_0 外形線1
100
AcDbLine
 10
-40.0
 20
148.8000000000002
 30
0.0
 11
-39.0
 21
149.8000000000001
 31
0.0
  0
LINE
  5
4F18
330
4EEA
100
AcDbEntity
  8
AM_0 外形線1
100
AcDbLine
 10
-44.0
 20
148.8000000000002
 30
0.0
 11
-40.0
 21
148.8000000000002
 31
0.0
  0
LWPOLYLINE
  5
4F19
330
4EEA
100
AcDbEntity
  8
AM_0 外形線1
100
AcDbPolyline
 90
       73
 70
     0
 43
0.0
 10
-1.350000000000135
 20
163.0
 10
-1.232340000000021
 20
163.0083719999998
 10
-1.115575000000034
 20
163.0334229999998
 10
-1.000594999999975
 20
163.074963
 10
-0.8882730000002537
 20
163.1326760000002
 10
-0.7794660000001841
 20
163.2061229999999
 10
-0.6750000000001819
 20
163.2947440000002
 10
-0.5756719999999405
 20
163.3978650000003
 10
-0.4822369999999411
 20
163.5147019999999
 10
-0.3954059999998662
 20
163.6443650000001
 10
-0.3158400000002075
 20
163.785867
 10
-0.2441450000001168
 20
163.9381320000002
 10
-0.1808660000001509
 20
164.0999999999999
 10
-0.1264850000000024
 20
164.2702400000002
 10
-0.0814150000001064
 20
164.447556
 10
-0.0460010000001603
 20
164.6305980000002
 10
-0.0205100000000584
 20
164.817974
 10
-0.0051379999999881
 20
165.0082569999999
 10
0.0
 20
165.2000000000002
 10
-0.0051379999999881
 20
165.3917420000002
 10
-0.0205100000000584
 20
165.582026
 10
-0.0460010000001603
 20
165.7694019999999
 10
-0.0814150000001064
 20
165.952444
 10
-0.1264850000000024
 20
166.1297600000002
 10
-0.1808660000001509
 20
166.3000000000002
 10
-0.2441450000001168
 20
166.4618679999998
 10
-0.3158400000002075
 20
166.614133
 10
-0.3954059999998662
 20
166.755635
 10
-0.4822369999999411
 20
166.8852980000001
 10
-0.5756719999999405
 20
167.0021340000003
 10
-0.6750000000001819
 20
167.1052559999998
 10
-0.7794660000001841
 20
167.1938770000001
 10
-0.8882730000002537
 20
167.2673239999999
 10
-1.000594999999975
 20
167.325037
 10
-1.115575000000034
 20
167.3665770000001
 10
-1.232340000000021
 20
167.3916279999998
 10
-1.350000000000135
 20
167.4000000000001
 10
-1.467661000000134
 20
167.3916279999998
 10
-1.58442500000001
 20
167.3665770000001
 10
-1.699405999999953
 20
167.325037
 10
-1.811728000000129
 20
167.2673239999999
 10
-1.920534999999971
 20
167.1938770000001
 10
-2.02500000000009
 20
167.1052559999998
 10
-2.124328999999987
 20
167.0021340000003
 10
-2.217763999999988
 20
166.8852980000001
 10
-2.304595000000063
 20
166.755635
 10
-2.384160000000064
 20
166.614133
 10
-2.455856000000038
 20
166.4618679999998
 10
-2.519135000000004
 20
166.3000000000002
 10
-2.573516000000154
 20
166.1297600000002
 10
-2.618585000000166
 20
165.952444
 10
-2.653999999999995
 20
165.7694019999999
 10
-2.679491000000098
 20
165.582026
 10
-2.694862999999941
 20
165.3917420000002
 10
-2.700000000000044
 20
165.2000000000002
 10
-2.694862999999941
 20
165.0082569999999
 10
-2.679491000000098
 20
164.817974
 10
-2.653999999999995
 20
164.6305980000002
 10
-2.618585000000166
 20
164.447556
 10
-2.573516000000154
 20
164.2702400000002
 10
-2.519135000000004
 20
164.0999999999999
 10
-2.455856000000038
 20
163.9381320000002
 10
-2.384160000000064
 20
163.785867
 10
-2.304595000000063
 20
163.6443650000001
 10
-2.217763999999988
 20
163.5147019999999
 10
-2.124328999999987
 20
163.3978650000003
 10
-2.02500000000009
 20
163.2947440000002
 10
-1.920534999999971
 20
163.2061229999999
 10
-1.811728000000129
 20
163.1326760000002
 10
-1.699405999999953
 20
163.074963
 10
-1.58442500000001
 20
163.0334229999998
 10
-1.467661000000134
 20
163.0083719999998
 10
-1.350000000000135
 20
163.0
  0
ARC
  5
4F1A
330
4EEA
100
AcDbEntity
  8
AM_0 外形線1
100
AcDbCircle
 10
-2.200000000000045
 20
163.5
 30
0.0
 40
0.5
100
AcDbArc
 50
180.0
 51
270.0
  0
LINE
  5
4F1C
330
4EEA
100
AcDbEntity
  8
AM_0 外形線1
100
AcDbLine
 10
4.5
 20
163.0
 30
0.0
 11
-2.200000000000045
 21
163.0
 31
0.0
  0
LINE
  5
4F1D
330
4EEA
100
AcDbEntity
  8
AM_0 外形線1
100
AcDbLine
 10
5.0
 20
162.5
 30
0.0
 11
4.5
 21
163.0
 31
0.0
  0
LINE
  5
4F1E
330
4EEA
100
AcDbEntity
  8
AM_0 外形線1
100
AcDbLine
 10
5.0
 20
157.0
 30
0.0
 11
5.0
 21
162.5
 31
0.0
  0
ARC
  5
4F1F
330
4EEA
100
AcDbEntity
  8
AM_0 外形線1
100
AcDbCircle
 10
-25.0
 20
168.5
 30
0.0
 40
4.0
100
AcDbArc
 50
270.0
 51
0.0
  0
LINE
  5
4F20
330
4EEA
100
AcDbEntity
  8
AM_0 外形線1
100
AcDbLine
 10
0.0
 20
167.4000000000001
 30
0.0
 11
0.0
 21
175.0
 31
0.0
  0
LINE
  5
4F21
330
4EEA
100
AcDbEntity
  8
AM_0 外形線1
100
AcDbLine
 10
-2.200000000000045
 20
167.4000000000001
 30
0.0
 11
0.0
 21
167.4000000000001
 31
0.0
  0
ARC
  5
4F22
330
4EEA
100
AcDbEntity
  8
AM_0 外形線1
100
AcDbCircle
 10
-2.200000000000045
 20
166.9000000000001
 30
0.0
 40
0.5
100
AcDbArc
 50
90.0
 51
180.0
  0
LINE
  5
4F23
330
4EEA
100
AcDbEntity
  8
AM_0 外形線1
100
AcDbLine
 10
-2.700000000000044
 20
163.5
 30
0.0
 11
-2.700000000000044
 21
166.9000000000001
 31
0.0
  0
LINE
  5
4F24
330
4EEA
100
AcDbEntity
  8
AM_0 外形線1
100
AcDbLine
 10
-1.0
 20
200.0
 30
0.0
 11
-20.0
 21
200.0
 31
0.0
  0
LINE
  5
4F25
330
4EEA
100
AcDbEntity
  8
AM_0 外形線1
100
AcDbLine
 10
-20.0
 20
200.0
 30
0.0
 11
-21.0
 21
199.0
 31
0.0
  0
LINE
  5
4F27
330
4EEA
100
AcDbEntity
  8
AM_0 外形線1
100
AcDbLine
 10
0.0
 20
199.0
 30
0.0
 11
-1.0
 21
200.0
 31
0.0
  0
INSERT
  5
4F28
330
4EEA
100
AcDbEntity
  8
AM_0 外形線1
100
AcDbBlockReference
  2
ロッカクアナツキプラグ-2　R1／4
 10
-10.5
 20
-47.62270399999988
 30
0.0
  0
LINE
  5
4FCA
330
4EEA
100
AcDbEntity
  8
AM_0 外形線1
100
AcDbLine
 10
0.0
 20
199.0
 30
0.0
 11
0.0
 21
193.0
 31
0.0
  0
LINE
  5
4FCB
330
4EEA
100
AcDbEntity
  8
AM_0 外形線1
100
AcDbLine
 10
-89.50000000000001
 20
149.8000000000001
 30
0.0
 11
-89.50000000000001
 21
156.0
 31
0.0
  0
LINE
  5
4FCC
330
4EEA
100
AcDbEntity
  8
AM_0 外形線1
100
AcDbLine
 10
0.0000000000001137
 20
-199.0000000000001
 30
0.0
 11
0.0
 21
0.0
 31
0.0
  0
ENDBLK
  5
4EEC
330
4EEA
100
AcDbEntity
  8
0
100
AcDbBlockEnd
  0
BLOCK
  5
5013
330
5012
100
AcDbEntity
  8
0
100
AcDbBlockBegin
  2
センタ-1 SAM400
 70
     0
 10
0.0
 20
0.0
 30
0.0
  3
センタ-1 SAM400
  1

  0
LINE
  5
5015
330
5012
100
AcDbEntity
  8
AM_0 外形線1
100
AcDbLine
 10
0.0
 20
141.0
 30
0.0
 11
0.0
 21
0.0
 31
0.0
  0
LINE
  5
5016
330
5012
100
AcDbEntity
  8
AM_0 外形線1
100
AcDbLine
 10
200.0
 20
-137.6999999999999
 30
0.0
 11
200.0
 21
137.7000000000002
 31
0.0
  0
LINE
  5
5017
330
5012
100
AcDbEntity
  8
AM_3 隠れ線
100
AcDbLine
 10
0.0
 20
8.0
 30
0.0
 11
32.0
 21
8.0
 31
0.0
  0
LINE
  5
5018
330
5012
100
AcDbEntity
  8
AM_3 隠れ線
100
AcDbLine
 10
0.0
 20
7.0
 30
0.0
 11
37.0
 21
7.0
 31
0.0
  0
LINE
  5
5019
330
5012
100
AcDbEntity
  8
AM_3 隠れ線
100
AcDbLine
 10
32.0
 20
8.0
 30
0.0
 11
32.0
 21
0.0
 31
0.0
  0
LINE
  5
501A
330
5012
100
AcDbEntity
  8
AM_3 隠れ線
100
AcDbLine
 10
32.57735000000002
 20
7.0
 30
0.0
 11
32.57735000000002
 21
0.0
 31
0.0
  0
LINE
  5
501B
330
5012
100
AcDbEntity
  8
AM_3 隠れ線
100
AcDbLine
 10
32.0
 20
8.0
 30
0.0
 11
32.57735000000002
 21
7.0
 31
0.0
  0
LINE
  5
501C
330
5012
100
AcDbEntity
  8
AM_3 隠れ線
100
AcDbLine
 10
37.0
 20
7.0
 30
0.0
 11
37.0
 21
0.0
 31
0.0
  0
LINE
  5
501D
330
5012
100
AcDbEntity
  8
AM_3 隠れ線
100
AcDbLine
 10
37.0
 20
7.0
 30
0.0
 11
41.04145100000004
 21
0.0
 31
0.0
  0
LINE
  5
501E
330
5012
100
AcDbEntity
  8
AM_0 外形線1
100
AcDbLine
 10
137.5
 20
-141.6999999999999
 30
0.0
 11
137.5
 21
0.0
 31
0.0
  0
LINE
  5
501F
330
5012
100
AcDbEntity
  8
AM_0 外形線1
100
AcDbLine
 10
135.5
 20
-142.5
 30
0.0
 11
135.5
 21
0.0
 31
0.0
  0
LINE
  5
5020
330
5012
100
AcDbEntity
  8
AM_0 外形線1
100
AcDbLine
 10
135.5
 20
-142.5
 30
0.0
 11
137.5
 21
-141.6999999999999
 31
0.0
  0
LINE
  5
5021
330
5012
100
AcDbEntity
  8
AM_0 外形線1
100
AcDbLine
 10
105.0
 20
-142.5
 30
0.0
 11
135.5
 21
-142.5
 31
0.0
  0
LINE
  5
5022
330
5012
100
AcDbEntity
  8
AM_0 外形線1
100
AcDbLine
 10
137.5
 20
-141.6999999999999
 30
0.0
 11
196.0
 21
-141.6999999999999
 31
0.0
  0
ARC
  5
5023
330
5012
100
AcDbEntity
  8
AM_0 外形線1
100
AcDbCircle
 10
196.0
 20
-137.6999999999999
 30
0.0
 40
4.0
100
AcDbArc
 50
270.0
 51
0.0
  0
ARC
  5
5025
330
5012
100
AcDbEntity
  8
AM_0 外形線1
100
AcDbCircle
 10
56.0
 20
0.0
 30
0.0
 40
155.81
100
AcDbArc
 50
81.32527699999478
 51
97.37491799998863
  0
LINE
  5
5027
330
5012
100
AcDbEntity
  8
AM_0 外形線1
100
AcDbLine
 10
34.5
 20
142.0
 30
0.0
 11
1.0
 21
142.0
 31
0.0
  0
LINE
  5
5028
330
5012
100
AcDbEntity
  8
AM_0 外形線1
100
AcDbLine
 10
1.0
 20
142.0
 30
0.0
 11
0.0
 21
141.0
 31
0.0
  0
ARC
  5
5029
330
5012
100
AcDbEntity
  8
AM_0 外形線1
100
AcDbCircle
 10
34.5
 20
142.5
 30
0.0
 40
0.5
100
AcDbArc
 50
270.0
 51
0.0
  0
LINE
  5
502A
330
5012
100
AcDbEntity
  8
AM_0 外形線1
100
AcDbLine
 10
35.0
 20
153.3883289999999
 30
0.0
 11
35.0
 21
142.5
 31
0.0
  0
LINE
  5
502B
330
5012
100
AcDbEntity
  8
AM_0 外形線1
100
AcDbLine
 10
36.0
 20
154.5210539999998
 30
0.0
 11
35.0
 21
153.3883289999999
 31
0.0
  0
LINE
  5
502D
330
5012
100
AcDbEntity
  8
AM_0 外形線1
100
AcDbLine
 10
137.5
 20
141.7000000000002
 30
0.0
 11
135.5
 21
142.5
 31
0.0
  0
LINE
  5
502E
330
5012
100
AcDbEntity
  8
AM_0 外形線1
100
AcDbLine
 10
135.5
 20
142.5
 30
0.0
 11
81.0
 21
142.5
 31
0.0
  0
LINE
  5
502F
330
5012
100
AcDbEntity
  8
AM_7 中心線
100
AcDbLine
 10
56.0
 20
160.8099999999999
 30
0.0
 11
56.0
 21
142.5999999999999
 31
0.0
  0
LINE
  5
5030
330
5012
100
AcDbEntity
  8
AM_0 外形線1
100
AcDbLine
 10
80.5
 20
152.8717190000002
 30
0.0
 11
79.5
 21
154.0276149999999
 31
0.0
  0
ARC
  5
5031
330
5012
100
AcDbEntity
  8
AM_0 外形線1
100
AcDbCircle
 10
81.0
 20
143.0
 30
0.0
 40
0.5
100
AcDbArc
 50
180.0
 51
270.0
  0
LINE
  5
5032
330
5012
100
AcDbEntity
  8
AM_0 外形線1
100
AcDbLine
 10
196.0
 20
141.7000000000002
 30
0.0
 11
137.5
 21
141.7000000000002
 31
0.0
  0
ARC
  5
5033
330
5012
100
AcDbEntity
  8
AM_0 外形線1
100
AcDbCircle
 10
196.0
 20
137.7000000000002
 30
0.0
 40
4.0
100
AcDbArc
 50
0.0
 51
90.0
  0
LINE
  5
5035
330
5012
100
AcDbEntity
  8
AM_0 外形線1
100
AcDbLine
 10
0.0
 20
87.1421255471157
 30
0.0
 11
200.0
 21
87.14212554711549
 31
0.0
  0
LINE
  5
5037
330
5012
100
AcDbEntity
  8
AM_0 外形線1
100
AcDbLine
 10
80.5
 20
143.0
 30
0.0
 11
80.5
 21
152.8717190000002
 31
0.0
  0
ARC
  5
90A3
330
5012
100
AcDbEntity
  8
AM_0 外形線1
100
AcDbCircle
 10
56.0
 20
0.0
 30
0.0
 40
147.5999999999999
100
AcDbArc
 50
80.4452984104649
 51
98.17959450763082
  0
ARC
  5
90A4
330
5012
100
AcDbEntity
  8
AM_7 中心線
100
AcDbCircle
 10
56.0
 20
0.0
 30
0.0
 40
152.0000000000002
100
AcDbArc
 50
78.2224297464153
 51
99.04426164598682
  0
ENDBLK
  5
5014
330
5012
100
AcDbEntity
  8
0
100
AcDbBlockEnd
  0
BLOCK
  5
53D5
330
53D4
100
AcDbEntity
  8
0
100
AcDbBlockBegin
  2
リーマボルト-1 SAM400 M16
 70
     0
 10
0.0
 20
0.0
 30
0.0
  3
リーマボルト-1 SAM400 M16
  1

  0
ARC
  5
53D7
330
53D4
100
AcDbEntity
  8
AM_0 外形線1
100
AcDbCircle
 10
7.32411600000023
 20
5.997225999999955
 30
0.0
 40
17.326998
100
AcDbArc
 50
159.74980099999
 51
200.25019900001
  0
LINE
  5
53D8
330
53D4
100
AcDbEntity
  8
AM_0 外形線1
100
AcDbLine
 10
2.0
 20
-9.0
 30
0.0
 11
2.0
 21
9.0
 31
0.0
  0
ARC
  5
53D9
330
53D4
100
AcDbEntity
  8
AM_0 外形線1
100
AcDbCircle
 10
1.0
 20
9.0
 30
0.0
 40
1.0
100
AcDbArc
 50
180.0
 51
0.0
  0
LINE
  5
53DA
330
53D4
100
AcDbEntity
  8
AM_0 外形線1
100
AcDbLine
 10
-10.0
 20
6.313205999999808
 30
0.0
 11
-10.0
 21
-5.681245000000218
 31
0.0
  0
LINE
  5
53DB
330
53D4
100
AcDbEntity
  8
AM_0 外形線1
100
AcDbLine
 10
-8.931901999999807
 20
-11.99445199999991
 30
0.0
 11
0.0
 21
-11.99445199999991
 31
0.0
  0
ARC
  5
53DC
330
53D4
100
AcDbEntity
  8
AM_0 外形線1
100
AcDbCircle
 10
7.32411600000023
 20
-5.997225999999955
 30
0.0
 40
17.326998
100
AcDbArc
 50
159.74980099999
 51
200.25019900001
  0
ARC
  5
53DD
330
53D4
100
AcDbEntity
  8
AM_0 外形線1
100
AcDbCircle
 10
1.0
 20
-9.0
 30
0.0
 40
1.0
100
AcDbArc
 50
0.0
 51
180.0
  0
LINE
  5
53DE
330
53D4
100
AcDbEntity
  8
AM_0 外形線1
100
AcDbLine
 10
0.0
 20
11.99445199999991
 30
0.0
 11
-8.931901999999807
 21
11.99445199999991
 31
0.0
  0
ARC
  5
53DF
330
53D4
100
AcDbEntity
  8
AM_0 外形線1
100
AcDbCircle
 10
52.85887300000013
 20
10.38910100000021
 30
0.0
 40
6.141127
100
AcDbArc
 50
325.6975910000182
 51
34.30240899998182
  0
LINE
  5
53E0
330
53D4
100
AcDbEntity
  8
AM_0 外形線1
100
AcDbLine
 10
46.0
 20
-13.84999999999991
 30
0.0
 11
46.0
 21
13.84999999999991
 31
0.0
  0
LINE
  5
53E1
330
53D4
100
AcDbEntity
  8
AM_0 外形線1
100
AcDbLine
 10
59.0
 20
12.0
 30
0.0
 11
59.0
 21
-12.0
 31
0.0
  0
LINE
  5
53E2
330
53D4
100
AcDbEntity
  8
AM_0 外形線1
100
AcDbLine
 10
40.0
 20
9.0
 30
0.0
 11
40.0
 21
-9.0
 31
0.0
  0
LINE
  5
53E3
330
53D4
100
AcDbEntity
  8
AM_0 外形線1
100
AcDbLine
 10
41.0
 20
8.422649999999974
 30
0.0
 11
41.0
 21
-8.422649999999974
 31
0.0
  0
LINE
  5
53E4
330
53D4
100
AcDbEntity
  8
AM_0 外形線1
100
AcDbLine
 10
46.0
 20
1.333333000000038
 30
0.0
 11
42.0
 21
-2.66666699999996
 31
0.0
  0
LINE
  5
53E5
330
53D4
100
AcDbEntity
  8
AM_0 外形線1
100
AcDbLine
 10
46.0
 20
2.66666699999996
 30
0.0
 11
42.0
 21
-1.333333000000038
 31
0.0
  0
LINE
  5
53E6
330
53D4
100
AcDbEntity
  8
AM_0 外形線1
100
AcDbLine
 10
42.0
 20
-14.0
 30
0.0
 11
46.0
 21
-14.0
 31
0.0
  0
LINE
  5
53E7
330
53D4
100
AcDbEntity
  8
AM_0 外形線1
100
AcDbLine
 10
41.0
 20
-8.422649999999974
 30
0.0
 11
42.0
 21
-8.422649999999974
 31
0.0
  0
LINE
  5
53E8
330
53D4
100
AcDbEntity
  8
AM_0 外形線1
100
AcDbLine
 10
41.0
 20
-8.422649999999974
 30
0.0
 11
40.0
 21
-9.0
 31
0.0
  0
LINE
  5
53E9
330
53D4
100
AcDbEntity
  8
AM_0 外形線1
100
AcDbLine
 10
65.0
 20
-6.0
 30
0.0
 11
63.0
 21
-8.0
 31
0.0
  0
LINE
  5
53EA
330
53D4
100
AcDbEntity
  8
AM_0 外形線1
100
AcDbLine
 10
63.0
 20
8.0
 30
0.0
 11
65.0
 21
6.0
 31
0.0
  0
LINE
  5
53EB
330
53D4
100
AcDbEntity
  8
AM_0 外形線1
100
AcDbLine
 10
63.0
 20
8.0
 30
0.0
 11
63.0
 21
-8.0
 31
0.0
  0
LINE
  5
53EC
330
53D4
100
AcDbEntity
  8
AM_0 外形線1
100
AcDbLine
 10
63.0
 20
-8.0
 30
0.0
 11
59.0
 21
-8.0
 31
0.0
  0
LINE
  5
53ED
330
53D4
100
AcDbEntity
  8
AM_0 外形線1
100
AcDbLine
 10
59.0
 20
8.0
 30
0.0
 11
63.0
 21
8.0
 31
0.0
  0
LINE
  5
53EE
330
53D4
100
AcDbEntity
  8
AM_0 外形線1
100
AcDbLine
 10
46.0
 20
-6.928202999999937
 30
0.0
 11
57.93190200000026
 21
-6.928202999999937
 31
0.0
  0
LINE
  5
53EF
330
53D4
100
AcDbEntity
  8
AM_0 外形線1
100
AcDbLine
 10
46.0
 20
6.928202999999937
 30
0.0
 11
57.93190200000026
 21
6.928202999999937
 31
0.0
  0
ARC
  5
53F0
330
53D4
100
AcDbEntity
  8
AM_0 外形線1
100
AcDbCircle
 10
52.85887300000013
 20
-10.38910200000009
 30
0.0
 40
6.141127
100
AcDbArc
 50
325.6975910000182
 51
34.30240899998182
  0
ARC
  5
53F1
330
53D4
100
AcDbEntity
  8
AM_0 外形線1
100
AcDbCircle
 10
35.99610200000006
 20
0.0
 30
0.0
 40
23.003897
100
AcDbArc
 50
342.471797999994
 51
17.52820200000604
  0
LINE
  5
53F2
330
53D4
100
AcDbEntity
  8
AM_0 外形線1
100
AcDbLine
 10
57.93190200000026
 20
-13.84999999999991
 30
0.0
 11
46.0
 21
-13.84999999999991
 31
0.0
  0
LINE
  5
53F3
330
53D4
100
AcDbEntity
  8
AM_0 外形線1
100
AcDbLine
 10
59.0
 20
-12.0
 30
0.0
 11
57.93190200000026
 21
-13.84999999999991
 31
0.0
  0
LINE
  5
53F4
330
53D4
100
AcDbEntity
  8
AM_0 外形線1
100
AcDbLine
 10
46.0
 20
-14.0
 30
0.0
 11
46.0
 21
-13.84999999999991
 31
0.0
  0
LINE
  5
53F5
330
53D4
100
AcDbEntity
  8
AM_4 細線
100
AcDbLine
 10
59.0
 20
-7.0
 30
0.0
 11
64.0
 21
-7.0
 31
0.0
  0
LINE
  5
53F6
330
53D4
100
AcDbEntity
  8
AM_4 細線
100
AcDbLine
 10
59.0
 20
7.0
 30
0.0
 11
64.0
 21
7.0
 31
0.0
  0
LINE
  5
53F7
330
53D4
100
AcDbEntity
  8
AM_0 外形線1
100
AcDbLine
 10
65.0
 20
6.0
 30
0.0
 11
65.0
 21
-6.0
 31
0.0
  0
LINE
  5
53F8
330
53D4
100
AcDbEntity
  8
AM_0 外形線1
100
AcDbLine
 10
46.0
 20
14.0
 30
0.0
 11
42.0
 21
14.0
 31
0.0
  0
LINE
  5
53F9
330
53D4
100
AcDbEntity
  8
AM_0 外形線1
100
AcDbLine
 10
41.0
 20
8.422649999999974
 30
0.0
 11
42.0
 21
8.422649999999974
 31
0.0
  0
LINE
  5
53FA
330
53D4
100
AcDbEntity
  8
AM_0 外形線1
100
AcDbLine
 10
40.0
 20
9.0
 30
0.0
 11
41.0
 21
8.422649999999974
 31
0.0
  0
LINE
  5
53FB
330
53D4
100
AcDbEntity
  8
AM_0 外形線1
100
AcDbLine
 10
57.93190200000026
 20
13.84999999999991
 30
0.0
 11
59.0
 21
12.0
 31
0.0
  0
LINE
  5
53FC
330
53D4
100
AcDbEntity
  8
AM_0 外形線1
100
AcDbLine
 10
46.0
 20
13.84999999999991
 30
0.0
 11
57.93190200000026
 21
13.84999999999991
 31
0.0
  0
LINE
  5
53FD
330
53D4
100
AcDbEntity
  8
AM_0 外形線1
100
AcDbLine
 10
46.0
 20
13.84999999999991
 30
0.0
 11
46.0
 21
14.0
 31
0.0
  0
LINE
  5
5456
330
53D4
100
AcDbEntity
  8
AM_0 外形線1
100
AcDbLine
 10
2.0
 20
9.0
 30
0.0
 11
40.0
 21
9.0
 31
0.0
  0
LINE
  5
5457
330
53D4
100
AcDbEntity
  8
AM_0 外形線1
100
AcDbLine
 10
2.0
 20
-9.0
 30
0.0
 11
40.0
 21
-9.0
 31
0.0
  0
LINE
  5
5458
330
53D4
100
AcDbEntity
  8
AM_0 外形線1
100
AcDbLine
 10
0.0
 20
11.99445199999991
 30
0.0
 11
0.0
 21
-11.99445199999991
 31
0.0
  0
LINE
  5
5459
330
53D4
100
AcDbEntity
  8
AM_0 外形線1
100
AcDbLine
 10
-8.931902571646331
 20
-0.0000000162751803
 30
0.0
 11
0.0
 21
-0.0000000162751803
 31
0.0
  0
LINE
  5
545A
330
53D4
100
AcDbEntity
  8
AM_0 外形線1
100
AcDbLine
 10
42.0
 20
14.0
 30
0.0
 11
42.0
 21
-14.0
 31
0.0
  0
ENDBLK
  5
53D6
330
53D4
100
AcDbEntity
  8
0
100
AcDbBlockEnd
  0
BLOCK
  5
54C7
330
54C6
100
AcDbEntity
  8
0
100
AcDbBlockBegin
  2
リーマボルト-2 SAM400 M16
 70
     0
 10
0.0
 20
0.0
 30
0.0
  3
リーマボルト-2 SAM400 M16
  1

  0
ARC
  5
54C9
330
54C6
100
AcDbEntity
  8
AM_0 外形線1
100
AcDbCircle
 10
-52.85887300000002
 20
10.38910100000021
 30
0.0
 40
6.141127
100
AcDbArc
 50
145.6975910000145
 51
214.3024089999855
  0
LINE
  5
54CA
330
54C6
100
AcDbEntity
  8
AM_0 外形線1
100
AcDbLine
 10
-45.99999999999988
 20
-13.84999999999991
 30
0.0
 11
-45.99999999999988
 21
13.84999999999991
 31
0.0
  0
LINE
  5
54CB
330
54C6
100
AcDbEntity
  8
AM_0 外形線1
100
AcDbLine
 10
-58.99999999999988
 20
12.0
 30
0.0
 11
-58.99999999999988
 21
-12.0
 31
0.0
  0
LINE
  5
54CC
330
54C6
100
AcDbEntity
  8
AM_0 外形線1
100
AcDbLine
 10
-39.99999999999989
 20
9.0
 30
0.0
 11
-39.99999999999989
 21
-9.0
 31
0.0
  0
LINE
  5
54CD
330
54C6
100
AcDbEntity
  8
AM_0 外形線1
100
AcDbLine
 10
-40.99999999999988
 20
8.422649999999974
 30
0.0
 11
-40.99999999999988
 21
-8.422649999999974
 31
0.0
  0
LINE
  5
54CE
330
54C6
100
AcDbEntity
  8
AM_0 外形線1
100
AcDbLine
 10
-45.99999999999988
 20
-6.928202999999937
 30
0.0
 11
-57.93190199999992
 21
-6.928202999999937
 31
0.0
  0
LINE
  5
54CF
330
54C6
100
AcDbEntity
  8
AM_0 外形線1
100
AcDbLine
 10
-45.99999999999988
 20
6.928202999999937
 30
0.0
 11
-57.93190199999992
 21
6.928202999999937
 31
0.0
  0
LINE
  5
54D0
330
54C6
100
AcDbEntity
  8
AM_0 外形線1
100
AcDbLine
 10
-57.93190199999992
 20
-13.84999999999991
 30
0.0
 11
-45.99999999999988
 21
-13.84999999999991
 31
0.0
  0
LINE
  5
54D1
330
54C6
100
AcDbEntity
  8
AM_0 外形線1
100
AcDbLine
 10
-62.9999999999999
 20
8.0
 30
0.0
 11
-62.9999999999999
 21
-8.0
 31
0.0
  0
LINE
  5
54D2
330
54C6
100
AcDbEntity
  8
AM_0 外形線1
100
AcDbLine
 10
-62.9999999999999
 20
-8.0
 30
0.0
 11
-58.99999999999988
 21
-8.0
 31
0.0
  0
LINE
  5
54D3
330
54C6
100
AcDbEntity
  8
AM_0 外形線1
100
AcDbLine
 10
-64.9999999999999
 20
-6.0
 30
0.0
 11
-62.9999999999999
 21
-8.0
 31
0.0
  0
LINE
  5
54D4
330
54C6
100
AcDbEntity
  8
AM_0 外形線1
100
AcDbLine
 10
-64.9999999999999
 20
6.0
 30
0.0
 11
-64.9999999999999
 21
-6.0
 31
0.0
  0
LINE
  5
54D5
330
54C6
100
AcDbEntity
  8
AM_0 外形線1
100
AcDbLine
 10
-62.9999999999999
 20
8.0
 30
0.0
 11
-64.9999999999999
 21
6.0
 31
0.0
  0
LINE
  5
54D6
330
54C6
100
AcDbEntity
  8
AM_0 外形線1
100
AcDbLine
 10
-58.99999999999988
 20
8.0
 30
0.0
 11
-62.9999999999999
 21
8.0
 31
0.0
  0
ARC
  5
54D7
330
54C6
100
AcDbEntity
  8
AM_0 外形線1
100
AcDbCircle
 10
-52.85887300000002
 20
-10.38910200000009
 30
0.0
 40
6.141127
100
AcDbArc
 50
145.6975910000145
 51
214.3024089999855
  0
ARC
  5
54D8
330
54C6
100
AcDbEntity
  8
AM_0 外形線1
100
AcDbCircle
 10
-35.99610299999984
 20
0.0
 30
0.0
 40
23.003897
100
AcDbArc
 50
162.471797999992
 51
197.528202000008
  0
LINE
  5
54D9
330
54C6
100
AcDbEntity
  8
AM_0 外形線1
100
AcDbLine
 10
-58.99999999999988
 20
-12.0
 30
0.0
 11
-57.93190199999992
 21
-13.84999999999991
 31
0.0
  0
LINE
  5
54DA
330
54C6
100
AcDbEntity
  8
AM_4 細線
100
AcDbLine
 10
-58.99999999999988
 20
-7.0
 30
0.0
 11
-63.99999999999988
 21
-7.0
 31
0.0
  0
LINE
  5
54DB
330
54C6
100
AcDbEntity
  8
AM_4 細線
100
AcDbLine
 10
-58.99999999999988
 20
7.0
 30
0.0
 11
-63.99999999999988
 21
7.0
 31
0.0
  0
LINE
  5
54DC
330
54C6
100
AcDbEntity
  8
AM_0 外形線1
100
AcDbLine
 10
-45.99999999999988
 20
-1.333333000000038
 30
0.0
 11
-41.99999999999987
 21
2.66666699999996
 31
0.0
  0
LINE
  5
54DD
330
54C6
100
AcDbEntity
  8
AM_0 外形線1
100
AcDbLine
 10
-45.99999999999988
 20
-2.66666699999996
 30
0.0
 11
-41.99999999999987
 21
1.333333000000038
 31
0.0
  0
LINE
  5
54DE
330
54C6
100
AcDbEntity
  8
AM_0 外形線1
100
AcDbLine
 10
-40.99999999999988
 20
-8.422649999999974
 30
0.0
 11
-41.99999999999987
 21
-8.422649999999974
 31
0.0
  0
LINE
  5
54DF
330
54C6
100
AcDbEntity
  8
AM_0 外形線1
100
AcDbLine
 10
-45.99999999999988
 20
-14.0
 30
0.0
 11
-45.99999999999988
 21
-13.84999999999991
 31
0.0
  0
LINE
  5
54E0
330
54C6
100
AcDbEntity
  8
AM_0 外形線1
100
AcDbLine
 10
-41.99999999999987
 20
-14.0
 30
0.0
 11
-45.99999999999988
 21
-14.0
 31
0.0
  0
LINE
  5
54E1
330
54C6
100
AcDbEntity
  8
AM_0 外形線1
100
AcDbLine
 10
-40.99999999999988
 20
-8.422649999999974
 30
0.0
 11
-39.99999999999989
 21
-9.0
 31
0.0
  0
LINE
  5
54E2
330
54C6
100
AcDbEntity
  8
AM_0 外形線1
100
AcDbLine
 10
-45.99999999999988
 20
13.84999999999991
 30
0.0
 11
-57.93190199999992
 21
13.84999999999991
 31
0.0
  0
LINE
  5
54E3
330
54C6
100
AcDbEntity
  8
AM_0 外形線1
100
AcDbLine
 10
-57.93190199999992
 20
13.84999999999991
 30
0.0
 11
-58.99999999999988
 21
12.0
 31
0.0
  0
LINE
  5
54E4
330
54C6
100
AcDbEntity
  8
AM_0 外形線1
100
AcDbLine
 10
-40.99999999999988
 20
8.422649999999974
 30
0.0
 11
-41.99999999999987
 21
8.422649999999974
 31
0.0
  0
LINE
  5
54E5
330
54C6
100
AcDbEntity
  8
AM_0 外形線1
100
AcDbLine
 10
-45.99999999999988
 20
14.0
 30
0.0
 11
-41.99999999999987
 21
14.0
 31
0.0
  0
LINE
  5
54E6
330
54C6
100
AcDbEntity
  8
AM_0 外形線1
100
AcDbLine
 10
-45.99999999999988
 20
13.84999999999991
 30
0.0
 11
-45.99999999999988
 21
14.0
 31
0.0
  0
LINE
  5
54E7
330
54C6
100
AcDbEntity
  8
AM_0 外形線1
100
AcDbLine
 10
-39.99999999999989
 20
9.0
 30
0.0
 11
-40.99999999999988
 21
8.422649999999974
 31
0.0
  0
ARC
  5
54E8
330
54C6
100
AcDbEntity
  8
AM_0 外形線1
100
AcDbCircle
 10
-7.324117000000001
 20
5.997225999999955
 30
0.0
 40
17.326998
100
AcDbArc
 50
339.7498009999877
 51
20.25019900001225
  0
LINE
  5
54E9
330
54C6
100
AcDbEntity
  8
AM_0 外形線1
100
AcDbLine
 10
-1.999999999999885
 20
-9.0
 30
0.0
 11
-1.999999999999885
 21
9.0
 31
0.0
  0
ARC
  5
54EA
330
54C6
100
AcDbEntity
  8
AM_0 外形線1
100
AcDbCircle
 10
-0.9999999999998864
 20
9.0
 30
0.0
 40
1.0
100
AcDbArc
 50
180.0
 51
0.0
  0
LINE
  5
54EB
330
54C6
100
AcDbEntity
  8
AM_0 外形線1
100
AcDbLine
 10
10.00000000000011
 20
6.313205999999808
 30
0.0
 11
10.00000000000011
 21
-5.681245000000218
 31
0.0
  0
LINE
  5
54EC
330
54C6
100
AcDbEntity
  8
AM_0 外形線1
100
AcDbLine
 10
8.93190199999992
 20
-11.99445199999991
 30
0.0
 11
0.0000000000001137
 21
-11.99445199999991
 31
0.0
  0
ARC
  5
54ED
330
54C6
100
AcDbEntity
  8
AM_0 外形線1
100
AcDbCircle
 10
-0.9999999999998864
 20
-9.0
 30
0.0
 40
1.0
100
AcDbArc
 50
0.0
 51
180.0
  0
LINE
  5
54EE
330
54C6
100
AcDbEntity
  8
AM_0 外形線1
100
AcDbLine
 10
0.0000000000001137
 20
11.99445199999991
 30
0.0
 11
8.93190199999992
 21
11.99445199999991
 31
0.0
  0
ARC
  5
54EF
330
54C6
100
AcDbEntity
  8
AM_0 外形線1
100
AcDbCircle
 10
-7.324117000000001
 20
-5.997225999999955
 30
0.0
 40
17.326998
100
AcDbArc
 50
339.7498009999877
 51
20.25019900001225
  0
LINE
  5
5548
330
54C6
100
AcDbEntity
  8
AM_0 外形線1
100
AcDbLine
 10
-41.99999999999987
 20
14.0
 30
0.0
 11
-41.99999999999987
 21
-14.0
 31
0.0
  0
LINE
  5
5549
330
54C6
100
AcDbEntity
  8
AM_0 外形線1
100
AcDbLine
 10
0.0000000000001137
 20
11.99445199999991
 30
0.0
 11
0.0000000000001137
 21
-11.99445199999991
 31
0.0
  0
LINE
  5
554A
330
54C6
100
AcDbEntity
  8
AM_0 外形線1
100
AcDbLine
 10
-39.99999999999989
 20
9.0
 30
0.0
 11
-1.999999999999885
 21
8.999999999999545
 31
0.0
  0
LINE
  5
554B
330
54C6
100
AcDbEntity
  8
AM_0 外形線1
100
AcDbLine
 10
-39.99999999999989
 20
-9.0
 30
0.0
 11
-1.999999999999885
 21
-8.999999999999545
 31
0.0
  0
LINE
  5
554C
330
54C6
100
AcDbEntity
  8
AM_0 外形線1
100
AcDbLine
 10
0.0
 20
0.0
 30
0.0
 11
8.931901571646335
 21
0.0000000162756351
 31
0.0
  0
ENDBLK
  5
54C8
330
54C6
100
AcDbEntity
  8
0
100
AcDbBlockEnd
  0
BLOCK
  5
598D
330
598C
100
AcDbEntity
  8
0
100
AcDbBlockBegin
  2
*D14
 70
     1
 10
0.0
 20
0.0
 30
0.0
  3
*D14
  1

  0
LINE
  5
8EA8
330
598C
100
AcDbEntity
  8
AM_5 寸法線
 62
     3
100
AcDbLine
 10
728.4172019819576
 20
1289.027601988232
 30
0.0
 11
563.9172019819577
 21
1289.027601988232
 31
0.0
  0
LINE
  5
8EA9
330
598C
100
AcDbEntity
  8
AM_5 寸法線
 62
     3
100
AcDbLine
 10
728.4172019819576
 20
1004.027601988231
 30
0.0
 11
563.9172019819576
 21
1004.027601988231
 31
0.0
  0
LINE
  5
8EAA
330
598C
100
AcDbEntity
  8
AM_5 寸法線
 62
     3
100
AcDbLine
 10
567.0422019819576
 20
1276.527601988232
 30
0.0
 11
567.0422019819576
 21
1016.527601988231
 31
0.0
  0
INSERT
  5
8EAB
330
598C
100
AcDbEntity
  8
AM_5 寸法線
 62
     3
100
AcDbBlockReference
  2
_Open30
 10
567.0422019819577
 20
1289.027601988232
 30
0.0
 41
12.5
 42
12.5
 43
12.5
 50
90.0
  0
INSERT
  5
8EAC
330
598C
100
AcDbEntity
  8
AM_5 寸法線
 62
     3
100
AcDbBlockReference
  2
_Open30
 10
567.0422019819576
 20
1004.027601988231
 30
0.0
 41
12.5
 42
12.5
 43
12.5
 50
270.0
  0
MTEXT
  5
8EAD
330
598C
100
AcDbEntity
  8
AM_5 寸法線
 62
     3
100
AcDbMText
 10
550.7922019819574
 20
1146.527601988232
 30
0.0
 40
17.5
 41
0.0
 46
0.0
 71
     5
 72
     1
  1
%%c285
  7
SEISA
 11
0.0000000000000001
 21
1.0
 31
0.0
 73
     1
 44
1.0
  0
POINT
  5
8EAE
330
598C
100
AcDbEntity
  8
Defpoints
 62
     0
100
AcDbPoint
 10
731.5422019819576
 20
1289.027601988232
 30
0.0
  0
POINT
  5
8EAF
330
598C
100
AcDbEntity
  8
Defpoints
 62
     0
100
AcDbPoint
 10
731.5422019819576
 20
1004.027601988231
 30
0.0
  0
POINT
  5
8EB0
330
598C
100
AcDbEntity
  8
Defpoints
 62
     0
100
AcDbPoint
 10
567.0422019819576
 20
1004.027601988231
 30
0.0
  0
ENDBLK
  5
598E
330
598C
100
AcDbEntity
  8
0
100
AcDbBlockEnd
  0
BLOCK
  5
59BD
330
59BC
100
AcDbEntity
  8
0
100
AcDbBlockBegin
  2
*D15
 70
     1
 10
0.0
 20
0.0
 30
0.0
  3
*D15
  1

  0
LINE
  5
8EB1
330
59BC
100
AcDbEntity
  8
AM_5 寸法線
 62
     3
100
AcDbLine
 10
667.0422019819577
 20
1149.652601988232
 30
0.0
 11
667.0422019819577
 21
1178.048470988232
 31
0.0
  0
LINE
  5
8EB2
330
59BC
100
AcDbEntity
  8
AM_5 寸法線
 62
     3
100
AcDbLine
 10
867.0422019819577
 20
1149.652601988232
 30
0.0
 11
867.0422019819577
 21
1178.048470988232
 31
0.0
  0
LINE
  5
8EB3
330
59BC
100
AcDbEntity
  8
AM_5 寸法線
 62
     3
100
AcDbLine
 10
679.5422019819577
 20
1174.923470988233
 30
0.0
 11
854.5422019819577
 21
1174.923470988233
 31
0.0
  0
INSERT
  5
8EB4
330
59BC
100
AcDbEntity
  8
AM_5 寸法線
 62
     3
100
AcDbBlockReference
  2
_Open30
 10
667.0422019819577
 20
1174.923470988233
 30
0.0
 41
12.5
 42
12.5
 43
12.5
 50
180.0
  0
INSERT
  5
8EB5
330
59BC
100
AcDbEntity
  8
AM_5 寸法線
 62
     3
100
AcDbBlockReference
  2
_Open30
 10
867.0422019819577
 20
1174.923470988233
 30
0.0
 41
12.5
 42
12.5
 43
12.5
  0
MTEXT
  5
8EB6
330
59BC
100
AcDbEntity
  8
AM_5 寸法線
 62
     3
100
AcDbMText
 10
767.0422019819576
 20
1191.173470988232
 30
0.0
 40
17.5
 41
0.0
 46
0.0
 71
     5
 72
     1
  1
200
  7
SEISA
 73
     1
 44
1.0
  0
POINT
  5
8EB7
330
59BC
100
AcDbEntity
  8
Defpoints
 62
     0
100
AcDbPoint
 10
667.0422019819577
 20
1146.527601988232
 30
0.0
  0
POINT
  5
8EB8
330
59BC
100
AcDbEntity
  8
Defpoints
 62
     0
100
AcDbPoint
 10
867.0422019819577
 20
1146.527601988232
 30
0.0
  0
POINT
  5
8EB9
330
59BC
100
AcDbEntity
  8
Defpoints
 62
     0
100
AcDbPoint
 10
867.0422019819577
 20
1174.923470988233
 30
0.0
  0
ENDBLK
  5
59BE
330
59BC
100
AcDbEntity
  8
0
100
AcDbBlockEnd
  0
BLOCK
  5
59D5
330
59D4
100
AcDbEntity
  8
0
100
AcDbBlockBegin
  2
*D16
 70
     1
 10
0.0
 20
0.0
 30
0.0
  3
*D16
  1

  0
LINE
  5
873B
330
59D4
100
AcDbEntity
  8
AM_5 寸法線
 62
     3
100
AcDbLine
 10
1335.042201981957
 20
1149.652601988232
 30
0.0
 11
1335.042201981957
 21
1178.048470988232
 31
0.0
  0
LINE
  5
873C
330
59D4
100
AcDbEntity
  8
AM_5 寸法線
 62
     3
100
AcDbLine
 10
1135.042201981957
 20
1149.652601988232
 30
0.0
 11
1135.042201981957
 21
1178.048470988232
 31
0.0
  0
LINE
  5
873D
330
59D4
100
AcDbEntity
  8
AM_5 寸法線
 62
     3
100
AcDbLine
 10
1322.542201981957
 20
1174.923470988233
 30
0.0
 11
1147.542201981956
 21
1174.923470988233
 31
0.0
  0
INSERT
  5
873E
330
59D4
100
AcDbEntity
  8
AM_5 寸法線
 62
     3
100
AcDbBlockReference
  2
_Open30
 10
1335.042201981957
 20
1174.923470988233
 30
0.0
 41
12.5
 42
12.5
 43
12.5
  0
INSERT
  5
873F
330
59D4
100
AcDbEntity
  8
AM_5 寸法線
 62
     3
100
AcDbBlockReference
  2
_Open30
 10
1135.042201981957
 20
1174.923470988233
 30
0.0
 41
12.5
 42
12.5
 43
12.5
 50
180.0
  0
MTEXT
  5
8740
330
59D4
100
AcDbEntity
  8
AM_5 寸法線
 62
     3
100
AcDbMText
 10
1235.042201981957
 20
1191.173470988232
 30
0.0
 40
17.5
 41
0.0
 46
0.0
 71
     5
 72
     1
  1
200
  7
SEISA
 73
     1
 44
1.0
  0
POINT
  5
8741
330
59D4
100
AcDbEntity
  8
Defpoints
 62
     0
100
AcDbPoint
 10
1335.042201981957
 20
1146.527601988232
 30
0.0
  0
POINT
  5
8742
330
59D4
100
AcDbEntity
  8
Defpoints
 62
     0
100
AcDbPoint
 10
1135.042201981957
 20
1146.527601988232
 30
0.0
  0
POINT
  5
8743
330
59D4
100
AcDbEntity
  8
Defpoints
 62
     0
100
AcDbPoint
 10
1135.042201981957
 20
1174.923470988233
 30
0.0
  0
ENDBLK
  5
59D6
330
59D4
100
AcDbEntity
  8
0
100
AcDbBlockEnd
  0
BLOCK
  5
5A98
330
5A97
100
AcDbEntity
  8
0
100
AcDbBlockBegin
  2
*D17
 70
     1
 10
0.0
 20
0.0
 30
0.0
  3
*D17
  1

  0
LINE
  5
874C
330
5A97
100
AcDbEntity
  8
AM_5 寸法線
 62
     3
100
AcDbLine
 10
786.5422019819576
 20
1286.402601988231
 30
0.0
 11
786.5422019819576
 21
1257.95092021946
 31
0.0
  0
LINE
  5
874D
330
5A97
100
AcDbEntity
  8
AM_5 寸法線
 62
     3
100
AcDbLine
 10
780.0422019819576
 20
1285.902601988232
 30
0.0
 11
780.0422019819576
 21
1257.95092021946
 31
0.0
  0
LINE
  5
874E
330
5A97
100
AcDbEntity
  8
AM_5 寸法線
 62
     3
100
AcDbLine
 10
799.0422019819576
 20
1261.07592021946
 30
0.0
 11
811.5422019819575
 21
1261.07592021946
 31
0.0
  0
LINE
  5
874F
330
5A97
100
AcDbEntity
  8
AM_5 寸法線
 62
     3
100
AcDbLine
 10
767.5422019819576
 20
1261.07592021946
 30
0.0
 11
707.7922019819576
 21
1261.07592021946
 31
0.0
  0
LINE
  5
8750
330
5A97
100
AcDbEntity
  8
AM_5 寸法線
 62
     3
100
AcDbLine
 10
786.5422019819576
 20
1261.07592021946
 30
0.0
 11
780.0422019819576
 21
1261.07592021946
 31
0.0
  0
INSERT
  5
8751
330
5A97
100
AcDbEntity
  8
AM_5 寸法線
 62
     3
100
AcDbBlockReference
  2
_Open30
 10
786.5422019819576
 20
1261.07592021946
 30
0.0
 41
12.5
 42
12.5
 43
12.5
 50
180.0
  0
INSERT
  5
8752
330
5A97
100
AcDbEntity
  8
AM_5 寸法線
 62
     3
100
AcDbBlockReference
  2
_Open30
 10
780.0422019819576
 20
1261.07592021946
 30
0.0
 41
12.5
 42
12.5
 43
12.5
  0
MTEXT
  5
8753
330
5A97
100
AcDbEntity
  8
AM_5 寸法線
 62
     3
100
AcDbMText
 10
731.4172019819576
 20
1277.32592021946
 30
0.0
 40
17.5
 41
0.0
 46
0.0
 71
     5
 72
     1
  1
6.5
  7
SEISA
 73
     1
 44
1.0
  0
POINT
  5
8754
102
{ACAD_REACTORS
330
90D3
102
}
330
5A97
100
AcDbEntity
  8
Defpoints
 62
     0
100
AcDbPoint
 10
786.5422019819576
 20
1289.527601988232
 30
0.0
  0
POINT
  5
8755
330
5A97
100
AcDbEntity
  8
Defpoints
 62
     0
100
AcDbPoint
 10
780.0422019819576
 20
1289.027601988232
 30
0.0
  0
POINT
  5
8756
330
5A97
100
AcDbEntity
  8
Defpoints
 62
     0
100
AcDbPoint
 10
780.0422019819576
 20
1261.07592021946
 30
0.0
  0
ENDBLK
  5
5A99
330
5A97
100
AcDbEntity
  8
0
100
AcDbBlockEnd
  0
BLOCK
  5
5B29
330
5B28
100
AcDbEntity
  8
0
100
AcDbBlockBegin
  2
*D18
 70
     1
 10
0.0
 20
0.0
 30
0.0
  3
*D18
  1

  0
LINE
  5
8762
330
5B28
100
AcDbEntity
  8
AM_5 寸法線
 62
     3
100
AcDbLine
 10
876.0422019819577
 20
943.9026019882318
 30
0.0
 11
876.0422019819577
 21
868.4026019882319
 31
0.0
  0
LINE
  5
8763
330
5B28
100
AcDbEntity
  8
AM_5 寸法線
 62
     3
100
AcDbLine
 10
855.0422019819576
 20
944.4026019882317
 30
0.0
 11
855.0422019819576
 21
868.4026019882319
 31
0.0
  0
LINE
  5
8764
330
5B28
100
AcDbEntity
  8
AM_5 寸法線
 62
     3
100
AcDbLine
 10
888.5422019819577
 20
871.5276019882319
 30
0.0
 11
901.0422019819575
 21
871.5276019882319
 31
0.0
  0
LINE
  5
8765
330
5B28
100
AcDbEntity
  8
AM_5 寸法線
 62
     3
100
AcDbLine
 10
842.5422019819576
 20
871.5276019882319
 30
0.0
 11
794.0422019819576
 21
871.5276019882319
 31
0.0
  0
LINE
  5
8766
330
5B28
100
AcDbEntity
  8
AM_5 寸法線
 62
     3
100
AcDbLine
 10
876.0422019819577
 20
871.5276019882319
 30
0.0
 11
855.0422019819576
 21
871.5276019882319
 31
0.0
  0
INSERT
  5
8767
330
5B28
100
AcDbEntity
  8
AM_5 寸法線
 62
     3
100
AcDbBlockReference
  2
GENDOT
 10
876.0422019819577
 20
871.5276019882319
 30
0.0
 41
12.5
 42
12.5
 43
12.5
 50
180.0
  0
INSERT
  5
8768
330
5B28
100
AcDbEntity
  8
AM_5 寸法線
 62
     3
100
AcDbBlockReference
  2
_Open30
 10
855.0422019819576
 20
871.5276019882319
 30
0.0
 41
12.5
 42
12.5
 43
12.5
  0
MTEXT
  5
8769
330
5B28
100
AcDbEntity
  8
AM_5 寸法線
 62
     3
100
AcDbMText
 10
812.0422019819576
 20
887.7776019882318
 30
0.0
 40
17.5
 41
0.0
 46
0.0
 71
     5
 72
     1
  1
21
  7
SEISA
 73
     1
 44
1.0
  0
POINT
  5
876A
330
5B28
100
AcDbEntity
  8
Defpoints
 62
     0
100
AcDbPoint
 10
876.0422019819577
 20
947.0276019882318
 30
0.0
  0
POINT
  5
876B
330
5B28
100
AcDbEntity
  8
Defpoints
 62
     0
100
AcDbPoint
 10
855.0422019819576
 20
947.5276019882317
 30
0.0
  0
POINT
  5
876C
330
5B28
100
AcDbEntity
  8
Defpoints
 62
     0
100
AcDbPoint
 10
855.0422019819576
 20
871.5276019882319
 30
0.0
  0
ENDBLK
  5
5B2A
330
5B28
100
AcDbEntity
  8
0
100
AcDbBlockEnd
  0
BLOCK
  5
5B83
330
5B82
100
AcDbEntity
  8
0
100
AcDbBlockBegin
  2
*D19
 70
     1
 10
0.0
 20
0.0
 30
0.0
  3
*D19
  1

  0
LINE
  5
876D
330
5B82
100
AcDbEntity
  8
AM_5 寸法線
 62
     3
100
AcDbLine
 10
1126.042201981957
 20
943.9026019882318
 30
0.0
 11
1126.042201981957
 21
868.4026019882319
 31
0.0
  0
LINE
  5
876E
330
5B82
100
AcDbEntity
  8
AM_5 寸法線
 62
     3
100
AcDbLine
 10
1147.042201981957
 20
944.4026019882317
 30
0.0
 11
1147.042201981957
 21
868.4026019882319
 31
0.0
  0
LINE
  5
876F
330
5B82
100
AcDbEntity
  8
AM_5 寸法線
 62
     3
100
AcDbLine
 10
1113.542201981957
 20
871.5276019882319
 30
0.0
 11
1101.042201981957
 21
871.5276019882319
 31
0.0
  0
LINE
  5
8770
330
5B82
100
AcDbEntity
  8
AM_5 寸法線
 62
     3
100
AcDbLine
 10
1159.542201981957
 20
871.5276019882319
 30
0.0
 11
1208.042201981957
 21
871.5276019882319
 31
0.0
  0
LINE
  5
8771
330
5B82
100
AcDbEntity
  8
AM_5 寸法線
 62
     3
100
AcDbLine
 10
1126.042201981957
 20
871.5276019882319
 30
0.0
 11
1147.042201981957
 21
871.5276019882319
 31
0.0
  0
INSERT
  5
8772
330
5B82
100
AcDbEntity
  8
AM_5 寸法線
 62
     3
100
AcDbBlockReference
  2
GENDOT
 10
1126.042201981957
 20
871.5276019882319
 30
0.0
 41
12.5
 42
12.5
 43
12.5
  0
INSERT
  5
8773
330
5B82
100
AcDbEntity
  8
AM_5 寸法線
 62
     3
100
AcDbBlockReference
  2
_Open30
 10
1147.042201981957
 20
871.5276019882319
 30
0.0
 41
12.5
 42
12.5
 43
12.5
 50
180.0
  0
MTEXT
  5
8774
330
5B82
100
AcDbEntity
  8
AM_5 寸法線
 62
     3
100
AcDbMText
 10
1190.042201981957
 20
887.7776019882318
 30
0.0
 40
17.5
 41
0.0
 46
0.0
 71
     5
 72
     1
  1
21
  7
SEISA
 73
     1
 44
1.0
  0
POINT
  5
8775
330
5B82
100
AcDbEntity
  8
Defpoints
 62
     0
100
AcDbPoint
 10
1126.042201981957
 20
947.0276019882318
 30
0.0
  0
POINT
  5
8776
330
5B82
100
AcDbEntity
  8
Defpoints
 62
     0
100
AcDbPoint
 10
1147.042201981957
 20
947.5276019882317
 30
0.0
  0
POINT
  5
8777
330
5B82
100
AcDbEntity
  8
Defpoints
 62
     0
100
AcDbPoint
 10
1147.042201981957
 20
871.5276019882319
 30
0.0
  0
ENDBLK
  5
5B84
330
5B82
100
AcDbEntity
  8
0
100
AcDbBlockEnd
  0
BLOCK
  5
5E49
330
5E48
100
AcDbEntity
  8
0
100
AcDbBlockBegin
  2
*D20
 70
     1
 10
0.0
 20
0.0
 30
0.0
  3
*D20
  1

  0
LINE
  5
879E
330
5E48
100
AcDbEntity
  8
AM_5 寸法線
 62
     3
100
AcDbLine
 10
1335.042201981957
 20
1005.702601988232
 30
0.0
 11
1335.042201981957
 21
818.4026019882319
 31
0.0
  0
LINE
  5
879F
330
5E48
100
AcDbEntity
  8
AM_5 寸法線
 62
     3
100
AcDbLine
 10
1240.042201981957
 20
982.9026019882316
 30
0.0
 11
1240.042201981957
 21
818.4026019882319
 31
0.0
  0
LINE
  5
87A0
330
5E48
100
AcDbEntity
  8
AM_5 寸法線
 62
     3
100
AcDbLine
 10
1322.542201981957
 20
821.5276019882319
 30
0.0
 11
1252.542201981957
 21
821.5276019882319
 31
0.0
  0
INSERT
  5
87A1
330
5E48
100
AcDbEntity
  8
AM_5 寸法線
 62
     3
100
AcDbBlockReference
  2
_Open30
 10
1335.042201981957
 20
821.5276019882319
 30
0.0
 41
12.5
 42
12.5
 43
12.5
  0
INSERT
  5
87A2
330
5E48
100
AcDbEntity
  8
AM_5 寸法線
 62
     3
100
AcDbBlockReference
  2
_Open30
 10
1240.042201981957
 20
821.5276019882319
 30
0.0
 41
12.5
 42
12.5
 43
12.5
 50
180.0
  0
MTEXT
  5
87A3
330
5E48
100
AcDbEntity
  8
AM_5 寸法線
 62
     3
100
AcDbMText
 10
1287.542201981957
 20
837.7776019882318
 30
0.0
 40
17.5
 41
0.0
 46
0.0
 71
     5
 72
     1
  1
95
  7
SEISA
 73
     1
 44
1.0
  0
POINT
  5
87A4
330
5E48
100
AcDbEntity
  8
Defpoints
 62
     0
100
AcDbPoint
 10
1335.042201981957
 20
1008.827601988232
 30
0.0
  0
POINT
  5
87A5
330
5E48
100
AcDbEntity
  8
Defpoints
 62
     0
100
AcDbPoint
 10
1240.042201981957
 20
986.0276019882316
 30
0.0
  0
POINT
  5
87A6
330
5E48
100
AcDbEntity
  8
Defpoints
 62
     0
100
AcDbPoint
 10
1240.042201981957
 20
821.5276019882319
 30
0.0
  0
ENDBLK
  5
5E4A
330
5E48
100
AcDbEntity
  8
0
100
AcDbBlockEnd
  0
BLOCK
  5
5E61
330
5E60
100
AcDbEntity
  8
0
100
AcDbBlockBegin
  2
*D21
 70
     1
 10
0.0
 20
0.0
 30
0.0
  3
*D21
  1

  0
LINE
  5
87A7
330
5E60
100
AcDbEntity
  8
AM_5 寸法線
 62
     3
100
AcDbLine
 10
1240.042201981957
 20
982.9026019882316
 30
0.0
 11
1240.042201981957
 21
818.4026019882319
 31
0.0
  0
LINE
  5
87A8
330
5E60
100
AcDbEntity
  8
AM_5 寸法線
 62
     3
100
AcDbLine
 10
1126.042201981957
 20
943.9026019882318
 30
0.0
 11
1126.042201981957
 21
818.4026019882319
 31
0.0
  0
LINE
  5
87A9
330
5E60
100
AcDbEntity
  8
AM_5 寸法線
 62
     3
100
AcDbLine
 10
1227.542201981957
 20
821.5276019882319
 30
0.0
 11
1138.542201981957
 21
821.5276019882319
 31
0.0
  0
INSERT
  5
87AA
330
5E60
100
AcDbEntity
  8
AM_5 寸法線
 62
     3
100
AcDbBlockReference
  2
_Open30
 10
1240.042201981957
 20
821.5276019882319
 30
0.0
 41
12.5
 42
12.5
 43
12.5
  0
INSERT
  5
87AB
330
5E60
100
AcDbEntity
  8
AM_5 寸法線
 62
     3
100
AcDbBlockReference
  2
_Open30
 10
1126.042201981957
 20
821.5276019882319
 30
0.0
 41
12.5
 42
12.5
 43
12.5
 50
180.0
  0
MTEXT
  5
87AC
330
5E60
100
AcDbEntity
  8
AM_5 寸法線
 62
     3
100
AcDbMText
 10
1183.042201981957
 20
837.7776019882318
 30
0.0
 40
17.5
 41
0.0
 46
0.0
 71
     5
 72
     1
  1
114
  7
SEISA
 73
     1
 44
1.0
  0
POINT
  5
87AD
330
5E60
100
AcDbEntity
  8
Defpoints
 62
     0
100
AcDbPoint
 10
1240.042201981957
 20
986.0276019882316
 30
0.0
  0
POINT
  5
87AE
330
5E60
100
AcDbEntity
  8
Defpoints
 62
     0
100
AcDbPoint
 10
1126.042201981957
 20
947.0276019882318
 30
0.0
  0
POINT
  5
87AF
330
5E60
100
AcDbEntity
  8
Defpoints
 62
     0
100
AcDbPoint
 10
1126.042201981957
 20
821.5276019882319
 30
0.0
  0
ENDBLK
  5
5E62
330
5E60
100
AcDbEntity
  8
0
100
AcDbBlockEnd
  0
BLOCK
  5
5EA2
330
5EA1
100
AcDbEntity
  8
0
100
AcDbBlockBegin
  2
*D22
 70
     1
 10
0.0
 20
0.0
 30
0.0
  3
*D22
  1

  0
LINE
  5
87B8
330
5EA1
100
AcDbEntity
  8
AM_5 寸法線
 62
     3
100
AcDbLine
 10
762.0422019819576
 20
982.9026019882316
 30
0.0
 11
762.0422019819576
 21
818.4026019882319
 31
0.0
  0
LINE
  5
87B9
330
5EA1
100
AcDbEntity
  8
AM_5 寸法線
 62
     3
100
AcDbLine
 10
876.0422019819577
 20
943.9026019882318
 30
0.0
 11
876.0422019819577
 21
818.4026019882319
 31
0.0
  0
LINE
  5
87BA
330
5EA1
100
AcDbEntity
  8
AM_5 寸法線
 62
     3
100
AcDbLine
 10
774.5422019819576
 20
821.5276019882319
 30
0.0
 11
863.5422019819577
 21
821.5276019882319
 31
0.0
  0
INSERT
  5
87BB
330
5EA1
100
AcDbEntity
  8
AM_5 寸法線
 62
     3
100
AcDbBlockReference
  2
_Open30
 10
762.0422019819576
 20
821.5276019882319
 30
0.0
 41
12.5
 42
12.5
 43
12.5
 50
180.0
  0
INSERT
  5
87BC
330
5EA1
100
AcDbEntity
  8
AM_5 寸法線
 62
     3
100
AcDbBlockReference
  2
_Open30
 10
876.0422019819577
 20
821.5276019882319
 30
0.0
 41
12.5
 42
12.5
 43
12.5
  0
MTEXT
  5
87BD
330
5EA1
100
AcDbEntity
  8
AM_5 寸法線
 62
     3
100
AcDbMText
 10
819.0422019819575
 20
837.7776019882318
 30
0.0
 40
17.5
 41
0.0
 46
0.0
 71
     5
 72
     1
  1
114
  7
SEISA
 73
     1
 44
1.0
  0
POINT
  5
87BE
330
5EA1
100
AcDbEntity
  8
Defpoints
 62
     0
100
AcDbPoint
 10
762.0422019819576
 20
986.0276019882316
 30
0.0
  0
POINT
  5
87BF
330
5EA1
100
AcDbEntity
  8
Defpoints
 62
     0
100
AcDbPoint
 10
876.0422019819577
 20
947.0276019882318
 30
0.0
  0
POINT
  5
87C0
330
5EA1
100
AcDbEntity
  8
Defpoints
 62
     0
100
AcDbPoint
 10
876.0422019819577
 20
821.5276019882319
 30
0.0
  0
ENDBLK
  5
5EA3
330
5EA1
100
AcDbEntity
  8
0
100
AcDbBlockEnd
  0
BLOCK
  5
5EBA
330
5EB9
100
AcDbEntity
  8
0
100
AcDbBlockBegin
  2
*D23
 70
     1
 10
0.0
 20
0.0
 30
0.0
  3
*D23
  1

  0
LINE
  5
87C1
330
5EB9
100
AcDbEntity
  8
AM_5 寸法線
 62
     3
100
AcDbLine
 10
762.0422019819576
 20
982.9026019882316
 30
0.0
 11
762.0422019819576
 21
818.4026019882319
 31
0.0
  0
LINE
  5
87C2
330
5EB9
100
AcDbEntity
  8
AM_5 寸法線
 62
     3
100
AcDbLine
 10
667.0422019819577
 20
1005.702601988232
 30
0.0
 11
667.0422019819577
 21
818.4026019882319
 31
0.0
  0
LINE
  5
87C3
330
5EB9
100
AcDbEntity
  8
AM_5 寸法線
 62
     3
100
AcDbLine
 10
749.5422019819576
 20
821.5276019882319
 30
0.0
 11
679.5422019819577
 21
821.5276019882319
 31
0.0
  0
INSERT
  5
87C4
330
5EB9
100
AcDbEntity
  8
AM_5 寸法線
 62
     3
100
AcDbBlockReference
  2
_Open30
 10
762.0422019819576
 20
821.5276019882319
 30
0.0
 41
12.5
 42
12.5
 43
12.5
  0
INSERT
  5
87C5
330
5EB9
100
AcDbEntity
  8
AM_5 寸法線
 62
     3
100
AcDbBlockReference
  2
_Open30
 10
667.0422019819577
 20
821.5276019882319
 30
0.0
 41
12.5
 42
12.5
 43
12.5
 50
180.0
  0
MTEXT
  5
87C6
330
5EB9
100
AcDbEntity
  8
AM_5 寸法線
 62
     3
100
AcDbMText
 10
714.5422019819577
 20
837.7776019882318
 30
0.0
 40
17.5
 41
0.0
 46
0.0
 71
     5
 72
     1
  1
95
  7
SEISA
 73
     1
 44
1.0
  0
POINT
  5
87C7
330
5EB9
100
AcDbEntity
  8
Defpoints
 62
     0
100
AcDbPoint
 10
762.0422019819576
 20
986.0276019882316
 30
0.0
  0
POINT
  5
87C8
330
5EB9
100
AcDbEntity
  8
Defpoints
 62
     0
100
AcDbPoint
 10
667.0422019819577
 20
1008.827601988232
 30
0.0
  0
POINT
  5
87C9
330
5EB9
100
AcDbEntity
  8
Defpoints
 62
     0
100
AcDbPoint
 10
667.0422019819577
 20
821.5276019882319
 30
0.0
  0
ENDBLK
  5
5EBB
330
5EB9
100
AcDbEntity
  8
0
100
AcDbBlockEnd
  0
BLOCK
  5
6143
330
6142
100
AcDbEntity
  8
0
100
AcDbBlockBegin
  2
*D24
 70
     1
 10
0.0
 20
0.0
 30
0.0
  3
*D24
  1

  0
LINE
  5
87D2
330
6142
100
AcDbEntity
  8
AM_5 寸法線
 62
     3
100
AcDbLine
 10
1273.667201981957
 20
1289.027601988232
 30
0.0
 11
1438.167201981957
 21
1289.027601988232
 31
0.0
  0
LINE
  5
87D3
330
6142
100
AcDbEntity
  8
AM_5 寸法線
 62
     3
100
AcDbLine
 10
1273.667201981957
 20
1004.027601988231
 30
0.0
 11
1438.167201981957
 21
1004.027601988231
 31
0.0
  0
LINE
  5
87D4
330
6142
100
AcDbEntity
  8
AM_5 寸法線
 62
     3
100
AcDbLine
 10
1435.042201981957
 20
1276.527601988232
 30
0.0
 11
1435.042201981957
 21
1016.527601988231
 31
0.0
  0
INSERT
  5
87D5
330
6142
100
AcDbEntity
  8
AM_5 寸法線
 62
     3
100
AcDbBlockReference
  2
_Open30
 10
1435.042201981957
 20
1289.027601988232
 30
0.0
 41
12.5
 42
12.5
 43
12.5
 50
90.0
  0
INSERT
  5
87D6
330
6142
100
AcDbEntity
  8
AM_5 寸法線
 62
     3
100
AcDbBlockReference
  2
_Open30
 10
1435.042201981957
 20
1004.027601988231
 30
0.0
 41
12.5
 42
12.5
 43
12.5
 50
270.0
  0
MTEXT
  5
87D7
330
6142
100
AcDbEntity
  8
AM_5 寸法線
 62
     3
100
AcDbMText
 10
1418.792201981957
 20
1146.527601988232
 30
0.0
 40
17.5
 41
0.0
 46
0.0
 71
     5
 72
     1
  1
%%c285
  7
SEISA
 11
0.0000000000000001
 21
1.0
 31
0.0
 73
     1
 44
1.0
  0
POINT
  5
87D8
330
6142
100
AcDbEntity
  8
Defpoints
 62
     0
100
AcDbPoint
 10
1270.542201981957
 20
1289.027601988232
 30
0.0
  0
POINT
  5
87D9
330
6142
100
AcDbEntity
  8
Defpoints
 62
     0
100
AcDbPoint
 10
1270.542201981957
 20
1004.027601988231
 30
0.0
  0
POINT
  5
87DA
330
6142
100
AcDbEntity
  8
Defpoints
 62
     0
100
AcDbPoint
 10
1435.042201981957
 20
1004.027601988231
 30
0.0
  0
ENDBLK
  5
6144
330
6142
100
AcDbEntity
  8
0
100
AcDbBlockEnd
  0
BLOCK
  5
6164
330
6163
100
AcDbEntity
  8
0
100
AcDbBlockBegin
  2
*D25
 70
     1
 10
0.0
 20
0.0
 30
0.0
  3
*D25
  1

  0
LINE
  5
87DB
330
6163
100
AcDbEntity
  8
AM_5 寸法線
 62
     3
100
AcDbLine
 10
1239.167201981957
 20
1311.027601988232
 30
0.0
 11
1488.167201981957
 21
1311.027601988232
 31
0.0
  0
LINE
  5
87DC
330
6163
100
AcDbEntity
  8
AM_5 寸法線
 62
     3
100
AcDbLine
 10
1239.167201981957
 20
982.0276019882317
 30
0.0
 11
1488.167201981957
 21
982.0276019882317
 31
0.0
  0
LINE
  5
87DD
330
6163
100
AcDbEntity
  8
AM_5 寸法線
 62
     3
100
AcDbLine
 10
1485.042201981957
 20
1298.527601988231
 30
0.0
 11
1485.042201981957
 21
994.5276019882317
 31
0.0
  0
INSERT
  5
87DE
330
6163
100
AcDbEntity
  8
AM_5 寸法線
 62
     3
100
AcDbBlockReference
  2
_Open30
 10
1485.042201981957
 20
1311.027601988232
 30
0.0
 41
12.5
 42
12.5
 43
12.5
 50
90.0
  0
INSERT
  5
87DF
330
6163
100
AcDbEntity
  8
AM_5 寸法線
 62
     3
100
AcDbBlockReference
  2
_Open30
 10
1485.042201981957
 20
982.0276019882317
 30
0.0
 41
12.5
 42
12.5
 43
12.5
 50
270.0
  0
MTEXT
  5
87E0
330
6163
100
AcDbEntity
  8
AM_5 寸法線
 62
     3
100
AcDbMText
 10
1468.792201981957
 20
1146.527601988232
 30
0.0
 40
17.5
 41
0.0
 46
0.0
 71
     5
 72
     1
  1
%%c329
  7
SEISA
 11
0.0000000000000001
 21
1.0
 31
0.0
 73
     1
 44
1.0
  0
POINT
  5
87E1
330
6163
100
AcDbEntity
  8
Defpoints
 62
     0
100
AcDbPoint
 10
1236.042201981957
 20
1311.027601988232
 30
0.0
  0
POINT
  5
87E2
330
6163
100
AcDbEntity
  8
Defpoints
 62
     0
100
AcDbPoint
 10
1236.042201981957
 20
982.0276019882317
 30
0.0
  0
POINT
  5
87E3
330
6163
100
AcDbEntity
  8
Defpoints
 62
     0
100
AcDbPoint
 10
1485.042201981957
 20
982.0276019882317
 30
0.0
  0
ENDBLK
  5
6165
330
6163
100
AcDbEntity
  8
0
100
AcDbBlockEnd
  0
BLOCK
  5
617C
330
617B
100
AcDbEntity
  8
0
100
AcDbBlockBegin
  2
*D26
 70
     1
 10
0.0
 20
0.0
 30
0.0
  3
*D26
  1

  0
LINE
  5
87E4
330
617B
100
AcDbEntity
  8
AM_5 寸法線
 62
     3
100
AcDbLine
 10
1149.167201981957
 20
1346.527601988231
 30
0.0
 11
1538.167201981957
 21
1346.527601988231
 31
0.0
  0
LINE
  5
87E5
330
617B
100
AcDbEntity
  8
AM_5 寸法線
 62
     3
100
AcDbLine
 10
1149.167201981957
 20
946.5276019882317
 30
0.0
 11
1538.167201981957
 21
946.5276019882317
 31
0.0
  0
LINE
  5
87E6
330
617B
100
AcDbEntity
  8
AM_5 寸法線
 62
     3
100
AcDbLine
 10
1535.042201981957
 20
1334.027601988232
 30
0.0
 11
1535.042201981957
 21
959.0276019882317
 31
0.0
  0
INSERT
  5
87E7
330
617B
100
AcDbEntity
  8
AM_5 寸法線
 62
     3
100
AcDbBlockReference
  2
_Open30
 10
1535.042201981957
 20
1346.527601988231
 30
0.0
 41
12.5
 42
12.5
 43
12.5
 50
90.0
  0
INSERT
  5
87E8
330
617B
100
AcDbEntity
  8
AM_5 寸法線
 62
     3
100
AcDbBlockReference
  2
_Open30
 10
1535.042201981957
 20
946.5276019882317
 30
0.0
 41
12.5
 42
12.5
 43
12.5
 50
270.0
  0
MTEXT
  5
87E9
330
617B
100
AcDbEntity
  8
AM_5 寸法線
 62
     3
100
AcDbMText
 10
1518.792201981957
 20
1146.527601988232
 30
0.0
 40
17.5
 41
0.0
 46
0.0
 71
     5
 72
     1
  1
%%c400
  7
SEISA
 11
0.0000000000000001
 21
1.0
 31
0.0
 73
     1
 44
1.0
  0
POINT
  5
87EA
330
617B
100
AcDbEntity
  8
Defpoints
 62
     0
100
AcDbPoint
 10
1146.042201981957
 20
1346.527601988231
 30
0.0
  0
POINT
  5
87EB
330
617B
100
AcDbEntity
  8
Defpoints
 62
     0
100
AcDbPoint
 10
1146.042201981957
 20
946.5276019882317
 30
0.0
  0
POINT
  5
87EC
330
617B
100
AcDbEntity
  8
Defpoints
 62
     0
100
AcDbPoint
 10
1535.042201981957
 20
946.5276019882317
 30
0.0
  0
ENDBLK
  5
617D
330
617B
100
AcDbEntity
  8
0
100
AcDbBlockEnd
  0
BLOCK
  5
7385
330
7384
100
AcDbEntity
  8
0
100
AcDbBlockBegin
  2
ＧＣスペーサ SAMY400
 70
     0
 10
0.0
 20
0.0
 30
0.0
  3
ＧＣスペーサ SAMY400
  1

  0
LINE
  5
7387
330
7384
100
AcDbEntity
  8
AM_0 外形線1
100
AcDbLine
 10
1098.042201981958
 20
2251.185764759124
 30
0.0
 11
1004.866484104571
 21
2251.185764759124
 31
0.0
  0
HATCH
  5
7388
330
7384
100
AcDbEntity
  8
AM_8 ハッチング
100
AcDbHatch
 10
0.0
 20
0.0
 30
0.0
210
0.0
220
0.0
230
1.0
  2
_USER
 70
     0
 71
     1
 91
        1
 92
        7
 72
     1
 73
     1
 93
        5
 10
924.3974977426161
 20
2251.185764759124
 42
0.0
 10
904.0422019819576
 20
2251.185764759124
 42
0.0
 10
904.0422019819576
 20
2234.785764759124
 42
0.4142135623730951
 10
909.0422019819575
 20
2229.785764759124
 42
0.0
 10
912.0422019819576
 20
2229.785764759124
 42
0.0
 97
        5
330
7389
330
73E9
330
73EA
330
738E
330
73ED
 75
     0
 76
     0
 52
45.0
 41
1.5
 77
     0
 78
     1
 53
45.0
 43
267.9766771434299
 44
1374.665442281596
 45
-1.06066017177982
 46
1.06066017177982
 79
     0
 47
0.0357434189357847
 98
        1
 10
914.2892088140044
 20
2239.902704283256
1001
ACAD
1010
0.0
1020
0.0
1030
0.0
  0
LINE
  5
7389
102
{ACAD_REACTORS
330
7388
102
}
330
7384
100
AcDbEntity
  8
AM_0 外形線1
100
AcDbLine
 10
996.8664841045717
 20
2251.185764759124
 30
0.0
 11
904.0422019819576
 21
2251.185764759124
 31
0.0
  0
LINE
  5
738B
330
7384
100
AcDbEntity
  8
AM_7 中心線
100
AcDbLine
 10
1100.042201981958
 20
1907.935764759123
 30
0.0
 11
1152.042201981957
 21
1907.935764759123
 31
0.0
  0
LINE
  5
738C
330
7384
100
AcDbEntity
  8
AM_0 外形線1
100
AcDbLine
 10
1074.042201981957
 20
1932.685764759123
 30
0.0
 11
1004.866484104571
 21
1932.685764759123
 31
0.0
  0
LINE
  5
738D
330
7384
100
AcDbEntity
  8
AM_0 外形線1
100
AcDbLine
 10
1093.042201981957
 20
2229.785764759124
 30
0.0
 11
999.8064145967315
 21
2229.785764759124
 31
0.0
  0
LINE
  5
738E
102
{ACAD_REACTORS
330
7388
102
}
330
7384
100
AcDbEntity
  8
AM_0 外形線1
100
AcDbLine
 10
991.8347831049619
 20
2229.785764759124
 30
0.0
 11
909.0422019819575
 21
2229.785764759124
 31
0.0
  0
LINE
  5
738F
330
7384
100
AcDbEntity
  8
AM_0 外形線1
100
AcDbLine
 10
999.8347831049619
 20
1954.085764759124
 30
0.0
 11
999.8064145967314
 21
1954.085764759124
 31
0.0
  0
LINE
  5
7390
330
7384
100
AcDbEntity
  8
AM_0 外形線1
100
AcDbLine
 10
996.8664841045711
 20
1932.685764759123
 30
0.0
 11
928.042201981958
 21
1932.685764759124
 31
0.0
  0
POLYLINE
  5
7391
330
7384
100
AcDbEntity
  8
AM_4 細線
100
AcDb2dPolyline
 66
     1
 10
0.0
 20
0.0
 30
0.0
 70
     2
  0
VERTEX
  5
9471
330
7391
100
AcDbEntity
  8
AM_4 細線
100
AcDbVertex
100
AcDb2dVertex
 10
1004.866484104571
 20
2251.185764759124
 30
0.0
 42
0.0374126327239504
  0
VERTEX
  5
9472
330
7391
100
AcDbEntity
  8
AM_4 細線
100
AcDbVertex
100
AcDb2dVertex
 10
999.4038466853906
 20
2227.249261274207
 30
0.0
 42
0.057937796807872
 70
     1
  0
VERTEX
  5
9473
330
7391
100
AcDbEntity
  8
AM_4 細線
100
AcDbVertex
100
AcDb2dVertex
 10
998.8664841045716
 20
2211.373264759124
 30
0.0
 42
0.0421012134400463
  0
VERTEX
  5
9474
330
7391
100
AcDbEntity
  8
AM_4 細線
100
AcDbVertex
100
AcDb2dVertex
 10
1002.843988175776
 20
2187.642262533594
 30
0.0
 42
-0.0626359921345596
 70
     1
  0
VERTEX
  5
9475
330
7391
100
AcDbEntity
  8
AM_4 細線
100
AcDbVertex
100
AcDb2dVertex
 10
1004.866484104571
 20
2171.560764759124
 30
0.0
 42
-0.0749301455538294
  0
VERTEX
  5
9476
330
7391
100
AcDbEntity
  8
AM_4 細線
100
AcDbVertex
100
AcDb2dVertex
 10
1001.866484104571
 20
2151.654514759124
 30
0.0
 42
0.0749301455538294
 70
     1
  0
VERTEX
  5
9477
330
7391
100
AcDbEntity
  8
AM_4 細線
100
AcDbVertex
100
AcDb2dVertex
 10
998.8664841045713
 20
2131.748264759124
 30
0.0
 42
0.07493014555383
  0
VERTEX
  5
9478
330
7391
100
AcDbEntity
  8
AM_4 細線
100
AcDbVertex
100
AcDb2dVertex
 10
1001.866484104571
 20
2111.842014759124
 30
0.0
 42
-0.0749301455538296
 70
     1
  0
VERTEX
  5
9479
330
7391
100
AcDbEntity
  8
AM_4 細線
100
AcDbVertex
100
AcDb2dVertex
 10
1004.866484104571
 20
2091.935764759124
 30
0.0
 42
-0.0749301455538299
  0
VERTEX
  5
947A
330
7391
100
AcDbEntity
  8
AM_4 細線
100
AcDbVertex
100
AcDb2dVertex
 10
1001.866484104571
 20
2072.029514759124
 30
0.0
 42
0.0749301455538291
 70
     1
  0
VERTEX
  5
947B
330
7391
100
AcDbEntity
  8
AM_4 細線
100
AcDbVertex
100
AcDb2dVertex
 10
998.8664841045713
 20
2052.123264759124
 30
0.0
 42
0.0749301455538299
  0
VERTEX
  5
947C
330
7391
100
AcDbEntity
  8
AM_4 細線
100
AcDbVertex
100
AcDb2dVertex
 10
1001.866484104571
 20
2032.217014759124
 30
0.0
 42
-0.0749301455538301
 70
     1
  0
VERTEX
  5
947D
330
7391
100
AcDbEntity
  8
AM_4 細線
100
AcDbVertex
100
AcDb2dVertex
 10
1004.866484104571
 20
2012.310764759124
 30
0.0
 42
-0.0626359921345655
  0
VERTEX
  5
947E
330
7391
100
AcDbEntity
  8
AM_4 細線
100
AcDbVertex
100
AcDb2dVertex
 10
1002.843988175776
 20
1996.229266984654
 30
0.0
 42
0.042101213440045
 70
     1
  0
VERTEX
  5
947F
330
7391
100
AcDbEntity
  8
AM_4 細線
100
AcDbVertex
100
AcDb2dVertex
 10
998.8664841045713
 20
1972.498264759123
 30
0.0
 42
0.057937796807881
  0
VERTEX
  5
9480
330
7391
100
AcDbEntity
  8
AM_4 細線
100
AcDbVertex
100
AcDb2dVertex
 10
999.4038466853906
 20
1956.622268244041
 30
0.0
 42
0.0374126327239575
 70
     1
  0
VERTEX
  5
9481
330
7391
100
AcDbEntity
  8
AM_4 細線
100
AcDbVertex
100
AcDb2dVertex
 10
1004.866484104571
 20
1932.685764759123
 30
0.0
  0
SEQEND
  5
9482
330
7391
100
AcDbEntity
  8
AM_4 細線
  0
POLYLINE
  5
73A4
330
7384
100
AcDbEntity
  8
AM_4 細線
100
AcDb2dPolyline
 66
     1
 10
0.0
 20
0.0
 30
0.0
 70
     2
  0
VERTEX
  5
9484
330
73A4
100
AcDbEntity
  8
AM_4 細線
100
AcDbVertex
100
AcDb2dVertex
 10
996.8664841045717
 20
2251.185764759124
 30
0.0
 42
0.0374126327239504
  0
VERTEX
  5
9485
330
73A4
100
AcDbEntity
  8
AM_4 細線
100
AcDbVertex
100
AcDb2dVertex
 10
991.4038466853908
 20
2227.249261274207
 30
0.0
 42
0.057937796807872
 70
     1
  0
VERTEX
  5
9486
330
73A4
100
AcDbEntity
  8
AM_4 細線
100
AcDbVertex
100
AcDb2dVertex
 10
990.8664841045716
 20
2211.373264759124
 30
0.0
 42
0.0421012134400463
  0
VERTEX
  5
9487
330
73A4
100
AcDbEntity
  8
AM_4 細線
100
AcDbVertex
100
AcDb2dVertex
 10
994.8439881757762
 20
2187.642262533594
 30
0.0
 42
-0.0626359921345596
 70
     1
  0
VERTEX
  5
9488
330
73A4
100
AcDbEntity
  8
AM_4 細線
100
AcDbVertex
100
AcDb2dVertex
 10
996.8664841045717
 20
2171.560764759124
 30
0.0
 42
-0.0749301455538294
  0
VERTEX
  5
9489
330
73A4
100
AcDbEntity
  8
AM_4 細線
100
AcDbVertex
100
AcDb2dVertex
 10
993.8664841045714
 20
2151.654514759124
 30
0.0
 42
0.0749301455538294
 70
     1
  0
VERTEX
  5
948A
330
73A4
100
AcDbEntity
  8
AM_4 細線
100
AcDbVertex
100
AcDb2dVertex
 10
990.8664841045712
 20
2131.748264759124
 30
0.0
 42
0.07493014555383
  0
VERTEX
  5
948B
330
73A4
100
AcDbEntity
  8
AM_4 細線
100
AcDbVertex
100
AcDb2dVertex
 10
993.8664841045714
 20
2111.842014759124
 30
0.0
 42
-0.0749301455538296
 70
     1
  0
VERTEX
  5
948C
330
73A4
100
AcDbEntity
  8
AM_4 細線
100
AcDbVertex
100
AcDb2dVertex
 10
996.8664841045717
 20
2091.935764759124
 30
0.0
 42
-0.0749301455538299
  0
VERTEX
  5
948D
330
73A4
100
AcDbEntity
  8
AM_4 細線
100
AcDbVertex
100
AcDb2dVertex
 10
993.8664841045714
 20
2072.029514759124
 30
0.0
 42
0.0749301455538291
 70
     1
  0
VERTEX
  5
948E
330
73A4
100
AcDbEntity
  8
AM_4 細線
100
AcDbVertex
100
AcDb2dVertex
 10
990.8664841045712
 20
2052.123264759124
 30
0.0
 42
0.0749301455538299
  0
VERTEX
  5
948F
330
73A4
100
AcDbEntity
  8
AM_4 細線
100
AcDbVertex
100
AcDb2dVertex
 10
993.8664841045714
 20
2032.217014759124
 30
0.0
 42
-0.0749301455538301
 70
     1
  0
VERTEX
  5
9490
330
73A4
100
AcDbEntity
  8
AM_4 細線
100
AcDbVertex
100
AcDb2dVertex
 10
996.8664841045717
 20
2012.310764759124
 30
0.0
 42
-0.0626359921345655
  0
VERTEX
  5
9491
330
73A4
100
AcDbEntity
  8
AM_4 細線
100
AcDbVertex
100
AcDb2dVertex
 10
994.843988175776
 20
1996.229266984654
 30
0.0
 42
0.042101213440045
 70
     1
  0
VERTEX
  5
9492
330
73A4
100
AcDbEntity
  8
AM_4 細線
100
AcDbVertex
100
AcDb2dVertex
 10
990.8664841045712
 20
1972.498264759123
 30
0.0
 42
0.057937796807881
  0
VERTEX
  5
9493
330
73A4
100
AcDbEntity
  8
AM_4 細線
100
AcDbVertex
100
AcDb2dVertex
 10
991.4038466853908
 20
1956.622268244041
 30
0.0
 42
0.0374126327239575
 70
     1
  0
VERTEX
  5
9494
330
73A4
100
AcDbEntity
  8
AM_4 細線
100
AcDbVertex
100
AcDb2dVertex
 10
996.8664841045711
 20
1932.685764759123
 30
0.0
  0
SEQEND
  5
9495
330
73A4
100
AcDbEntity
  8
AM_4 細線
  0
LINE
  5
73B7
330
7384
100
AcDbEntity
  8
AM_0 外形線1
100
AcDbLine
 10
1126.042201981957
 20
2091.935764759124
 30
0.0
 11
1126.042201981958
 21
1892.435764759123
 31
0.0
  0
LINE
  5
73B8
330
7384
100
AcDbEntity
  8
AM_0 外形線1
100
AcDbLine
 10
1125.542201981958
 20
1891.935764759123
 30
0.0
 11
1126.042201981958
 21
1892.435764759123
 31
0.0
1001
GENIUS_GENFIL_13
1070
     0
1040
0.5
1040
0.5
1040
0.4999999999999149
1040
45.00000000001302
1000
~T
1001
GENIUS_GENOREF_13
1005
73FC
  0
LINE
  5
73B9
330
7384
100
AcDbEntity
  8
AM_0 外形線1
100
AcDbLine
 10
1105.042201981958
 20
1892.935764759124
 30
0.0
 11
1105.042201981958
 21
2091.935764759125
 31
0.0
  0
LINE
  5
73BA
330
7384
100
AcDbEntity
  8
AM_0 外形線1
100
AcDbLine
 10
1125.542201981958
 20
1891.935764759123
 30
0.0
 11
1106.042201981958
 21
1891.935764759123
 31
0.0
  0
LINE
  5
73BB
330
7384
100
AcDbEntity
  8
AM_0 外形線1
100
AcDbLine
 10
1105.042201981958
 20
1892.935764759124
 30
0.0
 11
1106.042201981958
 21
1891.935764759123
 31
0.0
1001
GENIUS_GENFIL_13
1070
     0
1040
1.0
1040
1.0
1040
1.0
1040
45.0
1000
~T
1001
GENIUS_GENOREF_13
1005
73FB
  0
LINE
  5
73BC
330
7384
100
AcDbEntity
  8
AM_7 中心線
100
AcDbLine
 10
1100.042201981958
 20
1907.935764759123
 30
0.0
 11
1152.042201981957
 21
1907.935764759123
 31
0.0
  0
LINE
  5
73BD
330
7384
100
AcDbEntity
  8
AM_0 外形線1
100
AcDbLine
 10
1098.042201981958
 20
1920.435764759124
 30
0.0
 11
1098.042201981958
 21
2091.935764759124
 31
0.0
  0
LINE
  5
73BE
330
7384
100
AcDbEntity
  8
AM_0 外形線1
100
AcDbLine
 10
1105.042201981958
 20
1920.435764759124
 30
0.0
 11
1098.042201981958
 21
1920.435764759124
 31
0.0
  0
ARC
  5
73BF
330
7384
100
AcDbEntity
  8
AM_0 外形線1
100
AcDbCircle
 10
1074.042201981957
 20
1922.685764759124
 30
0.0
 40
10.0
100
AcDbArc
 50
60.13445582547308
 51
90.0
  0
LINE
  5
73C0
330
7384
100
AcDbEntity
  8
AM_0 外形線1
100
AcDbLine
 10
1098.042201981958
 20
1920.435764759124
 30
0.0
 11
1079.021865242255
 21
1931.357728424525
 31
0.0
  0
LINE
  5
73C1
330
7384
100
AcDbEntity
  8
AM_0 外形線1
100
AcDbLine
 10
1088.042201981958
 20
2229.785764759124
 30
0.0
 11
1088.042201981958
 21
2091.935764759124
 31
0.0
  0
LINE
  5
73C2
330
7384
100
AcDbEntity
  8
AM_0 外形線1
100
AcDbLine
 10
1120.042201981958
 20
2254.935764759125
 30
0.0
 11
1120.042201981958
 21
2091.935764759124
 31
0.0
  0
LINE
  5
73C3
330
7384
100
AcDbEntity
  8
AM_0 外形線1
100
AcDbLine
 10
1126.042201981958
 20
2255.435764759124
 30
0.0
 11
1126.042201981958
 21
2266.935764759124
 31
0.0
  0
LINE
  5
73C4
330
7384
100
AcDbEntity
  8
AM_0 外形線1
100
AcDbLine
 10
1126.042201981958
 20
2284.935764759124
 30
0.0
 11
1126.042201981958
 21
2291.435764759124
 31
0.0
  0
LINE
  5
73C5
330
7384
100
AcDbEntity
  8
AM_0 外形線1
100
AcDbLine
 10
1125.542201981958
 20
2254.935764759125
 30
0.0
 11
1126.042201981958
 21
2255.435764759124
 31
0.0
1001
GENIUS_GENFIL_13
1070
     0
1040
0.5
1040
0.5
1040
0.4999999999999149
1040
45.0
1000
~T
1001
GENIUS_GENOREF_13
1005
73FA
  0
LINE
  5
73C6
330
7384
100
AcDbEntity
  8
AM_0 外形線1
100
AcDbLine
 10
1125.542201981958
 20
2291.935764759124
 30
0.0
 11
1126.042201981958
 21
2291.435764759124
 31
0.0
1001
GENIUS_GENFIL_13
1070
     0
1040
0.5
1040
0.5
1040
0.4999999999999149
1040
45.0000000000065
1000
~T
1001
GENIUS_GENOREF_13
1005
73F9
  0
LINE
  5
73C7
330
7384
100
AcDbEntity
  8
AM_0 外形線1
100
AcDbLine
 10
1105.042201981958
 20
2290.935764759124
 30
0.0
 11
1105.042201981958
 21
2263.435764759124
 31
0.0
  0
LINE
  5
73C8
330
7384
100
AcDbEntity
  8
AM_0 外形線1
100
AcDbLine
 10
1125.542201981958
 20
2291.935764759124
 30
0.0
 11
1106.042201981958
 21
2291.935764759124
 31
0.0
  0
LINE
  5
73C9
330
7384
100
AcDbEntity
  8
AM_0 外形線1
100
AcDbLine
 10
1105.042201981958
 20
2290.935764759124
 30
0.0
 11
1106.042201981958
 21
2291.935764759124
 31
0.0
1001
GENIUS_GENFIL_13
1070
     0
1040
1.0
1040
1.0
1040
1.0
1040
45.0
1000
~T
1001
GENIUS_GENOREF_13
1005
73F8
  0
HATCH
  5
73CA
330
7384
100
AcDbEntity
  8
AM_8 ハッチング
100
AcDbHatch
 10
0.0
 20
0.0
 30
0.0
210
0.0
220
0.0
230
1.0
  2
_USER
 70
     0
 71
     0
 91
        1
 92
        7
 72
     1
 73
     1
 93
        5
 10
1077.686906221299
 20
2251.185764759124
 42
0.0
 10
1098.042201981958
 20
2251.185764759124
 42
0.0
 10
1098.042201981958
 20
2234.785764759124
 42
-0.4142135623730951
 10
1093.042201981957
 20
2229.785764759124
 42
0.0
 10
1090.042201981957
 20
2229.785764759124
 42
0.0
 97
        0
 75
     0
 76
     0
 52
45.0
 41
1.5
 77
     0
 78
     1
 53
45.0
 43
62.97667714342992
 44
1374.665442281596
 45
-1.06066017177982
 46
1.06066017177982
 79
     0
 47
0.3204566604870929
 98
        1
 10
1090.12478432564
 20
2243.655157468519
1001
ACAD
1010
0.0
1020
0.0
1030
0.0
  0
LINE
  5
73CB
330
7384
100
AcDbEntity
  8
AM_0 外形線1
100
AcDbLine
 10
1098.042201981958
 20
2263.435764759124
 30
0.0
 11
1098.042201981958
 21
2234.785764759124
 31
0.0
  0
ARC
  5
73CC
330
7384
100
AcDbEntity
  8
AM_0 外形線1
100
AcDbCircle
 10
1093.042201981957
 20
2234.785764759124
 30
0.0
 40
5.0
100
AcDbArc
 50
270.0
 51
0.0
1001
GENIUS_GENODEF_13
1002
{
1000
HIER
1070
     0
1002
}
1002
{
1000
MANEDIT
1070
     0
1002
}
1002
{
1000
NOSEL
1070
     0
1002
}
1002
{
1000
BEHIND
1070
     0
1002
}
1002
{
1000
OTHER
1070
     0
1002
}
1002
{
1000
REACTOR
1002
}
1001
GENIUS_GENOBJ-N-FIL_13
1002
{
1000
OWNER
1000
GEN
1002
}
  0
LINE
  5
73CD
330
7384
100
AcDbEntity
  8
AM_0 外形線1
100
AcDbLine
 10
1105.042201981958
 20
2263.435764759124
 30
0.0
 11
1098.042201981958
 21
2263.435764759124
 31
0.0
  0
LINE
  5
73CE
330
7384
100
AcDbEntity
  8
AM_0 外形線1
100
AcDbLine
 10
1125.542201981958
 20
2254.935764759125
 30
0.0
 11
1120.042201981958
 21
2254.935764759125
 31
0.0
  0
LINE
  5
73CF
330
7384
100
AcDbEntity
  8
AM_0 外形線1
100
AcDbLine
 10
1090.042201981957
 20
2229.785764759124
 30
0.0
 11
1077.686906221299
 21
2251.185764759124
 31
0.0
  0
ARC
  5
73D0
330
7384
100
AcDbEntity
  8
AM_0 外形線1
100
AcDbCircle
 10
1074.042201981957
 20
2261.185764759124
 30
0.0
 40
10.0
100
AcDbArc
 50
270.0
 51
299.8655441745269
  0
LINE
  5
73D1
330
7384
100
AcDbEntity
  8
AM_0 外形線1
100
AcDbLine
 10
1098.042201981958
 20
2263.435764759124
 30
0.0
 11
1079.021865242255
 21
2252.513801093723
 31
0.0
  0
HATCH
  5
73D2
330
7384
100
AcDbEntity
  8
AM_8 ハッチング
100
AcDbHatch
 10
0.0
 20
0.0
 30
0.0
210
0.0
220
0.0
230
1.0
  2
_USER
 70
     0
 71
     0
 91
        1
 92
        1
 93
        4
 72
     1
 10
1079.021865242255
 20
2252.513801093723
 11
1098.042201981958
 21
2263.435764759124
 72
     1
 10
1098.042201981958
 20
2263.435764759124
 11
1098.042201981958
 21
2251.185764759124
 72
     1
 10
1098.042201981958
 20
2251.185764759124
 11
1074.042201981957
 21
2251.185764759124
 72
     2
 10
1074.042201981957
 20
2261.185764759124
 40
10.0
 50
270.0000000000007
 51
299.8655441745319
 73
     1
 97
        0
 75
     0
 76
     0
 52
45.0
 41
1.5
 77
     0
 78
     1
 53
45.0
 43
62.97667714342992
 44
1374.665442281596
 45
-1.06066017177982
 46
1.06066017177982
 79
     0
 98
        1
 10
1779.294164297127
 20
2612.443481898487
1001
GENIUS_GENOBJ-N-HTC_13
1002
{
1000
OWNER
1000
GEN
1002
}
1001
GENIUS_GENODEF_13
1002
{
1000
HIER
1070
     0
1002
}
1002
{
1000
MANEDIT
1070
     0
1002
}
1002
{
1000
NOSEL
1070
     0
1002
}
1002
{
1000
BEHIND
1070
     0
1002
}
1002
{
1000
OTHER
1070
     0
1002
}
1002
{
1000
REACTOR
1002
}
1001
GENIUS_GENHATCH_13
1002
{
1000
DATA
1040
45.0
1042
-0.5
1000
_U
1070
     0
1011
1090.984287879735
1021
2253.333729547049
1031
0.0
1002
}
1002
{
1000
UCS
1010
0.0
1020
0.0
1030
0.0
1010
1.0
1020
0.0
1030
0.0
1010
0.0
1020
1.0
1030
0.0
1002
}
1001
ACAD
1010
0.0
1020
0.0
1030
0.0
  0
LINE
  5
73D3
330
7384
100
AcDbEntity
  8
AM_0 外形線1
100
AcDbLine
 10
1126.042201981958
 20
2266.935764759124
 30
0.0
 11
1105.042201981958
 21
2266.935764759124
 31
0.0
  0
LINE
  5
73D4
330
7384
100
AcDbEntity
  8
AM_0 外形線1
100
AcDbLine
 10
1126.042201981958
 20
2284.935764759124
 30
0.0
 11
1105.042201981958
 21
2284.935764759124
 31
0.0
  0
LINE
  5
73D5
330
7384
100
AcDbEntity
  8
AM_7 中心線
100
AcDbLine
 10
902.0422019819575
 20
1907.935764759123
 30
0.0
 11
850.0422019819579
 21
1907.935764759123
 31
0.0
  0
LINE
  5
73D6
330
7384
100
AcDbEntity
  8
AM_0 外形線1
100
AcDbLine
 10
876.0422019819577
 20
2091.935764759124
 30
0.0
 11
876.0422019819577
 21
1892.435764759123
 31
0.0
  0
LINE
  5
73D7
330
7384
100
AcDbEntity
  8
AM_0 外形線1
100
AcDbLine
 10
876.5422019819576
 20
1891.935764759123
 30
0.0
 11
876.0422019819577
 21
1892.435764759123
 31
0.0
1001
GENIUS_GENFIL_13
1070
     0
1040
0.5
1040
0.5
1040
0.4999999999999149
1040
45.00000000001302
1000
~T
1001
GENIUS_GENOREF_13
1005
73F7
  0
LINE
  5
73D8
330
7384
100
AcDbEntity
  8
AM_0 外形線1
100
AcDbLine
 10
897.0422019819576
 20
1892.935764759124
 30
0.0
 11
897.0422019819576
 21
2091.935764759125
 31
0.0
  0
LINE
  5
73D9
330
7384
100
AcDbEntity
  8
AM_0 外形線1
100
AcDbLine
 10
876.5422019819576
 20
1891.935764759123
 30
0.0
 11
896.0422019819576
 21
1891.935764759123
 31
0.0
  0
LINE
  5
73DA
330
7384
100
AcDbEntity
  8
AM_0 外形線1
100
AcDbLine
 10
897.0422019819576
 20
1892.935764759124
 30
0.0
 11
896.0422019819576
 21
1891.935764759123
 31
0.0
1001
GENIUS_GENFIL_13
1070
     0
1040
1.0
1040
1.0
1040
1.0
1040
45.0
1000
~T
1001
GENIUS_GENOREF_13
1005
73F6
  0
LINE
  5
73DB
330
7384
100
AcDbEntity
  8
AM_7 中心線
100
AcDbLine
 10
902.0422019819575
 20
1907.935764759123
 30
0.0
 11
850.0422019819579
 21
1907.935764759123
 31
0.0
  0
LINE
  5
73DC
330
7384
100
AcDbEntity
  8
AM_0 外形線1
100
AcDbLine
 10
904.0422019819576
 20
1920.435764759124
 30
0.0
 11
904.0422019819576
 21
2091.935764759124
 31
0.0
  0
LINE
  5
73DD
330
7384
100
AcDbEntity
  8
AM_0 外形線1
100
AcDbLine
 10
897.0422019819576
 20
1920.435764759124
 30
0.0
 11
904.0422019819576
 21
1920.435764759124
 31
0.0
  0
ARC
  5
73DE
330
7384
100
AcDbEntity
  8
AM_0 外形線1
100
AcDbCircle
 10
928.042201981958
 20
1922.685764759124
 30
0.0
 40
10.0
100
AcDbArc
 50
90.0
 51
119.8655441745263
  0
LINE
  5
73DF
330
7384
100
AcDbEntity
  8
AM_0 外形線1
100
AcDbLine
 10
904.0422019819576
 20
1920.435764759124
 30
0.0
 11
923.0625387216598
 21
1931.357728424525
 31
0.0
  0
LINE
  5
73E0
330
7384
100
AcDbEntity
  8
AM_0 外形線1
100
AcDbLine
 10
914.0422019819576
 20
2229.785764759124
 30
0.0
 11
914.0422019819576
 21
2091.935764759124
 31
0.0
  0
LINE
  5
73E1
330
7384
100
AcDbEntity
  8
AM_0 外形線1
100
AcDbLine
 10
882.0422019819575
 20
2254.935764759125
 30
0.0
 11
882.0422019819575
 21
2091.935764759124
 31
0.0
  0
LINE
  5
73E2
330
7384
100
AcDbEntity
  8
AM_0 外形線1
100
AcDbLine
 10
876.0422019819577
 20
2255.435764759124
 30
0.0
 11
876.0422019819577
 21
2266.935764759124
 31
0.0
  0
LINE
  5
73E3
330
7384
100
AcDbEntity
  8
AM_0 外形線1
100
AcDbLine
 10
876.0422019819579
 20
2284.935764759124
 30
0.0
 11
876.0422019819577
 21
2291.435764759124
 31
0.0
  0
LINE
  5
73E4
330
7384
100
AcDbEntity
  8
AM_0 外形線1
100
AcDbLine
 10
876.5422019819576
 20
2254.935764759125
 30
0.0
 11
876.0422019819577
 21
2255.435764759124
 31
0.0
1001
GENIUS_GENFIL_13
1070
     0
1040
0.5
1040
0.5
1040
0.4999999999999149
1040
44.9999999999951
1000
~T
1001
GENIUS_GENOREF_13
1005
73F5
  0
LINE
  5
73E5
330
7384
100
AcDbEntity
  8
AM_0 外形線1
100
AcDbLine
 10
876.5422019819576
 20
2291.935764759124
 30
0.0
 11
876.0422019819577
 21
2291.435764759124
 31
0.0
1001
GENIUS_GENFIL_13
1070
     0
1040
0.5
1040
0.5
1040
0.4999999999999149
1040
45.00000000001302
1000
~T
1001
GENIUS_GENOREF_13
1005
73F4
  0
LINE
  5
73E6
330
7384
100
AcDbEntity
  8
AM_0 外形線1
100
AcDbLine
 10
897.0422019819576
 20
2290.935764759124
 30
0.0
 11
897.0422019819576
 21
2263.435764759124
 31
0.0
  0
LINE
  5
73E7
330
7384
100
AcDbEntity
  8
AM_0 外形線1
100
AcDbLine
 10
876.5422019819576
 20
2291.935764759124
 30
0.0
 11
896.0422019819576
 21
2291.935764759124
 31
0.0
  0
LINE
  5
73E8
330
7384
100
AcDbEntity
  8
AM_0 外形線1
100
AcDbLine
 10
897.0422019819576
 20
2290.935764759124
 30
0.0
 11
896.0422019819576
 21
2291.935764759124
 31
0.0
1001
GENIUS_GENFIL_13
1070
     0
1040
1.0
1040
1.0
1040
1.0
1040
45.00000000000325
1000
~T
1001
GENIUS_GENOREF_13
1005
73F3
  0
LINE
  5
73E9
102
{ACAD_REACTORS
330
7388
102
}
330
7384
100
AcDbEntity
  8
AM_0 外形線1
100
AcDbLine
 10
904.0422019819576
 20
2263.435764759124
 30
0.0
 11
904.0422019819576
 21
2234.785764759124
 31
0.0
  0
ARC
  5
73EA
102
{ACAD_REACTORS
330
7388
102
}
330
7384
100
AcDbEntity
  8
AM_0 外形線1
100
AcDbCircle
 10
909.0422019819575
 20
2234.785764759124
 30
0.0
 40
5.0
100
AcDbArc
 50
180.0
 51
270.0
1001
GENIUS_GENODEF_13
1002
{
1000
HIER
1070
     0
1002
}
1002
{
1000
MANEDIT
1070
     0
1002
}
1002
{
1000
NOSEL
1070
     0
1002
}
1002
{
1000
BEHIND
1070
     0
1002
}
1002
{
1000
OTHER
1070
     0
1002
}
1002
{
1000
REACTOR
1002
}
1001
GENIUS_GENOBJ-N-FIL_13
1002
{
1000
OWNER
1000
GEN
1002
}
  0
LINE
  5
73EB
330
7384
100
AcDbEntity
  8
AM_0 外形線1
100
AcDbLine
 10
897.0422019819576
 20
2263.435764759124
 30
0.0
 11
904.0422019819576
 21
2263.435764759124
 31
0.0
  0
LINE
  5
73EC
330
7384
100
AcDbEntity
  8
AM_0 外形線1
100
AcDbLine
 10
876.5422019819576
 20
2254.935764759125
 30
0.0
 11
882.0422019819575
 21
2254.935764759125
 31
0.0
  0
LINE
  5
73ED
102
{ACAD_REACTORS
330
7388
102
}
330
7384
100
AcDbEntity
  8
AM_0 外形線1
100
AcDbLine
 10
912.0422019819576
 20
2229.785764759124
 30
0.0
 11
924.3974977426161
 21
2251.185764759124
 31
0.0
  0
ARC
  5
73EE
330
7384
100
AcDbEntity
  8
AM_0 外形線1
100
AcDbCircle
 10
928.042201981958
 20
2261.185764759124
 30
0.0
 40
10.0
100
AcDbArc
 50
240.1344558254737
 51
270.0
  0
LINE
  5
73EF
330
7384
100
AcDbEntity
  8
AM_0 外形線1
100
AcDbLine
 10
904.0422019819576
 20
2263.435764759124
 30
0.0
 11
923.0625387216598
 21
2252.513801093723
 31
0.0
  0
HATCH
  5
73F0
330
7384
100
AcDbEntity
  8
AM_8 ハッチング
100
AcDbHatch
 10
0.0
 20
0.0
 30
0.0
210
0.0
220
0.0
230
1.0
  2
_USER
 70
     0
 71
     0
 91
        1
 92
        1
 93
        4
 72
     1
 10
923.0625387216598
 20
2252.513801093723
 11
904.0422019819576
 21
2263.435764759124
 72
     1
 10
904.0422019819576
 20
2263.435764759124
 11
904.0422019819576
 21
2251.185764759124
 72
     1
 10
904.0422019819576
 20
2251.185764759124
 11
928.042201981958
 21
2251.185764759124
 72
     2
 10
928.042201981958
 20
2261.185764759124
 40
10.0
 50
90.00000000000067
 51
119.8655441745318
 73
     0
 97
        0
 75
     0
 76
     0
 52
45.0
 41
1.5
 77
     0
 78
     1
 53
45.0
 43
267.9766771434299
 44
1374.665442281596
 45
-1.06066017177982
 46
1.06066017177982
 79
     0
 98
        1
 10
222.790239666788
 20
2612.443481898487
1001
GENIUS_GENOBJ-N-HTC_13
1002
{
1000
OWNER
1000
GEN
1002
}
1001
GENIUS_GENODEF_13
1002
{
1000
HIER
1070
     0
1002
}
1002
{
1000
MANEDIT
1070
     0
1002
}
1002
{
1000
NOSEL
1070
     0
1002
}
1002
{
1000
BEHIND
1070
     0
1002
}
1002
{
1000
OTHER
1070
     0
1002
}
1002
{
1000
REACTOR
1002
}
1001
GENIUS_GENHATCH_13
1002
{
1000
DATA
1040
45.0
1042
0.5
1000
_U
1070
     0
1011
967.690288961567
1021
2253.333729547049
1031
0.0
1002
}
1002
{
1000
UCS
1010
0.0
1020
0.0
1030
0.0
1010
1.0
1020
0.0
1030
0.0
1010
0.0
1020
1.0
1030
0.0
1002
}
1001
ACAD
1010
0.0
1020
0.0
1030
0.0
  0
LINE
  5
73F1
330
7384
100
AcDbEntity
  8
AM_0 外形線1
100
AcDbLine
 10
876.0422019819577
 20
2266.935764759124
 30
0.0
 11
897.0422019819576
 21
2266.935764759124
 31
0.0
  0
LINE
  5
73F2
330
7384
100
AcDbEntity
  8
AM_0 外形線1
100
AcDbLine
 10
876.0422019819577
 20
2284.935764759124
 30
0.0
 11
897.0422019819576
 21
2284.935764759124
 31
0.0
  0
POINT
  5
73F3
330
7384
100
AcDbEntity
  8
0
 60
     1
100
AcDbPoint
 10
211.3865042660436
 20
-2448.464789638779
 30
0.0
1001
GENIUS_GENOBJ-N-CHA_13
1002
{
1000
OWNER
1000
GEN
1002
}
1001
GENIUS_GENOENT_13
1002
{
1000
MYREF
1005
73F3
1002
}
1002
{
1000
GRP
1005
0
1002
}
1001
GENIUS_GENODEF_13
1002
{
1000
HIER
1070
     1
1002
}
1002
{
1000
MANEDIT
1070
     1
1002
}
1002
{
1000
NOSEL
1070
     0
1002
}
1002
{
1000
BEHIND
1070
     0
1002
}
1002
{
1000
OTHER
1070
     0
1002
}
1002
{
1000
REACTOR
1002
}
1001
GENIUS_GENOLIS_13
1002
{
1000
ENT
1005
73E8
1002
}
  0
POINT
  5
73F4
330
7384
100
AcDbEntity
  8
0
 60
     1
100
AcDbPoint
 10
211.3865042660436
 20
-2448.464789638779
 30
0.0
1001
GENIUS_GENOBJ-N-CHA_13
1002
{
1000
OWNER
1000
GEN
1002
}
1001
GENIUS_GENOENT_13
1002
{
1000
MYREF
1005
73F4
1002
}
1002
{
1000
GRP
1005
0
1002
}
1001
GENIUS_GENODEF_13
1002
{
1000
HIER
1070
     1
1002
}
1002
{
1000
MANEDIT
1070
     1
1002
}
1002
{
1000
NOSEL
1070
     0
1002
}
1002
{
1000
BEHIND
1070
     0
1002
}
1002
{
1000
OTHER
1070
     0
1002
}
1002
{
1000
REACTOR
1002
}
1001
GENIUS_GENOLIS_13
1002
{
1000
ENT
1005
73E5
1002
}
  0
POINT
  5
73F5
330
7384
100
AcDbEntity
  8
0
 60
     1
100
AcDbPoint
 10
211.3865042660436
 20
-2448.464789638779
 30
0.0
1001
GENIUS_GENOENT_13
1002
{
1000
MYREF
1005
73F5
1002
}
1002
{
1000
GRP
1005
0
1002
}
1001
GENIUS_GENOBJ-N-CHA_13
1002
{
1000
OWNER
1000
GEN
1002
}
1001
GENIUS_GENODEF_13
1002
{
1000
HIER
1070
     1
1002
}
1002
{
1000
MANEDIT
1070
     1
1002
}
1002
{
1000
NOSEL
1070
     0
1002
}
1002
{
1000
BEHIND
1070
     0
1002
}
1002
{
1000
OTHER
1070
     0
1002
}
1002
{
1000
REACTOR
1002
}
1001
GENIUS_GENOLIS_13
1002
{
1000
ENT
1005
73E4
1002
}
  0
POINT
  5
73F6
330
7384
100
AcDbEntity
  8
0
 60
     1
100
AcDbPoint
 10
565.5645964127741
 20
-2612.234726008115
 30
0.0
 50
180.0
1001
GENIUS_GENODEF_13
1002
{
1000
HIER
1070
     1
1002
}
1002
{
1000
MANEDIT
1070
     0
1002
}
1002
{
1000
NOSEL
1070
     0
1002
}
1002
{
1000
BEHIND
1070
     0
1002
}
1002
{
1000
OTHER
1070
     0
1002
}
1002
{
1000
REACTOR
1002
}
1001
GENIUS_GENOBJ-N-CHA_13
1002
{
1000
OWNER
1000
GEN
1002
}
1001
GENIUS_GENOENT_13
1002
{
1000
MYREF
1005
73F6
1002
}
1002
{
1000
GRP
1005
0
1002
}
1001
GENIUS_GENOLIS_13
1002
{
1000
ENT
1005
73DA
1002
}
  0
POINT
  5
73F7
330
7384
100
AcDbEntity
  8
0
 60
     1
100
AcDbPoint
 10
565.5645964127741
 20
-2612.234726008115
 30
0.0
 50
180.0
1001
GENIUS_GENOBJ-N-CHA_13
1002
{
1000
OWNER
1000
GEN
1002
}
1001
GENIUS_GENOENT_13
1002
{
1000
MYREF
1005
73F7
1002
}
1002
{
1000
GRP
1005
0
1002
}
1001
GENIUS_GENODEF_13
1002
{
1000
HIER
1070
     1
1002
}
1002
{
1000
MANEDIT
1070
     1
1002
}
1002
{
1000
NOSEL
1070
     0
1002
}
1002
{
1000
BEHIND
1070
     0
1002
}
1002
{
1000
OTHER
1070
     0
1002
}
1002
{
1000
REACTOR
1002
}
1001
GENIUS_GENOLIS_13
1002
{
1000
ENT
1005
73D7
1002
}
  0
POINT
  5
73F8
330
7384
100
AcDbEntity
  8
0
 60
     1
100
AcDbPoint
 10
211.3865042660436
 20
-2448.464789638779
 30
0.0
1001
GENIUS_GENOENT_13
1002
{
1000
MYREF
1005
73F8
1002
}
1002
{
1000
GRP
1005
0
1002
}
1001
GENIUS_GENOBJ-N-CHA_13
1002
{
1000
OWNER
1000
GEN
1002
}
1001
GENIUS_GENODEF_13
1002
{
1000
HIER
1070
     1
1002
}
1002
{
1000
MANEDIT
1070
     1
1002
}
1002
{
1000
NOSEL
1070
     0
1002
}
1002
{
1000
BEHIND
1070
     0
1002
}
1002
{
1000
OTHER
1070
     0
1002
}
1002
{
1000
REACTOR
1002
}
1001
GENIUS_GENOLIS_13
1002
{
1000
ENT
1005
73C9
1002
}
  0
POINT
  5
73F9
330
7384
100
AcDbEntity
  8
0
 60
     1
100
AcDbPoint
 10
211.3865042660436
 20
-2448.464789638779
 30
0.0
1001
GENIUS_GENOBJ-N-CHA_13
1002
{
1000
OWNER
1000
GEN
1002
}
1001
GENIUS_GENOENT_13
1002
{
1000
MYREF
1005
73F9
1002
}
1002
{
1000
GRP
1005
0
1002
}
1001
GENIUS_GENODEF_13
1002
{
1000
HIER
1070
     1
1002
}
1002
{
1000
MANEDIT
1070
     1
1002
}
1002
{
1000
NOSEL
1070
     0
1002
}
1002
{
1000
BEHIND
1070
     0
1002
}
1002
{
1000
OTHER
1070
     0
1002
}
1002
{
1000
REACTOR
1002
}
1001
GENIUS_GENOLIS_13
1002
{
1000
ENT
1005
73C6
1002
}
  0
POINT
  5
73FA
330
7384
100
AcDbEntity
  8
0
 60
     1
100
AcDbPoint
 10
211.3865042660436
 20
-2448.464789638779
 30
0.0
1001
GENIUS_GENOBJ-N-CHA_13
1002
{
1000
OWNER
1000
GEN
1002
}
1001
GENIUS_GENOENT_13
1002
{
1000
MYREF
1005
73FA
1002
}
1002
{
1000
GRP
1005
0
1002
}
1001
GENIUS_GENODEF_13
1002
{
1000
HIER
1070
     1
1002
}
1002
{
1000
MANEDIT
1070
     1
1002
}
1002
{
1000
NOSEL
1070
     0
1002
}
1002
{
1000
BEHIND
1070
     0
1002
}
1002
{
1000
OTHER
1070
     0
1002
}
1002
{
1000
REACTOR
1002
}
1001
GENIUS_GENOLIS_13
1002
{
1000
ENT
1005
73C5
1002
}
  0
POINT
  5
73FB
330
7384
100
AcDbEntity
  8
0
 60
     1
100
AcDbPoint
 10
1528.339461796369
 20
-2612.234726008115
 30
0.0
1001
GENIUS_GENODEF_13
1002
{
1000
HIER
1070
     1
1002
}
1002
{
1000
MANEDIT
1070
     0
1002
}
1002
{
1000
NOSEL
1070
     0
1002
}
1002
{
1000
BEHIND
1070
     0
1002
}
1002
{
1000
OTHER
1070
     0
1002
}
1002
{
1000
REACTOR
1002
}
1001
GENIUS_GENOBJ-N-CHA_13
1002
{
1000
OWNER
1000
GEN
1002
}
1001
GENIUS_GENOENT_13
1002
{
1000
MYREF
1005
73FB
1002
}
1002
{
1000
GRP
1005
0
1002
}
1001
GENIUS_GENOLIS_13
1002
{
1000
ENT
1005
73BB
1002
}
  0
POINT
  5
73FC
330
7384
100
AcDbEntity
  8
0
 60
     1
100
AcDbPoint
 10
1528.339461796369
 20
-2612.234726008115
 30
0.0
1001
GENIUS_GENOBJ-N-CHA_13
1002
{
1000
OWNER
1000
GEN
1002
}
1001
GENIUS_GENOENT_13
1002
{
1000
MYREF
1005
73FC
1002
}
1002
{
1000
GRP
1005
0
1002
}
1001
GENIUS_GENODEF_13
1002
{
1000
HIER
1070
     1
1002
}
1002
{
1000
MANEDIT
1070
     1
1002
}
1002
{
1000
NOSEL
1070
     0
1002
}
1002
{
1000
BEHIND
1070
     0
1002
}
1002
{
1000
OTHER
1070
     0
1002
}
1002
{
1000
REACTOR
1002
}
1001
GENIUS_GENOLIS_13
1002
{
1000
ENT
1005
73B8
1002
}
  0
LINE
  5
94DC
330
7384
100
AcDbEntity
  8
AM_0 外形線1
100
AcDbLine
 10
925.3752820213517
 20
1932.685764759124
 30
0.0
 11
925.3752820213517
 21
2091.935764759124
 31
0.0
  0
LINE
  5
94DD
330
7384
100
AcDbEntity
  8
AM_0 外形線1
100
AcDbLine
 10
1076.709121942565
 20
1932.685764759123
 30
0.0
 11
1076.709121942565
 21
2091.935764759124
 31
0.0
  0
ENDBLK
  5
7386
330
7384
100
AcDbEntity
  8
0
100
AcDbBlockEnd
  0
BLOCK
  5
76BF
330
76BE
100
AcDbEntity
  8
0
100
AcDbBlockBegin
  2
*D28
 70
     1
 10
0.0
 20
0.0
 30
0.0
  3
*D28
  1

  0
LINE
  5
87ED
330
76BE
100
AcDbEntity
  8
AM_5 寸法線
 62
     3
100
AcDbLine
 10
876.0422019819579
 20
944.4026019882317
 30
0.0
 11
876.0422019819579
 21
868.402601988231
 31
0.0
  0
LINE
  5
87EE
330
76BE
100
AcDbEntity
  8
AM_5 寸法線
 62
     3
100
AcDbLine
 10
897.0422019819576
 20
944.402601988231
 30
0.0
 11
897.0422019819576
 21
868.402601988231
 31
0.0
  0
LINE
  5
87EF
330
76BE
100
AcDbEntity
  8
AM_5 寸法線
 62
     3
100
AcDbLine
 10
863.5422019819579
 20
871.527601988231
 30
0.0
 11
851.0422019819579
 21
871.527601988231
 31
0.0
  0
LINE
  5
87F0
330
76BE
100
AcDbEntity
  8
AM_5 寸法線
 62
     3
100
AcDbLine
 10
909.5422019819576
 20
871.527601988231
 30
0.0
 11
958.0422019819579
 21
871.527601988231
 31
0.0
  0
LINE
  5
87F1
330
76BE
100
AcDbEntity
  8
AM_5 寸法線
 62
     3
100
AcDbLine
 10
876.0422019819579
 20
871.527601988231
 30
0.0
 11
897.0422019819576
 21
871.527601988231
 31
0.0
  0
INSERT
  5
87F2
330
76BE
100
AcDbEntity
  8
AM_5 寸法線
 62
     3
100
AcDbBlockReference
  2
GENDOT
 10
876.0422019819579
 20
871.527601988231
 30
0.0
 41
12.5
 42
12.5
 43
12.5
  0
INSERT
  5
87F3
330
76BE
100
AcDbEntity
  8
AM_5 寸法線
 62
     3
100
AcDbBlockReference
  2
_Open30
 10
897.0422019819576
 20
871.527601988231
 30
0.0
 41
12.5
 42
12.5
 43
12.5
 50
180.0
  0
MTEXT
  5
87F4
330
76BE
100
AcDbEntity
  8
AM_5 寸法線
 62
     3
100
AcDbMText
 10
940.0422019819579
 20
887.7776019882309
 30
0.0
 40
17.5
 41
0.0
 46
0.0
 71
     5
 72
     1
  1
21
  7
SEISA
 73
     1
 44
1.0
  0
POINT
  5
87F5
330
76BE
100
AcDbEntity
  8
Defpoints
 62
     0
100
AcDbPoint
 10
876.0422019819579
 20
947.5276019882317
 30
0.0
  0
POINT
  5
87F6
330
76BE
100
AcDbEntity
  8
Defpoints
 62
     0
100
AcDbPoint
 10
897.0422019819576
 20
947.527601988231
 30
0.0
  0
POINT
  5
87F7
330
76BE
100
AcDbEntity
  8
Defpoints
 62
     0
100
AcDbPoint
 10
897.0422019819576
 20
871.527601988231
 30
0.0
  0
ENDBLK
  5
76C0
330
76BE
100
AcDbEntity
  8
0
100
AcDbBlockEnd
  0
BLOCK
  5
76FC
330
76FB
100
AcDbEntity
  8
0
100
AcDbBlockBegin
  2
*D29
 70
     1
 10
0.0
 20
0.0
 30
0.0
  3
*D29
  1

  0
LINE
  5
87F8
330
76FB
100
AcDbEntity
  8
AM_5 寸法線
 62
     3
100
AcDbLine
 10
1126.042201981957
 20
944.4026019882317
 30
0.0
 11
1126.042201981957
 21
868.4026019882312
 31
0.0
  0
LINE
  5
87F9
330
76FB
100
AcDbEntity
  8
AM_5 寸法線
 62
     3
100
AcDbLine
 10
1105.042201981958
 20
944.4026019882317
 30
0.0
 11
1105.042201981958
 21
868.4026019882312
 31
0.0
  0
LINE
  5
87FA
330
76FB
100
AcDbEntity
  8
AM_5 寸法線
 62
     3
100
AcDbLine
 10
1138.542201981957
 20
871.5276019882312
 30
0.0
 11
1151.042201981957
 21
871.5276019882312
 31
0.0
  0
LINE
  5
87FB
330
76FB
100
AcDbEntity
  8
AM_5 寸法線
 62
     3
100
AcDbLine
 10
1092.542201981958
 20
871.5276019882312
 30
0.0
 11
1044.042201981957
 21
871.5276019882312
 31
0.0
  0
LINE
  5
87FC
330
76FB
100
AcDbEntity
  8
AM_5 寸法線
 62
     3
100
AcDbLine
 10
1126.042201981957
 20
871.5276019882312
 30
0.0
 11
1105.042201981958
 21
871.5276019882312
 31
0.0
  0
INSERT
  5
87FD
330
76FB
100
AcDbEntity
  8
AM_5 寸法線
 62
     3
100
AcDbBlockReference
  2
GENDOT
 10
1126.042201981957
 20
871.5276019882312
 30
0.0
 41
12.5
 42
12.5
 43
12.5
 50
180.0
  0
INSERT
  5
87FE
330
76FB
100
AcDbEntity
  8
AM_5 寸法線
 62
     3
100
AcDbBlockReference
  2
_Open30
 10
1105.042201981958
 20
871.5276019882312
 30
0.0
 41
12.5
 42
12.5
 43
12.5
  0
MTEXT
  5
87FF
330
76FB
100
AcDbEntity
  8
AM_5 寸法線
 62
     3
100
AcDbMText
 10
1062.042201981958
 20
887.7776019882313
 30
0.0
 40
17.5
 41
0.0
 46
0.0
 71
     5
 72
     1
  1
21
  7
SEISA
 73
     1
 44
1.0
  0
POINT
  5
8800
330
76FB
100
AcDbEntity
  8
Defpoints
 62
     0
100
AcDbPoint
 10
1126.042201981957
 20
947.5276019882317
 30
0.0
  0
POINT
  5
8801
330
76FB
100
AcDbEntity
  8
Defpoints
 62
     0
100
AcDbPoint
 10
1105.042201981958
 20
947.5276019882317
 30
0.0
  0
POINT
  5
8802
330
76FB
100
AcDbEntity
  8
Defpoints
 62
     0
100
AcDbPoint
 10
1105.042201981958
 20
871.5276019882312
 30
0.0
  0
ENDBLK
  5
76FD
330
76FB
100
AcDbEntity
  8
0
100
AcDbBlockEnd
  0
BLOCK
  5
9041
330
9040
100
AcDbEntity
  8
0
100
AcDbBlockBegin
  2
*D30
 70
     1
 10
0.0
 20
0.0
 30
0.0
  3
*D30
  1

  0
LINE
  5
9340
330
9040
100
AcDbEntity
  8
AM_5 寸法線
 62
     3
100
AcDbLine
 10
667.0422019819577
 20
1287.352601988232
 30
0.0
 11
667.0422019819577
 21
1385.152601988232
 31
0.0
  0
LINE
  5
9341
330
9040
100
AcDbEntity
  8
AM_5 寸法線
 62
     3
100
AcDbLine
 10
667.0422019819577
 20
1310.152601988232
 30
0.0
 11
667.0422019819577
 21
1385.152601988232
 31
0.0
  0
LINE
  5
9342
330
9040
100
AcDbEntity
  8
AM_5 寸法線
 62
     3
100
AcDbLine
 10
654.5422019819577
 20
1382.027601988232
 30
0.0
 11
642.0422019819577
 21
1382.027601988232
 31
0.0
  0
LINE
  5
9343
330
9040
100
AcDbEntity
  8
AM_5 寸法線
 62
     3
100
AcDbLine
 10
679.5422019819577
 20
1382.027601988232
 30
0.0
 11
717.5422019819576
 21
1382.027601988232
 31
0.0
  0
INSERT
  5
9344
330
9040
100
AcDbEntity
  8
AM_5 寸法線
 62
     3
100
AcDbBlockReference
  2
_Open30
 10
667.0422019819577
 20
1382.027601988232
 30
0.0
 41
12.5
 42
12.5
 43
12.5
  0
INSERT
  5
9345
330
9040
100
AcDbEntity
  8
AM_5 寸法線
 62
     3
100
AcDbBlockReference
  2
_Open30
 10
667.0422019819577
 20
1382.027601988232
 30
0.0
 41
12.5
 42
12.5
 43
12.5
 50
180.0
  0
MTEXT
  5
9346
330
9040
100
AcDbEntity
  8
AM_5 寸法線
 62
     3
100
AcDbMText
 10
704.7922019819576
 20
1398.277601988232
 30
0.0
 40
17.5
 41
0.0
 46
0.0
 71
     5
 72
     1
  1
0
  7
SEISA
 73
     1
 44
1.0
  0
POINT
  5
9347
330
9040
100
AcDbEntity
  8
Defpoints
 62
     0
100
AcDbPoint
 10
667.0422019819577
 20
1284.227601988232
 30
0.0
  0
POINT
  5
9348
330
9040
100
AcDbEntity
  8
Defpoints
 62
     0
100
AcDbPoint
 10
667.0422019819577
 20
1307.027601988232
 30
0.0
  0
POINT
  5
9349
330
9040
100
AcDbEntity
  8
Defpoints
 62
     0
100
AcDbPoint
 10
667.0422019819577
 20
1382.027601988232
 30
0.0
  0
ENDBLK
  5
9042
330
9040
100
AcDbEntity
  8
0
100
AcDbBlockEnd
  0
BLOCK
  5
90C6
330
90C5
100
AcDbEntity
  8
0
100
AcDbBlockBegin
  2
*D31
 70
     1
 10
0.0
 20
0.0
 30
0.0
  3
*D31
  1

  0
LINE
  5
90FC
330
90C5
100
AcDbEntity
  8
AM_5 寸法線
 62
     3
100
AcDbLine
 10
786.5422019819576
 20
1286.402601988231
 30
0.0
 11
786.5422019819576
 21
1257.950920219461
 31
0.0
  0
LINE
  5
90FD
330
90C5
100
AcDbEntity
  8
AM_5 寸法線
 62
     3
100
AcDbLine
 10
832.0422019819575
 20
1286.402601988231
 30
0.0
 11
832.0422019819575
 21
1257.950920219461
 31
0.0
  0
LINE
  5
90FE
330
90C5
100
AcDbEntity
  8
AM_5 寸法線
 62
     3
100
AcDbLine
 10
799.0422019819576
 20
1261.075920219461
 30
0.0
 11
819.5422019819575
 21
1261.075920219461
 31
0.0
  0
LINE
  5
90FF
330
90C5
100
AcDbEntity
  8
AM_5 寸法線
 62
     3
100
AcDbLine
 10
809.2922019819576
 20
1261.075920219461
 30
0.0
 11
788.4108238049448
 21
1212.966877717437
 31
0.0
  0
LINE
  5
9100
330
90C5
100
AcDbEntity
  8
AM_5 寸法線
 62
     3
100
AcDbLine
 10
788.4108238049448
 20
1212.966877717437
 30
0.0
 11
725.4108238049448
 21
1212.966877717437
 31
0.0
  0
MTEXT
  5
9101
330
90C5
100
AcDbEntity
  8
AM_5 寸法線
 62
     3
100
AcDbMText
 10
756.9108238049448
 20
1229.216877717437
 30
0.0
 40
17.5
 41
0.0
 46
0.0
 71
     5
 72
     1
  1
45.5
  7
SEISA
 73
     1
 44
1.0
  0
INSERT
  5
9102
330
90C5
100
AcDbEntity
  8
AM_5 寸法線
 62
     3
100
AcDbBlockReference
  2
_Open30
 10
786.5422019819576
 20
1261.075920219461
 30
0.0
 41
12.5
 42
12.5
 43
12.5
 50
180.0
  0
INSERT
  5
9103
330
90C5
100
AcDbEntity
  8
AM_5 寸法線
 62
     3
100
AcDbBlockReference
  2
_Open30
 10
832.0422019819575
 20
1261.075920219461
 30
0.0
 41
12.5
 42
12.5
 43
12.5
  0
POINT
  5
9104
330
90C5
100
AcDbEntity
  8
Defpoints
 62
     0
100
AcDbPoint
 10
786.5422019819576
 20
1289.527601988232
 30
0.0
  0
POINT
  5
9105
102
{ACAD_REACTORS
330
9117
102
}
330
90C5
100
AcDbEntity
  8
Defpoints
 62
     0
100
AcDbPoint
 10
832.0422019819575
 20
1289.527601988232
 30
0.0
  0
POINT
  5
9106
330
90C5
100
AcDbEntity
  8
Defpoints
 62
     0
100
AcDbPoint
 10
832.0422019819575
 20
1261.075920219461
 30
0.0
  0
ENDBLK
  5
90C7
330
90C5
100
AcDbEntity
  8
0
100
AcDbBlockEnd
  0
BLOCK
  5
9109
330
9108
100
AcDbEntity
  8
0
100
AcDbBlockBegin
  2
*D32
 70
     1
 10
0.0
 20
0.0
 30
0.0
  3
*D32
  1

  0
LINE
  5
915A
330
9108
100
AcDbEntity
  8
AM_5 寸法線
 62
     3
100
AcDbLine
 10
832.0422019819575
 20
1286.402601988231
 30
0.0
 11
832.0422019819575
 21
1257.950920219461
 31
0.0
  0
LINE
  5
915B
330
9108
100
AcDbEntity
  8
AM_5 寸法線
 62
     3
100
AcDbLine
 10
867.0422019819577
 20
1284.402601988231
 30
0.0
 11
867.0422019819577
 21
1257.950920219461
 31
0.0
  0
LINE
  5
915C
330
9108
100
AcDbEntity
  8
AM_5 寸法線
 62
     3
100
AcDbLine
 10
819.5422019819575
 20
1261.075920219461
 30
0.0
 11
807.0422019819575
 21
1261.075920219461
 31
0.0
  0
LINE
  5
915D
330
9108
100
AcDbEntity
  8
AM_5 寸法線
 62
     3
100
AcDbLine
 10
879.5422019819577
 20
1261.075920219461
 30
0.0
 11
892.0422019819577
 21
1261.075920219461
 31
0.0
  0
MTEXT
  5
915E
330
9108
100
AcDbEntity
  8
AM_5 寸法線
 62
     3
100
AcDbMText
 10
849.2106878216972
 20
1274.13702310039
 30
0.0
 40
17.5
 41
0.0
 46
0.0
 71
     5
 72
     1
  1
35
  7
SEISA
 73
     1
 44
1.0
  0
LINE
  5
915F
330
9108
100
AcDbEntity
  8
AM_5 寸法線
 62
     3
100
AcDbLine
 10
832.0422019819575
 20
1261.075920219461
 30
0.0
 11
867.0422019819577
 21
1261.075920219461
 31
0.0
  0
INSERT
  5
9160
330
9108
100
AcDbEntity
  8
AM_5 寸法線
 62
     3
100
AcDbBlockReference
  2
_Open30
 10
832.0422019819575
 20
1261.075920219461
 30
0.0
 41
12.5
 42
12.5
 43
12.5
  0
INSERT
  5
9161
330
9108
100
AcDbEntity
  8
AM_5 寸法線
 62
     3
100
AcDbBlockReference
  2
_Open30
 10
867.0422019819577
 20
1261.075920219461
 30
0.0
 41
12.5
 42
12.5
 43
12.5
 50
180.0
  0
POINT
  5
9162
330
9108
100
AcDbEntity
  8
Defpoints
 62
     0
100
AcDbPoint
 10
832.0422019819575
 20
1289.527601988232
 30
0.0
  0
POINT
  5
9163
330
9108
100
AcDbEntity
  8
Defpoints
 62
     0
100
AcDbPoint
 10
867.0422019819577
 20
1287.527601988232
 30
0.0
  0
POINT
  5
9164
330
9108
100
AcDbEntity
  8
Defpoints
 62
     0
100
AcDbPoint
 10
867.0422019819577
 20
1261.075920219461
 30
0.0
  0
ENDBLK
  5
910A
330
9108
100
AcDbEntity
  8
0
100
AcDbBlockEnd
  0
BLOCK
  5
9167
330
9166
100
AcDbEntity
  8
0
100
AcDbBlockBegin
  2
*D33
 70
     1
 10
0.0
 20
0.0
 30
0.0
  3
*D33
  1

  0
LINE
  5
9204
330
9166
100
AcDbEntity
  8
AM_5 寸法線
 62
     3
100
AcDbLine
 10
876.0422019819577
 20
1306.902601988231
 30
0.0
 11
876.0422019819577
 21
1205.170432751906
 31
0.0
  0
LINE
  5
9205
330
9166
100
AcDbEntity
  8
AM_5 寸法線
 62
     3
100
AcDbLine
 10
867.0422019819577
 20
1240.838478174184
 30
0.0
 11
867.0422019819577
 21
1205.170432751906
 31
0.0
  0
LINE
  5
9206
330
9166
100
AcDbEntity
  8
AM_5 寸法線
 62
     3
100
AcDbLine
 10
888.5422019819577
 20
1208.295432751906
 30
0.0
 11
901.0422019819575
 21
1208.295432751906
 31
0.0
  0
LINE
  5
9207
330
9166
100
AcDbEntity
  8
AM_5 寸法線
 62
     3
100
AcDbLine
 10
854.5422019819577
 20
1208.295432751906
 30
0.0
 11
842.0422019819577
 21
1208.295432751906
 31
0.0
  0
MTEXT
  5
9208
330
9166
100
AcDbEntity
  8
AM_5 寸法線
 62
     3
100
AcDbMText
 10
850.6815204428828
 20
1222.84985557986
 30
0.0
 40
17.5
 41
0.0
 46
0.0
 71
     5
 72
     1
  1
9
  7
SEISA
 73
     1
 44
1.0
  0
LINE
  5
9209
330
9166
100
AcDbEntity
  8
AM_5 寸法線
 62
     3
100
AcDbLine
 10
876.0422019819577
 20
1208.295432751906
 30
0.0
 11
867.0422019819577
 21
1208.295432751906
 31
0.0
  0
INSERT
  5
920A
330
9166
100
AcDbEntity
  8
AM_5 寸法線
 62
     3
100
AcDbBlockReference
  2
_Open30
 10
876.0422019819577
 20
1208.295432751906
 30
0.0
 41
12.5
 42
12.5
 43
12.5
 50
180.0
  0
INSERT
  5
920B
330
9166
100
AcDbEntity
  8
AM_5 寸法線
 62
     3
100
AcDbBlockReference
  2
_Open30
 10
867.0422019819577
 20
1208.295432751906
 30
0.0
 41
12.5
 42
12.5
 43
12.5
  0
POINT
  5
920C
330
9166
100
AcDbEntity
  8
Defpoints
 62
     0
100
AcDbPoint
 10
876.0422019819577
 20
1310.027601988231
 30
0.0
  0
POINT
  5
920D
330
9166
100
AcDbEntity
  8
Defpoints
 62
     0
100
AcDbPoint
 10
867.0422019819577
 20
1243.963478174184
 30
0.0
  0
POINT
  5
920E
330
9166
100
AcDbEntity
  8
Defpoints
 62
     0
100
AcDbPoint
 10
867.0422019819577
 20
1208.295432751906
 30
0.0
  0
ENDBLK
  5
9168
330
9166
100
AcDbEntity
  8
0
100
AcDbBlockEnd
  0
BLOCK
  5
91A7
330
91A6
100
AcDbEntity
  8
0
100
AcDbBlockBegin
  2
*D34
 70
     1
 10
0.0
 20
0.0
 30
0.0
  3
*D34
  1

  0
LINE
  5
921A
330
91A6
100
AcDbEntity
  8
AM_5 寸法線
 62
     3
100
AcDbLine
 10
1126.042201981958
 20
1306.902601988231
 30
0.0
 11
1126.042201981958
 21
1205.170432751906
 31
0.0
  0
LINE
  5
921B
330
91A6
100
AcDbEntity
  8
AM_5 寸法線
 62
     3
100
AcDbLine
 10
1135.042201981957
 20
1284.402601988231
 30
0.0
 11
1135.042201981957
 21
1205.170432751906
 31
0.0
  0
LINE
  5
921C
330
91A6
100
AcDbEntity
  8
AM_5 寸法線
 62
     3
100
AcDbLine
 10
1113.542201981958
 20
1208.295432751906
 30
0.0
 11
1101.042201981957
 21
1208.295432751906
 31
0.0
  0
LINE
  5
921D
330
91A6
100
AcDbEntity
  8
AM_5 寸法線
 62
     3
100
AcDbLine
 10
1147.542201981956
 20
1208.295432751906
 30
0.0
 11
1160.042201981957
 21
1208.295432751906
 31
0.0
  0
MTEXT
  5
921E
330
91A6
100
AcDbEntity
  8
AM_5 寸法線
 62
     3
100
AcDbMText
 10
1146.656019100369
 20
1223.234788973046
 30
0.0
 40
17.5
 41
0.0
 46
0.0
 71
     5
 72
     1
  1
9
  7
SEISA
 73
     1
 44
1.0
  0
LINE
  5
921F
330
91A6
100
AcDbEntity
  8
AM_5 寸法線
 62
     3
100
AcDbLine
 10
1126.042201981958
 20
1208.295432751906
 30
0.0
 11
1135.042201981957
 21
1208.295432751906
 31
0.0
  0
INSERT
  5
9220
330
91A6
100
AcDbEntity
  8
AM_5 寸法線
 62
     3
100
AcDbBlockReference
  2
_Open30
 10
1126.042201981958
 20
1208.295432751906
 30
0.0
 41
12.5
 42
12.5
 43
12.5
  0
INSERT
  5
9221
330
91A6
100
AcDbEntity
  8
AM_5 寸法線
 62
     3
100
AcDbBlockReference
  2
_Open30
 10
1135.042201981957
 20
1208.295432751906
 30
0.0
 41
12.5
 42
12.5
 43
12.5
 50
180.0
  0
POINT
  5
9222
330
91A6
100
AcDbEntity
  8
Defpoints
 62
     0
100
AcDbPoint
 10
1126.042201981958
 20
1310.027601988231
 30
0.0
  0
POINT
  5
9223
330
91A6
100
AcDbEntity
  8
Defpoints
 62
     0
100
AcDbPoint
 10
1135.042201981957
 20
1287.527601988232
 30
0.0
  0
POINT
  5
9224
330
91A6
100
AcDbEntity
  8
Defpoints
 62
     0
100
AcDbPoint
 10
1135.042201981957
 20
1208.295432751906
 30
0.0
  0
ENDBLK
  5
91A8
330
91A6
100
AcDbEntity
  8
0
100
AcDbBlockEnd
  0
BLOCK
  5
92BE
330
92BD
100
AcDbEntity
  8
0
100
AcDbBlockBegin
  2
ケース
 70
     0
 10
0.0
 20
0.0
 30
0.0
  3
ケース
  1

  0
LINE
  5
92C0
330
92BD
100
AcDbEntity
  8
AM_11 想像線
 48
0.1
100
AcDbLine
 10
-17.55846515662779
 20
-15.69999999999982
 30
0.0
 11
0.0
 21
-15.69999999999982
 31
0.0
  0
LINE
  5
92C1
330
92BD
100
AcDbEntity
  8
AM_11 想像線
 48
0.1
100
AcDbLine
 10
0.0
 20
0.0
 30
0.0
 11
-39.05846515662779
 21
0.0
 31
0.0
  0
LINE
  5
92C2
330
92BD
100
AcDbEntity
  8
AM_11 想像線
 48
0.1
100
AcDbLine
 10
0.0
 20
-8.5
 30
0.0
 11
-18.55846515662779
 21
-8.5
 31
0.0
  0
LINE
  5
92C3
330
92BD
100
AcDbEntity
  8
AM_11 想像線
 48
0.1
100
AcDbLine
 10
0.0
 20
-12.5
 30
0.0
 11
-20.55846515662779
 21
-12.5
 31
0.0
  0
LINE
  5
92C4
330
92BD
100
AcDbEntity
  8
AM_11 想像線
 48
0.1
100
AcDbLine
 10
-39.15846515662792
 20
-15.09999999999991
 30
0.0
 11
-28.95846515662788
 21
-15.09999999999991
 31
0.0
  0
ARC
  5
92C5
330
92BD
100
AcDbEntity
  8
AM_11 想像線
 48
0.1
100
AcDbCircle
 10
-39.05846515662779
 20
-4.0
 30
0.0
 40
4.0
100
AcDbArc
 50
90.0
 51
180.0
  0
ARC
  5
92C6
330
92BD
100
AcDbEntity
  8
AM_11 想像線
 48
0.1
100
AcDbCircle
 10
-39.15846515662792
 20
-15.59999999999991
 30
0.0
 40
0.5
100
AcDbArc
 50
90.0
 51
180.0
  0
LINE
  5
92C7
330
92BD
100
AcDbEntity
  8
AM_11 想像線
 48
0.1
100
AcDbLine
 10
-39.65846515662793
 20
-20.5
 30
0.0
 11
-39.65846515662793
 21
-15.59999999999991
 31
0.0
  0
LINE
  5
92C8
330
92BD
100
AcDbEntity
  8
AM_11 想像線
 48
0.1
100
AcDbLine
 10
-43.05846515662778
 20
-20.5
 30
0.0
 11
-39.65846515662793
 21
-20.5
 31
0.0
  0
LINE
  5
92C9
330
92BD
100
AcDbEntity
  8
AM_11 想像線
 48
0.1
100
AcDbLine
 10
-43.05846515662778
 20
-4.0
 30
0.0
 11
-43.05846515662778
 21
-20.5
 31
0.0
  0
LINE
  5
92CA
330
92BD
100
AcDbEntity
  8
AM_11 想像線
 48
0.1
100
AcDbLine
 10
-39.65846515662793
 20
-20.5
 30
0.0
 11
-39.65846515662793
 21
-22.0
 31
0.0
  0
LINE
  5
92CB
330
92BD
100
AcDbEntity
  8
AM_11 想像線
 48
0.1
100
AcDbLine
 10
-43.05846515662778
 20
-20.5
 30
0.0
 11
-43.05846515662778
 21
-22.0
 31
0.0
  0
LINE
  5
92CC
330
92BD
100
AcDbEntity
  8
AM_11 想像線
 48
0.1
100
AcDbLine
 10
-18.55846515662779
 20
-14.69999999999982
 30
0.0
 11
-17.55846515662779
 21
-15.69999999999982
 31
0.0
  0
ARC
  5
92CD
330
92BD
100
AcDbEntity
  8
AM_11 想像線
 48
0.1
100
AcDbCircle
 10
-19.55846515662779
 20
-8.5
 30
0.0
 40
1.0
100
AcDbArc
 50
0.0
 51
90.0
  0
LINE
  5
92CE
330
92BD
100
AcDbEntity
  8
AM_11 想像線
 48
0.1
100
AcDbLine
 10
-24.05846515662779
 20
-7.5
 30
0.0
 11
-19.55846515662779
 21
-7.5
 31
0.0
  0
ARC
  5
92CF
330
92BD
100
AcDbEntity
  8
AM_11 想像線
 48
0.1
100
AcDbCircle
 10
-24.05846515662779
 20
-8.5
 30
0.0
 40
1.0
100
AcDbArc
 50
90.0
 51
180.0
  0
LINE
  5
92D0
330
92BD
100
AcDbEntity
  8
AM_11 想像線
 48
0.1
100
AcDbLine
 10
-25.05846515662779
 20
-20.5
 30
0.0
 11
-25.05846515662779
 21
-8.5
 31
0.0
  0
LINE
  5
92D1
330
92BD
100
AcDbEntity
  8
AM_11 想像線
 48
0.1
100
AcDbLine
 10
-28.45846515662788
 20
-20.5
 30
0.0
 11
-25.05846515662779
 21
-20.5
 31
0.0
  0
LINE
  5
92D2
330
92BD
100
AcDbEntity
  8
AM_11 想像線
 48
0.1
100
AcDbLine
 10
-28.45846515662788
 20
-15.59999999999991
 30
0.0
 11
-28.45846515662788
 21
-20.5
 31
0.0
  0
ARC
  5
92D3
330
92BD
100
AcDbEntity
  8
AM_11 想像線
 48
0.1
100
AcDbCircle
 10
-28.95846515662788
 20
-15.59999999999991
 30
0.0
 40
0.5
100
AcDbArc
 50
0.0
 51
90.0
  0
LINE
  5
92D4
330
92BD
100
AcDbEntity
  8
AM_11 想像線
 48
0.1
100
AcDbLine
 10
-25.05846515662779
 20
-20.5
 30
0.0
 11
-25.05846515662779
 21
-22.0
 31
0.0
  0
LINE
  5
92D5
330
92BD
100
AcDbEntity
  8
AM_11 想像線
 48
0.1
100
AcDbLine
 10
-28.45846515662788
 20
-20.5
 30
0.0
 11
-28.45846515662788
 21
-22.0
 31
0.0
  0
LINE
  5
92D6
330
92BD
100
AcDbEntity
  8
AM_11 想像線
 48
0.1
100
AcDbLine
 10
-18.55846515662779
 20
-14.69999999999982
 30
0.0
 11
-18.55846515662779
 21
-8.5
 31
0.0
  0
ENDBLK
  5
92BF
330
92BD
100
AcDbEntity
  8
0
100
AcDbBlockEnd
  0
BLOCK
  5
9320
330
931F
100
AcDbEntity
  8
0
100
AcDbBlockBegin
  2
センタ-2 SAM400
 70
     0
 10
0.0
 20
0.0
 30
0.0
  3
センタ-2 SAM400
  1

  0
ARC
  5
9322
330
931F
100
AcDbEntity
  8
AM_0 外形線1
100
AcDbCircle
 10
-55.99999999999988
 20
-96.726183585537
 30
0.0
 40
155.81
100
AcDbArc
 50
82.62508200001134
 51
98.67472300000521
  0
LINE
  5
9323
330
931F
100
AcDbEntity
  8
AM_0 外形線1
100
AcDbLine
 10
-199.9999999999999
 20
-234.4261835855369
 30
0.0
 11
-199.9999999999999
 21
40.97381641446327
 31
0.0
  0
LINE
  5
9324
330
931F
100
AcDbEntity
  8
AM_0 外形線1
100
AcDbLine
 10
-137.4999999999999
 20
-238.4261835855369
 30
0.0
 11
-137.4999999999999
 21
-96.726183585537
 31
0.0
  0
LINE
  5
9325
330
931F
100
AcDbEntity
  8
AM_0 外形線1
100
AcDbLine
 10
-135.4999999999999
 20
-239.226183585537
 30
0.0
 11
-135.4999999999999
 21
-96.726183585537
 31
0.0
  0
LINE
  5
9326
330
931F
100
AcDbEntity
  8
AM_0 外形線1
100
AcDbLine
 10
-137.4999999999999
 20
-238.4261835855369
 30
0.0
 11
-195.9999999999999
 21
-238.4261835855369
 31
0.0
  0
ARC
  5
9327
330
931F
100
AcDbEntity
  8
AM_0 外形線1
100
AcDbCircle
 10
-195.9999999999999
 20
-234.4261835855369
 30
0.0
 40
4.0
100
AcDbArc
 50
180.0
 51
270.0
  0
LINE
  5
9328
330
931F
100
AcDbEntity
  8
AM_0 外形線1
100
AcDbLine
 10
-135.4999999999999
 20
-239.226183585537
 30
0.0
 11
-137.4999999999999
 21
-238.4261835855369
 31
0.0
  0
LINE
  5
9329
330
931F
100
AcDbEntity
  8
AM_0 外形線1
100
AcDbLine
 10
-195.9999999999999
 20
44.97381641446327
 30
0.0
 11
-137.4999999999999
 21
44.97381641446327
 31
0.0
  0
ARC
  5
932A
330
931F
100
AcDbEntity
  8
AM_0 外形線1
100
AcDbCircle
 10
-195.9999999999999
 20
40.97381641446327
 30
0.0
 40
4.0
100
AcDbArc
 50
90.0
 51
180.0
  0
LINE
  5
932B
330
931F
100
AcDbEntity
  8
AM_0 外形線1
100
AcDbLine
 10
-135.4999999999999
 20
45.77381641446299
 30
0.0
 11
-80.99999999999987
 21
45.77381641446299
 31
0.0
  0
LINE
  5
932C
330
931F
100
AcDbEntity
  8
AM_0 外形線1
100
AcDbLine
 10
-137.4999999999999
 20
44.97381641446327
 30
0.0
 11
-135.4999999999999
 21
45.77381641446299
 31
0.0
  0
LINE
  5
932D
330
931F
100
AcDbEntity
  8
AM_0 外形線1
100
AcDbLine
 10
-80.49999999999988
 20
56.14553541446322
 30
0.0
 11
-79.49999999999987
 21
57.30143141446297
 31
0.0
  0
ARC
  5
932E
330
931F
100
AcDbEntity
  8
AM_0 外形線1
100
AcDbCircle
 10
-80.99999999999987
 20
46.27381641446299
 30
0.0
 40
0.5
100
AcDbArc
 50
270.0
 51
0.0
  0
LINE
  5
932F
330
931F
100
AcDbEntity
  8
AM_0 外形線1
100
AcDbLine
 10
0.0000000000001137
 20
44.27381641446299
 30
0.0
 11
0.0000000000001137
 21
-96.726183585537
 31
0.0
  0
LINE
  5
9330
330
931F
100
AcDbEntity
  8
AM_3 隠れ線
100
AcDbLine
 10
0.0000000000001137
 20
-88.72618358553697
 30
0.0
 11
-31.99999999999989
 21
-88.72618358553697
 31
0.0
  0
LINE
  5
9331
330
931F
100
AcDbEntity
  8
AM_3 隠れ線
100
AcDbLine
 10
0.0000000000001137
 20
-89.72618358553701
 30
0.0
 11
-36.99999999999989
 21
-89.72618358553701
 31
0.0
  0
LINE
  5
9332
330
931F
100
AcDbEntity
  8
AM_3 隠れ線
100
AcDbLine
 10
-36.99999999999989
 20
-89.72618358553701
 30
0.0
 11
-41.04145200000004
 21
-96.726183585537
 31
0.0
  0
LINE
  5
9333
330
931F
100
AcDbEntity
  8
AM_3 隠れ線
100
AcDbLine
 10
-31.99999999999989
 20
-88.72618358553697
 30
0.0
 11
-31.99999999999989
 21
-96.726183585537
 31
0.0
  0
LINE
  5
9334
330
931F
100
AcDbEntity
  8
AM_3 隠れ線
100
AcDbLine
 10
-32.57735100000002
 20
-89.72618358553701
 30
0.0
 11
-32.57735100000002
 21
-96.726183585537
 31
0.0
  0
LINE
  5
9335
330
931F
100
AcDbEntity
  8
AM_3 隠れ線
100
AcDbLine
 10
-31.99999999999989
 20
-88.72618358553697
 30
0.0
 11
-32.57735100000002
 21
-89.72618358553701
 31
0.0
  0
LINE
  5
9336
330
931F
100
AcDbEntity
  8
AM_3 隠れ線
100
AcDbLine
 10
-36.99999999999989
 20
-89.72618358553701
 30
0.0
 11
-36.99999999999989
 21
-96.726183585537
 31
0.0
  0
LINE
  5
9337
330
931F
100
AcDbEntity
  8
AM_0 外形線1
100
AcDbLine
 10
-34.49999999999989
 20
45.27381641446299
 30
0.0
 11
-0.9999999999998864
 21
45.27381641446299
 31
0.0
  0
ARC
  5
9338
330
931F
100
AcDbEntity
  8
AM_0 外形線1
100
AcDbCircle
 10
-34.49999999999989
 20
45.77381641446299
 30
0.0
 40
0.5
100
AcDbArc
 50
180.0
 51
270.0
  0
LINE
  5
9339
330
931F
100
AcDbEntity
  8
AM_0 外形線1
100
AcDbLine
 10
-34.99999999999989
 20
56.66214541446288
 30
0.0
 11
-34.99999999999989
 21
45.77381641446299
 31
0.0
  0
LINE
  5
933A
330
931F
100
AcDbEntity
  8
AM_0 外形線1
100
AcDbLine
 10
-35.99999999999989
 20
57.79487041446282
 30
0.0
 11
-34.99999999999989
 21
56.66214541446288
 31
0.0
  0
LINE
  5
933B
330
931F
100
AcDbEntity
  8
AM_0 外形線1
100
AcDbLine
 10
-0.9999999999998864
 20
45.27381641446299
 30
0.0
 11
0.0000000000001137
 21
44.27381641446299
 31
0.0
  0
LINE
  5
933C
330
931F
100
AcDbEntity
  8
AM_0 外形線1
100
AcDbLine
 10
-199.9999999999999
 20
0.7096926004151101
 30
0.0
 11
0.0000000000001137
 21
0.7096926004151101
 31
0.0
  0
LINE
  5
933D
330
931F
100
AcDbEntity
  8
AM_0 外形線1
100
AcDbLine
 10
-80.49999999999988
 20
46.27381641446299
 30
0.0
 11
-80.49999999999988
 21
56.14553541446322
 31
0.0
  0
ARC
  5
933E
330
931F
100
AcDbEntity
  8
AM_0 外形線1
100
AcDbCircle
 10
-55.99999999999988
 20
-96.726183585537
 30
0.0
 40
147.5999999999999
100
AcDbArc
 50
81.82040549237564
 51
99.55470158954151
  0
ARC
  5
933F
330
931F
100
AcDbEntity
  8
AM_7 中心線
100
AcDbCircle
 10
-55.99999999999988
 20
-96.726183585537
 30
0.0
 40
152.0000000000002
100
AcDbArc
 50
80.95573835401316
 51
101.7775702535847
  0
LINE
  5
936D
330
931F
100
AcDbEntity
  8
AM_0 外形線1
100
AcDbLine
 10
-104.9999999999999
 20
-239.226183585537
 30
0.0
 11
-135.4999999999999
 21
-239.226183585537
 31
0.0
  0
ENDBLK
  5
9321
330
931F
100
AcDbEntity
  8
0
100
AcDbBlockEnd
  0
ENDSEC
  0
SECTION
  2
ENTITIES
  0
LINE
  5
439B
102
{ACAD_REACTORS
330
59EA
102
}
330
1F
100
AcDbEntity
  8
AM_7 中心線
100
AcDbLine
 10
657.042201981958
 20
1146.527601988232
 30
0.0
 11
1345.042201981957
 21
1146.527601988232
 31
0.0
  0
LINE
  5
449D
330
1F
100
AcDbEntity
  8
AM_0 外形線1
100
AcDbLine
 10
1105.042201981957
 20
1318.533149988232
 30
0.0
 11
1105.042201981957
 21
1345.527601988232
 31
0.0
  0
LINE
  5
44EB
330
1F
100
AcDbEntity
  8
AM_3 隠れ線
100
AcDbLine
 10
1215.542201981957
 20
1296.327601988232
 30
0.0
 11
1214.542201981957
 21
1295.327601988232
 31
0.0
  0
INSERT
  5
4D47
102
{ACAD_REACTORS
330
5B9C
330
5E5E
330
5E76
330
6179
330
6191
330
770A
102
}
330
1F
100
AcDbEntity
  8
AM_0 外形線1
100
AcDbBlockReference
  2
ケースＡ-1 SAM400
 10
1126.042201981957
 20
1146.527601988232
 30
0.0
  0
INSERT
  5
4F29
102
{ACAD_REACTORS
330
5AB1
330
5B42
330
5EB7
330
5ECF
330
76CD
102
}
330
1F
100
AcDbEntity
  8
AM_0 外形線1
100
AcDbBlockReference
  2
ケースＡ-2 SAM400
 10
876.0422019819577
 20
1146.527601988232
 30
0.0
  0
INSERT
  5
5038
102
{ACAD_REACTORS
330
59EA
330
5E5E
330
6158
330
91B5
102
}
330
1F
100
AcDbEntity
  8
AM_0 外形線1
100
AcDbBlockReference
  2
センタ-1 SAM400
 10
1135.042201981957
 20
1146.527601988232
 30
0.0
  0
INSERT
  5
53FE
330
1F
100
AcDbEntity
  8
AM_0 外形線1
100
AcDbBlockReference
  2
リーマボルト-1 SAM400 M16
 10
1105.042201981957
 20
1330.527601988231
 30
0.0
  0
INSERT
  5
54F0
330
1F
100
AcDbEntity
  8
AM_0 外形線1
100
AcDbBlockReference
  2
リーマボルト-2 SAM400 M16
 10
897.0422019819576
 20
1330.527601988231
 30
0.0
  0
DIMENSION
  5
598B
330
1F
100
AcDbEntity
  8
AM_5 寸法線
100
AcDbDimension
  2
*D14
 10
567.0422019819576
 20
1004.027601988231
 30
0.0
 11
550.7922019819574
 21
1146.527601988232
 31
0.0
 70
    32
  1
%%c<>
 71
     5
 42
285.0000000000001
 73
     0
 74
     0
 75
     0
  3
SEISA$0
100
AcDbAlignedDimension
 13
731.5422019819576
 23
1289.027601988232
 33
0.0
 14
731.5422019819576
 24
1004.027601988231
 34
0.0
 50
90.0
100
AcDbRotatedDimension
1001
ACAD_DSTYLE_DIMINSPECT
1070
   396
1000
100%
1070
   395
1000

1070
   394
1070
    33
1070
   393
1070
     0
  0
DIMENSION
  5
59BB
330
1F
100
AcDbEntity
  8
AM_5 寸法線
100
AcDbDimension
  2
*D15
 10
867.0422019819577
 20
1174.923470988233
 30
0.0
 11
767.0422019819576
 21
1191.173470988232
 31
0.0
 70
    32
 71
     5
 42
199.9999999999999
 73
     0
 74
     0
 75
     0
  3
SEISA$0
100
AcDbAlignedDimension
 13
667.0422019819577
 23
1146.527601988232
 33
0.0
 14
867.0422019819577
 24
1146.527601988232
 34
0.0
100
AcDbRotatedDimension
1001
ACAD
1000
DSTYLE
1002
{
1070
   279
1070
     0
1002
}
  0
DIMENSION
  5
59D3
102
{ACAD_XDICTIONARY
360
59E0
102
}
102
{ACAD_REACTORS
330
59EA
102
}
330
1F
100
AcDbEntity
  8
AM_5 寸法線
100
AcDbDimension
  2
*D16
 10
1135.042201981957
 20
1174.923470988233
 30
0.0
 11
1235.042201981957
 21
1191.173470988232
 31
0.0
 70
    32
 71
     5
 42
200.0
 73
     0
 74
     0
 75
     0
  3
SEISA$0
100
AcDbAlignedDimension
 13
1335.042201981957
 23
1146.527601988232
 33
0.0
 14
1135.042201981957
 24
1146.527601988232
 34
0.0
100
AcDbRotatedDimension
  0
DIMENSION
  5
5A96
102
{ACAD_XDICTIONARY
360
5AA5
102
}
102
{ACAD_REACTORS
330
5AB1
330
90D3
102
}
330
1F
100
AcDbEntity
  8
AM_5 寸法線
100
AcDbDimension
  2
*D17
 10
780.0422019819576
 20
1261.07592021946
 30
0.0
 11
731.4172019819576
 21
1261.07592021946
 31
0.0
 70
   160
 71
     5
 42
6.5
 73
     0
 74
     0
 75
     0
  3
SEISA$0
100
AcDbAlignedDimension
 13
786.5422019819576
 23
1289.527601988232
 33
0.0
 14
780.0422019819576
 24
1289.027601988232
 34
0.0
100
AcDbRotatedDimension
  0
DIMENSION
  5
5B27
102
{ACAD_XDICTIONARY
360
5B36
102
}
102
{ACAD_REACTORS
330
5B42
102
}
330
1F
100
AcDbEntity
  8
AM_5 寸法線
100
AcDbDimension
  2
*D18
 10
855.0422019819576
 20
871.5276019882319
 30
0.0
 11
812.0422019819576
 21
887.7776019882318
 31
0.0
 70
    32
 71
     5
 42
21.0
 73
     0
 74
     0
 75
     0
  3
SEISA$0
100
AcDbAlignedDimension
 13
876.0422019819577
 23
947.0276019882318
 33
0.0
 14
855.0422019819576
 24
947.5276019882317
 34
0.0
100
AcDbRotatedDimension
1001
ACAD_DSTYLE_DIMINSPECT
1070
   396
1000
100%
1070
   395
1000

1070
   394
1070
    33
1070
   393
1070
     0
1001
ACAD
1000
DSTYLE
1002
{
1070
   173
1070
     1
1070
   342
1005
0
1070
   343
1005
2C82
1070
   344
1005
69
1002
}
  0
DIMENSION
  5
5B81
102
{ACAD_XDICTIONARY
360
5B90
102
}
102
{ACAD_REACTORS
330
5B9C
102
}
330
1F
100
AcDbEntity
  8
AM_5 寸法線
100
AcDbDimension
  2
*D19
 10
1147.042201981957
 20
871.5276019882319
 30
0.0
 11
1190.042201981957
 21
887.7776019882318
 31
0.0
 70
    32
 71
     5
 42
21.0
 73
     0
 74
     0
 75
     0
  3
SEISA$0
100
AcDbAlignedDimension
 13
1126.042201981957
 23
947.0276019882318
 33
0.0
 14
1147.042201981957
 24
947.5276019882317
 34
0.0
100
AcDbRotatedDimension
1001
ACAD_DSTYLE_DIMINSPECT
1070
   396
1000
100%
1070
   395
1000

1070
   394
1070
    33
1070
   393
1070
     0
1001
ACAD
1000
DSTYLE
1002
{
1070
   173
1070
     1
1070
   342
1005
0
1070
   343
1005
2C82
1070
   344
1005
69
1002
}
  0
DIMENSION
  5
5E47
102
{ACAD_XDICTIONARY
360
5E54
102
}
102
{ACAD_REACTORS
330
5E5E
102
}
330
1F
100
AcDbEntity
  8
AM_5 寸法線
100
AcDbDimension
  2
*D20
 10
1240.042201981957
 20
821.5276019882319
 30
0.0
 11
1287.542201981957
 21
837.7776019882318
 31
0.0
 70
    32
 71
     5
 42
95.0
 73
     0
 74
     0
 75
     0
  3
SEISA$0
100
AcDbAlignedDimension
 13
1335.042201981957
 23
1008.827601988232
 33
0.0
 14
1240.042201981957
 24
986.0276019882316
 34
0.0
100
AcDbRotatedDimension
  0
DIMENSION
  5
5E5F
102
{ACAD_XDICTIONARY
360
5E6C
102
}
102
{ACAD_REACTORS
330
5E76
102
}
330
1F
100
AcDbEntity
  8
AM_5 寸法線
100
AcDbDimension
  2
*D21
 10
1126.042201981957
 20
821.5276019882319
 30
0.0
 11
1183.042201981957
 21
837.7776019882318
 31
0.0
 70
    32
 71
     5
 42
114.0
 73
     0
 74
     0
 75
     0
  3
SEISA$0
100
AcDbAlignedDimension
 13
1240.042201981957
 23
986.0276019882316
 33
0.0
 14
1126.042201981957
 24
947.0276019882318
 34
0.0
100
AcDbRotatedDimension
  0
DIMENSION
  5
5EA0
102
{ACAD_XDICTIONARY
360
5EAD
102
}
102
{ACAD_REACTORS
330
5EB7
102
}
330
1F
100
AcDbEntity
  8
AM_5 寸法線
100
AcDbDimension
  2
*D22
 10
876.0422019819577
 20
821.5276019882319
 30
0.0
 11
819.0422019819575
 21
837.7776019882318
 31
0.0
 70
    32
 71
     5
 42
114.0
 73
     0
 74
     0
 75
     0
  3
SEISA$0
100
AcDbAlignedDimension
 13
762.0422019819576
 23
986.0276019882316
 33
0.0
 14
876.0422019819577
 24
947.0276019882318
 34
0.0
100
AcDbRotatedDimension
  0
DIMENSION
  5
5EB8
102
{ACAD_XDICTIONARY
360
5EC5
102
}
102
{ACAD_REACTORS
330
5ECF
102
}
330
1F
100
AcDbEntity
  8
AM_5 寸法線
100
AcDbDimension
  2
*D23
 10
667.0422019819577
 20
821.5276019882319
 30
0.0
 11
714.5422019819577
 21
837.7776019882318
 31
0.0
 70
    32
 71
     5
 42
95.0
 73
     0
 74
     0
 75
     0
  3
SEISA$0
100
AcDbAlignedDimension
 13
762.0422019819576
 23
986.0276019882316
 33
0.0
 14
667.0422019819577
 24
1008.827601988232
 34
0.0
100
AcDbRotatedDimension
  0
DIMENSION
  5
6141
102
{ACAD_XDICTIONARY
360
614E
102
}
102
{ACAD_REACTORS
330
6158
102
}
330
1F
100
AcDbEntity
  8
AM_5 寸法線
100
AcDbDimension
  2
*D24
 10
1435.042201981957
 20
1004.027601988231
 30
0.0
 11
1418.792201981957
 21
1146.527601988232
 31
0.0
 70
    32
  1
%%c<>
 71
     5
 42
285.0
 73
     0
 74
     0
 75
     0
  3
SEISA$0
100
AcDbAlignedDimension
 13
1270.542201981957
 23
1289.027601988232
 33
0.0
 14
1270.542201981957
 24
1004.027601988231
 34
0.0
 50
90.0
100
AcDbRotatedDimension
1001
ACAD_DSTYLE_DIMINSPECT
1070
   396
1000
100%
1070
   395
1000

1070
   394
1070
    33
1070
   393
1070
     0
  0
DIMENSION
  5
6162
102
{ACAD_XDICTIONARY
360
616F
102
}
102
{ACAD_REACTORS
330
6179
102
}
330
1F
100
AcDbEntity
  8
AM_5 寸法線
100
AcDbDimension
  2
*D25
 10
1485.042201981957
 20
982.0276019882317
 30
0.0
 11
1468.792201981957
 21
1146.527601988232
 31
0.0
 70
    32
  1
%%c<>
 71
     5
 42
329.0
 73
     0
 74
     0
 75
     0
  3
SEISA$0
100
AcDbAlignedDimension
 13
1236.042201981957
 23
1311.027601988232
 33
0.0
 14
1236.042201981957
 24
982.0276019882317
 34
0.0
 50
90.0
100
AcDbRotatedDimension
1001
ACAD_DSTYLE_DIMINSPECT
1070
   396
1000
100%
1070
   395
1000

1070
   394
1070
    33
1070
   393
1070
     0
  0
DIMENSION
  5
617A
102
{ACAD_XDICTIONARY
360
6187
102
}
102
{ACAD_REACTORS
330
6191
102
}
330
1F
100
AcDbEntity
  8
AM_5 寸法線
100
AcDbDimension
  2
*D26
 10
1535.042201981957
 20
946.5276019882317
 30
0.0
 11
1518.792201981957
 21
1146.527601988232
 31
0.0
 70
    32
  1
%%c<>
 71
     5
 42
400.0
 73
     0
 74
     0
 75
     0
  3
SEISA$0
100
AcDbAlignedDimension
 13
1146.042201981957
 23
1346.527601988231
 33
0.0
 14
1146.042201981957
 24
946.5276019882317
 34
0.0
 50
90.0
100
AcDbRotatedDimension
1001
ACAD_DSTYLE_DIMINSPECT
1070
   396
1000
100%
1070
   395
1000

1070
   394
1070
    33
1070
   393
1070
     0
  0
INSERT
  5
73FD
102
{ACAD_REACTORS
330
76CD
330
770A
330
9175
330
91B5
102
}
330
1F
100
AcDbEntity
  8
AM_0 外形線1
100
AcDbBlockReference
  2
ＧＣスペーサ SAMY400
 10
0.0
 20
-945.4081627708923
 30
0.0
  0
DIMENSION
  5
76BD
102
{ACAD_XDICTIONARY
360
76CC
102
}
102
{ACAD_REACTORS
330
76CD
102
}
330
1F
100
AcDbEntity
  8
AM_5 寸法線
100
AcDbDimension
  2
*D28
 10
897.0422019819576
 20
871.527601988231
 30
0.0
 11
940.0422019819579
 21
887.7776019882309
 31
0.0
 70
    32
 71
     5
 42
21.0
 73
     0
 74
     0
 75
     0
  3
SEISA$0
100
AcDbAlignedDimension
 13
876.0422019819579
 23
947.5276019882317
 33
0.0
 14
897.0422019819576
 24
947.527601988231
 34
0.0
100
AcDbRotatedDimension
1001
ACAD_DSTYLE_DIMINSPECT
1070
   396
1000
100%
1070
   395
1000

1070
   394
1070
    33
1070
   393
1070
     0
1001
ACAD
1000
DSTYLE
1002
{
1070
   173
1070
     1
1070
   342
1005
0
1070
   343
1005
2C82
1070
   344
1005
69
1002
}
  0
DIMENSION
  5
76FA
102
{ACAD_XDICTIONARY
360
7709
102
}
102
{ACAD_REACTORS
330
770A
102
}
330
1F
100
AcDbEntity
  8
AM_5 寸法線
100
AcDbDimension
  2
*D29
 10
1105.042201981958
 20
871.5276019882312
 30
0.0
 11
1062.042201981958
 21
887.7776019882313
 31
0.0
 70
    32
 71
     5
 42
20.99999999999977
 73
     0
 74
     0
 75
     0
  3
SEISA$0
100
AcDbAlignedDimension
 13
1126.042201981957
 23
947.5276019882317
 33
0.0
 14
1105.042201981958
 24
947.5276019882317
 34
0.0
100
AcDbRotatedDimension
1001
ACAD_DSTYLE_DIMINSPECT
1070
   396
1000
100%
1070
   395
1000

1070
   394
1070
    33
1070
   393
1070
     0
1001
ACAD
1000
DSTYLE
1002
{
1070
   173
1070
     1
1070
   342
1005
0
1070
   343
1005
2C82
1070
   344
1005
69
1002
}
  0
LINE
  5
8EA0
330
1F
100
AcDbEntity
  8
AM_7 中心線
100
AcDbLine
 10
811.0422019819575
 20
1307.337601988232
 30
0.0
 11
811.0422019819575
 21
1289.127601988231
 31
0.0
  0
MTEXT
  5
8FFF
330
1F
100
AcDbEntity
  8
AM_6 文字
100
AcDbMText
 10
1380.30668612004
 20
906.5416548446023
 30
0.0
 40
17.5
 41
354.9485098355353
 46
35.45459589352106
 71
     1
 72
     5
  1
{\W0.6;TYPE:SAM400/SAMH400\PSHAFT DIA:MAX/MIN φ200/φ140}
  7
SEISA
 73
     1
 44
1.0
  0
DIMENSION
  5
903F
330
1F
100
AcDbEntity
  8
AM_5 寸法線
100
AcDbDimension
  2
*D30
 10
667.0422019819577
 20
1382.027601988232
 30
0.0
 11
704.7922019819576
 21
1398.277601988232
 31
0.0
 70
    32
 71
     5
 42
0.0
 73
     0
 74
     0
 75
     0
  3
SEISA$0
100
AcDbAlignedDimension
 13
667.0422019819577
 23
1284.227601988232
 33
0.0
 14
667.0422019819577
 24
1307.027601988232
 34
0.0
100
AcDbRotatedDimension
1001
ACAD_DSTYLE_DIMINSPECT
1070
   396
1000
100%
1070
   395
1000

1070
   394
1070
    33
1070
   393
1070
     0
  0
DIMENSION
  5
90C4
102
{ACAD_XDICTIONARY
360
90D2
102
}
102
{ACAD_REACTORS
330
90D3
330
9117
102
}
330
1F
100
AcDbEntity
  8
AM_5 寸法線
100
AcDbDimension
  2
*D31
 10
832.0422019819575
 20
1261.075920219461
 30
0.0
 11
780.9108238049447
 21
1212.966877717437
 31
0.0
 70
   160
 71
     5
 42
45.49999999999989
 73
     0
 74
     0
 75
     0
  3
SEISA$0
100
AcDbAlignedDimension
 13
786.5422019819576
 23
1289.527601988232
 33
0.0
 14
832.0422019819575
 24
1289.527601988232
 34
0.0
 50
0.0000000000001132
100
AcDbRotatedDimension
1001
ACAD_DSTYLE_DIMINSPECT
1070
   396
1000
100%
1070
   395
1000

1070
   394
1070
    33
1070
   393
1070
     0
1001
ACAD
1000
DSTYLE
1002
{
1070
   279
1070
     1
1002
}
  0
DIMENSION
  5
9107
102
{ACAD_XDICTIONARY
360
9116
102
}
102
{ACAD_REACTORS
330
9117
102
}
330
1F
100
AcDbEntity
  8
AM_5 寸法線
100
AcDbDimension
  2
*D32
 10
867.0422019819577
 20
1261.075920219461
 30
0.0
 11
849.2106878216972
 21
1274.13702310039
 31
0.0
 70
   160
 71
     5
 42
35.00000000000011
 73
     0
 74
     0
 75
     0
  3
SEISA$0
100
AcDbAlignedDimension
 13
832.0422019819575
 23
1289.527601988232
 33
0.0
 14
867.0422019819577
 24
1287.527601988232
 34
0.0
 50
0.0000000000001132
100
AcDbRotatedDimension
1001
ACAD_DSTYLE_DIMINSPECT
1070
   396
1000
100%
1070
   395
1000

1070
   394
1070
    33
1070
   393
1070
     0
1001
ACAD
1000
DSTYLE
1002
{
1070
   279
1070
     2
1002
}
  0
DIMENSION
  5
9165
102
{ACAD_XDICTIONARY
360
9174
102
}
102
{ACAD_REACTORS
330
9175
102
}
330
1F
100
AcDbEntity
  8
AM_5 寸法線
100
AcDbDimension
  2
*D33
 10
867.0422019819577
 20
1208.295432751906
 30
0.0
 11
850.6815204428828
 21
1222.84985557986
 31
0.0
 70
   160
 71
     5
 42
8.999999999999886
 73
     0
 74
     0
 75
     0
  3
SEISA$0
100
AcDbAlignedDimension
 13
876.0422019819577
 23
1310.027601988231
 33
0.0
 14
867.0422019819577
 24
1243.963478174184
 34
0.0
 50
0.0000000000001132
100
AcDbRotatedDimension
1001
ACAD_DSTYLE_DIMINSPECT
1070
   396
1000
100%
1070
   395
1000

1070
   394
1070
    33
1070
   393
1070
     0
1001
ACAD
1000
DSTYLE
1002
{
1070
   279
1070
     2
1002
}
  0
DIMENSION
  5
91A5
102
{ACAD_XDICTIONARY
360
91B4
102
}
102
{ACAD_REACTORS
330
91B5
102
}
330
1F
100
AcDbEntity
  8
AM_5 寸法線
100
AcDbDimension
  2
*D34
 10
1135.042201981957
 20
1208.295432751906
 30
0.0
 11
1146.656019100369
 21
1223.234788973046
 31
0.0
 70
   160
 71
     5
 42
8.999999999999772
 73
     0
 74
     0
 75
     0
  3
SEISA$0
100
AcDbAlignedDimension
 13
1126.042201981958
 23
1310.027601988231
 33
0.0
 14
1135.042201981957
 24
1287.527601988232
 34
0.0
 50
0.0000000000001132
100
AcDbRotatedDimension
1001
ACAD_DSTYLE_DIMINSPECT
1070
   396
1000
100%
1070
   395
1000

1070
   394
1070
    33
1070
   393
1070
     0
1001
ACAD
1000
DSTYLE
1002
{
1070
   279
1070
     2
1002
}
  0
INSERT
  5
92D7
330
1F
100
AcDbEntity
  8
AM_0 外形線1
100
AcDbBlockReference
  2
ケース
 10
710.1006671385855
 20
1311.027601988232
 30
0.0
  0
INSERT
  5
934A
330
1F
100
AcDbEntity
  8
AM_0 外形線1
100
AcDbBlockReference
  2
センタ-2 SAM400
 10
867.0422019819577
 20
1243.253785573769
 30
0.0
  0
ENDSEC
  0
SECTION
  2
OBJECTS
  0
DICTIONARY
  5
C
330
0
100
AcDbDictionary
281
     1
  3
ACAD_COLOR
350
C5
  3
ACAD_GROUP
350
D
  3
ACAD_LAYOUT
350
1A
  3
ACAD_MATERIAL
350
C4
  3
ACAD_MLEADERSTYLE
350
2D5
  3
ACAD_MLINESTYLE
350
17
  3
ACAD_PLOTSETTINGS
350
19
  3
ACAD_PLOTSTYLENAME
350
E
  3
ACAD_SCALELIST
350
2B3
  3
ACAD_TABLESTYLE
350
121
  3
ACAD_VISUALSTYLE
350
27F
  3
ACDB_RECOMPOSE_DATA
350
2F7
  3
AcDbVariableDictionary
350
34
  3
AcmDictionary
350
49
  3
AMG
350
2B
  3
AMGSNAPSETTINGS
350
1DE
  0
DICTIONARY
  5
BF
330
2
100
AcDbDictionary
280
     1
281
     1
  3
ACAD_LAYERSTATES
360
2D63
  3
AMLAYER_GROUPCOLORS
360
C0
  0
DICTIONARY
  5
29F7
330
10
100
AcDbDictionary
280
     1
281
     1
  3
ADSK_XREC_LAYER_RECONCILED
360
29F8
  0
DICTIONARY
  5
29F9
330
81
100
AcDbDictionary
280
     1
281
     1
  3
ADSK_XREC_LAYER_RECONCILED
360
29FA
  0
DICTIONARY
  5
2D5C
330
2D5B
100
AcDbDictionary
280
     1
281
     1
  0
DICTIONARY
  5
82
330
1F
100
AcDbDictionary
280
     1
281
     1
  3
ACAD_SORTENTS
360
A41
  0
DICTIONARY
  5
66FE
330
4C35
100
AcDbDictionary
280
     1
281
     1
  3
ACAD_SORTENTS
360
66FF
  0
DICTIONARY
  5
6718
330
4C43
100
AcDbDictionary
280
     1
281
     1
  3
ACAD_SORTENTS
360
6719
  0
DICTIONARY
  5
4DC7
330
4D0C
100
AcDbDictionary
280
     1
281
     1
  3
ACAD_SORTENTS
360
6790
  0
DICTIONARY
  5
4FCD
330
4EEA
100
AcDbDictionary
280
     1
281
     1
  3
ACAD_SORTENTS
360
680D
  0
DICTIONARY
  5
693F
330
5012
100
AcDbDictionary
280
     1
281
     1
  3
ACAD_SORTENTS
360
931E
  0
DICTIONARY
  5
545B
330
53D4
100
AcDbDictionary
280
     1
281
     1
  3
ACAD_SORTENTS
360
6A70
  0
DICTIONARY
  5
554D
330
54C6
100
AcDbDictionary
280
     1
281
     1
  3
ACAD_SORTENTS
360
6ACD
  0
DICTIONARY
  5
75B2
330
7384
100
AcDbDictionary
280
     1
281
     1
  3
ACAD_SORTENTS
360
94DE
  0
DICTIONARY
  5
938C
330
931F
100
AcDbDictionary
280
     1
281
     1
  3
ACAD_SORTENTS
360
938D
  0
DICTIONARY
  5
59E0
330
59D3
100
AcDbDictionary
280
     1
281
     1
  3
ACAD_DIMASSOC
360
59EA
  0
DICTIONARY
  5
5AA5
330
5A96
100
AcDbDictionary
280
     1
281
     1
  3
ACAD_DIMASSOC
360
5AB1
  0
DICTIONARY
  5
5B36
330
5B27
100
AcDbDictionary
280
     1
281
     1
  3
ACAD_DIMASSOC
360
5B42
  0
DICTIONARY
  5
5B90
330
5B81
100
AcDbDictionary
280
     1
281
     1
  3
ACAD_DIMASSOC
360
5B9C
  0
DICTIONARY
  5
5E54
330
5E47
100
AcDbDictionary
280
     1
281
     1
  3
ACAD_DIMASSOC
360
5E5E
  0
DICTIONARY
  5
5E6C
330
5E5F
100
AcDbDictionary
280
     1
281
     1
  3
ACAD_DIMASSOC
360
5E76
  0
DICTIONARY
  5
5EAD
330
5EA0
100
AcDbDictionary
280
     1
281
     1
  3
ACAD_DIMASSOC
360
5EB7
  0
DICTIONARY
  5
5EC5
330
5EB8
100
AcDbDictionary
280
     1
281
     1
  3
ACAD_DIMASSOC
360
5ECF
  0
DICTIONARY
  5
614E
330
6141
100
AcDbDictionary
280
     1
281
     1
  3
ACAD_DIMASSOC
360
6158
  0
DICTIONARY
  5
616F
330
6162
100
AcDbDictionary
280
     1
281
     1
  3
ACAD_DIMASSOC
360
6179
  0
DICTIONARY
  5
6187
330
617A
100
AcDbDictionary
280
     1
281
     1
  3
ACAD_DIMASSOC
360
6191
  0
DICTIONARY
  5
76CC
330
76BD
100
AcDbDictionary
280
     1
281
     1
  3
ACAD_DIMASSOC
360
76CD
  0
DICTIONARY
  5
7709
330
76FA
100
AcDbDictionary
280
     1
281
     1
  3
ACAD_DIMASSOC
360
770A
  0
DICTIONARY
  5
90D2
330
90C4
100
AcDbDictionary
280
     1
281
     1
  3
ACAD_DIMASSOC
360
90D3
  0
DICTIONARY
  5
9116
330
9107
100
AcDbDictionary
280
     1
281
     1
  3
ACAD_DIMASSOC
360
9117
  0
DICTIONARY
  5
9174
330
9165
100
AcDbDictionary
280
     1
281
     1
  3
ACAD_DIMASSOC
360
9175
  0
DICTIONARY
  5
91B4
330
91A5
100
AcDbDictionary
280
     1
281
     1
  3
ACAD_DIMASSOC
360
91B5
  0
DICTIONARY
  5
C5
102
{ACAD_REACTORS
330
C
102
}
330
C
100
AcDbDictionary
281
     1
  0
DICTIONARY
  5
D
102
{ACAD_REACTORS
330
C
102
}
330
C
100
AcDbDictionary
281
     1
  0
DICTIONARY
  5
1A
102
{ACAD_REACTORS
330
C
102
}
330
C
100
AcDbDictionary
281
     1
  3
Model
350
22
  3
レイアウト1
350
1E
  3
レイアウト2
350
26
  0
DICTIONARY
  5
C4
102
{ACAD_REACTORS
330
C
102
}
330
C
100
AcDbDictionary
281
     1
  3
ByBlock
350
27D
  3
ByLayer
350
27C
  3
Global
350
27E
  0
DICTIONARY
  5
2D5
102
{ACAD_REACTORS
330
C
102
}
330
C
100
AcDbDictionary
281
     1
  3
Standard
350
2D6
  0
DICTIONARY
  5
17
102
{ACAD_REACTORS
330
C
102
}
330
C
100
AcDbDictionary
281
     1
  3
Standard
350
18
  0
DICTIONARY
  5
19
102
{ACAD_REACTORS
330
C
102
}
330
C
100
AcDbDictionary
281
     1
  3
SEISA基本
350
1C7E
  0
ACDBDICTIONARYWDFLT
  5
E
102
{ACAD_REACTORS
330
C
102
}
330
C
100
AcDbDictionary
281
     1
  3
Normal
350
F
100
AcDbDictionaryWithDefault
340
F
  0
DICTIONARY
  5
2B3
102
{ACAD_REACTORS
330
C
102
}
330
C
100
AcDbDictionary
281
     1
  3
*A1
350
2D62
  3
*A2
350
8FF6
  3
A0
350
2B4
  3
A1
350
2B5
  3
A2
350
2B6
  3
A3
350
2B7
  3
A4
350
2B8
  3
A5
350
2B9
  3
A6
350
2BA
  3
A7
350
2BB
  3
A8
350
2BC
  3
A9
350
2BD
  3
B0
350
2BE
  3
B1
350
2BF
  3
B2
350
2C0
  3
B3
350
2C1
  3
B4
350
2C2
  3
B5
350
2C3
  3
B6
350
2C4
  3
B7
350
2C5
  3
B8
350
2C6
  3
B9
350
2C7
  3
C0
350
2C8
  3
C1
350
2C9
  3
C2
350
2CA
  3
C3
350
2CB
  3
C4
350
2CC
  3
C5
350
2CD
  3
C6
350
2CE
  3
C7
350
2CF
  3
C8
350
2D0
  3
C9
350
2D1
  3
D0
350
2D2
  3
D1
350
2D3
  3
D2
350
2D4
  0
DICTIONARY
  5
121
102
{ACAD_REACTORS
330
C
102
}
330
C
100
AcDbDictionary
281
     1
  3
Standard
350
122
  0
DICTIONARY
  5
27F
102
{ACAD_REACTORS
330
C
102
}
330
C
100
AcDbDictionary
281
     1
  3
2dWireframe
350
285
  3
3D Hidden
350
287
  3
3dWireframe
350
286
  3
Basic
350
284
  3
Brighten
350
28B
  3
ColorChange
350
28F
  3
Conceptual
350
288
  3
Dim
350
28A
  3
Facepattern
350
28E
  3
Flat
350
280
  3
FlatWithEdges
350
281
  3
Gouraud
350
282
  3
GouraudWithEdges
350
283
  3
Linepattern
350
28D
  3
Realistic
350
289
  3
Thicken
350
28C
  0
XRECORD
  5
2F7
102
{ACAD_REACTORS
330
C
102
}
330
C
100
AcDbXrecord
280
     1
 90
        1
330
122
  0
DICTIONARY
  5
34
102
{ACAD_REACTORS
330
C
102
}
330
C
100
AcDbDictionary
281
     1
  3
CANNOSCALE
350
2FA
  3
CMLEADERSTYLE
350
2F8
  3
CTABLESTYLE
350
140
  3
DIMASSOC
350
AC
  3
INDEXCTL
350
35
  3
LAYEREVAL
350
4DD7
  3
LAYERNOTIFY
350
4DD8
  3
LIGHTINGUNITS
350
2FB
  3
MSLTSCALE
350
2F9
  0
DICTIONARY
  5
49
102
{ACAD_REACTORS
330
C
102
}
330
C
100
AcDbDictionary
281
     1
  3
AcmBOM
350
161B
  3
AcmStdDictionary
350
4A
  3
AMDTSECTSYM_ARROWCOLOR
350
12B
  0
DICTIONARY
  5
2B
102
{ACAD_REACTORS
330
C
102
}
330
C
100
AcDbDictionary
281
     1
  0
DICTIONARY
  5
1DE
102
{ACAD_REACTORS
330
C
102
}
330
C
100
AcDbDictionary
281
     1
  0
DICTIONARY
  5
2D63
102
{ACAD_REACTORS
330
BF
102
}
330
BF
100
AcDbDictionary
281
     1
  0
DICTIONARY
  5
C0
102
{ACAD_REACTORS
330
BF
102
}
330
BF
100
AcDbDictionary
280
     1
281
     1
  0
XRECORD
  5
29F8
102
{ACAD_REACTORS
330
29F7
102
}
330
29F7
100
AcDbXrecord
280
     1
290
     1
  0
XRECORD
  5
29FA
102
{ACAD_REACTORS
330
29F9
102
}
330
29F9
100
AcDbXrecord
280
     1
290
     1
  0
SORTENTSTABLE
  5
A41
102
{ACAD_REACTORS
330
82
102
}
330
82
100
AcDbSortentsTable
330
1F
331
5B81
  5
62EA
331
4D47
  5
509E
331
5B27
  5
62B1
331
6162
  5
6492
331
5E5F
  5
648A
331
903F
  5
903F
331
8EA0
  5
5875
331
439B
  5
439B
331
5038
  5
54F0
331
5EB8
  5
648D
331
59D3
  5
6293
331
5E47
  5
6489
331
4F29
  5
527E
331
5EA0
  5
648C
331
53FE
  5
598B
331
76FA
  5
8EA2
331
59BB
  5
6292
331
44EB
  5
44EB
331
8FFF
  5
8FFF
331
73FD
  5
8EA0
331
617A
  5
6493
331
76BD
  5
8EA1
331
449D
  5
449D
331
598B
  5
628F
331
54F0
  5
59BB
331
6141
  5
6491
331
5A96
  5
62A7
  0
SORTENTSTABLE
  5
66FF
102
{ACAD_REACTORS
330
66FE
102
}
330
66FE
100
AcDbSortentsTable
330
4C35
  0
SORTENTSTABLE
  5
6719
102
{ACAD_REACTORS
330
6718
102
}
330
6718
100
AcDbSortentsTable
330
4C43
  0
SORTENTSTABLE
  5
6790
102
{ACAD_REACTORS
330
4DC7
102
}
330
4DC7
100
AcDbSortentsTable
330
4D0C
331
4D30
  5
4D33
331
4DC6
  5
4D40
331
4D36
  5
4D39
331
4D44
  5
4DC4
331
4D2B
  5
4D2D
331
4D1E
  5
4D20
331
678F
  5
4D41
331
4D31
  5
4D34
331
4D24
  5
4D26
331
4D37
  5
4D3A
331
4D45
  5
4DC5
331
4D2C
  5
4D2E
331
4DC2
  5
678F
331
4D3D
  5
4D42
331
4D1F
  5
4D21
331
4D32
  5
4D35
331
4D25
  5
4D27
331
4D40
  5
4D45
331
4D38
  5
4D3B
331
4D46
  5
4DC6
331
4D2D
  5
4D30
331
4D3E
  5
4D43
331
4D20
  5
4D22
331
4DC3
  5
4D1D
331
4D33
  5
4D36
331
4D41
  5
4D46
331
4D26
  5
4D28
331
4D28
  5
4D2A
331
4D39
  5
4D3D
331
4D2E
  5
4D31
331
4DC4
  5
4D1E
331
4D3F
  5
4D44
331
4D21
  5
4D24
331
4D34
  5
4D37
331
4D27
  5
4D29
331
4D42
  5
4DC2
331
4D29
  5
4D2B
331
4D3A
  5
4D3E
331
4DC5
  5
4D32
331
4D22
  5
4D25
331
4D35
  5
4D38
331
4D43
  5
4DC3
331
4D2A
  5
4D2C
331
4D3B
  5
4D3F
331
4D1D
  5
4D1F
  0
SORTENTSTABLE
  5
680D
102
{ACAD_REACTORS
330
4FCD
102
}
330
4FCD
100
AcDbSortentsTable
330
4EEA
331
4F27
  5
4FCB
331
4F18
  5
4F1A
331
4F1C
  5
4F1E
331
4F0D
  5
4F0F
331
4F20
  5
4F22
331
4F11
  5
4F13
331
4F24
  5
4F27
331
4F15
  5
4F17
331
4F28
  5
4FCC
331
4F19
  5
4F1C
331
4F0A
  5
4F0C
331
4F1D
  5
4F1F
331
4F0E
  5
4F10
331
4F12
  5
4F15
331
4F21
  5
4F23
331
4F25
  5
4F28
331
4F16
  5
4F18
331
4F1A
  5
4F1D
331
4F0B
  5
4F0D
331
4F1E
  5
4F20
331
4F0F
  5
4F11
331
4F22
  5
4F24
331
4F13
  5
4F16
331
4FCB
  5
4F0A
331
4F17
  5
4F19
331
4F0C
  5
4F0E
331
4F1F
  5
4F21
331
4F10
  5
4F12
331
4F23
  5
4F25
331
4FCC
  5
4F0B
  0
SORTENTSTABLE
  5
931E
102
{ACAD_REACTORS
330
693F
102
}
330
693F
100
AcDbSortentsTable
330
5012
331
5021
  5
5023
331
5020
  5
5022
331
5023
  5
5027
331
5025
  5
5028
331
5028
  5
502A
331
5027
  5
5029
331
502A
  5
502D
331
5029
  5
502B
331
502B
  5
502E
331
502E
  5
5030
331
502D
  5
502F
331
5030
  5
5032
331
502F
  5
5031
331
5032
  5
5035
331
5031
  5
5033
331
5035
  5
90A3
331
5017
  5
5019
331
5037
  5
90A4
331
5016
  5
5018
331
5019
  5
501B
331
5018
  5
501A
331
90A3
  5
5015
331
501B
  5
501D
331
501A
  5
501C
331
501D
  5
501F
331
90A4
  5
5016
331
501C
  5
501E
331
501F
  5
5021
331
501E
  5
5020
331
5015
  5
5017
331
5033
  5
5037
331
5022
  5
5025
  0
SORTENTSTABLE
  5
6A70
102
{ACAD_REACTORS
330
545B
102
}
330
545B
100
AcDbSortentsTable
330
53D4
  0
SORTENTSTABLE
  5
6ACD
102
{ACAD_REACTORS
330
554D
102
}
330
554D
100
AcDbSortentsTable
330
54C6
  0
SORTENTSTABLE
  5
94DE
102
{ACAD_REACTORS
330
75B2
102
}
330
75B2
100
AcDbSortentsTable
330
7384
  0
SORTENTSTABLE
  5
938D
102
{ACAD_REACTORS
330
938C
102
}
330
938C
100
AcDbSortentsTable
330
931F
331
932B
  5
932C
331
9333
  5
9334
331
933B
  5
933C
331
9326
  5
9327
331
932C
  5
932D
331
9334
  5
9335
331
933C
  5
933D
331
9327
  5
9328
331
932D
  5
932E
331
9335
  5
9336
331
933D
  5
933E
331
936D
  5
9322
331
932E
  5
932F
331
9336
  5
9337
331
933E
  5
933F
331
932F
  5
9330
331
9337
  5
9338
331
933F
  5
936D
331
9322
  5
9323
331
9328
  5
9329
331
9330
  5
9331
331
9338
  5
9339
331
9323
  5
9324
331
9329
  5
932A
331
9331
  5
9332
331
9339
  5
933A
331
9324
  5
9325
331
932A
  5
932B
331
9332
  5
9333
331
933A
  5
933B
331
9325
  5
9326
  0
DIMASSOC
  5
59EA
102
{ACAD_REACTORS
330
59E0
102
}
330
59E0
100
AcDbDimAssoc
330
59D3
 90
        1
 70
     0
 71
     0
  1
AcDbOsnapPointRef
 72
     6
331
5038
331
5016
 73
     2
 91
        0
 40
0.4999999999999994
 10
0.0
 20
0.0
 30
0.0
332
439B
 74
     2
 92
        0
 75
     0
  0
DIMASSOC
  5
5AB1
102
{ACAD_REACTORS
330
5AA5
102
}
330
5AA5
100
AcDbDimAssoc
330
5A96
 90
        2
 70
     0
 71
     0
  1
AcDbOsnapPointRef
 72
     1
331
4F29
331
4F06
 73
     2
 91
        0
 40
1.0
 10
0.0
 20
0.0
 30
2.000000000000000E+50
 75
     0
  0
DIMASSOC
  5
5B42
102
{ACAD_REACTORS
330
5B36
102
}
330
5B36
100
AcDbDimAssoc
330
5B27
 90
        2
 70
     0
 71
     0
  1
AcDbOsnapPointRef
 72
    13
331
4F29
331
4F0A
 73
     2
 91
        0
 40
0.0
 10
0.0
 20
0.0
 30
2.000000000000000E+50
 75
     0
  0
DIMASSOC
  5
5B9C
102
{ACAD_REACTORS
330
5B90
102
}
330
5B90
100
AcDbDimAssoc
330
5B81
 90
        2
 70
     0
 71
     0
  1
AcDbOsnapPointRef
 72
    13
331
4D47
331
4D10
 73
     2
 91
        0
 40
0.0
 10
0.0
 20
0.0
 30
2.000000000000000E+50
 75
     0
  0
DIMASSOC
  5
5E5E
102
{ACAD_REACTORS
330
5E54
102
}
330
5E54
100
AcDbDimAssoc
330
5E47
 90
        3
 70
     0
 71
     0
  1
AcDbOsnapPointRef
 72
    13
331
5038
331
5016
 73
     2
 91
        0
 40
0.0
 10
0.0
 20
0.0
 30
2.000000000000000E+50
 75
     0
  1
AcDbOsnapPointRef
 72
    13
331
4D47
331
4D15
 73
     2
 91
        0
 40
0.0
 10
0.0
 20
0.0
 30
2.000000000000000E+50
 75
     0
  0
DIMASSOC
  5
5E76
102
{ACAD_REACTORS
330
5E6C
102
}
330
5E6C
100
AcDbDimAssoc
330
5E5F
 90
        1
 70
     0
 71
     0
  1
AcDbOsnapPointRef
 72
    13
331
4D47
331
4D15
 73
     2
 91
        0
 40
0.0
 10
0.0
 20
0.0
 30
2.000000000000000E+50
 75
     0
  0
DIMASSOC
  5
5EB7
102
{ACAD_REACTORS
330
5EAD
102
}
330
5EAD
100
AcDbDimAssoc
330
5EA0
 90
        1
 70
     0
 71
     0
  1
AcDbOsnapPointRef
 72
    13
331
4F29
331
4EF2
 73
     2
 91
        0
 40
0.0
 10
0.0
 20
0.0
 30
2.000000000000000E+50
 75
     0
  0
DIMASSOC
  5
5ECF
102
{ACAD_REACTORS
330
5EC5
102
}
330
5EC5
100
AcDbDimAssoc
330
5EB8
 90
        1
 70
     0
 71
     0
  1
AcDbOsnapPointRef
 72
    13
331
4F29
331
4EF2
 73
     2
 91
        0
 40
0.0
 10
0.0
 20
0.0
 30
2.000000000000000E+50
 75
     0
  0
DIMASSOC
  5
6158
102
{ACAD_REACTORS
330
614E
102
}
330
614E
100
AcDbDimAssoc
330
6141
 90
        3
 70
     0
 71
     0
  1
AcDbOsnapPointRef
 72
     1
331
5038
331
502D
 73
     2
 91
        0
 40
1.0
 10
0.0
 20
0.0
 30
2.000000000000000E+50
 75
     0
  1
AcDbOsnapPointRef
 72
    13
331
5038
331
501F
 73
     2
 91
        0
 40
0.0
 10
0.0
 20
0.0
 30
2.000000000000000E+50
 75
     0
  0
DIMASSOC
  5
6179
102
{ACAD_REACTORS
330
616F
102
}
330
616F
100
AcDbDimAssoc
330
6162
 90
        3
 70
     0
 71
     0
  1
AcDbOsnapPointRef
 72
     1
331
4D47
331
4D18
 73
     2
 91
        0
 40
1.0
 10
0.0
 20
0.0
 30
2.000000000000000E+50
 75
     0
  1
AcDbOsnapPointRef
 72
     1
331
4D47
331
4D0F
 73
     2
 91
        0
 40
1.0
 10
0.0
 20
0.0
 30
2.000000000000000E+50
 75
     0
  0
DIMASSOC
  5
6191
102
{ACAD_REACTORS
330
6187
102
}
330
6187
100
AcDbDimAssoc
330
617A
 90
        3
 70
     0
 71
     0
  1
AcDbOsnapPointRef
 72
     1
331
4D47
331
4D2E
 73
     2
 91
        0
 40
1.0
 10
0.0
 20
0.0
 30
2.000000000000000E+50
 75
     0
  1
AcDbOsnapPointRef
 72
     1
331
4D47
331
4D12
 73
     2
 91
        0
 40
1.0
 10
0.0
 20
0.0
 30
2.000000000000000E+50
 75
     0
  0
DIMASSOC
  5
76CD
102
{ACAD_REACTORS
330
76CC
102
}
330
76CC
100
AcDbDimAssoc
330
76BD
 90
        3
 70
     0
 71
     0
  1
AcDbOsnapPointRef
 72
    13
331
4F29
331
4FCC
 73
     0
 91
        0
 40
0.0
 10
0.0
 20
0.0
 30
2.000000000000000E+50
 75
     0
  1
AcDbOsnapPointRef
 72
    13
331
73FD
331
73D8
 73
     0
 91
        0
 40
0.0
 10
0.0
 20
0.0
 30
2.000000000000000E+50
 75
     0
  0
DIMASSOC
  5
770A
102
{ACAD_REACTORS
330
7709
102
}
330
7709
100
AcDbDimAssoc
330
76FA
 90
        3
 70
     0
 71
     0
  1
AcDbOsnapPointRef
 72
    13
331
4D47
331
4D13
 73
     0
 91
        0
 40
0.0
 10
0.0
 20
0.0
 30
2.000000000000000E+50
 75
     0
  1
AcDbOsnapPointRef
 72
     8
331
73FD
331
73B9
 73
     0
 91
        0
 40
0.0
 10
0.0
 20
0.0
 30
0.0
 75
     1
  1
AcDbOsnapPointRef
 72
    13
331
4D47
331
4D13
 73
     0
 91
        0
 40
0.0
 10
0.0
 20
0.0
 30
2.000000000000000E+50
 75
     0
  0
DIMASSOC
  5
90D3
102
{ACAD_REACTORS
330
90D2
102
}
330
90D2
100
AcDbDimAssoc
330
90C4
 90
        1
 70
     0
 71
     0
  1
AcDbOsnapPointRef
 72
     4
331
5A96
331
8754
 73
     0
 91
        0
 40
0.0
 10
0.0
 20
0.0
 30
0.0
 75
     0
  0
DIMASSOC
  5
9117
102
{ACAD_REACTORS
330
9116
102
}
330
9116
100
AcDbDimAssoc
330
9107
 90
        1
 70
     0
 71
     0
  1
AcDbOsnapPointRef
 72
     4
331
90C4
331
9105
 73
     0
 91
        0
 40
0.0
 10
0.0
 20
0.0
 30
0.0
 75
     0
  0
DIMASSOC
  5
9175
102
{ACAD_REACTORS
330
9174
102
}
330
9174
100
AcDbDimAssoc
330
9165
 90
        1
 70
     0
 71
     0
  1
AcDbOsnapPointRef
 72
    13
331
73FD
331
73E2
 73
     0
 91
        0
 40
0.0
 10
0.0
 20
0.0
 30
2.000000000000000E+50
 75
     0
  0
DIMASSOC
  5
91B5
102
{ACAD_REACTORS
330
91B4
102
}
330
91B4
100
AcDbDimAssoc
330
91A5
 90
        3
 70
     0
 71
     0
  1
AcDbOsnapPointRef
 72
    13
331
73FD
331
73C3
 73
     0
 91
        0
 40
0.0
 10
0.0
 20
0.0
 30
2.000000000000000E+50
 75
     0
  1
AcDbOsnapPointRef
 72
    13
331
5038
331
5015
 73
     0
 91
        0
 40
0.0
 10
0.0
 20
0.0
 30
2.000000000000000E+50
 75
     0
  0
LAYOUT
  5
22
102
{ACAD_REACTORS
330
1A
102
}
330
1A
100
AcDbPlotSettings
  1

  2
KONICA MINOLTA 501 PCL
  4
A4
  6

 40
5.027082920074462
 41
5.027085781097412
 42
5.027069091796875
 43
5.027069091796875
 44
209.9733276367186
 45
296.9259948730469
 46
22.95419373721578
 47
0.0
 48
0.0
 49
0.0
140
0.0
141
0.0
142
1.0
143
3.824592778370877
 70
 11956
 72
     1
 73
     1
 74
     1
  7
SEISA.ctb
 75
     0
147
0.2614657449690525
 76
     0
 77
     2
 78
   300
148
-541.950995247058
149
-818.0687776191071
100
AcDbLayout
  1
Model
 70
     1
 71
     0
 10
0.0
 20
0.0
 11
12.0
 21
9.0
 12
0.0
 22
0.0
 32
0.0
 14
0.0
 24
0.0
 34
0.0
 15
0.0
 25
0.0
 35
0.0
146
0.0
 13
0.0
 23
0.0
 33
0.0
 16
1.0
 26
0.0
 36
0.0
 17
0.0
 27
1.0
 37
0.0
 76
     0
330
1F
331
27A
1001
ACAD_PSEXT
1000
KONICA MINOLTA 501 PCL
1000
KONICA MINOLTA 501/421/361PCL
1000
IP_192.168.20.231_(1)
1000

1070
     0
  0
LAYOUT
  5
1E
102
{ACAD_REACTORS
330
1A
102
}
330
1A
100
AcDbPlotSettings
  1

  2
none_device
  4
Letter_(8.50_x_11.00_Inches)
  6

 40
6.349999904632567
 41
6.349999904632567
 42
6.350006103515625
 43
6.350006103515625
 44
215.8999938964844
 45
279.3999938964844
 46
0.0
 47
0.0
 48
0.0
 49
0.0
140
0.0
141
0.0
142
1.0
143
1.0
 70
 15024
 72
     1
 73
     1
 74
     5
  7
SEISA.ctb
 75
    16
147
1.0
 76
     0
 77
     2
 78
   300
148
0.0
149
0.0
100
AcDbLayout
  1
レイアウト1
 70
     1
 71
     1
 10
0.0
 20
0.0
 11
420.0
 21
297.0
 12
0.0
 22
0.0
 32
0.0
 14
1.000000000000000E+20
 24
1.000000000000000E+20
 34
1.000000000000000E+20
 15
-1.000000000000000E+20
 25
-1.000000000000000E+20
 35
-1.000000000000000E+20
146
0.0
 13
0.0
 23
0.0
 33
0.0
 16
1.0
 26
0.0
 36
0.0
 17
0.0
 27
1.0
 37
0.0
 76
     0
330
1B
  0
LAYOUT
  5
26
102
{ACAD_REACTORS
330
1A
102
}
330
1A
100
AcDbPlotSettings
  1

  2
none_device
  4
Letter_(8.50_x_11.00_Inches)
  6

 40
6.349999904632567
 41
6.349999904632567
 42
6.350006103515625
 43
6.350006103515625
 44
215.8999938964844
 45
279.3999938964844
 46
0.0
 47
0.0
 48
0.0
 49
0.0
140
0.0
141
0.0
142
1.0
143
1.0
 70
 15024
 72
     1
 73
     1
 74
     5
  7
SEISA.ctb
 75
    16
147
1.0
 76
     0
 77
     2
 78
   300
148
0.0
149
0.0
100
AcDbLayout
  1
レイアウト2
 70
     1
 71
     2
 10
0.0
 20
0.0
 11
12.0
 21
9.0
 12
0.0
 22
0.0
 32
0.0
 14
0.0
 24
0.0
 34
0.0
 15
0.0
 25
0.0
 35
0.0
146
0.0
 13
0.0
 23
0.0
 33
0.0
 16
1.0
 26
0.0
 36
0.0
 17
0.0
 27
1.0
 37
0.0
 76
     0
330
23
  0
MATERIAL
  5
27D
102
{ACAD_REACTORS
330
C4
102
}
330
C4
100
AcDbMaterial
  1
ByBlock
 73
     1
 78
     1
172
     1
176
     1
270
     1
274
     1
 94
       63
  0
MATERIAL
  5
27C
102
{ACAD_REACTORS
330
C4
102
}
330
C4
100
AcDbMaterial
  1
ByLayer
 73
     1
 78
     1
172
     1
176
     1
270
     1
274
     1
 94
       63
  0
MATERIAL
  5
27E
102
{ACAD_REACTORS
330
C4
102
}
330
C4
100
AcDbMaterial
  1
Global
 73
     1
 78
     1
172
     1
176
     1
270
     1
274
     1
 94
       63
  0
MLEADERSTYLE
  5
2D6
102
{ACAD_REACTORS
330
2D5
102
}
330
2D5
100
AcDbMLeaderStyle
170
     2
171
     1
172
     0
 90
        2
 40
0.0
 41
0.0
173
     1
 91
-1056964608
340
14
 92
       -2
290
     1
 42
2.0
291
     1
 43
0.36
  3
Standard
 44
4.0
300

342
11
174
     1
178
     6
175
     1
176
     0
 93
-1056964608
 45
4.0
292
     0
297
     0
 46
4.0
 94
-1056964608
 47
1.0
 49
1.0
140
1.0
293
     1
141
0.0
294
     1
177
     0
142
1.0
295
     0
296
     0
143
0.125
1001
ACAD_MLEADERVER
1070
     2
  0
MLINESTYLE
  5
18
102
{ACAD_REACTORS
330
17
102
}
330
17
100
AcDbMlineStyle
  2
STANDARD
 70
     0
  3

 62
   256
 51
90.0
 52
90.0
 71
     2
 49
0.5
 62
   256
  6
BYLAYER
 49
-0.5
 62
   256
  6
BYLAYER
  0
PLOTSETTINGS
  5
1C7E
102
{ACAD_REACTORS
330
19
102
}
330
19
100
AcDbPlotSettings
  1
SEISA基本
  2
none_device
  4
Letter_(8.50_x_11.00_Inches)
  6

 40
6.349999904632567
 41
6.349999904632567
 42
6.350006103515625
 43
6.350006103515625
 44
215.8999938964844
 45
279.3999938964844
 46
7.302498226506357
 47
0.0
 48
0.0
 49
0.0
140
0.0
141
0.0
142
1.0
143
1.574803221122935
 70
 11956
 72
     1
 73
     1
 74
     2
  7
SEISA.ctb
 75
     0
147
0.6349999711627054
 76
     0
 77
     2
 78
   300
148
0.0
149
0.0
1001
ACAD_PSEXT
1000
なし
1000
なし
1000
適切ではありません
1000
新しいプロッタ環境設定名を選択しない限り、レイアウトは印刷されません。
1070
     0
  0
ACDBPLACEHOLDER
  5
F
102
{ACAD_REACTORS
330
E
102
}
330
E
  0
SCALE
  5
2D62
102
{ACAD_REACTORS
330
2B3
102
}
330
2B3
100
AcDbScale
 70
     0
300
1:1.5
140
1.0
141
1.5
290
     0
  0
SCALE
  5
8FF6
102
{ACAD_REACTORS
330
2B3
102
}
330
2B3
100
AcDbScale
 70
     0
300
1:2.5
140
1.0
141
2.5
290
     0
  0
SCALE
  5
2B4
102
{ACAD_REACTORS
330
2B3
102
}
330
2B3
100
AcDbScale
 70
     0
300
1:1
140
1.0
141
1.0
290
     1
  0
SCALE
  5
2B5
102
{ACAD_REACTORS
330
2B3
102
}
330
2B3
100
AcDbScale
 70
     0
300
1:2
140
1.0
141
2.0
290
     0
  0
SCALE
  5
2B6
102
{ACAD_REACTORS
330
2B3
102
}
330
2B3
100
AcDbScale
 70
     0
300
1:4
140
1.0
141
4.0
290
     0
  0
SCALE
  5
2B7
102
{ACAD_REACTORS
330
2B3
102
}
330
2B3
100
AcDbScale
 70
     0
300
1:5
140
1.0
141
5.0
290
     0
  0
SCALE
  5
2B8
102
{ACAD_REACTORS
330
2B3
102
}
330
2B3
100
AcDbScale
 70
     0
300
1:8
140
1.0
141
8.0
290
     0
  0
SCALE
  5
2B9
102
{ACAD_REACTORS
330
2B3
102
}
330
2B3
100
AcDbScale
 70
     0
300
1:10
140
1.0
141
10.0
290
     0
  0
SCALE
  5
2BA
102
{ACAD_REACTORS
330
2B3
102
}
330
2B3
100
AcDbScale
 70
     0
300
1:16
140
1.0
141
16.0
290
     0
  0
SCALE
  5
2BB
102
{ACAD_REACTORS
330
2B3
102
}
330
2B3
100
AcDbScale
 70
     0
300
1:20
140
1.0
141
20.0
290
     0
  0
SCALE
  5
2BC
102
{ACAD_REACTORS
330
2B3
102
}
330
2B3
100
AcDbScale
 70
     0
300
1:30
140
1.0
141
30.0
290
     0
  0
SCALE
  5
2BD
102
{ACAD_REACTORS
330
2B3
102
}
330
2B3
100
AcDbScale
 70
     0
300
1:40
140
1.0
141
40.0
290
     0
  0
SCALE
  5
2BE
102
{ACAD_REACTORS
330
2B3
102
}
330
2B3
100
AcDbScale
 70
     0
300
1:50
140
1.0
141
50.0
290
     0
  0
SCALE
  5
2BF
102
{ACAD_REACTORS
330
2B3
102
}
330
2B3
100
AcDbScale
 70
     0
300
1:100
140
1.0
141
100.0
290
     0
  0
SCALE
  5
2C0
102
{ACAD_REACTORS
330
2B3
102
}
330
2B3
100
AcDbScale
 70
     0
300
2:1
140
2.0
141
1.0
290
     0
  0
SCALE
  5
2C1
102
{ACAD_REACTORS
330
2B3
102
}
330
2B3
100
AcDbScale
 70
     0
300
4:1
140
4.0
141
1.0
290
     0
  0
SCALE
  5
2C2
102
{ACAD_REACTORS
330
2B3
102
}
330
2B3
100
AcDbScale
 70
     0
300
8:1
140
8.0
141
1.0
290
     0
  0
SCALE
  5
2C3
102
{ACAD_REACTORS
330
2B3
102
}
330
2B3
100
AcDbScale
 70
     0
300
10:1
140
10.0
141
1.0
290
     0
  0
SCALE
  5
2C4
102
{ACAD_REACTORS
330
2B3
102
}
330
2B3
100
AcDbScale
 70
     0
300
100:1
140
100.0
141
1.0
290
     0
  0
SCALE
  5
2C5
102
{ACAD_REACTORS
330
2B3
102
}
330
2B3
100
AcDbScale
 70
     0
300
1/128" = 1'-0"
140
0.0078125
141
12.0
290
     0
  0
SCALE
  5
2C6
102
{ACAD_REACTORS
330
2B3
102
}
330
2B3
100
AcDbScale
 70
     0
300
1/64" = 1'-0"
140
0.015625
141
12.0
290
     0
  0
SCALE
  5
2C7
102
{ACAD_REACTORS
330
2B3
102
}
330
2B3
100
AcDbScale
 70
     0
300
1/32" = 1'-0"
140
0.03125
141
12.0
290
     0
  0
SCALE
  5
2C8
102
{ACAD_REACTORS
330
2B3
102
}
330
2B3
100
AcDbScale
 70
     0
300
1/16" = 1'-0"
140
0.0625
141
12.0
290
     0
  0
SCALE
  5
2C9
102
{ACAD_REACTORS
330
2B3
102
}
330
2B3
100
AcDbScale
 70
     0
300
3/32" = 1'-0"
140
0.09375
141
12.0
290
     0
  0
SCALE
  5
2CA
102
{ACAD_REACTORS
330
2B3
102
}
330
2B3
100
AcDbScale
 70
     0
300
1/8" = 1'-0"
140
0.125
141
12.0
290
     0
  0
SCALE
  5
2CB
102
{ACAD_REACTORS
330
2B3
102
}
330
2B3
100
AcDbScale
 70
     0
300
3/16" = 1'-0"
140
0.1875
141
12.0
290
     0
  0
SCALE
  5
2CC
102
{ACAD_REACTORS
330
2B3
102
}
330
2B3
100
AcDbScale
 70
     0
300
1/4" = 1'-0"
140
0.25
141
12.0
290
     0
  0
SCALE
  5
2CD
102
{ACAD_REACTORS
330
2B3
102
}
330
2B3
100
AcDbScale
 70
     0
300
3/8" = 1'-0"
140
0.375
141
12.0
290
     0
  0
SCALE
  5
2CE
102
{ACAD_REACTORS
330
2B3
102
}
330
2B3
100
AcDbScale
 70
     0
300
1/2" = 1'-0"
140
0.5
141
12.0
290
     0
  0
SCALE
  5
2CF
102
{ACAD_REACTORS
330
2B3
102
}
330
2B3
100
AcDbScale
 70
     0
300
3/4" = 1'-0"
140
0.75
141
12.0
290
     0
  0
SCALE
  5
2D0
102
{ACAD_REACTORS
330
2B3
102
}
330
2B3
100
AcDbScale
 70
     0
300
1" = 1'-0"
140
1.0
141
12.0
290
     0
  0
SCALE
  5
2D1
102
{ACAD_REACTORS
330
2B3
102
}
330
2B3
100
AcDbScale
 70
     0
300
1-1/2" = 1'-0"
140
1.5
141
12.0
290
     0
  0
SCALE
  5
2D2
102
{ACAD_REACTORS
330
2B3
102
}
330
2B3
100
AcDbScale
 70
     0
300
3" = 1'-0"
140
3.0
141
12.0
290
     0
  0
SCALE
  5
2D3
102
{ACAD_REACTORS
330
2B3
102
}
330
2B3
100
AcDbScale
 70
     0
300
6" = 1'-0"
140
6.0
141
12.0
290
     0
  0
SCALE
  5
2D4
102
{ACAD_REACTORS
330
2B3
102
}
330
2B3
100
AcDbScale
 70
     0
300
1'-0" = 1'-0"
140
12.0
141
12.0
290
     0
  0
TABLESTYLE
  5
122
102
{ACAD_XDICTIONARY
360
2F5
102
}
102
{ACAD_REACTORS
330
121
102
}
330
121
100
AcDbTableStyle
  3
Standard
 70
     0
 71
     0
 40
1.5
 41
1.5
280
     0
281
     0
  7
STANDARD
140
4.5
170
     2
 62
     0
 63
     7
283
     0
 90
      512
 91
        0
  1

274
    -2
284
     1
 64
     0
275
    -2
285
     1
 65
     0
276
    -2
286
     1
 66
     0
277
    -2
287
     1
 67
     0
278
    -2
288
     1
 68
     0
279
    -2
289
     1
 69
     0
  7
STANDARD
140
6.0
170
     5
 62
     0
 63
     7
283
     0
 90
      512
 91
        0
  1

274
    -2
284
     1
 64
     0
275
    -2
285
     1
 65
     0
276
    -2
286
     1
 66
     0
277
    -2
287
     1
 67
     0
278
    -2
288
     1
 68
     0
279
    -2
289
     1
 69
     0
  7
STANDARD
140
4.5
170
     5
 62
     0
 63
     7
283
     0
 90
      512
 91
        0
  1

274
    -2
284
     1
 64
     0
275
    -2
285
     1
 65
     0
276
    -2
286
     1
 66
     0
277
    -2
287
     1
 67
     0
278
    -2
288
     1
 68
     0
279
    -2
289
     1
 69
     0
  0
VISUALSTYLE
  5
285
102
{ACAD_REACTORS
330
27F
102
}
330
27F
100
AcDbVisualStyle
  2
2dWireframe
 70
     4
 71
     0
 72
     2
 73
     0
 90
        0
 40
-0.6
 41
-30.0
 62
     5
 63
     7
421
 16777215
 74
     1
 91
        4
 64
     7
 65
   257
 75
     1
175
     1
 42
1.0
 92
        0
 66
   257
 43
1.0
 76
     1
 77
     6
 78
     2
 67
     7
 79
     5
170
     0
171
     0
290
     0
174
     0
 93
        1
 44
0.0
173
     0
291
     0
 45
0.0
  0
VISUALSTYLE
  5
287
102
{ACAD_REACTORS
330
27F
102
}
330
27F
100
AcDbVisualStyle
  2
3D Hidden
 70
     6
 71
     1
 72
     2
 73
     2
 90
        0
 40
-0.6
 41
-30.0
 62
     5
 63
     7
421
 16777215
 74
     2
 91
        2
 64
     7
 65
   257
 75
     2
175
     1
 42
40.0
 92
        0
 66
   257
 43
1.0
 76
     1
 77
     6
 78
     2
 67
     7
 79
     3
170
     0
171
     0
290
     0
174
     0
 93
        1
 44
0.0
173
     0
291
     0
 45
0.0
  0
VISUALSTYLE
  5
286
102
{ACAD_REACTORS
330
27F
102
}
330
27F
100
AcDbVisualStyle
  2
3dWireframe
 70
     5
 71
     0
 72
     2
 73
     0
 90
        0
 40
-0.6
 41
-30.0
 62
     5
 63
     7
421
 16777215
 74
     1
 91
        4
 64
     7
 65
   257
 75
     1
175
     1
 42
1.0
 92
        0
 66
   257
 43
1.0
 76
     1
 77
     6
 78
     2
 67
     7
 79
     5
170
     0
171
     0
290
     0
174
     0
 93
        1
 44
0.0
173
     0
291
     0
 45
0.0
  0
VISUALSTYLE
  5
284
102
{ACAD_REACTORS
330
27F
102
}
330
27F
100
AcDbVisualStyle
  2
Basic
 70
     7
 71
     1
 72
     0
 73
     1
 90
        0
 40
-0.6
 41
-30.0
 62
     5
 63
     7
421
 16777215
 74
     0
 91
        4
 64
     7
 65
   257
 75
     1
175
     1
 42
1.0
 92
        8
 66
     7
 43
1.0
 76
     1
 77
     6
 78
     2
 67
     7
 79
     5
170
     0
171
     0
290
     0
174
     0
 93
        1
 44
0.0
173
     0
291
     1
 45
0.0
  0
VISUALSTYLE
  5
28B
102
{ACAD_REACTORS
330
27F
102
}
330
27F
100
AcDbVisualStyle
  2
Brighten
 70
    12
 71
     2
 72
     2
 73
     0
 90
        0
 40
-0.6
 41
-30.0
 62
     5
 63
     7
421
 16777215
 74
     1
 91
        4
 64
     7
 65
   257
 75
     1
175
     1
 42
1.0
 92
        8
 66
     7
 43
1.0
 76
     1
 77
     6
 78
     2
 67
     7
 79
     5
170
     0
171
     0
290
     0
174
     0
 93
        1
 44
50.0
173
     0
291
     1
 45
0.0
  0
VISUALSTYLE
  5
28F
102
{ACAD_REACTORS
330
27F
102
}
330
27F
100
AcDbVisualStyle
  2
ColorChange
 70
    16
 71
     2
 72
     2
 73
     3
 90
        0
 40
-0.6
 41
-30.0
 62
     5
 63
     8
421
  8421504
 74
     1
 91
        4
 64
     7
 65
   257
 75
     1
175
     1
 42
1.0
 92
        8
 66
     8
424
  8421504
 43
1.0
 76
     1
 77
     6
 78
     2
 67
     7
 79
     5
170
     0
171
     0
290
     0
174
     0
 93
        1
 44
0.0
173
     0
291
     1
 45
0.0
  0
VISUALSTYLE
  5
288
102
{ACAD_REACTORS
330
27F
102
}
330
27F
100
AcDbVisualStyle
  2
Conceptual
 70
     9
 71
     3
 72
     2
 73
     0
 90
        0
 40
-0.6
 41
-30.0
 62
     5
 63
     7
421
 16777215
 74
     2
 91
        2
 64
     7
 65
   257
 75
     1
175
     1
 42
40.0
 92
        8
 66
     7
 43
1.0
 76
     1
 77
     6
 78
     2
 67
     7
 79
     3
170
     0
171
     0
290
     0
174
     0
 93
        1
 44
0.0
173
     0
291
     0
 45
0.0
  0
VISUALSTYLE
  5
28A
102
{ACAD_REACTORS
330
27F
102
}
330
27F
100
AcDbVisualStyle
  2
Dim
 70
    11
 71
     2
 72
     2
 73
     0
 90
        0
 40
-0.6
 41
-30.0
 62
     5
 63
     7
421
 16777215
 74
     1
 91
        4
 64
     7
 65
   257
 75
     1
175
     1
 42
1.0
 92
        8
 66
     7
 43
1.0
 76
     1
 77
     6
 78
     2
 67
     7
 79
     5
170
     0
171
     0
290
     0
174
     0
 93
        1
 44
-50.0
173
     0
291
     1
 45
0.0
  0
VISUALSTYLE
  5
28E
102
{ACAD_REACTORS
330
27F
102
}
330
27F
100
AcDbVisualStyle
  2
Facepattern
 70
    15
 71
     2
 72
     2
 73
     0
 90
        0
 40
-0.6
 41
-30.0
 62
     5
 63
     7
421
 16777215
 74
     1
 91
        4
 64
     7
 65
   257
 75
     1
175
     1
 42
1.0
 92
        8
 66
     7
 43
1.0
 76
     1
 77
     6
 78
     2
 67
     7
 79
     5
170
     0
171
     0
290
     0
174
     0
 93
        1
 44
0.0
173
     0
291
     1
 45
0.0
  0
VISUALSTYLE
  5
280
102
{ACAD_REACTORS
330
27F
102
}
330
27F
100
AcDbVisualStyle
  2
Flat
 70
     0
 71
     2
 72
     1
 73
     1
 90
        2
 40
-0.6
 41
30.0
 62
     5
 63
     7
421
 16777215
 74
     0
 91
        4
 64
     7
 65
   257
 75
     1
175
     1
 42
1.0
 92
        8
 66
     7
 43
1.0
 76
     1
 77
     6
 78
     2
 67
     7
 79
     5
170
     0
171
     0
290
     0
174
     0
 93
       13
 44
0.0
173
     0
291
     1
 45
0.0
  0
VISUALSTYLE
  5
281
102
{ACAD_REACTORS
330
27F
102
}
330
27F
100
AcDbVisualStyle
  2
FlatWithEdges
 70
     1
 71
     2
 72
     1
 73
     1
 90
        2
 40
-0.6
 41
30.0
 62
     5
 63
     7
421
 16777215
 74
     1
 91
        4
 64
     7
 65
   257
 75
     1
175
     1
 42
1.0
 92
        0
 66
   257
 43
1.0
 76
     1
 77
     6
 78
     2
 67
     7
 79
     5
170
     0
171
     0
290
     0
174
     0
 93
       13
 44
0.0
173
     0
291
     1
 45
0.0
  0
VISUALSTYLE
  5
282
102
{ACAD_REACTORS
330
27F
102
}
330
27F
100
AcDbVisualStyle
  2
Gouraud
 70
     2
 71
     2
 72
     2
 73
     1
 90
        2
 40
-0.6
 41
30.0
 62
     5
 63
     7
421
 16777215
 74
     0
 91
        4
 64
     7
 65
   257
 75
     1
175
     1
 42
1.0
 92
        0
 66
     7
 43
1.0
 76
     1
 77
     6
 78
     2
 67
     7
 79
     5
170
     0
171
     0
290
     0
174
     0
 93
       13
 44
0.0
173
     0
291
     1
 45
0.0
  0
VISUALSTYLE
  5
283
102
{ACAD_REACTORS
330
27F
102
}
330
27F
100
AcDbVisualStyle
  2
GouraudWithEdges
 70
     3
 71
     2
 72
     2
 73
     1
 90
        2
 40
-0.6
 41
30.0
 62
     5
 63
     7
421
 16777215
 74
     1
 91
        4
 64
     7
 65
   257
 75
     1
175
     1
 42
1.0
 92
        0
 66
   257
 43
1.0
 76
     1
 77
     6
 78
     2
 67
     7
 79
     5
170
     0
171
     0
290
     0
174
     0
 93
       13
 44
0.0
173
     0
291
     1
 45
0.0
  0
VISUALSTYLE
  5
28D
102
{ACAD_REACTORS
330
27F
102
}
330
27F
100
AcDbVisualStyle
  2
Linepattern
 70
    14
 71
     2
 72
     2
 73
     0
 90
        0
 40
-0.6
 41
-30.0
 62
     5
 63
     7
421
 16777215
 74
     1
 91
        4
 64
     7
 65
   257
 75
     7
175
     7
 42
1.0
 92
        8
 66
     7
 43
1.0
 76
     1
 77
     6
 78
     2
 67
     7
 79
     5
170
     0
171
     0
290
     0
174
     0
 93
        1
 44
0.0
173
     0
291
     1
 45
0.0
  0
VISUALSTYLE
  5
289
102
{ACAD_REACTORS
330
27F
102
}
330
27F
100
AcDbVisualStyle
  2
Realistic
 70
     8
 71
     2
 72
     2
 73
     0
 90
        0
 40
-0.6
 41
-30.0
 62
     5
 63
     7
421
 16777215
 74
     1
 91
        0
 64
     7
 65
   257
 75
     1
175
     1
 42
1.0
 92
        8
 66
     8
424
  7895160
 43
1.0
 76
     1
 77
     6
 78
     2
 67
     7
 79
     5
170
     0
171
     0
290
     0
174
     0
 93
       13
 44
0.0
173
     0
291
     0
 45
0.0
  0
VISUALSTYLE
  5
28C
102
{ACAD_REACTORS
330
27F
102
}
330
27F
100
AcDbVisualStyle
  2
Thicken
 70
    13
 71
     2
 72
     2
 73
     0
 90
        0
 40
-0.6
 41
-30.0
 62
     5
 63
     7
421
 16777215
 74
     1
 91
        4
 64
     7
 65
   257
 75
     1
175
     1
 42
1.0
 92
       12
 66
     7
 43
1.0
 76
     1
 77
     6
 78
     2
 67
     7
 79
     5
170
     0
171
     0
290
     0
174
     0
 93
        1
 44
0.0
173
     0
291
     1
 45
0.0
  0
DICTIONARYVAR
  5
2FA
102
{ACAD_REACTORS
330
34
102
}
330
34
100
DictionaryVariables
280
     0
  1
1:5
  0
DICTIONARYVAR
  5
2F8
102
{ACAD_REACTORS
330
34
102
}
330
34
100
DictionaryVariables
280
     0
  1
STANDARD
  0
DICTIONARYVAR
  5
140
102
{ACAD_REACTORS
330
34
102
}
330
34
100
DictionaryVariables
280
     0
  1
STANDARD
  0
DICTIONARYVAR
  5
AC
102
{ACAD_REACTORS
330
34
102
}
330
34
100
DictionaryVariables
280
     0
  1
1
  0
DICTIONARYVAR
  5
35
102
{ACAD_REACTORS
330
34
102
}
330
34
100
DictionaryVariables
280
     0
  1
1
  0
DICTIONARYVAR
  5
4DD7
102
{ACAD_REACTORS
330
34
102
}
330
34
100
DictionaryVariables
280
     0
  1
1
  0
DICTIONARYVAR
  5
4DD8
102
{ACAD_REACTORS
330
34
102
}
330
34
100
DictionaryVariables
280
     0
  1
15
  0
DICTIONARYVAR
  5
2FB
102
{ACAD_REACTORS
330
34
102
}
330
34
100
DictionaryVariables
280
     0
  1
0
  0
DICTIONARYVAR
  5
2F9
102
{ACAD_REACTORS
330
34
102
}
330
34
100
DictionaryVariables
280
     0
  1
0
  0
DICTIONARY
  5
161B
102
{ACAD_REACTORS
330
49
102
}
330
49
100
AcDbDictionary
281
     1
  0
DICTIONARY
  5
4A
102
{ACAD_REACTORS
330
49
102
}
330
49
100
AcDbDictionary
281
     1
  0
XRECORD
  5
12B
102
{ACAD_REACTORS
330
49
102
}
330
49
100
AcDbXrecord
280
     1
 90
-1023410169
  0
DICTIONARY
  5
2F5
330
122
100
AcDbDictionary
280
     1
281
     1
  3
ACAD_ROUNDTRIP_2008_TABLESTYLE_CELLSTYLEMAP
360
956E
  0
CELLSTYLEMAP
  5
956E
102
{ACAD_REACTORS
330
2F5
102
}
330
2F5
100
AcDbCellStyleMap
 90
        3
300
CELLSTYLE
  1
TABLEFORMAT_BEGIN
 90
        5
170
     1
 91
        0
 92
    32768
 62
   257
 93
        1
300
CONTENTFORMAT
  1
CONTENTFORMAT_BEGIN
 90
        0
 91
        0
 92
      512
 93
        0
300

 40
0.0
140
1.0
 94
        5
 62
     0
340
11
144
6.0
309
CONTENTFORMAT_END
171
     1
301
MARGIN
  1
CELLMARGIN_BEGIN
 40
1.5
 40
1.5
 40
1.5
 40
1.5
 40
0.18
 40
0.18
309
CELLMARGIN_END
 94
        6
 95
        1
302
GRIDFORMAT
  1
GRIDFORMAT_BEGIN
 90
        0
 91
        1
 62
     0
 92
       -2
340
0
 93
        0
 40
0.045
309
GRIDFORMAT_END
 95
        2
302
GRIDFORMAT
  1
GRIDFORMAT_BEGIN
 90
        0
 91
        1
 62
     0
 92
       -2
340
0
 93
        0
 40
0.045
309
GRIDFORMAT_END
 95
        4
302
GRIDFORMAT
  1
GRIDFORMAT_BEGIN
 90
        0
 91
        1
 62
     0
 92
       -2
340
0
 93
        0
 40
0.045
309
GRIDFORMAT_END
 95
        8
302
GRIDFORMAT
  1
GRIDFORMAT_BEGIN
 90
        0
 91
        1
 62
     0
 92
       -2
340
0
 93
        0
 40
0.045
309
GRIDFORMAT_END
 95
       16
302
GRIDFORMAT
  1
GRIDFORMAT_BEGIN
 90
        0
 91
        1
 62
     0
 92
       -2
340
0
 93
        0
 40
0.045
309
GRIDFORMAT_END
 95
       32
302
GRIDFORMAT
  1
GRIDFORMAT_BEGIN
 90
        0
 91
        1
 62
     0
 92
       -2
340
0
 93
        0
 40
0.045
309
GRIDFORMAT_END
309
TABLEFORMAT_END
  1
CELLSTYLE_BEGIN
 90
        1
 91
        1
300
_TITLE
309
CELLSTYLE_END
300
CELLSTYLE
  1
TABLEFORMAT_BEGIN
 90
        5
170
     1
 91
        0
 92
        0
 62
   257
 93
        1
300
CONTENTFORMAT
  1
CONTENTFORMAT_BEGIN
 90
        0
 91
        0
 92
      512
 93
        0
300

 40
0.0
140
1.0
 94
        5
 62
     0
340
11
144
4.5
309
CONTENTFORMAT_END
171
     1
301
MARGIN
  1
CELLMARGIN_BEGIN
 40
1.5
 40
1.5
 40
1.5
 40
1.5
 40
0.18
 40
0.18
309
CELLMARGIN_END
 94
        6
 95
        1
302
GRIDFORMAT
  1
GRIDFORMAT_BEGIN
 90
        0
 91
        1
 62
     0
 92
       -2
340
0
 93
        0
 40
0.045
309
GRIDFORMAT_END
 95
        2
302
GRIDFORMAT
  1
GRIDFORMAT_BEGIN
 90
        0
 91
        1
 62
     0
 92
       -2
340
0
 93
        0
 40
0.045
309
GRIDFORMAT_END
 95
        4
302
GRIDFORMAT
  1
GRIDFORMAT_BEGIN
 90
        0
 91
        1
 62
     0
 92
       -2
340
0
 93
        0
 40
0.045
309
GRIDFORMAT_END
 95
        8
302
GRIDFORMAT
  1
GRIDFORMAT_BEGIN
 90
        0
 91
        1
 62
     0
 92
       -2
340
0
 93
        0
 40
0.045
309
GRIDFORMAT_END
 95
       16
302
GRIDFORMAT
  1
GRIDFORMAT_BEGIN
 90
        0
 91
        1
 62
     0
 92
       -2
340
0
 93
        0
 40
0.045
309
GRIDFORMAT_END
 95
       32
302
GRIDFORMAT
  1
GRIDFORMAT_BEGIN
 90
        0
 91
        1
 62
     0
 92
       -2
340
0
 93
        0
 40
0.045
309
GRIDFORMAT_END
309
TABLEFORMAT_END
  1
CELLSTYLE_BEGIN
 90
        2
 91
        1
300
_HEADER
309
CELLSTYLE_END
300
CELLSTYLE
  1
TABLEFORMAT_BEGIN
 90
        5
170
     1
 91
        0
 92
        0
 62
   257
 93
        1
300
CONTENTFORMAT
  1
CONTENTFORMAT_BEGIN
 90
        0
 91
        0
 92
      512
 93
        0
300

 40
0.0
140
1.0
 94
        2
 62
     0
340
11
144
4.5
309
CONTENTFORMAT_END
171
     1
301
MARGIN
  1
CELLMARGIN_BEGIN
 40
1.5
 40
1.5
 40
1.5
 40
1.5
 40
0.18
 40
0.18
309
CELLMARGIN_END
 94
        6
 95
        1
302
GRIDFORMAT
  1
GRIDFORMAT_BEGIN
 90
        0
 91
        1
 62
     0
 92
       -2
340
0
 93
        0
 40
0.045
309
GRIDFORMAT_END
 95
        2
302
GRIDFORMAT
  1
GRIDFORMAT_BEGIN
 90
        0
 91
        1
 62
     0
 92
       -2
340
0
 93
        0
 40
0.045
309
GRIDFORMAT_END
 95
        4
302
GRIDFORMAT
  1
GRIDFORMAT_BEGIN
 90
        0
 91
        1
 62
     0
 92
       -2
340
0
 93
        0
 40
0.045
309
GRIDFORMAT_END
 95
        8
302
GRIDFORMAT
  1
GRIDFORMAT_BEGIN
 90
        0
 91
        1
 62
     0
 92
       -2
340
0
 93
        0
 40
0.045
309
GRIDFORMAT_END
 95
       16
302
GRIDFORMAT
  1
GRIDFORMAT_BEGIN
 90
        0
 91
        1
 62
     0
 92
       -2
340
0
 93
        0
 40
0.045
309
GRIDFORMAT_END
 95
       32
302
GRIDFORMAT
  1
GRIDFORMAT_BEGIN
 90
        0
 91
        1
 62
     0
 92
       -2
340
0
 93
        0
 40
0.045
309
GRIDFORMAT_END
309
TABLEFORMAT_END
  1
CELLSTYLE_BEGIN
 90
        3
 91
        2
300
_DATA
309
CELLSTYLE_END
  0
ENDSEC
  0
EOF
